  0
SECTION
  2
HEADER
  9
$ACADVER
  1
AC1015
  9
$ACADMAINTVER
 70
     6
  9
$DWGCODEPAGE
  3
ANSI_1252
  9
$INSBASE
 10
0.0
 20
0.0
 30
0.0
  9
$EXTMIN
 10
0.0
 20
0.0
 30
0.0
  9
$EXTMAX
 10
279.4
 20
215.9
 30
0.0
  9
$LIMMIN
 10
0.0
 20
0.0
  9
$LIMMAX
 10
279.4
 20
215.9
  9
$ORTHOMODE
 70
     0
  9
$REGENMODE
 70
     1
  9
$FILLMODE
 70
     1
  9
$QTEXTMODE
 70
     0
  9
$MIRRTEXT
 70
     1
  9
$LTSCALE
 40
1.0
  9
$ATTMODE
 70
     1
  9
$TEXTSIZE
 40
2.8222222222
  9
$TRACEWID
 40
1.0
  9
$TEXTSTYLE
  7
Standard
  9
$CLAYER
  8
0
  9
$CELTYPE
  6
ByLayer
  9
$CECOLOR
 62
   256
  9
$CELTSCALE
 40
1.0
  9
$DISPSILH
 70
     0
  9
$DIMSCALE
 40
1.0
  9
$DIMASZ
 40
3.175
  9
$DIMEXO
 40
1.27
  9
$DIMDLI
 40
3.75
  9
$DIMRND
 40
0.0
  9
$DIMDLE
 40
0.0
  9
$DIMEXE
 40
1.778
  9
$DIMTP
 40
0.0
  9
$DIMTM
 40
0.0
  9
$DIMTXT
 40
2.8222222222
  9
$DIMCEN
 40
2.5
  9
$DIMTSZ
 40
0.0
  9
$DIMTOL
 70
     0
  9
$DIMLIM
 70
     0
  9
$DIMTIH
 70
     1
  9
$DIMTOH
 70
     1
  9
$DIMSE1
 70
     0
  9
$DIMSE2
 70
     0
  9
$DIMTAD
 70
     1
  9
$DIMZIN
 70
     1
  9
$DIMBLK
  1

  9
$DIMASO
 70
     1
  9
$DIMSHO
 70
     1
  9
$DIMPOST
  1

  9
$DIMAPOST
  1

  9
$DIMALT
 70
     0
  9
$DIMALTD
 70
     3
  9
$DIMALTF
 40
0.0393700787
  9
$DIMLFAC
 40
0.5
  9
$DIMTOFL
 70
     1
  9
$DIMTVP
 40
0.0
  9
$DIMTIX
 70
     0
  9
$DIMSOXD
 70
     0
  9
$DIMSAH
 70
     0
  9
$DIMBLK1
  1

  9
$DIMBLK2
  1

  9
$DIMSTYLE
  2
ISO-25
  9
$DIMCLRD
 70
     0
  9
$DIMCLRE
 70
     0
  9
$DIMCLRT
 70
     0
  9
$DIMTFAC
 40
1.0
  9
$DIMGAP
 40
2.54
  9
$DIMJUST
 70
     0
  9
$DIMSD1
 70
     0
  9
$DIMSD2
 70
     0
  9
$DIMTOLJ
 70
     0
  9
$DIMTZIN
 70
     1
  9
$DIMALTZ
 70
     0
  9
$DIMALTTZ
 70
     0
  9
$DIMUPT
 70
     0
  9
$DIMDEC
 70
     1
  9
$DIMTDEC
 70
     1
  9
$DIMALTU
 70
     2
  9
$DIMALTTD
 70
     3
  9
$DIMTXSTY
  7
Standard
  9
$DIMAUNIT
 70
     0
  9
$DIMADEC
 70
     0
  9
$DIMALTRND
 40
0.0
  9
$DIMAZIN
 70
     0
  9
$DIMDSEP
 70
    44
  9
$DIMATFIT
 70
     3
  9
$DIMFRAC
 70
     0
  9
$DIMLDRBLK
  1

  9
$DIMLUNIT
 70
     2
  9
$DIMLWD
 70
    -2
  9
$DIMLWE
 70
    -2
  9
$DIMTMOVE
 70
     0
  9
$LUNITS
 70
     2
  9
$LUPREC
 70
     1
  9
$SKETCHINC
 40
1.0
  9
$FILLETRAD
 40
10.0
  9
$AUNITS
 70
     0
  9
$AUPREC
 70
     0
  9
$MENU
  1
.
  9
$ELEVATION
 40
0.0
  9
$PELEVATION
 40
0.0
  9
$THICKNESS
 40
0.0
  9
$LIMCHECK
 70
     0
  9
$CHAMFERA
 40
10.0
  9
$CHAMFERB
 40
10.0
  9
$CHAMFERC
 40
20.0
  9
$CHAMFERD
 40
0.0
  9
$SKPOLY
 70
     0
  9
$TDCREATE
 40
2455818.623107211
  9
$TDUCREATE
 40
2455818.789773877
  9
$TDUPDATE
 40
2455818.623107222
  9
$TDUUPDATE
 40
2455818.789773889
  9
$TDINDWG
 40
0.0000000116
  9
$TDUSRTIMER
 40
0.0000000116
  9
$USRTIMER
 70
     1
  9
$ANGBASE
 50
0.0
  9
$ANGDIR
 70
     0
  9
$PDMODE
 70
     0
  9
$PDSIZE
 40
-1.0
  9
$PLINEWID
 40
0.0
  9
$SPLFRAME
 70
     0
  9
$SPLINETYPE
 70
     6
  9
$SPLINESEGS
 70
     8
  9
$HANDSEED
  5
2BB
  9
$SURFTAB1
 70
     6
  9
$SURFTAB2
 70
     6
  9
$SURFTYPE
 70
     6
  9
$SURFU
 70
     6
  9
$SURFV
 70
     6
  9
$UCSBASE
  2

  9
$UCSNAME
  2

  9
$UCSORG
 10
0.0
 20
0.0
 30
0.0
  9
$UCSXDIR
 10
1.0
 20
0.0
 30
0.0
  9
$UCSYDIR
 10
0.0
 20
1.0
 30
0.0
  9
$UCSORTHOREF
  2

  9
$UCSORTHOVIEW
 70
     0
  9
$UCSORGTOP
 10
0.0
 20
0.0
 30
0.0
  9
$UCSORGBOTTOM
 10
0.0
 20
0.0
 30
0.0
  9
$UCSORGLEFT
 10
0.0
 20
0.0
 30
0.0
  9
$UCSORGRIGHT
 10
0.0
 20
0.0
 30
0.0
  9
$UCSORGFRONT
 10
0.0
 20
0.0
 30
0.0
  9
$UCSORGBACK
 10
0.0
 20
0.0
 30
0.0
  9
$PUCSBASE
  2

  9
$PUCSNAME
  2

  9
$PUCSORG
 10
0.0
 20
0.0
 30
0.0
  9
$PUCSXDIR
 10
1.0
 20
0.0
 30
0.0
  9
$PUCSYDIR
 10
0.0
 20
1.0
 30
0.0
  9
$PUCSORTHOREF
  2

  9
$PUCSORTHOVIEW
 70
     0
  9
$PUCSORGTOP
 10
0.0
 20
0.0
 30
0.0
  9
$PUCSORGBOTTOM
 10
0.0
 20
0.0
 30
0.0
  9
$PUCSORGLEFT
 10
0.0
 20
0.0
 30
0.0
  9
$PUCSORGRIGHT
 10
0.0
 20
0.0
 30
0.0
  9
$PUCSORGFRONT
 10
0.0
 20
0.0
 30
0.0
  9
$PUCSORGBACK
 10
0.0
 20
0.0
 30
0.0
  9
$USERI1
 70
     0
  9
$USERI2
 70
     0
  9
$USERI3
 70
     0
  9
$USERI4
 70
     0
  9
$USERI5
 70
     0
  9
$USERR1
 40
0.0
  9
$USERR2
 40
0.0
  9
$USERR3
 40
0.0
  9
$USERR4
 40
0.0
  9
$USERR5
 40
0.0
  9
$WORLDVIEW
 70
     1
  9
$SHADEDGE
 70
     3
  9
$SHADEDIF
 70
    70
  9
$TILEMODE
 70
     1
  9
$MAXACTVP
 70
    64
  9
$PINSBASE
 10
0.0
 20
0.0
 30
0.0
  9
$PLIMCHECK
 70
     0
  9
$PEXTMIN
 10
1.0000000000E+20
 20
1.0000000000E+20
 30
1.0000000000E+20
  9
$PEXTMAX
 10
-1.0000000000E+20
 20
-1.0000000000E+20
 30
-1.0000000000E+20
  9
$PLIMMIN
 10
0.0
 20
0.0
  9
$PLIMMAX
 10
420.0
 20
297.0
  9
$UNITMODE
 70
     0
  9
$VISRETAIN
 70
     1
  9
$PLINEGEN
 70
     0
  9
$PSLTSCALE
 70
     1
  9
$TREEDEPTH
 70
  3020
  9
$CMLSTYLE
  2
Standard
  9
$CMLJUST
 70
     0
  9
$CMLSCALE
 40
20.0
  9
$PROXYGRAPHICS
 70
     1
  9
$MEASUREMENT
 70
     1
  9
$CELWEIGHT
370
    -1
  9
$ENDCAPS
280
     0
  9
$JOINSTYLE
280
     0
  9
$LWDISPLAY
290
     1
  9
$INSUNITS
 70
     4
  9
$HYPERLINKBASE
  1

  9
$STYLESHEET
  1

  9
$XEDIT
290
     1
  9
$CEPSNTYPE
380
     0
  9
$PSTYLEMODE
290
     1
  9
$FINGERPRINTGUID
  2
{0753475C-9A42-439A-9A21-68BB399C97A7}
  9
$VERSIONGUID
  2
{FAEB1C32-E019-11D5-929B-00C0DF256EC4}
  9
$EXTNAMES
290
     1
  9
$PSVPSCALE
 40
0.0
  9
$OLESTARTUP
290
     0
  0
ENDSEC
  0
SECTION
  2
CLASSES
  0
CLASS
  1
ACDBDICTIONARYWDFLT
  2
AcDbDictionaryWithDefault
  3
ObjectDBX Classes
 90
        0
280
     0
281
     0
  0
CLASS
  1
VISUALSTYLE
  2
AcDbVisualStyle
  3
ObjectDBX Classes
 90
     4095
280
     0
281
     0
  0
CLASS
  1
MATERIAL
  2
AcDbMaterial
  3
ObjectDBX Classes
 90
     1153
280
     0
281
     0
  0
CLASS
  1
ACDBPLACEHOLDER
  2
AcDbPlaceHolder
  3
ObjectDBX Classes
 90
        0
280
     0
281
     0
  0
CLASS
  1
LAYOUT
  2
AcDbLayout
  3
ObjectDBX Classes
 90
        0
280
     0
281
     0
  0
ENDSEC
  0
SECTION
  2
TABLES
  0
TABLE
  2
VPORT
  5
8
330
0
100
AcDbSymbolTable
 70
     1
  0
VPORT
  5
29
330
8
100
AcDbSymbolTableRecord
100
AcDbViewportTableRecord
  2
*Active
 70
     0
 10
0.0
 20
0.0
 11
1.0
 21
1.0
 12
139.7
 22
107.95
 13
0.0
 23
0.0
 14
10.0
 24
10.0
 15
10.0
 25
10.0
 16
0.0
 26
0.0
 36
1.0
 17
0.0
 27
0.0
 37
0.0
 40
215.9
 41
1.2941176471
 42
50.0
 43
0.0
 44
0.0
 50
0.0
 51
0.0
 71
     0
 72
  2000
 73
     1
 74
     3
 75
     0
 76
     0
 77
     0
 78
     0
281
     0
 65
     1
110
0.0
120
0.0
130
0.0
111
1.0
121
0.0
131
0.0
112
0.0
122
1.0
132
0.0
 79
     0
146
0.0
  0
ENDTAB
  0
TABLE
  2
LTYPE
  5
5
330
0
100
AcDbSymbolTable
 70
     6
  0
LTYPE
  5
14
330
5
100
AcDbSymbolTableRecord
100
AcDbLinetypeTableRecord
  2
ByBlock
 70
     0
  3

 72
    65
 73
     0
 40
0.0
  0
LTYPE
  5
15
330
5
100
AcDbSymbolTableRecord
100
AcDbLinetypeTableRecord
  2
ByLayer
 70
     0
  3

 72
    65
 73
     0
 40
0.0
  0
LTYPE
  5
16
330
5
100
AcDbSymbolTableRecord
100
AcDbLinetypeTableRecord
  2
Continuous
 70
     0
  3
Solid line
 72
    65
 73
     0
 40
0.0
  0
LTYPE
  5
3F
330
5
100
AcDbSymbolTableRecord
100
AcDbLinetypeTableRecord
  2
HIDDEN
 70
     0
  3
Hidden __ __ __ __ __ __ __ __ __ __ __ __ __ __
 72
    65
 73
     2
 40
1.905
 49
1.27
 74
     0
 49
-0.635
 74
     0
  0
LTYPE
  5
40
330
5
100
AcDbSymbolTableRecord
100
AcDbLinetypeTableRecord
  2
PHANTOM
 70
     0
  3
Phantom ______  __  __  ______  __  __  ______
 72
    65
 73
     6
 40
12.7
 49
6.35
 74
     0
 49
-1.27
 74
     0
 49
1.27
 74
     0
 49
-1.27
 74
     0
 49
1.27
 74
     0
 49
-1.27
 74
     0
  0
LTYPE
  5
41
330
5
100
AcDbSymbolTableRecord
100
AcDbLinetypeTableRecord
  2
CENTER
 70
     0
  3
Center ____ _ ____ _ ____ _ ____ _ ____ _ ____
 72
    65
 73
     4
 40
10.16
 49
6.35
 74
     0
 49
-1.27
 74
     0
 49
1.27
 74
     0
 49
-1.27
 74
     0
  0
LTYPE
  5
42
330
5
100
AcDbSymbolTableRecord
100
AcDbLinetypeTableRecord
  2
CENTERX2
 70
     0
  3
Center (2x) ________  __  ________  __  _____
 72
    65
 73
     4
 40
20.32
 49
12.7
 74
     0
 49
-2.54
 74
     0
 49
2.54
 74
     0
 49
-2.54
 74
     0
  0
LTYPE
  5
43
330
5
100
AcDbSymbolTableRecord
100
AcDbLinetypeTableRecord
  2
DOT2
 70
     0
  3
Dot (.5x) ........................................
 72
    65
 73
     2
 40
0.635
 49
0.0
 74
     0
 49
-0.635
 74
     0
  0
ENDTAB
  0
TABLE
  2
LAYER
  5
2
330
0
100
AcDbSymbolTable
 70
     2
  0
LAYER
  5
10
330
2
100
AcDbSymbolTableRecord
100
AcDbLayerTableRecord
  2
0
 70
     0
 62
     7
  6
Continuous
370
    -3
390
F
  0
LAYER
  5
44
330
2
100
AcDbSymbolTableRecord
100
AcDbLayerTableRecord
  2
FORMAT
 70
     0
 62
     7
  6
Continuous
370
    -3
390
F
  0
ENDTAB
  0
TABLE
  2
STYLE
  5
3
330
0
100
AcDbSymbolTable
 70
     4
  0
STYLE
  5
11
330
3
100
AcDbSymbolTableRecord
100
AcDbTextStyleTableRecord
  2
Standard
 70
     0
 40
0.0
 41
1.0
 50
0.0
 71
     0
 42
2.5
  3
txt
  4

  0
STYLE
  5
6C
330
3
100
AcDbSymbolTableRecord
100
AcDbTextStyleTableRecord
  2
SLDTEXTSTYLE0
 70
     0
 40
0.0
 41
0.75
 50
0.0
 71
     0
 42
0.2
  3
TXT
  4

  0
STYLE
  5
79
330
3
100
AcDbSymbolTableRecord
100
AcDbTextStyleTableRecord
  2
SLDTEXTSTYLE1
 70
     0
 40
0.0
 41
0.6
 50
0.0
 71
     0
 42
0.2
  3
TXT
  4

  0
STYLE
  5
A8
330
3
100
AcDbSymbolTableRecord
100
AcDbTextStyleTableRecord
  2
SLDTEXTSTYLE2
 70
     0
 40
0.0
 41
0.7
 50
0.0
 71
     0
 42
0.2
  3
TXT
  4

  0
ENDTAB
  0
TABLE
  2
VIEW
  5
6
330
0
100
AcDbSymbolTable
 70
     0
  0
ENDTAB
  0
TABLE
  2
UCS
  5
7
330
0
100
AcDbSymbolTable
 70
     0
  0
ENDTAB
  0
TABLE
  2
APPID
  5
9
330
0
100
AcDbSymbolTable
 70
     1
  0
APPID
  5
12
330
9
100
AcDbSymbolTableRecord
100
AcDbRegAppTableRecord
  2
ACAD
 70
     0
  0
ENDTAB
  0
TABLE
  2
DIMSTYLE
  5
A
330
0
100
AcDbSymbolTable
 70
     8
100
AcDbDimStyleTable
  0
DIMSTYLE
105
27
330
A
100
AcDbSymbolTableRecord
100
AcDbDimStyleTableRecord
  2
ISO-25
 70
     0
 41
2.5
 42
0.625
 43
3.75
 44
1.25
 73
     0
 74
     0
 77
     1
 78
     8
140
2.5
141
2.5
143
0.0393700787
147
0.625
171
     3
172
     1
178
     0
271
     2
272
     2
274
     3
278
    44
283
     0
284
     8
340
11
  0
DIMSTYLE
105
17D
102
{ACAD_REACTORS
330
17C
330
190
330
1A2
330
1CA
102
}
330
A
100
AcDbSymbolTableRecord
100
AcDbDimStyleTableRecord
  2
SLDDIMSTYLE0
 70
     0
 41
3.175
 44
0.0
 45
0.000000001
 78
    12
 79
     3
140
2.1166666667
143
0.0393700787
147
0.5291666667
148
0.000000001
170
     1
173
     1
178
     0
271
     1
272
     1
276
     2
284
    12
340
6C
  0
DIMSTYLE
105
1B7
102
{ACAD_REACTORS
330
1B6
330
1DD
330
1F1
330
232
102
}
330
A
100
AcDbSymbolTableRecord
100
AcDbDimStyleTableRecord
  2
SLDDIMSTYLE1
 70
     0
 41
3.175
 44
0.0
 45
0.000000001
 78
    12
 79
     3
140
2.1166666667
143
0.0393700787
147
0.5291666667
148
0.000000001
170
     1
172
     1
173
     1
178
     0
271
     1
272
     1
276
     2
284
    12
289
     0
340
6C
  0
DIMSTYLE
105
206
330
A
100
AcDbSymbolTableRecord
100
AcDbDimStyleTableRecord
  2
SLDDIMSTYLE2
 70
     0
 41
3.175
 44
0.0
 45
0.000000001
140
0.0
146
3.175
147
0.0
173
     1
178
     0
271
     0
272
     0
276
     2
340
11
  0
DIMSTYLE
105
215
102
{ACAD_REACTORS
330
214
102
}
330
A
100
AcDbSymbolTableRecord
100
AcDbDimStyleTableRecord
  2
SLDDIMSTYLE3
 70
     0
 41
3.175
 44
0.0
 78
    12
 79
     3
140
2.1166666667
143
0.0393700787
147
0.5291666667
148
0.000000001
170
     1
173
     1
178
     0
272
     0
276
     2
284
    12
340
6C
  0
DIMSTYLE
105
222
102
{ACAD_REACTORS
330
221
330
258
102
}
330
A
100
AcDbSymbolTableRecord
100
AcDbDimStyleTableRecord
  2
SLDDIMSTYLE4
 70
     0
 41
3.175
 44
0.0
 45
0.000000001
 78
    12
 79
     3
140
2.1166666667
141
0.0
143
0.0393700787
147
0.5291666667
148
0.000000001
170
     1
173
     1
178
     0
271
     1
272
     1
276
     2
284
    12
340
6C
  0
DIMSTYLE
105
245
102
{ACAD_REACTORS
330
244
102
}
330
A
100
AcDbSymbolTableRecord
100
AcDbDimStyleTableRecord
  2
SLDDIMSTYLE5
 70
     0
  3
<>
  4
<>
 41
3.175
 44
0.0
 45
0.000000001
 78
    12
 79
     3
140
2.1166666667
141
0.0
143
0.0393700787
147
0.5291666667
148
0.000000001
170
     1
173
     1
178
     0
271
     1
272
     1
276
     2
284
    12
340
6C
  0
DIMSTYLE
105
28F
330
A
100
AcDbSymbolTableRecord
100
AcDbDimStyleTableRecord
  2
SLDDIMSTYLE6
 70
     0
 41
1.016
 44
0.0
 45
0.000000001
140
0.0
146
1.016
147
0.0
173
     1
178
     0
271
     0
272
     0
276
     2
340
11
341
290
343
290
344
290
  0
ENDTAB
  0
TABLE
  2
BLOCK_RECORD
  5
1
330
0
100
AcDbSymbolTable
 70
    25
  0
BLOCK_RECORD
  5
1F
330
1
100
AcDbSymbolTableRecord
100
AcDbBlockTableRecord
  2
*Model_Space
340
22
  0
BLOCK_RECORD
  5
1B
330
1
100
AcDbSymbolTableRecord
100
AcDbBlockTableRecord
  2
*Paper_Space
340
1E
  0
BLOCK_RECORD
  5
23
330
1
100
AcDbSymbolTableRecord
100
AcDbBlockTableRecord
  2
*Paper_Space0
340
26
  0
BLOCK_RECORD
  5
45
330
1
100
AcDbSymbolTableRecord
100
AcDbBlockTableRecord
  2
Third Angle Projection Block
340
0
102
{BLKREFS
331
6A
102
}
  0
BLOCK_RECORD
  5
7F
330
1
100
AcDbSymbolTableRecord
100
AcDbBlockTableRecord
  2
SW_NOTE_0
340
0
102
{BLKREFS
331
84
102
}
  0
BLOCK_RECORD
  5
85
330
1
100
AcDbSymbolTableRecord
100
AcDbBlockTableRecord
  2
SW_NOTE_1
340
0
102
{BLKREFS
331
8A
102
}
  0
BLOCK_RECORD
  5
8C
330
1
100
AcDbSymbolTableRecord
100
AcDbBlockTableRecord
  2
SW_NOTE_2
340
0
102
{BLKREFS
331
91
102
}
  0
BLOCK_RECORD
  5
93
330
1
100
AcDbSymbolTableRecord
100
AcDbBlockTableRecord
  2
SW_NOTE_3
340
0
102
{BLKREFS
331
98
102
}
  0
BLOCK_RECORD
  5
99
330
1
100
AcDbSymbolTableRecord
100
AcDbBlockTableRecord
  2
SW_NOTE_4
340
0
102
{BLKREFS
331
B7
102
}
  0
BLOCK_RECORD
  5
17E
330
1
100
AcDbSymbolTableRecord
100
AcDbBlockTableRecord
  2
*D7
340
0
  0
BLOCK_RECORD
  5
191
330
1
100
AcDbSymbolTableRecord
100
AcDbBlockTableRecord
  2
*D8
340
0
  0
BLOCK_RECORD
  5
1A3
330
1
100
AcDbSymbolTableRecord
100
AcDbBlockTableRecord
  2
*D9
340
0
  0
BLOCK_RECORD
  5
1B8
330
1
100
AcDbSymbolTableRecord
100
AcDbBlockTableRecord
  2
*D10
340
0
  0
BLOCK_RECORD
  5
1CB
330
1
100
AcDbSymbolTableRecord
100
AcDbBlockTableRecord
  2
*D11
340
0
  0
BLOCK_RECORD
  5
1DE
330
1
100
AcDbSymbolTableRecord
100
AcDbBlockTableRecord
  2
*D12
340
0
  0
BLOCK_RECORD
  5
1F2
330
1
100
AcDbSymbolTableRecord
100
AcDbBlockTableRecord
  2
*D13
340
0
  0
BLOCK_RECORD
  5
216
330
1
100
AcDbSymbolTableRecord
100
AcDbBlockTableRecord
  2
*D14
340
0
  0
BLOCK_RECORD
  5
223
330
1
100
AcDbSymbolTableRecord
100
AcDbBlockTableRecord
  2
*D15
340
0
  0
BLOCK_RECORD
  5
233
330
1
100
AcDbSymbolTableRecord
100
AcDbBlockTableRecord
  2
*D16
340
0
  0
BLOCK_RECORD
  5
246
330
1
100
AcDbSymbolTableRecord
100
AcDbBlockTableRecord
  2
*D17
340
0
  0
BLOCK_RECORD
  5
24F
330
1
100
AcDbSymbolTableRecord
100
AcDbBlockTableRecord
  2
SW_SYMBOL_HOLE_DEPTH
340
0
102
{BLKREFS
331
256
331
29D
102
}
  0
BLOCK_RECORD
  5
259
330
1
100
AcDbSymbolTableRecord
100
AcDbBlockTableRecord
  2
*D19
340
0
  0
BLOCK_RECORD
  5
263
330
1
100
AcDbSymbolTableRecord
100
AcDbBlockTableRecord
  2
SW_CENTERMARKSYMBOL_0
340
0
102
{BLKREFS
331
26A
102
}
  0
BLOCK_RECORD
  5
26B
330
1
100
AcDbSymbolTableRecord
100
AcDbBlockTableRecord
  2
SW_CENTERMARKSYMBOL_1
340
0
102
{BLKREFS
331
272
102
}
  0
BLOCK_RECORD
  5
289
330
1
100
AcDbSymbolTableRecord
100
AcDbBlockTableRecord
  2
SW_NOTE_5
340
0
102
{BLKREFS
331
28E
102
}
  0
BLOCK_RECORD
  5
290
330
1
100
AcDbSymbolTableRecord
100
AcDbBlockTableRecord
  2
_DOT
340
0
  0
BLOCK_RECORD
  5
299
330
1
100
AcDbSymbolTableRecord
100
AcDbBlockTableRecord
  2
SW_NOTE_6
340
0
102
{BLKREFS
331
2A0
102
}
  0
ENDTAB
  0
ENDSEC
  0
SECTION
  2
BLOCKS
  0
BLOCK
  5
20
330
1F
100
AcDbEntity
  8
0
100
AcDbBlockBegin
  2
*Model_Space
 70
     0
 10
0.0
 20
0.0
 30
0.0
  3
*Model_Space
  1

  0
ENDBLK
  5
21
330
1F
100
AcDbEntity
  8
0
100
AcDbBlockEnd
  0
BLOCK
  5
1C
330
1B
100
AcDbEntity
 67
     1
  8
0
100
AcDbBlockBegin
  2
*Paper_Space
 70
     0
 10
0.0
 20
0.0
 30
0.0
  3
*Paper_Space
  1

  0
ENDBLK
  5
1D
330
1B
100
AcDbEntity
 67
     1
  8
0
100
AcDbBlockEnd
  0
BLOCK
  5
24
330
23
100
AcDbEntity
  8
0
100
AcDbBlockBegin
  2
*Paper_Space0
 70
     0
 10
0.0
 20
0.0
 30
0.0
  3
*Paper_Space0
  1

  0
ENDBLK
  5
25
330
23
100
AcDbEntity
  8
0
100
AcDbBlockEnd
  0
BLOCK
  5
46
330
45
100
AcDbEntity
  8
0
100
AcDbBlockBegin
  2
Third Angle Projection Block
 70
     0
 10
0.0
 20
0.0
 30
0.0
  3
Third Angle Projection Block
  1

  0
CIRCLE
  5
48
330
45
100
AcDbEntity
  8
0
  6
Continuous
 62
     7
370
    30
100
AcDbCircle
 10
101.4766388944
 20
18.9404083667
 30
0.0
 40
1.768227153674871
  0
CIRCLE
  5
49
330
45
100
AcDbEntity
  8
0
  6
Continuous
 62
     7
370
    30
100
AcDbCircle
 10
101.4766388944
 20
18.9404083667
 30
0.0
 40
3.901228248531818
  0
LINE
  5
4A
330
45
100
AcDbEntity
  8
0
  6
CENTERX2
 62
     7
370
     0
100
AcDbLine
 10
110.1367822585
 20
18.9404083667
 30
0.0
 11
119.4527334874
 21
18.9404083667
 31
0.0
  0
LINE
  5
4B
330
45
100
AcDbEntity
  8
0
  6
Continuous
 62
     7
370
    30
100
AcDbLine
 10
111.0016388944
 20
20.7086355204
 30
0.0
 11
111.0016388944
 21
17.172181213
 31
0.0
  0
LINE
  5
4C
330
45
100
AcDbEntity
  8
0
  6
Continuous
 62
     7
370
    30
100
AcDbLine
 10
111.0016388944
 20
17.172181213
 30
0.0
 11
118.6216388944
 21
15.1304083667
 31
0.0
  0
LINE
  5
4D
330
45
100
AcDbEntity
  8
0
  6
Continuous
 62
     7
370
    30
100
AcDbLine
 10
118.6216388944
 20
15.1304083667
 30
0.0
 11
118.6216388944
 21
22.7504083667
 31
0.0
  0
LINE
  5
4E
330
45
100
AcDbEntity
  8
0
  6
Continuous
 62
     7
370
    30
100
AcDbLine
 10
118.6216388944
 20
22.7504083667
 30
0.0
 11
111.0016388944
 21
20.7086355204
 31
0.0
  0
LINE
  5
4F
330
45
100
AcDbEntity
  8
0
  6
CENTERX2
 62
     7
370
     0
100
AcDbLine
 10
96.6025854619
 20
18.9404083667
 30
0.0
 11
106.3506923269
 21
18.9404083667
 31
0.0
  0
LINE
  5
50
330
45
100
AcDbEntity
  8
0
  6
CENTERX2
 62
     7
370
     0
100
AcDbLine
 10
101.4766388944
 20
23.8144617992
 30
0.0
 11
101.4766388944
 21
14.0663549342
 31
0.0
  0
POINT
  5
51
330
45
100
AcDbEntity
  8
0
  6
Continuous
 62
     7
370
     0
100
AcDbPoint
 10
101.4766388944
 20
18.9404083667
 30
0.0
  0
ENDBLK
  5
47
330
45
100
AcDbEntity
  8
0
100
AcDbBlockEnd
  0
BLOCK
  5
80
330
7F
100
AcDbEntity
  8
0
100
AcDbBlockBegin
  2
SW_NOTE_0
 70
     0
 10
0.0
 20
0.0
 30
0.0
  3
SW_NOTE_0
  1

  0
MTEXT
  5
82
330
7F
100
AcDbEntity
  8
0
  6
Continuous
 62
     0
370
     0
100
AcDbMText
 10
19.90725
 20
1.9645392354
 30
0.0
 40
1.524
 41
0.0
 71
     2
 72
     1
  1
VALUES IN PARENTHESIS ARE CALCULATED
  7
SLDTEXTSTYLE0
 73
     1
 44
1.0
  0
MTEXT
  5
83
330
7F
100
AcDbEntity
  8
0
  6
Continuous
 62
     0
370
     0
100
AcDbMText
 10
19.8778795174
 20
-0.5594606586
 30
0.0
 40
1.524
 41
0.0
 71
     2
 72
     1
  1
AND MAY CONTAIN ROUNDOFF ERRORS
  7
SLDTEXTSTYLE0
 73
     1
 44
1.0
  0
ENDBLK
  5
81
330
7F
100
AcDbEntity
  8
0
100
AcDbBlockEnd
  0
BLOCK
  5
86
330
85
100
AcDbEntity
  8
0
100
AcDbBlockBegin
  2
SW_NOTE_1
 70
     0
 10
0.0
 20
0.0
 30
0.0
  3
SW_NOTE_1
  1

  0
MTEXT
  5
88
330
85
100
AcDbEntity
  8
0
  6
Continuous
 62
     0
370
     0
100
AcDbMText
 10
0.0
 20
2.7285267159
 30
0.0
 40
2.1166666667
 41
0.0
 71
     1
 72
     1
  1
DRAWING
  7
SLDTEXTSTYLE0
 73
     1
 44
1.0
  0
MTEXT
  5
89
330
85
100
AcDbEntity
  8
0
  6
Continuous
 62
     0
370
     0
100
AcDbMText
 10
0.0
 20
-0.0936954723
 30
0.0
 40
2.1166666667
 41
0.0
 71
     1
 72
     1
  1
PROJECTION
  7
SLDTEXTSTYLE0
 73
     1
 44
1.0
  0
ENDBLK
  5
87
330
85
100
AcDbEntity
  8
0
100
AcDbBlockEnd
  0
BLOCK
  5
8D
330
8C
100
AcDbEntity
  8
0
100
AcDbBlockBegin
  2
SW_NOTE_2
 70
     0
 10
0.0
 20
0.0
 30
0.0
  3
SW_NOTE_2
  1

  0
MTEXT
  5
8F
330
8C
100
AcDbEntity
  8
0
  6
Continuous
 62
     0
370
     0
100
AcDbMText
 10
25.052734375
 20
4.0927900738
 30
0.0
 40
3.175
 41
0.0
 71
     2
 72
     1
  1
FOR INFORMATION ONLY
  7
SLDTEXTSTYLE0
 73
     1
 44
1.0
  0
MTEXT
  5
90
330
8C
100
AcDbEntity
  8
0
  6
Continuous
 62
     0
370
     0
100
AcDbMText
 10
25.3768468589
 20
-0.1405432084
 30
0.0
 40
3.175
 41
0.0
 71
     2
 72
     1
  1
NOT FOR MANUFACTURING PURPOSES
  7
SLDTEXTSTYLE0
 73
     1
 44
1.0
  0
ENDBLK
  5
8E
330
8C
100
AcDbEntity
  8
0
100
AcDbBlockEnd
  0
BLOCK
  5
94
330
93
100
AcDbEntity
  8
0
100
AcDbBlockBegin
  2
SW_NOTE_3
 70
     0
 10
0.0
 20
0.0
 30
0.0
  3
SW_NOTE_3
  1

  0
MTEXT
  5
96
330
93
100
AcDbEntity
  8
0
  6
Continuous
 62
     0
370
     0
100
AcDbMText
 10
25.3379882813
 20
3.0695925553
 30
0.0
 40
2.38125
 41
0.0
 71
     2
 72
     1
  1
Ø 25.4mm 90 OFF AXIS PARABOLA
  7
SLDTEXTSTYLE0
 73
     1
 44
1.0
  0
MTEXT
  5
97
330
93
100
AcDbEntity
  8
0
  6
Continuous
 62
     0
370
     0
100
AcDbMText
 10
25.6105662942
 20
-0.1054074063
 30
0.0
 40
2.38125
 41
0.0
 71
     2
 72
     1
  1
PFL=76.2mm, PROTECTED SILVER
  7
SLDTEXTSTYLE0
 73
     1
 44
1.0
  0
ENDBLK
  5
95
330
93
100
AcDbEntity
  8
0
100
AcDbBlockEnd
  0
BLOCK
  5
9A
330
99
100
AcDbEntity
  8
0
100
AcDbBlockBegin
  2
SW_NOTE_4
 70
     0
 10
0.0
 20
0.0
 30
0.0
  3
SW_NOTE_4
  1

  0
MTEXT
  5
9C
330
99
100
AcDbEntity
  8
0
  6
Continuous
 62
     0
370
     0
100
AcDbMText
 10
0.0
 20
2.9468088531
 30
0.0
 40
2.286
 41
0.0
 71
     1
 72
     1
  1
NOTES/SPECIFICATIONS:
  7
SLDTEXTSTYLE0
 73
     1
 44
1.0
  0
MTEXT
  5
9D
330
99
100
AcDbEntity
  8
0
  6
Continuous
 62
     0
370
     0
100
AcDbMText
 10
9.9999997765
 20
-3.6251913636
 30
0.0
 40
2.286
 41
0.0
 71
     1
 72
     1
  1
PFL(PARENT FOCAL LENGTH): 76.2mm
  7
SLDTEXTSTYLE0
 73
     1
 44
1.0
  0
MTEXT
  5
9E
330
99
100
AcDbEntity
  8
0
  6
Continuous
 62
     0
370
     0
100
AcDbMText
 10
65.476777032
 20
-3.5336285044
 30
0.0
 40
2.38125
 41
0.0
 71
     1
 72
     1
  1
±
  7
SLDTEXTSTYLE0
 73
     1
 44
1.0
  0
MTEXT
  5
9F
330
99
100
AcDbEntity
  8
0
  6
Continuous
 62
     0
370
     0
100
AcDbMText
 10
67.2186147422
 20
-3.6251913636
 30
0.0
 40
2.286
 41
0.0
 71
     1
 72
     1
  1
1%
  7
SLDTEXTSTYLE0
 73
     1
 44
1.0
  0
MTEXT
  5
A0
330
99
100
AcDbEntity
  8
0
  6
Continuous
 62
     0
370
     0
100
AcDbMText
 10
0.0
 20
-3.6251913636
 30
0.0
 40
2.286
 41
0.0
 71
     1
 72
     1
  1
1.
  7
SLDTEXTSTYLE0
 73
     1
 44
1.0
  0
MTEXT
  5
A1
330
99
100
AcDbEntity
  8
0
  6
Continuous
 62
     0
370
     0
100
AcDbMText
 10
9.9999997765
 20
-6.9424121986
 30
0.0
 40
2.286
 41
0.0
 71
     1
 72
     1
  1
REFLECTED FOCAL LENGTH: 152.4mm
  7
SLDTEXTSTYLE0
 73
     1
 44
1.0
  0
MTEXT
  5
A2
330
99
100
AcDbEntity
  8
0
  6
Continuous
 62
     0
370
     0
100
AcDbMText
 10
64.8163761944
 20
-6.8508493395
 30
0.0
 40
2.38125
 41
0.0
 71
     1
 72
     1
  1
±
  7
SLDTEXTSTYLE0
 73
     1
 44
1.0
  0
MTEXT
  5
A3
330
99
100
AcDbEntity
  8
0
  6
Continuous
 62
     0
370
     0
100
AcDbMText
 10
66.5582176298
 20
-6.9424121986
 30
0.0
 40
2.286
 41
0.0
 71
     1
 72
     1
  1
1%
  7
SLDTEXTSTYLE0
 73
     1
 44
1.0
  0
MTEXT
  5
A4
330
99
100
AcDbEntity
  8
0
  6
Continuous
 62
     0
370
     0
100
AcDbMText
 10
0.0
 20
-6.9424121986
 30
0.0
 40
2.286
 41
0.0
 71
     1
 72
     1
  1
2.
  7
SLDTEXTSTYLE0
 73
     1
 44
1.0
  0
MTEXT
  5
A5
330
99
100
AcDbEntity
  8
0
  6
Continuous
 62
     0
370
     0
100
AcDbMText
 10
9.9999997765
 20
-10.2596330336
 30
0.0
 40
2.286
 41
0.0
 71
     1
 72
     1
  1
CLEAR APERTURE: >90% OF DIAMETER
  7
SLDTEXTSTYLE0
 73
     1
 44
1.0
  0
MTEXT
  5
A6
330
99
100
AcDbEntity
  8
0
  6
Continuous
 62
     0
370
     0
100
AcDbMText
 10
0.0
 20
-10.2596330336
 30
0.0
 40
2.286
 41
0.0
 71
     1
 72
     1
  1
3.
  7
SLDTEXTSTYLE0
 73
     1
 44
1.0
  0
MTEXT
  5
A7
330
99
100
AcDbEntity
  8
0
  6
Continuous
 62
     0
370
     0
100
AcDbMText
 10
9.9999997765
 20
-13.545633142
 30
0.0
 40
2.286
 41
0.0
 71
     1
 72
     1
  1
SURFACE IRREGULARITY: 0.25
  7
SLDTEXTSTYLE0
 73
     1
 44
1.0
  0
MTEXT
  5
A9
330
99
100
AcDbEntity
  8
0
  6
Continuous
 62
     0
370
     0
100
AcDbMText
 10
51.6369510442
 20
-13.5996081164
 30
0.0
 40
2.286
 41
0.0
 71
     1
 72
     1
  1
l
  7
SLDTEXTSTYLE2
 73
     1
 44
1.0
  0
MTEXT
  5
AA
330
99
100
AcDbEntity
  8
0
  6
Continuous
 62
     0
370
     0
100
AcDbMText
 10
54.3039507965
 20
-13.545633142
 30
0.0
 40
2.286
 41
0.0
 71
     1
 72
     1
  1
@ 633nm
  7
SLDTEXTSTYLE0
 73
     1
 44
1.0
  0
MTEXT
  5
AB
330
99
100
AcDbEntity
  8
0
  6
Continuous
 62
     0
370
     0
100
AcDbMText
 10
0.0
 20
-13.545633142
 30
0.0
 40
2.286
 41
0.0
 71
     1
 72
     1
  1
4.
  7
SLDTEXTSTYLE0
 73
     1
 44
1.0
  0
MTEXT
  5
AC
330
99
100
AcDbEntity
  8
0
  6
Continuous
 62
     0
370
     0
100
AcDbMText
 10
9.9999997765
 20
-16.8856082829
 30
0.0
 40
2.286
 41
0.0
 71
     1
 72
     1
  1
SURFACE QUALITY: 40-20 SCRATCH-DIG
  7
SLDTEXTSTYLE0
 73
     1
 44
1.0
  0
MTEXT
  5
AD
330
99
100
AcDbEntity
  8
0
  6
Continuous
 62
     0
370
     0
100
AcDbMText
 10
0.0
 20
-16.8856082829
 30
0.0
 40
2.286
 41
0.0
 71
     1
 72
     1
  1
5.
  7
SLDTEXTSTYLE0
 73
     1
 44
1.0
  0
MTEXT
  5
AE
330
99
100
AcDbEntity
  8
0
  6
Continuous
 62
     0
370
     0
100
AcDbMText
 10
9.9999997765
 20
-20.1716083913
 30
0.0
 40
2.286
 41
0.0
 71
     1
 72
     1
  1
SURFACE ROUGHNESS: <100A RMS
  7
SLDTEXTSTYLE0
 73
     1
 44
1.0
  0
MTEXT
  5
AF
330
99
100
AcDbEntity
  8
0
  6
Continuous
 62
     0
370
     0
100
AcDbMText
 10
0.0
 20
-20.1716083913
 30
0.0
 40
2.286
 41
0.0
 71
     1
 72
     1
  1
6.
  7
SLDTEXTSTYLE0
 73
     1
 44
1.0
  0
MTEXT
  5
B0
330
99
100
AcDbEntity
  8
0
  6
Continuous
 62
     0
370
     0
100
AcDbMText
 10
9.9999997765
 20
-23.4576084996
 30
0.0
 40
2.286
 41
0.0
 71
     1
 72
     1
  1
COATING (PARABOLIC SURFACE): PROTECTED
  7
SLDTEXTSTYLE0
 73
     1
 44
1.0
  0
MTEXT
  5
B1
330
99
100
AcDbEntity
  8
0
  6
Continuous
 62
     0
370
     0
100
AcDbMText
 10
0.0
 20
-23.4576084996
 30
0.0
 40
2.286
 41
0.0
 71
     1
 72
     1
  1
7.
  7
SLDTEXTSTYLE0
 73
     1
 44
1.0
  0
MTEXT
  5
B2
330
99
100
AcDbEntity
  8
0
  6
Continuous
 62
     0
370
     0
100
AcDbMText
 10
9.9999997765
 20
-26.743608608
 30
0.0
 40
2.286
 41
0.0
 71
     1
 72
     1
  1
SILVER
  7
SLDTEXTSTYLE0
 73
     1
 44
1.0
  0
MTEXT
  5
B3
330
99
100
AcDbEntity
  8
0
  6
Continuous
 62
     0
370
     0
100
AcDbMText
 10
10.0
 20
-30.0255616999
 30
0.0
 40
2.3
 41
0.0
 71
     1
 72
     1
  1
Ravg>95% FROM 400nm-20µm
  7
SLDTEXTSTYLE0
 73
     1
 44
1.0
  0
MTEXT
  5
B4
330
99
100
AcDbEntity
  8
0
  6
Continuous
 62
     0
370
     0
100
AcDbMText
 10
9.9999997765
 20
-33.3296086984
 30
0.0
 40
2.286
 41
0.0
 71
     1
 72
     1
  1
BLACK ANODIZED FINISH (NON-OPTICAL
  7
SLDTEXTSTYLE0
 73
     1
 44
1.0
  0
MTEXT
  5
B5
330
99
100
AcDbEntity
  8
0
  6
Continuous
 62
     0
370
     0
100
AcDbMText
 10
0.0
 20
-33.3296086984
 30
0.0
 40
2.286
 41
0.0
 71
     1
 72
     1
  1
8.
  7
SLDTEXTSTYLE0
 73
     1
 44
1.0
  0
MTEXT
  5
B6
330
99
100
AcDbEntity
  8
0
  6
Continuous
 62
     0
370
     0
100
AcDbMText
 10
9.9999997765
 20
-36.6156088068
 30
0.0
 40
2.286
 41
0.0
 71
     1
 72
     1
  1
SURFACES)
  7
SLDTEXTSTYLE0
 73
     1
 44
1.0
  0
ENDBLK
  5
9B
330
99
100
AcDbEntity
  8
0
100
AcDbBlockEnd
  0
BLOCK
  5
17F
330
17E
100
AcDbEntity
  8
0
100
AcDbBlockBegin
  2
*D7
 70
     1
 10
0.0
 20
0.0
 30
0.0
  3
*D7
  1

  0
SOLID
  5
181
330
17E
100
AcDbEntity
  8
0
  6
Continuous
 62
     7
370
     0
100
AcDbTrace
 10
78.2148812154
 20
206.8731172267
 30
0.0
 11
81.3898812154
 21
206.3651172267
 31
0.0
 12
81.3898812154
 22
207.3811172267
 32
0.0
 13
81.3898812154
 23
207.3811172267
 33
0.0
  0
SOLID
  5
182
330
17E
100
AcDbEntity
  8
0
  6
Continuous
 62
     7
370
     0
100
AcDbTrace
 10
230.6148812154
 20
206.8731172267
 30
0.0
 11
227.4398812154
 21
207.3811172267
 31
0.0
 12
227.4398812154
 22
206.3651172267
 32
0.0
 13
227.4398812154
 23
206.3651172267
 33
0.0
  0
LINE
  5
183
330
17E
100
AcDbEntity
  8
0
  6
Continuous
 62
     7
370
     0
100
AcDbLine
 10
144.9191364884
 20
208.3017538917
 30
0.0
 11
144.9191364884
 21
205.4444805618
 31
0.0
  0
LINE
  5
184
330
17E
100
AcDbEntity
  8
0
  6
Continuous
 62
     7
370
     0
100
AcDbLine
 10
144.9191364884
 20
205.4444805618
 30
0.0
 11
145.3479412008
 21
205.4444805618
 31
0.0
  0
LINE
  5
185
330
17E
100
AcDbEntity
  8
0
  6
Continuous
 62
     7
370
     0
100
AcDbLine
 10
144.9191364884
 20
208.3017538917
 30
0.0
 11
145.3479412008
 21
208.3017538917
 31
0.0
  0
LINE
  5
186
330
17E
100
AcDbEntity
  8
0
  6
Continuous
 62
     7
370
     0
100
AcDbLine
 10
154.3914463743
 20
208.3017538917
 30
0.0
 11
154.3914463743
 21
205.4444805618
 31
0.0
  0
LINE
  5
187
330
17E
100
AcDbEntity
  8
0
  6
Continuous
 62
     7
370
     0
100
AcDbLine
 10
154.3914463743
 20
205.4444805618
 30
0.0
 11
153.9626416618
 21
205.4444805618
 31
0.0
  0
LINE
  5
188
330
17E
100
AcDbEntity
  8
0
  6
Continuous
 62
     7
370
     0
100
AcDbLine
 10
154.3914463743
 20
208.3017538917
 30
0.0
 11
153.9626416618
 21
208.3017538917
 31
0.0
  0
LINE
  5
189
330
17E
100
AcDbEntity
  8
0
  6
Continuous
 62
     7
370
     0
100
AcDbLine
 10
78.2148812154
 20
203.5991674875
 30
0.0
 11
78.2148812154
 21
208.6511172267
 31
0.0
  0
LINE
  5
18A
330
17E
100
AcDbEntity
  8
0
  6
Continuous
 62
     7
370
     0
100
AcDbLine
 10
230.6148812154
 20
203.5991674875
 30
0.0
 11
230.6148812154
 21
208.6511172267
 31
0.0
  0
LINE
  5
18B
330
17E
100
AcDbEntity
  8
0
  6
Continuous
 62
     7
370
     0
100
AcDbLine
 10
78.2148812154
 20
206.8731172267
 30
0.0
 11
129.5926507739
 21
206.8731172267
 31
0.0
  0
LINE
  5
18C
330
17E
100
AcDbEntity
  8
0
  6
Continuous
 62
     7
370
     0
100
AcDbLine
 10
230.6148812154
 20
206.8731172267
 30
0.0
 11
169.7179320887
 21
206.8731172267
 31
0.0
  0
MTEXT
  5
18D
330
17E
100
AcDbEntity
  8
0
  6
Continuous
 62
     7
370
     0
100
AcDbMText
 10
143.4920854357
 20
211.2823928438
 30
0.0
 40
2.1166666667
 41
0.0
 71
     1
 72
     1
  1
152.4mm
  7
SLDTEXTSTYLE0
 73
     1
 44
1.0
  0
MTEXT
  5
18E
330
17E
100
AcDbEntity
  8
0
  6
Continuous
 62
     7
370
     0
100
AcDbMText
 10
132.006519883
 20
204.5593967734
 30
0.0
 40
2.1166666667
 41
0.0
 71
     1
 72
     1
  1
REFLECTED FOCAL LENGTH
  7
SLDTEXTSTYLE0
 73
     1
 44
1.0
  0
MTEXT
  5
18F
330
17E
100
AcDbEntity
  8
0
  6
Continuous
 62
     7
370
     0
100
AcDbMText
 10
145.7767459133
 20
207.9208948086
 30
0.0
 40
2.1166666667
 41
0.0
 71
     1
 72
     1
  1
6.00in
  7
SLDTEXTSTYLE0
 73
     1
 44
1.0
  0
ENDBLK
  5
180
330
17E
100
AcDbEntity
  8
0
100
AcDbBlockEnd
  0
BLOCK
  5
192
330
191
100
AcDbEntity
  8
0
100
AcDbBlockBegin
  2
*D8
 70
     1
 10
0.0
 20
0.0
 30
0.0
  3
*D8
  1

  0
SOLID
  5
194
330
191
100
AcDbEntity
  8
0
  6
Continuous
 62
     7
370
     0
100
AcDbTrace
 10
49.3621216149
 20
201.6491675309
 30
0.0
 11
48.8541216149
 21
198.4741675309
 31
0.0
 12
49.8701216149
 22
198.4741675309
 32
0.0
 13
49.8701216149
 23
198.4741675309
 33
0.0
  0
SOLID
  5
195
330
191
100
AcDbEntity
  8
0
  6
Continuous
 62
     7
370
     0
100
AcDbTrace
 10
49.3621216149
 20
169.9000008208
 30
0.0
 11
49.8701216149
 21
173.0750008208
 31
0.0
 12
48.8541216149
 22
173.0750008208
 32
0.0
 13
48.8541216149
 23
173.0750008208
 33
0.0
  0
LINE
  5
196
330
191
100
AcDbEntity
  8
0
  6
Continuous
 62
     7
370
     0
100
AcDbLine
 10
44.6259666719
 20
185.4610609774
 30
0.0
 11
44.6259666719
 21
182.6037876475
 31
0.0
  0
LINE
  5
197
330
191
100
AcDbEntity
  8
0
  6
Continuous
 62
     7
370
     0
100
AcDbLine
 10
44.6259666719
 20
182.6037876475
 30
0.0
 11
45.0547713844
 21
182.6037876475
 31
0.0
  0
LINE
  5
198
330
191
100
AcDbEntity
  8
0
  6
Continuous
 62
     7
370
     0
100
AcDbLine
 10
44.6259666719
 20
185.4610609774
 30
0.0
 11
45.0547713844
 21
185.4610609774
 31
0.0
  0
LINE
  5
199
330
191
100
AcDbEntity
  8
0
  6
Continuous
 62
     7
370
     0
100
AcDbLine
 10
54.0982765578
 20
185.4610609774
 30
0.0
 11
54.0982765578
 21
182.6037876475
 31
0.0
  0
LINE
  5
19A
330
191
100
AcDbEntity
  8
0
  6
Continuous
 62
     7
370
     0
100
AcDbLine
 10
54.0982765578
 20
182.6037876475
 30
0.0
 11
53.6694718454
 21
182.6037876475
 31
0.0
  0
LINE
  5
19B
330
191
100
AcDbEntity
  8
0
  6
Continuous
 62
     7
370
     0
100
AcDbLine
 10
54.0982765578
 20
185.4610609774
 30
0.0
 11
53.6694718454
 21
185.4610609774
 31
0.0
  0
LINE
  5
19C
330
191
100
AcDbEntity
  8
0
  6
Continuous
 62
     7
370
     0
100
AcDbLine
 10
64.2448812154
 20
201.6491675309
 30
0.0
 11
47.5841216149
 21
201.6491675309
 31
0.0
  0
LINE
  5
19D
330
191
100
AcDbEntity
  8
0
  6
Continuous
 62
     7
370
     0
100
AcDbLine
 10
64.2448812154
 20
169.9000008208
 30
0.0
 11
47.5841216149
 21
169.9000008208
 31
0.0
  0
LINE
  5
19E
330
191
100
AcDbEntity
  8
0
  6
Continuous
 62
     7
370
     0
100
AcDbLine
 10
49.3621216149
 20
201.6491675309
 30
0.0
 11
49.3621216149
 21
189.0746713652
 31
0.0
  0
LINE
  5
19F
330
191
100
AcDbEntity
  8
0
  6
Continuous
 62
     7
370
     0
100
AcDbLine
 10
49.3621216149
 20
169.9000008208
 30
0.0
 11
49.3621216149
 21
182.3516752948
 31
0.0
  0
MTEXT
  5
1A0
330
191
100
AcDbEntity
  8
0
  6
Continuous
 62
     7
370
     0
100
AcDbMText
 10
43.9806914133
 20
188.4416999295
 30
0.0
 40
2.1166666667
 41
0.0
 71
     1
 72
     1
  1
31.7mm
  7
SLDTEXTSTYLE0
 73
     1
 44
1.0
  0
MTEXT
  5
1A1
330
191
100
AcDbEntity
  8
0
  6
Continuous
 62
     7
370
     0
100
AcDbMText
 10
45.4835760968
 20
185.0802018943
 30
0.0
 40
2.1166666667
 41
0.0
 71
     1
 72
     1
  1
1.25in
  7
SLDTEXTSTYLE0
 73
     1
 44
1.0
  0
ENDBLK
  5
193
330
191
100
AcDbEntity
  8
0
100
AcDbBlockEnd
  0
BLOCK
  5
1A4
330
1A3
100
AcDbEntity
  8
0
100
AcDbBlockBegin
  2
*D9
 70
     1
 10
0.0
 20
0.0
 30
0.0
  3
*D9
  1

  0
SOLID
  5
1A6
330
1A3
100
AcDbEntity
  8
0
  6
Continuous
 62
     7
370
     0
100
AcDbTrace
 10
209.6194202358
 20
112.2200008208
 30
0.0
 11
210.1274202358
 21
115.3950008208
 31
0.0
 12
209.1114202358
 22
115.3950008208
 32
0.0
 13
209.1114202358
 23
115.3950008208
 33
0.0
  0
SOLID
  5
1A7
330
1A3
100
AcDbEntity
  8
0
  6
Continuous
 62
     7
370
     0
100
AcDbTrace
 10
209.6194202358
 20
188.4200008208
 30
0.0
 11
209.1114202358
 21
185.2450008208
 31
0.0
 12
210.1274202358
 22
185.2450008208
 32
0.0
 13
210.1274202358
 23
185.2450008208
 33
0.0
  0
LINE
  5
1A8
330
1A3
100
AcDbEntity
  8
0
  6
Continuous
 62
     7
370
     0
100
AcDbLine
 10
204.8832652929
 20
157.0093865034
 30
0.0
 11
204.8832652929
 21
154.1521131734
 31
0.0
  0
LINE
  5
1A9
330
1A3
100
AcDbEntity
  8
0
  6
Continuous
 62
     7
370
     0
100
AcDbLine
 10
204.8832652929
 20
154.1521131734
 30
0.0
 11
205.3120700053
 21
154.1521131734
 31
0.0
  0
LINE
  5
1AA
330
1A3
100
AcDbEntity
  8
0
  6
Continuous
 62
     7
370
     0
100
AcDbLine
 10
204.8832652929
 20
157.0093865034
 30
0.0
 11
205.3120700053
 21
157.0093865034
 31
0.0
  0
LINE
  5
1AB
330
1A3
100
AcDbEntity
  8
0
  6
Continuous
 62
     7
370
     0
100
AcDbLine
 10
214.3555751788
 20
157.0093865034
 30
0.0
 11
214.3555751788
 21
154.1521131734
 31
0.0
  0
LINE
  5
1AC
330
1A3
100
AcDbEntity
  8
0
  6
Continuous
 62
     7
370
     0
100
AcDbLine
 10
214.3555751788
 20
154.1521131734
 30
0.0
 11
213.9267704663
 21
154.1521131734
 31
0.0
  0
LINE
  5
1AD
330
1A3
100
AcDbEntity
  8
0
  6
Continuous
 62
     7
370
     0
100
AcDbLine
 10
214.3555751788
 20
157.0093865034
 30
0.0
 11
213.9267704663
 21
157.0093865034
 31
0.0
  0
LINE
  5
1AE
330
1A3
100
AcDbEntity
  8
0
  6
Continuous
 62
     7
370
     0
100
AcDbLine
 10
229.3448812154
 20
112.2200008208
 30
0.0
 11
207.8414202358
 21
112.2200008208
 31
0.0
  0
LINE
  5
1AF
330
1A3
100
AcDbEntity
  8
0
  6
Continuous
 62
     7
370
     0
100
AcDbLine
 10
229.3448812154
 20
188.4200008208
 30
0.0
 11
207.8414202358
 21
188.4200008208
 31
0.0
  0
LINE
  5
1B0
330
1A3
100
AcDbEntity
  8
0
  6
Continuous
 62
     7
370
     0
100
AcDbLine
 10
209.6194202358
 20
112.2200008208
 30
0.0
 11
209.6194202358
 21
147.1770047504
 31
0.0
  0
LINE
  5
1B1
330
1A3
100
AcDbEntity
  8
0
  6
Continuous
 62
     7
370
     0
100
AcDbLine
 10
209.6194202358
 20
188.4200008208
 30
0.0
 11
209.6194202358
 21
160.6229968912
 31
0.0
  0
MTEXT
  5
1B2
330
1A3
100
AcDbEntity
  8
0
  6
Continuous
 62
     7
370
     0
100
AcDbMText
 10
204.2379900343
 20
159.9900254554
 30
0.0
 40
2.1166666667
 41
0.0
 71
     1
 72
     1
  1
76.2mm
  7
SLDTEXTSTYLE0
 73
     1
 44
1.0
  0
MTEXT
  5
1B3
330
1A3
100
AcDbEntity
  8
0
  6
Continuous
 62
     7
370
     0
100
AcDbMText
 10
196.9315469363
 20
153.267029385
 30
0.0
 40
2.1166666667
 41
0.0
 71
     1
 72
     1
  1
FOCAL LENGTH OF
  7
SLDTEXTSTYLE0
 73
     1
 44
1.0
  0
MTEXT
  5
1B4
330
1A3
100
AcDbEntity
  8
0
  6
Continuous
 62
     7
370
     0
100
AcDbMText
 10
196.9742895283
 20
149.9055313498
 30
0.0
 40
2.1166666667
 41
0.0
 71
     1
 72
     1
  1
PARENT PARABOLA
  7
SLDTEXTSTYLE0
 73
     1
 44
1.0
  0
MTEXT
  5
1B5
330
1A3
100
AcDbEntity
  8
0
  6
Continuous
 62
     7
370
     0
100
AcDbMText
 10
205.7408747178
 20
156.6285274202
 30
0.0
 40
2.1166666667
 41
0.0
 71
     1
 72
     1
  1
3.00in
  7
SLDTEXTSTYLE0
 73
     1
 44
1.0
  0
ENDBLK
  5
1A5
330
1A3
100
AcDbEntity
  8
0
100
AcDbBlockEnd
  0
BLOCK
  5
1B9
330
1B8
100
AcDbEntity
  8
0
100
AcDbBlockBegin
  2
*D10
 70
     1
 10
0.0
 20
0.0
 30
0.0
  3
*D10
  1

  0
SOLID
  5
1BB
330
1B8
100
AcDbEntity
  8
0
  6
Continuous
 62
     7
370
     0
100
AcDbTrace
 10
93.4877728157
 20
169.9000008208
 30
0.0
 11
92.9797728157
 21
166.7250008208
 31
0.0
 12
93.9957728157
 22
166.7250008208
 32
0.0
 13
93.9957728157
 23
166.7250008208
 33
0.0
  0
SOLID
  5
1BC
330
1B8
100
AcDbEntity
  8
0
  6
Continuous
 62
     7
370
     0
100
AcDbTrace
 10
93.4877728157
 20
176.2491674875
 30
0.0
 11
93.9957728157
 21
179.4241674875
 31
0.0
 12
92.9797728157
 22
179.4241674875
 32
0.0
 13
92.9797728157
 23
179.4241674875
 33
0.0
  0
LINE
  5
1BD
330
1B8
100
AcDbEntity
  8
0
  6
Continuous
 62
     7
370
     0
100
AcDbLine
 10
101.0313645679
 20
185.4519351396
 30
0.0
 11
101.0313645679
 21
182.5946618097
 31
0.0
  0
LINE
  5
1BE
330
1B8
100
AcDbEntity
  8
0
  6
Continuous
 62
     7
370
     0
100
AcDbLine
 10
101.0313645679
 20
182.5946618097
 30
0.0
 11
101.4601692803
 21
182.5946618097
 31
0.0
  0
LINE
  5
1BF
330
1B8
100
AcDbEntity
  8
0
  6
Continuous
 62
     7
370
     0
100
AcDbLine
 10
101.0313645679
 20
185.4519351396
 30
0.0
 11
101.4601692803
 21
185.4519351396
 31
0.0
  0
LINE
  5
1C0
330
1B8
100
AcDbEntity
  8
0
  6
Continuous
 62
     7
370
     0
100
AcDbLine
 10
110.5036744538
 20
185.4519351396
 30
0.0
 11
110.5036744538
 21
182.5946618097
 31
0.0
  0
LINE
  5
1C1
330
1B8
100
AcDbEntity
  8
0
  6
Continuous
 62
     7
370
     0
100
AcDbLine
 10
110.5036744538
 20
182.5946618097
 30
0.0
 11
110.0748697413
 21
182.5946618097
 31
0.0
  0
LINE
  5
1C2
330
1B8
100
AcDbEntity
  8
0
  6
Continuous
 62
     7
370
     0
100
AcDbLine
 10
110.5036744538
 20
185.4519351396
 30
0.0
 11
110.0748697413
 21
185.4519351396
 31
0.0
  0
LINE
  5
1C3
330
1B8
100
AcDbEntity
  8
0
  6
Continuous
 62
     7
370
     0
100
AcDbLine
 10
92.1848812154
 20
169.9000008208
 30
0.0
 11
95.2657728157
 21
169.9000008208
 31
0.0
  0
LINE
  5
1C4
330
1B8
100
AcDbEntity
  8
0
  6
Continuous
 62
     7
370
     0
100
AcDbLine
 10
92.1848812154
 20
176.2491674875
 30
0.0
 11
95.2657728157
 21
176.2491674875
 31
0.0
  0
LINE
  5
1C5
330
1B8
100
AcDbEntity
  8
0
  6
Continuous
 62
     7
370
     0
100
AcDbLine
 10
97.2977728157
 20
185.7040474923
 30
0.0
 11
93.4877728157
 21
185.7040474923
 31
0.0
  0
LINE
  5
1C6
330
1B8
100
AcDbEntity
  8
0
  6
Continuous
 62
     7
370
     0
100
AcDbLine
 10
93.4877728157
 20
185.7040474923
 30
0.0
 11
93.4877728157
 21
176.2491674875
 31
0.0
  0
LINE
  5
1C7
330
1B8
100
AcDbEntity
  8
0
  6
Continuous
 62
     7
370
     0
100
AcDbLine
 10
93.4877728157
 20
169.9000008208
 30
0.0
 11
93.4877728157
 21
163.5500008208
 31
0.0
  0
MTEXT
  5
1C8
330
1B8
100
AcDbEntity
  8
0
  6
Continuous
 62
     7
370
     0
100
AcDbMText
 10
101.1678651033
 20
188.4325740917
 30
0.0
 40
2.1166666667
 41
0.0
 71
     1
 72
     1
  1
6.3mm
  7
SLDTEXTSTYLE0
 73
     1
 44
1.0
  0
MTEXT
  5
1C9
330
1B8
100
AcDbEntity
  8
0
  6
Continuous
 62
     7
370
     0
100
AcDbMText
 10
101.8889739928
 20
185.0710760565
 30
0.0
 40
2.1166666667
 41
0.0
 71
     1
 72
     1
  1
0.25in
  7
SLDTEXTSTYLE0
 73
     1
 44
1.0
  0
ENDBLK
  5
1BA
330
1B8
100
AcDbEntity
  8
0
100
AcDbBlockEnd
  0
BLOCK
  5
1CC
330
1CB
100
AcDbEntity
  8
0
100
AcDbBlockBegin
  2
*D11
 70
     1
 10
0.0
 20
0.0
 30
0.0
  3
*D11
  1

  0
SOLID
  5
1CE
330
1CB
100
AcDbEntity
  8
0
  6
Continuous
 62
     7
370
     0
100
AcDbTrace
 10
84.5648812154
 20
151.1375202142
 30
0.0
 11
81.3898812154
 21
151.6455202142
 31
0.0
 12
81.3898812154
 22
150.6295202142
 32
0.0
 13
81.3898812154
 23
150.6295202142
 33
0.0
  0
SOLID
  5
1CF
330
1CB
100
AcDbEntity
  8
0
  6
Continuous
 62
     7
370
     0
100
AcDbTrace
 10
71.8648812154
 20
151.1375202142
 30
0.0
 11
75.0398812154
 21
150.6295202142
 31
0.0
 12
75.0398812154
 22
151.6455202142
 32
0.0
 13
75.0398812154
 23
151.6455202142
 33
0.0
  0
LINE
  5
1D0
330
1CB
100
AcDbEntity
  8
0
  6
Continuous
 62
     7
370
     0
100
AcDbLine
 10
55.2157630565
 20
151.4079830419
 30
0.0
 11
54.7865500967
 21
151.4079830419
 31
0.0
  0
LINE
  5
1D1
330
1CB
100
AcDbEntity
  8
0
  6
Continuous
 62
     7
370
     0
100
AcDbLine
 10
54.7865500967
 20
151.4079830419
 30
0.0
 11
54.7865500967
 21
148.0448349655
 31
0.0
  0
LINE
  5
1D2
330
1CB
100
AcDbEntity
  8
0
  6
Continuous
 62
     7
370
     0
100
AcDbLine
 10
54.7865500967
 20
148.0448349655
 30
0.0
 11
55.2157630565
 21
148.0448349655
 31
0.0
  0
LINE
  5
1D3
330
1CB
100
AcDbEntity
  8
0
  6
Continuous
 62
     7
370
     0
100
AcDbLine
 10
64.0459870457
 20
151.4079830419
 30
0.0
 11
64.4752000054
 21
151.4079830419
 31
0.0
  0
LINE
  5
1D4
330
1CB
100
AcDbEntity
  8
0
  6
Continuous
 62
     7
370
     0
100
AcDbLine
 10
64.4752000054
 20
151.4079830419
 30
0.0
 11
64.4752000054
 21
148.0448349655
 31
0.0
  0
LINE
  5
1D5
330
1CB
100
AcDbEntity
  8
0
  6
Continuous
 62
     7
370
     0
100
AcDbLine
 10
64.4752000054
 20
148.0448349655
 30
0.0
 11
64.0459870457
 21
148.0448349655
 31
0.0
  0
LINE
  5
1D6
330
1CB
100
AcDbEntity
  8
0
  6
Continuous
 62
     7
370
     0
100
AcDbLine
 10
84.5648812154
 20
169.2650008208
 30
0.0
 11
84.5648812154
 21
149.3595202142
 31
0.0
  0
LINE
  5
1D7
330
1CB
100
AcDbEntity
  8
0
  6
Continuous
 62
     7
370
     0
100
AcDbLine
 10
71.8648812154
 20
169.2650008208
 30
0.0
 11
71.8648812154
 21
149.3595202142
 31
0.0
  0
LINE
  5
1D8
330
1CB
100
AcDbEntity
  8
0
  6
Continuous
 62
     7
370
     0
100
AcDbLine
 10
84.5648812154
 20
151.1375202142
 30
0.0
 11
71.8648812154
 21
151.1375202142
 31
0.0
  0
LINE
  5
1D9
330
1CB
100
AcDbEntity
  8
0
  6
Continuous
 62
     7
370
     0
100
AcDbLine
 10
71.8648812154
 20
151.1375202142
 30
0.0
 11
67.8981114944
 21
151.1375202142
 31
0.0
  0
MTEXT
  5
1DA
330
1CB
100
AcDbEntity
  8
0
  6
Continuous
 62
     7
370
     0
100
AcDbMText
 10
51.7931322512
 20
154.5657226884
 30
-1.3661624879
 40
2.1166666667
 41
0.0
 71
     1
 72
     1
  1
%%c
  7
SLDTEXTSTYLE0
 73
     1
 44
1.0
  0
MTEXT
  5
1DB
330
1CB
100
AcDbEntity
  8
0
  6
Continuous
 62
     7
370
     0
100
AcDbMText
 10
54.9881230519
 20
154.5657226884
 30
-1.3661624879
 40
2.1166666667
 41
0.0
 71
     1
 72
     1
  1
12.7mm
  7
SLDTEXTSTYLE0
 73
     1
 44
1.0
  0
MTEXT
  5
1DC
330
1CB
100
AcDbEntity
  8
0
  6
Continuous
 62
     7
370
     0
100
AcDbMText
 10
55.7522792779
 20
150.7733615649
 30
-1.3661624879
 40
2.1166666667
 41
0.0
 71
     1
 72
     1
  1
0.50in
  7
SLDTEXTSTYLE0
 73
     1
 44
1.0
  0
ENDBLK
  5
1CD
330
1CB
100
AcDbEntity
  8
0
100
AcDbBlockEnd
  0
BLOCK
  5
1DF
330
1DE
100
AcDbEntity
  8
0
100
AcDbBlockBegin
  2
*D12
 70
     1
 10
0.0
 20
0.0
 30
0.0
  3
*D12
  1

  0
SOLID
  5
1E1
330
1DE
100
AcDbEntity
  8
0
  6
Continuous
 62
     7
370
     0
100
AcDbTrace
 10
37.3622052779
 20
169.9000008208
 30
0.0
 11
36.8542052779
 21
166.7250008208
 31
0.0
 12
37.8702052779
 22
166.7250008208
 32
0.0
 13
37.8702052779
 23
166.7250008208
 33
0.0
  0
SOLID
  5
1E2
330
1DE
100
AcDbEntity
  8
0
  6
Continuous
 62
     7
370
     0
100
AcDbTrace
 10
37.3622052779
 20
170.5350008208
 30
0.0
 11
37.8702052779
 21
173.7100008208
 31
0.0
 12
36.8542052779
 22
173.7100008208
 32
0.0
 13
36.8542052779
 23
173.7100008208
 33
0.0
  0
LINE
  5
1E3
330
1DE
100
AcDbEntity
  8
0
  6
Continuous
 62
     7
370
     0
100
AcDbLine
 10
17.0163722465
 20
182.5551266414
 30
0.0
 11
16.5871592868
 21
182.5551266414
 31
0.0
  0
LINE
  5
1E4
330
1DE
100
AcDbEntity
  8
0
  6
Continuous
 62
     7
370
     0
100
AcDbLine
 10
16.5871592868
 20
182.5551266414
 30
0.0
 11
16.5871592868
 21
179.1919785649
 31
0.0
  0
LINE
  5
1E5
330
1DE
100
AcDbEntity
  8
0
  6
Continuous
 62
     7
370
     0
100
AcDbLine
 10
16.5871592868
 20
179.1919785649
 30
0.0
 11
17.0163722465
 21
179.1919785649
 31
0.0
  0
LINE
  5
1E6
330
1DE
100
AcDbEntity
  8
0
  6
Continuous
 62
     7
370
     0
100
AcDbLine
 10
25.8465962357
 20
182.5551266414
 30
0.0
 11
26.2758091954
 21
182.5551266414
 31
0.0
  0
LINE
  5
1E7
330
1DE
100
AcDbEntity
  8
0
  6
Continuous
 62
     7
370
     0
100
AcDbLine
 10
26.2758091954
 20
182.5551266414
 30
0.0
 11
26.2758091954
 21
179.1919785649
 31
0.0
  0
LINE
  5
1E8
330
1DE
100
AcDbEntity
  8
0
  6
Continuous
 62
     7
370
     0
100
AcDbLine
 10
26.2758091954
 20
179.1919785649
 30
0.0
 11
25.8465962357
 21
179.1919785649
 31
0.0
  0
LINE
  5
1E9
330
1DE
100
AcDbEntity
  8
0
  6
Continuous
 62
     7
370
     0
100
AcDbLine
 10
70.5948812154
 20
169.9000008208
 30
0.0
 11
35.5842052779
 21
169.9000008208
 31
0.0
  0
LINE
  5
1EA
330
1DE
100
AcDbEntity
  8
0
  6
Continuous
 62
     7
370
     0
100
AcDbLine
 10
70.5948812154
 20
170.5350008208
 30
0.0
 11
35.5842052779
 21
170.5350008208
 31
0.0
  0
LINE
  5
1EB
330
1DE
100
AcDbEntity
  8
0
  6
Continuous
 62
     7
370
     0
100
AcDbLine
 10
33.5522052779
 20
182.5551268742
 30
0.0
 11
37.3622052779
 21
182.5551268742
 31
0.0
  0
LINE
  5
1EC
330
1DE
100
AcDbEntity
  8
0
  6
Continuous
 62
     7
370
     0
100
AcDbLine
 10
37.3622052779
 20
182.5551268742
 30
0.0
 11
37.3622052779
 21
170.5350008208
 31
0.0
  0
LINE
  5
1ED
330
1DE
100
AcDbEntity
  8
0
  6
Continuous
 62
     7
370
     0
100
AcDbLine
 10
37.3622052779
 20
169.9000008208
 30
0.0
 11
37.3622052779
 21
163.5500008208
 31
0.0
  0
MTEXT
  5
1EE
330
1DE
100
AcDbEntity
  8
0
  6
Continuous
 62
     7
370
     0
100
AcDbMText
 10
15.9732277785
 20
185.7128662878
 30
-1.3661624879
 40
2.1166666667
 41
0.0
 71
     1
 72
     1
  1
0.6mm
  7
SLDTEXTSTYLE0
 73
     1
 44
1.0
  0
MTEXT
  5
1EF
330
1DE
100
AcDbEntity
  8
0
  6
Continuous
 62
     7
370
     0
100
AcDbMText
 10
17.5528884679
 20
181.9205051643
 30
-1.3661624879
 40
2.1166666667
 41
0.0
 71
     1
 72
     1
  1
0.03in
  7
SLDTEXTSTYLE0
 73
     1
 44
1.0
  0
MTEXT
  5
1F0
330
1DE
100
AcDbEntity
  8
0
  6
Continuous
 62
     7
370
     0
100
AcDbMText
 10
27.683490238
 20
185.7128662878
 30
-1.3661624879
 40
2.1166666667
 41
0.0
 71
     1
 72
     1
  1
REF
  7
SLDTEXTSTYLE0
 73
     1
 44
1.0
  0
ENDBLK
  5
1E0
330
1DE
100
AcDbEntity
  8
0
100
AcDbBlockEnd
  0
BLOCK
  5
1F3
330
1F2
100
AcDbEntity
  8
0
100
AcDbBlockBegin
  2
*D13
 70
     1
 10
0.0
 20
0.0
 30
0.0
  3
*D13
  1

  0
SOLID
  5
1F5
330
1F2
100
AcDbEntity
  8
0
  6
Continuous
 62
     7
370
     0
100
AcDbTrace
 10
161.6194202358
 20
169.9000008208
 30
0.0
 11
161.1114202358
 21
166.7250008208
 31
0.0
 12
162.1274202358
 22
166.7250008208
 32
0.0
 13
162.1274202358
 23
166.7250008208
 33
0.0
  0
SOLID
  5
1F6
330
1F2
100
AcDbEntity
  8
0
  6
Continuous
 62
     7
370
     0
100
AcDbTrace
 10
161.6194202358
 20
188.4200008208
 30
0.0
 11
162.1274202358
 21
191.5950008208
 31
0.0
 12
161.1114202358
 22
191.5950008208
 32
0.0
 13
161.1114202358
 23
191.5950008208
 33
0.0
  0
LINE
  5
1F7
330
1F2
100
AcDbEntity
  8
0
  6
Continuous
 62
     7
370
     0
100
AcDbLine
 10
157.204308474
 20
178.9409134503
 30
0.0
 11
156.7750955143
 21
178.9409134503
 31
0.0
  0
LINE
  5
1F8
330
1F2
100
AcDbEntity
  8
0
  6
Continuous
 62
     7
370
     0
100
AcDbLine
 10
156.7750955143
 20
178.9409134503
 30
0.0
 11
156.7750955143
 21
175.5777653738
 31
0.0
  0
LINE
  5
1F9
330
1F2
100
AcDbEntity
  8
0
  6
Continuous
 62
     7
370
     0
100
AcDbLine
 10
156.7750955143
 20
175.5777653738
 30
0.0
 11
157.204308474
 21
175.5777653738
 31
0.0
  0
LINE
  5
1FA
330
1F2
100
AcDbEntity
  8
0
  6
Continuous
 62
     7
370
     0
100
AcDbLine
 10
166.0345324633
 20
178.9409134503
 30
0.0
 11
166.463745423
 21
178.9409134503
 31
0.0
  0
LINE
  5
1FB
330
1F2
100
AcDbEntity
  8
0
  6
Continuous
 62
     7
370
     0
100
AcDbLine
 10
166.463745423
 20
178.9409134503
 30
0.0
 11
166.463745423
 21
175.5777653738
 31
0.0
  0
LINE
  5
1FC
330
1F2
100
AcDbEntity
  8
0
  6
Continuous
 62
     7
370
     0
100
AcDbLine
 10
166.463745423
 20
175.5777653738
 30
0.0
 11
166.0345324633
 21
175.5777653738
 31
0.0
  0
LINE
  5
1FD
330
1F2
100
AcDbEntity
  8
0
  6
Continuous
 62
     7
370
     0
100
AcDbLine
 10
92.1848812154
 20
169.9000008208
 30
0.0
 11
163.3974202358
 21
169.9000008208
 31
0.0
  0
LINE
  5
1FE
330
1F2
100
AcDbEntity
  8
0
  6
Continuous
 62
     7
370
     0
100
AcDbLine
 10
229.3448812154
 20
188.4200008208
 30
0.0
 11
159.8414202358
 21
188.4200008208
 31
0.0
  0
LINE
  5
1FF
330
1F2
100
AcDbEntity
  8
0
  6
Continuous
 62
     7
370
     0
100
AcDbLine
 10
161.6194202358
 20
169.9000008208
 30
0.0
 11
161.6194202358
 21
163.5500008208
 31
0.0
  0
LINE
  5
200
330
1F2
100
AcDbEntity
  8
0
  6
Continuous
 62
     7
370
     0
100
AcDbLine
 10
161.6194202358
 20
188.4200008208
 30
0.0
 11
161.6194202358
 21
194.7700008208
 31
0.0
  0
MTEXT
  5
201
330
1F2
100
AcDbEntity
  8
0
  6
Continuous
 62
     7
370
     0
100
AcDbMText
 10
155.4066112483
 20
182.0986530968
 30
-1.3661624879
 40
2.1166666667
 41
0.0
 71
     1
 72
     1
  1

  7
SLDTEXTSTYLE0
 73
     1
 44
1.0
  0
MTEXT
  5
202
330
1F2
100
AcDbEntity
  8
0
  6
Continuous
 62
     7
370
     0
100
AcDbMText
 10
155.3791729527
 20
182.0986530968
 30
-1.3661624879
 40
2.1166666667
 41
0.0
 71
     1
 72
     1
  1
18.5mm
  7
SLDTEXTSTYLE0
 73
     1
 44
1.0
  0
MTEXT
  5
203
330
1F2
100
AcDbEntity
  8
0
  6
Continuous
 62
     7
370
     0
100
AcDbMText
 10
157.7408246955
 20
178.3062919733
 30
-1.3661624879
 40
2.1166666667
 41
0.0
 71
     1
 72
     1
  1
0.73in
  7
SLDTEXTSTYLE0
 73
     1
 44
1.0
  0
MTEXT
  5
204
330
1F2
100
AcDbEntity
  8
0
  6
Continuous
 62
     7
370
     0
100
AcDbMText
 10
169.4471670533
 20
182.0986530968
 30
-1.3661624879
 40
2.1166666667
 41
0.0
 71
     1
 72
     1
  1

  7
SLDTEXTSTYLE0
 73
     1
 44
1.0
  0
ENDBLK
  5
1F4
330
1F2
100
AcDbEntity
  8
0
100
AcDbBlockEnd
  0
BLOCK
  5
217
330
216
100
AcDbEntity
  8
0
100
AcDbBlockBegin
  2
*D14
 70
     1
 10
0.0
 20
0.0
 30
0.0
  3
*D14
  1

  0
ARC
  5
219
330
216
100
AcDbEntity
  8
0
  6
Continuous
 62
     7
370
     0
100
AcDbCircle
 10
78.2148812154
 20
89.1208361725
 30
0.0
 40
21.33117771250026
100
AcDbArc
 50
60.0
 51
105.3544290895
  0
ARC
  5
21A
330
216
100
AcDbEntity
  8
0
  6
Continuous
 62
     7
370
     0
100
AcDbCircle
 10
78.2148812154
 20
89.1208361725
 30
0.0
 40
21.33117771250025
100
AcDbArc
 50
139.030538854
 51
180.0
  0
SOLID
  5
21B
330
216
100
AcDbEntity
  8
0
  6
Continuous
 62
     7
370
     0
100
AcDbTrace
 10
88.8804700717
 20
107.5941779642
 30
0.0
 11
86.2419975938
 21
109.4318808737
 31
0.0
 12
85.8003291654
 22
108.5169027322
 32
0.0
 13
85.8003291654
 23
108.5169027322
 33
0.0
  0
SOLID
  5
21C
330
216
100
AcDbEntity
  8
0
  6
Continuous
 62
     7
370
     0
100
AcDbTrace
 10
56.8837035029
 20
89.1208361725
 30
0.0
 11
57.6246708663
 21
92.2496788286
 31
0.0
 12
56.6114423376
 22
92.3246718203
 32
0.0
 13
56.6114423376
 23
92.3246718203
 33
0.0
  0
LINE
  5
21D
330
216
100
AcDbEntity
  8
0
  6
Continuous
 62
     7
370
     0
100
AcDbLine
 10
80.8342562154
 20
93.6577267566
 30
0.0
 11
89.7694700717
 21
109.1339711321
 31
0.0
  0
LINE
  5
21E
330
216
100
AcDbEntity
  8
0
  6
Continuous
 62
     7
370
     0
100
AcDbLine
 10
72.9761312154
 20
89.1208361725
 30
0.0
 11
55.1057035029
 21
89.1208361725
 31
0.0
  0
MTEXT
  5
21F
330
216
100
AcDbEntity
  8
0
  6
Continuous
 62
     7
370
     0
100
AcDbMText
 10
60.62437754
 20
109.1967898159
 30
0.0
 40
2.1166666667
 41
0.0
 71
     1
 72
     1
  1
120deg
  7
SLDTEXTSTYLE0
 73
     1
 44
1.0
  0
MTEXT
  5
220
330
216
100
AcDbEntity
  8
0
  6
Continuous
 62
     7
370
     0
100
AcDbMText
 10
63.5375502899
 20
105.8352917807
 30
0.0
 40
2.1166666667
 41
0.0
 71
     1
 72
     1
  1
TYP.
  7
SLDTEXTSTYLE0
 73
     1
 44
1.0
  0
ENDBLK
  5
218
330
216
100
AcDbEntity
  8
0
100
AcDbBlockEnd
  0
BLOCK
  5
224
330
223
100
AcDbEntity
  8
0
100
AcDbBlockBegin
  2
*D15
 70
     1
 10
0.0
 20
0.0
 30
0.0
  3
*D15
  1

  0
SOLID
  5
226
330
223
100
AcDbEntity
  8
0
  6
Continuous
 62
     7
370
     0
100
AcDbTrace
 10
89.6870138145
 20
83.6728848486
 30
0.0
 11
92.3371289113
 21
81.8520117136
 31
0.0
 12
92.7729650173
 22
82.7697823215
 32
0.0
 13
92.7729650173
 23
82.7697823215
 33
0.0
  0
LINE
  5
227
330
223
100
AcDbEntity
  8
0
  6
Continuous
 62
     7
370
     0
100
AcDbLine
 10
107.3631611143
 20
76.396218145
 30
0.0
 11
107.3631611143
 21
73.5389448151
 31
0.0
  0
LINE
  5
228
330
223
100
AcDbEntity
  8
0
  6
Continuous
 62
     7
370
     0
100
AcDbLine
 10
107.3631611143
 20
73.5389448151
 30
0.0
 11
107.7919658267
 21
73.5389448151
 31
0.0
  0
LINE
  5
229
330
223
100
AcDbEntity
  8
0
  6
Continuous
 62
     7
370
     0
100
AcDbLine
 10
107.3631611143
 20
76.396218145
 30
0.0
 11
107.7919658267
 21
76.396218145
 31
0.0
  0
LINE
  5
22A
330
223
100
AcDbEntity
  8
0
  6
Continuous
 62
     7
370
     0
100
AcDbLine
 10
116.8354710002
 20
76.396218145
 30
0.0
 11
116.8354710002
 21
73.5389448151
 31
0.0
  0
LINE
  5
22B
330
223
100
AcDbEntity
  8
0
  6
Continuous
 62
     7
370
     0
100
AcDbLine
 10
116.8354710002
 20
73.5389448151
 30
0.0
 11
116.4066662877
 21
73.5389448151
 31
0.0
  0
LINE
  5
22C
330
223
100
AcDbEntity
  8
0
  6
Continuous
 62
     7
370
     0
100
AcDbLine
 10
116.8354710002
 20
76.396218145
 30
0.0
 11
116.4066662877
 21
76.396218145
 31
0.0
  0
LINE
  5
22D
330
223
100
AcDbEntity
  8
0
  6
Continuous
 62
     7
370
     0
100
AcDbLine
 10
89.6870138145
 20
83.6728848486
 30
0.0
 11
100.9398389083
 21
78.3290795152
 31
0.0
  0
LINE
  5
22E
330
223
100
AcDbEntity
  8
0
  6
Continuous
 62
     7
370
     0
100
AcDbLine
 10
100.9398389083
 20
78.3290795152
 30
0.0
 11
104.7498389083
 21
78.3290795152
 31
0.0
  0
MTEXT
  5
22F
330
223
100
AcDbEntity
  8
0
  6
Continuous
 62
     7
370
     0
100
AcDbMText
 10
106.5055516894
 20
79.3768570971
 30
0.0
 40
2.1166666667
 41
0.0
 71
     1
 72
     1
  1
%%c
  7
SLDTEXTSTYLE0
 73
     1
 44
1.0
  0
MTEXT
  5
230
330
223
100
AcDbEntity
  8
0
  6
Continuous
 62
     7
370
     0
100
AcDbMText
 10
109.5308999211
 20
79.3768570971
 30
0.0
 40
2.1166666667
 41
0.0
 71
     1
 72
     1
  1
25.4mm
  7
SLDTEXTSTYLE0
 73
     1
 44
1.0
  0
MTEXT
  5
231
330
223
100
AcDbEntity
  8
0
  6
Continuous
 62
     7
370
     0
100
AcDbMText
 10
108.2207705392
 20
76.0153590619
 30
0.0
 40
2.1166666667
 41
0.0
 71
     1
 72
     1
  1
1.00in
  7
SLDTEXTSTYLE0
 73
     1
 44
1.0
  0
ENDBLK
  5
225
330
223
100
AcDbEntity
  8
0
100
AcDbBlockEnd
  0
BLOCK
  5
234
330
233
100
AcDbEntity
  8
0
100
AcDbBlockBegin
  2
*D16
 70
     1
 10
0.0
 20
0.0
 30
0.0
  3
*D16
  1

  0
SOLID
  5
236
330
233
100
AcDbEntity
  8
0
  6
Continuous
 62
     7
370
     0
100
AcDbTrace
 10
78.2148812154
 20
67.8730201215
 30
0.0
 11
75.0398812154
 21
68.3810201215
 31
0.0
 12
75.0398812154
 22
67.3650201215
 32
0.0
 13
75.0398812154
 23
67.3650201215
 33
0.0
  0
SOLID
  5
237
330
233
100
AcDbEntity
  8
0
  6
Continuous
 62
     7
370
     0
100
AcDbTrace
 10
87.7398812154
 20
67.8730201215
 30
0.0
 11
90.9148812154
 21
67.3650201215
 31
0.0
 12
90.9148812154
 22
68.3810201215
 32
0.0
 13
90.9148812154
 23
68.3810201215
 33
0.0
  0
LINE
  5
238
330
233
100
AcDbEntity
  8
0
  6
Continuous
 62
     7
370
     0
100
AcDbLine
 10
97.9334083078
 20
67.6209077688
 30
0.0
 11
97.9334083078
 21
64.7636344389
 31
0.0
  0
LINE
  5
239
330
233
100
AcDbEntity
  8
0
  6
Continuous
 62
     7
370
     0
100
AcDbLine
 10
97.9334083078
 20
64.7636344389
 30
0.0
 11
98.3622130202
 21
64.7636344389
 31
0.0
  0
LINE
  5
23A
330
233
100
AcDbEntity
  8
0
  6
Continuous
 62
     7
370
     0
100
AcDbLine
 10
97.9334083078
 20
67.6209077688
 30
0.0
 11
98.3622130202
 21
67.6209077688
 31
0.0
  0
LINE
  5
23B
330
233
100
AcDbEntity
  8
0
  6
Continuous
 62
     7
370
     0
100
AcDbLine
 10
107.4057181937
 20
67.6209077688
 30
0.0
 11
107.4057181937
 21
64.7636344389
 31
0.0
  0
LINE
  5
23C
330
233
100
AcDbEntity
  8
0
  6
Continuous
 62
     7
370
     0
100
AcDbLine
 10
107.4057181937
 20
64.7636344389
 30
0.0
 11
106.9769134813
 21
64.7636344389
 31
0.0
  0
LINE
  5
23D
330
233
100
AcDbEntity
  8
0
  6
Continuous
 62
     7
370
     0
100
AcDbLine
 10
107.4057181937
 20
67.6209077688
 30
0.0
 11
106.9769134813
 21
67.6209077688
 31
0.0
  0
LINE
  5
23E
330
233
100
AcDbEntity
  8
0
  6
Continuous
 62
     7
370
     0
100
AcDbLine
 10
78.2148812154
 20
86.5808361725
 30
0.0
 11
78.2148812154
 21
66.0950201215
 31
0.0
  0
LINE
  5
23F
330
233
100
AcDbEntity
  8
0
  6
Continuous
 62
     7
370
     0
100
AcDbLine
 10
87.7398812154
 20
86.5808361725
 30
0.0
 11
87.7398812154
 21
66.0950201215
 31
0.0
  0
LINE
  5
240
330
233
100
AcDbEntity
  8
0
  6
Continuous
 62
     7
370
     0
100
AcDbLine
 10
78.2148812154
 20
67.8730201215
 30
0.0
 11
71.8648812154
 21
67.8730201215
 31
0.0
  0
LINE
  5
241
330
233
100
AcDbEntity
  8
0
  6
Continuous
 62
     7
370
     0
100
AcDbLine
 10
87.7398812154
 20
67.8730201215
 30
0.0
 11
95.0588047738
 21
67.8730201215
 31
0.0
  0
MTEXT
  5
242
330
233
100
AcDbEntity
  8
0
  6
Continuous
 62
     7
370
     0
100
AcDbMText
 10
98.0699088433
 20
70.6015467209
 30
0.0
 40
2.1166666667
 41
0.0
 71
     1
 72
     1
  1
9.5mm
  7
SLDTEXTSTYLE0
 73
     1
 44
1.0
  0
MTEXT
  5
243
330
233
100
AcDbEntity
  8
0
  6
Continuous
 62
     7
370
     0
100
AcDbMText
 10
98.7910177327
 20
67.2400486857
 30
0.0
 40
2.1166666667
 41
0.0
 71
     1
 72
     1
  1
0.38in
  7
SLDTEXTSTYLE0
 73
     1
 44
1.0
  0
ENDBLK
  5
235
330
233
100
AcDbEntity
  8
0
100
AcDbBlockEnd
  0
BLOCK
  5
247
330
246
100
AcDbEntity
  8
0
100
AcDbBlockBegin
  2
*D17
 70
     1
 10
0.0
 20
0.0
 30
0.0
  3
*D17
  1

  0
SOLID
  5
249
330
246
100
AcDbEntity
  8
0
  6
Continuous
 62
     7
370
     0
100
AcDbTrace
 10
88.9036642304
 20
90.2098572543
 30
0.0
 11
91.5690554416
 21
92.0082951018
 31
0.0
 12
90.874858736
 22
92.7501488165
 32
0.0
 13
90.874858736
 23
92.7501488165
 33
0.0
  0
LINE
  5
24A
330
246
100
AcDbEntity
  8
0
  6
Continuous
 62
     7
370
     0
100
AcDbLine
 10
88.9036642304
 20
90.2098572543
 30
0.0
 11
96.3774119196
 21
97.2034881023
 31
0.0
  0
LINE
  5
24B
330
246
100
AcDbEntity
  8
0
  6
Continuous
 62
     7
370
     0
100
AcDbLine
 10
96.3774119196
 20
97.2034881023
 30
0.0
 11
100.1874119196
 21
97.2034881023
 31
0.0
  0
MTEXT
  5
24C
330
246
100
AcDbEntity
  8
0
  6
Continuous
 62
     7
370
     0
100
AcDbMText
 10
101.7749119196
 20
91.5282696138
 30
0.0
 40
2.1166666667
 41
0.0
 71
     1
 72
     1
  1
2 PLACES
  7
SLDTEXTSTYLE0
 73
     1
 44
1.0
  0
MTEXT
  5
24D
330
246
100
AcDbEntity
  8
0
  6
Continuous
 62
     7
370
     0
100
AcDbMText
 10
101.7749119196
 20
98.2512656842
 30
0.0
 40
2.1166666667
 41
0.0
 71
     1
 72
     1
  1
%%c
  7
SLDTEXTSTYLE0
 73
     1
 44
1.0
  0
MTEXT
  5
24E
330
246
100
AcDbEntity
  8
0
  6
Continuous
 62
     7
370
     0
100
AcDbMText
 10
104.9699027203
 20
98.2512656842
 30
0.0
 40
2.1166666667
 41
0.0
 71
     1
 72
     1
  1
3.2mm [0.13in]
  7
SLDTEXTSTYLE0
 73
     1
 44
1.0
  0
INSERT
  5
256
330
246
100
AcDbEntity
  8
0
  6
Continuous
 62
     7
370
     0
100
AcDbBlockReference
  2
SW_SYMBOL_HOLE_DEPTH
 10
101.7749119196
 20
92.4547630685
 30
0.0
 41
0.0027037109
 42
0.0027037109
 43
0.0027037109
  0
MTEXT
  5
257
330
246
100
AcDbEntity
  8
0
  6
Continuous
 62
     7
370
     0
100
AcDbMText
 10
104.8017452117
 20
94.889767649
 30
0.0
 40
2.1166666667
 41
0.0
 71
     1
 72
     1
  1
3.2mm [0.13in]
  7
SLDTEXTSTYLE0
 73
     1
 44
1.0
  0
ENDBLK
  5
248
330
246
100
AcDbEntity
  8
0
100
AcDbBlockEnd
  0
BLOCK
  5
250
330
24F
100
AcDbEntity
  8
0
100
AcDbBlockBegin
  2
SW_SYMBOL_HOLE_DEPTH
 70
     0
 10
0.0
 20
0.0
 30
0.0
  3
SW_SYMBOL_HOLE_DEPTH
  1

  0
LINE
  5
252
330
24F
100
AcDbEntity
  8
0
  6
Continuous
 62
     0
370
     0
100
AcDbLine
 10
0.0
 20
875.0
 30
0.0
 11
800.0
 21
875.0
 31
0.0
  0
LINE
  5
253
330
24F
100
AcDbEntity
  8
0
  6
Continuous
 62
     0
370
     0
100
AcDbLine
 10
400.0
 20
875.0
 30
0.0
 11
400.0
 21
75.0
 31
0.0
  0
LINE
  5
254
330
24F
100
AcDbEntity
  8
0
  6
Continuous
 62
     0
370
     0
100
AcDbLine
 10
100.0
 20
555.0
 30
0.0
 11
400.0
 21
75.0
 31
0.0
  0
LINE
  5
255
330
24F
100
AcDbEntity
  8
0
  6
Continuous
 62
     0
370
     0
100
AcDbLine
 10
700.0
 20
555.0
 30
0.0
 11
400.0
 21
75.0
 31
0.0
  0
ENDBLK
  5
251
330
24F
100
AcDbEntity
  8
0
100
AcDbBlockEnd
  0
BLOCK
  5
25A
330
259
100
AcDbEntity
  8
0
100
AcDbBlockBegin
  2
*D19
 70
     1
 10
0.0
 20
0.0
 30
0.0
  3
*D19
  1

  0
SOLID
  5
25C
330
259
100
AcDbEntity
  8
0
  6
Continuous
 62
     7
370
     0
100
AcDbTrace
 10
68.1251379828
 20
88.1417329241
 30
0.0
 11
66.0987341839
 21
85.6452600835
 31
0.0
 12
66.9788269915
 22
85.137625717
 32
0.0
 13
66.9788269915
 23
85.137625717
 33
0.0
  0
LINE
  5
25D
330
259
100
AcDbEntity
  8
0
  6
Continuous
 62
     7
370
     0
100
AcDbLine
 10
68.1251379828
 20
88.1417329241
 30
0.0
 11
62.4652347851
 21
78.3290795152
 31
0.0
  0
LINE
  5
25E
330
259
100
AcDbEntity
  8
0
  6
Continuous
 62
     7
370
     0
100
AcDbLine
 10
62.4652347851
 20
78.3290795152
 30
0.0
 11
58.6552347851
 21
78.3290795152
 31
0.0
  0
MTEXT
  5
25F
330
259
100
AcDbEntity
  8
0
  6
Continuous
 62
     7
370
     0
100
AcDbMText
 10
10.6575527239
 20
76.0153590619
 30
0.0
 40
2.1166666667
 41
0.0
 71
     1
 72
     1
  1
LOCATED ON A
  7
SLDTEXTSTYLE0
 73
     1
 44
1.0
  0
MTEXT
  5
260
330
259
100
AcDbEntity
  8
0
  6
Continuous
 62
     7
370
     0
100
AcDbMText
 10
32.5885714043
 20
76.0153590619
 30
0.0
 40
2.1166666667
 41
0.0
 71
     1
 72
     1
  1
%%c
  7
SLDTEXTSTYLE0
 73
     1
 44
1.0
  0
MTEXT
  5
261
330
259
100
AcDbEntity
  8
0
  6
Continuous
 62
     7
370
     0
100
AcDbMText
 10
35.7835629035
 20
76.0153590619
 30
0.0
 40
2.1166666667
 41
0.0
 71
     1
 72
     1
  1
19.1mm [0.75in]
  7
SLDTEXTSTYLE0
 73
     1
 44
1.0
  0
MTEXT
  5
262
330
259
100
AcDbEntity
  8
0
  6
Continuous
 62
     7
370
     0
100
AcDbMText
 10
31.0250871686
 20
79.3768570971
 30
0.0
 40
2.1166666667
 41
0.0
 71
     1
 72
     1
  1
4-40 TAPPED HOLES
  7
SLDTEXTSTYLE0
 73
     1
 44
1.0
  0
ENDBLK
  5
25B
330
259
100
AcDbEntity
  8
0
100
AcDbBlockEnd
  0
BLOCK
  5
264
330
263
100
AcDbEntity
  8
0
100
AcDbBlockBegin
  2
SW_CENTERMARKSYMBOL_0
 70
     0
 10
0.0
 20
0.0
 30
0.0
  3
SW_CENTERMARKSYMBOL_0
  1

  0
LINE
  5
266
330
263
100
AcDbEntity
  8
0
  6
Continuous
 62
     0
370
     0
100
AcDbLine
 10
0.0
 20
0.0
 30
0.0
 11
0.0
 21
1.27
 31
0.0
  0
LINE
  5
267
330
263
100
AcDbEntity
  8
0
  6
Continuous
 62
     0
370
     0
100
AcDbLine
 10
0.0
 20
0.0
 30
0.0
 11
-1.27
 21
0.0
 31
0.0
  0
LINE
  5
268
330
263
100
AcDbEntity
  8
0
  6
Continuous
 62
     0
370
     0
100
AcDbLine
 10
0.0
 20
0.0
 30
0.0
 11
0.0
 21
-1.27
 31
0.0
  0
LINE
  5
269
330
263
100
AcDbEntity
  8
0
  6
Continuous
 62
     0
370
     0
100
AcDbLine
 10
0.0
 20
0.0
 30
0.0
 11
1.27
 21
0.0
 31
0.0
  0
ENDBLK
  5
265
330
263
100
AcDbEntity
  8
0
100
AcDbBlockEnd
  0
BLOCK
  5
26C
330
26B
100
AcDbEntity
  8
0
100
AcDbBlockBegin
  2
SW_CENTERMARKSYMBOL_1
 70
     0
 10
0.0
 20
0.0
 30
0.0
  3
SW_CENTERMARKSYMBOL_1
  1

  0
LINE
  5
26E
330
26B
100
AcDbEntity
  8
0
  6
Continuous
 62
     0
370
     0
100
AcDbLine
 10
0.0
 20
0.0
 30
0.0
 11
0.0
 21
1.27
 31
0.0
  0
LINE
  5
26F
330
26B
100
AcDbEntity
  8
0
  6
Continuous
 62
     0
370
     0
100
AcDbLine
 10
0.0
 20
0.0
 30
0.0
 11
-1.27
 21
0.0
 31
0.0
  0
LINE
  5
270
330
26B
100
AcDbEntity
  8
0
  6
Continuous
 62
     0
370
     0
100
AcDbLine
 10
0.0
 20
0.0
 30
0.0
 11
0.0
 21
-1.27
 31
0.0
  0
LINE
  5
271
330
26B
100
AcDbEntity
  8
0
  6
Continuous
 62
     0
370
     0
100
AcDbLine
 10
0.0
 20
0.0
 30
0.0
 11
1.27
 21
0.0
 31
0.0
  0
ENDBLK
  5
26D
330
26B
100
AcDbEntity
  8
0
100
AcDbBlockEnd
  0
BLOCK
  5
28A
330
289
100
AcDbEntity
  8
0
100
AcDbBlockBegin
  2
SW_NOTE_5
 70
     0
 10
0.0
 20
0.0
 30
0.0
  3
SW_NOTE_5
  1

  0
MTEXT
  5
28C
330
289
100
AcDbEntity
  8
0
  6
Continuous
 62
     0
370
     0
100
AcDbMText
 10
0.5024718387
 20
1.0063614538
 30
0.0
 40
2.1166666667
 41
0.0
 71
     1
 72
     1
  1
PARABOLIC SURFACE
  7
SLDTEXTSTYLE0
 73
     1
 44
1.0
  0
MTEXT
  5
28D
330
289
100
AcDbEntity
  8
0
  6
Continuous
 62
     0
370
     0
100
AcDbMText
 10
0.5024718387
 20
-1.8158607343
 30
0.0
 40
2.1166666667
 41
0.0
 71
     1
 72
     1
  1
SILVER COATED
  7
SLDTEXTSTYLE0
 73
     1
 44
1.0
  0
ENDBLK
  5
28B
330
289
100
AcDbEntity
  8
0
100
AcDbBlockEnd
  0
BLOCK
  5
291
330
290
100
AcDbEntity
  8
0
100
AcDbBlockBegin
  2
_DOT
 70
     0
 10
0.0
 20
0.0
 30
0.0
  3
_DOT
  1

  0
POLYLINE
  5
293
330
290
100
AcDbEntity
  8
0
  6
ByBlock
 62
     0
100
AcDb2dPolyline
 66
     1
 10
0.0
 20
0.0
 30
0.0
 70
     1
 40
0.5
 41
0.5
  0
VERTEX
  5
295
330
293
100
AcDbEntity
  8
0
  6
ByBlock
 62
     0
100
AcDbVertex
100
AcDb2dVertex
 10
-0.25
 20
0.0
 30
0.0
 42
1.0
  0
VERTEX
  5
296
330
293
100
AcDbEntity
  8
0
  6
ByBlock
 62
     0
100
AcDbVertex
100
AcDb2dVertex
 10
0.25
 20
0.0
 30
0.0
 42
1.0
  0
SEQEND
  5
297
330
293
100
AcDbEntity
  8
0
  6
ByBlock
 62
     0
  0
LINE
  5
294
330
290
100
AcDbEntity
  8
0
  6
ByBlock
 62
     0
370
    -2
100
AcDbLine
 10
-0.5
 20
0.0
 30
0.0
 11
-1.0
 21
0.0
 31
0.0
  0
ENDBLK
  5
292
330
290
100
AcDbEntity
  8
0
100
AcDbBlockEnd
  0
BLOCK
  5
29A
330
299
100
AcDbEntity
  8
0
100
AcDbBlockBegin
  2
SW_NOTE_6
 70
     0
 10
0.0
 20
0.0
 30
0.0
  3
SW_NOTE_6
  1

  0
MTEXT
  5
29C
330
299
100
AcDbEntity
  8
0
  6
Continuous
 62
     0
370
     0
100
AcDbMText
 10
0.5019446649
 20
1.0052811971
 30
0.0
 40
2.1166666667
 41
0.0
 71
     1
 72
     1
  1
4-40 TAP
  7
SLDTEXTSTYLE0
 73
     1
 44
1.0
  0
INSERT
  5
29D
330
299
100
AcDbEntity
  8
0
  6
Continuous
 62
     0
370
     0
100
AcDbBlockReference
  2
SW_SYMBOL_HOLE_DEPTH
 10
12.6531794482
 20
-1.4297233834
 30
0.0
 41
0.0027037109
 42
0.0027037109
 43
0.0027037109
  0
MTEXT
  5
29E
330
299
100
AcDbEntity
  8
0
  6
Continuous
 62
     0
370
     0
100
AcDbMText
 10
15.6800122746
 20
1.0052811971
 30
0.0
 40
2.1166666667
 41
0.0
 71
     1
 72
     1
  1
6.4mm [0.25in]
  7
SLDTEXTSTYLE0
 73
     1
 44
1.0
  0
MTEXT
  5
29F
330
299
100
AcDbEntity
  8
0
  6
Continuous
 62
     0
370
     0
100
AcDbMText
 10
0.5019446649
 20
-1.8169409911
 30
0.0
 40
2.1166666667
 41
0.0
 71
     1
 72
     1
  1
3 PLACES IN RADIAL PATTERN
  7
SLDTEXTSTYLE0
 73
     1
 44
1.0
  0
ENDBLK
  5
29B
330
299
100
AcDbEntity
  8
0
100
AcDbBlockEnd
  0
ENDSEC
  0
SECTION
  2
ENTITIES
  0
LINE
  5
52
330
1F
100
AcDbEntity
  8
0
  6
Continuous
 62
     7
370
     0
100
AcDbLine
 10
1.5793501011
 20
214.6453799966
 30
0.0
 11
277.9892068491
 21
214.6453799966
 31
0.0
  0
LINE
  5
53
330
1F
100
AcDbEntity
  8
0
  6
Continuous
 62
     7
370
     0
100
AcDbLine
 10
1.5793501011
 20
214.6453799966
 30
0.0
 11
1.5793501011
 21
0.9031642596
 31
0.0
  0
LINE
  5
54
330
1F
100
AcDbEntity
  8
0
  6
Continuous
 62
     7
370
     0
100
AcDbLine
 10
277.9892068491
 20
0.9031642596
 30
0.0
 11
1.5793501011
 21
0.9031642596
 31
0.0
  0
LINE
  5
55
330
1F
100
AcDbEntity
  8
0
  6
Continuous
 62
     7
370
     0
100
AcDbLine
 10
277.9892068491
 20
0.9031642596
 30
0.0
 11
277.9892068491
 21
214.6453799966
 31
0.0
  0
LINE
  5
56
330
1F
100
AcDbEntity
  8
0
  6
Continuous
 62
     7
370
     0
100
AcDbLine
 10
215.7427640041
 20
12.2958890132
 30
0.0
 11
171.6327596684
 21
12.2958890132
 31
0.0
  0
LINE
  5
57
330
1F
100
AcDbEntity
  8
0
  6
Continuous
 62
     7
370
     0
100
AcDbLine
 10
171.6327596684
 20
12.2958890132
 30
0.0
 11
171.6327596684
 21
26.1661402506
 31
0.0
  0
LINE
  5
58
330
1F
100
AcDbEntity
  8
0
  6
Continuous
 62
     7
370
     0
100
AcDbLine
 10
171.6327596684
 20
0.9031642596
 30
0.0
 11
171.6327596684
 21
26.1661402506
 31
0.0
  0
LINE
  5
59
330
1F
100
AcDbEntity
  8
0
  6
Continuous
 62
     7
370
     0
100
AcDbLine
 10
215.7427640041
 20
17.1604579552
 30
0.0
 11
277.9892068491
 21
17.1604579552
 31
0.0
  0
LINE
  5
5A
330
1F
100
AcDbEntity
  8
0
  6
Continuous
 62
     7
370
     0
100
AcDbLine
 10
215.7427640041
 20
35.2394508358
 30
0.0
 11
215.7427640041
 21
0.9031642596
 31
0.0
  0
LINE
  5
5B
330
1F
100
AcDbEntity
  8
0
  6
Continuous
 62
     7
370
     0
100
AcDbLine
 10
215.7427640041
 20
26.1661402506
 30
0.0
 11
171.6327596684
 21
26.1661402506
 31
0.0
  0
LINE
  5
5C
330
1F
100
AcDbEntity
  8
0
  6
Continuous
 62
     7
370
     0
100
AcDbLine
 10
215.7427640041
 20
9.1409200612
 30
0.0
 11
277.9892068491
 21
9.1409200612
 31
0.0
  0
LINE
  5
5D
330
1F
100
AcDbEntity
  8
0
  6
Continuous
 62
     7
370
     0
100
AcDbLine
 10
215.7427640041
 20
16.9216824031
 30
0.0
 11
171.6327596684
 21
16.9216824031
 31
0.0
  0
LINE
  5
5E
330
1F
100
AcDbEntity
  8
0
  6
Continuous
 62
     7
370
     0
100
AcDbLine
 10
215.7427640041
 20
21.4874005542
 30
0.0
 11
171.6327596684
 21
21.4874005542
 31
0.0
  0
LINE
  5
5F
330
1F
100
AcDbEntity
  8
0
  6
Continuous
 62
     7
370
     0
100
AcDbLine
 10
186.1338100705
 20
26.1661402506
 30
0.0
 11
186.1338100705
 21
12.2958890132
 31
0.0
  0
LINE
  5
60
330
1F
100
AcDbEntity
  8
0
  6
Continuous
 62
     7
370
     0
100
AcDbLine
 10
198.2145906188
 20
26.1661402506
 30
0.0
 11
198.2145906188
 21
12.2958890132
 31
0.0
  0
LINE
  5
61
330
1F
100
AcDbEntity
  8
0
  6
Continuous
 62
     7
370
     0
100
AcDbLine
 10
253.7490408369
 20
9.1409200612
 30
0.0
 11
253.7490408369
 21
0.9031642596
 31
0.0
  0
LINE
  5
62
330
1F
100
AcDbEntity
  8
0
  6
Continuous
 62
     7
370
     0
100
AcDbLine
 10
171.6327596684
 20
12.2958890132
 30
0.0
 11
171.6327596684
 21
7.5627342528
 31
0.0
  0
LINE
  5
63
330
1F
100
AcDbEntity
  8
0
  6
Continuous
 62
     7
370
     0
100
AcDbLine
 10
171.6327596684
 20
7.5627342528
 30
0.0
 11
215.7427640041
 21
7.5627342528
 31
0.0
  0
LINE
  5
64
330
1F
100
AcDbEntity
  8
0
  6
Continuous
 62
     7
370
     0
100
AcDbLine
 10
171.6327596684
 20
7.5627342528
 30
0.0
 11
171.6327596684
 21
35.2394508358
 31
0.0
  0
LINE
  5
65
330
1F
100
AcDbEntity
  8
0
  6
Continuous
 62
     7
370
     0
100
AcDbLine
 10
171.6327596684
 20
35.2394508358
 30
0.0
 11
215.7427640041
 21
35.2394508358
 31
0.0
  0
LINE
  5
66
330
1F
100
AcDbEntity
  8
0
  6
Continuous
 62
     7
370
     0
100
AcDbLine
 10
270.1683598194
 20
17.1604579552
 30
0.0
 11
270.1683598194
 21
9.1409200612
 31
0.0
  0
LINE
  5
67
330
1F
100
AcDbEntity
  8
0
  6
Continuous
 62
     7
370
     0
100
AcDbLine
 10
215.7427640041
 20
35.2394508358
 30
0.0
 11
277.9892068491
 21
35.2394508358
 31
0.0
  0
LINE
  5
68
330
1F
100
AcDbEntity
  8
0
  6
Continuous
 62
     7
370
     0
100
AcDbLine
 10
277.9892068491
 20
35.2394508358
 30
0.0
 11
277.9892068491
 21
50.0331356147
 31
0.0
  0
LINE
  5
69
330
1F
100
AcDbEntity
  8
0
  6
Continuous
 62
     7
370
     0
100
AcDbLine
 10
215.7427640041
 20
24.8927335446
 30
0.0
 11
277.9892068491
 21
24.8927335446
 31
0.0
  0
INSERT
  5
6A
330
1F
100
AcDbEntity
  8
0
  6
Continuous
 62
     7
100
AcDbBlockReference
  2
Third Angle Projection Block
 10
117.7262204235
 20
15.5162339489
 30
0.0
 41
0.8
 42
0.8
 43
0.8
  0
POINT
  5
6B
330
1F
100
AcDbEntity
  8
0
  6
Continuous
 62
     7
370
     0
100
AcDbPoint
 10
230.6148812154
 20
188.4200008208
 30
0.0
  0
MTEXT
  5
6D
330
1F
100
AcDbEntity
  8
0
  6
Continuous
 62
     7
370
     0
100
AcDbMText
 10
247.1212564857
 20
166.8901799651
 30
0.0
 40
2.1166666667
 41
0.0
 71
     1
 72
     1
  1
1:1 ISOMETRIC VIEW
  7
SLDTEXTSTYLE0
 73
     1
 44
1.0
  0
MTEXT
  5
6E
330
1F
100
AcDbEntity
  8
0
  6
Continuous
 62
     7
370
     0
100
AcDbMText
 10
242.3743488307
 20
24.6586994758
 30
0.0
 40
1.0583333333
 41
0.0
 71
     1
 72
     1
  1
o
  7
SLDTEXTSTYLE0
 73
     1
 44
1.0
  0
MTEXT
  5
6F
330
1F
100
AcDbEntity
  8
0
  6
Continuous
 62
     7
370
     0
100
AcDbMText
 10
169.7255835681
 20
103.7390818516
 30
0.0
 40
2.1166666667
 41
0.0
 71
     1
 72
     1
  1
SCALE: 1:1
  7
SLDTEXTSTYLE0
 73
     1
 44
1.0
  0
MTEXT
  5
70
330
1F
100
AcDbEntity
  8
0
  6
Continuous
 62
     7
370
     0
100
AcDbMText
 10
273.7514466724
 20
13.1125292762
 30
0.0
 40
3.175
 41
0.0
 71
     2
 72
     1
  1
A
  7
SLDTEXTSTYLE0
 73
     1
 44
1.0
  0
MTEXT
  5
71
330
1F
100
AcDbEntity
  8
0
  6
Continuous
 62
     7
370
     0
100
AcDbMText
 10
234.6198103151
 20
5.1657920755
 30
0.0
 40
2.38125
 41
0.0
 71
     2
 72
     1
  1
MPD254762-90-P01
  7
SLDTEXTSTYLE0
 73
     1
 44
1.0
  0
MTEXT
  5
72
330
1F
100
AcDbEntity
  8
0
  6
Continuous
 62
     7
370
     0
100
AcDbMText
 10
216.4199766059
 20
16.8243178599
 30
0.0
 40
2.1166666667
 41
0.0
 71
     1
 72
     1
  1
MATERIAL
  7
SLDTEXTSTYLE0
 73
     1
 44
1.0
  0
MTEXT
  5
73
330
1F
100
AcDbEntity
  8
0
  6
Continuous
 62
     7
370
     0
100
AcDbMText
 10
174.230946566
 20
20.054553926
 30
0.0
 40
1.8520833333
 41
0.0
 71
     1
 72
     1
  1
DRAWN
  7
SLDTEXTSTYLE0
 73
     1
 44
1.0
  0
MTEXT
  5
74
330
1F
100
AcDbEntity
  8
0
  6
Continuous
 62
     7
370
     0
100
AcDbMText
 10
172.3960124543
 20
15.5787169747
 30
0.0
 40
1.8520833333
 41
0.0
 71
     1
 72
     1
  1
APPROVAL
  7
SLDTEXTSTYLE0
 73
     1
 44
1.0
  0
MTEXT
  5
75
330
1F
100
AcDbEntity
  8
0
  6
Continuous
 62
     7
370
     0
100
AcDbMText
 10
271.321689486
 20
16.0237652193
 30
0.0
 40
2.1166666667
 41
0.0
 71
     1
 72
     1
  1
REV
  7
SLDTEXTSTYLE0
 73
     1
 44
1.0
  0
MTEXT
  5
76
330
1F
100
AcDbEntity
  8
0
  6
Continuous
 62
     7
370
     0
100
AcDbMText
 10
190.2958696448
 20
20.3177146903
 30
0.0
 40
2.1166666667
 41
0.0
 71
     1
 72
     1
  1
MG
  7
SLDTEXTSTYLE0
 73
     1
 44
1.0
  0
MTEXT
  5
77
330
1F
100
AcDbEntity
  8
0
  6
Continuous
 62
     7
370
     0
100
AcDbMText
 10
199.8662436873
 20
20.3177146903
 30
0.0
 40
2.1166666667
 41
0.0
 71
     1
 72
     1
  1
18/AUG/11
  7
SLDTEXTSTYLE0
 73
     1
 44
1.0
  0
MTEXT
  5
78
330
1F
100
AcDbEntity
  8
0
  6
Continuous
 62
     7
370
     0
100
AcDbMText
 10
203.6145073853
 20
24.8221395769
 30
0.0
 40
2.1166666667
 41
0.0
 71
     1
 72
     1
  1
DATE
  7
SLDTEXTSTYLE0
 73
     1
 44
1.0
  0
MTEXT
  5
7A
330
1F
100
AcDbEntity
  8
0
  6
Continuous
 62
     7
370
     0
100
AcDbMText
 10
229.402906477
 20
27.7957480569
 30
0.0
 40
2.1166666667
 41
0.0
 71
     1
 72
     1
  1
w w w . t h o r  l a b s . c o m
  7
SLDTEXTSTYLE1
 73
     1
 44
1.0
  0
MTEXT
  5
7B
330
1F
100
AcDbEntity
  8
0
  6
Continuous
 62
     7
370
     0
100
AcDbMText
 10
216.7004035316
 20
8.3494791871
 30
0.0
 40
2.1166666667
 41
0.0
 71
     1
 72
     1
  1
ITEM #
  7
SLDTEXTSTYLE0
 73
     1
 44
1.0
  0
MTEXT
  5
7C
330
1F
100
AcDbEntity
  8
0
  6
Continuous
 62
     7
370
     0
100
AcDbMText
 10
254.5318000914
 20
8.3494791871
 30
0.0
 40
2.1166666667
 41
0.0
 71
     1
 72
     1
  1
APPROX WEIGHT
  7
SLDTEXTSTYLE0
 73
     1
 44
1.0
  0
MTEXT
  5
7D
330
1F
100
AcDbEntity
  8
0
  6
Continuous
 62
     7
370
     0
100
AcDbMText
 10
243.4275635722
 20
13.1476649618
 30
0.0
 40
2.38125
 41
0.0
 71
     2
 72
     1
  1
6061-T6 ALUMINUM
  7
SLDTEXTSTYLE0
 73
     1
 44
1.0
  0
MTEXT
  5
7E
330
1F
100
AcDbEntity
  8
0
  6
Continuous
 62
     7
370
     0
100
AcDbMText
 10
266.1678480997
 20
5.1306563898
 30
0.0
 40
3.175
 41
0.0
 71
     2
 72
     1
  1
0.01 kg
  7
SLDTEXTSTYLE0
 73
     1
 44
1.0
  0
INSERT
  5
84
330
1F
100
AcDbEntity
  8
0
  6
Continuous
 62
     7
370
     0
100
AcDbBlockReference
  2
SW_NOTE_0
 10
174.8430140051
 20
4.4558554801
 30
0.0
  0
INSERT
  5
8A
330
1F
100
AcDbEntity
  8
0
  6
Continuous
 62
     7
370
     0
100
AcDbBlockReference
  2
SW_NOTE_1
 10
174.5483650337
 20
30.4835322715
 30
0.0
  0
MTEXT
  5
8B
330
1F
100
AcDbEntity
  8
0
  6
Continuous
 62
     7
370
     0
100
AcDbMText
 10
187.9273588276
 20
24.8221395769
 30
0.0
 40
2.1166666667
 41
0.0
 71
     1
 72
     1
  1
NAME
  7
SLDTEXTSTYLE0
 73
     1
 44
1.0
  0
INSERT
  5
91
330
1F
100
AcDbEntity
  8
0
  6
Continuous
 62
     7
370
     0
100
AcDbBlockReference
  2
SW_NOTE_2
 10
58.6204667508
 20
8.1776609732
 30
0.0
  0
MTEXT
  5
92
330
1F
100
AcDbEntity
  8
0
  6
Continuous
 62
     7
370
     0
100
AcDbMText
 10
179.1174811218
 20
10.6680638482
 30
0.0
 40
1.5875
 41
0.0
 71
     1
 72
     1
  1
COPYRIGHT © 2010 BY THORLABS
  7
SLDTEXTSTYLE0
 73
     1
 44
1.0
  0
INSERT
  5
98
330
1F
100
AcDbEntity
  8
0
  6
Continuous
 62
     7
370
     0
100
AcDbBlockReference
  2
SW_NOTE_3
 10
222.5519990754
 20
20.6862828027
 30
0.0
  0
INSERT
  5
B7
330
1F
100
AcDbEntity
  8
0
  6
Continuous
 62
     7
370
     0
100
AcDbBlockReference
  2
SW_NOTE_4
 10
9.0962591241
 20
57.090921936
 30
0.0
  0
MTEXT
  5
B8
330
1F
100
AcDbEntity
  8
0
  6
Continuous
 62
     7
370
     0
100
AcDbMText
 10
200.7930801164
 20
15.861001861
 30
0.0
 40
2.1166666667
 41
0.0
 71
     1
 72
     1
  1
07/SEP/11
  7
SLDTEXTSTYLE0
 73
     1
 44
1.0
  0
MTEXT
  5
B9
330
1F
100
AcDbEntity
  8
0
  6
Continuous
 62
     7
370
     0
100
AcDbMText
 10
190.602804848
 20
15.861001861
 30
0.0
 40
2.1166666667
 41
0.0
 71
     1
 72
     1
  1
DD
  7
SLDTEXTSTYLE0
 73
     1
 44
1.0
  0
LINE
  5
BA
330
1F
100
AcDbEntity
  8
0
  6
CENTERX2
 62
     7
100
AcDbLine
 10
78.2148812154
 20
202.3291674875
 30
0.0
 11
78.2148812154
 21
169.9000008208
 31
0.0
  0
LINE
  5
BB
330
1F
100
AcDbEntity
  8
0
  6
CENTERX2
 62
     7
100
AcDbLine
 10
230.6148812154
 20
202.3291674875
 30
0.0
 11
230.6148812154
 21
112.2200008208
 31
0.0
  0
LWPOLYLINE
  5
BC
330
1F
100
AcDbEntity
  8
0
  6
Continuous
 62
     7
100
AcDbPolyline
 90
       27
 70
   128
 43
0.0
 10
230.6148812154
 20
112.2200008208
 10
224.5000664006
 20
112.3426745748
 10
218.3852515858
 20
112.7106958368
 10
212.270436771
 20
113.3240646068
 10
206.1556219561
 20
114.1827808848
 10
200.0408071413
 20
115.2868446708
 10
193.9259923265
 20
116.6362559648
 10
187.8111775117
 20
118.2310147668
 10
181.6963626969
 20
120.0711210768
 10
175.5815478821
 20
122.1565748949
 10
169.4667330672
 20
124.4873762209
 10
163.3519182524
 20
127.0635250549
 10
157.2371034376
 20
129.8850213969
 10
151.1222886228
 20
132.9518652469
 10
145.007473808
 20
136.264056605
 10
138.8926589932
 20
139.821595471
 10
132.7778441783
 20
143.624481845
 10
126.6630293635
 20
147.6727157271
 10
120.5482145487
 20
151.9662971171
 10
114.4333997339
 20
156.5052260151
 10
108.3185849191
 20
161.2895024212
 10
102.2037701043
 20
166.3191263352
 10
96.0889552895
 20
171.5940977573
 10
89.9741404746
 20
177.1144166873
 10
83.8593256598
 20
182.8800831253
 10
77.744510845
 20
188.8910970714
 10
71.6296960302
 20
195.1474585254
  0
LINE
  5
BD
330
1F
100
AcDbEntity
  8
0
  6
Continuous
 62
     7
370
     0
100
AcDbLine
 10
90.9148810619
 20
169.9000008208
 30
0.0
 11
90.9148810619
 21
176.2512994734
 31
0.0
  0
LINE
  5
BE
330
1F
100
AcDbEntity
  8
0
  6
Continuous
 62
     7
370
     0
100
AcDbLine
 10
65.5148813689
 20
176.4125547175
 30
0.0
 11
65.5148813689
 21
169.9000008208
 31
0.0
  0
LINE
  5
BF
330
1F
100
AcDbEntity
  8
0
  6
Continuous
 62
     7
370
     0
100
AcDbLine
 10
65.5148813689
 20
177.5006370423
 30
0.0
 11
65.5148813689
 21
176.9711531502
 31
0.0
  0
LINE
  5
C0
330
1F
100
AcDbEntity
  8
0
  6
Continuous
 62
     7
370
     0
100
AcDbLine
 10
65.5148813689
 20
180.0528557775
 30
0.0
 11
65.5148813689
 21
178.3156728176
 31
0.0
  0
LINE
  5
C1
330
1F
100
AcDbEntity
  8
0
  6
Continuous
 62
     7
370
     0
100
AcDbLine
 10
65.5148813689
 20
201.649167369
 30
0.0
 11
65.5148813689
 21
181.7500877929
 31
0.0
  0
LINE
  5
C2
330
1F
100
AcDbEntity
  8
0
  6
Continuous
 62
     7
370
     0
100
AcDbLine
 10
65.5148813689
 20
181.7500877929
 30
0.0
 11
65.5148813689
 21
180.0528557775
 31
0.0
  0
LINE
  5
C3
330
1F
100
AcDbEntity
  8
0
  6
Continuous
 62
     7
370
     0
100
AcDbLine
 10
65.5148813689
 20
176.9711531502
 30
0.0
 11
65.5148813689
 21
176.4125547175
 31
0.0
  0
LINE
  5
C4
330
1F
100
AcDbEntity
  8
0
  6
Continuous
 62
     7
370
     0
100
AcDbLine
 10
65.5148813689
 20
178.3156728176
 30
0.0
 11
65.5148813689
 21
177.5006370423
 31
0.0
  0
SPLINE
  5
C5
330
1F
100
AcDbEntity
  8
0
  6
Continuous
 62
     7
370
     0
100
AcDbSpline
210
0.0
220
0.0
230
1.0
 70
     8
 71
     3
 72
    77
 73
    73
 74
     0
 42
0.00000001
 43
0.00000001
 40
0.0
 40
0.0
 40
0.0
 40
0.0
 40
0.0086122246445405
 40
0.0172244669091482
 40
0.0259114231656635
 40
0.0345984374716767
 40
0.0434363979299201
 40
0.0522744657061481
 40
0.0611858876437383
 40
0.0700974317842793
 40
0.0872919616269569
 40
0.1045999152582533
 40
0.1221204491423635
 40
0.1397367281237333
 40
0.1517921203598739
 40
0.1638725468261601
 40
0.1761106657339083
 40
0.1883708294818517
 40
0.2006931895258236
 40
0.2130345282144205
 40
0.2255183158676883
 40
0.2380189309991703
 40
0.2547567126377575
 40
0.2715288267639524
 40
0.2885175842053296
 40
0.3055363719075759
 40
0.3226404127309503
 40
0.3397707514689086
 40
0.3570988259564407
 40
0.3744510026568889
 40
0.3902937518191187
 40
0.4061365719647571
 40
0.4220445061743299
 40
0.4379524932705937
 40
0.4594384431485592
 40
0.4809615451652303
 40
0.5027536901621181
 40
0.5245837575642643
 40
0.5464905256417133
 40
0.5623913662312355
 40
0.5782921426646902
 40
0.594255899759088
 40
0.6102195488109966
 40
0.6318127754411499
 40
0.6534502679164583
 40
0.675412679410547
 40
0.6974290622184907
 40
0.7195589642641063
 40
0.7324480033933058
 40
0.7453512391142191
 40
0.7583718051393658
 40
0.7714092617174897
 40
0.784501478226531
 40
0.7976138303290506
 40
0.8108651024361807
 40
0.8241412027661142
 40
0.8441859814102245
 40
0.8542644730372988
 40
0.864342783870842
 40
0.874548872837059
 40
0.8847547695323097
 40
0.8950374942782963
 40
0.9053199888205881
 40
0.917664221224351
 40
0.9300502352205213
 40
0.9405133363830184
 40
0.9509762044363642
 40
0.9615608519545368
 40
0.972145315718621
 40
0.9844964085268291
 40
0.9969020957034337
 40
1.0
 40
1.0
 40
1.0
 40
1.0
 10
65.51488136889058
 20
201.649167369037
 30
0.0
 10
65.5162080776034
 20
201.6478401453648
 30
0.0
 10
65.5188614977434
 20
201.6451856953049
 30
0.0
 10
65.54027839566827
 20
201.6237709400203
 30
0.0
 10
65.5745391736122
 20
201.5895087253819
 30
0.0
 10
65.62306973229327
 20
201.5409761599583
 30
0.0
 10
65.68551712226378
 20
201.4785326992983
 30
0.0
 10
65.76206504693526
 20
201.4019822175935
 30
0.0
 10
65.85213090381245
 20
201.3119170379075
 30
0.0
 10
65.98732317964384
 20
201.1767245896684
 30
0.0
 10
66.18463495027859
 20
200.9794125555028
 30
0.0
 10
66.46415847508905
 20
200.6998905370449
 30
0.0
 10
66.78577764210021
 20
200.3782712541816
 30
0.0
 10
67.10767417369009
 20
200.0563737618034
 30
0.0
 10
67.41404247643045
 20
199.7500082643106
 30
0.0
 10
67.69508774574219
 20
199.4689589764674
 30
0.0
 10
67.99088812492899
 20
199.173161059747
 30
0.0
 10
68.30090322981876
 20
198.8631457518772
 30
0.0
 10
68.6230920401235
 20
198.540955263917
 30
0.0
 10
68.95767895474036
 20
198.2063696887172
 30
0.0
 10
69.30353695856246
 20
197.8605136367244
 30
0.0
 10
69.70005211708573
 20
197.4639944718102
 30
0.0
 10
70.14904713766146
 20
197.0150020134409
 30
0.0
 10
70.65482413513607
 20
196.5092253439626
 30
0.0
 10
71.17504425091455
 20
195.9890038875261
 30
0.0
 10
71.70903117128472
 20
195.4550164189145
 30
0.0
 10
72.2536504060543
 20
194.9103979355673
 30
0.0
 10
72.80962234777397
 20
194.3544263336473
 30
0.0
 10
73.37535707404433
 20
193.7886923005183
 30
0.0
 10
73.93301885094161
 20
193.2310302037173
 30
0.0
 10
74.47901142127819
 20
192.6850356622295
 30
0.0
 10
75.01266565634644
 20
192.1513852575019
 30
0.0
 10
75.55018848618546
 20
191.6138587914004
 30
0.0
 10
76.15422196157746
 20
191.0098263545475
 30
0.0
 10
76.82484812960851
 20
190.3392018988012
 30
0.0
 10
77.56481450007979
 20
189.5992331413742
 30
0.0
 10
78.3098404443956
 20
188.8542092886928
 30
0.0
 10
79.0590836606395
 20
188.1049656096893
 30
0.0
 10
79.73964100741101
 20
187.4244084292852
 30
0.0
 10
80.35050323879038
 20
186.8135447979373
 30
0.0
 10
80.89175180567975
 20
186.2722964010915
 30
0.0
 10
81.43112202763663
 20
185.7329253420972
 30
0.0
 10
82.03111801617403
 20
185.1329313462404
 30
0.0
 10
82.68922356805923
 20
184.4748243788963
 30
0.0
 10
83.40531525669198
 20
183.7587330912993
 30
0.0
 10
84.11535332580046
 20
183.0486949753186
 30
0.0
 10
84.81763957028738
 20
182.3464085094634
 30
0.0
 10
85.41010090321944
 20
181.7539479835983
 30
0.0
 10
85.89718666938508
 20
181.2668619372554
 30
0.0
 10
86.28469868546743
 20
180.8793504848803
 30
0.0
 10
86.66592002998742
 20
180.4981270933069
 30
0.0
 10
87.04035784977839
 20
180.1236913230155
 30
0.0
 10
87.40612237316657
 20
179.7579262478802
 30
0.0
 10
87.76328740147756
 20
179.400761368134
 30
0.0
 10
88.11035507498077
 20
179.0536936544861
 30
0.0
 10
88.50278890234331
 20
178.6612598393082
 30
0.0
 10
88.84892226572379
 20
178.3151264712585
 30
0.0
 10
89.15047900994391
 20
178.0135697287942
 30
0.0
 10
89.36798711680231
 20
177.7960616183784
 30
0.0
 10
89.57529631794436
 20
177.5887524302985
 30
0.0
 10
89.77199490995179
 20
177.3920537893943
 30
0.0
 10
89.95627590653909
 20
177.207772976572
 30
0.0
 10
90.13865628575869
 20
177.025391864581
 30
0.0
 10
90.31441305085531
 20
176.8496348894872
 30
0.0
 10
90.46964899922118
 20
176.694400624439
 30
0.0
 10
90.59664324221922
 20
176.5674054342957
 30
0.0
 10
90.69882719808557
 20
176.4652209524372
 30
0.0
 10
90.78234582273953
 20
176.3817025278108
 30
0.0
 10
90.85051777671767
 20
176.3135302899667
 30
0.0
 10
90.89621743908286
 20
176.2678317075056
 30
0.0
 10
90.91637599138976
 20
176.2476721665498
 30
0.0
 10
90.9133532618226
 20
176.2506957676232
 30
0.0
 10
90.91274926455337
 20
176.2512999390355
 30
0.0
  0
SPLINE
  5
C6
330
1F
100
AcDbEntity
  8
0
  6
Continuous
 62
     7
370
     0
100
AcDbSpline
210
0.0
220
0.0
230
1.0
 70
     8
 71
     3
 72
    14
 73
    10
 74
     0
 42
0.00000001
 43
0.00000001
 40
0.0
 40
0.0
 40
0.0
 40
0.0
 40
0.1337513678177495
 40
0.2504640037619914
 40
0.5001315782706204
 40
0.7495519040628392
 40
0.8497292700248464
 40
0.918779413198488
 40
0.9999999999999999
 40
0.9999999999999999
 40
0.9999999999999999
 40
0.9999999999999999
 10
67.48252122612246
 20
177.4800117549462
 30
0.0
 10
67.49651105784707
 20
177.4673826369836
 30
0.0
 10
67.52270854145317
 20
177.4437332380988
 30
0.0
 10
67.57249260296288
 20
177.3859806064806
 30
0.0
 10
67.62687434757265
 20
177.2935107033571
 30
0.0
 10
67.66064835702097
 20
177.1755221130809
 30
0.0
 10
67.6725340518039
 20
177.0872244910596
 30
0.0
 10
67.67646493307205
 20
177.0333573872681
 30
0.0
 10
67.67700372420812
 20
177.0008131747965
 30
0.0
 10
67.67729493815405
 20
176.9832231888133
 30
0.0
  0
SPLINE
  5
C7
330
1F
100
AcDbEntity
  8
0
  6
Continuous
 62
     7
370
     0
100
AcDbSpline
210
0.0
220
0.0
230
1.0
 70
     8
 71
     3
 72
    16
 73
    12
 74
     0
 42
0.00000001
 43
0.00000001
 40
0.0
 40
0.0
 40
0.0
 40
0.0
 40
0.0624101665906339
 40
0.1248967125771665
 40
0.2498787543055493
 40
0.3748952116311738
 40
0.4999251056350995
 40
0.6398105159793525
 40
0.7499861779029651
 40
0.8812028347594856
 40
1.0
 40
1.0
 40
1.0
 40
1.0
 10
67.07254548377895
 20
177.7557767419462
 30
0.0
 10
67.07929340094643
 20
177.7446687366314
 30
0.0
 10
67.09279749358068
 20
177.7224391316986
 30
0.0
 10
67.12427196585276
 20
177.6917977465518
 30
0.0
 10
67.16534232951618
 20
177.6611816643313
 30
0.0
 10
67.21641049168608
 20
177.6305868784968
 30
0.0
 10
67.27092843744009
 20
177.603958633372
 30
0.0
 10
67.32404168695872
 20
177.5774779054055
 30
0.0
 10
67.37854318723666
 20
177.5488691440127
 30
0.0
 10
67.43021915687054
 20
177.5186401956626
 30
0.0
 10
67.46567428344271
 20
177.4924543052289
 30
0.0
 10
67.48252122612246
 20
177.4800117549462
 30
0.0
  0
SPLINE
  5
C8
330
1F
100
AcDbEntity
  8
0
  6
Continuous
 62
     7
370
     0
100
AcDbSpline
210
0.0
220
0.0
230
1.0
 70
     8
 71
     3
 72
    11
 73
     7
 74
     0
 42
0.00000001
 43
0.00000001
 40
0.0
 40
0.0
 40
0.0
 40
0.0
 40
0.2501932676829222
 40
0.5000551820616346
 40
0.7498736249914923
 40
1.0
 40
1.0
 40
1.0
 40
1.0
 10
67.03738027645396
 20
177.9372877259268
 30
0.0
 10
67.0377080332022
 20
177.9204618516027
 30
0.0
 10
67.03836311262111
 20
177.8868323869635
 30
0.0
 10
67.04513733724444
 20
177.8381668697698
 30
0.0
 10
67.05606798577348
 20
177.7928074590976
 30
0.0
 10
67.06705072956886
 20
177.7681253818249
 30
0.0
 10
67.07254548377895
 20
177.7557767419462
 30
0.0
  0
SPLINE
  5
C9
330
1F
100
AcDbEntity
  8
0
  6
Continuous
 62
     7
370
     0
100
AcDbSpline
210
0.0
220
0.0
230
1.0
 70
     8
 71
     3
 72
    15
 73
    11
 74
     0
 42
0.00000001
 43
0.00000001
 40
0.0
 40
0.0
 40
0.0
 40
0.0
 40
0.1635147289340637
 40
0.286164691327254
 40
0.500035539974558
 40
0.6000916548547005
 40
0.7499801258684279
 40
0.8748041901132024
 40
0.9373995216984679
 40
1.0
 40
1.0
 40
1.0
 40
1.0
 10
67.25043953822161
 20
178.2439219278896
 30
0.0
 10
67.23405222507378
 20
178.2431043996325
 30
0.0
 10
67.20537303244566
 20
178.241673655608
 30
0.0
 10
67.1566512395384
 20
178.2265075088123
 30
0.0
 10
67.11541578401167
 20
178.1987187617663
 30
0.0
 10
67.07938480270575
 20
178.1434473742093
 30
0.0
 10
67.05560090765741
 20
178.0861929166364
 30
0.0
 10
67.04279018150459
 20
178.0236669329159
 30
0.0
 10
67.03800681791868
 20
177.9747133173453
 30
0.0
 10
67.0375891293325
 20
177.9497632649597
 30
0.0
 10
67.03738027645396
 20
177.9372877259268
 30
0.0
  0
SPLINE
  5
CA
330
1F
100
AcDbEntity
  8
0
  6
Continuous
 62
     7
370
     0
100
AcDbSpline
210
0.0
220
0.0
230
1.0
 70
     8
 71
     3
 72
    14
 73
    10
 74
     0
 42
0.00000001
 43
0.00000001
 40
0.0
 40
0.0
 40
0.0
 40
0.0
 40
0.1252374663808155
 40
0.2504120111317385
 40
0.3769583298629299
 40
0.5005277051031232
 40
0.7494493238948846
 40
0.8746887143862639
 40
1.0
 40
1.0
 40
1.0
 40
1.0
 10
67.49000978574067
 20
177.8751377064686
 30
0.0
 10
67.48798685933087
 20
177.9025150855171
 30
0.0
 10
67.48394202286708
 20
177.95725608871
 30
0.0
 10
67.46881210407447
 20
178.035966605502
 30
0.0
 10
67.44580596918618
 20
178.1072377993043
 30
0.0
 10
67.40321591639498
 20
178.1839650432079
 30
0.0
 10
67.34820814939431
 20
178.2253042727309
 30
0.0
 10
67.29238771968659
 20
178.241994568236
 30
0.0
 10
67.26442494000182
 20
178.2432793517828
 30
0.0
 10
67.25043953822161
 20
178.2439219278896
 30
0.0
  0
LINE
  5
CB
330
1F
100
AcDbEntity
  8
0
  6
Continuous
 62
     7
370
     0
100
AcDbLine
 10
67.6479797998
 20
177.875137682
 30
0.0
 11
67.490009796
 21
177.875137682
 31
0.0
  0
SPLINE
  5
CC
330
1F
100
AcDbEntity
  8
0
  6
Continuous
 62
     7
370
     0
100
AcDbSpline
210
0.0
220
0.0
230
1.0
 70
     8
 71
     3
 72
    14
 73
    10
 74
     0
 42
0.00000001
 43
0.00000001
 40
0.0
 40
0.0
 40
0.0
 40
0.0
 40
0.1255055557519981
 40
0.250946079914899
 40
0.5006404521539392
 40
0.7492166145835352
 40
0.8745048573331562
 40
0.937235120951985
 40
1.0
 40
1.0
 40
1.0
 40
1.0
 10
67.2446285626008
 20
178.480997498803
 30
0.0
 10
67.26768212963383
 20
178.4798309507597
 30
0.0
 10
67.31377731833149
 20
178.477498459128
 30
0.0
 10
67.40630350090521
 20
178.4450703516873
 30
0.0
 10
67.52105189713653
 20
178.3609582380025
 30
0.0
 10
67.6055464913784
 20
178.1820227680265
 30
0.0
 10
67.63596373686309
 20
178.0326245446759
 30
0.0
 10
67.64542681708951
 20
177.9432013464459
 30
0.0
 10
67.6471285975858
 20
177.8978297580886
 30
0.0
 10
67.6479797225357
 20
177.8751377064686
 30
0.0
  0
SPLINE
  5
CD
330
1F
100
AcDbEntity
  8
0
  6
Continuous
 62
     7
370
     0
100
AcDbSpline
210
0.0
220
0.0
230
1.0
 70
     8
 71
     3
 72
    15
 73
    11
 74
     0
 42
0.00000001
 43
0.00000001
 40
0.0
 40
0.0
 40
0.0
 40
0.0
 40
0.0626511013845664
 40
0.1252584965520654
 40
0.2503063321368419
 40
0.4166460947544194
 40
0.5001078090843621
 40
0.7494873486195363
 40
0.8747153905286386
 40
1.0
 40
1.0
 40
1.0
 40
1.0
 10
66.90273688754793
 20
177.9183546074164
 30
0.0
 10
66.90308555678594
 20
177.9395726792956
 30
0.0
 10
66.9037826520258
 20
177.9819940210531
 30
0.0
 10
66.91077616257016
 20
178.065646321001
 30
0.0
 10
66.93081365305513
 20
178.1782365049773
 30
0.0
 10
66.96625355963376
 20
178.2823979475495
 30
0.0
 10
67.02847944638738
 20
178.3877434366514
 30
0.0
 10
67.09904628978664
 20
178.4462691662911
 30
0.0
 10
67.1807777723144
 20
178.4770666814618
 30
0.0
 10
67.22334176208678
 20
178.4796870291248
 30
0.0
 10
67.2446285626008
 20
178.480997498803
 30
0.0
  0
SPLINE
  5
CE
330
1F
100
AcDbEntity
  8
0
  6
Continuous
 62
     7
370
     0
100
AcDbSpline
210
0.0
220
0.0
230
1.0
 70
     8
 71
     3
 72
    13
 73
     9
 74
     0
 42
0.00000001
 43
0.00000001
 40
0.0
 40
0.0
 40
0.0
 40
0.0
 40
0.1252751749067484
 40
0.2504915372212405
 40
0.5001990111867144
 40
0.749619136725542
 40
0.8747757515173079
 40
1.0
 40
1.0
 40
1.0
 40
1.0
 10
67.04383500115401
 20
177.4742495014865
 30
0.0
 10
67.03392268627645
 20
177.4855164566546
 30
0.0
 10
67.01410271002855
 20
177.5080450775243
 30
0.0
 10
66.97732611095378
 20
177.5614070331293
 30
0.0
 10
66.93804480306504
 20
177.6464854397143
 30
0.0
 10
66.91402529966442
 20
177.7546281168241
 30
0.0
 10
66.90384504114894
 20
177.847093945555
 30
0.0
 10
66.90310633859517
 20
177.8945967762564
 30
0.0
 10
66.90273688754793
 20
177.9183546074164
 30
0.0
  0
SPLINE
  5
CF
330
1F
100
AcDbEntity
  8
0
  6
Continuous
 62
     7
370
     0
100
AcDbSpline
210
0.0
220
0.0
230
1.0
 70
     8
 71
     3
 72
    12
 73
     8
 74
     0
 42
0.00000001
 43
0.00000001
 40
0.0
 40
0.0
 40
0.0
 40
0.0
 40
0.1023773544887492
 40
0.2500285226378108
 40
0.5001090627864395
 40
0.7873244436081729
 40
1.0
 40
1.0
 40
1.0
 40
1.0
 10
67.40187250211572
 20
177.2466404898283
 30
0.0
 10
67.38926620518644
 20
177.2554582420382
 30
0.0
 10
67.35847879313712
 20
177.2769931759018
 30
0.0
 10
67.29619161917597
 20
177.3109361289952
 30
0.0
 10
67.2122162880904
 20
177.3545823789257
 30
0.0
 10
67.12253682001038
 20
177.4041737267655
 30
0.0
 10
67.06732467301556
 20
177.4533343945988
 30
0.0
 10
67.04383500115401
 20
177.4742495014865
 30
0.0
  0
SPLINE
  5
D0
330
1F
100
AcDbEntity
  8
0
  6
Continuous
 62
     7
370
     0
100
AcDbSpline
210
0.0
220
0.0
230
1.0
 70
     8
 71
     3
 72
    12
 73
     8
 74
     0
 42
0.00000001
 43
0.00000001
 40
0.0
 40
0.0
 40
0.0
 40
0.0
 40
0.1252992716256315
 40
0.250426604211957
 40
0.4997820719171208
 40
0.7495611375362353
 40
1.0
 40
1.0
 40
1.0
 40
1.0
 10
67.51831872553954
 20
176.9692291446969
 30
0.0
 10
67.51792911999664
 20
176.9850176373452
 30
0.0
 10
67.51715044353807
 20
177.0165729572465
 30
0.0
 10
67.50918534889327
 20
177.078151825308
 30
0.0
 10
67.48735875932154
 20
177.1478961390426
 30
0.0
 10
67.44737889461696
 20
177.2080227342905
 30
0.0
 10
67.41705463237334
 20
177.2337565901692
 30
0.0
 10
67.40187250211572
 20
177.2466404898283
 30
0.0
  0
SPLINE
  5
D1
330
1F
100
AcDbEntity
  8
0
  6
Continuous
 62
     7
370
     0
100
AcDbSpline
210
0.0
220
0.0
230
1.0
 70
     8
 71
     3
 72
    15
 73
    11
 74
     0
 42
0.00000001
 43
0.00000001
 40
0.0
 40
0.0
 40
0.0
 40
0.0
 40
0.1252347300334983
 40
0.2504505925215803
 40
0.4998104181213155
 40
0.6248337430338522
 40
0.7497939259513637
 40
0.8747887439180672
 40
0.937372680799323
 40
1.0
 40
1.0
 40
1.0
 40
1.0
 10
67.27272890040167
 20
176.6107346615969
 30
0.0
 10
67.28673953795762
 20
176.6114281882792
 30
0.0
 10
67.31475870226254
 20
176.6128151371589
 30
0.0
 10
67.37061649487309
 20
176.6321669598176
 30
0.0
 10
67.42520016802284
 20
176.6731562268519
 30
0.0
 10
67.47105206582299
 20
176.7425307584226
 30
0.0
 10
67.49676509418954
 20
176.8103628918028
 30
0.0
 10
67.51145820410213
 20
176.8739583583113
 30
0.0
 10
67.51738574024816
 20
176.9279974174251
 30
0.0
 10
67.51800765861643
 20
176.9554820613773
 30
0.0
 10
67.51831872553954
 20
176.9692291446969
 30
0.0
  0
SPLINE
  5
D2
330
1F
100
AcDbEntity
  8
0
  6
Continuous
 62
     7
370
     0
100
AcDbSpline
210
0.0
220
0.0
230
1.0
 70
     8
 71
     3
 72
    14
 73
    10
 74
     0
 42
0.00000001
 43
0.00000001
 40
0.0
 40
0.0
 40
0.0
 40
0.0
 40
0.1252693402228925
 40
0.2504753547044679
 40
0.3931796899930384
 40
0.5003858073600898
 40
0.7495639495851893
 40
0.874743232013376
 40
1.0
 40
1.0
 40
1.0
 40
1.0
 10
67.00007933154222
 20
177.1112275335253
 30
0.0
 10
67.00220057554432
 20
177.0765612792139
 30
0.0
 10
67.00644199122424
 20
177.0072462949609
 30
0.0
 10
67.02139937237081
 20
176.9018892466651
 30
0.0
 10
67.04507460499084
 20
176.8083992429376
 30
0.0
 10
67.09227825365495
 20
176.7087439846354
 30
0.0
 10
67.15212401277742
 20
176.6464388595975
 30
0.0
 10
67.21971066559684
 20
176.6145599504024
 30
0.0
 10
67.25505251051415
 20
176.6120100208503
 30
0.0
 10
67.27272890040167
 20
176.6107346615969
 30
0.0
  0
LINE
  5
D3
330
1F
100
AcDbEntity
  8
0
  6
Continuous
 62
     7
370
     0
100
AcDbLine
 10
67.0000791738
 20
177.1112273251
 30
0.0
 11
66.8670350874
 21
177.1112273251
 31
0.0
  0
SPLINE
  5
D4
330
1F
100
AcDbEntity
  8
0
  6
Continuous
 62
     7
370
     0
100
AcDbSpline
210
0.0
220
0.0
230
1.0
 70
     8
 71
     3
 72
    15
 73
    11
 74
     0
 42
0.00000001
 43
0.00000001
 40
0.0
 40
0.0
 40
0.0
 40
0.0
 40
0.1253466878245514
 40
0.250629551407935
 40
0.381147127276072
 40
0.5009146342165862
 40
0.7494639004668683
 40
0.8746414613334285
 40
0.924792605264612
 40
1.0
 40
1.0
 40
1.0
 40
1.0
 10
67.27921116094358
 20
176.3736590906834
 30
0.0
 10
67.2522847816218
 20
176.3750076359555
 30
0.0
 10
67.1984457333982
 20
176.3777040398451
 30
0.0
 10
67.11975766906112
 20
176.4059174352234
 30
0.0
 10
67.04679565829065
 20
176.4590304146595
 30
0.0
 10
66.96171557211275
 20
176.5729281036985
 30
0.0
 10
66.90220465349893
 20
176.7487292482136
 30
0.0
 10
66.87736365967066
 20
176.9210668713899
 30
0.0
 10
66.86912233367352
 20
177.0260722445849
 30
0.0
 10
66.86781771872577
 20
177.0792963509933
 30
0.0
 10
66.86703503018778
 20
177.1112275335253
 30
0.0
  0
SPLINE
  5
D5
330
1F
100
AcDbEntity
  8
0
  6
Continuous
 62
     7
370
     0
100
AcDbSpline
210
0.0
220
0.0
230
1.0
 70
     8
 71
     3
 72
    15
 73
    11
 74
     0
 42
0.00000001
 43
0.00000001
 40
0.0
 40
0.0
 40
0.0
 40
0.0
 40
0.0626377556146772
 40
0.1252329915458171
 40
0.2502503669558301
 40
0.3754516770009077
 40
0.5002816482319049
 40
0.749565536081968
 40
0.8747642521766088
 40
1.0
 40
1.0
 40
1.0
 40
1.0
 10
67.67729493815405
 20
176.9832231888133
 30
0.0
 10
67.67682252898592
 20
176.9608019028934
 30
0.0
 10
67.67587803132989
 20
176.9159745510431
 30
0.0
 10
67.66672502857334
 20
176.8276337609814
 30
0.0
 10
67.64394546568009
 20
176.722315206718
 30
0.0
 10
67.60212766681609
 20
176.6100987865853
 30
0.0
 10
67.52938333984646
 20
176.4885681238824
 30
0.0
 10
67.43976669483293
 20
176.4142268185398
 30
0.0
 10
67.34801759603235
 20
176.3779510516714
 30
0.0
 10
67.30214890017356
 20
176.3750898853729
 30
0.0
 10
67.27921116094358
 20
176.3736590906834
 30
0.0
  0
LINE
  5
D6
330
1F
100
AcDbEntity
  8
0
  6
Continuous
 62
     7
370
     0
100
AcDbLine
 10
65.9572549352
 20
177.0322022763
 30
0.0
 11
65.7574201191
 21
177.0322022763
 31
0.0
  0
SPLINE
  5
D7
330
1F
100
AcDbEntity
  8
0
  6
Continuous
 62
     7
370
     0
100
AcDbSpline
210
0.0
220
0.0
230
1.0
 70
     8
 71
     3
 72
     8
 73
     4
 74
     0
 42
0.00000001
 43
0.00000001
 40
0.0
 40
0.0
 40
0.0
 40
0.0
 40
1.0
 40
1.0
 40
1.0
 40
1.0
 10
66.02049304356551
 20
176.4000008207849
 30
0.0
 10
65.9987236153203
 20
176.6107346615969
 30
0.0
 10
65.97764290110028
 20
176.8214685024088
 30
0.0
 10
65.95725447240929
 20
177.0322023432208
 30
0.0
  0
LINE
  5
D8
330
1F
100
AcDbEntity
  8
0
  6
Continuous
 62
     7
370
     0
100
AcDbLine
 10
66.109947134
 20
176.4000009549
 30
0.0
 11
66.0204926694
 21
176.4000009549
 31
0.0
  0
SPLINE
  5
D9
330
1F
100
AcDbEntity
  8
0
  6
Continuous
 62
     7
370
     0
100
AcDbSpline
210
0.0
220
0.0
230
1.0
 70
     8
 71
     3
 72
     8
 73
     4
 74
     0
 42
0.00000001
 43
0.00000001
 40
0.0
 40
0.0
 40
0.0
 40
0.0
 40
1.0
 40
1.0
 40
1.0
 40
1.0
 10
65.88829766093518
 20
178.4546557687015
 30
0.0
 10
65.95375231018278
 20
177.7697707860627
 30
0.0
 10
66.0276864207149
 20
177.0848858034238
 30
0.0
 10
66.10994756105445
 20
176.4000008207849
 30
0.0
  0
LINE
  5
DA
330
1F
100
AcDbEntity
  8
0
  6
Continuous
 62
     7
370
     0
100
AcDbLine
 10
65.8882979492
 20
178.454655948
 30
0.0
 11
65.813722294
 21
178.454655948
 31
0.0
  0
SPLINE
  5
DB
330
1F
100
AcDbEntity
  8
0
  6
Continuous
 62
     7
370
     0
100
AcDbSpline
210
0.0
220
0.0
230
1.0
 70
     8
 71
     3
 72
     8
 73
     4
 74
     0
 42
0.00000001
 43
0.00000001
 40
0.0
 40
0.0
 40
0.0
 40
0.0
 40
1.0
 40
1.0
 40
1.0
 40
1.0
 10
65.6634917984007
 20
176.4000008207849
 30
0.0
 10
65.70496910097383
 20
177.0848858034238
 30
0.0
 10
65.755080516006
 20
177.7697707860627
 30
0.0
 10
65.81372272776167
 20
178.4546557687015
 30
0.0
  0
LINE
  5
DC
330
1F
100
AcDbEntity
  8
0
  6
Continuous
 62
     7
370
     0
100
AcDbLine
 10
65.7140623966
 20
176.4000009549
 30
0.0
 11
65.6634915808
 21
176.4000009549
 31
0.0
  0
SPLINE
  5
DD
330
1F
100
AcDbEntity
  8
0
  6
Continuous
 62
     7
370
     0
100
AcDbSpline
210
0.0
220
0.0
230
1.0
 70
     8
 71
     3
 72
     8
 73
     4
 74
     0
 42
0.00000001
 43
0.00000001
 40
0.0
 40
0.0
 40
0.0
 40
0.0
 40
1.0
 40
1.0
 40
1.0
 40
1.0
 10
65.75742023123361
 20
177.0322023432208
 30
0.0
 10
65.74226327868142
 20
176.8214685024088
 30
0.0
 10
65.72780989795355
 20
176.6107346615969
 30
0.0
 10
65.7140625377481
 20
176.4000008207849
 30
0.0
  0
LINE
  5
DE
330
1F
100
AcDbEntity
  8
0
  6
Continuous
 62
     7
370
     0
100
AcDbLine
 10
65.5194206351
 20
176.4000009549
 30
0.0
 11
65.5148832315
 21
176.4000009549
 31
0.0
  0
SPLINE
  5
DF
330
1F
100
AcDbEntity
  8
0
  6
Continuous
 62
     7
370
     0
100
AcDbSpline
210
0.0
220
0.0
230
1.0
 70
     8
 71
     3
 72
     8
 73
     4
 74
     0
 42
0.00000001
 43
0.00000001
 40
0.0
 40
0.0
 40
0.0
 40
0.0
 40
1.0
 40
1.0
 40
1.0
 40
1.0
 10
65.51488145551153
 20
176.9671711970327
 30
0.0
 10
65.51490330487638
 20
176.7781144049501
 30
0.0
 10
65.51641646091666
 20
176.5890576128675
 30
0.0
 10
65.51942039066964
 20
176.4000008207849
 30
0.0
  0
SPLINE
  5
E0
330
1F
100
AcDbEntity
  8
0
  6
Continuous
 62
     7
370
     0
100
AcDbSpline
210
0.0
220
0.0
230
1.0
 70
     8
 71
     3
 72
    13
 73
     9
 74
     0
 42
0.00000001
 43
0.00000001
 40
0.0
 40
0.0
 40
0.0
 40
0.0
 40
0.1250710948756994
 40
0.2501214874970486
 40
0.5000711849036319
 40
0.7499674618706464
 40
0.8749904195716339
 40
1.0
 40
1.0
 40
1.0
 40
1.0
 10
70.51981746123583
 20
181.4409920317224
 30
0.0
 10
70.54280759867359
 20
181.4558269495752
 30
0.0
 10
70.58878406813213
 20
181.4854943297475
 30
0.0
 10
70.67771251422357
 20
181.5529263671732
 30
0.0
 10
70.78245597448199
 20
181.6510136914234
 30
0.0
 10
70.87567178843378
 20
181.7664227158307
 30
0.0
 10
70.94137636956907
 20
181.868798244493
 30
0.0
 10
70.96660523741139
 20
181.9260376147747
 30
0.0
 10
70.9792189964335
 20
181.9546557687015
 30
0.0
  0
LINE
  5
E1
330
1F
100
AcDbEntity
  8
0
  6
Continuous
 62
     7
370
     0
100
AcDbLine
 10
70.5198172668
 20
181.1981543702
 30
0.0
 11
70.5198172668
 21
181.4409920749
 31
0.0
  0
SPLINE
  5
E2
330
1F
100
AcDbEntity
  8
0
  6
Continuous
 62
     7
370
     0
100
AcDbSpline
210
0.0
220
0.0
230
1.0
 70
     8
 71
     3
 72
    13
 73
     9
 74
     0
 42
0.00000001
 43
0.00000001
 40
0.0
 40
0.0
 40
0.0
 40
0.0
 40
0.1250146390038047
 40
0.2500229927051614
 40
0.4999840770001259
 40
0.7500009713535911
 40
0.8675848207741964
 40
1.0
 40
1.0
 40
1.0
 40
1.0
 10
70.90229500526893
 20
181.5010841035164
 30
0.0
 10
70.88839610762344
 20
181.4847457172415
 30
0.0
 10
70.86059901112081
 20
181.4520697661289
 30
0.0
 10
70.80045574808958
 20
181.3933159774677
 30
0.0
 10
70.72124588249734
 20
181.3272700857972
 30
0.0
 10
70.64029282715327
 20
181.2684152022122
 30
0.0
 10
70.57274241305034
 20
181.2262312182256
 30
0.0
 10
70.53814331533792
 20
181.2078761851178
 30
0.0
 10
70.51981746123583
 20
181.1981542073492
 30
0.0
  0
LINE
  5
E3
330
1F
100
AcDbEntity
  8
0
  6
Continuous
 62
     7
370
     0
100
AcDbLine
 10
70.90229515
 20
179.9000005973
 30
0.0
 11
70.90229515
 21
181.5010838014
 31
0.0
  0
LINE
  5
E4
330
1F
100
AcDbEntity
  8
0
  6
Continuous
 62
     7
370
     0
100
AcDbLine
 10
71.1192211324
 20
179.9000005973
 30
0.0
 11
70.90229515
 21
179.9000005973
 31
0.0
  0
LINE
  5
E5
330
1F
100
AcDbEntity
  8
0
  6
Continuous
 62
     7
370
     0
100
AcDbLine
 10
71.1192211324
 20
181.9546555904
 30
0.0
 11
71.1192211324
 21
179.9000005973
 31
0.0
  0
LINE
  5
E6
330
1F
100
AcDbEntity
  8
0
  6
Continuous
 62
     7
370
     0
100
AcDbLine
 10
71.1192211324
 20
181.9546555904
 30
0.0
 11
70.9792191351
 21
181.9546555904
 31
0.0
  0
LINE
  5
E7
330
1F
100
AcDbEntity
  8
0
  6
Continuous
 62
     7
370
     0
100
AcDbLine
 10
68.5204530323
 20
180.7429360029
 30
0.0
 11
68.2029744798
 21
180.7429360029
 31
0.0
  0
SPLINE
  5
E8
330
1F
100
AcDbEntity
  8
0
  6
Continuous
 62
     7
370
     0
100
AcDbSpline
210
0.0
220
0.0
230
1.0
 70
     8
 71
     3
 72
    15
 73
    11
 74
     0
 42
0.00000001
 43
0.00000001
 40
0.0
 40
0.0
 40
0.0
 40
0.0
 40
0.062693092118003
 40
0.125372063937302
 40
0.2505359922397588
 40
0.3756736580496262
 40
0.5006637016359806
 40
0.7492993197839646
 40
0.8746182909060856
 40
1.0
 40
1.0
 40
1.0
 40
1.0
 10
69.01101001905074
 20
181.3640247890821
 30
0.0
 10
69.01064710584366
 20
181.3410955120379
 30
0.0
 10
69.00992136116804
 20
181.2952421222864
 30
0.0
 10
69.00147959000527
 20
181.2043325105515
 30
0.0
 10
68.97938934087658
 20
181.0934372204552
 30
0.0
 10
68.93314444809307
 20
180.9731054822245
 30
0.0
 10
68.8498817990668
 20
180.8338065464887
 30
0.0
 10
68.72836946254742
 20
180.7710213331794
 30
0.0
 10
68.60976258442167
 20
180.7455429265472
 30
0.0
 10
68.55022763903152
 20
180.7438052431563
 30
0.0
 10
68.52045271701138
 20
180.7429361840327
 30
0.0
  0
SPLINE
  5
E9
330
1F
100
AcDbEntity
  8
0
  6
Continuous
 62
     7
370
     0
100
AcDbSpline
210
0.0
220
0.0
230
1.0
 70
     8
 71
     3
 72
    15
 73
    11
 74
     0
 42
0.00000001
 43
0.00000001
 40
0.0
 40
0.0
 40
0.0
 40
0.0
 40
0.1250938987902914
 40
0.2501109118467865
 40
0.3753713351353503
 40
0.4999367289535069
 40
0.666455594217439
 40
0.749860964750288
 40
0.8749119779040523
 40
1.0
 40
1.0
 40
1.0
 40
1.0
 10
68.69459893117703
 20
181.9353110606583
 30
0.0
 10
68.71662185822647
 20
181.9285902514046
 30
0.0
 10
68.76065417650214
 20
181.915152763669
 30
0.0
 10
68.82401821224997
 20
181.876217305354
 30
0.0
 10
68.8815337613405
 20
181.8198903135641
 30
0.0
 10
68.93455790468921
 20
181.7374456448611
 30
0.0
 10
68.96927243236952
 20
181.648599578629
 30
0.0
 10
68.99413034363785
 20
181.5538986189007
 30
0.0
 10
69.00846318450454
 20
181.4655349233505
 30
0.0
 10
69.0101609904699
 20
181.3978648378465
 30
0.0
 10
69.01101001905074
 20
181.3640247890821
 30
0.0
  0
SPLINE
  5
EA
330
1F
100
AcDbEntity
  8
0
  6
Continuous
 62
     7
370
     0
100
AcDbSpline
210
0.0
220
0.0
230
1.0
 70
     8
 71
     3
 72
    10
 73
     6
 74
     0
 42
0.00000001
 43
0.00000001
 40
0.0
 40
0.0
 40
0.0
 40
0.0
 40
0.5000054056755704
 40
0.7500181777980903
 40
1.0
 40
1.0
 40
1.0
 40
1.0
 10
68.49576946614968
 20
181.9546557687015
 30
0.0
 10
68.52867289453572
 20
181.9539263928804
 30
0.0
 10
68.57802869973558
 20
181.9528323144604
 30
0.0
 10
68.6447189314709
 20
181.9470363138113
 30
0.0
 10
68.67797295075525
 20
181.9392193170839
 30
0.0
 10
68.69459893117703
 20
181.9353110606583
 30
0.0
  0
LINE
  5
EB
330
1F
100
AcDbEntity
  8
0
  6
Continuous
 62
     7
370
     0
100
AcDbLine
 10
68.4957692588
 20
181.9546555904
 30
0.0
 11
68.0273242483
 21
181.9546555904
 31
0.0
  0
LINE
  5
EC
330
1F
100
AcDbEntity
  8
0
  6
Continuous
 62
     7
370
     0
100
AcDbLine
 10
68.0273242483
 20
179.9000005973
 30
0.0
 11
68.0273242483
 21
181.9546555904
 31
0.0
  0
LINE
  5
ED
330
1F
100
AcDbEntity
  8
0
  6
Continuous
 62
     7
370
     0
100
AcDbLine
 10
68.2029744798
 20
179.9000005973
 30
0.0
 11
68.0273242483
 21
179.9000005973
 31
0.0
  0
LINE
  5
EE
330
1F
100
AcDbEntity
  8
0
  6
Continuous
 62
     7
370
     0
100
AcDbLine
 10
68.2029744798
 20
180.7429360029
 30
0.0
 11
68.2029744798
 21
179.9000005973
 31
0.0
  0
SPLINE
  5
EF
330
1F
100
AcDbEntity
  8
0
  6
Continuous
 62
     7
370
     0
100
AcDbSpline
210
0.0
220
0.0
230
1.0
 70
     8
 71
     3
 72
    16
 73
    12
 74
     0
 42
0.00000001
 43
0.00000001
 40
0.0
 40
0.0
 40
0.0
 40
0.0
 40
0.1252037281425947
 40
0.2503884232617749
 40
0.3755474586374082
 40
0.5006311301699843
 40
0.6432480406832861
 40
0.750209392338337
 40
0.8748537122524706
 40
0.9374211602822528
 40
1.0
 40
1.0
 40
1.0
 40
1.0
 10
67.29704170729683
 20
180.9133342506268
 30
0.0
 10
67.29663198258673
 20
180.8552156084295
 30
0.0
 10
67.29581259545141
 20
180.7389871590231
 30
0.0
 10
67.28755159276835
 20
180.5652484530665
 30
0.0
 10
67.27157783005077
 20
180.3934864841806
 30
0.0
 10
67.24246184507956
 20
180.2197614966063
 30
0.0
 10
67.19751230866622
 20
180.0678032325175
 30
0.0
 10
67.13281949849629
 20
179.949914802175
 30
0.0
 10
67.07052785525144
 20
179.8969147739004
 30
0.0
 10
67.0162190634199
 20
179.8759101538767
 30
0.0
 10
66.98904263377078
 20
179.8744094906148
 30
0.0
 10
66.97545318205214
 20
179.8736590906834
 30
0.0
  0
SPLINE
  5
F0
330
1F
100
AcDbEntity
  8
0
  6
Continuous
 62
     7
370
     0
100
AcDbSpline
210
0.0
220
0.0
230
1.0
 70
     8
 71
     3
 72
    15
 73
    11
 74
     0
 42
0.00000001
 43
0.00000001
 40
0.0
 40
0.0
 40
0.0
 40
0.0
 40
0.062625306453957
 40
0.1252128026006775
 40
0.2500411401690666
 40
0.3746316374763755
 40
0.499631284561893
 40
0.7494694892746671
 40
0.849682110387248
 40
1.0
 40
1.0
 40
1.0
 40
1.0
 10
66.97545318205214
 20
181.9546557687015
 30
0.0
 10
66.98905080292292
 20
181.953770575939
 30
0.0
 10
67.01623783504039
 20
181.9520007248528
 30
0.0
 10
67.07054936606279
 20
181.9301007109668
 30
0.0
 10
67.1363720254063
 20
181.8742183984943
 30
0.0
 10
67.20153810604194
 20
181.7544117131841
 30
0.0
 10
67.25506413030641
 20
181.5460144245139
 30
0.0
 10
67.28488548956635
 20
181.3309099425097
 30
0.0
 10
67.29544915381294
 20
181.099396301904
 30
0.0
 10
67.2964445007754
 20
180.9831073989328
 30
0.0
 10
67.29704170729683
 20
180.9133342506268
 30
0.0
  0
SPLINE
  5
F1
330
1F
100
AcDbEntity
  8
0
  6
Continuous
 62
     7
370
     0
100
AcDbSpline
210
0.0
220
0.0
230
1.0
 70
     8
 71
     3
 72
    17
 73
    13
 74
     0
 42
0.00000001
 43
0.00000001
 40
0.0
 40
0.0
 40
0.0
 40
0.0
 40
0.1251492432291845
 40
0.2502781713673992
 40
0.3837262972843015
 40
0.5004108843261613
 40
0.6316207721782158
 40
0.7498824272035218
 40
0.8124001134506631
 40
0.8749148898800558
 40
0.937449170439605
 40
0.9999999999999999
 40
0.9999999999999999
 40
0.9999999999999999
 40
0.9999999999999999
 10
66.68407864560625
 20
180.9133342506268
 30
0.0
 10
66.6843943076735
 20
180.971507713057
 30
0.0
 10
66.68502558056755
 20
181.0878451947986
 30
0.0
 10
66.69210382858034
 20
181.2655483371143
 30
0.0
 10
66.70533876436669
 20
181.4375326336867
 30
0.0
 10
66.7295101927916
 20
181.6059903480999
 30
0.0
 10
66.76639745727769
 20
181.7551508965335
 30
0.0
 10
66.81380093308796
 20
181.8550360602914
 30
0.0
 10
66.85820517154654
 20
181.9093626071089
 30
0.0
 10
66.89576432266801
 20
181.9359550255572
 30
0.0
 10
66.93495949058179
 20
181.9524888333145
 30
0.0
 10
66.961954094416
 20
181.9539333931998
 30
0.0
 10
66.97545318205214
 20
181.9546557687015
 30
0.0
  0
SPLINE
  5
F2
330
1F
100
AcDbEntity
  8
0
  6
Continuous
 62
     7
370
     0
100
AcDbSpline
210
0.0
220
0.0
230
1.0
 70
     8
 71
     3
 72
    12
 73
     8
 74
     0
 42
0.00000001
 43
0.00000001
 40
0.0
 40
0.0
 40
0.0
 40
0.0
 40
0.1249981802678314
 40
0.2500181699043217
 40
0.4998430409764023
 40
0.7498766444739976
 40
1.0
 40
1.0
 40
1.0
 40
1.0
 10
66.7691619490898
 20
180.0716336559775
 30
0.0
 10
66.76027955772096
 20
180.1020044813384
 30
0.0
 10
66.7425132252059
 20
180.1627514310858
 30
0.0
 10
66.71773885854927
 20
180.2978114660928
 30
0.0
 10
66.69748683536302
 20
180.4751368833005
 30
0.0
 10
66.68580520381076
 20
180.6935804705464
 30
0.0
 10
66.68465423385408
 20
180.8400742279428
 30
0.0
 10
66.68407864560625
 20
180.9133342506268
 30
0.0
  0
SPLINE
  5
F3
330
1F
100
AcDbEntity
  8
0
  6
Continuous
 62
     7
370
     0
100
AcDbSpline
210
0.0
220
0.0
230
1.0
 70
     8
 71
     3
 72
    12
 73
     8
 74
     0
 42
0.00000001
 43
0.00000001
 40
0.0
 40
0.0
 40
0.0
 40
0.0
 40
0.2501118399281522
 40
0.500020391362854
 40
0.749755480835304
 40
0.8748530671024379
 40
1.0
 40
1.0
 40
1.0
 40
1.0
 10
66.97545318205214
 20
179.8736590906834
 30
0.0
 10
66.95549654949953
 20
179.8755310397153
 30
0.0
 10
66.91559950495297
 20
179.8792734162771
 30
0.0
 10
66.85888454316604
 20
179.9147357524523
 30
0.0
 10
66.81715382398093
 20
179.9687348000994
 30
0.0
 10
66.78784844511085
 20
180.0233184284236
 30
0.0
 10
66.77539159990042
 20
180.0555264630528
 30
0.0
 10
66.7691619490898
 20
180.0716336559775
 30
0.0
  0
LINE
  5
F4
330
1F
100
AcDbEntity
  8
0
  6
Continuous
 62
     7
370
     0
100
AcDbLine
 10
66.0428052956
 20
180.7429360029
 30
0.0
 11
65.846988205
 21
180.7429360029
 31
0.0
  0
LINE
  5
F5
330
1F
100
AcDbEntity
  8
0
  6
Continuous
 62
     7
370
     0
100
AcDbLine
 10
65.846988205
 20
180.505860391
 30
0.0
 11
65.846988205
 21
180.7429360029
 31
0.0
  0
LINE
  5
F6
330
1F
100
AcDbEntity
  8
0
  6
Continuous
 62
     7
370
     0
100
AcDbLine
 10
66.0428052956
 20
180.505860391
 30
0.0
 11
65.846988205
 21
180.505860391
 31
0.0
  0
LINE
  5
F7
330
1F
100
AcDbEntity
  8
0
  6
Continuous
 62
     7
370
     0
100
AcDbLine
 10
66.0428052956
 20
180.7429360029
 30
0.0
 11
66.0428052956
 21
180.505860391
 31
0.0
  0
SPLINE
  5
F8
330
1F
100
AcDbEntity
  8
0
  6
Continuous
 62
     7
370
     0
100
AcDbSpline
210
0.0
220
0.0
230
1.0
 70
     8
 71
     3
 72
    11
 73
     7
 74
     0
 42
0.00000001
 43
0.00000001
 40
0.0
 40
0.0
 40
0.0
 40
0.0
 40
0.5000559365421882
 40
0.7500254270431097
 40
0.8749930463106992
 40
1.0
 40
1.0
 40
1.0
 40
1.0
 10
65.68439033284038
 20
180.5445500292059
 30
0.0
 10
65.67298854456075
 20
180.4851236617174
 30
0.0
 10
65.65588719549446
 20
180.3959910599502
 30
0.0
 10
65.6384067437643
 20
180.289032640806
 30
0.0
 10
65.62983249653837
 20
180.2197766054782
 30
0.0
 10
65.62616883582287
 20
180.1822062536371
 30
0.0
 10
65.62433671721985
 20
180.1634181217999
 30
0.0
  0
SPLINE
  5
F9
330
1F
100
AcDbEntity
  8
0
  6
Continuous
 62
     7
370
     0
100
AcDbSpline
210
0.0
220
0.0
230
1.0
 70
     8
 71
     3
 72
    13
 73
     9
 74
     0
 42
0.00000001
 43
0.00000001
 40
0.0
 40
0.0
 40
0.0
 40
0.0
 40
0.0625670028739886
 40
0.1251123636811001
 40
0.2501000564441472
 40
0.4996023599251631
 40
0.7497082952879645
 40
1.0
 40
1.0
 40
1.0
 40
1.0
 10
65.78980596321392
 20
181.3874853924537
 30
0.0
 10
65.78967676195391
 20
181.3655475666336
 30
0.0
 10
65.7894184041249
 20
181.3216795033366
 30
0.0
 10
65.78651921888485
 20
181.2349666179401
 30
0.0
 10
65.7770869217735
 20
181.0878055190235
 30
0.0
 10
65.75256761256554
 20
180.9023009108107
 30
0.0
 10
65.71777478971607
 20
180.7161799538246
 30
0.0
 10
65.69552123896064
 20
180.601774161546
 30
0.0
 10
65.68439033284038
 20
180.5445500292059
 30
0.0
  0
SPLINE
  5
FA
330
1F
100
AcDbEntity
  8
0
  6
Continuous
 62
     7
370
     0
100
AcDbSpline
210
0.0
220
0.0
230
1.0
 70
     8
 71
     3
 72
    15
 73
    11
 74
     0
 42
0.00000001
 43
0.00000001
 40
0.0
 40
0.0
 40
0.0
 40
0.0
 40
0.1252543890245815
 40
0.2504695275763186
 40
0.3772925374874811
 40
0.5007199070089936
 40
0.7495447237398296
 40
0.8496615592593405
 40
0.9248257521403771
 40
1.0
 40
1.0
 40
1.0
 40
1.0
 10
65.67442003249579
 20
181.9546557687015
 30
0.0
 10
65.68080991602605
 20
181.9533583688553
 30
0.0
 10
65.69358768071402
 20
181.950763975724
 30
0.0
 10
65.71387387589814
 20
181.9255915409264
 30
0.0
 10
65.73398005397785
 20
181.8804700219679
 30
0.0
 10
65.75860127888832
 20
181.7889591790584
 30
0.0
 10
65.77772126417214
 20
181.6656678507912
 30
0.0
 10
65.78639203365088
 20
181.5374304756858
 30
0.0
 10
65.78943442075412
 20
181.4590800691722
 30
0.0
 10
65.7896821102053
 20
181.4113513487619
 30
0.0
 10
65.78980596321392
 20
181.3874853924537
 30
0.0
  0
SPLINE
  5
FB
330
1F
100
AcDbEntity
  8
0
  6
Continuous
 62
     7
370
     0
100
AcDbSpline
210
0.0
220
0.0
230
1.0
 70
     8
 71
     3
 72
    14
 73
    10
 74
     0
 42
0.00000001
 43
0.00000001
 40
0.0
 40
0.0
 40
0.0
 40
0.0
 40
0.1252782849191321
 40
0.25048604309365
 40
0.3764467575428605
 40
0.5006644737345214
 40
0.749484876458219
 40
0.8747138038269268
 40
1.0
 40
1.0
 40
1.0
 40
1.0
 10
65.58726750939786
 20
181.3751377064686
 30
0.0
 10
65.58781958733509
 20
181.4157380015433
 30
0.0
 10
65.58892343241139
 20
181.4969157353241
 30
0.0
 10
65.59309701318952
 20
181.6144176003325
 30
0.0
 10
65.59986154659656
 20
181.7222112286525
 30
0.0
 10
65.61304172735693
 20
181.8427375336149
 30
0.0
 10
65.63241647578872
 20
181.9187464093013
 30
0.0
 10
65.65537606991198
 20
181.9505316588986
 30
0.0
 10
65.66807107759058
 20
181.9532808559412
 30
0.0
 10
65.67442003249579
 20
181.9546557687015
 30
0.0
  0
SPLINE
  5
FC
330
1F
100
AcDbEntity
  8
0
  6
Continuous
 62
     7
370
     0
100
AcDbSpline
210
0.0
220
0.0
230
1.0
 70
     8
 71
     3
 72
     8
 73
     4
 74
     0
 42
0.00000001
 43
0.00000001
 40
0.0
 40
0.0
 40
0.0
 40
0.0
 40
1.0
 40
1.0
 40
1.0
 40
1.0
 10
65.61806611264296
 20
181.3487959763671
 30
0.0
 10
65.60689592905132
 20
181.3575765530676
 30
0.0
 10
65.59662899185952
 20
181.3663571297681
 30
0.0
 10
65.58726750939786
 20
181.3751377064686
 30
0.0
  0
SPLINE
  5
FD
330
1F
100
AcDbEntity
  8
0
  6
Continuous
 62
     7
370
     0
100
AcDbSpline
210
0.0
220
0.0
230
1.0
 70
     8
 71
     3
 72
    14
 73
    10
 74
     0
 42
0.00000001
 43
0.00000001
 40
0.0
 40
0.0
 40
0.0
 40
0.0
 40
0.1431578426849524
 40
0.250503626404026
 40
0.4993512553293872
 40
0.6244521048522212
 40
0.7495563709515881
 40
0.874712070927037
 40
1.0
 40
1.0
 40
1.0
 40
1.0
 10
65.67351084322175
 20
181.7175801977881
 30
0.0
 10
65.66901612533341
 20
181.7163884589883
 30
0.0
 10
65.66115107854606
 20
181.7143031042115
 30
0.0
 10
65.64658185155764
 20
181.6917664092989
 30
0.0
 10
65.63434188464879
 20
181.642727784893
 30
0.0
 10
65.62539706179663
 20
181.5666457321387
 30
0.0
 10
65.6210065990697
 20
181.4982352368028
 30
0.0
 10
65.61846318537602
 20
181.4246138602203
 30
0.0
 10
65.6181985168005
 20
181.3740774983723
 30
0.0
 10
65.61806611264296
 20
181.3487959763672
 30
0.0
  0
SPLINE
  5
FE
330
1F
100
AcDbEntity
  8
0
  6
Continuous
 62
     7
370
     0
100
AcDbSpline
210
0.0
220
0.0
230
1.0
 70
     8
 71
     3
 72
    14
 73
    10
 74
     0
 42
0.00000001
 43
0.00000001
 40
0.0
 40
0.0
 40
0.0
 40
0.0
 40
0.1251777239524612
 40
0.2502249936563041
 40
0.4991375284709518
 40
0.6242938301537581
 40
0.7494325275307321
 40
0.8746941482625
 40
1.0
 40
1.0
 40
1.0
 40
1.0
 10
65.73796933837693
 20
181.3850158552567
 30
0.0
 10
65.73772768399435
 20
181.4083898841889
 30
0.0
 10
65.73724462706987
 20
181.455113582756
 30
0.0
 10
65.73165558941048
 20
181.5442281810874
 30
0.0
 10
65.7207265875057
 20
181.6196948153666
 30
0.0
 10
65.70715827059779
 20
181.6723350995089
 30
0.0
 10
65.69610576338454
 20
181.7002865603842
 30
0.0
 10
65.6846568383361
 20
181.7147853737266
 30
0.0
 10
65.6772266121293
 20
181.7166484801403
 30
0.0
 10
65.67351084322175
 20
181.7175801977881
 30
0.0
  0
SPLINE
  5
FF
330
1F
100
AcDbEntity
  8
0
  6
Continuous
 62
     7
370
     0
100
AcDbSpline
210
0.0
220
0.0
230
1.0
 70
     8
 71
     3
 72
    14
 73
    10
 74
     0
 42
0.00000001
 43
0.00000001
 40
0.0
 40
0.0
 40
0.0
 40
0.0
 40
0.2795006677539943
 40
0.5002268198936012
 40
0.6252686909815914
 40
0.7502235542268691
 40
0.8750672174687976
 40
0.9250731980524247
 40
1.0
 40
1.0
 40
1.0
 40
1.0
 10
65.64672573417121
 20
180.6684384785895
 30
0.0
 10
65.6564856093738
 20
180.7247523440264
 30
0.0
 10
65.67395301427976
 20
180.8255381705856
 30
0.0
 10
65.6971480421024
 20
180.9599760482985
 30
0.0
 10
65.71429666339588
 20
181.06752894991
 30
0.0
 10
65.72642489803056
 20
181.1626547298983
 30
0.0
 10
65.73363742095863
 20
181.2477963607861
 30
0.0
 10
65.73729368385868
 20
181.3229803236538
 30
0.0
 10
65.7377160373786
 20
181.3617589071236
 30
0.0
 10
65.73796933837693
 20
181.3850158552567
 30
0.0
  0
SPLINE
  5
100
330
1F
100
AcDbEntity
  8
0
  6
Continuous
 62
     7
370
     0
100
AcDbSpline
210
0.0
220
0.0
230
1.0
 70
     8
 71
     3
 72
    13
 73
     9
 74
     0
 42
0.00000001
 43
0.00000001
 40
0.0
 40
0.0
 40
0.0
 40
0.0
 40
0.1250243456979589
 40
0.2500440595933858
 40
0.499827481754379
 40
0.6998538811705658
 40
0.8499240765113224
 40
1.0
 40
1.0
 40
1.0
 40
1.0
 10
65.58739921492837
 20
180.082746573364
 30
0.0
 10
65.58858461532544
 20
180.1126579474756
 30
0.0
 10
65.59095537220384
 20
180.172479587566
 30
0.0
 10
65.59775714305187
 20
180.2844281492181
 30
0.0
 10
65.60783694208536
 20
180.403405794151
 30
0.0
 10
65.62144954707954
 20
180.5115366427511
 30
0.0
 10
65.63401586936595
 20
180.5969823860215
 30
0.0
 10
65.64248905866718
 20
180.644619478023
 30
0.0
 10
65.64672573417121
 20
180.6684384785895
 30
0.0
  0
SPLINE
  5
101
330
1F
100
AcDbEntity
  8
0
  6
Continuous
 62
     7
370
     0
100
AcDbSpline
210
0.0
220
0.0
230
1.0
 70
     8
 71
     3
 72
    10
 73
     6
 74
     0
 42
0.00000001
 43
0.00000001
 40
0.0
 40
0.0
 40
0.0
 40
0.0
 40
0.4997743812397121
 40
0.7498615330601899
 40
1.0
 40
1.0
 40
1.0
 40
1.0
 10
65.58448622933233
 20
179.9000008207849
 30
0.0
 10
65.58456615322595
 20
179.9309830841265
 30
0.0
 10
65.58468607104415
 20
179.9774688752336
 30
0.0
 10
65.58590078969469
 20
180.0384707298493
 30
0.0
 10
65.5868997056929
 20
180.0679869495623
 30
0.0
 10
65.58739921492837
 20
180.082746573364
 30
0.0
  0
LINE
  5
102
330
1F
100
AcDbEntity
  8
0
  6
Continuous
 62
     7
370
     0
100
AcDbLine
 10
65.7952839697
 20
179.9000005973
 30
0.0
 11
65.5844865555
 21
179.9000005973
 31
0.0
  0
LINE
  5
103
330
1F
100
AcDbEntity
  8
0
  6
Continuous
 62
     7
370
     0
100
AcDbLine
 10
65.7952839697
 20
180.1634177369
 30
0.0
 11
65.7952839697
 21
179.9000005973
 31
0.0
  0
LINE
  5
104
330
1F
100
AcDbEntity
  8
0
  6
Continuous
 62
     7
370
     0
100
AcDbLine
 10
65.7952839697
 20
180.1634177369
 30
0.0
 11
65.6243369171
 21
180.1634177369
 31
0.0
  0
LINE
  5
105
330
1F
100
AcDbEntity
  8
0
  6
Continuous
 62
     7
370
     0
100
AcDbLine
 10
78.2148812154
 20
169.9000008208
 30
0.0
 11
90.9148810619
 21
169.9000008208
 31
0.0
  0
LINE
  5
106
330
1F
100
AcDbEntity
  8
0
  6
Continuous
 62
     7
370
     0
100
AcDbLine
 10
65.5148813689
 20
169.9000008208
 30
0.0
 11
78.2148812154
 21
169.9000008208
 31
0.0
  0
SPLINE
  5
107
330
1F
100
AcDbEntity
  8
0
  6
Continuous
 62
     7
370
     0
100
AcDbSpline
210
0.0
220
0.0
230
1.0
 70
     8
 71
     3
 72
    15
 73
    11
 74
     0
 42
0.00000001
 43
0.00000001
 40
0.0
 40
0.0
 40
0.0
 40
0.0
 40
0.1252140264546904
 40
0.2503756487165189
 40
0.4996035792329996
 40
0.6246314802668947
 40
0.749686278469164
 40
0.8747533698907703
 40
0.9582313420285324
 40
1.0
 40
1.0
 40
1.0
 40
1.0
 10
65.56419308701545
 20
180.5766540127671
 30
0.0
 10
65.564022086507
 20
180.5319592235694
 30
0.0
 10
65.56368015705668
 20
180.4425883507011
 30
0.0
 10
65.55977372352599
 20
180.2695381625948
 30
0.0
 10
65.55259692267168
 20
180.1083783769342
 30
0.0
 10
65.54317262789374
 20
179.9868833348247
 30
0.0
 10
65.53582244275745
 20
179.9203149765307
 30
0.0
 10
65.52977719726886
 20
179.8855828721932
 30
0.0
 10
65.52584395540119
 20
179.874466457641
 30
0.0
 10
65.52414497315792
 20
179.8738610041411
 30
0.0
 10
65.52357837740874
 20
179.8736590906834
 30
0.0
  0
SPLINE
  5
108
330
1F
100
AcDbEntity
  8
0
  6
Continuous
 62
     7
370
     0
100
AcDbSpline
210
0.0
220
0.0
230
1.0
 70
     8
 71
     3
 72
    15
 73
    11
 74
     0
 42
0.00000001
 43
0.00000001
 40
0.0
 40
0.0
 40
0.0
 40
0.0
 40
0.0626629053360856
 40
0.1252987798722015
 40
0.2503991924430731
 40
0.4993557703984996
 40
0.6242346919621318
 40
0.749556522758939
 40
0.8747449663223507
 40
1.0
 40
1.0
 40
1.0
 40
1.0
 10
65.52521774396358
 20
181.2434290559612
 30
0.0
 10
65.5260952716965
 20
181.2428704079308
 30
0.0
 10
65.52784994862458
 20
181.2417533528533
 30
0.0
 10
65.53184185417982
 20
181.2290725284738
 30
0.0
 10
65.539577018515
 20
181.183721184205
 30
0.0
 10
65.5491108506375
 20
181.0775761254564
 30
0.0
 10
65.55693461895936
 20
180.9418544755975
 30
0.0
 10
65.5612187244057
 20
180.8259403976754
 30
0.0
 10
65.56378863442387
 20
180.7026852194476
 30
0.0
 10
65.56405824558941
 20
180.6186718610641
 30
0.0
 10
65.56419308701545
 20
180.5766540127671
 30
0.0
  0
SPLINE
  5
109
330
1F
100
AcDbEntity
  8
0
  6
Continuous
 62
     7
370
     0
100
AcDbSpline
210
0.0
220
0.0
230
1.0
 70
     8
 71
     3
 72
    13
 73
     9
 74
     0
 42
0.00000001
 43
0.00000001
 40
0.0
 40
0.0
 40
0.0
 40
0.0
 40
0.1251792394697687
 40
0.2502903692716598
 40
0.4999234787585313
 40
0.7497270045772042
 40
0.8748337872699811
 40
1.0
 40
1.0
 40
1.0
 40
1.0
 10
65.51488804500195
 20
180.9726031433552
 30
0.0
 10
65.5149158198763
 20
180.9927447395601
 30
0.0
 10
65.51497135451277
 20
181.0330169729849
 30
0.0
 10
65.5153980437949
 20
181.105467109177
 30
0.0
 10
65.516635663974
 20
181.1782890492976
 30
0.0
 10
65.51931248700241
 20
181.2223145125932
 30
0.0
 10
65.5223540014165
 20
181.2409878406147
 30
0.0
 10
65.52426301200946
 20
181.2426151887018
 30
0.0
 10
65.52521774396358
 20
181.2434290559612
 30
0.0
  0
SPLINE
  5
10A
330
1F
100
AcDbEntity
  8
0
  6
Continuous
 62
     7
370
     0
100
AcDbSpline
210
0.0
220
0.0
230
1.0
 70
     8
 71
     3
 72
    15
 73
    11
 74
     0
 42
0.00000001
 43
0.00000001
 40
0.0
 40
0.0
 40
0.0
 40
0.0
 40
0.0714878171326319
 40
0.1429388288716913
 40
0.2857531074313822
 40
0.4996530364228879
 40
0.6145731040906779
 40
0.7498042294793784
 40
0.8606979991142396
 40
1.0
 40
1.0
 40
1.0
 40
1.0
 10
65.51751147869265
 20
181.6566649469284
 30
0.0
 10
65.51724320075
 20
181.645233641688
 30
0.0
 10
65.51670678298717
 20
181.6223769165971
 30
0.0
 10
65.51594990932557
 20
181.5701930040011
 30
0.0
 10
65.51526804609865
 20
181.4807129415981
 30
0.0
 10
65.51500413276449
 20
181.3710783234424
 30
0.0
 10
65.51492583534457
 20
181.2568175677249
 30
0.0
 10
65.51489982326268
 20
181.1669629520737
 30
0.0
 10
65.51489035229834
 20
181.0703851276876
 30
0.0
 10
65.51488887019538
 20
181.0075743988232
 30
0.0
 10
65.51488804500195
 20
180.9726031433552
 30
0.0
  0
SPLINE
  5
10B
330
1F
100
AcDbEntity
  8
0
  6
Continuous
 62
     7
370
     0
100
AcDbSpline
210
0.0
220
0.0
230
1.0
 70
     8
 71
     3
 72
    11
 73
     7
 74
     0
 42
0.00000001
 43
0.00000001
 40
0.0
 40
0.0
 40
0.0
 40
0.0
 40
0.250062190507872
 40
0.4999962749138883
 40
0.749934451994772
 40
1.0
 40
1.0
 40
1.0
 40
1.0
 10
65.52405690362367
 20
181.7175801977881
 30
0.0
 10
65.52333735016727
 20
181.7169515902024
 30
0.0
 10
65.52189861187954
 20
181.7156946970649
 30
0.0
 10
65.52012426827206
 20
181.7033386188524
 30
0.0
 10
65.51862277206733
 20
181.684724030491
 30
0.0
 10
65.51788197272128
 20
181.6660195630409
 30
0.0
 10
65.51751147869265
 20
181.6566649469284
 30
0.0
  0
SPLINE
  5
10C
330
1F
100
AcDbEntity
  8
0
  6
Continuous
 62
     7
370
     0
100
AcDbSpline
210
0.0
220
0.0
230
1.0
 70
     8
 71
     3
 72
    11
 73
     7
 74
     0
 42
0.00000001
 43
0.00000001
 40
0.0
 40
0.0
 40
0.0
 40
0.0
 40
0.2500694066429525
 40
0.499982041637355
 40
0.7499178071120577
 40
1.0
 40
1.0
 40
1.0
 40
1.0
 10
65.5361258980777
 20
181.6122132773821
 30
0.0
 10
65.53515224046099
 20
181.6282471504429
 30
0.0
 10
65.53320553562575
 20
181.6603048447284
 30
0.0
 10
65.53000080450511
 20
181.6936774172954
 30
0.0
 10
65.52684220209183
 20
181.714289388311
 30
0.0
 10
65.52498551768622
 20
181.7164830471622
 30
0.0
 10
65.52405690362367
 20
181.7175801977881
 30
0.0
  0
SPLINE
  5
10D
330
1F
100
AcDbEntity
  8
0
  6
Continuous
 62
     7
370
     0
100
AcDbSpline
210
0.0
220
0.0
230
1.0
 70
     8
 71
     3
 72
    10
 73
     6
 74
     0
 42
0.00000001
 43
0.00000001
 40
0.0
 40
0.0
 40
0.0
 40
0.0
 40
0.4999372486234458
 40
0.7499892205951475
 40
1.0
 40
1.0
 40
1.0
 40
1.0
 10
65.54197823248238
 20
181.4014794365702
 30
0.0
 10
65.54132027456313
 20
181.439063795416
 30
0.0
 10
65.54033322799198
 20
181.4954465996079
 30
0.0
 10
65.53827012334486
 20
181.5664499201413
 30
0.0
 10
65.5368406005812
 20
181.5969596627131
 30
0.0
 10
65.5361258980777
 20
181.6122132773821
 30
0.0
  0
SPLINE
  5
10E
330
1F
100
AcDbEntity
  8
0
  6
Continuous
 62
     7
370
     0
100
AcDbSpline
210
0.0
220
0.0
230
1.0
 70
     8
 71
     3
 72
     8
 73
     4
 74
     0
 42
0.00000001
 43
0.00000001
 40
0.0
 40
0.0
 40
0.0
 40
0.0
 40
1.0
 40
1.0
 40
1.0
 40
1.0
 10
65.5619012451958
 20
181.4278211666716
 30
0.0
 10
65.55435249112915
 20
181.4190405899711
 30
0.0
 10
65.54771101071613
 20
181.4102600132706
 30
0.0
 10
65.54197823248238
 20
181.4014794365702
 30
0.0
  0
SPLINE
  5
10F
330
1F
100
AcDbEntity
  8
0
  6
Continuous
 62
     7
370
     0
100
AcDbSpline
210
0.0
220
0.0
230
1.0
 70
     8
 71
     3
 72
    13
 73
     9
 74
     0
 42
0.00000001
 43
0.00000001
 40
0.0
 40
0.0
 40
0.0
 40
0.0
 40
0.1253989710966539
 40
0.2507554788520021
 40
0.4999674723162179
 40
0.7492303950909371
 40
0.8745784469288213
 40
1.0
 40
1.0
 40
1.0
 40
1.0
 10
65.52472566335894
 20
181.9546557687015
 30
0.0
 10
65.52625949310219
 20
181.9533771909477
 30
0.0
 10
65.52932663319423
 20
181.9508204683995
 30
0.0
 10
65.53685200213982
 20
181.9175523385024
 30
0.0
 10
65.54753115061531
 20
181.8258603882318
 30
0.0
 10
65.55620663681053
 20
181.6739415813349
 30
0.0
 10
65.56039676814949
 20
181.5362971255341
 30
0.0
 10
65.56139965486412
 20
181.4639868844
 30
0.0
 10
65.5619012451958
 20
181.4278211666716
 30
0.0
  0
SPLINE
  5
110
330
1F
100
AcDbEntity
  8
0
  6
Continuous
 62
     7
370
     0
100
AcDbSpline
210
0.0
220
0.0
230
1.0
 70
     8
 71
     3
 72
    17
 73
    13
 74
     0
 42
0.00000001
 43
0.00000001
 40
0.0
 40
0.0
 40
0.0
 40
0.0
 40
0.0625403099404373
 40
0.1250778739838911
 40
0.2498441509250198
 40
0.3212915976448196
 40
0.3927532396738423
 40
0.4998211942582856
 40
0.6247169125947619
 40
0.749759715639306
 40
0.8498579354880788
 40
1.0
 40
1.0
 40
1.0
 40
1.0
 10
66.31827409353093
 20
181.9546557687015
 30
0.0
 10
66.3282444073915
 20
181.953731982364
 30
0.0
 10
66.34818459735567
 20
181.9518844502487
 30
0.0
 10
66.38823084181386
 20
181.9294945980926
 30
0.0
 10
66.42850670760222
 20
181.8834859111709
 30
0.0
 10
66.46648504635492
 20
181.8154137034701
 30
0.0
 10
66.49812131074633
 20
181.7374016105914
 30
0.0
 10
66.52931841040889
 20
181.6246211322354
 30
0.0
 10
66.55495361135353
 20
181.4751684155023
 30
0.0
 10
66.56755639107018
 20
181.3192155423144
 30
0.0
 10
66.57488195284637
 20
181.1502271922872
 30
0.0
 10
66.57568509934187
 20
181.0368963744391
 30
0.0
 10
66.57616698047963
 20
180.9688988375597
 30
0.0
  0
SPLINE
  5
111
330
1F
100
AcDbEntity
  8
0
  6
Continuous
 62
     7
370
     0
100
AcDbSpline
210
0.0
220
0.0
230
1.0
 70
     8
 71
     3
 72
    15
 73
    11
 74
     0
 42
0.00000001
 43
0.00000001
 40
0.0
 40
0.0
 40
0.0
 40
0.0
 40
0.1252887505648443
 40
0.2504882286805521
 40
0.3770365727948514
 40
0.5007435852616331
 40
0.7495387817024696
 40
0.8746650576213649
 40
0.9373212665592866
 40
1.0
 40
1.0
 40
1.0
 40
1.0
 10
66.11256512304801
 20
181.2726519127925
 30
0.0
 10
66.11302050817847
 20
181.3160835214534
 30
0.0
 10
66.11393095396215
 20
181.4029157922931
 30
0.0
 10
66.12291334246446
 20
181.5309760473684
 30
0.0
 10
66.13906594516338
 20
181.6508978529564
 30
0.0
 10
66.17097182279662
 20
181.7913206334603
 30
0.0
 10
66.21712976918101
 20
181.8974252628667
 30
0.0
 10
66.2660737922203
 20
181.9413510995113
 30
0.0
 10
66.29557083565909
 20
181.9530771118716
 30
0.0
 10
66.31070543427153
 20
181.9541294867159
 30
0.0
 10
66.31827409353093
 20
181.9546557687015
 30
0.0
  0
SPLINE
  5
112
330
1F
100
AcDbEntity
  8
0
  6
Continuous
 62
     7
370
     0
100
AcDbSpline
210
0.0
220
0.0
230
1.0
 70
     8
 71
     3
 72
    14
 73
    10
 74
     0
 42
0.00000001
 43
0.00000001
 40
0.0
 40
0.0
 40
0.0
 40
0.0
 40
0.0627517291583974
 40
0.1254851502985816
 40
0.2506939512229694
 40
0.4998334182028635
 40
0.7491751218864958
 40
0.8745705794196731
 40
1.0
 40
1.0
 40
1.0
 40
1.0
 10
66.30207442164473
 20
180.6112275335253
 30
0.0
 10
66.29497169104187
 20
180.6117894413681
 30
0.0
 10
66.28076830208056
 20
180.6129130931155
 30
0.0
 10
66.25315421130136
 20
180.6258461848106
 30
0.0
 10
66.20756836337748
 20
180.6717427817585
 30
0.0
 10
66.15465456721418
 20
180.8030954777983
 30
0.0
 10
66.12436507937755
 20
180.9881595212158
 30
0.0
 10
66.1138620618429
 20
181.1492542128148
 30
0.0
 10
66.11299747500289
 20
181.2315156332526
 30
0.0
 10
66.11256512304801
 20
181.2726519127925
 30
0.0
  0
SPLINE
  5
113
330
1F
100
AcDbEntity
  8
0
  6
Continuous
 62
     7
370
     0
100
AcDbSpline
210
0.0
220
0.0
230
1.0
 70
     8
 71
     3
 72
    13
 73
     9
 74
     0
 42
0.00000001
 43
0.00000001
 40
0.0
 40
0.0
 40
0.0
 40
0.0
 40
0.1430245461696566
 40
0.2859740178866038
 40
0.5712824636310121
 40
0.7854617564667286
 40
0.8926986585742537
 40
1.0
 40
1.0
 40
1.0
 40
1.0
 10
66.47326223457155
 20
180.8795839089343
 30
0.0
 10
66.46758873178796
 20
180.8570983129124
 30
0.0
 10
66.45624470427684
 20
180.8121389236946
 30
0.0
 10
66.42787705243967
 20
180.7347541327964
 30
0.0
 10
66.39034656034273
 20
180.666157323284
 30
0.0
 10
66.35140735066229
 20
180.6264819418147
 30
0.0
 10
66.32316499705918
 20
180.6131683221622
 30
0.0
 10
66.30910602104757
 20
180.6118745926004
 30
0.0
 10
66.30207442164473
 20
180.6112275335253
 30
0.0
  0
LINE
  5
114
330
1F
100
AcDbEntity
  8
0
  6
Continuous
 62
     7
370
     0
100
AcDbLine
 10
66.4737329075
 20
180.8293701884
 30
0.0
 11
66.4732625896
 21
180.8795843077
 31
0.0
  0
SPLINE
  5
115
330
1F
100
AcDbEntity
  8
0
  6
Continuous
 62
     7
370
     0
100
AcDbSpline
210
0.0
220
0.0
230
1.0
 70
     8
 71
     3
 72
    16
 73
    12
 74
     0
 42
0.00000001
 43
0.00000001
 40
0.0
 40
0.0
 40
0.0
 40
0.0
 40
0.0625816197474816
 40
0.1251285240635723
 40
0.2498181409520589
 40
0.3744392268407864
 40
0.4993354886444168
 40
0.6423482163700203
 40
0.7853959263790855
 40
0.8926927347061671
 40
1.0
 40
1.0
 40
1.0
 40
1.0
 10
66.31051273912367
 20
180.1107346615969
 30
0.0
 10
66.31742437809325
 20
180.1115061582047
 30
0.0
 10
66.3312438219909
 20
180.1130487234538
 30
0.0
 10
66.3587416568643
 20
180.1298624073069
 30
0.0
 10
66.39135723716521
 20
180.1728172323406
 30
0.0
 10
66.4235810768142
 20
180.256369758176
 30
0.0
 10
66.44326154452489
 20
180.3702245009802
 30
0.0
 10
66.45785777391937
 20
180.4939224331839
 30
0.0
 10
66.46782834110181
 20
180.6155075763702
 30
0.0
 10
66.47301014535492
 20
180.7277373319409
 30
0.0
 10
66.47349194134611
 20
180.7954913341209
 30
0.0
 10
66.4737328510799
 20
180.8293699859283
 30
0.0
  0
SPLINE
  5
116
330
1F
100
AcDbEntity
  8
0
  6
Continuous
 62
     7
370
     0
100
AcDbSpline
210
0.0
220
0.0
230
1.0
 70
     8
 71
     3
 72
    13
 73
     9
 74
     0
 42
0.00000001
 43
0.00000001
 40
0.0
 40
0.0
 40
0.0
 40
0.0
 40
0.1917161088476149
 40
0.3567959472826769
 40
0.5009115742301173
 40
0.749388855788278
 40
0.8746309851730083
 40
1.0
 40
1.0
 40
1.0
 40
1.0
 10
66.20355194345015
 20
180.4268354228148
 30
0.0
 10
66.20564585344755
 20
180.395855955904
 30
0.0
 10
66.2095427539508
 20
180.3382011854772
 30
0.0
 10
66.21986395336894
 20
180.2613452258381
 30
0.0
 10
66.23694509833236
 20
180.1844070101803
 30
0.0
 10
66.26174505056315
 20
180.1354214528035
 30
0.0
 10
66.2889571713494
 20
180.1130396483424
 30
0.0
 10
66.30332512501442
 20
180.111503249807
 30
0.0
 10
66.31051273912367
 20
180.1107346615969
 30
0.0
  0
SPLINE
  5
117
330
1F
100
AcDbEntity
  8
0
  6
Continuous
 62
     7
370
     0
100
AcDbSpline
210
0.0
220
0.0
230
1.0
 70
     8
 71
     3
 72
     8
 73
     4
 74
     0
 42
0.00000001
 43
0.00000001
 40
0.0
 40
0.0
 40
0.0
 40
0.0
 40
1.0
 40
1.0
 40
1.0
 40
1.0
 10
66.12057702443283
 20
180.4004936927133
 30
0.0
 10
66.1473700998684
 20
180.4092742694138
 30
0.0
 10
66.17503038937134
 20
180.4180548461143
 30
0.0
 10
66.20355194345015
 20
180.4268354228148
 30
0.0
  0
SPLINE
  5
118
330
1F
100
AcDbEntity
  8
0
  6
Continuous
 62
     7
370
     0
100
AcDbSpline
210
0.0
220
0.0
230
1.0
 70
     8
 71
     3
 72
    13
 73
     9
 74
     0
 42
0.00000001
 43
0.00000001
 40
0.0
 40
0.0
 40
0.0
 40
0.0
 40
0.1254044199167781
 40
0.2507436796072391
 40
0.4998501634744761
 40
0.7491806965812862
 40
0.8745524567700779
 40
0.9999999999999999
 40
0.9999999999999999
 40
0.9999999999999999
 40
0.9999999999999999
 10
66.3057876362987
 20
179.8736590906834
 30
0.0
 10
66.29343130332568
 20
179.8750200554581
 30
0.0
 10
66.26872505773908
 20
179.8777412778493
 30
0.0
 10
66.22204935396876
 20
179.9117259135473
 30
0.0
 10
66.17096786347986
 20
180.005833221097
 30
0.0
 10
66.13960864256076
 20
180.1586104391353
 30
0.0
 10
66.1255621650365
 20
180.2942702728813
 30
0.0
 10
66.1222390726493
 20
180.3650787546977
 30
0.0
 10
66.12057702443283
 20
180.4004936927133
 30
0.0
  0
SPLINE
  5
119
330
1F
100
AcDbEntity
  8
0
  6
Continuous
 62
     7
370
     0
100
AcDbSpline
210
0.0
220
0.0
230
1.0
 70
     8
 71
     3
 72
    16
 73
    12
 74
     0
 42
0.00000001
 43
0.00000001
 40
0.0
 40
0.0
 40
0.0
 40
0.0
 40
0.1430616341057015
 40
0.2503572317569375
 40
0.3754829729345912
 40
0.5005081395810329
 40
0.6281730483511293
 40
0.7501510608234391
 40
0.8748803908926467
 40
0.9374219514180424
 40
1.0
 40
1.0
 40
1.0
 40
1.0
 10
66.57616698047963
 20
180.9688988375597
 30
0.0
 10
66.57567551425001
 20
180.8982406317041
 30
0.0
 10
66.57481545050537
 20
180.774589081591
 30
0.0
 10
66.56721405557893
 20
180.5900020578373
 30
0.0
 10
66.55369086816692
 20
180.4163239389342
 30
0.0
 10
66.52778257646489
 20
180.2405659031074
 30
0.0
 10
66.48814864723322
 20
180.0837282539511
 30
0.0
 10
66.43409650704017
 20
179.9615983583857
 30
0.0
 10
66.38169153310163
 20
179.9004853050382
 30
0.0
 10
66.33819694555982
 20
179.8765930724463
 30
0.0
 10
66.3165928394878
 20
179.8746372747245
 30
0.0
 10
66.3057876362987
 20
179.8736590906834
 30
0.0
  0
LINE
  5
11A
330
1F
100
AcDbEntity
  8
0
  6
Continuous
 62
     7
370
     0
100
AcDbLine
 10
67.8265804613
 20
180.7429360029
 30
0.0
 11
67.406192627
 21
180.7429360029
 31
0.0
  0
LINE
  5
11B
330
1F
100
AcDbEntity
  8
0
  6
Continuous
 62
     7
370
     0
100
AcDbLine
 10
67.406192627
 20
180.505860391
 30
0.0
 11
67.406192627
 21
180.7429360029
 31
0.0
  0
LINE
  5
11C
330
1F
100
AcDbEntity
  8
0
  6
Continuous
 62
     7
370
     0
100
AcDbLine
 10
67.8265804613
 20
180.505860391
 30
0.0
 11
67.406192627
 21
180.505860391
 31
0.0
  0
LINE
  5
11D
330
1F
100
AcDbEntity
  8
0
  6
Continuous
 62
     7
370
     0
100
AcDbLine
 10
67.8265804613
 20
180.7429360029
 30
0.0
 11
67.8265804613
 21
180.505860391
 31
0.0
  0
SPLINE
  5
11E
330
1F
100
AcDbEntity
  8
0
  6
Continuous
 62
     7
370
     0
100
AcDbSpline
210
0.0
220
0.0
230
1.0
 70
     8
 71
     3
 72
    16
 73
    12
 74
     0
 42
0.00000001
 43
0.00000001
 40
0.0
 40
0.0
 40
0.0
 40
0.0
 40
0.1252037281426009
 40
0.2503884232617744
 40
0.3755474586374124
 40
0.5006311301699853
 40
0.6432480406832916
 40
0.750209392338341
 40
0.8748537122524777
 40
0.9374211602822553
 40
1.0
 40
1.0
 40
1.0
 40
1.0
 10
70.1684273791603
 20
180.9133342506268
 30
0.0
 10
70.16780697089241
 20
180.8552156084295
 30
0.0
 10
70.16656624866883
 20
180.7389871590231
 30
0.0
 10
70.15404961352529
 20
180.5652484530665
 30
0.0
 10
70.12981121250236
 20
180.3934864841806
 30
0.0
 10
70.08550694153357
 20
180.2197614966063
 30
0.0
 10
70.01677891620069
 20
180.0678032325175
 30
0.0
 10
69.91704698348015
 20
179.949914802175
 30
0.0
 10
69.8200167129333
 20
179.8969147739004
 30
0.0
 10
69.73461544007192
 20
179.8759101538767
 30
0.0
 10
69.69152016376566
 20
179.8744094906148
 30
0.0
 10
69.66997056419622
 20
179.8736590906834
 30
0.0
  0
SPLINE
  5
11F
330
1F
100
AcDbEntity
  8
0
  6
Continuous
 62
     7
370
     0
100
AcDbSpline
210
0.0
220
0.0
230
1.0
 70
     8
 71
     3
 72
    15
 73
    11
 74
     0
 42
0.00000001
 43
0.00000001
 40
0.0
 40
0.0
 40
0.0
 40
0.0
 40
0.0626253064539623
 40
0.1252128026006802
 40
0.2500411401690629
 40
0.3746316374763726
 40
0.4996312845618917
 40
0.7494694892746645
 40
0.8496821103872467
 40
1.0
 40
1.0
 40
1.0
 40
1.0
 10
69.66997056419622
 20
181.9546557687015
 30
0.0
 10
69.69153314049375
 20
181.953770575939
 30
0.0
 10
69.73464527458748
 20
181.9520007248529
 30
0.0
 10
69.82004927026422
 20
181.9301007109667
 30
0.0
 10
69.92258761083795
 20
181.8742183984943
 30
0.0
 10
70.0229397263928
 20
181.7544117131841
 30
0.0
 10
70.10476272062341
 20
181.5460144245139
 30
0.0
 10
70.15000753575177
 20
181.3309099425097
 30
0.0
 10
70.16601619287529
 20
181.099396301904
 30
0.0
 10
70.16752318587048
 20
180.9831073989328
 30
0.0
 10
70.1684273791603
 20
180.9133342506268
 30
0.0
  0
SPLINE
  5
120
330
1F
100
AcDbEntity
  8
0
  6
Continuous
 62
     7
370
     0
100
AcDbSpline
210
0.0
220
0.0
230
1.0
 70
     8
 71
     3
 72
    17
 73
    13
 74
     0
 42
0.00000001
 43
0.00000001
 40
0.0
 40
0.0
 40
0.0
 40
0.0
 40
0.1251492432292153
 40
0.2502781713674688
 40
0.3837262972916547
 40
0.500410884326953
 40
0.6316207721943438
 40
0.7498824272034553
 40
0.8124001134506058
 40
0.874914889880023
 40
0.9374491704395851
 40
1.0
 40
1.0
 40
1.0
 40
1.0
 10
69.19448429843943
 20
180.9133342506268
 30
0.0
 10
69.19501469567936
 20
180.9715077130571
 30
0.0
 10
69.19607540406146
 20
181.0878451947987
 30
0.0
 10
69.20795659646447
 20
181.2655483371171
 30
0.0
 10
69.23013088358437
 20
181.4375326336925
 30
0.0
 10
69.27046716611433
 20
181.6059903481094
 30
0.0
 10
69.33167483018374
 20
181.7551508965349
 30
0.0
 10
69.40956549314825
 20
181.8550360602957
 30
0.0
 10
69.48183696101702
 20
181.9093626071087
 30
0.0
 10
69.54255012386697
 20
181.9359550255573
 30
0.0
 10
69.60550188933387
 20
181.9524888333144
 30
0.0
 10
69.64847911058574
 20
181.9539333931998
 30
0.0
 10
69.66997056419622
 20
181.9546557687015
 30
0.0
  0
SPLINE
  5
121
330
1F
100
AcDbEntity
  8
0
  6
Continuous
 62
     7
370
     0
100
AcDbSpline
210
0.0
220
0.0
230
1.0
 70
     8
 71
     3
 72
    12
 73
     8
 74
     0
 42
0.00000001
 43
0.00000001
 40
0.0
 40
0.0
 40
0.0
 40
0.0
 40
0.1249981802678278
 40
0.2500181699043239
 40
0.4998430409763975
 40
0.7498766444739978
 40
0.9999999999999999
 40
0.9999999999999999
 40
0.9999999999999999
 40
0.9999999999999999
 10
69.33611232011502
 20
180.0716336559775
 30
0.0
 10
69.32143020788018
 20
180.1020044813384
 30
0.0
 10
69.29206342171244
 20
180.1627514310859
 30
0.0
 10
69.25084420300684
 20
180.2978114660928
 30
0.0
 10
69.21699126436452
 20
180.4751368833005
 30
0.0
 10
69.1973844602762
 20
180.6935804705464
 30
0.0
 10
69.19545113469532
 20
180.8400742279428
 30
0.0
 10
69.19448429843943
 20
180.9133342506268
 30
0.0
  0
SPLINE
  5
122
330
1F
100
AcDbEntity
  8
0
  6
Continuous
 62
     7
370
     0
100
AcDbSpline
210
0.0
220
0.0
230
1.0
 70
     8
 71
     3
 72
    12
 73
     8
 74
     0
 42
0.00000001
 43
0.00000001
 40
0.0
 40
0.0
 40
0.0
 40
0.0
 40
0.2501118399281591
 40
0.500020391362865
 40
0.749755480835309
 40
0.8748530671024569
 40
1.0
 40
1.0
 40
1.0
 40
1.0
 10
69.66997056419622
 20
179.8736590906834
 30
0.0
 10
69.63816789857837
 20
179.8755310397153
 30
0.0
 10
69.57458841624289
 20
179.879273416277
 30
0.0
 10
69.48300572989393
 20
179.9147357524523
 30
0.0
 10
69.41499070116689
 20
179.9687348000994
 30
0.0
 10
69.36691516758904
 20
180.0233184284236
 30
0.0
 10
69.34638128565675
 20
180.0555264630528
 30
0.0
 10
69.33611232011502
 20
180.0716336559775
 30
0.0
  0
LINE
  5
123
330
1F
100
AcDbEntity
  8
0
  6
Continuous
 62
     7
370
     0
100
AcDbLine
 10
65.6582025999
 20
176.6370765668
 30
0.0
 11
65.549293738
 21
176.6370765668
 31
0.0
  0
LINE
  5
124
330
1F
100
AcDbEntity
  8
0
  6
Continuous
 62
     7
370
     0
100
AcDbLine
 10
65.549293738
 20
178.454655948
 30
0.0
 11
65.549293738
 21
176.6370765668
 31
0.0
  0
LINE
  5
125
330
1F
100
AcDbEntity
  8
0
  6
Continuous
 62
     7
370
     0
100
AcDbLine
 10
65.549293738
 20
178.454655948
 30
0.0
 11
65.5312754402
 21
178.454655948
 31
0.0
  0
LINE
  5
126
330
1F
100
AcDbEntity
  8
0
  6
Continuous
 62
     7
370
     0
100
AcDbLine
 10
65.5312754402
 20
176.4000009549
 30
0.0
 11
65.5312754402
 21
178.454655948
 31
0.0
  0
LINE
  5
127
330
1F
100
AcDbEntity
  8
0
  6
Continuous
 62
     7
370
     0
100
AcDbLine
 10
65.6582025999
 20
176.4000009549
 30
0.0
 11
65.5312754402
 21
176.4000009549
 31
0.0
  0
LINE
  5
128
330
1F
100
AcDbEntity
  8
0
  6
Continuous
 62
     7
370
     0
100
AcDbLine
 10
65.6582025999
 20
176.6370765668
 30
0.0
 11
65.6582025999
 21
176.4000009549
 31
0.0
  0
SPLINE
  5
129
330
1F
100
AcDbEntity
  8
0
  6
Continuous
 62
     7
370
     0
100
AcDbSpline
210
0.0
220
0.0
230
1.0
 70
     8
 71
     3
 72
    13
 73
     9
 74
     0
 42
0.00000001
 43
0.00000001
 40
0.0
 40
0.0
 40
0.0
 40
0.0
 40
0.1253186234496436
 40
0.2505910238134458
 40
0.500070427305088
 40
0.7494867868263255
 40
0.8747153139071263
 40
1.0
 40
1.0
 40
1.0
 40
1.0
 10
66.58988017765756
 20
177.4800117549462
 30
0.0
 10
66.60072164654848
 20
177.4712802506964
 30
0.0
 10
66.62240058551409
 20
177.453820462764
 30
0.0
 10
66.66382254533481
 20
177.4028337694402
 30
0.0
 10
66.70926312864147
 20
177.3090870965724
 30
0.0
 10
66.73848188236416
 20
177.1830253910098
 30
0.0
 10
66.7498352189963
 20
177.0731433444214
 30
0.0
 10
66.75075149980782
 20
177.0167678959719
 30
0.0
 10
66.75120974291758
 20
176.9885738527402
 30
0.0
  0
SPLINE
  5
12A
330
1F
100
AcDbEntity
  8
0
  6
Continuous
 62
     7
370
     0
100
AcDbSpline
210
0.0
220
0.0
230
1.0
 70
     8
 71
     3
 72
    13
 73
     9
 74
     0
 42
0.00000001
 43
0.00000001
 40
0.0
 40
0.0
 40
0.0
 40
0.0
 40
0.1252061738134329
 40
0.2503351135328762
 40
0.4999252578982724
 40
0.749564911578636
 40
0.874746446768105
 40
1.0
 40
1.0
 40
1.0
 40
1.0
 10
66.71742161015351
 20
177.9220589132119
 30
0.0
 10
66.7169569908439
 20
177.8982682673806
 30
0.0
 10
66.71602803882757
 20
177.8507016511043
 30
0.0
 10
66.7059862221889
 20
177.758302896089
 30
0.0
 10
66.68308378312621
 20
177.6509112480317
 30
0.0
 10
66.64797565457482
 20
177.5651638342521
 30
0.0
 10
66.61560453189688
 20
177.5121980669915
 30
0.0
 10
66.59845660615667
 20
177.4907425822913
 30
0.0
 10
66.58988017765756
 20
177.4800117549462
 30
0.0
  0
SPLINE
  5
12B
330
1F
100
AcDbEntity
  8
0
  6
Continuous
 62
     7
370
     0
100
AcDbSpline
210
0.0
220
0.0
230
1.0
 70
     8
 71
     3
 72
    14
 73
    10
 74
     0
 42
0.00000001
 43
0.00000001
 40
0.0
 40
0.0
 40
0.0
 40
0.0
 40
0.1361466507414069
 40
0.2510781391734349
 40
0.5004260964968842
 40
0.7491549946763572
 40
0.8744769730917408
 40
0.9372181486446003
 40
0.9999999999999999
 40
0.9999999999999999
 40
0.9999999999999999
 40
0.9999999999999999
 10
66.44538315631638
 20
178.4546557687015
 30
0.0
 10
66.46206598165082
 20
178.4536816198694
 30
0.0
 10
66.49283201752692
 20
178.4518851197373
 30
0.0
 10
66.55528907599411
 20
178.4299616751059
 30
0.0
 10
66.63282218915533
 20
178.3589290916172
 30
0.0
 10
66.68858178418424
 20
178.1955936903551
 30
0.0
 10
66.71006851247985
 20
178.0630112435439
 30
0.0
 10
66.71648000242585
 20
177.9829792585386
 30
0.0
 10
66.71710767311195
 20
177.9423700814625
 30
0.0
 10
66.71742161015351
 20
177.9220589132119
 30
0.0
  0
LINE
  5
12C
330
1F
100
AcDbEntity
  8
0
  6
Continuous
 62
     7
370
     0
100
AcDbLine
 10
66.4453834483
 20
178.454655948
 30
0.0
 11
66.1781152898
 21
178.454655948
 31
0.0
  0
LINE
  5
12D
330
1F
100
AcDbEntity
  8
0
  6
Continuous
 62
     7
370
     0
100
AcDbLine
 10
66.1781152898
 20
176.4000009549
 30
0.0
 11
66.1781152898
 21
178.454655948
 31
0.0
  0
LINE
  5
12E
330
1F
100
AcDbEntity
  8
0
  6
Continuous
 62
     7
370
     0
100
AcDbLine
 10
66.4461564461
 20
176.4000009549
 30
0.0
 11
66.1781152898
 21
176.4000009549
 31
0.0
  0
SPLINE
  5
12F
330
1F
100
AcDbEntity
  8
0
  6
Continuous
 62
     7
370
     0
100
AcDbSpline
210
0.0
220
0.0
230
1.0
 70
     8
 71
     3
 72
    16
 73
    12
 74
     0
 42
0.00000001
 43
0.00000001
 40
0.0
 40
0.0
 40
0.0
 40
0.0
 40
0.0625870036469153
 40
0.1251447828605991
 40
0.2500628880181263
 40
0.3800112864191592
 40
0.4996715219979677
 40
0.6171428121935816
 40
0.7497005418906402
 40
0.8498234508634366
 40
1.0
 40
1.0
 40
1.0
 40
1.0
 10
66.75120974291758
 20
176.9885738527402
 30
0.0
 10
66.75091365740174
 20
176.965844275827
 30
0.0
 10
66.75032162462452
 20
176.9203957353702
 30
0.0
 10
66.7441297860921
 20
176.8304669038835
 30
0.0
 10
66.7273086613533
 20
176.7211104929652
 30
0.0
 10
66.69678081067755
 20
176.6041226494872
 30
0.0
 10
66.6549512304735
 20
176.5130581446068
 30
0.0
 10
66.60495484723367
 20
176.4538182196175
 30
0.0
 10
66.55548053728296
 20
176.4212253430062
 30
0.0
 10
66.50132340649684
 20
176.4032700606342
 30
0.0
 10
66.46684383864724
 20
176.4012267697806
 30
0.0
 10
66.44615652851687
 20
176.4000008207849
 30
0.0
  0
SPLINE
  5
130
330
1F
100
AcDbEntity
  8
0
  6
Continuous
 62
     7
370
     0
100
AcDbSpline
210
0.0
220
0.0
230
1.0
 70
     8
 71
     3
 72
    14
 73
    10
 74
     0
 42
0.00000001
 43
0.00000001
 40
0.0
 40
0.0
 40
0.0
 40
0.0
 40
0.2504465544088785
 40
0.5006271577129469
 40
0.6256173980224423
 40
0.7503619177354653
 40
0.874913934761297
 40
0.9374334541801428
 40
1.0
 40
1.0
 40
1.0
 40
1.0
 10
69.38183910945482
 20
180.9141574296925
 30
0.0
 10
69.38279376899784
 20
180.8306961877814
 30
0.0
 10
69.38470207432366
 20
180.663862332088
 30
0.0
 10
69.40432200187743
 20
180.4564628290399
 30
0.0
 10
69.44285767858841
 20
180.2966017883795
 30
0.0
 10
69.50084409972645
 20
180.1979714043342
 30
0.0
 10
69.56455461241804
 20
180.1379220366248
 30
0.0
 10
69.62370718731212
 20
180.1138199336818
 30
0.0
 10
69.65454557398013
 20
180.1117633433518
 30
0.0
 10
69.66997056419622
 20
180.1107346615969
 30
0.0
  0
SPLINE
  5
131
330
1F
100
AcDbEntity
  8
0
  6
Continuous
 62
     7
370
     0
100
AcDbSpline
210
0.0
220
0.0
230
1.0
 70
     8
 71
     3
 72
    14
 73
    10
 74
     0
 42
0.00000001
 43
0.00000001
 40
0.0
 40
0.0
 40
0.0
 40
0.0
 40
0.0625718350622495
 40
0.1250837859443795
 40
0.2496290621893428
 40
0.3743665145366787
 40
0.4993488336595877
 40
0.7495426014132981
 40
1.0
 40
1.0
 40
1.0
 40
1.0
 10
69.66997056419622
 20
180.1107346615969
 30
0.0
 10
69.68544647850786
 20
180.1116973908696
 30
0.0
 10
69.71638349595551
 20
180.1136219280381
 30
0.0
 10
69.77610532607517
 20
180.1387014873087
 30
0.0
 10
69.84195559986513
 20
180.1976583026207
 30
0.0
 10
69.90174915021214
 20
180.2970101706935
 30
0.0
 10
69.9426201901425
 20
180.4564609718689
 30
0.0
 10
69.96330411078351
 20
180.6639550711021
 30
0.0
 10
69.96534941301513
 20
180.8307273707383
 30
0.0
 10
69.96637260263437
 20
180.9141574296925
 30
0.0
  0
SPLINE
  5
132
330
1F
100
AcDbEntity
  8
0
  6
Continuous
 62
     7
370
     0
100
AcDbSpline
210
0.0
220
0.0
230
1.0
 70
     8
 71
     3
 72
    15
 73
    11
 74
     0
 42
0.00000001
 43
0.00000001
 40
0.0
 40
0.0
 40
0.0
 40
0.0
 40
0.1252519376079533
 40
0.2504961104472878
 40
0.5006645979650204
 40
0.6256249858635199
 40
0.7503965025560811
 40
0.8749083495139847
 40
0.9374337014579539
 40
1.0
 40
1.0
 40
1.0
 40
1.0
 10
69.96637260263437
 20
180.9141574296925
 30
0.0
 10
69.96615746773004
 20
180.956009598915
 30
0.0
 10
69.96572721125825
 20
181.0397113428101
 30
0.0
 10
69.95820874628157
 20
181.2066425360716
 30
0.0
 10
69.94252475212203
 20
181.3733382952018
 30
0.0
 10
69.90040048952466
 20
181.5326421039233
 30
0.0
 10
69.84121728168958
 20
181.6329165510551
 30
0.0
 10
69.77464480687061
 20
181.6917407980789
 30
0.0
 10
69.71434521977805
 20
181.7147862976511
 30
0.0
 10
69.6833446747951
 20
181.7166486945346
 30
0.0
 10
69.66783932855627
 20
181.7175801977881
 30
0.0
  0
SPLINE
  5
133
330
1F
100
AcDbEntity
  8
0
  6
Continuous
 62
     7
370
     0
100
AcDbSpline
210
0.0
220
0.0
230
1.0
 70
     8
 71
     3
 72
    11
 73
     7
 74
     0
 42
0.00000001
 43
0.00000001
 40
0.0
 40
0.0
 40
0.0
 40
0.0
 40
0.2499762991228778
 40
0.4998291777062783
 40
0.7498121573677374
 40
1.0
 40
1.0
 40
1.0
 40
1.0
 10
69.66783932855627
 20
181.7175801977881
 30
0.0
 10
69.6481351394107
 20
181.716102931372
 30
0.0
 10
69.60873648964842
 20
181.713149127909
 30
0.0
 10
69.55334153977758
 20
181.6842189101523
 30
0.0
 10
69.50480472852534
 20
181.6385076481855
 30
0.0
 10
69.48006613963312
 20
181.5973858820673
 30
0.0
 10
69.46769177889708
 20
181.5768165775582
 30
0.0
  0
SPLINE
  5
134
330
1F
100
AcDbEntity
  8
0
  6
Continuous
 62
     7
370
     0
100
AcDbSpline
210
0.0
220
0.0
230
1.0
 70
     8
 71
     3
 72
    12
 73
     8
 74
     0
 42
0.00000001
 43
0.00000001
 40
0.0
 40
0.0
 40
0.0
 40
0.0
 40
0.1249202996239314
 40
0.2499253403448444
 40
0.4998213365461323
 40
0.749885759924727
 40
1.0
 40
1.0
 40
1.0
 40
1.0
 10
69.46769177889708
 20
181.5768165775582
 30
0.0
 10
69.45749835530239
 20
181.5521176487135
 30
0.0
 10
69.43710459328896
 20
181.5027030362266
 30
0.0
 10
69.41257669635486
 20
181.3938847840523
 30
0.0
 10
69.39369661915745
 20
181.2542840621555
 30
0.0
 10
69.38338927934555
 20
181.0844256185436
 30
0.0
 10
69.38235586706027
 20
180.9709172610372
 30
0.0
 10
69.38183910945482
 20
180.9141574296925
 30
0.0
  0
LINE
  5
135
330
1F
100
AcDbEntity
  8
0
  6
Continuous
 62
     7
370
     0
100
AcDbLine
 10
68.5154024699
 20
180.9800116149
 30
0.0
 11
68.2029744798
 21
180.9800116149
 31
0.0
  0
SPLINE
  5
136
330
1F
100
AcDbEntity
  8
0
  6
Continuous
 62
     7
370
     0
100
AcDbSpline
210
0.0
220
0.0
230
1.0
 70
     8
 71
     3
 72
    14
 73
    10
 74
     0
 42
0.00000001
 43
0.00000001
 40
0.0
 40
0.0
 40
0.0
 40
0.0
 40
0.1253838992651685
 40
0.2507189433796794
 40
0.4995227933459234
 40
0.6221947511494301
 40
0.7495941405816053
 40
0.8747212986885109
 40
1.0
 40
1.0
 40
1.0
 40
1.0
 10
68.51540273688046
 20
180.9800117549462
 30
0.0
 10
68.53364985898234
 20
180.9805773555358
 30
0.0
 10
68.57013699329478
 20
180.9817083363318
 30
0.0
 10
68.6426391029984
 20
180.9964837490814
 30
0.0
 10
68.71542037887812
 20
181.0331878476978
 30
0.0
 10
68.76945776269926
 20
181.113487496552
 30
0.0
 10
68.79642973416463
 20
181.1885895572165
 30
0.0
 10
68.81147561309393
 20
181.2712738205035
 30
0.0
 10
68.8130012151209
 20
181.3276085747019
 30
0.0
 10
68.81376447777419
 20
181.3557929984254
 30
0.0
  0
SPLINE
  5
137
330
1F
100
AcDbEntity
  8
0
  6
Continuous
 62
     7
370
     0
100
AcDbSpline
210
0.0
220
0.0
230
1.0
 70
     8
 71
     3
 72
    13
 73
     9
 74
     0
 42
0.00000001
 43
0.00000001
 40
0.0
 40
0.0
 40
0.0
 40
0.0
 40
0.1253123877418697
 40
0.2505410573026519
 40
0.5002408834922382
 40
0.7496579229343531
 40
0.8747738818536678
 40
1.0
 40
1.0
 40
1.0
 40
1.0
 10
68.81376447777419
 20
181.3557929984254
 30
0.0
 10
68.813420295429
 20
181.3740951430353
 30
0.0
 10
68.81273216067855
 20
181.4106872050343
 30
0.0
 10
68.80425300799038
 20
181.4828173188311
 30
0.0
 10
68.78134467713338
 20
181.5688395535552
 30
0.0
 10
68.74123231737647
 20
181.6397104325914
 30
0.0
 10
68.70090237946741
 20
181.6813506185479
 30
0.0
 10
68.67803305876208
 20
181.6934286068331
 30
0.0
 10
68.66659336676088
 20
181.6994702583433
 30
0.0
  0
SPLINE
  5
138
330
1F
100
AcDbEntity
  8
0
  6
Continuous
 62
     7
370
     0
100
AcDbSpline
210
0.0
220
0.0
230
1.0
 70
     8
 71
     3
 72
    11
 73
     7
 74
     0
 42
0.00000001
 43
0.00000001
 40
0.0
 40
0.0
 40
0.0
 40
0.0
 40
0.224603340560694
 40
0.4998467624009185
 40
0.7048126422085552
 40
1.0
 40
1.0
 40
1.0
 40
1.0
 10
68.66659336676086
 20
181.6994702583433
 30
0.0
 10
68.65508760062642
 20
181.7029556185402
 30
0.0
 10
68.62948192647706
 20
181.7107121639497
 30
0.0
 10
68.5929657519985
 20
181.7149531777014
 30
0.0
 10
68.55297340993182
 20
181.7170122410855
 30
0.0
 10
68.52734242174257
 20
181.7173694030175
 30
0.0
 10
68.51221517050757
 20
181.7175801977881
 30
0.0
  0
LINE
  5
139
330
1F
100
AcDbEntity
  8
0
  6
Continuous
 62
     7
370
     0
100
AcDbLine
 10
68.5122154841
 20
181.7175799784
 30
0.0
 11
68.2029744798
 21
181.7175799784
 31
0.0
  0
LINE
  5
13A
330
1F
100
AcDbEntity
  8
0
  6
Continuous
 62
     7
370
     0
100
AcDbLine
 10
68.2029744798
 20
181.7175799784
 30
0.0
 11
68.2029744798
 21
180.9800116149
 31
0.0
  0
SPLINE
  5
13B
330
1F
100
AcDbEntity
  8
0
  6
Continuous
 62
     7
370
     0
100
AcDbSpline
210
0.0
220
0.0
230
1.0
 70
     8
 71
     3
 72
    14
 73
    10
 74
     0
 42
0.00000001
 43
0.00000001
 40
0.0
 40
0.0
 40
0.0
 40
0.0
 40
0.250446554408879
 40
0.5006271577129483
 40
0.62561739802244
 40
0.7503619177354581
 40
0.8749139347612954
 40
0.9374334541801469
 40
1.0
 40
1.0
 40
1.0
 40
1.0
 10
66.79695080686906
 20
180.9141574296925
 30
0.0
 10
66.7975325873546
 20
180.8306961877814
 30
0.0
 10
66.79869553052856
 20
180.663862332088
 30
0.0
 10
66.81065836905039
 20
180.45646282904
 30
0.0
 10
66.8342472050922
 20
180.2966017883795
 30
0.0
 10
66.869921933189
 20
180.1979714043342
 30
0.0
 10
66.90943572388885
 20
180.1379220366248
 30
0.0
 10
66.9463783484152
 20
180.1138199336819
 30
0.0
 10
66.96575914208815
 20
180.1117633433518
 30
0.0
 10
66.97545318205214
 20
180.1107346615969
 30
0.0
  0
SPLINE
  5
13C
330
1F
100
AcDbEntity
  8
0
  6
Continuous
 62
     7
370
     0
100
AcDbSpline
210
0.0
220
0.0
230
1.0
 70
     8
 71
     3
 72
    14
 73
    10
 74
     0
 42
0.00000001
 43
0.00000001
 40
0.0
 40
0.0
 40
0.0
 40
0.0
 40
0.0625718350622606
 40
0.1250837859443787
 40
0.2496290621893433
 40
0.3743665145366784
 40
0.499348833659587
 40
0.7495426014133006
 40
1.0
 40
1.0
 40
1.0
 40
1.0
 10
66.97545318205214
 20
180.1107346615969
 30
0.0
 10
66.98520708565006
 20
180.1116973908696
 30
0.0
 10
67.0047055579028
 20
180.1136219280381
 30
0.0
 10
67.04257622290221
 20
180.1387014873087
 30
0.0
 10
67.08460684386986
 20
180.1976583026207
 30
0.0
 10
67.12305095058284
 20
180.2970101706935
 30
0.0
 10
67.14944268075924
 20
180.4564609718689
 30
0.0
 10
67.16284532611813
 20
180.663955071102
 30
0.0
 10
67.1641709781324
 20
180.8307273707383
 30
0.0
 10
67.16483415316773
 20
180.9141574296925
 30
0.0
  0
SPLINE
  5
13D
330
1F
100
AcDbEntity
  8
0
  6
Continuous
 62
     7
370
     0
100
AcDbSpline
210
0.0
220
0.0
230
1.0
 70
     8
 71
     3
 72
    15
 73
    11
 74
     0
 42
0.00000001
 43
0.00000001
 40
0.0
 40
0.0
 40
0.0
 40
0.0
 40
0.1252519376079485
 40
0.2504961104472878
 40
0.5006645979650142
 40
0.6256249858635111
 40
0.7503965025560727
 40
0.8749083495139853
 40
0.937433701457948
 40
1.0
 40
1.0
 40
1.0
 40
1.0
 10
67.16483415316773
 20
180.9141574296925
 30
0.0
 10
67.16469460758779
 20
180.956009598915
 30
0.0
 10
67.16441552507882
 20
181.0397113428101
 30
0.0
 10
67.15954396842217
 20
181.2066425360716
 30
0.0
 10
67.14937985090837
 20
181.3733382952018
 30
0.0
 10
67.12218214471045
 20
181.5326421039233
 30
0.0
 10
67.08413404538942
 20
181.6329165510551
 30
0.0
 10
67.04164572972091
 20
181.6917407980789
 30
0.0
 10
67.0034163628218
 20
181.7147862976511
 30
0.0
 10
66.98388226133353
 20
181.7166486945346
 30
0.0
 10
66.9741120135135
 20
181.7175801977881
 30
0.0
  0
SPLINE
  5
13E
330
1F
100
AcDbEntity
  8
0
  6
Continuous
 62
     7
370
     0
100
AcDbSpline
210
0.0
220
0.0
230
1.0
 70
     8
 71
     3
 72
    11
 73
     7
 74
     0
 42
0.00000001
 43
0.00000001
 40
0.0
 40
0.0
 40
0.0
 40
0.0
 40
0.2499762991228477
 40
0.4998291777062671
 40
0.7498121573677222
 40
1.0
 40
1.0
 40
1.0
 40
1.0
 10
66.9741120135135
 20
181.7175801977881
 30
0.0
 10
66.96173651296054
 20
181.716102931372
 30
0.0
 10
66.93699162199772
 20
181.713149127909
 30
0.0
 10
66.9024800062555
 20
181.6842189101523
 30
0.0
 10
66.87239930205726
 20
181.6385076481855
 30
0.0
 10
66.85715681276324
 20
181.5973858820673
 30
0.0
 10
66.84953244656104
 20
181.5768165775582
 30
0.0
  0
SPLINE
  5
13F
330
1F
100
AcDbEntity
  8
0
  6
Continuous
 62
     7
370
     0
100
AcDbSpline
210
0.0
220
0.0
230
1.0
 70
     8
 71
     3
 72
    12
 73
     8
 74
     0
 42
0.00000001
 43
0.00000001
 40
0.0
 40
0.0
 40
0.0
 40
0.0
 40
0.1249202996239165
 40
0.2499253403448292
 40
0.4998213365461274
 40
0.7498857599247338
 40
1.0
 40
1.0
 40
1.0
 40
1.0
 10
66.84953244656104
 20
181.5768165775582
 30
0.0
 10
66.84326567815857
 20
181.5521176487135
 30
0.0
 10
66.83072789022046
 20
181.5027030362266
 30
0.0
 10
66.81571159457415
 20
181.3938847840524
 30
0.0
 10
66.80417813463471
 20
181.2542840621555
 30
0.0
 10
66.79789554342761
 20
181.0844256185436
 30
0.0
 10
66.79726573996426
 20
180.9709172610372
 30
0.0
 10
66.79695080686906
 20
180.9141574296925
 30
0.0
  0
LINE
  5
140
330
1F
100
AcDbEntity
  8
0
  6
Continuous
 62
     7
370
     0
100
AcDbLine
 10
66.4244659433
 20
177.585378549
 30
0.0
 11
66.2736540848
 21
177.585378549
 31
0.0
  0
SPLINE
  5
141
330
1F
100
AcDbEntity
  8
0
  6
Continuous
 62
     7
370
     0
100
AcDbSpline
210
0.0
220
0.0
230
1.0
 70
     8
 71
     3
 72
    11
 73
     7
 74
     0
 42
0.00000001
 43
0.00000001
 40
0.0
 40
0.0
 40
0.0
 40
0.0
 40
0.5000385172515421
 40
0.7000835348031083
 40
0.8538625669402572
 40
1.0
 40
1.0
 40
1.0
 40
1.0
 10
66.42446602451855
 20
177.5853786753522
 30
0.0
 10
66.4399995746411
 20
177.585806728603
 30
0.0
 10
66.4617474646589
 20
177.5864060285022
 30
0.0
 10
66.48874155257008
 20
177.5935842584025
 30
0.0
 10
66.50457149118401
 20
177.5998977726105
 30
0.0
 10
66.51391366916664
 20
177.6064633241595
 30
0.0
 10
66.51846574305387
 20
177.6096624577895
 30
0.0
  0
SPLINE
  5
142
330
1F
100
AcDbEntity
  8
0
  6
Continuous
 62
     7
370
     0
100
AcDbSpline
210
0.0
220
0.0
230
1.0
 70
     8
 71
     3
 72
    12
 73
     8
 74
     0
 42
0.00000001
 43
0.00000001
 40
0.0
 40
0.0
 40
0.0
 40
0.0
 40
0.1253736807326149
 40
0.2506251700065241
 40
0.4999842285599513
 40
0.749666756875033
 40
1.0
 40
1.0
 40
1.0
 40
1.0
 10
66.51846574305387
 20
177.6096624577895
 30
0.0
 10
66.5242715091805
 20
177.614861414711
 30
0.0
 10
66.53587738302902
 20
177.6252542615567
 30
0.0
 10
66.55742308237475
 20
177.6567573238065
 30
0.0
 10
66.57994152395828
 20
177.713547044553
 30
0.0
 10
66.59533297889674
 20
177.8020888659389
 30
0.0
 10
66.59667721958108
 20
177.8650292268083
 30
0.0
 10
66.59735021461297
 20
177.8965403621761
 30
0.0
  0
SPLINE
  5
143
330
1F
100
AcDbEntity
  8
0
  6
Continuous
 62
     7
370
     0
100
AcDbSpline
210
0.0
220
0.0
230
1.0
 70
     8
 71
     3
 72
    14
 73
    10
 74
     0
 42
0.00000001
 43
0.00000001
 40
0.0
 40
0.0
 40
0.0
 40
0.0
 40
0.1251021859847927
 40
0.2500700634234098
 40
0.3784065021080366
 40
0.4993789957166598
 40
0.6242625680624618
 40
0.7495098421437345
 40
1.0
 40
1.0
 40
1.0
 40
1.0
 10
66.59735021461297
 20
177.8965403621761
 30
0.0
 10
66.59681874066706
 20
177.9244077614788
 30
0.0
 10
66.5957563633607
 20
177.9801126419028
 30
0.0
 10
66.58426738024252
 20
178.0603109172222
 30
0.0
 10
66.5656370598064
 20
178.1306233528239
 30
0.0
 10
66.53828958944419
 20
178.1803965504816
 30
0.0
 10
66.50694082466136
 20
178.2028085425144
 30
0.0
 10
66.46441915028707
 20
178.2155110458192
 30
0.0
 10
66.43331124492136
 20
178.2167525399018
 30
0.0
 10
66.4125727625044
 20
178.2175801977881
 30
0.0
  0
LINE
  5
144
330
1F
100
AcDbEntity
  8
0
  6
Continuous
 62
     7
370
     0
100
AcDbLine
 10
66.412572954
 20
178.2175803361
 30
0.0
 11
66.2736540848
 21
178.2175803361
 31
0.0
  0
LINE
  5
145
330
1F
100
AcDbEntity
  8
0
  6
Continuous
 62
     7
370
     0
100
AcDbLine
 10
66.2736540848
 20
178.2175803361
 30
0.0
 11
66.2736540848
 21
177.585378549
 31
0.0
  0
LINE
  5
146
330
1F
100
AcDbEntity
  8
0
  6
Continuous
 62
     7
370
     0
100
AcDbLine
 10
66.4478589037
 20
176.6370765668
 30
0.0
 11
66.2736540848
 21
176.6370765668
 31
0.0
  0
SPLINE
  5
147
330
1F
100
AcDbEntity
  8
0
  6
Continuous
 62
     7
370
     0
100
AcDbSpline
210
0.0
220
0.0
230
1.0
 70
     8
 71
     3
 72
    10
 73
     6
 74
     0
 42
0.00000001
 43
0.00000001
 40
0.0
 40
0.0
 40
0.0
 40
0.0
 40
0.5000649138273806
 40
0.7438622150386596
 40
1.0
 40
1.0
 40
1.0
 40
1.0
 10
66.4478590350898
 20
176.6370763916983
 30
0.0
 10
66.45896166871552
 20
176.637265920507
 30
0.0
 10
66.47547718382808
 20
176.6375478505437
 30
0.0
 10
66.4980189809514
 20
176.6410671737073
 30
0.0
 10
66.50931396251316
 20
176.6449600540505
 30
0.0
 10
66.51510085692892
 20
176.6469545404864
 30
0.0
  0
SPLINE
  5
148
330
1F
100
AcDbEntity
  8
0
  6
Continuous
 62
     7
370
     0
100
AcDbSpline
210
0.0
220
0.0
230
1.0
 70
     8
 71
     3
 72
    14
 73
    10
 74
     0
 42
0.00000001
 43
0.00000001
 40
0.0
 40
0.0
 40
0.0
 40
0.0
 40
0.1430922649552971
 40
0.2504176231409876
 40
0.4169163683940743
 40
0.5003920208688051
 40
0.7496250923183518
 40
0.8747493348582991
 40
1.0
 40
1.0
 40
1.0
 40
1.0
 10
66.51510085692892
 20
176.6469545404864
 30
0.0
 10
66.52406712700586
 20
176.6521715246035
 30
0.0
 10
66.53975848559755
 20
176.6613014713757
 30
0.0
 10
66.56496358047583
 20
176.6871177721949
 30
0.0
 10
66.58483815630062
 20
176.7203629143997
 30
0.0
 10
66.6067776576722
 20
176.7820499199925
 30
0.0
 10
66.62130175614361
 20
176.850389573408
 30
0.0
 10
66.62864720758617
 20
176.9309042307038
 30
0.0
 10
66.62921550643077
 20
176.9720876439895
 30
0.0
 10
66.62949979932952
 20
176.9926897480685
 30
0.0
  0
SPLINE
  5
149
330
1F
100
AcDbEntity
  8
0
  6
Continuous
 62
     7
370
     0
100
AcDbSpline
210
0.0
220
0.0
230
1.0
 70
     8
 71
     3
 72
    15
 73
    11
 74
     0
 42
0.00000001
 43
0.00000001
 40
0.0
 40
0.0
 40
0.0
 40
0.0
 40
0.0716658082457182
 40
0.1432828771087749
 40
0.2861015597592838
 40
0.4987034456032686
 40
0.5822269887802995
 40
0.7491627774275507
 40
0.8745687515371569
 40
1.0
 40
1.0
 40
1.0
 40
1.0
 10
66.62949979932952
 20
176.9926897480685
 30
0.0
 10
66.62930093288988
 20
177.0093660034577
 30
0.0
 10
66.62890333525817
 20
177.042707172839
 30
0.0
 10
66.62422698992874
 20
177.1085037185475
 30
0.0
 10
66.60883270485067
 20
177.2017640074081
 30
0.0
 10
66.57842242079325
 20
177.2781123819668
 30
0.0
 10
66.53922232462334
 20
177.3223390200003
 30
0.0
 10
66.5053676249975
 20
177.3388618548962
 30
0.0
 10
66.46824421656446
 20
177.3474085786213
 30
0.0
 10
66.44632044054745
 20
177.3480049091375
 30
0.0
 10
66.43535744801935
 20
177.3483031044387
 30
0.0
  0
LINE
  5
14A
330
1F
100
AcDbEntity
  8
0
  6
Continuous
 62
     7
370
     0
100
AcDbLine
 10
66.4353577608
 20
177.348302937
 30
0.0
 11
66.2736540848
 21
177.348302937
 31
0.0
  0
LINE
  5
14B
330
1F
100
AcDbEntity
  8
0
  6
Continuous
 62
     7
370
     0
100
AcDbLine
 10
66.2736540848
 20
177.348302937
 30
0.0
 11
66.2736540848
 21
176.6370765668
 31
0.0
  0
SPLINE
  5
14C
330
1F
100
AcDbEntity
  8
0
  6
Continuous
 62
     7
370
     0
100
AcDbSpline
210
0.0
220
0.0
230
1.0
 70
     8
 71
     3
 72
    13
 73
     9
 74
     0
 42
0.00000001
 43
0.00000001
 40
0.0
 40
0.0
 40
0.0
 40
0.0
 40
0.1255310813075861
 40
0.2510110657283646
 40
0.5005061337007837
 40
0.7493091568965222
 40
0.8746101741559545
 40
1.0
 40
1.0
 40
1.0
 40
1.0
 10
66.47326223457155
 20
181.2784141662522
 30
0.0
 10
66.47294218779135
 20
181.3058058999853
 30
0.0
 10
66.47230222450463
 20
181.3605782177639
 30
0.0
 10
66.46439161613243
 20
181.4681363093548
 30
0.0
 10
66.44089854369834
 20
181.5934898898106
 30
0.0
 10
66.39969697433303
 20
181.6809043267434
 30
0.0
 10
66.36160131122776
 20
181.7136823696351
 30
0.0
 10
66.3421711064218
 20
181.7162806149229
 30
0.0
 10
66.33245256239135
 20
181.7175801977881
 30
0.0
  0
SPLINE
  5
14D
330
1F
100
AcDbEntity
  8
0
  6
Continuous
 62
     7
370
     0
100
AcDbSpline
210
0.0
220
0.0
230
1.0
 70
     8
 71
     3
 72
    14
 73
    10
 74
     0
 42
0.00000001
 43
0.00000001
 40
0.0
 40
0.0
 40
0.0
 40
0.0
 40
0.1251829179251871
 40
0.2503028730776052
 40
0.3712219923731833
 40
0.5005239778403979
 40
0.7495343333075892
 40
0.8747344041221055
 40
1.0
 40
1.0
 40
1.0
 40
1.0
 10
66.33245256239135
 20
181.7175801977881
 30
0.0
 10
66.32237681663531
 20
181.7162503711615
 30
0.0
 10
66.30223039288249
 20
181.7135913867663
 30
0.0
 10
66.27430321763467
 20
181.6861251811287
 30
0.0
 10
66.24924769175513
 20
181.6417820595795
 30
0.0
 10
66.22203008529237
 20
181.5609687911209
 30
0.0
 10
66.20390926741366
 20
181.4566810778533
 30
0.0
 10
66.1958743254931
 20
181.3446510459568
 30
0.0
 10
66.19530570499104
 20
181.2873272599847
 30
0.0
 10
66.19502132036078
 20
181.2586578686761
 30
0.0
  0
SPLINE
  5
14E
330
1F
100
AcDbEntity
  8
0
  6
Continuous
 62
     7
370
     0
100
AcDbSpline
210
0.0
220
0.0
230
1.0
 70
     8
 71
     3
 72
    14
 73
    10
 74
     0
 42
0.00000001
 43
0.00000001
 40
0.0
 40
0.0
 40
0.0
 40
0.0
 40
0.0717443965839393
 40
0.1434798238951366
 40
0.2509745611906145
 40
0.5002162242785564
 40
0.7491627706355839
 40
0.874551796946474
 40
0.9999999999999999
 40
0.9999999999999999
 40
0.9999999999999999
 40
0.9999999999999999
 10
66.19502132036078
 20
181.2586578686761
 30
0.0
 10
66.19511411409708
 20
181.2432712289672
 30
0.0
 10
66.19529968996888
 20
181.2124998731416
 30
0.0
 10
66.19769422006692
 20
181.1591126654103
 30
0.0
 10
66.20476021783942
 20
181.0696764783449
 30
0.0
 10
66.22725227934792
 20
180.9544189648477
 30
0.0
 10
66.26591025172243
 20
180.8783626478358
 30
0.0
 10
66.30179446459516
 20
180.851319575325
 30
0.0
 10
66.32068301577797
 20
180.8493087528632
 30
0.0
 10
66.33012951943363
 20
180.8483031044387
 30
0.0
  0
SPLINE
  5
14F
330
1F
100
AcDbEntity
  8
0
  6
Continuous
 62
     7
370
     0
100
AcDbSpline
210
0.0
220
0.0
230
1.0
 70
     8
 71
     3
 72
    13
 73
     9
 74
     0
 42
0.00000001
 43
0.00000001
 40
0.0
 40
0.0
 40
0.0
 40
0.0
 40
0.1254170497574854
 40
0.2507818791335669
 40
0.4998973322105452
 40
0.7490309258202926
 40
0.8744945763186087
 40
1.0
 40
1.0
 40
1.0
 40
1.0
 10
66.33012951943363
 20
180.8483031044387
 30
0.0
 10
66.33980446042496
 20
180.8495107116341
 30
0.0
 10
66.3591503140151
 20
180.8519254232087
 30
0.0
 10
66.3971176777586
 20
180.8835381327013
 30
0.0
 10
66.43941550969915
 20
180.9656401780561
 30
0.0
 10
66.46385624213963
 20
181.0897215028812
 30
0.0
 10
66.4722494665736
 20
181.1965433352528
 30
0.0
 10
66.47292460778037
 20
181.2511208611542
 30
0.0
 10
66.47326223457155
 20
181.2784141662522
 30
0.0
  0
LINE
  5
150
330
1F
100
AcDbEntity
  8
0
  6
Continuous
 62
     7
370
     0
100
AcDbLine
 10
65.9347150663
 20
177.2692778883
 30
0.0
 11
65.7746859083
 21
177.2692778883
 31
0.0
  0
SPLINE
  5
151
330
1F
100
AcDbEntity
  8
0
  6
Continuous
 62
     7
370
     0
100
AcDbSpline
210
0.0
220
0.0
230
1.0
 70
     8
 71
     3
 72
     8
 73
     4
 74
     0
 42
0.00000001
 43
0.00000001
 40
0.0
 40
0.0
 40
0.0
 40
0.0
 40
1.0
 40
1.0
 40
1.0
 40
1.0
 10
65.93471466788131
 20
177.2692779141342
 30
0.0
 10
65.91774719086632
 20
177.4492797364945
 30
0.0
 10
65.90128538321342
 20
177.6292815588547
 30
0.0
 10
65.8853312783849
 20
177.8092833812149
 30
0.0
  0
SPLINE
  5
152
330
1F
100
AcDbEntity
  8
0
  6
Continuous
 62
     7
370
     0
100
AcDbSpline
210
0.0
220
0.0
230
1.0
 70
     8
 71
     3
 72
     8
 73
     4
 74
     0
 42
0.00000001
 43
0.00000001
 40
0.0
 40
0.0
 40
0.0
 40
0.0
 40
1.0
 40
1.0
 40
1.0
 40
1.0
 10
65.8853312783849
 20
177.8092833812149
 30
0.0
 10
65.87325879081361
 20
177.9453823200726
 30
0.0
 10
65.86147700953268
 20
178.0814812589304
 30
0.0
 10
65.84998676788754
 20
178.2175801977881
 30
0.0
  0
SPLINE
  5
153
330
1F
100
AcDbEntity
  8
0
  6
Continuous
 62
     7
370
     0
100
AcDbSpline
210
0.0
220
0.0
230
1.0
 70
     8
 71
     3
 72
    11
 73
     7
 74
     0
 42
0.00000001
 43
0.00000001
 40
0.0
 40
0.0
 40
0.0
 40
0.0
 40
0.2500100509549008
 40
0.4999938043210203
 40
0.7499834612580787
 40
0.9999999999999999
 40
0.9999999999999999
 40
0.9999999999999999
 40
0.9999999999999999
 10
65.84998676788754
 20
178.2175801977881
 30
0.0
 10
65.8481754686736
 20
178.1846990114638
 30
0.0
 10
65.8445530607693
 20
178.1189400974598
 30
0.0
 10
65.83707016702348
 20
178.0230057769649
 30
0.0
 10
65.82867202483916
 20
177.9287601611679
 30
0.0
 10
65.82203334753231
 20
177.8683175692555
 30
0.0
 10
65.81871383042146
 20
177.8380946485134
 30
0.0
  0
SPLINE
  5
154
330
1F
100
AcDbEntity
  8
0
  6
Continuous
 62
     7
370
     0
100
AcDbSpline
210
0.0
220
0.0
230
1.0
 70
     8
 71
     3
 72
     8
 73
     4
 74
     0
 42
0.00000001
 43
0.00000001
 40
0.0
 40
0.0
 40
0.0
 40
0.0
 40
1.0
 40
1.0
 40
1.0
 40
1.0
 10
65.81871383042146
 20
177.8380946485134
 30
0.0
 10
65.80347045509635
 20
177.648489070387
 30
0.0
 10
65.788793722243
 20
177.4588834922606
 30
0.0
 10
65.77468564440143
 20
177.2692779141342
 30
0.0
  0
SPLINE
  5
155
330
1F
100
AcDbEntity
  8
0
  6
Continuous
 62
     7
370
     0
100
AcDbSpline
210
0.0
220
0.0
230
1.0
 70
     8
 71
     3
 72
    13
 73
     9
 74
     0
 42
0.00000001
 43
0.00000001
 40
0.0
 40
0.0
 40
0.0
 40
0.0
 40
0.1432260440277658
 40
0.2864292948712098
 40
0.5006641226563207
 40
0.7494038237615414
 40
0.8746501802199962
 40
1.0
 40
1.0
 40
1.0
 40
1.0
 10
65.51488804500195
 20
180.5820046766939
 30
0.0
 10
65.51488880299867
 20
180.5477712488437
 30
0.0
 10
65.51489031887151
 20
180.4793098410968
 30
0.0
 10
65.51497692138314
 20
180.3647413128625
 30
0.0
 10
65.51537087320571
 20
180.237148958046
 30
0.0
 10
65.51704258493272
 20
180.1501276267696
 30
0.0
 10
65.51985276244169
 20
180.1148745202945
 30
0.0
 10
65.52184939541917
 20
180.1121149942701
 30
0.0
 10
65.52284812408156
 20
180.1107346615969
 30
0.0
  0
SPLINE
  5
156
330
1F
100
AcDbEntity
  8
0
  6
Continuous
 62
     7
370
     0
100
AcDbSpline
210
0.0
220
0.0
230
1.0
 70
     8
 71
     3
 72
    14
 73
    10
 74
     0
 42
0.00000001
 43
0.00000001
 40
0.0
 40
0.0
 40
0.0
 40
0.0
 40
0.1252639388568613
 40
0.2504048301858235
 40
0.4990389347070213
 40
0.5992647473628747
 40
0.7493462831628682
 40
0.8746481395402791
 40
0.9999999999999999
 40
0.9999999999999999
 40
0.9999999999999999
 40
0.9999999999999999
 10
65.52284812408156
 20
180.1107346615969
 30
0.0
 10
65.52392310051029
 20
180.1121872422318
 30
0.0
 10
65.52607199741186
 20
180.115090976623
 30
0.0
 10
65.53115017689808
 20
180.1486125934532
 30
0.0
 10
65.53613580880456
 20
180.2174268296756
 30
0.0
 10
65.54016922613802
 20
180.3114292894333
 30
0.0
 10
65.54229228555162
 20
180.391929803952
 30
0.0
 10
65.54356463736447
 20
180.4821788050721
 30
0.0
 10
65.54367175519717
 20
180.539670593329
 30
0.0
 10
65.54372532479823
 20
180.5684222221103
 30
0.0
  0
SPLINE
  5
157
330
1F
100
AcDbEntity
  8
0
  6
Continuous
 62
     7
370
     0
100
AcDbSpline
210
0.0
220
0.0
230
1.0
 70
     8
 71
     3
 72
    14
 73
    10
 74
     0
 42
0.00000001
 43
0.00000001
 40
0.0
 40
0.0
 40
0.0
 40
0.0
 40
0.1434090041375911
 40
0.2509597373338267
 40
0.500076203642207
 40
0.748937439684663
 40
0.8493146295258758
 40
0.9246510785761008
 40
0.9999999999999999
 40
0.9999999999999999
 40
0.9999999999999999
 40
0.9999999999999999
 10
65.54372532479823
 20
180.5684222221103
 30
0.0
 10
65.54364083982695
 20
180.6010369101553
 30
0.0
 10
65.54349299467366
 20
180.6581112451611
 30
0.0
 10
65.54181146381927
 20
180.7692199512644
 30
0.0
 10
65.53736593803298
 20
180.8936932122809
 30
0.0
 10
65.53086636087862
 20
180.9726651972761
 30
0.0
 10
65.52663535685188
 20
180.996850267602
 30
0.0
 10
65.52432557044592
 20
181.0055010177639
 30
0.0
 10
65.52310047502931
 20
181.006069313607
 30
0.0
 10
65.52248787661983
 20
181.0063534850477
 30
0.0
  0
SPLINE
  5
158
330
1F
100
AcDbEntity
  8
0
  6
Continuous
 62
     7
370
     0
100
AcDbSpline
210
0.0
220
0.0
230
1.0
 70
     8
 71
     3
 72
    14
 73
    10
 74
     0
 42
0.00000001
 43
0.00000001
 40
0.0
 40
0.0
 40
0.0
 40
0.0
 40
0.0717083313538581
 40
0.1434064954322092
 40
0.2508627479064097
 40
0.500246814661281
 40
0.7492780688287578
 40
0.8745952820589344
 40
1.0
 40
1.0
 40
1.0
 40
1.0
 10
65.52248787661983
 20
181.0063534850477
 30
0.0
 10
65.52194992056175
 20
181.0060517950409
 30
0.0
 10
65.5208740847205
 20
181.0054484578028
 30
0.0
 10
65.51927933193463
 20
180.9964395206532
 30
0.0
 10
65.51702643864131
 20
180.9705693940496
 30
0.0
 10
65.51531103373686
 20
180.8943674089087
 30
0.0
 10
65.51493945608846
 20
180.7753911657084
 30
0.0
 10
65.51489117945876
 20
180.666216801638
 30
0.0
 10
65.51488909006396
 20
180.6100819155727
 30
0.0
 10
65.51488804500195
 20
180.5820046766939
 30
0.0
  0
LINE
  5
159
330
1F
100
AcDbEntity
  8
0
  6
Continuous
 62
     8
370
     0
100
AcDbLine
 10
65.5148832315
 20
176.4000009549
 30
0.0
 11
65.5149540121
 21
176.4125547175
 31
0.0
  0
SPLINE
  5
15A
330
1F
100
AcDbEntity
  8
0
  6
Continuous
 62
     8
370
     0
100
AcDbSpline
210
0.0
220
0.0
230
1.0
 70
     8
 71
     3
 72
    14
 73
    10
 74
     0
 42
0.00000001
 43
0.00000001
 40
0.0
 40
0.0
 40
0.0
 40
0.0
 40
0.1718007411285581
 40
0.3217008455161375
 40
0.4779766473038469
 40
0.7178261228481816
 40
0.8364055926828516
 40
0.9557882413255832
 40
1.0
 40
1.0
 40
1.0
 40
1.0
 10
65.51603527756053
 20
177.9006559205344
 30
0.0
 10
65.516023825361
 20
177.8749355086856
 30
0.0
 10
65.51600238085359
 20
177.8267734449806
 30
0.0
 10
65.51583413360291
 20
177.756152822235
 30
0.0
 10
65.51554885360586
 20
177.6780803145276
 30
0.0
 10
65.51520536947166
 20
177.6090533191461
 30
0.0
 10
65.51498078252355
 20
177.5521334333917
 30
0.0
 10
65.51487416920249
 20
177.5201399181582
 30
0.0
 10
65.51489670024468
 20
177.5047863726587
 30
0.0
 10
65.5149027893098
 20
177.5006370422533
 30
0.0
  0
SPLINE
  5
15B
330
1F
100
AcDbEntity
  8
0
  6
Continuous
 62
     8
370
     0
100
AcDbSpline
210
0.0
220
0.0
230
1.0
 70
     8
 71
     3
 72
    13
 73
     9
 74
     0
 42
0.00000001
 43
0.00000001
 40
0.0
 40
0.0
 40
0.0
 40
0.0
 40
0.1779909030221717
 40
0.4517214521647748
 40
0.5864329727413571
 40
0.7258556180637551
 40
0.8628928426401911
 40
1.0
 40
1.0
 40
1.0
 40
1.0
 10
65.51495121808368
 20
178.3156728175572
 30
0.0
 10
65.51495513357501
 20
178.2968365334952
 30
0.0
 10
65.51496507066393
 20
178.2490321039126
 30
0.0
 10
65.51538593324776
 20
178.1675257005228
 30
0.0
 10
65.51569317784173
 20
178.0887774794317
 30
0.0
 10
65.51589000291676
 20
178.027252853796
 30
0.0
 10
65.51600997744809
 20
177.9640432191634
 30
0.0
 10
65.51602684275564
 20
177.9217886130531
 30
0.0
 10
65.51603527756053
 20
177.9006559205344
 30
0.0
  0
SPLINE
  5
15C
330
1F
100
AcDbEntity
  8
0
  6
Continuous
 62
     8
370
     0
100
AcDbSpline
210
0.0
220
0.0
230
1.0
 70
     8
 71
     3
 72
    12
 73
     8
 74
     0
 42
0.00000001
 43
0.00000001
 40
0.0
 40
0.0
 40
0.0
 40
0.0
 40
0.124436432971119
 40
0.2241100636005489
 40
0.3366508213409355
 40
0.6724184683900494
 40
1.0
 40
1.0
 40
1.0
 40
1.0
 10
65.52357805909234
 20
179.873659069567
 30
0.0
 10
65.5228187443394
 20
179.8742868179471
 30
0.0
 10
65.52145121817759
 20
179.8754173930209
 30
0.0
 10
65.51974149361739
 20
179.8812082679526
 30
0.0
 10
65.51736527635177
 20
179.8989386104832
 30
0.0
 10
65.51521735201906
 20
179.9437524071742
 30
0.0
 10
65.51500428355637
 20
180.0167884230384
 30
0.0
 10
65.5148990640195
 20
180.0528557774714
 30
0.0
  0
SPLINE
  5
15D
330
1F
100
AcDbEntity
  8
0
  6
Continuous
 62
     8
370
     0
100
AcDbSpline
210
0.0
220
0.0
230
1.0
 70
     8
 71
     3
 72
    15
 73
    11
 74
     0
 42
0.00000001
 43
0.00000001
 40
0.0
 40
0.0
 40
0.0
 40
0.0
 40
0.0290369213696005
 40
0.1070341510814429
 40
0.1975734137175331
 40
0.4646580143140494
 40
0.5977282934922874
 40
0.7323045105382477
 40
0.8661275383289718
 40
1.0
 40
1.0
 40
1.0
 40
1.0
 10
65.51489254476148
 20
181.7500877929023
 30
0.0
 10
65.51488917129265
 20
181.7540862198715
 30
0.0
 10
65.51487673621503
 20
181.7688249805981
 30
0.0
 10
65.51494410383317
 20
181.7942363655328
 30
0.0
 10
65.51523010652964
 20
181.8455432540867
 30
0.0
 10
65.51609061532604
 20
181.8919942158499
 30
0.0
 10
65.51787547348236
 20
181.925665951057
 30
0.0
 10
65.51967611902884
 20
181.9432051087675
 30
0.0
 10
65.52191925734589
 20
181.9527093691576
 30
0.0
 10
65.52378993630208
 20
181.9540067701141
 30
0.0
 10
65.52472544850427
 20
181.9546555903843
 30
0.0
  0
LINE
  5
15E
330
1F
100
AcDbEntity
  8
0
  6
HIDDEN
 62
     7
370
     0
100
AcDbLine
 10
81.8470811659
 20
176.250000744
 30
0.0
 11
84.1076813826
 21
176.250000744
 31
0.0
  0
LINE
  5
15F
330
1F
100
AcDbEntity
  8
0
  6
HIDDEN
 62
     7
370
     0
100
AcDbLine
 10
81.8476618456
 20
169.9000008208
 30
0.0
 11
84.107100703
 21
169.9000008208
 31
0.0
  0
LINE
  5
160
330
1F
100
AcDbEntity
  8
0
  6
HIDDEN
 62
     7
370
     0
100
AcDbLine
 10
71.8648812921
 20
170.5350008248
 30
0.0
 11
84.5648811387
 21
170.5350008248
 31
0.0
  0
LINE
  5
161
330
1F
100
AcDbEntity
  8
0
  6
HIDDEN
 62
     7
370
     0
100
AcDbLine
 10
71.8648812921
 20
169.9000008208
 30
0.0
 11
84.5648811387
 21
169.9000008208
 31
0.0
  0
LINE
  5
162
330
1F
100
AcDbEntity
  8
0
  6
HIDDEN
 62
     7
370
     0
100
AcDbLine
 10
86.1460307801
 20
173.0750007824
 30
0.0
 11
89.3337309548
 21
173.0750007824
 31
0.0
  0
LINE
  5
163
330
1F
100
AcDbEntity
  8
0
  6
HIDDEN
 62
     7
370
     0
100
AcDbLine
 10
86.1483683998
 20
169.9000008208
 30
0.0
 11
89.3313933352
 21
169.9000008208
 31
0.0
  0
LINE
  5
164
330
1F
100
AcDbEntity
  8
0
  6
HIDDEN
 62
     7
370
     0
100
AcDbLine
 10
76.6210312444
 20
173.0750007824
 30
0.0
 11
79.8087311864
 21
173.0750007824
 31
0.0
  0
LINE
  5
165
330
1F
100
AcDbEntity
  8
0
  6
HIDDEN
 62
     7
370
     0
100
AcDbLine
 10
76.6233687477
 20
170.5350008248
 30
0.0
 11
79.8063936831
 21
170.5350008248
 31
0.0
  0
LINE
  5
166
330
1F
100
AcDbEntity
  8
0
  6
HIDDEN
 62
     7
370
     0
100
AcDbLine
 10
67.559581455
 20
176.250000744
 30
0.0
 11
69.8201816717
 21
176.250000744
 31
0.0
  0
LINE
  5
167
330
1F
100
AcDbEntity
  8
0
  6
HIDDEN
 62
     7
370
     0
100
AcDbLine
 10
67.560161669
 20
169.9000008208
 30
0.0
 11
69.8196005264
 21
169.9000008208
 31
0.0
  0
LINE
  5
168
330
1F
100
AcDbEntity
  8
0
  6
HIDDEN
 62
     7
370
     0
100
AcDbLine
 10
81.8476618456
 20
176.250000744
 30
0.0
 11
84.107100703
 21
176.250000744
 31
0.0
  0
LINE
  5
169
330
1F
100
AcDbEntity
  8
0
  6
HIDDEN
 62
     7
370
     0
100
AcDbLine
 10
81.8476618456
 20
169.9000008208
 30
0.0
 11
84.107100703
 21
169.9000008208
 31
0.0
  0
LINE
  5
16A
330
1F
100
AcDbEntity
  8
0
  6
HIDDEN
 62
     7
370
     0
100
AcDbLine
 10
84.1076813826
 20
176.250000744
 30
0.0
 11
82.9773812743
 21
176.9291537617
 31
0.0
  0
LINE
  5
16B
330
1F
100
AcDbEntity
  8
0
  6
HIDDEN
 62
     7
370
     0
100
AcDbLine
 10
82.9773812743
 20
176.9291537617
 30
0.0
 11
81.8470811659
 21
176.250000744
 31
0.0
  0
LINE
  5
16C
330
1F
100
AcDbEntity
  8
0
  6
HIDDEN
 62
     7
370
     0
100
AcDbLine
 10
84.1076813826
 20
169.9000008208
 30
0.0
 11
84.1076813826
 21
176.250000744
 31
0.0
  0
LINE
  5
16D
330
1F
100
AcDbEntity
  8
0
  6
HIDDEN
 62
     7
370
     0
100
AcDbLine
 10
81.8470811659
 20
176.250000744
 30
0.0
 11
81.8470811659
 21
169.9000008208
 31
0.0
  0
LINE
  5
16E
330
1F
100
AcDbEntity
  8
0
  6
HIDDEN
 62
     7
370
     0
100
AcDbLine
 10
84.5648811387
 20
169.9000008208
 30
0.0
 11
84.5648811387
 21
170.5350008248
 31
0.0
  0
LINE
  5
16F
330
1F
100
AcDbEntity
  8
0
  6
HIDDEN
 62
     7
370
     0
100
AcDbLine
 10
71.8648812921
 20
170.5350008248
 30
0.0
 11
71.8648812921
 21
169.9000008208
 31
0.0
  0
LINE
  5
170
330
1F
100
AcDbEntity
  8
0
  6
HIDDEN
 62
     7
370
     0
100
AcDbLine
 10
89.3337309548
 20
169.9000008208
 30
0.0
 11
89.3337309548
 21
173.0750007824
 31
0.0
  0
LINE
  5
171
330
1F
100
AcDbEntity
  8
0
  6
HIDDEN
 62
     7
370
     0
100
AcDbLine
 10
86.1460307801
 20
173.0750007824
 30
0.0
 11
86.1460307801
 21
169.9000008208
 31
0.0
  0
LINE
  5
172
330
1F
100
AcDbEntity
  8
0
  6
HIDDEN
 62
     7
370
     0
100
AcDbLine
 10
79.8087311864
 20
170.5350008248
 30
0.0
 11
79.8087311864
 21
173.0750007824
 31
0.0
  0
LINE
  5
173
330
1F
100
AcDbEntity
  8
0
  6
HIDDEN
 62
     7
370
     0
100
AcDbLine
 10
76.6210312444
 20
173.0750007824
 30
0.0
 11
76.6210312444
 21
170.5350008248
 31
0.0
  0
LINE
  5
174
330
1F
100
AcDbEntity
  8
0
  6
HIDDEN
 62
     7
370
     0
100
AcDbLine
 10
69.8201816717
 20
176.250000744
 30
0.0
 11
68.6898810977
 21
176.9291537617
 31
0.0
  0
LINE
  5
175
330
1F
100
AcDbEntity
  8
0
  6
HIDDEN
 62
     7
370
     0
100
AcDbLine
 10
68.6898810977
 20
176.9291537617
 30
0.0
 11
67.559581455
 21
176.250000744
 31
0.0
  0
LINE
  5
176
330
1F
100
AcDbEntity
  8
0
  6
HIDDEN
 62
     7
370
     0
100
AcDbLine
 10
69.8201816717
 20
169.9000008208
 30
0.0
 11
69.8201816717
 21
176.250000744
 31
0.0
  0
LINE
  5
177
330
1F
100
AcDbEntity
  8
0
  6
HIDDEN
 62
     7
370
     0
100
AcDbLine
 10
67.559581455
 20
176.250000744
 30
0.0
 11
67.559581455
 21
169.9000008208
 31
0.0
  0
LINE
  5
178
330
1F
100
AcDbEntity
  8
0
  6
HIDDEN
 62
     7
370
     0
100
AcDbLine
 10
84.1076813826
 20
176.250000744
 30
0.0
 11
82.9773812743
 21
176.9291537617
 31
0.0
  0
LINE
  5
179
330
1F
100
AcDbEntity
  8
0
  6
HIDDEN
 62
     7
370
     0
100
AcDbLine
 10
82.9773812743
 20
176.9291537617
 30
0.0
 11
81.8470811659
 21
176.250000744
 31
0.0
  0
LINE
  5
17A
330
1F
100
AcDbEntity
  8
0
  6
HIDDEN
 62
     7
370
     0
100
AcDbLine
 10
84.1076813826
 20
169.9000008208
 30
0.0
 11
84.1076813826
 21
176.250000744
 31
0.0
  0
LINE
  5
17B
330
1F
100
AcDbEntity
  8
0
  6
HIDDEN
 62
     7
370
     0
100
AcDbLine
 10
81.8470811659
 20
176.250000744
 30
0.0
 11
81.8470811659
 21
169.9000008208
 31
0.0
  0
DIMENSION
  5
17C
330
1F
100
AcDbEntity
  8
0
  6
Continuous
 62
     7
370
     0
100
AcDbDimension
  2
*D7
 10
230.6148812154
 20
206.8731172267
 30
0.0
 11
149.6552914313
 21
206.8731172267
 31
0.0
 70
   160
  1
<>\PREFLECTED FOCAL LENGTH
 71
     2
 42
-1.0
  3
SLDDIMSTYLE0
100
AcDbAlignedDimension
 13
78.2148812154
 23
202.3291674875
 33
0.0
 14
230.6148812154
 24
202.3291674875
 34
0.0
100
AcDbRotatedDimension
  0
DIMENSION
  5
190
330
1F
100
AcDbEntity
  8
0
  6
Continuous
 62
     7
370
     0
100
AcDbDimension
  2
*D8
 10
49.3621216149
 20
169.9000008208
 30
0.0
 11
49.3621216149
 21
185.71317333
 31
0.0
 70
   160
 71
     2
 42
-1.0
  3
SLDDIMSTYLE0
100
AcDbAlignedDimension
 13
65.5148812154
 23
201.6491675309
 33
0.0
 14
65.5148812154
 24
169.9000008208
 34
0.0
 50
90.0
100
AcDbRotatedDimension
  0
DIMENSION
  5
1A2
330
1F
100
AcDbEntity
  8
0
  6
Continuous
 62
     7
370
     0
100
AcDbDimension
  2
*D9
 10
209.6194202358
 20
188.4200008208
 30
0.0
 11
209.6194202358
 21
153.9000008208
 31
0.0
 70
   160
  1
<>\PFOCAL LENGTH OF \PPARENT PARABOLA
 71
     2
 42
-1.0
  3
SLDDIMSTYLE0
100
AcDbAlignedDimension
 13
230.6148812154
 23
112.2200008208
 33
0.0
 14
230.6148812154
 24
188.4200008208
 34
0.0
 50
90.0
100
AcDbRotatedDimension
  0
DIMENSION
  5
1B6
330
1F
100
AcDbEntity
  8
0
  6
Continuous
 62
     7
370
     0
100
AcDbDimension
  2
*D10
 10
93.4877728157
 20
176.2491674875
 30
0.0
 11
93.4877728157
 21
185.7040474923
 31
0.0
 70
   160
 71
     2
 42
-1.0
  3
SLDDIMSTYLE1
100
AcDbAlignedDimension
 13
90.9148812154
 23
169.9000008208
 33
0.0
 14
90.9148812154
 24
176.2491674875
 34
0.0
 50
90.0
100
AcDbRotatedDimension
  0
DIMENSION
  5
1CA
330
1F
100
AcDbEntity
  8
0
  6
Continuous
 62
     7
370
     0
100
AcDbDimension
  2
*D11
 10
71.8648812154
 20
151.1375202142
 30
0.0
 11
59.6308748182
 21
151.1375202142
 31
0.0
 70
   160
  1
%%c<>
 71
     2
 42
-1.0
  3
SLDDIMSTYLE0
100
AcDbAlignedDimension
 13
84.5648812154
 23
170.5350008208
 33
0.0
 14
71.8648812154
 24
170.5350008208
 34
0.0
100
AcDbRotatedDimension
  0
DIMENSION
  5
1DD
330
1F
100
AcDbEntity
  8
0
  6
Continuous
 62
     7
370
     0
100
AcDbDimension
  2
*D12
 10
37.3622052779
 20
170.5350008208
 30
0.0
 11
37.3622052779
 21
182.5551268742
 31
0.0
 70
   160
  1
<> REF
 71
     2
 42
-1.0
  3
SLDDIMSTYLE1
100
AcDbAlignedDimension
 13
71.8648812154
 23
169.9000008208
 33
0.0
 14
71.8648812154
 24
170.5350008208
 34
0.0
 50
90.0
100
AcDbRotatedDimension
  0
DIMENSION
  5
1F1
330
1F
100
AcDbEntity
  8
0
  6
Continuous
 62
     7
370
     0
100
AcDbDimension
  2
*D13
 10
161.6194202358
 20
188.4200008208
 30
0.0
 11
161.6194202358
 21
178.9409136831
 31
0.0
 70
   160
 71
     2
 42
-1.0
  3
SLDDIMSTYLE1
100
AcDbAlignedDimension
 13
90.9148812154
 23
169.9000008208
 33
0.0
 14
230.6148812154
 24
188.4200008208
 34
0.0
 50
90.0
100
AcDbRotatedDimension
  0
MTEXT
  5
205
330
1F
100
AcDbEntity
  8
0
  6
Continuous
 62
     7
370
     0
100
AcDbMText
 10
22.7547780962
 20
206.5831489372
 30
0.0
 40
2.1166666667
 41
0.0
 71
     1
 72
     1
  1
MIRROR MECHANICAL AXIS
  7
SLDTEXTSTYLE0
 73
     1
 44
1.0
  0
LEADER
  5
207
330
1F
100
AcDbEntity
  8
0
  6
Continuous
 62
     7
370
     0
100
AcDbLeader
  3
SLDDIMSTYLE2
 76
     3
 10
78.2148812154
 20
198.8049092987
 30
0.0
 10
66.6771232772
 20
205.5753756672
 30
0.0
 10
60.3271232772
 20
205.5753756672
 30
0.0
  0
MTEXT
  5
208
330
1F
100
AcDbEntity
  8
0
  6
Continuous
 62
     7
370
     0
100
AcDbMText
 10
192.6889984881
 20
198.6865608586
 30
0.0
 40
2.1166666667
 41
0.0
 71
     1
 72
     1
  1
OPTICAL AXIS
  7
SLDTEXTSTYLE0
 73
     1
 44
1.0
  0
LEADER
  5
209
330
1F
100
AcDbEntity
  8
0
  6
Continuous
 62
     7
370
     0
100
AcDbLeader
  3
SLDDIMSTYLE2
 76
     3
 10
230.6148812154
 20
196.3836767575
 30
0.0
 10
217.8232010522
 20
197.6776477158
 30
0.0
 10
211.4732010522
 20
197.6776477158
 30
0.0
  0
CIRCLE
  5
20A
330
1F
100
AcDbEntity
  8
0
  6
Continuous
 62
     7
370
     0
100
AcDbCircle
 10
78.2148812154
 20
89.1208361725
 30
0.0
 40
6.350000000000009
  0
CIRCLE
  5
20B
330
1F
100
AcDbEntity
  8
0
  6
Continuous
 62
     7
370
     0
100
AcDbCircle
 10
68.6898812154
 20
89.1208361725
 30
0.0
 40
1.130299999999991
  0
CIRCLE
  5
20C
330
1F
100
AcDbEntity
  8
0
  6
Continuous
 62
     7
370
     0
100
AcDbCircle
 10
82.9773812154
 20
97.3697281436
 30
0.0
 40
1.130299999999991
  0
CIRCLE
  5
20D
330
1F
100
AcDbEntity
  8
0
  6
Continuous
 62
     7
370
     0
100
AcDbCircle
 10
82.9773812154
 20
80.8719442015
 30
0.0
 40
1.130299999999991
  0
CIRCLE
  5
20E
330
1F
100
AcDbEntity
  8
0
  6
Continuous
 62
     7
370
     0
100
AcDbCircle
 10
78.2148812154
 20
89.1208361725
 30
0.0
 40
12.7
  0
CIRCLE
  5
20F
330
1F
100
AcDbEntity
  8
0
  6
Continuous
 62
     7
370
     0
100
AcDbCircle
 10
87.7398812154
 20
89.1208361725
 30
0.0
 40
1.593850000000003
  0
CIRCLE
  5
210
330
1F
100
AcDbEntity
  8
0
  6
Continuous
 62
     7
370
     0
100
AcDbCircle
 10
78.2148812154
 20
89.1208361725
 30
0.0
 40
1.593850000000003
  0
LINE
  5
211
330
1F
100
AcDbEntity
  8
0
  6
CENTERX2
 62
     7
370
     0
100
AcDbLine
 10
78.2148812154
 20
89.1208361725
 30
0.0
 11
80.1992562154
 21
92.5578744938
 31
0.0
  0
LINE
  5
212
330
1F
100
AcDbEntity
  8
0
  6
CENTERX2
 62
     7
370
     0
100
AcDbLine
 10
78.2148812154
 20
89.1208361725
 30
0.0
 11
74.2461312154
 21
89.1208361725
 31
0.0
  0
CIRCLE
  5
213
330
1F
100
AcDbEntity
  8
0
  6
CENTERX2
 62
     7
370
     0
100
AcDbCircle
 10
78.2148812154
 20
89.1208361725
 30
0.0
 40
9.524999999999995
  0
DIMENSION
  5
214
330
1F
100
AcDbEntity
  8
0
  6
Continuous
 62
     7
370
     0
100
AcDbDimension
  2
*D14
 10
78.2148812154
 20
89.1208361725
 30
0.0
 11
65.801746335
 21
106.4682632164
 31
0.0
 70
   162
  1
<>\PTYP.
 71
     1
 42
-1.0
  3
SLDDIMSTYLE3
100
AcDb2LineAngularDimension
 13
80.1992562154
 23
92.5578744938
 33
0.0
 14
78.2148812154
 24
89.1208361725
 34
0.0
 15
74.2461312154
 25
89.1208361725
 35
0.0
 16
80.9337329971
 26
110.2780332362
 36
0.0
  0
DIMENSION
  5
221
330
1F
100
AcDbEntity
  8
0
  6
Continuous
 62
     7
370
     0
100
AcDbDimension
  2
*D15
 10
66.7427486163
 20
94.5687874965
 30
0.0
 11
113.2313053464
 21
78.3290795152
 31
0.0
 70
   163
  1
<>
 71
     1
 42
-1.0
  3
SLDDIMSTYLE4
100
AcDbDiametricDimension
 15
89.6870138145
 25
83.6728848486
 35
0.0
 40
0.0
  0
DIMENSION
  5
232
330
1F
100
AcDbEntity
  8
0
  6
Continuous
 62
     7
370
     0
100
AcDbDimension
  2
*D16
 10
87.7398812154
 20
67.8730201215
 30
0.0
 11
102.6695632508
 21
67.8730201215
 31
0.0
 70
   160
 71
     2
 42
-1.0
  3
SLDDIMSTYLE1
100
AcDbAlignedDimension
 13
78.2148812154
 23
87.8508361725
 33
0.0
 14
87.7398812154
 24
87.8508361725
 34
0.0
100
AcDbRotatedDimension
  0
DIMENSION
  5
244
330
1F
100
AcDbEntity
  8
0
  6
Continuous
 62
     7
370
     0
100
AcDbDimension
  2
*D17
 10
86.5760982005
 20
88.0318150907
 30
0.0
 11
113.2313053464
 21
97.2034881023
 31
0.0
 70
   163
  1
%%c3.2mm [0.13in]\P{\fGDT;x}3.2mm [0.13in]\P2 PLACES
 71
     1
 42
-1.0
  3
SLDDIMSTYLE5
100
AcDbDiametricDimension
 15
88.9036642304
 25
90.2098572543
 35
0.0
 40
0.0
  0
DIMENSION
  5
258
330
1F
100
AcDbEntity
  8
0
  6
Continuous
 62
     7
370
     0
100
AcDbDimension
  2
*D19
 10
69.2546244481
 20
90.099939421
 30
0.0
 11
33.8626437545
 21
78.3290795152
 31
0.0
 70
   163
  1
4-40 TAPPED HOLES\PLOCATED ON A %%c19.1mm [0.75in]
 71
     1
 42
-1.0
  3
SLDDIMSTYLE4
100
AcDbDiametricDimension
 15
68.1251379828
 25
88.1417329241
 35
0.0
 40
0.0
  0
INSERT
  5
26A
330
1F
100
AcDbEntity
  8
0
  6
Continuous
 62
     7
370
     0
100
AcDbBlockReference
  2
SW_CENTERMARKSYMBOL_0
 10
78.2148812154
 20
89.1208361725
 30
0.0
  0
INSERT
  5
272
330
1F
100
AcDbEntity
  8
0
  6
Continuous
 62
     7
370
     0
100
AcDbBlockReference
  2
SW_CENTERMARKSYMBOL_1
 10
87.7398812154
 20
89.1208361725
 30
0.0
  0
LINE
  5
273
330
1F
100
AcDbEntity
  8
0
  6
Continuous
 62
     7
370
     0
100
AcDbLine
 10
193.2127874227
 20
98.8885110433
 30
0.0
 11
174.1635899874
 21
98.8885110433
 31
0.0
  0
LINE
  5
274
330
1F
100
AcDbEntity
  8
0
  6
Continuous
 62
     7
370
     0
100
AcDbLine
 10
174.1636738064
 20
73.4885113503
 30
0.0
 11
193.2127874227
 21
73.4885113503
 31
0.0
  0
SPLINE
  5
275
330
1F
100
AcDbEntity
  8
0
  6
Continuous
 62
     7
370
     0
100
AcDbSpline
210
0.0
220
0.0
230
1.0
 70
     8
 71
     3
 72
   110
 73
   106
 74
     0
 42
0.00000001
 43
0.00000001
 40
-0.0312500000000002
 40
-0.0312500000000002
 40
0.0
 40
0.0
 40
0.03125
 40
0.03125
 40
0.0390625
 40
0.0390625
 40
0.046875
 40
0.046875
 40
0.0625
 40
0.0625
 40
0.0781250000000001
 40
0.0781250000000001
 40
0.0937500000000001
 40
0.0937500000000001
 40
0.1093750000000001
 40
0.1093750000000001
 40
0.1250000000000002
 40
0.1250000000000002
 40
0.1562500000000002
 40
0.1562500000000002
 40
0.1875000000000002
 40
0.1875000000000002
 40
0.2187500000000003
 40
0.2187500000000003
 40
0.2500000000000003
 40
0.2500000000000003
 40
0.2656250000000003
 40
0.2656250000000003
 40
0.2812500000000003
 40
0.2812500000000003
 40
0.3125000000000002
 40
0.3125000000000002
 40
0.3437500000000001
 40
0.3437500000000001
 40
0.3593750000000001
 40
0.3593750000000001
 40
0.3750000000000001
 40
0.3750000000000001
 40
0.4062500000000001
 40
0.4062500000000001
 40
0.4218750000000002
 40
0.4218750000000002
 40
0.4375000000000002
 40
0.4375000000000002
 40
0.4531250000000002
 40
0.4531250000000002
 40
0.4687500000000002
 40
0.4687500000000002
 40
0.4843750000000001
 40
0.4843750000000001
 40
0.4921875000000001
 40
0.4921875000000001
 40
0.5000000000000001
 40
0.5000000000000001
 40
0.5156250000000001
 40
0.5156250000000001
 40
0.5234375000000001
 40
0.5234375000000001
 40
0.5312500000000001
 40
0.5312500000000001
 40
0.5468750000000001
 40
0.5468750000000001
 40
0.5546875
 40
0.5546875
 40
0.5625
 40
0.5625
 40
0.5937500000000001
 40
0.5937500000000001
 40
0.6250000000000002
 40
0.6250000000000002
 40
0.6406250000000002
 40
0.6406250000000002
 40
0.6562500000000001
 40
0.6562500000000001
 40
0.6875000000000001
 40
0.6875000000000001
 40
0.7187500000000001
 40
0.7187500000000001
 40
0.7343750000000001
 40
0.7343750000000001
 40
0.75
 40
0.75
 40
0.78125
 40
0.78125
 40
0.8125
 40
0.8125
 40
0.84375
 40
0.84375
 40
0.8749999999999999
 40
0.8749999999999999
 40
0.8906249999999999
 40
0.8906249999999999
 40
0.9062499999999999
 40
0.9062499999999999
 40
0.9218749999999999
 40
0.9218749999999999
 40
0.9374999999999999
 40
0.9374999999999999
 40
0.9531249999999998
 40
0.9531249999999998
 40
0.9609374999999998
 40
0.9609374999999998
 40
0.9687499999999998
 40
0.9687499999999998
 40
1.0
 40
1.0
 40
1.03125
 40
1.03125
 10
161.4636207126265
 20
87.21394973661062
 30
0.0
 10
161.4636207126266
 20
85.16307265705194
 30
0.0
 10
161.5859086159478
 20
84.17020220797343
 30
0.0
 10
161.8767979722853
 20
82.9658745827729
 30
0.0
 10
161.9422336114825
 20
82.72621839851149
 30
0.0
 10
162.0845457530618
 20
82.25840658869645
 30
0.0
 10
162.1616001628082
 20
82.02933584123873
 30
0.0
 10
162.4093434949143
 20
81.35571512157205
 30
0.0
 10
162.5965482919851
 20
80.92470402110679
 30
0.0
 10
163.0110256077458
 20
80.0955272948207
 30
0.0
 10
163.2394106811516
 20
79.69619194649829
 30
0.0
 10
163.7213213871705
 20
78.94648393235246
 30
0.0
 10
163.9759875231635
 20
78.59346762074819
 30
0.0
 10
164.5094878261293
 20
77.925928357196
 30
0.0
 10
164.7883392040724
 20
77.61143281782522
 30
0.0
 10
165.368208724063
 20
77.01774760343046
 30
0.0
 10
165.670668088532
 20
76.73748226329324
 30
0.0
 10
166.5944700644282
 20
75.95881279127845
 30
0.0
 10
167.2340404743396
 20
75.51865852476399
 30
0.0
 10
168.5527007588904
 20
74.76999922242011
 30
0.0
 10
169.2323080722057
 20
74.46165979195399
 30
0.0
 10
170.6267271625096
 20
73.96855733579353
 30
0.0
 10
171.3275602189666
 20
73.78863663163568
 30
0.0
 10
172.7357545419443
 20
73.54883846858372
 30
0.0
 10
173.4431217160165
 20
73.4890696400157
 30
0.0
 10
174.5090027749301
 20
73.48823777688284
 30
0.0
 10
174.8651057338878
 20
73.50284170695501
 30
0.0
 10
175.5789699387673
 20
73.5625427875768
 30
0.0
 10
175.9376677263781
 20
73.60787856519791
 30
0.0
 10
177.0022216902026
 20
73.78889083986732
 30
0.0
 10
177.7004044956728
 20
73.9692354671605
 30
0.0
 10
179.0729728383156
 20
74.45318841852907
 30
0.0
 10
179.7473886743236
 20
74.75663980246897
 30
0.0
 10
180.7388054777501
 20
75.3164836577239
 30
0.0
 10
181.0658891627205
 20
75.52065025910136
 30
0.0
 10
181.7125221609448
 20
75.96800955925768
 30
0.0
 10
182.0287944227997
 20
76.20902764060921
 30
0.0
 10
182.9503429528583
 20
76.98374566672483
 30
0.0
 10
183.5308355534336
 20
77.56956360854494
 30
0.0
 10
184.3388523641236
 20
78.57668458493788
 30
0.0
 10
184.5980867689804
 20
78.93520670007598
 30
0.0
 10
185.0807291977292
 20
79.68426255688307
 30
0.0
 10
185.3056649166113
 20
80.07646109863754
 30
0.0
 10
185.7192872534899
 20
80.89995030764074
 30
0.0
 10
185.9080456626571
 20
81.3312992952747
 30
0.0
 10
186.2435132418554
 20
82.2387996409152
 30
0.0
 10
186.3862252686101
 20
82.70428853158192
 30
0.0
 10
186.6190680600908
 20
83.65993430305188
 30
0.0
 10
186.7092270661023
 20
84.15007793472896
 30
0.0
 10
186.8012025909227
 20
84.90558979252789
 30
0.0
 10
186.8244540396136
 20
85.16012917541532
 30
0.0
 10
186.8554082809729
 20
85.66621009748597
 30
0.0
 10
186.8632672646374
 20
85.91892207149837
 30
0.0
 10
186.8642927919133
 20
86.67608559700054
 30
0.0
 10
186.8349872378546
 20
87.17956817242083
 30
0.0
 10
186.7458002688987
 20
87.93284181851371
 30
0.0
 10
186.7082967481153
 20
88.18454552098002
 30
0.0
 10
186.6195956445312
 20
88.67884016036298
 30
0.0
 10
186.5683599814801
 20
88.92224754719649
 30
0.0
 10
186.3950593964786
 20
89.6418266359786
 30
0.0
 10
186.2534726105366
 20
90.1073942303332
 30
0.0
 10
186.0047064801103
 20
90.78598108785546
 30
0.0
 10
185.9153876507228
 20
91.00950978672847
 30
0.0
 10
185.7275381147108
 20
91.44416223857493
 30
0.0
 10
185.628819321903
 20
91.6559186355773
 30
0.0
 10
185.1129857844766
 20
92.68886207696251
 30
0.0
 10
184.6297761871934
 20
93.43419642974423
 30
0.0
 10
183.549001082824
 20
94.78822050151759
 30
0.0
 10
182.9690318950736
 20
95.37516103084268
 30
0.0
 10
182.0523798646138
 20
96.1493058364195
 30
0.0
 10
181.7389263423554
 20
96.38937048237342
 30
0.0
 10
181.097264041623
 20
96.83592288595874
 30
0.0
 10
180.7677256918489
 20
97.04311418731407
 30
0.0
 10
179.7688532649899
 20
97.61032369997159
 30
0.0
 10
179.0908959666568
 20
97.91648045201083
 30
0.0
 10
177.7140988406111
 20
98.40396899515179
 30
0.0
 10
177.0152264986426
 20
98.58510643284923
 30
0.0
 10
175.9519123823226
 20
98.76711685280941
 30
0.0
 10
175.5939509438196
 20
98.81282258908108
 30
0.0
 10
174.8779557028907
 20
98.87349476632218
 30
0.0
 10
174.5208513162058
 20
98.88848319553217
 30
0.0
 10
173.4521502537133
 20
98.88856708205753
 30
0.0
 10
172.7431474875984
 20
98.82909364449954
 30
0.0
 10
171.3321626803481
 20
98.58951575647177
 30
0.0
 10
170.6294062459682
 20
98.40924281700644
 30
0.0
 10
169.2347980391116
 20
97.91641212413342
 30
0.0
 10
168.5555472476617
 20
97.6084486065208
 30
0.0
 10
167.2360126642688
 20
96.85967350669236
 30
0.0
 10
166.5956327857348
 20
96.4191895072472
 30
0.0
 10
165.670088782599
 20
95.63905190985278
 30
0.0
 10
165.3680841707507
 20
95.35914519330349
 30
0.0
 10
164.7885258332296
 20
94.76578272737623
 30
0.0
 10
164.5095814553345
 20
94.45122931474751
 30
0.0
 10
163.9754742489889
 20
93.78289440197435
 30
0.0
 10
163.7202931627104
 20
93.429143018438
 30
0.0
 10
163.2370358459962
 20
92.67693031101145
 30
0.0
 10
163.0091021637091
 20
92.2778771498609
 30
0.0
 10
162.5959382400169
 20
91.45086655779431
 30
0.0
 10
162.4090683530235
 20
91.02060859828973
 30
0.0
 10
162.161502948144
 20
90.34739746580908
 30
0.0
 10
162.0844541058235
 20
90.1183424614902
 30
0.0
 10
161.9420794892751
 20
89.65026939132642
 30
0.0
 10
161.8766415286048
 20
89.41053949701565
 30
0.0
 10
161.5859771559004
 20
88.20694621272796
 30
0.0
 10
161.4636207126265
 20
87.21394973661062
 30
0.0
 10
161.4636207126266
 20
85.16307265705194
 30
0.0
  0
LINE
  5
276
330
1F
100
AcDbEntity
  8
0
  6
Continuous
 62
     7
370
     0
100
AcDbLine
 10
193.2127874227
 20
73.4885113503
 30
0.0
 11
193.2127874227
 21
98.8885110433
 31
0.0
  0
LINE
  5
277
330
1F
100
AcDbEntity
  8
0
  6
HIDDEN
 62
     7
370
     0
100
AcDbLine
 10
186.8627874995
 20
76.8093189414
 30
0.0
 11
186.8627874995
 21
79.0699191581
 31
0.0
  0
LINE
  5
278
330
1F
100
AcDbEntity
  8
0
  6
HIDDEN
 62
     7
370
     0
100
AcDbLine
 10
193.2127874227
 20
79.0699191581
 30
0.0
 11
193.2127874227
 21
76.8116416599
 31
0.0
  0
LINE
  5
279
330
1F
100
AcDbEntity
  8
0
  6
HIDDEN
 62
     7
370
     0
100
AcDbLine
 10
186.8627874995
 20
93.3071032356
 30
0.0
 11
186.8627874995
 21
95.5677034523
 31
0.0
  0
LINE
  5
27A
330
1F
100
AcDbEntity
  8
0
  6
HIDDEN
 62
     7
370
     0
100
AcDbLine
 10
193.2127874227
 20
95.5677034523
 30
0.0
 11
193.2127874227
 21
93.3094254884
 31
0.0
  0
LINE
  5
27B
330
1F
100
AcDbEntity
  8
0
  6
HIDDEN
 62
     7
370
     0
100
AcDbLine
 10
186.8627874995
 20
85.0582112049
 30
0.0
 11
186.8627874995
 21
87.3188111888
 31
0.0
  0
LINE
  5
27C
330
1F
100
AcDbEntity
  8
0
  6
HIDDEN
 62
     7
370
     0
100
AcDbLine
 10
193.2127874227
 20
87.3188111888
 30
0.0
 11
193.2127874227
 21
85.0605335742
 31
0.0
  0
LINE
  5
27D
330
1F
100
AcDbEntity
  8
0
  6
HIDDEN
 62
     7
370
     0
100
AcDbLine
 10
186.8627874995
 20
79.0699191581
 30
0.0
 11
186.1836344818
 21
77.9396195154
 31
0.0
  0
LINE
  5
27E
330
1F
100
AcDbEntity
  8
0
  6
HIDDEN
 62
     7
370
     0
100
AcDbLine
 10
186.1836344818
 20
77.9396195154
 30
0.0
 11
186.8627874995
 21
76.8093189414
 31
0.0
  0
LINE
  5
27F
330
1F
100
AcDbEntity
  8
0
  6
HIDDEN
 62
     7
370
     0
100
AcDbLine
 10
193.2127874227
 20
79.0699191581
 30
0.0
 11
186.8627874995
 21
79.0699191581
 31
0.0
  0
LINE
  5
280
330
1F
100
AcDbEntity
  8
0
  6
HIDDEN
 62
     7
370
     0
100
AcDbLine
 10
186.8627874995
 20
76.8093189414
 30
0.0
 11
193.2127874227
 21
76.8093189414
 31
0.0
  0
LINE
  5
281
330
1F
100
AcDbEntity
  8
0
  6
HIDDEN
 62
     7
370
     0
100
AcDbLine
 10
193.2127874227
 20
95.5677034523
 30
0.0
 11
186.8627874995
 21
95.5677034523
 31
0.0
  0
LINE
  5
282
330
1F
100
AcDbEntity
  8
0
  6
HIDDEN
 62
     7
370
     0
100
AcDbLine
 10
186.8627874995
 20
93.3071032356
 30
0.0
 11
193.2127874227
 21
93.3071032356
 31
0.0
  0
LINE
  5
283
330
1F
100
AcDbEntity
  8
0
  6
HIDDEN
 62
     7
370
     0
100
AcDbLine
 10
186.8627874995
 20
95.5677034523
 30
0.0
 11
186.1836344818
 21
94.4374028783
 31
0.0
  0
LINE
  5
284
330
1F
100
AcDbEntity
  8
0
  6
HIDDEN
 62
     7
370
     0
100
AcDbLine
 10
186.1836344818
 20
94.4374028783
 30
0.0
 11
186.8627874995
 21
93.3071032356
 31
0.0
  0
LINE
  5
285
330
1F
100
AcDbEntity
  8
0
  6
HIDDEN
 62
     7
370
     0
100
AcDbLine
 10
186.8627874995
 20
87.3188111888
 30
0.0
 11
186.1836344818
 21
86.1885111968
 31
0.0
  0
LINE
  5
286
330
1F
100
AcDbEntity
  8
0
  6
HIDDEN
 62
     7
370
     0
100
AcDbLine
 10
186.1836344818
 20
86.1885111968
 30
0.0
 11
186.8627874995
 21
85.0582112049
 31
0.0
  0
LINE
  5
287
330
1F
100
AcDbEntity
  8
0
  6
HIDDEN
 62
     7
370
     0
100
AcDbLine
 10
193.2127874227
 20
87.3188111888
 30
0.0
 11
186.8627874995
 21
87.3188111888
 31
0.0
  0
LINE
  5
288
330
1F
100
AcDbEntity
  8
0
  6
HIDDEN
 62
     7
370
     0
100
AcDbLine
 10
186.8627874995
 20
85.0582112049
 30
0.0
 11
193.2127874227
 21
85.0582112049
 31
0.0
  0
INSERT
  5
28E
102
{ACAD_REACTORS
330
298
102
}
330
1F
100
AcDbEntity
  8
0
  6
Continuous
 62
     7
370
     0
100
AcDbBlockReference
  2
SW_NOTE_5
 10
179.7398986712
 20
58.6511629389
 30
0.0
  0
LEADER
  5
298
330
1F
100
AcDbEntity
  8
0
  6
Continuous
 62
     7
370
     0
100
AcDbLeader
  3
SLDDIMSTYLE6
 73
     2
 76
     3
 10
173.3766370732
 20
83.7467802502
 30
0.0
 10
173.3898986712
 20
58.6511629389
 30
0.0
 10
179.7398986712
 20
58.6511629389
 30
0.0
340
28E
  0
INSERT
  5
2A0
102
{ACAD_REACTORS
330
2A1
102
}
330
1F
100
AcDbEntity
  8
0
  6
Continuous
 62
     7
370
     0
100
AcDbBlockReference
  2
SW_NOTE_6
 10
207.1585819887
 20
99.3779590685
 30
0.0
  0
LEADER
  5
2A1
330
1F
100
AcDbEntity
  8
0
  6
Continuous
 62
     7
370
     0
100
AcDbLeader
  3
SLDDIMSTYLE2
 73
     2
 76
     3
 10
193.2127874227
 20
94.388083091
 30
0.0
 10
200.8085819887
 20
99.3779590685
 30
0.0
 10
207.1585819887
 20
99.3779590685
 30
0.0
340
2A0
  0
LINE
  5
2A2
330
1F
100
AcDbEntity
  8
0
  6
Continuous
 62
     7
370
     0
100
AcDbLine
 10
273.7933492087
 20
178.3652778974
 30
0.0
 11
273.7933492087
 21
186.5885109423
 31
0.0
  0
LINE
  5
2A3
330
1F
100
AcDbEntity
  8
0
  6
Continuous
 62
     7
370
     0
100
AcDbLine
 10
248.3933492087
 20
186.9426435085
 30
0.0
 11
248.3933492087
 21
178.3652778974
 31
0.0
  0
LINE
  5
2A4
330
1F
100
AcDbEntity
  8
0
  6
Continuous
 62
     7
370
     0
100
AcDbLine
 10
248.3933492087
 20
201.2471905782
 30
0.0
 11
248.3933492087
 21
187.7526678924
 31
0.0
  0
LINE
  5
2A5
330
1F
100
AcDbEntity
  8
0
  6
Continuous
 62
     7
370
     0
100
AcDbLine
 10
248.3933492087
 20
187.7526678924
 30
0.0
 11
248.3933492087
 21
186.9426435085
 31
0.0
  0
SPLINE
  5
2A6
330
1F
100
AcDbEntity
  8
0
  6
Continuous
 62
     7
370
     0
100
AcDbSpline
210
0.0
220
0.0
230
1.0
 70
     8
 71
     3
 72
   110
 73
   106
 74
     0
 42
0.00000001
 43
0.00000001
 40
-0.0312500000000002
 40
-0.0312500000000002
 40
0.0
 40
0.0
 40
0.03125
 40
0.03125
 40
0.0390625
 40
0.0390625
 40
0.046875
 40
0.046875
 40
0.0625
 40
0.0625
 40
0.0781250000000001
 40
0.0781250000000001
 40
0.0937500000000001
 40
0.0937500000000001
 40
0.1093750000000001
 40
0.1093750000000001
 40
0.1250000000000002
 40
0.1250000000000002
 40
0.1562500000000002
 40
0.1562500000000002
 40
0.1875000000000002
 40
0.1875000000000002
 40
0.2187500000000003
 40
0.2187500000000003
 40
0.2500000000000003
 40
0.2500000000000003
 40
0.2656250000000003
 40
0.2656250000000003
 40
0.2812500000000003
 40
0.2812500000000003
 40
0.3125000000000002
 40
0.3125000000000002
 40
0.3437500000000001
 40
0.3437500000000001
 40
0.3593750000000001
 40
0.3593750000000001
 40
0.3750000000000001
 40
0.3750000000000001
 40
0.4062500000000001
 40
0.4062500000000001
 40
0.4218750000000002
 40
0.4218750000000002
 40
0.4375000000000002
 40
0.4375000000000002
 40
0.4531250000000002
 40
0.4531250000000002
 40
0.4687500000000002
 40
0.4687500000000002
 40
0.4843750000000001
 40
0.4843750000000001
 40
0.4921875000000001
 40
0.4921875000000001
 40
0.5000000000000001
 40
0.5000000000000001
 40
0.5156250000000001
 40
0.5156250000000001
 40
0.5234375000000001
 40
0.5234375000000001
 40
0.5312500000000001
 40
0.5312500000000001
 40
0.5468750000000001
 40
0.5468750000000001
 40
0.5546875
 40
0.5546875
 40
0.5625
 40
0.5625
 40
0.5937500000000001
 40
0.5937500000000001
 40
0.6250000000000002
 40
0.6250000000000002
 40
0.6406250000000002
 40
0.6406250000000002
 40
0.6562500000000001
 40
0.6562500000000001
 40
0.6875000000000001
 40
0.6875000000000001
 40
0.7187500000000001
 40
0.7187500000000001
 40
0.7343750000000001
 40
0.7343750000000001
 40
0.75
 40
0.75
 40
0.78125
 40
0.78125
 40
0.8125
 40
0.8125
 40
0.84375
 40
0.84375
 40
0.8749999999999999
 40
0.8749999999999999
 40
0.8906249999999999
 40
0.8906249999999999
 40
0.9062499999999999
 40
0.9062499999999999
 40
0.9218749999999999
 40
0.9218749999999999
 40
0.9374999999999999
 40
0.9374999999999999
 40
0.9531249999999998
 40
0.9531249999999998
 40
0.9609374999999998
 40
0.9609374999999998
 40
0.9687499999999998
 40
0.9687499999999998
 40
1.0
 40
1.0
 40
1.03125
 40
1.03125
 10
252.8381876044431
 20
209.8925479570015
 30
0.0
 10
251.3879985141072
 20
209.05537161495
 30
0.0
 10
250.7724036900572
 20
208.500306390019
 30
0.0
 10
250.1265052959488
 20
207.6524297224948
 30
0.0
 10
250.0033127671126
 20
207.4744591327769
 30
0.0
 10
249.7731497444291
 20
207.1092003895827
 30
0.0
 10
249.6656579611808
 20
206.9213207885027
 30
0.0
 10
249.3645171724827
 20
206.3429237040609
 30
0.0
 10
249.1921200820572
 20
205.9377051102683
 30
0.0
 10
248.8988833167206
 20
205.0916028422347
 30
0.0
 10
248.7780032180823
 20
204.648879086845
 30
0.0
 10
248.5886419255223
 20
203.7526275707884
 30
0.0
 10
248.5190978494165
 20
203.2966238375296
 30
0.0
 10
248.4243179914426
 20
202.3707298446419
 30
0.0
 10
248.399113763186
 20
201.9008296958916
 30
0.0
 10
248.389344591986
 20
200.9482927648406
 30
0.0
 10
248.4050381370936
 20
200.4634517619142
 30
0.0
 10
248.5076623147588
 20
199.0141739963836
 30
0.0
 10
248.6486708220316
 20
198.0511906624326
 30
0.0
 10
249.0517223818331
 20
196.1305624828486
 30
0.0
 10
249.3142484194337
 20
195.172351507634
 30
0.0
 10
249.9515755234328
 20
193.2632574606414
 30
0.0
 10
250.3199161801471
 20
192.3314714103836
 30
0.0
 10
251.1460970279429
 20
190.5089060576978
 30
0.0
 10
251.604018209535
 20
189.6181638633656
 30
0.0
 10
252.3571217181688
 20
188.3123919368743
 30
0.0
 10
252.6192510732339
 20
187.8822180489715
 30
0.0
 10
253.1662443323024
 20
187.0322867509933
 30
0.0
 10
253.4519392061052
 20
186.6114797248295
 30
0.0
 10
254.3326875397613
 20
185.3815626658321
 30
0.0
 10
254.9539002449262
 20
184.6000842663714
 30
0.0
 10
256.2666590413389
 20
183.1165897906378
 30
0.0
 10
256.9581155836638
 20
182.4144725424223
 30
0.0
 10
258.0550225148054
 20
181.4287704329699
 30
0.0
 10
258.4306731947886
 20
181.1115180032266
 30
0.0
 10
259.2042425675394
 20
180.5021714380766
 30
0.0
 10
259.5983063483122
 20
180.2132031668979
 30
0.0
 10
260.7977479328829
 20
179.4007843747307
 30
0.0
 10
261.622454026379
 20
178.9289623012591
 30
0.0
 10
262.9059502644133
 20
178.3504587266297
 30
0.0
 10
263.342770088825
 20
178.1793129012576
 30
0.0
 10
264.2137122989173
 20
177.8939667025193
 30
0.0
 10
264.6500921195145
 20
177.7785748707017
 30
0.0
 10
265.5248620826916
 20
177.6081446715177
 30
0.0
 10
265.9633442280353
 20
177.5530421849011
 30
0.0
 10
266.8422552764862
 20
177.5126253107971
 30
0.0
 10
267.2723182695181
 20
177.5278539416086
 30
0.0
 10
268.1127065917431
 20
177.6327794076677
 30
0.0
 10
268.5230425219921
 20
177.7224362461997
 30
0.0
 10
269.1223065972122
 20
177.9181926988557
 30
0.0
 10
269.3187343779741
 20
177.9936196148856
 30
0.0
 10
269.6984755837709
 20
178.162292851653
 30
0.0
 10
269.8827270749234
 20
178.2558256545136
 30
0.0
 10
270.4188476955642
 20
178.5636468673438
 30
0.0
 10
270.7541414828537
 20
178.8050623236414
 30
0.0
 10
271.2237216755529
 20
179.2217829636907
 30
0.0
 10
271.3751840765501
 20
179.3704616805304
 30
0.0
 10
271.6619820161188
 20
179.6808709785243
 30
0.0
 10
271.7978679451591
 20
179.8429814764378
 30
0.0
 10
272.1841451795988
 20
180.3489655810945
 30
0.0
 10
272.4132342062001
 20
180.7124198508421
 30
0.0
 10
272.7171633570242
 20
181.2940967998923
 30
0.0
 10
272.812064065841
 20
181.4947348992739
 30
0.0
 10
272.9865800812442
 20
181.9022295481782
 30
0.0
 10
273.0665097376998
 20
182.1095747031459
 30
0.0
 10
273.4321616574078
 20
183.162990883047
 30
0.0
 10
273.6175118495372
 20
184.0590478632057
 30
0.0
 10
273.8107280473407
 20
185.9354397434245
 30
0.0
 10
273.8156575302419
 20
186.8853455342517
 30
0.0
 10
273.7148897051592
 20
188.3240194536122
 30
0.0
 10
273.6629959330606
 20
188.8059154084505
 30
0.0
 10
273.5250324017114
 20
189.7740725204518
 30
0.0
 10
273.4385199741159
 20
190.262249252643
 30
0.0
 10
273.1332882002973
 20
191.7171503546409
 30
0.0
 10
272.8703855127651
 20
192.6724495042864
 30
0.0
 10
272.2415493832257
 20
194.5576695189292
 30
0.0
 10
271.8754555215576
 20
195.4875508697465
 30
0.0
 10
271.2522797015768
 20
196.8641367682116
 30
0.0
 10
271.0314815770652
 20
197.3212054698117
 30
0.0
 10
270.5680981948636
 20
198.2228835953374
 30
0.0
 10
270.3261856813813
 20
198.6663636977925
 30
0.0
 10
269.5705592297626
 20
199.9752840821093
 30
0.0
 10
269.0271644949645
 20
200.8193542827327
 30
0.0
 10
267.8600404203598
 20
202.4496540183526
 30
0.0
 10
267.2356443621274
 20
203.2367632096097
 30
0.0
 10
265.9010235170534
 20
204.7436269658366
 30
0.0
 10
265.2029575846308
 20
205.4498239296499
 30
0.0
 10
263.7404417820312
 20
206.7602641058257
 30
0.0
 10
262.9761556043718
 20
207.3647587203636
 30
0.0
 10
261.7700565780918
 20
208.1798586566992
 30
0.0
 10
261.3585831317338
 20
208.4354781981385
 30
0.0
 10
260.5292028778206
 20
208.9030763323895
 30
0.0
 10
260.1095365655207
 20
209.1163100487823
 30
0.0
 10
259.2592815891076
 20
209.4976380865063
 30
0.0
 10
258.8287013104177
 20
209.6657670627405
 30
0.0
 10
257.9550920783952
 20
209.9505777031319
 30
0.0
 10
257.511745429686
 20
210.0668431918051
 30
0.0
 10
256.6348096197382
 20
210.2352745089429
 30
0.0
 10
256.1984343346199
 20
210.2885093998262
 30
0.0
 10
255.547347001095
 20
210.3169063441333
 30
0.0
 10
255.3308988953886
 20
210.3177703365455
 30
0.0
 10
254.8992471965548
 20
210.3010735917639
 30
0.0
 10
254.6834609368971
 20
210.2833596830733
 30
0.0
 10
253.6268612147981
 20
210.1480377214807
 30
0.0
 10
252.8381876044431
 20
209.8925479570015
 30
0.0
 10
251.3879985141072
 20
209.05537161495
 30
0.0
  0
SPLINE
  5
2A7
330
1F
100
AcDbEntity
  8
0
  6
Continuous
 62
     7
370
     0
100
AcDbSpline
210
0.0
220
0.0
230
1.0
 70
     8
 71
     3
 72
    13
 73
     9
 74
     0
 42
0.00000001
 43
0.00000001
 40
0.0
 40
0.0
 40
0.0
 40
0.0
 40
0.1250710948756994
 40
0.2501214874970486
 40
0.5000711849036319
 40
0.7499674618706464
 40
0.8749904195716339
 40
1.0
 40
1.0
 40
1.0
 40
1.0
 10
248.5080291974415
 20
186.8059301054545
 30
0.0
 10
248.5119555548003
 20
186.8015407244826
 30
0.0
 10
248.5198076196118
 20
186.7927626890863
 30
0.0
 10
248.5358367159195
 20
186.7844751952465
 30
0.0
 10
248.5557844265093
 20
186.7905696562178
 30
0.0
 10
248.5747266679664
 20
186.8196388112785
 30
0.0
 10
248.5885734294503
 20
186.8575844208036
 30
0.0
 10
248.5940224741415
 20
186.8868713168695
 30
0.0
 10
248.5967468507194
 20
186.9015139814469
 30
0.0
  0
LINE
  5
2A8
330
1F
100
AcDbEntity
  8
0
  6
Continuous
 62
     7
370
     0
100
AcDbLine
 10
248.5080291974
 20
186.6076431112
 30
0.0
 11
248.5080291974
 21
186.8059301055
 31
0.0
  0
SPLINE
  5
2A9
330
1F
100
AcDbEntity
  8
0
  6
Continuous
 62
     7
370
     0
100
AcDbSpline
210
0.0
220
0.0
230
1.0
 70
     8
 71
     3
 72
    13
 73
     9
 74
     0
 42
0.00000001
 43
0.00000001
 40
0.0
 40
0.0
 40
0.0
 40
0.0
 40
0.1250146390038047
 40
0.2500229927051614
 40
0.4999840770001259
 40
0.7500009713535911
 40
0.8675848207741964
 40
1.0
 40
1.0
 40
1.0
 40
1.0
 10
248.5803603353686
 20
186.5844958421329
 30
0.0
 10
248.5774701454408
 20
186.5808335845913
 30
0.0
 10
248.5716899108938
 20
186.5735092536336
 30
0.0
 10
248.5595144117516
 20
186.5676070691057
 30
0.0
 10
248.5440198410566
 20
186.569400654639
 30
0.0
 10
248.5290353918697
 20
186.5787836328848
 30
0.0
 10
248.5170428040321
 20
186.5925642207877
 30
0.0
 10
248.511150259127
 20
186.6024218774192
 30
0.0
 10
248.5080291974415
 20
186.6076431111843
 30
0.0
  0
LINE
  5
2AA
330
1F
100
AcDbEntity
  8
0
  6
Continuous
 62
     7
370
     0
100
AcDbLine
 10
248.5803603354
 20
185.2771459986
 30
0.0
 11
248.5803603354
 21
186.5844958421
 31
0.0
  0
ARC
  5
2AB
330
1F
100
AcDbEntity
  8
0
  6
Continuous
 62
     7
370
     0
100
AcDbCircle
 10
253.0395548635
 20
186.6178728677
 30
0.0
 40
4.656389629061692
100
AcDbArc
 50
196.7342305906
 51
198.6659139539
  0
LINE
  5
2AC
330
1F
100
AcDbEntity
  8
0
  6
Continuous
 62
     7
370
     0
100
AcDbLine
 10
248.6280873841
 20
186.8053076614
 30
0.0
 11
248.6280873841
 21
185.1275980421
 31
0.0
  0
ARC
  5
2AD
330
1F
100
AcDbEntity
  8
0
  6
Continuous
 62
     7
370
     0
100
AcDbCircle
 10
253.0560033206
 20
188.3009702106
 30
0.0
 40
4.673697251812528
100
AcDbArc
 50
197.4235129493
 51
198.6639526621
  0
LWPOLYLINE
  5
2AE
330
1F
100
AcDbEntity
  8
0
  6
Continuous
 62
     7
370
     0
100
AcDbPolyline
 90
       51
 70
   128
 43
0.0
 10
252.1130930876
 20
173.1810863873
 10
252.5539776399
 20
172.9384929594
 10
253.0145030205
 20
172.7083813108
 10
253.4936100062
 20
172.4912807055
 10
253.9901966356
 20
172.2876904821
 10
254.5031207435
 20
172.0980789045
 10
255.0312025881
 20
171.9228820854
 10
255.5732275642
 20
171.7625029831
 10
256.127948997
 20
171.6173104747
 10
256.6940910094
 20
171.4876385076
 10
257.2703514566
 20
171.3737853316
 10
257.8554049211
 20
171.2760128124
 10
258.4479057613
 20
171.1945458302
 10
259.0464912061
 20
171.1295717614
 10
259.64978449
 20
171.0812400487
 10
260.256398019
 20
171.0496618564
 10
260.8649365625
 20
171.0349098155
 10
261.4740004625
 20
171.037017856
 10
262.0821888523
 20
171.0559811295
 10
262.6881028793
 20
171.0917560198
 10
263.2903489218
 20
171.1442602435
 10
263.8875417945
 20
171.2133730392
 10
264.4783079347
 20
171.2989354452
 10
265.0612885614
 20
171.4007506654
 10
265.6351428004
 20
171.5185845213
 10
266.1985507686
 20
171.6521659914
 10
266.7502166096
 20
171.8011878341
 10
267.2888714743
 20
171.9653072942
 10
267.8132764393
 20
172.1441468918
 10
268.3222253563
 20
172.3372952901
 10
268.8145476265
 20
172.5443082415
 10
269.2891108929
 20
172.7647096097
 10
269.7448236448
 20
172.9979924644
 10
270.1806377282
 20
173.2436202476
 10
270.5955507569
 20
173.5010280075
 10
270.9886084175
 20
173.7696236981
 10
271.3589066648
 20
174.0487895406
 10
271.705593801
 20
174.3378834446
 10
272.0278724346
 20
174.6362404849
 10
272.3250013143
 20
174.9431744308
 10
272.5962970343
 20
175.2579793243
 10
272.8411356057
 20
175.5799311041
 10
273.0589538918
 20
175.9082892708
 10
273.2492509038
 20
176.24229859
 10
273.4115889524
 20
176.5811908297
 10
273.5455946547
 20
176.9241865269
 10
273.6509597935
 20
177.2704967803
 10
273.7274420256
 20
177.6193250654
 10
273.7748654393
 20
177.9698690659
 10
273.7931209593
 20
178.3213225195
 10
273.7933492087
 20
178.3652778974
  0
ARC
  5
2AF
330
1F
100
AcDbEntity
  8
0
  6
Continuous
 62
     7
370
     0
100
AcDbCircle
 10
254.7380416398
 20
178.9911156502
 30
0.0
 40
6.375483898318596
100
AcDbArc
 50
185.6334078179
 51
245.6867331397
  0
SPLINE
  5
2B0
330
1F
100
AcDbEntity
  8
0
  6
Continuous
 62
     7
370
     0
100
AcDbSpline
210
0.0
220
0.0
230
1.0
 70
     8
 71
     3
 72
    16
 73
    12
 74
     0
 42
0.00000001
 43
0.00000001
 40
0.0
 40
0.0
 40
0.0
 40
0.0
 40
0.1252037281426009
 40
0.2503884232617744
 40
0.3755474586374124
 40
0.5006311301699853
 40
0.6432480406832916
 40
0.750209392338341
 40
0.8748537122524777
 40
0.9374211602822553
 40
1.0
 40
1.0
 40
1.0
 40
1.0
 10
248.4558208340106
 20
186.6318144592246
 30
0.0
 10
248.45574122826
 20
186.58481876686
 30
0.0
 10
248.4555820288603
 20
186.4908345262481
 30
0.0
 10
248.453986611763
 20
186.3582674500083
 30
0.0
 10
248.4509460247287
 20
186.2360499261635
 30
0.0
 10
248.445557527828
 20
186.1272560369247
 30
0.0
 10
248.4376485230641
 20
186.0547202587191
 30
0.0
 10
248.4272773763518
 20
186.0338943674188
 30
0.0
 10
248.4185305461898
 20
186.0647845436961
 30
0.0
 10
248.4119031901469
 20
186.1135298149255
 30
0.0
 10
248.4090329739728
 20
186.1458308547565
 30
0.0
 10
248.4075977352521
 20
186.161982844805
 30
0.0
  0
SPLINE
  5
2B1
330
1F
100
AcDbEntity
  8
0
  6
Continuous
 62
     7
370
     0
100
AcDbSpline
210
0.0
220
0.0
230
1.0
 70
     8
 71
     3
 72
    15
 73
    11
 74
     0
 42
0.00000001
 43
0.00000001
 40
0.0
 40
0.0
 40
0.0
 40
0.0
 40
0.0626253064539623
 40
0.1252128026006802
 40
0.2500411401690629
 40
0.3746316374763726
 40
0.4996312845618917
 40
0.7494694892746645
 40
0.8496821103872467
 40
1.0
 40
1.0
 40
1.0
 40
1.0
 10
248.4075977352521
 20
187.8612015618055
 30
0.0
 10
248.4090338089663
 20
187.8437039312962
 30
0.0
 10
248.4119050893587
 20
187.8087192345498
 30
0.0
 10
248.4185347435172
 20
187.7249396824594
 30
0.0
 10
248.4277676152768
 20
187.60092638406
 30
0.0
 10
248.4383502442547
 20
187.4272802764603
 30
0.0
 10
248.4477912553487
 20
187.1957646086456
 30
0.0
 10
248.4534748636638
 20
186.9864658634215
 30
0.0
 10
248.4555110804984
 20
186.7855314127814
 30
0.0
 10
248.4557046766448
 20
186.6894582169067
 30
0.0
 10
248.4558208340106
 20
186.6318144592246
 30
0.0
  0
SPLINE
  5
2B2
330
1F
100
AcDbEntity
  8
0
  6
Continuous
 62
     7
370
     0
100
AcDbSpline
210
0.0
220
0.0
230
1.0
 70
     8
 71
     3
 72
    12
 73
     8
 74
     0
 42
0.00000001
 43
0.00000001
 40
0.0
 40
0.0
 40
0.0
 40
0.0
 40
0.2501118399281591
 40
0.500020391362865
 40
0.749755480835309
 40
0.8748530671024569
 40
1.0
 40
1.0
 40
1.0
 40
1.0
 10
248.4075977352521
 20
186.161982844805
 30
0.0
 10
248.4056836780183
 20
186.188370360054
 30
0.0
 10
248.401857119278
 20
186.241123943034
 30
0.0
 10
248.397907668532
 20
186.3425692664585
 30
0.0
 10
248.3957808809075
 20
186.440961945482
 30
0.0
 10
248.394674030735
 20
186.5241419902591
 30
0.0
 10
248.3943254948909
 20
186.5670039873212
 30
0.0
 10
248.3941511926044
 20
186.5884392119091
 30
0.0
  0
SPLINE
  5
2B3
330
1F
100
AcDbEntity
  8
0
  6
Continuous
 62
     7
370
     0
100
AcDbSpline
210
0.0
220
0.0
230
1.0
 70
     8
 71
     3
 72
    14
 73
    10
 74
     0
 42
0.00000001
 43
0.00000001
 40
0.0
 40
0.0
 40
0.0
 40
0.0
 40
0.2504465544088785
 40
0.5006271577129469
 40
0.6256173980224423
 40
0.7503619177354653
 40
0.874913934761297
 40
0.9374334541801428
 40
1.0
 40
1.0
 40
1.0
 40
1.0
 10
248.3950283583078
 20
187.2395689133689
 30
0.0
 10
248.3950500251749
 20
187.1706525193589
 30
0.0
 10
248.395093335901
 20
187.0328929141832
 30
0.0
 10
248.395551528546
 20
186.8477893965551
 30
0.0
 10
248.3966430625849
 20
186.6864256227519
 30
0.0
 10
248.3986572960755
 20
186.5597120965376
 30
0.0
 10
248.4015277823918
 20
186.4603226541834
 30
0.0
 10
248.4047224501632
 20
186.394193903948
 30
0.0
 10
248.4066390667036
 20
186.3684443441565
 30
0.0
 10
248.4075977352521
 20
186.3555647239569
 30
0.0
  0
SPLINE
  5
2B4
330
1F
100
AcDbEntity
  8
0
  6
Continuous
 62
     7
370
     0
100
AcDbSpline
210
0.0
220
0.0
230
1.0
 70
     8
 71
     3
 72
    14
 73
    10
 74
     0
 42
0.00000001
 43
0.00000001
 40
0.0
 40
0.0
 40
0.0
 40
0.0
 40
0.0625718350622495
 40
0.1250837859443795
 40
0.2496290621893428
 40
0.3743665145366787
 40
0.4993488336595877
 40
0.7495426014132981
 40
1.0
 40
1.0
 40
1.0
 40
1.0
 10
248.4075977352521
 20
186.3555647239569
 30
0.0
 10
248.408617263521
 20
186.3443047308588
 30
0.0
 10
248.4106553443223
 20
186.3217955210038
 30
0.0
 10
248.415066395595
 20
186.2960630638268
 30
0.0
 10
248.4204971105655
 20
186.2935780970004
 30
0.0
 10
248.4260068187903
 20
186.3290676993363
 30
0.0
 10
248.4300085753043
 20
186.4282085023084
 30
0.0
 10
248.4321298235332
 20
186.581973952499
 30
0.0
 10
248.4323403033051
 20
186.716602047497
 30
0.0
 10
248.4324455986079
 20
186.7839515409504
 30
0.0
  0
SPLINE
  5
2B5
330
1F
100
AcDbEntity
  8
0
  6
Continuous
 62
     7
370
     0
100
AcDbSpline
210
0.0
220
0.0
230
1.0
 70
     8
 71
     3
 72
    15
 73
    11
 74
     0
 42
0.00000001
 43
0.00000001
 40
0.0
 40
0.0
 40
0.0
 40
0.0
 40
0.1252519376079533
 40
0.2504961104472878
 40
0.5006645979650204
 40
0.6256249858635199
 40
0.7503965025560811
 40
0.8749083495139847
 40
0.9374337014579539
 40
1.0
 40
1.0
 40
1.0
 40
1.0
 10
248.4324455986079
 20
186.7839515409504
 30
0.0
 10
248.4324232377085
 20
186.8182882743951
 30
0.0
 10
248.4323785172958
 20
186.8869596126405
 30
0.0
 10
248.4316079013223
 20
187.0289590133785
 30
0.0
 10
248.4299967405646
 20
187.1769473406266
 30
0.0
 10
248.4258790500284
 20
187.3390388994768
 30
0.0
 10
248.4204330151704
 20
187.4660907999064
 30
0.0
 10
248.4149495087074
 20
187.5653079458958
 30
0.0
 10
248.4105116556956
 20
187.630792690857
 30
0.0
 10
248.4084785221762
 20
187.6564488073176
 30
0.0
 10
248.4074616226609
 20
187.6692810645918
 30
0.0
  0
SPLINE
  5
2B6
330
1F
100
AcDbEntity
  8
0
  6
Continuous
 62
     7
370
     0
100
AcDbSpline
210
0.0
220
0.0
230
1.0
 70
     8
 71
     3
 72
    11
 73
     7
 74
     0
 42
0.00000001
 43
0.00000001
 40
0.0
 40
0.0
 40
0.0
 40
0.0
 40
0.2499762991228778
 40
0.4998291777062783
 40
0.7498121573677374
 40
1.0
 40
1.0
 40
1.0
 40
1.0
 10
248.4074616226609
 20
187.6692810645918
 30
0.0
 10
248.4062532752388
 20
187.6834639120097
 30
0.0
 10
248.4038371769907
 20
187.7118226043628
 30
0.0
 10
248.4010199321304
 20
187.7317984264565
 30
0.0
 10
248.3988791362678
 20
187.7328633067806
 30
0.0
 10
248.3979728469746
 20
187.7189593014624
 30
0.0
 10
248.3975195167263
 20
187.7120044513602
 30
0.0
  0
SPLINE
  5
2B7
330
1F
100
AcDbEntity
  8
0
  6
Continuous
 62
     7
370
     0
100
AcDbSpline
210
0.0
220
0.0
230
1.0
 70
     8
 71
     3
 72
    12
 73
     8
 74
     0
 42
0.00000001
 43
0.00000001
 40
0.0
 40
0.0
 40
0.0
 40
0.0
 40
0.1249202996239314
 40
0.2499253403448444
 40
0.4998213365461323
 40
0.749885759924727
 40
1.0
 40
1.0
 40
1.0
 40
1.0
 10
248.3975195167263
 20
187.7120044513602
 30
0.0
 10
248.3971747256008
 20
187.6999597179786
 30
0.0
 10
248.3964849094569
 20
187.6758620805344
 30
0.0
 10
248.3957859271541
 20
187.6066287966847
 30
0.0
 10
248.3953000125983
 20
187.5077724455608
 30
0.0
 10
248.3950636344918
 20
187.3773546317658
 30
0.0
 10
248.3950401178165
 20
187.2855005356566
 30
0.0
 10
248.3950283583078
 20
187.2395689133689
 30
0.0
  0
SPLINE
  5
2B8
330
1F
100
AcDbEntity
  8
0
  6
Continuous
 62
     8
370
     0
100
AcDbSpline
210
0.0
220
0.0
230
1.0
 70
     8
 71
     3
 72
    12
 73
     8
 74
     0
 42
0.00000001
 43
0.00000001
 40
0.0
 40
0.0
 40
0.0
 40
0.0
 40
0.2302779787486041
 40
0.4327353867627459
 40
0.6152136170986003
 40
0.807402435873922
 40
1.0
 40
1.0
 40
1.0
 40
1.0
 10
248.3934239870811
 20
187.7526679220435
 30
0.0
 10
248.3933903587205
 20
187.8007556011965
 30
0.0
 10
248.3933271647421
 20
187.8911213432873
 30
0.0
 10
248.3939272283112
 20
187.9658141637887
 30
0.0
 10
248.3958945443209
 20
187.9897700391735
 30
0.0
 10
248.4000346698209
 20
187.9533864097627
 30
0.0
 10
248.4050749287437
 20
187.891951597821
 30
0.0
 10
248.4075977352521
 20
187.8612015618055
 30
0.0
  0
SPLINE
  5
2B9
330
1F
100
AcDbEntity
  8
0
  6
Continuous
 62
     8
370
     0
100
AcDbSpline
210
0.0
220
0.0
230
1.0
 70
     8
 71
     3
 72
     9
 73
     5
 74
     0
 42
0.00000001
 43
0.00000001
 40
0.0
 40
0.0
 40
0.0
 40
0.0
 40
0.6013627478161225
 40
1.0
 40
1.0
 40
1.0
 40
1.0
 10
248.3941511926044
 20
186.5884392119091
 30
0.0
 10
248.3938340287013
 20
186.6620279294254
 30
0.0
 10
248.3933066200711
 20
186.7843978596939
 30
0.0
 10
248.3933590693792
 20
186.8975406076677
 30
0.0
 10
248.3933799776272
 20
186.9426435218246
 30
0.0
  0
OLE2FRAME
  5
2BA
330
1F
100
AcDbEntity
  8
0
100
AcDbOle2Frame
 70
     2
  3
Paintbrush Picture
 10
229.0524258301
 20
33.6996297921
 30
0.0
 11
265.1686469208
 21
28.555479607
 31
0.0
 71
     2
 72
     0
 73
     1
 90
     7296
310
80557333EF78ADA16C40002412788DD94040000000000000000041161DC7B292
310
7040002412788DD94040000000000000000041161DC7B2927040F6DD59E9338E
310
3C4000000000000000007333EF78ADA16C40F6DD59E9338E3C40000000000000
310
00000000000001000000000100000100000001000000000001000000001C0000
310
D0CF11E0A1B11AE1000000000000000000000000000000003E000300FEFF0900
310
0600000000000000000000000100000001000000000000000010000002000000
310
01000000FEFFFFFF0000000000000000FFFFFFFFFFFFFFFFFFFFFFFFFFFFFFFF
310
FFFFFFFFFFFFFFFFFFFFFFFFFFFFFFFFFFFFFFFFFFFFFFFFFFFFFFFFFFFFFFFF
310
FFFFFFFFFFFFFFFFFFFFFFFFFFFFFFFFFFFFFFFFFFFFFFFFFFFFFFFFFFFFFFFF
310
FFFFFFFFFFFFFFFFFFFFFFFFFFFFFFFFFFFFFFFFFFFFFFFFFFFFFFFFFFFFFFFF
310
FFFFFFFFFFFFFFFFFFFFFFFFFFFFFFFFFFFFFFFFFFFFFFFFFFFFFFFFFFFFFFFF
310
FFFFFFFFFFFFFFFFFFFFFFFFFFFFFFFFFFFFFFFFFFFFFFFFFFFFFFFFFFFFFFFF
310
FFFFFFFFFFFFFFFFFFFFFFFFFFFFFFFFFFFFFFFFFFFFFFFFFFFFFFFFFFFFFFFF
310
FFFFFFFFFFFFFFFFFFFFFFFFFFFFFFFFFFFFFFFFFFFFFFFFFFFFFFFFFFFFFFFF
310
FFFFFFFFFFFFFFFFFFFFFFFFFFFFFFFFFFFFFFFFFFFFFFFFFFFFFFFFFFFFFFFF
310
FFFFFFFFFFFFFFFFFFFFFFFFFFFFFFFFFFFFFFFFFFFFFFFFFFFFFFFFFFFFFFFF
310
FFFFFFFFFFFFFFFFFFFFFFFFFFFFFFFFFFFFFFFFFFFFFFFFFFFFFFFFFFFFFFFF
310
FFFFFFFFFFFFFFFFFFFFFFFFFFFFFFFFFFFFFFFFFFFFFFFFFFFFFFFFFFFFFFFF
310
FFFFFFFFFFFFFFFFFFFFFFFFFFFFFFFFFFFFFFFFFFFFFFFFFFFFFFFFFFFFFFFF
310
FFFFFFFFFFFFFFFFFFFFFFFFFFFFFFFFFFFFFFFFFFFFFFFFFFFFFFFFFFFFFFFF
310
FDFFFFFFFEFFFFFFFEFFFFFFFEFFFFFF05000000060000000700000008000000
310
090000000A0000000B0000000C000000FEFFFFFFFFFFFFFFFFFFFFFFFFFFFFFF
310
FFFFFFFFFFFFFFFFFFFFFFFFFFFFFFFFFFFFFFFFFFFFFFFFFFFFFFFFFFFFFFFF
310
FFFFFFFFFFFFFFFFFFFFFFFFFFFFFFFFFFFFFFFFFFFFFFFFFFFFFFFFFFFFFFFF
310
FFFFFFFFFFFFFFFFFFFFFFFFFFFFFFFFFFFFFFFFFFFFFFFFFFFFFFFFFFFFFFFF
310
FFFFFFFFFFFFFFFFFFFFFFFFFFFFFFFFFFFFFFFFFFFFFFFFFFFFFFFFFFFFFFFF
310
FFFFFFFFFFFFFFFFFFFFFFFFFFFFFFFFFFFFFFFFFFFFFFFFFFFFFFFFFFFFFFFF
310
FFFFFFFFFFFFFFFFFFFFFFFFFFFFFFFFFFFFFFFFFFFFFFFFFFFFFFFFFFFFFFFF
310
FFFFFFFFFFFFFFFFFFFFFFFFFFFFFFFFFFFFFFFFFFFFFFFFFFFFFFFFFFFFFFFF
310
FFFFFFFFFFFFFFFFFFFFFFFFFFFFFFFFFFFFFFFFFFFFFFFFFFFFFFFFFFFFFFFF
310
FFFFFFFFFFFFFFFFFFFFFFFFFFFFFFFFFFFFFFFFFFFFFFFFFFFFFFFFFFFFFFFF
310
FFFFFFFFFFFFFFFFFFFFFFFFFFFFFFFFFFFFFFFFFFFFFFFFFFFFFFFFFFFFFFFF
310
FFFFFFFFFFFFFFFFFFFFFFFFFFFFFFFFFFFFFFFFFFFFFFFFFFFFFFFFFFFFFFFF
310
FFFFFFFFFFFFFFFFFFFFFFFFFFFFFFFFFFFFFFFFFFFFFFFFFFFFFFFFFFFFFFFF
310
FFFFFFFFFFFFFFFFFFFFFFFFFFFFFFFFFFFFFFFFFFFFFFFFFFFFFFFFFFFFFFFF
310
FFFFFFFFFFFFFFFFFFFFFFFFFFFFFFFFFFFFFFFFFFFFFFFFFFFFFFFFFFFFFFFF
310
52006F006F007400200045006E00740072007900000000000000000000000000
310
0000000000000000000000000000000000000000000000000000000000000000
310
16000500FFFFFFFFFFFFFFFF020000000A00030000000000C000000000000046
310
000000000000000000000000B0B3E8F44672CC0103000000C000000000000000
310
01004F006C006500000000000000000000000000000000000000000000000000
310
0000000000000000000000000000000000000000000000000000000000000000
310
0A000200FFFFFFFFFFFFFFFFFFFFFFFF00000000000000000000000000000000
310
0000000000000000000000000000000000000000000000001400000000000000
310
010043006F006D0070004F0062006A0000000000000000000000000000000000
310
0000000000000000000000000000000000000000000000000000000000000000
310
120002010100000003000000FFFFFFFF00000000000000000000000000000000
310
0000000000000000000000000000000000000000010000004D00000000000000
310
01004F006C006500310030004E00610074006900760065000000000000000000
310
0000000000000000000000000000000000000000000000000000000000000000
310
1A000200FFFFFFFFFFFFFFFFFFFFFFFF00000000000000000000000000000000
310
000000000000000000000000000000000000000004000000E411000000000000
310
FEFFFFFF02000000FEFFFFFFFFFFFFFFFFFFFFFFFFFFFFFFFFFFFFFFFFFFFFFF
310
FFFFFFFFFFFFFFFFFFFFFFFFFFFFFFFFFFFFFFFFFFFFFFFFFFFFFFFFFFFFFFFF
310
FFFFFFFFFFFFFFFFFFFFFFFFFFFFFFFFFFFFFFFFFFFFFFFFFFFFFFFFFFFFFFFF
310
FFFFFFFFFFFFFFFFFFFFFFFFFFFFFFFFFFFFFFFFFFFFFFFFFFFFFFFFFFFFFFFF
310
FFFFFFFFFFFFFFFFFFFFFFFFFFFFFFFFFFFFFFFFFFFFFFFFFFFFFFFFFFFFFFFF
310
FFFFFFFFFFFFFFFFFFFFFFFFFFFFFFFFFFFFFFFFFFFFFFFFFFFFFFFFFFFFFFFF
310
FFFFFFFFFFFFFFFFFFFFFFFFFFFFFFFFFFFFFFFFFFFFFFFFFFFFFFFFFFFFFFFF
310
FFFFFFFFFFFFFFFFFFFFFFFFFFFFFFFFFFFFFFFFFFFFFFFFFFFFFFFFFFFFFFFF
310
FFFFFFFFFFFFFFFFFFFFFFFFFFFFFFFFFFFFFFFFFFFFFFFFFFFFFFFFFFFFFFFF
310
FFFFFFFFFFFFFFFFFFFFFFFFFFFFFFFFFFFFFFFFFFFFFFFFFFFFFFFFFFFFFFFF
310
FFFFFFFFFFFFFFFFFFFFFFFFFFFFFFFFFFFFFFFFFFFFFFFFFFFFFFFFFFFFFFFF
310
FFFFFFFFFFFFFFFFFFFFFFFFFFFFFFFFFFFFFFFFFFFFFFFFFFFFFFFFFFFFFFFF
310
FFFFFFFFFFFFFFFFFFFFFFFFFFFFFFFFFFFFFFFFFFFFFFFFFFFFFFFFFFFFFFFF
310
FFFFFFFFFFFFFFFFFFFFFFFFFFFFFFFFFFFFFFFFFFFFFFFFFFFFFFFFFFFFFFFF
310
FFFFFFFFFFFFFFFFFFFFFFFFFFFFFFFFFFFFFFFFFFFFFFFFFFFFFFFFFFFFFFFF
310
FFFFFFFFFFFFFFFFFFFFFFFFFFFFFFFFFFFFFFFFFFFFFFFFFFFFFFFFFFFFFFFF
310
0100000200000000000000000000000000000000000000000000000000000000
310
0000000000000000000000000000000000000000000000000000000000000000
310
0100FEFF030A0000FFFFFFFF0A00030000000000C00000000000004607000000
310
5042727573680007000000504272757368000700000050427275736800F439B2
310
7100000000000000000000000000000000000000000000000000000000000000
310
0000000000000000000000000000000000000000000000000000000000000000
310
0000000000000000000000000000000000000000000000000000000000000000
310
0000000000000000000000000000000000000000000000000000000000000000
310
0000000000000000000000000000000000000000000000000000000000000000
310
0000000000000000000000000000000000000000000000000000000000000000
310
0000000000000000000000000000000000000000000000000000000000000000
310
0000000000000000000000000000000000000000000000000000000000000000
310
0000000000000000000000000000000000000000000000000000000000000000
310
0000000000000000000000000000000000000000000000000000000000000000
310
0000000000000000000000000000000000000000000000000000000000000000
310
0000000000000000000000000000000000000000000000000000000000000000
310
E0110000424DDE11000000000000360400002800000096000000170000000100
310
08000000000000000000E7240000E72400000001000000010000000000FF0101
310
01FF020202FF030303FF040404FF050505FF060606FF070707FF080808FF0909
310
09FF0A0A0AFF0B0B0BFF0C0C0CFF0D0D0DFF0E0E0EFF0F0F0FFF101010FF1111
310
11FF121212FF131313FF141414FF151515FF161616FF171717FF181818FF1919
310
19FF1A1A1AFF1B1B1BFF1C1C1CFF1D1D1DFF1E1E1EFF1F1F1FFF202020FF2121
310
21FF222222FF232323FF242424FF252525FF262626FF272727FF282828FF2929
310
29FF2A2A2AFF2B2B2BFF2C2C2CFF2D2D2DFF2E2E2EFF2F2F2FFF303030FF3131
310
31FF323232FF333333FF343434FF353535FF363636FF373737FF383838FF3939
310
39FF3A3A3AFF3B3B3BFF3C3C3CFF3D3D3DFF3E3E3EFF3F3F3FFF404040FF4141
310
41FF424242FF434343FF444444FF454545FF464646FF474747FF484848FF4949
310
49FF4A4A4AFF4B4B4BFF4C4C4CFF4D4D4DFF4E4E4EFF4F4F4FFF505050FF5151
310
51FF525252FF535353FF545454FF555555FF565656FF575757FF585858FF5959
310
59FF5A5A5AFF5B5B5BFF5C5C5CFF5D5D5DFF5E5E5EFF5F5F5FFF606060FF6161
310
61FF626262FF636363FF646464FF656565FF666666FF676767FF686868FF6969
310
69FF6A6A6AFF6B6B6BFF6C6C6CFF6D6D6DFF6E6E6EFF6F6F6FFF707070FF7171
310
71FF727272FF737373FF747474FF757575FF767676FF777777FF787878FF7979
310
79FF7A7A7AFF7B7B7BFF7C7C7CFF7D7D7DFF7E7E7EFF7F7F7FFF808080FF8181
310
81FF828282FF838383FF848484FF858585FF868686FF878787FF888888FF8989
310
89FF8A8A8AFF8B8B8BFF8C8C8CFF8D8D8DFF8E8E8EFF8F8F8FFF909090FF9191
310
91FF929292FF939393FF949494FF959595FF969696FF979797FF989898FF9999
310
99FF9A9A9AFF9B9B9BFF9C9C9CFF9D9D9DFF9E9E9EFF9F9F9FFFA0A0A0FFA1A1
310
A1FFA2A2A2FFA3A3A3FFA4A4A4FFA5A5A5FFA6A6A6FFA7A7A7FFA8A8A8FFA9A9
310
A9FFAAAAAAFFABABABFFACACACFFADADADFFAEAEAEFFAFAFAFFFB0B0B0FFB1B1
310
B1FFB2B2B2FFB3B3B3FFB4B4B4FFB5B5B5FFB6B6B6FFB7B7B7FFB8B8B8FFB9B9
310
B9FFBABABAFFBBBBBBFFBCBCBCFFBDBDBDFFBEBEBEFFBFBFBFFFC0C0C0FFC1C1
310
C1FFC2C2C2FFC3C3C3FFC4C4C4FFC5C5C5FFC6C6C6FFC7C7C7FFC8C8C8FFC9C9
310
C9FFCACACAFFCBCBCBFFCCCCCCFFCDCDCDFFCECECEFFCFCFCFFFD0D0D0FFD1D1
310
D1FFD2D2D2FFD3D3D3FFD4D4D4FFD5D5D5FFD6D6D6FFD7D7D7FFD8D8D8FFD9D9
310
D9FFDADADAFFDBDBDBFFDCDCDCFFDDDDDDFFDEDEDEFFDFDFDFFFE0E0E0FFE1E1
310
E1FFE2E2E2FFE3E3E3FFE4E4E4FFE5E5E5FFE6E6E6FFE7E7E7FFE8E8E8FFE9E9
310
E9FFEAEAEAFFEBEBEBFFECECECFFEDEDEDFFEEEEEEFFEFEFEFFFF0F0F0FFF1F1
310
F1FFF2F2F2FFF3F3F3FFF4F4F4FFF5F5F5FFF6F6F6FFF7F7F7FFF8F8F8FFF9F9
310
F9FFFAFAFAFFFBFBFBFFFCFCFCFFFDFDFDFFFEFEFEFFFFFFFFFFFFFFFFFFFFFF
310
C94E4E4E4F4E4EFFFFFFFFFFC94E4E4E4E4E72FFFFFFFFFFFFFF734E4D4E4E4E
310
C9FFFFFFFFFFAA683516171616265B9BE9FFFFFFFFFF4E4E4E4D4E4EFFFFFFFF
310
FFFFFFFF4E4E4F4E4D4E4E4E4F4E4E4F4D4E4E4E4E4E4D4E4F4E4D4E4E4EAAFF
310
FFFFFFFFFFEA4E4F4F4E4E4E4E4E4D4D4F4F4E4E4E4E4E5B7FAAFFFFFFFFFFFF
310
C9744E1716171616164D8DEAFFFFFFFF0000FFFFFFFFFFFFBA161617161716FF
310
FFFFFFFFB917171616174FFFFFFFFFFFFFFF4E1716161616B9FFFFFFB9341717
310
1716171617171616268CFFFFFFFF161617161617FFFFFFFFFFFFFFB917161717
310
1617167F807F7F7F7F7F7F807F7F807F7F807F7F7F414EFFFFFFFFFFFF8C167F
310
7F807F7F7F7E7F7F807F807F7F807F4E3417258EFFFFEA4E162674AABAEAEBBA
310
AA74341680FFFFFF0000FFFFFFFFFFFFB9171717171617FFFFFFFFFFBB161616
310
16164EFFFFFFFFFFFFFF4E1717171717B9FFFF9C171617171716161616171616
310
171766FFFFFF161717161617FFFFFFFFFFFFFF8E16171717161616FFFFFFFFFF
310
FFFFFFFFFFFFFFFFFFFFFFFFFFAA16D9FFFFFFFFFF3467FFFFFFFFEAFFFFFFFF
310
FFFFFFFFFFFFFFFFFFCA671667EB26278DFFFFFFFFFFFFFFFFFFFF8C2541EAFF
310
0000FFFFFFFFFFFFB9171717171716FFFFFFFFFFBA16171617174EFFFFFFFFFF
310
FFFF4E1717161616BAFF9B1617161616171716171617161616161667FFFF1616
310
16161716FFFFFFFFFFFFFF7F16161617174017FFFFFFFFFFFFFFFFFFFFFFFFFF
310
FFFFFFFFFFFF344E7F7F7F7E7417DAFFFFFFFF80FFFFFFFFFFFFFFFFFFFFFFFF
310
FFFFFF9B163425CAFFFFFFFFFFFFFFFFFFFFFFFFCA2667FF0000FFFFFFFFFFFF
310
BA171717171617FFFFFFFFFFB916171716164EFFFFFFFFFFFFFF4F1716161717
310
B9C91716171616161716161617171616161617168DFF161716161717FFFFFFFF
310
FFFFFF7F17171716164F16FFFFFFFFFFFFFFFFFFFFFFFFFFFFFFFFFFFFFF9B16
310
17161617174EFFFFFFFFFF34FFFFFFFFD9BABABABABADAFFFFFFFFFF7F16AAFF
310
FFFFFFFFFFFFFFFFFFFFFFFFFF9C16BA0000FFFFFFFFFFFFB9161717161717FF
310
FFFFFFFFB917161716174DFFFFFFFFFFFFFF4E1616161616BA4E161617171716
310
419BEAEAAA4E16161617161726E9171717161616FFFFFFFFFFFFFF4F16161717
310
164E16FFFFFFFFFFBAB9B9B9B9B9BABABACAFFFFFFFFFFFFFFFFFFFFFFFFFFFF
310
FFFFBA16FFFFFFFF7F1617161617174DEAFFFFFFEA41FFFFFFFFFFAA4D16174E
310
9BFFFFFFFFFF34730000FFFFFFFFFFFFB9161617171617FFFFFFFFFFBA161616
310
16164EFFFFFFFFFFFFFF4F16161717169B1617161716175BFFFFFFFFFFFF7417
310
16171616168D171717161617FFFFFFFFFFFFEA2616171717167416FFFFFFFFFF
310
16171616171717171717EAFFFFFFFFFFFFFFFFFFFFFFFFFFFFFF6716FFFFFFFF
310
7F4EFFFFFFFFBA2573FFFFFFFFBAFFFFFFFFAA167FB9BB9B269BFFFFFFFF664F
310
0000FFFFFFFFFFFFB9171616161616FFFFFFFFFFBA16161717164EFFFFFFFFFF
310
FFFF4E16161616174E161617171626EAFFFFFFFFFFFFFF4E16161616164E1716
310
16161617FFFFFFFFFFFF671616161716347F16FFFFFFFFFF16B9FFFFFFFFFFFF
310
D9168DFFFFFFFFFFFFFFFFFFFFFFFFFFFFEA1716FFFFFFFF7F4EFFFFFFFFFF7F
310
4EFFFFFFFFFFFFFFFFFF5B66FFFFFFEA347FFFFFFFFF7F4D0000FFFFFFFFFFFF
310
B9171616171617FFFFFFFFFFBA17161716174EFFFFFFFFFFFFFF4D1716161617
310
17161716161673FFFFFFFFFFFFFFFF9B1617161717161616171616174F4E4E4E
310
4E341616171616167E7F16FFFFFFFFFF16BAFFFFFFFFFFFFFF5B41FFFFFFFF34
310
1616171616BAFFFFFF9B1716FFFFFFFF7F4EFFFFFFFFFF4E4EFFFFFFFF734E4E
310
4E4E267EDA9B67164EEAFFFFFFFF744D0000FFFFFFFFFFFFBA171717161617FF
310
FFFFFFFFBA1616171616347F7F7F7F80807F331616161717161717161716B9FF
310
FFFFFFFFFFFFFFE9161616161616171716161716171616161616171616171734
310
EA7F16FFFFFFFFFF16BAFFFFFFFFFFFFFFAA17C9FFFFFF7326BABA5B25FFFFFF
310
FF401716FFFFFFFF7F264F4E4E4E4217AAFFFFFFEA16677F73261616164173CA
310
FFFFFFFFFFFF417F0000FFFFFFFFFFFFBA171616171617FFFFFFFFFFBA161616
310
17171616161616161616161717161616161616161617EAFFFFFFFFFFFFFFFFFF
310
261717161716161617161616161617161617161616174EEAFF8016FFFFFFFFFF
310
17BAFFFFFFFFFFFFFFFF3467FFFFFFC916C9FF3467FFFFFFDA166716FFFFFFFF
310
9C4D4E4E4E4E67AAFFFFFFFF6834FF7F262567AAEAFFFFFFFFFFFFFFFF9B17D9
310
0000FFFFFFFFFFFFB9161616161616FFFFFFFFFFBA1617161717171616161616
310
1716171716161716161617171716FFFFFFFFFFFFFFFFFFFF4E17161716171616
310
1617171616161716171717161616169BFF7F17FFFFFFFFFF17B9FFFFFFFFFFFF
310
FFFF7326FFFFFFFF3473DA16AAFFFFFF7317AA16FFFFFFFFFFFFFFFFFFFFFFFF
310
FFFFEA6725BA4E167FEAFFFFFFFFFFFFFFFFFFFF9C167FFF0000FFFFFFFFFFFF
310
B9161717171716FFFFFFFFFFBA16161716171616171717161617161716161616
310
171617171617EAFFFFFFFFFFFFFFFFFF26161717161616161616161617171616
310
1616161616171616AA8016FFFFFFFFFF16BAFFFFFFFFFFFFFFFFDA179BFFFFFF
310
74348D26FFFFFFFF2566B917FFFFFFFFD8BAB9BAB9BADAFFFFEA41169B7425C9
310
FFFFFFFFFFFFFFFFFFFFAB4F1680FFFF0000FFFFFFFFFFFFBA161717171617FF
310
FFFFFFFFBA17161717161617171617161616161617171616171716171617BBFF
310
FFFFFFFFFFFFFFE9171616161617161617161716FFFFFFFFFFD9671616161617
310
348017FFFFFFFFFF16BAFFFFFFFFFFFFFFFFFF4E5AFFFFFFC916265AFFFFFFAA
310
16AABA16FFFFFFFF7F1617161616179BFFFFEB4127168DFFFFFFFFFFFFFFD99B
310
6734175AC9FFFFFF0000FFFFFFFFFFFFB9161617171617FFFFFFFFFFBB161616
310
1616347F807F7F7F7F8033171716171617171616161672FFFFFFFFFFFFFFFF9C
310
171617171617161716161617FFFFFFFFFFFFFF4117161616174E17FFFFFFFFFF
310
16BAFFFFFFFFFFFFFFFFFF9B16DAFFFFFF34169BFFFFFF5A26FFB917FFFFFFFF
310
7F4EFFFFFFEA5B26FFFFFFEA2616EAFFFFFFFFDA743416331617414E4E4E4ECA
310
0000FFFFFFFFFFFFBA161716161616FFFFFFFFFFBA17171616164EFFFFFFFFFF
310
FFFF4E16161717174E161717171626EBFFFFFFFFFFFFFF4E16161617165B1616
310
16171617FFFFFFFFFFFFFF6716161616161617FFFFFFFFFF16BAFFFFFFFFFFFF
310
FFFFFFEA268CFFFFFF7316EAFFFFEB1774FFB916FFFFFFFF7F4EFFFFFFFF7316
310
FFFFFFFF6826FFFFFFFFEB264D9CEABA257F807F7F6616BA0000FFFFFFFFFFFF
310
BA161716161616FFFFFFFFFFBA16171616164DFFFFFFFFFFFFFF4E1617161617
310
9B1617171717165BEBFFFFFFFFFF671616161617179B171616161616FFFFFFFF
310
FFFFFF3417161617171617FFFFFFFFFF17BAFFFFFFFFFFFFFFFFFFFF6734FFFF
310
FFEBCAFFFFFF8D17C9FFBA17FFFFFFFF7F357F808066174FFFFFFFFF7F16FFFF
310
FFFFD91673B99B415BFFFFFFFFBA16DA00009B7F7F7F807F671617161616167F
310
80807F7E6617161616164EFFFFFFFFFFFFFF4E1616161617B94E171716161616
310
349BC9D9AA4E16171616161634FF161617161717B9B9BAB9BA9B411716171716
310
163416FFFFFFFFFF16B9FFFFFFFFFFFFFFFFFFFFC917CAFFFFFFFFFFFFFF3342
310
FFFFBA17FFFFFFFF9B4E4E4F4E4E66EAFFFFFFFF5B16C9FFFFFFFFAA4E164E73
310
EAFFFFFFFF8D26FF00004E161716161616171617171616171717171617161616
310
17174EFFFFFFFFFFFFFF4E1717171616B9D92616171716171716171717171716
310
16171716AAFF161717171617161617171616161617161716166717FFFFFFFFFF
310
17B9FFFFFFFFFFFFFFFFFFFFFF3467FFFFFFFFFFFFCA168CFFFFBB17FFFFFFFF
310
FFFFFFFFFFFFFFFFFFFFFFEA26265BFFFFFFFFFFFFFFFFFFFFFFFFFFEA3467FF
310
00004D16161616161617161717161617161616171617171616164EFFFFFFFFFF
310
FFFF4D1617161616BAFF9B1616161616161716161616171717161766FFFF1616
310
16171617161617161716171616171717667F16FFFFFFFFFF17BAFFFFFFFFFFFF
310
FFFFFFFFFF8C26EAFFFFFFFFFF6617EAFFFFBA17FFFFFFFFFFFFFFFFFFFFFFFF
310
FFFFEA5A25BA269BFFFFFFFFFFFFFFFFFFFFFFFF6616DAFF00004E1616171616
310
1616161616161716161617171616171616174EFFFFFFFFFFFFFF4D1717171716
310
B9FFFF9C161616161616161716161717171667FFFFFF17161717171716161617
310
1716161616161641E97E16FFFFFFFFFF16B9FFFFFFFFFFFFFFFFFFFFFFEA169B
310
FFFFFFFFEA265BFFFFFFB916FFFFFFFFFFFFFFFFFFFFFFFFFF9B3416AAFF9B17
310
67EAFFFFFFFFFFFFFFFFEA5B169BFFFF00004D17161716161616161717171616
310
161717161716171716174EFFFFFFFFFFFFFF4D1616161616BAFFFFFFBB411616
310
161716161616171634ABFFFFFFFF161716161617171716171617171617267FFF
310
FF7F164E4E4E4E4F17BAFFFFFFFFFFFFFFFFFFFFFFFF66344D4E4E4F4117AAFF
310
FFFFBA174E4E4E4D4E4D4D4E4E4E4E4116174EBBFFFFFFCA342666ABEAFFFFEA
310
AA6725269CFFFFFF0000724F4E4D4D4D4E4D4D4E4E4E4D4E4E4E4E4E4E4E4E4D
310
4E4E74FFFFFFFFFFFFFF734E4E4E4D4ECAFFFFFFFFFFAA663416171717265B9B
310
FFFFFFFFFFFF7F8080807F80807F7F7F7F7F807FBAFFFFFFFF9B4E4E4F4D4D4E
310
4DC9FFFFFFFFFFFFFFFFFFFFFFFFBA4E4E4E4E4D4E4EFFFFFFFFC94E4E4E4F4E
310
4E4E4D4E4E5A807F9CD9FFFFFFFFFFFFFF9B5B2617171716174E8DEAFFFFFFFF
310
0000000000000000000000000000000000000000000000000000000000000000
  1
OLE
  0
ENDSEC
  0
SECTION
  2
OBJECTS
  0
DICTIONARY
  5
C
330
0
100
AcDbDictionary
281
     1
  3
ACAD_GROUP
350
D
  3
ACAD_LAYOUT
350
1A
  3
ACAD_MLINESTYLE
350
17
  3
ACAD_PLOTSETTINGS
350
19
  3
ACAD_PLOTSTYLENAME
350
E
  0
DICTIONARY
  5
D
102
{ACAD_REACTORS
330
C
102
}
330
C
100
AcDbDictionary
281
     1
  0
DICTIONARY
  5
1A
102
{ACAD_REACTORS
330
C
102
}
330
C
100
AcDbDictionary
281
     1
  3
Layout1
350
1E
  3
Layout2
350
26
  3
Model
350
22
  0
DICTIONARY
  5
17
102
{ACAD_REACTORS
330
C
102
}
330
C
100
AcDbDictionary
281
     1
  3
Standard
350
18
  0
DICTIONARY
  5
19
102
{ACAD_REACTORS
330
C
102
}
330
C
100
AcDbDictionary
281
     1
  0
ACDBDICTIONARYWDFLT
  5
E
102
{ACAD_REACTORS
330
C
102
}
330
C
100
AcDbDictionary
281
     1
  3
Normal
350
F
100
AcDbDictionaryWithDefault
340
F
  0
LAYOUT
  5
1E
102
{ACAD_REACTORS
330
1A
102
}
330
1A
100
AcDbPlotSettings
  1

  2
none_device
  4

  6

 40
0.0
 41
0.0
 42
0.0
 43
0.0
 44
0.0
 45
0.0
 46
0.0
 47
0.0
 48
0.0
 49
0.0
140
0.0
141
0.0
142
1.0
143
1.0
 70
   688
 72
     0
 73
     0
 74
     5
  7

 75
    16
147
1.0
148
0.0
149
0.0
100
AcDbLayout
  1
Layout1
 70
     1
 71
     1
 10
0.0
 20
0.0
 11
420.0
 21
297.0
 12
0.0
 22
0.0
 32
0.0
 14
1.0000000000E+20
 24
1.0000000000E+20
 34
1.0000000000E+20
 15
-1.0000000000E+20
 25
-1.0000000000E+20
 35
-1.0000000000E+20
146
0.0
 13
0.0
 23
0.0
 33
0.0
 16
1.0
 26
0.0
 36
0.0
 17
0.0
 27
1.0
 37
0.0
 76
     0
330
1B
  0
LAYOUT
  5
26
102
{ACAD_REACTORS
330
1A
102
}
330
1A
100
AcDbPlotSettings
  1

  2
none_device
  4

  6

 40
0.0
 41
0.0
 42
0.0
 43
0.0
 44
0.0
 45
0.0
 46
0.0
 47
0.0
 48
0.0
 49
0.0
140
0.0
141
0.0
142
1.0
143
1.0
 70
   688
 72
     0
 73
     0
 74
     5
  7

 75
    16
147
1.0
148
0.0
149
0.0
100
AcDbLayout
  1
Layout2
 70
     1
 71
     2
 10
0.0
 20
0.0
 11
0.0
 21
0.0
 12
0.0
 22
0.0
 32
0.0
 14
0.0
 24
0.0
 34
0.0
 15
0.0
 25
0.0
 35
0.0
146
0.0
 13
0.0
 23
0.0
 33
0.0
 16
1.0
 26
0.0
 36
0.0
 17
0.0
 27
1.0
 37
0.0
 76
     0
330
23
  0
LAYOUT
  5
22
102
{ACAD_REACTORS
330
1A
102
}
330
1A
100
AcDbPlotSettings
  1

  2
none_device
  4

  6

 40
0.0
 41
0.0
 42
0.0
 43
0.0
 44
0.0
 45
0.0
 46
0.0
 47
0.0
 48
0.0
 49
0.0
140
0.0
141
0.0
142
1.0
143
1.0
 70
  1712
 72
     0
 73
     0
 74
     0
  7

 75
     0
147
1.0
148
0.0
149
0.0
100
AcDbLayout
  1
Model
 70
     1
 71
     0
 10
0.0
 20
0.0
 11
279.4
 21
215.9
 12
0.0
 22
0.0
 32
0.0
 14
0.0
 24
0.0
 34
0.0
 15
279.4
 25
215.9
 35
0.0
146
0.0
 13
0.0
 23
0.0
 33
0.0
 16
1.0
 26
0.0
 36
0.0
 17
0.0
 27
1.0
 37
0.0
 76
     0
330
1F
331
29
  0
MLINESTYLE
  5
18
102
{ACAD_REACTORS
330
17
102
}
330
17
100
AcDbMlineStyle
  2
Standard
 70
     0
  3

 62
   256
 51
90.0
 52
90.0
 71
     2
 49
0.5
 62
   256
  6
BYLAYER
 49
-0.5
 62
   256
  6
BYLAYER
  0
ACDBPLACEHOLDER
  5
F
102
{ACAD_REACTORS
330
E
102
}
330
E
  0
ENDSEC
  0
EOF
