  0
SECTION
  2
HEADER
  9
$ACADVER
  1
AC1015
  9
$ACADMAINTVER
 70
     6
  9
$DWGCODEPAGE
  3
ANSI_1252
  9
$INSBASE
 10
0.0
 20
0.0
 30
0.0
  9
$EXTMIN
 10
0.0
 20
0.0
 30
0.0
  9
$EXTMAX
 10
279.4
 20
215.9
 30
0.0
  9
$LIMMIN
 10
0.0
 20
0.0
  9
$LIMMAX
 10
279.4
 20
215.9
  9
$ORTHOMODE
 70
     0
  9
$REGENMODE
 70
     1
  9
$FILLMODE
 70
     1
  9
$QTEXTMODE
 70
     0
  9
$MIRRTEXT
 70
     1
  9
$LTSCALE
 40
1.0
  9
$ATTMODE
 70
     1
  9
$TEXTSIZE
 40
2.8222222222
  9
$TRACEWID
 40
1.0
  9
$TEXTSTYLE
  7
Standard
  9
$CLAYER
  8
0
  9
$CELTYPE
  6
ByLayer
  9
$CECOLOR
 62
   256
  9
$CELTSCALE
 40
1.0
  9
$DISPSILH
 70
     0
  9
$DIMSCALE
 40
1.0
  9
$DIMASZ
 40
3.175
  9
$DIMEXO
 40
1.27
  9
$DIMDLI
 40
3.75
  9
$DIMRND
 40
0.0
  9
$DIMDLE
 40
0.0
  9
$DIMEXE
 40
1.778
  9
$DIMTP
 40
0.0
  9
$DIMTM
 40
0.0
  9
$DIMTXT
 40
2.8222222222
  9
$DIMCEN
 40
2.5
  9
$DIMTSZ
 40
0.0
  9
$DIMTOL
 70
     0
  9
$DIMLIM
 70
     0
  9
$DIMTIH
 70
     1
  9
$DIMTOH
 70
     1
  9
$DIMSE1
 70
     0
  9
$DIMSE2
 70
     0
  9
$DIMTAD
 70
     0
  9
$DIMZIN
 70
     1
  9
$DIMBLK
  1

  9
$DIMASO
 70
     1
  9
$DIMSHO
 70
     1
  9
$DIMPOST
  1

  9
$DIMAPOST
  1

  9
$DIMALT
 70
     0
  9
$DIMALTD
 70
     3
  9
$DIMALTF
 40
0.0393700787
  9
$DIMLFAC
 40
1.0
  9
$DIMTOFL
 70
     1
  9
$DIMTVP
 40
0.0
  9
$DIMTIX
 70
     0
  9
$DIMSOXD
 70
     0
  9
$DIMSAH
 70
     0
  9
$DIMBLK1
  1

  9
$DIMBLK2
  1

  9
$DIMSTYLE
  2
ISO-25
  9
$DIMCLRD
 70
     0
  9
$DIMCLRE
 70
     0
  9
$DIMCLRT
 70
     0
  9
$DIMTFAC
 40
1.0
  9
$DIMGAP
 40
2.54
  9
$DIMJUST
 70
     0
  9
$DIMSD1
 70
     0
  9
$DIMSD2
 70
     0
  9
$DIMTOLJ
 70
     0
  9
$DIMTZIN
 70
     1
  9
$DIMALTZ
 70
     0
  9
$DIMALTTZ
 70
     0
  9
$DIMUPT
 70
     0
  9
$DIMDEC
 70
     1
  9
$DIMTDEC
 70
     1
  9
$DIMALTU
 70
     2
  9
$DIMALTTD
 70
     3
  9
$DIMTXSTY
  7
Standard
  9
$DIMAUNIT
 70
     0
  9
$DIMADEC
 70
     0
  9
$DIMALTRND
 40
0.0
  9
$DIMAZIN
 70
     0
  9
$DIMDSEP
 70
    44
  9
$DIMATFIT
 70
     3
  9
$DIMFRAC
 70
     0
  9
$DIMLDRBLK
  1

  9
$DIMLUNIT
 70
     2
  9
$DIMLWD
 70
    -2
  9
$DIMLWE
 70
    -2
  9
$DIMTMOVE
 70
     0
  9
$LUNITS
 70
     2
  9
$LUPREC
 70
     1
  9
$SKETCHINC
 40
1.0
  9
$FILLETRAD
 40
10.0
  9
$AUNITS
 70
     0
  9
$AUPREC
 70
     0
  9
$MENU
  1
.
  9
$ELEVATION
 40
0.0
  9
$PELEVATION
 40
0.0
  9
$THICKNESS
 40
0.0
  9
$LIMCHECK
 70
     0
  9
$CHAMFERA
 40
0.0
  9
$CHAMFERB
 40
0.0
  9
$CHAMFERC
 40
0.0
  9
$CHAMFERD
 40
0.0
  9
$SKPOLY
 70
     0
  9
$TDCREATE
 40
2459643.56052559
  9
$TDUCREATE
 40
2459643.227192257
  9
$TDUPDATE
 40
2459643.560540891
  9
$TDUUPDATE
 40
2459643.227207558
  9
$TDINDWG
 40
0.0000000116
  9
$TDUSRTIMER
 40
0.0000000116
  9
$USRTIMER
 70
     1
  9
$ANGBASE
 50
0.0
  9
$ANGDIR
 70
     0
  9
$PDMODE
 70
     0
  9
$PDSIZE
 40
-1.0
  9
$PLINEWID
 40
0.0
  9
$SPLFRAME
 70
     0
  9
$SPLINETYPE
 70
     6
  9
$SPLINESEGS
 70
     8
  9
$HANDSEED
  5
231
  9
$SURFTAB1
 70
     6
  9
$SURFTAB2
 70
     6
  9
$SURFTYPE
 70
     6
  9
$SURFU
 70
     6
  9
$SURFV
 70
     6
  9
$UCSBASE
  2

  9
$UCSNAME
  2

  9
$UCSORG
 10
0.0
 20
0.0
 30
0.0
  9
$UCSXDIR
 10
1.0
 20
0.0
 30
0.0
  9
$UCSYDIR
 10
0.0
 20
1.0
 30
0.0
  9
$UCSORTHOREF
  2

  9
$UCSORTHOVIEW
 70
     0
  9
$UCSORGTOP
 10
0.0
 20
0.0
 30
0.0
  9
$UCSORGBOTTOM
 10
0.0
 20
0.0
 30
0.0
  9
$UCSORGLEFT
 10
0.0
 20
0.0
 30
0.0
  9
$UCSORGRIGHT
 10
0.0
 20
0.0
 30
0.0
  9
$UCSORGFRONT
 10
0.0
 20
0.0
 30
0.0
  9
$UCSORGBACK
 10
0.0
 20
0.0
 30
0.0
  9
$PUCSBASE
  2

  9
$PUCSNAME
  2

  9
$PUCSORG
 10
0.0
 20
0.0
 30
0.0
  9
$PUCSXDIR
 10
1.0
 20
0.0
 30
0.0
  9
$PUCSYDIR
 10
0.0
 20
1.0
 30
0.0
  9
$PUCSORTHOREF
  2

  9
$PUCSORTHOVIEW
 70
     0
  9
$PUCSORGTOP
 10
0.0
 20
0.0
 30
0.0
  9
$PUCSORGBOTTOM
 10
0.0
 20
0.0
 30
0.0
  9
$PUCSORGLEFT
 10
0.0
 20
0.0
 30
0.0
  9
$PUCSORGRIGHT
 10
0.0
 20
0.0
 30
0.0
  9
$PUCSORGFRONT
 10
0.0
 20
0.0
 30
0.0
  9
$PUCSORGBACK
 10
0.0
 20
0.0
 30
0.0
  9
$USERI1
 70
     0
  9
$USERI2
 70
     0
  9
$USERI3
 70
     0
  9
$USERI4
 70
     0
  9
$USERI5
 70
     0
  9
$USERR1
 40
0.0
  9
$USERR2
 40
0.0
  9
$USERR3
 40
0.0
  9
$USERR4
 40
0.0
  9
$USERR5
 40
0.0
  9
$WORLDVIEW
 70
     1
  9
$SHADEDGE
 70
     3
  9
$SHADEDIF
 70
    70
  9
$TILEMODE
 70
     1
  9
$MAXACTVP
 70
    64
  9
$PINSBASE
 10
0.0
 20
0.0
 30
0.0
  9
$PLIMCHECK
 70
     0
  9
$PEXTMIN
 10
1.0000000000E+20
 20
1.0000000000E+20
 30
1.0000000000E+20
  9
$PEXTMAX
 10
-1.0000000000E+20
 20
-1.0000000000E+20
 30
-1.0000000000E+20
  9
$PLIMMIN
 10
0.0
 20
0.0
  9
$PLIMMAX
 10
420.0
 20
297.0
  9
$UNITMODE
 70
     0
  9
$VISRETAIN
 70
     1
  9
$PLINEGEN
 70
     0
  9
$PSLTSCALE
 70
     1
  9
$TREEDEPTH
 70
  3020
  9
$CMLSTYLE
  2
Standard
  9
$CMLJUST
 70
     0
  9
$CMLSCALE
 40
20.0
  9
$PROXYGRAPHICS
 70
     1
  9
$MEASUREMENT
 70
     1
  9
$CELWEIGHT
370
    -1
  9
$ENDCAPS
280
     0
  9
$JOINSTYLE
280
     0
  9
$LWDISPLAY
290
     1
  9
$INSUNITS
 70
     4
  9
$HYPERLINKBASE
  1

  9
$STYLESHEET
  1

  9
$XEDIT
290
     1
  9
$CEPSNTYPE
380
     0
  9
$PSTYLEMODE
290
     1
  9
$FINGERPRINTGUID
  2
{7D54CBB1-CFFF-4A4B-B295-C5ECE0A09113}
  9
$VERSIONGUID
  2
{FAEB1C32-E019-11D5-929B-00C0DF256EC4}
  9
$EXTNAMES
290
     1
  9
$PSVPSCALE
 40
0.0
  9
$OLESTARTUP
290
     0
  0
ENDSEC
  0
SECTION
  2
CLASSES
  0
CLASS
  1
ACDBDICTIONARYWDFLT
  2
AcDbDictionaryWithDefault
  3
ObjectDBX Classes
 90
        0
280
     0
281
     0
  0
CLASS
  1
VISUALSTYLE
  2
AcDbVisualStyle
  3
ObjectDBX Classes
 90
     4095
280
     0
281
     0
  0
CLASS
  1
MATERIAL
  2
AcDbMaterial
  3
ObjectDBX Classes
 90
     1153
280
     0
281
     0
  0
CLASS
  1
SCALE
  2
AcDbScale
  3
ObjectDBX Classes
 90
     1153
280
     0
281
     0
  0
CLASS
  1
TABLESTYLE
  2
AcDbTableStyle
  3
ObjectDBX Classes
 90
     4095
280
     0
281
     0
  0
CLASS
  1
MLEADERSTYLE
  2
AcDbMLeaderStyle
  3
ACDB_MLEADERSTYLE_CLASS
 90
     4095
280
     0
281
     0
  0
CLASS
  1
SUN
  2
AcDbSun
  3
SCENEOE
 90
     1153
280
     0
281
     0
  0
CLASS
  1
ACDBPLACEHOLDER
  2
AcDbPlaceHolder
  3
ObjectDBX Classes
 90
        0
280
     0
281
     0
  0
CLASS
  1
LAYOUT
  2
AcDbLayout
  3
ObjectDBX Classes
 90
        0
280
     0
281
     0
  0
ENDSEC
  0
SECTION
  2
TABLES
  0
TABLE
  2
VPORT
  5
8
330
0
100
AcDbSymbolTable
 70
     1
  0
VPORT
  5
29
330
8
100
AcDbSymbolTableRecord
100
AcDbViewportTableRecord
  2
*Active
 70
     0
 10
0.0
 20
0.0
 11
1.0
 21
1.0
 12
139.7
 22
107.95
 13
0.0
 23
0.0
 14
10.0
 24
10.0
 15
10.0
 25
10.0
 16
0.0
 26
0.0
 36
1.0
 17
0.0
 27
0.0
 37
0.0
 40
215.9
 41
1.2941176471
 42
50.0
 43
0.0
 44
0.0
 50
0.0
 51
0.0
 71
     0
 72
  2000
 73
     1
 74
     3
 75
     0
 76
     0
 77
     0
 78
     0
281
     0
 65
     1
110
0.0
120
0.0
130
0.0
111
1.0
121
0.0
131
0.0
112
0.0
122
1.0
132
0.0
 79
     0
146
0.0
  0
ENDTAB
  0
TABLE
  2
LTYPE
  5
5
330
0
100
AcDbSymbolTable
 70
     6
  0
LTYPE
  5
14
330
5
100
AcDbSymbolTableRecord
100
AcDbLinetypeTableRecord
  2
ByBlock
 70
     0
  3

 72
    65
 73
     0
 40
0.0
  0
LTYPE
  5
15
330
5
100
AcDbSymbolTableRecord
100
AcDbLinetypeTableRecord
  2
ByLayer
 70
     0
  3

 72
    65
 73
     0
 40
0.0
  0
LTYPE
  5
16
330
5
100
AcDbSymbolTableRecord
100
AcDbLinetypeTableRecord
  2
Continuous
 70
     0
  3
Solid line
 72
    65
 73
     0
 40
0.0
  0
LTYPE
  5
6E
330
5
100
AcDbSymbolTableRecord
100
AcDbLinetypeTableRecord
  2
HIDDEN
 70
     0
  3
Hidden __ __ __ __ __ __ __ __ __ __ __ __ __ __
 72
    65
 73
     2
 40
1.905
 49
1.27
 74
     0
 49
-0.635
 74
     0
  0
LTYPE
  5
6F
330
5
100
AcDbSymbolTableRecord
100
AcDbLinetypeTableRecord
  2
PHANTOM
 70
     0
  3
Phantom ______  __  __  ______  __  __  ______
 72
    65
 73
     6
 40
12.7
 49
6.35
 74
     0
 49
-1.27
 74
     0
 49
1.27
 74
     0
 49
-1.27
 74
     0
 49
1.27
 74
     0
 49
-1.27
 74
     0
  0
LTYPE
  5
70
330
5
100
AcDbSymbolTableRecord
100
AcDbLinetypeTableRecord
  2
CENTER
 70
     0
  3
Center ____ _ ____ _ ____ _ ____ _ ____ _ ____
 72
    65
 73
     4
 40
10.16
 49
6.35
 74
     0
 49
-1.27
 74
     0
 49
1.27
 74
     0
 49
-1.27
 74
     0
  0
LTYPE
  5
71
330
5
100
AcDbSymbolTableRecord
100
AcDbLinetypeTableRecord
  2
CENTERX2
 70
     0
  3
Center (2x) ________  __  ________  __  _____
 72
    65
 73
     4
 40
20.32
 49
12.7
 74
     0
 49
-2.54
 74
     0
 49
2.54
 74
     0
 49
-2.54
 74
     0
  0
LTYPE
  5
72
330
5
100
AcDbSymbolTableRecord
100
AcDbLinetypeTableRecord
  2
DOT2
 70
     0
  3
Dot (.5x) ........................................
 72
    65
 73
     2
 40
0.635
 49
0.0
 74
     0
 49
-0.635
 74
     0
  0
ENDTAB
  0
TABLE
  2
LAYER
  5
2
330
0
100
AcDbSymbolTable
 70
     2
  0
LAYER
  5
10
330
2
100
AcDbSymbolTableRecord
100
AcDbLayerTableRecord
  2
0
 70
     0
 62
     7
  6
Continuous
370
    -3
390
F
  0
LAYER
  5
73
330
2
100
AcDbSymbolTableRecord
100
AcDbLayerTableRecord
  2
FORMAT
 70
     0
 62
     7
  6
Continuous
370
    -3
390
F
  0
ENDTAB
  0
TABLE
  2
STYLE
  5
3
330
0
100
AcDbSymbolTable
 70
     3
  0
STYLE
  5
11
330
3
100
AcDbSymbolTableRecord
100
AcDbTextStyleTableRecord
  2
Standard
 70
     0
 40
0.0
 41
1.0
 50
0.0
 71
     0
 42
2.8222222222
  3
txt
  4

  0
STYLE
  5
132
330
3
100
AcDbSymbolTableRecord
100
AcDbTextStyleTableRecord
  2
SLDTEXTSTYLE0
 70
     0
 40
0.0
 41
0.75
 50
0.0
 71
     0
 42
2.8222222222
  3
TXT
  4

  0
STYLE
  5
14C
330
3
100
AcDbSymbolTableRecord
100
AcDbTextStyleTableRecord
  2
SLDTEXTSTYLE1
 70
     0
 40
0.0
 41
0.6
 50
0.0
 71
     0
 42
2.8222222222
  3
TXT
  4

  0
ENDTAB
  0
TABLE
  2
VIEW
  5
6
330
0
100
AcDbSymbolTable
 70
     0
  0
ENDTAB
  0
TABLE
  2
UCS
  5
7
330
0
100
AcDbSymbolTable
 70
     0
  0
ENDTAB
  0
TABLE
  2
APPID
  5
9
330
0
100
AcDbSymbolTable
 70
     1
  0
APPID
  5
12
330
9
100
AcDbSymbolTableRecord
100
AcDbRegAppTableRecord
  2
ACAD
 70
     0
  0
ENDTAB
  0
TABLE
  2
DIMSTYLE
  5
A
330
0
100
AcDbSymbolTable
 70
     5
100
AcDbDimStyleTable
  0
DIMSTYLE
105
27
330
A
100
AcDbSymbolTableRecord
100
AcDbDimStyleTableRecord
  2
ISO-25
 70
     0
 41
2.5
 42
0.625
 43
3.75
 44
1.25
 73
     0
 74
     0
 77
     1
 78
     8
140
2.5
141
2.5
143
0.0393700787
147
0.625
171
     3
172
     1
178
     0
271
     2
272
     2
274
     3
278
    44
283
     0
284
     8
340
11
  0
DIMSTYLE
105
170
102
{ACAD_REACTORS
330
16F
102
}
330
A
100
AcDbSymbolTableRecord
100
AcDbDimStyleTableRecord
  2
SLDDIMSTYLE0
 70
     0
 41
3.175
 44
0.0
 45
0.000000001
 78
    12
 79
     3
140
2.1166666667
141
0.0
143
0.0393700787
147
0.5291666667
148
0.000000001
170
     1
173
     1
178
     0
271
     1
272
     1
276
     2
284
    12
340
132
  0
DIMSTYLE
105
1F8
102
{ACAD_REACTORS
330
1F7
102
}
330
A
100
AcDbSymbolTableRecord
100
AcDbDimStyleTableRecord
  2
SLDDIMSTYLE1
 70
     0
 41
3.175
 44
0.0
 45
0.000000001
 78
     4
 79
     1
140
2.1166666667
143
0.0393700787
147
0.5291666667
148
0.000000001
170
     1
172
     1
173
     1
178
     0
271
     1
272
     1
276
     2
284
    12
289
     0
340
132
  0
DIMSTYLE
105
20C
102
{ACAD_REACTORS
330
20B
102
}
330
A
100
AcDbSymbolTableRecord
100
AcDbDimStyleTableRecord
  2
SLDDIMSTYLE2
 70
     0
 41
3.175
 44
0.0
 45
0.000000001
 78
    12
 79
     3
140
2.1166666667
141
0.0
143
0.0393700787
147
0.5291666667
148
0.000000001
170
     1
173
     1
178
     0
271
     1
272
     1
276
     2
284
    12
340
132
  0
DIMSTYLE
105
21C
102
{ACAD_REACTORS
330
21B
102
}
330
A
100
AcDbSymbolTableRecord
100
AcDbDimStyleTableRecord
  2
SLDDIMSTYLE3
 70
     0
 41
3.175
 44
0.0
 45
0.000000001
 78
    12
 79
     3
140
2.1166666667
143
0.0393700787
147
0.5291666667
148
0.000000001
170
     1
172
     1
173
     1
178
     0
271
     1
272
     1
276
     2
284
    12
289
     0
340
132
  0
ENDTAB
  0
TABLE
  2
BLOCK_RECORD
  5
1
330
0
100
AcDbSymbolTable
 70
    13
  0
BLOCK_RECORD
  5
1F
330
1
100
AcDbSymbolTableRecord
100
AcDbBlockTableRecord
  2
*Model_Space
340
22
  0
BLOCK_RECORD
  5
1B
330
1
100
AcDbSymbolTableRecord
100
AcDbBlockTableRecord
  2
*Paper_Space
340
1E
  0
BLOCK_RECORD
  5
23
330
1
100
AcDbSymbolTableRecord
100
AcDbBlockTableRecord
  2
*Paper_Space0
340
26
  0
BLOCK_RECORD
  5
74
330
1
100
AcDbSymbolTableRecord
100
AcDbBlockTableRecord
  2
Third Angle Projection Block
340
0
102
{BLKREFS
331
12D
102
}
  0
BLOCK_RECORD
  5
81
330
1
100
AcDbSymbolTableRecord
100
AcDbBlockTableRecord
  2
THORLABS LOGO1
340
0
102
{BLKREFS
331
12E
102
}
  0
BLOCK_RECORD
  5
12F
330
1
100
AcDbSymbolTableRecord
100
AcDbBlockTableRecord
  2
SW_NOTE_0
340
0
102
{BLKREFS
331
140
102
}
  0
BLOCK_RECORD
  5
152
330
1
100
AcDbSymbolTableRecord
100
AcDbBlockTableRecord
  2
SW_NOTE_1
340
0
102
{BLKREFS
331
157
102
}
  0
BLOCK_RECORD
  5
158
330
1
100
AcDbSymbolTableRecord
100
AcDbBlockTableRecord
  2
SW_NOTE_2
340
0
102
{BLKREFS
331
15D
102
}
  0
BLOCK_RECORD
  5
15F
330
1
100
AcDbSymbolTableRecord
100
AcDbBlockTableRecord
  2
SW_NOTE_3
340
0
102
{BLKREFS
331
164
102
}
  0
BLOCK_RECORD
  5
165
330
1
100
AcDbSymbolTableRecord
100
AcDbBlockTableRecord
  2
SW_NOTE_4
340
0
102
{BLKREFS
331
16B
102
}
  0
BLOCK_RECORD
  5
171
330
1
100
AcDbSymbolTableRecord
100
AcDbBlockTableRecord
  2
_D
340
0
  0
BLOCK_RECORD
  5
1E5
330
1
100
AcDbSymbolTableRecord
100
AcDbBlockTableRecord
  2
SW_NOTE_5
340
0
102
{BLKREFS
331
1EA
102
}
  0
BLOCK_RECORD
  5
1F9
330
1
100
AcDbSymbolTableRecord
100
AcDbBlockTableRecord
  2
_D_1
340
0
  0
BLOCK_RECORD
  5
20D
330
1
100
AcDbSymbolTableRecord
100
AcDbBlockTableRecord
  2
_D_2
340
0
  0
BLOCK_RECORD
  5
21D
330
1
100
AcDbSymbolTableRecord
100
AcDbBlockTableRecord
  2
_D_3
340
0
  0
ENDTAB
  0
ENDSEC
  0
SECTION
  2
BLOCKS
  0
BLOCK
  5
20
330
1F
100
AcDbEntity
  8
0
100
AcDbBlockBegin
  2
*Model_Space
 70
     0
 10
0.0
 20
0.0
 30
0.0
  3
*Model_Space
  1

  0
ENDBLK
  5
21
330
1F
100
AcDbEntity
  8
0
100
AcDbBlockEnd
  0
BLOCK
  5
1C
330
1B
100
AcDbEntity
 67
     1
  8
0
100
AcDbBlockBegin
  2
*Paper_Space
 70
     0
 10
0.0
 20
0.0
 30
0.0
  3
*Paper_Space
  1

  0
ENDBLK
  5
1D
330
1B
100
AcDbEntity
 67
     1
  8
0
100
AcDbBlockEnd
  0
BLOCK
  5
24
330
23
100
AcDbEntity
  8
0
100
AcDbBlockBegin
  2
*Paper_Space0
 70
     0
 10
0.0
 20
0.0
 30
0.0
  3
*Paper_Space0
  1

  0
ENDBLK
  5
25
330
23
100
AcDbEntity
  8
0
100
AcDbBlockEnd
  0
BLOCK
  5
75
330
74
100
AcDbEntity
  8
0
100
AcDbBlockBegin
  2
Third Angle Projection Block
 70
     0
 10
0.0
 20
0.0
 30
0.0
  3
Third Angle Projection Block
  1

  0
CIRCLE
  5
77
330
74
100
AcDbEntity
  8
0
  6
Continuous
 62
     7
370
    35
100
AcDbCircle
 10
101.4766388944
 20
18.9404083667
 30
0.0
 40
1.768227153674871
  0
CIRCLE
  5
78
330
74
100
AcDbEntity
  8
0
  6
Continuous
 62
     7
370
    35
100
AcDbCircle
 10
101.4766388944
 20
18.9404083667
 30
0.0
 40
3.901228248531818
  0
LINE
  5
79
330
74
100
AcDbEntity
  8
0
  6
CENTERX2
 62
     7
370
    18
100
AcDbLine
 10
110.1367822585
 20
18.9404083667
 30
0.0
 11
119.4527334874
 21
18.9404083667
 31
0.0
  0
LINE
  5
7A
330
74
100
AcDbEntity
  8
0
  6
Continuous
 62
     7
370
    35
100
AcDbLine
 10
111.0016388944
 20
20.7086355204
 30
0.0
 11
111.0016388944
 21
17.172181213
 31
0.0
  0
LINE
  5
7B
330
74
100
AcDbEntity
  8
0
  6
Continuous
 62
     7
370
    35
100
AcDbLine
 10
111.0016388944
 20
17.172181213
 30
0.0
 11
118.6216388944
 21
15.1304083667
 31
0.0
  0
LINE
  5
7C
330
74
100
AcDbEntity
  8
0
  6
Continuous
 62
     7
370
    35
100
AcDbLine
 10
118.6216388944
 20
15.1304083667
 30
0.0
 11
118.6216388944
 21
22.7504083667
 31
0.0
  0
LINE
  5
7D
330
74
100
AcDbEntity
  8
0
  6
Continuous
 62
     7
370
    35
100
AcDbLine
 10
118.6216388944
 20
22.7504083667
 30
0.0
 11
111.0016388944
 21
20.7086355204
 31
0.0
  0
LINE
  5
7E
330
74
100
AcDbEntity
  8
0
  6
CENTERX2
 62
     7
370
    18
100
AcDbLine
 10
96.6025854619
 20
18.9404083667
 30
0.0
 11
106.3506923269
 21
18.9404083667
 31
0.0
  0
LINE
  5
7F
330
74
100
AcDbEntity
  8
0
  6
CENTERX2
 62
     7
370
    18
100
AcDbLine
 10
101.4766388944
 20
23.8144617992
 30
0.0
 11
101.4766388944
 21
14.0663549342
 31
0.0
  0
POINT
  5
80
330
74
100
AcDbEntity
  8
0
  6
Continuous
 62
     7
370
     0
100
AcDbPoint
 10
101.4766388944
 20
18.9404083667
 30
0.0
  0
ENDBLK
  5
76
330
74
100
AcDbEntity
  8
0
100
AcDbBlockEnd
  0
BLOCK
  5
82
330
81
100
AcDbEntity
  8
0
100
AcDbBlockBegin
  2
THORLABS LOGO1
 70
     0
 10
0.0
 20
0.0
 30
0.0
  3
THORLABS LOGO1
  1

  0
LINE
  5
84
330
81
100
AcDbEntity
  8
0
  6
Continuous
 62
     7
370
    18
100
AcDbLine
 10
127.070019234
 20
36.20212077
 30
0.0
 11
129.5897637342
 21
43.9131108267
 31
0.0
  0
LINE
  5
85
330
81
100
AcDbEntity
  8
0
  6
Continuous
 62
     7
370
    18
100
AcDbLine
 10
129.5897637342
 20
43.9131108267
 30
0.0
 11
130.3745570034
 21
43.9131108267
 31
0.0
  0
LINE
  5
86
330
81
100
AcDbEntity
  8
0
  6
Continuous
 62
     7
370
    18
100
AcDbLine
 10
130.3745570034
 20
43.9131108267
 30
0.0
 11
132.8105856281
 21
36.20212077
 31
0.0
  0
LINE
  5
87
330
81
100
AcDbEntity
  8
0
  6
Continuous
 62
     7
370
    18
100
AcDbLine
 10
132.8105856281
 20
36.20212077
 30
0.0
 11
127.070019234
 21
36.20212077
 31
0.0
  0
LINE
  5
88
330
81
100
AcDbEntity
  8
0
  6
Continuous
 62
     7
370
    18
100
AcDbLine
 10
128.4229091235
 20
37.230137941
 30
0.0
 11
131.3867267247
 21
37.230137941
 31
0.0
  0
LINE
  5
89
330
81
100
AcDbEntity
  8
0
  6
Continuous
 62
     7
370
    18
100
AcDbLine
 10
131.3867267247
 20
37.230137941
 30
0.0
 11
129.9297948829
 21
41.8820534435
 31
0.0
  0
LINE
  5
8A
330
81
100
AcDbEntity
  8
0
  6
Continuous
 62
     7
370
    18
100
AcDbLine
 10
129.9297948829
 20
41.8820534435
 30
0.0
 11
128.4229091235
 21
37.230137941
 31
0.0
  0
LINE
  5
8B
330
81
100
AcDbEntity
  8
0
  6
Continuous
 62
     7
370
    18
100
AcDbLine
 10
148.5694963023
 20
29.6960536541
 30
0.0
 11
134.4690556888
 21
29.6960536541
 31
0.0
  0
LINE
  5
8C
330
81
100
AcDbEntity
  8
0
  6
Continuous
 62
     7
370
    18
100
AcDbLine
 10
134.4690556888
 20
29.6960536541
 30
0.0
 11
133.0327944335
 21
32.9713080926
 31
0.0
  0
LINE
  5
8D
330
81
100
AcDbEntity
  8
0
  6
Continuous
 62
     7
370
    18
100
AcDbLine
 10
133.0327944335
 20
32.9713080926
 30
0.0
 11
126.8013016089
 21
32.9713080926
 31
0.0
  0
LINE
  5
8E
330
81
100
AcDbEntity
  8
0
  6
Continuous
 62
     7
370
    18
100
AcDbLine
 10
126.8013016089
 20
32.9713080926
 30
0.0
 11
125.336790552
 21
29.7225809068
 31
0.0
  0
LINE
  5
8F
330
81
100
AcDbEntity
  8
0
  6
Continuous
 62
     7
370
    18
100
AcDbLine
 10
125.336790552
 20
29.7225809068
 30
0.0
 11
107.5084096545
 21
29.7225809068
 31
0.0
  0
LINE
  5
90
330
81
100
AcDbEntity
  8
0
  6
Continuous
 62
     7
370
    18
100
AcDbLine
 10
107.5084096545
 20
29.7225809068
 30
0.0
 11
107.5084096545
 21
48.9892901182
 31
0.0
  0
LINE
  5
91
330
81
100
AcDbEntity
  8
0
  6
Continuous
 62
     7
370
    18
100
AcDbLine
 10
107.5084096545
 20
48.9892901182
 30
0.0
 11
112.5348072834
 21
48.9892901182
 31
0.0
  0
LINE
  5
92
330
81
100
AcDbEntity
  8
0
  6
Continuous
 62
     7
370
    18
100
AcDbLine
 10
112.5348072834
 20
48.9892901182
 30
0.0
 11
112.5348072834
 21
34.0806295706
 31
0.0
  0
LINE
  5
93
330
81
100
AcDbEntity
  8
0
  6
Continuous
 62
     7
370
    18
100
AcDbLine
 10
112.5348072834
 20
34.0806295706
 30
0.0
 11
121.7804161364
 21
34.0806295706
 31
0.0
  0
LINE
  5
94
330
81
100
AcDbEntity
  8
0
  6
Continuous
 62
     7
370
    18
100
AcDbLine
 10
121.7804161364
 20
34.0806295706
 30
0.0
 11
127.3904133255
 21
48.9892901182
 31
0.0
  0
LINE
  5
95
330
81
100
AcDbEntity
  8
0
  6
Continuous
 62
     7
370
    18
100
AcDbLine
 10
127.3904133255
 20
48.9892901182
 30
0.0
 11
132.4970817321
 21
48.9892901182
 31
0.0
  0
LINE
  5
96
330
81
100
AcDbEntity
  8
0
  6
Continuous
 62
     7
370
    18
100
AcDbLine
 10
132.4970817321
 20
48.9892901182
 30
0.0
 11
139.3018388236
 21
31.0275839375
 31
0.0
  0
LINE
  5
97
330
81
100
AcDbEntity
  8
0
  6
Continuous
 62
     7
370
    18
100
AcDbLine
 10
139.3018388236
 20
31.0275839375
 30
0.0
 11
139.3018388236
 21
48.9892901182
 31
0.0
  0
LINE
  5
98
330
81
100
AcDbEntity
  8
0
  6
Continuous
 62
     7
370
    18
100
AcDbLine
 10
139.3018388236
 20
48.9892901182
 30
0.0
 11
148.3259278908
 21
48.9892901182
 31
0.0
  0
LINE
  5
99
330
81
100
AcDbEntity
  8
0
  6
Continuous
 62
     7
370
    18
100
AcDbLine
 10
156.0567272597
 20
36.2334711596
 30
0.0
 11
160.8609160832
 21
36.2334711596
 31
0.0
  0
LINE
  5
9A
330
81
100
AcDbEntity
  8
0
  6
Continuous
 62
     7
370
    18
100
AcDbLine
 10
171.9930604685
 20
43.2037651984
 30
0.0
 11
166.9673518592
 21
43.2037651984
 31
0.0
  0
LINE
  5
9B
330
81
100
AcDbEntity
  8
0
  6
Continuous
 62
     7
370
    18
100
AcDbLine
 10
161.57267328
 20
37.1278185376
 30
0.0
 11
156.7116403435
 21
37.1278185376
 31
0.0
  0
LINE
  5
9C
330
81
100
AcDbEntity
  8
0
  6
Continuous
 62
     7
370
    18
100
AcDbLine
 10
167.1893381071
 20
42.2088209659
 30
0.0
 11
173.0691700759
 21
42.1674797928
 31
0.0
  0
LINE
  5
9D
330
81
100
AcDbEntity
  8
0
  6
Continuous
 62
     7
370
    18
100
AcDbLine
 10
147.7273754781
 20
50.0471073848
 30
0.0
 11
138.3041010399
 21
50.0471073848
 31
0.0
  0
LINE
  5
9E
330
81
100
AcDbEntity
  8
0
  6
Continuous
 62
     7
370
    18
100
AcDbLine
 10
138.3041010399
 20
50.0471073848
 30
0.0
 11
138.3041010399
 21
36.7502358233
 31
0.0
  0
LINE
  5
9F
330
81
100
AcDbEntity
  8
0
  6
Continuous
 62
     7
370
    18
100
AcDbLine
 10
138.3041010399
 20
36.7502358233
 30
0.0
 11
133.3762332069
 21
50.0471073848
 31
0.0
  0
LINE
  5
A0
330
81
100
AcDbEntity
  8
0
  6
Continuous
 62
     7
370
    18
100
AcDbLine
 10
133.3762332069
 20
50.0471073848
 30
0.0
 11
126.7834772196
 21
50.0471073848
 31
0.0
  0
LINE
  5
A1
330
81
100
AcDbEntity
  8
0
  6
Continuous
 62
     7
370
    18
100
AcDbLine
 10
126.7834772196
 20
50.0471073848
 30
0.0
 11
121.0416582836
 21
34.8362965993
 31
0.0
  0
LINE
  5
A2
330
81
100
AcDbEntity
  8
0
  6
Continuous
 62
     7
370
    18
100
AcDbLine
 10
121.0416582836
 20
34.8362965993
 30
0.0
 11
113.7338781066
 21
34.7908312116
 31
0.0
  0
LINE
  5
A3
330
81
100
AcDbEntity
  8
0
  6
Continuous
 62
     7
370
    18
100
AcDbLine
 10
113.7338781066
 20
34.7908312116
 30
0.0
 11
113.6389611148
 21
50.0471073848
 31
0.0
  0
LINE
  5
A4
330
81
100
AcDbEntity
  8
0
  6
Continuous
 62
     7
370
    18
100
AcDbLine
 10
113.6389611148
 20
50.0471073848
 30
0.0
 11
106.3849632756
 21
50.0471073848
 31
0.0
  0
LINE
  5
A5
330
81
100
AcDbEntity
  8
0
  6
Continuous
 62
     7
370
    18
100
AcDbLine
 10
106.3849632756
 20
50.0471073848
 30
0.0
 11
106.3718719042
 21
28.6983533434
 31
0.0
  0
LINE
  5
A6
330
81
100
AcDbEntity
  8
0
  6
Continuous
 62
     7
370
    18
100
AcDbLine
 10
106.3718719042
 20
28.6983533434
 30
0.0
 11
126.0705963744
 21
28.7607096128
 31
0.0
  0
LINE
  5
A7
330
81
100
AcDbEntity
  8
0
  6
Continuous
 62
     7
370
    18
100
AcDbLine
 10
126.0705963744
 20
28.7607096128
 30
0.0
 11
127.3401148982
 21
31.9074619049
 31
0.0
  0
LINE
  5
A8
330
81
100
AcDbEntity
  8
0
  6
Continuous
 62
     7
370
    18
100
AcDbLine
 10
127.3401148982
 20
31.9074619049
 30
0.0
 11
132.5163742795
 21
31.9074619049
 31
0.0
  0
LINE
  5
A9
330
81
100
AcDbEntity
  8
0
  6
Continuous
 62
     7
370
    18
100
AcDbLine
 10
132.5163742795
 20
31.9074619049
 30
0.0
 11
133.7345608468
 21
28.7607096128
 31
0.0
  0
LINE
  5
AA
330
81
100
AcDbEntity
  8
0
  6
Continuous
 62
     7
370
    18
100
AcDbLine
 10
133.7345608468
 20
28.7607096128
 30
0.0
 11
149.6765281643
 21
28.7607096128
 31
0.0
  0
LINE
  5
AB
330
81
100
AcDbEntity
  8
0
  6
Continuous
 62
     7
370
    18
100
AcDbLine
 10
47.9736752992
 20
45.2630723832
 30
0.0
 11
42.1812601838
 21
45.2630723832
 31
0.0
  0
LINE
  5
AC
330
81
100
AcDbEntity
  8
0
  6
Continuous
 62
     7
370
    18
100
AcDbLine
 10
42.1812601838
 20
45.2630723832
 30
0.0
 11
42.1812601838
 21
28.6983533434
 31
0.0
  0
LINE
  5
AD
330
81
100
AcDbEntity
  8
0
  6
Continuous
 62
     7
370
    18
100
AcDbLine
 10
42.1812601838
 20
28.6983533434
 30
0.0
 11
36.5974457377
 21
28.6983533434
 31
0.0
  0
LINE
  5
AE
330
81
100
AcDbEntity
  8
0
  6
Continuous
 62
     7
370
    18
100
AcDbLine
 10
36.5974457377
 20
28.6983533434
 30
0.0
 11
36.5974457377
 21
45.2630723832
 31
0.0
  0
LINE
  5
AF
330
81
100
AcDbEntity
  8
0
  6
Continuous
 62
     7
370
    18
100
AcDbLine
 10
36.5974457377
 20
45.2630723832
 30
0.0
 11
30.2029997892
 21
45.2630723832
 31
0.0
  0
LINE
  5
B0
330
81
100
AcDbEntity
  8
0
  6
Continuous
 62
     7
370
    18
100
AcDbLine
 10
30.2029997892
 20
45.2630723832
 30
0.0
 11
30.2029997892
 21
50.0471073848
 31
0.0
  0
LINE
  5
B1
330
81
100
AcDbEntity
  8
0
  6
Continuous
 62
     7
370
    18
100
AcDbLine
 10
30.2029997892
 20
50.0471073848
 30
0.0
 11
53.5569729806
 21
50.0471073848
 31
0.0
  0
LINE
  5
B2
330
81
100
AcDbEntity
  8
0
  6
Continuous
 62
     7
370
    18
100
AcDbLine
 10
53.5569729806
 20
50.0471073848
 30
0.0
 11
53.5569729806
 21
42.2728997842
 31
0.0
  0
LINE
  5
B3
330
81
100
AcDbEntity
  8
0
  6
Continuous
 62
     7
370
    18
100
AcDbLine
 10
53.5569729806
 20
42.2728997842
 30
0.0
 11
60.9124289487
 21
42.2728997842
 31
0.0
  0
LINE
  5
B4
330
81
100
AcDbEntity
  8
0
  6
Continuous
 62
     7
370
    18
100
AcDbLine
 10
60.9124289487
 20
42.2728997842
 30
0.0
 11
60.9124289487
 21
50.0471073848
 31
0.0
  0
LINE
  5
B5
330
81
100
AcDbEntity
  8
0
  6
Continuous
 62
     7
370
    18
100
AcDbLine
 10
60.9124289487
 20
50.0471073848
 30
0.0
 11
66.4964156497
 21
50.0471073848
 31
0.0
  0
LINE
  5
B6
330
81
100
AcDbEntity
  8
0
  6
Continuous
 62
     7
370
    18
100
AcDbLine
 10
66.4964156497
 20
50.0471073848
 30
0.0
 11
66.4964156497
 21
28.6983533434
 31
0.0
  0
LINE
  5
B7
330
81
100
AcDbEntity
  8
0
  6
Continuous
 62
     7
370
    18
100
AcDbLine
 10
66.4964156497
 20
28.6983533434
 30
0.0
 11
60.9124289487
 21
28.6983533434
 31
0.0
  0
LINE
  5
B8
330
81
100
AcDbEntity
  8
0
  6
Continuous
 62
     7
370
    18
100
AcDbLine
 10
60.9124289487
 20
28.6983533434
 30
0.0
 11
60.9124289487
 21
37.4895538021
 31
0.0
  0
LINE
  5
B9
330
81
100
AcDbEntity
  8
0
  6
Continuous
 62
     7
370
    18
100
AcDbLine
 10
60.9124289487
 20
37.4895538021
 30
0.0
 11
53.5569729806
 21
37.4895538021
 31
0.0
  0
LINE
  5
BA
330
81
100
AcDbEntity
  8
0
  6
Continuous
 62
     7
370
    18
100
AcDbLine
 10
53.5569729806
 20
37.4895538021
 30
0.0
 11
53.5569729806
 21
28.6983533434
 31
0.0
  0
LINE
  5
BB
330
81
100
AcDbEntity
  8
0
  6
Continuous
 62
     7
370
    18
100
AcDbLine
 10
53.5569729806
 20
28.6983533434
 30
0.0
 11
47.9736752992
 21
28.6983533434
 31
0.0
  0
LINE
  5
BC
330
81
100
AcDbEntity
  8
0
  6
Continuous
 62
     7
370
    18
100
AcDbLine
 10
47.9736752992
 20
28.6983533434
 30
0.0
 11
47.9736752992
 21
45.2630723832
 31
0.0
  0
LINE
  5
BD
330
81
100
AcDbEntity
  8
0
  6
Continuous
 62
     7
370
    18
100
AcDbLine
 10
93.2083256259
 20
40.8002927475
 30
0.0
 11
97.891591518
 21
40.8002927475
 31
0.0
  0
LINE
  5
BE
330
81
100
AcDbEntity
  8
0
  6
Continuous
 62
     7
370
    18
100
AcDbLine
 10
97.6514682043
 20
45.613783335
 30
0.0
 11
93.2083256259
 21
45.613783335
 31
0.0
  0
LINE
  5
BF
330
81
100
AcDbEntity
  8
0
  6
Continuous
 62
     7
370
    18
100
AcDbLine
 10
93.2083256259
 20
45.613783335
 30
0.0
 11
93.2083256259
 21
40.8002927475
 31
0.0
  0
LINE
  5
C0
330
81
100
AcDbEntity
  8
0
  6
Continuous
 62
     7
370
    18
100
AcDbLine
 10
87.6243389163
 20
50.0471073848
 30
0.0
 11
98.5521890046
 21
50.0471073848
 31
0.0
  0
LINE
  5
C1
330
81
100
AcDbEntity
  8
0
  6
Continuous
 62
     7
370
    18
100
AcDbLine
 10
102.6945745488
 20
38.6856917437
 30
0.0
 11
102.6945745488
 21
38.6257470427
 31
0.0
  0
LINE
  5
C2
330
81
100
AcDbEntity
  8
0
  6
Continuous
 62
     7
370
    18
100
AcDbLine
 10
106.3668527513
 20
28.6983533434
 30
0.0
 11
101.1935454556
 21
28.6983533434
 31
0.0
  0
LINE
  5
C3
330
81
100
AcDbEntity
  8
0
  6
Continuous
 62
     7
370
    18
100
AcDbLine
 10
97.4420062521
 20
36.4729054538
 30
0.0
 11
93.2083256173
 21
36.4729054538
 31
0.0
  0
LINE
  5
C4
330
81
100
AcDbEntity
  8
0
  6
Continuous
 62
     7
370
    18
100
AcDbLine
 10
93.2083256173
 20
36.4729054538
 30
0.0
 11
93.2083256173
 21
28.6983533434
 31
0.0
  0
LINE
  5
C5
330
81
100
AcDbEntity
  8
0
  6
Continuous
 62
     7
370
    18
100
AcDbLine
 10
93.2083256173
 20
28.6983533434
 30
0.0
 11
87.6243389163
 21
28.6983533434
 31
0.0
  0
LINE
  5
C6
330
81
100
AcDbEntity
  8
0
  6
Continuous
 62
     7
370
    18
100
AcDbLine
 10
87.6243389163
 20
28.6983533434
 30
0.0
 11
87.6243389163
 21
50.0471073848
 31
0.0
  0
LINE
  5
C7
330
81
100
AcDbEntity
  8
0
  6
Continuous
 62
     7
370
    18
100
AcDbLine
 10
143.8820962928
 20
45.355573258
 30
0.0
 11
148.3552112218
 21
45.355573258
 31
0.0
  0
LINE
  5
C8
330
81
100
AcDbEntity
  8
0
  6
Continuous
 62
     7
370
    18
100
AcDbLine
 10
148.3552112218
 20
40.6891883448
 30
0.0
 11
143.8820962928
 21
40.6891883448
 31
0.0
  0
LINE
  5
C9
330
81
100
AcDbEntity
  8
0
  6
Continuous
 62
     7
370
    18
100
AcDbLine
 10
143.8820962928
 20
40.6891883448
 30
0.0
 11
143.8820962928
 21
45.355573258
 31
0.0
  0
LINE
  5
CA
330
81
100
AcDbEntity
  8
0
  6
Continuous
 62
     7
370
    18
100
AcDbLine
 10
144.8611930757
 20
44.3318624592
 30
0.0
 11
144.8611930757
 21
41.6384850321
 31
0.0
  0
LINE
  5
CB
330
81
100
AcDbEntity
  8
0
  6
Continuous
 62
     7
370
    18
100
AcDbLine
 10
144.8611930757
 20
41.6384850321
 30
0.0
 11
147.9838296835
 21
41.6384850321
 31
0.0
  0
LINE
  5
CC
330
81
100
AcDbEntity
  8
0
  6
Continuous
 62
     7
370
    18
100
AcDbLine
 10
147.9838296835
 20
44.3318624592
 30
0.0
 11
144.8611930757
 21
44.3318624592
 31
0.0
  0
LINE
  5
CD
330
81
100
AcDbEntity
  8
0
  6
Continuous
 62
     7
370
    18
100
AcDbLine
 10
143.8820962928
 20
38.4576262721
 30
0.0
 11
148.8506162794
 21
38.4576262721
 31
0.0
  0
LINE
  5
CE
330
81
100
AcDbEntity
  8
0
  6
Continuous
 62
     7
370
    18
100
AcDbLine
 10
148.8506162794
 20
33.0798286719
 30
0.0
 11
143.8820962928
 21
33.0798286719
 31
0.0
  0
LINE
  5
CF
330
81
100
AcDbEntity
  8
0
  6
Continuous
 62
     7
370
    18
100
AcDbLine
 10
143.8820962928
 20
33.0798286719
 30
0.0
 11
143.8820962928
 21
38.4576262721
 31
0.0
  0
LINE
  5
D0
330
81
100
AcDbEntity
  8
0
  6
Continuous
 62
     7
370
    18
100
AcDbLine
 10
144.8353548425
 20
37.4561363539
 30
0.0
 11
144.8353548425
 21
33.9958801658
 31
0.0
  0
LINE
  5
D1
330
81
100
AcDbEntity
  8
0
  6
Continuous
 62
     7
370
    18
100
AcDbLine
 10
144.8353548425
 20
33.9958801658
 30
0.0
 11
148.5660512046
 21
33.9958801658
 31
0.0
  0
LINE
  5
D2
330
81
100
AcDbEntity
  8
0
  6
Continuous
 62
     7
370
    18
100
AcDbLine
 10
148.5660512046
 20
37.4561363539
 30
0.0
 11
144.8353548425
 21
37.4561363539
 31
0.0
  0
LINE
  5
D3
330
81
100
AcDbEntity
  8
0
  6
Continuous
 62
     7
370
    18
100
AcDbLine
 10
106.3668527513
 20
29.7153023919
 30
0.0
 11
106.3668527513
 21
28.6983533434
 31
0.0
  0
SPLINE
  5
D4
330
81
100
AcDbEntity
  8
0
  6
Continuous
 62
     8
370
     0
100
AcDbSpline
210
0.0
220
0.0
230
1.0
 70
     8
 71
     3
 72
     8
 73
     4
 74
     0
 42
0.000000001
 43
0.00000001
 40
0.0
 40
0.0
 40
0.0
 40
0.0
 40
1.0
 40
1.0
 40
1.0
 40
1.0
 10
165.9145299843317
 20
42.47392123835806
 30
0.0
 10
163.2373445166196
 20
43.14743785003957
 30
0.0
 10
162.5142184972235
 20
43.26439891892237
 30
0.0
 10
162.5142184972235
 20
43.83439034297712
 30
0.0
  0
SPLINE
  5
D5
330
81
100
AcDbEntity
  8
0
  6
Continuous
 62
     8
370
     0
100
AcDbSpline
210
0.0
220
0.0
230
1.0
 70
     8
 71
     3
 72
     8
 73
     4
 74
     0
 42
0.000000001
 43
0.00000001
 40
1.0
 40
1.0
 40
1.0
 40
1.0
 40
2.0
 40
2.0
 40
2.0
 40
2.0
 10
162.5142184972235
 20
43.83439034297712
 30
0.0
 10
162.5142184972235
 20
44.08794953796311
 30
0.0
 10
163.6817621273968
 20
44.25641481832745
 30
0.0
 10
164.2398679641865
 20
44.24039511375292
 30
0.0
  0
SPLINE
  5
D6
330
81
100
AcDbEntity
  8
0
  6
Continuous
 62
     8
370
     0
100
AcDbSpline
210
0.0
220
0.0
230
1.0
 70
     8
 71
     3
 72
     8
 73
     4
 74
     0
 42
0.000000001
 43
0.00000001
 40
2.0
 40
2.0
 40
2.0
 40
2.0
 40
3.0
 40
3.0
 40
3.0
 40
3.0
 10
164.2398679641865
 20
44.24039511375292
 30
0.0
 10
165.3912196348973
 20
44.2062886459491
 30
0.0
 10
165.7515768603801
 20
43.97150523374403
 30
0.0
 10
165.8638870472897
 20
43.27628450618734
 30
0.0
  0
SPLINE
  5
D7
330
81
100
AcDbEntity
  8
0
  6
Continuous
 62
     8
370
     0
100
AcDbSpline
210
0.0
220
0.0
230
1.0
 70
     8
 71
     3
 72
     8
 73
     4
 74
     0
 42
0.000000001
 43
0.00000001
 40
3.0
 40
3.0
 40
3.0
 40
3.0
 40
4.0
 40
4.0
 40
4.0
 40
4.0
 10
165.8638870472897
 20
43.27628450618734
 30
0.0
 10
165.9090178279189
 20
43.00205472465359
 30
0.0
 10
165.9138409647801
 20
42.83186689541027
 30
0.0
 10
165.9145299843317
 20
42.47392123835806
 30
0.0
  0
SPLINE
  5
D8
330
81
100
AcDbEntity
  8
0
  6
Continuous
 62
     8
370
     0
100
AcDbSpline
210
0.0
220
0.0
230
1.0
 70
     8
 71
     3
 72
     8
 73
     4
 74
     0
 42
0.000000001
 43
0.00000001
 40
0.0
 40
0.0
 40
0.0
 40
0.0
 40
1.0
 40
1.0
 40
1.0
 40
1.0
 10
164.2102401234681
 20
29.12313389692912
 30
0.0
 10
160.290752404235
 20
29.12313389692912
 30
0.0
 10
156.7767526911141
 20
30.89219159564247
 30
0.0
 10
155.9991941271422
 20
34.65217128868185
 30
0.0
  0
SPLINE
  5
D9
330
81
100
AcDbEntity
  8
0
  6
Continuous
 62
     8
370
     0
100
AcDbSpline
210
0.0
220
0.0
230
1.0
 70
     8
 71
     3
 72
     8
 73
     4
 74
     0
 42
0.000000001
 43
0.00000001
 40
1.0
 40
1.0
 40
1.0
 40
1.0
 40
2.0
 40
2.0
 40
2.0
 40
2.0
 10
155.9991941271422
 20
34.65217128868185
 30
0.0
 10
155.4869080905333
 20
30.98107511779787
 30
0.0
 10
152.3484240330302
 20
29.69605365407815
 30
0.0
 10
148.569496302322
 20
29.69605365407815
 30
0.0
  0
SPLINE
  5
DA
330
81
100
AcDbEntity
  8
0
  6
Continuous
 62
     8
370
     0
100
AcDbSpline
210
0.0
220
0.0
230
1.0
 70
     8
 71
     3
 72
     8
 73
     4
 74
     0
 42
0.000000001
 43
0.00000001
 40
16.0
 40
16.0
 40
16.0
 40
16.0
 40
17.0
 40
17.0
 40
17.0
 40
17.0
 10
148.3259278908342
 20
48.98929011821522
 30
0.0
 10
151.6487246783881
 20
49.0430336432394
 30
0.0
 10
155.2970832040696
 20
48.18227596841268
 30
0.0
 10
155.2970832040696
 20
44.17218217814528
 30
0.0
  0
SPLINE
  5
DB
330
81
100
AcDbEntity
  8
0
  6
Continuous
 62
     8
370
     0
100
AcDbSpline
210
0.0
220
0.0
230
1.0
 70
     8
 71
     3
 72
     8
 73
     4
 74
     0
 42
0.000000001
 43
0.00000001
 40
17.0
 40
17.0
 40
17.0
 40
17.0
 40
18.0
 40
18.0
 40
18.0
 40
18.0
 10
155.2970832040696
 20
44.17218217814528
 30
0.0
 10
155.2970832040696
 20
42.44963329916444
 30
0.0
 10
154.270444072197
 20
41.05092360943199
 30
0.0
 10
152.7570126271244
 20
40.29730847487787
 30
0.0
  0
SPLINE
  5
DC
330
81
100
AcDbEntity
  8
0
  6
Continuous
 62
     8
370
     0
100
AcDbSpline
210
0.0
220
0.0
230
1.0
 70
     8
 71
     3
 72
     8
 73
     4
 74
     0
 42
0.000000001
 43
0.00000001
 40
18.0
 40
18.0
 40
18.0
 40
18.0
 40
19.0
 40
19.0
 40
19.0
 40
19.0
 10
152.7570126271244
 20
40.29730847487787
 30
0.0
 10
154.6566395308645
 20
39.74936567647406
 30
0.0
 10
155.8830943326989
 20
38.18925315678111
 30
0.0
 10
156.0567272597002
 20
36.23347115958625
 30
0.0
  0
SPLINE
  5
DD
330
81
100
AcDbEntity
  8
0
  6
Continuous
 62
     8
370
     0
100
AcDbSpline
210
0.0
220
0.0
230
1.0
 70
     8
 71
     3
 72
     8
 73
     4
 74
     0
 42
0.000000001
 43
0.00000001
 40
20.0
 40
20.0
 40
20.0
 40
20.0
 40
21.0
 40
21.0
 40
21.0
 40
21.0
 10
160.8609160831777
 20
36.23347115958625
 30
0.0
 10
160.9684031332261
 20
33.9727980108118
 30
0.0
 10
162.3736585086987
 20
33.24622689365768
 30
0.0
 10
164.507896569756
 20
33.24622689365768
 30
0.0
  0
SPLINE
  5
DE
330
81
100
AcDbEntity
  8
0
  6
Continuous
 62
     8
370
     0
100
AcDbSpline
210
0.0
220
0.0
230
1.0
 70
     8
 71
     3
 72
     8
 73
     4
 74
     0
 42
0.000000001
 43
0.00000001
 40
21.0
 40
21.0
 40
21.0
 40
21.0
 40
22.0
 40
22.0
 40
22.0
 40
22.0
 10
164.507896569756
 20
33.24622689365768
 30
0.0
 10
166.0209835050527
 20
33.24622689365768
 30
0.0
 10
167.5885029849253
 20
33.78504018300288
 30
0.0
 10
167.5885029849253
 20
35.21131065479903
 30
0.0
  0
SPLINE
  5
DF
330
81
100
AcDbEntity
  8
0
  6
Continuous
 62
     8
370
     0
100
AcDbSpline
210
0.0
220
0.0
230
1.0
 70
     8
 71
     3
 72
     8
 73
     4
 74
     0
 42
0.000000001
 43
0.00000001
 40
22.0
 40
22.0
 40
22.0
 40
22.0
 40
23.0
 40
23.0
 40
23.0
 40
23.0
 10
167.5885029849253
 20
35.21131065479903
 30
0.0
 10
167.5885029849253
 20
36.90629875171619
 30
0.0
 10
164.8331137981075
 20
37.22910441163718
 30
0.0
 10
162.0491302998987
 20
38.00941905381552
 30
0.0
  0
SPLINE
  5
E0
330
81
100
AcDbEntity
  8
0
  6
Continuous
 62
     8
370
     0
100
AcDbSpline
210
0.0
220
0.0
230
1.0
 70
     8
 71
     3
 72
     8
 73
     4
 74
     0
 42
0.000000001
 43
0.00000001
 40
23.0
 40
23.0
 40
23.0
 40
23.0
 40
24.0
 40
24.0
 40
24.0
 40
24.0
 10
162.0491302998987
 20
38.00941905381552
 30
0.0
 10
159.2930520935294
 20
38.78956144110593
 30
0.0
 10
156.4022705648237
 20
40.02772957531736
 30
0.0
 10
156.4022705648237
 20
43.55344262081537
 30
0.0
  0
SPLINE
  5
E1
330
81
100
AcDbEntity
  8
0
  6
Continuous
 62
     8
370
     0
100
AcDbSpline
210
0.0
220
0.0
230
1.0
 70
     8
 71
     3
 72
     8
 73
     4
 74
     0
 42
0.000000001
 43
0.00000001
 40
24.0
 40
24.0
 40
24.0
 40
24.0
 40
25.0
 40
25.0
 40
25.0
 40
25.0
 10
156.4022705648237
 20
43.55344262081537
 30
0.0
 10
156.4022705648237
 20
47.75129423889168
 30
0.0
 10
160.6449084537535
 20
49.39253881078461
 30
0.0
 10
164.2646726680438
 20
49.39253881078461
 30
0.0
  0
SPLINE
  5
E2
330
81
100
AcDbEntity
  8
0
  6
Continuous
 62
     8
370
     0
100
AcDbSpline
210
0.0
220
0.0
230
1.0
 70
     8
 71
     3
 72
     8
 73
     4
 74
     0
 42
0.000000001
 43
0.00000001
 40
25.0
 40
25.0
 40
25.0
 40
25.0
 40
26.0
 40
26.0
 40
26.0
 40
26.0
 10
164.2646726680438
 20
49.39253881078461
 30
0.0
 10
168.1018225508616
 20
49.39253881078461
 30
0.0
 10
171.9654996864157
 20
47.53614788390696
 30
0.0
 10
171.9930604684793
 20
43.20376519838225
 30
0.0
  0
SPLINE
  5
E3
330
81
100
AcDbEntity
  8
0
  6
Continuous
 62
     8
370
     0
100
AcDbSpline
210
0.0
220
0.0
230
1.0
 70
     8
 71
     3
 72
     8
 73
     4
 74
     0
 42
0.000000001
 43
0.00000001
 40
27.0
 40
27.0
 40
27.0
 40
27.0
 40
28.0
 40
28.0
 40
28.0
 40
28.0
 10
166.9673518591648
 20
43.20376519838225
 30
0.0
 10
167.0486561662527
 20
44.9523245654357
 30
0.0
 10
165.3998323792922
 20
45.51766510751722
 30
0.0
 10
163.8591846619318
 20
45.51766510751722
 30
0.0
  0
SPLINE
  5
E4
330
81
100
AcDbEntity
  8
0
  6
Continuous
 62
     8
370
     0
100
AcDbSpline
210
0.0
220
0.0
230
1.0
 70
     8
 71
     3
 72
     8
 73
     4
 74
     0
 42
0.000000001
 43
0.00000001
 40
28.0
 40
28.0
 40
28.0
 40
28.0
 40
29.0
 40
29.0
 40
29.0
 40
29.0
 10
163.8591846619318
 20
45.51766510751722
 30
0.0
 10
162.7794910245866
 20
45.51766510751722
 30
0.0
 10
161.4286681936898
 20
45.14094366768412
 30
0.0
 10
161.4286681936898
 20
43.87642053562427
 30
0.0
  0
SPLINE
  5
E5
330
81
100
AcDbEntity
  8
0
  6
Continuous
 62
     8
370
     0
100
AcDbSpline
210
0.0
220
0.0
230
1.0
 70
     8
 71
     3
 72
     8
 73
     4
 74
     0
 42
0.000000001
 43
0.00000001
 40
29.0
 40
29.0
 40
29.0
 40
29.0
 40
30.0
 40
30.0
 40
30.0
 40
30.0
 10
161.4286681936898
 20
43.87642053562427
 30
0.0
 10
161.4286681936898
 20
42.39606202902813
 30
0.0
 10
164.2102401234681
 20
42.12665538435552
 30
0.0
 10
167.021095384189
 20
41.34634074217721
 30
0.0
  0
SPLINE
  5
E6
330
81
100
AcDbEntity
  8
0
  6
Continuous
 62
     8
370
     0
100
AcDbSpline
210
0.0
220
0.0
230
1.0
 70
     8
 71
     3
 72
     8
 73
     4
 74
     0
 42
0.000000001
 43
0.00000001
 40
30.0
 40
30.0
 40
30.0
 40
30.0
 40
31.0
 40
31.0
 40
31.0
 40
31.0
 10
167.021095384189
 20
41.34634074217721
 30
0.0
 10
169.8047343726221
 20
40.56619835488677
 30
0.0
 10
172.6142115942398
 20
39.27428669565115
 30
0.0
 10
172.6142115942398
 20
35.80317844961686
 30
0.0
  0
SPLINE
  5
E7
330
81
100
AcDbEntity
  8
0
  6
Continuous
 62
     8
370
     0
100
AcDbSpline
210
0.0
220
0.0
230
1.0
 70
     8
 71
     3
 72
     8
 73
     4
 74
     0
 42
0.000000001
 43
0.00000001
 40
31.0
 40
31.0
 40
31.0
 40
31.0
 40
32.0
 40
32.0
 40
32.0
 40
32.0
 10
172.6142115942398
 20
35.80317844961686
 30
0.0
 10
172.6142115942398
 20
30.93249923941061
 30
0.0
 10
168.4532225221737
 20
29.12313389692912
 30
0.0
 10
164.2102401234681
 20
29.12313389692912
 30
0.0
  0
SPLINE
  5
E8
330
81
100
AcDbEntity
  8
0
  6
Continuous
 62
     8
370
     0
100
AcDbSpline
210
0.0
220
0.0
230
1.0
 70
     8
 71
     3
 72
     8
 73
     4
 74
     0
 42
0.000000001
 43
0.00000001
 40
0.0
 40
0.0
 40
0.0
 40
0.0
 40
1.0
 40
1.0
 40
1.0
 40
1.0
 10
160.6276829649637
 20
37.39343557469195
 30
0.0
 10
160.938086272956
 20
37.30765264051871
 30
0.0
 10
161.2550352666885
 20
37.2187691183633
 30
0.0
 10
161.5726732799726
 20
37.12781853755313
 30
0.0
  0
SPLINE
  5
E9
330
81
100
AcDbEntity
  8
0
  6
Continuous
 62
     8
370
     0
100
AcDbSpline
210
0.0
220
0.0
230
1.0
 70
     8
 71
     3
 72
     8
 73
     4
 74
     0
 42
0.000000001
 43
0.00000001
 40
3.00211844657731
 40
3.00211844657731
 40
3.00211844657731
 40
3.00211844657731
 40
4.0
 40
4.0
 40
4.0
 40
4.0
 10
66.52024188954972
 20
39.12608937915723
 30
0.0
 10
66.52360869616864
 20
45.27412322811475
 30
0.0
 10
70.30988649618203
 20
50.17609584429974
 30
0.0
 10
77.02507716926495
 20
50.1899542846939
 30
0.0
  0
SPLINE
  5
EA
330
81
100
AcDbEntity
  8
0
  6
Continuous
 62
     8
370
     0
100
AcDbSpline
210
0.0
220
0.0
230
1.0
 70
     8
 71
     3
 72
     8
 73
     4
 74
     0
 42
0.000000001
 43
0.00000001
 40
3.0
 40
3.0
 40
3.0
 40
3.0
 40
4.0
 40
4.0
 40
4.0
 40
4.0
 10
161.7042760143268
 20
37.08957795243973
 30
0.0
 10
164.0696801349432
 20
36.40710408658753
 30
0.0
 10
166.4492091563673
 20
35.59543905481176
 30
0.0
 10
166.3251856370807
 20
35.10003399721688
 30
0.0
  0
SPLINE
  5
EB
330
81
100
AcDbEntity
  8
0
  6
Continuous
 62
     8
370
     0
100
AcDbSpline
210
0.0
220
0.0
230
1.0
 70
     8
 71
     3
 72
     8
 73
     4
 74
     0
 42
0.000000001
 43
0.00000001
 40
4.0
 40
4.0
 40
4.0
 40
4.0
 40
5.0
 40
5.0
 40
5.0
 40
5.0
 10
166.3251856370807
 20
35.10003399721688
 30
0.0
 10
166.0898854602119
 20
34.15642172131117
 30
0.0
 10
165.4012104183954
 20
33.89493880148186
 30
0.0
 10
163.6080370353763
 20
34.38448719288822
 30
0.0
  0
SPLINE
  5
EC
330
81
100
AcDbEntity
  8
0
  6
Continuous
 62
     8
370
     0
100
AcDbSpline
210
0.0
220
0.0
230
1.0
 70
     8
 71
     3
 72
     8
 73
     4
 74
     0
 42
0.000000001
 43
0.00000001
 40
5.0
 40
5.0
 40
5.0
 40
5.0
 40
6.0
 40
6.0
 40
6.0
 40
6.0
 10
163.6080370353763
 20
34.38448719288822
 30
0.0
 10
161.7283916986325
 20
34.89884028815191
 30
0.0
 10
161.7046205241026
 20
35.93478118397098
 30
0.0
 10
161.7042760143268
 20
37.08957795243973
 30
0.0
  0
SPLINE
  5
ED
330
81
100
AcDbEntity
  8
0
  6
Continuous
 62
     8
370
     0
100
AcDbSpline
210
0.0
220
0.0
230
1.0
 70
     8
 71
     3
 72
     8
 73
     4
 74
     0
 42
0.000000001
 43
0.00000001
 40
8.0
 40
8.0
 40
8.0
 40
8.0
 40
9.0
 40
9.0
 40
9.0
 40
9.0
 10
156.7116403434886
 20
37.12781853755313
 30
0.0
 10
156.7116403434886
 20
38.5878509673773
 30
0.0
 10
155.4507345640747
 20
39.84892900167915
 30
0.0
 10
154.6542279624339
 20
40.37981856618105
 30
0.0
  0
SPLINE
  5
EE
330
81
100
AcDbEntity
  8
0
  6
Continuous
 62
     8
370
     0
100
AcDbSpline
210
0.0
220
0.0
230
1.0
 70
     8
 71
     3
 72
     8
 73
     4
 74
     0
 42
0.000000001
 43
0.00000001
 40
9.0
 40
9.0
 40
9.0
 40
9.0
 40
10.0
 40
10.0
 40
10.0
 40
10.0
 10
154.6542279624339
 20
40.37981856618105
 30
0.0
 10
155.0517922437027
 20
40.8442177439543
 30
0.0
 10
155.649516704709
 20
41.30913368639121
 30
0.0
 10
155.8493323746708
 20
42.10546803314405
 30
0.0
  0
SPLINE
  5
EF
330
81
100
AcDbEntity
  8
0
  6
Continuous
 62
     8
370
     0
100
AcDbSpline
210
0.0
220
0.0
230
1.0
 70
     8
 71
     3
 72
     8
 73
     4
 74
     0
 42
0.000000001
 43
0.00000001
 40
10.0
 40
10.0
 40
10.0
 40
10.0
 40
11.0
 40
11.0
 40
11.0
 40
11.0
 10
155.8493323746708
 20
42.10546803314405
 30
0.0
 10
155.8493323746708
 20
39.84892900167915
 30
0.0
 10
157.9732351424542
 20
38.12293502494035
 30
0.0
 10
160.6276829649637
 20
37.39343557469195
 30
0.0
  0
SPLINE
  5
F0
330
81
100
AcDbEntity
  8
0
  6
Continuous
 62
     8
370
     0
100
AcDbSpline
210
0.0
220
0.0
230
1.0
 70
     8
 71
     3
 72
     8
 73
     4
 74
     0
 42
0.000000001
 43
0.00000001
 40
0.0
 40
0.0
 40
0.0
 40
0.0
 40
1.0
 40
1.0
 40
1.0
 40
1.0
 10
167.3357547617924
 20
42.17058038076954
 30
0.0
 10
167.2847673149745
 20
42.18401626202559
 30
0.0
 10
167.2406700636727
 20
42.19590184929056
 30
0.0
 10
167.189338107079
 20
42.2088209658829
 30
0.0
  0
SPLINE
  5
F1
330
81
100
AcDbEntity
  8
0
  6
Continuous
 62
     8
370
     0
100
AcDbSpline
210
0.0
220
0.0
230
1.0
 70
     8
 71
     3
 72
     8
 73
     4
 74
     0
 42
0.000000001
 43
0.00000001
 40
2.0
 40
2.0
 40
2.0
 40
2.0
 40
3.0
 40
3.0
 40
3.0
 40
3.0
 10
173.0691700759391
 20
42.16747979278733
 30
0.0
 10
173.0691700759391
 20
45.27185738248661
 30
0.0
 10
172.4597322825556
 20
50.25002364274127
 30
0.0
 10
164.1870190363622
 20
50.25002364274127
 30
0.0
  0
SPLINE
  5
F2
330
81
100
AcDbEntity
  8
0
  6
Continuous
 62
     8
370
     0
100
AcDbSpline
210
0.0
220
0.0
230
1.0
 70
     8
 71
     3
 72
     8
 73
     4
 74
     0
 42
0.000000001
 43
0.00000001
 40
3.0
 40
3.0
 40
3.0
 40
3.0
 40
4.0
 40
4.0
 40
4.0
 40
4.0
 10
164.1870190363622
 20
50.25002364274127
 30
0.0
 10
159.3649157045433
 20
50.25002364274127
 30
0.0
 10
156.9760849191726
 20
47.90081148158718
 30
0.0
 10
156.0162806838046
 20
46.1898036800955
 30
0.0
  0
SPLINE
  5
F3
330
81
100
AcDbEntity
  8
0
  6
Continuous
 62
     8
370
     0
100
AcDbSpline
210
0.0
220
0.0
230
1.0
 70
     8
 71
     3
 72
     8
 73
     4
 74
     0
 42
0.000000001
 43
0.00000001
 40
4.0
 40
4.0
 40
4.0
 40
4.0
 40
5.0
 40
5.0
 40
5.0
 40
5.0
 10
156.0162806838046
 20
46.1898036800955
 30
0.0
 10
155.1174546787523
 20
47.90081148158718
 30
0.0
 10
154.5865651142504
 20
50.04710738479733
 30
0.0
 10
147.7273754781487
 20
50.04710738479733
 30
0.0
  0
SPLINE
  5
F4
330
81
100
AcDbEntity
  8
0
  6
Continuous
 62
     8
370
     0
100
AcDbSpline
210
0.0
220
0.0
230
1.0
 70
     8
 71
     3
 72
     8
 73
     4
 74
     0
 42
0.000000001
 43
0.00000001
 40
19.0
 40
19.0
 40
19.0
 40
19.0
 40
20.0
 40
20.0
 40
20.0
 40
20.0
 10
149.6765281642566
 20
28.76070961279156
 30
0.0
 10
152.520456363454
 20
28.8110080400578
 30
0.0
 10
155.173870656636
 20
30.15769675364504
 30
0.0
 10
155.9810570613264
 20
32.14345110133414
 30
0.0
  0
SPLINE
  5
F5
330
81
100
AcDbEntity
  8
0
  6
Continuous
 62
     8
370
     0
100
AcDbSpline
210
0.0
220
0.0
230
1.0
 70
     8
 71
     3
 72
     8
 73
     4
 74
     0
 42
0.000000001
 43
0.00000001
 40
20.0
 40
20.0
 40
20.0
 40
20.0
 40
21.0
 40
21.0
 40
21.0
 40
21.0
 10
155.9810570613264
 20
32.14345110133414
 30
0.0
 10
156.7465577831456
 20
30.15769675364504
 30
0.0
 10
159.417886584669
 20
28.16367417133681
 30
0.0
 10
164.5948349855581
 20
28.16367417133681
 30
0.0
  0
SPLINE
  5
F6
330
81
100
AcDbEntity
  8
0
  6
Continuous
 62
     8
370
     0
100
AcDbSpline
210
0.0
220
0.0
230
1.0
 70
     8
 71
     3
 72
     8
 73
     4
 74
     0
 42
0.000000001
 43
0.00000001
 40
21.0
 40
21.0
 40
21.0
 40
21.0
 40
22.0
 40
22.0
 40
22.0
 40
22.0
 10
164.5948349855581
 20
28.16367417133681
 30
0.0
 10
169.7717833864471
 20
28.16367417133681
 30
0.0
 10
173.6165124843323
 20
31.30629234614945
 30
0.0
 10
173.6165124843323
 20
35.44798887077101
 30
0.0
  0
SPLINE
  5
F7
330
81
100
AcDbEntity
  8
0
  6
Continuous
 62
     8
370
     0
100
AcDbSpline
210
0.0
220
0.0
230
1.0
 70
     8
 71
     3
 72
     8
 73
     4
 74
     0
 42
0.000000001
 43
0.00000001
 40
22.0
 40
22.0
 40
22.0
 40
22.0
 40
23.0
 40
23.0
 40
23.0
 40
23.0
 10
173.6165124843323
 20
35.44798887077101
 30
0.0
 10
173.6165124843323
 20
39.66030989943075
 30
0.0
 10
171.193575231158
 20
41.15548232638614
 30
0.0
 10
167.3357547617924
 20
42.17058038076954
 30
0.0
  0
SPLINE
  5
F8
330
81
100
AcDbEntity
  8
0
  6
Continuous
 62
     8
370
     0
100
AcDbSpline
210
0.0
220
0.0
230
1.0
 70
     8
 71
     3
 72
     8
 73
     4
 74
     0
 42
0.000000001
 43
0.00000001
 40
0.0
 40
0.0
 40
0.0
 40
0.0
 40
1.0
 40
1.0
 40
1.0
 40
1.0
 10
77.03221361313545
 20
33.05571298764242
 30
0.0
 10
80.63526910329966
 20
33.05571298764242
 30
0.0
 10
82.01537526513914
 20
36.22554743474296
 30
0.0
 10
82.01537526513914
 20
39.394520607404
 30
0.0
  0
SPLINE
  5
F9
330
81
100
AcDbEntity
  8
0
  6
Continuous
 62
     8
370
     0
100
AcDbSpline
210
0.0
220
0.0
230
1.0
 70
     8
 71
     3
 72
     8
 73
     4
 74
     0
 42
0.000000001
 43
0.00000001
 40
1.0
 40
1.0
 40
1.0
 40
1.0
 40
2.0
 40
2.0
 40
2.0
 40
2.0
 10
82.01537526513914
 20
39.394520607404
 30
0.0
 10
82.01537526513914
 20
42.56383828984087
 30
0.0
 10
80.63526910329966
 20
45.73315597227772
 30
0.0
 10
77.03221361313545
 20
45.73315597227772
 30
0.0
  0
SPLINE
  5
FA
330
81
100
AcDbEntity
  8
0
  6
Continuous
 62
     8
370
     0
100
AcDbSpline
210
0.0
220
0.0
230
1.0
 70
     8
 71
     3
 72
     8
 73
     4
 74
     0
 42
0.000000001
 43
0.00000001
 40
2.0
 40
2.0
 40
2.0
 40
2.0
 40
3.0
 40
3.0
 40
3.0
 40
3.0
 10
77.03221361313545
 20
45.73315597227772
 30
0.0
 10
73.42950263274702
 20
45.73315597227772
 30
0.0
 10
72.04887970624388
 20
42.56383828984087
 30
0.0
 10
72.04887970624385
 20
39.394520607404
 30
0.0
  0
SPLINE
  5
FB
330
81
100
AcDbEntity
  8
0
  6
Continuous
 62
     8
370
     0
100
AcDbSpline
210
0.0
220
0.0
230
1.0
 70
     8
 71
     3
 72
     8
 73
     4
 74
     0
 42
0.000000001
 43
0.00000001
 40
3.0
 40
3.0
 40
3.0
 40
3.0
 40
4.0
 40
4.0
 40
4.0
 40
4.0
 10
72.04887970624385
 20
39.394520607404
 30
0.0
 10
72.04887970624388
 20
36.22554743474296
 30
0.0
 10
73.42950263274702
 20
33.05571298764242
 30
0.0
 10
77.03221361313545
 20
33.05571298764242
 30
0.0
  0
SPLINE
  5
FC
330
81
100
AcDbEntity
  8
0
  6
Continuous
 62
     8
370
     0
100
AcDbSpline
210
0.0
220
0.0
230
1.0
 70
     8
 71
     3
 72
    11
 73
     7
 74
     0
 42
0.000000001
 43
0.00000001
 40
2.0
 40
2.0
 40
2.0
 40
2.0
 40
3.0
 40
3.0
 40
3.0
 40
3.00211844657731
 40
3.00211844657731
 40
3.00211844657731
 40
3.00211844657731
 10
77.06659554923958
 20
27.94516906200683
 30
0.0
 10
70.31214814569965
 20
27.95750275571358
 30
0.0
 10
66.50881771248031
 20
32.89783589216447
 30
0.0
 10
66.52011877545024
 20
39.08677144153199
 30
0.0
 10
66.52014271748132
 20
39.09988310068809
 30
0.0
 10
66.5201837582936
 20
39.11298909154457
 30
0.0
 10
66.52024188954972
 20
39.12608937915723
 30
0.0
  0
SPLINE
  5
FD
330
81
100
AcDbEntity
  8
0
  6
Continuous
 62
     8
370
     0
100
AcDbSpline
210
0.0
220
0.0
230
1.0
 70
     8
 71
     3
 72
    11
 73
     7
 74
     0
 42
0.000000001
 43
0.00000001
 40
0.0
 40
0.0
 40
0.0
 40
0.0
 40
1.0
 40
1.0
 40
1.0
 40
2.0
 40
2.0
 40
2.0
 40
2.0
 10
77.02507716926495
 20
50.1899542846939
 30
0.0
 10
83.78004083250916
 20
50.2025619653381
 30
0.0
 10
87.60141459757921
 20
45.2764779726998
 30
0.0
 10
87.61296646735416
 20
39.08719837601426
 30
0.0
 10
87.6245176941261
 20
32.89826328850453
 30
0.0
 10
83.82155921248359
 20
27.95777674265099
 30
0.0
 10
77.06659554923958
 20
27.94516906200683
 30
0.0
  0
SPLINE
  5
FE
330
81
100
AcDbEntity
  8
0
  6
Continuous
 62
     8
370
     0
100
AcDbSpline
210
0.0
220
0.0
230
1.0
 70
     8
 71
     3
 72
     8
 73
     4
 74
     0
 42
0.000000001
 43
0.00000001
 40
1.0
 40
1.0
 40
1.0
 40
1.0
 40
2.0
 40
2.0
 40
2.0
 40
2.0
 10
97.89159151804188
 20
40.80029274754029
 30
0.0
 10
99.57279922392719
 20
40.80029274754029
 30
0.0
 10
100.4730032680826
 20
41.69670718416189
 30
0.0
 10
100.4730032680826
 20
43.31125224843066
 30
0.0
  0
SPLINE
  5
FF
330
81
100
AcDbEntity
  8
0
  6
Continuous
 62
     8
370
     0
100
AcDbSpline
210
0.0
220
0.0
230
1.0
 70
     8
 71
     3
 72
     8
 73
     4
 74
     0
 42
0.000000001
 43
0.00000001
 40
2.0
 40
2.0
 40
2.0
 40
2.0
 40
3.0
 40
3.0
 40
3.0
 40
3.0
 10
100.4730032680826
 20
43.31125224843066
 30
0.0
 10
100.4730032680826
 20
44.89565270731723
 30
0.0
 10
99.21295876310808
 20
45.61378333496433
 30
0.0
 10
97.65146820431197
 20
45.61378333496433
 30
0.0
  0
SPLINE
  5
100
330
81
100
AcDbEntity
  8
0
  6
Continuous
 62
     8
370
     0
100
AcDbSpline
210
0.0
220
0.0
230
1.0
 70
     8
 71
     3
 72
     8
 73
     4
 74
     0
 42
0.000000001
 43
0.00000001
 40
1.0
 40
1.0
 40
1.0
 40
1.0
 40
2.0
 40
2.0
 40
2.0
 40
2.0
 10
98.55218900458812
 20
50.04710738479733
 30
0.0
 10
102.3342173232785
 20
50.04710738479733
 30
0.0
 10
106.0573344703076
 20
48.34264526904578
 30
0.0
 10
106.0573344703077
 20
44.03765111069685
 30
0.0
  0
SPLINE
  5
101
330
81
100
AcDbEntity
  8
0
  6
Continuous
 62
     8
370
     0
100
AcDbSpline
210
0.0
220
0.0
230
1.0
 70
     8
 71
     3
 72
     8
 73
     4
 74
     0
 42
0.000000001
 43
0.00000001
 40
2.0
 40
2.0
 40
2.0
 40
2.0
 40
3.0
 40
3.0
 40
3.0
 40
3.0
 10
106.0573344703077
 20
44.03765111069685
 30
0.0
 10
106.0573344703076
 20
41.73494776927527
 30
0.0
 10
104.9459459335892
 20
39.55265059449444
 30
0.0
 10
102.6945745487612
 20
38.68569174370337
 30
0.0
  0
SPLINE
  5
102
330
81
100
AcDbEntity
  8
0
  6
Continuous
 62
     8
370
     0
100
AcDbSpline
210
0.0
220
0.0
230
1.0
 70
     8
 71
     3
 72
     8
 73
     4
 74
     0
 42
0.000000001
 43
0.00000001
 40
4.0
 40
4.0
 40
4.0
 40
4.0
 40
5.0
 40
5.0
 40
5.0
 40
5.0
 10
102.6945745487612
 20
38.62574704271483
 30
0.0
 10
104.9766073036351
 20
38.08727826314542
 30
0.0
 10
105.6373770536121
 20
35.54548513732129
 30
0.0
 10
105.8175556663535
 20
33.5125329503481
 30
0.0
  0
SPLINE
  5
103
330
81
100
AcDbEntity
  8
0
  6
Continuous
 62
     8
370
     0
100
AcDbSpline
210
0.0
220
0.0
230
1.0
 70
     8
 71
     3
 72
     8
 73
     4
 74
     0
 42
0.000000001
 43
0.00000001
 40
5.0
 40
5.0
 40
5.0
 40
5.0
 40
5.74044267676188
 40
5.74044267676188
 40
5.74044267676188
 40
5.74044267676188
 10
105.8175556663535
 20
33.5125329503481
 30
0.0
 10
105.8808091746534
 20
32.85009942065996
 30
0.0
 10
105.9969739034398
 20
30.95908278298207
 30
0.0
 10
106.3668527512702
 20
29.71530239194635
 30
0.0
  0
SPLINE
  5
104
330
81
100
AcDbEntity
  8
0
  6
Continuous
 62
     8
370
     0
100
AcDbSpline
210
0.0
220
0.0
230
1.0
 70
     8
 71
     3
 72
     8
 73
     4
 74
     0
 42
0.000000001
 43
0.00000001
 40
7.0
 40
7.0
 40
7.0
 40
7.0
 40
8.0
 40
8.0
 40
8.0
 40
8.0
 10
101.1935454556174
 20
28.69835334337245
 30
0.0
 10
100.7139878477091
 20
29.41665622590745
 30
0.0
 10
100.6237262864505
 20
31.50920860409338
 30
0.0
 10
100.5634370756861
 20
32.10693306509975
 30
0.0
  0
SPLINE
  5
105
330
81
100
AcDbEntity
  8
0
  6
Continuous
 62
     8
370
     0
100
AcDbSpline
210
0.0
220
0.0
230
1.0
 70
     8
 71
     3
 72
     8
 73
     4
 74
     0
 42
0.000000001
 43
0.00000001
 40
8.0
 40
8.0
 40
8.0
 40
8.0
 40
9.0
 40
9.0
 40
9.0
 40
9.0
 10
100.5634370756861
 20
32.10693306509975
 30
0.0
 10
100.4134030683269
 20
34.26046367360161
 30
0.0
 10
100.0533903526199
 20
36.4729054537646
 30
0.0
 10
97.44200625208497
 20
36.4729054537646
 30
0.0
  0
SPLINE
  5
106
330
81
100
AcDbEntity
  8
0
  6
Continuous
 62
     8
370
     0
100
AcDbSpline
210
0.0
220
0.0
230
1.0
 70
     8
 71
     3
 72
     8
 73
     4
 74
     0
 42
0.000000001
 43
0.00000001
 40
1.0
 40
1.0
 40
1.0
 40
1.0
 40
2.0
 40
2.0
 40
2.0
 40
2.0
 10
148.3552112217768
 20
45.35557325800512
 30
0.0
 10
149.5682301423551
 20
45.35557325800512
 30
0.0
 10
150.7168257348595
 20
44.77576330534016
 30
0.0
 10
150.7168257348595
 20
43.00515531263576
 30
0.0
  0
SPLINE
  5
107
330
81
100
AcDbEntity
  8
0
  6
Continuous
 62
     8
370
     0
100
AcDbSpline
210
0.0
220
0.0
230
1.0
 70
     8
 71
     3
 72
     8
 73
     4
 74
     0
 42
0.000000001
 43
0.00000001
 40
2.0
 40
2.0
 40
2.0
 40
2.0
 40
3.0
 40
3.0
 40
3.0
 40
3.0
 10
150.7168257348595
 20
43.00515531263576
 30
0.0
 10
150.7168257348595
 20
41.26865378773517
 30
0.0
 10
149.3504999640519
 20
40.68918834484602
 30
0.0
 10
148.3552112217768
 20
40.68918834484602
 30
0.0
  0
SPLINE
  5
108
330
81
100
AcDbEntity
  8
0
  6
Continuous
 62
     8
370
     0
100
AcDbSpline
210
0.0
220
0.0
230
1.0
 70
     8
 71
     3
 72
     8
 73
     4
 74
     0
 42
0.000000001
 43
0.00000001
 40
2.0
 40
2.0
 40
2.0
 40
2.0
 40
3.0
 40
3.0
 40
3.0
 40
3.0
 10
147.9838296834685
 20
41.63848503205236
 30
0.0
 10
148.6783613914736
 20
41.63848503205236
 30
0.0
 10
149.6316199411016
 20
41.97300402435042
 30
0.0
 10
149.6316199411016
 20
42.9753552170294
 30
0.0
  0
SPLINE
  5
109
330
81
100
AcDbEntity
  8
0
  6
Continuous
 62
     8
370
     0
100
AcDbSpline
210
0.0
220
0.0
230
1.0
 70
     8
 71
     3
 72
     8
 73
     4
 74
     0
 42
0.000000001
 43
0.00000001
 40
3.0
 40
3.0
 40
3.0
 40
3.0
 40
4.0
 40
4.0
 40
4.0
 40
4.0
 10
149.6316199411016
 20
42.9753552170294
 30
0.0
 10
149.6316199411016
 20
43.99734346692872
 30
0.0
 10
148.8296011830481
 20
44.33186245922681
 30
0.0
 10
147.9838296834685
 20
44.33186245922681
 30
0.0
  0
SPLINE
  5
10A
330
81
100
AcDbEntity
  8
0
  6
Continuous
 62
     8
370
     0
100
AcDbSpline
210
0.0
220
0.0
230
1.0
 70
     8
 71
     3
 72
     8
 73
     4
 74
     0
 42
0.000000001
 43
0.00000001
 40
1.0
 40
1.0
 40
1.0
 40
1.0
 40
2.0
 40
2.0
 40
2.0
 40
2.0
 10
148.8506162793717
 20
38.45762627212632
 30
0.0
 10
150.1973049929589
 20
38.45762627212632
 30
0.0
 10
151.4726801829563
 20
37.78979407174546
 30
0.0
 10
151.4726801829563
 20
35.74943492459264
 30
0.0
  0
SPLINE
  5
10B
330
81
100
AcDbEntity
  8
0
  6
Continuous
 62
     8
370
     0
100
AcDbSpline
210
0.0
220
0.0
230
1.0
 70
     8
 71
     3
 72
     8
 73
     4
 74
     0
 42
0.000000001
 43
0.00000001
 40
2.0
 40
2.0
 40
2.0
 40
2.0
 40
3.0
 40
3.0
 40
3.0
 40
3.0
 10
151.4726801829563
 20
35.74943492459264
 30
0.0
 10
151.4726801829563
 20
33.74748861744111
 30
0.0
 10
149.9558036401258
 20
33.07982867194814
 30
0.0
 10
148.8506162793717
 20
33.07982867194814
 30
0.0
  0
SPLINE
  5
10C
330
81
100
AcDbEntity
  8
0
  6
Continuous
 62
     8
370
     0
100
AcDbSpline
210
0.0
220
0.0
230
1.0
 70
     8
 71
     3
 72
     8
 73
     4
 74
     0
 42
0.000000001
 43
0.00000001
 40
2.0
 40
2.0
 40
2.0
 40
2.0
 40
3.0
 40
3.0
 40
3.0
 40
3.0
 10
148.5660512045641
 20
33.99588016579015
 30
0.0
 10
149.395975254457
 20
33.99588016579015
 30
0.0
 10
150.5349245732392
 20
34.42513934643217
 30
0.0
 10
150.5349245732392
 20
35.71326139813404
 30
0.0
  0
SPLINE
  5
10D
330
81
100
AcDbEntity
  8
0
  6
Continuous
 62
     8
370
     0
100
AcDbSpline
210
0.0
220
0.0
230
1.0
 70
     8
 71
     3
 72
     8
 73
     4
 74
     0
 42
0.000000001
 43
0.00000001
 40
3.0
 40
3.0
 40
3.0
 40
3.0
 40
4.0
 40
4.0
 40
4.0
 40
4.0
 10
150.5349245732392
 20
35.71326139813404
 30
0.0
 10
150.5349245732392
 20
37.02618815369325
 30
0.0
 10
149.5771873965258
 20
37.45613635388687
 30
0.0
 10
148.5660512045641
 20
37.45613635388687
 30
0.0
  0
HATCH
  5
10E
330
81
100
AcDbEntity
  8
0
  6
Continuous
 62
     7
100
AcDbHatch
 10
0.0
 20
0.0
 30
0.0
210
0.0
220
0.0
230
1.0
  2
SOLID
 70
     1
 71
     0
 91
        1
 92
        0
 93
       18
 72
     1
 10
53.55697298060871
 20
28.69835334337245
 11
47.97367529916809
 21
28.69835334337245
 72
     1
 10
47.97367529916809
 20
28.69835334337245
 11
47.97367529916809
 21
45.26307238320382
 72
     1
 10
47.97367529916809
 20
45.26307238320382
 11
42.18126018381921
 21
45.26307238320382
 72
     1
 10
42.18126018381921
 20
45.26307238320382
 11
42.18126018381921
 21
28.69835334337245
 72
     1
 10
42.18126018381921
 20
28.69835334337245
 11
36.59744573771491
 21
28.69835334337245
 72
     1
 10
36.59744573771491
 20
28.69835334337245
 11
36.59744573771491
 21
45.26307238320382
 72
     1
 10
36.59744573771491
 20
45.26307238320382
 11
30.20299978916224
 21
45.26307238320382
 72
     1
 10
30.20299978916224
 20
45.26307238320382
 11
30.20299978916224
 21
50.04710738479733
 72
     1
 10
30.20299978916224
 20
50.04710738479733
 11
53.55697298060871
 21
50.04710738479733
 72
     1
 10
53.55697298060871
 20
50.04710738479733
 11
53.55697298060871
 21
42.272899784181
 72
     1
 10
53.55697298060871
 20
42.272899784181
 11
60.91242894874484
 21
42.272899784181
 72
     1
 10
60.91242894874484
 20
42.272899784181
 11
60.91242894874484
 21
50.04710738479733
 72
     1
 10
60.91242894874484
 20
50.04710738479733
 11
66.496415649737
 21
50.04710738479733
 72
     1
 10
66.496415649737
 20
50.04710738479733
 11
66.496415649737
 21
28.69835334337245
 72
     1
 10
66.496415649737
 20
28.69835334337245
 11
60.91242894874484
 21
28.69835334337245
 72
     1
 10
60.91242894874484
 20
28.69835334337245
 11
60.91242894874484
 21
37.48955380213908
 72
     1
 10
60.91242894874484
 20
37.48955380213908
 11
53.55697298060871
 21
37.48955380213908
 72
     1
 10
53.55697298060871
 20
37.48955380213908
 11
53.55697298060871
 21
28.69835334337245
 97
        0
 75
     0
 76
     1
 98
        1
 10
0.0
 20
0.0
  0
HATCH
  5
10F
330
81
100
AcDbEntity
  8
0
  6
Continuous
 62
     7
100
AcDbHatch
 10
0.0
 20
0.0
 30
0.0
210
0.0
220
0.0
230
1.0
  2
SOLID
 70
     1
 71
     0
 91
        2
 92
        0
 93
        3
 72
     4
 94
        3
 73
     1
 74
     0
 95
       11
 96
        7
 40
0.0
 40
0.0
 40
0.0
 40
0.0
 40
1.0
 40
1.0
 40
1.0
 40
2.0
 40
2.0
 40
2.0
 40
2.0
 10
77.02507716926495
 20
50.1899542846939
 42
1.0
 10
83.78004083250916
 20
50.2025619653381
 42
1.0
 10
87.60141459757921
 20
45.2764779726998
 42
1.0
 10
87.61296646735416
 20
39.08719837601426
 42
1.0
 10
87.6245176941261
 20
32.89826328850453
 42
1.0
 10
83.82155921248359
 20
27.95777674265099
 42
1.0
 10
77.06659554923958
 20
27.94516906200683
 42
1.0
 72
     4
 94
        3
 73
     1
 74
     0
 95
       11
 96
        7
 40
2.0
 40
2.0
 40
2.0
 40
2.0
 40
3.0
 40
3.0
 40
3.0
 40
3.00211844657731
 40
3.00211844657731
 40
3.00211844657731
 40
3.00211844657731
 10
77.06659554923958
 20
27.94516906200683
 42
1.0
 10
70.31214814569965
 20
27.95750275571358
 42
1.0
 10
66.50881771248031
 20
32.89783589216447
 42
1.0
 10
66.52011877545024
 20
39.08677144153199
 42
1.0
 10
66.52014271748132
 20
39.09988310068809
 42
1.0
 10
66.5201837582936
 20
39.11298909154457
 42
1.0
 10
66.52024188954972
 20
39.12608937915723
 42
1.0
 72
     4
 94
        3
 73
     1
 74
     0
 95
        8
 96
        4
 40
3.00211844657731
 40
3.00211844657731
 40
3.00211844657731
 40
3.00211844657731
 40
4.0
 40
4.0
 40
4.0
 40
4.0
 10
66.52024188954972
 20
39.12608937915723
 42
1.0
 10
66.52360869616864
 20
45.27412322811475
 42
1.0
 10
70.30988649618203
 20
50.17609584429974
 42
1.0
 10
77.02507716926495
 20
50.1899542846939
 42
1.0
 97
        0
 92
        0
 93
        4
 72
     4
 94
        3
 73
     1
 74
     0
 95
        8
 96
        4
 40
2.0
 40
2.0
 40
2.0
 40
2.0
 40
3.0
 40
3.0
 40
3.0
 40
3.0
 10
77.03221361313545
 20
45.73315597227772
 42
1.0
 10
73.42950263274702
 20
45.73315597227772
 42
1.0
 10
72.04887970624388
 20
42.56383828984087
 42
1.0
 10
72.04887970624385
 20
39.394520607404
 42
1.0
 72
     4
 94
        3
 73
     1
 74
     0
 95
        8
 96
        4
 40
3.0
 40
3.0
 40
3.0
 40
3.0
 40
4.0
 40
4.0
 40
4.0
 40
4.0
 10
72.04887970624385
 20
39.394520607404
 42
1.0
 10
72.04887970624388
 20
36.22554743474296
 42
1.0
 10
73.42950263274702
 20
33.05571298764242
 42
1.0
 10
77.03221361313545
 20
33.05571298764242
 42
1.0
 72
     4
 94
        3
 73
     1
 74
     0
 95
        8
 96
        4
 40
0.0
 40
0.0
 40
0.0
 40
0.0
 40
1.0
 40
1.0
 40
1.0
 40
1.0
 10
77.03221361313545
 20
33.05571298764242
 42
1.0
 10
80.63526910329966
 20
33.05571298764242
 42
1.0
 10
82.01537526513914
 20
36.22554743474296
 42
1.0
 10
82.01537526513914
 20
39.394520607404
 42
1.0
 72
     4
 94
        3
 73
     1
 74
     0
 95
        8
 96
        4
 40
1.0
 40
1.0
 40
1.0
 40
1.0
 40
2.0
 40
2.0
 40
2.0
 40
2.0
 10
82.01537526513914
 20
39.394520607404
 42
1.0
 10
82.01537526513914
 20
42.56383828984087
 42
1.0
 10
80.63526910329966
 20
45.73315597227772
 42
1.0
 10
77.03221361313545
 20
45.73315597227772
 42
1.0
 97
        0
 75
     0
 76
     1
 98
        1
 10
0.0
 20
0.0
  0
HATCH
  5
110
330
81
100
AcDbEntity
  8
0
  6
Continuous
 62
     7
100
AcDbHatch
 10
0.0
 20
0.0
 30
0.0
210
0.0
220
0.0
230
1.0
  2
SOLID
 70
     1
 71
     0
 91
        2
 92
        0
 93
       14
 72
     1
 10
106.3668527512702
 20
29.71530239194635
 11
106.3668527512702
 21
28.69835334337245
 72
     1
 10
106.3668527512702
 20
28.69835334337245
 11
101.1935454556174
 21
28.69835334337245
 72
     4
 94
        3
 73
     1
 74
     0
 95
        8
 96
        4
 40
7.0
 40
7.0
 40
7.0
 40
7.0
 40
8.0
 40
8.0
 40
8.0
 40
8.0
 10
101.1935454556174
 20
28.69835334337245
 42
1.0
 10
100.7139878477091
 20
29.41665622590745
 42
1.0
 10
100.6237262864505
 20
31.50920860409338
 42
1.0
 10
100.5634370756861
 20
32.10693306509975
 42
1.0
 72
     4
 94
        3
 73
     1
 74
     0
 95
        8
 96
        4
 40
8.0
 40
8.0
 40
8.0
 40
8.0
 40
9.0
 40
9.0
 40
9.0
 40
9.0
 10
100.5634370756861
 20
32.10693306509975
 42
1.0
 10
100.4134030683269
 20
34.26046367360161
 42
1.0
 10
100.0533903526199
 20
36.4729054537646
 42
1.0
 10
97.44200625208497
 20
36.4729054537646
 42
1.0
 72
     1
 10
97.44200625208497
 20
36.4729054537646
 11
93.20832561732585
 21
36.4729054537646
 72
     1
 10
93.20832561732585
 20
36.4729054537646
 11
93.20832561732585
 21
28.69835334337245
 72
     1
 10
93.20832561732585
 20
28.69835334337245
 11
87.62433891633366
 21
28.69835334337245
 72
     1
 10
87.62433891633366
 20
28.69835334337245
 11
87.62433891633366
 21
50.04710738479733
 72
     1
 10
87.62433891633366
 20
50.04710738479733
 11
98.55218900458812
 21
50.04710738479733
 72
     4
 94
        3
 73
     1
 74
     0
 95
        8
 96
        4
 40
1.0
 40
1.0
 40
1.0
 40
1.0
 40
2.0
 40
2.0
 40
2.0
 40
2.0
 10
98.55218900458812
 20
50.04710738479733
 42
1.0
 10
102.3342173232785
 20
50.04710738479733
 42
1.0
 10
106.0573344703076
 20
48.34264526904578
 42
1.0
 10
106.0573344703077
 20
44.03765111069685
 42
1.0
 72
     4
 94
        3
 73
     1
 74
     0
 95
        8
 96
        4
 40
2.0
 40
2.0
 40
2.0
 40
2.0
 40
3.0
 40
3.0
 40
3.0
 40
3.0
 10
106.0573344703077
 20
44.03765111069685
 42
1.0
 10
106.0573344703076
 20
41.73494776927527
 42
1.0
 10
104.9459459335892
 20
39.55265059449444
 42
1.0
 10
102.6945745487612
 20
38.68569174370337
 42
1.0
 72
     1
 10
102.6945745487612
 20
38.68569174370337
 11
102.6945745487612
 21
38.62574704271483
 72
     4
 94
        3
 73
     1
 74
     0
 95
        8
 96
        4
 40
4.0
 40
4.0
 40
4.0
 40
4.0
 40
5.0
 40
5.0
 40
5.0
 40
5.0
 10
102.6945745487612
 20
38.62574704271483
 42
1.0
 10
104.9766073036351
 20
38.08727826314542
 42
1.0
 10
105.6373770536121
 20
35.54548513732129
 42
1.0
 10
105.8175556663535
 20
33.5125329503481
 42
1.0
 72
     4
 94
        3
 73
     1
 74
     0
 95
        8
 96
        4
 40
5.0
 40
5.0
 40
5.0
 40
5.0
 40
5.74044267676188
 40
5.74044267676188
 40
5.74044267676188
 40
5.74044267676188
 10
105.8175556663535
 20
33.5125329503481
 42
1.0
 10
105.8808091746534
 20
32.85009942065996
 42
1.0
 10
105.9969739034398
 20
30.95908278298207
 42
1.0
 10
106.3668527512702
 20
29.71530239194635
 42
1.0
 97
        0
 92
        0
 93
        5
 72
     1
 10
97.65146820431197
 20
45.61378333496433
 11
93.20832562586878
 21
45.61378333496433
 72
     1
 10
93.20832562586878
 20
45.61378333496433
 11
93.20832562586878
 21
40.80029274754029
 72
     1
 10
93.20832562586878
 20
40.80029274754029
 11
97.89159151804188
 21
40.80029274754029
 72
     4
 94
        3
 73
     1
 74
     0
 95
        8
 96
        4
 40
1.0
 40
1.0
 40
1.0
 40
1.0
 40
2.0
 40
2.0
 40
2.0
 40
2.0
 10
97.89159151804188
 20
40.80029274754029
 42
1.0
 10
99.57279922392719
 20
40.80029274754029
 42
1.0
 10
100.4730032680826
 20
41.69670718416189
 42
1.0
 10
100.4730032680826
 20
43.31125224843066
 42
1.0
 72
     4
 94
        3
 73
     1
 74
     0
 95
        8
 96
        4
 40
2.0
 40
2.0
 40
2.0
 40
2.0
 40
3.0
 40
3.0
 40
3.0
 40
3.0
 10
100.4730032680826
 20
43.31125224843066
 42
1.0
 10
100.4730032680826
 20
44.89565270731723
 42
1.0
 10
99.21295876310808
 20
45.61378333496433
 42
1.0
 10
97.65146820431197
 20
45.61378333496433
 42
1.0
 97
        0
 75
     0
 76
     1
 98
        1
 10
0.0
 20
0.0
  0
HATCH
  5
111
330
81
100
AcDbEntity
  8
0
  6
Continuous
 62
     7
100
AcDbHatch
 10
0.0
 20
0.0
 30
0.0
210
0.0
220
0.0
230
1.0
  2
SOLID
 70
     1
 71
     0
 91
        5
 92
        0
 93
       23
 72
     4
 94
        3
 73
     1
 74
     0
 95
        8
 96
        4
 40
19.0
 40
19.0
 40
19.0
 40
19.0
 40
20.0
 40
20.0
 40
20.0
 40
20.0
 10
149.6765281642566
 20
28.76070961279156
 42
1.0
 10
152.520456363454
 20
28.8110080400578
 42
1.0
 10
155.173870656636
 20
30.15769675364504
 42
1.0
 10
155.9810570613264
 20
32.14345110133414
 42
1.0
 72
     4
 94
        3
 73
     1
 74
     0
 95
        8
 96
        4
 40
20.0
 40
20.0
 40
20.0
 40
20.0
 40
21.0
 40
21.0
 40
21.0
 40
21.0
 10
155.9810570613264
 20
32.14345110133414
 42
1.0
 10
156.7465577831456
 20
30.15769675364504
 42
1.0
 10
159.417886584669
 20
28.16367417133681
 42
1.0
 10
164.5948349855581
 20
28.16367417133681
 42
1.0
 72
     4
 94
        3
 73
     1
 74
     0
 95
        8
 96
        4
 40
21.0
 40
21.0
 40
21.0
 40
21.0
 40
22.0
 40
22.0
 40
22.0
 40
22.0
 10
164.5948349855581
 20
28.16367417133681
 42
1.0
 10
169.7717833864471
 20
28.16367417133681
 42
1.0
 10
173.6165124843323
 20
31.30629234614945
 42
1.0
 10
173.6165124843323
 20
35.44798887077101
 42
1.0
 72
     4
 94
        3
 73
     1
 74
     0
 95
        8
 96
        4
 40
22.0
 40
22.0
 40
22.0
 40
22.0
 40
23.0
 40
23.0
 40
23.0
 40
23.0
 10
173.6165124843323
 20
35.44798887077101
 42
1.0
 10
173.6165124843323
 20
39.66030989943075
 42
1.0
 10
171.193575231158
 20
41.15548232638614
 42
1.0
 10
167.3357547617924
 20
42.17058038076954
 42
1.0
 72
     4
 94
        3
 73
     1
 74
     0
 95
        8
 96
        4
 40
0.0
 40
0.0
 40
0.0
 40
0.0
 40
1.0
 40
1.0
 40
1.0
 40
1.0
 10
167.3357547617924
 20
42.17058038076954
 42
1.0
 10
167.2847673149745
 20
42.18401626202559
 42
1.0
 10
167.2406700636727
 20
42.19590184929056
 42
1.0
 10
167.189338107079
 20
42.2088209658829
 42
1.0
 72
     1
 10
167.189338107079
 20
42.2088209658829
 11
173.0691700759391
 21
42.16747979278733
 72
     4
 94
        3
 73
     1
 74
     0
 95
        8
 96
        4
 40
2.0
 40
2.0
 40
2.0
 40
2.0
 40
3.0
 40
3.0
 40
3.0
 40
3.0
 10
173.0691700759391
 20
42.16747979278733
 42
1.0
 10
173.0691700759391
 20
45.27185738248661
 42
1.0
 10
172.4597322825556
 20
50.25002364274127
 42
1.0
 10
164.1870190363622
 20
50.25002364274127
 42
1.0
 72
     4
 94
        3
 73
     1
 74
     0
 95
        8
 96
        4
 40
3.0
 40
3.0
 40
3.0
 40
3.0
 40
4.0
 40
4.0
 40
4.0
 40
4.0
 10
164.1870190363622
 20
50.25002364274127
 42
1.0
 10
159.3649157045433
 20
50.25002364274127
 42
1.0
 10
156.9760849191726
 20
47.90081148158718
 42
1.0
 10
156.0162806838046
 20
46.1898036800955
 42
1.0
 72
     4
 94
        3
 73
     1
 74
     0
 95
        8
 96
        4
 40
4.0
 40
4.0
 40
4.0
 40
4.0
 40
5.0
 40
5.0
 40
5.0
 40
5.0
 10
156.0162806838046
 20
46.1898036800955
 42
1.0
 10
155.1174546787523
 20
47.90081148158718
 42
1.0
 10
154.5865651142504
 20
50.04710738479733
 42
1.0
 10
147.7273754781487
 20
50.04710738479733
 42
1.0
 72
     1
 10
147.7273754781487
 20
50.04710738479733
 11
138.3041010399261
 21
50.04710738479733
 72
     1
 10
138.3041010399261
 20
50.04710738479733
 11
138.3041010399261
 21
36.75023582328049
 72
     1
 10
138.3041010399261
 20
36.75023582328049
 11
133.3762332069377
 21
50.04710738479733
 72
     1
 10
133.3762332069377
 20
50.04710738479733
 11
126.7834772195869
 21
50.04710738479733
 72
     1
 10
126.7834772195869
 20
50.04710738479733
 11
121.0416582836138
 21
34.83629659928359
 72
     1
 10
121.0416582836138
 20
34.83629659928359
 11
113.7338781065659
 21
34.79083121159394
 72
     1
 10
113.7338781065659
 20
34.79083121159394
 11
113.6389611147968
 21
50.04710738479733
 72
     1
 10
113.6389611147968
 20
50.04710738479733
 11
106.3849632756327
 21
50.04710738479733
 72
     1
 10
106.3849632756327
 20
50.04710738479733
 11
106.3718719041525
 21
28.69835334337245
 72
     1
 10
106.3718719041525
 20
28.69835334337245
 11
126.0705963744016
 21
28.76070961279156
 72
     1
 10
126.0705963744016
 20
28.76070961279156
 11
127.3401148982105
 21
31.90746190491377
 72
     1
 10
127.3401148982105
 20
31.90746190491377
 11
132.5163742795479
 21
31.90746190491377
 72
     1
 10
132.5163742795479
 20
31.90746190491377
 11
133.7345608467632
 21
28.76070961279156
 72
     1
 10
133.7345608467632
 20
28.76070961279156
 11
149.6765281642566
 21
28.76070961279156
 97
        0
 92
        0
 93
        4
 72
     4
 94
        3
 73
     1
 74
     0
 95
        8
 96
        4
 40
2.0
 40
2.0
 40
2.0
 40
2.0
 40
3.0
 40
3.0
 40
3.0
 40
3.0
 10
164.2398679641865
 20
44.24039511375292
 42
1.0
 10
165.3912196348973
 20
44.2062886459491
 42
1.0
 10
165.7515768603801
 20
43.97150523374403
 42
1.0
 10
165.8638870472897
 20
43.27628450618734
 42
1.0
 72
     4
 94
        3
 73
     1
 74
     0
 95
        8
 96
        4
 40
3.0
 40
3.0
 40
3.0
 40
3.0
 40
4.0
 40
4.0
 40
4.0
 40
4.0
 10
165.8638870472897
 20
43.27628450618734
 42
1.0
 10
165.9090178279189
 20
43.00205472465359
 42
1.0
 10
165.9138409647801
 20
42.83186689541027
 42
1.0
 10
165.9145299843317
 20
42.47392123835806
 42
1.0
 72
     4
 94
        3
 73
     1
 74
     0
 95
        8
 96
        4
 40
0.0
 40
0.0
 40
0.0
 40
0.0
 40
1.0
 40
1.0
 40
1.0
 40
1.0
 10
165.9145299843317
 20
42.47392123835806
 42
1.0
 10
163.2373445166196
 20
43.14743785003957
 42
1.0
 10
162.5142184972235
 20
43.26439891892237
 42
1.0
 10
162.5142184972235
 20
43.83439034297712
 42
1.0
 72
     4
 94
        3
 73
     1
 74
     0
 95
        8
 96
        4
 40
1.0
 40
1.0
 40
1.0
 40
1.0
 40
2.0
 40
2.0
 40
2.0
 40
2.0
 10
162.5142184972235
 20
43.83439034297712
 42
1.0
 10
162.5142184972235
 20
44.08794953796311
 42
1.0
 10
163.6817621273968
 20
44.25641481832745
 42
1.0
 10
164.2398679641865
 20
44.24039511375292
 42
1.0
 97
        0
 92
        0
 93
        3
 72
     4
 94
        3
 73
     1
 74
     0
 95
        8
 96
        4
 40
4.0
 40
4.0
 40
4.0
 40
4.0
 40
5.0
 40
5.0
 40
5.0
 40
5.0
 10
166.3251856370807
 20
35.10003399721688
 42
1.0
 10
166.0898854602119
 20
34.15642172131117
 42
1.0
 10
165.4012104183954
 20
33.89493880148186
 42
1.0
 10
163.6080370353763
 20
34.38448719288822
 42
1.0
 72
     4
 94
        3
 73
     1
 74
     0
 95
        8
 96
        4
 40
5.0
 40
5.0
 40
5.0
 40
5.0
 40
6.0
 40
6.0
 40
6.0
 40
6.0
 10
163.6080370353763
 20
34.38448719288822
 42
1.0
 10
161.7283916986325
 20
34.89884028815191
 42
1.0
 10
161.7046205241026
 20
35.93478118397098
 42
1.0
 10
161.7042760143268
 20
37.08957795243973
 42
1.0
 72
     4
 94
        3
 73
     1
 74
     0
 95
        8
 96
        4
 40
3.0
 40
3.0
 40
3.0
 40
3.0
 40
4.0
 40
4.0
 40
4.0
 40
4.0
 10
161.7042760143268
 20
37.08957795243973
 42
1.0
 10
164.0696801349432
 20
36.40710408658753
 42
1.0
 10
166.4492091563673
 20
35.59543905481176
 42
1.0
 10
166.3251856370807
 20
35.10003399721688
 42
1.0
 97
        0
 92
        0
 93
       32
 72
     4
 94
        3
 73
     1
 74
     0
 95
        8
 96
        4
 40
16.0
 40
16.0
 40
16.0
 40
16.0
 40
17.0
 40
17.0
 40
17.0
 40
17.0
 10
148.3259278908342
 20
48.98929011821522
 42
1.0
 10
151.6487246783881
 20
49.0430336432394
 42
1.0
 10
155.2970832040696
 20
48.18227596841268
 42
1.0
 10
155.2970832040696
 20
44.17218217814528
 42
1.0
 72
     4
 94
        3
 73
     1
 74
     0
 95
        8
 96
        4
 40
17.0
 40
17.0
 40
17.0
 40
17.0
 40
18.0
 40
18.0
 40
18.0
 40
18.0
 10
155.2970832040696
 20
44.17218217814528
 42
1.0
 10
155.2970832040696
 20
42.44963329916444
 42
1.0
 10
154.270444072197
 20
41.05092360943199
 42
1.0
 10
152.7570126271244
 20
40.29730847487787
 42
1.0
 72
     4
 94
        3
 73
     1
 74
     0
 95
        8
 96
        4
 40
18.0
 40
18.0
 40
18.0
 40
18.0
 40
19.0
 40
19.0
 40
19.0
 40
19.0
 10
152.7570126271244
 20
40.29730847487787
 42
1.0
 10
154.6566395308645
 20
39.74936567647406
 42
1.0
 10
155.8830943326989
 20
38.18925315678111
 42
1.0
 10
156.0567272597002
 20
36.23347115958625
 42
1.0
 72
     1
 10
156.0567272597002
 20
36.23347115958625
 11
160.8609160831777
 21
36.23347115958625
 72
     4
 94
        3
 73
     1
 74
     0
 95
        8
 96
        4
 40
20.0
 40
20.0
 40
20.0
 40
20.0
 40
21.0
 40
21.0
 40
21.0
 40
21.0
 10
160.8609160831777
 20
36.23347115958625
 42
1.0
 10
160.9684031332261
 20
33.9727980108118
 42
1.0
 10
162.3736585086987
 20
33.24622689365768
 42
1.0
 10
164.507896569756
 20
33.24622689365768
 42
1.0
 72
     4
 94
        3
 73
     1
 74
     0
 95
        8
 96
        4
 40
21.0
 40
21.0
 40
21.0
 40
21.0
 40
22.0
 40
22.0
 40
22.0
 40
22.0
 10
164.507896569756
 20
33.24622689365768
 42
1.0
 10
166.0209835050527
 20
33.24622689365768
 42
1.0
 10
167.5885029849253
 20
33.78504018300288
 42
1.0
 10
167.5885029849253
 20
35.21131065479903
 42
1.0
 72
     4
 94
        3
 73
     1
 74
     0
 95
        8
 96
        4
 40
22.0
 40
22.0
 40
22.0
 40
22.0
 40
23.0
 40
23.0
 40
23.0
 40
23.0
 10
167.5885029849253
 20
35.21131065479903
 42
1.0
 10
167.5885029849253
 20
36.90629875171619
 42
1.0
 10
164.8331137981075
 20
37.22910441163718
 42
1.0
 10
162.0491302998987
 20
38.00941905381552
 42
1.0
 72
     4
 94
        3
 73
     1
 74
     0
 95
        8
 96
        4
 40
23.0
 40
23.0
 40
23.0
 40
23.0
 40
24.0
 40
24.0
 40
24.0
 40
24.0
 10
162.0491302998987
 20
38.00941905381552
 42
1.0
 10
159.2930520935294
 20
38.78956144110593
 42
1.0
 10
156.4022705648237
 20
40.02772957531736
 42
1.0
 10
156.4022705648237
 20
43.55344262081537
 42
1.0
 72
     4
 94
        3
 73
     1
 74
     0
 95
        8
 96
        4
 40
24.0
 40
24.0
 40
24.0
 40
24.0
 40
25.0
 40
25.0
 40
25.0
 40
25.0
 10
156.4022705648237
 20
43.55344262081537
 42
1.0
 10
156.4022705648237
 20
47.75129423889168
 42
1.0
 10
160.6449084537535
 20
49.39253881078461
 42
1.0
 10
164.2646726680438
 20
49.39253881078461
 42
1.0
 72
     4
 94
        3
 73
     1
 74
     0
 95
        8
 96
        4
 40
25.0
 40
25.0
 40
25.0
 40
25.0
 40
26.0
 40
26.0
 40
26.0
 40
26.0
 10
164.2646726680438
 20
49.39253881078461
 42
1.0
 10
168.1018225508616
 20
49.39253881078461
 42
1.0
 10
171.9654996864157
 20
47.53614788390696
 42
1.0
 10
171.9930604684793
 20
43.20376519838225
 42
1.0
 72
     1
 10
171.9930604684793
 20
43.20376519838225
 11
166.9673518591648
 21
43.20376519838225
 72
     4
 94
        3
 73
     1
 74
     0
 95
        8
 96
        4
 40
27.0
 40
27.0
 40
27.0
 40
27.0
 40
28.0
 40
28.0
 40
28.0
 40
28.0
 10
166.9673518591648
 20
43.20376519838225
 42
1.0
 10
167.0486561662527
 20
44.9523245654357
 42
1.0
 10
165.3998323792922
 20
45.51766510751722
 42
1.0
 10
163.8591846619318
 20
45.51766510751722
 42
1.0
 72
     4
 94
        3
 73
     1
 74
     0
 95
        8
 96
        4
 40
28.0
 40
28.0
 40
28.0
 40
28.0
 40
29.0
 40
29.0
 40
29.0
 40
29.0
 10
163.8591846619318
 20
45.51766510751722
 42
1.0
 10
162.7794910245866
 20
45.51766510751722
 42
1.0
 10
161.4286681936898
 20
45.14094366768412
 42
1.0
 10
161.4286681936898
 20
43.87642053562427
 42
1.0
 72
     4
 94
        3
 73
     1
 74
     0
 95
        8
 96
        4
 40
29.0
 40
29.0
 40
29.0
 40
29.0
 40
30.0
 40
30.0
 40
30.0
 40
30.0
 10
161.4286681936898
 20
43.87642053562427
 42
1.0
 10
161.4286681936898
 20
42.39606202902813
 42
1.0
 10
164.2102401234681
 20
42.12665538435552
 42
1.0
 10
167.021095384189
 20
41.34634074217721
 42
1.0
 72
     4
 94
        3
 73
     1
 74
     0
 95
        8
 96
        4
 40
30.0
 40
30.0
 40
30.0
 40
30.0
 40
31.0
 40
31.0
 40
31.0
 40
31.0
 10
167.021095384189
 20
41.34634074217721
 42
1.0
 10
169.8047343726221
 20
40.56619835488677
 42
1.0
 10
172.6142115942398
 20
39.27428669565115
 42
1.0
 10
172.6142115942398
 20
35.80317844961686
 42
1.0
 72
     4
 94
        3
 73
     1
 74
     0
 95
        8
 96
        4
 40
31.0
 40
31.0
 40
31.0
 40
31.0
 40
32.0
 40
32.0
 40
32.0
 40
32.0
 10
172.6142115942398
 20
35.80317844961686
 42
1.0
 10
172.6142115942398
 20
30.93249923941061
 42
1.0
 10
168.4532225221737
 20
29.12313389692912
 42
1.0
 10
164.2102401234681
 20
29.12313389692912
 42
1.0
 72
     4
 94
        3
 73
     1
 74
     0
 95
        8
 96
        4
 40
0.0
 40
0.0
 40
0.0
 40
0.0
 40
1.0
 40
1.0
 40
1.0
 40
1.0
 10
164.2102401234681
 20
29.12313389692912
 42
1.0
 10
160.290752404235
 20
29.12313389692912
 42
1.0
 10
156.7767526911141
 20
30.89219159564247
 42
1.0
 10
155.9991941271422
 20
34.65217128868185
 42
1.0
 72
     4
 94
        3
 73
     1
 74
     0
 95
        8
 96
        4
 40
1.0
 40
1.0
 40
1.0
 40
1.0
 40
2.0
 40
2.0
 40
2.0
 40
2.0
 10
155.9991941271422
 20
34.65217128868185
 42
1.0
 10
155.4869080905333
 20
30.98107511779787
 42
1.0
 10
152.3484240330302
 20
29.69605365407815
 42
1.0
 10
148.569496302322
 20
29.69605365407815
 42
1.0
 72
     1
 10
148.569496302322
 20
29.69605365407815
 11
134.4690556887606
 21
29.69605365407815
 72
     1
 10
134.4690556887606
 20
29.69605365407815
 11
133.0327944334664
 21
32.97130809257236
 72
     1
 10
133.0327944334664
 20
32.97130809257236
 11
126.8013016088652
 21
32.97130809257236
 72
     1
 10
126.8013016088652
 20
32.97130809257236
 11
125.3367905519557
 21
29.72258090681447
 72
     1
 10
125.3367905519557
 20
29.72258090681447
 11
107.508409654504
 21
29.72258090681447
 72
     1
 10
107.508409654504
 20
29.72258090681447
 11
107.508409654504
 21
48.98929011821522
 72
     1
 10
107.508409654504
 20
48.98929011821522
 11
112.5348072833701
 21
48.98929011821522
 72
     1
 10
112.5348072833701
 20
48.98929011821522
 11
112.5348072833701
 21
34.08062957063601
 72
     1
 10
112.5348072833701
 20
34.08062957063601
 11
121.7804161364119
 21
34.08062957063601
 72
     1
 10
121.7804161364119
 20
34.08062957063601
 11
127.3904133254767
 21
48.98929011821522
 72
     1
 10
127.3904133254767
 20
48.98929011821522
 11
132.4970817321033
 21
48.98929011821522
 72
     1
 10
132.4970817321033
 20
48.98929011821522
 11
139.3018388236293
 21
31.02758393753034
 72
     1
 10
139.3018388236293
 20
31.02758393753034
 11
139.3018388236293
 21
48.98929011821522
 72
     1
 10
139.3018388236293
 20
48.98929011821522
 11
148.3259278908342
 21
48.98929011821522
 97
        0
 92
        0
 93
        5
 72
     4
 94
        3
 73
     1
 74
     0
 95
        8
 96
        4
 40
8.0
 40
8.0
 40
8.0
 40
8.0
 40
9.0
 40
9.0
 40
9.0
 40
9.0
 10
156.7116403434886
 20
37.12781853755313
 42
1.0
 10
156.7116403434886
 20
38.5878509673773
 42
1.0
 10
155.4507345640747
 20
39.84892900167915
 42
1.0
 10
154.6542279624339
 20
40.37981856618105
 42
1.0
 72
     4
 94
        3
 73
     1
 74
     0
 95
        8
 96
        4
 40
9.0
 40
9.0
 40
9.0
 40
9.0
 40
10.0
 40
10.0
 40
10.0
 40
10.0
 10
154.6542279624339
 20
40.37981856618105
 42
1.0
 10
155.0517922437027
 20
40.8442177439543
 42
1.0
 10
155.649516704709
 20
41.30913368639121
 42
1.0
 10
155.8493323746708
 20
42.10546803314405
 42
1.0
 72
     4
 94
        3
 73
     1
 74
     0
 95
        8
 96
        4
 40
10.0
 40
10.0
 40
10.0
 40
10.0
 40
11.0
 40
11.0
 40
11.0
 40
11.0
 10
155.8493323746708
 20
42.10546803314405
 42
1.0
 10
155.8493323746708
 20
39.84892900167915
 42
1.0
 10
157.9732351424542
 20
38.12293502494035
 42
1.0
 10
160.6276829649637
 20
37.39343557469195
 42
1.0
 72
     4
 94
        3
 73
     1
 74
     0
 95
        8
 96
        4
 40
0.0
 40
0.0
 40
0.0
 40
0.0
 40
1.0
 40
1.0
 40
1.0
 40
1.0
 10
160.6276829649637
 20
37.39343557469195
 42
1.0
 10
160.938086272956
 20
37.30765264051871
 42
1.0
 10
161.2550352666885
 20
37.2187691183633
 42
1.0
 10
161.5726732799726
 20
37.12781853755313
 42
1.0
 72
     1
 10
161.5726732799726
 20
37.12781853755313
 11
156.7116403434886
 21
37.12781853755313
 97
        0
 75
     0
 76
     1
 98
        1
 10
0.0
 20
0.0
  0
HATCH
  5
112
330
81
100
AcDbEntity
  8
0
  6
Continuous
 62
     7
100
AcDbHatch
 10
0.0
 20
0.0
 30
0.0
210
0.0
220
0.0
230
1.0
  2
SOLID
 70
     1
 71
     0
 91
        2
 92
        0
 93
        4
 72
     1
 10
130.3745570034231
 20
43.91311082674656
 11
132.8105856280779
 21
36.20212076998882
 72
     1
 10
132.8105856280779
 20
36.20212076998882
 11
127.0700192339863
 21
36.20212076998882
 72
     1
 10
127.0700192339863
 20
36.20212076998882
 11
129.5897637341595
 21
43.91311082674656
 72
     1
 10
129.5897637341595
 20
43.91311082674656
 11
130.3745570034231
 21
43.91311082674656
 97
        0
 92
        0
 93
        3
 72
     1
 10
128.4229091235378
 20
37.23013794096457
 11
131.3867267247123
 21
37.23013794096457
 72
     1
 10
131.3867267247123
 20
37.23013794096457
 11
129.9297948828703
 21
41.88205344354024
 72
     1
 10
129.9297948828703
 20
41.88205344354024
 11
128.4229091235378
 21
37.23013794096457
 97
        0
 75
     0
 76
     1
 98
        1
 10
0.0
 20
0.0
  0
HATCH
  5
113
330
81
100
AcDbEntity
  8
0
  6
Continuous
 62
     7
100
AcDbHatch
 10
0.0
 20
0.0
 30
0.0
210
0.0
220
0.0
230
1.0
  2
SOLID
 70
     1
 71
     0
 91
        2
 92
        0
 93
        5
 72
     4
 94
        3
 73
     1
 74
     0
 95
        8
 96
        4
 40
2.0
 40
2.0
 40
2.0
 40
2.0
 40
3.0
 40
3.0
 40
3.0
 40
3.0
 10
150.7168257348595
 20
43.00515531263576
 42
1.0
 10
150.7168257348595
 20
41.26865378773517
 42
1.0
 10
149.3504999640519
 20
40.68918834484602
 42
1.0
 10
148.3552112217768
 20
40.68918834484602
 42
1.0
 72
     1
 10
148.3552112217768
 20
40.68918834484602
 11
143.8820962928393
 21
40.68918834484602
 72
     1
 10
143.8820962928393
 20
40.68918834484602
 11
143.8820962928393
 21
45.35557325800512
 72
     1
 10
143.8820962928393
 20
45.35557325800512
 11
148.3552112217768
 21
45.35557325800512
 72
     4
 94
        3
 73
     1
 74
     0
 95
        8
 96
        4
 40
1.0
 40
1.0
 40
1.0
 40
1.0
 40
2.0
 40
2.0
 40
2.0
 40
2.0
 10
148.3552112217768
 20
45.35557325800512
 42
1.0
 10
149.5682301423551
 20
45.35557325800512
 42
1.0
 10
150.7168257348595
 20
44.77576330534016
 42
1.0
 10
150.7168257348595
 20
43.00515531263576
 42
1.0
 97
        0
 92
        0
 93
        5
 72
     1
 10
144.861193075652
 20
44.33186245922681
 11
144.861193075652
 21
41.63848503205236
 72
     1
 10
144.861193075652
 20
41.63848503205236
 11
147.9838296834685
 21
41.63848503205236
 72
     4
 94
        3
 73
     1
 74
     0
 95
        8
 96
        4
 40
2.0
 40
2.0
 40
2.0
 40
2.0
 40
3.0
 40
3.0
 40
3.0
 40
3.0
 10
147.9838296834685
 20
41.63848503205236
 42
1.0
 10
148.6783613914736
 20
41.63848503205236
 42
1.0
 10
149.6316199411016
 20
41.97300402435042
 42
1.0
 10
149.6316199411016
 20
42.9753552170294
 42
1.0
 72
     4
 94
        3
 73
     1
 74
     0
 95
        8
 96
        4
 40
3.0
 40
3.0
 40
3.0
 40
3.0
 40
4.0
 40
4.0
 40
4.0
 40
4.0
 10
149.6316199411016
 20
42.9753552170294
 42
1.0
 10
149.6316199411016
 20
43.99734346692872
 42
1.0
 10
148.8296011830481
 20
44.33186245922681
 42
1.0
 10
147.9838296834685
 20
44.33186245922681
 42
1.0
 72
     1
 10
147.9838296834685
 20
44.33186245922681
 11
144.861193075652
 21
44.33186245922681
 97
        0
 75
     0
 76
     1
 98
        1
 10
0.0
 20
0.0
  0
HATCH
  5
114
330
81
100
AcDbEntity
  8
0
  6
Continuous
 62
     7
100
AcDbHatch
 10
0.0
 20
0.0
 30
0.0
210
0.0
220
0.0
230
1.0
  2
SOLID
 70
     1
 71
     0
 91
        2
 92
        0
 93
        5
 72
     4
 94
        3
 73
     1
 74
     0
 95
        8
 96
        4
 40
2.0
 40
2.0
 40
2.0
 40
2.0
 40
3.0
 40
3.0
 40
3.0
 40
3.0
 10
151.4726801829563
 20
35.74943492459264
 42
1.0
 10
151.4726801829563
 20
33.74748861744111
 42
1.0
 10
149.9558036401258
 20
33.07982867194814
 42
1.0
 10
148.8506162793717
 20
33.07982867194814
 42
1.0
 72
     1
 10
148.8506162793717
 20
33.07982867194814
 11
143.8820962928393
 21
33.07982867194814
 72
     1
 10
143.8820962928393
 20
33.07982867194814
 11
143.8820962928393
 21
38.45762627212632
 72
     1
 10
143.8820962928393
 20
38.45762627212632
 11
148.8506162793717
 21
38.45762627212632
 72
     4
 94
        3
 73
     1
 74
     0
 95
        8
 96
        4
 40
1.0
 40
1.0
 40
1.0
 40
1.0
 40
2.0
 40
2.0
 40
2.0
 40
2.0
 10
148.8506162793717
 20
38.45762627212632
 42
1.0
 10
150.1973049929589
 20
38.45762627212632
 42
1.0
 10
151.4726801829563
 20
37.78979407174546
 42
1.0
 10
151.4726801829563
 20
35.74943492459264
 42
1.0
 97
        0
 92
        0
 93
        5
 72
     1
 10
144.8353548424673
 20
33.99588016579015
 11
148.5660512045641
 21
33.99588016579015
 72
     4
 94
        3
 73
     1
 74
     0
 95
        8
 96
        4
 40
2.0
 40
2.0
 40
2.0
 40
2.0
 40
3.0
 40
3.0
 40
3.0
 40
3.0
 10
148.5660512045641
 20
33.99588016579015
 42
1.0
 10
149.395975254457
 20
33.99588016579015
 42
1.0
 10
150.5349245732392
 20
34.42513934643217
 42
1.0
 10
150.5349245732392
 20
35.71326139813404
 42
1.0
 72
     4
 94
        3
 73
     1
 74
     0
 95
        8
 96
        4
 40
3.0
 40
3.0
 40
3.0
 40
3.0
 40
4.0
 40
4.0
 40
4.0
 40
4.0
 10
150.5349245732392
 20
35.71326139813404
 42
1.0
 10
150.5349245732392
 20
37.02618815369325
 42
1.0
 10
149.5771873965258
 20
37.45613635388687
 42
1.0
 10
148.5660512045641
 20
37.45613635388687
 42
1.0
 72
     1
 10
148.5660512045641
 20
37.45613635388687
 11
144.8353548424673
 21
37.45613635388687
 72
     1
 10
144.8353548424673
 20
37.45613635388687
 11
144.8353548424673
 21
33.99588016579015
 97
        0
 75
     0
 76
     1
 98
        1
 10
0.0
 20
0.0
  0
ENDBLK
  5
83
330
81
100
AcDbEntity
  8
0
100
AcDbBlockEnd
  0
BLOCK
  5
130
330
12F
100
AcDbEntity
  8
0
100
AcDbBlockBegin
  2
SW_NOTE_0
 70
     0
 10
0.0
 20
0.0
 30
0.0
  3
SW_NOTE_0
  1

  0
MTEXT
  5
133
330
12F
100
AcDbEntity
  8
0
  6
Continuous
 62
     0
370
     0
100
AcDbMText
 10
0.0
 20
3.4106583948
 30
0.0
 40
2.6458333333
 41
0.0
 71
     1
 72
     1
  1
NOTES/SPECIFICATIONS:
  7
SLDTEXTSTYLE0
 73
     1
 44
1.0
  0
MTEXT
  5
134
330
12F
100
AcDbEntity
  8
0
  6
Continuous
 62
     0
370
     0
100
AcDbMText
 10
0.0
 20
-1.1171195042
 30
0.0
 40
2.6458333333
 41
0.0
 71
     1
 72
     1
  1
1. DESIGN WAVELENGTH: 587.6 nm
  7
SLDTEXTSTYLE0
 73
     1
 44
1.0
  0
MTEXT
  5
135
330
12F
100
AcDbEntity
  8
0
  6
Continuous
 62
     0
370
     0
100
AcDbMText
 10
0.0
 20
-5.6448974033
 30
0.0
 40
2.6458333333
 41
0.0
 71
     1
 72
     1
  1
2. FOCAL LENGTH: f=75.3 mm ± 1%
  7
SLDTEXTSTYLE0
 73
     1
 44
1.0
  0
MTEXT
  5
136
330
12F
100
AcDbEntity
  8
0
  6
Continuous
 62
     0
370
     0
100
AcDbMText
 10
0.0
 20
-10.1726753024
 30
0.0
 40
2.6458333333
 41
0.0
 71
     1
 72
     1
  1
3. BACK FOCAL LENGTH(REF): bf=65.6 mm
  7
SLDTEXTSTYLE0
 73
     1
 44
1.0
  0
MTEXT
  5
137
330
12F
100
AcDbEntity
  8
0
  6
Continuous
 62
     0
370
     0
100
AcDbMText
 10
0.0
 20
-14.7004532014
 30
0.0
 40
2.6458333333
 41
0.0
 71
     1
 72
     1
  1
4. CLEAR APERTURE: >
  7
SLDTEXTSTYLE0
 73
     1
 44
1.0
  0
MTEXT
  5
138
330
12F
100
AcDbEntity
  8
0
  6
Continuous
 62
     0
370
     0
100
AcDbMText
 10
36.6839878261
 20
-14.7004532014
 30
0.0
 40
2.6458333333
 41
0.0
 71
     1
 72
     1
  1
%%c
  7
SLDTEXTSTYLE0
 73
     1
 44
1.0
  0
MTEXT
  5
139
330
12F
100
AcDbEntity
  8
0
  6
Continuous
 62
     0
370
     0
100
AcDbMText
 10
40.6777262688
 20
-14.7004532014
 30
0.0
 40
2.6458333333
 41
0.0
 71
     1
 72
     1
  1
45.72 mm
  7
SLDTEXTSTYLE0
 73
     1
 44
1.0
  0
MTEXT
  5
13A
330
12F
100
AcDbEntity
  8
0
  6
Continuous
 62
     0
370
     0
100
AcDbMText
 10
0.0
 20
-19.2282311005
 30
0.0
 40
2.6458333333
 41
0.0
 71
     1
 72
     1
  1
5. SURFACE QUALITY: 40-20 SCRATCH-DIG
  7
SLDTEXTSTYLE0
 73
     1
 44
1.0
  0
MTEXT
  5
13B
330
12F
100
AcDbEntity
  8
0
  6
Continuous
 62
     0
370
     0
100
AcDbMText
 10
0.0
 20
-23.7560089995
 30
0.0
 40
2.6458333333
 41
0.0
 71
     1
 72
     1
  1
6. CENTRATION: <3 arcmin
  7
SLDTEXTSTYLE0
 73
     1
 44
1.0
  0
MTEXT
  5
13C
330
12F
100
AcDbEntity
  8
0
  6
Continuous
 62
     0
370
     0
100
AcDbMText
 10
0.0
 20
-28.2837868986
 30
0.0
 40
2.6458333333
 41
0.0
 71
     1
 72
     1
  1
7. DIAMETER TOLERANCE: +0.0/-0.1 mm
  7
SLDTEXTSTYLE0
 73
     1
 44
1.0
  0
MTEXT
  5
13D
330
12F
100
AcDbEntity
  8
0
  6
Continuous
 62
     0
370
     0
100
AcDbMText
 10
0.0
 20
-32.8115647976
 30
0.0
 40
2.6458333333
 41
0.0
 71
     1
 72
     1
  1
8. THICKNESS TOLERANCE: ±0.1 mm
  7
SLDTEXTSTYLE0
 73
     1
 44
1.0
  0
MTEXT
  5
13E
330
12F
100
AcDbEntity
  8
0
  6
Continuous
 62
     0
370
     0
100
AcDbMText
 10
0.0
 20
-37.3393426967
 30
0.0
 40
2.6458333333
 41
0.0
 71
     1
 72
     1
  1
9. COATING: BBAR Ravg <0.5% FROM 350-700 nm, AOI: 0
  7
SLDTEXTSTYLE0
 73
     1
 44
1.0
  0
MTEXT
  5
13F
330
12F
100
AcDbEntity
  8
0
  6
Continuous
 62
     0
370
     0
100
AcDbMText
 10
95.5537855625
 20
-37.3393426967
 30
0.0
 40
2.6458333333
 41
0.0
 71
     1
 72
     1
  1
%%d
  7
SLDTEXTSTYLE0
 73
     1
 44
1.0
  0
ENDBLK
  5
131
330
12F
100
AcDbEntity
  8
0
100
AcDbBlockEnd
  0
BLOCK
  5
153
330
152
100
AcDbEntity
  8
0
100
AcDbBlockBegin
  2
SW_NOTE_1
 70
     0
 10
0.0
 20
0.0
 30
0.0
  3
SW_NOTE_1
  1

  0
MTEXT
  5
155
330
152
100
AcDbEntity
  8
0
  6
Continuous
 62
     0
370
     0
100
AcDbMText
 10
19.90725
 20
1.9645392354
 30
0.0
 40
1.524
 41
0.0
 71
     2
 72
     1
  1
VALUES IN PARENTHESIS ARE CALCULATED
  7
SLDTEXTSTYLE0
 73
     1
 44
1.0
  0
MTEXT
  5
156
330
152
100
AcDbEntity
  8
0
  6
Continuous
 62
     0
370
     0
100
AcDbMText
 10
19.8778795174
 20
-0.5594606586
 30
0.0
 40
1.524
 41
0.0
 71
     2
 72
     1
  1
AND MAY CONTAIN ROUNDOFF ERRORS
  7
SLDTEXTSTYLE0
 73
     1
 44
1.0
  0
ENDBLK
  5
154
330
152
100
AcDbEntity
  8
0
100
AcDbBlockEnd
  0
BLOCK
  5
159
330
158
100
AcDbEntity
  8
0
100
AcDbBlockBegin
  2
SW_NOTE_2
 70
     0
 10
0.0
 20
0.0
 30
0.0
  3
SW_NOTE_2
  1

  0
MTEXT
  5
15B
330
158
100
AcDbEntity
  8
0
  6
Continuous
 62
     0
370
     0
100
AcDbMText
 10
0.0
 20
2.7285267159
 30
0.0
 40
2.1166666667
 41
0.0
 71
     1
 72
     1
  1
DRAWING
  7
SLDTEXTSTYLE0
 73
     1
 44
1.0
  0
MTEXT
  5
15C
330
158
100
AcDbEntity
  8
0
  6
Continuous
 62
     0
370
     0
100
AcDbMText
 10
0.0
 20
-0.0936954723
 30
0.0
 40
2.1166666667
 41
0.0
 71
     1
 72
     1
  1
PROJECTION
  7
SLDTEXTSTYLE0
 73
     1
 44
1.0
  0
ENDBLK
  5
15A
330
158
100
AcDbEntity
  8
0
100
AcDbBlockEnd
  0
BLOCK
  5
160
330
15F
100
AcDbEntity
  8
0
100
AcDbBlockBegin
  2
SW_NOTE_3
 70
     0
 10
0.0
 20
0.0
 30
0.0
  3
SW_NOTE_3
  1

  0
MTEXT
  5
162
330
15F
100
AcDbEntity
  8
0
  6
Continuous
 62
     0
370
     0
100
AcDbMText
 10
25.052734375
 20
4.0927900738
 30
0.0
 40
3.175
 41
0.0
 71
     2
 72
     1
  1
FOR INFORMATION ONLY
  7
SLDTEXTSTYLE0
 73
     1
 44
1.0
  0
MTEXT
  5
163
330
15F
100
AcDbEntity
  8
0
  6
Continuous
 62
     0
370
     0
100
AcDbMText
 10
25.3768468589
 20
-0.1405432084
 30
0.0
 40
3.175
 41
0.0
 71
     2
 72
     1
  1
NOT FOR MANUFACTURING PURPOSES
  7
SLDTEXTSTYLE0
 73
     1
 44
1.0
  0
ENDBLK
  5
161
330
15F
100
AcDbEntity
  8
0
100
AcDbBlockEnd
  0
BLOCK
  5
166
330
165
100
AcDbEntity
  8
0
100
AcDbBlockBegin
  2
SW_NOTE_4
 70
     0
 10
0.0
 20
0.0
 30
0.0
  3
SW_NOTE_4
  1

  0
MTEXT
  5
168
330
165
100
AcDbEntity
  8
0
  6
Continuous
 62
     0
370
     0
100
AcDbMText
 10
1.7115234375
 20
3.0695925553
 30
0.0
 40
2.38125
 41
0.0
 71
     2
 72
     1
  1
%%c
  7
SLDTEXTSTYLE0
 73
     1
 44
1.0
  0
MTEXT
  5
169
330
165
100
AcDbEntity
  8
0
  6
Continuous
 62
     0
370
     0
100
AcDbMText
 10
28.2254191928
 20
3.0695925553
 30
0.0
 40
2.38125
 41
0.0
 71
     2
 72
     1
  1
50.8 mm f=75.3 mm FUSED SILICA
  7
SLDTEXTSTYLE0
 73
     1
 44
1.0
  0
MTEXT
  5
16A
330
165
100
AcDbEntity
  8
0
  6
Continuous
 62
     0
370
     0
100
AcDbMText
 10
26.8149147332
 20
-0.1054074063
 30
0.0
 40
2.38125
 41
0.0
 71
     2
 72
     1
  1
PLANO CONVEX LENS, -A COAT
  7
SLDTEXTSTYLE0
 73
     1
 44
1.0
  0
ENDBLK
  5
167
330
165
100
AcDbEntity
  8
0
100
AcDbBlockEnd
  0
BLOCK
  5
172
330
171
100
AcDbEntity
  8
0
100
AcDbBlockBegin
  2
_D
 70
     0
 10
0.0
 20
0.0
 30
0.0
  3
_D
  1

  0
SOLID
  5
174
330
171
100
AcDbEntity
  8
0
  6
Continuous
 62
     7
370
    18
100
AcDbTrace
 10
84.2403595078
 20
156.0959694346
 30
0.0
 11
86.8674474521
 21
157.9499106238
 31
0.0
 12
86.1578451868
 22
158.6770424035
 32
0.0
 13
86.1578451868
 23
158.6770424035
 33
0.0
  0
LINE
  5
175
330
171
100
AcDbEntity
  8
0
  6
Continuous
 62
     7
370
    18
100
AcDbLine
 10
104.5820287953
 20
169.4026142422
 30
0.0
 11
103.9382093412
 21
169.4026142422
 31
0.0
  0
LINE
  5
176
330
171
100
AcDbEntity
  8
0
  6
Continuous
 62
     7
370
    18
100
AcDbLine
 10
103.9382093412
 20
169.4026142422
 30
0.0
 11
103.9382093412
 21
166.0394661657
 31
0.0
  0
LINE
  5
177
330
171
100
AcDbEntity
  8
0
  6
Continuous
 62
     7
370
    18
100
AcDbLine
 10
103.9382093412
 20
166.0394661657
 30
0.0
 11
104.5820287953
 21
166.0394661657
 31
0.0
  0
LINE
  5
178
330
171
100
AcDbEntity
  8
0
  6
Continuous
 62
     7
370
    18
100
AcDbLine
 10
112.3392203416
 20
169.4026142422
 30
0.0
 11
112.9830397957
 21
169.4026142422
 31
0.0
  0
LINE
  5
179
330
171
100
AcDbEntity
  8
0
  6
Continuous
 62
     7
370
    18
100
AcDbLine
 10
112.9830397957
 20
169.4026142422
 30
0.0
 11
112.9830397957
 21
166.0394661657
 31
0.0
  0
LINE
  5
17A
330
171
100
AcDbEntity
  8
0
  6
Continuous
 62
     7
370
    18
100
AcDbLine
 10
112.9830397957
 20
166.0394661657
 30
0.0
 11
112.3392203416
 21
166.0394661657
 31
0.0
  0
LINE
  5
17B
330
171
100
AcDbEntity
  8
0
  6
Continuous
 62
     7
370
    18
100
AcDbLine
 10
84.2403595078
 20
156.0959694346
 30
0.0
 11
99.4843898871
 21
170.9725004715
 31
0.0
  0
LINE
  5
17C
330
171
100
AcDbEntity
  8
0
  6
Continuous
 62
     7
370
    18
100
AcDbLine
 10
99.4843898871
 20
170.9725004715
 30
0.0
 11
103.2943898871
 21
170.9725004715
 31
0.0
  0
MTEXT
  5
17D
330
171
100
AcDbEntity
  8
0
  6
Continuous
 62
     7
370
    18
100
AcDbMText
 10
103.2943898871
 20
172.5603538886
 30
0.0
 40
2.1166666667
 41
0.0
 71
     1
 72
     1
  1
%%c
  7
SLDTEXTSTYLE0
 73
     1
 44
1.0
  0
MTEXT
  5
17E
330
171
100
AcDbEntity
  8
0
  6
Continuous
 62
     7
370
    18
100
AcDbMText
 10
106.4893806878
 20
172.5603538886
 30
0.0
 40
2.1166666667
 41
0.0
 71
     1
 72
     1
  1
50.8mm
  7
SLDTEXTSTYLE0
 73
     1
 44
1.0
  0
MTEXT
  5
17F
330
171
100
AcDbEntity
  8
0
  6
Continuous
 62
     7
370
    18
100
AcDbMText
 10
104.5820287953
 20
168.7679927651
 30
0.0
 40
2.1166666667
 41
0.0
 71
     1
 72
     1
  1
2.00in
  7
SLDTEXTSTYLE0
 73
     1
 44
1.0
  0
ENDBLK
  5
173
330
171
100
AcDbEntity
  8
0
100
AcDbBlockEnd
  0
BLOCK
  5
1E6
330
1E5
100
AcDbEntity
  8
0
100
AcDbBlockBegin
  2
SW_NOTE_5
 70
     0
 10
0.0
 20
0.0
 30
0.0
  3
SW_NOTE_5
  1

  0
MTEXT
  5
1E8
330
1E5
100
AcDbEntity
  8
0
  6
Continuous
 62
     0
370
     0
100
AcDbMText
 10
11.01328125
 20
2.7285267159
 30
0.0
 40
2.1166666667
 41
0.0
 71
     2
 72
     1
  1
ISOMETRIC VIEW
  7
SLDTEXTSTYLE0
 73
     1
 44
1.0
  0
MTEXT
  5
1E9
330
1E5
100
AcDbEntity
  8
0
  6
Continuous
 62
     0
370
     0
100
AcDbMText
 10
10.8150885594
 20
-1.0936954033
 30
0.0
 40
2.1166666667
 41
0.0
 71
     2
 72
     1
  1
SCALE: 1:1
  7
SLDTEXTSTYLE0
 73
     1
 44
1.0
  0
ENDBLK
  5
1E7
330
1E5
100
AcDbEntity
  8
0
100
AcDbBlockEnd
  0
BLOCK
  5
1FA
330
1F9
100
AcDbEntity
  8
0
100
AcDbBlockBegin
  2
_D_1
 70
     0
 10
0.0
 20
0.0
 30
0.0
  3
_D_1
  1

  0
SOLID
  5
1FC
330
1F9
100
AcDbEntity
  8
0
  6
Continuous
 62
     7
370
    18
100
AcDbTrace
 10
181.5332977754
 20
173.755898663
 30
0.0
 11
178.3582977754
 21
174.263898663
 31
0.0
 12
178.3582977754
 22
173.247898663
 32
0.0
 13
178.3582977754
 23
173.247898663
 33
0.0
  0
SOLID
  5
1FD
330
1F9
100
AcDbEntity
  8
0
  6
Continuous
 62
     7
370
    18
100
AcDbTrace
 10
184.4928814109
 20
173.755898663
 30
0.0
 11
187.6678814109
 21
173.247898663
 31
0.0
 12
187.6678814109
 22
174.263898663
 32
0.0
 13
187.6678814109
 23
174.263898663
 33
0.0
  0
LINE
  5
1FE
330
1F9
100
AcDbEntity
  8
0
  6
Continuous
 62
     7
370
    18
100
AcDbLine
 10
198.5380462241
 20
175.7079354126
 30
0.0
 11
197.89422677
 21
175.7079354126
 31
0.0
  0
LINE
  5
1FF
330
1F9
100
AcDbEntity
  8
0
  6
Continuous
 62
     7
370
    18
100
AcDbLine
 10
197.89422677
 20
175.7079354126
 30
0.0
 11
197.89422677
 21
172.3447873361
 31
0.0
  0
LINE
  5
200
330
1F9
100
AcDbEntity
  8
0
  6
Continuous
 62
     7
370
    18
100
AcDbLine
 10
197.89422677
 20
172.3447873361
 30
0.0
 11
198.5380462241
 21
172.3447873361
 31
0.0
  0
LINE
  5
201
330
1F9
100
AcDbEntity
  8
0
  6
Continuous
 62
     7
370
    18
100
AcDbLine
 10
206.2952377704
 20
175.7079354126
 30
0.0
 11
206.9390572245
 21
175.7079354126
 31
0.0
  0
LINE
  5
202
330
1F9
100
AcDbEntity
  8
0
  6
Continuous
 62
     7
370
    18
100
AcDbLine
 10
206.9390572245
 20
175.7079354126
 30
0.0
 11
206.9390572245
 21
172.3447873361
 31
0.0
  0
LINE
  5
203
330
1F9
100
AcDbEntity
  8
0
  6
Continuous
 62
     7
370
    18
100
AcDbLine
 10
206.9390572245
 20
172.3447873361
 30
0.0
 11
206.2952377704
 21
172.3447873361
 31
0.0
  0
LINE
  5
204
330
1F9
100
AcDbEntity
  8
0
  6
Continuous
 62
     7
370
    18
100
AcDbLine
 10
181.5332977754
 20
164.9246994258
 30
0.0
 11
181.5332977754
 21
175.533898663
 31
0.0
  0
LINE
  5
205
330
1F9
100
AcDbEntity
  8
0
  6
Continuous
 62
     7
370
    18
100
AcDbLine
 10
184.4928814109
 20
165.0259128026
 30
0.0
 11
184.4928814109
 21
175.533898663
 31
0.0
  0
LINE
  5
206
330
1F9
100
AcDbEntity
  8
0
  6
Continuous
 62
     7
370
    18
100
AcDbLine
 10
181.5332977754
 20
173.755898663
 30
0.0
 11
175.1832977754
 21
173.755898663
 31
0.0
  0
LINE
  5
207
330
1F9
100
AcDbEntity
  8
0
  6
Continuous
 62
     7
370
    18
100
AcDbLine
 10
184.4928814109
 20
173.755898663
 30
0.0
 11
196.8207912754
 21
173.755898663
 31
0.0
  0
MTEXT
  5
208
330
1F9
100
AcDbEntity
  8
0
  6
Continuous
 62
     7
370
    18
100
AcDbMText
 10
197.8168116287
 20
178.865675059
 30
0.0
 40
2.1166666667
 41
0.0
 71
     1
 72
     1
  1
3.0mm
  7
SLDTEXTSTYLE0
 73
     1
 44
1.0
  0
MTEXT
  5
209
330
1F9
100
AcDbEntity
  8
0
  6
Continuous
 62
     7
370
    18
100
AcDbMText
 10
198.5380462241
 20
175.0733139355
 30
0.0
 40
2.1166666667
 41
0.0
 71
     1
 72
     1
  1
0.12in
  7
SLDTEXTSTYLE0
 73
     1
 44
1.0
  0
MTEXT
  5
20A
330
1F9
100
AcDbEntity
  8
0
  6
Continuous
 62
     7
370
    18
100
AcDbMText
 10
200.1196664163
 20
171.2809530449
 30
0.0
 40
2.1166666667
 41
0.0
 71
     1
 72
     1
  1
REF
  7
SLDTEXTSTYLE0
 73
     1
 44
1.0
  0
ENDBLK
  5
1FB
330
1F9
100
AcDbEntity
  8
0
100
AcDbBlockEnd
  0
BLOCK
  5
20E
330
20D
100
AcDbEntity
  8
0
100
AcDbBlockBegin
  2
_D_2
 70
     0
 10
0.0
 20
0.0
 30
0.0
  3
_D_2
  1

  0
SOLID
  5
210
330
20D
100
AcDbEntity
  8
0
  6
Continuous
 62
     7
370
    18
100
AcDbTrace
 10
175.4772177479
 20
156.2196088734
 30
0.0
 11
173.0237747055
 21
158.2979029426
 31
0.0
 12
172.4978017937
 22
157.4286455032
 32
0.0
 13
172.4978017937
 23
157.4286455032
 33
0.0
  0
LINE
  5
211
330
20D
100
AcDbEntity
  8
0
  6
Continuous
 62
     7
370
    18
100
AcDbLine
 10
146.1213433866
 20
163.3368623554
 30
0.0
 11
145.4775239325
 21
163.3368623554
 31
0.0
  0
LINE
  5
212
330
20D
100
AcDbEntity
  8
0
  6
Continuous
 62
     7
370
    18
100
AcDbLine
 10
145.4775239325
 20
163.3368623554
 30
0.0
 11
145.4775239325
 21
159.9737142789
 31
0.0
  0
LINE
  5
213
330
20D
100
AcDbEntity
  8
0
  6
Continuous
 62
     7
370
    18
100
AcDbLine
 10
145.4775239325
 20
159.9737142789
 30
0.0
 11
146.1213433866
 21
159.9737142789
 31
0.0
  0
LINE
  5
214
330
20D
100
AcDbEntity
  8
0
  6
Continuous
 62
     7
370
    18
100
AcDbLine
 10
153.8785349329
 20
163.3368623554
 30
0.0
 11
154.522354387
 21
163.3368623554
 31
0.0
  0
LINE
  5
215
330
20D
100
AcDbEntity
  8
0
  6
Continuous
 62
     7
370
    18
100
AcDbLine
 10
154.522354387
 20
163.3368623554
 30
0.0
 11
154.522354387
 21
159.9737142789
 31
0.0
  0
LINE
  5
216
330
20D
100
AcDbEntity
  8
0
  6
Continuous
 62
     7
370
    18
100
AcDbLine
 10
154.522354387
 20
159.9737142789
 30
0.0
 11
153.8785349329
 21
159.9737142789
 31
0.0
  0
LINE
  5
217
330
20D
100
AcDbEntity
  8
0
  6
Continuous
 62
     7
370
    18
100
AcDbLine
 10
175.4772177479
 20
156.2196088734
 30
0.0
 11
161.1202791079
 21
164.9067485848
 31
0.0
  0
LINE
  5
218
330
20D
100
AcDbEntity
  8
0
  6
Continuous
 62
     7
370
    18
100
AcDbLine
 10
161.1202791079
 20
164.9067485848
 30
0.0
 11
157.3102791079
 21
164.9067485848
 31
0.0
  0
MTEXT
  5
219
330
20D
100
AcDbEntity
  8
0
  6
Continuous
 62
     7
370
    18
100
AcDbMText
 10
144.8337044784
 20
166.4946020019
 30
0.0
 40
2.1166666667
 41
0.0
 71
     1
 72
     1
  1
R34.5mm
  7
SLDTEXTSTYLE0
 73
     1
 44
1.0
  0
MTEXT
  5
21A
330
20D
100
AcDbEntity
  8
0
  6
Continuous
 62
     7
370
    18
100
AcDbMText
 10
146.1213433866
 20
162.7022408784
 30
0.0
 40
2.1166666667
 41
0.0
 71
     1
 72
     1
  1
1.36in
  7
SLDTEXTSTYLE0
 73
     1
 44
1.0
  0
ENDBLK
  5
20F
330
20D
100
AcDbEntity
  8
0
100
AcDbBlockEnd
  0
BLOCK
  5
21E
330
21D
100
AcDbEntity
  8
0
100
AcDbBlockBegin
  2
_D_3
 70
     0
 10
0.0
 20
0.0
 30
0.0
  3
_D_3
  1

  0
SOLID
  5
220
330
21D
100
AcDbEntity
  8
0
  6
Continuous
 62
     7
370
    18
100
AcDbTrace
 10
170.4928814109
 20
96.9559128026
 30
0.0
 11
167.3178814109
 21
97.4639128026
 31
0.0
 12
167.3178814109
 22
96.4479128026
 32
0.0
 13
167.3178814109
 23
96.4479128026
 33
0.0
  0
SOLID
  5
221
330
21D
100
AcDbEntity
  8
0
  6
Continuous
 62
     7
370
    18
100
AcDbTrace
 10
184.6428814109
 20
96.9559128026
 30
0.0
 11
187.8178814109
 21
96.4479128026
 31
0.0
 12
187.8178814109
 22
97.4639128026
 32
0.0
 13
187.8178814109
 23
97.4639128026
 33
0.0
  0
LINE
  5
222
330
21D
100
AcDbEntity
  8
0
  6
Continuous
 62
     7
370
    18
100
AcDbLine
 10
196.7642858706
 20
96.9559125697
 30
0.0
 11
196.1204664165
 21
96.9559125697
 31
0.0
  0
LINE
  5
223
330
21D
100
AcDbEntity
  8
0
  6
Continuous
 62
     7
370
    18
100
AcDbLine
 10
196.1204664165
 20
96.9559125697
 30
0.0
 11
196.1204664165
 21
93.5927644933
 31
0.0
  0
LINE
  5
224
330
21D
100
AcDbEntity
  8
0
  6
Continuous
 62
     7
370
    18
100
AcDbLine
 10
196.1204664165
 20
93.5927644933
 30
0.0
 11
196.7642858706
 21
93.5927644933
 31
0.0
  0
LINE
  5
225
330
21D
100
AcDbEntity
  8
0
  6
Continuous
 62
     7
370
    18
100
AcDbLine
 10
204.5214774169
 20
96.9559125697
 30
0.0
 11
205.165296871
 21
96.9559125697
 31
0.0
  0
LINE
  5
226
330
21D
100
AcDbEntity
  8
0
  6
Continuous
 62
     7
370
    18
100
AcDbLine
 10
205.165296871
 20
96.9559125697
 30
0.0
 11
205.165296871
 21
93.5927644933
 31
0.0
  0
LINE
  5
227
330
21D
100
AcDbEntity
  8
0
  6
Continuous
 62
     7
370
    18
100
AcDbLine
 10
205.165296871
 20
93.5927644933
 30
0.0
 11
204.5214774169
 21
93.5927644933
 31
0.0
  0
LINE
  5
228
330
21D
100
AcDbEntity
  8
0
  6
Continuous
 62
     7
370
    18
100
AcDbLine
 10
170.4928814109
 20
137.0859128026
 30
0.0
 11
170.4928814109
 21
95.1779128026
 31
0.0
  0
LINE
  5
229
330
21D
100
AcDbEntity
  8
0
  6
Continuous
 62
     7
370
    18
100
AcDbLine
 10
184.6428814109
 20
111.8359128026
 30
0.0
 11
184.6428814109
 21
95.1779128026
 31
0.0
  0
LINE
  5
22A
330
21D
100
AcDbEntity
  8
0
  6
Continuous
 62
     7
370
    18
100
AcDbLine
 10
170.4928814109
 20
96.9559128026
 30
0.0
 11
164.1428814109
 21
96.9559128026
 31
0.0
  0
LINE
  5
22B
330
21D
100
AcDbEntity
  8
0
  6
Continuous
 62
     7
370
    18
100
AcDbLine
 10
184.6428814109
 20
96.9559128026
 30
0.0
 11
193.271382477
 21
96.9559128026
 31
0.0
  0
MTEXT
  5
22C
330
21D
100
AcDbEntity
  8
0
  6
Continuous
 62
     7
370
    18
100
AcDbMText
 10
195.2884985174
 20
100.1136522162
 30
0.0
 40
2.1166666667
 41
0.0
 71
     1
 72
     1
  1

  7
SLDTEXTSTYLE0
 73
     1
 44
1.0
  0
MTEXT
  5
22D
330
21D
100
AcDbEntity
  8
0
  6
Continuous
 62
     7
370
    18
100
AcDbMText
 10
195.2610602218
 20
100.1136522162
 30
0.0
 40
2.1166666667
 41
0.0
 71
     1
 72
     1
  1
14.2mm
  7
SLDTEXTSTYLE0
 73
     1
 44
1.0
  0
MTEXT
  5
22E
330
21D
100
AcDbEntity
  8
0
  6
Continuous
 62
     7
370
    18
100
AcDbMText
 10
196.7642858706
 20
96.3212910927
 30
0.0
 40
2.1166666667
 41
0.0
 71
     1
 72
     1
  1
0.56in
  7
SLDTEXTSTYLE0
 73
     1
 44
1.0
  0
MTEXT
  5
22F
330
21D
100
AcDbEntity
  8
0
  6
Continuous
 62
     7
370
    18
100
AcDbMText
 10
207.6122021343
 20
100.1136522162
 30
0.0
 40
2.1166666667
 41
0.0
 71
     1
 72
     1
  1

  7
SLDTEXTSTYLE0
 73
     1
 44
1.0
  0
ENDBLK
  5
21F
330
21D
100
AcDbEntity
  8
0
100
AcDbBlockEnd
  0
ENDSEC
  0
SECTION
  2
ENTITIES
  0
LINE
  5
115
330
1F
100
AcDbEntity
  8
0
  6
Continuous
 62
     7
370
    18
100
AcDbLine
 10
1.5793501011
 20
214.6453799966
 30
0.0
 11
277.9892068491
 21
214.6453799966
 31
0.0
  0
LINE
  5
116
330
1F
100
AcDbEntity
  8
0
  6
Continuous
 62
     7
370
    18
100
AcDbLine
 10
1.5793501011
 20
214.6453799966
 30
0.0
 11
1.5793501011
 21
0.9031642596
 31
0.0
  0
LINE
  5
117
330
1F
100
AcDbEntity
  8
0
  6
Continuous
 62
     7
370
    18
100
AcDbLine
 10
277.9892068491
 20
0.9031642596
 30
0.0
 11
1.5793501011
 21
0.9031642596
 31
0.0
  0
LINE
  5
118
330
1F
100
AcDbEntity
  8
0
  6
Continuous
 62
     7
370
    18
100
AcDbLine
 10
277.9892068491
 20
0.9031642596
 30
0.0
 11
277.9892068491
 21
214.6453799966
 31
0.0
  0
LINE
  5
119
330
1F
100
AcDbEntity
  8
0
  6
Continuous
 62
     7
370
    18
100
AcDbLine
 10
215.7427640041
 20
12.2958890132
 30
0.0
 11
171.6327596684
 21
12.2958890132
 31
0.0
  0
LINE
  5
11A
330
1F
100
AcDbEntity
  8
0
  6
Continuous
 62
     7
370
    18
100
AcDbLine
 10
171.6327596684
 20
12.2958890132
 30
0.0
 11
171.6327596684
 21
26.1661402506
 31
0.0
  0
LINE
  5
11B
330
1F
100
AcDbEntity
  8
0
  6
Continuous
 62
     7
370
    18
100
AcDbLine
 10
171.6327596684
 20
0.9031642596
 30
0.0
 11
171.6327596684
 21
26.1661402506
 31
0.0
  0
LINE
  5
11C
330
1F
100
AcDbEntity
  8
0
  6
Continuous
 62
     7
370
    18
100
AcDbLine
 10
215.7427640041
 20
17.1604579552
 30
0.0
 11
277.9892068491
 21
17.1604579552
 31
0.0
  0
LINE
  5
11D
330
1F
100
AcDbEntity
  8
0
  6
Continuous
 62
     7
370
    18
100
AcDbLine
 10
215.7427640041
 20
35.2394508358
 30
0.0
 11
215.7427640041
 21
0.9031642596
 31
0.0
  0
LINE
  5
11E
330
1F
100
AcDbEntity
  8
0
  6
Continuous
 62
     7
370
    18
100
AcDbLine
 10
215.7427640041
 20
26.1661402506
 30
0.0
 11
171.6327596684
 21
26.1661402506
 31
0.0
  0
LINE
  5
11F
330
1F
100
AcDbEntity
  8
0
  6
Continuous
 62
     7
370
    18
100
AcDbLine
 10
215.7427640041
 20
9.1409200612
 30
0.0
 11
277.9892068491
 21
9.1409200612
 31
0.0
  0
LINE
  5
120
330
1F
100
AcDbEntity
  8
0
  6
Continuous
 62
     7
370
    18
100
AcDbLine
 10
215.7427640041
 20
16.9216824031
 30
0.0
 11
171.6327596684
 21
16.9216824031
 31
0.0
  0
LINE
  5
121
330
1F
100
AcDbEntity
  8
0
  6
Continuous
 62
     7
370
    18
100
AcDbLine
 10
215.7427640041
 20
21.4874005542
 30
0.0
 11
171.6327596684
 21
21.4874005542
 31
0.0
  0
LINE
  5
122
330
1F
100
AcDbEntity
  8
0
  6
Continuous
 62
     7
370
    18
100
AcDbLine
 10
186.1338100705
 20
26.1661402506
 30
0.0
 11
186.1338100705
 21
12.2958890132
 31
0.0
  0
LINE
  5
123
330
1F
100
AcDbEntity
  8
0
  6
Continuous
 62
     7
370
    18
100
AcDbLine
 10
198.2145906188
 20
26.1661402506
 30
0.0
 11
198.2145906188
 21
12.2958890132
 31
0.0
  0
LINE
  5
124
330
1F
100
AcDbEntity
  8
0
  6
Continuous
 62
     7
370
    18
100
AcDbLine
 10
253.7490408369
 20
9.1409200612
 30
0.0
 11
253.7490408369
 21
0.9031642596
 31
0.0
  0
LINE
  5
125
330
1F
100
AcDbEntity
  8
0
  6
Continuous
 62
     7
370
    18
100
AcDbLine
 10
171.6327596684
 20
12.2958890132
 30
0.0
 11
171.6327596684
 21
7.5627342528
 31
0.0
  0
LINE
  5
126
330
1F
100
AcDbEntity
  8
0
  6
Continuous
 62
     7
370
    18
100
AcDbLine
 10
171.6327596684
 20
7.5627342528
 30
0.0
 11
215.7427640041
 21
7.5627342528
 31
0.0
  0
LINE
  5
127
330
1F
100
AcDbEntity
  8
0
  6
Continuous
 62
     7
370
    18
100
AcDbLine
 10
171.6327596684
 20
7.5627342528
 30
0.0
 11
171.6327596684
 21
35.2394508358
 31
0.0
  0
LINE
  5
128
330
1F
100
AcDbEntity
  8
0
  6
Continuous
 62
     7
370
    18
100
AcDbLine
 10
171.6327596684
 20
35.2394508358
 30
0.0
 11
215.7427640041
 21
35.2394508358
 31
0.0
  0
LINE
  5
129
330
1F
100
AcDbEntity
  8
0
  6
Continuous
 62
     7
370
    18
100
AcDbLine
 10
270.1683598194
 20
17.1604579552
 30
0.0
 11
270.1683598194
 21
9.1409200612
 31
0.0
  0
LINE
  5
12A
330
1F
100
AcDbEntity
  8
0
  6
Continuous
 62
     7
370
    18
100
AcDbLine
 10
215.7427640041
 20
35.2394508358
 30
0.0
 11
277.9892068491
 21
35.2394508358
 31
0.0
  0
LINE
  5
12B
330
1F
100
AcDbEntity
  8
0
  6
Continuous
 62
     7
370
    18
100
AcDbLine
 10
277.9892068491
 20
35.2394508358
 30
0.0
 11
277.9892068491
 21
50.0331356147
 31
0.0
  0
LINE
  5
12C
330
1F
100
AcDbEntity
  8
0
  6
Continuous
 62
     7
370
    18
100
AcDbLine
 10
215.7427640041
 20
24.8927335446
 30
0.0
 11
277.9892068491
 21
24.8927335446
 31
0.0
  0
INSERT
  5
12D
330
1F
100
AcDbEntity
  8
0
  6
Continuous
 62
     7
100
AcDbBlockReference
  2
Third Angle Projection Block
 10
117.7262204235
 20
15.5162339489
 30
0.0
 41
0.8
 42
0.8
 43
0.8
  0
INSERT
  5
12E
330
1F
100
AcDbEntity
  8
0
  6
Continuous
 62
     7
100
AcDbBlockReference
  2
THORLABS LOGO1
 10
221.4689095479
 20
21.3590046332
 30
0.0
 41
0.25
 42
0.25
 43
0.25
  0
INSERT
  5
140
330
1F
100
AcDbEntity
  8
0
  6
Continuous
 62
     7
370
     0
100
AcDbBlockReference
  2
SW_NOTE_0
 10
15.3672660057
 20
64.9510241138
 30
0.0
  0
MTEXT
  5
141
330
1F
100
AcDbEntity
  8
0
  6
Continuous
 62
     7
370
     0
100
AcDbMText
 10
274.1458225539
 20
13.2559386876
 30
0.0
 40
3.175
 41
0.0
 71
     2
 72
     1
  1
A
  7
SLDTEXTSTYLE0
 73
     1
 44
1.0
  0
MTEXT
  5
142
330
1F
100
AcDbEntity
  8
0
  6
Continuous
 62
     7
370
     0
100
AcDbMText
 10
234.372038073
 20
5.1306563898
 30
0.0
 40
3.175
 41
0.0
 71
     2
 72
     1
  1
LA4078-A
  7
SLDTEXTSTYLE0
 73
     1
 44
1.0
  0
MTEXT
  5
143
330
1F
100
AcDbEntity
  8
0
  6
Continuous
 62
     7
370
     0
100
AcDbMText
 10
216.4199766059
 20
16.8243178599
 30
0.0
 40
2.1166666667
 41
0.0
 71
     1
 72
     1
  1
MATERIAL
  7
SLDTEXTSTYLE0
 73
     1
 44
1.0
  0
MTEXT
  5
144
330
1F
100
AcDbEntity
  8
0
  6
Continuous
 62
     7
370
     0
100
AcDbMText
 10
174.230946566
 20
20.054553926
 30
0.0
 40
1.8520833333
 41
0.0
 71
     1
 72
     1
  1
DRAWN
  7
SLDTEXTSTYLE0
 73
     1
 44
1.0
  0
MTEXT
  5
145
330
1F
100
AcDbEntity
  8
0
  6
Continuous
 62
     7
370
     0
100
AcDbMText
 10
172.3960124543
 20
15.5787169747
 30
0.0
 40
1.8520833333
 41
0.0
 71
     1
 72
     1
  1
APPROVAL
  7
SLDTEXTSTYLE0
 73
     1
 44
1.0
  0
MTEXT
  5
146
330
1F
100
AcDbEntity
  8
0
  6
Continuous
 62
     7
370
     0
100
AcDbMText
 10
271.7160653675
 20
16.1671746307
 30
0.0
 40
2.1166666667
 41
0.0
 71
     1
 72
     1
  1
REV
  7
SLDTEXTSTYLE0
 73
     1
 44
1.0
  0
MTEXT
  5
147
330
1F
100
AcDbEntity
  8
0
  6
Continuous
 62
     7
370
     0
100
AcDbMText
 10
190.2958696448
 20
20.3177146903
 30
0.0
 40
2.1166666667
 41
0.0
 71
     1
 72
     1
  1
YB
  7
SLDTEXTSTYLE0
 73
     1
 44
1.0
  0
MTEXT
  5
148
330
1F
100
AcDbEntity
  8
0
  6
Continuous
 62
     7
370
     0
100
AcDbMText
 10
190.2958696448
 20
15.841877739
 30
0.0
 40
2.1166666667
 41
0.0
 71
     1
 72
     1
  1
DS
  7
SLDTEXTSTYLE0
 73
     1
 44
1.0
  0
MTEXT
  5
149
330
1F
100
AcDbEntity
  8
0
  6
Continuous
 62
     7
370
     0
100
AcDbMText
 10
199.8662436873
 20
20.3177146903
 30
0.0
 40
2.1166666667
 41
0.0
 71
     1
 72
     1
  1
25/JUN/21
  7
SLDTEXTSTYLE0
 73
     1
 44
1.0
  0
MTEXT
  5
14A
330
1F
100
AcDbEntity
  8
0
  6
Continuous
 62
     7
370
     0
100
AcDbMText
 10
203.6145073853
 20
24.8221395769
 30
0.0
 40
2.1166666667
 41
0.0
 71
     1
 72
     1
  1
DATE
  7
SLDTEXTSTYLE0
 73
     1
 44
1.0
  0
MTEXT
  5
14B
330
1F
100
AcDbEntity
  8
0
  6
Continuous
 62
     7
370
     0
100
AcDbMText
 10
199.8662436873
 20
15.841877739
 30
0.0
 40
2.1166666667
 41
0.0
 71
     1
 72
     1
  1
27/AUG/21
  7
SLDTEXTSTYLE0
 73
     1
 44
1.0
  0
MTEXT
  5
14D
330
1F
100
AcDbEntity
  8
0
  6
Continuous
 62
     7
370
     0
100
AcDbMText
 10
229.402906477
 20
27.7957480569
 30
0.0
 40
2.1166666667
 41
0.0
 71
     1
 72
     1
  1
w w w . t h o r  l a b s . c o m
  7
SLDTEXTSTYLE1
 73
     1
 44
1.0
  0
MTEXT
  5
14E
330
1F
100
AcDbEntity
  8
0
  6
Continuous
 62
     7
370
     0
100
AcDbMText
 10
216.7004035316
 20
8.3494791871
 30
0.0
 40
2.1166666667
 41
0.0
 71
     1
 72
     1
  1
ITEM #
  7
SLDTEXTSTYLE0
 73
     1
 44
1.0
  0
MTEXT
  5
14F
330
1F
100
AcDbEntity
  8
0
  6
Continuous
 62
     7
370
     0
100
AcDbMText
 10
254.5318000914
 20
8.3494791871
 30
0.0
 40
2.1166666667
 41
0.0
 71
     1
 72
     1
  1
APPROX WEIGHT
  7
SLDTEXTSTYLE0
 73
     1
 44
1.0
  0
MTEXT
  5
150
330
1F
100
AcDbEntity
  8
0
  6
Continuous
 62
     7
370
     0
100
AcDbMText
 10
243.4409424799
 20
13.8247651814
 30
0.0
 40
3.175
 41
0.0
 71
     2
 72
     1
  1
UV FUSED SILICA
  7
SLDTEXTSTYLE0
 73
     1
 44
1.0
  0
MTEXT
  5
151
330
1F
100
AcDbEntity
  8
0
  6
Continuous
 62
     7
370
     0
100
AcDbMText
 10
266.1553537756
 20
5.1306563898
 30
0.0
 40
3.175
 41
0.0
 71
     2
 72
     1
  1
39.88 g
  7
SLDTEXTSTYLE0
 73
     1
 44
1.0
  0
INSERT
  5
157
330
1F
100
AcDbEntity
  8
0
  6
Continuous
 62
     7
370
     0
100
AcDbBlockReference
  2
SW_NOTE_1
 10
174.8430140051
 20
4.4558554801
 30
0.0
  0
INSERT
  5
15D
330
1F
100
AcDbEntity
  8
0
  6
Continuous
 62
     7
370
     0
100
AcDbBlockReference
  2
SW_NOTE_2
 10
174.5483650337
 20
30.4835322715
 30
0.0
  0
MTEXT
  5
15E
330
1F
100
AcDbEntity
  8
0
  6
Continuous
 62
     7
370
     0
100
AcDbMText
 10
187.9273588276
 20
24.8221395769
 30
0.0
 40
2.1166666667
 41
0.0
 71
     1
 72
     1
  1
NAME
  7
SLDTEXTSTYLE0
 73
     1
 44
1.0
  0
INSERT
  5
164
330
1F
100
AcDbEntity
  8
0
  6
Continuous
 62
     7
370
     0
100
AcDbBlockReference
  2
SW_NOTE_3
 10
58.6204667508
 20
8.1776609732
 30
0.0
  0
INSERT
  5
16B
330
1F
100
AcDbEntity
  8
0
  6
Continuous
 62
     7
370
     0
100
AcDbBlockReference
  2
SW_NOTE_4
 10
219.8580850209
 20
20.6862828027
 30
0.0
  0
MTEXT
  5
16C
330
1F
100
AcDbEntity
  8
0
  6
Continuous
 62
     7
370
     0
100
AcDbMText
 10
177.6925831922
 20
10.7142101515
 30
0.0
 40
1.5875
 41
0.0
 71
     1
 72
     1
  1
COPYRIGHT © 2021 BY THORLABS
  7
SLDTEXTSTYLE0
 73
     1
 44
1.0
  0
CIRCLE
  5
16D
330
1F
100
AcDbEntity
  8
0
  6
Continuous
 62
     7
370
    18
100
AcDbCircle
 10
66.0620650143
 20
138.3559128026
 30
0.0
 40
25.29878662321924
  0
CIRCLE
  5
16E
330
1F
100
AcDbEntity
  8
0
  6
Continuous
 62
     7
370
    18
100
AcDbCircle
 10
66.0620650143
 20
138.3559128026
 30
0.0
 40
25.40000000000001
  0
DIMENSION
  5
16F
330
1F
100
AcDbEntity
  8
0
  6
Continuous
 62
     7
370
    18
100
AcDbDimension
  2
_D
 10
47.8837705208
 20
120.6158561705
 30
0.0
 11
110.2737063601
 21
170.9725004715
 31
0.0
 70
   163
  1
<>
 71
     1
 42
-1.0
  3
SLDDIMSTYLE0
100
AcDbDiametricDimension
 15
84.2403595078
 25
156.0959694346
 35
0.0
 40
0.0
  0
LINE
  5
180
330
1F
100
AcDbEntity
  8
0
  6
PHANTOM
 62
     7
370
    35
100
AcDbLine
 10
66.0620650143
 20
169.8519128026
 30
0.0
 11
66.0620650143
 21
106.8599128026
 31
0.0
  0
LINE
  5
181
330
1F
100
AcDbEntity
  8
0
  6
Continuous
 62
     7
370
    35
100
AcDbLine
 10
66.0620650143
 20
169.8519128026
 30
0.0
 11
57.1720650143
 21
169.8519128026
 31
0.0
  0
SOLID
  5
182
330
1F
100
AcDbEntity
  8
0
  6
Continuous
 62
     7
370
    35
100
AcDbTrace
 10
57.1720650143
 20
169.8519128026
 30
0.0
 11
60.9820650143
 21
169.2169128026
 31
0.0
 12
60.9820650143
 22
170.4869128026
 32
0.0
 13
60.9820650143
 23
170.4869128026
 33
0.0
  0
LINE
  5
183
330
1F
100
AcDbEntity
  8
0
  6
Continuous
 62
     7
370
    35
100
AcDbLine
 10
66.0620650143
 20
106.8599128026
 30
0.0
 11
57.1720650143
 21
106.8599128026
 31
0.0
  0
SOLID
  5
184
330
1F
100
AcDbEntity
  8
0
  6
Continuous
 62
     7
370
    35
100
AcDbTrace
 10
57.1720650143
 20
106.8599128026
 30
0.0
 11
60.9820650143
 21
106.2249128026
 31
0.0
 12
60.9820650143
 22
107.4949128026
 32
0.0
 13
60.9820650143
 23
107.4949128026
 33
0.0
  0
MTEXT
  5
185
330
1F
100
AcDbEntity
  8
0
  6
Continuous
 62
     7
100
AcDbMText
 10
53.766960101
 20
171.9522578893
 30
0.0
 40
2.6458333333
 41
0.0
 71
     1
 72
     1
  1
A
  7
SLDTEXTSTYLE0
 73
     1
 44
1.0
  0
MTEXT
  5
186
330
1F
100
AcDbEntity
  8
0
  6
Continuous
 62
     7
100
AcDbMText
 10
53.766960101
 20
108.9602578893
 30
0.0
 40
2.6458333333
 41
0.0
 71
     1
 72
     1
  1
A
  7
SLDTEXTSTYLE0
 73
     1
 44
1.0
  0
SPLINE
  5
187
330
1F
100
AcDbEntity
  8
0
  6
Continuous
 62
     7
370
    18
100
AcDbSpline
210
0.0
220
0.0
230
1.0
 70
     8
 71
     3
 72
    46
 73
    42
 74
     0
 42
0.000000001
 43
0.00000001
 40
0.0
 40
0.0
 40
0.0
 40
0.0
 40
0.0124709409753191
 40
0.0382074255736117
 40
0.0639396705040085
 40
0.0896716324609525
 40
0.1154077023207367
 40
0.1411527257270974
 40
0.1669120164310262
 40
0.1926913595615088
 40
0.2184970015710836
 40
0.2443356232564446
 40
0.2702142920838623
 40
0.2961403901559428
 40
0.3221215146599422
 40
0.3481653486581296
 40
0.3742795017140354
 40
0.4004713221339961
 40
0.4267476854844423
 40
0.4531147673287044
 40
0.4795778114659765
 40
0.5061409078531389
 40
0.5328067962652508
 40
0.5595767103417588
 40
0.5864502827828543
 40
0.6134255150179264
 40
0.6404988194094567
 40
0.6676651335335493
 40
0.69491809783041
 40
0.7222502828229297
 40
0.749653448249608
 40
0.7771188149662681
 40
0.8046373313539498
 40
0.832199918809208
 40
0.8597976849833983
 40
0.8874220979901875
 40
0.9150651191168426
 40
0.9427192951610385
 40
0.970377814120609
 40
0.9980345295528115
 40
1.0
 40
1.0
 40
1.0
 40
1.0
 10
228.4526052416981
 20
190.8393711321933
 30
0.0
 10
228.4412816163956
 20
190.6716237237048
 30
0.0
 10
228.4065892405896
 20
190.1576932482358
 30
0.0
 10
228.3822996921308
 20
189.2957971803591
 30
0.0
 10
228.3780467378754
 20
188.2549811029302
 30
0.0
 10
228.4068742930481
 20
187.214449389512
 30
0.0
 10
228.4666235870656
 20
186.1751059611201
 30
0.0
 10
228.5578506147999
 20
185.1376658411807
 30
0.0
 10
228.680379903571
 20
184.1028729650215
 30
0.0
 10
228.8342314733787
 20
183.0714432082746
 30
0.0
 10
229.0193755079464
 20
182.0440820234333
 30
0.0
 10
229.2358009028702
 20
181.0214831842305
 30
0.0
 10
229.4834990041813
 20
180.0043338346863
 30
0.0
 10
229.7624691892561
 20
178.9933191767005
 30
0.0
 10
230.072717375796
 20
177.989128614831
 30
0.0
 10
230.4142549060517
 20
176.992462811685
 30
0.0
 10
230.7870955089572
 20
176.0040416251411
 30
0.0
 10
231.1912507100562
 20
175.02461261773
 30
0.0
 10
231.6267234365736
 20
174.0549597467148
 30
0.0
 10
232.0934998726862
 20
173.0959117091692
 30
0.0
 10
232.5915397204668
 20
172.1483493203258
 30
0.0
 10
233.1207652079389
 20
171.2132112487926
 30
0.0
 10
233.6810493436119
 20
170.291497465061
 30
0.0
 10
234.2722041064717
 20
169.3842697823139
 30
0.0
 10
234.8939693115823
 20
168.4926491406404
 30
0.0
 10
235.5460029373261
 20
167.6178094855409
 30
0.0
 10
236.227873586394
 20
166.760968446534
 30
0.0
 10
236.9390556416258
 20
165.9233752372065
 30
0.0
 10
237.6789274432886
 20
165.10629651481
 30
0.0
 10
238.4467724897863
 20
164.3110010155073
 30
0.0
 10
239.2417835941166
 20
163.5387442238203
 30
0.0
 10
240.0630690049209
 20
162.7907528372704
 30
0.0
 10
240.9096619869391
 20
162.0682140649833
 30
0.0
 10
241.7805254217529
 20
161.3722542862619
 30
0.0
 10
242.6745799205465
 20
160.7039673271571
 30
0.0
 10
243.5906459414255
 20
160.064268271453
 30
0.0
 10
244.5277066650753
 20
159.4544106057008
 30
0.0
 10
245.483969927813
 20
158.8740359075572
 30
0.0
 10
246.4604108464962
 20
158.3284472375243
 30
0.0
 10
247.1419774038252
 20
157.9646022770716
 30
0.0
 10
247.5021632466402
 20
157.7921488381229
 30
0.0
 10
247.5260620444004
 20
157.7807063288108
 30
0.0
  0
LINE
  5
188
330
1F
100
AcDbEntity
  8
0
  6
Continuous
 62
     7
370
    18
100
AcDbLine
 10
230.769020298
 20
198.3281702932
 30
0.0
 11
230.6480627668
 21
198.1460053276
 31
0.0
  0
LINE
  5
189
330
1F
100
AcDbEntity
  8
0
  6
Continuous
 62
     7
370
    18
100
AcDbLine
 10
254.9641832396
 20
156.0246852932
 30
0.0
 11
255.1824227748
 21
156.038334626
 31
0.0
  0
LINE
  5
18A
330
1F
100
AcDbEntity
  8
0
  6
Continuous
 62
     7
370
    18
100
AcDbLine
 10
259.1767197989
 20
157.2072904482
 30
0.0
 11
261.0859081081
 21
158.3094413991
 31
0.0
  0
LINE
  5
18B
330
1F
100
AcDbEntity
  8
0
  6
Continuous
 62
     7
370
    18
100
AcDbLine
 10
235.6879722991
 20
202.3047236081
 30
0.0
 11
233.7787839899
 21
201.2025726571
 31
0.0
  0
LINE
  5
18C
330
1F
100
AcDbEntity
  8
0
  6
Continuous
 62
     7
370
    18
100
AcDbLine
 10
266.3474524457
 20
169.9386994834
 30
0.0
 11
266.3474524457
 21
170.0611607002
 31
0.0
  0
LINE
  5
18D
330
1F
100
AcDbEntity
  8
0
  6
Continuous
 62
     7
370
    18
100
AcDbLine
 10
248.4959080704
 20
200.9842931376
 30
0.0
 11
248.3898592919
 21
201.0455336977
 31
0.0
  0
LWPOLYLINE
  5
18E
330
1F
100
AcDbEntity
  8
0
  6
Continuous
 62
     7
370
    18
100
AcDbPolyline
 90
      121
 70
   128
 43
0.0
 10
247.5319221997
 20
157.7764587168
 10
247.8437816013
 20
157.6245684728
 10
248.5294362193
 20
157.3129954506
 10
249.2117699476
 20
157.0337898208
 10
249.8897690437
 20
156.7873663988
 10
250.5624262054
 20
156.5740912955
 10
251.2287420666
 20
156.3942813736
 10
251.8877266828
 20
156.2482037765
 10
252.5384010013
 20
156.1360755313
 10
253.1797983163
 20
156.0580632269
 10
253.8109657044
 20
156.0142827661
 10
254.430965441
 20
156.0047991935
 10
255.0388763935
 20
156.0296265988
 10
255.6337953892
 20
156.0887280959
 10
256.2148385578
 20
156.1820158778
 10
256.7811426442
 20
156.309351347
 10
257.331866291
 20
156.4705453214
 10
257.8661912889
 20
156.6653583152
 10
258.3833237919
 20
156.8935008951
 10
258.882495497
 20
157.1546341099
 10
259.3629647852
 20
157.4483699943
 10
259.8240178241
 20
157.7742721452
 10
260.2649696277
 20
158.1318563704
 10
260.6851650745
 20
158.5205914073
 10
261.0839798806
 20
158.9398997128
 10
261.4608215275
 20
159.3891583211
 10
261.8151301418
 20
159.8676997692
 10
262.1463793279
 20
160.3748130887
 10
262.4540769491
 20
160.9097448621
 10
262.7377658596
 20
161.4717003418
 10
262.997024583
 20
162.0598446313
 10
263.231467939
 20
162.6733039254
 10
263.4407476154
 20
163.3111668084
 10
263.6245526857
 20
163.9724856082
 10
263.782610071
 20
164.6562778043
 10
263.9146849454
 20
165.3615274876
 10
264.0205810857
 20
166.0871868694
 10
264.100141162
 20
166.8321778386
 10
264.1532469719
 20
167.595393563
 10
264.1798196164
 20
168.375700134
 10
264.1798196164
 20
169.1719382511
 10
264.1532469719
 20
169.9829249443
 10
264.100141162
 20
170.8074553318
 10
264.0205810857
 20
171.6443044098
 10
263.9146849454
 20
172.4922288727
 10
263.782610071
 20
173.3499689601
 10
263.6245526857
 20
174.2162503289
 10
263.4407476154
 20
175.0897859457
 10
263.231467939
 20
175.9692779999
 10
262.997024583
 20
176.8534198312
 10
262.7377658596
 20
177.7408978713
 10
262.4540769491
 20
178.6303935951
 10
262.1463793279
 20
179.52058548
 10
261.8151301418
 20
180.410150969
 10
261.4608215275
 20
181.2977684358
 10
261.0839798806
 20
182.1821191484
 10
260.6851650745
 20
183.0618892278
 10
260.2649696277
 20
183.9357716009
 10
259.8240178241
 20
184.8024679418
 10
259.3629647852
 20
185.6606906007
 10
258.882495497
 20
186.5091645174
 10
258.3833237919
 20
187.3466291152
 10
257.8661912889
 20
188.1718401741
 10
257.331866291
 20
188.983571679
 10
256.7811426442
 20
189.7806176415
 10
256.2148385578
 20
190.5617938914
 10
255.6337953892
 20
191.3259398362
 10
255.0388763935
 20
192.0719201851
 10
254.430965441
 20
192.7986266362
 10
253.8109657044
 20
193.5049795226
 10
253.1797983163
 20
194.1899294166
 10
252.5384010013
 20
194.8524586892
 10
251.8877266828
 20
195.4915830214
 10
251.2287420666
 20
196.106352867
 10
250.5624262054
 20
196.6958548632
 10
249.8897690437
 20
197.2592131877
 10
249.2117699476
 20
197.7955908597
 10
248.5294362193
 20
198.3041909835
 10
247.8437816013
 20
198.7842579328
 10
247.1558247697
 20
199.2350784725
 10
246.4665878211
 20
199.6559828192
 10
245.777094754
 20
200.0463456358
 10
245.0883699474
 20
200.4055869608
 10
244.4014366387
 20
200.7331730698
 10
243.717315404
 20
201.0286172686
 10
243.0370226413
 20
201.291480616
 10
242.3615690607
 20
201.5213725763
 10
241.6919581827
 20
201.7179515994
 10
241.0291848474
 20
201.8809256281
 10
240.3742337362
 20
202.0100525319
 10
239.7280779092
 20
202.1051404673
 10
239.0916773593
 20
202.1660481623
 10
238.465977586
 20
202.1926851263
 10
237.8519081905
 20
202.1850117848
 10
237.2503814951
 20
202.1430395381
 10
236.6622911872
 20
202.0668307443
 10
236.0885109918
 20
201.9564986268
 10
235.5298933734
 20
201.8122071058
 10
234.9872682695
 20
201.6341705551
 10
234.4614418575
 20
201.4226534833
 10
233.953195357
 20
201.177970141
 10
233.4632838693
 20
200.9004840541
 10
232.9924352552
 20
200.5906074831
 10
232.5413490539
 20
200.2488008115
 10
232.1106954436
 20
199.8755718608
 10
231.7011142458
 20
199.4714751369
 10
231.3132139748
 20
199.0371110057
 10
230.9475709334
 20
198.5731248015
 10
230.6047283572
 20
198.0802058681
 10
230.2851956069
 20
197.5590865343
 10
229.9894474119
 20
197.0105410267
 10
229.7179231649
 20
196.4353843185
 10
229.4710262691
 20
195.8344709193
 10
229.2491235389
 20
195.2086936054
 10
229.0525446551
 20
194.5589820933
 10
228.8815816744
 20
193.8863016587
 10
228.7364885965
 20
193.1916517019
 10
228.6174809859
 20
192.4760642636
 10
228.5247356521
 20
191.7406024911
 10
228.4583903867
 20
190.986359059
 10
228.4488329651
 20
190.8418961118
  0
LWPOLYLINE
  5
18F
330
1F
100
AcDbEntity
  8
0
  6
Continuous
 62
     7
370
    18
100
AcDbPolyline
 90
       98
 70
   128
 43
0.0
 10
230.769020298
 20
198.3281702932
 10
231.0697267131
 20
198.7569985528
 10
231.4368325901
 20
199.2228410361
 10
231.8262847417
 20
199.6589429368
 10
232.2375045595
 20
200.0646563388
 10
232.6698810946
 20
200.4393784743
 10
233.1227719657
 20
200.7825526189
 10
233.5955043136
 20
201.0936689194
 10
234.0873758003
 20
201.3722651507
 10
234.597655653
 20
201.6179274026
 10
235.1255857495
 20
201.8302906952
 10
235.6703817449
 20
202.0090395204
 10
236.2312342363
 20
202.1539083115
 10
236.8073099659
 20
202.2646818369
 10
237.3977530589
 20
202.3411955208
 10
238.0016862945
 20
202.3833356867
 10
238.61821241
 20
202.3910397271
 10
239.2464154334
 20
202.364296196
 10
239.8853620441
 20
202.3031448264
 10
240.53410296
 20
202.2076764708
 10
241.1916743476
 20
202.0780329662
 10
241.8570992538
 20
201.9144069241
 10
242.5293890578
 20
201.7170414432
 10
243.2075449395
 20
201.4862297494
 10
243.8905593635
 20
201.2223147591
 10
244.5774175761
 20
200.9256885707
 10
245.267099113
 20
200.5967918812
 10
245.9585793151
 20
200.236113332
 10
246.6508308514
 20
199.8441887828
 10
247.3428252444
 20
199.4216005154
 10
248.0335343991
 20
198.9689763687
 10
248.7219321297
 20
198.4869888057
 10
249.4069956845
 20
197.9763539149
 10
250.0877072656
 20
197.4378303457
 10
250.7630555406
 20
196.8722181819
 10
251.4320371454
 20
196.2803577529
 10
252.0936581749
 20
195.663128385
 10
252.7469356596
 20
195.0214470949
 10
253.390899026
 20
194.3562672278
 10
254.0245915385
 20
193.6685770406
 10
254.6470717209
 20
192.9593982337
 10
255.2574147552
 20
192.2297844332
 10
255.8547138556
 20
191.4808196253
 10
256.4380816156
 20
190.7136165461
 10
257.0066513264
 20
189.9293150283
 10
257.5595782646
 20
189.1290803076
 10
258.0960409476
 20
188.3141012917
 10
258.6152423532
 20
187.4855887939
 10
259.1164111048
 20
186.6447737342
 10
259.5988026164
 20
185.7929053105
 10
260.0617001997
 20
184.9312491425
 10
260.5044161283
 20
184.0610853917
 10
260.9262926597
 20
183.1837068594
 10
261.3267030124
 20
182.3004170657
 10
261.7050522974
 20
181.412528313
 10
262.0607784015
 20
180.5213597367
 10
262.393352823
 20
179.6282353447
 10
262.7022814564
 20
178.7344820508
 10
262.9871053269
 20
177.8414277031
 10
263.2474012721
 20
176.9503991114
 10
263.4827825705
 20
176.0627200756
 10
263.6928995164
 20
175.1797094195
 10
263.8774399395
 20
174.3026790307
 10
264.0361296681
 20
173.4329319123
 10
264.1687329373
 20
172.5717602463
 10
264.2750527384
 20
171.7204434746
 10
264.3549311123
 20
170.8802463973
 10
264.4082493838
 20
170.0524172941
 10
264.434928338
 20
169.2381860697
 10
264.434928338
 20
168.4387624263
 10
264.4082493838
 20
167.6553340668
 10
264.3549311123
 20
166.8890649295
 10
264.2750527384
 20
166.1410934596
 10
264.1687329373
 20
165.4125309173
 10
264.0361296681
 20
164.7044597271
 10
263.8774399395
 20
164.0179318695
 10
263.6928995164
 20
163.3539673179
 10
263.4827825705
 20
162.7135525237
 10
263.2474012721
 20
162.0976389504
 10
262.9871053269
 20
161.5071416599
 10
262.7022814564
 20
160.9429379534
 10
262.393352823
 20
160.4058660675
 10
262.0607784015
 20
159.8967239292
 10
261.7050522974
 20
159.4162679705
 10
261.3267030124
 20
158.965212004
 10
260.9262926597
 20
158.5442261631
 10
260.5044161283
 20
158.153935906
 10
260.0617001997
 20
157.7949210862
 10
259.5988026164
 20
157.4677150918
 10
259.1164111048
 20
157.1728040522
 10
258.6152423532
 20
156.9106261164
 10
258.0960409476
 20
156.6815708019
 10
257.5595782646
 20
156.4859784157
 10
257.0066513264
 20
156.3241395493
 10
256.4380816156
 20
156.1962946464
 10
255.8547138556
 20
156.1026336461
 10
255.2574147552
 20
156.0432957004
 10
255.1824227748
 20
156.038334626
  0
SPLINE
  5
190
330
1F
100
AcDbEntity
  8
0
  6
Continuous
 62
     7
370
    18
100
AcDbSpline
210
0.0
220
0.0
230
1.0
 70
     8
 71
     3
 72
    12
 73
     8
 74
     0
 42
0.000000001
 43
0.00000001
 40
0.0
 40
0.0
 40
0.0
 40
0.0
 40
0.1642666407676919
 40
0.3270997857466947
 40
0.4998821594519196
 40
0.7499162905698731
 40
0.9999999999999999
 40
0.9999999999999999
 40
0.9999999999999999
 40
0.9999999999999999
 10
247.0131937461947
 20
200.2495764154971
 30
0.0
 10
247.0230369922859
 20
200.2693218410066
 30
0.0
 10
247.0426375860062
 20
200.3086403808117
 30
0.0
 10
247.0941522669573
 20
200.363805473494
 30
0.0
 10
247.1643398185557
 20
200.4245543743307
 30
0.0
 10
247.2556541423596
 20
200.4901056790376
 30
0.0
 10
247.3310448363298
 20
200.5348516343724
 30
0.0
 10
247.3687439201775
 20
200.557226829946
 30
0.0
  0
SPLINE
  5
191
330
1F
100
AcDbEntity
  8
0
  6
Continuous
 62
     7
370
    18
100
AcDbSpline
210
0.0
220
0.0
230
1.0
 70
     8
 71
     3
 72
    11
 73
     7
 74
     0
 42
0.000000001
 43
0.00000001
 40
0.0
 40
0.0
 40
0.0
 40
0.0
 40
0.2500369811357753
 40
0.4997997597821044
 40
0.7497404745035467
 40
1.0
 40
1.0
 40
1.0
 40
1.0
 10
247.0987600936575
 20
200.0660840338124
 30
0.0
 10
247.0798615519637
 20
200.0787427936409
 30
0.0
 10
247.042085193619
 20
200.1040464310976
 30
0.0
 10
247.0089152942151
 20
200.1508419178718
 30
0.0
 10
246.9990322706204
 20
200.2007009747786
 30
0.0
 10
247.0084712489744
 20
200.2332776808261
 30
0.0
 10
247.0131937461947
 20
200.2495764154971
 30
0.0
  0
SPLINE
  5
192
330
1F
100
AcDbEntity
  8
0
  6
Continuous
 62
     7
370
    18
100
AcDbSpline
210
0.0
220
0.0
230
1.0
 70
     8
 71
     3
 72
    17
 73
    13
 74
     0
 42
0.000000001
 43
0.00000001
 40
0.0
 40
0.0
 40
0.0
 40
0.0
 40
0.1669392423658931
 40
0.3405945833860778
 40
0.5002115859876076
 40
0.6343697496979622
 40
0.6941007798298949
 40
0.7501232563211112
 40
0.8128232138925781
 40
0.8750343629518902
 40
0.9374904845121711
 40
1.0
 40
1.0
 40
1.0
 40
1.0
 10
247.9488815923552
 20
200.2146665135756
 30
0.0
 10
247.909202227661
 20
200.1925065636289
 30
0.0
 10
247.8282471658345
 20
200.1472951513031
 30
0.0
 10
247.6987476424653
 20
200.0879592670082
 30
0.0
 10
247.5674120247247
 20
200.0411353117909
 30
0.0
 10
247.4582341760964
 20
200.016417302604
 30
0.0
 10
247.3770638458732
 20
200.0076228245017
 30
0.0
 10
247.3179780919119
 20
200.0060259309742
 30
0.0
 10
247.258054208296
 20
200.0105397075773
 30
0.0
 10
247.1989059827129
 20
200.0227090260432
 30
0.0
 10
247.1445091423298
 20
200.0411730189371
 30
0.0
 10
247.1140141197397
 20
200.0577779972572
 30
0.0
 10
247.0987600936575
 20
200.0660840338124
 30
0.0
  0
SPLINE
  5
193
330
1F
100
AcDbEntity
  8
0
  6
Continuous
 62
     7
370
    18
100
AcDbSpline
210
0.0
220
0.0
230
1.0
 70
     8
 71
     3
 72
    18
 73
    14
 74
     0
 42
0.000000001
 43
0.00000001
 40
0.0
 40
0.0
 40
0.0
 40
0.0
 40
0.0625003652378527
 40
0.1249396921840175
 40
0.1861851799067937
 40
0.2498537798440174
 40
0.3750642611143868
 40
0.4354336679800236
 40
0.4996715616015455
 40
0.6140501989277708
 40
0.7497910155770553
 40
0.8748884038924704
 40
0.9999999999999999
 40
0.9999999999999999
 40
0.9999999999999999
 40
0.9999999999999999
 10
248.2180344968872
 20
200.7106782405261
 30
0.0
 10
248.2319828044563
 20
200.7016568742721
 30
0.0
 10
248.2598657975803
 20
200.6836229520931
 30
0.0
 10
248.2888811786558
 20
200.6512269552264
 30
0.0
 10
248.3071718070802
 20
200.6161914654391
 30
0.0
 10
248.3162034274705
 20
200.5675823508251
 30
0.0
 10
248.3056190639779
 20
200.5188672646032
 30
0.0
 10
248.2805875281437
 20
200.472745135335
 30
0.0
 10
248.2480313522873
 20
200.430626246695
 30
0.0
 10
248.1938535127137
 20
200.3788788026197
 30
0.0
 10
248.119026256964
 20
200.3215026169713
 30
0.0
 10
248.0354640742278
 20
200.2657940798319
 30
0.0
 10
247.9777435121751
 20
200.2317096808072
 30
0.0
 10
247.9488815923552
 20
200.2146665135756
 30
0.0
  0
SPLINE
  5
194
330
1F
100
AcDbEntity
  8
0
  6
Continuous
 62
     7
370
    18
100
AcDbSpline
210
0.0
220
0.0
230
1.0
 70
     8
 71
     3
 72
    16
 73
    12
 74
     0
 42
0.000000001
 43
0.00000001
 40
0.0
 40
0.0
 40
0.0
 40
0.0
 40
0.1673947185445933
 40
0.3404512053786529
 40
0.5005294662456677
 40
0.6350352969356131
 40
0.6947258827128395
 40
0.7506188764465549
 40
0.8749573277602644
 40
0.9374475990633218
 40
1.0
 40
1.0
 40
1.0
 40
1.0
 10
247.3687439201775
 20
200.557226829946
 30
0.0
 10
247.408469455907
 20
200.5794259039321
 30
0.0
 10
247.4892641586372
 20
200.6245748880971
 30
0.0
 10
247.6187850485648
 20
200.6841991198988
 30
0.0
 10
247.7499294975231
 20
200.7317811326661
 30
0.0
 10
247.8590487778247
 20
200.7576577741997
 30
0.0
 10
247.9402108270064
 20
200.7671520192107
 30
0.0
 10
248.0194751796994
 20
200.7698797016161
 30
0.0
 10
248.1001650703136
 20
200.7596442984051
 30
0.0
 10
248.1723699900855
 20
200.7355196068303
 30
0.0
 10
248.2028079534089
 20
200.7189614383658
 30
0.0
 10
248.2180344968872
 20
200.7106782405261
 30
0.0
  0
SPLINE
  5
195
330
1F
100
AcDbEntity
  8
0
  6
Continuous
 62
     7
370
    18
100
AcDbSpline
210
0.0
220
0.0
230
1.0
 70
     8
 71
     3
 72
    13
 73
     9
 74
     0
 42
0.000000001
 43
0.00000001
 40
0.0
 40
0.0
 40
0.0
 40
0.0
 40
0.2499469574104372
 40
0.4991846324973773
 40
0.627724849796871
 40
0.7496085261843923
 40
0.8747695857068051
 40
1.0
 40
1.0
 40
1.0
 40
1.0
 10
246.2115363211092
 20
201.4191145227545
 30
0.0
 10
246.2553677035165
 20
201.4415201358487
 30
0.0
 10
246.342906086642
 20
201.486267780926
 30
0.0
 10
246.4869312508554
 20
201.5153672781919
 30
0.0
 10
246.6027180977381
 20
201.5204621985735
 30
0.0
 10
246.6878852905407
 20
201.5139259895727
 30
0.0
 10
246.7660378547128
 20
201.4967180602382
 30
0.0
 10
246.8091717439137
 20
201.4775652684798
 30
0.0
 10
246.830744662242
 20
201.4679862200792
 30
0.0
  0
SPLINE
  5
196
330
1F
100
AcDbEntity
  8
0
  6
Continuous
 62
     7
370
    18
100
AcDbSpline
210
0.0
220
0.0
230
1.0
 70
     8
 71
     3
 72
    11
 73
     7
 74
     0
 42
0.000000001
 43
0.00000001
 40
0.0
 40
0.0
 40
0.0
 40
0.0
 40
0.2498929872995341
 40
0.4995952382191635
 40
0.7453754188336166
 40
1.0
 40
1.0
 40
1.0
 40
1.0
 10
246.103116676915
 20
201.1721578275138
 30
0.0
 10
246.0893273195598
 20
201.192710848178
 30
0.0
 10
246.0617591298831
 20
201.2338012019564
 30
0.0
 10
246.0747323485564
 20
201.3018211608232
 30
0.0
 10
246.1271159456541
 20
201.3654520579252
 30
0.0
 10
246.1830665630223
 20
201.4010175007525
 30
0.0
 10
246.2115363211092
 20
201.4191145227545
 30
0.0
  0
SPLINE
  5
197
330
1F
100
AcDbEntity
  8
0
  6
Continuous
 62
     7
370
    18
100
AcDbSpline
210
0.0
220
0.0
230
1.0
 70
     8
 71
     3
 72
    12
 73
     8
 74
     0
 42
0.000000001
 43
0.00000001
 40
0.0
 40
0.0
 40
0.0
 40
0.0
 40
0.2502139349875269
 40
0.5000097874115036
 40
0.7494738308435513
 40
0.874691664955938
 40
1.0
 40
1.0
 40
1.0
 40
1.0
 10
245.7525882657487
 20
201.1092681104726
 30
0.0
 10
245.7764399129562
 20
201.1218123590976
 30
0.0
 10
245.8241033536443
 20
201.1468798961577
 30
0.0
 10
245.912858430024
 20
201.1729203129396
 30
0.0
 10
245.9938965076805
 20
201.180346604939
 30
0.0
 10
246.0574416005083
 20
201.1783023139902
 30
0.0
 10
246.0878879852606
 20
201.1742064828699
 30
0.0
 10
246.103116676915
 20
201.1721578275138
 30
0.0
  0
SPLINE
  5
198
330
1F
100
AcDbEntity
  8
0
  6
Continuous
 62
     7
370
    18
100
AcDbSpline
210
0.0
220
0.0
230
1.0
 70
     8
 71
     3
 72
    13
 73
     9
 74
     0
 42
0.000000001
 43
0.00000001
 40
0.0
 40
0.0
 40
0.0
 40
0.0
 40
0.1252277476923328
 40
0.2503619555788143
 40
0.3732171288547185
 40
0.5007642237023489
 40
0.75003238652746
 40
1.0
 40
1.0
 40
1.0
 40
1.0
 10
245.7145619303441
 20
200.8217239929737
 30
0.0
 10
245.6979022586355
 20
200.8311327240235
 30
0.0
 10
245.664595359285
 20
200.8499431582007
 30
0.0
 10
245.6314383585512
 20
200.8848479770543
 30
0.0
 10
245.6150863033189
 20
200.9235538754824
 30
0.0
 10
245.6157809142618
 20
200.976973627173
 30
0.0
 10
245.6531898868682
 20
201.0445209599803
 30
0.0
 10
245.7194245402623
 20
201.0876655778243
 30
0.0
 10
245.7525882657487
 20
201.1092681104726
 30
0.0
  0
SPLINE
  5
199
330
1F
100
AcDbEntity
  8
0
  6
Continuous
 62
     7
370
    18
100
AcDbSpline
210
0.0
220
0.0
230
1.0
 70
     8
 71
     3
 72
    14
 73
    10
 74
     0
 42
0.000000001
 43
0.00000001
 40
0.0
 40
0.0
 40
0.0
 40
0.0
 40
0.2496851127630324
 40
0.3747531517208546
 40
0.4998108866994464
 40
0.628186230003361
 40
0.74990053642445
 40
0.8748938784239144
 40
1.0
 40
1.0
 40
1.0
 40
1.0
 10
246.242372157989
 20
200.8590162800881
 30
0.0
 10
246.2050634373171
 20
200.8399116861861
 30
0.0
 10
246.1490666640064
 20
200.8112375425901
 30
0.0
 10
246.0568308096719
 20
200.7879864692718
 30
0.0
 10
245.983387087898
 20
200.7774644051229
 30
0.0
 10
245.9088338940624
 20
200.7752764532025
 30
0.0
 10
245.8363140770097
 20
200.7817558047279
 30
0.0
 10
245.7695750895394
 20
200.7969791098199
 30
0.0
 10
245.7329051620415
 20
200.8134732193106
 30
0.0
 10
245.7145619303441
 20
200.8217239929737
 30
0.0
  0
SPLINE
  5
19A
330
1F
100
AcDbEntity
  8
0
  6
Continuous
 62
     7
370
    18
100
AcDbSpline
210
0.0
220
0.0
230
1.0
 70
     8
 71
     3
 72
    12
 73
     8
 74
     0
 42
0.000000001
 43
0.00000001
 40
0.0
 40
0.0
 40
0.0
 40
0.0
 40
0.2499477102112641
 40
0.4995645788865837
 40
0.7493440671686207
 40
0.874638027630586
 40
1.0
 40
1.0
 40
1.0
 40
1.0
 10
246.3343397163011
 20
201.0562774398289
 30
0.0
 10
246.3436107918649
 20
201.0394951287915
 30
0.0
 10
246.3621406713984
 20
201.005952720505
 30
0.0
 10
246.3505211349565
 20
200.9511529825917
 30
0.0
 10
246.3149724696501
 20
200.9094135188364
 30
0.0
 10
246.2762976508685
 20
200.8794129393617
 30
0.0
 10
246.25368270103
 20
200.8658163962552
 30
0.0
 10
246.242372157989
 20
200.8590162800881
 30
0.0
  0
SPLINE
  5
19B
330
1F
100
AcDbEntity
  8
0
  6
Continuous
 62
     7
370
    18
100
AcDbSpline
210
0.0
220
0.0
230
1.0
 70
     8
 71
     3
 72
    11
 73
     7
 74
     0
 42
0.000000001
 43
0.00000001
 40
0.0
 40
0.0
 40
0.0
 40
0.0
 40
0.254940424284148
 40
0.5025429440263294
 40
0.7505030421923252
 40
1.0
 40
1.0
 40
1.0
 40
1.0
 10
246.7866977790133
 20
201.1267863817453
 30
0.0
 10
246.7552336553475
 20
201.110166445026
 30
0.0
 10
246.6932110342486
 20
201.0774049402471
 30
0.0
 10
246.5779217321958
 20
201.0454760423205
 30
0.0
 10
246.4506299001254
 20
201.0345294619491
 30
0.0
 10
246.3731828666849
 20
201.0490131983638
 30
0.0
 10
246.3343397163011
 20
201.0562774398289
 30
0.0
  0
SPLINE
  5
19C
330
1F
100
AcDbEntity
  8
0
  6
Continuous
 62
     7
370
    18
100
AcDbSpline
210
0.0
220
0.0
230
1.0
 70
     8
 71
     3
 72
    13
 73
     9
 74
     0
 42
0.000000001
 43
0.00000001
 40
0.0
 40
0.0
 40
0.0
 40
0.0
 40
0.1252444907366448
 40
0.2504110042335243
 40
0.3723602335846192
 40
0.5008524596293331
 40
0.7500227866975341
 40
1.0
 40
1.0
 40
1.0
 40
1.0
 10
246.830744662242
 20
201.4679862200792
 30
0.0
 10
246.8503039013769
 20
201.4569699579977
 30
0.0
 10
246.8894102020614
 20
201.4349442925612
 30
0.0
 10
246.9279615664914
 20
201.3934618972065
 30
0.0
 10
246.9474478746255
 20
201.3473080078012
 30
0.0
 10
246.947355112261
 20
201.2834169231235
 30
0.0
 10
246.9031676683671
 20
201.2026651005671
 30
0.0
 10
246.8255628922424
 20
201.1521065311424
 30
0.0
 10
246.7866977790132
 20
201.1267863817453
 30
0.0
  0
LINE
  5
19D
330
1F
100
AcDbEntity
  8
0
  6
Continuous
 62
     7
370
    18
100
AcDbLine
 10
245.5260444517
 20
201.7253139208
 30
0.0
 11
245.9459497361
 21
201.8715303111
 31
0.0
  0
ARC
  5
19E
330
1F
100
AcDbEntity
  8
0
  6
Continuous
 62
     7
370
    18
100
AcDbCircle
 10
237.7108327304
 20
183.8968604791
 30
0.0
 40
19.4661574629381
100
AcDbArc
 50
66.329463527
 51
67.5372101126
  0
LINE
  5
19F
330
1F
100
AcDbEntity
  8
0
  6
Continuous
 62
     7
370
    18
100
AcDbLine
 10
245.3796878
 20
202.1126680831
 30
0.0
 11
245.1485273528
 21
201.8860790579
 31
0.0
  0
ARC
  5
1A0
330
1F
100
AcDbEntity
  8
0
  6
Continuous
 62
     7
370
    18
100
AcDbCircle
 10
238.271122094
 20
184.6525525066
 30
0.0
 40
18.85171987752712
100
AcDbArc
 50
67.8472059617
 51
68.2283942784
  0
LINE
  5
1A1
330
1F
100
AcDbEntity
  8
0
  6
Continuous
 62
     7
370
    18
100
AcDbLine
 10
244.5184091734
 20
201.3889273022
 30
0.0
 11
245.2633693416
 21
202.1595745483
 31
0.0
  0
ARC
  5
1A2
330
1F
100
AcDbEntity
  8
0
  6
Continuous
 62
     7
370
    18
100
AcDbCircle
 10
236.9460266629
 20
183.4556251429
 30
0.0
 40
19.46649180575635
100
AcDbArc
 50
66.7579985203
 51
67.1079737641
  0
LINE
  5
1A3
330
1F
100
AcDbEntity
  8
0
  6
Continuous
 62
     7
370
    18
100
AcDbLine
 10
246.0630745841
 20
201.8190211712
 30
0.0
 11
244.6278077889
 21
201.3423392613
 31
0.0
  0
ARC
  5
1A4
330
1F
100
AcDbEntity
  8
0
  6
Continuous
 62
     7
370
    18
100
AcDbCircle
 10
237.7844995596
 20
183.5100348993
 30
0.0
 40
20.09362542553609
100
AcDbArc
 50
65.6694620368
 51
66.0354641367
  0
LINE
  5
1A5
330
1F
100
AcDbEntity
  8
0
  6
Continuous
 62
     7
370
    18
100
AcDbLine
 10
245.6383751042
 20
201.5448528952
 30
0.0
 11
245.7657362473
 21
201.6183769181
 31
0.0
  0
ARC
  5
1A6
330
1F
100
AcDbEntity
  8
0
  6
Continuous
 62
     7
370
    18
100
AcDbCircle
 10
237.1342786166
 20
182.8153969204
 30
0.0
 40
20.56969076532617
100
AcDbArc
 50
64.5412001781
 51
65.5796091647
  0
LINE
  5
1A7
330
1F
100
AcDbEntity
  8
0
  6
Continuous
 62
     7
370
    18
100
AcDbLine
 10
246.1037672593
 20
201.4611841189
 30
0.0
 11
245.9764061162
 21
201.387660096
 31
0.0
  0
ARC
  5
1A8
330
1F
100
AcDbEntity
  8
0
  6
Continuous
 62
     7
370
    18
100
AcDbCircle
 10
237.2616397595
 20
182.8889209429
 30
0.0
 40
20.56969076581211
100
AcDbArc
 50
64.5412001781
 51
65.5796091647
  0
SPLINE
  5
1A9
330
1F
100
AcDbEntity
  8
0
  6
Continuous
 62
     7
370
    18
100
AcDbSpline
210
0.0
220
0.0
230
1.0
 70
     8
 71
     3
 72
    15
 73
    11
 74
     0
 42
0.000000001
 43
0.00000001
 40
0.0
 40
0.0
 40
0.0
 40
0.0
 40
0.1249633618473887
 40
0.2499685816824425
 40
0.3768714021131122
 40
0.499985461123215
 40
0.6262440668566441
 40
0.7505044898300335
 40
0.8757014246527529
 40
1.0
 40
1.0
 40
1.0
 40
1.0
 10
247.6725708116295
 20
201.0071858675394
 30
0.0
 10
247.6275922652752
 20
200.9840143756553
 30
0.0
 10
247.5376201064592
 20
200.937663630316
 30
0.0
 10
247.3876615781843
 20
200.8777963860576
 30
0.0
 10
247.2332575999317
 20
200.8229813454687
 30
0.0
 10
247.07227838202
 20
200.7738090658318
 30
0.0
 10
246.907160581479
 20
200.7310048332199
 30
0.0
 10
246.7363188963274
 20
200.6947637156894
 30
0.0
 10
246.5628459070073
 20
200.6642421443588
 30
0.0
 10
246.4441010031134
 20
200.6514073742006
 30
0.0
 10
246.3849423337902
 20
200.6450130962254
 30
0.0
  0
ARC
  5
1AA
330
1F
100
AcDbEntity
  8
0
  6
Continuous
 62
     7
370
    18
100
AcDbCircle
 10
236.4007411785
 20
180.7474035215
 30
0.0
 40
23.1843249628953
100
AcDbArc
 50
60.9099774872
 51
61.2295740937
  0
SPLINE
  5
1AB
330
1F
100
AcDbEntity
  8
0
  6
Continuous
 62
     7
370
    18
100
AcDbSpline
210
0.0
220
0.0
230
1.0
 70
     8
 71
     3
 72
    14
 73
    10
 74
     0
 42
0.000000001
 43
0.00000001
 40
0.0
 40
0.0
 40
0.0
 40
0.0
 40
0.124973765510818
 40
0.2499756241557851
 40
0.3702753063787285
 40
0.5000243819262674
 40
0.6669052327985203
 40
0.8333316815261793
 40
1.0
 40
1.0
 40
1.0
 40
1.0
 10
246.2486071287907
 20
200.6916603324614
 30
0.0
 10
246.3091796497465
 20
200.6987734154582
 30
0.0
 10
246.4303383078917
 20
200.7130011804178
 30
0.0
 10
246.6048013397699
 20
200.7460518611602
 30
0.0
 10
246.7771566622851
 20
200.7857877433561
 30
0.0
 10
246.964176599013
 20
200.8360402449743
 30
0.0
 10
247.164864731468
 20
200.899587845654
 30
0.0
 10
247.3714803616407
 20
200.9779440934842
 30
0.0
 10
247.4967209472117
 20
201.0391297359244
 30
0.0
 10
247.5593867104032
 20
201.0697447714769
 30
0.0
  0
LINE
  5
1AC
330
1F
100
AcDbEntity
  8
0
  6
Continuous
 62
     7
370
    18
100
AcDbLine
 10
246.1444628608
 20
200.6315391263
 30
0.0
 11
246.2486071288
 21
200.6916603325
 31
0.0
  0
ARC
  5
1AD
330
1F
100
AcDbEntity
  8
0
  6
Continuous
 62
     7
370
    18
100
AcDbCircle
 10
235.4275397272
 20
180.310023843
 30
0.0
 40
22.97425569757962
100
AcDbArc
 50
60.5463527601
 51
62.1942563272
  0
LINE
  5
1AE
330
1F
100
AcDbEntity
  8
0
  6
Continuous
 62
     7
370
    18
100
AcDbLine
 10
246.8517852041
 20
200.3884679908
 30
0.0
 11
246.7244240611
 21
200.3149439679
 31
0.0
  0
ARC
  5
1AF
330
1F
100
AcDbEntity
  8
0
  6
Continuous
 62
     7
370
    18
100
AcDbCircle
 10
235.500758381
 20
180.2856985111
 30
0.0
 40
23.08608131952456
100
AcDbArc
 50
60.5487592346
 51
61.8708334664
  0
LINE
  5
1B0
330
1F
100
AcDbEntity
  8
0
  6
Continuous
 62
     7
370
    18
100
AcDbLine
 10
248.4648164736
 20
200.2253976881
 30
0.0
 11
248.7336899978
 21
200.3806150697
 31
0.0
  0
ARC
  5
1B1
330
1F
100
AcDbEntity
  8
0
  6
Continuous
 62
     7
370
    18
100
AcDbCircle
 10
235.0617788131
 20
178.7679470297
 30
0.0
 40
25.29947839948786
100
AcDbArc
 50
58.009728921
 51
58.3489451069
  0
LINE
  5
1B2
330
1F
100
AcDbEntity
  8
0
  6
Continuous
 62
     7
370
    18
100
AcDbLine
 10
248.2101836398
 20
200.2308490149
 30
0.0
 11
248.3375447828
 21
200.3043730378
 31
0.0
  0
ARC
  5
1B3
330
1F
100
AcDbEntity
  8
0
  6
Continuous
 62
     7
370
    18
100
AcDbCircle
 10
234.9344176689
 20
178.694423005
 30
0.0
 40
25.29947840154884
100
AcDbArc
 50
58.009728921
 51
58.3489451069
  0
LINE
  5
1B4
330
1F
100
AcDbEntity
  8
0
  6
Continuous
 62
     7
370
    18
100
AcDbLine
 10
247.6298934247
 20
199.7434068714
 30
0.0
 11
248.3374553305
 21
200.1518736652
 31
0.0
  0
ARC
  5
1B5
330
1F
100
AcDbEntity
  8
0
  6
Continuous
 62
     7
370
    18
100
AcDbCircle
 10
234.1007704071
 20
178.0840274136
 30
0.0
 40
25.53753880315849
100
AcDbArc
 50
57.7271402122
 51
58.0098166246
  0
LINE
  5
1B6
330
1F
100
AcDbEntity
  8
0
  6
Continuous
 62
     7
370
    18
100
AcDbLine
 10
248.831990582
 20
199.8350816054
 30
0.0
 11
247.7365877904
 21
199.6763957971
 31
0.0
  0
LINE
  5
1B7
330
1F
100
AcDbEntity
  8
0
  6
Continuous
 62
     7
370
    18
100
AcDbLine
 10
248.9593517251
 20
199.9086056283
 30
0.0
 11
248.831990582
 21
199.8350816054
 31
0.0
  0
ARC
  5
1B8
330
1F
100
AcDbEntity
  8
0
  6
Continuous
 62
     7
370
    18
100
AcDbCircle
 10
234.6617690973
 20
178.1344402281
 30
0.0
 40
26.04870722073835
100
AcDbArc
 50
56.7098734821
 51
57.7079130018
  0
LINE
  5
1B9
330
1F
100
AcDbEntity
  8
0
  6
Continuous
 62
     7
370
    18
100
AcDbLine
 10
248.8467895333
 20
200.3095577685
 30
0.0
 11
248.5779160091
 21
200.1543403869
 31
0.0
  0
ARC
  5
1BA
330
1F
100
AcDbEntity
  8
0
  6
Continuous
 62
     7
370
    18
100
AcDbCircle
 10
235.2011025903
 20
178.7157101633
 30
0.0
 40
25.54406049441541
100
AcDbArc
 50
57.7101941549
 51
58.0097918505
  0
LINE
  5
1BB
330
1F
100
AcDbEntity
  8
0
  6
Continuous
 62
     7
370
    18
100
AcDbLine
 10
249.536490925
 20
199.4467932072
 30
0.0
 11
249.9565080777
 21
199.5684286064
 31
0.0
  0
ARC
  5
1BC
330
1F
100
AcDbEntity
  8
0
  6
Continuous
 62
     7
370
    18
100
AcDbCircle
 10
233.8826486725
 20
177.0148975867
 30
0.0
 40
27.35384284506843
100
AcDbArc
 50
55.0911783698
 51
56.0538588426
  0
LINE
  5
1BD
330
1F
100
AcDbEntity
  8
0
  6
Continuous
 62
     7
370
    18
100
AcDbLine
 10
249.3878841884
 20
199.9581701662
 30
0.0
 11
249.157399677
 21
199.7066295643
 31
0.0
  0
ARC
  5
1BE
330
1F
100
AcDbEntity
  8
0
  6
Continuous
 62
     7
370
    18
100
AcDbCircle
 10
234.6027034573
 20
177.7888957811
 30
0.0
 40
26.64729434696002
100
AcDbArc
 50
56.2997985251
 51
56.6024466568
  0
LINE
  5
1BF
330
1F
100
AcDbEntity
  8
0
  6
Continuous
 62
     7
370
    18
100
AcDbLine
 10
248.5280473729
 20
199.1741533211
 30
0.0
 11
249.2705757852
 21
200.0359588993
 31
0.0
  0
ARC
  5
1C0
330
1F
100
AcDbEntity
  8
0
  6
Continuous
 62
     7
370
    18
100
AcDbCircle
 10
233.1177000305
 20
176.5735000401
 30
0.0
 40
27.35449385278597
100
AcDbArc
 50
55.4327586802
 51
55.7117194914
  0
LINE
  5
1C1
330
1F
100
AcDbEntity
  8
0
  6
Continuous
 62
     7
370
    18
100
AcDbLine
 10
250.0736155926
 20
199.4855401299
 30
0.0
 11
248.6379020004
 21
199.0988560806
 31
0.0
  0
ARC
  5
1C2
330
1F
100
AcDbEntity
  8
0
  6
Continuous
 62
     7
370
    18
100
AcDbCircle
 10
233.8029699817
 20
176.6220177231
 30
0.0
 40
28.0619772190669
100
AcDbArc
 50
54.5627431564
 51
54.8556818818
  0
LINE
  5
1C3
330
1F
100
AcDbEntity
  8
0
  6
Continuous
 62
     7
370
    18
100
AcDbLine
 10
249.9743647124
 20
199.3919858908
 30
0.0
 11
250.1017258554
 21
199.4655099137
 31
0.0
  0
ARC
  5
1C4
330
1F
100
AcDbEntity
  8
0
  6
Continuous
 62
     7
370
    18
100
AcDbCircle
 10
233.3007566459
 20
176.0252138545
 30
0.0
 40
28.7056656663785
100
AcDbArc
 50
53.3811460546
 51
54.4898415131
  0
LINE
  5
1C5
330
1F
100
AcDbEntity
  8
0
  6
Continuous
 62
     7
370
    18
100
AcDbLine
 10
249.4610868514
 20
198.5094758703
 30
0.0
 11
250.4233710434
 21
199.0649907099
 31
0.0
  0
ARC
  5
1C6
330
1F
100
AcDbEntity
  8
0
  6
Continuous
 62
     7
370
    18
100
AcDbCircle
 10
231.9929685229
 20
175.0024053692
 30
0.0
 40
29.28681480605447
100
AcDbArc
 50
53.1104417165
 51
53.3839372767
  0
LINE
  5
1C7
330
1F
100
AcDbEntity
  8
0
  6
Continuous
 62
     7
370
    18
100
AcDbLine
 10
250.662741356
 20
199.0548649604
 30
0.0
 11
249.573096021
 21
198.425826098
 31
0.0
  0
ARC
  5
1C8
330
1F
100
AcDbEntity
  8
0
  6
Continuous
 62
     7
370
    18
100
AcDbCircle
 10
233.3601843003
 20
176.004980147
 30
0.0
 40
28.82144463026007
100
AcDbArc
 50
53.106018744
 51
54.4881720498
  0
LWPOLYLINE
  5
1C9
330
1F
100
AcDbEntity
  8
0
  6
Continuous
 62
     7
370
    18
100
AcDbPolyline
 90
       63
 70
   128
 43
0.0
 10
266.3474524457
 20
169.9386994834
 10
266.3341104906
 20
170.7456767969
 10
266.2941044475
 20
171.5668594786
 10
266.2274937532
 20
172.4010274985
 10
266.1343773712
 20
173.2469415344
 10
266.0148936444
 20
174.1033448126
 10
265.8692200896
 20
174.9689649761
 10
265.6975731339
 20
175.8425159739
 10
265.5002077928
 20
176.7226999726
 10
265.2774172918
 20
177.6082092839
 10
265.0295326306
 20
178.4977283076
 10
264.7569220909
 20
179.3899354866
 10
264.45999069
 20
180.2835052697
 10
264.1391795784
 20
181.1771100815
 10
263.7949653848
 20
182.0694222945
 10
263.4278595078
 20
182.9591162014
 10
263.0384073562
 20
183.8448699853
 10
262.6271875385
 20
184.7253676828
 10
262.1948110034
 20
185.5993011396
 10
261.7419201322
 20
186.465371954
 10
261.2691877844
 20
187.3222934055
 10
260.7773162977
 20
188.1687923672
 10
260.267036445
 20
189.0036111965
 10
259.7391063484
 20
189.8255096041
 10
259.1943103531
 20
190.6332664968
 10
258.6334578617
 20
191.425681791
 10
258.057382132
 20
192.2015781965
 10
257.4669390391
 20
192.9598029648
 10
256.8630058034
 20
193.6992296024
 10
256.2464796879
 20
194.4187595441
 10
255.6182766646
 20
195.1173237852
 10
254.9793300539
 20
195.7938844697
 10
254.330589138
 20
196.4474364322
 10
253.6730177504
 20
197.0770086914
 10
253.0075928441
 20
197.6816658926
 10
252.3353030401
 20
198.2605096974
 10
251.6571471585
 20
198.8126801183
 10
250.9741327345
 20
199.3373567963
 10
250.2872745219
 20
199.83376022
 10
249.597592985
 20
200.3011528835
 10
248.9061127828
 20
200.7388403821
 10
248.2138612466
 20
201.146172444
 10
247.5218668535
 20
201.5225438965
 10
246.8311576989
 20
201.867395565
 10
246.1427599683
 20
202.1802151038
 10
245.4576964134
 20
202.4605377573
 10
244.7769848323
 20
202.7079470506
 10
244.1016365574
 20
202.9220754079
 10
243.4326549525
 20
203.1026046991
 10
242.771033923
 20
203.2492667119
 10
242.1177564383
 20
203.3618435509
 10
241.4737930719
 20
203.4401679607
 10
240.8401005595
 20
203.4841235748
 10
240.2176203771
 20
203.4936450886
 10
239.6072773427
 20
203.4687183558
 10
239.0099782423
 20
203.4093804101
 10
238.4266104824
 20
203.3157194098
 10
237.8580407716
 20
203.187874507
 10
237.3051138333
 20
203.0260356406
 10
236.7686511504
 20
202.8304432544
 10
236.2494497447
 20
202.6013879398
 10
235.7482809932
 20
202.339210004
 10
235.6879722991
 20
202.3047236081
  0
LWPOLYLINE
  5
1CA
330
1F
100
AcDbEntity
  8
0
  6
Continuous
 62
     7
370
    18
100
AcDbPolyline
 90
       22
 70
   128
 43
0.0
 10
261.0859081081
 20
158.3094413991
 10
261.2691877844
 20
158.4183451368
 10
261.7419201322
 20
158.7294614373
 10
262.1948110034
 20
159.072635582
 10
262.6271875385
 20
159.4473577174
 10
263.0384073562
 20
159.8530711194
 10
263.4278595078
 20
160.2891730201
 10
263.7949653848
 20
160.7550155034
 10
264.1391795784
 20
161.2499064678
 10
264.45999069
 20
161.7731106544
 10
264.7569220909
 20
162.3238507394
 10
265.0295326306
 20
162.9013084889
 10
265.2774172918
 20
163.5046259747
 10
265.5002077928
 20
164.1329068488
 10
265.6975731339
 20
164.7852176751
 10
265.8692200896
 20
165.4605893162
 10
266.0148936444
 20
166.1580183733
 10
266.1343773712
 20
166.8764686771
 10
266.2274937532
 20
167.6148728266
 10
266.2941044475
 20
168.372133776
 10
266.3341104906
 20
169.1471264635
 10
266.3474524457
 20
169.9386994834
  0
ARC
  5
1CB
330
1F
100
AcDbEntity
  8
0
  6
Continuous
 62
     7
370
    18
100
AcDbCircle
 10
227.6223242052
 20
168.3199248415
 30
0.0
 40
38.76425492077421
100
AcDbArc
 50
2.5745121549
 51
57.4201113124
  0
ARC
  5
1CC
330
1F
100
AcDbEntity
  8
0
  6
Continuous
 62
     7
370
    18
100
AcDbCircle
 10
233.7549072717
 20
176.9411607686
 30
0.0
 40
27.35423334577942
100
AcDbArc
 50
55.1851019229
 51
55.9593762487
  0
LINE
  5
1CD
330
1F
100
AcDbEntity
  8
0
  6
Continuous
 62
     7
370
    18
100
AcDbLine
 10
249.0672754857
 20
199.607996931
 30
0.0
 11
248.8586392612
 21
199.3735941832
 31
0.0
  0
LINE
  5
1CE
330
1F
100
AcDbEntity
  8
0
  6
Continuous
 62
     7
370
    18
100
AcDbLine
 10
248.8586392612
 20
199.3735941832
 30
0.0
 11
248.6963035294
 21
199.2021553344
 31
0.0
  0
LINE
  5
1CF
330
1F
100
AcDbEntity
  8
0
  6
Continuous
 62
     7
370
    18
100
AcDbLine
 10
248.6963035294
 20
199.2021553344
 30
0.0
 11
248.9530096826
 21
199.2866157988
 31
0.0
  0
LINE
  5
1D0
330
1F
100
AcDbEntity
  8
0
  6
Continuous
 62
     7
370
    18
100
AcDbLine
 10
248.9530096826
 20
199.2866157988
 30
0.0
 11
249.3721794041
 21
199.3990077953
 31
0.0
  0
LINE
  5
1D1
330
1F
100
AcDbEntity
  8
0
  6
Continuous
 62
     7
370
    18
100
AcDbLine
 10
248.450554866
 20
200.080816364
 30
0.0
 11
247.9581360022
 21
199.7965490047
 31
0.0
  0
LINE
  5
1D2
330
1F
100
AcDbEntity
  8
0
  6
Continuous
 62
     7
370
    18
100
AcDbLine
 10
247.9581360022
 20
199.7965490047
 30
0.0
 11
248.7205676497
 21
199.9078366426
 31
0.0
  0
ARC
  5
1D3
330
1F
100
AcDbEntity
  8
0
  6
Continuous
 62
     7
370
    18
100
AcDbCircle
 10
234.595683482
 20
178.1568197035
 30
0.0
 40
25.93490101462508
100
AcDbArc
 50
57.0007251732
 51
57.7091575033
  0
SPLINE
  5
1D4
330
1F
100
AcDbEntity
  8
0
  6
Continuous
 62
     7
370
    18
100
AcDbSpline
210
0.0
220
0.0
230
1.0
 70
     8
 71
     3
 72
    13
 73
     9
 74
     0
 42
0.000000001
 43
0.00000001
 40
0.0
 40
0.0
 40
0.0
 40
0.0
 40
0.5005004930201278
 40
0.6256636589938217
 40
0.7505675648145861
 40
0.8750425443896264
 40
0.9375087936138926
 40
1.0
 40
1.0
 40
1.0
 40
1.0
 10
247.8352634167687
 20
200.2829391002236
 30
0.0
 10
247.9224244824461
 20
200.3346033975625
 30
0.0
 10
248.031382439599
 20
200.3991876962059
 30
0.0
 10
248.1279605728234
 20
200.4926349505974
 30
0.0
 10
248.1552985839308
 20
200.5452374694119
 30
0.0
 10
248.1550202076845
 20
200.5918331993002
 30
0.0
 10
248.1323989399954
 20
200.6265000226302
 30
0.0
 10
248.1118064241999
 20
200.640353526062
 30
0.0
 10
248.1015081098792
 20
200.6472816612252
 30
0.0
  0
SPLINE
  5
1D5
330
1F
100
AcDbEntity
  8
0
  6
Continuous
 62
     7
370
    18
100
AcDbSpline
210
0.0
220
0.0
230
1.0
 70
     8
 71
     3
 72
    13
 73
     9
 74
     0
 42
0.000000001
 43
0.00000001
 40
0.0
 40
0.0
 40
0.0
 40
0.0
 40
0.0616735338153983
 40
0.1248508333811961
 40
0.2494271240069715
 40
0.3743607623000128
 40
0.4995360139416453
 40
0.9999999999999999
 40
0.9999999999999999
 40
0.9999999999999999
 40
0.9999999999999999
 10
248.1015081098792
 20
200.6472816612252
 30
0.0
 10
248.0898669860439
 20
200.6531308058336
 30
0.0
 10
248.0663008966303
 20
200.6649717128443
 30
0.0
 10
248.0070663685369
 20
200.6772145551218
 30
0.0
 10
247.928380670591
 20
200.6754988658795
 30
0.0
 10
247.8396931751699
 20
200.659527151256
 30
0.0
 10
247.6810734682847
 20
200.6038226014313
 30
0.0
 10
247.570200913813
 20
200.5415980078066
 30
0.0
 10
247.4815112709456
 20
200.4918230476063
 30
0.0
  0
SPLINE
  5
1D6
330
1F
100
AcDbEntity
  8
0
  6
Continuous
 62
     7
370
    18
100
AcDbSpline
210
0.0
220
0.0
230
1.0
 70
     8
 71
     3
 72
    14
 73
    10
 74
     0
 42
0.000000001
 43
0.00000001
 40
0.0
 40
0.0
 40
0.0
 40
0.0
 40
0.5001768892864924
 40
0.6252574059156788
 40
0.7500665703926679
 40
0.8136200064108093
 40
0.8751160850254335
 40
0.9375339543422411
 40
1.0
 40
1.0
 40
1.0
 40
1.0
 10
247.4815112709456
 20
200.4918230476063
 30
0.0
 10
247.3941275932592
 20
200.4400586690416
 30
0.0
 10
247.2848916553342
 20
200.37534943966
 30
0.0
 10
247.1881194096678
 20
200.2823689477348
 30
0.0
 10
247.1654389727909
 20
200.2384468110466
 30
0.0
 10
247.1615025411315
 20
200.2022044799201
 30
0.0
 10
247.168264393107
 20
200.1751527228983
 30
0.0
 10
247.1855290620685
 20
200.1494409417712
 30
0.0
 10
247.2062490667369
 20
200.1356131470188
 30
0.0
 10
247.2166130656386
 20
200.1286965824754
 30
0.0
  0
SPLINE
  5
1D7
330
1F
100
AcDbEntity
  8
0
  6
Continuous
 62
     7
370
    18
100
AcDbSpline
210
0.0
220
0.0
230
1.0
 70
     8
 71
     3
 72
    13
 73
     9
 74
     0
 42
0.000000001
 43
0.00000001
 40
0.0
 40
0.0
 40
0.0
 40
0.0
 40
0.0624077384370359
 40
0.1248765120369545
 40
0.2493773532080399
 40
0.3743117964893626
 40
0.4995105052567174
 40
1.0
 40
1.0
 40
1.0
 40
1.0
 10
247.2166130656386
 20
200.1286965824754
 30
0.0
 10
247.2283843210324
 20
200.1227686382229
 30
0.0
 10
247.2519383441822
 20
200.110906952151
 30
0.0
 10
247.3112891515269
 20
200.0987875597896
 30
0.0
 10
247.3895642099883
 20
200.1003145276794
 30
0.0
 10
247.4779299716533
 20
200.1160233144498
 30
0.0
 10
247.6359586423431
 20
200.1712932950807
 30
0.0
 10
247.7466895211865
 20
200.2333221057717
 30
0.0
 10
247.8352634167687
 20
200.2829391002236
 30
0.0
  0
SPLINE
  5
1D8
330
1F
100
AcDbEntity
  8
0
  6
Continuous
 62
     7
370
    18
100
AcDbSpline
210
0.0
220
0.0
230
1.0
 70
     8
 71
     3
 72
    13
 73
     9
 74
     0
 42
0.000000001
 43
0.00000001
 40
0.0
 40
0.0
 40
0.0
 40
0.0
 40
0.2502067636241208
 40
0.4995934042513867
 40
0.6285423280098681
 40
0.7498434534357272
 40
0.8748228880129176
 40
1.0
 40
1.0
 40
1.0
 40
1.0
 10
246.1262390008322
 20
200.9152778445534
 30
0.0
 10
246.1458475764765
 20
200.9276660371737
 30
0.0
 10
246.1850004551465
 20
200.9524018166308
 30
0.0
 10
246.2117760080573
 20
200.9912893858686
 30
0.0
 10
246.2169291050498
 20
201.0228984525826
 30
0.0
 10
246.2108209954387
 20
201.0461264037661
 30
0.0
 10
246.1946167414845
 20
201.0675090323759
 30
0.0
 10
246.1753016486835
 20
201.0785184001512
 30
0.0
 10
246.1656364707467
 20
201.0840274339216
 30
0.0
  0
SPLINE
  5
1D9
330
1F
100
AcDbEntity
  8
0
  6
Continuous
 62
     7
370
    18
100
AcDbSpline
210
0.0
220
0.0
230
1.0
 70
     8
 71
     3
 72
    13
 73
     9
 74
     0
 42
0.000000001
 43
0.00000001
 40
0.0
 40
0.0
 40
0.0
 40
0.0
 40
0.1251815676850234
 40
0.2501929473421146
 40
0.3723460660678453
 40
0.5004912510715215
 40
0.7499120153691253
 40
1.0
 40
1.0
 40
1.0
 40
1.0
 10
246.1656364707467
 20
201.0840274339216
 30
0.0
 10
246.1550897367816
 20
201.0886544783192
 30
0.0
 10
246.1340106074469
 20
201.0979022765114
 30
0.0
 10
246.094605257079
 20
201.1047041719569
 30
0.0
 10
246.0528763686795
 20
201.106545453629
 30
0.0
 10
245.9967904873902
 20
201.1022487626906
 30
0.0
 10
245.9283166256475
 20
201.086795180255
 30
0.0
 10
245.8862885190981
 20
201.064913661329
 30
0.0
 10
245.8652463962378
 20
201.0539582877133
 30
0.0
  0
SPLINE
  5
1DA
330
1F
100
AcDbEntity
  8
0
  6
Continuous
 62
     7
370
    18
100
AcDbSpline
210
0.0
220
0.0
230
1.0
 70
     8
 71
     3
 72
    13
 73
     9
 74
     0
 42
0.000000001
 43
0.00000001
 40
0.0
 40
0.0
 40
0.0
 40
0.0
 40
0.2500780682066968
 40
0.4995201720563772
 40
0.6278054752227511
 40
0.749845798984389
 40
0.8748427878142063
 40
1.0
 40
1.0
 40
1.0
 40
1.0
 10
245.8652463962378
 20
201.0539582877133
 30
0.0
 10
245.8460115813273
 20
201.0416446682737
 30
0.0
 10
245.8075908668582
 20
201.0170487437082
 30
0.0
 10
245.7826119860921
 20
200.9787286297856
 30
0.0
 10
245.7780883052872
 20
200.9478088619673
 30
0.0
 10
245.7839610521063
 20
200.9250747671418
 30
0.0
 10
245.7990627029869
 20
200.9038272958292
 30
0.0
 10
245.81790392132
 20
200.8928113656049
 30
0.0
 10
245.8273305643714
 20
200.8872998726501
 30
0.0
  0
SPLINE
  5
1DB
330
1F
100
AcDbEntity
  8
0
  6
Continuous
 62
     7
370
    18
100
AcDbSpline
210
0.0
220
0.0
230
1.0
 70
     8
 71
     3
 72
    14
 73
    10
 74
     0
 42
0.000000001
 43
0.00000001
 40
0.0
 40
0.0
 40
0.0
 40
0.0
 40
0.1251179659101727
 40
0.2500243364123995
 40
0.371113511088216
 40
0.5002408244336064
 40
0.7495848393739875
 40
0.8747312240764253
 40
1.0
 40
1.0
 40
1.0
 40
1.0
 10
245.8273305643714
 20
200.8872998726501
 30
0.0
 10
245.8377994006946
 20
200.8827060173134
 30
0.0
 10
245.8587193687877
 20
200.8735260756176
 30
0.0
 10
245.8977031855052
 20
200.8665717876034
 30
0.0
 10
245.9391628558532
 20
200.8647895235269
 30
0.0
 10
245.9948771395471
 20
200.8685905742129
 30
0.0
 10
246.0490439426144
 20
200.8804887412807
 30
0.0
 10
246.0956780128169
 20
200.8987229387611
 30
0.0
 10
246.1160486860829
 20
200.9097577448569
 30
0.0
 10
246.1262390008322
 20
200.9152778445534
 30
0.0
  0
SPLINE
  5
1DC
330
1F
100
AcDbEntity
  8
0
  6
Continuous
 62
     7
370
    18
100
AcDbSpline
210
0.0
220
0.0
230
1.0
 70
     8
 71
     3
 72
    13
 73
     9
 74
     0
 42
0.000000001
 43
0.00000001
 40
0.0
 40
0.0
 40
0.0
 40
0.0
 40
0.2501524270036025
 40
0.4995466439627419
 40
0.6295381089674286
 40
0.7499105482960525
 40
0.8723404778943287
 40
0.9999999999999999
 40
0.9999999999999999
 40
0.9999999999999999
 40
0.9999999999999999
 10
246.6732035433647
 20
201.1848965909167
 30
0.0
 10
246.6981746951123
 20
201.2009158161466
 30
0.0
 10
246.7480413112424
 20
201.2329057124602
 30
0.0
 10
246.7804583907366
 20
201.2835585476115
 30
0.0
 10
246.7839044541039
 20
201.3241864692447
 30
0.0
 10
246.7758648973495
 20
201.3538178727377
 30
0.0
 10
246.7545032121822
 20
201.3810516666435
 30
0.0
 10
246.7300281738599
 20
201.3953386596932
 30
0.0
 10
246.7175347573066
 20
201.4026315330736
 30
0.0
  0
SPLINE
  5
1DD
330
1F
100
AcDbEntity
  8
0
  6
Continuous
 62
     7
370
    18
100
AcDbSpline
210
0.0
220
0.0
230
1.0
 70
     8
 71
     3
 72
    13
 73
     9
 74
     0
 42
0.000000001
 43
0.00000001
 40
0.0
 40
0.0
 40
0.0
 40
0.0
 40
0.1277804457822757
 40
0.2499838595237533
 40
0.3731260911580641
 40
0.5005306742957739
 40
0.749841123418889
 40
0.9999999999999999
 40
0.9999999999999999
 40
0.9999999999999999
 40
0.9999999999999999
 10
246.7175347573066
 20
201.4026315330736
 30
0.0
 10
246.7033405007198
 20
201.4087465789374
 30
0.0
 10
246.6755715019272
 20
201.4207097768808
 30
0.0
 10
246.6247143499745
 20
201.4306505325764
 30
0.0
 10
246.5703875788784
 20
201.4334548099332
 30
0.0
 10
246.4967281408227
 20
201.4282508866865
 30
0.0
 10
246.4071925148481
 20
201.4074727217432
 30
0.0
 10
246.3521726121005
 20
201.3787605308355
 30
0.0
 10
246.3246159307337
 20
201.3643800492884
 30
0.0
  0
SPLINE
  5
1DE
330
1F
100
AcDbEntity
  8
0
  6
Continuous
 62
     7
370
    18
100
AcDbSpline
210
0.0
220
0.0
230
1.0
 70
     8
 71
     3
 72
    13
 73
     9
 74
     0
 42
0.000000001
 43
0.00000001
 40
0.0
 40
0.0
 40
0.0
 40
0.0
 40
0.2500592417833148
 40
0.4994349432723566
 40
0.625145993770234
 40
0.7472689877305816
 40
0.8747252736867741
 40
1.0
 40
1.0
 40
1.0
 40
1.0
 10
246.3246159307337
 20
201.3643800492884
 30
0.0
 10
246.2995987975894
 20
201.348311343344
 30
0.0
 10
246.24963291597
 20
201.3162178554787
 30
0.0
 10
246.2175430183994
 20
201.2663170553953
 30
0.0
 10
246.2139053677746
 20
201.2262990923591
 30
0.0
 10
246.222499738394
 20
201.1967935340233
 30
0.0
 10
246.2443026159253
 20
201.1694382645504
 30
0.0
 10
246.2693159334302
 20
201.1550676658729
 30
0.0
 10
246.2817146354196
 20
201.1479443896272
 30
0.0
  0
SPLINE
  5
1DF
330
1F
100
AcDbEntity
  8
0
  6
Continuous
 62
     7
370
    18
100
AcDbSpline
210
0.0
220
0.0
230
1.0
 70
     8
 71
     3
 72
    13
 73
     9
 74
     0
 42
0.000000001
 43
0.00000001
 40
0.0
 40
0.0
 40
0.0
 40
0.0
 40
0.1274551031183668
 40
0.2502159270565606
 40
0.3716919145713811
 40
0.5004961556705535
 40
0.7499042656609711
 40
1.0
 40
1.0
 40
1.0
 40
1.0
 10
246.2817146354196
 20
201.1479443896272
 30
0.0
 10
246.2957705124825
 20
201.1418283887834
 30
0.0
 10
246.3233645767753
 20
201.1298216445766
 30
0.0
 10
246.374345208624
 20
201.1203724445174
 30
0.0
 10
246.4284385442489
 20
201.1175182205678
 30
0.0
 10
246.5016038867234
 20
201.122496044843
 30
0.0
 10
246.5909218540811
 20
201.1422409064194
 30
0.0
 10
246.6457511539962
 20
201.1706649864152
 30
0.0
 10
246.6732035433647
 20
201.1848965909167
 30
0.0
  0
ARC
  5
1E0
330
1F
100
AcDbEntity
  8
0
  6
Continuous
 62
     7
370
    18
100
AcDbCircle
 10
237.5831771911
 20
183.8231885887
 30
0.0
 40
19.46640884642861
100
AcDbArc
 50
66.4472970438
 51
67.4186752407
  0
LINE
  5
1E1
330
1F
100
AcDbEntity
  8
0
  6
Continuous
 62
     7
370
    18
100
AcDbLine
 10
245.0581689235
 20
201.797213513
 30
0.0
 11
244.8490343837
 21
201.5865818581
 31
0.0
  0
LINE
  5
1E2
330
1F
100
AcDbEntity
  8
0
  6
Continuous
 62
     7
370
    18
100
AcDbLine
 10
244.8490343837
 20
201.5865818581
 30
0.0
 11
244.6864188648
 21
201.4312656642
 31
0.0
  0
LINE
  5
1E3
330
1F
100
AcDbEntity
  8
0
  6
Continuous
 62
     7
370
    18
100
AcDbLine
 10
244.6864188648
 20
201.4312656642
 30
0.0
 11
244.9429316117
 21
201.5288924757
 31
0.0
  0
LINE
  5
1E4
330
1F
100
AcDbEntity
  8
0
  6
Continuous
 62
     7
370
    18
100
AcDbLine
 10
244.9429316117
 20
201.5288924757
 30
0.0
 11
245.3618071705
 21
201.6679073878
 31
0.0
  0
INSERT
  5
1EA
330
1F
100
AcDbEntity
  8
0
  6
Continuous
 62
     7
370
     0
100
AcDbBlockReference
  2
SW_NOTE_5
 10
236.4989219898
 20
144.106883813
 30
0.0
  0
LINE
  5
1EB
330
1F
100
AcDbEntity
  8
0
  6
Continuous
 62
     7
370
    18
100
AcDbLine
 10
182.5541793857
 20
163.7559128026
 30
0.0
 11
181.7928814109
 21
163.7559128026
 31
0.0
  0
LINE
  5
1EC
330
1F
100
AcDbEntity
  8
0
  6
Continuous
 62
     7
370
    18
100
AcDbLine
 10
181.7928814109
 20
112.9559128026
 30
0.0
 11
184.4928814109
 21
112.9559128026
 31
0.0
  0
LINE
  5
1ED
330
1F
100
AcDbEntity
  8
0
  6
Continuous
 62
     7
370
    18
100
AcDbLine
 10
184.4928814109
 20
163.7559128026
 30
0.0
 11
183.7916069728
 21
163.7559128026
 31
0.0
  0
LINE
  5
1EE
330
1F
100
AcDbEntity
  8
0
  6
Continuous
 62
     7
370
    18
100
AcDbLine
 10
183.7916069728
 20
163.7559128026
 30
0.0
 11
182.5541793857
 21
163.7559128026
 31
0.0
  0
LINE
  5
1EF
330
1F
100
AcDbEntity
  8
0
  6
Continuous
 62
     7
370
    18
100
AcDbLine
 10
184.6428814109
 20
113.1059128026
 30
0.0
 11
184.4928814109
 21
112.9559128026
 31
0.0
  0
LINE
  5
1F0
330
1F
100
AcDbEntity
  8
0
  6
Continuous
 62
     7
370
    18
100
AcDbLine
 10
184.4928814109
 20
163.7559128026
 30
0.0
 11
184.6428814109
 21
163.6059128026
 31
0.0
  0
LINE
  5
1F1
330
1F
100
AcDbEntity
  8
0
  6
Continuous
 62
     7
370
    18
100
AcDbLine
 10
181.7928814109
 20
112.9559128026
 30
0.0
 11
181.5332977754
 21
113.0571261794
 31
0.0
  0
ARC
  5
1F2
330
1F
100
AcDbEntity
  8
0
  6
Continuous
 62
     7
370
    18
100
AcDbCircle
 10
205.0028813649
 20
138.3576942784
 30
0.0
 40
34.51000000000002
100
AcDbArc
 50
180.0029577238
 51
227.1500535489
  0
ARC
  5
1F3
330
1F
100
AcDbEntity
  8
0
  6
Continuous
 62
     7
370
    18
100
AcDbCircle
 10
205.0028813649
 20
138.3541313267
 30
0.0
 40
34.51000000000002
100
AcDbArc
 50
132.8499464511
 51
179.9970422762
  0
LINE
  5
1F4
330
1F
100
AcDbEntity
  8
0
  6
Continuous
 62
     7
370
    18
100
AcDbLine
 10
181.5332977754
 20
163.6546994258
 30
0.0
 11
181.7928814109
 21
163.7559128026
 31
0.0
  0
LINE
  5
1F5
330
1F
100
AcDbEntity
  8
0
  6
Continuous
 62
     7
370
    18
100
AcDbLine
 10
184.6428814109
 20
113.1059128026
 30
0.0
 11
184.6428814109
 21
163.6059128026
 31
0.0
  0
HATCH
  5
1F6
330
1F
100
AcDbEntity
  8
0
  6
Continuous
 62
     7
370
    18
100
AcDbHatch
 10
0.0
 20
0.0
 30
0.0
210
0.0
220
0.0
230
1.0
  2
ANSI31
 70
     0
 71
     0
 91
        1
 92
        0
 93
       11
 72
     1
 10
184.4928814108903
 20
112.9559128025694
 11
184.6428814108904
 21
113.1059128025694
 72
     1
 10
184.6428814108904
 20
113.1059128025694
 11
184.6428814108904
 21
163.6059128025694
 72
     1
 10
184.6428814108904
 20
163.6059128025694
 11
184.4928814108903
 21
163.7559128025694
 72
     1
 10
184.4928814108903
 20
163.7559128025694
 11
183.7916069728485
 21
163.7559128025694
 72
     1
 10
183.7916069728485
 20
163.7559128025694
 11
182.5541793857273
 21
163.7559128025694
 72
     1
 10
182.5541793857273
 20
163.7559128025694
 11
181.7928814108904
 21
163.7559128025694
 72
     1
 10
181.7928814108904
 20
163.7559128025694
 11
181.5332977754425
 21
163.6546994257886
 72
     2
 10
205.0028813649086
 20
138.3541313266913
 40
34.50999999999999
 50
132.8499464511036
 51
179.997042276176
 73
     1
 72
     2
 10
205.0028813649086
 20
138.3576942784475
 40
34.50999999999999
 50
180.0029577238248
 51
227.1500535488973
 73
     1
 72
     1
 10
181.5332977754425
 20
113.0571261793502
 11
181.7928814108904
 21
112.9559128025694
 72
     1
 10
181.7928814108904
 20
112.9559128025694
 11
184.4928814108903
 21
112.9559128025694
 97
        0
 75
     0
 76
     1
 52
0.0
 41
1.0
 77
     0
 78
     1
 53
45.0
 43
0.0
 44
0.0
 45
-2.245064030267288
 46
2.245064030267288
 79
     0
 98
        1
 10
0.0
 20
0.0
  0
DIMENSION
  5
1F7
330
1F
100
AcDbEntity
  8
0
  6
Continuous
 62
     7
370
    18
100
AcDbDimension
  2
_D_1
 10
184.4928814109
 20
173.755898663
 30
0.0
 11
202.4166417644
 21
173.755898663
 31
0.0
 70
   160
  1
<>\PREF
 71
     2
 42
-1.0
  3
SLDDIMSTYLE1
100
AcDbAlignedDimension
 13
181.5332977754
 23
163.6546994258
 33
0.0
 14
184.4928814109
 24
163.7559128026
 34
0.0
100
AcDbRotatedDimension
  0
DIMENSION
  5
20B
330
1F
100
AcDbEntity
  8
0
  6
Continuous
 62
     7
370
    18
100
AcDbDimension
  2
_D_2
 10
205.0028813649
 20
138.3541313267
 30
0.0
 11
151.0719917931
 21
164.9067485848
 31
0.0
 70
   164
  1
<>
 71
     1
 42
-1.0
  3
SLDDIMSTYLE2
100
AcDbRadialDimension
 15
175.4772177479
 25
156.2196088734
 35
0.0
 40
0.0
  0
DIMENSION
  5
21B
330
1F
100
AcDbEntity
  8
0
  6
Continuous
 62
     7
370
    18
100
AcDbDimension
  2
_D_3
 10
184.6428814109
 20
96.9559128026
 30
0.0
 11
200.6428814109
 21
96.9559128026
 31
0.0
 70
   160
  1
<>
 71
     2
 42
-1.0
  3
SLDDIMSTYLE3
100
AcDbAlignedDimension
 13
170.4928814109
 23
138.3559128026
 33
0.0
 14
184.6428814109
 24
113.1059128026
 34
0.0
100
AcDbRotatedDimension
  0
MTEXT
  5
230
330
1F
100
AcDbEntity
  8
0
  6
Continuous
 62
     7
370
     0
100
AcDbMText
 10
177.5919006797
 20
89.7427620676
 30
0.0
 40
2.1166666667
 41
0.0
 71
     2
 72
     1
  1
SECTION A-A
  7
SLDTEXTSTYLE0
 73
     1
 44
1.0
  0
ENDSEC
  0
SECTION
  2
OBJECTS
  0
DICTIONARY
  5
C
330
0
100
AcDbDictionary
281
     1
  3
ACAD_GROUP
350
D
  3
ACAD_LAYOUT
350
1A
  3
ACAD_MLINESTYLE
350
17
  3
ACAD_PLOTSETTINGS
350
19
  3
ACAD_PLOTSTYLENAME
350
E
  3
ACAD_SCALELIST
350
47
  0
DICTIONARY
  5
D
102
{ACAD_REACTORS
330
C
102
}
330
C
100
AcDbDictionary
281
     1
  0
DICTIONARY
  5
1A
102
{ACAD_REACTORS
330
C
102
}
330
C
100
AcDbDictionary
281
     1
  3
Layout1
350
1E
  3
Layout2
350
26
  3
Model
350
22
  0
DICTIONARY
  5
17
102
{ACAD_REACTORS
330
C
102
}
330
C
100
AcDbDictionary
281
     1
  3
Standard
350
18
  0
DICTIONARY
  5
19
102
{ACAD_REACTORS
330
C
102
}
330
C
100
AcDbDictionary
281
     1
  0
ACDBDICTIONARYWDFLT
  5
E
102
{ACAD_REACTORS
330
C
102
}
330
C
100
AcDbDictionary
281
     1
  3
Normal
350
F
100
AcDbDictionaryWithDefault
340
F
  0
DICTIONARY
  5
47
102
{ACAD_REACTORS
330
C
102
}
330
C
100
AcDbDictionary
281
     1
  3
A0
350
48
  3
A1
350
49
  3
A2
350
4A
  3
A3
350
4B
  3
A4
350
4C
  3
A5
350
4D
  3
A6
350
4E
  3
A7
350
4F
  3
A8
350
50
  3
A9
350
51
  3
B0
350
52
  3
B1
350
53
  3
B2
350
54
  3
B3
350
55
  3
B4
350
56
  3
B5
350
57
  3
B6
350
58
  3
B7
350
59
  3
B8
350
5A
  3
B9
350
5B
  3
C0
350
5C
  3
C1
350
5D
  3
C2
350
5E
  3
C3
350
5F
  3
C4
350
60
  3
C5
350
61
  3
C6
350
62
  3
C7
350
63
  3
C8
350
64
  3
C9
350
65
  3
D0
350
66
  3
D1
350
67
  3
D2
350
68
  0
LAYOUT
  5
1E
102
{ACAD_REACTORS
330
1A
102
}
330
1A
100
AcDbPlotSettings
  1

  2
none_device
  4

  6

 40
0.0
 41
0.0
 42
0.0
 43
0.0
 44
0.0
 45
0.0
 46
0.0
 47
0.0
 48
0.0
 49
0.0
140
0.0
141
0.0
142
1.0
143
1.0
 70
   688
 72
     1
 73
     0
 74
     5
  7

 75
    16
147
1.0
148
0.0
149
0.0
100
AcDbLayout
  1
Layout1
 70
     1
 71
     1
 10
0.0
 20
0.0
 11
420.0
 21
297.0
 12
0.0
 22
0.0
 32
0.0
 14
1.0000000000E+20
 24
1.0000000000E+20
 34
1.0000000000E+20
 15
-1.0000000000E+20
 25
-1.0000000000E+20
 35
-1.0000000000E+20
146
0.0
 13
0.0
 23
0.0
 33
0.0
 16
1.0
 26
0.0
 36
0.0
 17
0.0
 27
1.0
 37
0.0
 76
     0
330
1B
  0
LAYOUT
  5
26
102
{ACAD_REACTORS
330
1A
102
}
330
1A
100
AcDbPlotSettings
  1

  2
none_device
  4

  6

 40
0.0
 41
0.0
 42
0.0
 43
0.0
 44
0.0
 45
0.0
 46
0.0
 47
0.0
 48
0.0
 49
0.0
140
0.0
141
0.0
142
1.0
143
1.0
 70
   688
 72
     1
 73
     0
 74
     5
  7

 75
    16
147
1.0
148
0.0
149
0.0
100
AcDbLayout
  1
Layout2
 70
     1
 71
     2
 10
0.0
 20
0.0
 11
0.0
 21
0.0
 12
0.0
 22
0.0
 32
0.0
 14
0.0
 24
0.0
 34
0.0
 15
0.0
 25
0.0
 35
0.0
146
0.0
 13
0.0
 23
0.0
 33
0.0
 16
1.0
 26
0.0
 36
0.0
 17
0.0
 27
1.0
 37
0.0
 76
     0
330
23
  0
LAYOUT
  5
22
102
{ACAD_REACTORS
330
1A
102
}
330
1A
100
AcDbPlotSettings
  1

  2
none_device
  4
Letter_(8.50_x_11.00_Inches)
  6

 40
6.35
 41
6.35
 42
6.35000508
 43
6.35000508
 44
215.9
 45
279.4
 46
0.0
 47
0.0
 48
0.0
 49
0.0
140
0.0
141
0.0
142
1.0
143
1.0
 70
  1712
 72
     1
 73
     0
 74
     0
  7

 75
     0
147
1.0
148
0.0
149
0.0
100
AcDbLayout
  1
Model
 70
     1
 71
     0
 10
0.0
 20
0.0
 11
279.4
 21
215.9
 12
0.0
 22
0.0
 32
0.0
 14
0.0
 24
0.0
 34
0.0
 15
279.4
 25
215.9
 35
0.0
146
0.0
 13
0.0
 23
0.0
 33
0.0
 16
1.0
 26
0.0
 36
0.0
 17
0.0
 27
1.0
 37
0.0
 76
     0
330
1F
331
29
  0
MLINESTYLE
  5
18
102
{ACAD_REACTORS
330
17
102
}
330
17
100
AcDbMlineStyle
  2
Standard
 70
     0
  3

 62
   256
 51
90.0
 52
90.0
 71
     2
 49
0.5
 62
   256
  6
BYLAYER
 49
-0.5
 62
   256
  6
BYLAYER
  0
ACDBPLACEHOLDER
  5
F
102
{ACAD_REACTORS
330
E
102
}
330
E
  0
SCALE
  5
48
102
{ACAD_REACTORS
330
47
102
}
330
47
100
AcDbScale
 70
     0
300
1:1
140
1.0
141
1.0
290
     1
  0
SCALE
  5
49
102
{ACAD_REACTORS
330
47
102
}
330
47
100
AcDbScale
 70
     0
300
1:2
140
1.0
141
2.0
290
     0
  0
SCALE
  5
4A
102
{ACAD_REACTORS
330
47
102
}
330
47
100
AcDbScale
 70
     0
300
1:4
140
1.0
141
4.0
290
     0
  0
SCALE
  5
4B
102
{ACAD_REACTORS
330
47
102
}
330
47
100
AcDbScale
 70
     0
300
1:5
140
1.0
141
5.0
290
     0
  0
SCALE
  5
4C
102
{ACAD_REACTORS
330
47
102
}
330
47
100
AcDbScale
 70
     0
300
1:8
140
1.0
141
8.0
290
     0
  0
SCALE
  5
4D
102
{ACAD_REACTORS
330
47
102
}
330
47
100
AcDbScale
 70
     0
300
1:10
140
1.0
141
10.0
290
     0
  0
SCALE
  5
4E
102
{ACAD_REACTORS
330
47
102
}
330
47
100
AcDbScale
 70
     0
300
1:16
140
1.0
141
16.0
290
     0
  0
SCALE
  5
4F
102
{ACAD_REACTORS
330
47
102
}
330
47
100
AcDbScale
 70
     0
300
1:20
140
1.0
141
20.0
290
     0
  0
SCALE
  5
50
102
{ACAD_REACTORS
330
47
102
}
330
47
100
AcDbScale
 70
     0
300
1:30
140
1.0
141
30.0
290
     0
  0
SCALE
  5
51
102
{ACAD_REACTORS
330
47
102
}
330
47
100
AcDbScale
 70
     0
300
1:40
140
1.0
141
40.0
290
     0
  0
SCALE
  5
52
102
{ACAD_REACTORS
330
47
102
}
330
47
100
AcDbScale
 70
     0
300
1:50
140
1.0
141
50.0
290
     0
  0
SCALE
  5
53
102
{ACAD_REACTORS
330
47
102
}
330
47
100
AcDbScale
 70
     0
300
1:100
140
1.0
141
100.0
290
     0
  0
SCALE
  5
54
102
{ACAD_REACTORS
330
47
102
}
330
47
100
AcDbScale
 70
     0
300
2:1
140
2.0
141
1.0
290
     0
  0
SCALE
  5
55
102
{ACAD_REACTORS
330
47
102
}
330
47
100
AcDbScale
 70
     0
300
4:1
140
4.0
141
1.0
290
     0
  0
SCALE
  5
56
102
{ACAD_REACTORS
330
47
102
}
330
47
100
AcDbScale
 70
     0
300
8:1
140
8.0
141
1.0
290
     0
  0
SCALE
  5
57
102
{ACAD_REACTORS
330
47
102
}
330
47
100
AcDbScale
 70
     0
300
10:1
140
10.0
141
1.0
290
     0
  0
SCALE
  5
58
102
{ACAD_REACTORS
330
47
102
}
330
47
100
AcDbScale
 70
     0
300
100:1
140
100.0
141
1.0
290
     0
  0
SCALE
  5
59
102
{ACAD_REACTORS
330
47
102
}
330
47
100
AcDbScale
 70
     0
300
1/128" = 1'-0"
140
0.0078125
141
12.0
290
     0
  0
SCALE
  5
5A
102
{ACAD_REACTORS
330
47
102
}
330
47
100
AcDbScale
 70
     0
300
1/64" = 1'-0"
140
0.015625
141
12.0
290
     0
  0
SCALE
  5
5B
102
{ACAD_REACTORS
330
47
102
}
330
47
100
AcDbScale
 70
     0
300
1/32" = 1'-0"
140
0.03125
141
12.0
290
     0
  0
SCALE
  5
5C
102
{ACAD_REACTORS
330
47
102
}
330
47
100
AcDbScale
 70
     0
300
1/16" = 1'-0"
140
0.0625
141
12.0
290
     0
  0
SCALE
  5
5D
102
{ACAD_REACTORS
330
47
102
}
330
47
100
AcDbScale
 70
     0
300
3/32" = 1'-0"
140
0.09375
141
12.0
290
     0
  0
SCALE
  5
5E
102
{ACAD_REACTORS
330
47
102
}
330
47
100
AcDbScale
 70
     0
300
1/8" = 1'-0"
140
0.125
141
12.0
290
     0
  0
SCALE
  5
5F
102
{ACAD_REACTORS
330
47
102
}
330
47
100
AcDbScale
 70
     0
300
3/16" = 1'-0"
140
0.1875
141
12.0
290
     0
  0
SCALE
  5
60
102
{ACAD_REACTORS
330
47
102
}
330
47
100
AcDbScale
 70
     0
300
1/4" = 1'-0"
140
0.25
141
12.0
290
     0
  0
SCALE
  5
61
102
{ACAD_REACTORS
330
47
102
}
330
47
100
AcDbScale
 70
     0
300
3/8" = 1'-0"
140
0.375
141
12.0
290
     0
  0
SCALE
  5
62
102
{ACAD_REACTORS
330
47
102
}
330
47
100
AcDbScale
 70
     0
300
1/2" = 1'-0"
140
0.5
141
12.0
290
     0
  0
SCALE
  5
63
102
{ACAD_REACTORS
330
47
102
}
330
47
100
AcDbScale
 70
     0
300
3/4" = 1'-0"
140
0.75
141
12.0
290
     0
  0
SCALE
  5
64
102
{ACAD_REACTORS
330
47
102
}
330
47
100
AcDbScale
 70
     0
300
1" = 1'-0"
140
1.0
141
12.0
290
     0
  0
SCALE
  5
65
102
{ACAD_REACTORS
330
47
102
}
330
47
100
AcDbScale
 70
     0
300
1-1/2" = 1'-0"
140
1.5
141
12.0
290
     0
  0
SCALE
  5
66
102
{ACAD_REACTORS
330
47
102
}
330
47
100
AcDbScale
 70
     0
300
3" = 1'-0"
140
3.0
141
12.0
290
     0
  0
SCALE
  5
67
102
{ACAD_REACTORS
330
47
102
}
330
47
100
AcDbScale
 70
     0
300
6" = 1'-0"
140
6.0
141
12.0
290
     0
  0
SCALE
  5
68
102
{ACAD_REACTORS
330
47
102
}
330
47
100
AcDbScale
 70
     0
300
1'-0" = 1'-0"
140
12.0
141
12.0
290
     0
  0
ENDSEC
  0
EOF
