  0
SECTION
  2
HEADER
  9
$ACADVER
  1
AC1015
  9
$ACADMAINTVER
 70
     6
  9
$DWGCODEPAGE
  3
ANSI_1252
  9
$INSBASE
 10
0.0
 20
0.0
 30
0.0
  9
$EXTMIN
 10
0.0
 20
0.0
 30
0.0
  9
$EXTMAX
 10
279.4
 20
215.9
 30
0.0
  9
$LIMMIN
 10
0.0
 20
0.0
  9
$LIMMAX
 10
279.4
 20
215.9
  9
$ORTHOMODE
 70
     0
  9
$REGENMODE
 70
     1
  9
$FILLMODE
 70
     1
  9
$QTEXTMODE
 70
     0
  9
$MIRRTEXT
 70
     1
  9
$LTSCALE
 40
1.0
  9
$ATTMODE
 70
     1
  9
$TEXTSIZE
 40
2.8222222222
  9
$TRACEWID
 40
1.0
  9
$TEXTSTYLE
  7
Standard
  9
$CLAYER
  8
0
  9
$CELTYPE
  6
ByLayer
  9
$CECOLOR
 62
   256
  9
$CELTSCALE
 40
1.0
  9
$DISPSILH
 70
     0
  9
$DIMSCALE
 40
1.0
  9
$DIMASZ
 40
3.175
  9
$DIMEXO
 40
1.27
  9
$DIMDLI
 40
3.75
  9
$DIMRND
 40
0.0
  9
$DIMDLE
 40
0.0
  9
$DIMEXE
 40
1.778
  9
$DIMTP
 40
0.0
  9
$DIMTM
 40
0.0
  9
$DIMTXT
 40
2.8222222222
  9
$DIMCEN
 40
2.5
  9
$DIMTSZ
 40
0.0
  9
$DIMTOL
 70
     0
  9
$DIMLIM
 70
     0
  9
$DIMTIH
 70
     1
  9
$DIMTOH
 70
     1
  9
$DIMSE1
 70
     0
  9
$DIMSE2
 70
     0
  9
$DIMTAD
 70
     0
  9
$DIMZIN
 70
     1
  9
$DIMBLK
  1

  9
$DIMASO
 70
     1
  9
$DIMSHO
 70
     1
  9
$DIMPOST
  1

  9
$DIMAPOST
  1

  9
$DIMALT
 70
     0
  9
$DIMALTD
 70
     3
  9
$DIMALTF
 40
0.0393700787
  9
$DIMLFAC
 40
1.0
  9
$DIMTOFL
 70
     1
  9
$DIMTVP
 40
0.0
  9
$DIMTIX
 70
     0
  9
$DIMSOXD
 70
     0
  9
$DIMSAH
 70
     0
  9
$DIMBLK1
  1

  9
$DIMBLK2
  1

  9
$DIMSTYLE
  2
ISO-25
  9
$DIMCLRD
 70
     0
  9
$DIMCLRE
 70
     0
  9
$DIMCLRT
 70
     0
  9
$DIMTFAC
 40
1.0
  9
$DIMGAP
 40
2.54
  9
$DIMJUST
 70
     0
  9
$DIMSD1
 70
     0
  9
$DIMSD2
 70
     0
  9
$DIMTOLJ
 70
     0
  9
$DIMTZIN
 70
     1
  9
$DIMALTZ
 70
     0
  9
$DIMALTTZ
 70
     0
  9
$DIMUPT
 70
     0
  9
$DIMDEC
 70
     1
  9
$DIMTDEC
 70
     1
  9
$DIMALTU
 70
     2
  9
$DIMALTTD
 70
     3
  9
$DIMTXSTY
  7
Standard
  9
$DIMAUNIT
 70
     0
  9
$DIMADEC
 70
     0
  9
$DIMALTRND
 40
0.0
  9
$DIMAZIN
 70
     0
  9
$DIMDSEP
 70
    44
  9
$DIMATFIT
 70
     3
  9
$DIMFRAC
 70
     0
  9
$DIMLDRBLK
  1

  9
$DIMLUNIT
 70
     2
  9
$DIMLWD
 70
    -2
  9
$DIMLWE
 70
    -2
  9
$DIMTMOVE
 70
     0
  9
$LUNITS
 70
     2
  9
$LUPREC
 70
     1
  9
$SKETCHINC
 40
1.0
  9
$FILLETRAD
 40
10.0
  9
$AUNITS
 70
     0
  9
$AUPREC
 70
     0
  9
$MENU
  1
.
  9
$ELEVATION
 40
0.0
  9
$PELEVATION
 40
0.0
  9
$THICKNESS
 40
0.0
  9
$LIMCHECK
 70
     0
  9
$CHAMFERA
 40
0.0
  9
$CHAMFERB
 40
0.0
  9
$CHAMFERC
 40
0.0
  9
$CHAMFERD
 40
0.0
  9
$SKPOLY
 70
     0
  9
$TDCREATE
 40
2458470.636482338
  9
$TDUCREATE
 40
2458470.844815671
  9
$TDUPDATE
 40
2458470.636489931
  9
$TDUUPDATE
 40
2458470.844823264
  9
$TDINDWG
 40
0.0000000116
  9
$TDUSRTIMER
 40
0.0000000116
  9
$USRTIMER
 70
     1
  9
$ANGBASE
 50
0.0
  9
$ANGDIR
 70
     0
  9
$PDMODE
 70
     0
  9
$PDSIZE
 40
-1.0
  9
$PLINEWID
 40
0.0
  9
$SPLFRAME
 70
     0
  9
$SPLINETYPE
 70
     6
  9
$SPLINESEGS
 70
     8
  9
$HANDSEED
  5
26B
  9
$SURFTAB1
 70
     6
  9
$SURFTAB2
 70
     6
  9
$SURFTYPE
 70
     6
  9
$SURFU
 70
     6
  9
$SURFV
 70
     6
  9
$UCSBASE
  2

  9
$UCSNAME
  2

  9
$UCSORG
 10
0.0
 20
0.0
 30
0.0
  9
$UCSXDIR
 10
1.0
 20
0.0
 30
0.0
  9
$UCSYDIR
 10
0.0
 20
1.0
 30
0.0
  9
$UCSORTHOREF
  2

  9
$UCSORTHOVIEW
 70
     0
  9
$UCSORGTOP
 10
0.0
 20
0.0
 30
0.0
  9
$UCSORGBOTTOM
 10
0.0
 20
0.0
 30
0.0
  9
$UCSORGLEFT
 10
0.0
 20
0.0
 30
0.0
  9
$UCSORGRIGHT
 10
0.0
 20
0.0
 30
0.0
  9
$UCSORGFRONT
 10
0.0
 20
0.0
 30
0.0
  9
$UCSORGBACK
 10
0.0
 20
0.0
 30
0.0
  9
$PUCSBASE
  2

  9
$PUCSNAME
  2

  9
$PUCSORG
 10
0.0
 20
0.0
 30
0.0
  9
$PUCSXDIR
 10
1.0
 20
0.0
 30
0.0
  9
$PUCSYDIR
 10
0.0
 20
1.0
 30
0.0
  9
$PUCSORTHOREF
  2

  9
$PUCSORTHOVIEW
 70
     0
  9
$PUCSORGTOP
 10
0.0
 20
0.0
 30
0.0
  9
$PUCSORGBOTTOM
 10
0.0
 20
0.0
 30
0.0
  9
$PUCSORGLEFT
 10
0.0
 20
0.0
 30
0.0
  9
$PUCSORGRIGHT
 10
0.0
 20
0.0
 30
0.0
  9
$PUCSORGFRONT
 10
0.0
 20
0.0
 30
0.0
  9
$PUCSORGBACK
 10
0.0
 20
0.0
 30
0.0
  9
$USERI1
 70
     0
  9
$USERI2
 70
     0
  9
$USERI3
 70
     0
  9
$USERI4
 70
     0
  9
$USERI5
 70
     0
  9
$USERR1
 40
0.0
  9
$USERR2
 40
0.0
  9
$USERR3
 40
0.0
  9
$USERR4
 40
0.0
  9
$USERR5
 40
0.0
  9
$WORLDVIEW
 70
     1
  9
$SHADEDGE
 70
     3
  9
$SHADEDIF
 70
    70
  9
$TILEMODE
 70
     1
  9
$MAXACTVP
 70
    64
  9
$PINSBASE
 10
0.0
 20
0.0
 30
0.0
  9
$PLIMCHECK
 70
     0
  9
$PEXTMIN
 10
1.0000000000E+20
 20
1.0000000000E+20
 30
1.0000000000E+20
  9
$PEXTMAX
 10
-1.0000000000E+20
 20
-1.0000000000E+20
 30
-1.0000000000E+20
  9
$PLIMMIN
 10
0.0
 20
0.0
  9
$PLIMMAX
 10
420.0
 20
297.0
  9
$UNITMODE
 70
     0
  9
$VISRETAIN
 70
     1
  9
$PLINEGEN
 70
     0
  9
$PSLTSCALE
 70
     1
  9
$TREEDEPTH
 70
  3020
  9
$CMLSTYLE
  2
Standard
  9
$CMLJUST
 70
     0
  9
$CMLSCALE
 40
20.0
  9
$PROXYGRAPHICS
 70
     1
  9
$MEASUREMENT
 70
     1
  9
$CELWEIGHT
370
    -1
  9
$ENDCAPS
280
     0
  9
$JOINSTYLE
280
     0
  9
$LWDISPLAY
290
     1
  9
$INSUNITS
 70
     4
  9
$HYPERLINKBASE
  1

  9
$STYLESHEET
  1

  9
$XEDIT
290
     1
  9
$CEPSNTYPE
380
     0
  9
$PSTYLEMODE
290
     1
  9
$FINGERPRINTGUID
  2
{6949D8C7-3D34-4F1A-8C6F-E5B0CF3125AB}
  9
$VERSIONGUID
  2
{FAEB1C32-E019-11D5-929B-00C0DF256EC4}
  9
$EXTNAMES
290
     1
  9
$PSVPSCALE
 40
0.0
  9
$OLESTARTUP
290
     0
  0
ENDSEC
  0
SECTION
  2
CLASSES
  0
CLASS
  1
ACDBDICTIONARYWDFLT
  2
AcDbDictionaryWithDefault
  3
ObjectDBX Classes
 90
        0
280
     0
281
     0
  0
CLASS
  1
VISUALSTYLE
  2
AcDbVisualStyle
  3
ObjectDBX Classes
 90
     4095
280
     0
281
     0
  0
CLASS
  1
MATERIAL
  2
AcDbMaterial
  3
ObjectDBX Classes
 90
     1153
280
     0
281
     0
  0
CLASS
  1
SCALE
  2
AcDbScale
  3
ObjectDBX Classes
 90
     1153
280
     0
281
     0
  0
CLASS
  1
TABLESTYLE
  2
AcDbTableStyle
  3
ObjectDBX Classes
 90
     4095
280
     0
281
     0
  0
CLASS
  1
MLEADERSTYLE
  2
AcDbMLeaderStyle
  3
ACDB_MLEADERSTYLE_CLASS
 90
     4095
280
     0
281
     0
  0
CLASS
  1
SUN
  2
AcDbSun
  3
SCENEOE
 90
     1153
280
     0
281
     0
  0
CLASS
  1
ACDBPLACEHOLDER
  2
AcDbPlaceHolder
  3
ObjectDBX Classes
 90
        0
280
     0
281
     0
  0
CLASS
  1
LAYOUT
  2
AcDbLayout
  3
ObjectDBX Classes
 90
        0
280
     0
281
     0
  0
ENDSEC
  0
SECTION
  2
TABLES
  0
TABLE
  2
VPORT
  5
8
330
0
100
AcDbSymbolTable
 70
     1
  0
VPORT
  5
29
330
8
100
AcDbSymbolTableRecord
100
AcDbViewportTableRecord
  2
*Active
 70
     0
 10
0.0
 20
0.0
 11
1.0
 21
1.0
 12
139.7
 22
107.95
 13
0.0
 23
0.0
 14
10.0
 24
10.0
 15
10.0
 25
10.0
 16
0.0
 26
0.0
 36
1.0
 17
0.0
 27
0.0
 37
0.0
 40
215.9
 41
1.2941176471
 42
50.0
 43
0.0
 44
0.0
 50
0.0
 51
0.0
 71
     0
 72
  2000
 73
     1
 74
     3
 75
     0
 76
     0
 77
     0
 78
     0
281
     0
 65
     1
110
0.0
120
0.0
130
0.0
111
1.0
121
0.0
131
0.0
112
0.0
122
1.0
132
0.0
 79
     0
146
0.0
  0
ENDTAB
  0
TABLE
  2
LTYPE
  5
5
330
0
100
AcDbSymbolTable
 70
     6
  0
LTYPE
  5
14
330
5
100
AcDbSymbolTableRecord
100
AcDbLinetypeTableRecord
  2
ByBlock
 70
     0
  3

 72
    65
 73
     0
 40
0.0
  0
LTYPE
  5
15
330
5
100
AcDbSymbolTableRecord
100
AcDbLinetypeTableRecord
  2
ByLayer
 70
     0
  3

 72
    65
 73
     0
 40
0.0
  0
LTYPE
  5
16
330
5
100
AcDbSymbolTableRecord
100
AcDbLinetypeTableRecord
  2
Continuous
 70
     0
  3
Solid line
 72
    65
 73
     0
 40
0.0
  0
LTYPE
  5
6E
330
5
100
AcDbSymbolTableRecord
100
AcDbLinetypeTableRecord
  2
HIDDEN
 70
     0
  3
Hidden __ __ __ __ __ __ __ __ __ __ __ __ __ __
 72
    65
 73
     2
 40
1.905
 49
1.27
 74
     0
 49
-0.635
 74
     0
  0
LTYPE
  5
6F
330
5
100
AcDbSymbolTableRecord
100
AcDbLinetypeTableRecord
  2
PHANTOM
 70
     0
  3
Phantom ______  __  __  ______  __  __  ______
 72
    65
 73
     6
 40
12.7
 49
6.35
 74
     0
 49
-1.27
 74
     0
 49
1.27
 74
     0
 49
-1.27
 74
     0
 49
1.27
 74
     0
 49
-1.27
 74
     0
  0
LTYPE
  5
70
330
5
100
AcDbSymbolTableRecord
100
AcDbLinetypeTableRecord
  2
CENTER
 70
     0
  3
Center ____ _ ____ _ ____ _ ____ _ ____ _ ____
 72
    65
 73
     4
 40
10.16
 49
6.35
 74
     0
 49
-1.27
 74
     0
 49
1.27
 74
     0
 49
-1.27
 74
     0
  0
LTYPE
  5
71
330
5
100
AcDbSymbolTableRecord
100
AcDbLinetypeTableRecord
  2
CENTERX2
 70
     0
  3
Center (2x) ________  __  ________  __  _____
 72
    65
 73
     4
 40
20.32
 49
12.7
 74
     0
 49
-2.54
 74
     0
 49
2.54
 74
     0
 49
-2.54
 74
     0
  0
LTYPE
  5
72
330
5
100
AcDbSymbolTableRecord
100
AcDbLinetypeTableRecord
  2
DOT2
 70
     0
  3
Dot (.5x) ........................................
 72
    65
 73
     2
 40
0.635
 49
0.0
 74
     0
 49
-0.635
 74
     0
  0
ENDTAB
  0
TABLE
  2
LAYER
  5
2
330
0
100
AcDbSymbolTable
 70
     2
  0
LAYER
  5
10
330
2
100
AcDbSymbolTableRecord
100
AcDbLayerTableRecord
  2
0
 70
     0
 62
     7
  6
Continuous
370
    -3
390
F
  0
LAYER
  5
73
330
2
100
AcDbSymbolTableRecord
100
AcDbLayerTableRecord
  2
FORMAT
 70
     0
 62
     7
  6
Continuous
370
    -3
390
F
  0
ENDTAB
  0
TABLE
  2
STYLE
  5
3
330
0
100
AcDbSymbolTable
 70
     5
  0
STYLE
  5
11
330
3
100
AcDbSymbolTableRecord
100
AcDbTextStyleTableRecord
  2
Standard
 70
     0
 40
0.0
 41
1.0
 50
0.0
 71
     0
 42
2.8222222222
  3
txt
  4

  0
STYLE
  5
9D
330
3
100
AcDbSymbolTableRecord
100
AcDbTextStyleTableRecord
  2
SLDTEXTSTYLE0
 70
     0
 40
0.0
 41
0.75
 50
0.0
 71
     0
 42
2.8222222222
  3
TXT
  4

  0
STYLE
  5
A3
330
3
100
AcDbSymbolTableRecord
100
AcDbTextStyleTableRecord
  2
SLDTEXTSTYLE1
 70
     0
 40
0.0
 41
0.75
 50
0.0
 71
     0
 42
2.8222222222
  3
TXT
  4
bigfont
  0
STYLE
  5
B6
330
3
100
AcDbSymbolTableRecord
100
AcDbTextStyleTableRecord
  2
SLDTEXTSTYLE2
 70
     0
 40
0.0
 41
0.7
 50
0.0
 71
     0
 42
2.8222222222
  3
TXT
  4

  0
STYLE
  5
C5
330
3
100
AcDbSymbolTableRecord
100
AcDbTextStyleTableRecord
  2
SLDTEXTSTYLE3
 70
     0
 40
0.0
 41
0.6
 50
0.0
 71
     0
 42
2.8222222222
  3
TXT
  4

  0
ENDTAB
  0
TABLE
  2
VIEW
  5
6
330
0
100
AcDbSymbolTable
 70
     0
  0
ENDTAB
  0
TABLE
  2
UCS
  5
7
330
0
100
AcDbSymbolTable
 70
     0
  0
ENDTAB
  0
TABLE
  2
APPID
  5
9
330
0
100
AcDbSymbolTable
 70
     1
  0
APPID
  5
12
330
9
100
AcDbSymbolTableRecord
100
AcDbRegAppTableRecord
  2
ACAD
 70
     0
  0
ENDTAB
  0
TABLE
  2
DIMSTYLE
  5
A
330
0
100
AcDbSymbolTable
 70
     6
100
AcDbDimStyleTable
  0
DIMSTYLE
105
27
330
A
100
AcDbSymbolTableRecord
100
AcDbDimStyleTableRecord
  2
ISO-25
 70
     0
 41
2.5
 42
0.625
 43
3.75
 44
1.25
 73
     0
 74
     0
 77
     1
 78
     8
140
2.5
141
2.5
143
0.0393700787
147
0.625
171
     3
172
     1
178
     0
271
     2
272
     2
274
     3
278
    44
283
     0
284
     8
340
11
  0
DIMSTYLE
105
F4
102
{ACAD_REACTORS
330
F3
102
}
330
A
100
AcDbSymbolTableRecord
100
AcDbDimStyleTableRecord
  2
SLDDIMSTYLE0
 70
     0
 41
3.175
 44
0.0
 45
0.000000001
 78
    12
 79
     3
140
2.1166666667
141
0.0
143
0.0393700787
147
0.5291666667
148
0.000000001
170
     1
173
     1
178
     0
271
     1
272
     1
276
     2
284
    12
340
9D
  0
DIMSTYLE
105
11B
102
{ACAD_REACTORS
330
11A
102
}
330
A
100
AcDbSymbolTableRecord
100
AcDbDimStyleTableRecord
  2
SLDDIMSTYLE1
 70
     0
 41
3.175
 44
0.0
 45
0.000000001
 78
    12
 79
     3
140
2.1166666667
143
0.0393700787
147
0.5291666667
148
0.000000001
170
     1
172
     1
173
     1
178
     0
271
     1
272
     1
276
     2
284
    12
289
     0
340
9D
  0
DIMSTYLE
105
12F
102
{ACAD_REACTORS
330
12E
102
}
330
A
100
AcDbSymbolTableRecord
100
AcDbDimStyleTableRecord
  2
SLDDIMSTYLE2
 70
     0
 41
3.175
 44
0.0
 45
0.000000001
 78
     4
 79
     1
140
2.1166666667
141
0.0
143
0.0393700787
147
0.5291666667
148
0.000000001
170
     1
173
     1
178
     0
271
     1
272
     1
276
     2
284
    12
340
9D
  0
DIMSTYLE
105
140
102
{ACAD_REACTORS
330
13F
102
}
330
A
100
AcDbSymbolTableRecord
100
AcDbDimStyleTableRecord
  2
SLDDIMSTYLE3
 70
     0
 41
3.175
 44
0.0
 45
0.000000001
 78
     4
 79
     1
140
2.1166666667
143
0.0393700787
147
0.5291666667
148
0.000000001
170
     1
172
     1
173
     1
178
     0
271
     1
272
     1
276
     2
284
    12
289
     0
340
9D
  0
DIMSTYLE
105
156
330
A
100
AcDbSymbolTableRecord
100
AcDbDimStyleTableRecord
  2
SLDDIMSTYLE4
 70
     0
 41
3.175
 44
0.0
 45
0.000000001
146
3.175
147
0.0
173
     1
178
     0
271
     0
272
     0
276
     2
340
11
  0
ENDTAB
  0
TABLE
  2
BLOCK_RECORD
  5
1
330
0
100
AcDbSymbolTable
 70
    11
  0
BLOCK_RECORD
  5
1F
330
1
100
AcDbSymbolTableRecord
100
AcDbBlockTableRecord
  2
*Model_Space
340
22
  0
BLOCK_RECORD
  5
1B
330
1
100
AcDbSymbolTableRecord
100
AcDbBlockTableRecord
  2
*Paper_Space
340
1E
  0
BLOCK_RECORD
  5
23
330
1
100
AcDbSymbolTableRecord
100
AcDbBlockTableRecord
  2
*Paper_Space0
340
26
  0
BLOCK_RECORD
  5
74
330
1
100
AcDbSymbolTableRecord
100
AcDbBlockTableRecord
  2
Third Angle Projection Block
340
0
102
{BLKREFS
331
99
102
}
  0
BLOCK_RECORD
  5
9A
330
1
100
AcDbSymbolTableRecord
100
AcDbBlockTableRecord
  2
SW_NOTE_0
340
0
102
{BLKREFS
331
B9
102
}
  0
BLOCK_RECORD
  5
CB
330
1
100
AcDbSymbolTableRecord
100
AcDbBlockTableRecord
  2
SW_NOTE_1
340
0
102
{BLKREFS
331
D0
102
}
  0
BLOCK_RECORD
  5
D1
330
1
100
AcDbSymbolTableRecord
100
AcDbBlockTableRecord
  2
SW_NOTE_2
340
0
102
{BLKREFS
331
D6
102
}
  0
BLOCK_RECORD
  5
D8
330
1
100
AcDbSymbolTableRecord
100
AcDbBlockTableRecord
  2
SW_NOTE_3
340
0
102
{BLKREFS
331
DD
102
}
  0
BLOCK_RECORD
  5
DE
330
1
100
AcDbSymbolTableRecord
100
AcDbBlockTableRecord
  2
SW_NOTE_4
340
0
102
{BLKREFS
331
E4
102
}
  0
BLOCK_RECORD
  5
F5
330
1
100
AcDbSymbolTableRecord
100
AcDbBlockTableRecord
  2
_D
340
0
  0
BLOCK_RECORD
  5
11C
330
1
100
AcDbSymbolTableRecord
100
AcDbBlockTableRecord
  2
_D_1
340
0
  0
BLOCK_RECORD
  5
130
330
1
100
AcDbSymbolTableRecord
100
AcDbBlockTableRecord
  2
_D_2
340
0
  0
BLOCK_RECORD
  5
141
330
1
100
AcDbSymbolTableRecord
100
AcDbBlockTableRecord
  2
_D_3
340
0
  0
ENDTAB
  0
ENDSEC
  0
SECTION
  2
BLOCKS
  0
BLOCK
  5
20
330
1F
100
AcDbEntity
  8
0
100
AcDbBlockBegin
  2
*Model_Space
 70
     0
 10
0.0
 20
0.0
 30
0.0
  3
*Model_Space
  1

  0
ENDBLK
  5
21
330
1F
100
AcDbEntity
  8
0
100
AcDbBlockEnd
  0
BLOCK
  5
1C
330
1B
100
AcDbEntity
 67
     1
  8
0
100
AcDbBlockBegin
  2
*Paper_Space
 70
     0
 10
0.0
 20
0.0
 30
0.0
  3
*Paper_Space
  1

  0
ENDBLK
  5
1D
330
1B
100
AcDbEntity
 67
     1
  8
0
100
AcDbBlockEnd
  0
BLOCK
  5
24
330
23
100
AcDbEntity
  8
0
100
AcDbBlockBegin
  2
*Paper_Space0
 70
     0
 10
0.0
 20
0.0
 30
0.0
  3
*Paper_Space0
  1

  0
ENDBLK
  5
25
330
23
100
AcDbEntity
  8
0
100
AcDbBlockEnd
  0
BLOCK
  5
75
330
74
100
AcDbEntity
  8
0
100
AcDbBlockBegin
  2
Third Angle Projection Block
 70
     0
 10
0.0
 20
0.0
 30
0.0
  3
Third Angle Projection Block
  1

  0
CIRCLE
  5
77
330
74
100
AcDbEntity
  8
0
  6
Continuous
 62
     7
370
    35
100
AcDbCircle
 10
101.4766388944
 20
18.9404083667
 30
0.0
 40
1.768227153674871
  0
CIRCLE
  5
78
330
74
100
AcDbEntity
  8
0
  6
Continuous
 62
     7
370
    35
100
AcDbCircle
 10
101.4766388944
 20
18.9404083667
 30
0.0
 40
3.901228248531818
  0
LINE
  5
79
330
74
100
AcDbEntity
  8
0
  6
CENTERX2
 62
     7
370
    18
100
AcDbLine
 10
110.1367822585
 20
18.9404083667
 30
0.0
 11
119.4527334874
 21
18.9404083667
 31
0.0
  0
LINE
  5
7A
330
74
100
AcDbEntity
  8
0
  6
Continuous
 62
     7
370
    35
100
AcDbLine
 10
111.0016388944
 20
20.7086355204
 30
0.0
 11
111.0016388944
 21
17.172181213
 31
0.0
  0
LINE
  5
7B
330
74
100
AcDbEntity
  8
0
  6
Continuous
 62
     7
370
    35
100
AcDbLine
 10
111.0016388944
 20
17.172181213
 30
0.0
 11
118.6216388944
 21
15.1304083667
 31
0.0
  0
LINE
  5
7C
330
74
100
AcDbEntity
  8
0
  6
Continuous
 62
     7
370
    35
100
AcDbLine
 10
118.6216388944
 20
15.1304083667
 30
0.0
 11
118.6216388944
 21
22.7504083667
 31
0.0
  0
LINE
  5
7D
330
74
100
AcDbEntity
  8
0
  6
Continuous
 62
     7
370
    35
100
AcDbLine
 10
118.6216388944
 20
22.7504083667
 30
0.0
 11
111.0016388944
 21
20.7086355204
 31
0.0
  0
LINE
  5
7E
330
74
100
AcDbEntity
  8
0
  6
CENTERX2
 62
     7
370
    18
100
AcDbLine
 10
96.6025854619
 20
18.9404083667
 30
0.0
 11
106.3506923269
 21
18.9404083667
 31
0.0
  0
LINE
  5
7F
330
74
100
AcDbEntity
  8
0
  6
CENTERX2
 62
     7
370
    18
100
AcDbLine
 10
101.4766388944
 20
23.8144617992
 30
0.0
 11
101.4766388944
 21
14.0663549342
 31
0.0
  0
POINT
  5
80
330
74
100
AcDbEntity
  8
0
  6
Continuous
 62
     7
370
     0
100
AcDbPoint
 10
101.4766388944
 20
18.9404083667
 30
0.0
  0
ENDBLK
  5
76
330
74
100
AcDbEntity
  8
0
100
AcDbBlockEnd
  0
BLOCK
  5
9B
330
9A
100
AcDbEntity
  8
0
100
AcDbBlockBegin
  2
SW_NOTE_0
 70
     0
 10
0.0
 20
0.0
 30
0.0
  3
SW_NOTE_0
  1

  0
MTEXT
  5
9E
330
9A
100
AcDbEntity
  8
0
  6
Continuous
 62
     0
370
     0
100
AcDbMText
 10
0.0
 20
3.4106583948
 30
0.0
 40
2.6458333333
 41
0.0
 71
     1
 72
     1
  1
NOTES/SPECIFICATIONS:
  7
SLDTEXTSTYLE0
 73
     1
 44
1.0
  0
MTEXT
  5
9F
330
9A
100
AcDbEntity
  8
0
  6
Continuous
 62
     0
370
     0
100
AcDbMText
 10
9.9999997765
 20
-5.6448974033
 30
0.0
 40
2.6458333333
 41
0.0
 71
     1
 72
     1
  1
CLEAR APERTURE: >
  7
SLDTEXTSTYLE0
 73
     1
 44
1.0
  0
MTEXT
  5
A0
330
9A
100
AcDbEntity
  8
0
  6
Continuous
 62
     0
370
     0
100
AcDbMText
 10
42.7789334208
 20
-5.6448974033
 30
0.0
 40
2.6458333333
 41
0.0
 71
     1
 72
     1
  1
%%c
  7
SLDTEXTSTYLE0
 73
     1
 44
1.0
  0
MTEXT
  5
A1
330
9A
100
AcDbEntity
  8
0
  6
Continuous
 62
     0
370
     0
100
AcDbMText
 10
46.7726718634
 20
-5.6448974033
 30
0.0
 40
2.6458333333
 41
0.0
 71
     1
 72
     1
  1
45.72mm
  7
SLDTEXTSTYLE0
 73
     1
 44
1.0
  0
MTEXT
  5
A2
330
9A
100
AcDbEntity
  8
0
  6
Continuous
 62
     0
370
     0
100
AcDbMText
 10
0.0
 20
-5.6448974033
 30
0.0
 40
2.6458333333
 41
0.0
 71
     1
 72
     1
  1
1.
  7
SLDTEXTSTYLE0
 73
     1
 44
1.0
  0
MTEXT
  5
A4
330
9A
100
AcDbEntity
  8
0
  6
Continuous
 62
     0
370
     0
100
AcDbMText
 10
9.9999997765
 20
-10.1726753024
 30
0.0
 40
2.6458333333
 41
0.0
 71
     1
 72
     1
  1
SURFACE IRREGULARITY (S1): \U+2264\M+183C9/4 AT 633nm OVER CLEAR APERTURE
  7
SLDTEXTSTYLE1
 73
     1
 44
1.0
  0
MTEXT
  5
A5
330
9A
100
AcDbEntity
  8
0
  6
Continuous
 62
     0
370
     0
100
AcDbMText
 10
0.0
 20
-10.1726753024
 30
0.0
 40
2.6458333333
 41
0.0
 71
     1
 72
     1
  1
2.
  7
SLDTEXTSTYLE0
 73
     1
 44
1.0
  0
MTEXT
  5
A6
330
9A
100
AcDbEntity
  8
0
  6
Continuous
 62
     0
370
     0
100
AcDbMText
 10
9.9999997765
 20
-14.7004532014
 30
0.0
 40
2.6458333333
 41
0.0
 71
     1
 72
     1
  1
BACK SURFACE (S2): UNIFORM FINE GRIND #12-#20 GRIT
  7
SLDTEXTSTYLE0
 73
     1
 44
1.0
  0
MTEXT
  5
A7
330
9A
100
AcDbEntity
  8
0
  6
Continuous
 62
     0
370
     0
100
AcDbMText
 10
0.0
 20
-14.7004532014
 30
0.0
 40
2.6458333333
 41
0.0
 71
     1
 72
     1
  1
3.
  7
SLDTEXTSTYLE0
 73
     1
 44
1.0
  0
MTEXT
  5
A8
330
9A
100
AcDbEntity
  8
0
  6
Continuous
 62
     0
370
     0
100
AcDbMText
 10
9.9999997765
 20
-19.2282311005
 30
0.0
 40
2.6458333333
 41
0.0
 71
     1
 72
     1
  1
SURFACE QUALITY(S1): 40-20 SCRATCH-DIG
  7
SLDTEXTSTYLE0
 73
     1
 44
1.0
  0
MTEXT
  5
A9
330
9A
100
AcDbEntity
  8
0
  6
Continuous
 62
     0
370
     0
100
AcDbMText
 10
0.0
 20
-19.2282311005
 30
0.0
 40
2.6458333333
 41
0.0
 71
     1
 72
     1
  1
4.
  7
SLDTEXTSTYLE0
 73
     1
 44
1.0
  0
MTEXT
  5
AA
330
9A
100
AcDbEntity
  8
0
  6
Continuous
 62
     0
370
     0
100
AcDbMText
 10
9.9999997765
 20
-23.7560089995
 30
0.0
 40
2.6458333333
 41
0.0
 71
     1
 72
     1
  1
THICKNESS TOLERANCE:
  7
SLDTEXTSTYLE0
 73
     1
 44
1.0
  0
MTEXT
  5
AB
330
9A
100
AcDbEntity
  8
0
  6
Continuous
 62
     0
370
     0
100
AcDbMText
 10
50.8242268115
 20
-23.7560089995
 30
0.0
 40
2.6458333333
 41
0.0
 71
     1
 72
     1
  1
%%p
  7
SLDTEXTSTYLE0
 73
     1
 44
1.0
  0
MTEXT
  5
AC
330
9A
100
AcDbEntity
  8
0
  6
Continuous
 62
     0
370
     0
100
AcDbMText
 10
53.3465910703
 20
-23.7560089995
 30
0.0
 40
2.6458333333
 41
0.0
 71
     1
 72
     1
  1
0.1 mm
  7
SLDTEXTSTYLE0
 73
     1
 44
1.0
  0
MTEXT
  5
AD
330
9A
100
AcDbEntity
  8
0
  6
Continuous
 62
     0
370
     0
100
AcDbMText
 10
0.0
 20
-23.7560089995
 30
0.0
 40
2.6458333333
 41
0.0
 71
     1
 72
     1
  1
5.
  7
SLDTEXTSTYLE0
 73
     1
 44
1.0
  0
MTEXT
  5
AE
330
9A
100
AcDbEntity
  8
0
  6
Continuous
 62
     0
370
     0
100
AcDbMText
 10
9.9999997765
 20
-28.2837868986
 30
0.0
 40
2.6458333333
 41
0.0
 71
     1
 72
     1
  1
DIAMETER TOLERANCE: +0.0/-0.2 mm
  7
SLDTEXTSTYLE0
 73
     1
 44
1.0
  0
MTEXT
  5
AF
330
9A
100
AcDbEntity
  8
0
  6
Continuous
 62
     0
370
     0
100
AcDbMText
 10
0.0
 20
-28.2837868986
 30
0.0
 40
2.6458333333
 41
0.0
 71
     1
 72
     1
  1
6.
  7
SLDTEXTSTYLE0
 73
     1
 44
1.0
  0
MTEXT
  5
B0
330
9A
100
AcDbEntity
  8
0
  6
Continuous
 62
     0
370
     0
100
AcDbMText
 10
9.9999997765
 20
-32.8115647976
 30
0.0
 40
2.6458333333
 41
0.0
 71
     1
 72
     1
  1
COATING(S1): PROTECTED ALUMINUM
  7
SLDTEXTSTYLE0
 73
     1
 44
1.0
  0
MTEXT
  5
B1
330
9A
100
AcDbEntity
  8
0
  6
Continuous
 62
     0
370
     0
100
AcDbMText
 10
0.0
 20
-32.8115647976
 30
0.0
 40
2.6458333333
 41
0.0
 71
     1
 72
     1
  1
7.
  7
SLDTEXTSTYLE0
 73
     1
 44
1.0
  0
MTEXT
  5
B2
330
9A
100
AcDbEntity
  8
0
  6
Continuous
 62
     0
370
     0
100
AcDbMText
 10
34.9609375
 20
-37.3393426967
 30
0.0
 40
2.6458333333
 41
0.0
 71
     1
 72
     1
  1
Ravg: >90% FROM 450nm-2\M+183CAm
  7
SLDTEXTSTYLE1
 73
     1
 44
1.0
  0
MTEXT
  5
B3
330
9A
100
AcDbEntity
  8
0
  6
Continuous
 62
     0
370
     0
100
AcDbMText
 10
34.9609375
 20
-41.8671205958
 30
0.0
 40
2.6458333333
 41
0.0
 71
     1
 72
     1
  1
Ravg: >95% FROM 2\M+183CAm-20\M+183CAm
  7
SLDTEXTSTYLE1
 73
     1
 44
1.0
  0
MTEXT
  5
B4
330
9A
100
AcDbEntity
  8
0
  6
Continuous
 62
     0
370
     0
100
AcDbMText
 10
34.9609375
 20
-46.3948984948
 30
0.0
 40
2.6458333333
 41
0.0
 71
     1
 72
     1
  1
AOI: 0
  7
SLDTEXTSTYLE0
 73
     1
 44
1.0
  0
MTEXT
  5
B5
330
9A
100
AcDbEntity
  8
0
  6
Continuous
 62
     0
370
     0
100
AcDbMText
 10
45.2576388791
 20
-46.3948984948
 30
0.0
 40
2.6458333333
 41
0.0
 71
     1
 72
     1
  1
%%d
  7
SLDTEXTSTYLE0
 73
     1
 44
1.0
  0
MTEXT
  5
B7
330
9A
100
AcDbEntity
  8
0
  6
Continuous
 62
     0
370
     0
100
AcDbMText
 10
47.9314009994
 20
-46.3948984948
 30
0.0
 40
2.6458333333
 41
0.0
 71
     1
 72
     1
  1
TO 45
  7
SLDTEXTSTYLE2
 73
     1
 44
1.0
  0
MTEXT
  5
B8
330
9A
100
AcDbEntity
  8
0
  6
Continuous
 62
     0
370
     0
100
AcDbMText
 10
57.3706559092
 20
-46.3948984948
 30
0.0
 40
2.6458333333
 41
0.0
 71
     1
 72
     1
  1
%%d
  7
SLDTEXTSTYLE0
 73
     1
 44
1.0
  0
ENDBLK
  5
9C
330
9A
100
AcDbEntity
  8
0
100
AcDbBlockEnd
  0
BLOCK
  5
CC
330
CB
100
AcDbEntity
  8
0
100
AcDbBlockBegin
  2
SW_NOTE_1
 70
     0
 10
0.0
 20
0.0
 30
0.0
  3
SW_NOTE_1
  1

  0
MTEXT
  5
CE
330
CB
100
AcDbEntity
  8
0
  6
Continuous
 62
     0
370
     0
100
AcDbMText
 10
19.90725
 20
1.9645392354
 30
0.0
 40
1.524
 41
0.0
 71
     2
 72
     1
  1
VALUES IN PARENTHESIS ARE CALCULATED
  7
SLDTEXTSTYLE0
 73
     1
 44
1.0
  0
MTEXT
  5
CF
330
CB
100
AcDbEntity
  8
0
  6
Continuous
 62
     0
370
     0
100
AcDbMText
 10
19.8778795174
 20
-0.5594606586
 30
0.0
 40
1.524
 41
0.0
 71
     2
 72
     1
  1
AND MAY CONTAIN ROUNDOFF ERRORS
  7
SLDTEXTSTYLE0
 73
     1
 44
1.0
  0
ENDBLK
  5
CD
330
CB
100
AcDbEntity
  8
0
100
AcDbBlockEnd
  0
BLOCK
  5
D2
330
D1
100
AcDbEntity
  8
0
100
AcDbBlockBegin
  2
SW_NOTE_2
 70
     0
 10
0.0
 20
0.0
 30
0.0
  3
SW_NOTE_2
  1

  0
MTEXT
  5
D4
330
D1
100
AcDbEntity
  8
0
  6
Continuous
 62
     0
370
     0
100
AcDbMText
 10
0.0
 20
2.7285267159
 30
0.0
 40
2.1166666667
 41
0.0
 71
     1
 72
     1
  1
DRAWING
  7
SLDTEXTSTYLE0
 73
     1
 44
1.0
  0
MTEXT
  5
D5
330
D1
100
AcDbEntity
  8
0
  6
Continuous
 62
     0
370
     0
100
AcDbMText
 10
0.0
 20
-0.0936954723
 30
0.0
 40
2.1166666667
 41
0.0
 71
     1
 72
     1
  1
PROJECTION
  7
SLDTEXTSTYLE0
 73
     1
 44
1.0
  0
ENDBLK
  5
D3
330
D1
100
AcDbEntity
  8
0
100
AcDbBlockEnd
  0
BLOCK
  5
D9
330
D8
100
AcDbEntity
  8
0
100
AcDbBlockBegin
  2
SW_NOTE_3
 70
     0
 10
0.0
 20
0.0
 30
0.0
  3
SW_NOTE_3
  1

  0
MTEXT
  5
DB
330
D8
100
AcDbEntity
  8
0
  6
Continuous
 62
     0
370
     0
100
AcDbMText
 10
25.052734375
 20
4.0927900738
 30
0.0
 40
3.175
 41
0.0
 71
     2
 72
     1
  1
FOR INFORMATION ONLY
  7
SLDTEXTSTYLE0
 73
     1
 44
1.0
  0
MTEXT
  5
DC
330
D8
100
AcDbEntity
  8
0
  6
Continuous
 62
     0
370
     0
100
AcDbMText
 10
25.3768468589
 20
-0.1405432084
 30
0.0
 40
3.175
 41
0.0
 71
     2
 72
     1
  1
NOT FOR MANUFACTURING PURPOSES
  7
SLDTEXTSTYLE0
 73
     1
 44
1.0
  0
ENDBLK
  5
DA
330
D8
100
AcDbEntity
  8
0
100
AcDbBlockEnd
  0
BLOCK
  5
DF
330
DE
100
AcDbEntity
  8
0
100
AcDbBlockBegin
  2
SW_NOTE_4
 70
     0
 10
0.0
 20
0.0
 30
0.0
  3
SW_NOTE_4
  1

  0
MTEXT
  5
E1
330
DE
100
AcDbEntity
  8
0
  6
Continuous
 62
     0
370
     0
100
AcDbMText
 10
1.9016927083
 20
3.4106583948
 30
0.0
 40
2.6458333333
 41
0.0
 71
     2
 72
     1
  1
%%c
  7
SLDTEXTSTYLE0
 73
     1
 44
1.0
  0
MTEXT
  5
E2
330
DE
100
AcDbEntity
  8
0
  6
Continuous
 62
     0
370
     0
100
AcDbMText
 10
28.5917202135
 20
3.4106583948
 30
0.0
 40
2.6458333333
 41
0.0
 71
     2
 72
     1
  1
50.8mm, f=750mm CONCAVE
  7
SLDTEXTSTYLE0
 73
     1
 44
1.0
  0
MTEXT
  5
E3
330
DE
100
AcDbEntity
  8
0
  6
Continuous
 62
     0
370
     0
100
AcDbMText
 10
26.7115269403
 20
-0.1171193403
 30
0.0
 40
2.6458333333
 41
0.0
 71
     2
 72
     1
  1
PROTECTED ALUMINUM MIRROR
  7
SLDTEXTSTYLE0
 73
     1
 44
1.0
  0
ENDBLK
  5
E0
330
DE
100
AcDbEntity
  8
0
100
AcDbBlockEnd
  0
BLOCK
  5
F6
330
F5
100
AcDbEntity
  8
0
100
AcDbBlockBegin
  2
_D
 70
     0
 10
0.0
 20
0.0
 30
0.0
  3
_D
  1

  0
SOLID
  5
F8
330
F5
100
AcDbEntity
  8
0
  6
Continuous
 62
     7
370
    18
100
AcDbTrace
 10
73.5288889066
 20
141.5326191694
 30
0.0
 11
76.1331631817
 21
143.4184729548
 31
0.0
 12
75.414742692
 22
144.1368934445
 32
0.0
 13
75.414742692
 23
144.1368934445
 33
0.0
  0
LINE
  5
F9
330
F5
100
AcDbEntity
  8
0
  6
Continuous
 62
     7
370
    18
100
AcDbLine
 10
91.793094507
 20
153.1280770215
 30
0.0
 11
91.1492750529
 21
153.1280770215
 31
0.0
  0
LINE
  5
FA
330
F5
100
AcDbEntity
  8
0
  6
Continuous
 62
     7
370
    18
100
AcDbLine
 10
91.1492750529
 20
153.1280770215
 30
0.0
 11
91.1492750529
 21
149.764928945
 31
0.0
  0
LINE
  5
FB
330
F5
100
AcDbEntity
  8
0
  6
Continuous
 62
     7
370
    18
100
AcDbLine
 10
91.1492750529
 20
149.764928945
 30
0.0
 11
91.793094507
 21
149.764928945
 31
0.0
  0
LINE
  5
FC
330
F5
100
AcDbEntity
  8
0
  6
Continuous
 62
     7
370
    18
100
AcDbLine
 10
99.5502860533
 20
153.1280770215
 30
0.0
 11
100.1941055074
 21
153.1280770215
 31
0.0
  0
LINE
  5
FD
330
F5
100
AcDbEntity
  8
0
  6
Continuous
 62
     7
370
    18
100
AcDbLine
 10
100.1941055074
 20
153.1280770215
 30
0.0
 11
100.1941055074
 21
149.764928945
 31
0.0
  0
LINE
  5
FE
330
F5
100
AcDbEntity
  8
0
  6
Continuous
 62
     7
370
    18
100
AcDbLine
 10
100.1941055074
 20
149.764928945
 30
0.0
 11
99.5502860533
 21
149.764928945
 31
0.0
  0
LINE
  5
FF
330
F5
100
AcDbEntity
  8
0
  6
Continuous
 62
     7
370
    18
100
AcDbLine
 10
73.5288889066
 20
141.5326191694
 30
0.0
 11
86.6954555987
 21
154.6991858615
 31
0.0
  0
LINE
  5
100
330
F5
100
AcDbEntity
  8
0
  6
Continuous
 62
     7
370
    18
100
AcDbLine
 10
86.6954555987
 20
154.6991858615
 30
0.0
 11
90.5054555987
 21
154.6991858615
 31
0.0
  0
MTEXT
  5
101
330
F5
100
AcDbEntity
  8
0
  6
Continuous
 62
     7
370
    18
100
AcDbMText
 10
90.5054555987
 20
156.2858166679
 30
0.0
 40
2.1166666667
 41
0.0
 71
     1
 72
     1
  1
%%c
  7
SLDTEXTSTYLE0
 73
     1
 44
1.0
  0
MTEXT
  5
102
330
F5
100
AcDbEntity
  8
0
  6
Continuous
 62
     7
370
    18
100
AcDbMText
 10
93.7004463994
 20
156.2858166679
 30
0.0
 40
2.1166666667
 41
0.0
 71
     1
 72
     1
  1
50.8mm
  7
SLDTEXTSTYLE0
 73
     1
 44
1.0
  0
MTEXT
  5
103
330
F5
100
AcDbEntity
  8
0
  6
Continuous
 62
     7
370
    18
100
AcDbMText
 10
91.793094507
 20
152.4934555445
 30
0.0
 40
2.1166666667
 41
0.0
 71
     1
 72
     1
  1
2.00in
  7
SLDTEXTSTYLE0
 73
     1
 44
1.0
  0
ENDBLK
  5
F7
330
F5
100
AcDbEntity
  8
0
100
AcDbBlockEnd
  0
BLOCK
  5
11D
330
11C
100
AcDbEntity
  8
0
100
AcDbBlockBegin
  2
_D_1
 70
     0
 10
0.0
 20
0.0
 30
0.0
  3
_D_1
  1

  0
SOLID
  5
11F
330
11C
100
AcDbEntity
  8
0
  6
Continuous
 62
     7
370
    18
100
AcDbTrace
 10
135.1741271429
 20
162.2663598233
 30
0.0
 11
131.9993103297
 21
162.7755034203
 31
0.0
 12
131.9989443681
 22
161.7595034862
 32
0.0
 13
131.9989443681
 23
161.7595034862
 33
0.0
  0
SOLID
  5
120
330
11C
100
AcDbEntity
  8
0
  6
Continuous
 62
     7
370
    18
100
AcDbTrace
 10
144.3858778263
 20
162.2630417651
 30
0.0
 11
147.5606946396
 21
161.7538981681
 31
0.0
 12
147.5610606012
 22
162.7698981022
 32
0.0
 13
147.5610606012
 23
162.7698981022
 33
0.0
  0
LINE
  5
121
330
11C
100
AcDbEntity
  8
0
  6
Continuous
 62
     7
370
    18
100
AcDbLine
 10
156.5857816323
 20
162.2562822318
 30
0.0
 11
155.9419621782
 21
162.2562822318
 31
0.0
  0
LINE
  5
122
330
11C
100
AcDbEntity
  8
0
  6
Continuous
 62
     7
370
    18
100
AcDbLine
 10
155.9419621782
 20
162.2562822318
 30
0.0
 11
155.9419621782
 21
158.8931341554
 31
0.0
  0
LINE
  5
123
330
11C
100
AcDbEntity
  8
0
  6
Continuous
 62
     7
370
    18
100
AcDbLine
 10
155.9419621782
 20
158.8931341554
 30
0.0
 11
156.5857816323
 21
158.8931341554
 31
0.0
  0
LINE
  5
124
330
11C
100
AcDbEntity
  8
0
  6
Continuous
 62
     7
370
    18
100
AcDbLine
 10
164.3429731786
 20
162.2562822318
 30
0.0
 11
164.9867926327
 21
162.2562822318
 31
0.0
  0
LINE
  5
125
330
11C
100
AcDbEntity
  8
0
  6
Continuous
 62
     7
370
    18
100
AcDbLine
 10
164.9867926327
 20
162.2562822318
 30
0.0
 11
164.9867926327
 21
158.8931341554
 31
0.0
  0
LINE
  5
126
330
11C
100
AcDbEntity
  8
0
  6
Continuous
 62
     7
370
    18
100
AcDbLine
 10
164.9867926327
 20
158.8931341554
 30
0.0
 11
164.3429731786
 21
158.8931341554
 31
0.0
  0
LINE
  5
127
330
11C
100
AcDbEntity
  8
0
  6
Continuous
 62
     7
370
    18
100
AcDbLine
 10
135.1697251812
 20
150.0454249031
 30
0.0
 11
135.1747675757
 21
164.044359708
 31
0.0
  0
LINE
  5
128
330
11C
100
AcDbEntity
  8
0
  6
Continuous
 62
     7
370
    18
100
AcDbLine
 10
144.3814758647
 20
150.0421068449
 30
0.0
 11
144.3865182591
 21
164.0410416498
 31
0.0
  0
LINE
  5
129
330
11C
100
AcDbEntity
  8
0
  6
Continuous
 62
     7
370
    18
100
AcDbLine
 10
135.1741271429
 20
162.2663598233
 30
0.0
 11
128.8241275548
 21
162.2686470832
 31
0.0
  0
LINE
  5
12A
330
11C
100
AcDbEntity
  8
0
  6
Continuous
 62
     7
370
    18
100
AcDbLine
 10
144.3858778263
 20
162.2630417651
 30
0.0
 11
154.8686292414
 21
162.2592658944
 31
0.0
  0
MTEXT
  5
12B
330
11C
100
AcDbEntity
  8
0
  6
Continuous
 62
     7
370
    18
100
AcDbMText
 10
155.8645470369
 20
165.4140218783
 30
0.0
 40
2.1166666667
 41
0.0
 71
     1
 72
     1
  1
9.2mm
  7
SLDTEXTSTYLE0
 73
     1
 44
1.0
  0
MTEXT
  5
12C
330
11C
100
AcDbEntity
  8
0
  6
Continuous
 62
     7
370
    18
100
AcDbMText
 10
156.5857816323
 20
161.6216607548
 30
0.0
 40
2.1166666667
 41
0.0
 71
     1
 72
     1
  1
0.36in
  7
SLDTEXTSTYLE0
 73
     1
 44
1.0
  0
MTEXT
  5
12D
330
11C
100
AcDbEntity
  8
0
  6
Continuous
 62
     7
370
    18
100
AcDbMText
 10
166.4243616212
 20
165.4140218783
 30
0.0
 40
2.1166666667
 41
0.0
 71
     1
 72
     1
  1
REF
  7
SLDTEXTSTYLE0
 73
     1
 44
1.0
  0
ENDBLK
  5
11E
330
11C
100
AcDbEntity
  8
0
100
AcDbBlockEnd
  0
BLOCK
  5
131
330
130
100
AcDbEntity
  8
0
100
AcDbBlockBegin
  2
_D_2
 70
     0
 10
0.0
 20
0.0
 30
0.0
  3
_D_2
  1

  0
ARC
  5
133
330
130
100
AcDbEntity
  8
0
  6
Continuous
 62
     7
370
    18
100
AcDbCircle
 10
-1364.619050411
 20
123.5721069272
 30
0.0
 40
1500.000068823651
100
AcDbArc
 50
358.6950672209
 51
358.9887484921
  0
SOLID
  5
134
330
130
100
AcDbEntity
  8
0
  6
Continuous
 62
     7
370
    18
100
AcDbTrace
 10
135.0314345803
 20
91.1895601404
 30
0.0
 11
138.1947277392
 21
90.6131354785
 31
0.0
 12
138.2166615166
 22
91.6288986938
 32
0.0
 13
138.2166615166
 23
91.6288986938
 33
0.0
  0
LINE
  5
135
330
130
100
AcDbEntity
  8
0
  6
Continuous
 62
     7
370
    18
100
AcDbLine
 10
157.7269160607
 20
89.2384541169
 30
0.0
 11
157.0830966066
 21
89.2384541169
 31
0.0
  0
LINE
  5
136
330
130
100
AcDbEntity
  8
0
  6
Continuous
 62
     7
370
    18
100
AcDbLine
 10
157.0830966066
 20
89.2384541169
 30
0.0
 11
157.0830966066
 21
85.8753060404
 31
0.0
  0
LINE
  5
137
330
130
100
AcDbEntity
  8
0
  6
Continuous
 62
     7
370
    18
100
AcDbLine
 10
157.0830966066
 20
85.8753060404
 30
0.0
 11
157.7269160607
 21
85.8753060404
 31
0.0
  0
LINE
  5
138
330
130
100
AcDbEntity
  8
0
  6
Continuous
 62
     7
370
    18
100
AcDbLine
 10
167.0480897137
 20
89.2384541169
 30
0.0
 11
167.6919091679
 21
89.2384541169
 31
0.0
  0
LINE
  5
139
330
130
100
AcDbEntity
  8
0
  6
Continuous
 62
     7
370
    18
100
AcDbLine
 10
167.6919091679
 20
89.2384541169
 30
0.0
 11
167.6919091679
 21
85.8753060404
 31
0.0
  0
LINE
  5
13A
330
130
100
AcDbEntity
  8
0
  6
Continuous
 62
     7
370
    18
100
AcDbLine
 10
167.6919091679
 20
85.8753060404
 30
0.0
 11
167.0480897137
 21
85.8753060404
 31
0.0
  0
LINE
  5
13B
330
130
100
AcDbEntity
  8
0
  6
Continuous
 62
     7
370
    18
100
AcDbLine
 10
135.0314345803
 20
91.1895601404
 30
0.0
 11
152.6292771525
 21
90.8095629569
 31
0.0
  0
LINE
  5
13C
330
130
100
AcDbEntity
  8
0
  6
Continuous
 62
     7
370
    18
100
AcDbLine
 10
152.6292771525
 20
90.8095629569
 30
0.0
 11
156.4392771525
 21
90.8095629569
 31
0.0
  0
MTEXT
  5
13D
330
130
100
AcDbEntity
  8
0
  6
Continuous
 62
     7
370
    18
100
AcDbMText
 10
156.4392771525
 20
92.3961937634
 30
0.0
 40
2.1166666667
 41
0.0
 71
     1
 72
     1
  1
R1500.0mm
  7
SLDTEXTSTYLE0
 73
     1
 44
1.0
  0
MTEXT
  5
13E
330
130
100
AcDbEntity
  8
0
  6
Continuous
 62
     7
370
    18
100
AcDbMText
 10
157.7269160607
 20
88.6038326399
 30
0.0
 40
2.1166666667
 41
0.0
 71
     1
 72
     1
  1
59.06in
  7
SLDTEXTSTYLE0
 73
     1
 44
1.0
  0
ENDBLK
  5
132
330
130
100
AcDbEntity
  8
0
100
AcDbBlockEnd
  0
BLOCK
  5
142
330
141
100
AcDbEntity
  8
0
100
AcDbBlockBegin
  2
_D_3
 70
     0
 10
0.0
 20
0.0
 30
0.0
  3
_D_3
  1

  0
SOLID
  5
144
330
141
100
AcDbEntity
  8
0
  6
Continuous
 62
     7
370
    18
100
AcDbTrace
 10
144.3810184127
 20
153.766113337
 30
0.0
 11
147.5560184127
 21
153.258113337
 31
0.0
 12
147.5560184127
 22
154.274113337
 32
0.0
 13
147.5560184127
 23
154.274113337
 33
0.0
  0
SOLID
  5
145
330
141
100
AcDbEntity
  8
0
  6
Continuous
 62
     7
370
    18
100
AcDbTrace
 10
135.3810184127
 20
153.766113337
 30
0.0
 11
132.2060184127
 21
154.274113337
 31
0.0
 12
132.2060184127
 22
153.258113337
 32
0.0
 13
132.2060184127
 23
153.258113337
 33
0.0
  0
LINE
  5
146
330
141
100
AcDbEntity
  8
0
  6
Continuous
 62
     7
370
    18
100
AcDbLine
 10
156.5024224067
 20
153.7661131042
 30
0.0
 11
155.8586029526
 21
153.7661131042
 31
0.0
  0
LINE
  5
147
330
141
100
AcDbEntity
  8
0
  6
Continuous
 62
     7
370
    18
100
AcDbLine
 10
155.8586029526
 20
153.7661131042
 30
0.0
 11
155.8586029526
 21
150.4029650277
 31
0.0
  0
LINE
  5
148
330
141
100
AcDbEntity
  8
0
  6
Continuous
 62
     7
370
    18
100
AcDbLine
 10
155.8586029526
 20
150.4029650277
 30
0.0
 11
156.5024224067
 21
150.4029650277
 31
0.0
  0
LINE
  5
149
330
141
100
AcDbEntity
  8
0
  6
Continuous
 62
     7
370
    18
100
AcDbLine
 10
164.259613953
 20
153.7661131042
 30
0.0
 11
164.9034334071
 21
153.7661131042
 31
0.0
  0
LINE
  5
14A
330
141
100
AcDbEntity
  8
0
  6
Continuous
 62
     7
370
    18
100
AcDbLine
 10
164.9034334071
 20
153.7661131042
 30
0.0
 11
164.9034334071
 21
150.4029650277
 31
0.0
  0
LINE
  5
14B
330
141
100
AcDbEntity
  8
0
  6
Continuous
 62
     7
370
    18
100
AcDbLine
 10
164.9034334071
 20
150.4029650277
 30
0.0
 11
164.259613953
 21
150.4029650277
 31
0.0
  0
LINE
  5
14C
330
141
100
AcDbEntity
  8
0
  6
Continuous
 62
     7
370
    18
100
AcDbLine
 10
144.3810184127
 20
150.0421069272
 30
0.0
 11
144.3810184127
 21
155.544113337
 31
0.0
  0
LINE
  5
14D
330
141
100
AcDbEntity
  8
0
  6
Continuous
 62
     7
370
    18
100
AcDbLine
 10
135.3810184127
 20
124.8421069272
 30
0.0
 11
135.3810184127
 21
155.544113337
 31
0.0
  0
LINE
  5
14E
330
141
100
AcDbEntity
  8
0
  6
Continuous
 62
     7
370
    18
100
AcDbLine
 10
144.3810184127
 20
153.766113337
 30
0.0
 11
153.2252083114
 21
153.766113337
 31
0.0
  0
LINE
  5
14F
330
141
100
AcDbEntity
  8
0
  6
Continuous
 62
     7
370
    18
100
AcDbLine
 10
135.3810184127
 20
153.766113337
 30
0.0
 11
129.0310184127
 21
153.766113337
 31
0.0
  0
MTEXT
  5
150
330
141
100
AcDbEntity
  8
0
  6
Continuous
 62
     7
370
    18
100
AcDbMText
 10
155.2422217941
 20
156.9238527506
 30
0.0
 40
2.1166666667
 41
0.0
 71
     1
 72
     1
  1

  7
SLDTEXTSTYLE0
 73
     1
 44
1.0
  0
MTEXT
  5
151
330
141
100
AcDbEntity
  8
0
  6
Continuous
 62
     7
370
    18
100
AcDbMText
 10
155.7811878113
 20
156.9238527506
 30
0.0
 40
2.1166666667
 41
0.0
 71
     1
 72
     1
  1
9.0mm
  7
SLDTEXTSTYLE0
 73
     1
 44
1.0
  0
MTEXT
  5
152
330
141
100
AcDbEntity
  8
0
  6
Continuous
 62
     7
370
    18
100
AcDbMText
 10
156.5024224067
 20
153.1314916272
 30
0.0
 40
2.1166666667
 41
0.0
 71
     1
 72
     1
  1
0.35in
  7
SLDTEXTSTYLE0
 73
     1
 44
1.0
  0
MTEXT
  5
153
330
141
100
AcDbEntity
  8
0
  6
Continuous
 62
     7
370
    18
100
AcDbMText
 10
167.1347528612
 20
156.9238527506
 30
0.0
 40
2.1166666667
 41
0.0
 71
     1
 72
     1
  1

  7
SLDTEXTSTYLE0
 73
     1
 44
1.0
  0
ENDBLK
  5
143
330
141
100
AcDbEntity
  8
0
100
AcDbBlockEnd
  0
ENDSEC
  0
SECTION
  2
ENTITIES
  0
LINE
  5
81
330
1F
100
AcDbEntity
  8
0
  6
Continuous
 62
     7
370
    18
100
AcDbLine
 10
1.5793501011
 20
214.6453799966
 30
0.0
 11
277.9892068491
 21
214.6453799966
 31
0.0
  0
LINE
  5
82
330
1F
100
AcDbEntity
  8
0
  6
Continuous
 62
     7
370
    18
100
AcDbLine
 10
1.5793501011
 20
214.6453799966
 30
0.0
 11
1.5793501011
 21
0.9031642596
 31
0.0
  0
LINE
  5
83
330
1F
100
AcDbEntity
  8
0
  6
Continuous
 62
     7
370
    18
100
AcDbLine
 10
277.9892068491
 20
0.9031642596
 30
0.0
 11
1.5793501011
 21
0.9031642596
 31
0.0
  0
LINE
  5
84
330
1F
100
AcDbEntity
  8
0
  6
Continuous
 62
     7
370
    18
100
AcDbLine
 10
277.9892068491
 20
0.9031642596
 30
0.0
 11
277.9892068491
 21
214.6453799966
 31
0.0
  0
LINE
  5
85
330
1F
100
AcDbEntity
  8
0
  6
Continuous
 62
     7
370
    18
100
AcDbLine
 10
215.7427640041
 20
12.2958890132
 30
0.0
 11
171.6327596684
 21
12.2958890132
 31
0.0
  0
LINE
  5
86
330
1F
100
AcDbEntity
  8
0
  6
Continuous
 62
     7
370
    18
100
AcDbLine
 10
171.6327596684
 20
12.2958890132
 30
0.0
 11
171.6327596684
 21
26.1661402506
 31
0.0
  0
LINE
  5
87
330
1F
100
AcDbEntity
  8
0
  6
Continuous
 62
     7
370
    18
100
AcDbLine
 10
171.6327596684
 20
0.9031642596
 30
0.0
 11
171.6327596684
 21
26.1661402506
 31
0.0
  0
LINE
  5
88
330
1F
100
AcDbEntity
  8
0
  6
Continuous
 62
     7
370
    18
100
AcDbLine
 10
215.7427640041
 20
17.1604579552
 30
0.0
 11
277.9892068491
 21
17.1604579552
 31
0.0
  0
LINE
  5
89
330
1F
100
AcDbEntity
  8
0
  6
Continuous
 62
     7
370
    18
100
AcDbLine
 10
215.7427640041
 20
35.2394508358
 30
0.0
 11
215.7427640041
 21
0.9031642596
 31
0.0
  0
LINE
  5
8A
330
1F
100
AcDbEntity
  8
0
  6
Continuous
 62
     7
370
    18
100
AcDbLine
 10
215.7427640041
 20
26.1661402506
 30
0.0
 11
171.6327596684
 21
26.1661402506
 31
0.0
  0
LINE
  5
8B
330
1F
100
AcDbEntity
  8
0
  6
Continuous
 62
     7
370
    18
100
AcDbLine
 10
215.7427640041
 20
9.1409200612
 30
0.0
 11
277.9892068491
 21
9.1409200612
 31
0.0
  0
LINE
  5
8C
330
1F
100
AcDbEntity
  8
0
  6
Continuous
 62
     7
370
    18
100
AcDbLine
 10
215.7427640041
 20
16.9216824031
 30
0.0
 11
171.6327596684
 21
16.9216824031
 31
0.0
  0
LINE
  5
8D
330
1F
100
AcDbEntity
  8
0
  6
Continuous
 62
     7
370
    18
100
AcDbLine
 10
215.7427640041
 20
21.4874005542
 30
0.0
 11
171.6327596684
 21
21.4874005542
 31
0.0
  0
LINE
  5
8E
330
1F
100
AcDbEntity
  8
0
  6
Continuous
 62
     7
370
    18
100
AcDbLine
 10
186.1338100705
 20
26.1661402506
 30
0.0
 11
186.1338100705
 21
12.2958890132
 31
0.0
  0
LINE
  5
8F
330
1F
100
AcDbEntity
  8
0
  6
Continuous
 62
     7
370
    18
100
AcDbLine
 10
198.2145906188
 20
26.1661402506
 30
0.0
 11
198.2145906188
 21
12.2958890132
 31
0.0
  0
LINE
  5
90
330
1F
100
AcDbEntity
  8
0
  6
Continuous
 62
     7
370
    18
100
AcDbLine
 10
253.7490408369
 20
9.1409200612
 30
0.0
 11
253.7490408369
 21
0.9031642596
 31
0.0
  0
LINE
  5
91
330
1F
100
AcDbEntity
  8
0
  6
Continuous
 62
     7
370
    18
100
AcDbLine
 10
171.6327596684
 20
12.2958890132
 30
0.0
 11
171.6327596684
 21
7.5627342528
 31
0.0
  0
LINE
  5
92
330
1F
100
AcDbEntity
  8
0
  6
Continuous
 62
     7
370
    18
100
AcDbLine
 10
171.6327596684
 20
7.5627342528
 30
0.0
 11
215.7427640041
 21
7.5627342528
 31
0.0
  0
LINE
  5
93
330
1F
100
AcDbEntity
  8
0
  6
Continuous
 62
     7
370
    18
100
AcDbLine
 10
171.6327596684
 20
7.5627342528
 30
0.0
 11
171.6327596684
 21
35.2394508358
 31
0.0
  0
LINE
  5
94
330
1F
100
AcDbEntity
  8
0
  6
Continuous
 62
     7
370
    18
100
AcDbLine
 10
171.6327596684
 20
35.2394508358
 30
0.0
 11
215.7427640041
 21
35.2394508358
 31
0.0
  0
LINE
  5
95
330
1F
100
AcDbEntity
  8
0
  6
Continuous
 62
     7
370
    18
100
AcDbLine
 10
270.1683598194
 20
17.1604579552
 30
0.0
 11
270.1683598194
 21
9.1409200612
 31
0.0
  0
LINE
  5
96
330
1F
100
AcDbEntity
  8
0
  6
Continuous
 62
     7
370
    18
100
AcDbLine
 10
215.7427640041
 20
35.2394508358
 30
0.0
 11
277.9892068491
 21
35.2394508358
 31
0.0
  0
LINE
  5
97
330
1F
100
AcDbEntity
  8
0
  6
Continuous
 62
     7
370
    18
100
AcDbLine
 10
277.9892068491
 20
35.2394508358
 30
0.0
 11
277.9892068491
 21
50.0331356147
 31
0.0
  0
LINE
  5
98
330
1F
100
AcDbEntity
  8
0
  6
Continuous
 62
     7
370
    18
100
AcDbLine
 10
215.7427640041
 20
24.8927335446
 30
0.0
 11
277.9892068491
 21
24.8927335446
 31
0.0
  0
INSERT
  5
99
330
1F
100
AcDbEntity
  8
0
  6
Continuous
 62
     7
100
AcDbBlockReference
  2
Third Angle Projection Block
 10
117.7262204235
 20
15.5162339489
 30
0.0
 41
0.8
 42
0.8
 43
0.8
  0
INSERT
  5
B9
330
1F
100
AcDbEntity
  8
0
  6
Continuous
 62
     7
370
     0
100
AcDbBlockReference
  2
SW_NOTE_0
 10
22.9941574824
 20
71.5480114752
 30
0.0
  0
MTEXT
  5
BA
330
1F
100
AcDbEntity
  8
0
  6
Continuous
 62
     7
370
     0
100
AcDbMText
 10
274.1458225539
 20
13.2559386876
 30
0.0
 40
3.175
 41
0.0
 71
     2
 72
     1
  1
A
  7
SLDTEXTSTYLE0
 73
     1
 44
1.0
  0
MTEXT
  5
BB
330
1F
100
AcDbEntity
  8
0
  6
Continuous
 62
     7
370
     0
100
AcDbMText
 10
234.585176394
 20
5.1306563898
 30
0.0
 40
3.175
 41
0.0
 71
     2
 72
     1
  1
CM508-750-G01
  7
SLDTEXTSTYLE0
 73
     1
 44
1.0
  0
MTEXT
  5
BC
330
1F
100
AcDbEntity
  8
0
  6
Continuous
 62
     7
370
     0
100
AcDbMText
 10
216.4199766059
 20
16.8243178599
 30
0.0
 40
2.1166666667
 41
0.0
 71
     1
 72
     1
  1
MATERIAL
  7
SLDTEXTSTYLE0
 73
     1
 44
1.0
  0
MTEXT
  5
BD
330
1F
100
AcDbEntity
  8
0
  6
Continuous
 62
     7
370
     0
100
AcDbMText
 10
174.230946566
 20
20.054553926
 30
0.0
 40
1.8520833333
 41
0.0
 71
     1
 72
     1
  1
DRAWN
  7
SLDTEXTSTYLE0
 73
     1
 44
1.0
  0
MTEXT
  5
BE
330
1F
100
AcDbEntity
  8
0
  6
Continuous
 62
     7
370
     0
100
AcDbMText
 10
172.3960124543
 20
15.5787169747
 30
0.0
 40
1.8520833333
 41
0.0
 71
     1
 72
     1
  1
APPROVAL
  7
SLDTEXTSTYLE0
 73
     1
 44
1.0
  0
MTEXT
  5
BF
330
1F
100
AcDbEntity
  8
0
  6
Continuous
 62
     7
370
     0
100
AcDbMText
 10
271.7160653675
 20
16.1671746307
 30
0.0
 40
2.1166666667
 41
0.0
 71
     1
 72
     1
  1
REV
  7
SLDTEXTSTYLE0
 73
     1
 44
1.0
  0
MTEXT
  5
C0
330
1F
100
AcDbEntity
  8
0
  6
Continuous
 62
     7
370
     0
100
AcDbMText
 10
190.2958696448
 20
20.3177146903
 30
0.0
 40
2.1166666667
 41
0.0
 71
     1
 72
     1
  1
YB
  7
SLDTEXTSTYLE0
 73
     1
 44
1.0
  0
MTEXT
  5
C1
330
1F
100
AcDbEntity
  8
0
  6
Continuous
 62
     7
370
     0
100
AcDbMText
 10
190.2958696448
 20
15.841877739
 30
0.0
 40
2.1166666667
 41
0.0
 71
     1
 72
     1
  1
DD
  7
SLDTEXTSTYLE0
 73
     1
 44
1.0
  0
MTEXT
  5
C2
330
1F
100
AcDbEntity
  8
0
  6
Continuous
 62
     7
370
     0
100
AcDbMText
 10
199.8662436873
 20
20.3177146903
 30
0.0
 40
2.1166666667
 41
0.0
 71
     1
 72
     1
  1
16/APR/18
  7
SLDTEXTSTYLE0
 73
     1
 44
1.0
  0
MTEXT
  5
C3
330
1F
100
AcDbEntity
  8
0
  6
Continuous
 62
     7
370
     0
100
AcDbMText
 10
203.6145073853
 20
24.8221395769
 30
0.0
 40
2.1166666667
 41
0.0
 71
     1
 72
     1
  1
DATE
  7
SLDTEXTSTYLE0
 73
     1
 44
1.0
  0
MTEXT
  5
C4
330
1F
100
AcDbEntity
  8
0
  6
Continuous
 62
     7
370
     0
100
AcDbMText
 10
199.8662436873
 20
15.841877739
 30
0.0
 40
2.1166666667
 41
0.0
 71
     1
 72
     1
  1
16/APR/18
  7
SLDTEXTSTYLE0
 73
     1
 44
1.0
  0
MTEXT
  5
C6
330
1F
100
AcDbEntity
  8
0
  6
Continuous
 62
     7
370
     0
100
AcDbMText
 10
229.402906477
 20
27.7957480569
 30
0.0
 40
2.1166666667
 41
0.0
 71
     1
 72
     1
  1
w w w . t h o r  l a b s . c o m
  7
SLDTEXTSTYLE3
 73
     1
 44
1.0
  0
MTEXT
  5
C7
330
1F
100
AcDbEntity
  8
0
  6
Continuous
 62
     7
370
     0
100
AcDbMText
 10
216.7004035316
 20
8.3494791871
 30
0.0
 40
2.1166666667
 41
0.0
 71
     1
 72
     1
  1
ITEM #
  7
SLDTEXTSTYLE0
 73
     1
 44
1.0
  0
MTEXT
  5
C8
330
1F
100
AcDbEntity
  8
0
  6
Continuous
 62
     7
370
     0
100
AcDbMText
 10
254.5318000914
 20
8.3494791871
 30
0.0
 40
2.1166666667
 41
0.0
 71
     1
 72
     1
  1
APPROX WEIGHT
  7
SLDTEXTSTYLE0
 73
     1
 44
1.0
  0
MTEXT
  5
C9
330
1F
100
AcDbEntity
  8
0
  6
Continuous
 62
     7
370
     0
100
AcDbMText
 10
243.5159064132
 20
13.8247651814
 30
0.0
 40
3.175
 41
0.0
 71
     2
 72
     1
  1
N-BK7
  7
SLDTEXTSTYLE0
 73
     1
 44
1.0
  0
MTEXT
  5
CA
330
1F
100
AcDbEntity
  8
0
  6
Continuous
 62
     7
370
     0
100
AcDbMText
 10
266.1358773775
 20
5.1306563898
 30
0.0
 40
3.175
 41
0.0
 71
     2
 72
     1
  1
46.33 kg
  7
SLDTEXTSTYLE0
 73
     1
 44
1.0
  0
INSERT
  5
D0
330
1F
100
AcDbEntity
  8
0
  6
Continuous
 62
     7
370
     0
100
AcDbBlockReference
  2
SW_NOTE_1
 10
174.8430140051
 20
4.4558554801
 30
0.0
  0
INSERT
  5
D6
330
1F
100
AcDbEntity
  8
0
  6
Continuous
 62
     7
370
     0
100
AcDbBlockReference
  2
SW_NOTE_2
 10
174.5483650337
 20
30.4835322715
 30
0.0
  0
MTEXT
  5
D7
330
1F
100
AcDbEntity
  8
0
  6
Continuous
 62
     7
370
     0
100
AcDbMText
 10
187.9273588276
 20
24.8221395769
 30
0.0
 40
2.1166666667
 41
0.0
 71
     1
 72
     1
  1
NAME
  7
SLDTEXTSTYLE0
 73
     1
 44
1.0
  0
INSERT
  5
DD
330
1F
100
AcDbEntity
  8
0
  6
Continuous
 62
     7
370
     0
100
AcDbBlockReference
  2
SW_NOTE_3
 10
58.6204667508
 20
8.1776609732
 30
0.0
  0
INSERT
  5
E4
330
1F
100
AcDbEntity
  8
0
  6
Continuous
 62
     7
370
     0
100
AcDbBlockReference
  2
SW_NOTE_4
 10
220.0050186217
 20
20.7222222066
 30
0.0
  0
MTEXT
  5
E5
330
1F
100
AcDbEntity
  8
0
  6
Continuous
 62
     7
370
     0
100
AcDbMText
 10
177.6925831922
 20
10.7142101515
 30
0.0
 40
1.5875
 41
0.0
 71
     1
 72
     1
  1
COPYRIGHT © 2018 BY THORLABS
  7
SLDTEXTSTYLE0
 73
     1
 44
1.0
  0
LINE
  5
E6
330
1F
100
AcDbEntity
  8
0
  6
Continuous
 62
     7
370
    18
100
AcDbLine
 10
230.2231793762
 20
196.1378647747
 30
0.0
 11
230.2231793762
 21
195.977292042
 31
0.0
  0
LINE
  5
E7
330
1F
100
AcDbEntity
  8
0
  6
Continuous
 62
     7
370
    18
100
AcDbLine
 10
248.0417199988
 20
165.1113299756
 30
0.0
 11
248.1807725299
 21
165.0310305605
 31
0.0
  0
LINE
  5
E8
330
1F
100
AcDbEntity
  8
0
  6
Continuous
 62
     7
370
    18
100
AcDbLine
 10
260.8826595228
 20
163.7718406501
 30
0.0
 11
267.1158544066
 21
167.3701874636
 31
0.0
  0
LINE
  5
E9
330
1F
100
AcDbEntity
  8
0
  6
Continuous
 62
     7
370
    18
100
AcDbLine
 10
241.7179185977
 20
211.3654696725
 30
0.0
 11
235.4847237138
 21
207.7671228591
 31
0.0
  0
LINE
  5
EA
330
1F
100
AcDbEntity
  8
0
  6
Continuous
 62
     7
370
    18
100
AcDbLine
 10
272.3773987443
 20
178.9994455479
 30
0.0
 11
272.3773987443
 21
179.1627271703
 31
0.0
  0
LINE
  5
EB
330
1F
100
AcDbEntity
  8
0
  6
Continuous
 62
     7
370
    18
100
AcDbLine
 10
254.5612039618
 20
210.0246256821
 30
0.0
 11
254.4198055905
 21
210.1062797622
 31
0.0
  0
LWPOLYLINE
  5
EC
330
1F
100
AcDbEntity
  8
0
  6
Continuous
 62
     7
370
    18
100
AcDbPolyline
 90
      168
 70
   128
 43
0.0
 10
265.8660535909
 20
175.4010987344
 10
265.8534414652
 20
176.1824786328
 10
265.8156229392
 20
176.9773142257
 10
265.7526515408
 20
177.7844805121
 10
265.664616399
 20
178.6028350385
 10
265.5516421176
 20
179.4312195155
 10
265.4138885992
 20
180.2684614576
 10
265.2515508184
 20
181.1133758425
 10
265.0648585462
 20
181.9647667881
 10
264.8540760246
 20
182.821429246
 10
264.6195015927
 20
183.6821507062
 10
264.3614672645
 20
184.5457129137
 10
264.0803382586
 20
185.4108935928
 10
263.7765124817
 20
186.2764681769
 10
263.4504199652
 20
187.1412115421
 10
263.1025222566
 20
188.0038997408
 10
262.7333117663
 20
188.8633117343
 10
262.3433110703
 20
189.7182311211
 10
261.9330721711
 20
190.5674478583
 10
261.5031757159
 20
191.4097599747
 10
261.0542301751
 20
192.2439752716
 10
260.5868709809
 20
193.0689130105
 10
260.101759628
 20
193.8834055844
 10
259.5995827373
 20
194.6863001701
 10
259.081051084
 20
195.47646036
 10
258.5468985916
 20
196.2527677708
 10
257.9978812933
 20
197.0141236262
 10
257.4347762617
 20
197.7594503121
 10
256.858380509
 20
198.4876929018
 10
256.2695098589
 20
199.1978206496
 10
255.668997792
 20
199.8888284488
 10
255.0576942659
 20
200.5597382553
 10
254.4364645124
 20
201.2096004713
 10
253.8061878128
 20
201.8374952894
 10
253.1677562533
 20
202.4425339948
 10
252.5220734623
 20
203.0238602229
 10
251.8700533317
 20
203.5806511713
 10
251.212618723
 20
204.1121187647
 10
250.5507001614
 20
204.6175107702
 10
249.8852345185
 20
205.0961118619
 10
249.2171636867
 20
205.5472446336
 10
248.5474332454
 20
205.9702705571
 10
247.8769911232
 20
206.3645908867
 10
247.206786256
 20
206.7296475059
 10
246.5377672438
 20
207.064923718
 10
245.8708810081
 20
207.369944977
 10
245.207071452
 20
207.6442795593
 10
244.5472781235
 20
207.8875391751
 10
243.8924348864
 20
208.0993795176
 10
243.2434685981
 20
208.2795007505
 10
242.6012977977
 20
208.4276479323
 10
241.9668314062
 20
208.5436113772
 10
241.3409674398
 20
208.627226952
 10
240.724591739
 20
208.6783763081
 10
240.1185767147
 20
208.6969870493
 10
239.5237801133
 20
208.6830328343
 10
238.941043803
 20
208.6365334137
 10
238.3711925819
 20
208.5575546021
 10
237.8150330105
 20
208.4462081853
 10
237.2733522706
 20
208.3026517617
 10
236.7469170508
 20
208.1270885193
 10
236.2364724611
 20
207.9197669483
 10
235.7427409788
 20
207.6809804892
 10
235.2664214257
 20
207.4110671174
 10
234.8081879788
 20
207.1104088653
 10
234.3686892163
 20
206.7794312809
 10
233.9485471995
 20
206.418602826
 10
233.5483565925
 20
206.0284342129
 10
233.1686838204
 20
205.6094776817
 10
232.8100662674
 20
205.1623262185
 10
232.4730115167
 20
204.6876127161
 10
232.1579966315
 20
204.1860090785
 10
231.8654674802
 20
203.6582252695
 10
231.5958381052
 20
203.1050083081
 10
231.3494901365
 20
202.527141211
 10
231.1267722523
 20
201.9254418845
 10
230.9279996847
 20
201.3007619667
 10
230.7534537742
 20
200.6539856221
 10
230.6033815709
 20
199.9860282904
 10
230.4779954853
 20
199.2978353905
 10
230.3774729873
 20
198.5903809823
 10
230.3019563554
 20
197.8646663887
 10
230.2515524748
 20
197.1217187774
 10
230.2263326866
 20
196.3625897076
 10
230.2263326866
 20
195.5883536417
 10
230.2515524748
 20
194.8001064243
 10
230.3019563554
 20
193.9989637311
 10
230.3774729873
 20
193.1860594901
 10
230.4779954853
 20
192.3625442763
 10
230.6033815709
 20
191.5295836834
 10
230.7534537742
 20
190.6883566739
 10
230.9279996847
 20
189.8400539106
 10
231.1267722523
 20
188.9858760713
 10
231.3494901365
 20
188.1270321491
 10
231.5958381052
 20
187.2647377416
 10
231.8654674802
 20
186.4002133301
 10
232.1579966315
 20
185.5346825522
 10
232.4730115167
 20
184.66937047
 10
232.8100662674
 20
183.8055018358
 10
233.1686838204
 20
182.9442993593
 10
233.5483565925
 20
182.0869819761
 10
233.9485471995
 20
181.2347631232
 10
234.3686892163
 20
180.3888490211
 10
234.8081879788
 20
179.5504369665
 10
235.2664214257
 20
178.720713638
 10
235.7427409788
 20
177.9008534162
 10
236.2364724611
 20
177.0920167215
 10
236.7469170508
 20
176.2953483719
 10
237.2733522706
 20
175.5119759622
 10
237.8150330105
 20
174.7430082686
 10
238.3711925819
 20
173.9895336788
 10
238.941043803
 20
173.2526186519
 10
239.5237801133
 20
172.5333062086
 10
240.1185767147
 20
171.8326144553
 10
240.724591739
 20
171.1515351428
 10
241.3409674398
 20
170.4910322627
 10
241.9668314062
 20
169.852040683
 10
242.6012977977
 20
169.2354648248
 10
243.2434685981
 20
168.6421773823
 10
243.8924348864
 20
168.0730180875
 10
244.5472781235
 20
167.5287925218
 10
245.207071452
 20
167.0102709755
 10
245.8708810081
 20
166.518187358
 10
246.5377672438
 20
166.0532381586
 10
247.206786256
 20
165.6160814609
 10
247.8769911232
 20
165.2073360112
 10
248.5474332454
 20
164.8275803432
 10
249.2171636867
 20
164.4773519584
 10
249.8852345185
 20
164.157146566
 10
250.5507001614
 20
163.8674173809
 10
251.212618723
 20
163.6085744824
 10
251.8700533317
 20
163.3809842336
 10
252.5220734623
 20
163.1849687631
 10
253.1677562533
 20
163.0208055088
 10
253.8061878128
 20
162.8887268256
 10
254.4364645124
 20
162.788919656
 10
255.0576942659
 20
162.7215252658
 10
255.668997792
 20
162.6866390444
 10
256.2695098589
 20
162.6843103693
 10
256.858380509
 20
162.7145425363
 10
257.4347762617
 20
162.7772927554
 10
257.9978812933
 20
162.8724722106
 10
258.5468985916
 20
162.9999461859
 10
259.081051084
 20
163.1595342563
 10
259.5995827373
 20
163.3510105426
 10
260.101759628
 20
163.5741040317
 10
260.5868709809
 20
163.8284989595
 10
261.0542301751
 20
164.1138352586
 10
261.5031757159
 20
164.4297090674
 10
261.9330721711
 20
164.7756733016
 10
262.3433110703
 20
165.1512382878
 10
262.7333117663
 20
165.5558724556
 10
263.1025222566
 20
165.9890030906
 10
263.4504199652
 20
166.4500171448
 10
263.7765124817
 20
166.9382621045
 10
264.0803382586
 20
167.4530469134
 10
264.3614672645
 20
167.9936429512
 10
264.6195015927
 20
168.5592850647
 10
264.8540760246
 20
169.1491726507
 10
265.0648585462
 20
169.7624707893
 10
265.2515508184
 20
170.3983114256
 10
265.4138885992
 20
171.0557945983
 10
265.5516421176
 20
171.7339897134
 10
265.664616399
 20
172.4319368617
 10
265.7526515408
 20
173.1486481768
 10
265.8156229392
 20
173.8831092343
 10
265.8534414652
 20
174.6342804864
 10
265.8660535909
 20
175.4010987344
  0
LWPOLYLINE
  5
ED
330
1F
100
AcDbEntity
  8
0
  6
Continuous
 62
     7
370
    18
100
AcDbPolyline
 90
      127
 70
   128
 43
0.0
 10
230.2231793762
 20
196.1378647747
 10
230.2358899245
 20
196.9106671278
 10
230.2740035791
 20
197.6677003787
 10
230.3374663944
 20
198.4078930318
 10
230.4261885459
 20
199.1301974269
 10
230.5400444573
 20
199.8335912231
 10
230.6788729782
 20
200.517078845
 10
230.8424776124
 20
201.1796928924
 10
231.0306267959
 20
201.8204955091
 10
231.2430542246
 20
202.4385797108
 10
231.4794592311
 20
203.0330706683
 10
231.7395072106
 20
203.6031269462
 10
232.0228300942
 20
204.1479416936
 10
232.3290268702
 20
204.666743786
 10
232.6576641512
 20
205.1587989173
 10
233.0082767879
 20
205.6234106383
 10
233.3803685273
 20
206.0599213431
 10
233.7734127151
 20
206.4677131996
 10
234.1868530414
 20
206.8462090241
 10
234.6201043274
 20
207.194873098
 10
235.0725533546
 20
207.5132119264
 10
235.5435597318
 20
207.8007749362
 10
236.0324568022
 20
208.0571551141
 10
236.5385525867
 20
208.2819895826
 10
237.0611307632
 20
208.4749601138
 10
237.5994516809
 20
208.6357935794
 10
238.1527534067
 20
208.7642623376
 10
238.7202528038
 20
208.8601845553
 10
239.3011466403
 20
208.9234244652
 10
239.8946127259
 20
208.9538925585
 10
240.4998110758
 20
208.9515457108
 10
241.1158850993
 20
208.9163872438
 10
241.7419628127
 20
208.8484669206
 10
242.3771580728
 20
208.7478808746
 10
243.0205718318
 20
208.6147714743
 10
243.6712934095
 20
208.449327121
 10
244.3284017823
 20
208.2517819827
 10
244.9909668867
 20
208.0224156625
 10
245.658050936
 20
207.7615528028
 10
246.3287097472
 20
207.4695626257
 10
247.0019940779
 20
207.1468584108
 10
247.6769509692
 20
206.7938969098
 10
248.3526250953
 20
206.4111777001
 10
249.0280601149
 20
205.9992424781
 10
249.7023000254
 20
205.5586742919
 10
250.3743905155
 20
205.0900967166
 10
251.0433803162
 20
204.5941729713
 10
251.7083225474
 20
204.0716049807
 10
252.3682760576
 20
203.5231323813
 10
253.0223067565
 20
202.9495314747
 10
253.6694889368
 20
202.3516141288
 10
254.3089065844
 20
201.7302266289
 10
254.9396546752
 20
201.0862484794
 10
255.5608404557
 20
200.4205911594
 10
256.171584707
 20
199.7341968324
 10
256.7710229888
 20
199.0280370127
 10
257.3583068634
 20
198.3031111908
 10
257.9326050961
 20
197.5604454179
 10
258.4931048319
 20
196.8010908545
 10
259.0390127461
 20
196.026122282
 10
259.5695561671
 20
195.2366365818
 10
260.0839841701
 20
194.4337511825
 10
260.5815686398
 20
193.6186024788
 10
261.0616053009
 20
192.7923442224
 10
261.5234147152
 20
191.9561458895
 10
261.9663432432
 20
191.1111910254
 10
262.3897639691
 20
190.2586755691
 10
262.7930775881
 20
189.399806161
 10
263.175713255
 20
188.5357984346
 10
263.5371293917
 20
187.6678752963
 10
263.8768144541
 20
186.7972651942
 10
264.1942876561
 20
185.9252003796
 10
264.4890996497
 20
185.0529151627
 10
264.7608331616
 20
184.1816441657
 10
265.0091035833
 20
183.3126205753
 10
265.2335595159
 20
182.4470743971
 10
265.4338832671
 20
181.586230715
 10
265.609791301
 20
180.7313079569
 10
265.7610346395
 20
179.8835161705
 10
265.8873992145
 20
179.0440553101
 10
265.988706171
 20
178.2141135389
 10
266.0648121206
 20
177.3948655464
 10
266.1156093435
 20
176.5874708867
 10
266.1410259422
 20
175.7930723367
 10
266.1410259422
 20
175.0127942785
 10
266.1156093435
 20
174.2477411086
 10
266.0648121206
 20
173.4989956742
 10
265.988706171
 20
172.7676177407
 10
265.8873992145
 20
172.0546424918
 10
265.7610346395
 20
171.3610790643
 10
265.609791301
 20
170.6879091195
 10
265.4338832671
 20
170.0360854543
 10
265.2335595159
 20
169.4065306522
 10
265.0091035833
 20
168.8001357776
 10
264.7608331616
 20
168.2177591146
 10
264.4890996497
 20
167.6602249523
 10
264.1942876561
 20
167.128322418
 10
263.8768144541
 20
166.6228043602
 10
263.5371293917
 20
166.1443862832
 10
263.175713255
 20
165.6937453343
 10
262.7930775881
 20
165.2715193453
 10
262.3897639691
 20
164.8783059299
 10
261.9663432432
 20
164.5146616378
 10
261.5234147152
 20
164.1811011667
 10
261.0616053009
 20
163.8780966343
 10
260.5815686398
 20
163.6060769095
 10
260.0839841701
 20
163.3654270058
 10
259.5695561671
 20
163.1564875364
 10
259.0390127461
 20
162.9795542316
 10
258.4931048319
 20
162.8348775207
 10
257.9326050961
 20
162.7226621775
 10
257.3583068634
 20
162.6430670302
 10
256.7710229888
 20
162.5962047368
 10
256.171584707
 20
162.5821416257
 10
255.5608404557
 20
162.6008976017
 10
254.9396546752
 20
162.6524461177
 10
254.3089065844
 20
162.7367142127
 10
253.6694889368
 20
162.8535826144
 10
253.0223067565
 20
163.0028859089
 10
252.3682760576
 20
163.1844127739
 10
251.7083225474
 20
163.3979062785
 10
251.0433803162
 20
163.6430642465
 10
250.3743905155
 20
163.9195396842
 10
249.7023000254
 20
164.2269412715
 10
249.0280601149
 20
164.564833916
 10
248.3526250953
 20
164.9327393682
 10
248.1807725299
 20
165.0310305605
  0
LWPOLYLINE
  5
EE
330
1F
100
AcDbEntity
  8
0
  6
Continuous
 62
     7
370
    18
100
AcDbPolyline
 90
       64
 70
   128
 43
0.0
 10
272.3773987443
 20
178.9994455479
 10
272.364688196
 20
179.7869231877
 10
272.3265745413
 20
180.5879615276
 10
272.263111726
 20
181.4014267875
 10
272.1743895746
 20
182.2261675984
 10
272.0605336632
 20
183.0610166317
 10
271.9217051423
 20
183.904792252
 10
271.758100508
 20
184.7563001894
 10
271.5699513245
 20
185.6143352295
 10
271.3575238959
 20
186.4776829197
 10
271.1211188894
 20
187.3451212878
 10
270.8610709099
 20
188.215422572
 10
270.5777480262
 20
189.0873549579
 10
270.2715512503
 20
189.9596843229
 10
269.9429139693
 20
190.8311759822
 10
269.5923013326
 20
191.7005964369
 10
269.2202095932
 20
192.5667151196
 10
268.8271654053
 20
193.4283061361
 10
268.4137250791
 20
194.2841500006
 10
267.980473793
 20
195.1330353619
 10
267.5280247659
 20
195.9737607177
 10
267.0570183887
 20
196.8051361152
 10
266.5681213183
 20
197.6259848355
 10
266.0620255338
 20
198.4351450591
 10
265.5394473572
 20
199.2314715102
 10
265.0011264395
 20
200.0138370777
 10
264.4478247138
 20
200.7811344106
 10
263.8803253167
 20
201.5322774854
 10
263.2994314802
 20
202.266203143
 10
262.7059653945
 20
202.9818725938
 10
262.1007670447
 20
203.6782728876
 10
261.4846930211
 20
204.3544183477
 10
260.8586153078
 20
205.0093519659
 10
260.2234200477
 20
205.6421467568
 10
259.5800062887
 20
206.2519070702
 10
258.929284711
 20
206.8377698585
 10
258.2721763382
 20
207.3989058984
 10
257.6096112337
 20
207.9345209647
 10
256.9425271845
 20
208.4438569542
 10
256.2718683732
 20
208.9261929586
 10
255.5985840426
 20
209.3808462853
 10
254.9236271512
 20
209.8071734234
 10
254.2479530252
 20
210.2045709544
 10
253.5725180055
 20
210.5724764067
 10
252.8982780951
 20
210.9103690511
 10
252.226187605
 20
211.2177706385
 10
251.5571978042
 20
211.4942460762
 10
250.8922555731
 20
211.7394040442
 10
250.2323020628
 20
211.9528975488
 10
249.5782713639
 20
212.1344244138
 10
248.9310891837
 20
212.2837277082
 10
248.2916715361
 20
212.40059611
 10
247.6609234453
 20
212.4848642049
 10
247.0397376648
 20
212.536412721
 10
246.4289934135
 20
212.5551686969
 10
245.8295551316
 20
212.5411055859
 10
245.242271257
 20
212.4942432925
 10
244.6679730244
 20
212.4146481452
 10
244.1074732886
 20
212.302432802
 10
243.5615653744
 20
212.1577560911
 10
243.0310219533
 20
211.9808227863
 10
242.5165939503
 20
211.7718833168
 10
242.0190094807
 20
211.5312334132
 10
241.7179185977
 20
211.3654696725
  0
LWPOLYLINE
  5
EF
330
1F
100
AcDbEntity
  8
0
  6
Continuous
 62
     7
370
    18
100
AcDbPolyline
 90
       22
 70
   128
 43
0.0
 10
267.1158544066
 20
167.3701874636
 10
267.5280247659
 20
167.6240983963
 10
267.980473793
 20
167.9424372246
 10
268.4137250791
 20
168.2911012986
 10
268.8271654053
 20
168.669597123
 10
269.2202095932
 20
169.0773889796
 10
269.5923013326
 20
169.5138996844
 10
269.9429139693
 20
169.9785114054
 10
270.2715512503
 20
170.4705665366
 10
270.5777480262
 20
170.9893686291
 10
270.8610709099
 20
171.5341833765
 10
271.1211188894
 20
172.1042396544
 10
271.3575238959
 20
172.6987306119
 10
271.5699513245
 20
173.3168148136
 10
271.758100508
 20
173.9576174303
 10
271.9217051423
 20
174.6202314777
 10
272.0605336632
 20
175.3037190996
 10
272.1743895746
 20
176.0071128958
 10
272.263111726
 20
176.7294172909
 10
272.3265745413
 20
177.4696099439
 10
272.364688196
 20
178.2266431949
 10
272.3773987443
 20
178.9994455479
  0
ARC
  5
F0
330
1F
100
AcDbEntity
  8
0
  6
Continuous
 62
     7
370
    18
100
AcDbCircle
 10
233.7590400875
 20
177.4423076747
 30
0.0
 40
38.65666137401639
100
AcDbArc
 50
2.5507982903
 51
57.443825177
  0
CIRCLE
  5
F1
330
1F
100
AcDbEntity
  8
0
  6
Continuous
 62
     7
370
    18
100
AcDbCircle
 10
55.5683766645
 20
123.5721069272
 30
0.0
 40
25.20331805820369
  0
CIRCLE
  5
F2
330
1F
100
AcDbEntity
  8
0
  6
Continuous
 62
     7
370
    18
100
AcDbCircle
 10
55.5683766645
 20
123.5721069272
 30
0.0
 40
25.4
  0
DIMENSION
  5
F3
330
1F
100
AcDbEntity
  8
0
  6
Continuous
 62
     7
370
    18
100
AcDbDimension
  2
_D
 10
37.6078644223
 20
105.6115946851
 30
0.0
 11
97.4847720718
 21
154.6991858615
 31
0.0
 70
   163
  1
<>
 71
     1
 42
-1.0
  3
SLDDIMSTYLE0
100
AcDbDiametricDimension
 15
73.5288889066
 25
141.5326191694
 35
0.0
 40
0.0
  0
LINE
  5
104
330
1F
100
AcDbEntity
  8
0
  6
PHANTOM
 62
     7
370
    35
100
AcDbLine
 10
55.5683766645
 20
155.0681069272
 30
0.0
 11
55.5683766645
 21
92.0761069272
 31
0.0
  0
LINE
  5
105
330
1F
100
AcDbEntity
  8
0
  6
Continuous
 62
     7
370
    35
100
AcDbLine
 10
55.5683766645
 20
155.0681069272
 30
0.0
 11
46.6783766645
 21
155.0681069272
 31
0.0
  0
SOLID
  5
106
330
1F
100
AcDbEntity
  8
0
  6
Continuous
 62
     7
370
    35
100
AcDbTrace
 10
46.6783766645
 20
155.0681069272
 30
0.0
 11
50.4883766645
 21
154.4331069272
 31
0.0
 12
50.4883766645
 22
155.7031069272
 32
0.0
 13
50.4883766645
 23
155.7031069272
 33
0.0
  0
LINE
  5
107
330
1F
100
AcDbEntity
  8
0
  6
Continuous
 62
     7
370
    35
100
AcDbLine
 10
55.5683766645
 20
92.0761069272
 30
0.0
 11
46.6783766645
 21
92.0761069272
 31
0.0
  0
SOLID
  5
108
330
1F
100
AcDbEntity
  8
0
  6
Continuous
 62
     7
370
    35
100
AcDbTrace
 10
46.6783766645
 20
92.0761069272
 30
0.0
 11
50.4883766645
 21
91.4411069272
 31
0.0
 12
50.4883766645
 22
92.7111069272
 32
0.0
 13
50.4883766645
 23
92.7111069272
 33
0.0
  0
MTEXT
  5
109
330
1F
100
AcDbEntity
  8
0
  6
Continuous
 62
     7
100
AcDbMText
 10
43.2727410433
 20
157.1692404507
 30
0.0
 40
2.6458333333
 41
0.0
 71
     1
 72
     1
  1
A
  7
SLDTEXTSTYLE0
 73
     1
 44
1.0
  0
MTEXT
  5
10A
330
1F
100
AcDbEntity
  8
0
  6
Continuous
 62
     7
100
AcDbMText
 10
43.2727410433
 20
94.1772404507
 30
0.0
 40
2.6458333333
 41
0.0
 71
     1
 72
     1
  1
A
  7
SLDTEXTSTYLE0
 73
     1
 44
1.0
  0
LINE
  5
10B
330
1F
100
AcDbEntity
  8
0
  6
Continuous
 62
     7
370
    18
100
AcDbLine
 10
144.3810184127
 20
98.3721069272
 30
0.0
 11
144.1810184127
 21
98.1721069272
 31
0.0
  0
LINE
  5
10C
330
1F
100
AcDbEntity
  8
0
  6
Continuous
 62
     7
370
    18
100
AcDbLine
 10
135.365949671
 20
98.1721069272
 30
0.0
 11
144.1810184127
 21
98.1721069272
 31
0.0
  0
LINE
  5
10D
330
1F
100
AcDbEntity
  8
0
  6
Continuous
 62
     7
370
    18
100
AcDbLine
 10
135.365949671
 20
98.1721069272
 30
0.0
 11
135.1692677292
 21
98.368788869
 31
0.0
  0
ARC
  5
10E
330
1F
100
AcDbEntity
  8
0
  6
Continuous
 62
     7
370
    18
100
AcDbCircle
 10
-1364.619050411
 20
123.5721069272
 30
0.0
 40
1500.000068823651
100
AcDbArc
 50
359.037258905
 51
0.962741095
  0
LINE
  5
10F
330
1F
100
AcDbEntity
  8
0
  6
Continuous
 62
     7
370
    18
100
AcDbLine
 10
135.1692677292
 20
148.7754249854
 30
0.0
 11
135.365949671
 21
148.9721069272
 31
0.0
  0
LINE
  5
110
330
1F
100
AcDbEntity
  8
0
  6
Continuous
 62
     7
370
    18
100
AcDbLine
 10
144.1810184127
 20
148.9721069272
 30
0.0
 11
135.365949671
 21
148.9721069272
 31
0.0
  0
LINE
  5
111
330
1F
100
AcDbEntity
  8
0
  6
Continuous
 62
     7
370
    18
100
AcDbLine
 10
144.1810184127
 20
148.9721069272
 30
0.0
 11
144.3810184127
 21
148.7721069272
 31
0.0
  0
LINE
  5
112
330
1F
100
AcDbEntity
  8
0
  6
Continuous
 62
     7
370
    18
100
AcDbLine
 10
144.3810184127
 20
121.9710770977
 30
0.0
 11
144.3810184127
 21
122.2112315721
 31
0.0
  0
LINE
  5
113
330
1F
100
AcDbEntity
  8
0
  6
Continuous
 62
     7
370
    18
100
AcDbLine
 10
144.3810184127
 20
120.5554871582
 30
0.0
 11
144.3810184127
 21
121.9710770977
 31
0.0
  0
LINE
  5
114
330
1F
100
AcDbEntity
  8
0
  6
Continuous
 62
     7
370
    18
100
AcDbLine
 10
144.3810184127
 20
120.1832604547
 30
0.0
 11
144.3810184127
 21
120.5554871582
 31
0.0
  0
LINE
  5
115
330
1F
100
AcDbEntity
  8
0
  6
Continuous
 62
     7
370
    18
100
AcDbLine
 10
144.3810184127
 20
122.2112315721
 30
0.0
 11
144.3810184127
 21
124.5721069272
 31
0.0
  0
LINE
  5
116
330
1F
100
AcDbEntity
  8
0
  6
Continuous
 62
     7
370
    18
100
AcDbLine
 10
144.3810184127
 20
124.6745802051
 30
0.0
 11
144.3810184127
 21
148.7721069272
 31
0.0
  0
LINE
  5
117
330
1F
100
AcDbEntity
  8
0
  6
Continuous
 62
     7
370
    18
100
AcDbLine
 10
144.3810184127
 20
98.3721069272
 30
0.0
 11
144.3810184127
 21
120.1832604547
 31
0.0
  0
LINE
  5
118
330
1F
100
AcDbEntity
  8
0
  6
Continuous
 62
     7
370
    18
100
AcDbLine
 10
144.3810184127
 20
124.5721069272
 30
0.0
 11
144.3810184127
 21
124.6745802051
 31
0.0
  0
HATCH
  5
119
330
1F
100
AcDbEntity
  8
0
  6
Continuous
 62
     7
370
    18
100
AcDbHatch
 10
0.0
 20
0.0
 30
0.0
210
0.0
220
0.0
230
1.0
  2
ANSI31
 70
     0
 71
     0
 91
        1
 92
        0
 93
       14
 72
     1
 10
144.3810184126959
 20
120.1832604547066
 11
144.3810184126959
 21
120.5554871581571
 72
     1
 10
144.3810184126959
 20
120.5554871581571
 11
144.3810184126959
 21
121.971077097699
 72
     1
 10
144.3810184126959
 20
121.971077097699
 11
144.3810184126959
 21
122.2112315721308
 72
     1
 10
144.3810184126959
 20
122.2112315721308
 11
144.3810184126959
 21
124.5721069272445
 72
     1
 10
144.3810184126959
 20
124.5721069272445
 11
144.3810184126959
 21
124.6745802050579
 72
     1
 10
144.3810184126959
 20
124.6745802050579
 11
144.3810184126959
 21
148.7721069272445
 72
     1
 10
144.3810184126959
 20
148.7721069272445
 11
144.1810184126959
 21
148.9721069272445
 72
     1
 10
144.1810184126959
 20
148.9721069272445
 11
135.3659496710426
 21
148.9721069272445
 72
     1
 10
135.3659496710426
 20
148.9721069272445
 11
135.1692677292463
 21
148.7754249854478
 72
     2
 10
-1364.619050410955
 20
123.5721069272445
 40
1500.000068823651
 50
359.0372589049768
 51
360.9627410950252
 73
     0
 72
     1
 10
135.1692677292463
 20
98.36878886903317
 11
135.3659496710426
 21
98.17210692724446
 72
     1
 10
135.3659496710426
 20
98.17210692724446
 11
144.1810184126959
 21
98.17210692724446
 72
     1
 10
144.1810184126959
 20
98.17210692724446
 11
144.3810184126959
 21
98.37210692724445
 72
     1
 10
144.3810184126959
 20
98.37210692724445
 11
144.3810184126959
 21
120.1832604547066
 97
        0
 75
     0
 76
     1
 52
0.0
 41
1.0
 77
     0
 78
     1
 53
45.0
 43
0.0
 44
0.0
 45
-2.245064030267288
 46
2.245064030267288
 79
     0
 98
        1
 10
0.0
 20
0.0
  0
DIMENSION
  5
11A
330
1F
100
AcDbEntity
  8
0
  6
Continuous
 62
     7
370
    18
100
AcDbDimension
  2
_D_1
 10
144.3858778263
 20
162.2630417651
 30
0.0
 11
163.151368529
 21
162.2562824647
 31
0.0
 70
   160
  1
<> REF
 71
     2
 42
-1.0
  3
SLDDIMSTYLE1
100
AcDbAlignedDimension
 13
135.1692677292
 23
148.7754249854
 33
0.0
 14
144.3810184127
 24
148.7721069272
 34
0.0
 50
-0.0206378494
100
AcDbRotatedDimension
  0
DIMENSION
  5
12E
330
1F
100
AcDbEntity
  8
0
  6
Continuous
 62
     7
370
    18
100
AcDbDimension
  2
_D_2
 10
-1364.619050411
 20
123.5721069272
 30
0.0
 11
164.2415456427
 21
90.8095629569
 31
0.0
 70
   164
  1
<>
 71
     1
 42
-1.0
  3
SLDDIMSTYLE2
100
AcDbRadialDimension
 15
135.0314345803
 25
91.1895601404
 35
0.0
 40
0.0
  0
DIMENSION
  5
13F
330
1F
100
AcDbEntity
  8
0
  6
Continuous
 62
     7
370
    18
100
AcDbDimension
  2
_D_3
 10
135.3810184127
 20
153.766113337
 30
0.0
 11
160.3810184127
 21
153.766113337
 31
0.0
 70
   160
  1
<>
 71
     2
 42
-1.0
  3
SLDDIMSTYLE3
100
AcDbAlignedDimension
 13
144.3810184127
 23
148.7721069272
 33
0.0
 14
135.3810184127
 24
123.5721069272
 34
0.0
100
AcDbRotatedDimension
  0
MTEXT
  5
154
330
1F
100
AcDbEntity
  8
0
  6
Continuous
 62
     7
370
     0
100
AcDbMText
 10
139.5940990209
 20
80.5873004128
 30
0.0
 40
2.1166666667
 41
0.0
 71
     2
 72
     1
  1
SECTION A-A
  7
SLDTEXTSTYLE0
 73
     1
 44
1.0
  0
MTEXT
  5
155
330
1F
100
AcDbEntity
  8
0
  6
Continuous
 62
     7
370
     0
100
AcDbMText
 10
115.0517757495
 20
99.6762781842
 30
0.0
 40
2.1166666667
 41
0.0
 71
     1
 72
     1
  1
S1
  7
SLDTEXTSTYLE0
 73
     1
 44
1.0
  0
LEADER
  5
157
330
1F
100
AcDbEntity
  8
0
  6
Continuous
 62
     7
370
     0
100
AcDbLeader
  3
SLDDIMSTYLE4
 76
     3
 10
135.3503375355
 20
113.9782706445
 30
0.0
 10
124.7779095104
 20
99.1421656069
 30
0.0
 10
118.4279095104
 20
99.1421656069
 30
0.0
  0
MTEXT
  5
158
330
1F
100
AcDbEntity
  8
0
  6
Continuous
 62
     7
370
     0
100
AcDbMText
 10
161.6657821297
 20
132.2486195067
 30
0.0
 40
2.1166666667
 41
0.0
 71
     1
 72
     1
  1
S2
  7
SLDTEXTSTYLE0
 73
     1
 44
1.0
  0
LEADER
  5
159
330
1F
100
AcDbEntity
  8
0
  6
Continuous
 62
     7
370
     0
100
AcDbLeader
  3
SLDDIMSTYLE4
 76
     3
 10
144.3810184127
 20
116.7478687525
 30
0.0
 10
154.7074783684
 20
131.6514363115
 30
0.0
 10
161.0574783684
 20
131.6514363115
 30
0.0
  0
SPLINE
  5
15A
330
1F
100
AcDbEntity
  8
0
  6
Continuous
 62
     7
370
    18
100
AcDbSpline
210
0.0
220
0.0
230
1.0
 70
     8
 71
     3
 72
    13
 73
     9
 74
     0
 42
0.000000001
 43
0.00000001
 40
0.0
 40
0.0
 40
0.0
 40
0.0
 40
0.1943389941804437
 40
0.3816850483972321
 40
0.5594858099432992
 40
0.6963399801806484
 40
0.8391066529687222
 40
1.0
 40
1.0
 40
1.0
 40
1.0
 10
223.3389159985552
 20
125.6914643635271
 30
0.0
 10
223.3360909061634
 20
125.7530967858386
 30
0.0
 10
223.3305423772598
 20
125.8741438983443
 30
0.0
 10
223.2815466691258
 20
126.0461624528836
 30
0.0
 10
223.2015352836449
 20
126.1862844754214
 30
0.0
 10
223.0933017631259
 20
126.285244202971
 30
0.0
 10
222.9642625047497
 20
126.3460147234461
 30
0.0
 10
222.8676106019219
 20
126.3526139293893
 30
0.0
 10
222.8163998822752
 20
126.3561104987849
 30
0.0
  0
SPLINE
  5
15B
330
1F
100
AcDbEntity
  8
0
  6
Continuous
 62
     7
370
    18
100
AcDbSpline
210
0.0
220
0.0
230
1.0
 70
     8
 71
     3
 72
    12
 73
     8
 74
     0
 42
0.000000001
 43
0.00000001
 40
0.0
 40
0.0
 40
0.0
 40
0.0
 40
0.2008908381631395
 40
0.3780365369998067
 40
0.553549838638755
 40
0.7713747335183452
 40
0.9999999999999999
 40
0.9999999999999999
 40
0.9999999999999999
 40
0.9999999999999999
 10
222.8163998822752
 20
125.0268001662514
 30
0.0
 10
222.8805380537844
 20
125.0323223695593
 30
0.0
 10
223.0012333152933
 20
125.0427140560802
 30
0.0
 10
223.1539278033207
 20
125.140974438733
 30
0.0
 10
223.2619097245208
 20
125.2884924170791
 30
0.0
 10
223.3275184770469
 20
125.4776162678072
 30
0.0
 10
223.3350560426383
 20
125.6190412299718
 30
0.0
 10
223.3389159985552
 20
125.6914643635271
 30
0.0
  0
SPLINE
  5
15C
330
1F
100
AcDbEntity
  8
0
  6
Continuous
 62
     7
370
    18
100
AcDbSpline
210
0.0
220
0.0
230
1.0
 70
     8
 71
     3
 72
    13
 73
     9
 74
     0
 42
0.000000001
 43
0.00000001
 40
0.0
 40
0.0
 40
0.0
 40
0.0
 40
0.1943256494037764
 40
0.3816748644005049
 40
0.559488170496604
 40
0.6963511211546951
 40
0.8391184169589759
 40
1.0
 40
1.0
 40
1.0
 40
1.0
 10
222.2938657039772
 20
125.6914643635271
 30
0.0
 10
222.2966921582195
 20
125.6298356945418
 30
0.0
 10
222.3022435949082
 20
125.508790871327
 30
0.0
 10
222.3512521238877
 20
125.3367734634496
 30
0.0
 10
222.4312720374522
 20
125.1966469912506
 30
0.0
 10
222.5395078525064
 20
125.097679017699
 30
0.0
 10
222.668543288146
 20
125.0368989247365
 30
0.0
 10
222.7651924698916
 20
125.0302976855427
 30
0.0
 10
222.8163998822752
 20
125.0268001662514
 30
0.0
  0
SPLINE
  5
15D
330
1F
100
AcDbEntity
  8
0
  6
Continuous
 62
     7
370
    18
100
AcDbSpline
210
0.0
220
0.0
230
1.0
 70
     8
 71
     3
 72
    12
 73
     8
 74
     0
 42
0.000000001
 43
0.00000001
 40
0.0
 40
0.0
 40
0.0
 40
0.0
 40
0.2008792258750624
 40
0.3780217100331184
 40
0.5535332757399333
 40
0.7713595773327308
 40
1.0
 40
1.0
 40
1.0
 40
1.0
 10
222.8163998822752
 20
126.3561104987849
 30
0.0
 10
222.752266089722
 20
126.350588835288
 30
0.0
 10
222.6315768256815
 20
126.340197971483
 30
0.0
 10
222.4788832919636
 20
126.241950893858
 30
0.0
 10
222.3708897219021
 20
126.0944446237189
 30
0.0
 10
222.3052662459051
 20
125.905321255818
 30
0.0
 10
222.2977267573476
 20
125.7638918744286
 30
0.0
 10
222.2938657039772
 20
125.6914643635271
 30
0.0
  0
SPLINE
  5
15E
330
1F
100
AcDbEntity
  8
0
  6
Continuous
 62
     7
370
    18
100
AcDbSpline
210
0.0
220
0.0
230
1.0
 70
     8
 71
     3
 72
    19
 73
    15
 74
     0
 42
0.000000001
 43
0.00000001
 40
0.0
 40
0.0
 40
0.0
 40
0.0
 40
0.091587339706645
 40
0.17411828708059
 40
0.252628996615388
 40
0.3313197891920878
 40
0.4131632671988419
 40
0.4999972215981974
 40
0.5868350001903222
 40
0.6686802724867935
 40
0.7473714879383924
 40
0.825881989639794
 40
0.9084127008286222
 40
1.0
 40
1.0
 40
1.0
 40
1.0
 10
222.8200050464215
 20
124.4909272103685
 30
0.0
 10
222.9306426211133
 20
124.4983719229199
 30
0.0
 10
223.1409776418026
 20
124.5125251956475
 30
0.0
 10
223.4253052167717
 20
124.6358445924405
 30
0.0
 10
223.6494765033612
 20
124.8231102718103
 30
0.0
 10
223.8101557921619
 20
125.0662536972701
 30
0.0
 10
223.9062578722799
 20
125.3510110614609
 30
0.0
 10
223.936245500152
 20
125.6592636750956
 30
0.0
 10
223.9051078593121
 20
125.9674043728027
 30
0.0
 10
223.8079442456676
 20
126.2518089467016
 30
0.0
 10
223.6463580546795
 20
126.4943538470517
 30
0.0
 10
223.4214884952527
 20
126.6807807554378
 30
0.0
 10
223.1367021319518
 20
126.8030352377957
 30
0.0
 10
222.9263161096312
 20
126.8164027000185
 30
0.0
 10
222.8156515808562
 20
126.8234340792493
 30
0.0
  0
SPLINE
  5
15F
330
1F
100
AcDbEntity
  8
0
  6
Continuous
 62
     7
370
    18
100
AcDbSpline
210
0.0
220
0.0
230
1.0
 70
     8
 71
     3
 72
    14
 73
    10
 74
     0
 42
0.000000001
 43
0.00000001
 40
0.0
 40
0.0
 40
0.0
 40
0.0
 40
0.1466868109097154
 40
0.2859932799578324
 40
0.4198155341096295
 40
0.5510853201411032
 40
0.69041040274012
 40
0.8377115977293311
 40
1.0
 40
1.0
 40
1.0
 40
1.0
 10
221.7141529509028
 20
125.6633176461082
 30
0.0
 10
221.718035267782
 20
125.574643151878
 30
0.0
 10
221.7256045681931
 20
125.4017556966512
 30
0.0
 10
221.7954237717475
 20
125.1558166971403
 30
0.0
 10
221.9077221508202
 20
124.9373133870739
 30
0.0
 10
222.0679647012332
 20
124.7498730987947
 30
0.0
 10
222.2769583585691
 20
124.6044070682499
 30
0.0
 10
222.534438815785
 20
124.508039710332
 30
0.0
 10
222.7217930353539
 20
124.4968125457321
 30
0.0
 10
222.8200050464215
 20
124.4909272103685
 30
0.0
  0
SPLINE
  5
160
330
1F
100
AcDbEntity
  8
0
  6
Continuous
 62
     7
370
    18
100
AcDbSpline
210
0.0
220
0.0
230
1.0
 70
     8
 71
     3
 72
    14
 73
    10
 74
     0
 42
0.000000001
 43
0.00000001
 40
0.0
 40
0.0
 40
0.0
 40
0.0
 40
0.1553989656922846
 40
0.2968771122070977
 40
0.4305153137104986
 40
0.5617675040118902
 40
0.7014063449726653
 40
0.8467289956139471
 40
1.0
 40
1.0
 40
1.0
 40
1.0
 10
222.8156515808562
 20
126.8234340792493
 30
0.0
 10
222.7224104402215
 20
126.8180791270261
 30
0.0
 10
222.5442808082308
 20
126.8078489253967
 30
0.0
 10
222.2981014055567
 20
126.7208464969537
 30
0.0
 10
222.0923330275267
 20
126.5872422582762
 30
0.0
 10
221.9263893401962
 20
126.4074280434627
 30
0.0
 10
221.8050183025678
 20
126.1877091766835
 30
0.0
 10
221.7279458611361
 20
125.9342279900514
 30
0.0
 10
221.718831460631
 20
125.755209542608
 30
0.0
 10
221.7141529509028
 20
125.6633176461082
 30
0.0
  0
LINE
  5
161
330
1F
100
AcDbEntity
  8
0
  6
Continuous
 62
     7
370
    18
100
AcDbLine
 10
218.5765539855
 20
126.3068192519
 30
0.0
 11
218.5765539855
 21
124.5721069272
 31
0.0
  0
LINE
  5
162
330
1F
100
AcDbEntity
  8
0
  6
Continuous
 62
     7
370
    18
100
AcDbLine
 10
217.9060596917
 20
126.3068192519
 30
0.0
 11
218.5765539855
 21
126.3068192519
 31
0.0
  0
LINE
  5
163
330
1F
100
AcDbEntity
  8
0
  6
Continuous
 62
     7
370
    18
100
AcDbLine
 10
217.9060596917
 20
126.8084556755
 30
0.0
 11
217.9060596917
 21
126.3068192519
 31
0.0
  0
LINE
  5
164
330
1F
100
AcDbEntity
  8
0
  6
Continuous
 62
     7
370
    18
100
AcDbLine
 10
220.3548719567
 20
126.8084556755
 30
0.0
 11
217.9060596917
 21
126.8084556755
 31
0.0
  0
LINE
  5
165
330
1F
100
AcDbEntity
  8
0
  6
Continuous
 62
     7
370
    18
100
AcDbLine
 10
220.3548719567
 20
125.9932806829
 30
0.0
 11
220.3548719567
 21
126.8084556755
 31
0.0
  0
LINE
  5
166
330
1F
100
AcDbEntity
  8
0
  6
Continuous
 62
     7
370
    18
100
AcDbLine
 10
221.1261381837
 20
125.9932806829
 30
0.0
 11
220.3548719567
 21
125.9932806829
 31
0.0
  0
LINE
  5
167
330
1F
100
AcDbEntity
  8
0
  6
Continuous
 62
     7
370
    18
100
AcDbLine
 10
221.1261381837
 20
126.8084556755
 30
0.0
 11
221.1261381837
 21
125.9932806829
 31
0.0
  0
LINE
  5
168
330
1F
100
AcDbEntity
  8
0
  6
Continuous
 62
     7
370
    18
100
AcDbLine
 10
221.7116506832
 20
126.8084556755
 30
0.0
 11
221.1261381837
 21
126.8084556755
 31
0.0
  0
LINE
  5
169
330
1F
100
AcDbEntity
  8
0
  6
Continuous
 62
     7
370
    18
100
AcDbLine
 10
221.7116506832
 20
124.5721069272
 30
0.0
 11
221.7116506832
 21
126.8084556755
 31
0.0
  0
LINE
  5
16A
330
1F
100
AcDbEntity
  8
0
  6
Continuous
 62
     7
370
    18
100
AcDbLine
 10
221.1261342484
 20
124.5721069272
 30
0.0
 11
221.7116506832
 21
124.5721069272
 31
0.0
  0
LINE
  5
16B
330
1F
100
AcDbEntity
  8
0
  6
Continuous
 62
     7
370
    18
100
AcDbLine
 10
221.1261342484
 20
125.4939200736
 30
0.0
 11
221.1261342484
 21
124.5721069272
 31
0.0
  0
LINE
  5
16C
330
1F
100
AcDbEntity
  8
0
  6
Continuous
 62
     7
370
    18
100
AcDbLine
 10
220.3548680214
 20
125.4939200736
 30
0.0
 11
221.1261342484
 21
125.4939200736
 31
0.0
  0
LINE
  5
16D
330
1F
100
AcDbEntity
  8
0
  6
Continuous
 62
     7
370
    18
100
AcDbLine
 10
220.3548680214
 20
124.5721069272
 30
0.0
 11
220.3548680214
 21
125.4939200736
 31
0.0
  0
LINE
  5
16E
330
1F
100
AcDbEntity
  8
0
  6
Continuous
 62
     7
370
    18
100
AcDbLine
 10
219.7694238347
 20
124.5721069272
 30
0.0
 11
220.3548680214
 21
124.5721069272
 31
0.0
  0
LINE
  5
16F
330
1F
100
AcDbEntity
  8
0
  6
Continuous
 62
     7
370
    18
100
AcDbLine
 10
219.7694238347
 20
126.3090228181
 30
0.0
 11
219.7694238347
 21
124.5721069272
 31
0.0
  0
LINE
  5
170
330
1F
100
AcDbEntity
  8
0
  6
Continuous
 62
     7
370
    18
100
AcDbLine
 10
219.1620523583
 20
126.3090228181
 30
0.0
 11
219.7694238347
 21
126.3090228181
 31
0.0
  0
LINE
  5
171
330
1F
100
AcDbEntity
  8
0
  6
Continuous
 62
     7
370
    18
100
AcDbLine
 10
219.1620523583
 20
124.5721069272
 30
0.0
 11
219.1620523583
 21
126.3090228181
 31
0.0
  0
LINE
  5
172
330
1F
100
AcDbEntity
  8
0
  6
Continuous
 62
     7
370
    18
100
AcDbLine
 10
218.5765539855
 20
124.5721069272
 30
0.0
 11
219.1620523583
 21
124.5721069272
 31
0.0
  0
SPLINE
  5
173
330
1F
100
AcDbEntity
  8
0
  6
Continuous
 62
     7
370
    18
100
AcDbSpline
210
0.0
220
0.0
230
1.0
 70
     8
 71
     3
 72
    12
 73
     8
 74
     0
 42
0.000000001
 43
0.00000001
 40
0.0
 40
0.0
 40
0.0
 40
0.0
 40
0.1970292569794111
 40
0.3714318737747132
 40
0.5434083414909591
 40
0.7603083066182451
 40
1.0
 40
1.0
 40
1.0
 40
1.0
 10
225.2743154042641
 20
126.1021585268918
 30
0.0
 10
225.2721056915463
 20
126.1305966890547
 30
0.0
 10
225.2679400272797
 20
126.1842072036596
 30
0.0
 10
225.2279025336268
 20
126.253939737713
 30
0.0
 10
225.1644410160458
 20
126.3057315110492
 30
0.0
 10
225.0784434482381
 20
126.3381938031884
 30
0.0
 10
225.012878454578
 20
126.3417346975908
 30
0.0
 10
224.9784595508068
 20
126.3435935203694
 30
0.0
  0
SPLINE
  5
174
330
1F
100
AcDbEntity
  8
0
  6
Continuous
 62
     7
370
    18
100
AcDbSpline
210
0.0
220
0.0
230
1.0
 70
     8
 71
     3
 72
    12
 73
     8
 74
     0
 42
0.000000001
 43
0.00000001
 40
0.0
 40
0.0
 40
0.0
 40
0.0
 40
0.211129188812794
 40
0.3927062339152216
 40
0.5599129747574069
 40
0.7634359056262768
 40
1.0
 40
1.0
 40
1.0
 40
1.0
 10
225.0036380037811
 20
125.8388684917362
 30
0.0
 10
225.033935958648
 20
125.8404071131521
 30
0.0
 10
225.0902910075071
 20
125.8432689922938
 30
0.0
 10
225.166615977317
 20
125.8724480159151
 30
0.0
 10
225.2279400755884
 20
125.924608424708
 30
0.0
 10
225.2683876003786
 20
126.0048082236845
 30
0.0
 10
225.2722429839027
 20
126.0681238735119
 30
0.0
 10
225.2743154042641
 20
126.1021585268918
 30
0.0
  0
LINE
  5
175
330
1F
100
AcDbEntity
  8
0
  6
Continuous
 62
     7
370
    18
100
AcDbLine
 10
224.5125678607
 20
125.8388684917
 30
0.0
 11
225.0036380038
 21
125.8388684917
 31
0.0
  0
LINE
  5
176
330
1F
100
AcDbEntity
  8
0
  6
Continuous
 62
     7
370
    18
100
AcDbLine
 10
224.5125678607
 20
126.3435935204
 30
0.0
 11
224.5125678607
 21
125.8388684917
 31
0.0
  0
LINE
  5
177
330
1F
100
AcDbEntity
  8
0
  6
Continuous
 62
     7
370
    18
100
AcDbLine
 10
224.9784595508
 20
126.3435935204
 30
0.0
 11
224.5125678607
 21
126.3435935204
 31
0.0
  0
SPLINE
  5
178
330
1F
100
AcDbEntity
  8
0
  6
Continuous
 62
     7
370
    18
100
AcDbSpline
210
0.0
220
0.0
230
1.0
 70
     8
 71
     3
 72
    14
 73
    10
 74
     0
 42
0.000000001
 43
0.00000001
 40
0.0
 40
0.0
 40
0.0
 40
0.0
 40
0.2575826845002087
 40
0.4580339644254263
 40
0.6128287983994981
 40
0.7093883131761893
 40
0.7998028883084926
 40
0.8941338805613367
 40
1.0
 40
1.0
 40
1.0
 40
1.0
 10
231.894424272703
 20
125.1661305724523
 30
0.0
 10
231.9225015478862
 20
125.1590165088374
 30
0.0
 10
231.9724286060165
 20
125.1463662689077
 30
0.0
 10
232.0411152954227
 20
125.1387699522135
 30
0.0
 10
232.0923194167311
 20
125.1434628331282
 30
0.0
 10
232.1282470669768
 20
125.1585718586307
 30
0.0
 10
232.1523391970231
 20
125.1798127938453
 30
0.0
 10
232.1696482165838
 20
125.2080565393148
 30
0.0
 10
232.1759840793564
 20
125.2297097650383
 30
0.0
 10
232.1793345433035
 20
125.2411601948736
 30
0.0
  0
SPLINE
  5
179
330
1F
100
AcDbEntity
  8
0
  6
Continuous
 62
     7
370
    18
100
AcDbSpline
210
0.0
220
0.0
230
1.0
 70
     8
 71
     3
 72
    12
 73
     8
 74
     0
 42
0.000000001
 43
0.00000001
 40
0.0
 40
0.0
 40
0.0
 40
0.0
 40
0.2545415383352764
 40
0.4933538848768345
 40
0.6299818928893332
 40
0.7933578680691696
 40
1.0
 40
1.0
 40
1.0
 40
1.0
 10
231.6948028507
 20
125.4497765017987
 30
0.0
 10
231.6946481558972
 20
125.4171140526494
 30
0.0
 10
231.6943483255338
 20
125.3538075044027
 30
0.0
 10
231.7193421488516
 20
125.2736016596521
 30
0.0
 10
231.767399585688
 20
125.2223760878671
 30
0.0
 10
231.8235953606366
 20
125.1882519061162
 30
0.0
 10
231.8690432313188
 20
125.1740575964431
 30
0.0
 10
231.894424272703
 20
125.1661305724523
 30
0.0
  0
SPLINE
  5
17A
330
1F
100
AcDbEntity
  8
0
  6
Continuous
 62
     7
370
    18
100
AcDbSpline
210
0.0
220
0.0
230
1.0
 70
     8
 71
     3
 72
    14
 73
    10
 74
     0
 42
0.000000001
 43
0.00000001
 40
0.0
 40
0.0
 40
0.0
 40
0.0
 40
0.0123761948722826
 40
0.0260544786030459
 40
0.0423069896658994
 40
0.1107691877094688
 40
0.3353734156282128
 40
0.6465637489690592
 40
1.0
 40
1.0
 40
1.0
 40
1.0
 10
232.1793345433035
 20
125.2411601948736
 30
0.0
 10
232.1796007827728
 20
125.243396814857
 30
0.0
 10
232.1801612725378
 20
125.2481053676957
 30
0.0
 10
232.177319884836
 20
125.2554112108474
 30
0.0
 10
232.1671965140246
 20
125.2699460514246
 30
0.0
 10
232.120825486069
 20
125.3027232074449
 30
0.0
 10
232.0211124842117
 20
125.345235578411
 30
0.0
 10
231.8701717891973
 20
125.39805776664
 30
0.0
 10
231.7556848886395
 20
125.4318215433945
 30
0.0
 10
231.6948028507
 20
125.4497765017987
 30
0.0
  0
LINE
  5
17B
330
1F
100
AcDbEntity
  8
0
  6
Continuous
 62
     7
370
    18
100
AcDbLine
 10
231.1712933234
 20
125.4537862698
 30
0.0
 11
231.681003469
 21
125.4537862698
 31
0.0
  0
SPLINE
  5
17C
330
1F
100
AcDbEntity
  8
0
  6
Continuous
 62
     7
370
    18
100
AcDbSpline
210
0.0
220
0.0
230
1.0
 70
     8
 71
     3
 72
    11
 73
     7
 74
     0
 42
0.000000001
 43
0.00000001
 40
0.0
 40
0.0
 40
0.0
 40
0.0
 40
0.2403133392799543
 40
0.5276554281052309
 40
0.7630136347472216
 40
1.0
 40
1.0
 40
1.0
 40
1.0
 10
230.9555605814508
 20
125.7947791060043
 30
0.0
 10
230.9822564291981
 20
125.7744712710445
 30
0.0
 10
231.0408724386711
 20
125.7298814060719
 30
0.0
 10
231.1085537586513
 20
125.6471220444065
 30
0.0
 10
231.160305405779
 20
125.5528192236758
 30
0.0
 10
231.1676222771986
 20
125.4868730259794
 30
0.0
 10
231.1712933234346
 20
125.4537862697759
 30
0.0
  0
SPLINE
  5
17D
330
1F
100
AcDbEntity
  8
0
  6
Continuous
 62
     7
370
    18
100
AcDbSpline
210
0.0
220
0.0
230
1.0
 70
     8
 71
     3
 72
    10
 73
     6
 74
     0
 42
0.000000001
 43
0.00000001
 40
0.0
 40
0.0
 40
0.0
 40
0.0
 40
0.3052209345869937
 40
0.5892711010915017
 40
0.9999999999999999
 40
0.9999999999999999
 40
0.9999999999999999
 40
0.9999999999999999
 10
231.0808748617492
 20
125.9757244014827
 30
0.0
 10
231.0733738720676
 20
125.9541786900076
 30
0.0
 10
231.0588921771769
 20
125.9125817230698
 30
0.0
 10
231.011966900689
 20
125.8540623963361
 30
0.0
 10
230.9765171969976
 20
125.8168046013851
 30
0.0
 10
230.9555605814508
 20
125.7947791060043
 30
0.0
  0
SPLINE
  5
17E
330
1F
100
AcDbEntity
  8
0
  6
Continuous
 62
     7
370
    18
100
AcDbSpline
210
0.0
220
0.0
230
1.0
 70
     8
 71
     3
 72
    11
 73
     7
 74
     0
 42
0.000000001
 43
0.00000001
 40
0.0
 40
0.0
 40
0.0
 40
0.0
 40
0.3113820865694039
 40
0.5952152429024645
 40
0.7995709864930215
 40
1.0
 40
1.0
 40
1.0
 40
1.0
 10
231.5819152387275
 20
125.4816379014018
 30
0.0
 10
231.5076113639992
 20
125.5069454535176
 30
0.0
 10
231.3655775067137
 20
125.5553215208305
 30
0.0
 10
231.203550653134
 20
125.6783950718762
 30
0.0
 10
231.0996633563069
 20
125.8229471203846
 30
0.0
 10
231.0870970589502
 20
125.9251290561286
 30
0.0
 10
231.0808748617492
 20
125.9757244014826
 30
0.0
  0
SPLINE
  5
17F
330
1F
100
AcDbEntity
  8
0
  6
Continuous
 62
     7
370
    18
100
AcDbSpline
210
0.0
220
0.0
230
1.0
 70
     8
 71
     3
 72
     9
 73
     5
 74
     0
 42
0.000000001
 43
0.00000001
 40
0.0
 40
0.0
 40
0.0
 40
0.0
 40
0.5632377239369403
 40
0.9999999999999999
 40
0.9999999999999999
 40
0.9999999999999999
 40
0.9999999999999999
 10
231.6810034690125
 20
125.4537862697759
 30
0.0
 10
231.6624172533282
 20
125.459076539433
 30
0.0
 10
231.629418370451
 20
125.4684691447792
 30
0.0
 10
231.5963557458854
 20
125.4776347227192
 30
0.0
 10
231.5819152387275
 20
125.4816379014018
 30
0.0
  0
SPLINE
  5
180
330
1F
100
AcDbEntity
  8
0
  6
Continuous
 62
     7
370
    18
100
AcDbSpline
210
0.0
220
0.0
230
1.0
 70
     8
 71
     3
 72
    13
 73
     9
 74
     0
 42
0.000000001
 43
0.00000001
 40
0.0
 40
0.0
 40
0.0
 40
0.0
 40
0.2070940199890569
 40
0.3978649646626708
 40
0.5739369280037251
 40
0.7077750174858417
 40
0.8462504046616488
 40
1.0
 40
1.0
 40
1.0
 40
1.0
 10
230.3175378606006
 20
124.6745185688258
 30
0.0
 10
230.3889768528898
 20
124.676985124364
 30
0.0
 10
230.5262240420853
 20
124.68172382243
 30
0.0
 10
230.7199800880369
 20
124.7281532556058
 30
0.0
 10
230.8762639520686
 20
124.8066292718663
 30
0.0
 10
230.9894920257018
 20
124.9141605617962
 30
0.0
 10
231.06579629625
 20
125.0427329051974
 30
0.0
 10
231.0859731053838
 20
125.1419810776118
 30
0.0
 10
231.0965888173358
 20
125.1941989482931
 30
0.0
  0
LINE
  5
181
330
1F
100
AcDbEntity
  8
0
  6
Continuous
 62
     7
370
    18
100
AcDbLine
 10
228.8390171981
 20
124.6745185688
 30
0.0
 11
230.3175378606
 21
124.6745185688
 31
0.0
  0
LINE
  5
182
330
1F
100
AcDbEntity
  8
0
  6
Continuous
 62
     7
370
    18
100
AcDbLine
 10
228.6884160927
 20
125.0179497775
 30
0.0
 11
228.8390171981
 21
124.6745185688
 31
0.0
  0
LINE
  5
183
330
1F
100
AcDbEntity
  8
0
  6
Continuous
 62
     7
370
    18
100
AcDbLine
 10
228.0350045326
 20
125.0179497775
 30
0.0
 11
228.6884160927
 21
125.0179497775
 31
0.0
  0
LINE
  5
184
330
1F
100
AcDbEntity
  8
0
  6
Continuous
 62
     7
370
    18
100
AcDbLine
 10
227.8814412563
 20
124.6773001196
 30
0.0
 11
228.0350045326
 21
125.0179497775
 31
0.0
  0
LINE
  5
185
330
1F
100
AcDbEntity
  8
0
  6
Continuous
 62
     7
370
    18
100
AcDbLine
 10
226.012022402
 20
124.6773001196
 30
0.0
 11
227.8814412563
 21
124.6773001196
 31
0.0
  0
LINE
  5
186
330
1F
100
AcDbEntity
  8
0
  6
Continuous
 62
     7
370
    18
100
AcDbLine
 10
226.012022402
 20
126.6975368234
 30
0.0
 11
226.012022402
 21
124.6773001196
 31
0.0
  0
LINE
  5
187
330
1F
100
AcDbEntity
  8
0
  6
Continuous
 62
     7
370
    18
100
AcDbLine
 10
226.5390720848
 20
126.6975368234
 30
0.0
 11
226.012022402
 21
126.6975368234
 31
0.0
  0
LINE
  5
188
330
1F
100
AcDbEntity
  8
0
  6
Continuous
 62
     7
370
    18
100
AcDbLine
 10
226.5390720848
 20
125.1342691728
 30
0.0
 11
226.5390720848
 21
126.6975368234
 31
0.0
  0
LINE
  5
189
330
1F
100
AcDbEntity
  8
0
  6
Continuous
 62
     7
370
    18
100
AcDbLine
 10
227.5085328344
 20
125.1342691728
 30
0.0
 11
226.5390720848
 21
125.1342691728
 31
0.0
  0
LINE
  5
18A
330
1F
100
AcDbEntity
  8
0
  6
Continuous
 62
     7
370
    18
100
AcDbLine
 10
228.0967766338
 20
126.6975368234
 30
0.0
 11
227.5085328344
 21
125.1342691728
 31
0.0
  0
LINE
  5
18B
330
1F
100
AcDbEntity
  8
0
  6
Continuous
 62
     7
370
    18
100
AcDbLine
 10
228.632243217
 20
126.6975368234
 30
0.0
 11
228.0967766338
 21
126.6975368234
 31
0.0
  0
LINE
  5
18C
330
1F
100
AcDbEntity
  8
0
  6
Continuous
 62
     7
370
    18
100
AcDbLine
 10
229.3457651727
 20
124.8141379673
 30
0.0
 11
228.632243217
 21
126.6975368234
 31
0.0
  0
LINE
  5
18D
330
1F
100
AcDbEntity
  8
0
  6
Continuous
 62
     7
370
    18
100
AcDbLine
 10
229.3457651727
 20
126.6975368234
 30
0.0
 11
229.3457651727
 21
124.8141379673
 31
0.0
  0
LINE
  5
18E
330
1F
100
AcDbEntity
  8
0
  6
Continuous
 62
     7
370
    18
100
AcDbLine
 10
230.2919981673
 20
126.6975368234
 30
0.0
 11
229.3457651727
 21
126.6975368234
 31
0.0
  0
SPLINE
  5
18F
330
1F
100
AcDbEntity
  8
0
  6
Continuous
 62
     7
370
    18
100
AcDbSpline
210
0.0
220
0.0
230
1.0
 70
     8
 71
     3
 72
    14
 73
    10
 74
     0
 42
0.000000001
 43
0.00000001
 40
0.0
 40
0.0
 40
0.0
 40
0.0
 40
0.1423816612635864
 40
0.2654010250778269
 40
0.3802085707899304
 40
0.4953201289099367
 40
0.6562432766114743
 40
0.8263515868701831
 40
1.0
 40
1.0
 40
1.0
 40
1.0
 10
231.0229680323118
 20
126.1924324924339
 30
0.0
 10
231.0201441710682
 20
126.2405354031639
 30
0.0
 10
231.014880461809
 20
126.3301997721822
 30
0.0
 10
230.9642999933085
 20
126.4504429928939
 30
0.0
 10
230.88707769979
 20
126.5426442930845
 30
0.0
 10
230.7770728484664
 20
126.6171672165352
 30
0.0
 10
230.6345179618242
 20
126.6682849288228
 30
0.0
 10
230.466212185811
 20
126.6957675818924
 30
0.0
 10
230.3504668327871
 20
126.6969430411901
 30
0.0
 10
230.291998167268
 20
126.6975368234433
 30
0.0
  0
SPLINE
  5
190
330
1F
100
AcDbEntity
  8
0
  6
Continuous
 62
     7
370
    18
100
AcDbSpline
210
0.0
220
0.0
230
1.0
 70
     8
 71
     3
 72
    11
 73
     7
 74
     0
 42
0.000000001
 43
0.00000001
 40
0.0
 40
0.0
 40
0.0
 40
0.0
 40
0.2840562052455307
 40
0.5588619016419769
 40
0.7750993838285813
 40
1.0
 40
1.0
 40
1.0
 40
1.0
 10
230.7566255161286
 20
125.7861273994227
 30
0.0
 10
230.7985316881117
 20
125.8109819701881
 30
0.0
 10
230.8809793253489
 20
125.8598817035012
 30
0.0
 10
230.96491816566
 20
125.9651966341134
 30
0.0
 10
231.0145484323131
 20
126.0785387127952
 30
0.0
 10
231.0201249945329
 20
126.1539740955568
 30
0.0
 10
231.0229680323118
 20
126.1924324924339
 30
0.0
  0
SPLINE
  5
191
330
1F
100
AcDbEntity
  8
0
  6
Continuous
 62
     7
370
    18
100
AcDbSpline
210
0.0
220
0.0
230
1.0
 70
     8
 71
     3
 72
    11
 73
     7
 74
     0
 42
0.000000001
 43
0.00000001
 40
0.0
 40
0.0
 40
0.0
 40
0.0
 40
0.2849839497112128
 40
0.5578557580525033
 40
0.7738896021956504
 40
1.0
 40
1.0
 40
1.0
 40
1.0
 10
231.1026215313195
 20
125.3600082727582
 30
0.0
 10
231.0929238964303
 20
125.4150587041652
 30
0.0
 10
231.0739407871431
 20
125.5228198611524
 30
0.0
 10
230.9875835956237
 20
125.6507068196857
 30
0.0
 10
230.8792738973722
 20
125.7409394119682
 30
0.0
 10
230.7981247779719
 20
125.7708376083588
 30
0.0
 10
230.7566255161286
 20
125.7861273994227
 30
0.0
  0
LINE
  5
192
330
1F
100
AcDbEntity
  8
0
  6
Continuous
 62
     7
370
    18
100
AcDbLine
 10
231.606371211
 20
125.3600082728
 30
0.0
 11
231.1026215313
 21
125.3600082728
 31
0.0
  0
SPLINE
  5
193
330
1F
100
AcDbEntity
  8
0
  6
Continuous
 62
     7
370
    18
100
AcDbSpline
210
0.0
220
0.0
230
1.0
 70
     8
 71
     3
 72
    12
 73
     8
 74
     0
 42
0.000000001
 43
0.00000001
 40
0.0
 40
0.0
 40
0.0
 40
0.0
 40
0.3029848175181634
 40
0.5555954840373197
 40
0.6861253068640346
 40
0.8302562633026844
 40
1.0
 40
1.0
 40
1.0
 40
1.0
 10
231.9887802542941
 20
125.0467767580661
 30
0.0
 10
231.9319160557054
 20
125.0490455360967
 30
0.0
 10
231.8276418805237
 20
125.053205885907
 30
0.0
 10
231.7067510829968
 20
125.1122083013442
 30
0.0
 10
231.6453863875071
 20
125.1911586082939
 30
0.0
 10
231.6147379973167
 20
125.2696794991525
 30
0.0
 10
231.6093078434385
 20
125.3283040559268
 30
0.0
 10
231.6063712109852
 20
125.3600082727582
 30
0.0
  0
SPLINE
  5
194
330
1F
100
AcDbEntity
  8
0
  6
Continuous
 62
     7
370
    18
100
AcDbSpline
210
0.0
220
0.0
230
1.0
 70
     8
 71
     3
 72
    12
 73
     8
 74
     0
 42
0.000000001
 43
0.00000001
 40
0.0
 40
0.0
 40
0.0
 40
0.0
 40
0.1228977808113462
 40
0.2361517003655365
 40
0.4654549568724395
 40
0.722943542278525
 40
1.0
 40
1.0
 40
1.0
 40
1.0
 10
232.3118013826964
 20
125.2528282584471
 30
0.0
 10
232.3104801306299
 20
125.2353021496508
 30
0.0
 10
232.3079413059247
 20
125.2016252161396
 30
0.0
 10
232.2781309105318
 20
125.1409705311376
 30
0.0
 10
232.2088846126844
 20
125.0859593059679
 30
0.0
 10
232.1041154911084
 20
125.0525391708805
 30
0.0
 10
232.0281522516706
 20
125.0487438733075
 30
0.0
 10
231.9887802542941
 20
125.0467767580661
 30
0.0
  0
SPLINE
  5
195
330
1F
100
AcDbEntity
  8
0
  6
Continuous
 62
     7
370
    18
100
AcDbSpline
210
0.0
220
0.0
230
1.0
 70
     8
 71
     3
 72
    12
 73
     8
 74
     0
 42
0.000000001
 43
0.00000001
 40
0.0
 40
0.0
 40
0.0
 40
0.0
 40
0.3210306919457608
 40
0.6029592976098701
 40
0.8214028303124085
 40
0.9104117121954222
 40
0.9999999999999999
 40
0.9999999999999999
 40
0.9999999999999999
 40
0.9999999999999999
 10
231.730963010567
 20
125.5462276774679
 30
0.0
 10
231.8023381062095
 20
125.5278349042636
 30
0.0
 10
231.9363946890073
 20
125.493289629028
 30
0.0
 10
232.1179788631095
 20
125.445314908926
 30
0.0
 10
232.2439607300835
 20
125.3882102694456
 30
0.0
 10
232.3044462007622
 20
125.3151451089529
 30
0.0
 10
232.3093443585082
 20
125.2736454197891
 30
0.0
 10
232.3118013826964
 20
125.2528282584471
 30
0.0
  0
SPLINE
  5
196
330
1F
100
AcDbEntity
  8
0
  6
Continuous
 62
     7
370
    18
100
AcDbSpline
210
0.0
220
0.0
230
1.0
 70
     8
 71
     3
 72
    12
 73
     8
 74
     0
 42
0.000000001
 43
0.00000001
 40
0.0
 40
0.0
 40
0.0
 40
0.0
 40
0.2059303301559966
 40
0.3857152088822386
 40
0.5622731912300339
 40
0.7785006333333749
 40
1.0
 40
1.0
 40
1.0
 40
1.0
 10
231.1388539392582
 20
126.1275537240811
 30
0.0
 10
231.1438227809826
 20
126.0651538781263
 30
0.0
 10
231.1531296073358
 20
125.9482766332908
 30
0.0
 10
231.2419556370561
 20
125.7983421821646
 30
0.0
 10
231.3742232782403
 20
125.6856082878761
 30
0.0
 10
231.5413153252042
 20
125.6035483933046
 30
0.0
 10
231.6672415690301
 20
125.5654873833591
 30
0.0
 10
231.730963010567
 20
125.5462276774679
 30
0.0
  0
SPLINE
  5
197
330
1F
100
AcDbEntity
  8
0
  6
Continuous
 62
     7
370
    18
100
AcDbSpline
210
0.0
220
0.0
230
1.0
 70
     8
 71
     3
 72
    14
 73
    10
 74
     0
 42
0.000000001
 43
0.00000001
 40
0.0
 40
0.0
 40
0.0
 40
0.0
 40
0.1687571149027776
 40
0.3389805425085095
 40
0.5046286467510799
 40
0.6247827513896844
 40
0.7433698504427163
 40
0.8656643973442318
 40
1.0
 40
1.0
 40
1.0
 40
1.0
 10
231.9632766849973
 20
126.7398200073837
 30
0.0
 10
231.8987410986694
 20
126.7369917857326
 30
0.0
 10
231.7691091831372
 20
126.7313107683119
 30
0.0
 10
231.5806258467274
 20
126.6850069716322
 30
0.0
 10
231.4204944385887
 20
126.6131017408965
 30
0.0
 10
231.2962388533412
 20
126.5191077676533
 30
0.0
 10
231.2084159008503
 20
126.4111286047051
 30
0.0
 10
231.1491325409542
 20
126.2775714734989
 30
0.0
 10
231.1423856607593
 20
126.1790997346025
 30
0.0
 10
231.1388539392582
 20
126.1275537240811
 30
0.0
  0
SPLINE
  5
198
330
1F
100
AcDbEntity
  8
0
  6
Continuous
 62
     7
370
    18
100
AcDbSpline
210
0.0
220
0.0
230
1.0
 70
     8
 71
     3
 72
    12
 73
     8
 74
     0
 42
0.000000001
 43
0.00000001
 40
0.0
 40
0.0
 40
0.0
 40
0.0
 40
0.1993974480574488
 40
0.3779257523812734
 40
0.5550669356786548
 40
0.7731143074051408
 40
1.0
 40
1.0
 40
1.0
 40
1.0
 10
232.773647180798
 20
126.0908878277124
 30
0.0
 10
232.7662602868901
 20
126.1686396618191
 30
0.0
 10
232.7522596190526
 20
126.3160057424287
 30
0.0
 10
232.6321319216918
 20
126.5030222282431
 30
0.0
 10
232.4533150008878
 20
126.6387844026129
 30
0.0
 10
232.2236023273661
 20
126.7243006427781
 30
0.0
 10
232.0511934974724
 20
126.7345788292371
 30
0.0
 10
231.9632766849973
 20
126.7398200073837
 30
0.0
  0
LINE
  5
199
330
1F
100
AcDbEntity
  8
0
  6
Continuous
 62
     7
370
    18
100
AcDbLine
 10
232.2466697461
 20
126.0908878277
 30
0.0
 11
232.7736471808
 21
126.0908878277
 31
0.0
  0
SPLINE
  5
19A
330
1F
100
AcDbEntity
  8
0
  6
Continuous
 62
     7
370
    18
100
AcDbSpline
210
0.0
220
0.0
230
1.0
 70
     8
 71
     3
 72
    13
 73
     9
 74
     0
 42
0.000000001
 43
0.00000001
 40
0.0
 40
0.0
 40
0.0
 40
0.0
 40
0.2626041787201647
 40
0.5099839566452393
 40
0.6263386331431423
 40
0.7414049134888157
 40
0.8625801387792016
 40
1.0
 40
1.0
 40
1.0
 40
1.0
 10
231.920758694824
 20
126.3335149143725
 30
0.0
 10
231.9611012524298
 20
126.3314948811705
 30
0.0
 10
232.0394475196115
 20
126.3275719256033
 30
0.0
 10
232.1321823331724
 20
126.2946513622105
 30
0.0
 10
232.1914319212261
 20
126.2501111140002
 30
0.0
 10
232.2248172919853
 20
126.2066908035945
 30
0.0
 10
232.2456720656364
 20
126.1520422963372
 30
0.0
 10
232.2463235442369
 20
126.112108841312
 30
0.0
 10
232.2466697460928
 20
126.0908878277124
 30
0.0
  0
SPLINE
  5
19B
330
1F
100
AcDbEntity
  8
0
  6
Continuous
 62
     7
370
    18
100
AcDbSpline
210
0.0
220
0.0
230
1.0
 70
     8
 71
     3
 72
    12
 73
     8
 74
     0
 42
0.000000001
 43
0.00000001
 40
0.0
 40
0.0
 40
0.0
 40
0.0
 40
0.1338350776842971
 40
0.2542572338768617
 40
0.4899325118164021
 40
0.7434916633797841
 40
0.9999999999999999
 40
0.9999999999999999
 40
0.9999999999999999
 40
0.9999999999999999
 10
231.6659036220351
 20
126.1614200076728
 30
0.0
 10
231.667011607534
 20
126.1767965358888
 30
0.0
 10
231.6691165364735
 20
126.206008560109
 30
0.0
 10
231.6939204921403
 20
126.2576651973964
 30
0.0
 10
231.7505150758714
 20
126.302996431358
 30
0.0
 10
231.8330209902952
 20
126.329040195827
 30
0.0
 10
231.8914002779272
 20
126.3320176031167
 30
0.0
 10
231.920758694824
 20
126.3335149143725
 30
0.0
  0
SPLINE
  5
19C
330
1F
100
AcDbEntity
  8
0
  6
Continuous
 62
     7
370
    18
100
AcDbSpline
210
0.0
220
0.0
230
1.0
 70
     8
 71
     3
 72
    12
 73
     8
 74
     0
 42
0.000000001
 43
0.00000001
 40
0.0
 40
0.0
 40
0.0
 40
0.0
 40
0.3295920737084764
 40
0.6175980183821557
 40
0.8358975487564522
 40
0.9197397490046714
 40
1.0
 40
1.0
 40
1.0
 40
1.0
 10
232.2523050956825
 20
125.8961250885286
 30
0.0
 10
232.1803081143989
 20
125.9142901274823
 30
0.0
 10
232.0453983379899
 20
125.9483282399144
 30
0.0
 10
231.8629164894134
 20
125.9927196550595
 30
0.0
 10
231.7372506038975
 20
126.0414392288491
 30
0.0
 10
231.6739145145446
 20
126.1056153924512
 30
0.0
 10
231.6685347774349
 20
126.1430911367635
 30
0.0
 10
231.6659036220351
 20
126.1614200076728
 30
0.0
  0
SPLINE
  5
19D
330
1F
100
AcDbEntity
  8
0
  6
Continuous
 62
     7
370
    18
100
AcDbSpline
210
0.0
220
0.0
230
1.0
 70
     8
 71
     3
 72
    12
 73
     8
 74
     0
 42
0.000000001
 43
0.00000001
 40
0.0
 40
0.0
 40
0.0
 40
0.0
 40
0.204537882118412
 40
0.3838943514216847
 40
0.560197582222703
 40
0.7766167962242723
 40
1.0
 40
1.0
 40
1.0
 40
1.0
 10
232.8387788174016
 20
125.3148893520051
 30
0.0
 10
232.8339148585735
 20
125.3765158726126
 30
0.0
 10
232.8247857608225
 20
125.4921818456537
 30
0.0
 10
232.7381142013418
 20
125.641399711762
 30
0.0
 10
232.6080389865681
 20
125.7550317730228
 30
0.0
 10
232.4420909187606
 20
125.8386516822925
 30
0.0
 10
232.3162313386718
 20
125.8767661139073
 30
0.0
 10
232.2523050956825
 20
125.8961250885286
 30
0.0
  0
SPLINE
  5
19E
330
1F
100
AcDbEntity
  8
0
  6
Continuous
 62
     7
370
    18
100
AcDbSpline
210
0.0
220
0.0
230
1.0
 70
     8
 71
     3
 72
    13
 73
     9
 74
     0
 42
0.000000001
 43
0.00000001
 40
0.0
 40
0.0
 40
0.0
 40
0.0
 40
0.1943984829390963
 40
0.3808229110812393
 40
0.5574598692554742
 40
0.6939226743571317
 40
0.837301079722939
 40
0.9999999999999999
 40
0.9999999999999999
 40
0.9999999999999999
 40
0.9999999999999999
 10
231.9575690873359
 20
124.6144442972386
 30
0.0
 10
232.039810614744
 20
124.6181215321225
 30
0.0
 10
232.2009201944372
 20
124.6253251649495
 30
0.0
 10
232.429683361812
 20
124.690105574924
 30
0.0
 10
232.6154205836623
 20
124.7970066288765
 30
0.0
 10
232.7459758107449
 20
124.9422712313276
 30
0.0
 10
232.8256672755857
 20
125.1158914704514
 30
0.0
 10
232.8342281736453
 20
125.2458228394674
 30
0.0
 10
232.8387788174016
 20
125.3148893520051
 30
0.0
  0
SPLINE
  5
19F
330
1F
100
AcDbEntity
  8
0
  6
Continuous
 62
     7
370
    18
100
AcDbSpline
210
0.0
220
0.0
230
1.0
 70
     8
 71
     3
 72
    12
 73
     8
 74
     0
 42
0.000000001
 43
0.00000001
 40
0.0
 40
0.0
 40
0.0
 40
0.0
 40
0.1886637132768466
 40
0.3661825608804957
 40
0.5448728808046008
 40
0.7656579321773195
 40
1.0
 40
1.0
 40
1.0
 40
1.0
 10
231.0965888173358
 20
125.1941989482931
 30
0.0
 10
231.116824405763
 20
125.1256827413224
 30
0.0
 10
231.1561002127665
 20
124.9926977613568
 30
0.0
 10
231.2894062326743
 20
124.830892579756
 30
0.0
 10
231.4699860862215
 20
124.7082633110672
 30
0.0
 10
231.6982775892453
 20
124.6286908949645
 30
0.0
 10
231.869439107091
 20
124.6192865399862
 30
0.0
 10
231.9575690873359
 20
124.6144442972386
 30
0.0
  0
LINE
  5
1A0
330
1F
100
AcDbEntity
  8
0
  6
Continuous
 62
     7
370
    18
100
AcDbLine
 10
228.6651160896
 20
125.3567209855
 30
0.0
 11
228.4096830322
 21
126.1652672175
 31
0.0
  0
LINE
  5
1A1
330
1F
100
AcDbEntity
  8
0
  6
Continuous
 62
     7
370
    18
100
AcDbLine
 10
228.4096830322
 20
126.1652672175
 30
0.0
 11
228.3273924786
 21
126.1652672175
 31
0.0
  0
LINE
  5
1A2
330
1F
100
AcDbEntity
  8
0
  6
Continuous
 62
     7
370
    18
100
AcDbLine
 10
228.3273924786
 20
126.1652672175
 30
0.0
 11
228.0631812805
 21
125.3567209855
 31
0.0
  0
LINE
  5
1A3
330
1F
100
AcDbEntity
  8
0
  6
Continuous
 62
     7
370
    18
100
AcDbLine
 10
228.0631812805
 20
125.3567209855
 30
0.0
 11
228.6651160896
 21
125.3567209855
 31
0.0
  0
LINE
  5
1A4
330
1F
100
AcDbEntity
  8
0
  6
Continuous
 62
     7
370
    18
100
AcDbLine
 10
229.8260342291
 20
125.8272184902
 30
0.0
 11
230.2950687103
 21
125.8272184902
 31
0.0
  0
SPLINE
  5
1A5
330
1F
100
AcDbEntity
  8
0
  6
Continuous
 62
     7
370
    18
100
AcDbSpline
210
0.0
220
0.0
230
1.0
 70
     8
 71
     3
 72
    12
 73
     8
 74
     0
 42
0.000000001
 43
0.00000001
 40
0.0
 40
0.0
 40
0.0
 40
0.0
 40
0.2424663205121404
 40
0.504077720964135
 40
0.65061736454156
 40
0.8119564965868012
 40
0.9999999999999999
 40
0.9999999999999999
 40
0.9999999999999999
 40
0.9999999999999999
 10
230.2950687103136
 20
125.8272184901807
 30
0.0
 10
230.3265369088254
 20
125.8302115126481
 30
0.0
 10
230.3919580269219
 20
125.8364338858873
 30
0.0
 10
230.4675349420603
 20
125.8815138267392
 30
0.0
 10
230.5136685132541
 20
125.9397564384913
 30
0.0
 10
230.5385208245755
 20
126.0002521678713
 30
0.0
 10
230.5412370555665
 20
126.0456359955961
 30
0.0
 10
230.5426989759364
 20
126.0700623210558
 30
0.0
  0
SPLINE
  5
1A6
330
1F
100
AcDbEntity
  8
0
  6
Continuous
 62
     7
370
    18
100
AcDbSpline
210
0.0
220
0.0
230
1.0
 70
     8
 71
     3
 72
    12
 73
     8
 74
     0
 42
0.000000001
 43
0.00000001
 40
0.0
 40
0.0
 40
0.0
 40
0.0
 40
0.23250610395507
 40
0.4222580038951598
 40
0.5928278045028524
 40
0.7922143842709269
 40
1.0
 40
1.0
 40
1.0
 40
1.0
 10
230.5426989759364
 20
126.0700623210558
 30
0.0
 10
230.5408772793214
 20
126.1009322430876
 30
0.0
 10
230.537568867356
 20
126.1569955955581
 30
0.0
 10
230.5033565844897
 20
126.2297965908746
 30
0.0
 10
230.4486835981471
 20
126.281576160154
 30
0.0
 10
230.3765079006345
 20
126.3118101264942
 30
0.0
 10
230.3225858700218
 20
126.3149276434138
 30
0.0
 10
230.2950687103136
 20
126.316518555514
 30
0.0
  0
LINE
  5
1A7
330
1F
100
AcDbEntity
  8
0
  6
Continuous
 62
     7
370
    18
100
AcDbLine
 10
230.2950687103
 20
126.3165185555
 30
0.0
 11
229.8260342291
 21
126.3165185555
 31
0.0
  0
LINE
  5
1A8
330
1F
100
AcDbEntity
  8
0
  6
Continuous
 62
     7
370
    18
100
AcDbLine
 10
229.8260342291
 20
126.3165185555
 30
0.0
 11
229.8260342291
 21
125.8272184902
 31
0.0
  0
LINE
  5
1A9
330
1F
100
AcDbEntity
  8
0
  6
Continuous
 62
     7
370
    18
100
AcDbLine
 10
229.8260342291
 20
125.0293288488
 30
0.0
 11
230.3470150738
 21
125.0293288488
 31
0.0
  0
SPLINE
  5
1AA
330
1F
100
AcDbEntity
  8
0
  6
Continuous
 62
     7
370
    18
100
AcDbSpline
210
0.0
220
0.0
230
1.0
 70
     8
 71
     3
 72
    12
 73
     8
 74
     0
 42
0.000000001
 43
0.00000001
 40
0.0
 40
0.0
 40
0.0
 40
0.0
 40
0.2382584506409
 40
0.4976556531040025
 40
0.6448887038896327
 40
0.8084522641844492
 40
1.0
 40
1.0
 40
1.0
 40
1.0
 10
230.3470150738389
 20
125.0293288487596
 30
0.0
 10
230.3820076163389
 20
125.0327978046931
 30
0.0
 10
230.4550973075745
 20
125.0400434890583
 30
0.0
 10
230.538959023538
 20
125.0923629285673
 30
0.0
 10
230.5898745447944
 20
125.1593164278395
 30
0.0
 10
230.6173428009656
 20
125.2289560346439
 30
0.0
 10
230.6203389706781
 20
125.28111782791
 30
0.0
 10
230.6219551105499
 20
125.3092540024154
 30
0.0
  0
SPLINE
  5
1AB
330
1F
100
AcDbEntity
  8
0
  6
Continuous
 62
     7
370
    18
100
AcDbSpline
210
0.0
220
0.0
230
1.0
 70
     8
 71
     3
 72
    12
 73
     8
 74
     0
 42
0.000000001
 43
0.00000001
 40
0.0
 40
0.0
 40
0.0
 40
0.0
 40
0.2366945835519314
 40
0.4286648826954245
 40
0.5991110185125257
 40
0.7959723284782181
 40
1.0
 40
1.0
 40
1.0
 40
1.0
 10
230.6219551105499
 20
125.3092540024154
 30
0.0
 10
230.6199416832544
 20
125.3447878845784
 30
0.0
 10
230.6162952729204
 20
125.4091413953369
 30
0.0
 10
230.5785702495255
 20
125.4928658716027
 30
0.0
 10
230.5180106146467
 20
125.5526868628189
 30
0.0
 10
230.4376681086588
 20
125.5877773478184
 30
0.0
 10
230.3775907366491
 20
125.5913876352856
 30
0.0
 10
230.3470150738389
 20
125.5932250480843
 30
0.0
  0
LINE
  5
1AC
330
1F
100
AcDbEntity
  8
0
  6
Continuous
 62
     7
370
    18
100
AcDbLine
 10
230.3470150738
 20
125.5932250481
 30
0.0
 11
229.8260342291
 21
125.5932250481
 31
0.0
  0
LINE
  5
1AD
330
1F
100
AcDbEntity
  8
0
  6
Continuous
 62
     7
370
    18
100
AcDbLine
 10
229.8260342291
 20
125.5932250481
 30
0.0
 11
229.8260342291
 21
125.0293288488
 31
0.0
  0
SPLINE
  5
1AE
330
1F
100
AcDbEntity
  8
0
  6
Continuous
 62
     7
370
    18
100
AcDbSpline
210
0.0
220
0.0
230
1.0
 70
     8
 71
     3
 72
    13
 73
     9
 74
     0
 42
0.000000001
 43
0.00000001
 40
0.0
 40
0.0
 40
0.0
 40
0.0
 40
0.5894795511906067
 40
0.8525979839264363
 40
0.9412877217975717
 40
0.9634735681078218
 40
0.9825903643577695
 40
1.0
 40
1.0
 40
1.0
 40
1.0
 10
231.9606757544174
 20
126.1995850515284
 30
0.0
 10
231.9229577110871
 20
126.1976570791703
 30
0.0
 10
231.8684039481345
 20
126.1948685424988
 30
0.0
 10
231.8098754804338
 20
126.1804684160041
 30
0.0
 10
231.7880348267733
 20
126.1696489532856
 30
0.0
 10
231.7821916705366
 20
126.1637252133387
 30
0.0
 10
231.7801409040392
 20
126.1604704282733
 30
0.0
 10
231.7798629435634
 20
126.1581289139784
 30
0.0
 10
231.7797304589391
 20
126.1570128753014
 30
0.0
  0
SPLINE
  5
1AF
330
1F
100
AcDbEntity
  8
0
  6
Continuous
 62
     7
370
    18
100
AcDbSpline
210
0.0
220
0.0
230
1.0
 70
     8
 71
     3
 72
    12
 73
     8
 74
     0
 42
0.000000001
 43
0.00000001
 40
0.0
 40
0.0
 40
0.0
 40
0.0
 40
0.1687932262470754
 40
0.3139712558223841
 40
0.4643534436981239
 40
0.6895611553267716
 40
1.0
 40
1.0
 40
1.0
 40
1.0
 10
232.1309644593256
 20
126.0984919372549
 30
0.0
 10
232.1285046520722
 20
126.1107225024221
 30
0.0
 10
232.1239291795274
 20
126.1334725024687
 30
0.0
 10
232.105369612577
 20
126.1633408767615
 30
0.0
 10
232.0725749056557
 20
126.1848746278637
 30
0.0
 10
232.0228270414431
 20
126.1966325617323
 30
0.0
 10
231.9834798043596
 20
126.1985017477388
 30
0.0
 10
231.9606757544174
 20
126.1995850515284
 30
0.0
  0
SPLINE
  5
1B0
330
1F
100
AcDbEntity
  8
0
  6
Continuous
 62
     7
370
    18
100
AcDbSpline
210
0.0
220
0.0
230
1.0
 70
     8
 71
     3
 72
     9
 73
     5
 74
     0
 42
0.000000001
 43
0.00000001
 40
0.0
 40
0.0
 40
0.0
 40
0.0
 40
0.5915228225856829
 40
1.0
 40
1.0
 40
1.0
 40
1.0
 10
232.1362746925927
 20
126.0143590578041
 30
0.0
 10
232.1363458789604
 20
126.0310283234655
 30
0.0
 10
232.1364662232056
 20
126.0592085813102
 30
0.0
 10
232.1325600442712
 20
126.0870992397991
 30
0.0
 10
232.1309644593256
 20
126.0984919372549
 30
0.0
  0
SPLINE
  5
1B1
330
1F
100
AcDbEntity
  8
0
  6
Continuous
 62
     7
370
    18
100
AcDbSpline
210
0.0
220
0.0
230
1.0
 70
     8
 71
     3
 72
    13
 73
     9
 74
     0
 42
0.000000001
 43
0.00000001
 40
0.0
 40
0.0
 40
0.0
 40
0.0
 40
0.0518958002713987
 40
0.1049388400652582
 40
0.1730026251899479
 40
0.2659228894279218
 40
0.5508780002890717
 40
0.9999999999999999
 40
0.9999999999999999
 40
0.9999999999999999
 40
0.9999999999999999
 10
231.779730458939
 20
126.1570128753014
 30
0.0
 10
231.7803626933672
 20
126.1499934267515
 30
0.0
 10
231.7816411387749
 20
126.1357993535343
 30
0.0
 10
231.7966217818457
 20
126.1168856644023
 30
0.0
 10
231.8210799360674
 20
126.1018923527691
 30
0.0
 10
231.8764705576224
 20
126.0799344186151
 30
0.0
 10
231.9833527313865
 20
126.0524791980732
 30
0.0
 10
232.0782281504514
 20
126.0288288063681
 30
0.0
 10
232.1362746925927
 20
126.0143590578041
 30
0.0
  0
LINE
  5
1B2
330
1F
100
AcDbEntity
  8
0
  6
Continuous
 62
     7
370
    18
100
AcDbLine
 10
226.6548496196
 20
126.8084556755
 30
0.0
 11
225.8942219211
 21
126.8084556755
 31
0.0
  0
LINE
  5
1B3
330
1F
100
AcDbEntity
  8
0
  6
Continuous
 62
     7
370
    18
100
AcDbLine
 10
226.6548496196
 20
125.2134747877
 30
0.0
 11
226.6548496196
 21
126.8084556755
 31
0.0
  0
LINE
  5
1B4
330
1F
100
AcDbEntity
  8
0
  6
Continuous
 62
     7
370
    18
100
AcDbLine
 10
227.4211463974
 20
125.2134747877
 30
0.0
 11
226.6548496196
 21
125.2134747877
 31
0.0
  0
LINE
  5
1B5
330
1F
100
AcDbEntity
  8
0
  6
Continuous
 62
     7
370
    18
100
AcDbLine
 10
228.0331355323
 20
126.8084556755
 30
0.0
 11
227.4211463974
 21
125.2134747877
 31
0.0
  0
LINE
  5
1B6
330
1F
100
AcDbEntity
  8
0
  6
Continuous
 62
     7
370
    18
100
AcDbLine
 10
228.7244278271
 20
126.8084556755
 30
0.0
 11
228.0331355323
 21
126.8084556755
 31
0.0
  0
LINE
  5
1B7
330
1F
100
AcDbEntity
  8
0
  6
Continuous
 62
     7
370
    18
100
AcDbLine
 10
229.2411460357
 20
125.4141943265
 30
0.0
 11
228.7244278271
 21
126.8084556755
 31
0.0
  0
LINE
  5
1B8
330
1F
100
AcDbEntity
  8
0
  6
Continuous
 62
     7
370
    18
100
AcDbLine
 10
229.2411460357
 20
126.8084556755
 30
0.0
 11
229.2411460357
 21
125.4141943265
 31
0.0
  0
LINE
  5
1B9
330
1F
100
AcDbEntity
  8
0
  6
Continuous
 62
     7
370
    18
100
AcDbLine
 10
230.2292361491
 20
126.8084556755
 30
0.0
 11
229.2411460357
 21
126.8084556755
 31
0.0
  0
SPLINE
  5
1BA
330
1F
100
AcDbEntity
  8
0
  6
Continuous
 62
     7
370
    18
100
AcDbSpline
210
0.0
220
0.0
230
1.0
 70
     8
 71
     3
 72
    13
 73
     9
 74
     0
 42
0.000000001
 43
0.00000001
 40
0.0
 40
0.0
 40
0.0
 40
0.0
 40
0.1129894123230104
 40
0.2349035042068361
 40
0.3805358024040086
 40
0.5310429421797489
 40
0.7319137862307443
 40
1.0
 40
1.0
 40
1.0
 40
1.0
 10
231.0983804512123
 20
126.4039929082791
 30
0.0
 10
231.0813581137831
 20
126.4388344460493
 30
0.0
 10
231.0459688978408
 20
126.5112695454617
 30
0.0
 10
230.9729159741647
 20
126.6212986167099
 30
0.0
 10
230.8546586471545
 20
126.7082421292096
 30
0.0
 10
230.6932180146833
 20
126.7670229395303
 30
0.0
 10
230.482537850149
 20
126.8030788726623
 30
0.0
 10
230.3213700801726
 20
126.8064999602959
 30
0.0
 10
230.2292361491142
 20
126.8084556754629
 30
0.0
  0
SPLINE
  5
1BB
330
1F
100
AcDbEntity
  8
0
  6
Continuous
 62
     7
370
    18
100
AcDbSpline
210
0.0
220
0.0
230
1.0
 70
     8
 71
     3
 72
    12
 73
     8
 74
     0
 42
0.000000001
 43
0.00000001
 40
0.0
 40
0.0
 40
0.0
 40
0.0
 40
0.2577824677168397
 40
0.4746472252827209
 40
0.6603530347935923
 40
0.8468286435267821
 40
1.0
 40
1.0
 40
1.0
 40
1.0
 10
231.9551342090202
 20
126.8297327325675
 30
0.0
 10
231.8688728098494
 20
126.8256606364
 30
0.0
 10
231.7100422496175
 20
126.8181628062951
 30
0.0
 10
231.4967036551549
 20
126.753508385515
 30
0.0
 10
231.3235372868562
 20
126.6584034688379
 30
0.0
 10
231.1887250714827
 20
126.5422265386499
 30
0.0
 10
231.1264601865389
 20
126.4469568804828
 30
0.0
 10
231.0983804512123
 20
126.4039929082791
 30
0.0
  0
SPLINE
  5
1BC
330
1F
100
AcDbEntity
  8
0
  6
Continuous
 62
     7
370
    18
100
AcDbSpline
210
0.0
220
0.0
230
1.0
 70
     8
 71
     3
 72
    15
 73
    11
 74
     0
 42
0.000000001
 43
0.00000001
 40
0.0
 40
0.0
 40
0.0
 40
0.0
 40
0.1009667219583008
 40
0.2110426783902178
 40
0.3263227887254707
 40
0.4481367482187079
 40
0.5538549368465843
 40
0.6756292865222512
 40
0.8215985201030968
 40
0.9999999999999999
 40
0.9999999999999999
 40
0.9999999999999999
 40
0.9999999999999999
 10
232.8864841008196
 20
125.9822267279322
 30
0.0
 10
232.885615054238
 20
126.0310547391953
 30
0.0
 10
232.8837985555476
 20
126.1331160330311
 30
0.0
 10
232.8595074601889
 20
126.2896652499275
 30
0.0
 10
232.8034628171647
 20
126.4493035231986
 30
0.0
 10
232.7074526034261
 20
126.5874970634009
 30
0.0
 10
232.5749502852527
 20
126.6949731524575
 30
0.0
 10
232.4099345946927
 20
126.7717556504468
 30
0.0
 10
232.1985044897304
 20
126.8216620366335
 30
0.0
 10
232.0414906519854
 20
126.826868962221
 30
0.0
 10
231.9551342090202
 20
126.8297327325675
 30
0.0
  0
LINE
  5
1BD
330
1F
100
AcDbEntity
  8
0
  6
Continuous
 62
     7
370
    18
100
AcDbLine
 10
232.2699528234
 20
125.9822267279
 30
0.0
 11
232.8864841008
 21
125.9822267279
 31
0.0
  0
SPLINE
  5
1BE
330
1F
100
AcDbEntity
  8
0
  6
Continuous
 62
     7
370
    18
100
AcDbSpline
210
0.0
220
0.0
230
1.0
 70
     8
 71
     3
 72
     9
 73
     5
 74
     0
 42
0.000000001
 43
0.00000001
 40
0.0
 40
0.0
 40
0.0
 40
0.0
 40
0.5581053349215137
 40
1.0
 40
1.0
 40
1.0
 40
1.0
 10
232.285305538634
 20
125.978216959955
 30
0.0
 10
232.2824527442977
 20
125.9789757622653
 30
0.0
 10
232.2773411745673
 20
125.980335366381
 30
0.0
 10
232.2722171170751
 20
125.9816470860212
 30
0.0
 10
232.2699528234057
 20
125.9822267279322
 30
0.0
  0
SPLINE
  5
1BF
330
1F
100
AcDbEntity
  8
0
  6
Continuous
 62
     7
370
    18
100
AcDbSpline
210
0.0
220
0.0
230
1.0
 70
     8
 71
     3
 72
    12
 73
     8
 74
     0
 42
0.000000001
 43
0.00000001
 40
0.0
 40
0.0
 40
0.0
 40
0.0
 40
0.2081936773952727
 40
0.3823854809342381
 40
0.547554996039279
 40
0.7576294387459024
 40
0.9999999999999999
 40
0.9999999999999999
 40
0.9999999999999999
 40
0.9999999999999999
 10
232.9290384186137
 20
125.2597289429104
 30
0.0
 10
232.9267189370282
 20
125.3336994666329
 30
0.0
 10
232.9224587880521
 20
125.469559760963
 30
0.0
 10
232.8470374761434
 20
125.6528457823513
 30
0.0
 10
232.7130564339329
 20
125.7977301520173
 30
0.0
 10
232.5199643592856
 20
125.9055544485394
 30
0.0
 10
232.3671609156749
 20
125.952870300272
 30
0.0
 10
232.285305538634
 20
125.978216959955
 30
0.0
  0
SPLINE
  5
1C0
330
1F
100
AcDbEntity
  8
0
  6
Continuous
 62
     7
370
    18
100
AcDbSpline
210
0.0
220
0.0
230
1.0
 70
     8
 71
     3
 72
    13
 73
     9
 74
     0
 42
0.000000001
 43
0.00000001
 40
0.0
 40
0.0
 40
0.0
 40
0.0
 40
0.2144903110109672
 40
0.4108455396423898
 40
0.5926499974110327
 40
0.7287207904635484
 40
0.8627130606487939
 40
1.0
 40
1.0
 40
1.0
 40
1.0
 10
231.9883480870034
 20
124.4894169006892
 30
0.0
 10
232.0851032027323
 20
124.4960908426187
 30
0.0
 10
232.2704328222731
 20
124.508874446972
 30
0.0
 10
232.5228082998765
 20
124.6064139551455
 30
0.0
 10
232.7131365073171
 20
124.7434498811275
 30
0.0
 10
232.8398690642938
 20
124.9046309701367
 30
0.0
 10
232.9159894173955
 20
125.0751181796968
 30
0.0
 10
232.9246536759136
 20
125.1976957893516
 30
0.0
 10
232.9290384186137
 20
125.2597289429104
 30
0.0
  0
SPLINE
  5
1C1
330
1F
100
AcDbEntity
  8
0
  6
Continuous
 62
     7
370
    18
100
AcDbSpline
210
0.0
220
0.0
230
1.0
 70
     8
 71
     3
 72
    12
 73
     8
 74
     0
 42
0.000000001
 43
0.00000001
 40
0.0
 40
0.0
 40
0.0
 40
0.0
 40
0.1266166298736491
 40
0.2732454724470874
 40
0.4461934828620928
 40
0.6934352669522352
 40
1.0
 40
1.0
 40
1.0
 40
1.0
 10
231.0946934416743
 20
124.9268088350708
 30
0.0
 10
231.1138176376388
 20
124.8864817720573
 30
0.0
 10
231.1550886773648
 20
124.7994538090122
 30
0.0
 10
231.2702511303661
 20
124.6892934658431
 30
0.0
 10
231.4413605558842
 20
124.5870909467213
 30
0.0
 10
231.6869401522582
 20
124.5089726832974
 30
0.0
 10
231.8809513753702
 20
124.4963849546235
 30
0.0
 10
231.9883480870034
 20
124.4894169006892
 30
0.0
  0
SPLINE
  5
1C2
330
1F
100
AcDbEntity
  8
0
  6
Continuous
 62
     7
370
    18
100
AcDbSpline
210
0.0
220
0.0
230
1.0
 70
     8
 71
     3
 72
    11
 73
     7
 74
     0
 42
0.000000001
 43
0.00000001
 40
0.0
 40
0.0
 40
0.0
 40
0.0
 40
0.3104248435957503
 40
0.6000686931456357
 40
0.8080123835287397
 40
1.0
 40
1.0
 40
1.0
 40
1.0
 10
230.4336235859638
 20
124.5721069272444
 30
0.0
 10
230.5153161488217
 20
124.579298296264
 30
0.0
 10
230.6732324704215
 20
124.5931996173037
 30
0.0
 10
230.8702940647548
 20
124.6789137647574
 30
0.0
 10
231.0184446963309
 20
124.7895694148082
 30
0.0
 10
231.0699623268197
 20
124.882295527346
 30
0.0
 10
231.0946934416743
 20
124.9268088350708
 30
0.0
  0
LINE
  5
1C3
330
1F
100
AcDbEntity
  8
0
  6
Continuous
 62
     7
370
    18
100
AcDbLine
 10
228.7620071644
 20
124.5721069272
 30
0.0
 11
230.433623586
 21
124.5721069272
 31
0.0
  0
LINE
  5
1C4
330
1F
100
AcDbEntity
  8
0
  6
Continuous
 62
     7
370
    18
100
AcDbLine
 10
228.6342725737
 20
124.9020638705
 30
0.0
 11
228.7620071644
 21
124.5721069272
 31
0.0
  0
LINE
  5
1C5
330
1F
100
AcDbEntity
  8
0
  6
Continuous
 62
     7
370
    18
100
AcDbLine
 10
228.0915089354
 20
124.9020638705
 30
0.0
 11
228.6342725737
 21
124.9020638705
 31
0.0
  0
LINE
  5
1C6
330
1F
100
AcDbEntity
  8
0
  6
Continuous
 62
     7
370
    18
100
AcDbLine
 10
227.9583918633
 20
124.5721069272
 30
0.0
 11
228.0915089354
 21
124.9020638705
 31
0.0
  0
LINE
  5
1C7
330
1F
100
AcDbEntity
  8
0
  6
Continuous
 62
     7
370
    18
100
AcDbLine
 10
225.349864889
 20
124.5721069272
 30
0.0
 11
227.9583918633
 21
124.5721069272
 31
0.0
  0
SPLINE
  5
1C8
330
1F
100
AcDbEntity
  8
0
  6
Continuous
 62
     7
370
    18
100
AcDbSpline
210
0.0
220
0.0
230
1.0
 70
     8
 71
     3
 72
    11
 73
     7
 74
     0
 42
0.000000001
 43
0.00000001
 40
0.0
 40
0.0
 40
0.0
 40
0.0
 40
0.2274736611129912
 40
0.5494925387673759
 40
0.8007169048877155
 40
1.0
 40
1.0
 40
1.0
 40
1.0
 10
225.2837940274764
 20
124.9295181377581
 30
0.0
 10
225.2859599597738
 20
124.9018594572015
 30
0.0
 10
225.2911920540352
 20
124.8350462774969
 30
0.0
 10
225.3020364836679
 20
124.7382577022888
 30
0.0
 10
225.316738542938
 20
124.6444197155861
 30
0.0
 10
225.3397054296122
 20
124.5942844060278
 30
0.0
 10
225.3498648890117
 20
124.5721069272444
 30
0.0
  0
SPLINE
  5
1C9
330
1F
100
AcDbEntity
  8
0
  6
Continuous
 62
     7
370
    18
100
AcDbSpline
210
0.0
220
0.0
230
1.0
 70
     8
 71
     3
 72
    13
 73
     9
 74
     0
 42
0.000000001
 43
0.00000001
 40
0.0
 40
0.0
 40
0.0
 40
0.0
 40
0.1455849753971016
 40
0.2684075940997178
 40
0.3810001390981603
 40
0.4935379506791309
 40
0.736082626961545
 40
1.0
 40
1.0
 40
1.0
 40
1.0
 10
224.9564922008281
 20
125.3873180438466
 30
0.0
 10
224.9874928461192
 20
125.3856659242821
 30
0.0
 10
225.0446471547657
 20
125.3826199957015
 30
0.0
 10
225.1211106057303
 20
125.3519865633143
 30
0.0
 10
225.1788600468172
 20
125.3043400596446
 30
0.0
 10
225.2346071415431
 20
125.2209881617439
 30
0.0
 10
225.270487679295
 20
125.0922451491951
 30
0.0
 10
225.2792355250621
 20
124.9852653243189
 30
0.0
 10
225.2837940274764
 20
124.9295181377581
 30
0.0
  0
LINE
  5
1CA
330
1F
100
AcDbEntity
  8
0
  6
Continuous
 62
     7
370
    18
100
AcDbLine
 10
224.5125639245
 20
125.3873180438
 30
0.0
 11
224.9564922008
 21
125.3873180438
 31
0.0
  0
LINE
  5
1CB
330
1F
100
AcDbEntity
  8
0
  6
Continuous
 62
     7
370
    18
100
AcDbLine
 10
224.5125639245
 20
124.5721069272
 30
0.0
 11
224.5125639245
 21
125.3873180438
 31
0.0
  0
LINE
  5
1CC
330
1F
100
AcDbEntity
  8
0
  6
Continuous
 62
     7
370
    18
100
AcDbLine
 10
223.927051425
 20
124.5721069272
 30
0.0
 11
224.5125639245
 21
124.5721069272
 31
0.0
  0
LINE
  5
1CD
330
1F
100
AcDbEntity
  8
0
  6
Continuous
 62
     7
370
    18
100
AcDbLine
 10
223.927051425
 20
126.8084556755
 30
0.0
 11
223.927051425
 21
124.5721069272
 31
0.0
  0
LINE
  5
1CE
330
1F
100
AcDbEntity
  8
0
  6
Continuous
 62
     7
370
    18
100
AcDbLine
 10
225.0729058416
 20
126.8084556755
 30
0.0
 11
223.927051425
 21
126.8084556755
 31
0.0
  0
SPLINE
  5
1CF
330
1F
100
AcDbEntity
  8
0
  6
Continuous
 62
     7
370
    18
100
AcDbSpline
210
0.0
220
0.0
230
1.0
 70
     8
 71
     3
 72
    12
 73
     8
 74
     0
 42
0.000000001
 43
0.00000001
 40
0.0
 40
0.0
 40
0.0
 40
0.0
 40
0.2016496499628992
 40
0.3794039236986366
 40
0.5547793395586219
 40
0.7718110801448022
 40
1.0
 40
1.0
 40
1.0
 40
1.0
 10
225.8598679621738
 20
126.1783260564418
 30
0.0
 10
225.853372724855
 20
126.2550648358278
 30
0.0
 10
225.8411519323839
 20
126.3994488900737
 30
0.0
 10
225.7258404462375
 20
126.5830228362829
 30
0.0
 10
225.551754800449
 20
126.7140960050698
 30
0.0
 10
225.3273323748842
 20
126.7944456719503
 30
0.0
 10
225.1591198152463
 20
126.8037083008157
 30
0.0
 10
225.0729058415916
 20
126.8084556754629
 30
0.0
  0
SPLINE
  5
1D0
330
1F
100
AcDbEntity
  8
0
  6
Continuous
 62
     7
370
    18
100
AcDbSpline
210
0.0
220
0.0
230
1.0
 70
     8
 71
     3
 72
    11
 73
     7
 74
     0
 42
0.000000001
 43
0.00000001
 40
0.0
 40
0.0
 40
0.0
 40
0.0
 40
0.2852648350196993
 40
0.5586037747029604
 40
0.7765581993729992
 40
1.0
 40
1.0
 40
1.0
 40
1.0
 10
225.5072612484257
 20
125.6171391598045
 30
0.0
 10
225.5675531451664
 20
125.6481214889326
 30
0.0
 10
225.6856163515935
 20
125.7087908875945
 30
0.0
 10
225.7931063349121
 20
125.8629788301414
 30
0.0
 10
225.8504725096564
 20
126.0219918474557
 30
0.0
 10
225.8567102955748
 20
126.1257845413759
 30
0.0
 10
225.8598679621738
 20
126.1783260564418
 30
0.0
  0
LINE
  5
1D1
330
1F
100
AcDbEntity
  8
0
  6
Continuous
 62
     7
370
    18
100
AcDbLine
 10
225.5072612484
 20
125.6108535776
 30
0.0
 11
225.5072612484
 21
125.6171391598
 31
0.0
  0
SPLINE
  5
1D2
330
1F
100
AcDbEntity
  8
0
  6
Continuous
 62
     7
370
    18
100
AcDbSpline
210
0.0
220
0.0
230
1.0
 70
     8
 71
     3
 72
    11
 73
     7
 74
     0
 42
0.000000001
 43
0.00000001
 40
0.0
 40
0.0
 40
0.0
 40
0.0
 40
0.2808304286447844
 40
0.5635450978390013
 40
0.7771991270060388
 40
1.0
 40
1.0
 40
1.0
 40
1.0
 10
225.8347256332352
 20
125.0747006377732
 30
0.0
 10
225.8270057383055
 20
125.1371641197971
 30
0.0
 10
225.8115141515694
 20
125.2625101845324
 30
0.0
 10
225.7502281463541
 20
125.4266991952425
 30
0.0
 10
225.6479119427066
 20
125.558399051186
 30
0.0
 10
225.554795299175
 20
125.5931261420174
 30
0.0
 10
225.5072612484257
 20
125.6108535775795
 30
0.0
  0
SPLINE
  5
1D3
330
1F
100
AcDbEntity
  8
0
  6
Continuous
 62
     7
370
    18
100
AcDbSpline
210
0.0
220
0.0
230
1.0
 70
     8
 71
     3
 72
    11
 73
     7
 74
     0
 42
0.000000001
 43
0.00000001
 40
0.0
 40
0.0
 40
0.0
 40
0.0
 40
0.3074360073852246
 40
0.6261968550908564
 40
0.8442166228014018
 40
1.0
 40
1.0
 40
1.0
 40
1.0
 10
225.8929083503055
 20
124.6745802054768
 30
0.0
 10
225.8830675877486
 20
124.7149267279671
 30
0.0
 10
225.8630235642225
 20
124.7971059941897
 30
0.0
 10
225.8495951033592
 20
124.9104496467315
 30
0.0
 10
225.8408005451985
 20
125.0034794852493
 30
0.0
 10
225.8365126316997
 20
125.0537501958624
 30
0.0
 10
225.8347256332352
 20
125.0747006377732
 30
0.0
  0
LINE
  5
1D4
330
1F
100
AcDbEntity
  8
0
  6
Continuous
 62
     7
370
    18
100
AcDbLine
 10
225.8942219211
 20
126.8084556755
 30
0.0
 11
225.8929083503
 21
124.6745802055
 31
0.0
  0
SPLINE
  5
1D5
330
1F
100
AcDbEntity
  8
0
  6
Continuous
 62
     7
370
    18
100
AcDbSpline
210
0.0
220
0.0
230
1.0
 70
     8
 71
     3
 72
    12
 73
     8
 74
     0
 42
0.000000001
 43
0.00000001
 40
0.0
 40
0.0
 40
0.0
 40
0.0
 40
0.2554031448979543
 40
0.5239992272002586
 40
0.6685053607654261
 40
0.822947353711822
 40
1.0
 40
1.0
 40
1.0
 40
1.0
 10
230.3171766202423
 20
125.1253826600347
 30
0.0
 10
230.3433070220806
 20
125.1275675108744
 30
0.0
 10
230.3969176006629
 20
125.1320500717763
 30
0.0
 10
230.4599223505641
 20
125.1647310165603
 30
0.0
 10
230.4990436668528
 20
125.208212379809
 30
0.0
 10
230.5200725256968
 20
125.253266417423
 30
0.0
 10
230.5223885088939
 20
125.2872892462484
 30
0.0
 10
230.5236254850174
 20
125.3054609786531
 30
0.0
  0
LINE
  5
1D6
330
1F
100
AcDbEntity
  8
0
  6
Continuous
 62
     7
370
    18
100
AcDbLine
 10
229.9259894362
 20
125.12538266
 30
0.0
 11
230.3171766202
 21
125.12538266
 31
0.0
  0
LINE
  5
1D7
330
1F
100
AcDbEntity
  8
0
  6
Continuous
 62
     7
370
    18
100
AcDbLine
 10
229.9259894362
 20
125.4882124759
 30
0.0
 11
229.9259894362
 21
125.12538266
 31
0.0
  0
LINE
  5
1D8
330
1F
100
AcDbEntity
  8
0
  6
Continuous
 62
     7
370
    18
100
AcDbLine
 10
230.3171766202
 20
125.4882124759
 30
0.0
 11
229.9259894362
 21
125.4882124759
 31
0.0
  0
SPLINE
  5
1D9
330
1F
100
AcDbEntity
  8
0
  6
Continuous
 62
     7
370
    18
100
AcDbSpline
210
0.0
220
0.0
230
1.0
 70
     8
 71
     3
 72
    12
 73
     8
 74
     0
 42
0.000000001
 43
0.00000001
 40
0.0
 40
0.0
 40
0.0
 40
0.0
 40
0.2191709004622892
 40
0.4020322727962971
 40
0.5732124609680115
 40
0.7805893411712332
 40
1.0
 40
1.0
 40
1.0
 40
1.0
 10
230.5236254850174
 20
125.3054609786531
 30
0.0
 10
230.5220777983706
 20
125.3284423339153
 30
0.0
 10
230.5192388266874
 20
125.370597777309
 30
0.0
 10
230.4900624408932
 20
125.4248546971311
 30
0.0
 10
230.4442530358359
 20
125.4628261102177
 30
0.0
 10
230.3845857932138
 20
125.4847597160349
 30
0.0
 10
230.3400647853622
 20
125.4870401230376
 30
0.0
 10
230.3171766202423
 20
125.488212475923
 30
0.0
  0
SPLINE
  5
1DA
330
1F
100
AcDbEntity
  8
0
  6
Continuous
 62
     7
370
    18
100
AcDbSpline
210
0.0
220
0.0
230
1.0
 70
     8
 71
     3
 72
    12
 73
     8
 74
     0
 42
0.000000001
 43
0.00000001
 40
0.0
 40
0.0
 40
0.0
 40
0.0
 40
0.2631780919768604
 40
0.5362228315034394
 40
0.6796343489711612
 40
0.8298665817545476
 40
1.0
 40
1.0
 40
1.0
 40
1.0
 10
230.2561269996876
 20
125.9267582709135
 30
0.0
 10
230.2779498275238
 20
125.9284508501631
 30
0.0
 10
230.3224136293768
 20
125.9318994641072
 30
0.0
 10
230.3750672061996
 20
125.956998439667
 30
0.0
 10
230.4081111450961
 20
125.9909371218516
 30
0.0
 10
230.4258882718412
 20
126.0260787108728
 30
0.0
 10
230.4278607556157
 20
126.0527653711717
 30
0.0
 10
230.4289082630681
 20
126.0669375919564
 30
0.0
  0
LINE
  5
1DB
330
1F
100
AcDbEntity
  8
0
  6
Continuous
 62
     7
370
    18
100
AcDbLine
 10
229.9286987389
 20
125.9267582709
 30
0.0
 11
230.2561269997
 21
125.9267582709
 31
0.0
  0
LINE
  5
1DC
330
1F
100
AcDbEntity
  8
0
  6
Continuous
 62
     7
370
    18
100
AcDbLine
 10
229.9286987389
 20
126.209175983
 30
0.0
 11
229.9286987389
 21
125.9267582709
 31
0.0
  0
LINE
  5
1DD
330
1F
100
AcDbEntity
  8
0
  6
Continuous
 62
     7
370
    18
100
AcDbLine
 10
230.2561269997
 20
126.209175983
 30
0.0
 11
229.9286987389
 21
126.209175983
 31
0.0
  0
SPLINE
  5
1DE
330
1F
100
AcDbEntity
  8
0
  6
Continuous
 62
     7
370
    18
100
AcDbSpline
210
0.0
220
0.0
230
1.0
 70
     8
 71
     3
 72
    12
 73
     8
 74
     0
 42
0.000000001
 43
0.00000001
 40
0.0
 40
0.0
 40
0.0
 40
0.0
 40
0.2108655154368313
 40
0.3895958229608272
 40
0.5613353297982684
 40
0.7736399301224668
 40
1.0
 40
1.0
 40
1.0
 40
1.0
 10
230.4289082630681
 20
126.0669375919564
 30
0.0
 10
230.4275919328582
 20
126.084878512722
 30
0.0
 10
230.4251598768135
 20
126.1180262172004
 30
0.0
 10
230.4003846862336
 20
126.1603427464883
 30
0.0
 10
230.3619974913849
 20
126.1896387983166
 30
0.0
 10
230.312323040795
 20
126.2065029050534
 30
0.0
 10
230.2752549193352
 20
126.2082661249811
 30
0.0
 10
230.2561269996876
 20
126.2091759830416
 30
0.0
  0
LINE
  5
1DF
330
1F
100
AcDbEntity
  8
0
  6
Continuous
 62
     7
370
    18
100
AcDbLine
 10
228.2050403692
 20
125.4645151084
 30
0.0
 11
228.5158154495
 21
125.4645151084
 31
0.0
  0
LINE
  5
1E0
330
1F
100
AcDbEntity
  8
0
  6
Continuous
 62
     7
370
    18
100
AcDbLine
 10
228.363046902
 20
125.9522979642
 30
0.0
 11
228.2050403692
 21
125.4645151084
 31
0.0
  0
LINE
  5
1E1
330
1F
100
AcDbEntity
  8
0
  6
Continuous
 62
     7
370
    18
100
AcDbLine
 10
228.5158154495
 20
125.4645151084
 30
0.0
 11
228.363046902
 21
125.9522979642
 31
0.0
  0
SPLINE
  5
1E2
330
1F
100
AcDbEntity
  8
0
  6
Continuous
 62
     7
370
    18
100
AcDbSpline
210
0.0
220
0.0
230
1.0
 70
     8
 71
     3
 72
    11
 73
     7
 74
     0
 42
0.000000001
 43
0.00000001
 40
0.0
 40
0.0
 40
0.0
 40
0.0
 40
0.2800359244938599
 40
0.5600382743760555
 40
0.7801217300908261
 40
1.0
 40
1.0
 40
1.0
 40
1.0
 10
233.5911934473699
 20
121.7309226232672
 30
0.0
 10
233.6500403475765
 20
121.7681798657531
 30
0.0
 10
233.7677270926028
 20
121.8426898838072
 30
0.0
 10
233.9069363745212
 20
121.9784123361619
 30
0.0
 10
234.0214009273044
 20
122.1168526726972
 30
0.0
 10
234.0692630886303
 20
122.2153656942126
 30
0.0
 10
234.0931830085086
 20
122.2645992331157
 30
0.0
  0
LINE
  5
1E3
330
1F
100
AcDbEntity
  8
0
  6
Continuous
 62
     7
370
    18
100
AcDbLine
 10
233.5911934474
 20
121.4907681488
 30
0.0
 11
233.5911934474
 21
121.7309226233
 31
0.0
  0
SPLINE
  5
1E4
330
1F
100
AcDbEntity
  8
0
  6
Continuous
 62
     7
370
    18
100
AcDbSpline
210
0.0
220
0.0
230
1.0
 70
     8
 71
     3
 72
     9
 73
     5
 74
     0
 42
0.000000001
 43
0.00000001
 40
0.0
 40
0.0
 40
0.0
 40
0.0
 40
0.5597552341668184
 40
1.0
 40
1.0
 40
1.0
 40
1.0
 10
234.0181347352487
 20
121.8109741147445
 30
0.0
 10
233.9466203119609
 20
121.7401024267525
 30
0.0
 10
233.818860143011
 20
121.6134905012785
 30
0.0
 10
233.6607851400379
 20
121.5282811289867
 30
0.0
 10
233.5911934473699
 20
121.4907681488354
 30
0.0
  0
LINE
  5
1E5
330
1F
100
AcDbEntity
  8
0
  6
Continuous
 62
     7
370
    18
100
AcDbLine
 10
234.0181347352
 20
120.1832604547
 30
0.0
 11
234.0181347352
 21
121.8109741147
 31
0.0
  0
LINE
  5
1E6
330
1F
100
AcDbEntity
  8
0
  6
Continuous
 62
     7
370
    18
100
AcDbLine
 10
234.2316053792
 20
120.1832604547
 30
0.0
 11
234.0181347352
 21
120.1832604547
 31
0.0
  0
LINE
  5
1E7
330
1F
100
AcDbEntity
  8
0
  6
Continuous
 62
     7
370
    18
100
AcDbLine
 10
234.2316053792
 20
122.2645992331
 30
0.0
 11
234.2316053792
 21
120.1832604547
 31
0.0
  0
LINE
  5
1E8
330
1F
100
AcDbEntity
  8
0
  6
Continuous
 62
     7
370
    18
100
AcDbLine
 10
234.0931830085
 20
122.2645992331
 30
0.0
 11
234.2316053792
 21
122.2645992331
 31
0.0
  0
SPLINE
  5
1E9
330
1F
100
AcDbEntity
  8
0
  6
Continuous
 62
     7
370
    18
100
AcDbSpline
210
0.0
220
0.0
230
1.0
 70
     8
 71
     3
 72
    10
 73
     6
 74
     0
 42
0.000000001
 43
0.00000001
 40
0.0
 40
0.0
 40
0.0
 40
0.0
 40
0.2795751783825434
 40
0.559704936815718
 40
1.0
 40
1.0
 40
1.0
 40
1.0
 10
233.0766958406878
 20
122.0477931103647
 30
0.0
 10
233.1125743815933
 20
121.9752899628977
 30
0.0
 10
233.1844026339679
 20
121.8301398469012
 30
0.0
 10
233.2340007572718
 20
121.5436181869153
 30
0.0
 10
233.2403954614986
 20
121.3363985054275
 30
0.0
 10
233.2443036509684
 20
121.209754058962
 30
0.0
  0
SPLINE
  5
1EA
330
1F
100
AcDbEntity
  8
0
  6
Continuous
 62
     7
370
    18
100
AcDbSpline
210
0.0
220
0.0
230
1.0
 70
     8
 71
     3
 72
    11
 73
     7
 74
     0
 42
0.000000001
 43
0.00000001
 40
0.0
 40
0.0
 40
0.0
 40
0.0
 40
0.2798903849624056
 40
0.5594964420644604
 40
0.7796718965173884
 40
1.0
 40
1.0
 40
1.0
 40
1.0
 10
232.698535930428
 20
122.2645992331157
 30
0.0
 10
232.7412928721485
 20
122.2617467148438
 30
0.0
 10
232.826763320765
 20
122.256044576043
 30
0.0
 10
232.9355335758679
 20
122.2024194941136
 30
0.0
 10
233.0190539013806
 20
122.1303801260287
 30
0.0
 10
233.0574774225791
 20
122.0753284746578
 30
0.0
 10
233.0766958406878
 20
122.0477931103647
 30
0.0
  0
SPLINE
  5
1EB
330
1F
100
AcDbEntity
  8
0
  6
Continuous
 62
     7
370
    18
100
AcDbSpline
210
0.0
220
0.0
230
1.0
 70
     8
 71
     3
 72
    13
 73
     9
 74
     0
 42
0.000000001
 43
0.00000001
 40
0.0
 40
0.0
 40
0.0
 40
0.0
 40
0.2504890583456467
 40
0.5006738274425614
 40
0.6258446378555206
 40
0.7507584155659023
 40
0.8753007099299301
 40
0.9999999999999999
 40
0.9999999999999999
 40
0.9999999999999999
 40
0.9999999999999999
 10
232.150266600779
 20
121.209754058962
 30
0.0
 10
232.1529852153941
 20
121.3199942563198
 30
0.0
 10
232.158419142104
 20
121.5403407333821
 30
0.0
 10
232.2084725141456
 20
121.8137681689295
 30
0.0
 10
232.2934080395228
 20
122.0182257032146
 30
0.0
 10
232.3903961152119
 20
122.1537383242937
 30
0.0
 10
232.5323517782955
 20
122.2498376063821
 30
0.0
 10
232.6431179560777
 20
122.2596766250258
 30
0.0
 10
232.698535930428
 20
122.2645992331157
 30
0.0
  0
SPLINE
  5
1EC
330
1F
100
AcDbEntity
  8
0
  6
Continuous
 62
     7
370
    18
100
AcDbSpline
210
0.0
220
0.0
230
1.0
 70
     8
 71
     3
 72
    13
 73
     9
 74
     0
 42
0.000000001
 43
0.00000001
 40
0.0
 40
0.0
 40
0.0
 40
0.0
 40
0.1245870753534843
 40
0.2492227148385395
 40
0.3742192396120914
 40
0.4992998133209623
 40
0.7494812006579955
 40
1.0
 40
1.0
 40
1.0
 40
1.0
 10
232.6960343213194
 20
120.1565766242141
 30
0.0
 10
232.6407706780305
 20
120.1622133204912
 30
0.0
 10
232.530221849645
 20
120.1734889102336
 30
0.0
 10
232.3914328934223
 20
120.27212192307
 30
0.0
 10
232.2883937847392
 20
120.4021262596299
 30
0.0
 10
232.2023698995708
 20
120.6064722106835
 30
0.0
 10
232.1571990129516
 20
120.8799743898693
 30
0.0
 10
232.1525784427403
 20
121.0997781287927
 30
0.0
 10
232.150266600779
 20
121.209754058962
 30
0.0
  0
SPLINE
  5
1ED
330
1F
100
AcDbEntity
  8
0
  6
Continuous
 62
     7
370
    18
100
AcDbSpline
210
0.0
220
0.0
230
1.0
 70
     8
 71
     3
 72
    13
 73
     9
 74
     0
 42
0.000000001
 43
0.00000001
 40
0.0
 40
0.0
 40
0.0
 40
0.0
 40
0.2504702058475081
 40
0.5006494994159214
 40
0.6258027062132805
 40
0.7507410958263498
 40
0.8752785399750084
 40
1.0
 40
1.0
 40
1.0
 40
1.0
 10
233.2443036509684
 20
121.209754058962
 30
0.0
 10
233.2415901557133
 20
121.0996216034105
 30
0.0
 10
233.2361663168318
 20
120.8794846072565
 30
0.0
 10
233.1853964591077
 20
120.6065540070205
 30
0.0
 10
233.1010447116721
 20
120.4021298945692
 30
0.0
 10
233.0041619517156
 20
120.2666750658369
 30
0.0
 10
232.8620853348468
 20
120.1709968010351
 30
0.0
 10
232.7514118941236
 20
120.1613857149555
 30
0.0
 10
232.6960343213194
 20
120.1565766242141
 30
0.0
  0
SPLINE
  5
1EE
330
1F
100
AcDbEntity
  8
0
  6
Continuous
 62
     7
370
    18
100
AcDbSpline
210
0.0
220
0.0
230
1.0
 70
     8
 71
     3
 72
    11
 73
     7
 74
     0
 42
0.000000001
 43
0.00000001
 40
0.0
 40
0.0
 40
0.0
 40
0.0
 40
0.2797787587345824
 40
0.5598118307765573
 40
0.7799729026484904
 40
1.0
 40
1.0
 40
1.0
 40
1.0
 10
231.1908995076061
 20
120.396731098646
 30
0.0
 10
231.2432127249875
 20
120.4006829366373
 30
0.0
 10
231.3478867114208
 20
120.4085902047618
 30
0.0
 10
231.4843915886702
 20
120.4626639651855
 30
0.0
 10
231.6041253618853
 20
120.5249106204232
 30
0.0
 10
231.6658090335273
 20
120.5795532596205
 30
0.0
 10
231.6966414824078
 20
120.6068662637738
 30
0.0
  0
SPLINE
  5
1EF
330
1F
100
AcDbEntity
  8
0
  6
Continuous
 62
     7
370
    18
100
AcDbSpline
210
0.0
220
0.0
230
1.0
 70
     8
 71
     3
 72
    13
 73
     9
 74
     0
 42
0.000000001
 43
0.00000001
 40
0.0
 40
0.0
 40
0.0
 40
0.0
 40
0.187022929910803
 40
0.3737977890807345
 40
0.5600455952505865
 40
0.7066785419675299
 40
0.8532542592539526
 40
1.0
 40
1.0
 40
1.0
 40
1.0
 10
230.5492367712336
 20
121.209754058962
 30
0.0
 10
230.5517498501864
 20
121.1368407701387
 30
0.0
 10
230.5567726746969
 20
120.9911109060532
 30
0.0
 10
230.6087491808996
 20
120.7769225147957
 30
0.0
 10
230.7135822273921
 20
120.5987653554702
 30
0.0
 10
230.8582992947537
 20
120.4768680071866
 30
0.0
 10
231.0187143199729
 20
120.4069902242144
 30
0.0
 10
231.1334822700231
 20
120.4001521284004
 30
0.0
 10
231.1908995076061
 20
120.396731098646
 30
0.0
  0
SPLINE
  5
1F0
330
1F
100
AcDbEntity
  8
0
  6
Continuous
 62
     7
370
    18
100
AcDbSpline
210
0.0
220
0.0
230
1.0
 70
     8
 71
     3
 72
    13
 73
     9
 74
     0
 42
0.000000001
 43
0.00000001
 40
0.0
 40
0.0
 40
0.0
 40
0.0
 40
0.1400486032417882
 40
0.2799052169211083
 40
0.4196873645391181
 40
0.5597775021515501
 40
0.7796753492944811
 40
1.0
 40
1.0
 40
1.0
 40
1.0
 10
231.1696358301824
 20
122.0244447586838
 30
0.0
 10
231.1156520306357
 20
122.0211851444222
 30
0.0
 10
231.0077584367506
 20
122.0146703844327
 30
0.0
 10
230.8554056475425
 20
121.9518017693481
 30
0.0
 10
230.7321293424185
 20
121.84373779987
 30
0.0
 10
230.6287836899667
 20
121.6798688212483
 30
0.0
 10
230.5591632811889
 20
121.4641685943392
 30
0.0
 10
230.5525477458451
 20
121.2946136995858
 30
0.0
 10
230.5492367712336
 20
121.209754058962
 30
0.0
  0
SPLINE
  5
1F1
330
1F
100
AcDbEntity
  8
0
  6
Continuous
 62
     7
370
    18
100
AcDbSpline
210
0.0
220
0.0
230
1.0
 70
     8
 71
     3
 72
    12
 73
     8
 74
     0
 42
0.000000001
 43
0.00000001
 40
0.0
 40
0.0
 40
0.0
 40
0.0
 40
0.1870963385430822
 40
0.3738483395160243
 40
0.5602390716906357
 40
0.7800288950519764
 40
1.0
 40
1.0
 40
1.0
 40
1.0
 10
231.6699576519154
 20
121.5975034708051
 30
0.0
 10
231.6581025395047
 20
121.6408099376329
 30
0.0
 10
231.6344141331787
 20
121.7273431688013
 30
0.0
 10
231.5739415575633
 20
121.849771694922
 30
0.0
 10
231.4683610237013
 20
121.9489707264079
 30
0.0
 10
231.3285933474564
 20
122.0135725475057
 30
0.0
 10
231.2226362287562
 20
122.0208196924668
 30
0.0
 10
231.1696358301824
 20
122.0244447586838
 30
0.0
  0
LINE
  5
1F2
330
1F
100
AcDbEntity
  8
0
  6
Continuous
 62
     7
370
    18
100
AcDbLine
 10
231.8834282959
 20
121.6508711318
 30
0.0
 11
231.6699576519
 21
121.5975034708
 31
0.0
  0
SPLINE
  5
1F3
330
1F
100
AcDbEntity
  8
0
  6
Continuous
 62
     7
370
    18
100
AcDbSpline
210
0.0
220
0.0
230
1.0
 70
     8
 71
     3
 72
    12
 73
     8
 74
     0
 42
0.000000001
 43
0.00000001
 40
0.0
 40
0.0
 40
0.0
 40
0.0
 40
0.1868862446756283
 40
0.3735025027331715
 40
0.560078889360492
 40
0.7796634255495124
 40
1.0
 40
1.0
 40
1.0
 40
1.0
 10
231.1896487030517
 20
122.2645992331157
 30
0.0
 10
231.2532272332223
 20
122.261339880458
 30
0.0
 10
231.3802924443621
 20
122.254825883791
 30
0.0
 10
231.5598363230446
 20
122.1828036345432
 30
0.0
 10
231.7189784175127
 20
122.055431066814
 30
0.0
 10
231.8309142422695
 20
121.8690370552805
 30
0.0
 10
231.8659036733645
 20
121.7236759371398
 30
0.0
 10
231.8834282958548
 20
121.6508711317899
 30
0.0
  0
SPLINE
  5
1F4
330
1F
100
AcDbEntity
  8
0
  6
Continuous
 62
     7
370
    18
100
AcDbSpline
210
0.0
220
0.0
230
1.0
 70
     8
 71
     3
 72
    13
 73
     9
 74
     0
 42
0.000000001
 43
0.00000001
 40
0.0
 40
0.0
 40
0.0
 40
0.0
 40
0.1869542232246731
 40
0.373714364355885
 40
0.5602636869073556
 40
0.7067032942997549
 40
0.8532504477916675
 40
1.0
 40
1.0
 40
1.0
 40
1.0
 10
230.3357661272941
 20
121.2009984270817
 30
0.0
 10
230.3398044553627
 20
121.2967001944531
 30
0.0
 10
230.3478769192053
 20
121.4880043786755
 30
0.0
 10
230.4304656419879
 20
121.7650666317216
 30
0.0
 10
230.5658594832301
 20
121.9979621740164
 30
0.0
 10
230.7522593451672
 20
122.1626763837411
 30
0.0
 10
230.9641196229813
 20
122.2513222000154
 30
0.0
 10
231.1144377657571
 20
122.2601715198307
 30
0.0
 10
231.1896487030517
 20
122.2645992331157
 30
0.0
  0
SPLINE
  5
1F5
330
1F
100
AcDbEntity
  8
0
  6
Continuous
 62
     7
370
    18
100
AcDbSpline
210
0.0
220
0.0
230
1.0
 70
     8
 71
     3
 72
    14
 73
    10
 74
     0
 42
0.000000001
 43
0.00000001
 40
0.0
 40
0.0
 40
0.0
 40
0.0
 40
0.1399718258526245
 40
0.2798512991585578
 40
0.4197354707339148
 40
0.5597008687846725
 40
0.7063759692972738
 40
0.8531460864685028
 40
1.0
 40
1.0
 40
1.0
 40
1.0
 10
231.2038244880008
 20
120.1565766242141
 30
0.0
 10
231.1324670924504
 20
120.1609302368498
 30
0.0
 10
230.9897993825186
 20
120.1696345896343
 30
0.0
 10
230.7882469226145
 20
120.2500756012035
 30
0.0
 10
230.6160664233749
 20
120.3800775589815
 30
0.0
 10
230.483925735637
 20
120.5549078053031
 30
0.0
 10
230.3928399628385
 20
120.7570857643585
 30
0.0
 10
230.3430618938278
 20
120.9769374044174
 30
0.0
 10
230.33819851212
 20
121.1262972110984
 30
0.0
 10
230.3357661272941
 20
121.2009984270817
 30
0.0
  0
SPLINE
  5
1F6
330
1F
100
AcDbEntity
  8
0
  6
Continuous
 62
     7
370
    18
100
AcDbSpline
210
0.0
220
0.0
230
1.0
 70
     8
 71
     3
 72
    11
 73
     7
 74
     0
 42
0.000000001
 43
0.00000001
 40
0.0
 40
0.0
 40
0.0
 40
0.0
 40
0.2800887905641499
 40
0.5600137328906376
 40
0.7800102319115847
 40
1.0
 40
1.0
 40
1.0
 40
1.0
 10
231.9101121263472
 20
120.4713624370545
 30
0.0
 10
231.854312067778
 20
120.4226197445328
 30
0.0
 10
231.7427445929358
 20
120.3251628733198
 30
0.0
 10
231.5607114859348
 20
120.2255939583586
 30
0.0
 10
231.3783619796546
 20
120.1664813664951
 30
0.0
 10
231.2620030585305
 20
120.1598781713025
 30
0.0
 10
231.2038244880008
 20
120.1565766242141
 30
0.0
  0
LINE
  5
1F7
330
1F
100
AcDbEntity
  8
0
  6
Continuous
 62
     7
370
    18
100
AcDbLine
 10
231.9101121263
 20
121.2239298439
 30
0.0
 11
231.9101121263
 21
120.4713624371
 31
0.0
  0
LINE
  5
1F8
330
1F
100
AcDbEntity
  8
0
  6
Continuous
 62
     7
370
    18
100
AcDbLine
 10
231.1896487031
 20
121.2239298439
 30
0.0
 11
231.9101121263
 21
121.2239298439
 31
0.0
  0
LINE
  5
1F9
330
1F
100
AcDbEntity
  8
0
  6
Continuous
 62
     7
370
    18
100
AcDbLine
 10
231.1896487031
 20
120.9837753695
 30
0.0
 11
231.1896487031
 21
121.2239298439
 31
0.0
  0
LINE
  5
1FA
330
1F
100
AcDbEntity
  8
0
  6
Continuous
 62
     7
370
    18
100
AcDbLine
 10
231.6966414824
 20
120.9837753695
 30
0.0
 11
231.1896487031
 21
120.9837753695
 31
0.0
  0
LINE
  5
1FB
330
1F
100
AcDbEntity
  8
0
  6
Continuous
 62
     7
370
    18
100
AcDbLine
 10
231.6966414824
 20
120.6068662638
 30
0.0
 11
231.6966414824
 21
120.9837753695
 31
0.0
  0
LINE
  5
1FC
330
1F
100
AcDbEntity
  8
0
  6
Continuous
 62
     7
370
    18
100
AcDbLine
 10
229.508567382
 20
121.0371430305
 30
0.0
 11
230.1489793138
 21
121.0371430305
 31
0.0
  0
LINE
  5
1FD
330
1F
100
AcDbEntity
  8
0
  6
Continuous
 62
     7
370
    18
100
AcDbLine
 10
229.508567382
 20
120.796988556
 30
0.0
 11
229.508567382
 21
121.0371430305
 31
0.0
  0
LINE
  5
1FE
330
1F
100
AcDbEntity
  8
0
  6
Continuous
 62
     7
370
    18
100
AcDbLine
 10
230.1489793138
 20
120.796988556
 30
0.0
 11
229.508567382
 21
120.796988556
 31
0.0
  0
LINE
  5
1FF
330
1F
100
AcDbEntity
  8
0
  6
Continuous
 62
     7
370
    18
100
AcDbLine
 10
230.1489793138
 20
121.0371430305
 30
0.0
 11
230.1489793138
 21
120.796988556
 31
0.0
  0
SPLINE
  5
200
330
1F
100
AcDbEntity
  8
0
  6
Continuous
 62
     7
370
    18
100
AcDbSpline
210
0.0
220
0.0
230
1.0
 70
     8
 71
     3
 72
    10
 73
     6
 74
     0
 42
0.000000001
 43
0.00000001
 40
0.0
 40
0.0
 40
0.0
 40
0.0
 40
0.2795751783825436
 40
0.5597049368157176
 40
1.0
 40
1.0
 40
1.0
 40
1.0
 10
229.1541727583015
 20
122.0477931103647
 30
0.0
 10
229.190051299207
 20
121.9752899628977
 30
0.0
 10
229.2618795515816
 20
121.8301398469012
 30
0.0
 10
229.3114776748854
 20
121.5436181869153
 30
0.0
 10
229.3178723791123
 20
121.3363985054275
 30
0.0
 10
229.321780568582
 20
121.209754058962
 30
0.0
  0
SPLINE
  5
201
330
1F
100
AcDbEntity
  8
0
  6
Continuous
 62
     7
370
    18
100
AcDbSpline
210
0.0
220
0.0
230
1.0
 70
     8
 71
     3
 72
    11
 73
     7
 74
     0
 42
0.000000001
 43
0.00000001
 40
0.0
 40
0.0
 40
0.0
 40
0.0
 40
0.2798903849624053
 40
0.5594964420644598
 40
0.7796718965173827
 40
1.0
 40
1.0
 40
1.0
 40
1.0
 10
228.7760128480417
 20
122.2645992331157
 30
0.0
 10
228.8187697897621
 20
122.2617467148438
 30
0.0
 10
228.9042402383786
 20
122.256044576043
 30
0.0
 10
229.0130104934816
 20
122.2024194941136
 30
0.0
 10
229.0965308189943
 20
122.1303801260287
 30
0.0
 10
229.1349543401928
 20
122.0753284746578
 30
0.0
 10
229.1541727583015
 20
122.0477931103647
 30
0.0
  0
SPLINE
  5
202
330
1F
100
AcDbEntity
  8
0
  6
Continuous
 62
     7
370
    18
100
AcDbSpline
210
0.0
220
0.0
230
1.0
 70
     8
 71
     3
 72
    13
 73
     9
 74
     0
 42
0.000000001
 43
0.00000001
 40
0.0
 40
0.0
 40
0.0
 40
0.0
 40
0.2504890583456494
 40
0.5006738274425614
 40
0.6258446378555211
 40
0.7507584155659036
 40
0.8753007099299315
 40
1.0
 40
1.0
 40
1.0
 40
1.0
 10
228.2277435183926
 20
121.209754058962
 30
0.0
 10
228.2304621330077
 20
121.3199942563198
 30
0.0
 10
228.2358960597176
 20
121.5403407333821
 30
0.0
 10
228.2859494317592
 20
121.8137681689295
 30
0.0
 10
228.3708849571364
 20
122.0182257032145
 30
0.0
 10
228.4678730328255
 20
122.1537383242937
 30
0.0
 10
228.6098286959091
 20
122.2498376063821
 30
0.0
 10
228.7205948736913
 20
122.2596766250258
 30
0.0
 10
228.7760128480417
 20
122.2645992331157
 30
0.0
  0
SPLINE
  5
203
330
1F
100
AcDbEntity
  8
0
  6
Continuous
 62
     7
370
    18
100
AcDbSpline
210
0.0
220
0.0
230
1.0
 70
     8
 71
     3
 72
    13
 73
     9
 74
     0
 42
0.000000001
 43
0.00000001
 40
0.0
 40
0.0
 40
0.0
 40
0.0
 40
0.1245870753534838
 40
0.24922271483854
 40
0.3742192396120919
 40
0.4992998133209627
 40
0.7494812006579956
 40
1.0
 40
1.0
 40
1.0
 40
1.0
 10
228.773511238933
 20
120.1565766242141
 30
0.0
 10
228.7182475956442
 20
120.1622133204912
 30
0.0
 10
228.6076987672587
 20
120.1734889102336
 30
0.0
 10
228.4689098110359
 20
120.2721219230699
 30
0.0
 10
228.3658707023529
 20
120.4021262596299
 30
0.0
 10
228.2798468171844
 20
120.6064722106835
 30
0.0
 10
228.2346759305652
 20
120.8799743898693
 30
0.0
 10
228.230055360354
 20
121.0997781287927
 30
0.0
 10
228.2277435183926
 20
121.209754058962
 30
0.0
  0
SPLINE
  5
204
330
1F
100
AcDbEntity
  8
0
  6
Continuous
 62
     7
370
    18
100
AcDbSpline
210
0.0
220
0.0
230
1.0
 70
     8
 71
     3
 72
    13
 73
     9
 74
     0
 42
0.000000001
 43
0.00000001
 40
0.0
 40
0.0
 40
0.0
 40
0.0
 40
0.2504702058475084
 40
0.5006494994159221
 40
0.6258027062132784
 40
0.7507410958263498
 40
0.8752785399750075
 40
1.0
 40
1.0
 40
1.0
 40
1.0
 10
229.321780568582
 20
121.209754058962
 30
0.0
 10
229.3190670733269
 20
121.0996216034105
 30
0.0
 10
229.3136432344454
 20
120.8794846072565
 30
0.0
 10
229.2628733767213
 20
120.6065540070205
 30
0.0
 10
229.1785216292857
 20
120.4021298945692
 30
0.0
 10
229.0816388693293
 20
120.2666750658369
 30
0.0
 10
228.9395622524604
 20
120.1709968010351
 30
0.0
 10
228.8288888117372
 20
120.1613857149555
 30
0.0
 10
228.773511238933
 20
120.1565766242141
 30
0.0
  0
SPLINE
  5
205
330
1F
100
AcDbEntity
  8
0
  6
Continuous
 62
     7
370
    18
100
AcDbSpline
210
0.0
220
0.0
230
1.0
 70
     8
 71
     3
 72
    12
 73
     8
 74
     0
 42
0.000000001
 43
0.00000001
 40
0.0
 40
0.0
 40
0.0
 40
0.0
 40
0.1861323399318239
 40
0.3726108819815573
 40
0.5594136204052342
 40
0.7795030968206013
 40
1.0
 40
1.0
 40
1.0
 40
1.0
 10
227.5131171830174
 20
121.5441358098202
 30
0.0
 10
227.5707594979525
 20
121.5374499094373
 30
0.0
 10
227.686151341279
 20
121.5240656730418
 30
0.0
 10
227.8282970661076
 20
121.4169540288783
 30
0.0
 10
227.9394670849119
 20
121.2713927110655
 30
0.0
 10
228.0052639846928
 20
121.0860681005675
 30
0.0
 10
228.0112680604683
 20
120.9506491994561
 30
0.0
 10
228.0142728744532
 20
120.8828771354298
 30
0.0
  0
SPLINE
  5
206
330
1F
100
AcDbEntity
  8
0
  6
Continuous
 62
     7
370
    18
100
AcDbSpline
210
0.0
220
0.0
230
1.0
 70
     8
 71
     3
 72
     9
 73
     5
 74
     0
 42
0.000000001
 43
0.00000001
 40
0.0
 40
0.0
 40
0.0
 40
0.0
 40
0.5597945537684287
 40
1.0
 40
1.0
 40
1.0
 40
1.0
 10
227.2087547414632
 20
121.4636673834915
 30
0.0
 10
227.2628755475036
 20
121.489475388637
 30
0.0
 10
227.3595553127427
 20
121.535578025706
 30
0.0
 10
227.4661802881422
 20
121.5415200835815
 30
0.0
 10
227.5131171830174
 20
121.5441358098202
 30
0.0
  0
LINE
  5
207
330
1F
100
AcDbEntity
  8
0
  6
Continuous
 62
     7
370
    18
100
AcDbLine
 10
227.285887689
 20
121.9710770977
 30
0.0
 11
227.2087547415
 21
121.4636673835
 31
0.0
  0
LINE
  5
208
330
1F
100
AcDbEntity
  8
0
  6
Continuous
 62
     7
370
    18
100
AcDbLine
 10
227.934221383
 20
121.9710770977
 30
0.0
 11
227.285887689
 21
121.9710770977
 31
0.0
  0
LINE
  5
209
330
1F
100
AcDbEntity
  8
0
  6
Continuous
 62
     7
370
    18
100
AcDbLine
 10
227.934221383
 20
122.2112315721
 30
0.0
 11
227.934221383
 21
121.9710770977
 31
0.0
  0
LINE
  5
20A
330
1F
100
AcDbEntity
  8
0
  6
Continuous
 62
     7
370
    18
100
AcDbLine
 10
227.1070226377
 20
122.2112315721
 30
0.0
 11
227.934221383
 21
122.2112315721
 31
0.0
  0
LINE
  5
20B
330
1F
100
AcDbEntity
  8
0
  6
Continuous
 62
     7
370
    18
100
AcDbLine
 10
226.9469196548
 20
121.1584710722
 30
0.0
 11
227.1070226377
 21
122.2112315721
 31
0.0
  0
LINE
  5
20C
330
1F
100
AcDbEntity
  8
0
  6
Continuous
 62
     7
370
    18
100
AcDbLine
 10
227.1603902987
 20
121.1280348281
 30
0.0
 11
226.9469196548
 21
121.1584710722
 31
0.0
  0
SPLINE
  5
20D
330
1F
100
AcDbEntity
  8
0
  6
Continuous
 62
     7
370
    18
100
AcDbSpline
210
0.0
220
0.0
230
1.0
 70
     8
 71
     3
 72
    10
 73
     6
 74
     0
 42
0.000000001
 43
0.00000001
 40
0.0
 40
0.0
 40
0.0
 40
0.0
 40
0.2801682771676908
 40
0.5607715634932561
 40
1.0
 40
1.0
 40
1.0
 40
1.0
 10
227.4534954992609
 20
121.3306651658808
 30
0.0
 10
227.4185074860232
 20
121.3267981980308
 30
0.0
 10
227.3484771346746
 20
121.3190582582019
 30
0.0
 10
227.2376326221175
 20
121.2524037158486
 30
0.0
 10
227.1896614497014
 20
121.1751646959163
 30
0.0
 10
227.1603902986957
 20
121.128034828079
 30
0.0
  0
SPLINE
  5
20E
330
1F
100
AcDbEntity
  8
0
  6
Continuous
 62
     7
370
    18
100
AcDbSpline
210
0.0
220
0.0
230
1.0
 70
     8
 71
     3
 72
    11
 73
     7
 74
     0
 42
0.000000001
 43
0.00000001
 40
0.0
 40
0.0
 40
0.0
 40
0.0
 40
0.2810318196217023
 40
0.5605860755662367
 40
0.7803889752949008
 40
1.0
 40
1.0
 40
1.0
 40
1.0
 10
227.8008022305139
 20
120.8712029595894
 30
0.0
 10
227.7979457373484
 20
120.9317547077185
 30
0.0
 10
227.7922477694255
 20
121.0525398447826
 30
0.0
 10
227.7182059221843
 20
121.2076411382341
 30
0.0
 10
227.5965138659032
 20
121.3137501147146
 30
0.0
 10
227.5011544082157
 20
121.325028457097
 30
0.0
 10
227.4534954992609
 20
121.3306651658808
 30
0.0
  0
SPLINE
  5
20F
330
1F
100
AcDbEntity
  8
0
  6
Continuous
 62
     7
370
    18
100
AcDbSpline
210
0.0
220
0.0
230
1.0
 70
     8
 71
     3
 72
    12
 73
     8
 74
     0
 42
0.000000001
 43
0.00000001
 40
0.0
 40
0.0
 40
0.0
 40
0.0
 40
0.1858835197478846
 40
0.372301851349969
 40
0.5590684864252777
 40
0.7793243380015301
 40
1.0
 40
1.0
 40
1.0
 40
1.0
 10
227.4480753461921
 20
120.3700472681535
 30
0.0
 10
227.4905766493752
 20
120.3755692586401
 30
0.0
 10
227.5757015376996
 20
120.3866291271216
 30
0.0
 10
227.6764893700169
 20
120.4715176540049
 30
0.0
 10
227.7523799994631
 20
120.5830892082242
 30
0.0
 10
227.7947262494336
 20
120.7214024800974
 30
0.0
 10
227.7987756183538
 20
120.821237782064
 30
0.0
 10
227.8008022305139
 20
120.8712029595894
 30
0.0
  0
SPLINE
  5
210
330
1F
100
AcDbEntity
  8
0
  6
Continuous
 62
     7
370
    18
100
AcDbSpline
210
0.0
220
0.0
230
1.0
 70
     8
 71
     3
 72
    11
 73
     7
 74
     0
 42
0.000000001
 43
0.00000001
 40
0.0
 40
0.0
 40
0.0
 40
0.0
 40
0.2811074381184357
 40
0.5611160017532817
 40
0.7809929910720554
 40
0.9999999999999999
 40
0.9999999999999999
 40
0.9999999999999999
 40
0.9999999999999999
 10
227.1337064682033
 20
120.7703047255399
 30
0.0
 10
227.1419221971561
 20
120.7186584758211
 30
0.0
 10
227.1583215390317
 20
120.6155678662601
 30
0.0
 10
227.2225763243327
 20
120.483279618126
 30
0.0
 10
227.3249538823491
 20
120.3883282791477
 30
0.0
 10
227.4070891292701
 20
120.3761328803512
 30
0.0
 10
227.4480753461921
 20
120.3700472681535
 30
0.0
  0
LINE
  5
211
330
1F
100
AcDbEntity
  8
0
  6
Continuous
 62
     7
370
    18
100
AcDbLine
 10
226.9202358243
 20
120.743620895
 30
0.0
 11
227.1337064682
 21
120.7703047255
 31
0.0
  0
SPLINE
  5
212
330
1F
100
AcDbEntity
  8
0
  6
Continuous
 62
     7
370
    18
100
AcDbSpline
210
0.0
220
0.0
230
1.0
 70
     8
 71
     3
 72
    12
 73
     8
 74
     0
 42
0.000000001
 43
0.00000001
 40
0.0
 40
0.0
 40
0.0
 40
0.0
 40
0.1865885886654279
 40
0.3730457041861946
 40
0.5597053661028952
 40
0.7796179230979424
 40
1.0
 40
1.0
 40
1.0
 40
1.0
 10
227.4501600204493
 20
120.1565766242141
 30
0.0
 10
227.395343047183
 20
120.160938472259
 30
0.0
 10
227.2857477255197
 20
120.1696590949244
 30
0.0
 10
227.1400542505954
 20
120.2534754582033
 30
0.0
 10
227.0210070522253
 20
120.381514005251
 30
0.0
 10
226.944066654019
 20
120.5518154742681
 30
0.0
 10
226.9281850794289
 20
120.6796403183123
 30
0.0
 10
226.9202358242638
 20
120.7436208950475
 30
0.0
  0
SPLINE
  5
213
330
1F
100
AcDbEntity
  8
0
  6
Continuous
 62
     7
370
    18
100
AcDbSpline
210
0.0
220
0.0
230
1.0
 70
     8
 71
     3
 72
    13
 73
     9
 74
     0
 42
0.000000001
 43
0.00000001
 40
0.0
 40
0.0
 40
0.0
 40
0.0
 40
0.1868890796518119
 40
0.3736670037034775
 40
0.560359657375309
 40
0.7069433013335603
 40
0.8533827747571292
 40
1.0
 40
1.0
 40
1.0
 40
1.0
 10
228.0142728744532
 20
120.8828771354298
 30
0.0
 10
228.0111792944111
 20
120.8189583166128
 30
0.0
 10
228.0049939742884
 20
120.6911586958319
 30
0.0
 10
227.947830658647
 20
120.5063868201238
 30
0.0
 10
227.8570466461312
 20
120.3516217579905
 30
0.0
 10
227.7391775515371
 20
120.2353620751273
 30
0.0
 10
227.6009934803384
 20
120.1671259187932
 30
0.0
 10
227.5004581667803
 20
120.160094477367
 30
0.0
 10
227.4501600204493
 20
120.1565766242141
 30
0.0
  0
LINE
  5
214
330
1F
100
AcDbEntity
  8
0
  6
Continuous
 62
     7
370
    18
100
AcDbLine
 10
226.0663532485
 20
120.1832604547
 30
0.0
 11
225.8528826046
 21
120.1832604547
 31
0.0
  0
SPLINE
  5
215
330
1F
100
AcDbEntity
  8
0
  6
Continuous
 62
     7
370
    18
100
AcDbSpline
210
0.0
220
0.0
230
1.0
 70
     8
 71
     3
 72
    12
 73
     8
 74
     0
 42
0.000000001
 43
0.00000001
 40
0.0
 40
0.0
 40
0.0
 40
0.0
 40
0.1865994905629251
 40
0.3732882655511085
 40
0.5600123352708871
 40
0.7800196168841564
 40
1.0
 40
1.0
 40
1.0
 40
1.0
 10
226.7067651803245
 20
122.0148552571006
 30
0.0
 10
226.637439362441
 20
121.9139837089286
 30
0.0
 10
226.4987545555448
 20
121.7121923474035
 30
0.0
 10
226.3461845972363
 20
121.377189520223
 30
0.0
 10
226.211780613789
 20
121.012685363883
 30
0.0
 10
226.1075520914702
 20
120.6139876331061
 30
0.0
 10
226.0800856364434
 20
120.3268303290848
 30
0.0
 10
226.0663532485063
 20
120.1832604547066
 30
0.0
  0
LINE
  5
216
330
1F
100
AcDbEntity
  8
0
  6
Continuous
 62
     7
370
    18
100
AcDbLine
 10
226.7067651803
 20
122.2112315721
 30
0.0
 11
226.7067651803
 21
122.0148552571
 31
0.0
  0
LINE
  5
217
330
1F
100
AcDbEntity
  8
0
  6
Continuous
 62
     7
370
    18
100
AcDbLine
 10
225.6127281301
 20
122.2112315721
 30
0.0
 11
226.7067651803
 21
122.2112315721
 31
0.0
  0
LINE
  5
218
330
1F
100
AcDbEntity
  8
0
  6
Continuous
 62
     7
370
    18
100
AcDbLine
 10
225.6127281301
 20
121.9710770977
 30
0.0
 11
225.6127281301
 21
122.2112315721
 31
0.0
  0
LINE
  5
219
330
1F
100
AcDbEntity
  8
0
  6
Continuous
 62
     7
370
    18
100
AcDbLine
 10
226.4932945364
 20
121.9710770977
 30
0.0
 11
225.6127281301
 21
121.9710770977
 31
0.0
  0
SPLINE
  5
21A
330
1F
100
AcDbEntity
  8
0
  6
Continuous
 62
     7
370
    18
100
AcDbSpline
210
0.0
220
0.0
230
1.0
 70
     8
 71
     3
 72
    12
 73
     8
 74
     0
 42
0.000000001
 43
0.00000001
 40
0.0
 40
0.0
 40
0.0
 40
0.0
 40
0.1866068624921612
 40
0.3733314982619477
 40
0.5600576112292274
 40
0.780080087479077
 40
1.0
 40
1.0
 40
1.0
 40
1.0
 10
225.8528826045669
 20
120.1832604547066
 30
0.0
 10
225.8622011631591
 20
120.3028084284277
 30
0.0
 10
225.8808441615698
 20
120.5419798262393
 30
0.0
 10
225.965073272731
 20
120.8926485594177
 30
0.0
 10
226.0848269941213
 20
121.2542365183819
 30
0.0
 10
226.2524779107557
 20
121.6219775366739
 30
0.0
 10
226.4130348047133
 20
121.8547286644403
 30
0.0
 10
226.4932945363851
 20
121.971077097699
 30
0.0
  0
LINE
  5
21B
330
1F
100
AcDbEntity
  8
0
  6
Continuous
 62
     7
370
    18
100
AcDbLine
 10
224.8122132154
 20
121.0371430305
 30
0.0
 11
225.4526251472
 21
121.0371430305
 31
0.0
  0
LINE
  5
21C
330
1F
100
AcDbEntity
  8
0
  6
Continuous
 62
     7
370
    18
100
AcDbLine
 10
224.8122132154
 20
120.796988556
 30
0.0
 11
224.8122132154
 21
121.0371430305
 31
0.0
  0
LINE
  5
21D
330
1F
100
AcDbEntity
  8
0
  6
Continuous
 62
     7
370
    18
100
AcDbLine
 10
225.4526251472
 20
120.796988556
 30
0.0
 11
224.8122132154
 21
120.796988556
 31
0.0
  0
LINE
  5
21E
330
1F
100
AcDbEntity
  8
0
  6
Continuous
 62
     7
370
    18
100
AcDbLine
 10
225.4526251472
 20
121.0371430305
 30
0.0
 11
225.4526251472
 21
120.796988556
 31
0.0
  0
SPLINE
  5
21F
330
1F
100
AcDbEntity
  8
0
  6
Continuous
 62
     7
370
    18
100
AcDbSpline
210
0.0
220
0.0
230
1.0
 70
     8
 71
     3
 72
    12
 73
     8
 74
     0
 42
0.000000001
 43
0.00000001
 40
0.0
 40
0.0
 40
0.0
 40
0.0
 40
0.1871057595240115
 40
0.374021160407892
 40
0.5608338669252977
 40
0.7803585126596481
 40
1.0
 40
1.0
 40
1.0
 40
1.0
 10
224.6254264019153
 20
120.7798942271231
 30
0.0
 10
224.6224772935917
 20
120.7222006771144
 30
0.0
 10
224.6165820773237
 20
120.6068722736639
 30
0.0
 10
224.5570817521798
 20
120.4414499126732
 30
0.0
 10
224.4471675293553
 20
120.293954263374
 30
0.0
 10
224.2844744531003
 20
120.1767424662359
 30
0.0
 10
224.1479427135241
 20
120.1632997637132
 30
0.0
 10
224.079658681375
 20
120.1565766242141
 30
0.0
  0
SPLINE
  5
220
330
1F
100
AcDbEntity
  8
0
  6
Continuous
 62
     7
370
    18
100
AcDbSpline
210
0.0
220
0.0
230
1.0
 70
     8
 71
     3
 72
    11
 73
     7
 74
     0
 42
0.000000001
 43
0.00000001
 40
0.0
 40
0.0
 40
0.0
 40
0.0
 40
0.2796220600248635
 40
0.5590245428560682
 40
0.779384731726156
 40
1.0
 40
1.0
 40
1.0
 40
1.0
 10
224.2981325435317
 20
121.3106522930115
 30
0.0
 10
224.3543990721462
 20
121.2828170070634
 30
0.0
 10
224.4668879452846
 20
121.2271682932207
 30
0.0
 10
224.570657634682
 20
121.0807463916573
 30
0.0
 10
224.6185916812134
 20
120.9268699208273
 30
0.0
 10
224.6231472832952
 20
120.8289050140803
 30
0.0
 10
224.6254264019153
 20
120.7798942271231
 30
0.0
  0
SPLINE
  5
221
330
1F
100
AcDbEntity
  8
0
  6
Continuous
 62
     7
370
    18
100
AcDbSpline
210
0.0
220
0.0
230
1.0
 70
     8
 71
     3
 72
    11
 73
     7
 74
     0
 42
0.000000001
 43
0.00000001
 40
0.0
 40
0.0
 40
0.0
 40
0.0
 40
0.2801901752489541
 40
0.559731767241879
 40
0.7798035967389139
 40
1.0
 40
1.0
 40
1.0
 40
1.0
 10
224.5453749104381
 20
121.725085535347
 30
0.0
 10
224.542730887187
 20
121.677087541219
 30
0.0
 10
224.5374489610607
 20
121.5812026585553
 30
0.0
 10
224.4823168964174
 20
121.4565053009938
 30
0.0
 10
224.3979407485012
 20
121.3642732191336
 30
0.0
 10
224.3314082203078
 20
121.3285293062953
 30
0.0
 10
224.2981325435317
 20
121.3106522930115
 30
0.0
  0
SPLINE
  5
222
330
1F
100
AcDbEntity
  8
0
  6
Continuous
 62
     7
370
    18
100
AcDbSpline
210
0.0
220
0.0
230
1.0
 70
     8
 71
     3
 72
    12
 73
     8
 74
     0
 42
0.000000001
 43
0.00000001
 40
0.0
 40
0.0
 40
0.0
 40
0.0
 40
0.1866818949369839
 40
0.3730939207975807
 40
0.559844572963694
 40
0.7796788980924658
 40
0.9999999999999999
 40
0.9999999999999999
 40
0.9999999999999999
 40
0.9999999999999999
 10
224.0763232025634
 20
122.2645992331157
 30
0.0
 10
224.1262735239347
 20
122.2605637675754
 30
0.0
 10
224.2261019580299
 20
122.2524986702012
 30
0.0
 10
224.3587327672872
 20
122.1753776194991
 30
0.0
 10
224.4648562990907
 20
122.0569742774256
 30
0.0
 10
224.5353452306689
 20
121.9013566004501
 30
0.0
 10
224.5420292198621
 20
121.7838858614691
 30
0.0
 10
224.5453749104381
 20
121.725085535347
 30
0.0
  0
SPLINE
  5
223
330
1F
100
AcDbEntity
  8
0
  6
Continuous
 62
     7
370
    18
100
AcDbSpline
210
0.0
220
0.0
230
1.0
 70
     8
 71
     3
 72
    12
 73
     8
 74
     0
 42
0.000000001
 43
0.00000001
 40
0.0
 40
0.0
 40
0.0
 40
0.0
 40
0.1871377587295348
 40
0.3740411921344247
 40
0.5608494686677246
 40
0.7803659435040499
 40
1.0
 40
1.0
 40
1.0
 40
1.0
 10
223.6114408432032
 20
121.7334242323759
 30
0.0
 10
223.6139899404386
 20
121.7826239861681
 30
0.0
 10
223.6190849430467
 20
121.8809618880757
 30
0.0
 10
223.6692186667291
 20
122.0221416219449
 30
0.0
 10
223.7622758027179
 20
122.1485794221459
 30
0.0
 10
223.9017618876462
 20
122.2475764745565
 30
0.0
 10
224.0181257121988
 20
122.2589239675066
 30
0.0
 10
224.0763232025634
 20
122.2645992331157
 30
0.0
  0
SPLINE
  5
224
330
1F
100
AcDbEntity
  8
0
  6
Continuous
 62
     7
370
    18
100
AcDbSpline
210
0.0
220
0.0
230
1.0
 70
     8
 71
     3
 72
    11
 73
     7
 74
     0
 42
0.000000001
 43
0.00000001
 40
0.0
 40
0.0
 40
0.0
 40
0.0
 40
0.2798399979573784
 40
0.5592260384591652
 40
0.7795665615265429
 40
1.0
 40
1.0
 40
1.0
 40
1.0
 10
223.8611848192183
 20
121.3106522930115
 30
0.0
 10
223.8182423564739
 20
121.3345098428881
 30
0.0
 10
223.7324270924032
 20
121.3821862408377
 30
0.0
 10
223.6528505122232
 20
121.4974678574062
 30
0.0
 10
223.6161583795665
 20
121.6183208538832
 30
0.0
 10
223.6130135762997
 20
121.6950510479552
 30
0.0
 10
223.6114408432032
 20
121.7334242323759
 30
0.0
  0
SPLINE
  5
225
330
1F
100
AcDbEntity
  8
0
  6
Continuous
 62
     7
370
    18
100
AcDbSpline
210
0.0
220
0.0
230
1.0
 70
     8
 71
     3
 72
    11
 73
     7
 74
     0
 42
0.000000001
 43
0.00000001
 40
0.0
 40
0.0
 40
0.0
 40
0.0
 40
0.2804755498465821
 40
0.5600957930369852
 40
0.7800256682201208
 40
1.0
 40
1.0
 40
1.0
 40
1.0
 10
223.5313893517259
 20
120.7869821195977
 30
0.0
 10
223.5347157446729
 20
120.849368552019
 30
0.0
 10
223.5413583867735
 20
120.9739511702218
 30
0.0
 10
223.6125980116543
 20
121.1357848788157
 30
0.0
 10
223.7243896925878
 20
121.2552087300402
 30
0.0
 10
223.8155833716721
 20
121.2921698602606
 30
0.0
 10
223.8611848192183
 20
121.3106522930115
 30
0.0
  0
SPLINE
  5
226
330
1F
100
AcDbEntity
  8
0
  6
Continuous
 62
     7
370
    18
100
AcDbSpline
210
0.0
220
0.0
230
1.0
 70
     8
 71
     3
 72
    12
 73
     8
 74
     0
 42
0.000000001
 43
0.00000001
 40
0.0
 40
0.0
 40
0.0
 40
0.0
 40
0.1866482491791758
 40
0.3730988090506968
 40
0.5597919176482326
 40
0.7796545203293551
 40
1.0
 40
1.0
 40
1.0
 40
1.0
 10
224.079658681375
 20
120.1565766242141
 30
0.0
 10
224.0212469938421
 20
120.1613370269094
 30
0.0
 10
223.9044854857701
 20
120.1708527902988
 30
0.0
 10
223.7491098130359
 20
120.2602746124523
 30
0.0
 10
223.6235721909966
 20
120.3978443139549
 30
0.0
 10
223.5430399876364
 20
120.5808958965553
 30
0.0
 10
223.5352757359736
 20
120.718236494291
 30
0.0
 10
223.5313893517259
 20
120.7869821195977
 30
0.0
  0
SPLINE
  5
227
330
1F
100
AcDbEntity
  8
0
  6
Continuous
 62
     7
370
    18
100
AcDbSpline
210
0.0
220
0.0
230
1.0
 70
     8
 71
     3
 72
    10
 73
     6
 74
     0
 42
0.000000001
 43
0.00000001
 40
0.0
 40
0.0
 40
0.0
 40
0.0
 40
0.2795751783825429
 40
0.5597049368157178
 40
0.9999999999999999
 40
0.9999999999999999
 40
0.9999999999999999
 40
0.9999999999999999
 10
223.150310897506
 20
122.0477931103647
 30
0.0
 10
223.1861894384115
 20
121.9752899628977
 30
0.0
 10
223.2580176907861
 20
121.8301398469012
 30
0.0
 10
223.30761581409
 20
121.5436181869153
 30
0.0
 10
223.3140105183168
 20
121.3363985054275
 30
0.0
 10
223.3179187077866
 20
121.209754058962
 30
0.0
  0
SPLINE
  5
228
330
1F
100
AcDbEntity
  8
0
  6
Continuous
 62
     7
370
    18
100
AcDbSpline
210
0.0
220
0.0
230
1.0
 70
     8
 71
     3
 72
    11
 73
     7
 74
     0
 42
0.000000001
 43
0.00000001
 40
0.0
 40
0.0
 40
0.0
 40
0.0
 40
0.2798903849624014
 40
0.5594964420644593
 40
0.779671896517385
 40
0.9999999999999999
 40
0.9999999999999999
 40
0.9999999999999999
 40
0.9999999999999999
 10
222.7721509872462
 20
122.2645992331157
 30
0.0
 10
222.8149079289667
 20
122.2617467148438
 30
0.0
 10
222.9003783775832
 20
122.256044576043
 30
0.0
 10
223.0091486326861
 20
122.2024194941136
 30
0.0
 10
223.0926689581988
 20
122.1303801260287
 30
0.0
 10
223.1310924793973
 20
122.0753284746578
 30
0.0
 10
223.150310897506
 20
122.0477931103647
 30
0.0
  0
SPLINE
  5
229
330
1F
100
AcDbEntity
  8
0
  6
Continuous
 62
     7
370
    18
100
AcDbSpline
210
0.0
220
0.0
230
1.0
 70
     8
 71
     3
 72
    13
 73
     9
 74
     0
 42
0.000000001
 43
0.00000001
 40
0.0
 40
0.0
 40
0.0
 40
0.0
 40
0.2504890583456495
 40
0.5006738274425608
 40
0.6258446378555206
 40
0.7507584155659023
 40
0.8753007099299301
 40
0.9999999999999999
 40
0.9999999999999999
 40
0.9999999999999999
 40
0.9999999999999999
 10
222.2238816575972
 20
121.209754058962
 30
0.0
 10
222.2266002722123
 20
121.3199942563198
 30
0.0
 10
222.2320341989222
 20
121.5403407333821
 30
0.0
 10
222.2820875709638
 20
121.8137681689294
 30
0.0
 10
222.367023096341
 20
122.0182257032146
 30
0.0
 10
222.46401117203
 20
122.1537383242937
 30
0.0
 10
222.6059668351136
 20
122.2498376063821
 30
0.0
 10
222.7167330128958
 20
122.2596766250258
 30
0.0
 10
222.7721509872462
 20
122.2645992331157
 30
0.0
  0
SPLINE
  5
22A
330
1F
100
AcDbEntity
  8
0
  6
Continuous
 62
     7
370
    18
100
AcDbSpline
210
0.0
220
0.0
230
1.0
 70
     8
 71
     3
 72
    13
 73
     9
 74
     0
 42
0.000000001
 43
0.00000001
 40
0.0
 40
0.0
 40
0.0
 40
0.0
 40
0.1245870753534851
 40
0.2492227148385391
 40
0.3742192396120926
 40
0.4992998133209628
 40
0.7494812006579983
 40
1.0
 40
1.0
 40
1.0
 40
1.0
 10
222.7696493781375
 20
120.1565766242141
 30
0.0
 10
222.7143857348487
 20
120.1622133204912
 30
0.0
 10
222.6038369064632
 20
120.1734889102336
 30
0.0
 10
222.4650479502405
 20
120.2721219230699
 30
0.0
 10
222.3620088415574
 20
120.4021262596299
 30
0.0
 10
222.275984956389
 20
120.6064722106835
 30
0.0
 10
222.2308140697698
 20
120.8799743898693
 30
0.0
 10
222.2261934995585
 20
121.0997781287927
 30
0.0
 10
222.2238816575972
 20
121.209754058962
 30
0.0
  0
SPLINE
  5
22B
330
1F
100
AcDbEntity
  8
0
  6
Continuous
 62
     7
370
    18
100
AcDbSpline
210
0.0
220
0.0
230
1.0
 70
     8
 71
     3
 72
    13
 73
     9
 74
     0
 42
0.000000001
 43
0.00000001
 40
0.0
 40
0.0
 40
0.0
 40
0.0
 40
0.2504702058475082
 40
0.5006494994159215
 40
0.6258027062132812
 40
0.7507410958263517
 40
0.8752785399750089
 40
1.0
 40
1.0
 40
1.0
 40
1.0
 10
223.3179187077866
 20
121.209754058962
 30
0.0
 10
223.3152052125315
 20
121.0996216034105
 30
0.0
 10
223.30978137365
 20
120.8794846072565
 30
0.0
 10
223.2590115159258
 20
120.6065540070205
 30
0.0
 10
223.1746597684902
 20
120.4021298945692
 30
0.0
 10
223.0777770085338
 20
120.2666750658369
 30
0.0
 10
222.9357003916649
 20
120.1709968010351
 30
0.0
 10
222.8250269509418
 20
120.1613857149555
 30
0.0
 10
222.7696493781375
 20
120.1565766242141
 30
0.0
  0
SPLINE
  5
22C
330
1F
100
AcDbEntity
  8
0
  6
Continuous
 62
     7
370
    18
100
AcDbSpline
210
0.0
220
0.0
230
1.0
 70
     8
 71
     3
 72
    12
 73
     8
 74
     0
 42
0.000000001
 43
0.00000001
 40
0.0
 40
0.0
 40
0.0
 40
0.0
 40
0.1861323399318234
 40
0.3726108819815594
 40
0.5594136204052358
 40
0.7795030968206016
 40
1.0
 40
1.0
 40
1.0
 40
1.0
 10
221.5092553222219
 20
121.5441358098202
 30
0.0
 10
221.566897637157
 20
121.5374499094373
 30
0.0
 10
221.6822894804835
 20
121.5240656730418
 30
0.0
 10
221.8244352053122
 20
121.4169540288783
 30
0.0
 10
221.9356052241164
 20
121.2713927110655
 30
0.0
 10
222.0014021238973
 20
121.0860681005675
 30
0.0
 10
222.0074061996729
 20
120.9506491994561
 30
0.0
 10
222.0104110136578
 20
120.8828771354298
 30
0.0
  0
SPLINE
  5
22D
330
1F
100
AcDbEntity
  8
0
  6
Continuous
 62
     7
370
    18
100
AcDbSpline
210
0.0
220
0.0
230
1.0
 70
     8
 71
     3
 72
     9
 73
     5
 74
     0
 42
0.000000001
 43
0.00000001
 40
0.0
 40
0.0
 40
0.0
 40
0.0
 40
0.5597945537684182
 40
1.0
 40
1.0
 40
1.0
 40
1.0
 10
221.2048928806677
 20
121.4636673834915
 30
0.0
 10
221.2590136867081
 20
121.489475388637
 30
0.0
 10
221.3556934519472
 20
121.535578025706
 30
0.0
 10
221.4623184273468
 20
121.5415200835815
 30
0.0
 10
221.5092553222219
 20
121.5441358098202
 30
0.0
  0
LINE
  5
22E
330
1F
100
AcDbEntity
  8
0
  6
Continuous
 62
     7
370
    18
100
AcDbLine
 10
221.2820258282
 20
121.9710770977
 30
0.0
 11
221.2048928807
 21
121.4636673835
 31
0.0
  0
LINE
  5
22F
330
1F
100
AcDbEntity
  8
0
  6
Continuous
 62
     7
370
    18
100
AcDbLine
 10
221.9303595222
 20
121.9710770977
 30
0.0
 11
221.2820258282
 21
121.9710770977
 31
0.0
  0
LINE
  5
230
330
1F
100
AcDbEntity
  8
0
  6
Continuous
 62
     7
370
    18
100
AcDbLine
 10
221.9303595222
 20
122.2112315721
 30
0.0
 11
221.9303595222
 21
121.9710770977
 31
0.0
  0
LINE
  5
231
330
1F
100
AcDbEntity
  8
0
  6
Continuous
 62
     7
370
    18
100
AcDbLine
 10
221.1031607769
 20
122.2112315721
 30
0.0
 11
221.9303595222
 21
122.2112315721
 31
0.0
  0
LINE
  5
232
330
1F
100
AcDbEntity
  8
0
  6
Continuous
 62
     7
370
    18
100
AcDbLine
 10
220.943057794
 20
121.1584710722
 30
0.0
 11
221.1031607769
 21
122.2112315721
 31
0.0
  0
LINE
  5
233
330
1F
100
AcDbEntity
  8
0
  6
Continuous
 62
     7
370
    18
100
AcDbLine
 10
221.1565284379
 20
121.1280348281
 30
0.0
 11
220.943057794
 21
121.1584710722
 31
0.0
  0
SPLINE
  5
234
330
1F
100
AcDbEntity
  8
0
  6
Continuous
 62
     7
370
    18
100
AcDbSpline
210
0.0
220
0.0
230
1.0
 70
     8
 71
     3
 72
    10
 73
     6
 74
     0
 42
0.000000001
 43
0.00000001
 40
0.0
 40
0.0
 40
0.0
 40
0.0
 40
0.2801682771676812
 40
0.5607715634932493
 40
1.0
 40
1.0
 40
1.0
 40
1.0
 10
221.4496336384654
 20
121.3306651658808
 30
0.0
 10
221.4146456252278
 20
121.3267981980308
 30
0.0
 10
221.3446152738791
 20
121.3190582582019
 30
0.0
 10
221.233770761322
 20
121.2524037158486
 30
0.0
 10
221.1857995889059
 20
121.1751646959163
 30
0.0
 10
221.1565284379002
 20
121.128034828079
 30
0.0
  0
SPLINE
  5
235
330
1F
100
AcDbEntity
  8
0
  6
Continuous
 62
     7
370
    18
100
AcDbSpline
210
0.0
220
0.0
230
1.0
 70
     8
 71
     3
 72
    11
 73
     7
 74
     0
 42
0.000000001
 43
0.00000001
 40
0.0
 40
0.0
 40
0.0
 40
0.0
 40
0.2810318196216977
 40
0.5605860755662303
 40
0.780388975294895
 40
1.0
 40
1.0
 40
1.0
 40
1.0
 10
221.7969403697184
 20
120.8712029595894
 30
0.0
 10
221.7940838765529
 20
120.9317547077185
 30
0.0
 10
221.78838590863
 20
121.0525398447826
 30
0.0
 10
221.7143440613889
 20
121.2076411382341
 30
0.0
 10
221.5926520051078
 20
121.3137501147146
 30
0.0
 10
221.4972925474203
 20
121.325028457097
 30
0.0
 10
221.4496336384654
 20
121.3306651658808
 30
0.0
  0
SPLINE
  5
236
330
1F
100
AcDbEntity
  8
0
  6
Continuous
 62
     7
370
    18
100
AcDbSpline
210
0.0
220
0.0
230
1.0
 70
     8
 71
     3
 72
    12
 73
     8
 74
     0
 42
0.000000001
 43
0.00000001
 40
0.0
 40
0.0
 40
0.0
 40
0.0
 40
0.1858835197478792
 40
0.372301851349963
 40
0.5590684864252741
 40
0.7793243380015259
 40
1.0
 40
1.0
 40
1.0
 40
1.0
 10
221.4442134853966
 20
120.3700472681535
 30
0.0
 10
221.4867147885798
 20
120.3755692586401
 30
0.0
 10
221.5718396769041
 20
120.3866291271216
 30
0.0
 10
221.6726275092214
 20
120.4715176540049
 30
0.0
 10
221.7485181386676
 20
120.5830892082242
 30
0.0
 10
221.7908643886382
 20
120.7214024800974
 30
0.0
 10
221.7949137575584
 20
120.821237782064
 30
0.0
 10
221.7969403697184
 20
120.8712029595894
 30
0.0
  0
SPLINE
  5
237
330
1F
100
AcDbEntity
  8
0
  6
Continuous
 62
     7
370
    18
100
AcDbSpline
210
0.0
220
0.0
230
1.0
 70
     8
 71
     3
 72
    11
 73
     7
 74
     0
 42
0.000000001
 43
0.00000001
 40
0.0
 40
0.0
 40
0.0
 40
0.0
 40
0.2811074381184333
 40
0.561116001753277
 40
0.780992991072053
 40
1.0
 40
1.0
 40
1.0
 40
1.0
 10
221.1298446074078
 20
120.7703047255399
 30
0.0
 10
221.1380603363606
 20
120.7186584758211
 30
0.0
 10
221.1544596782363
 20
120.6155678662601
 30
0.0
 10
221.2187144635372
 20
120.483279618126
 30
0.0
 10
221.3210920215537
 20
120.3883282791477
 30
0.0
 10
221.4032272684747
 20
120.3761328803512
 30
0.0
 10
221.4442134853966
 20
120.3700472681535
 30
0.0
  0
LINE
  5
238
330
1F
100
AcDbEntity
  8
0
  6
Continuous
 62
     7
370
    18
100
AcDbLine
 10
220.9163739635
 20
120.743620895
 30
0.0
 11
221.1298446074
 21
120.7703047255
 31
0.0
  0
SPLINE
  5
239
330
1F
100
AcDbEntity
  8
0
  6
Continuous
 62
     7
370
    18
100
AcDbSpline
210
0.0
220
0.0
230
1.0
 70
     8
 71
     3
 72
    12
 73
     8
 74
     0
 42
0.000000001
 43
0.00000001
 40
0.0
 40
0.0
 40
0.0
 40
0.0
 40
0.1865885886654279
 40
0.3730457041861946
 40
0.5597053661028952
 40
0.7796179230979424
 40
1.0
 40
1.0
 40
1.0
 40
1.0
 10
221.4462981596538
 20
120.1565766242141
 30
0.0
 10
221.3914811863876
 20
120.160938472259
 30
0.0
 10
221.2818858647242
 20
120.1696590949244
 30
0.0
 10
221.1361923898
 20
120.2534754582033
 30
0.0
 10
221.0171451914299
 20
120.381514005251
 30
0.0
 10
220.9402047932236
 20
120.5518154742681
 30
0.0
 10
220.9243232186334
 20
120.6796403183123
 30
0.0
 10
220.9163739634684
 20
120.7436208950475
 30
0.0
  0
SPLINE
  5
23A
330
1F
100
AcDbEntity
  8
0
  6
Continuous
 62
     7
370
    18
100
AcDbSpline
210
0.0
220
0.0
230
1.0
 70
     8
 71
     3
 72
    13
 73
     9
 74
     0
 42
0.000000001
 43
0.00000001
 40
0.0
 40
0.0
 40
0.0
 40
0.0
 40
0.1868890796518115
 40
0.3736670037034779
 40
0.5603596573753064
 40
0.7069433013335574
 40
0.8533827747571261
 40
1.0
 40
1.0
 40
1.0
 40
1.0
 10
222.0104110136578
 20
120.8828771354298
 30
0.0
 10
222.0073174336156
 20
120.8189583166129
 30
0.0
 10
222.0011321134929
 20
120.6911586958319
 30
0.0
 10
221.9439687978516
 20
120.5063868201238
 30
0.0
 10
221.8531847853358
 20
120.3516217579905
 30
0.0
 10
221.7353156907417
 20
120.2353620751273
 30
0.0
 10
221.5971316195429
 20
120.1671259187932
 30
0.0
 10
221.4965963059849
 20
120.160094477367
 30
0.0
 10
221.4462981596538
 20
120.1565766242141
 30
0.0
  0
LINE
  5
23B
330
1F
100
AcDbEntity
  8
0
  6
Continuous
 62
     7
370
    18
100
AcDbLine
 10
219.7243572232
 20
120.1832604547
 30
0.0
 11
219.2352926424
 21
121.9764972508
 31
0.0
  0
LINE
  5
23C
330
1F
100
AcDbEntity
  8
0
  6
Continuous
 62
     7
370
    18
100
AcDbLine
 10
219.9428310853
 20
120.1832604547
 30
0.0
 11
219.7243572232
 21
120.1832604547
 31
0.0
  0
LINE
  5
23D
330
1F
100
AcDbEntity
  8
0
  6
Continuous
 62
     7
370
    18
100
AcDbLine
 10
220.4360650146
 20
121.8793514304
 30
0.0
 11
219.9428310853
 21
120.1832604547
 31
0.0
  0
LINE
  5
23E
330
1F
100
AcDbEntity
  8
0
  6
Continuous
 62
     7
370
    18
100
AcDbLine
 10
220.4360650146
 20
120.1832604547
 30
0.0
 11
220.4360650146
 21
121.8793514304
 31
0.0
  0
LINE
  5
23F
330
1F
100
AcDbEntity
  8
0
  6
Continuous
 62
     7
370
    18
100
AcDbLine
 10
220.6495356585
 20
120.1832604547
 30
0.0
 11
220.4360650146
 21
120.1832604547
 31
0.0
  0
LINE
  5
240
330
1F
100
AcDbEntity
  8
0
  6
Continuous
 62
     7
370
    18
100
AcDbLine
 10
220.6495356585
 20
122.2379154026
 30
0.0
 11
220.6495356585
 21
120.1832604547
 31
0.0
  0
LINE
  5
241
330
1F
100
AcDbEntity
  8
0
  6
Continuous
 62
     7
370
    18
100
AcDbLine
 10
220.3472578912
 20
122.2379154026
 30
0.0
 11
220.6495356585
 21
122.2379154026
 31
0.0
  0
LINE
  5
242
330
1F
100
AcDbEntity
  8
0
  6
Continuous
 62
     7
370
    18
100
AcDbLine
 10
219.9286553004
 20
120.808245797
 30
0.0
 11
220.3472578912
 21
122.2379154026
 31
0.0
  0
SPLINE
  5
243
330
1F
100
AcDbEntity
  8
0
  6
Continuous
 62
     7
370
    18
100
AcDbSpline
210
0.0
220
0.0
230
1.0
 70
     8
 71
     3
 72
     9
 73
     5
 74
     0
 42
0.000000001
 43
0.00000001
 40
0.0
 40
0.0
 40
0.0
 40
0.0
 40
0.5599947003108211
 40
1.0
 40
1.0
 40
1.0
 40
1.0
 10
219.8356788285252
 20
120.4788672643805
 30
0.0
 10
219.8526087348432
 20
120.5404710604093
 30
0.0
 10
219.8828409965209
 20
120.6504788801167
 30
0.0
 10
219.9146563682325
 20
120.7600388358604
 30
0.0
 10
219.9286553003972
 20
120.8082457970213
 30
0.0
  0
LINE
  5
244
330
1F
100
AcDbEntity
  8
0
  6
Continuous
 62
     7
370
    18
100
AcDbLine
 10
219.755627337
 20
120.7832297059
 30
0.0
 11
219.8356788285
 21
120.4788672644
 31
0.0
  0
LINE
  5
245
330
1F
100
AcDbEntity
  8
0
  6
Continuous
 62
     7
370
    18
100
AcDbLine
 10
219.3557868145
 20
122.2379154026
 30
0.0
 11
219.755627337
 21
120.7832297059
 31
0.0
  0
LINE
  5
246
330
1F
100
AcDbEntity
  8
0
  6
Continuous
 62
     7
370
    18
100
AcDbLine
 10
219.0218219985
 20
122.2379154026
 30
0.0
 11
219.3557868145
 21
122.2379154026
 31
0.0
  0
LINE
  5
247
330
1F
100
AcDbEntity
  8
0
  6
Continuous
 62
     7
370
    18
100
AcDbLine
 10
219.0218219985
 20
120.1832604547
 30
0.0
 11
219.0218219985
 21
122.2379154026
 31
0.0
  0
LINE
  5
248
330
1F
100
AcDbEntity
  8
0
  6
Continuous
 62
     7
370
    18
100
AcDbLine
 10
219.2352926424
 20
120.1832604547
 30
0.0
 11
219.0218219985
 21
120.1832604547
 31
0.0
  0
LINE
  5
249
330
1F
100
AcDbEntity
  8
0
  6
Continuous
 62
     7
370
    18
100
AcDbLine
 10
219.2352926424
 20
121.9764972508
 30
0.0
 11
219.2352926424
 21
120.1832604547
 31
0.0
  0
SPLINE
  5
24A
330
1F
100
AcDbEntity
  8
0
  6
Continuous
 62
     7
370
    18
100
AcDbSpline
210
0.0
220
0.0
230
1.0
 70
     8
 71
     3
 72
    14
 73
    10
 74
     0
 42
0.000000001
 43
0.00000001
 40
0.0
 40
0.0
 40
0.0
 40
0.0
 40
0.1250267645254259
 40
0.2499561862380697
 40
0.3747506313882857
 40
0.4996959194189216
 40
0.666317705047259
 40
0.8330998507676252
 40
1.0
 40
1.0
 40
1.0
 40
1.0
 10
218.0374388142467
 20
122.0244447586838
 30
0.0
 10
217.9914112260332
 20
122.0216284283741
 30
0.0
 10
217.8993918855723
 20
122.0159979604811
 30
0.0
 10
217.7693041758773
 20
121.9635396614246
 30
0.0
 10
217.6614500341543
 20
121.8750096491282
 30
0.0
 10
217.5746462307042
 20
121.7474522888011
 30
0.0
 10
217.5119314945762
 20
121.5899015120332
 30
0.0
 10
217.4789405775005
 20
121.4081826879218
 30
0.0
 10
217.475753788123
 20
121.2856398605103
 30
0.0
 10
217.4741598299456
 20
121.2243467787626
 30
0.0
  0
SPLINE
  5
24B
330
1F
100
AcDbEntity
  8
0
  6
Continuous
 62
     7
370
    18
100
AcDbSpline
210
0.0
220
0.0
230
1.0
 70
     8
 71
     3
 72
    11
 73
     7
 74
     0
 42
0.000000001
 43
0.00000001
 40
0.0
 40
0.0
 40
0.0
 40
0.0
 40
0.2807713074051742
 40
0.5604369820882218
 40
0.7800147849953729
 40
0.9999999999999999
 40
0.9999999999999999
 40
0.9999999999999999
 40
0.9999999999999999
 10
218.4881453886578
 20
121.5975034708051
 30
0.0
 10
218.4695519638116
 20
121.6578924531214
 30
0.0
 10
218.4324383320671
 20
121.7784326155529
 30
0.0
 10
218.3287670043201
 20
121.9246995180139
 30
0.0
 10
218.1866163288109
 20
122.0124740348333
 30
0.0
 10
218.0871953687752
 20
122.0204520525729
 30
0.0
 10
218.0374388142467
 20
122.0244447586838
 30
0.0
  0
LINE
  5
24C
330
1F
100
AcDbEntity
  8
0
  6
Continuous
 62
     7
370
    18
100
AcDbLine
 10
218.7016160326
 20
121.6508711318
 30
0.0
 11
218.4881453887
 21
121.5975034708
 31
0.0
  0
SPLINE
  5
24D
330
1F
100
AcDbEntity
  8
0
  6
Continuous
 62
     7
370
    18
100
AcDbSpline
210
0.0
220
0.0
230
1.0
 70
     8
 71
     3
 72
    12
 73
     8
 74
     0
 42
0.000000001
 43
0.00000001
 40
0.0
 40
0.0
 40
0.0
 40
0.0
 40
0.1866161660947007
 40
0.3730652985771161
 40
0.5597027812570781
 40
0.7796715026895121
 40
1.0
 40
1.0
 40
1.0
 40
1.0
 10
218.046194446127
 20
122.2645992331157
 30
0.0
 10
218.1071546711481
 20
122.2601414198772
 30
0.0
 10
218.2290205578219
 20
122.2512297834333
 30
0.0
 10
218.3966929682875
 20
122.1698447921145
 30
0.0
 10
218.5396614563048
 20
122.0373203646978
 30
0.0
 10
218.6444508101247
 20
121.8584597327809
 30
0.0
 10
218.6825505810719
 20
121.720105016278
 30
0.0
 10
218.7016160325972
 20
121.6508711317899
 30
0.0
  0
SPLINE
  5
24E
330
1F
100
AcDbEntity
  8
0
  6
Continuous
 62
     7
370
    18
100
AcDbSpline
210
0.0
220
0.0
230
1.0
 70
     8
 71
     3
 72
    13
 73
     9
 74
     0
 42
0.000000001
 43
0.00000001
 40
0.0
 40
0.0
 40
0.0
 40
0.0
 40
0.1869886270143202
 40
0.3737840604657691
 40
0.5603785113196412
 40
0.706940528050867
 40
0.8534458164057708
 40
1.0
 40
1.0
 40
1.0
 40
1.0
 10
217.2606891860063
 20
121.2243467787626
 30
0.0
 10
217.2639164433498
 20
121.3154035854399
 30
0.0
 10
217.2703676236878
 20
121.4974231204051
 30
0.0
 10
217.339516578128
 20
121.7635647728059
 30
0.0
 10
217.4636107257651
 20
121.9885364157498
 30
0.0
 10
217.6356056150386
 20
122.1500422959821
 30
0.0
 10
217.8314550250905
 20
122.2478035997359
 30
0.0
 10
217.9746066777794
 20
122.2590000659677
 30
0.0
 10
218.046194446127
 20
122.2645992331157
 30
0.0
  0
SPLINE
  5
24F
330
1F
100
AcDbEntity
  8
0
  6
Continuous
 62
     7
370
    18
100
AcDbSpline
210
0.0
220
0.0
230
1.0
 70
     8
 71
     3
 72
    14
 73
    10
 74
     0
 42
0.000000001
 43
0.00000001
 40
0.0
 40
0.0
 40
0.0
 40
0.0
 40
0.1249789553015501
 40
0.2498098163504263
 40
0.3745823232578671
 40
0.4995715195159083
 40
0.6662781166416181
 40
0.8331039635850082
 40
0.9999999999999999
 40
0.9999999999999999
 40
0.9999999999999999
 40
0.9999999999999999
 10
218.0270154429606
 20
120.1565766242142
 30
0.0
 10
217.9653712091433
 20
120.160064760251
 30
0.0
 10
217.8421557870603
 20
120.1670368990455
 30
0.0
 10
217.6674612760868
 20
120.2362379292744
 30
0.0
 10
217.5232344311478
 20
120.3553303643562
 30
0.0
 10
217.407572954646
 20
120.5265013812607
 30
0.0
 10
217.3197867380129
 20
120.7356675799616
 30
0.0
 10
217.2683909594845
 20
120.9779653245778
 30
0.0
 10
217.2632568037764
 20
121.1422081126752
 30
0.0
 10
217.2606891860063
 20
121.2243467787626
 30
0.0
  0
SPLINE
  5
250
330
1F
100
AcDbEntity
  8
0
  6
Continuous
 62
     7
370
    18
100
AcDbSpline
210
0.0
220
0.0
230
1.0
 70
     8
 71
     3
 72
    13
 73
     9
 74
     0
 42
0.000000001
 43
0.00000001
 40
0.0
 40
0.0
 40
0.0
 40
0.0
 40
0.1869090516643047
 40
0.3736796016941277
 40
0.5601136847103851
 40
0.706731195918376
 40
0.8533138294591288
 40
1.0
 40
1.0
 40
1.0
 40
1.0
 10
218.7282998630896
 20
120.8503562170172
 30
0.0
 10
218.7124459873045
 20
120.7850280640444
 30
0.0
 10
218.6807499836282
 20
120.6544201669689
 30
0.0
 10
218.5956869862094
 20
120.4704249806289
 30
0.0
 10
218.4780088216927
 20
120.322105685155
 30
0.0
 10
218.3355992338976
 20
120.2222540800681
 30
0.0
 10
218.185448796964
 20
120.1657493619164
 30
0.0
 10
218.0798389892897
 20
120.159634923005
 30
0.0
 10
218.0270154429606
 20
120.1565766242141
 30
0.0
  0
LINE
  5
251
330
1F
100
AcDbEntity
  8
0
  6
Continuous
 62
     7
370
    18
100
AcDbLine
 10
218.5148292192
 20
120.903723878
 30
0.0
 11
218.7282998631
 21
120.850356217
 31
0.0
  0
SPLINE
  5
252
330
1F
100
AcDbEntity
  8
0
  6
Continuous
 62
     7
370
    18
100
AcDbSpline
210
0.0
220
0.0
230
1.0
 70
     8
 71
     3
 72
    12
 73
     8
 74
     0
 42
0.000000001
 43
0.00000001
 40
0.0
 40
0.0
 40
0.0
 40
0.0
 40
0.1865921528409338
 40
0.3730589116156839
 40
0.5596226295490502
 40
0.7796100104163917
 40
1.0
 40
1.0
 40
1.0
 40
1.0
 10
218.0203444853375
 20
120.396731098646
 30
0.0
 10
218.0688386406382
 20
120.4005207498956
 30
0.0
 10
218.1657943620915
 20
120.4080975056653
 30
0.0
 10
218.2964255393675
 20
120.4786787524738
 30
0.0
 10
218.4051636985188
 20
120.589096364981
 30
0.0
 10
218.4784848269944
 20
120.7366962549756
 30
0.0
 10
218.5027070401609
 20
120.8480140800831
 30
0.0
 10
218.5148292191502
 20
120.903723878002
 30
0.0
  0
SPLINE
  5
253
330
1F
100
AcDbEntity
  8
0
  6
Continuous
 62
     7
370
    18
100
AcDbSpline
210
0.0
220
0.0
230
1.0
 70
     8
 71
     3
 72
    14
 73
    10
 74
     0
 42
0.000000001
 43
0.00000001
 40
0.0
 40
0.0
 40
0.0
 40
0.0
 40
0.1669299867484129
 40
0.3337709048041632
 40
0.5004211293286654
 40
0.6254239239505648
 40
0.7503194582828518
 40
0.8750931289475057
 40
1.0
 40
1.0
 40
1.0
 40
1.0
 10
217.4741598299457
 20
121.2243467787626
 30
0.0
 10
217.4754895658762
 20
121.1623998405019
 30
0.0
 10
217.4781483282311
 20
121.0385390169563
 30
0.0
 10
217.5082945164835
 20
120.8548440414075
 30
0.0
 10
217.5628747916314
 20
120.6921939766659
 30
0.0
 10
217.648644938929
 20
120.561899383602
 30
0.0
 10
217.7522282125025
 20
120.4671355285796
 30
0.0
 10
217.8808113842733
 20
120.4063341962422
 30
0.0
 10
217.9738169126854
 20
120.3999332694405
 30
0.0
 10
218.0203444853375
 20
120.396731098646
 30
0.0
  0
CIRCLE
  5
254
330
1F
100
AcDbEntity
  8
0
  6
Continuous
 62
     7
370
    18
100
AcDbCircle
 10
225.8929083503
 20
123.5721069272
 30
0.0
 40
25.19999999999999
  0
SPLINE
  5
255
330
1F
100
AcDbEntity
  8
0
  6
Continuous
 62
     7
370
    18
100
AcDbSpline
210
0.0
220
0.0
230
1.0
 70
     8
 71
     3
 72
    13
 73
     9
 74
     0
 42
0.000000001
 43
0.00000001
 40
0.0
 40
0.0
 40
0.0
 40
0.0
 40
0.123734574999409
 40
0.2484232101745704
 40
0.3734713343328628
 40
0.4987444967637464
 40
0.7493102257733253
 40
1.0
 40
1.0
 40
1.0
 40
1.0
 10
232.702288344091
 20
120.3700472681535
 30
0.0
 10
232.7433727402806
 20
120.3774105099064
 30
0.0
 10
232.825858315469
 20
120.3921937679693
 30
0.0
 10
232.9100528851714
 20
120.4899065620401
 30
0.0
 10
232.9671226077272
 20
120.5986486446563
 30
0.0
 10
233.006292805143
 20
120.7594417517522
 30
0.0
 10
233.0275601280667
 20
120.963998735612
 30
0.0
 10
233.0297418674039
 20
121.1283779713902
 30
0.0
 10
233.030833007029
 20
121.2105879286649
 30
0.0
  0
SPLINE
  5
256
330
1F
100
AcDbEntity
  8
0
  6
Continuous
 62
     7
370
    18
100
AcDbSpline
210
0.0
220
0.0
230
1.0
 70
     8
 71
     3
 72
    13
 73
     9
 74
     0
 42
0.000000001
 43
0.00000001
 40
0.0
 40
0.0
 40
0.0
 40
0.0
 40
0.2506668541570194
 40
0.5012048357437092
 40
0.6264537829510469
 40
0.7514291871594903
 40
0.8760522367173409
 40
1.0
 40
1.0
 40
1.0
 40
1.0
 10
232.3637372447184
 20
121.2105879286649
 30
0.0
 10
232.364785551535
 20
121.1276426928699
 30
0.0
 10
232.3668816262138
 20
120.9617948649942
 30
0.0
 10
232.3887007252526
 20
120.7554208626165
 30
0.0
 10
232.4288032055231
 20
120.5933664791806
 30
0.0
 10
232.48817454714
 20
120.4842609760614
 30
0.0
 10
232.5772759064877
 20
120.3895706506026
 30
0.0
 10
232.6606930706829
 20
120.376543265243
 30
0.0
 10
232.702288344091
 20
120.3700472681535
 30
0.0
  0
SPLINE
  5
257
330
1F
100
AcDbEntity
  8
0
  6
Continuous
 62
     7
370
    18
100
AcDbSpline
210
0.0
220
0.0
230
1.0
 70
     8
 71
     3
 72
    13
 73
     9
 74
     0
 42
0.000000001
 43
0.00000001
 40
0.0
 40
0.0
 40
0.0
 40
0.0
 40
0.1236770548154448
 40
0.2483884878623324
 40
0.3734455614730983
 40
0.4987169325064009
 40
0.7492948497723043
 40
1.0
 40
1.0
 40
1.0
 40
1.0
 10
232.6897802985477
 20
122.0511285891763
 30
0.0
 10
232.6487917338934
 20
122.0436353899165
 30
0.0
 10
232.5664717950064
 20
122.0285863217109
 30
0.0
 10
232.4833580755848
 20
121.9302289813807
 30
0.0
 10
232.4266250265116
 20
121.8215951600447
 30
0.0
 10
232.388609232519
 20
121.6608131308805
 30
0.0
 10
232.3668644837767
 20
121.4567642209441
 30
0.0
 10
232.3647798341093
 20
121.292660576725
 30
0.0
 10
232.3637372447184
 20
121.2105879286649
 30
0.0
  0
SPLINE
  5
258
330
1F
100
AcDbEntity
  8
0
  6
Continuous
 62
     7
370
    18
100
AcDbSpline
210
0.0
220
0.0
230
1.0
 70
     8
 71
     3
 72
    13
 73
     9
 74
     0
 42
0.000000001
 43
0.00000001
 40
0.0
 40
0.0
 40
0.0
 40
0.0
 40
0.2506736071386394
 40
0.5012152607337963
 40
0.6264526015104145
 40
0.751449749880542
 40
0.8760271183236299
 40
1.0
 40
1.0
 40
1.0
 40
1.0
 10
233.030833007029
 20
121.2105879286649
 30
0.0
 10
233.0297945041169
 20
121.2937340824187
 30
0.0
 10
233.0277180449564
 20
121.4599826221371
 30
0.0
 10
233.0058038005452
 20
121.6668737499408
 30
0.0
 10
232.9654113453086
 20
121.8292493256711
 30
0.0
 10
232.9056437145584
 20
121.9385900729306
 30
0.0
 10
232.8151236292057
 20
122.032328324632
 30
0.0
 10
232.7314936112906
 20
122.0448720032816
 30
0.0
 10
232.6897802985477
 20
122.0511285891763
 30
0.0
  0
SPLINE
  5
259
330
1F
100
AcDbEntity
  8
0
  6
Continuous
 62
     7
370
    18
100
AcDbSpline
210
0.0
220
0.0
230
1.0
 70
     8
 71
     3
 72
    13
 73
     9
 74
     0
 42
0.000000001
 43
0.00000001
 40
0.0
 40
0.0
 40
0.0
 40
0.0
 40
0.1237345749994073
 40
0.2484232101745701
 40
0.3734713343328626
 40
0.4987444967637462
 40
0.7493102257733217
 40
1.0
 40
1.0
 40
1.0
 40
1.0
 10
228.7797652617047
 20
120.3700472681535
 30
0.0
 10
228.8208496578943
 20
120.3774105099063
 30
0.0
 10
228.9033352330826
 20
120.3921937679693
 30
0.0
 10
228.987529802785
 20
120.4899065620402
 30
0.0
 10
229.0445995253409
 20
120.5986486446563
 30
0.0
 10
229.0837697227566
 20
120.7594417517522
 30
0.0
 10
229.1050370456803
 20
120.9639987356119
 30
0.0
 10
229.1072187850176
 20
121.1283779713902
 30
0.0
 10
229.1083099246426
 20
121.2105879286649
 30
0.0
  0
SPLINE
  5
25A
330
1F
100
AcDbEntity
  8
0
  6
Continuous
 62
     7
370
    18
100
AcDbSpline
210
0.0
220
0.0
230
1.0
 70
     8
 71
     3
 72
    13
 73
     9
 74
     0
 42
0.000000001
 43
0.00000001
 40
0.0
 40
0.0
 40
0.0
 40
0.0
 40
0.250666854157016
 40
0.5012048357437094
 40
0.6264537829510473
 40
0.7514291871594875
 40
0.8760522367173393
 40
1.0
 40
1.0
 40
1.0
 40
1.0
 10
228.441214162332
 20
121.2105879286649
 30
0.0
 10
228.4422624691486
 20
121.1276426928699
 30
0.0
 10
228.4443585438274
 20
120.9617948649942
 30
0.0
 10
228.4661776428663
 20
120.7554208626165
 30
0.0
 10
228.5062801231367
 20
120.5933664791806
 30
0.0
 10
228.5656514647536
 20
120.4842609760614
 30
0.0
 10
228.6547528241013
 20
120.3895706506026
 30
0.0
 10
228.7381699882965
 20
120.376543265243
 30
0.0
 10
228.7797652617047
 20
120.3700472681535
 30
0.0
  0
SPLINE
  5
25B
330
1F
100
AcDbEntity
  8
0
  6
Continuous
 62
     7
370
    18
100
AcDbSpline
210
0.0
220
0.0
230
1.0
 70
     8
 71
     3
 72
    13
 73
     9
 74
     0
 42
0.000000001
 43
0.00000001
 40
0.0
 40
0.0
 40
0.0
 40
0.0
 40
0.1236770548154465
 40
0.2483884878623315
 40
0.373445561473095
 40
0.4987169325064013
 40
0.7492948497723044
 40
1.0
 40
1.0
 40
1.0
 40
1.0
 10
228.7672572161613
 20
122.0511285891763
 30
0.0
 10
228.726268651507
 20
122.0436353899165
 30
0.0
 10
228.64394871262
 20
122.0285863217109
 30
0.0
 10
228.5608349931985
 20
121.9302289813807
 30
0.0
 10
228.5041019441252
 20
121.8215951600447
 30
0.0
 10
228.4660861501326
 20
121.6608131308805
 30
0.0
 10
228.4443414013903
 20
121.4567642209441
 30
0.0
 10
228.442256751723
 20
121.292660576725
 30
0.0
 10
228.441214162332
 20
121.2105879286649
 30
0.0
  0
SPLINE
  5
25C
330
1F
100
AcDbEntity
  8
0
  6
Continuous
 62
     7
370
    18
100
AcDbSpline
210
0.0
220
0.0
230
1.0
 70
     8
 71
     3
 72
    13
 73
     9
 74
     0
 42
0.000000001
 43
0.00000001
 40
0.0
 40
0.0
 40
0.0
 40
0.0
 40
0.250673607138639
 40
0.5012152607337987
 40
0.6264526015104133
 40
0.7514497498805428
 40
0.8760271183236269
 40
1.0
 40
1.0
 40
1.0
 40
1.0
 10
229.1083099246426
 20
121.2105879286649
 30
0.0
 10
229.1072714217305
 20
121.2937340824187
 30
0.0
 10
229.10519496257
 20
121.4599826221371
 30
0.0
 10
229.0832807181588
 20
121.6668737499408
 30
0.0
 10
229.0428882629222
 20
121.8292493256711
 30
0.0
 10
228.983120632172
 20
121.9385900729306
 30
0.0
 10
228.8926005468193
 20
122.032328324632
 30
0.0
 10
228.8089705289042
 20
122.0448720032816
 30
0.0
 10
228.7672572161613
 20
122.0511285891763
 30
0.0
  0
SPLINE
  5
25D
330
1F
100
AcDbEntity
  8
0
  6
Continuous
 62
     7
370
    18
100
AcDbSpline
210
0.0
220
0.0
230
1.0
 70
     8
 71
     3
 72
    12
 73
     8
 74
     0
 42
0.000000001
 43
0.00000001
 40
0.0
 40
0.0
 40
0.0
 40
0.0
 40
0.1864266110451019
 40
0.3728066183672737
 40
0.5596384089196441
 40
0.7795953861027523
 40
1.0
 40
1.0
 40
1.0
 40
1.0
 10
224.079658681375
 20
120.3700472681535
 30
0.0
 10
224.1164529247741
 20
120.3736029357421
 30
0.0
 10
224.1900322135896
 20
120.3807133820583
 30
0.0
 10
224.2848267116172
 20
120.4426102334916
 30
0.0
 10
224.3599938046043
 20
120.5325714154521
 30
0.0
 10
224.4052684567872
 20
120.6498323835934
 30
0.0
 10
224.4097251474734
 20
120.7362330466887
 30
0.0
 10
224.411955757976
 20
120.7794772922717
 30
0.0
  0
SPLINE
  5
25E
330
1F
100
AcDbEntity
  8
0
  6
Continuous
 62
     7
370
    18
100
AcDbSpline
210
0.0
220
0.0
230
1.0
 70
     8
 71
     3
 72
    11
 73
     7
 74
     0
 42
0.000000001
 43
0.00000001
 40
0.0
 40
0.0
 40
0.0
 40
0.0
 40
0.2807261943832877
 40
0.5603972916125637
 40
0.7804346209650579
 40
1.0
 40
1.0
 40
1.0
 40
1.0
 10
223.7448599956653
 20
120.7878159893006
 30
0.0
 10
223.7484347355828
 20
120.7317833770802
 30
0.0
 10
223.7555707799137
 20
120.6199287487679
 30
0.0
 10
223.8340815838683
 20
120.4815533230493
 30
0.0
 10
223.9478168850153
 20
120.3867512853446
 30
0.0
 10
224.0357428812282
 20
120.3756112873103
 30
0.0
 10
224.079658681375
 20
120.3700472681535
 30
0.0
  0
SPLINE
  5
25F
330
1F
100
AcDbEntity
  8
0
  6
Continuous
 62
     7
370
    18
100
AcDbSpline
210
0.0
220
0.0
230
1.0
 70
     8
 71
     3
 72
    11
 73
     7
 74
     0
 42
0.000000001
 43
0.00000001
 40
0.0
 40
0.0
 40
0.0
 40
0.0
 40
0.2782055765816071
 40
0.5579799253701283
 40
0.7788219222535234
 40
1.0
 40
1.0
 40
1.0
 40
1.0
 10
224.0742385283062
 20
121.1972460134187
 30
0.0
 10
224.0195542529049
 20
121.1880562609554
 30
0.0
 10
223.9098773431813
 20
121.1696249359738
 30
0.0
 10
223.8046328267073
 20
121.0481532879754
 30
0.0
 10
223.7515555366636
 20
120.9171526015157
 30
0.0
 10
223.7470929736707
 20
120.8309500408197
 30
0.0
 10
223.7448599956653
 20
120.7878159893006
 30
0.0
  0
SPLINE
  5
260
330
1F
100
AcDbEntity
  8
0
  6
Continuous
 62
     7
370
    18
100
AcDbSpline
210
0.0
220
0.0
230
1.0
 70
     8
 71
     3
 72
    11
 73
     7
 74
     0
 42
0.000000001
 43
0.00000001
 40
0.0
 40
0.0
 40
0.0
 40
0.0
 40
0.2807535301687743
 40
0.5603207228591549
 40
0.7803822345379182
 40
1.0
 40
1.0
 40
1.0
 40
1.0
 10
224.411955757976
 20
120.7794772922717
 30
0.0
 10
224.4082715542785
 20
120.835716243023
 30
0.0
 10
224.4009187146626
 20
120.9479565041476
 30
0.0
 10
224.3207935906683
 20
121.0859957861472
 30
0.0
 10
224.2065592589169
 20
121.1807426005225
 30
0.0
 10
224.1183157519296
 20
121.1917485783802
 30
0.0
 10
224.0742385283062
 20
121.1972460134187
 30
0.0
  0
SPLINE
  5
261
330
1F
100
AcDbEntity
  8
0
  6
Continuous
 62
     7
370
    18
100
AcDbSpline
210
0.0
220
0.0
230
1.0
 70
     8
 71
     3
 72
    11
 73
     7
 74
     0
 42
0.000000001
 43
0.00000001
 40
0.0
 40
0.0
 40
0.0
 40
0.0
 40
0.2783889696083859
 40
0.5580817055296794
 40
0.7789018539988231
 40
1.0
 40
1.0
 40
1.0
 40
1.0
 10
224.079658681375
 20
121.4107166573581
 30
0.0
 10
224.1216457277904
 20
121.4178821177969
 30
0.0
 10
224.205816456633
 20
121.4322465963472
 30
0.0
 10
224.2859198523829
 20
121.5259404415485
 30
0.0
 10
224.3269353141579
 20
121.62625977244
 30
0.0
 10
224.330247254571
 20
121.6924077003871
 30
0.0
 10
224.3319042664987
 20
121.7255024701984
 30
0.0
  0
SPLINE
  5
262
330
1F
100
AcDbEntity
  8
0
  6
Continuous
 62
     7
370
    18
100
AcDbSpline
210
0.0
220
0.0
230
1.0
 70
     8
 71
     3
 72
    11
 73
     7
 74
     0
 42
0.000000001
 43
0.00000001
 40
0.0
 40
0.0
 40
0.0
 40
0.0
 40
0.2806987831964742
 40
0.5604086902325297
 40
0.7804393617933065
 40
0.9999999999999999
 40
0.9999999999999999
 40
0.9999999999999999
 40
0.9999999999999999
 10
223.8249114871426
 20
121.7392613202961
 30
0.0
 10
223.8273391705738
 20
121.6957041730536
 30
0.0
 10
223.8321859849292
 20
121.6087433264178
 30
0.0
 10
223.8894559847265
 20
121.4992444305289
 30
0.0
 10
223.9768764180726
 20
121.4234472642259
 30
0.0
 10
224.0454223578742
 20
121.4149571669663
 30
0.0
 10
224.079658681375
 20
121.4107166573581
 30
0.0
  0
SPLINE
  5
263
330
1F
100
AcDbEntity
  8
0
  6
Continuous
 62
     7
370
    18
100
AcDbSpline
210
0.0
220
0.0
230
1.0
 70
     8
 71
     3
 72
    11
 73
     7
 74
     0
 42
0.000000001
 43
0.00000001
 40
0.0
 40
0.0
 40
0.0
 40
0.0
 40
0.2781848052830349
 40
0.5582334878196251
 40
0.7790790531104528
 40
1.0
 40
1.0
 40
1.0
 40
1.0
 10
224.0771570722663
 20
122.0511285891763
 30
0.0
 10
224.0356001378418
 20
122.0438232074534
 30
0.0
 10
223.9522078316973
 20
122.0291634969245
 30
0.0
 10
223.8727765174168
 20
121.9365346391509
 30
0.0
 10
223.8306384625047
 20
121.8376281326561
 30
0.0
 10
223.8268206960804
 20
121.7720539875356
 30
0.0
 10
223.8249114871426
 20
121.7392613202961
 30
0.0
  0
SPLINE
  5
264
330
1F
100
AcDbEntity
  8
0
  6
Continuous
 62
     7
370
    18
100
AcDbSpline
210
0.0
220
0.0
230
1.0
 70
     8
 71
     3
 72
    11
 73
     7
 74
     0
 42
0.000000001
 43
0.00000001
 40
0.0
 40
0.0
 40
0.0
 40
0.0
 40
0.2805990159984006
 40
0.5604527759419575
 40
0.7805133266133532
 40
1.0
 40
1.0
 40
1.0
 40
1.0
 10
224.3319042664987
 20
121.7255024701984
 30
0.0
 10
224.3292203440007
 20
121.7686417567647
 30
0.0
 10
224.32385962736
 20
121.8548057542478
 30
0.0
 10
224.263347108685
 20
121.960694414199
 30
0.0
 10
224.1786098473904
 20
122.0368482119594
 30
0.0
 10
224.1109452160995
 20
122.0463726084867
 30
0.0
 10
224.0771570722663
 20
122.0511285891763
 30
0.0
  0
SPLINE
  5
265
330
1F
100
AcDbEntity
  8
0
  6
Continuous
 62
     7
370
    18
100
AcDbSpline
210
0.0
220
0.0
230
1.0
 70
     8
 71
     3
 72
    13
 73
     9
 74
     0
 42
0.000000001
 43
0.00000001
 40
0.0
 40
0.0
 40
0.0
 40
0.0
 40
0.1237345749994071
 40
0.2484232101745708
 40
0.3734713343328631
 40
0.4987444967637474
 40
0.7493102257733256
 40
1.0
 40
1.0
 40
1.0
 40
1.0
 10
222.7759034009092
 20
120.3700472681535
 30
0.0
 10
222.8169877970988
 20
120.3774105099064
 30
0.0
 10
222.8994733722872
 20
120.3921937679693
 30
0.0
 10
222.9836679419896
 20
120.4899065620402
 30
0.0
 10
223.0407376645454
 20
120.5986486446563
 30
0.0
 10
223.0799078619611
 20
120.7594417517522
 30
0.0
 10
223.1011751848849
 20
120.963998735612
 30
0.0
 10
223.1033569242221
 20
121.1283779713902
 30
0.0
 10
223.1044480638472
 20
121.2105879286649
 30
0.0
  0
SPLINE
  5
266
330
1F
100
AcDbEntity
  8
0
  6
Continuous
 62
     7
370
    18
100
AcDbSpline
210
0.0
220
0.0
230
1.0
 70
     8
 71
     3
 72
    13
 73
     9
 74
     0
 42
0.000000001
 43
0.00000001
 40
0.0
 40
0.0
 40
0.0
 40
0.0
 40
0.250666854157016
 40
0.5012048357437099
 40
0.6264537829510477
 40
0.751429187159488
 40
0.8760522367173375
 40
1.0
 40
1.0
 40
1.0
 40
1.0
 10
222.4373523015365
 20
121.2105879286649
 30
0.0
 10
222.4384006083532
 20
121.1276426928699
 30
0.0
 10
222.440496683032
 20
120.9617948649942
 30
0.0
 10
222.4623157820708
 20
120.7554208626165
 30
0.0
 10
222.5024182623413
 20
120.5933664791806
 30
0.0
 10
222.5617896039582
 20
120.4842609760614
 30
0.0
 10
222.6508909633059
 20
120.3895706506026
 30
0.0
 10
222.7343081275011
 20
120.376543265243
 30
0.0
 10
222.7759034009092
 20
120.3700472681535
 30
0.0
  0
SPLINE
  5
267
330
1F
100
AcDbEntity
  8
0
  6
Continuous
 62
     7
370
    18
100
AcDbSpline
210
0.0
220
0.0
230
1.0
 70
     8
 71
     3
 72
    13
 73
     9
 74
     0
 42
0.000000001
 43
0.00000001
 40
0.0
 40
0.0
 40
0.0
 40
0.0
 40
0.1236770548154432
 40
0.2483884878623308
 40
0.3734455614730937
 40
0.4987169325064005
 40
0.7492948497723043
 40
1.0
 40
1.0
 40
1.0
 40
1.0
 10
222.7633953553659
 20
122.0511285891763
 30
0.0
 10
222.7224067907116
 20
122.0436353899165
 30
0.0
 10
222.6400868518246
 20
122.0285863217109
 30
0.0
 10
222.556973132403
 20
121.9302289813807
 30
0.0
 10
222.5002400833298
 20
121.8215951600447
 30
0.0
 10
222.4622242893372
 20
121.6608131308805
 30
0.0
 10
222.4404795405949
 20
121.4567642209441
 30
0.0
 10
222.4383948909275
 20
121.292660576725
 30
0.0
 10
222.4373523015365
 20
121.2105879286649
 30
0.0
  0
SPLINE
  5
268
330
1F
100
AcDbEntity
  8
0
  6
Continuous
 62
     7
370
    18
100
AcDbSpline
210
0.0
220
0.0
230
1.0
 70
     8
 71
     3
 72
    13
 73
     9
 74
     0
 42
0.000000001
 43
0.00000001
 40
0.0
 40
0.0
 40
0.0
 40
0.0
 40
0.2506736071386388
 40
0.5012152607337987
 40
0.6264526015104133
 40
0.7514497498805405
 40
0.8760271183236269
 40
1.0
 40
1.0
 40
1.0
 40
1.0
 10
223.1044480638472
 20
121.2105879286649
 30
0.0
 10
223.1034095609351
 20
121.2937340824187
 30
0.0
 10
223.1013331017745
 20
121.4599826221371
 30
0.0
 10
223.0794188573634
 20
121.6668737499408
 30
0.0
 10
223.0390264021268
 20
121.8292493256711
 30
0.0
 10
222.9792587713766
 20
121.9385900729306
 30
0.0
 10
222.8887386860238
 20
122.032328324632
 30
0.0
 10
222.8051086681088
 20
122.0448720032816
 30
0.0
 10
222.7633953553659
 20
122.0511285891763
 30
0.0
  0
CIRCLE
  5
269
330
1F
100
AcDbEntity
  8
0
  6
Continuous
 62
     7
370
    18
100
AcDbCircle
 10
225.8929083503
 20
123.5721069272
 30
0.0
 40
25.40000000000001
  0
OLE2FRAME
  5
26A
330
1F
100
AcDbEntity
  8
0
100
AcDbOle2Frame
 70
     2
  3
Paintbrush Picture
 10
229.0524258301
 20
33.6996297921
 30
0.0
 11
265.1686469208
 21
28.555479607
 31
0.0
 71
     2
 72
     0
 73
     1
 90
     7296
310
80557333EF78ADA16C40002412788DD94040000000000000000041161DC7B292
310
7040002412788DD94040000000000000000041161DC7B2927040F6DD59E9338E
310
3C4000000000000000007333EF78ADA16C40F6DD59E9338E3C40000000000000
310
00000000000001000000000100000100000001000000000001000000001C0000
310
D0CF11E0A1B11AE1000000000000000000000000000000003E000300FEFF0900
310
0600000000000000000000000100000001000000000000000010000002000000
310
01000000FEFFFFFF0000000000000000FFFFFFFFFFFFFFFFFFFFFFFFFFFFFFFF
310
FFFFFFFFFFFFFFFFFFFFFFFFFFFFFFFFFFFFFFFFFFFFFFFFFFFFFFFFFFFFFFFF
310
FFFFFFFFFFFFFFFFFFFFFFFFFFFFFFFFFFFFFFFFFFFFFFFFFFFFFFFFFFFFFFFF
310
FFFFFFFFFFFFFFFFFFFFFFFFFFFFFFFFFFFFFFFFFFFFFFFFFFFFFFFFFFFFFFFF
310
FFFFFFFFFFFFFFFFFFFFFFFFFFFFFFFFFFFFFFFFFFFFFFFFFFFFFFFFFFFFFFFF
310
FFFFFFFFFFFFFFFFFFFFFFFFFFFFFFFFFFFFFFFFFFFFFFFFFFFFFFFFFFFFFFFF
310
FFFFFFFFFFFFFFFFFFFFFFFFFFFFFFFFFFFFFFFFFFFFFFFFFFFFFFFFFFFFFFFF
310
FFFFFFFFFFFFFFFFFFFFFFFFFFFFFFFFFFFFFFFFFFFFFFFFFFFFFFFFFFFFFFFF
310
FFFFFFFFFFFFFFFFFFFFFFFFFFFFFFFFFFFFFFFFFFFFFFFFFFFFFFFFFFFFFFFF
310
FFFFFFFFFFFFFFFFFFFFFFFFFFFFFFFFFFFFFFFFFFFFFFFFFFFFFFFFFFFFFFFF
310
FFFFFFFFFFFFFFFFFFFFFFFFFFFFFFFFFFFFFFFFFFFFFFFFFFFFFFFFFFFFFFFF
310
FFFFFFFFFFFFFFFFFFFFFFFFFFFFFFFFFFFFFFFFFFFFFFFFFFFFFFFFFFFFFFFF
310
FFFFFFFFFFFFFFFFFFFFFFFFFFFFFFFFFFFFFFFFFFFFFFFFFFFFFFFFFFFFFFFF
310
FFFFFFFFFFFFFFFFFFFFFFFFFFFFFFFFFFFFFFFFFFFFFFFFFFFFFFFFFFFFFFFF
310
FDFFFFFFFEFFFFFFFEFFFFFFFEFFFFFF05000000060000000700000008000000
310
090000000A0000000B0000000C000000FEFFFFFFFFFFFFFFFFFFFFFFFFFFFFFF
310
FFFFFFFFFFFFFFFFFFFFFFFFFFFFFFFFFFFFFFFFFFFFFFFFFFFFFFFFFFFFFFFF
310
FFFFFFFFFFFFFFFFFFFFFFFFFFFFFFFFFFFFFFFFFFFFFFFFFFFFFFFFFFFFFFFF
310
FFFFFFFFFFFFFFFFFFFFFFFFFFFFFFFFFFFFFFFFFFFFFFFFFFFFFFFFFFFFFFFF
310
FFFFFFFFFFFFFFFFFFFFFFFFFFFFFFFFFFFFFFFFFFFFFFFFFFFFFFFFFFFFFFFF
310
FFFFFFFFFFFFFFFFFFFFFFFFFFFFFFFFFFFFFFFFFFFFFFFFFFFFFFFFFFFFFFFF
310
FFFFFFFFFFFFFFFFFFFFFFFFFFFFFFFFFFFFFFFFFFFFFFFFFFFFFFFFFFFFFFFF
310
FFFFFFFFFFFFFFFFFFFFFFFFFFFFFFFFFFFFFFFFFFFFFFFFFFFFFFFFFFFFFFFF
310
FFFFFFFFFFFFFFFFFFFFFFFFFFFFFFFFFFFFFFFFFFFFFFFFFFFFFFFFFFFFFFFF
310
FFFFFFFFFFFFFFFFFFFFFFFFFFFFFFFFFFFFFFFFFFFFFFFFFFFFFFFFFFFFFFFF
310
FFFFFFFFFFFFFFFFFFFFFFFFFFFFFFFFFFFFFFFFFFFFFFFFFFFFFFFFFFFFFFFF
310
FFFFFFFFFFFFFFFFFFFFFFFFFFFFFFFFFFFFFFFFFFFFFFFFFFFFFFFFFFFFFFFF
310
FFFFFFFFFFFFFFFFFFFFFFFFFFFFFFFFFFFFFFFFFFFFFFFFFFFFFFFFFFFFFFFF
310
FFFFFFFFFFFFFFFFFFFFFFFFFFFFFFFFFFFFFFFFFFFFFFFFFFFFFFFFFFFFFFFF
310
FFFFFFFFFFFFFFFFFFFFFFFFFFFFFFFFFFFFFFFFFFFFFFFFFFFFFFFFFFFFFFFF
310
52006F006F007400200045006E00740072007900000000000000000000000000
310
0000000000000000000000000000000000000000000000000000000000000000
310
16000500FFFFFFFFFFFFFFFF020000000A00030000000000C000000000000046
310
00000000000000000000000060171A674596D40103000000C000000000000000
310
01004F006C006500000000000000000000000000000000000000000000000000
310
0000000000000000000000000000000000000000000000000000000000000000
310
0A000200FFFFFFFFFFFFFFFFFFFFFFFF00000000000000000000000000000000
310
0000000000000000000000000000000000000000000000001400000000000000
310
010043006F006D0070004F0062006A0000000000000000000000000000000000
310
0000000000000000000000000000000000000000000000000000000000000000
310
120002010100000003000000FFFFFFFF00000000000000000000000000000000
310
0000000000000000000000000000000000000000010000004D00000000000000
310
01004F006C006500310030004E00610074006900760065000000000000000000
310
0000000000000000000000000000000000000000000000000000000000000000
310
1A000200FFFFFFFFFFFFFFFFFFFFFFFF00000000000000000000000000000000
310
000000000000000000000000000000000000000004000000E411000000000000
310
FEFFFFFF02000000FEFFFFFFFFFFFFFFFFFFFFFFFFFFFFFFFFFFFFFFFFFFFFFF
310
FFFFFFFFFFFFFFFFFFFFFFFFFFFFFFFFFFFFFFFFFFFFFFFFFFFFFFFFFFFFFFFF
310
FFFFFFFFFFFFFFFFFFFFFFFFFFFFFFFFFFFFFFFFFFFFFFFFFFFFFFFFFFFFFFFF
310
FFFFFFFFFFFFFFFFFFFFFFFFFFFFFFFFFFFFFFFFFFFFFFFFFFFFFFFFFFFFFFFF
310
FFFFFFFFFFFFFFFFFFFFFFFFFFFFFFFFFFFFFFFFFFFFFFFFFFFFFFFFFFFFFFFF
310
FFFFFFFFFFFFFFFFFFFFFFFFFFFFFFFFFFFFFFFFFFFFFFFFFFFFFFFFFFFFFFFF
310
FFFFFFFFFFFFFFFFFFFFFFFFFFFFFFFFFFFFFFFFFFFFFFFFFFFFFFFFFFFFFFFF
310
FFFFFFFFFFFFFFFFFFFFFFFFFFFFFFFFFFFFFFFFFFFFFFFFFFFFFFFFFFFFFFFF
310
FFFFFFFFFFFFFFFFFFFFFFFFFFFFFFFFFFFFFFFFFFFFFFFFFFFFFFFFFFFFFFFF
310
FFFFFFFFFFFFFFFFFFFFFFFFFFFFFFFFFFFFFFFFFFFFFFFFFFFFFFFFFFFFFFFF
310
FFFFFFFFFFFFFFFFFFFFFFFFFFFFFFFFFFFFFFFFFFFFFFFFFFFFFFFFFFFFFFFF
310
FFFFFFFFFFFFFFFFFFFFFFFFFFFFFFFFFFFFFFFFFFFFFFFFFFFFFFFFFFFFFFFF
310
FFFFFFFFFFFFFFFFFFFFFFFFFFFFFFFFFFFFFFFFFFFFFFFFFFFFFFFFFFFFFFFF
310
FFFFFFFFFFFFFFFFFFFFFFFFFFFFFFFFFFFFFFFFFFFFFFFFFFFFFFFFFFFFFFFF
310
FFFFFFFFFFFFFFFFFFFFFFFFFFFFFFFFFFFFFFFFFFFFFFFFFFFFFFFFFFFFFFFF
310
FFFFFFFFFFFFFFFFFFFFFFFFFFFFFFFFFFFFFFFFFFFFFFFFFFFFFFFFFFFFFFFF
310
0100000200000000000000000000000000000000000000000000000000000000
310
0000000000000000000000000000000000000000000000000000000000000000
310
0100FEFF030A0000FFFFFFFF0A00030000000000C00000000000004607000000
310
5042727573680007000000504272757368000700000050427275736800F439B2
310
7100000000000000000000000000000000000000000000000000000000000000
310
0000000000000000000000000000000000000000000000000000000000000000
310
0000000000000000000000000000000000000000000000000000000000000000
310
0000000000000000000000000000000000000000000000000000000000000000
310
0000000000000000000000000000000000000000000000000000000000000000
310
0000000000000000000000000000000000000000000000000000000000000000
310
0000000000000000000000000000000000000000000000000000000000000000
310
0000000000000000000000000000000000000000000000000000000000000000
310
0000000000000000000000000000000000000000000000000000000000000000
310
0000000000000000000000000000000000000000000000000000000000000000
310
0000000000000000000000000000000000000000000000000000000000000000
310
0000000000000000000000000000000000000000000000000000000000000000
310
E0110000424DDE11000000000000360400002800000096000000170000000100
310
08000000000000000000E7240000E72400000001000000010000000000FF0101
310
01FF020202FF030303FF040404FF050505FF060606FF070707FF080808FF0909
310
09FF0A0A0AFF0B0B0BFF0C0C0CFF0D0D0DFF0E0E0EFF0F0F0FFF101010FF1111
310
11FF121212FF131313FF141414FF151515FF161616FF171717FF181818FF1919
310
19FF1A1A1AFF1B1B1BFF1C1C1CFF1D1D1DFF1E1E1EFF1F1F1FFF202020FF2121
310
21FF222222FF232323FF242424FF252525FF262626FF272727FF282828FF2929
310
29FF2A2A2AFF2B2B2BFF2C2C2CFF2D2D2DFF2E2E2EFF2F2F2FFF303030FF3131
310
31FF323232FF333333FF343434FF353535FF363636FF373737FF383838FF3939
310
39FF3A3A3AFF3B3B3BFF3C3C3CFF3D3D3DFF3E3E3EFF3F3F3FFF404040FF4141
310
41FF424242FF434343FF444444FF454545FF464646FF474747FF484848FF4949
310
49FF4A4A4AFF4B4B4BFF4C4C4CFF4D4D4DFF4E4E4EFF4F4F4FFF505050FF5151
310
51FF525252FF535353FF545454FF555555FF565656FF575757FF585858FF5959
310
59FF5A5A5AFF5B5B5BFF5C5C5CFF5D5D5DFF5E5E5EFF5F5F5FFF606060FF6161
310
61FF626262FF636363FF646464FF656565FF666666FF676767FF686868FF6969
310
69FF6A6A6AFF6B6B6BFF6C6C6CFF6D6D6DFF6E6E6EFF6F6F6FFF707070FF7171
310
71FF727272FF737373FF747474FF757575FF767676FF777777FF787878FF7979
310
79FF7A7A7AFF7B7B7BFF7C7C7CFF7D7D7DFF7E7E7EFF7F7F7FFF808080FF8181
310
81FF828282FF838383FF848484FF858585FF868686FF878787FF888888FF8989
310
89FF8A8A8AFF8B8B8BFF8C8C8CFF8D8D8DFF8E8E8EFF8F8F8FFF909090FF9191
310
91FF929292FF939393FF949494FF959595FF969696FF979797FF989898FF9999
310
99FF9A9A9AFF9B9B9BFF9C9C9CFF9D9D9DFF9E9E9EFF9F9F9FFFA0A0A0FFA1A1
310
A1FFA2A2A2FFA3A3A3FFA4A4A4FFA5A5A5FFA6A6A6FFA7A7A7FFA8A8A8FFA9A9
310
A9FFAAAAAAFFABABABFFACACACFFADADADFFAEAEAEFFAFAFAFFFB0B0B0FFB1B1
310
B1FFB2B2B2FFB3B3B3FFB4B4B4FFB5B5B5FFB6B6B6FFB7B7B7FFB8B8B8FFB9B9
310
B9FFBABABAFFBBBBBBFFBCBCBCFFBDBDBDFFBEBEBEFFBFBFBFFFC0C0C0FFC1C1
310
C1FFC2C2C2FFC3C3C3FFC4C4C4FFC5C5C5FFC6C6C6FFC7C7C7FFC8C8C8FFC9C9
310
C9FFCACACAFFCBCBCBFFCCCCCCFFCDCDCDFFCECECEFFCFCFCFFFD0D0D0FFD1D1
310
D1FFD2D2D2FFD3D3D3FFD4D4D4FFD5D5D5FFD6D6D6FFD7D7D7FFD8D8D8FFD9D9
310
D9FFDADADAFFDBDBDBFFDCDCDCFFDDDDDDFFDEDEDEFFDFDFDFFFE0E0E0FFE1E1
310
E1FFE2E2E2FFE3E3E3FFE4E4E4FFE5E5E5FFE6E6E6FFE7E7E7FFE8E8E8FFE9E9
310
E9FFEAEAEAFFEBEBEBFFECECECFFEDEDEDFFEEEEEEFFEFEFEFFFF0F0F0FFF1F1
310
F1FFF2F2F2FFF3F3F3FFF4F4F4FFF5F5F5FFF6F6F6FFF7F7F7FFF8F8F8FFF9F9
310
F9FFFAFAFAFFFBFBFBFFFCFCFCFFFDFDFDFFFEFEFEFFFFFFFFFFFFFFFFFFFFFF
310
C94E4E4E4F4E4EFFFFFFFFFFC94E4E4E4E4E72FFFFFFFFFFFFFF734E4D4E4E4E
310
C9FFFFFFFFFFAA683516171616265B9BE9FFFFFFFFFF4E4E4E4D4E4EFFFFFFFF
310
FFFFFFFF4E4E4F4E4D4E4E4E4F4E4E4F4D4E4E4E4E4E4D4E4F4E4D4E4E4EAAFF
310
FFFFFFFFFFEA4E4F4F4E4E4E4E4E4D4D4F4F4E4E4E4E4E5B7FAAFFFFFFFFFFFF
310
C9744E1716171616164D8DEAFFFFFFFF0000FFFFFFFFFFFFBA161617161716FF
310
FFFFFFFFB917171616174FFFFFFFFFFFFFFF4E1716161616B9FFFFFFB9341717
310
1716171617171616268CFFFFFFFF161617161617FFFFFFFFFFFFFFB917161717
310
1617167F807F7F7F7F7F7F807F7F807F7F807F7F7F414EFFFFFFFFFFFF8C167F
310
7F807F7F7F7E7F7F807F807F7F807F4E3417258EFFFFEA4E162674AABAEAEBBA
310
AA74341680FFFFFF0000FFFFFFFFFFFFB9171717171617FFFFFFFFFFBB161616
310
16164EFFFFFFFFFFFFFF4E1717171717B9FFFF9C171617171716161616171616
310
171766FFFFFF161717161617FFFFFFFFFFFFFF8E16171717161616FFFFFFFFFF
310
FFFFFFFFFFFFFFFFFFFFFFFFFFAA16D9FFFFFFFFFF3467FFFFFFFFEAFFFFFFFF
310
FFFFFFFFFFFFFFFFFFCA671667EB26278DFFFFFFFFFFFFFFFFFFFF8C2541EAFF
310
0000FFFFFFFFFFFFB9171717171716FFFFFFFFFFBA16171617174EFFFFFFFFFF
310
FFFF4E1717161616BAFF9B1617161616171716171617161616161667FFFF1616
310
16161716FFFFFFFFFFFFFF7F16161617174017FFFFFFFFFFFFFFFFFFFFFFFFFF
310
FFFFFFFFFFFF344E7F7F7F7E7417DAFFFFFFFF80FFFFFFFFFFFFFFFFFFFFFFFF
310
FFFFFF9B163425CAFFFFFFFFFFFFFFFFFFFFFFFFCA2667FF0000FFFFFFFFFFFF
310
BA171717171617FFFFFFFFFFB916171716164EFFFFFFFFFFFFFF4F1716161717
310
B9C91716171616161716161617171616161617168DFF161716161717FFFFFFFF
310
FFFFFF7F17171716164F16FFFFFFFFFFFFFFFFFFFFFFFFFFFFFFFFFFFFFF9B16
310
17161617174EFFFFFFFFFF34FFFFFFFFD9BABABABABADAFFFFFFFFFF7F16AAFF
310
FFFFFFFFFFFFFFFFFFFFFFFFFF9C16BA0000FFFFFFFFFFFFB9161717161717FF
310
FFFFFFFFB917161716174DFFFFFFFFFFFFFF4E1616161616BA4E161617171716
310
419BEAEAAA4E16161617161726E9171717161616FFFFFFFFFFFFFF4F16161717
310
164E16FFFFFFFFFFBAB9B9B9B9B9BABABACAFFFFFFFFFFFFFFFFFFFFFFFFFFFF
310
FFFFBA16FFFFFFFF7F1617161617174DEAFFFFFFEA41FFFFFFFFFFAA4D16174E
310
9BFFFFFFFFFF34730000FFFFFFFFFFFFB9161617171617FFFFFFFFFFBA161616
310
16164EFFFFFFFFFFFFFF4F16161717169B1617161716175BFFFFFFFFFFFF7417
310
16171616168D171717161617FFFFFFFFFFFFEA2616171717167416FFFFFFFFFF
310
16171616171717171717EAFFFFFFFFFFFFFFFFFFFFFFFFFFFFFF6716FFFFFFFF
310
7F4EFFFFFFFFBA2573FFFFFFFFBAFFFFFFFFAA167FB9BB9B269BFFFFFFFF664F
310
0000FFFFFFFFFFFFB9171616161616FFFFFFFFFFBA16161717164EFFFFFFFFFF
310
FFFF4E16161616174E161617171626EAFFFFFFFFFFFFFF4E16161616164E1716
310
16161617FFFFFFFFFFFF671616161716347F16FFFFFFFFFF16B9FFFFFFFFFFFF
310
D9168DFFFFFFFFFFFFFFFFFFFFFFFFFFFFEA1716FFFFFFFF7F4EFFFFFFFFFF7F
310
4EFFFFFFFFFFFFFFFFFF5B66FFFFFFEA347FFFFFFFFF7F4D0000FFFFFFFFFFFF
310
B9171616171617FFFFFFFFFFBA17161716174EFFFFFFFFFFFFFF4D1716161617
310
17161716161673FFFFFFFFFFFFFFFF9B1617161717161616171616174F4E4E4E
310
4E341616171616167E7F16FFFFFFFFFF16BAFFFFFFFFFFFFFF5B41FFFFFFFF34
310
1616171616BAFFFFFF9B1716FFFFFFFF7F4EFFFFFFFFFF4E4EFFFFFFFF734E4E
310
4E4E267EDA9B67164EEAFFFFFFFF744D0000FFFFFFFFFFFFBA171717161617FF
310
FFFFFFFFBA1616171616347F7F7F7F80807F331616161717161717161716B9FF
310
FFFFFFFFFFFFFFE9161616161616171716161716171616161616171616171734
310
EA7F16FFFFFFFFFF16BAFFFFFFFFFFFFFFAA17C9FFFFFF7326BABA5B25FFFFFF
310
FF401716FFFFFFFF7F264F4E4E4E4217AAFFFFFFEA16677F73261616164173CA
310
FFFFFFFFFFFF417F0000FFFFFFFFFFFFBA171616171617FFFFFFFFFFBA161616
310
17171616161616161616161717161616161616161617EAFFFFFFFFFFFFFFFFFF
310
261717161716161617161616161617161617161616174EEAFF8016FFFFFFFFFF
310
17BAFFFFFFFFFFFFFFFF3467FFFFFFC916C9FF3467FFFFFFDA166716FFFFFFFF
310
9C4D4E4E4E4E67AAFFFFFFFF6834FF7F262567AAEAFFFFFFFFFFFFFFFF9B17D9
310
0000FFFFFFFFFFFFB9161616161616FFFFFFFFFFBA1617161717171616161616
310
1716171716161716161617171716FFFFFFFFFFFFFFFFFFFF4E17161716171616
310
1617171616161716171717161616169BFF7F17FFFFFFFFFF17B9FFFFFFFFFFFF
310
FFFF7326FFFFFFFF3473DA16AAFFFFFF7317AA16FFFFFFFFFFFFFFFFFFFFFFFF
310
FFFFEA6725BA4E167FEAFFFFFFFFFFFFFFFFFFFF9C167FFF0000FFFFFFFFFFFF
310
B9161717171716FFFFFFFFFFBA16161716171616171717161617161716161616
310
171617171617EAFFFFFFFFFFFFFFFFFF26161717161616161616161617171616
310
1616161616171616AA8016FFFFFFFFFF16BAFFFFFFFFFFFFFFFFDA179BFFFFFF
310
74348D26FFFFFFFF2566B917FFFFFFFFD8BAB9BAB9BADAFFFFEA41169B7425C9
310
FFFFFFFFFFFFFFFFFFFFAB4F1680FFFF0000FFFFFFFFFFFFBA161717171617FF
310
FFFFFFFFBA17161717161617171617161616161617171616171716171617BBFF
310
FFFFFFFFFFFFFFE9171616161617161617161716FFFFFFFFFFD9671616161617
310
348017FFFFFFFFFF16BAFFFFFFFFFFFFFFFFFF4E5AFFFFFFC916265AFFFFFFAA
310
16AABA16FFFFFFFF7F1617161616179BFFFFEB4127168DFFFFFFFFFFFFFFD99B
310
6734175AC9FFFFFF0000FFFFFFFFFFFFB9161617171617FFFFFFFFFFBB161616
310
1616347F807F7F7F7F8033171716171617171616161672FFFFFFFFFFFFFFFF9C
310
171617171617161716161617FFFFFFFFFFFFFF4117161616174E17FFFFFFFFFF
310
16BAFFFFFFFFFFFFFFFFFF9B16DAFFFFFF34169BFFFFFF5A26FFB917FFFFFFFF
310
7F4EFFFFFFEA5B26FFFFFFEA2616EAFFFFFFFFDA743416331617414E4E4E4ECA
310
0000FFFFFFFFFFFFBA161716161616FFFFFFFFFFBA17171616164EFFFFFFFFFF
310
FFFF4E16161717174E161717171626EBFFFFFFFFFFFFFF4E16161617165B1616
310
16171617FFFFFFFFFFFFFF6716161616161617FFFFFFFFFF16BAFFFFFFFFFFFF
310
FFFFFFEA268CFFFFFF7316EAFFFFEB1774FFB916FFFFFFFF7F4EFFFFFFFF7316
310
FFFFFFFF6826FFFFFFFFEB264D9CEABA257F807F7F6616BA0000FFFFFFFFFFFF
310
BA161716161616FFFFFFFFFFBA16171616164DFFFFFFFFFFFFFF4E1617161617
310
9B1617171717165BEBFFFFFFFFFF671616161617179B171616161616FFFFFFFF
310
FFFFFF3417161617171617FFFFFFFFFF17BAFFFFFFFFFFFFFFFFFFFF6734FFFF
310
FFEBCAFFFFFF8D17C9FFBA17FFFFFFFF7F357F808066174FFFFFFFFF7F16FFFF
310
FFFFD91673B99B415BFFFFFFFFBA16DA00009B7F7F7F807F671617161616167F
310
80807F7E6617161616164EFFFFFFFFFFFFFF4E1616161617B94E171716161616
310
349BC9D9AA4E16171616161634FF161617161717B9B9BAB9BA9B411716171716
310
163416FFFFFFFFFF16B9FFFFFFFFFFFFFFFFFFFFC917CAFFFFFFFFFFFFFF3342
310
FFFFBA17FFFFFFFF9B4E4E4F4E4E66EAFFFFFFFF5B16C9FFFFFFFFAA4E164E73
310
EAFFFFFFFF8D26FF00004E161716161616171617171616171717171617161616
310
17174EFFFFFFFFFFFFFF4E1717171616B9D92616171716171716171717171716
310
16171716AAFF161717171617161617171616161617161716166717FFFFFFFFFF
310
17B9FFFFFFFFFFFFFFFFFFFFFF3467FFFFFFFFFFFFCA168CFFFFBB17FFFFFFFF
310
FFFFFFFFFFFFFFFFFFFFFFEA26265BFFFFFFFFFFFFFFFFFFFFFFFFFFEA3467FF
310
00004D16161616161617161717161617161616171617171616164EFFFFFFFFFF
310
FFFF4D1617161616BAFF9B1616161616161716161616171717161766FFFF1616
310
16171617161617161716171616171717667F16FFFFFFFFFF17BAFFFFFFFFFFFF
310
FFFFFFFFFF8C26EAFFFFFFFFFF6617EAFFFFBA17FFFFFFFFFFFFFFFFFFFFFFFF
310
FFFFEA5A25BA269BFFFFFFFFFFFFFFFFFFFFFFFF6616DAFF00004E1616171616
310
1616161616161716161617171616171616174EFFFFFFFFFFFFFF4D1717171716
310
B9FFFF9C161616161616161716161717171667FFFFFF17161717171716161617
310
1716161616161641E97E16FFFFFFFFFF16B9FFFFFFFFFFFFFFFFFFFFFFEA169B
310
FFFFFFFFEA265BFFFFFFB916FFFFFFFFFFFFFFFFFFFFFFFFFF9B3416AAFF9B17
310
67EAFFFFFFFFFFFFFFFFEA5B169BFFFF00004D17161716161616161717171616
310
161717161716171716174EFFFFFFFFFFFFFF4D1616161616BAFFFFFFBB411616
310
161716161616171634ABFFFFFFFF161716161617171716171617171617267FFF
310
FF7F164E4E4E4E4F17BAFFFFFFFFFFFFFFFFFFFFFFFF66344D4E4E4F4117AAFF
310
FFFFBA174E4E4E4D4E4D4D4E4E4E4E4116174EBBFFFFFFCA342666ABEAFFFFEA
310
AA6725269CFFFFFF0000724F4E4D4D4D4E4D4D4E4E4E4D4E4E4E4E4E4E4E4E4D
310
4E4E74FFFFFFFFFFFFFF734E4E4E4D4ECAFFFFFFFFFFAA663416171717265B9B
310
FFFFFFFFFFFF7F8080807F80807F7F7F7F7F807FBAFFFFFFFF9B4E4E4F4D4D4E
310
4DC9FFFFFFFFFFFFFFFFFFFFFFFFBA4E4E4E4E4D4E4EFFFFFFFFC94E4E4E4F4E
310
4E4E4D4E4E5A807F9CD9FFFFFFFFFFFFFF9B5B2617171716174E8DEAFFFFFFFF
310
0000000000000000000000000000000000000000000000000000000000000000
  1
OLE
  0
ENDSEC
  0
SECTION
  2
OBJECTS
  0
DICTIONARY
  5
C
330
0
100
AcDbDictionary
281
     1
  3
ACAD_GROUP
350
D
  3
ACAD_LAYOUT
350
1A
  3
ACAD_MLINESTYLE
350
17
  3
ACAD_PLOTSETTINGS
350
19
  3
ACAD_PLOTSTYLENAME
350
E
  3
ACAD_SCALELIST
350
47
  0
DICTIONARY
  5
D
102
{ACAD_REACTORS
330
C
102
}
330
C
100
AcDbDictionary
281
     1
  0
DICTIONARY
  5
1A
102
{ACAD_REACTORS
330
C
102
}
330
C
100
AcDbDictionary
281
     1
  3
Layout1
350
1E
  3
Layout2
350
26
  3
Model
350
22
  0
DICTIONARY
  5
17
102
{ACAD_REACTORS
330
C
102
}
330
C
100
AcDbDictionary
281
     1
  3
Standard
350
18
  0
DICTIONARY
  5
19
102
{ACAD_REACTORS
330
C
102
}
330
C
100
AcDbDictionary
281
     1
  0
ACDBDICTIONARYWDFLT
  5
E
102
{ACAD_REACTORS
330
C
102
}
330
C
100
AcDbDictionary
281
     1
  3
Normal
350
F
100
AcDbDictionaryWithDefault
340
F
  0
DICTIONARY
  5
47
102
{ACAD_REACTORS
330
C
102
}
330
C
100
AcDbDictionary
281
     1
  3
A0
350
48
  3
A1
350
49
  3
A2
350
4A
  3
A3
350
4B
  3
A4
350
4C
  3
A5
350
4D
  3
A6
350
4E
  3
A7
350
4F
  3
A8
350
50
  3
A9
350
51
  3
B0
350
52
  3
B1
350
53
  3
B2
350
54
  3
B3
350
55
  3
B4
350
56
  3
B5
350
57
  3
B6
350
58
  3
B7
350
59
  3
B8
350
5A
  3
B9
350
5B
  3
C0
350
5C
  3
C1
350
5D
  3
C2
350
5E
  3
C3
350
5F
  3
C4
350
60
  3
C5
350
61
  3
C6
350
62
  3
C7
350
63
  3
C8
350
64
  3
C9
350
65
  3
D0
350
66
  3
D1
350
67
  3
D2
350
68
  0
LAYOUT
  5
1E
102
{ACAD_REACTORS
330
1A
102
}
330
1A
100
AcDbPlotSettings
  1

  2
none_device
  4

  6

 40
0.0
 41
0.0
 42
0.0
 43
0.0
 44
0.0
 45
0.0
 46
0.0
 47
0.0
 48
0.0
 49
0.0
140
0.0
141
0.0
142
1.0
143
1.0
 70
   688
 72
     1
 73
     0
 74
     5
  7

 75
    16
147
1.0
148
0.0
149
0.0
100
AcDbLayout
  1
Layout1
 70
     1
 71
     1
 10
0.0
 20
0.0
 11
420.0
 21
297.0
 12
0.0
 22
0.0
 32
0.0
 14
1.0000000000E+20
 24
1.0000000000E+20
 34
1.0000000000E+20
 15
-1.0000000000E+20
 25
-1.0000000000E+20
 35
-1.0000000000E+20
146
0.0
 13
0.0
 23
0.0
 33
0.0
 16
1.0
 26
0.0
 36
0.0
 17
0.0
 27
1.0
 37
0.0
 76
     0
330
1B
  0
LAYOUT
  5
26
102
{ACAD_REACTORS
330
1A
102
}
330
1A
100
AcDbPlotSettings
  1

  2
none_device
  4

  6

 40
0.0
 41
0.0
 42
0.0
 43
0.0
 44
0.0
 45
0.0
 46
0.0
 47
0.0
 48
0.0
 49
0.0
140
0.0
141
0.0
142
1.0
143
1.0
 70
   688
 72
     1
 73
     0
 74
     5
  7

 75
    16
147
1.0
148
0.0
149
0.0
100
AcDbLayout
  1
Layout2
 70
     1
 71
     2
 10
0.0
 20
0.0
 11
0.0
 21
0.0
 12
0.0
 22
0.0
 32
0.0
 14
0.0
 24
0.0
 34
0.0
 15
0.0
 25
0.0
 35
0.0
146
0.0
 13
0.0
 23
0.0
 33
0.0
 16
1.0
 26
0.0
 36
0.0
 17
0.0
 27
1.0
 37
0.0
 76
     0
330
23
  0
LAYOUT
  5
22
102
{ACAD_REACTORS
330
1A
102
}
330
1A
100
AcDbPlotSettings
  1

  2
none_device
  4
Letter_(8.50_x_11.00_Inches)
  6

 40
6.35
 41
6.35
 42
6.35000508
 43
6.35000508
 44
215.9
 45
279.4
 46
0.0
 47
0.0
 48
0.0
 49
0.0
140
0.0
141
0.0
142
1.0
143
1.0
 70
  1712
 72
     1
 73
     0
 74
     0
  7

 75
     0
147
1.0
148
0.0
149
0.0
100
AcDbLayout
  1
Model
 70
     1
 71
     0
 10
0.0
 20
0.0
 11
279.4
 21
215.9
 12
0.0
 22
0.0
 32
0.0
 14
0.0
 24
0.0
 34
0.0
 15
279.4
 25
215.9
 35
0.0
146
0.0
 13
0.0
 23
0.0
 33
0.0
 16
1.0
 26
0.0
 36
0.0
 17
0.0
 27
1.0
 37
0.0
 76
     0
330
1F
331
29
  0
MLINESTYLE
  5
18
102
{ACAD_REACTORS
330
17
102
}
330
17
100
AcDbMlineStyle
  2
Standard
 70
     0
  3

 62
   256
 51
90.0
 52
90.0
 71
     2
 49
0.5
 62
   256
  6
BYLAYER
 49
-0.5
 62
   256
  6
BYLAYER
  0
ACDBPLACEHOLDER
  5
F
102
{ACAD_REACTORS
330
E
102
}
330
E
  0
SCALE
  5
48
102
{ACAD_REACTORS
330
47
102
}
330
47
100
AcDbScale
 70
     0
300
1:1
140
1.0
141
1.0
290
     1
  0
SCALE
  5
49
102
{ACAD_REACTORS
330
47
102
}
330
47
100
AcDbScale
 70
     0
300
1:2
140
1.0
141
2.0
290
     0
  0
SCALE
  5
4A
102
{ACAD_REACTORS
330
47
102
}
330
47
100
AcDbScale
 70
     0
300
1:4
140
1.0
141
4.0
290
     0
  0
SCALE
  5
4B
102
{ACAD_REACTORS
330
47
102
}
330
47
100
AcDbScale
 70
     0
300
1:5
140
1.0
141
5.0
290
     0
  0
SCALE
  5
4C
102
{ACAD_REACTORS
330
47
102
}
330
47
100
AcDbScale
 70
     0
300
1:8
140
1.0
141
8.0
290
     0
  0
SCALE
  5
4D
102
{ACAD_REACTORS
330
47
102
}
330
47
100
AcDbScale
 70
     0
300
1:10
140
1.0
141
10.0
290
     0
  0
SCALE
  5
4E
102
{ACAD_REACTORS
330
47
102
}
330
47
100
AcDbScale
 70
     0
300
1:16
140
1.0
141
16.0
290
     0
  0
SCALE
  5
4F
102
{ACAD_REACTORS
330
47
102
}
330
47
100
AcDbScale
 70
     0
300
1:20
140
1.0
141
20.0
290
     0
  0
SCALE
  5
50
102
{ACAD_REACTORS
330
47
102
}
330
47
100
AcDbScale
 70
     0
300
1:30
140
1.0
141
30.0
290
     0
  0
SCALE
  5
51
102
{ACAD_REACTORS
330
47
102
}
330
47
100
AcDbScale
 70
     0
300
1:40
140
1.0
141
40.0
290
     0
  0
SCALE
  5
52
102
{ACAD_REACTORS
330
47
102
}
330
47
100
AcDbScale
 70
     0
300
1:50
140
1.0
141
50.0
290
     0
  0
SCALE
  5
53
102
{ACAD_REACTORS
330
47
102
}
330
47
100
AcDbScale
 70
     0
300
1:100
140
1.0
141
100.0
290
     0
  0
SCALE
  5
54
102
{ACAD_REACTORS
330
47
102
}
330
47
100
AcDbScale
 70
     0
300
2:1
140
2.0
141
1.0
290
     0
  0
SCALE
  5
55
102
{ACAD_REACTORS
330
47
102
}
330
47
100
AcDbScale
 70
     0
300
4:1
140
4.0
141
1.0
290
     0
  0
SCALE
  5
56
102
{ACAD_REACTORS
330
47
102
}
330
47
100
AcDbScale
 70
     0
300
8:1
140
8.0
141
1.0
290
     0
  0
SCALE
  5
57
102
{ACAD_REACTORS
330
47
102
}
330
47
100
AcDbScale
 70
     0
300
10:1
140
10.0
141
1.0
290
     0
  0
SCALE
  5
58
102
{ACAD_REACTORS
330
47
102
}
330
47
100
AcDbScale
 70
     0
300
100:1
140
100.0
141
1.0
290
     0
  0
SCALE
  5
59
102
{ACAD_REACTORS
330
47
102
}
330
47
100
AcDbScale
 70
     0
300
1/128" = 1'-0"
140
0.0078125
141
12.0
290
     0
  0
SCALE
  5
5A
102
{ACAD_REACTORS
330
47
102
}
330
47
100
AcDbScale
 70
     0
300
1/64" = 1'-0"
140
0.015625
141
12.0
290
     0
  0
SCALE
  5
5B
102
{ACAD_REACTORS
330
47
102
}
330
47
100
AcDbScale
 70
     0
300
1/32" = 1'-0"
140
0.03125
141
12.0
290
     0
  0
SCALE
  5
5C
102
{ACAD_REACTORS
330
47
102
}
330
47
100
AcDbScale
 70
     0
300
1/16" = 1'-0"
140
0.0625
141
12.0
290
     0
  0
SCALE
  5
5D
102
{ACAD_REACTORS
330
47
102
}
330
47
100
AcDbScale
 70
     0
300
3/32" = 1'-0"
140
0.09375
141
12.0
290
     0
  0
SCALE
  5
5E
102
{ACAD_REACTORS
330
47
102
}
330
47
100
AcDbScale
 70
     0
300
1/8" = 1'-0"
140
0.125
141
12.0
290
     0
  0
SCALE
  5
5F
102
{ACAD_REACTORS
330
47
102
}
330
47
100
AcDbScale
 70
     0
300
3/16" = 1'-0"
140
0.1875
141
12.0
290
     0
  0
SCALE
  5
60
102
{ACAD_REACTORS
330
47
102
}
330
47
100
AcDbScale
 70
     0
300
1/4" = 1'-0"
140
0.25
141
12.0
290
     0
  0
SCALE
  5
61
102
{ACAD_REACTORS
330
47
102
}
330
47
100
AcDbScale
 70
     0
300
3/8" = 1'-0"
140
0.375
141
12.0
290
     0
  0
SCALE
  5
62
102
{ACAD_REACTORS
330
47
102
}
330
47
100
AcDbScale
 70
     0
300
1/2" = 1'-0"
140
0.5
141
12.0
290
     0
  0
SCALE
  5
63
102
{ACAD_REACTORS
330
47
102
}
330
47
100
AcDbScale
 70
     0
300
3/4" = 1'-0"
140
0.75
141
12.0
290
     0
  0
SCALE
  5
64
102
{ACAD_REACTORS
330
47
102
}
330
47
100
AcDbScale
 70
     0
300
1" = 1'-0"
140
1.0
141
12.0
290
     0
  0
SCALE
  5
65
102
{ACAD_REACTORS
330
47
102
}
330
47
100
AcDbScale
 70
     0
300
1-1/2" = 1'-0"
140
1.5
141
12.0
290
     0
  0
SCALE
  5
66
102
{ACAD_REACTORS
330
47
102
}
330
47
100
AcDbScale
 70
     0
300
3" = 1'-0"
140
3.0
141
12.0
290
     0
  0
SCALE
  5
67
102
{ACAD_REACTORS
330
47
102
}
330
47
100
AcDbScale
 70
     0
300
6" = 1'-0"
140
6.0
141
12.0
290
     0
  0
SCALE
  5
68
102
{ACAD_REACTORS
330
47
102
}
330
47
100
AcDbScale
 70
     0
300
1'-0" = 1'-0"
140
12.0
141
12.0
290
     0
  0
ENDSEC
  0
EOF
