  0
SECTION
  2
HEADER
  9
$ACADVER
  1
AC1015
  9
$ACADMAINTVER
 70
    10
  9
$DWGCODEPAGE
  3
ANSI_1252
  9
$INSBASE
 10
0.0
 20
0.0
 30
0.0
  9
$EXTMIN
 10
-0.0090630292066642
 20
-0.0064082024693394
 30
-0.0015258207003612
  9
$EXTMAX
 10
219.151703481739
 20
153.7861637535809
 30
0.0000000349246008
  9
$LIMMIN
 10
0.0
 20
0.0
  9
$LIMMAX
 10
297.0
 20
210.0
  9
$ORTHOMODE
 70
     0
  9
$REGENMODE
 70
     1
  9
$FILLMODE
 70
     1
  9
$QTEXTMODE
 70
     0
  9
$MIRRTEXT
 70
     0
  9
$LTSCALE
 40
1.0
  9
$ATTMODE
 70
     1
  9
$TEXTSIZE
 40
4.0
  9
$TRACEWID
 40
10.0
  9
$TEXTSTYLE
  7
SIMPLE
  9
$CLAYER
  8
MD_DIMS
  9
$CELTYPE
  6
BYLAYER
  9
$CECOLOR
 62
   256
  9
$CELTSCALE
 40
1.0
  9
$DISPSILH
 70
     0
  9
$DIMSCALE
 40
1.0
  9
$DIMASZ
 40
3.5
  9
$DIMEXO
 40
2.5
  9
$DIMDLI
 40
10.0
  9
$DIMRND
 40
0.0
  9
$DIMDLE
 40
1.25
  9
$DIMEXE
 40
2.5
  9
$DIMTP
 40
0.0
  9
$DIMTM
 40
0.0
  9
$DIMTXT
 40
4.0
  9
$DIMCEN
 40
-3.0
  9
$DIMTSZ
 40
0.0
  9
$DIMTOL
 70
     0
  9
$DIMLIM
 70
     0
  9
$DIMTIH
 70
     0
  9
$DIMTOH
 70
     0
  9
$DIMSE1
 70
     0
  9
$DIMSE2
 70
     0
  9
$DIMTAD
 70
     0
  9
$DIMZIN
 70
     0
  9
$DIMBLK
  1

  9
$DIMASO
 70
     1
  9
$DIMSHO
 70
     1
  9
$DIMPOST
  1

  9
$DIMAPOST
  1

  9
$DIMALT
 70
     0
  9
$DIMALTD
 70
     2
  9
$DIMALTF
 40
0.039
  9
$DIMLFAC
 40
1.0
  9
$DIMTOFL
 70
     0
  9
$DIMTVP
 40
1.0
  9
$DIMTIX
 70
     0
  9
$DIMSOXD
 70
     0
  9
$DIMSAH
 70
     0
  9
$DIMBLK1
  1

  9
$DIMBLK2
  1

  9
$DIMSTYLE
  2
SIMPLE
  9
$DIMCLRD
 70
     0
  9
$DIMCLRE
 70
     0
  9
$DIMCLRT
 70
     0
  9
$DIMTFAC
 40
0.75
  9
$DIMGAP
 40
4.0
  9
$DIMJUST
 70
     0
  9
$DIMSD1
 70
     0
  9
$DIMSD2
 70
     0
  9
$DIMTOLJ
 70
     1
  9
$DIMTZIN
 70
     0
  9
$DIMALTZ
 70
     0
  9
$DIMALTTZ
 70
     0
  9
$DIMUPT
 70
     0
  9
$DIMDEC
 70
     1
  9
$DIMTDEC
 70
     2
  9
$DIMALTU
 70
     2
  9
$DIMALTTD
 70
     2
  9
$DIMTXSTY
  7
SIMPLE
  9
$DIMAUNIT
 70
     0
  9
$DIMADEC
 70
     0
  9
$DIMALTRND
 40
0.0
  9
$DIMAZIN
 70
     0
  9
$DIMDSEP
 70
    46
  9
$DIMATFIT
 70
     3
  9
$DIMFRAC
 70
     0
  9
$DIMLDRBLK
  1

  9
$DIMLUNIT
 70
     2
  9
$DIMLWD
 70
    -2
  9
$DIMLWE
 70
    -2
  9
$DIMTMOVE
 70
     0
  9
$LUNITS
 70
     2
  9
$LUPREC
 70
     2
  9
$SKETCHINC
 40
1.0
  9
$FILLETRAD
 40
3.0
  9
$AUNITS
 70
     0
  9
$AUPREC
 70
     4
  9
$MENU
  1
acad
  9
$ELEVATION
 40
0.0
  9
$PELEVATION
 40
0.0
  9
$THICKNESS
 40
0.0
  9
$LIMCHECK
 70
     0
  9
$CHAMFERA
 40
0.0
  9
$CHAMFERB
 40
0.0
  9
$CHAMFERC
 40
0.0
  9
$CHAMFERD
 40
0.0
  9
$SKPOLY
 70
     0
  9
$TDCREATE
 40
2451187.694891053
  9
$TDUCREATE
 40
2451187.861557719
  9
$TDUPDATE
 40
2453570.617688842
  9
$TDUUPDATE
 40
2453570.784355509
  9
$TDINDWG
 40
0.2346259954
  9
$TDUSRTIMER
 40
0.2346255324
  9
$USRTIMER
 70
     1
  9
$ANGBASE
 50
0.0
  9
$ANGDIR
 70
     0
  9
$PDMODE
 70
     0
  9
$PDSIZE
 40
0.0
  9
$PLINEWID
 40
0.0
  9
$SPLFRAME
 70
     0
  9
$SPLINETYPE
 70
     6
  9
$SPLINESEGS
 70
     8
  9
$HANDSEED
  5
1154
  9
$SURFTAB1
 70
    18
  9
$SURFTAB2
 70
    18
  9
$SURFTYPE
 70
     6
  9
$SURFU
 70
    18
  9
$SURFV
 70
    18
  9
$UCSBASE
  2

  9
$UCSNAME
  2

  9
$UCSORG
 10
0.0
 20
0.0
 30
0.0
  9
$UCSXDIR
 10
1.0
 20
0.0
 30
0.0
  9
$UCSYDIR
 10
0.0
 20
1.0
 30
0.0
  9
$UCSORTHOREF
  2

  9
$UCSORTHOVIEW
 70
     0
  9
$UCSORGTOP
 10
0.0
 20
0.0
 30
0.0
  9
$UCSORGBOTTOM
 10
0.0
 20
0.0
 30
0.0
  9
$UCSORGLEFT
 10
0.0
 20
0.0
 30
0.0
  9
$UCSORGRIGHT
 10
0.0
 20
0.0
 30
0.0
  9
$UCSORGFRONT
 10
0.0
 20
0.0
 30
0.0
  9
$UCSORGBACK
 10
0.0
 20
0.0
 30
0.0
  9
$PUCSBASE
  2

  9
$PUCSNAME
  2

  9
$PUCSORG
 10
0.0
 20
0.0
 30
0.0
  9
$PUCSXDIR
 10
1.0
 20
0.0
 30
0.0
  9
$PUCSYDIR
 10
0.0
 20
1.0
 30
0.0
  9
$PUCSORTHOREF
  2

  9
$PUCSORTHOVIEW
 70
     0
  9
$PUCSORGTOP
 10
0.0
 20
0.0
 30
0.0
  9
$PUCSORGBOTTOM
 10
0.0
 20
0.0
 30
0.0
  9
$PUCSORGLEFT
 10
0.0
 20
0.0
 30
0.0
  9
$PUCSORGRIGHT
 10
0.0
 20
0.0
 30
0.0
  9
$PUCSORGFRONT
 10
0.0
 20
0.0
 30
0.0
  9
$PUCSORGBACK
 10
0.0
 20
0.0
 30
0.0
  9
$USERI1
 70
     0
  9
$USERI2
 70
     0
  9
$USERI3
 70
     0
  9
$USERI4
 70
     0
  9
$USERI5
 70
     0
  9
$USERR1
 40
0.0
  9
$USERR2
 40
0.0
  9
$USERR3
 40
0.0
  9
$USERR4
 40
0.0
  9
$USERR5
 40
0.0
  9
$WORLDVIEW
 70
     1
  9
$SHADEDGE
 70
     3
  9
$SHADEDIF
 70
    70
  9
$TILEMODE
 70
     1
  9
$MAXACTVP
 70
    16
  9
$PINSBASE
 10
0.0
 20
0.0
 30
0.0
  9
$PLIMCHECK
 70
     0
  9
$PEXTMIN
 10
1.000000000000000E+20
 20
1.000000000000000E+20
 30
1.000000000000000E+20
  9
$PEXTMAX
 10
-1.000000000000000E+20
 20
-1.000000000000000E+20
 30
-1.000000000000000E+20
  9
$PLIMMIN
 10
0.0
 20
0.0
  9
$PLIMMAX
 10
420.0
 20
297.0
  9
$UNITMODE
 70
     0
  9
$VISRETAIN
 70
     0
  9
$PLINEGEN
 70
     0
  9
$PSLTSCALE
 70
     1
  9
$TREEDEPTH
 70
  3020
  9
$CMLSTYLE
  2
STANDARD
  9
$CMLJUST
 70
     0
  9
$CMLSCALE
 40
1.0
  9
$PROXYGRAPHICS
 70
     1
  9
$MEASUREMENT
 70
     0
  9
$CELWEIGHT
370
    -1
  9
$ENDCAPS
280
     0
  9
$JOINSTYLE
280
     0
  9
$LWDISPLAY
290
     0
  9
$INSUNITS
 70
     0
  9
$HYPERLINKBASE
  1

  9
$STYLESHEET
  1

  9
$XEDIT
290
     1
  9
$CEPSNTYPE
380
     0
  9
$PSTYLEMODE
290
     1
  9
$FINGERPRINTGUID
  2
{072D1285-75D3-4BB5-9E58-70128A74AA77}
  9
$VERSIONGUID
  2
{D196DBA6-D4C3-450D-BEF0-C9D6AD466D71}
  9
$EXTNAMES
290
     1
  9
$PSVPSCALE
 40
0.0
  9
$OLESTARTUP
290
     0
  0
ENDSEC
  0
SECTION
  2
CLASSES
  0
CLASS
  1
DICTIONARYVAR
  2
AcDbDictionaryVar
  3
AutoCAD 2000
 90
        0
280
     0
281
     0
  0
CLASS
  1
LWPOLYLINE
  2
AcDbPolyline
  3
AutoCAD 2000
 90
    32768
280
     0
281
     1
  0
CLASS
  1
HATCH
  2
AcDbHatch
  3
AutoCAD 2000
 90
    32768
280
     0
281
     1
  0
CLASS
  1
XRECORD
  2
AcDbXrecord
  3
AutoCAD 2000
 90
    32768
280
     0
281
     0
  0
CLASS
  1
ACDBDICTIONARYWDFLT
  2
AcDbDictionaryWithDefault
  3
AutoCAD 2000
 90
        0
280
     0
281
     0
  0
CLASS
  1
ACDBPLACEHOLDER
  2
AcDbPlaceHolder
  3
AutoCAD 2000
 90
        0
280
     0
281
     0
  0
CLASS
  1
LAYOUT
  2
AcDbLayout
  3
AutoCAD 2000
 90
        0
280
     0
281
     0
  0
CLASS
  1
LONG_TRANSACTION
  2
AcDbLongTransaction
  3
AutoCAD 2000
 90
    32768
280
     0
281
     0
  0
CLASS
  1
LWPOLYLINE
  2
AcDbPolyline
  3
AutoCAD 2000
 90
    32768
280
     0
281
     1
  0
CLASS
  1
HATCH
  2
AcDbHatch
  3
AutoCAD 2000
 90
    32768
280
     0
281
     1
  0
CLASS
  1
XRECORD
  2
AcDbXrecord
  3
AutoCAD 2000
 90
    32768
280
     0
281
     0
  0
ENDSEC
  0
SECTION
  2
TABLES
  0
TABLE
  2
VPORT
  5
8
330
0
100
AcDbSymbolTable
 70
     2
  0
VPORT
  5
1153
330
8
100
AcDbSymbolTableRecord
100
AcDbViewportTableRecord
  2
*Active
 70
     0
 10
0.0
 20
0.0
 11
1.0
 21
1.0
 12
109.5713202262661
 22
76.88987777555581
 13
0.0
 23
0.0
 14
5.0
 24
5.0
 15
10.0
 25
10.0
 16
0.0
 26
0.0
 36
1.0
 17
0.0
 27
0.0
 37
0.0
 40
177.4886591827414
 41
1.786096256684492
 42
50.0
 43
0.0
 44
0.0
 50
0.0
 51
0.0
 71
     0
 72
  1000
 73
     1
 74
     0
 75
     0
 76
     0
 77
     0
 78
     0
281
     0
 65
     1
110
0.0
120
0.0
130
0.0
111
1.0
121
0.0
131
0.0
112
0.0
122
1.0
132
0.0
 79
     0
146
0.0
  0
ENDTAB
  0
TABLE
  2
LTYPE
  5
5
330
0
100
AcDbSymbolTable
 70
     1
  0
LTYPE
  5
11
330
5
100
AcDbSymbolTableRecord
100
AcDbLinetypeTableRecord
  2
BYBLOCK
 70
     0
  3

 72
    65
 73
     0
 40
0.0
  0
LTYPE
  5
12
330
5
100
AcDbSymbolTableRecord
100
AcDbLinetypeTableRecord
  2
BYLAYER
 70
     0
  3

 72
    65
 73
     0
 40
0.0
  0
LTYPE
  5
13
330
5
100
AcDbSymbolTableRecord
100
AcDbLinetypeTableRecord
  2
CONTINUOUS
 70
     0
  3
Solid line
 72
    65
 73
     0
 40
0.0
  0
ENDTAB
  0
TABLE
  2
LAYER
  5
2
330
0
100
AcDbSymbolTable
 70
     7
  0
LAYER
  5
E
330
2
100
AcDbSymbolTableRecord
100
AcDbLayerTableRecord
  2
0
 70
     0
 62
     7
  6
CONTINUOUS
370
    -3
390
1116
  0
LAYER
  5
2E
330
2
100
AcDbSymbolTableRecord
100
AcDbLayerTableRecord
  2
OUTLINE
 70
     0
 62
     4
  6
CONTINUOUS
370
    -3
390
1116
  0
LAYER
  5
32
330
2
100
AcDbSymbolTableRecord
100
AcDbLayerTableRecord
  2
MD_DIMS
 70
     0
 62
     7
  6
CONTINUOUS
370
    -3
390
1116
  0
LAYER
  5
53B
330
2
100
AcDbSymbolTableRecord
100
AcDbLayerTableRecord
  2
DEFPOINTS
 70
     0
 62
     7
  6
CONTINUOUS
290
     0
370
    -3
390
1116
  0
LAYER
  5
7CC
330
2
100
AcDbSymbolTableRecord
100
AcDbLayerTableRecord
  2
BORDER
 70
     0
 62
     7
  6
CONTINUOUS
370
    -3
390
1116
  0
LAYER
  5
7CD
330
2
100
AcDbSymbolTableRecord
100
AcDbLayerTableRecord
  2
D1
 70
     0
 62
     7
  6
CONTINUOUS
370
    -3
390
1116
  0
LAYER
  5
7CE
330
2
100
AcDbSymbolTableRecord
100
AcDbLayerTableRecord
  2
LAYER_1
 70
     0
 62
   160
  6
CONTINUOUS
370
    -3
390
1116
  0
ENDTAB
  0
TABLE
  2
STYLE
  5
3
330
0
100
AcDbSymbolTable
 70
     4
  0
STYLE
  5
F
330
3
100
AcDbSymbolTableRecord
100
AcDbTextStyleTableRecord
  2
STANDARD
 70
     0
 40
0.0
 41
1.0
 50
0.0
 71
     0
 42
3.0
  3
txt.shx
  4

  0
STYLE
  5
1F
330
3
100
AcDbSymbolTableRecord
100
AcDbTextStyleTableRecord
  2
SIMPLE
 70
     0
 40
0.0
 41
1.0
 50
0.0
 71
     0
 42
4.0
  3
simplex.shx
  4

  0
STYLE
  5
7D0
330
3
100
AcDbSymbolTableRecord
100
AcDbTextStyleTableRecord
  2
COPYRIGHT
 70
     0
 40
0.0
 41
1.0
 50
0.0
 71
     0
 42
2.0
  3
VERDANA.TTF
  4

1001
ACAD
1000
Verdana
1071
       34
  0
STYLE
  5
7D1
330
3
100
AcDbSymbolTableRecord
100
AcDbTextStyleTableRecord
  2
BORDER
 70
     0
 40
0.0
 41
1.0
 50
0.0
 71
     0
 42
2.0
  3
technic_.ttf
  4

1001
ACAD
1000
Technic
1071
      514
  0
ENDTAB
  0
TABLE
  2
VIEW
  5
6
330
0
100
AcDbSymbolTable
 70
     2
  0
VIEW
  5
25
330
6
100
AcDbSymbolTableRecord
100
AcDbViewTableRecord
  2
VIEW_SLIDE
 70
     0
 40
210.0
 10
152.372093
 20
105.0
 41
304.744186
 11
0.0
 21
0.0
 31
1.0
 12
0.0
 22
0.0
 32
0.0
 42
50.0
 43
0.0
 44
0.0
 50
0.0
 71
     0
281
     0
 72
     0
  0
VIEW
  5
26
330
6
100
AcDbSymbolTableRecord
100
AcDbViewTableRecord
  2
SHEET
 70
     0
 40
220.419847
 10
148.5
 20
110.209924
 41
297.0
 11
0.0
 21
0.0
 31
1.0
 12
0.0
 22
0.0
 32
0.0
 42
50.0
 43
0.0
 44
0.0
 50
0.0
 71
     0
281
     0
 72
     0
  0
ENDTAB
  0
TABLE
  2
UCS
  5
7
330
0
100
AcDbSymbolTable
 70
     0
  0
ENDTAB
  0
TABLE
  2
APPID
  5
9
330
0
100
AcDbSymbolTable
 70
     7
  0
APPID
  5
10
330
9
100
AcDbSymbolTableRecord
100
AcDbRegAppTableRecord
  2
ACAD
 70
     0
  0
APPID
  5
7D8
330
9
100
AcDbSymbolTableRecord
100
AcDbRegAppTableRecord
  2
CONTENTTABDATA
 70
     0
  0
APPID
  5
7D9
330
9
100
AcDbSymbolTableRecord
100
AcDbRegAppTableRecord
  2
CONTENTCURRENTTAB
 70
     0
  0
APPID
  5
7DA
330
9
100
AcDbSymbolTableRecord
100
AcDbRegAppTableRecord
  2
CONTENTBLOCKDESCRIPTION
 70
     0
  0
APPID
  5
7DB
330
9
100
AcDbSymbolTableRecord
100
AcDbRegAppTableRecord
  2
CONTENTLONGBLOCKNAME
 70
     0
  0
APPID
  5
7DC
330
9
100
AcDbSymbolTableRecord
100
AcDbRegAppTableRecord
  2
CONTENTBLOCKICON
 70
     0
  0
APPID
  5
1151
330
9
100
AcDbSymbolTableRecord
100
AcDbRegAppTableRecord
  2
DCO15
 70
     0
  0
ENDTAB
  0
TABLE
  2
DIMSTYLE
  5
A
330
0
100
AcDbSymbolTable
 70
     2
100
AcDbDimStyleTable
 71
     0
  0
DIMSTYLE
105
13D
330
A
100
AcDbSymbolTableRecord
100
AcDbDimStyleTableRecord
  2
STANDARD
 70
     0
340
F
  0
DIMSTYLE
105
357
102
{ACAD_REACTORS
330
67D
102
}
330
A
100
AcDbSymbolTableRecord
100
AcDbDimStyleTableRecord
  2
SIMPLE
 70
     0
 40
0.0
 41
3.5
 42
2.5
 43
10.0
 44
2.5
 46
1.25
 73
     0
 74
     0
140
4.0
141
-3.0
143
0.039
145
1.0
146
0.75
147
4.0
271
     1
272
     2
340
1F
  0
ENDTAB
  0
TABLE
  2
BLOCK_RECORD
  5
1
330
0
100
AcDbSymbolTable
 70
    11
  0
BLOCK_RECORD
  5
17
102
{ACAD_XDICTIONARY
360
1142
102
}
330
1
100
AcDbSymbolTableRecord
100
AcDbBlockTableRecord
  2
*MODEL_SPACE
340
114B
  0
BLOCK_RECORD
  5
14
102
{ACAD_XDICTIONARY
360
1140
102
}
330
1
100
AcDbSymbolTableRecord
100
AcDbBlockTableRecord
  2
*PAPER_SPACE
340
114C
  0
BLOCK_RECORD
  5
671
330
1
100
AcDbSymbolTableRecord
100
AcDbBlockTableRecord
  2
*D0
340
0
  0
BLOCK_RECORD
  5
70B
330
1
100
AcDbSymbolTableRecord
100
AcDbBlockTableRecord
  2
AI9-BLK4
340
0
102
{BLKREFS
331
712
102
}
  0
BLOCK_RECORD
  5
711
330
1
100
AcDbSymbolTableRecord
100
AcDbBlockTableRecord
  2
THOR_COMPANY_LOGO
340
0
102
{BLKREFS
331
80B
102
}
  0
BLOCK_RECORD
  5
7DD
330
1
100
AcDbSymbolTableRecord
100
AcDbBlockTableRecord
  2
A4-LANDSCAPE-THOR-LABS
340
0
102
{BLKREFS
331
829
102
}
  0
BLOCK_RECORD
  5
838
330
1
100
AcDbSymbolTableRecord
100
AcDbBlockTableRecord
  2
*U4
340
0
102
{BLKREFS
331
70C
102
}
  0
BLOCK_RECORD
  5
88F
330
1
100
AcDbSymbolTableRecord
100
AcDbBlockTableRecord
  2
*U5
340
0
102
{BLKREFS
331
70D
102
}
  0
BLOCK_RECORD
  5
900
330
1
100
AcDbSymbolTableRecord
100
AcDbBlockTableRecord
  2
*U6
340
0
102
{BLKREFS
331
70E
102
}
  0
BLOCK_RECORD
  5
98F
330
1
100
AcDbSymbolTableRecord
100
AcDbBlockTableRecord
  2
*U7
340
0
102
{BLKREFS
331
713
102
}
  0
BLOCK_RECORD
  5
9F6
330
1
100
AcDbSymbolTableRecord
100
AcDbBlockTableRecord
  2
*U8
340
0
102
{BLKREFS
331
714
102
}
  0
BLOCK_RECORD
  5
A7C
330
1
100
AcDbSymbolTableRecord
100
AcDbBlockTableRecord
  2
*U9
340
0
102
{BLKREFS
331
715
102
}
  0
BLOCK_RECORD
  5
ADF
330
1
100
AcDbSymbolTableRecord
100
AcDbBlockTableRecord
  2
*U10
340
0
102
{BLKREFS
331
716
102
}
  0
ENDTAB
  0
ENDSEC
  0
SECTION
  2
BLOCKS
  0
BLOCK
  5
37
330
17
100
AcDbEntity
  8
0
100
AcDbBlockBegin
  2
*MODEL_SPACE
 70
     0
 10
0.0
 20
0.0
 30
0.0
  3
*MODEL_SPACE
  1

  0
ENDBLK
  5
38
330
17
100
AcDbEntity
  8
0
100
AcDbBlockEnd
  0
BLOCK
  5
35
330
14
100
AcDbEntity
 67
     1
  8
0
100
AcDbBlockBegin
  2
*PAPER_SPACE
 70
     0
 10
0.0
 20
0.0
 30
0.0
  3
*PAPER_SPACE
  1

  0
ENDBLK
  5
36
330
14
100
AcDbEntity
 67
     1
  8
0
100
AcDbBlockEnd
  0
BLOCK
  5
694
330
671
100
AcDbEntity
  8
0
100
AcDbBlockBegin
  2
*D0
 70
     1
 10
0.0
 20
0.0
 30
0.0
  3
*D0
  1

  0
LINE
  5
695
330
671
100
AcDbEntity
  8
0
  6
ByBlock
 62
     0
100
AcDbLine
 10
82.64476
 20
174.4232199999999
 30
0.0
 11
82.64476
 21
191.7514309999999
 31
0.0
  0
LINE
  5
696
330
671
100
AcDbEntity
  8
0
  6
ByBlock
 62
     0
100
AcDbLine
 10
240.271748
 20
175.4232199999999
 30
0.0
 11
240.271748
 21
191.7514309999999
 31
0.0
  0
LINE
  5
697
330
671
100
AcDbEntity
  8
0
  6
ByBlock
 62
     0
100
AcDbLine
 10
86.14475999999999
 20
189.2514309999999
 30
0.0
 11
236.771748
 21
189.2514309999999
 31
0.0
  0
SOLID
  5
698
330
671
100
AcDbEntity
  8
0
  6
ByBlock
 62
     0
100
AcDbTrace
 10
86.14475999999999
 20
189.8347639999999
 30
0.0
 11
86.14475999999999
 21
188.6680979999999
 31
0.0
 12
82.64476
 22
189.2514309999999
 32
0.0
 13
82.64476
 23
189.2514309999999
 33
0.0
  0
SOLID
  5
699
330
671
100
AcDbEntity
  8
0
  6
ByBlock
 62
     0
100
AcDbTrace
 10
236.771748
 20
189.8347639999999
 30
0.0
 11
236.771748
 21
188.6680979999999
 31
0.0
 12
240.271748
 22
189.2514309999999
 32
0.0
 13
240.271748
 23
189.2514309999999
 33
0.0
  0
MTEXT
  5
69A
330
671
100
AcDbEntity
  8
0
  6
ByBlock
 62
     0
100
AcDbMText
 10
161.458254
 20
193.2514309999999
 30
0.0
 40
4.0
 41
0.0
 71
     5
 72
     5
  1
\A1;157.5
  7
SIMPLE
 73
     1
 44
1.0
1001
ACAD
1000
MTEXTBEGIN
1070
    73
1070
     1
1070
    44
1040
1.0
1070
    74
1070
     0
1000
MTEXTEND
  0
POINT
  5
69B
330
671
100
AcDbEntity
  8
DEFPOINTS
  6
ByBlock
 62
     0
100
AcDbPoint
 10
82.64476
 20
171.9232199999999
 30
0.0
  0
POINT
  5
69C
330
671
100
AcDbEntity
  8
DEFPOINTS
  6
ByBlock
 62
     0
100
AcDbPoint
 10
240.271748
 20
172.9232199999999
 30
0.0
  0
POINT
  5
69D
330
671
100
AcDbEntity
  8
DEFPOINTS
  6
ByBlock
 62
     0
100
AcDbPoint
 10
240.271748
 20
189.2514309999999
 30
0.0
  0
ENDBLK
  5
69E
330
671
100
AcDbEntity
  8
0
100
AcDbBlockEnd
  0
BLOCK
  5
70F
330
70B
100
AcDbEntity
  8
0
 62
     7
100
AcDbBlockBegin
  2
AI9-BLK4
 70
     0
 10
0.0
 20
0.0
 30
0.0
  3
AI9-BLK4
  1

  0
INSERT
  5
70C
330
70B
100
AcDbEntity
  8
LAYER_1
  6
Continuous
 62
     7
100
AcDbBlockReference
  2
*U4
 10
0.0
 20
0.0
 30
0.0
1001
ACAD
1002
{
1000
R14_HATCH_DATA
1000
70C
1011
1.0
1021
0.0
1031
0.0
1011
0.0
1021
1.0
1031
0.0
1011
0.0
1021
0.0
1031
1.0
1040
0.0
1010
0.0
1020
0.0
1030
1.0
1000
SOLID
1070
     1
1070
     0
1071
        1
1071
        1
1071
        1
1070
     4
1070
     3
1070
     0
1070
     0
1071
       23
1071
       19
1040
0.0
1040
0.0
1040
0.0
1040
0.0
1040
1.0
1040
1.0
1040
1.0
1040
2.0
1040
2.0
1040
2.0
1040
3.0
1040
3.0
1040
3.0
1040
4.0
1040
4.0
1040
4.0
1040
5.0
1040
5.0
1040
5.0
1040
6.0
1040
6.0
1040
6.0
1040
6.0
1040
3.158463999999999
1040
-7.689280999999999
1040
3.158463999999999
1040
-7.689280999999999
1040
-3.103342
1040
-7.689280999999999
1040
-3.103342
1040
-7.689280999999999
1040
-3.103342
1040
-7.689280999999999
1040
-3.103342
1040
-6.410460999999998
1040
-3.103342
1040
-6.410460999999998
1040
-3.103342
1040
-6.410460999999998
1040
2.089106
1040
-6.410460999999998
1040
2.089106
1040
-6.410460999999998
1040
2.089106
1040
-6.410460999999998
1040
2.089106
1040
-3.235460999999999
1040
2.089106
1040
-3.235460999999999
1040
2.089106
1040
-3.235460999999999
1040
3.158463999999999
1040
-3.235460999999999
1040
3.158463999999999
1040
-3.235460999999999
1040
3.158463999999999
1040
-3.235460999999999
1040
3.158463999999999
1040
-7.689280999999999
1040
3.158463999999999
1040
-7.689280999999999
1071
        0
1070
     0
1070
     1
1071
        1
1040
0.0
1040
0.0
1040
0.0
1002
}
  0
INSERT
  5
70D
330
70B
100
AcDbEntity
  8
LAYER_1
  6
Continuous
 62
     7
100
AcDbBlockReference
  2
*U5
 10
0.0
 20
0.0
 30
0.0
1001
ACAD
1002
{
1000
R14_HATCH_DATA
1000
70D
1011
1.0
1021
0.0
1031
0.0
1011
0.0
1021
1.0
1031
0.0
1011
0.0
1021
0.0
1031
1.0
1040
0.0
1010
0.0
1020
0.0
1030
1.0
1000
SOLID
1070
     1
1070
     0
1071
        1
1071
        1
1071
        1
1070
     4
1070
     3
1070
     0
1070
     0
1071
       29
1071
       25
1040
0.0
1040
0.0
1040
0.0
1040
0.0
1040
1.0
1040
1.0
1040
1.0
1040
2.0
1040
2.0
1040
2.0
1040
3.0
1040
3.0
1040
3.0
1040
4.0
1040
4.0
1040
4.0
1040
5.0
1040
5.0
1040
5.0
1040
6.0
1040
6.0
1040
6.0
1040
7.0
1040
7.0
1040
7.0
1040
8.0
1040
8.0
1040
8.0
1040
8.0
1040
3.158463999999999
1040
-1.567517999999999
1040
3.158463999999999
1040
-1.567517999999999
1040
-2.089106
1040
-1.567517999999999
1040
-2.089106
1040
-1.567517999999999
1040
-2.089106
1040
-1.567517999999999
1040
-2.089106
1040
-3.430626
1040
-2.089106
1040
-3.430626
1040
-2.089106
1040
-3.430626
1040
-3.158463999999999
1040
-3.430626
1040
-3.158463999999999
1040
-3.430626
1040
-3.158463999999999
1040
-3.430626
1040
-3.158463999999999
1040
1.574408999999999
1040
-3.158463999999999
1040
1.574408999999999
1040
-3.158463999999999
1040
1.574408999999999
1040
-2.089106
1040
1.574408999999999
1040
-2.089106
1040
1.574408999999999
1040
-2.089106
1040
1.574408999999999
1040
-2.089106
1040
-0.288699
1040
-2.089106
1040
-0.288699
1040
-2.089106
1040
-0.288699
1040
3.158463999999999
1040
-0.288699
1040
3.158463999999999
1040
-0.288699
1040
3.158463999999999
1040
-0.288699
1040
3.158463999999999
1040
-1.567517999999999
1040
3.158463999999999
1040
-1.567517999999999
1071
        0
1070
     0
1070
     1
1071
        1
1040
0.0
1040
0.0
1040
0.0
1002
}
  0
INSERT
  5
70E
330
70B
100
AcDbEntity
  8
LAYER_1
  6
Continuous
 62
     7
100
AcDbBlockReference
  2
*U6
 10
0.0
 20
0.0
 30
0.0
1001
ACAD
1002
{
1000
R14_HATCH_DATA
1000
70E
1011
1.0
1021
0.0
1031
0.0
1011
0.0
1021
1.0
1031
0.0
1011
0.0
1021
0.0
1031
1.0
1040
0.0
1010
0.0
1020
0.0
1030
1.0
1000
SOLID
1070
     1
1070
     0
1071
        2
1071
       16
1071
        1
1070
     4
1070
     3
1070
     0
1070
     0
1071
       38
1071
       34
1040
0.0
1040
0.0
1040
0.0
1040
0.0
1040
1.0
1040
1.0
1040
1.0
1040
2.0
1040
2.0
1040
2.0
1040
3.0
1040
3.0
1040
3.0
1040
4.0
1040
4.0
1040
4.0
1040
5.0
1040
5.0
1040
5.0
1040
6.0
1040
6.0
1040
6.0
1040
7.0
1040
7.0
1040
7.0
1040
8.0
1040
8.0
1040
8.0
1040
9.0
1040
9.0
1040
9.0
1040
10.0
1040
10.0
1040
10.0
1040
11.0
1040
11.0
1040
11.0
1040
11.0
1040
-2.089106
1040
3.687457999999999
1040
-2.089106
1040
3.687457999999999
1040
2.089106
1040
3.687457999999999
1040
2.089106
1040
3.687457999999999
1040
2.089106
1040
3.687457999999999
1040
2.089106
1040
4.635548
1040
2.089106
1040
4.635548
1040
2.089106
1040
4.990221
1040
2.069123999999999
1040
5.246190999999999
1040
2.028816999999999
1040
5.403459999999999
1040
1.977484999999999
1040
5.609477
1040
1.889979
1040
5.780352999999998
1040
1.766645
1040
5.916261999999999
1040
1.643310999999999
1040
6.051998999999998
1040
1.44005
1040
6.162930999999998
1040
1.157551999999999
1040
6.248713999999998
1040
0.875054
1040
6.334496999999998
1040
0.489893
1040
6.377388999999999
1040
0.002067
1040
6.377388999999999
1040
-0.4854140000000001
1040
6.377388999999999
1040
-0.8595509999999999
1040
6.334496999999998
1040
-1.120689999999999
1040
6.248713999999998
1040
-1.381828
1040
6.162930999999998
1040
-1.585433
1040
6.042697
1040
-1.731849999999999
1040
5.888357
1040
-1.878265999999999
1040
5.733844999999998
1040
-1.977139999999999
1040
5.537990999999999
1040
-2.028816999999999
1040
5.300624
1040
-2.068779999999998
1040
5.123200999999999
1040
-2.089106
1040
4.775591
1040
-2.089106
1040
4.257965999999999
1040
-2.089106
1040
4.257965999999999
1040
-2.089106
1040
3.687457999999999
1040
-2.089106
1040
3.687457999999999
1071
        0
1071
        1
1071
        1
1070
     4
1070
     3
1070
     0
1070
     0
1071
       38
1071
       34
1040
0.0
1040
0.0
1040
0.0
1040
0.0
1040
1.0
1040
1.0
1040
1.0
1040
2.0
1040
2.0
1040
2.0
1040
3.0
1040
3.0
1040
3.0
1040
4.0
1040
4.0
1040
4.0
1040
5.0
1040
5.0
1040
5.0
1040
6.0
1040
6.0
1040
6.0
1040
7.0
1040
7.0
1040
7.0
1040
8.0
1040
8.0
1040
8.0
1040
9.0
1040
9.0
1040
9.0
1040
10.0
1040
10.0
1040
10.0
1040
11.0
1040
11.0
1040
11.0
1040
11.0
1040
-3.158463999999999
1040
2.408638999999999
1040
-3.158463999999999
1040
2.408638999999999
1040
-3.158463999999999
1040
4.733216999999998
1040
-3.158463999999999
1040
4.733216999999998
1040
-3.158463999999999
1040
5.257215999999999
1040
-3.118155999999999
1040
5.656846999999999
1040
-3.037541
1040
5.931937999999998
1040
-2.928331
1040
6.301423999999999
1040
-2.734372
1040
6.617855999999998
1040
-2.456008999999998
1040
6.881406
1040
-2.177299999999998
1040
7.144955999999998
1040
-1.836235999999999
1040
7.34546
1040
-1.432470999999998
1040
7.48292
1040
-1.028705999999999
1040
7.620378999999998
1040
-0.531234
1040
7.689280999999999
1040
0.060634
1040
7.689280999999999
1040
0.580499
1040
7.689280999999999
1040
1.028705999999999
1040
7.624857999999999
1040
1.40491
1040
7.496011
1040
1.864486
1040
7.338397999999998
1040
2.236556
1040
7.113432999999999
1040
2.520775999999998
1040
6.821289
1040
2.736438999999998
1040
6.600802999999999
1040
2.90456
1040
6.302801999999998
1040
3.025138
1040
5.927630999999998
1040
3.114021999999999
1040
5.646855999999998
1040
3.158463999999999
1040
5.271684999999998
1040
3.158463999999999
1040
4.801946
1040
3.158463999999999
1040
4.801946
1040
3.158463999999999
1040
2.408638999999999
1040
3.158463999999999
1040
2.408638999999999
1040
3.158463999999999
1040
2.408638999999999
1040
-3.158463999999999
1040
2.408638999999999
1040
-3.158463999999999
1040
2.408638999999999
1071
        0
1070
     0
1070
     1
1071
        1
1040
0.0
1040
0.0
1040
0.0
1002
}
  0
ENDBLK
  5
710
330
70B
100
AcDbEntity
  8
0
100
AcDbBlockEnd
  0
BLOCK
  5
737
330
711
100
AcDbEntity
  8
0
100
AcDbBlockBegin
  2
THOR_COMPANY_LOGO
 70
     0
 10
0.0
 20
0.0
 30
0.0
  3
THOR_COMPANY_LOGO
  1

  0
INSERT
  5
712
330
711
100
AcDbEntity
  8
LAYER_1
 62
     7
100
AcDbBlockReference
  2
AI9-BLK4
 10
36.192421
 20
2.551441
 30
0.0
 41
0.324675
 42
0.324675
 43
0.324675
  0
INSERT
  5
713
330
711
100
AcDbEntity
  8
LAYER_1
  6
Continuous
 62
     7
100
AcDbBlockReference
  2
*U7
 10
0.0
 20
0.0
 30
0.0
1001
ACAD
1002
{
1000
R14_HATCH_DATA
1000
713
1011
1.0
1021
0.0
1031
0.0
1011
0.0
1021
1.0
1031
0.0
1011
0.0
1021
0.0
1031
1.0
1040
0.0
1010
0.0
1020
0.0
1030
1.0
1000
SOLID
1070
     1
1070
     0
1071
        1
1071
        1
1071
        1
1070
     4
1070
     3
1070
     0
1070
     0
1071
       29
1071
       25
1040
0.0
1040
0.0
1040
0.0
1040
0.0
1040
1.0
1040
1.0
1040
1.0
1040
2.0
1040
2.0
1040
2.0
1040
3.0
1040
3.0
1040
3.0
1040
4.0
1040
4.0
1040
4.0
1040
5.0
1040
5.0
1040
5.0
1040
6.0
1040
6.0
1040
6.0
1040
7.0
1040
7.0
1040
7.0
1040
8.0
1040
8.0
1040
8.0
1040
8.0
1040
4.216243
1040
3.845085999999999
1040
4.216243
1040
3.845085999999999
1040
2.729203
1040
3.845085999999999
1040
2.729203
1040
3.845085999999999
1040
2.729203
1040
3.845085999999999
1040
2.729203
1040
-0.007046
1040
2.729203
1040
-0.007046
1040
2.729203
1040
-0.007046
1040
1.430636999999999
1040
-0.007046
1040
1.430636999999999
1040
-0.007046
1040
1.430636999999999
1040
-0.007046
1040
1.430636999999999
1040
3.845085999999999
1040
1.430636999999999
1040
3.845085999999999
1040
1.430636999999999
1040
3.845085999999999
1040
-0.056291
1040
3.845085999999999
1040
-0.056291
1040
3.845085999999999
1040
-0.056291
1040
3.845085999999999
1040
-0.056291
1040
4.957526999999998
1040
-0.056291
1040
4.957526999999998
1040
-0.056291
1040
4.957526999999998
1040
4.216243
1040
4.957526999999998
1040
4.216243
1040
4.957526999999998
1040
4.216243
1040
4.957526999999998
1040
4.216243
1040
3.845085999999999
1040
4.216243
1040
3.845085999999999
1071
        0
1070
     0
1070
     1
1071
        1
1040
-11.334336
1040
-44.057737
1040
0.0
1002
}
  0
INSERT
  5
714
330
711
100
AcDbEntity
  8
LAYER_1
  6
Continuous
 62
     7
100
AcDbBlockReference
  2
*U8
 10
0.0
 20
0.0
 30
0.0
1001
ACAD
1002
{
1000
R14_HATCH_DATA
1000
714
1011
1.0
1021
0.0
1031
0.0
1011
0.0
1021
1.0
1031
0.0
1011
0.0
1021
0.0
1031
1.0
1040
0.0
1010
0.0
1020
0.0
1030
1.0
1000
SOLID
1070
     1
1070
     0
1071
        1
1071
        1
1071
        1
1070
     4
1070
     3
1070
     0
1070
     0
1071
       41
1071
       37
1040
0.0
1040
0.0
1040
0.0
1040
0.0
1040
1.0
1040
1.0
1040
1.0
1040
2.0
1040
2.0
1040
2.0
1040
3.0
1040
3.0
1040
3.0
1040
4.0
1040
4.0
1040
4.0
1040
5.0
1040
5.0
1040
5.0
1040
6.0
1040
6.0
1040
6.0
1040
7.0
1040
7.0
1040
7.0
1040
8.0
1040
8.0
1040
8.0
1040
9.0
1040
9.0
1040
9.0
1040
10.0
1040
10.0
1040
10.0
1040
11.0
1040
11.0
1040
11.0
1040
12.0
1040
12.0
1040
12.0
1040
12.0
1040
4.076201999999999
1040
4.957526999999998
1040
4.076201999999999
1040
4.957526999999998
1040
5.374711999999999
1040
4.957526999999998
1040
5.374711999999999
1040
4.957526999999998
1040
5.374711999999999
1040
4.957526999999998
1040
5.374711999999999
1040
3.149747
1040
5.374711999999999
1040
3.149747
1040
5.374711999999999
1040
3.149747
1040
7.08518
1040
3.149747
1040
7.08518
1040
3.149747
1040
7.08518
1040
3.149747
1040
7.08518
1040
4.957526999999998
1040
7.08518
1040
4.957526999999998
1040
7.08518
1040
4.957526999999998
1040
8.383689999999999
1040
4.957526999999998
1040
8.383689999999999
1040
4.957526999999998
1040
8.383689999999999
1040
4.957526999999998
1040
8.383689999999999
1040
-0.007046
1040
8.383689999999999
1040
-0.007046
1040
8.383689999999999
1040
-0.007046
1040
7.08518
1040
-0.007046
1040
7.08518
1040
-0.007046
1040
7.08518
1040
-0.007046
1040
7.08518
1040
2.037304999999999
1040
7.08518
1040
2.037304999999999
1040
7.08518
1040
2.037304999999999
1040
5.374711999999999
1040
2.037304999999999
1040
5.374711999999999
1040
2.037304999999999
1040
5.374711999999999
1040
2.037304999999999
1040
5.374711999999999
1040
-0.007046
1040
5.374711999999999
1040
-0.007046
1040
5.374711999999999
1040
-0.007046
1040
4.076201999999999
1040
-0.007046
1040
4.076201999999999
1040
-0.007046
1040
4.076201999999999
1040
-0.007046
1040
4.076201999999999
1040
4.957526999999998
1040
4.076201999999999
1040
4.957526999999998
1071
        0
1070
     0
1070
     1
1071
        1
1040
-11.334336
1040
-44.057737
1040
0.0
1002
}
  0
INSERT
  5
715
330
711
100
AcDbEntity
  8
LAYER_1
  6
Continuous
 62
     7
100
AcDbBlockReference
  2
*U9
 10
0.0
 20
0.0
 30
0.0
1001
ACAD
1002
{
1000
R14_HATCH_DATA
1000
715
1011
1.0
1021
0.0
1031
0.0
1011
0.0
1021
1.0
1031
0.0
1011
0.0
1021
0.0
1031
1.0
1040
0.0
1010
0.0
1020
0.0
1030
1.0
1000
SOLID
1070
     1
1070
     0
1071
        2
1071
       16
1071
        1
1070
     4
1070
     3
1070
     0
1070
     0
1071
       17
1071
       13
1040
0.0
1040
0.0
1040
0.0
1040
0.0
1040
1.0
1040
1.0
1040
1.0
1040
2.0
1040
2.0
1040
2.0
1040
3.0
1040
3.0
1040
3.0
1040
4.0
1040
4.0
1040
4.0
1040
4.0
1040
10.833846
1040
1.001203999999999
1040
11.671631
1040
1.001203999999999
1040
11.99276299999999
1040
1.73832
1040
11.99276299999999
1040
2.475325
1040
11.99276299999999
1040
3.212328999999999
1040
11.671631
1040
3.949333
1040
10.833846
1040
3.949333
1040
9.996062
1040
3.949333
1040
9.674929999999999
1040
3.212328999999999
1040
9.674929999999999
1040
2.475325
1040
9.674929999999999
1040
1.73832
1040
9.996062
1040
1.001203999999999
1040
10.833846
1040
1.001203999999999
1071
        0
1071
        1
1071
        1
1070
     4
1070
     3
1070
     0
1070
     0
1071
       17
1071
       13
1040
0.0
1040
0.0
1040
0.0
1040
0.0
1040
1.0
1040
1.0
1040
1.0
1040
2.0
1040
2.0
1040
2.0
1040
3.0
1040
3.0
1040
3.0
1040
4.0
1040
4.0
1040
4.0
1040
4.0
1040
10.833846
1040
5.061830999999998
1040
12.40472
1040
5.061830999999998
1040
13.291273
1040
3.914602999999999
1040
13.291273
1040
2.475325
1040
13.291273
1040
1.036102999999999
1040
12.40472
1040
-0.111181
1040
10.833846
1040
-0.111181
1040
9.263083999999999
1040
-0.111181
1040
8.376474999999999
1040
1.036102999999999
1040
8.376474999999999
1040
2.475325
1040
8.376474999999999
1040
3.914602999999999
1040
9.263083999999999
1040
5.061830999999998
1040
10.833846
1040
5.061830999999998
1071
        0
1070
     0
1070
     1
1071
        1
1040
-11.334336
1040
-44.057737
1040
0.0
1002
}
  0
INSERT
  5
716
330
711
100
AcDbEntity
  8
LAYER_1
  6
Continuous
 62
     7
100
AcDbBlockReference
  2
*U10
 10
0.0
 20
0.0
 30
0.0
1001
ACAD
1002
{
1000
R14_HATCH_DATA
1000
716
1011
1.0
1021
0.0
1031
0.0
1011
0.0
1021
1.0
1031
0.0
1011
0.0
1021
0.0
1031
1.0
1040
0.0
1010
0.0
1020
0.0
1030
1.0
1000
SOLID
1070
     1
1070
     0
1071
        2
1071
       16
1071
        1
1070
     4
1070
     3
1070
     0
1070
     0
1071
       20
1071
       16
1040
0.0
1040
0.0
1040
0.0
1040
0.0
1040
1.0
1040
1.0
1040
1.0
1040
2.0
1040
2.0
1040
2.0
1040
3.0
1040
3.0
1040
3.0
1040
4.0
1040
4.0
1040
4.0
1040
5.0
1040
5.0
1040
5.0
1040
5.0
1040
14.595544
1040
2.802160999999999
1040
14.595544
1040
2.802160999999999
1040
15.68460799999999
1040
2.802160999999999
1040
15.68460799999999
1040
2.802160999999999
1040
16.07559299999999
1040
2.802160999999999
1040
16.28509499999999
1040
3.010712999999999
1040
16.28509499999999
1040
3.386093999999999
1040
16.28509499999999
1040
3.754707999999999
1040
15.99187
1040
3.921537999999999
1040
15.628793
1040
3.921537999999999
1040
15.628793
1040
3.921537999999999
1040
14.595544
1040
3.921537999999999
1040
14.595544
1040
3.921537999999999
1040
14.595544
1040
3.921537999999999
1040
14.595544
1040
2.802160999999999
1040
14.595544
1040
2.802160999999999
1071
        0
1071
        1
1071
        1
1070
     4
1070
     3
1070
     0
1070
     0
1071
       44
1071
       40
1040
0.0
1040
0.0
1040
0.0
1040
0.0
1040
1.0
1040
1.0
1040
1.0
1040
2.0
1040
2.0
1040
2.0
1040
3.0
1040
3.0
1040
3.0
1040
4.0
1040
4.0
1040
4.0
1040
5.0
1040
5.0
1040
5.0
1040
6.0
1040
6.0
1040
6.0
1040
7.0
1040
7.0
1040
7.0
1040
8.0
1040
8.0
1040
8.0
1040
9.0
1040
9.0
1040
9.0
1040
10.0
1040
10.0
1040
10.0
1040
11.0
1040
11.0
1040
11.0
1040
12.0
1040
12.0
1040
12.0
1040
13.0
1040
13.0
1040
13.0
1040
13.0
1040
13.297034
1040
4.957526999999998
1040
13.297034
1040
4.957526999999998
1040
15.838295
1040
4.957526999999998
1040
15.838295
1040
4.957526999999998
1040
16.71791299999998
1040
4.957526999999998
1040
17.58360499999999
1040
4.561284999999998
1040
17.58360499999999
1040
3.560026
1040
17.58360499999999
1040
3.024639
1040
17.325223
1040
2.517101999999999
1040
16.801635
1040
2.31543
1040
16.801635
1040
2.31543
1040
16.801635
1040
2.301503999999999
1040
16.801635
1040
2.301503999999999
1040
17.33227
1040
2.17634
1040
17.48590099999999
1040
1.58536
1040
17.52773399999999
1040
1.112498999999999
1040
17.54166
1040
0.9040029999999999
1040
17.562632
1040
0.173822
1040
17.73717999999999
1040
-0.007046
1040
17.73717999999999
1040
-0.007046
1040
16.45253999999998
1040
-0.007046
1040
16.45253999999998
1040
-0.007046
1040
16.34091
1040
0.159952
1040
16.31993699999998
1040
0.646628
1040
16.30601099999999
1040
0.785662
1040
16.271113
1040
1.286318999999999
1040
16.187335
1040
1.800847
1040
15.579913
1040
1.800847
1040
15.579913
1040
1.800847
1040
14.595544
1040
1.800847
1040
14.595544
1040
1.800847
1040
14.595544
1040
1.800847
1040
14.595544
1040
-0.007046
1040
14.595544
1040
-0.007046
1040
14.595544
1040
-0.007046
1040
13.297034
1040
-0.007046
1040
13.297034
1040
-0.007046
1040
13.297034
1040
-0.007046
1040
13.297034
1040
4.957526999999998
1040
13.297034
1040
4.957526999999998
1071
        0
1070
     0
1070
     1
1071
        1
1040
-11.334336
1040
-44.057737
1040
0.0
1002
}
  0
LWPOLYLINE
  5
717
330
711
100
AcDbEntity
  8
LAYER_1
 62
     7
100
AcDbPolyline
 90
        4
 70
     1
 43
0.0
 10
23.18801399999999
 20
1.808102999999998
 10
23.758458
 20
3.561684999999998
 10
23.772562
 20
3.561684999999998
 10
24.328964
 20
1.808102999999998
  0
SPLINE
  5
718
330
711
100
AcDbEntity
  8
LAYER_1
 62
     7
100
AcDbSpline
210
0.0
220
0.0
230
1.0
 70
    11
 71
     3
 72
    20
 73
    16
 74
     0
 42
0.0000000001
 43
0.0000000001
 40
0.0
 40
0.0
 40
0.0
 40
0.0
 40
1.0
 40
1.0
 40
1.0
 40
2.0
 40
2.0
 40
2.0
 40
3.0
 40
3.0
 40
3.0
 40
4.0
 40
4.0
 40
4.0
 40
5.0
 40
5.0
 40
5.0
 40
5.0
 10
27.51812191186057
 20
3.940497790458373
 30
0.0
 10
27.51812191186057
 20
3.940497790458373
 30
0.0
 10
28.53225837486933
 20
3.940497790458373
 30
0.0
 10
28.53225837486933
 20
3.940497790458373
 30
0.0
 10
28.80707443704213
 20
3.940497790458373
 30
0.0
 10
29.06759805802538
 20
3.821206055441725
 30
0.0
 10
29.06759805802538
 20
3.456498060523335
 30
0.0
 10
29.06759805802538
 20
3.098810913909403
 30
0.0
 10
28.75780312662532
 20
2.979456492746498
 30
0.0
 10
28.53225837486933
 20
2.979456492746498
 30
0.0
 10
28.53225837486933
 20
2.979456492746498
 30
0.0
 10
27.51812191186057
 20
2.979456492746498
 30
0.0
 10
27.51812191186057
 20
2.979456492746498
 30
0.0
 10
27.51812191186057
 20
2.979456492746498
 30
0.0
 10
27.51812191186057
 20
3.940497790458373
 30
0.0
 10
27.51812191186057
 20
3.940497790458373
 30
0.0
  0
SPLINE
  5
719
330
711
100
AcDbEntity
  8
LAYER_1
 62
     7
100
AcDbSpline
210
0.0
220
0.0
230
1.0
 70
    11
 71
     3
 72
    20
 73
    16
 74
     0
 42
0.0000000001
 43
0.0000000001
 40
0.0
 40
0.0
 40
0.0
 40
0.0
 40
1.0
 40
1.0
 40
1.0
 40
2.0
 40
2.0
 40
2.0
 40
3.0
 40
3.0
 40
3.0
 40
4.0
 40
4.0
 40
4.0
 40
5.0
 40
5.0
 40
5.0
 40
5.0
 10
28.56748798867885
 20
0.9874788450131347
 30
0.0
 10
28.56748798867885
 20
0.9874788450131347
 30
0.0
 10
27.51812191186057
 20
0.9874788450131347
 30
0.0
 10
27.51812191186057
 20
0.9874788450131347
 30
0.0
 10
27.51812191186057
 20
0.9874788450131347
 30
0.0
 10
27.51812191186057
 20
2.137706930051271
 30
0.0
 10
27.51812191186057
 20
2.137706930051271
 30
0.0
 10
27.51812191186057
 20
2.137706930051271
 30
0.0
 10
28.56748798867885
 20
2.137706930051271
 30
0.0
 10
28.56748798867885
 20
2.137706930051271
 30
0.0
 10
28.96203458888773
 20
2.137706930051271
 30
0.0
 10
29.27182952028779
 20
1.990457174110225
 30
0.0
 10
29.27182952028779
 20
1.548582533997334
 30
0.0
 10
29.27182952028779
 20
1.134603228662584
 30
0.0
 10
28.98297176150768
 20
0.9874788450131347
 30
0.0
 10
28.56748798867885
 20
0.9874788450131347
 30
0.0
  0
SPLINE
  5
71A
330
711
100
AcDbEntity
  8
LAYER_1
 62
     7
100
AcDbSpline
210
0.0
220
0.0
230
1.0
 70
     8
 71
     3
 72
    14
 73
    10
 74
     0
 42
0.0000000001
 43
0.0000000001
 40
0.0
 40
0.0
 40
0.0
 40
0.0
 40
1.0
 40
1.0
 40
1.0
 40
2.0
 40
2.0
 40
2.0
 40
3.0
 40
3.0
 40
3.0
 40
3.0
 10
33.4334373522964
 20
2.958456633981223
 30
0.0
 10
32.70088705518171
 20
3.161873176351492
 30
0.0
 10
31.97560835095282
 20
3.232018973242452
 30
0.0
 10
31.97560835095282
 20
3.617914885363052
 30
0.0
 10
31.97560835095282
 20
3.947518638762833
 30
0.0
 10
32.3277791167573
 20
4.045685142722608
 30
0.0
 10
32.60936528265161
 20
4.045685142722608
 30
0.0
 10
33.01093273116403
 20
4.045685142722608
 30
0.0
 10
33.4405835728913
 20
3.898435386782483
 30
0.0
 10
33.41927028339795
 20
3.442519050061596
 30
0.0
  0
SPLINE
  5
71B
330
711
100
AcDbEntity
  8
LAYER_1
 62
     7
100
AcDbSpline
210
0.0
220
0.0
230
1.0
 70
    24
 71
     3
 72
     8
 73
     4
 74
     0
 42
0.0000000001
 43
0.0000000001
 40
3.0
 40
3.0
 40
3.0
 40
3.0
 40
4.0
 40
4.0
 40
4.0
 40
4.0
 10
33.41927028339795
 20
3.442519050061596
 30
0.0
 10
33.41927028339795
 20
3.442519050061596
 30
0.0
 10
34.72941072578196
 20
3.442519050061596
 30
0.0
 10
34.72941072578196
 20
3.442519050061596
 30
0.0
  0
SPLINE
  5
71C
330
711
100
AcDbEntity
  8
LAYER_1
 62
     7
100
AcDbSpline
210
0.0
220
0.0
230
1.0
 70
     8
 71
     3
 72
    14
 73
    10
 74
     0
 42
0.0000000001
 43
0.0000000001
 40
4.0
 40
4.0
 40
4.0
 40
4.0
 40
5.0
 40
5.0
 40
5.0
 40
6.0
 40
6.0
 40
6.0
 40
7.0
 40
7.0
 40
7.0
 40
7.0
 10
34.72941072578196
 20
3.442519050061596
 30
0.0
 10
34.72226450518705
 20
4.571809962479795
 30
0.0
 10
33.71514889048184
 20
5.055747006269496
 30
0.0
 10
32.71505412408014
 20
5.055747006269496
 30
0.0
 10
31.77137688869041
 20
5.055747006269496
 30
0.0
 10
30.66546790856905
 20
4.627914062763681
 30
0.0
 10
30.66546790856905
 20
3.533664705718758
 30
0.0
 10
30.66546790856905
 20
2.614748497828106
 30
0.0
 10
31.4190807505948
 20
2.291977534295853
 30
0.0
 10
32.13758935110219
 20
2.08862367807092
 30
0.0
  0
SPLINE
  5
71D
330
711
100
AcDbEntity
  8
LAYER_1
 62
     7
100
AcDbSpline
210
0.0
220
0.0
230
1.0
 70
     8
 71
     3
 72
    14
 73
    10
 74
     0
 42
0.0000000001
 43
0.0000000001
 40
7.0
 40
7.0
 40
7.0
 40
7.0
 40
8.0
 40
8.0
 40
8.0
 40
9.0
 40
9.0
 40
9.0
 40
10.0
 40
10.0
 40
10.0
 40
10.0
 10
32.13758935110219
 20
2.08862367807092
 30
0.0
 10
32.8629934276222
 20
1.885269821845988
 30
0.0
 10
33.58125128354731
 20
1.801082328347952
 30
0.0
 10
33.58125128354731
 20
1.359082315943467
 30
0.0
 10
33.58125128354731
 20
0.9874788450131347
 30
0.0
 10
33.17278835902226
 20
0.8470618789386934
 30
0.0
 10
32.77836713110451
 20
0.8470618789386934
 30
0.0
 10
32.2219649030376
 20
0.8470618789386934
 30
0.0
 10
31.85587781291697
 20
1.036499410847224
 30
0.0
 10
31.827669047411
 20
1.625686493046496
 30
0.0
  0
SPLINE
  5
71E
330
711
100
AcDbEntity
  8
LAYER_1
 62
     7
100
AcDbSpline
210
0.0
220
0.0
230
1.0
 70
    24
 71
     3
 72
     8
 73
     4
 74
     0
 42
0.0000000001
 43
0.0000000001
 40
10.0
 40
10.0
 40
10.0
 40
10.0
 40
11.0
 40
11.0
 40
11.0
 40
11.0
 10
31.827669047411
 20
1.625686493046496
 30
0.0
 10
31.827669047411
 20
1.625686493046496
 30
0.0
 10
30.5755759758237
 20
1.625686493046496
 30
0.0
 10
30.5755759758237
 20
1.625686493046496
 30
0.0
  0
SPLINE
  5
71F
330
711
100
AcDbEntity
  8
LAYER_1
 62
     7
100
AcDbSpline
210
0.0
220
0.0
230
1.0
 70
     8
 71
     3
 72
     8
 73
     4
 74
     0
 42
0.0000000001
 43
0.0000000001
 40
11.0
 40
11.0
 40
11.0
 40
11.0
 40
12.0
 40
12.0
 40
12.0
 40
12.0
 10
30.5755759758237
 20
1.625686493046496
 30
0.0
 10
30.53019120643206
 20
2.135450228810849
 30
0.0
 10
30.21049186403214
 20
2.54215794125979
 30
0.0
 10
29.71552205862236
 20
2.684956980865329
 30
0.0
  0
SPLINE
  5
720
330
711
100
AcDbEntity
  8
LAYER_1
 62
     7
100
AcDbSpline
210
0.0
220
0.0
230
1.0
 70
     8
 71
     3
 72
    11
 73
     7
 74
     0
 42
0.0000000001
 43
0.0000000001
 40
12.0
 40
12.0
 40
12.0
 40
12.0
 40
13.0
 40
13.0
 40
13.0
 40
14.0
 40
14.0
 40
14.0
 40
14.0
 10
29.71552205862236
 20
2.684956980865329
 30
0.0
 10
30.1099432865401
 20
2.881352674932061
 30
0.0
 10
30.37761312811801
 20
3.246060669849527
 30
0.0
 10
30.37761312811801
 20
3.694956158266878
 30
0.0
 10
30.37761312811801
 20
4.740184949477712
 30
0.0
 10
29.42666429984225
 20
4.964664036758597
 30
0.0
 10
28.5604671403753
 20
4.950685026296856
 30
0.0
  0
SPLINE
  5
721
330
711
100
AcDbEntity
  8
LAYER_1
 62
     7
100
AcDbSpline
210
0.0
220
0.0
230
1.0
 70
    24
 71
     3
 72
     8
 73
     4
 74
     0
 42
0.0000000001
 43
0.0000000001
 40
14.0
 40
14.0
 40
14.0
 40
14.0
 40
15.0
 40
15.0
 40
15.0
 40
15.0
 10
28.5604671403753
 20
4.950685026296856
 30
0.0
 10
28.5604671403753
 20
4.950685026296856
 30
0.0
 10
26.20810684176769
 20
4.950685026296856
 30
0.0
 10
26.20810684176769
 20
4.950685026296856
 30
0.0
  0
SPLINE
  5
722
330
711
100
AcDbEntity
  8
LAYER_1
 62
     7
100
AcDbSpline
210
0.0
220
0.0
230
1.0
 70
    24
 71
     3
 72
     8
 73
     4
 74
     0
 42
0.0000000001
 43
0.0000000001
 40
15.0
 40
15.0
 40
15.0
 40
15.0
 40
16.0
 40
16.0
 40
16.0
 40
16.0
 10
26.20810684176769
 20
4.950685026296856
 30
0.0
 10
26.20810684176769
 20
4.950685026296856
 30
0.0
 10
26.20810684176769
 20
0.2688448722139284
 30
0.0
 10
26.20810684176769
 20
0.2688448722139284
 30
0.0
  0
SPLINE
  5
723
330
711
100
AcDbEntity
  8
LAYER_1
 62
     7
100
AcDbSpline
210
0.0
220
0.0
230
1.0
 70
    24
 71
     3
 72
     8
 73
     4
 74
     0
 42
0.0000000001
 43
0.0000000001
 40
16.0
 40
16.0
 40
16.0
 40
16.0
 40
17.0
 40
17.0
 40
17.0
 40
17.0
 10
26.20810684176769
 20
0.2688448722139284
 30
0.0
 10
26.20810684176769
 20
0.2688448722139284
 30
0.0
 10
24.43459041134075
 20
4.950685026296856
 30
0.0
 10
24.43459041134075
 20
4.950685026296856
 30
0.0
  0
SPLINE
  5
724
330
711
100
AcDbEntity
  8
LAYER_1
 62
     7
100
AcDbSpline
210
0.0
220
0.0
230
1.0
 70
    24
 71
     3
 72
     8
 73
     4
 74
     0
 42
0.0000000001
 43
0.0000000001
 40
17.0
 40
17.0
 40
17.0
 40
17.0
 40
18.0
 40
18.0
 40
18.0
 40
18.0
 10
24.43459041134075
 20
4.950685026296856
 30
0.0
 10
24.43459041134075
 20
4.950685026296856
 30
0.0
 10
23.10338742404567
 20
4.950685026296856
 30
0.0
 10
23.10338742404567
 20
4.950685026296856
 30
0.0
  0
SPLINE
  5
725
330
711
100
AcDbEntity
  8
LAYER_1
 62
     7
100
AcDbSpline
210
0.0
220
0.0
230
1.0
 70
    24
 71
     3
 72
     8
 73
     4
 74
     0
 42
0.0000000001
 43
0.0000000001
 40
18.0
 40
18.0
 40
18.0
 40
18.0
 40
18.8883198850488
 40
18.8883198850488
 40
18.8883198850488
 40
18.8883198850488
 10
23.10338742404567
 20
4.950685026296856
 30
0.0
 10
23.10338742404567
 20
4.950685026296856
 30
0.0
 10
21.89843530415215
 20
1.774002067742008
 30
0.0
 10
21.62929692163126
 20
1.064457431791925
 30
0.0
  0
SPLINE
  5
726
330
711
100
AcDbEntity
  8
LAYER_1
 62
     7
100
AcDbSpline
210
0.0
220
0.0
230
1.0
 70
    24
 71
     3
 72
     8
 73
     4
 74
     0
 42
0.0000000001
 43
0.0000000001
 40
20.20829135783264
 40
20.20829135783264
 40
20.20829135783264
 40
20.20829135783264
 40
21.0
 40
21.0
 40
21.0
 40
21.0
 10
21.62929692162343
 20
1.0644574317707
 30
0.0
 10
20.9240566308893
 20
1.0644574317707
 30
0.0
 10
19.23113883998171
 20
1.0644574317707
 30
0.0
 10
19.23113883998171
 20
1.0644574317707
 30
0.0
  0
SPLINE
  5
727
330
711
100
AcDbEntity
  8
LAYER_1
 62
     7
100
AcDbSpline
210
0.0
220
0.0
230
1.0
 70
    24
 71
     3
 72
     8
 73
     4
 74
     0
 42
0.0000000001
 43
0.0000000001
 40
21.0
 40
21.0
 40
21.0
 40
21.0
 40
22.0
 40
22.0
 40
22.0
 40
22.0
 10
19.23113883998171
 20
1.0644574317707
 30
0.0
 10
19.23113883998171
 20
1.0644574317707
 30
0.0
 10
19.23113883998171
 20
4.950685026296856
 30
0.0
 10
19.23113883998171
 20
4.950685026296856
 30
0.0
  0
SPLINE
  5
728
330
711
100
AcDbEntity
  8
LAYER_1
 62
     7
100
AcDbSpline
210
0.0
220
0.0
230
1.0
 70
    24
 71
     3
 72
     8
 73
     4
 74
     0
 42
0.0000000001
 43
0.0000000001
 40
22.0
 40
22.0
 40
22.0
 40
22.0
 40
23.0
 40
23.0
 40
23.0
 40
23.0
 10
19.23113883998171
 20
4.950685026296856
 30
0.0
 10
19.23113883998171
 20
4.950685026296856
 30
0.0
 10
17.92112376988908
 20
4.950685026296856
 30
0.0
 10
17.92112376988908
 20
4.950685026296856
 30
0.0
  0
SPLINE
  5
729
330
711
100
AcDbEntity
  8
LAYER_1
 62
     7
100
AcDbSpline
210
0.0
220
0.0
230
1.0
 70
    24
 71
     3
 72
     8
 73
     4
 74
     0
 42
0.0000000001
 43
0.0000000001
 40
23.0
 40
23.0
 40
23.0
 40
23.0
 40
24.0
 40
24.0
 40
24.0
 40
24.0
 10
17.92112376988908
 20
4.950685026296856
 30
0.0
 10
17.92112376988908
 20
4.950685026296856
 30
0.0
 10
17.92112376988908
 20
-0.006723423705456
 30
0.0
 10
17.92112376988908
 20
-0.006723423705456
 30
0.0
  0
SPLINE
  5
72A
330
711
100
AcDbEntity
  8
LAYER_1
 62
     7
100
AcDbSpline
210
0.0
220
0.0
230
1.0
 70
    24
 71
     3
 72
     8
 73
     4
 74
     0
 42
0.0000000001
 43
0.0000000001
 40
24.0
 40
24.0
 40
24.0
 40
24.0
 40
25.0
 40
25.0
 40
25.0
 40
25.0
 10
17.92112376988908
 20
-0.006723423705456
 30
0.0
 10
17.92112376988908
 20
-0.006723423705456
 30
0.0
 10
21.22299111542417
 20
-0.006723423705456
 30
0.0
 10
21.22299111542417
 20
-0.006723423705456
 30
0.0
  0
SPLINE
  5
72B
330
711
100
AcDbEntity
  8
LAYER_1
 62
     7
100
AcDbSpline
210
0.0
220
0.0
230
1.0
 70
    24
 71
     3
 72
     8
 73
     4
 74
     0
 42
0.0000000001
 43
0.0000000001
 40
25.0
 40
25.0
 40
25.0
 40
25.0
 40
26.0
 40
26.0
 40
26.0
 40
26.0
 10
21.22299111542417
 20
-0.006723423705456
 30
0.0
 10
21.22299111542417
 20
-0.006723423705456
 30
0.0
 10
21.57641560413998
 20
-0.006723423705456
 30
0.0
 10
21.57641560413998
 20
-0.006723423705456
 30
0.0
  0
SPLINE
  5
72C
330
711
100
AcDbEntity
  8
LAYER_1
 62
     7
100
AcDbSpline
210
0.0
220
0.0
230
1.0
 70
    24
 71
     3
 72
     8
 73
     4
 74
     0
 42
0.0000000001
 43
0.0000000001
 40
26.0
 40
26.0
 40
26.0
 40
26.0
 40
27.0
 40
27.0
 40
27.0
 40
27.0
 10
21.57641560413998
 20
-0.006723423705456
 30
0.0
 10
21.57641560413998
 20
-0.006723423705456
 30
0.0
 10
22.568173113181
 20
-0.006723423705456
 30
0.0
 10
22.568173113181
 20
-0.006723423705456
 30
0.0
  0
SPLINE
  5
72D
330
711
100
AcDbEntity
  8
LAYER_1
 62
     7
100
AcDbSpline
210
0.0
220
0.0
230
1.0
 70
    24
 71
     3
 72
     8
 73
     4
 74
     0
 42
0.0000000001
 43
0.0000000001
 40
27.0
 40
27.0
 40
27.0
 40
27.0
 40
28.0
 40
28.0
 40
28.0
 40
28.0
 10
22.568173113181
 20
-0.006723423705456
 30
0.0
 10
22.568173113181
 20
-0.006723423705456
 30
0.0
 10
22.88511426517593
 20
0.8400410306351558
 30
0.0
 10
22.88511426517593
 20
0.8400410306351558
 30
0.0
  0
SPLINE
  5
72E
330
711
100
AcDbEntity
  8
LAYER_1
 62
     7
100
AcDbSpline
210
0.0
220
0.0
230
1.0
 70
    24
 71
     3
 72
     8
 73
     4
 74
     0
 42
0.0000000001
 43
0.0000000001
 40
28.0
 40
28.0
 40
28.0
 40
28.0
 40
29.0
 40
29.0
 40
29.0
 40
29.0
 10
22.88511426517593
 20
0.8400410306351558
 30
0.0
 10
22.88511426517593
 20
0.8400410306351558
 30
0.0
 10
24.63882187360317
 20
0.8400410306351558
 30
0.0
 10
24.63882187360317
 20
0.8400410306351558
 30
0.0
  0
SPLINE
  5
72F
330
711
100
AcDbEntity
  8
LAYER_1
 62
     7
100
AcDbSpline
210
0.0
220
0.0
230
1.0
 70
    24
 71
     3
 72
     8
 73
     4
 74
     0
 42
0.0000000001
 43
0.0000000001
 40
29.0
 40
29.0
 40
29.0
 40
29.0
 40
30.0
 40
30.0
 40
30.0
 40
30.0
 10
24.63882187360317
 20
0.8400410306351558
 30
0.0
 10
24.63882187360317
 20
0.8400410306351558
 30
0.0
 10
24.94861680500322
 20
-0.0134935274267243
 30
0.0
 10
24.94861680500322
 20
-0.0134935274267243
 30
0.0
  0
SPLINE
  5
730
330
711
100
AcDbEntity
  8
LAYER_1
 62
     7
100
AcDbSpline
210
0.0
220
0.0
230
1.0
 70
    24
 71
     3
 72
     8
 73
     4
 74
     0
 42
0.0000000001
 43
0.0000000001
 40
30.0
 40
30.0
 40
30.0
 40
30.0
 40
31.0
 40
31.0
 40
31.0
 40
31.0
 10
24.94861680500322
 20
-0.0134935274267243
 30
0.0
 10
24.94861680500322
 20
-0.0134935274267243
 30
0.0
 10
26.20810684176769
 20
-0.0134935274267243
 30
0.0
 10
26.20810684176769
 20
-0.0134935274267243
 30
0.0
  0
SPLINE
  5
731
330
711
100
AcDbEntity
  8
LAYER_1
 62
     7
100
AcDbSpline
210
0.0
220
0.0
230
1.0
 70
    24
 71
     3
 72
     8
 73
     4
 74
     0
 42
0.0000000001
 43
0.0000000001
 40
31.0
 40
31.0
 40
31.0
 40
31.0
 40
32.0
 40
32.0
 40
32.0
 40
32.0
 10
26.20810684176769
 20
-0.0134935274267243
 30
0.0
 10
26.20810684176769
 20
-0.0134935274267243
 30
0.0
 10
26.31504940610782
 20
-0.0134935274267243
 30
0.0
 10
26.31504940610782
 20
-0.0134935274267243
 30
0.0
  0
SPLINE
  5
732
330
711
100
AcDbEntity
  8
LAYER_1
 62
     7
100
AcDbSpline
210
0.0
220
0.0
230
1.0
 70
    24
 71
     3
 72
     8
 73
     4
 74
     0
 42
0.0000000001
 43
0.0000000001
 40
32.0
 40
32.0
 40
32.0
 40
32.0
 40
33.0
 40
33.0
 40
33.0
 40
33.0
 10
26.31504940610782
 20
-0.0134935274267243
 30
0.0
 10
26.31504940610782
 20
-0.0134935274267243
 30
0.0
 10
28.6239055196908
 20
-0.0134935274267243
 30
0.0
 10
28.6239055196908
 20
-0.0134935274267243
 30
0.0
  0
SPLINE
  5
733
330
711
100
AcDbEntity
  8
LAYER_1
 62
     7
100
AcDbSpline
210
0.0
220
0.0
230
1.0
 70
     8
 71
     3
 72
     8
 73
     4
 74
     0
 42
0.0000000001
 43
0.0000000001
 40
33.0
 40
33.0
 40
33.0
 40
33.0
 40
34.0
 40
34.0
 40
34.0
 40
34.0
 10
28.6239055196908
 20
-0.0134935274267243
 30
0.0
 10
29.60895561115565
 20
-0.0134935274267243
 30
0.0
 10
30.42700981082596
 20
0.2565583876827378
 30
0.0
 10
30.56053130088709
 20
1.213525085932968
 30
0.0
  0
SPLINE
  5
734
330
711
100
AcDbEntity
  8
LAYER_1
 62
     7
100
AcDbSpline
210
0.0
220
0.0
230
1.0
 70
     8
 71
     3
 72
    14
 73
    10
 74
     0
 42
0.0000000001
 43
0.0000000001
 40
34.0
 40
34.0
 40
34.0
 40
34.0
 40
35.0
 40
35.0
 40
35.0
 40
36.0
 40
36.0
 40
36.0
 40
37.0
 40
37.0
 40
37.0
 40
37.0
 10
30.56053130088709
 20
1.213525085932968
 30
0.0
 10
30.76325829565611
 20
0.2334898861139717
 30
0.0
 10
31.67910288241351
 20
-0.1630626707535302
 30
0.0
 10
32.70088705518171
 20
-0.1630626707535302
 30
0.0
 10
33.80667066301194
 20
-0.1630626707535302
 30
0.0
 10
34.89126635363996
 20
0.243895786277682
 30
0.0
 10
34.89126635363996
 20
1.513478292478724
 30
0.0
 10
34.89126635363996
 20
2.418290117616038
 30
0.0
 10
34.15896680110753
 20
2.755040091610953
 30
0.0
 10
33.4334373522964
 20
2.958456633981223
 30
0.0
  0
ENDBLK
  5
738
330
711
100
AcDbEntity
  8
0
100
AcDbBlockEnd
  0
BLOCK
  5
823
330
7DD
100
AcDbEntity
  8
0
100
AcDbBlockBegin
  2
A4-LANDSCAPE-THOR-LABS
 70
     2
 10
0.0
 20
0.0
 30
0.0
  3
A4-LANDSCAPE-THOR-LABS
  1

  0
TEXT
  5
7DE
330
7DD
100
AcDbEntity
  8
D1
100
AcDbText
 10
310.6828629999998
 20
48.13357599999999
 30
0.0
 40
2.198182
  1

100
AcDbText
  0
MTEXT
  5
7DF
330
7DD
100
AcDbEntity
  8
BORDER
100
AcDbMText
 10
9.002001999999999
 20
146.474827
 30
0.0
 40
3.434383999999999
 41
95.516214
 71
     1
 72
     5
  1
COPYRIGHT {\FSYMBOL.TTF;Ó} 2004 by THORLABS LTD.
  7
COPYRIGHT
 73
     1
 44
1.0
1001
ACAD
1000
MTEXTBEGIN
1070
    73
1070
     1
1070
    44
1040
1.0
1070
    74
1070
     0
1000
MTEXTEND
1000
MTEXTBEGIN
1070
    73
1070
     1
1070
    44
1040
1.0
1070
    74
1070
     0
1000
MTEXTEND
1000
MTEXTBEGIN
1070
    73
1070
     1
1070
    44
1040
1.0
1070
    74
1070
     0
1000
MTEXTEND
1000
MTEXTBEGIN
1070
    73
1070
     1
1070
    44
1040
1.0
1070
    74
1070
     0
1000
MTEXTEND
1000
MTEXTBEGIN
1070
    73
1070
     1
1070
    44
1040
1.0
1070
    74
1070
     0
1000
MTEXTEND
1000
MTEXTBEGIN
1070
    73
1070
     1
1070
    44
1040
1.0
1070
    74
1070
     0
1000
MTEXTEND
1000
MTEXTBEGIN
1070
    73
1070
     1
1070
    44
1040
1.0
1070
    74
1070
     0
1000
MTEXTEND
1000
MTEXTBEGIN
1070
    73
1070
     1
1070
    44
1040
1.0
1070
    74
1070
     0
1000
MTEXTEND
1000
MTEXTBEGIN
1070
    73
1070
     1
1070
    44
1040
1.0
1070
    74
1070
     0
1000
MTEXTEND
1000
MTEXTBEGIN
1070
    73
1070
     1
1070
    44
1040
1.0
1070
    74
1070
     0
1000
MTEXTEND
1000
MTEXTBEGIN
1070
    73
1070
     1
1070
    44
1040
1.0
1070
    74
1070
     0
1000
MTEXTEND
1000
MTEXTBEGIN
1070
    73
1070
     1
1070
    44
1040
1.0
1070
    74
1070
     0
1000
MTEXTEND
1000
MTEXTBEGIN
1070
    73
1070
     1
1070
    44
1040
1.0
1070
    74
1070
     0
1000
MTEXTEND
1000
MTEXTBEGIN
1070
    73
1070
     1
1070
    44
1040
1.0
1070
    74
1070
     0
1000
MTEXTEND
1000
MTEXTBEGIN
1070
    73
1070
     1
1070
    44
1040
1.0
1070
    74
1070
     0
1000
MTEXTEND
1000
MTEXTBEGIN
1070
    73
1070
     1
1070
    44
1040
1.0
1070
    74
1070
     0
1000
MTEXTEND
1000
MTEXTBEGIN
1070
    73
1070
     1
1070
    44
1040
1.0
1070
    74
1070
     0
1000
MTEXTEND
1000
MTEXTBEGIN
1070
    73
1070
     1
1070
    44
1040
1.0
1070
    74
1070
     0
1000
MTEXTEND
1000
MTEXTBEGIN
1070
    73
1070
     1
1070
    44
1040
1.0
1070
    74
1070
     0
1000
MTEXTEND
  0
TEXT
  5
7E0
330
7DD
100
AcDbEntity
  8
D1
100
AcDbText
 10
310.6828629999998
 20
48.13357599999999
 30
0.0
 40
2.198182
  1

100
AcDbText
  0
LINE
  5
7E1
330
7DD
100
AcDbEntity
  8
D1
100
AcDbLine
 10
9.407749
 20
136.8919229999999
 30
0.0
 11
73.875807
 21
136.8919229999999
 31
0.0
  0
TEXT
  5
7E2
330
7DD
100
AcDbEntity
  8
D1
100
AcDbText
 10
9.150403
 20
137.5170169999998
 30
0.0
 40
2.0
  1
INFORMATION ONLY, NOT FOR MANUFACTURING
  7
BORDER
100
AcDbText
  0
LINE
  5
7E3
330
7DD
100
AcDbEntity
  8
BORDER
100
AcDbLine
 10
214.0091299999999
 20
26.967557
 30
0.0
 11
130.762111
 21
26.967557
 31
0.0
  0
LINE
  5
7E4
330
7DD
100
AcDbEntity
  8
BORDER
100
AcDbLine
 10
214.0091299999999
 20
34.078675
 30
0.0
 11
130.762111
 21
34.078675
 31
0.0
  0
LINE
  5
7E5
330
7DD
100
AcDbEntity
  8
BORDER
100
AcDbLine
 10
214.0091299999999
 20
38.07867499999999
 30
0.0
 11
130.762111
 21
38.07867499999999
 31
0.0
  0
LINE
  5
7E6
330
7DD
100
AcDbEntity
  8
BORDER
100
AcDbLine
 10
214.0091299999999
 20
45.278675
 30
0.0
 11
130.762111
 21
45.278675
 31
0.0
  0
LINE
  5
7E7
330
7DD
100
AcDbEntity
  8
BORDER
100
AcDbLine
 10
214.0091299999999
 20
52.278675
 30
0.0
 11
130.762111
 21
52.278675
 31
0.0
  0
LINE
  5
7E8
330
7DD
100
AcDbEntity
  8
BORDER
100
AcDbLine
 10
214.0091299999999
 20
61.278675
 30
0.0
 11
130.762111
 21
61.278675
 31
0.0
  0
LINE
  5
7E9
330
7DD
100
AcDbEntity
  8
BORDER
100
AcDbLine
 10
130.762111
 20
12.707284
 30
0.0
 11
214.0091299999999
 21
12.707284
 31
0.0
  0
LINE
  5
7EA
330
7DD
100
AcDbEntity
  8
BORDER
100
AcDbLine
 10
130.762111
 20
19.81840199999998
 30
0.0
 11
214.0091299999999
 21
19.81840199999998
 31
0.0
  0
ATTDEF
  5
7EB
330
7DD
100
AcDbEntity
  8
D1
100
AcDbText
 10
147.453255
 20
21.42266199999999
 30
0.0
 40
2.0
  1

100
AcDbAttributeDefinition
  3
Material
  2
MT
 70
     0
  0
LINE
  5
7EC
330
7DD
100
AcDbEntity
  8
BORDER
100
AcDbLine
 10
130.762111
 20
61.278675
 30
0.0
 11
130.762111
 21
5.132209999999998
 31
0.0
  0
LINE
  5
7ED
330
7DD
100
AcDbEntity
  8
BORDER
100
AcDbLine
 10
186.759592
 20
19.81840199999998
 30
0.0
 11
186.759592
 21
12.707284
 31
0.0
  0
LINE
  5
7EE
330
7DD
100
AcDbEntity
  8
BORDER
100
AcDbLine
 10
186.759592
 20
19.81840199999998
 30
0.0
 11
186.759592
 21
12.707284
 31
0.0
  0
ATTDEF
  5
7EF
330
7DD
100
AcDbEntity
  8
D1
100
AcDbText
 10
194.7390629999999
 20
13.901704
 30
0.0
 40
2.0
  1

  7
BORDER
100
AcDbAttributeDefinition
  3
Scale
  2
SCL
 70
     0
  0
TEXT
  5
7F0
330
7DD
100
AcDbEntity
  8
BORDER
100
AcDbText
 10
187.74119
 20
17.33555899999998
 30
0.0
 40
1.465454999999999
  1
DRAWING SCALE
  7
BORDER
100
AcDbText
  0
ATTDEF
  5
7F1
330
7DD
100
AcDbEntity
  8
D1
100
AcDbText
 10
172.077681
 20
13.901704
 30
0.0
 40
2.0
  1

  7
BORDER
100
AcDbAttributeDefinition
  3
Sheet x of y
  2
SHT
 70
     0
  0
TEXT
  5
7F2
330
7DD
100
AcDbEntity
  8
BORDER
100
AcDbText
 10
166.599548
 20
17.33555899999998
 30
0.0
 40
1.465454999999999
  1
SHEET
  7
BORDER
100
AcDbText
  0
TEXT
  5
7F3
330
7DD
100
AcDbEntity
  8
BORDER
100
AcDbText
 10
167.1506249999999
 20
10.336911
 30
0.0
 40
1.465454999999999
  1
PART NO.
  7
BORDER
100
AcDbText
  0
LINE
  5
7F4
330
7DD
100
AcDbEntity
  8
BORDER
100
AcDbLine
 10
165.6365489999998
 20
19.81840199999998
 30
0.0
 11
165.6365489999998
 21
5.132209999999998
 31
0.0
  0
ATTDEF
  5
7F5
330
7DD
100
AcDbEntity
  8
D1
100
AcDbText
 10
169.5349139999999
 20
6.724721999999998
 30
0.0
 40
2.0
  1

  7
BORDER
100
AcDbAttributeDefinition
  3
Part number
  2
PRT-NO.
 70
     0
  0
LINE
  5
7F6
330
7DD
100
AcDbEntity
  8
BORDER
100
AcDbLine
 10
165.6365489999998
 20
5.132209999999998
 30
0.0
 11
165.6365489999998
 21
19.81840199999998
 31
0.0
  0
TEXT
  5
7F7
330
7DD
100
AcDbEntity
  8
BORDER
100
AcDbText
 10
151.4490129999998
 20
17.329511
 30
0.0
 40
1.465454999999999
  1
REV
  7
BORDER
100
AcDbText
  0
LINE
  5
7F8
330
7DD
100
AcDbEntity
  8
BORDER
100
AcDbLine
 10
157.6027729999998
 20
19.81840199999998
 30
0.0
 11
157.6027729999998
 21
12.707284
 31
0.0
  0
ATTDEF
  5
7F9
330
7DD
100
AcDbEntity
  8
D1
100
AcDbText
 10
154.202852
 20
13.97647099999999
 30
0.0
 40
2.0
  1

  7
BORDER
 72
     1
 11
154.202852
 21
13.97647099999999
 31
0.0
100
AcDbAttributeDefinition
  3
Revision
  2
REV
 70
     0
  0
LINE
  5
7FA
330
7DD
100
AcDbEntity
  8
BORDER
100
AcDbLine
 10
157.6027729999998
 20
19.81840199999998
 30
0.0
 11
157.6027729999998
 21
12.707284
 31
0.0
  0
ATTDEF
  5
7FB
330
7DD
100
AcDbEntity
  8
D1
100
AcDbText
 10
158.316341
 20
14.05115799999999
 30
0.0
 40
2.0
  1
A4
  7
BORDER
100
AcDbAttributeDefinition
  3
Drawawing Sheet Size
  2
SIZE
 70
     0
  0
TEXT
  5
7FC
330
7DD
100
AcDbEntity
  8
BORDER
100
AcDbText
 10
159.2490103728069
 20
17.372189
 30
0.0
 40
1.465454999999999
  1
SIZE
  7
BORDER
 72
     1
 11
161.4836149999999
 21
17.372189
 31
0.0
100
AcDbText
  0
LINE
  5
7FD
330
7DD
100
AcDbEntity
  8
BORDER
100
AcDbLine
 10
150.6920179999999
 20
19.81840199999998
 30
0.0
 11
150.6920179999999
 21
12.707284
 31
0.0
  0
LINE
  5
7FE
330
7DD
100
AcDbEntity
  8
BORDER
100
AcDbLine
 10
150.6920179999999
 20
12.707284
 30
0.0
 11
150.6920179999999
 21
19.81840199999998
 31
0.0
  0
ATTDEF
  5
7FF
330
7DD
100
AcDbEntity
  8
D1
100
AcDbText
 10
134.084236
 20
14.05115799999999
 30
0.0
 40
2.0
  1

  7
BORDER
100
AcDbAttributeDefinition
  3
Date
  2
DATE
 70
     0
  0
TEXT
  5
800
330
7DD
100
AcDbEntity
  8
BORDER
100
AcDbText
 10
132.895446
 20
17.44802899999999
 30
0.0
 40
1.465454999999999
  1
DATE
  7
BORDER
100
AcDbText
  0
TEXT
  5
801
330
7DD
100
AcDbEntity
  8
BORDER
100
AcDbText
 10
132.895446
 20
10.336911
 30
0.0
 40
1.465454999999999
  1
DWG NO.
  7
BORDER
100
AcDbText
  0
ATTDEF
  5
802
330
7DD
100
AcDbEntity
  8
D1
100
AcDbText
 10
135.280874
 20
6.724721999999998
 30
0.0
 40
2.0
  1

  7
BORDER
100
AcDbAttributeDefinition
  3
Drawing number
  2
DRG-NO.
 70
     0
  0
ATTDEF
  5
803
330
7DD
100
AcDbEntity
  8
D1
100
AcDbText
 10
187.265173
 20
28.451232
 30
0.0
 40
2.0
  1

  7
BORDER
100
AcDbAttributeDefinition
  3
Approved by
  2
AP
 70
     0
  0
LINE
  5
804
330
7DD
100
AcDbEntity
  8
BORDER
100
AcDbLine
 10
177.2167449999998
 20
34.078675
 30
0.0
 11
177.2167449999998
 21
26.967557
 31
0.0
  0
LINE
  5
805
330
7DD
100
AcDbEntity
  8
BORDER
100
AcDbLine
 10
177.2167449999998
 20
26.92952
 30
0.0
 11
177.2167449999998
 21
34.040638
 31
0.0
  0
ATTDEF
  5
806
330
7DD
100
AcDbEntity
  8
D1
100
AcDbText
 10
162.227071
 20
28.47516699999999
 30
0.0
 40
2.0
  1

  7
BORDER
100
AcDbAttributeDefinition
  3
Engineer
  2
EN
 70
     0
  0
TEXT
  5
807
330
7DD
100
AcDbEntity
  8
BORDER
100
AcDbText
 10
179.5857929999999
 20
31.6988
 30
0.0
 40
1.465454999999999
  1
APPROVED
  7
BORDER
100
AcDbText
  0
ATTDEF
  5
808
330
7DD
100
AcDbEntity
  8
D1
100
AcDbText
 10
145.9070079999999
 20
47.17133299999999
 30
0.0
 40
3.0
  1

  7
BORDER
100
AcDbAttributeDefinition
  3
Drawing Title
  2
TITLE
 70
     0
  0
LINE
  5
809
330
7DD
100
AcDbEntity
  8
BORDER
100
AcDbLine
 10
156.737018
 20
34.078675
 30
0.0
 11
156.737018
 21
26.967557
 31
0.0
  0
LINE
  5
80A
330
7DD
100
AcDbEntity
  8
BORDER
100
AcDbLine
 10
156.737018
 20
26.967557
 30
0.0
 11
156.737018
 21
34.078675
 31
0.0
  0
INSERT
  5
80B
330
7DD
100
AcDbEntity
  8
D1
100
AcDbBlockReference
  2
THOR_COMPANY_LOGO
 10
135.031078
 20
54.225013
 30
0.0
  0
TEXT
  5
80C
330
7DD
100
AcDbEntity
  8
BORDER
100
AcDbText
 10
157.2826659999998
 20
31.6988
 30
0.0
 40
1.465454999999999
  1
ENGINEER
  7
BORDER
100
AcDbText
  0
TEXT
  5
80D
330
7DD
100
AcDbEntity
  8
BORDER
100
AcDbText
 10
132.776928
 20
49.716408
 30
0.0
 40
1.659261
  1
TITLE
  7
BORDER
100
AcDbText
  0
ATTDEF
  5
80E
330
7DD
100
AcDbEntity
  8
D1
100
AcDbText
 10
151.1587529999999
 20
35.233812
 30
0.0
 40
1.5
  1

  7
BORDER
100
AcDbAttributeDefinition
  3
Surface Finish
  2
SF
 70
     0
  0
ATTDEF
  5
80F
330
7DD
100
AcDbEntity
  8
D1
100
AcDbText
 10
140.479184
 20
28.318188
 30
0.0
 40
2.0
  1

  7
BORDER
100
AcDbAttributeDefinition
  3
Draughtsman
  2
DM
 70
     0
  0
TEXT
  5
810
330
7DD
100
AcDbEntity
  8
BORDER
100
AcDbText
 10
132.6190709999998
 20
31.6988
 30
0.0
 40
1.465454999999999
  1
DRAWN
  7
BORDER
100
AcDbText
  0
TEXT
  5
811
330
7DD
100
AcDbEntity
  8
BORDER
100
AcDbText
 10
132.776928
 20
24.332843
 30
0.0
 40
1.659261
  1
MATERIAL
100
AcDbText
  0
TEXT
  5
812
330
7DD
100
AcDbEntity
  8
BORDER
100
AcDbText
 10
132.435564
 20
35.12580299999999
 30
0.0
 40
1.585288999999999
  1
SURF. FINISH: 
  7
BORDER
100
AcDbText
  0
LINE
  5
813
330
7DD
100
AcDbEntity
  8
D1
100
AcDbLine
 10
9.407749
 20
136.343407
 30
0.0
 11
73.875807
 21
136.343407
 31
0.0
  0
TEXT
  5
814
330
7DD
100
AcDbEntity
  8
D1
100
AcDbText
 10
529.8242029999999
 20
201.916311
 30
0.0
 40
2.198182
  1

100
AcDbText
  0
LINE
  5
815
330
7DD
100
AcDbEntity
  8
DEFPOINTS
100
AcDbLine
 10
219.14134
 20
9.13221
 30
0.0
 11
219.14134
 21
0.0
 31
0.0
  0
LINE
  5
816
330
7DD
100
AcDbEntity
  8
DEFPOINTS
100
AcDbLine
 10
219.14134
 20
0.0
 30
0.0
 11
210.0091299999998
 21
0.0
 31
0.0
  0
LINE
  5
817
330
7DD
100
AcDbEntity
  8
DEFPOINTS
100
AcDbLine
 10
219.14134
 20
144.6505249999999
 30
0.0
 11
219.14134
 21
153.782735
 31
0.0
  0
LINE
  5
818
330
7DD
100
AcDbEntity
  8
DEFPOINTS
100
AcDbLine
 10
219.14134
 20
153.782735
 30
0.0
 11
210.0091299999998
 21
153.782735
 31
0.0
  0
LINE
  5
819
330
7DD
100
AcDbEntity
  8
DEFPOINTS
100
AcDbLine
 10
0.0
 20
9.13221
 30
0.0
 11
0.0
 21
0.0
 31
0.0
  0
LINE
  5
81A
330
7DD
100
AcDbEntity
  8
DEFPOINTS
100
AcDbLine
 10
0.0
 20
0.0
 30
0.0
 11
9.13221
 21
0.0
 31
0.0
  0
LINE
  5
81B
330
7DD
100
AcDbEntity
  8
DEFPOINTS
100
AcDbLine
 10
0.0
 20
144.6505249999999
 30
0.0
 11
0.0
 21
153.782735
 31
0.0
  0
LINE
  5
81C
330
7DD
100
AcDbEntity
  8
DEFPOINTS
100
AcDbLine
 10
0.0
 20
153.782735
 30
0.0
 11
9.13221
 21
153.782735
 31
0.0
  0
LINE
  5
81D
330
7DD
100
AcDbEntity
  8
BORDER
100
AcDbLine
 10
5.132209999999998
 20
5.132209999999998
 30
0.0
 11
214.0091299999999
 21
5.132209999999998
 31
0.0
  0
LINE
  5
81E
330
7DD
100
AcDbEntity
  8
BORDER
100
AcDbLine
 10
214.0091299999999
 20
5.132209999999998
 30
0.0
 11
214.0091299999999
 21
148.650525
 31
0.0
  0
LINE
  5
81F
330
7DD
100
AcDbEntity
  8
BORDER
100
AcDbLine
 10
214.0091299999999
 20
148.650525
 30
0.0
 11
5.132209999999998
 21
148.650525
 31
0.0
  0
LINE
  5
820
330
7DD
100
AcDbEntity
  8
BORDER
100
AcDbLine
 10
5.132209999999998
 20
148.650525
 30
0.0
 11
5.132209999999998
 21
5.132209999999998
 31
0.0
  0
TEXT
  5
821
330
7DD
100
AcDbEntity
  8
BORDER
100
AcDbText
 10
139.0287459999999
 20
39.50405899999999
 30
0.0
 40
1.5
  1
 IMPERIAL X.XXX"=+/-0.005 X.XX"+/-0.010"
  7
BORDER
100
AcDbText
  0
TEXT
  5
822
330
7DD
100
AcDbEntity
  8
BORDER
100
AcDbText
 10
134.311945
 20
42.31642599999999
 30
0.0
 40
1.5
  1
TOL: METRIC X.XX=+/-0.1mm  X.X=+/-0.25mm  ANGULAR +/-30'
  7
BORDER
100
AcDbText
  0
ENDBLK
  5
824
330
7DD
100
AcDbEntity
  8
0
100
AcDbBlockEnd
  0
BLOCK
  5
88D
330
838
100
AcDbEntity
  8
0
100
AcDbBlockBegin
  2
*U4
 70
     1
 10
0.0
 20
0.0
 30
0.0
  3
*U4
  1

  0
SOLID
  5
839
330
838
100
AcDbEntity
  8
0
  6
Continuous
 62
     7
100
AcDbTrace
 10
3.103342
 20
-7.685611999999999
 30
0.0
 11
-3.158463999999999
 21
-7.689280999999999
 31
0.0
 12
-3.118476999999999
 22
-7.689280999999999
 32
0.0
 13
-3.118476999999999
 23
-7.689280999999999
 33
0.0
210
0.0
220
0.0
230
-1.0
  0
SOLID
  5
83A
330
838
100
AcDbEntity
  8
0
  6
Continuous
 62
     7
100
AcDbTrace
 10
3.103342
 20
-7.685611999999999
 30
0.0
 11
-3.118476999999999
 21
-7.689280999999999
 31
0.0
 12
-3.003676
 22
-7.689280999999999
 32
0.0
 13
-3.003676
 23
-7.689280999999999
 33
0.0
210
0.0
220
0.0
230
-1.0
  0
SOLID
  5
83B
330
838
100
AcDbEntity
  8
0
  6
Continuous
 62
     7
100
AcDbTrace
 10
3.103342
 20
-7.685611999999999
 30
0.0
 11
-3.003676
 21
-7.689280999999999
 31
0.0
 12
-2.821801999999999
 22
-7.689280999999999
 32
0.0
 13
-2.821801999999999
 23
-7.689280999999999
 33
0.0
210
0.0
220
0.0
230
-1.0
  0
SOLID
  5
83C
330
838
100
AcDbEntity
  8
0
  6
Continuous
 62
     7
100
AcDbTrace
 10
3.103342
 20
-7.685611999999999
 30
0.0
 11
-2.821801999999999
 21
-7.689280999999999
 31
0.0
 12
-2.580591999999998
 22
-7.689280999999999
 32
0.0
 13
-2.580591999999998
 23
-7.689280999999999
 33
0.0
210
0.0
220
0.0
230
-1.0
  0
SOLID
  5
83D
330
838
100
AcDbEntity
  8
0
  6
Continuous
 62
     7
100
AcDbTrace
 10
3.103342
 20
-7.685611999999999
 30
0.0
 11
-2.580591999999998
 21
-7.689280999999999
 31
0.0
 12
-2.287786
 22
-7.689280999999999
 32
0.0
 13
-2.287786
 23
-7.689280999999999
 33
0.0
210
0.0
220
0.0
230
-1.0
  0
SOLID
  5
83E
330
838
100
AcDbEntity
  8
0
  6
Continuous
 62
     7
100
AcDbTrace
 10
3.103342
 20
-7.685611999999999
 30
0.0
 11
-2.287786
 21
-7.689280999999999
 31
0.0
 12
-1.951124
 22
-7.689280999999999
 32
0.0
 13
-1.951124
 23
-7.689280999999999
 33
0.0
210
0.0
220
0.0
230
-1.0
  0
SOLID
  5
83F
330
838
100
AcDbEntity
  8
0
  6
Continuous
 62
     7
100
AcDbTrace
 10
3.103342
 20
-7.685611999999999
 30
0.0
 11
-1.951124
 21
-7.689280999999999
 31
0.0
 12
-1.578345999999998
 22
-7.689280999999999
 32
0.0
 13
-1.578345999999998
 23
-7.689280999999999
 33
0.0
210
0.0
220
0.0
230
-1.0
  0
SOLID
  5
840
330
838
100
AcDbEntity
  8
0
  6
Continuous
 62
     7
100
AcDbTrace
 10
3.103342
 20
-7.685611999999999
 30
0.0
 11
-1.578345999999998
 21
-7.689280999999999
 31
0.0
 12
-1.177189
 22
-7.689280999999999
 32
0.0
 13
-1.177189
 23
-7.689280999999999
 33
0.0
210
0.0
220
0.0
230
-1.0
  0
SOLID
  5
841
330
838
100
AcDbEntity
  8
0
  6
Continuous
 62
     7
100
AcDbTrace
 10
3.103342
 20
-7.685611999999999
 30
0.0
 11
-1.177189
 21
-7.689280999999999
 31
0.0
 12
-0.320701
 22
-7.689280999999999
 32
0.0
 13
-0.320701
 23
-7.689280999999999
 33
0.0
210
0.0
220
0.0
230
-1.0
  0
SOLID
  5
842
330
838
100
AcDbEntity
  8
0
  6
Continuous
 62
     7
100
AcDbTrace
 10
3.103342
 20
-7.685611999999999
 30
0.0
 11
-0.320701
 21
-7.689280999999999
 31
0.0
 12
0.556426
 22
-7.689280999999999
 32
0.0
 13
0.556426
 23
-7.689280999999999
 33
0.0
210
0.0
220
0.0
230
-1.0
  0
SOLID
  5
843
330
838
100
AcDbEntity
  8
0
  6
Continuous
 62
     7
100
AcDbTrace
 10
3.103342
 20
-7.685611999999999
 30
0.0
 11
0.556426
 21
-7.689280999999999
 31
0.0
 12
1.392276
 22
-7.689280999999999
 32
0.0
 13
1.392276
 23
-7.689280999999999
 33
0.0
210
0.0
220
0.0
230
-1.0
  0
SOLID
  5
844
330
838
100
AcDbEntity
  8
0
  6
Continuous
 62
     7
100
AcDbTrace
 10
3.103342
 20
-7.685611999999999
 30
0.0
 11
1.392276
 21
-7.689280999999999
 31
0.0
 12
1.775374
 22
-7.689280999999999
 32
0.0
 13
1.775374
 23
-7.689280999999999
 33
0.0
210
0.0
220
0.0
230
-1.0
  0
SOLID
  5
845
330
838
100
AcDbEntity
  8
0
  6
Continuous
 62
     7
100
AcDbTrace
 10
3.103342
 20
-7.685611999999999
 30
0.0
 11
1.775374
 21
-7.689280999999999
 31
0.0
 12
2.124934999999998
 22
-7.689280999999999
 32
0.0
 13
2.124934999999998
 23
-7.689280999999999
 33
0.0
210
0.0
220
0.0
230
-1.0
  0
SOLID
  5
846
330
838
100
AcDbEntity
  8
0
  6
Continuous
 62
     7
100
AcDbTrace
 10
3.103342
 20
-7.685611999999999
 30
0.0
 11
2.124934999999998
 21
-7.689280999999999
 31
0.0
 12
2.433218999999998
 22
-7.689280999999999
 32
0.0
 13
2.433218999999998
 23
-7.689280999999999
 33
0.0
210
0.0
220
0.0
230
-1.0
  0
SOLID
  5
847
330
838
100
AcDbEntity
  8
0
  6
Continuous
 62
     7
100
AcDbTrace
 10
3.103342
 20
-7.685611999999999
 30
0.0
 11
2.433218999999998
 21
-7.689280999999999
 31
0.0
 12
2.692486999999998
 22
-7.689280999999999
 32
0.0
 13
2.692486999999998
 23
-7.689280999999999
 33
0.0
210
0.0
220
0.0
230
-1.0
  0
SOLID
  5
848
330
838
100
AcDbEntity
  8
0
  6
Continuous
 62
     7
100
AcDbTrace
 10
3.103342
 20
-7.685611999999999
 30
0.0
 11
2.692486999999998
 21
-7.689280999999999
 31
0.0
 12
2.895000999999998
 22
-7.689280999999999
 32
0.0
 13
2.895000999999998
 23
-7.689280999999999
 33
0.0
210
0.0
220
0.0
230
-1.0
  0
SOLID
  5
849
330
838
100
AcDbEntity
  8
0
  6
Continuous
 62
     7
100
AcDbTrace
 10
3.103342
 20
-7.685611999999999
 30
0.0
 11
2.895000999999998
 21
-7.689280999999999
 31
0.0
 12
3.033018999999999
 22
-7.689280999999999
 32
0.0
 13
3.033018999999999
 23
-7.689280999999999
 33
0.0
210
0.0
220
0.0
230
-1.0
  0
SOLID
  5
84A
330
838
100
AcDbEntity
  8
0
  6
Continuous
 62
     7
100
AcDbTrace
 10
3.103342
 20
-7.685611999999999
 30
0.0
 11
3.033018999999999
 21
-7.689280999999999
 31
0.0
 12
3.098803999999999
 22
-7.689280999999999
 32
0.0
 13
3.098803999999999
 23
-7.689280999999999
 33
0.0
210
0.0
220
0.0
230
-1.0
  0
SOLID
  5
84B
330
838
100
AcDbEntity
  8
0
  6
Continuous
 62
     7
100
AcDbTrace
 10
-3.158463999999999
 20
-7.660839999999999
 30
0.0
 11
-3.158463999999999
 21
-7.689280999999999
 31
0.0
 12
3.103342
 22
-7.685611999999999
 32
0.0
 13
3.103342
 23
-7.685611999999999
 33
0.0
210
0.0
220
0.0
230
-1.0
  0
SOLID
  5
84C
330
838
100
AcDbEntity
  8
0
  6
Continuous
 62
     7
100
AcDbTrace
 10
3.103342
 20
-7.634331999999999
 30
0.0
 11
-3.158463999999999
 21
-7.660839999999999
 31
0.0
 12
3.103342
 22
-7.685611999999999
 32
0.0
 13
3.103342
 23
-7.685611999999999
 33
0.0
210
0.0
220
0.0
230
-1.0
  0
SOLID
  5
84D
330
838
100
AcDbEntity
  8
0
  6
Continuous
 62
     7
100
AcDbTrace
 10
-3.158463999999999
 20
-7.579185999999999
 30
0.0
 11
-3.158463999999999
 21
-7.660839999999999
 31
0.0
 12
3.103342
 22
-7.634331999999999
 32
0.0
 13
3.103342
 23
-7.634331999999999
 33
0.0
210
0.0
220
0.0
230
-1.0
  0
SOLID
  5
84E
330
838
100
AcDbEntity
  8
0
  6
Continuous
 62
     7
100
AcDbTrace
 10
3.103342
 20
-7.532472999999998
 30
0.0
 11
-3.158463999999999
 21
-7.579185999999999
 31
0.0
 12
3.103342
 22
-7.634331999999999
 32
0.0
 13
3.103342
 23
-7.634331999999999
 33
0.0
210
0.0
220
0.0
230
-1.0
  0
SOLID
  5
84F
330
838
100
AcDbEntity
  8
0
  6
Continuous
 62
     7
100
AcDbTrace
 10
-3.158463999999999
 20
-7.449823999999999
 30
0.0
 11
-3.158463999999999
 21
-7.579185999999999
 31
0.0
 12
3.103342
 22
-7.532472999999998
 32
0.0
 13
3.103342
 23
-7.532472999999998
 33
0.0
210
0.0
220
0.0
230
-1.0
  0
SOLID
  5
850
330
838
100
AcDbEntity
  8
0
  6
Continuous
 62
     7
100
AcDbTrace
 10
3.103342
 20
-7.39268
 30
0.0
 11
-3.158463999999999
 21
-7.449823999999999
 31
0.0
 12
3.103342
 22
-7.532472999999998
 32
0.0
 13
3.103342
 23
-7.532472999999998
 33
0.0
210
0.0
220
0.0
230
-1.0
  0
SOLID
  5
851
330
838
100
AcDbEntity
  8
0
  6
Continuous
 62
     7
100
AcDbTrace
 10
-3.158463999999999
 20
-7.278258999999999
 30
0.0
 11
-3.158463999999999
 21
-7.449823999999999
 31
0.0
 12
3.103342
 22
-7.39268
 32
0.0
 13
3.103342
 23
-7.39268
 33
0.0
210
0.0
220
0.0
230
-1.0
  0
SOLID
  5
852
330
838
100
AcDbEntity
  8
0
  6
Continuous
 62
     7
100
AcDbTrace
 10
-3.158463999999999
 20
-7.069995999999999
 30
0.0
 11
-3.158463999999999
 21
-7.278258999999999
 31
0.0
 12
3.103342
 22
-7.39268
 32
0.0
 13
3.103342
 23
-7.39268
 33
0.0
210
0.0
220
0.0
230
-1.0
  0
SOLID
  5
853
330
838
100
AcDbEntity
  8
0
  6
Continuous
 62
     7
100
AcDbTrace
 10
3.103342
 20
-7.049871
 30
0.0
 11
-3.158463999999999
 21
-7.069995999999999
 31
0.0
 12
3.103342
 22
-7.39268
 32
0.0
 13
3.103342
 23
-7.39268
 33
0.0
210
0.0
220
0.0
230
-1.0
  0
SOLID
  5
854
330
838
100
AcDbEntity
  8
0
  6
Continuous
 62
     7
100
AcDbTrace
 10
-3.158463999999999
 20
-6.830539999999999
 30
0.0
 11
-3.158463999999999
 21
-7.069995999999999
 31
0.0
 12
3.103342
 22
-7.049871
 32
0.0
 13
3.103342
 23
-7.049871
 33
0.0
210
0.0
220
0.0
230
-1.0
  0
SOLID
  5
855
330
838
100
AcDbEntity
  8
0
  6
Continuous
 62
     7
100
AcDbTrace
 10
3.103342
 20
-6.707062999999999
 30
0.0
 11
-3.158463999999999
 21
-6.830539999999999
 31
0.0
 12
3.103342
 22
-7.049871
 32
0.0
 13
3.103342
 23
-7.049871
 33
0.0
210
0.0
220
0.0
230
-1.0
  0
SOLID
  5
856
330
838
100
AcDbEntity
  8
0
  6
Continuous
 62
     7
100
AcDbTrace
 10
3.103342
 20
-6.567269999999998
 30
0.0
 11
-3.158463999999999
 21
-6.830539999999999
 31
0.0
 12
3.103342
 22
-6.707062999999999
 32
0.0
 13
3.103342
 23
-6.707062999999999
 33
0.0
210
0.0
220
0.0
230
-1.0
  0
SOLID
  5
857
330
838
100
AcDbEntity
  8
0
  6
Continuous
 62
     7
100
AcDbTrace
 10
3.103342
 20
-6.465410999999999
 30
0.0
 11
-3.158463999999999
 21
-6.830539999999999
 31
0.0
 12
3.103342
 22
-6.567269999999998
 32
0.0
 13
3.103342
 23
-6.567269999999998
 33
0.0
210
0.0
220
0.0
230
-1.0
  0
SOLID
  5
858
330
838
100
AcDbEntity
  8
0
  6
Continuous
 62
     7
100
AcDbTrace
 10
3.103342
 20
-6.41413
 30
0.0
 11
-3.158463999999999
 21
-6.830539999999999
 31
0.0
 12
3.103342
 22
-6.465410999999999
 32
0.0
 13
3.103342
 23
-6.465410999999999
 33
0.0
210
0.0
220
0.0
230
-1.0
  0
SOLID
  5
859
330
838
100
AcDbEntity
  8
0
  6
Continuous
 62
     7
100
AcDbTrace
 10
3.099578999999999
 20
-6.410460999999998
 30
0.0
 11
-3.158463999999999
 21
-6.830539999999999
 31
0.0
 12
3.103342
 22
-6.41413
 32
0.0
 13
3.103342
 23
-6.41413
 33
0.0
210
0.0
220
0.0
230
-1.0
  0
SOLID
  5
85A
330
838
100
AcDbEntity
  8
0
  6
Continuous
 62
     7
100
AcDbTrace
 10
-3.158463999999999
 20
-6.830539999999999
 30
0.0
 11
-2.055947999999998
 21
-6.410460999999998
 31
0.0
 12
-2.089106
 22
-6.410460999999998
 32
0.0
 13
-2.089106
 23
-6.410460999999998
 33
0.0
210
0.0
220
0.0
230
-1.0
  0
SOLID
  5
85B
330
838
100
AcDbEntity
  8
0
  6
Continuous
 62
     7
100
AcDbTrace
 10
-3.158463999999999
 20
-6.830539999999999
 30
0.0
 11
-1.960752999999999
 21
-6.410460999999998
 31
0.0
 12
-2.055947999999998
 22
-6.410460999999998
 32
0.0
 13
-2.055947999999998
 23
-6.410460999999998
 33
0.0
210
0.0
220
0.0
230
-1.0
  0
SOLID
  5
85C
330
838
100
AcDbEntity
  8
0
  6
Continuous
 62
     7
100
AcDbTrace
 10
-3.158463999999999
 20
-6.830539999999999
 30
0.0
 11
-1.809936999999999
 21
-6.410460999999998
 31
0.0
 12
-1.960752999999999
 22
-6.410460999999998
 32
0.0
 13
-1.960752999999999
 23
-6.410460999999998
 33
0.0
210
0.0
220
0.0
230
-1.0
  0
SOLID
  5
85D
330
838
100
AcDbEntity
  8
0
  6
Continuous
 62
     7
100
AcDbTrace
 10
-3.158463999999999
 20
-6.830539999999999
 30
0.0
 11
-1.609919999999998
 21
-6.410460999999998
 31
0.0
 12
-1.809936999999999
 22
-6.410460999999998
 32
0.0
 13
-1.809936999999999
 23
-6.410460999999998
 33
0.0
210
0.0
220
0.0
230
-1.0
  0
SOLID
  5
85E
330
838
100
AcDbEntity
  8
0
  6
Continuous
 62
     7
100
AcDbTrace
 10
-3.158463999999999
 20
-6.830539999999999
 30
0.0
 11
-1.367118
 21
-6.410460999999998
 31
0.0
 12
-1.609919999999998
 22
-6.410460999999998
 32
0.0
 13
-1.609919999999998
 23
-6.410460999999998
 33
0.0
210
0.0
220
0.0
230
-1.0
  0
SOLID
  5
85F
330
838
100
AcDbEntity
  8
0
  6
Continuous
 62
     7
100
AcDbTrace
 10
-3.158463999999999
 20
-6.830539999999999
 30
0.0
 11
-1.087949999999999
 21
-6.410460999999998
 31
0.0
 12
-1.367118
 22
-6.410460999999998
 32
0.0
 13
-1.367118
 23
-6.410460999999998
 33
0.0
210
0.0
220
0.0
230
-1.0
  0
SOLID
  5
860
330
838
100
AcDbEntity
  8
0
  6
Continuous
 62
     7
100
AcDbTrace
 10
-3.158463999999999
 20
-6.830539999999999
 30
0.0
 11
-0.778832
 21
-6.410460999999998
 31
0.0
 12
-1.087949999999999
 22
-6.410460999999998
 32
0.0
 13
-1.087949999999999
 23
-6.410460999999998
 33
0.0
210
0.0
220
0.0
230
-1.0
  0
SOLID
  5
861
330
838
100
AcDbEntity
  8
0
  6
Continuous
 62
     7
100
AcDbTrace
 10
-3.158463999999999
 20
-6.830539999999999
 30
0.0
 11
-0.446183
 21
-6.410460999999998
 31
0.0
 12
-0.778832
 22
-6.410460999999998
 32
0.0
 13
-0.778832
 23
-6.410460999999998
 33
0.0
210
0.0
220
0.0
230
-1.0
  0
SOLID
  5
862
330
838
100
AcDbEntity
  8
0
  6
Continuous
 62
     7
100
AcDbTrace
 10
-3.158463999999999
 20
-6.830539999999999
 30
0.0
 11
0.991375
 21
-6.410460999999998
 31
0.0
 12
-0.446183
 22
-6.410460999999998
 32
0.0
 13
-0.446183
 23
-6.410460999999998
 33
0.0
210
0.0
220
0.0
230
-1.0
  0
SOLID
  5
863
330
838
100
AcDbEntity
  8
0
  6
Continuous
 62
     7
100
AcDbTrace
 10
-3.158463999999999
 20
-6.830539999999999
 30
0.0
 11
1.684482999999999
 21
-6.410460999999998
 31
0.0
 12
0.991375
 22
-6.410460999999998
 32
0.0
 13
0.991375
 23
-6.410460999999998
 33
0.0
210
0.0
220
0.0
230
-1.0
  0
SOLID
  5
864
330
838
100
AcDbEntity
  8
0
  6
Continuous
 62
     7
100
AcDbTrace
 10
-3.158463999999999
 20
-6.830539999999999
 30
0.0
 11
2.002156999999999
 21
-6.410460999999998
 31
0.0
 12
1.684482999999999
 22
-6.410460999999998
 32
0.0
 13
1.684482999999999
 23
-6.410460999999998
 33
0.0
210
0.0
220
0.0
230
-1.0
  0
SOLID
  5
865
330
838
100
AcDbEntity
  8
0
  6
Continuous
 62
     7
100
AcDbTrace
 10
-3.158463999999999
 20
-6.830539999999999
 30
0.0
 11
2.292021999999999
 21
-6.410460999999998
 31
0.0
 12
2.002156999999999
 22
-6.410460999999998
 32
0.0
 13
2.002156999999999
 23
-6.410460999999998
 33
0.0
210
0.0
220
0.0
230
-1.0
  0
SOLID
  5
866
330
838
100
AcDbEntity
  8
0
  6
Continuous
 62
     7
100
AcDbTrace
 10
-3.158463999999999
 20
-6.830539999999999
 30
0.0
 11
2.547658999999999
 21
-6.410460999999998
 31
0.0
 12
2.292021999999999
 22
-6.410460999999998
 32
0.0
 13
2.292021999999999
 23
-6.410460999999998
 33
0.0
210
0.0
220
0.0
230
-1.0
  0
SOLID
  5
867
330
838
100
AcDbEntity
  8
0
  6
Continuous
 62
     7
100
AcDbTrace
 10
-3.158463999999999
 20
-6.830539999999999
 30
0.0
 11
2.762650999999999
 21
-6.410460999999998
 31
0.0
 12
2.547658999999999
 22
-6.410460999999998
 32
0.0
 13
2.547658999999999
 23
-6.410460999999998
 33
0.0
210
0.0
220
0.0
230
-1.0
  0
SOLID
  5
868
330
838
100
AcDbEntity
  8
0
  6
Continuous
 62
     7
100
AcDbTrace
 10
-3.158463999999999
 20
-6.830539999999999
 30
0.0
 11
2.930579999999999
 21
-6.410460999999998
 31
0.0
 12
2.762650999999999
 22
-6.410460999999998
 32
0.0
 13
2.762650999999999
 23
-6.410460999999998
 33
0.0
210
0.0
220
0.0
230
-1.0
  0
SOLID
  5
869
330
838
100
AcDbEntity
  8
0
  6
Continuous
 62
     7
100
AcDbTrace
 10
-3.158463999999999
 20
-6.830539999999999
 30
0.0
 11
3.045027999999998
 21
-6.410460999999998
 31
0.0
 12
2.930579999999999
 22
-6.410460999999998
 32
0.0
 13
2.930579999999999
 23
-6.410460999999998
 33
0.0
210
0.0
220
0.0
230
-1.0
  0
SOLID
  5
86A
330
838
100
AcDbEntity
  8
0
  6
Continuous
 62
     7
100
AcDbTrace
 10
-3.158463999999999
 20
-6.830539999999999
 30
0.0
 11
3.099578999999999
 21
-6.410460999999998
 31
0.0
 12
3.045027999999998
 22
-6.410460999999998
 32
0.0
 13
3.045027999999998
 23
-6.410460999999998
 33
0.0
210
0.0
220
0.0
230
-1.0
  0
SOLID
  5
86B
330
838
100
AcDbEntity
  8
0
  6
Continuous
 62
     7
100
AcDbTrace
 10
-2.089106
 20
-6.390187
 30
0.0
 11
-3.158463999999999
 21
-6.830539999999999
 31
0.0
 12
-2.089106
 22
-6.410460999999998
 32
0.0
 13
-2.089106
 23
-6.410460999999998
 33
0.0
210
0.0
220
0.0
230
-1.0
  0
SOLID
  5
86C
330
838
100
AcDbEntity
  8
0
  6
Continuous
 62
     7
100
AcDbTrace
 10
-2.089106
 20
-6.331977999999999
 30
0.0
 11
-3.158463999999999
 21
-6.830539999999999
 31
0.0
 12
-2.089106
 22
-6.390187
 32
0.0
 13
-2.089106
 23
-6.390187
 33
0.0
210
0.0
220
0.0
230
-1.0
  0
SOLID
  5
86D
330
838
100
AcDbEntity
  8
0
  6
Continuous
 62
     7
100
AcDbTrace
 10
-3.158463999999999
 20
-6.280064999999999
 30
0.0
 11
-3.158463999999999
 21
-6.830539999999999
 31
0.0
 12
-2.089106
 22
-6.331977999999999
 32
0.0
 13
-2.089106
 23
-6.331977999999999
 33
0.0
210
0.0
220
0.0
230
-1.0
  0
SOLID
  5
86E
330
838
100
AcDbEntity
  8
0
  6
Continuous
 62
     7
100
AcDbTrace
 10
-2.089106
 20
-6.239759999999998
 30
0.0
 11
-3.158463999999999
 21
-6.280064999999999
 31
0.0
 12
-2.089106
 22
-6.331977999999999
 32
0.0
 13
-2.089106
 23
-6.331977999999999
 33
0.0
210
0.0
220
0.0
230
-1.0
  0
SOLID
  5
86F
330
838
100
AcDbEntity
  8
0
  6
Continuous
 62
     7
100
AcDbTrace
 10
-2.089106
 20
-6.117455999999998
 30
0.0
 11
-3.158463999999999
 21
-6.280064999999999
 31
0.0
 12
-2.089106
 22
-6.239759999999998
 32
0.0
 13
-2.089106
 23
-6.239759999999998
 33
0.0
210
0.0
220
0.0
230
-1.0
  0
SOLID
  5
870
330
838
100
AcDbEntity
  8
0
  6
Continuous
 62
     7
100
AcDbTrace
 10
-2.089106
 20
-5.968990999999999
 30
0.0
 11
-3.158463999999999
 21
-6.280064999999999
 31
0.0
 12
-2.089106
 22
-6.117455999999998
 32
0.0
 13
-2.089106
 23
-6.117455999999998
 33
0.0
210
0.0
220
0.0
230
-1.0
  0
SOLID
  5
871
330
838
100
AcDbEntity
  8
0
  6
Continuous
 62
     7
100
AcDbTrace
 10
-2.089106
 20
-5.798288999999998
 30
0.0
 11
-3.158463999999999
 21
-6.280064999999999
 31
0.0
 12
-2.089106
 22
-5.968990999999999
 32
0.0
 13
-2.089106
 23
-5.968990999999999
 33
0.0
210
0.0
220
0.0
230
-1.0
  0
SOLID
  5
872
330
838
100
AcDbEntity
  8
0
  6
Continuous
 62
     7
100
AcDbTrace
 10
-2.089106
 20
-5.405871999999999
 30
0.0
 11
-3.158463999999999
 21
-6.280064999999999
 31
0.0
 12
-2.089106
 22
-5.798288999999998
 32
0.0
 13
-2.089106
 23
-5.798288999999998
 33
0.0
210
0.0
220
0.0
230
-1.0
  0
SOLID
  5
873
330
838
100
AcDbEntity
  8
0
  6
Continuous
 62
     7
100
AcDbTrace
 10
-3.158463999999999
 20
-5.046999999999998
 30
0.0
 11
-3.158463999999999
 21
-6.280064999999999
 31
0.0
 12
-2.089106
 22
-5.405871999999999
 32
0.0
 13
-2.089106
 23
-5.405871999999999
 33
0.0
210
0.0
220
0.0
230
-1.0
  0
SOLID
  5
874
330
838
100
AcDbEntity
  8
0
  6
Continuous
 62
     7
100
AcDbTrace
 10
-2.089106
 20
-4.526855
 30
0.0
 11
-3.158463999999999
 21
-5.046999999999998
 31
0.0
 12
-2.089106
 22
-5.405871999999999
 32
0.0
 13
-2.089106
 23
-5.405871999999999
 33
0.0
210
0.0
220
0.0
230
-1.0
  0
SOLID
  5
875
330
838
100
AcDbEntity
  8
0
  6
Continuous
 62
     7
100
AcDbTrace
 10
-3.158463999999999
 20
-4.452486999999999
 30
0.0
 11
-3.158463999999999
 21
-5.046999999999998
 31
0.0
 12
-2.089106
 22
-4.526855
 32
0.0
 13
-2.089106
 23
-4.526855
 33
0.0
210
0.0
220
0.0
230
-1.0
  0
SOLID
  5
876
330
838
100
AcDbEntity
  8
0
  6
Continuous
 62
     7
100
AcDbTrace
 10
-3.158463999999999
 20
-4.180001999999999
 30
0.0
 11
-3.158463999999999
 21
-4.452486999999999
 31
0.0
 12
-2.089106
 22
-4.526855
 32
0.0
 13
-2.089106
 23
-4.526855
 33
0.0
210
0.0
220
0.0
230
-1.0
  0
SOLID
  5
877
330
838
100
AcDbEntity
  8
0
  6
Continuous
 62
     7
100
AcDbTrace
 10
-2.089106
 20
-4.103043999999999
 30
0.0
 11
-3.158463999999999
 21
-4.180001999999999
 31
0.0
 12
-2.089106
 22
-4.526855
 32
0.0
 13
-2.089106
 23
-4.526855
 33
0.0
210
0.0
220
0.0
230
-1.0
  0
SOLID
  5
878
330
838
100
AcDbEntity
  8
0
  6
Continuous
 62
     7
100
AcDbTrace
 10
-3.158463999999999
 20
-3.931370999999999
 30
0.0
 11
-3.158463999999999
 21
-4.180001999999999
 31
0.0
 12
-2.089106
 22
-4.103043999999999
 32
0.0
 13
-2.089106
 23
-4.103043999999999
 33
0.0
210
0.0
220
0.0
230
-1.0
  0
SOLID
  5
879
330
838
100
AcDbEntity
  8
0
  6
Continuous
 62
     7
100
AcDbTrace
 10
-2.089106
 20
-3.731555
 30
0.0
 11
-3.158463999999999
 21
-3.931370999999999
 31
0.0
 12
-2.089106
 22
-4.103043999999999
 32
0.0
 13
-2.089106
 23
-4.103043999999999
 33
0.0
210
0.0
220
0.0
230
-1.0
  0
SOLID
  5
87A
330
838
100
AcDbEntity
  8
0
  6
Continuous
 62
     7
100
AcDbTrace
 10
-3.158463999999999
 20
-3.712098
 30
0.0
 11
-3.158463999999999
 21
-3.931370999999999
 31
0.0
 12
-2.089106
 22
-3.731555
 32
0.0
 13
-2.089106
 23
-3.731555
 33
0.0
210
0.0
220
0.0
230
-1.0
  0
SOLID
  5
87B
330
838
100
AcDbEntity
  8
0
  6
Continuous
 62
     7
100
AcDbTrace
 10
-2.089106
 20
-3.575241999999998
 30
0.0
 11
-3.158463999999999
 21
-3.712098
 31
0.0
 12
-2.089106
 22
-3.731555
 32
0.0
 13
-2.089106
 23
-3.731555
 33
0.0
210
0.0
220
0.0
230
-1.0
  0
SOLID
  5
87C
330
838
100
AcDbEntity
  8
0
  6
Continuous
 62
     7
100
AcDbTrace
 10
-3.158463999999999
 20
-3.527689
 30
0.0
 11
-3.158463999999999
 21
-3.712098
 31
0.0
 12
-2.089106
 22
-3.575241999999998
 32
0.0
 13
-2.089106
 23
-3.575241999999998
 33
0.0
210
0.0
220
0.0
230
-1.0
  0
SOLID
  5
87D
330
838
100
AcDbEntity
  8
0
  6
Continuous
 62
     7
100
AcDbTrace
 10
-2.089106
 20
-3.443782
 30
0.0
 11
-3.158463999999999
 21
-3.527689
 31
0.0
 12
-2.089106
 22
-3.575241999999998
 32
0.0
 13
-2.089106
 23
-3.575241999999998
 33
0.0
210
0.0
220
0.0
230
-1.0
  0
SOLID
  5
87E
330
838
100
AcDbEntity
  8
0
  6
Continuous
 62
     7
100
AcDbTrace
 10
-3.158463999999999
 20
-3.383647999999999
 30
0.0
 11
-3.158463999999999
 21
-3.527689
 31
0.0
 12
-2.089106
 22
-3.443782
 32
0.0
 13
-2.089106
 23
-3.443782
 33
0.0
210
0.0
220
0.0
230
-1.0
  0
SOLID
  5
87F
330
838
100
AcDbEntity
  8
0
  6
Continuous
 62
     7
100
AcDbTrace
 10
-2.089106
 20
-3.341098999999998
 30
0.0
 11
-3.158463999999999
 21
-3.383647999999999
 31
0.0
 12
-2.089106
 22
-3.443782
 32
0.0
 13
-2.089106
 23
-3.443782
 33
0.0
210
0.0
220
0.0
230
-1.0
  0
SOLID
  5
880
330
838
100
AcDbEntity
  8
0
  6
Continuous
 62
     7
100
AcDbTrace
 10
-3.158463999999999
 20
-3.28548
 30
0.0
 11
-3.158463999999999
 21
-3.383647999999999
 31
0.0
 12
-2.089106
 22
-3.341098999999998
 32
0.0
 13
-2.089106
 23
-3.341098999999998
 33
0.0
210
0.0
220
0.0
230
-1.0
  0
SOLID
  5
881
330
838
100
AcDbEntity
  8
0
  6
Continuous
 62
     7
100
AcDbTrace
 10
-2.089106
 20
-3.271117999999999
 30
0.0
 11
-3.158463999999999
 21
-3.28548
 31
0.0
 12
-2.089106
 22
-3.341098999999998
 32
0.0
 13
-2.089106
 23
-3.341098999999998
 33
0.0
210
0.0
220
0.0
230
-1.0
  0
SOLID
  5
882
330
838
100
AcDbEntity
  8
0
  6
Continuous
 62
     7
100
AcDbTrace
 10
-3.158463999999999
 20
-3.23869
 30
0.0
 11
-3.158463999999999
 21
-3.28548
 31
0.0
 12
-2.089106
 22
-3.271117999999999
 32
0.0
 13
-2.089106
 23
-3.271117999999999
 33
0.0
210
0.0
220
0.0
230
-1.0
  0
SOLID
  5
883
330
838
100
AcDbEntity
  8
0
  6
Continuous
 62
     7
100
AcDbTrace
 10
-2.089106
 20
-3.237763
 30
0.0
 11
-3.158463999999999
 21
-3.23869
 31
0.0
 12
-2.089106
 22
-3.271117999999999
 32
0.0
 13
-2.089106
 23
-3.271117999999999
 33
0.0
210
0.0
220
0.0
230
-1.0
  0
SOLID
  5
884
330
838
100
AcDbEntity
  8
0
  6
Continuous
 62
     7
100
AcDbTrace
 10
-2.089106
 20
-3.237763
 30
0.0
 11
-3.112515
 21
-3.235460999999999
 31
0.0
 12
-3.155396
 22
-3.235460999999999
 32
0.0
 13
-3.155396
 23
-3.235460999999999
 33
0.0
210
0.0
220
0.0
230
-1.0
  0
SOLID
  5
885
330
838
100
AcDbEntity
  8
0
  6
Continuous
 62
     7
100
AcDbTrace
 10
-2.089106
 20
-3.237763
 30
0.0
 11
-3.027339
 21
-3.235460999999999
 31
0.0
 12
-3.112515
 22
-3.235460999999999
 32
0.0
 13
-3.112515
 23
-3.235460999999999
 33
0.0
210
0.0
220
0.0
230
-1.0
  0
SOLID
  5
886
330
838
100
AcDbEntity
  8
0
  6
Continuous
 62
     7
100
AcDbTrace
 10
-2.089106
 20
-3.237763
 30
0.0
 11
-2.910444
 21
-3.235460999999999
 31
0.0
 12
-3.027339
 22
-3.235460999999999
 32
0.0
 13
-3.027339
 23
-3.235460999999999
 33
0.0
210
0.0
220
0.0
230
-1.0
  0
SOLID
  5
887
330
838
100
AcDbEntity
  8
0
  6
Continuous
 62
     7
100
AcDbTrace
 10
-2.089106
 20
-3.237763
 30
0.0
 11
-2.623784999999998
 21
-3.235460999999999
 31
0.0
 12
-2.910444
 22
-3.235460999999999
 32
0.0
 13
-2.910444
 23
-3.235460999999999
 33
0.0
210
0.0
220
0.0
230
-1.0
  0
SOLID
  5
888
330
838
100
AcDbEntity
  8
0
  6
Continuous
 62
     7
100
AcDbTrace
 10
-2.089106
 20
-3.237763
 30
0.0
 11
-2.337126
 21
-3.235460999999999
 31
0.0
 12
-2.623784999999998
 22
-3.235460999999999
 32
0.0
 13
-2.623784999999998
 23
-3.235460999999999
 33
0.0
210
0.0
220
0.0
230
-1.0
  0
SOLID
  5
889
330
838
100
AcDbEntity
  8
0
  6
Continuous
 62
     7
100
AcDbTrace
 10
-2.089106
 20
-3.237763
 30
0.0
 11
-2.220229999999999
 21
-3.235460999999999
 31
0.0
 12
-2.337126
 22
-3.235460999999999
 32
0.0
 13
-2.337126
 23
-3.235460999999999
 33
0.0
210
0.0
220
0.0
230
-1.0
  0
SOLID
  5
88A
330
838
100
AcDbEntity
  8
0
  6
Continuous
 62
     7
100
AcDbTrace
 10
-2.089106
 20
-3.237763
 30
0.0
 11
-2.135054999999999
 21
-3.235460999999999
 31
0.0
 12
-2.220229999999999
 22
-3.235460999999999
 32
0.0
 13
-2.220229999999999
 23
-3.235460999999999
 33
0.0
210
0.0
220
0.0
230
-1.0
  0
SOLID
  5
88B
330
838
100
AcDbEntity
  8
0
  6
Continuous
 62
     7
100
AcDbTrace
 10
-2.089106
 20
-3.237763
 30
0.0
 11
-2.092173999999999
 21
-3.235460999999999
 31
0.0
 12
-2.135054999999999
 22
-3.235460999999999
 32
0.0
 13
-2.135054999999999
 23
-3.235460999999999
 33
0.0
210
0.0
220
0.0
230
-1.0
  0
SOLID
  5
88C
330
838
100
AcDbEntity
  8
0
  6
Continuous
 62
     7
100
AcDbTrace
 10
-3.155396
 20
-3.235460999999999
 30
0.0
 11
-3.158463999999999
 21
-3.23869
 31
0.0
 12
-2.089106
 22
-3.237763
 32
0.0
 13
-2.089106
 23
-3.237763
 33
0.0
210
0.0
220
0.0
230
-1.0
  0
ENDBLK
  5
88E
330
838
100
AcDbEntity
  8
0
100
AcDbBlockEnd
  0
BLOCK
  5
8FE
330
88F
100
AcDbEntity
  8
0
100
AcDbBlockBegin
  2
*U5
 70
     1
 10
0.0
 20
0.0
 30
0.0
  3
*U5
  1

  0
SOLID
  5
890
330
88F
100
AcDbEntity
  8
0
  6
Continuous
 62
     7
100
AcDbTrace
 10
3.158463999999999
 20
-3.416268
 30
0.0
 11
2.089106
 21
-3.430626
 31
0.0
 12
2.101115
 22
-3.430626
 32
0.0
 13
2.101115
 23
-3.430626
 33
0.0
210
0.0
220
0.0
230
-1.0
  0
SOLID
  5
891
330
88F
100
AcDbEntity
  8
0
  6
Continuous
 62
     7
100
AcDbTrace
 10
3.158463999999999
 20
-3.416268
 30
0.0
 11
2.101115
 21
-3.430626
 31
0.0
 12
2.135054999999999
 22
-3.430626
 32
0.0
 13
2.135054999999999
 23
-3.430626
 33
0.0
210
0.0
220
0.0
230
-1.0
  0
SOLID
  5
892
330
88F
100
AcDbEntity
  8
0
  6
Continuous
 62
     7
100
AcDbTrace
 10
3.158463999999999
 20
-3.416268
 30
0.0
 11
2.135054999999999
 21
-3.430626
 31
0.0
 12
2.256193
 22
-3.430626
 32
0.0
 13
2.256193
 23
-3.430626
 33
0.0
210
0.0
220
0.0
230
-1.0
  0
SOLID
  5
893
330
88F
100
AcDbEntity
  8
0
  6
Continuous
 62
     7
100
AcDbTrace
 10
3.158463999999999
 20
-3.416268
 30
0.0
 11
2.256193
 21
-3.430626
 31
0.0
 12
2.427456999999999
 22
-3.430626
 32
0.0
 13
2.427456999999999
 23
-3.430626
 33
0.0
210
0.0
220
0.0
230
-1.0
  0
SOLID
  5
894
330
88F
100
AcDbEntity
  8
0
  6
Continuous
 62
     7
100
AcDbTrace
 10
3.158463999999999
 20
-3.416268
 30
0.0
 11
2.427456999999999
 21
-3.430626
 31
0.0
 12
2.623784999999998
 22
-3.430626
 32
0.0
 13
2.623784999999998
 23
-3.430626
 33
0.0
210
0.0
220
0.0
230
-1.0
  0
SOLID
  5
895
330
88F
100
AcDbEntity
  8
0
  6
Continuous
 62
     7
100
AcDbTrace
 10
3.158463999999999
 20
-3.416268
 30
0.0
 11
2.623784999999998
 21
-3.430626
 31
0.0
 12
2.820111999999999
 22
-3.430626
 32
0.0
 13
2.820111999999999
 23
-3.430626
 33
0.0
210
0.0
220
0.0
230
-1.0
  0
SOLID
  5
896
330
88F
100
AcDbEntity
  8
0
  6
Continuous
 62
     7
100
AcDbTrace
 10
3.158463999999999
 20
-3.416268
 30
0.0
 11
2.820111999999999
 21
-3.430626
 31
0.0
 12
2.991375999999998
 22
-3.430626
 32
0.0
 13
2.991375999999998
 23
-3.430626
 33
0.0
210
0.0
220
0.0
230
-1.0
  0
SOLID
  5
897
330
88F
100
AcDbEntity
  8
0
  6
Continuous
 62
     7
100
AcDbTrace
 10
3.158463999999999
 20
-3.416268
 30
0.0
 11
2.991375999999998
 21
-3.430626
 31
0.0
 12
3.112515
 22
-3.430626
 32
0.0
 13
3.112515
 23
-3.430626
 33
0.0
210
0.0
220
0.0
230
-1.0
  0
SOLID
  5
898
330
88F
100
AcDbEntity
  8
0
  6
Continuous
 62
     7
100
AcDbTrace
 10
3.158463999999999
 20
-3.416268
 30
0.0
 11
3.112515
 21
-3.430626
 31
0.0
 12
3.146453999999999
 22
-3.430626
 32
0.0
 13
3.146453999999999
 23
-3.430626
 33
0.0
210
0.0
220
0.0
230
-1.0
  0
SOLID
  5
899
330
88F
100
AcDbEntity
  8
0
  6
Continuous
 62
     7
100
AcDbTrace
 10
3.158463999999999
 20
-3.416268
 30
0.0
 11
3.146453999999999
 21
-3.430626
 31
0.0
 12
3.158463999999999
 22
-3.430626
 32
0.0
 13
3.158463999999999
 23
-3.430626
 33
0.0
210
0.0
220
0.0
230
-1.0
  0
SOLID
  5
89A
330
88F
100
AcDbEntity
  8
0
  6
Continuous
 62
     7
100
AcDbTrace
 10
2.089106
 20
-3.409702999999999
 30
0.0
 11
2.089106
 21
-3.430626
 31
0.0
 12
3.158463999999999
 22
-3.416268
 32
0.0
 13
3.158463999999999
 23
-3.416268
 33
0.0
210
0.0
220
0.0
230
-1.0
  0
SOLID
  5
89B
330
88F
100
AcDbEntity
  8
0
  6
Continuous
 62
     7
100
AcDbTrace
 10
3.158463999999999
 20
-3.374416999999998
 30
0.0
 11
2.089106
 21
-3.409702999999999
 31
0.0
 12
3.158463999999999
 22
-3.416268
 32
0.0
 13
3.158463999999999
 23
-3.416268
 33
0.0
210
0.0
220
0.0
230
-1.0
  0
SOLID
  5
89C
330
88F
100
AcDbEntity
  8
0
  6
Continuous
 62
     7
100
AcDbTrace
 10
2.089106
 20
-3.350570999999999
 30
0.0
 11
2.089106
 21
-3.409702999999999
 31
0.0
 12
3.158463999999999
 22
-3.374416999999998
 32
0.0
 13
3.158463999999999
 23
-3.374416999999998
 33
0.0
210
0.0
220
0.0
230
-1.0
  0
SOLID
  5
89D
330
88F
100
AcDbEntity
  8
0
  6
Continuous
 62
     7
100
AcDbTrace
 10
3.158463999999999
 20
-3.306904999999999
 30
0.0
 11
2.089106
 21
-3.350570999999999
 31
0.0
 12
3.158463999999999
 22
-3.374416999999998
 32
0.0
 13
3.158463999999999
 23
-3.374416999999998
 33
0.0
210
0.0
220
0.0
230
-1.0
  0
SOLID
  5
89E
330
88F
100
AcDbEntity
  8
0
  6
Continuous
 62
     7
100
AcDbTrace
 10
2.089106
 20
-3.258688999999999
 30
0.0
 11
2.089106
 21
-3.350570999999999
 31
0.0
 12
3.158463999999999
 22
-3.306904999999999
 32
0.0
 13
3.158463999999999
 23
-3.306904999999999
 33
0.0
210
0.0
220
0.0
230
-1.0
  0
SOLID
  5
89F
330
88F
100
AcDbEntity
  8
0
  6
Continuous
 62
     7
100
AcDbTrace
 10
3.158463999999999
 20
-3.215565999999999
 30
0.0
 11
2.089106
 21
-3.258688999999999
 31
0.0
 12
3.158463999999999
 22
-3.306904999999999
 32
0.0
 13
3.158463999999999
 23
-3.306904999999999
 33
0.0
210
0.0
220
0.0
230
-1.0
  0
SOLID
  5
8A0
330
88F
100
AcDbEntity
  8
0
  6
Continuous
 62
     7
100
AcDbTrace
 10
2.089106
 20
-3.139515999999999
 30
0.0
 11
2.089106
 21
-3.258688999999999
 31
0.0
 12
3.158463999999999
 22
-3.215565999999999
 32
0.0
 13
3.158463999999999
 23
-3.215565999999999
 33
0.0
210
0.0
220
0.0
230
-1.0
  0
SOLID
  5
8A1
330
88F
100
AcDbEntity
  8
0
  6
Continuous
 62
     7
100
AcDbTrace
 10
3.158463999999999
 20
-2.968735999999999
 30
0.0
 11
2.089106
 21
-3.139515999999999
 31
0.0
 12
3.158463999999999
 22
-3.215565999999999
 32
0.0
 13
3.158463999999999
 23
-3.215565999999999
 33
0.0
210
0.0
220
0.0
230
-1.0
  0
SOLID
  5
8A2
330
88F
100
AcDbEntity
  8
0
  6
Continuous
 62
     7
100
AcDbTrace
 10
2.089106
 20
-2.841127
 30
0.0
 11
2.089106
 21
-3.139515999999999
 31
0.0
 12
3.158463999999999
 22
-2.968735999999999
 32
0.0
 13
3.158463999999999
 23
-2.968735999999999
 33
0.0
210
0.0
220
0.0
230
-1.0
  0
SOLID
  5
8A3
330
88F
100
AcDbEntity
  8
0
  6
Continuous
 62
     7
100
AcDbTrace
 10
3.158463999999999
 20
-2.648588999999998
 30
0.0
 11
2.089106
 21
-2.841127
 31
0.0
 12
3.158463999999999
 22
-2.968735999999999
 32
0.0
 13
3.158463999999999
 23
-2.968735999999999
 33
0.0
210
0.0
220
0.0
230
-1.0
  0
SOLID
  5
8A4
330
88F
100
AcDbEntity
  8
0
  6
Continuous
 62
     7
100
AcDbTrace
 10
2.089106
 20
-2.499071999999999
 30
0.0
 11
2.089106
 21
-2.841127
 31
0.0
 12
3.158463999999999
 22
-2.648588999999998
 32
0.0
 13
3.158463999999999
 23
-2.648588999999998
 33
0.0
210
0.0
220
0.0
230
-1.0
  0
SOLID
  5
8A5
330
88F
100
AcDbEntity
  8
0
  6
Continuous
 62
     7
100
AcDbTrace
 10
3.158463999999999
 20
-2.269789999999999
 30
0.0
 11
2.089106
 21
-2.499071999999999
 31
0.0
 12
3.158463999999999
 22
-2.648588999999998
 32
0.0
 13
3.158463999999999
 23
-2.648588999999998
 33
0.0
210
0.0
220
0.0
230
-1.0
  0
SOLID
  5
8A6
330
88F
100
AcDbEntity
  8
0
  6
Continuous
 62
     7
100
AcDbTrace
 10
2.089106
 20
-2.157016999999998
 30
0.0
 11
2.089106
 21
-2.499071999999999
 31
0.0
 12
3.158463999999999
 22
-2.269789999999999
 32
0.0
 13
3.158463999999999
 23
-2.269789999999999
 33
0.0
210
0.0
220
0.0
230
-1.0
  0
SOLID
  5
8A7
330
88F
100
AcDbEntity
  8
0
  6
Continuous
 62
     7
100
AcDbTrace
 10
2.089106
 20
-1.858629
 30
0.0
 11
2.089106
 21
-2.157016999999998
 31
0.0
 12
3.158463999999999
 22
-2.269789999999999
 32
0.0
 13
3.158463999999999
 23
-2.269789999999999
 33
0.0
210
0.0
220
0.0
230
-1.0
  0
SOLID
  5
8A8
330
88F
100
AcDbEntity
  8
0
  6
Continuous
 62
     7
100
AcDbTrace
 10
3.158463999999999
 20
-1.847001999999998
 30
0.0
 11
2.089106
 21
-1.858629
 31
0.0
 12
3.158463999999999
 22
-2.269789999999999
 32
0.0
 13
3.158463999999999
 23
-2.269789999999999
 33
0.0
210
0.0
220
0.0
230
-1.0
  0
SOLID
  5
8A9
330
88F
100
AcDbEntity
  8
0
  6
Continuous
 62
     7
100
AcDbTrace
 10
2.089106
 20
-1.739455999999999
 30
0.0
 11
2.089106
 21
-1.858629
 31
0.0
 12
3.158463999999999
 22
-1.847001999999998
 32
0.0
 13
3.158463999999999
 23
-1.847001999999998
 33
0.0
210
0.0
220
0.0
230
-1.0
  0
SOLID
  5
8AA
330
88F
100
AcDbEntity
  8
0
  6
Continuous
 62
     7
100
AcDbTrace
 10
2.089106
 20
-1.647574
 30
0.0
 11
2.089106
 21
-1.739455999999999
 31
0.0
 12
3.158463999999999
 22
-1.847001999999998
 32
0.0
 13
3.158463999999999
 23
-1.847001999999998
 33
0.0
210
0.0
220
0.0
230
-1.0
  0
SOLID
  5
8AB
330
88F
100
AcDbEntity
  8
0
  6
Continuous
 62
     7
100
AcDbTrace
 10
2.089106
 20
-1.588441999999999
 30
0.0
 11
2.089106
 21
-1.647574
 31
0.0
 12
3.158463999999999
 22
-1.847001999999998
 32
0.0
 13
3.158463999999999
 23
-1.847001999999998
 33
0.0
210
0.0
220
0.0
230
-1.0
  0
SOLID
  5
8AC
330
88F
100
AcDbEntity
  8
0
  6
Continuous
 62
     7
100
AcDbTrace
 10
2.089106
 20
-1.567517999999999
 30
0.0
 11
2.089106
 21
-1.588441999999999
 31
0.0
 12
3.158463999999999
 22
-1.847001999999998
 32
0.0
 13
3.158463999999999
 23
-1.847001999999998
 33
0.0
210
0.0
220
0.0
230
-1.0
  0
SOLID
  5
8AD
330
88F
100
AcDbEntity
  8
0
  6
Continuous
 62
     7
100
AcDbTrace
 10
-3.158463999999999
 20
-1.553156999999999
 30
0.0
 11
-3.158463999999999
 21
-1.567517999999999
 31
0.0
 12
-3.143409999999998
 22
-1.567517999999999
 32
0.0
 13
-3.143409999999998
 23
-1.567517999999999
 33
0.0
210
0.0
220
0.0
230
-1.0
  0
SOLID
  5
8AE
330
88F
100
AcDbEntity
  8
0
  6
Continuous
 62
     7
100
AcDbTrace
 10
-3.158463999999999
 20
-1.553156999999999
 30
0.0
 11
-3.143409999999998
 21
-1.567517999999999
 31
0.0
 12
-3.099530999999999
 22
-1.567517999999999
 32
0.0
 13
-3.099530999999999
 23
-1.567517999999999
 33
0.0
210
0.0
220
0.0
230
-1.0
  0
SOLID
  5
8AF
330
88F
100
AcDbEntity
  8
0
  6
Continuous
 62
     7
100
AcDbTrace
 10
-3.158463999999999
 20
-1.553156999999999
 30
0.0
 11
-3.099530999999999
 21
-1.567517999999999
 31
0.0
 12
-3.028747999999998
 22
-1.567517999999999
 32
0.0
 13
-3.028747999999998
 23
-1.567517999999999
 33
0.0
210
0.0
220
0.0
230
-1.0
  0
SOLID
  5
8B0
330
88F
100
AcDbEntity
  8
0
  6
Continuous
 62
     7
100
AcDbTrace
 10
-3.158463999999999
 20
-1.553156999999999
 30
0.0
 11
-3.028747999999998
 21
-1.567517999999999
 31
0.0
 12
-2.932981999999999
 22
-1.567517999999999
 32
0.0
 13
-2.932981999999999
 23
-1.567517999999999
 33
0.0
210
0.0
220
0.0
230
-1.0
  0
SOLID
  5
8B1
330
88F
100
AcDbEntity
  8
0
  6
Continuous
 62
     7
100
AcDbTrace
 10
-3.158463999999999
 20
-1.553156999999999
 30
0.0
 11
-2.932981999999999
 21
-1.567517999999999
 31
0.0
 12
-2.814156
 22
-1.567517999999999
 32
0.0
 13
-2.814156
 23
-1.567517999999999
 33
0.0
210
0.0
220
0.0
230
-1.0
  0
SOLID
  5
8B2
330
88F
100
AcDbEntity
  8
0
  6
Continuous
 62
     7
100
AcDbTrace
 10
-3.158463999999999
 20
-1.553156999999999
 30
0.0
 11
-2.814156
 21
-1.567517999999999
 31
0.0
 12
-2.674190999999999
 22
-1.567517999999999
 32
0.0
 13
-2.674190999999999
 23
-1.567517999999999
 33
0.0
210
0.0
220
0.0
230
-1.0
  0
SOLID
  5
8B3
330
88F
100
AcDbEntity
  8
0
  6
Continuous
 62
     7
100
AcDbTrace
 10
-3.158463999999999
 20
-1.553156999999999
 30
0.0
 11
-2.674190999999999
 21
-1.567517999999999
 31
0.0
 12
-2.338531
 22
-1.567517999999999
 32
0.0
 13
-2.338531
 23
-1.567517999999999
 33
0.0
210
0.0
220
0.0
230
-1.0
  0
SOLID
  5
8B4
330
88F
100
AcDbEntity
  8
0
  6
Continuous
 62
     7
100
AcDbTrace
 10
-3.158463999999999
 20
-1.553156999999999
 30
0.0
 11
-2.338531
 21
-1.567517999999999
 31
0.0
 12
-1.941375999999999
 22
-1.567517999999999
 32
0.0
 13
-1.941375999999999
 23
-1.567517999999999
 33
0.0
210
0.0
220
0.0
230
-1.0
  0
SOLID
  5
8B5
330
88F
100
AcDbEntity
  8
0
  6
Continuous
 62
     7
100
AcDbTrace
 10
-3.158463999999999
 20
-1.553156999999999
 30
0.0
 11
-1.941375999999999
 21
-1.567517999999999
 31
0.0
 12
-1.498099999999999
 22
-1.567517999999999
 32
0.0
 13
-1.498099999999999
 23
-1.567517999999999
 33
0.0
210
0.0
220
0.0
230
-1.0
  0
SOLID
  5
8B6
330
88F
100
AcDbEntity
  8
0
  6
Continuous
 62
     7
100
AcDbTrace
 10
-3.158463999999999
 20
-1.553156999999999
 30
0.0
 11
-1.498099999999999
 21
-1.567517999999999
 31
0.0
 12
-0.5346790000000002
 22
-1.567517999999999
 32
0.0
 13
-0.5346790000000002
 23
-1.567517999999999
 33
0.0
210
0.0
220
0.0
230
-1.0
  0
SOLID
  5
8B7
330
88F
100
AcDbEntity
  8
0
  6
Continuous
 62
     7
100
AcDbTrace
 10
-3.158463999999999
 20
-1.553156999999999
 30
0.0
 11
-0.5346790000000002
 21
-1.567517999999999
 31
0.0
 12
0.428742
 22
-1.567517999999999
 32
0.0
 13
0.428742
 23
-1.567517999999999
 33
0.0
210
0.0
220
0.0
230
-1.0
  0
SOLID
  5
8B8
330
88F
100
AcDbEntity
  8
0
  6
Continuous
 62
     7
100
AcDbTrace
 10
-3.158463999999999
 20
-1.553156999999999
 30
0.0
 11
0.428742
 21
-1.567517999999999
 31
0.0
 12
0.8720179999999999
 22
-1.567517999999999
 32
0.0
 13
0.8720179999999999
 23
-1.567517999999999
 33
0.0
210
0.0
220
0.0
230
-1.0
  0
SOLID
  5
8B9
330
88F
100
AcDbEntity
  8
0
  6
Continuous
 62
     7
100
AcDbTrace
 10
-3.158463999999999
 20
-1.553156999999999
 30
0.0
 11
0.8720179999999999
 21
-1.567517999999999
 31
0.0
 12
1.269172999999998
 22
-1.567517999999999
 32
0.0
 13
1.269172999999998
 23
-1.567517999999999
 33
0.0
210
0.0
220
0.0
230
-1.0
  0
SOLID
  5
8BA
330
88F
100
AcDbEntity
  8
0
  6
Continuous
 62
     7
100
AcDbTrace
 10
-3.158463999999999
 20
-1.553156999999999
 30
0.0
 11
1.269172999999998
 21
-1.567517999999999
 31
0.0
 12
1.604832999999999
 22
-1.567517999999999
 32
0.0
 13
1.604832999999999
 23
-1.567517999999999
 33
0.0
210
0.0
220
0.0
230
-1.0
  0
SOLID
  5
8BB
330
88F
100
AcDbEntity
  8
0
  6
Continuous
 62
     7
100
AcDbTrace
 10
-3.158463999999999
 20
-1.553156999999999
 30
0.0
 11
1.604832999999999
 21
-1.567517999999999
 31
0.0
 12
1.744797999999998
 22
-1.567517999999999
 32
0.0
 13
1.744797999999998
 23
-1.567517999999999
 33
0.0
210
0.0
220
0.0
230
-1.0
  0
SOLID
  5
8BC
330
88F
100
AcDbEntity
  8
0
  6
Continuous
 62
     7
100
AcDbTrace
 10
-3.158463999999999
 20
-1.553156999999999
 30
0.0
 11
1.744797999999998
 21
-1.567517999999999
 31
0.0
 12
1.863623999999999
 22
-1.567517999999999
 32
0.0
 13
1.863623999999999
 23
-1.567517999999999
 33
0.0
210
0.0
220
0.0
230
-1.0
  0
SOLID
  5
8BD
330
88F
100
AcDbEntity
  8
0
  6
Continuous
 62
     7
100
AcDbTrace
 10
-3.158463999999999
 20
-1.553156999999999
 30
0.0
 11
1.863623999999999
 21
-1.567517999999999
 31
0.0
 12
1.959389999999999
 22
-1.567517999999999
 32
0.0
 13
1.959389999999999
 23
-1.567517999999999
 33
0.0
210
0.0
220
0.0
230
-1.0
  0
SOLID
  5
8BE
330
88F
100
AcDbEntity
  8
0
  6
Continuous
 62
     7
100
AcDbTrace
 10
-3.158463999999999
 20
-1.553156999999999
 30
0.0
 11
1.959389999999999
 21
-1.567517999999999
 31
0.0
 12
2.030173
 22
-1.567517999999999
 32
0.0
 13
2.030173
 23
-1.567517999999999
 33
0.0
210
0.0
220
0.0
230
-1.0
  0
SOLID
  5
8BF
330
88F
100
AcDbEntity
  8
0
  6
Continuous
 62
     7
100
AcDbTrace
 10
-3.158463999999999
 20
-1.553156999999999
 30
0.0
 11
2.030173
 21
-1.567517999999999
 31
0.0
 12
2.074052
 22
-1.567517999999999
 32
0.0
 13
2.074052
 23
-1.567517999999999
 33
0.0
210
0.0
220
0.0
230
-1.0
  0
SOLID
  5
8C0
330
88F
100
AcDbEntity
  8
0
  6
Continuous
 62
     7
100
AcDbTrace
 10
-3.158463999999999
 20
-1.553156999999999
 30
0.0
 11
2.074052
 21
-1.567517999999999
 31
0.0
 12
2.089106
 22
-1.567517999999999
 32
0.0
 13
2.089106
 23
-1.567517999999999
 33
0.0
210
0.0
220
0.0
230
-1.0
  0
SOLID
  5
8C1
330
88F
100
AcDbEntity
  8
0
  6
Continuous
 62
     7
100
AcDbTrace
 10
-3.158463999999999
 20
-1.512569
 30
0.0
 11
-3.158463999999999
 21
-1.553156999999999
 31
0.0
 12
2.089106
 22
-1.567517999999999
 32
0.0
 13
2.089106
 23
-1.567517999999999
 33
0.0
210
0.0
220
0.0
230
-1.0
  0
SOLID
  5
8C2
330
88F
100
AcDbEntity
  8
0
  6
Continuous
 62
     7
100
AcDbTrace
 10
-3.158463999999999
 20
-1.367702999999999
 30
0.0
 11
-3.158463999999999
 21
-1.512569
 31
0.0
 12
2.089106
 22
-1.567517999999999
 32
0.0
 13
2.089106
 23
-1.567517999999999
 33
0.0
210
0.0
220
0.0
230
-1.0
  0
SOLID
  5
8C3
330
88F
100
AcDbEntity
  8
0
  6
Continuous
 62
     7
100
AcDbTrace
 10
-3.158463999999999
 20
-1.162892
 30
0.0
 11
-3.158463999999999
 21
-1.367702999999999
 31
0.0
 12
2.089106
 22
-1.567517999999999
 32
0.0
 13
2.089106
 23
-1.567517999999999
 33
0.0
210
0.0
220
0.0
230
-1.0
  0
SOLID
  5
8C4
330
88F
100
AcDbEntity
  8
0
  6
Continuous
 62
     7
100
AcDbTrace
 10
3.158463999999999
 20
-0.9281089999999998
 30
0.0
 11
-3.158463999999999
 21
-1.162892
 31
0.0
 12
2.089106
 22
-1.567517999999999
 32
0.0
 13
2.089106
 23
-1.567517999999999
 33
0.0
210
0.0
220
0.0
230
-1.0
  0
SOLID
  5
8C5
330
88F
100
AcDbEntity
  8
0
  6
Continuous
 62
     7
100
AcDbTrace
 10
3.158463999999999
 20
-0.9281089999999998
 30
0.0
 11
2.089106
 21
-1.567517999999999
 31
0.0
 12
3.158463999999999
 22
-1.847001999999998
 32
0.0
 13
3.158463999999999
 23
-1.847001999999998
 33
0.0
210
0.0
220
0.0
230
-1.0
  0
SOLID
  5
8C6
330
88F
100
AcDbEntity
  8
0
  6
Continuous
 62
     7
100
AcDbTrace
 10
-3.158463999999999
 20
-0.9281089999999998
 30
0.0
 11
-3.158463999999999
 21
-1.162892
 31
0.0
 12
3.158463999999999
 22
-0.9281089999999998
 32
0.0
 13
3.158463999999999
 23
-0.9281089999999998
 33
0.0
210
0.0
220
0.0
230
-1.0
  0
SOLID
  5
8C7
330
88F
100
AcDbEntity
  8
0
  6
Continuous
 62
     7
100
AcDbTrace
 10
-3.158463999999999
 20
-0.693325
 30
0.0
 11
-3.158463999999999
 21
-0.9281089999999998
 31
0.0
 12
3.158463999999999
 22
-0.9281089999999998
 32
0.0
 13
3.158463999999999
 23
-0.9281089999999998
 33
0.0
210
0.0
220
0.0
230
-1.0
  0
SOLID
  5
8C8
330
88F
100
AcDbEntity
  8
0
  6
Continuous
 62
     7
100
AcDbTrace
 10
-3.158463999999999
 20
-0.488515
 30
0.0
 11
-3.158463999999999
 21
-0.693325
 31
0.0
 12
3.158463999999999
 22
-0.9281089999999998
 32
0.0
 13
3.158463999999999
 23
-0.9281089999999998
 33
0.0
210
0.0
220
0.0
230
-1.0
  0
SOLID
  5
8C9
330
88F
100
AcDbEntity
  8
0
  6
Continuous
 62
     7
100
AcDbTrace
 10
-3.158463999999999
 20
-0.343648
 30
0.0
 11
-3.158463999999999
 21
-0.488515
 31
0.0
 12
3.158463999999999
 22
-0.9281089999999998
 32
0.0
 13
3.158463999999999
 23
-0.9281089999999998
 33
0.0
210
0.0
220
0.0
230
-1.0
  0
SOLID
  5
8CA
330
88F
100
AcDbEntity
  8
0
  6
Continuous
 62
     7
100
AcDbTrace
 10
-3.158463999999999
 20
-0.303061
 30
0.0
 11
-3.158463999999999
 21
-0.343648
 31
0.0
 12
3.158463999999999
 22
-0.9281089999999998
 32
0.0
 13
3.158463999999999
 23
-0.9281089999999998
 33
0.0
210
0.0
220
0.0
230
-1.0
  0
SOLID
  5
8CB
330
88F
100
AcDbEntity
  8
0
  6
Continuous
 62
     7
100
AcDbTrace
 10
-3.158463999999999
 20
-0.288699
 30
0.0
 11
-3.158463999999999
 21
-0.303061
 31
0.0
 12
3.158463999999999
 22
-0.9281089999999998
 32
0.0
 13
3.158463999999999
 23
-0.9281089999999998
 33
0.0
210
0.0
220
0.0
230
-1.0
  0
SOLID
  5
8CC
330
88F
100
AcDbEntity
  8
0
  6
Continuous
 62
     7
100
AcDbTrace
 10
3.158463999999999
 20
-0.9281089999999998
 30
0.0
 11
-3.143409999999998
 21
-0.288699
 31
0.0
 12
-3.158463999999999
 22
-0.288699
 32
0.0
 13
-3.158463999999999
 23
-0.288699
 33
0.0
210
0.0
220
0.0
230
-1.0
  0
SOLID
  5
8CD
330
88F
100
AcDbEntity
  8
0
  6
Continuous
 62
     7
100
AcDbTrace
 10
3.158463999999999
 20
-0.9281089999999998
 30
0.0
 11
-3.099530999999999
 21
-0.288699
 31
0.0
 12
-3.143409999999998
 22
-0.288699
 32
0.0
 13
-3.143409999999998
 23
-0.288699
 33
0.0
210
0.0
220
0.0
230
-1.0
  0
SOLID
  5
8CE
330
88F
100
AcDbEntity
  8
0
  6
Continuous
 62
     7
100
AcDbTrace
 10
3.158463999999999
 20
-0.9281089999999998
 30
0.0
 11
-3.028747999999998
 21
-0.288699
 31
0.0
 12
-3.099530999999999
 22
-0.288699
 32
0.0
 13
-3.099530999999999
 23
-0.288699
 33
0.0
210
0.0
220
0.0
230
-1.0
  0
SOLID
  5
8CF
330
88F
100
AcDbEntity
  8
0
  6
Continuous
 62
     7
100
AcDbTrace
 10
3.158463999999999
 20
-0.9281089999999998
 30
0.0
 11
-2.932981999999999
 21
-0.288699
 31
0.0
 12
-3.028747999999998
 22
-0.288699
 32
0.0
 13
-3.028747999999998
 23
-0.288699
 33
0.0
210
0.0
220
0.0
230
-1.0
  0
SOLID
  5
8D0
330
88F
100
AcDbEntity
  8
0
  6
Continuous
 62
     7
100
AcDbTrace
 10
3.158463999999999
 20
-0.9281089999999998
 30
0.0
 11
-2.814156
 21
-0.288699
 31
0.0
 12
-2.932981999999999
 22
-0.288699
 32
0.0
 13
-2.932981999999999
 23
-0.288699
 33
0.0
210
0.0
220
0.0
230
-1.0
  0
SOLID
  5
8D1
330
88F
100
AcDbEntity
  8
0
  6
Continuous
 62
     7
100
AcDbTrace
 10
3.158463999999999
 20
-0.9281089999999998
 30
0.0
 11
-2.674190999999999
 21
-0.288699
 31
0.0
 12
-2.814156
 22
-0.288699
 32
0.0
 13
-2.814156
 23
-0.288699
 33
0.0
210
0.0
220
0.0
230
-1.0
  0
SOLID
  5
8D2
330
88F
100
AcDbEntity
  8
0
  6
Continuous
 62
     7
100
AcDbTrace
 10
3.158463999999999
 20
-0.9281089999999998
 30
0.0
 11
-2.338531
 21
-0.288699
 31
0.0
 12
-2.674190999999999
 22
-0.288699
 32
0.0
 13
-2.674190999999999
 23
-0.288699
 33
0.0
210
0.0
220
0.0
230
-1.0
  0
SOLID
  5
8D3
330
88F
100
AcDbEntity
  8
0
  6
Continuous
 62
     7
100
AcDbTrace
 10
3.158463999999999
 20
-0.9281089999999998
 30
0.0
 11
-1.941375999999999
 21
-0.288699
 31
0.0
 12
-2.338531
 22
-0.288699
 32
0.0
 13
-2.338531
 23
-0.288699
 33
0.0
210
0.0
220
0.0
230
-1.0
  0
SOLID
  5
8D4
330
88F
100
AcDbEntity
  8
0
  6
Continuous
 62
     7
100
AcDbTrace
 10
3.158463999999999
 20
-0.9281089999999998
 30
0.0
 11
-1.498099999999999
 21
-0.288699
 31
0.0
 12
-1.941375999999999
 22
-0.288699
 32
0.0
 13
-1.941375999999999
 23
-0.288699
 33
0.0
210
0.0
220
0.0
230
-1.0
  0
SOLID
  5
8D5
330
88F
100
AcDbEntity
  8
0
  6
Continuous
 62
     7
100
AcDbTrace
 10
3.158463999999999
 20
-0.9281089999999998
 30
0.0
 11
-0.5346790000000002
 21
-0.288699
 31
0.0
 12
-1.498099999999999
 22
-0.288699
 32
0.0
 13
-1.498099999999999
 23
-0.288699
 33
0.0
210
0.0
220
0.0
230
-1.0
  0
SOLID
  5
8D6
330
88F
100
AcDbEntity
  8
0
  6
Continuous
 62
     7
100
AcDbTrace
 10
3.158463999999999
 20
-0.9281089999999998
 30
0.0
 11
0.428742
 21
-0.288699
 31
0.0
 12
-0.5346790000000002
 22
-0.288699
 32
0.0
 13
-0.5346790000000002
 23
-0.288699
 33
0.0
210
0.0
220
0.0
230
-1.0
  0
SOLID
  5
8D7
330
88F
100
AcDbEntity
  8
0
  6
Continuous
 62
     7
100
AcDbTrace
 10
3.158463999999999
 20
-0.9281089999999998
 30
0.0
 11
0.8720179999999999
 21
-0.288699
 31
0.0
 12
0.428742
 22
-0.288699
 32
0.0
 13
0.428742
 23
-0.288699
 33
0.0
210
0.0
220
0.0
230
-1.0
  0
SOLID
  5
8D8
330
88F
100
AcDbEntity
  8
0
  6
Continuous
 62
     7
100
AcDbTrace
 10
3.158463999999999
 20
-0.9281089999999998
 30
0.0
 11
1.269172999999998
 21
-0.288699
 31
0.0
 12
0.8720179999999999
 22
-0.288699
 32
0.0
 13
0.8720179999999999
 23
-0.288699
 33
0.0
210
0.0
220
0.0
230
-1.0
  0
SOLID
  5
8D9
330
88F
100
AcDbEntity
  8
0
  6
Continuous
 62
     7
100
AcDbTrace
 10
3.158463999999999
 20
-0.9281089999999998
 30
0.0
 11
1.604832999999999
 21
-0.288699
 31
0.0
 12
1.269172999999998
 22
-0.288699
 32
0.0
 13
1.269172999999998
 23
-0.288699
 33
0.0
210
0.0
220
0.0
230
-1.0
  0
SOLID
  5
8DA
330
88F
100
AcDbEntity
  8
0
  6
Continuous
 62
     7
100
AcDbTrace
 10
3.158463999999999
 20
-0.9281089999999998
 30
0.0
 11
1.744797999999998
 21
-0.288699
 31
0.0
 12
1.604832999999999
 22
-0.288699
 32
0.0
 13
1.604832999999999
 23
-0.288699
 33
0.0
210
0.0
220
0.0
230
-1.0
  0
SOLID
  5
8DB
330
88F
100
AcDbEntity
  8
0
  6
Continuous
 62
     7
100
AcDbTrace
 10
3.158463999999999
 20
-0.9281089999999998
 30
0.0
 11
1.863623999999999
 21
-0.288699
 31
0.0
 12
1.744797999999998
 22
-0.288699
 32
0.0
 13
1.744797999999998
 23
-0.288699
 33
0.0
210
0.0
220
0.0
230
-1.0
  0
SOLID
  5
8DC
330
88F
100
AcDbEntity
  8
0
  6
Continuous
 62
     7
100
AcDbTrace
 10
3.158463999999999
 20
-0.9281089999999998
 30
0.0
 11
1.959389999999999
 21
-0.288699
 31
0.0
 12
1.863623999999999
 22
-0.288699
 32
0.0
 13
1.863623999999999
 23
-0.288699
 33
0.0
210
0.0
220
0.0
230
-1.0
  0
SOLID
  5
8DD
330
88F
100
AcDbEntity
  8
0
  6
Continuous
 62
     7
100
AcDbTrace
 10
3.158463999999999
 20
-0.9281089999999998
 30
0.0
 11
2.030173
 21
-0.288699
 31
0.0
 12
1.959389999999999
 22
-0.288699
 32
0.0
 13
1.959389999999999
 23
-0.288699
 33
0.0
210
0.0
220
0.0
230
-1.0
  0
SOLID
  5
8DE
330
88F
100
AcDbEntity
  8
0
  6
Continuous
 62
     7
100
AcDbTrace
 10
3.158463999999999
 20
-0.9281089999999998
 30
0.0
 11
2.074052
 21
-0.288699
 31
0.0
 12
2.030173
 22
-0.288699
 32
0.0
 13
2.030173
 23
-0.288699
 33
0.0
210
0.0
220
0.0
230
-1.0
  0
SOLID
  5
8DF
330
88F
100
AcDbEntity
  8
0
  6
Continuous
 62
     7
100
AcDbTrace
 10
3.158463999999999
 20
-0.9281089999999998
 30
0.0
 11
2.089106
 21
-0.288699
 31
0.0
 12
2.074052
 22
-0.288699
 32
0.0
 13
2.074052
 23
-0.288699
 33
0.0
210
0.0
220
0.0
230
-1.0
  0
SOLID
  5
8E0
330
88F
100
AcDbEntity
  8
0
  6
Continuous
 62
     7
100
AcDbTrace
 10
2.089106
 20
-0.267775
 30
0.0
 11
2.089106
 21
-0.288699
 31
0.0
 12
3.158463999999999
 22
-0.9281089999999998
 32
0.0
 13
3.158463999999999
 23
-0.9281089999999998
 33
0.0
210
0.0
220
0.0
230
-1.0
  0
SOLID
  5
8E1
330
88F
100
AcDbEntity
  8
0
  6
Continuous
 62
     7
100
AcDbTrace
 10
2.089106
 20
-0.208644
 30
0.0
 11
2.089106
 21
-0.267775
 31
0.0
 12
3.158463999999999
 22
-0.9281089999999998
 32
0.0
 13
3.158463999999999
 23
-0.9281089999999998
 33
0.0
210
0.0
220
0.0
230
-1.0
  0
SOLID
  5
8E2
330
88F
100
AcDbEntity
  8
0
  6
Continuous
 62
     7
100
AcDbTrace
 10
2.089106
 20
-0.116762
 30
0.0
 11
2.089106
 21
-0.208644
 31
0.0
 12
3.158463999999999
 22
-0.9281089999999998
 32
0.0
 13
3.158463999999999
 23
-0.9281089999999998
 33
0.0
210
0.0
220
0.0
230
-1.0
  0
SOLID
  5
8E3
330
88F
100
AcDbEntity
  8
0
  6
Continuous
 62
     7
100
AcDbTrace
 10
3.158463999999999
 20
-0.009216
 30
0.0
 11
2.089106
 21
-0.116762
 31
0.0
 12
3.158463999999999
 22
-0.9281089999999998
 32
0.0
 13
3.158463999999999
 23
-0.9281089999999998
 33
0.0
210
0.0
220
0.0
230
-1.0
  0
SOLID
  5
8E4
330
88F
100
AcDbEntity
  8
0
  6
Continuous
 62
     7
100
AcDbTrace
 10
2.089106
 20
0.002412
 30
0.0
 11
2.089106
 21
-0.116762
 31
0.0
 12
3.158463999999999
 22
-0.009216
 32
0.0
 13
3.158463999999999
 23
-0.009216
 33
0.0
210
0.0
220
0.0
230
-1.0
  0
SOLID
  5
8E5
330
88F
100
AcDbEntity
  8
0
  6
Continuous
 62
     7
100
AcDbTrace
 10
2.089106
 20
0.3008
 30
0.0
 11
2.089106
 21
0.002412
 31
0.0
 12
3.158463999999999
 22
-0.009216
 32
0.0
 13
3.158463999999999
 23
-0.009216
 33
0.0
210
0.0
220
0.0
230
-1.0
  0
SOLID
  5
8E6
330
88F
100
AcDbEntity
  8
0
  6
Continuous
 62
     7
100
AcDbTrace
 10
3.158463999999999
 20
0.4135730000000001
 30
0.0
 11
2.089106
 21
0.3008
 31
0.0
 12
3.158463999999999
 22
-0.009216
 32
0.0
 13
3.158463999999999
 23
-0.009216
 33
0.0
210
0.0
220
0.0
230
-1.0
  0
SOLID
  5
8E7
330
88F
100
AcDbEntity
  8
0
  6
Continuous
 62
     7
100
AcDbTrace
 10
2.089106
 20
0.6428550000000001
 30
0.0
 11
2.089106
 21
0.3008
 31
0.0
 12
3.158463999999999
 22
0.4135730000000001
 32
0.0
 13
3.158463999999999
 23
0.4135730000000001
 33
0.0
210
0.0
220
0.0
230
-1.0
  0
SOLID
  5
8E8
330
88F
100
AcDbEntity
  8
0
  6
Continuous
 62
     7
100
AcDbTrace
 10
3.158463999999999
 20
0.7923720000000002
 30
0.0
 11
2.089106
 21
0.6428550000000001
 31
0.0
 12
3.158463999999999
 22
0.4135730000000001
 32
0.0
 13
3.158463999999999
 23
0.4135730000000001
 33
0.0
210
0.0
220
0.0
230
-1.0
  0
SOLID
  5
8E9
330
88F
100
AcDbEntity
  8
0
  6
Continuous
 62
     7
100
AcDbTrace
 10
2.089106
 20
0.9849099999999999
 30
0.0
 11
2.089106
 21
0.6428550000000001
 31
0.0
 12
3.158463999999999
 22
0.7923720000000002
 32
0.0
 13
3.158463999999999
 23
0.7923720000000002
 33
0.0
210
0.0
220
0.0
230
-1.0
  0
SOLID
  5
8EA
330
88F
100
AcDbEntity
  8
0
  6
Continuous
 62
     7
100
AcDbTrace
 10
3.158463999999999
 20
1.112517999999999
 30
0.0
 11
2.089106
 21
0.9849099999999999
 31
0.0
 12
3.158463999999999
 22
0.7923720000000002
 32
0.0
 13
3.158463999999999
 23
0.7923720000000002
 33
0.0
210
0.0
220
0.0
230
-1.0
  0
SOLID
  5
8EB
330
88F
100
AcDbEntity
  8
0
  6
Continuous
 62
     7
100
AcDbTrace
 10
2.089106
 20
1.283298
 30
0.0
 11
2.089106
 21
0.9849099999999999
 31
0.0
 12
3.158463999999999
 22
1.112517999999999
 32
0.0
 13
3.158463999999999
 23
1.112517999999999
 33
0.0
210
0.0
220
0.0
230
-1.0
  0
SOLID
  5
8EC
330
88F
100
AcDbEntity
  8
0
  6
Continuous
 62
     7
100
AcDbTrace
 10
3.158463999999999
 20
1.359348999999999
 30
0.0
 11
2.089106
 21
1.283298
 31
0.0
 12
3.158463999999999
 22
1.112517999999999
 32
0.0
 13
3.158463999999999
 23
1.112517999999999
 33
0.0
210
0.0
220
0.0
230
-1.0
  0
SOLID
  5
8ED
330
88F
100
AcDbEntity
  8
0
  6
Continuous
 62
     7
100
AcDbTrace
 10
2.089106
 20
1.402471
 30
0.0
 11
2.089106
 21
1.283298
 31
0.0
 12
3.158463999999999
 22
1.359348999999999
 32
0.0
 13
3.158463999999999
 23
1.359348999999999
 33
0.0
210
0.0
220
0.0
230
-1.0
  0
SOLID
  5
8EE
330
88F
100
AcDbEntity
  8
0
  6
Continuous
 62
     7
100
AcDbTrace
 10
3.158463999999999
 20
1.450687999999999
 30
0.0
 11
2.089106
 21
1.402471
 31
0.0
 12
3.158463999999999
 22
1.359348999999999
 32
0.0
 13
3.158463999999999
 23
1.359348999999999
 33
0.0
210
0.0
220
0.0
230
-1.0
  0
SOLID
  5
8EF
330
88F
100
AcDbEntity
  8
0
  6
Continuous
 62
     7
100
AcDbTrace
 10
2.089106
 20
1.494353
 30
0.0
 11
2.089106
 21
1.402471
 31
0.0
 12
3.158463999999999
 22
1.450687999999999
 32
0.0
 13
3.158463999999999
 23
1.450687999999999
 33
0.0
210
0.0
220
0.0
230
-1.0
  0
SOLID
  5
8F0
330
88F
100
AcDbEntity
  8
0
  6
Continuous
 62
     7
100
AcDbTrace
 10
3.158463999999999
 20
1.518199999999999
 30
0.0
 11
2.089106
 21
1.494353
 31
0.0
 12
3.158463999999999
 22
1.450687999999999
 32
0.0
 13
3.158463999999999
 23
1.450687999999999
 33
0.0
210
0.0
220
0.0
230
-1.0
  0
SOLID
  5
8F1
330
88F
100
AcDbEntity
  8
0
  6
Continuous
 62
     7
100
AcDbTrace
 10
2.089106
 20
1.553485
 30
0.0
 11
2.089106
 21
1.494353
 31
0.0
 12
3.158463999999999
 22
1.518199999999999
 32
0.0
 13
3.158463999999999
 23
1.518199999999999
 33
0.0
210
0.0
220
0.0
230
-1.0
  0
SOLID
  5
8F2
330
88F
100
AcDbEntity
  8
0
  6
Continuous
 62
     7
100
AcDbTrace
 10
3.158463999999999
 20
1.560051
 30
0.0
 11
2.089106
 21
1.553485
 31
0.0
 12
3.158463999999999
 22
1.518199999999999
 32
0.0
 13
3.158463999999999
 23
1.518199999999999
 33
0.0
210
0.0
220
0.0
230
-1.0
  0
SOLID
  5
8F3
330
88F
100
AcDbEntity
  8
0
  6
Continuous
 62
     7
100
AcDbTrace
 10
3.158463999999999
 20
1.560051
 30
0.0
 11
2.101115
 21
1.574408999999999
 31
0.0
 12
2.089106
 22
1.574408999999999
 32
0.0
 13
2.089106
 23
1.574408999999999
 33
0.0
210
0.0
220
0.0
230
-1.0
  0
SOLID
  5
8F4
330
88F
100
AcDbEntity
  8
0
  6
Continuous
 62
     7
100
AcDbTrace
 10
3.158463999999999
 20
1.560051
 30
0.0
 11
2.135054999999999
 21
1.574408999999999
 31
0.0
 12
2.101115
 22
1.574408999999999
 32
0.0
 13
2.101115
 23
1.574408999999999
 33
0.0
210
0.0
220
0.0
230
-1.0
  0
SOLID
  5
8F5
330
88F
100
AcDbEntity
  8
0
  6
Continuous
 62
     7
100
AcDbTrace
 10
3.158463999999999
 20
1.560051
 30
0.0
 11
2.256193
 21
1.574408999999999
 31
0.0
 12
2.135054999999999
 22
1.574408999999999
 32
0.0
 13
2.135054999999999
 23
1.574408999999999
 33
0.0
210
0.0
220
0.0
230
-1.0
  0
SOLID
  5
8F6
330
88F
100
AcDbEntity
  8
0
  6
Continuous
 62
     7
100
AcDbTrace
 10
3.158463999999999
 20
1.560051
 30
0.0
 11
2.427456999999999
 21
1.574408999999999
 31
0.0
 12
2.256193
 22
1.574408999999999
 32
0.0
 13
2.256193
 23
1.574408999999999
 33
0.0
210
0.0
220
0.0
230
-1.0
  0
SOLID
  5
8F7
330
88F
100
AcDbEntity
  8
0
  6
Continuous
 62
     7
100
AcDbTrace
 10
3.158463999999999
 20
1.560051
 30
0.0
 11
2.623784999999998
 21
1.574408999999999
 31
0.0
 12
2.427456999999999
 22
1.574408999999999
 32
0.0
 13
2.427456999999999
 23
1.574408999999999
 33
0.0
210
0.0
220
0.0
230
-1.0
  0
SOLID
  5
8F8
330
88F
100
AcDbEntity
  8
0
  6
Continuous
 62
     7
100
AcDbTrace
 10
3.158463999999999
 20
1.560051
 30
0.0
 11
2.820111999999999
 21
1.574408999999999
 31
0.0
 12
2.623784999999998
 22
1.574408999999999
 32
0.0
 13
2.623784999999998
 23
1.574408999999999
 33
0.0
210
0.0
220
0.0
230
-1.0
  0
SOLID
  5
8F9
330
88F
100
AcDbEntity
  8
0
  6
Continuous
 62
     7
100
AcDbTrace
 10
3.158463999999999
 20
1.560051
 30
0.0
 11
2.991375999999998
 21
1.574408999999999
 31
0.0
 12
2.820111999999999
 22
1.574408999999999
 32
0.0
 13
2.820111999999999
 23
1.574408999999999
 33
0.0
210
0.0
220
0.0
230
-1.0
  0
SOLID
  5
8FA
330
88F
100
AcDbEntity
  8
0
  6
Continuous
 62
     7
100
AcDbTrace
 10
3.158463999999999
 20
1.560051
 30
0.0
 11
3.112515
 21
1.574408999999999
 31
0.0
 12
2.991375999999998
 22
1.574408999999999
 32
0.0
 13
2.991375999999998
 23
1.574408999999999
 33
0.0
210
0.0
220
0.0
230
-1.0
  0
SOLID
  5
8FB
330
88F
100
AcDbEntity
  8
0
  6
Continuous
 62
     7
100
AcDbTrace
 10
3.158463999999999
 20
1.560051
 30
0.0
 11
3.146453999999999
 21
1.574408999999999
 31
0.0
 12
3.112515
 22
1.574408999999999
 32
0.0
 13
3.112515
 23
1.574408999999999
 33
0.0
210
0.0
220
0.0
230
-1.0
  0
SOLID
  5
8FC
330
88F
100
AcDbEntity
  8
0
  6
Continuous
 62
     7
100
AcDbTrace
 10
3.158463999999999
 20
1.560051
 30
0.0
 11
3.158463999999999
 21
1.574408999999999
 31
0.0
 12
3.146453999999999
 22
1.574408999999999
 32
0.0
 13
3.146453999999999
 23
1.574408999999999
 33
0.0
210
0.0
220
0.0
230
-1.0
  0
SOLID
  5
8FD
330
88F
100
AcDbEntity
  8
0
  6
Continuous
 62
     7
100
AcDbTrace
 10
2.089106
 20
1.574408999999999
 30
0.0
 11
2.089106
 21
1.553485
 31
0.0
 12
3.158463999999999
 22
1.560051
 32
0.0
 13
3.158463999999999
 23
1.560051
 33
0.0
210
0.0
220
0.0
230
-1.0
  0
ENDBLK
  5
8FF
330
88F
100
AcDbEntity
  8
0
100
AcDbBlockEnd
  0
BLOCK
  5
98D
330
900
100
AcDbEntity
  8
0
100
AcDbBlockBegin
  2
*U6
 70
     1
 10
0.0
 20
0.0
 30
0.0
  3
*U6
  1

  0
SOLID
  5
901
330
900
100
AcDbEntity
  8
0
  6
Continuous
 62
     7
100
AcDbTrace
 10
-3.158463999999999
 20
2.415503999999998
 30
0.0
 11
-3.155880999999999
 21
2.408638999999999
 31
0.0
 12
-3.103852999999999
 22
2.408638999999999
 32
0.0
 13
-3.103852999999999
 23
2.408638999999999
 33
0.0
210
0.0
220
0.0
230
-1.0
  0
SOLID
  5
902
330
900
100
AcDbEntity
  8
0
  6
Continuous
 62
     7
100
AcDbTrace
 10
-3.158463999999999
 20
2.415503999999998
 30
0.0
 11
-3.103852999999999
 21
2.408638999999999
 31
0.0
 12
-2.989500999999998
 22
2.408638999999999
 32
0.0
 13
-2.989500999999998
 23
2.408638999999999
 33
0.0
210
0.0
220
0.0
230
-1.0
  0
SOLID
  5
903
330
900
100
AcDbEntity
  8
0
  6
Continuous
 62
     7
100
AcDbTrace
 10
-3.158463999999999
 20
2.415503999999998
 30
0.0
 11
-2.989500999999998
 21
2.408638999999999
 31
0.0
 12
-2.818837999999999
 22
2.408638999999999
 32
0.0
 13
-2.818837999999999
 23
2.408638999999999
 33
0.0
210
0.0
220
0.0
230
-1.0
  0
SOLID
  5
904
330
900
100
AcDbEntity
  8
0
  6
Continuous
 62
     7
100
AcDbTrace
 10
-3.158463999999999
 20
2.415503999999998
 30
0.0
 11
-2.818837999999999
 21
2.408638999999999
 31
0.0
 12
-2.597877999999998
 22
2.408638999999999
 32
0.0
 13
-2.597877999999998
 23
2.408638999999999
 33
0.0
210
0.0
220
0.0
230
-1.0
  0
SOLID
  5
905
330
900
100
AcDbEntity
  8
0
  6
Continuous
 62
     7
100
AcDbTrace
 10
-3.158463999999999
 20
2.415503999999998
 30
0.0
 11
-2.597877999999998
 21
2.408638999999999
 31
0.0
 12
-2.332635999999999
 22
2.408638999999999
 32
0.0
 13
-2.332635999999999
 23
2.408638999999999
 33
0.0
210
0.0
220
0.0
230
-1.0
  0
SOLID
  5
906
330
900
100
AcDbEntity
  8
0
  6
Continuous
 62
     7
100
AcDbTrace
 10
-3.158463999999999
 20
2.415503999999998
 30
0.0
 11
-2.332635999999999
 21
2.408638999999999
 31
0.0
 12
-2.029123999999999
 22
2.408638999999999
 32
0.0
 13
-2.029123999999999
 23
2.408638999999999
 33
0.0
210
0.0
220
0.0
230
-1.0
  0
SOLID
  5
907
330
900
100
AcDbEntity
  8
0
  6
Continuous
 62
     7
100
AcDbTrace
 10
-3.158463999999999
 20
2.415503999999998
 30
0.0
 11
-2.029123999999999
 21
2.408638999999999
 31
0.0
 12
-1.693356
 22
2.408638999999999
 32
0.0
 13
-1.693356
 23
2.408638999999999
 33
0.0
210
0.0
220
0.0
230
-1.0
  0
SOLID
  5
908
330
900
100
AcDbEntity
  8
0
  6
Continuous
 62
     7
100
AcDbTrace
 10
-3.158463999999999
 20
2.415503999999998
 30
0.0
 11
-1.693356
 21
2.408638999999999
 31
0.0
 12
-0.9491089999999999
 22
2.408638999999999
 32
0.0
 13
-0.9491089999999999
 23
2.408638999999999
 33
0.0
210
0.0
220
0.0
230
-1.0
  0
SOLID
  5
909
330
900
100
AcDbEntity
  8
0
  6
Continuous
 62
     7
100
AcDbTrace
 10
-3.158463999999999
 20
2.415503999999998
 30
0.0
 11
-0.9491089999999999
 21
2.408638999999999
 31
0.0
 12
-0.148005
 22
2.408638999999999
 32
0.0
 13
-0.148005
 23
2.408638999999999
 33
0.0
210
0.0
220
0.0
230
-1.0
  0
SOLID
  5
90A
330
900
100
AcDbEntity
  8
0
  6
Continuous
 62
     7
100
AcDbTrace
 10
-3.158463999999999
 20
2.415503999999998
 30
0.0
 11
-0.148005
 21
2.408638999999999
 31
0.0
 12
0.6618470000000001
 22
2.408638999999999
 32
0.0
 13
0.6618470000000001
 23
2.408638999999999
 33
0.0
210
0.0
220
0.0
230
-1.0
  0
SOLID
  5
90B
330
900
100
AcDbEntity
  8
0
  6
Continuous
 62
     7
100
AcDbTrace
 10
-3.158463999999999
 20
2.415503999999998
 30
0.0
 11
0.6618470000000001
 21
2.408638999999999
 31
0.0
 12
1.432334999999999
 22
2.408638999999999
 32
0.0
 13
1.432334999999999
 23
2.408638999999999
 33
0.0
210
0.0
220
0.0
230
-1.0
  0
SOLID
  5
90C
330
900
100
AcDbEntity
  8
0
  6
Continuous
 62
     7
100
AcDbTrace
 10
-3.158463999999999
 20
2.415503999999998
 30
0.0
 11
1.432334999999999
 21
2.408638999999999
 31
0.0
 12
1.787784
 22
2.408638999999999
 32
0.0
 13
1.787784
 23
2.408638999999999
 33
0.0
210
0.0
220
0.0
230
-1.0
  0
SOLID
  5
90D
330
900
100
AcDbEntity
  8
0
  6
Continuous
 62
     7
100
AcDbTrace
 10
-3.158463999999999
 20
2.415503999999998
 30
0.0
 11
1.787784
 21
2.408638999999999
 31
0.0
 12
2.115352
 22
2.408638999999999
 32
0.0
 13
2.115352
 23
2.408638999999999
 33
0.0
210
0.0
220
0.0
230
-1.0
  0
SOLID
  5
90E
330
900
100
AcDbEntity
  8
0
  6
Continuous
 62
     7
100
AcDbTrace
 10
-3.158463999999999
 20
2.415503999999998
 30
0.0
 11
2.115352
 21
2.408638999999999
 31
0.0
 12
2.409022999999999
 22
2.408638999999999
 32
0.0
 13
2.409022999999999
 23
2.408638999999999
 33
0.0
210
0.0
220
0.0
230
-1.0
  0
SOLID
  5
90F
330
900
100
AcDbEntity
  8
0
  6
Continuous
 62
     7
100
AcDbTrace
 10
-3.158463999999999
 20
2.415503999999998
 30
0.0
 11
2.409022999999999
 21
2.408638999999999
 31
0.0
 12
2.662784999999999
 22
2.408638999999999
 32
0.0
 13
2.662784999999999
 23
2.408638999999999
 33
0.0
210
0.0
220
0.0
230
-1.0
  0
SOLID
  5
910
330
900
100
AcDbEntity
  8
0
  6
Continuous
 62
     7
100
AcDbTrace
 10
-3.158463999999999
 20
2.415503999999998
 30
0.0
 11
2.662784999999999
 21
2.408638999999999
 31
0.0
 12
2.870623999999999
 22
2.408638999999999
 32
0.0
 13
2.870623999999999
 23
2.408638999999999
 33
0.0
210
0.0
220
0.0
230
-1.0
  0
SOLID
  5
911
330
900
100
AcDbEntity
  8
0
  6
Continuous
 62
     7
100
AcDbTrace
 10
-3.158463999999999
 20
2.415503999999998
 30
0.0
 11
2.870623999999999
 21
2.408638999999999
 31
0.0
 12
3.026526
 22
2.408638999999999
 32
0.0
 13
3.026526
 23
2.408638999999999
 33
0.0
210
0.0
220
0.0
230
-1.0
  0
SOLID
  5
912
330
900
100
AcDbEntity
  8
0
  6
Continuous
 62
     7
100
AcDbTrace
 10
-3.158463999999999
 20
2.415503999999998
 30
0.0
 11
3.026526
 21
2.408638999999999
 31
0.0
 12
3.124477
 22
2.408638999999999
 32
0.0
 13
3.124477
 23
2.408638999999999
 33
0.0
210
0.0
220
0.0
230
-1.0
  0
SOLID
  5
913
330
900
100
AcDbEntity
  8
0
  6
Continuous
 62
     7
100
AcDbTrace
 10
-3.158463999999999
 20
2.415503999999998
 30
0.0
 11
3.124477
 21
2.408638999999999
 31
0.0
 12
3.158463999999999
 22
2.408638999999999
 32
0.0
 13
3.158463999999999
 23
2.408638999999999
 33
0.0
210
0.0
220
0.0
230
-1.0
  0
SOLID
  5
914
330
900
100
AcDbEntity
  8
0
  6
Continuous
 62
     7
100
AcDbTrace
 10
3.158463999999999
 20
2.421145
 30
0.0
 11
-3.158463999999999
 21
2.415503999999998
 31
0.0
 12
3.158463999999999
 22
2.408638999999999
 32
0.0
 13
3.158463999999999
 23
2.408638999999999
 33
0.0
210
0.0
220
0.0
230
-1.0
  0
SOLID
  5
915
330
900
100
AcDbEntity
  8
0
  6
Continuous
 62
     7
100
AcDbTrace
 10
-3.158463999999999
 20
2.446232
 30
0.0
 11
-3.158463999999999
 21
2.415503999999998
 31
0.0
 12
3.158463999999999
 22
2.421145
 32
0.0
 13
3.158463999999999
 23
2.421145
 33
0.0
210
0.0
220
0.0
230
-1.0
  0
SOLID
  5
916
330
900
100
AcDbEntity
  8
0
  6
Continuous
 62
     7
100
AcDbTrace
 10
3.158463999999999
 20
2.457190999999999
 30
0.0
 11
-3.158463999999999
 21
2.446232
 31
0.0
 12
3.158463999999999
 22
2.421145
 32
0.0
 13
3.158463999999999
 23
2.421145
 33
0.0
210
0.0
220
0.0
230
-1.0
  0
SOLID
  5
917
330
900
100
AcDbEntity
  8
0
  6
Continuous
 62
     7
100
AcDbTrace
 10
-3.158463999999999
 20
2.499537
 30
0.0
 11
-3.158463999999999
 21
2.446232
 31
0.0
 12
3.158463999999999
 22
2.457190999999999
 32
0.0
 13
3.158463999999999
 23
2.457190999999999
 33
0.0
210
0.0
220
0.0
230
-1.0
  0
SOLID
  5
918
330
900
100
AcDbEntity
  8
0
  6
Continuous
 62
     7
100
AcDbTrace
 10
3.158463999999999
 20
2.591043999999998
 30
0.0
 11
-3.158463999999999
 21
2.499537
 31
0.0
 12
3.158463999999999
 22
2.457190999999999
 32
0.0
 13
3.158463999999999
 23
2.457190999999999
 33
0.0
210
0.0
220
0.0
230
-1.0
  0
SOLID
  5
919
330
900
100
AcDbEntity
  8
0
  6
Continuous
 62
     7
100
AcDbTrace
 10
-3.158463999999999
 20
2.664763999999999
 30
0.0
 11
-3.158463999999999
 21
2.499537
 31
0.0
 12
3.158463999999999
 22
2.591043999999998
 32
0.0
 13
3.158463999999999
 23
2.591043999999998
 33
0.0
210
0.0
220
0.0
230
-1.0
  0
SOLID
  5
91A
330
900
100
AcDbEntity
  8
0
  6
Continuous
 62
     7
100
AcDbTrace
 10
3.158463999999999
 20
2.792495
 30
0.0
 11
-3.158463999999999
 21
2.664763999999999
 31
0.0
 12
3.158463999999999
 22
2.591043999999998
 32
0.0
 13
3.158463999999999
 23
2.591043999999998
 33
0.0
210
0.0
220
0.0
230
-1.0
  0
SOLID
  5
91B
330
900
100
AcDbEntity
  8
0
  6
Continuous
 62
     7
100
AcDbTrace
 10
-3.158463999999999
 20
2.892959999999999
 30
0.0
 11
-3.158463999999999
 21
2.664763999999999
 31
0.0
 12
3.158463999999999
 22
2.792495
 32
0.0
 13
3.158463999999999
 23
2.792495
 33
0.0
210
0.0
220
0.0
230
-1.0
  0
SOLID
  5
91C
330
900
100
AcDbEntity
  8
0
  6
Continuous
 62
     7
100
AcDbTrace
 10
3.158463999999999
 20
3.043839999999999
 30
0.0
 11
-3.158463999999999
 21
2.892959999999999
 31
0.0
 12
3.158463999999999
 22
2.792495
 32
0.0
 13
3.158463999999999
 23
2.792495
 33
0.0
210
0.0
220
0.0
230
-1.0
  0
SOLID
  5
91D
330
900
100
AcDbEntity
  8
0
  6
Continuous
 62
     7
100
AcDbTrace
 10
-3.158463999999999
 20
3.165896
 30
0.0
 11
-3.158463999999999
 21
2.892959999999999
 31
0.0
 12
3.158463999999999
 22
3.043839999999999
 32
0.0
 13
3.158463999999999
 23
3.043839999999999
 33
0.0
210
0.0
220
0.0
230
-1.0
  0
SOLID
  5
91E
330
900
100
AcDbEntity
  8
0
  6
Continuous
 62
     7
100
AcDbTrace
 10
3.158463999999999
 20
3.625391999999998
 30
0.0
 11
-3.158463999999999
 21
3.165896
 31
0.0
 12
3.158463999999999
 22
3.043839999999999
 32
0.0
 13
3.158463999999999
 23
3.043839999999999
 33
0.0
210
0.0
220
0.0
230
-1.0
  0
SOLID
  5
91F
330
900
100
AcDbEntity
  8
0
  6
Continuous
 62
     7
100
AcDbTrace
 10
2.089106
 20
3.687457999999999
 30
0.0
 11
-3.158463999999999
 21
3.165896
 31
0.0
 12
3.158463999999999
 22
3.625391999999998
 32
0.0
 13
3.158463999999999
 23
3.625391999999998
 33
0.0
210
0.0
220
0.0
230
-1.0
  0
SOLID
  5
920
330
900
100
AcDbEntity
  8
0
  6
Continuous
 62
     7
100
AcDbTrace
 10
-3.158463999999999
 20
3.165896
 30
0.0
 11
-2.052985
 21
3.687457999999999
 31
0.0
 12
-2.087397999999998
 22
3.687457999999999
 32
0.0
 13
-2.087397999999998
 23
3.687457999999999
 33
0.0
210
0.0
220
0.0
230
-1.0
  0
SOLID
  5
921
330
900
100
AcDbEntity
  8
0
  6
Continuous
 62
     7
100
AcDbTrace
 10
-3.158463999999999
 20
3.165896
 30
0.0
 11
-1.977349
 21
3.687457999999999
 31
0.0
 12
-2.052985
 22
3.687457999999999
 32
0.0
 13
-2.052985
 23
3.687457999999999
 33
0.0
210
0.0
220
0.0
230
-1.0
  0
SOLID
  5
922
330
900
100
AcDbEntity
  8
0
  6
Continuous
 62
     7
100
AcDbTrace
 10
-3.158463999999999
 20
3.165896
 30
0.0
 11
-1.864466999999998
 21
3.687457999999999
 31
0.0
 12
-1.977349
 22
3.687457999999999
 32
0.0
 13
-1.977349
 23
3.687457999999999
 33
0.0
210
0.0
220
0.0
230
-1.0
  0
SOLID
  5
923
330
900
100
AcDbEntity
  8
0
  6
Continuous
 62
     7
100
AcDbTrace
 10
-3.158463999999999
 20
3.165896
 30
0.0
 11
-1.718316999999998
 21
3.687457999999999
 31
0.0
 12
-1.864466999999998
 22
3.687457999999999
 32
0.0
 13
-1.864466999999998
 23
3.687457999999999
 33
0.0
210
0.0
220
0.0
230
-1.0
  0
SOLID
  5
924
330
900
100
AcDbEntity
  8
0
  6
Continuous
 62
     7
100
AcDbTrace
 10
-3.158463999999999
 20
3.165896
 30
0.0
 11
-1.542877999999999
 21
3.687457999999999
 31
0.0
 12
-1.718316999999998
 22
3.687457999999999
 32
0.0
 13
-1.718316999999998
 23
3.687457999999999
 33
0.0
210
0.0
220
0.0
230
-1.0
  0
SOLID
  5
925
330
900
100
AcDbEntity
  8
0
  6
Continuous
 62
     7
100
AcDbTrace
 10
-3.158463999999999
 20
3.165896
 30
0.0
 11
-1.342125
 21
3.687457999999999
 31
0.0
 12
-1.542877999999999
 22
3.687457999999999
 32
0.0
 13
-1.542877999999999
 23
3.687457999999999
 33
0.0
210
0.0
220
0.0
230
-1.0
  0
SOLID
  5
926
330
900
100
AcDbEntity
  8
0
  6
Continuous
 62
     7
100
AcDbTrace
 10
-3.158463999999999
 20
3.165896
 30
0.0
 11
-1.120037999999998
 21
3.687457999999999
 31
0.0
 12
-1.342125
 22
3.687457999999999
 32
0.0
 13
-1.342125
 23
3.687457999999999
 33
0.0
210
0.0
220
0.0
230
-1.0
  0
SOLID
  5
927
330
900
100
AcDbEntity
  8
0
  6
Continuous
 62
     7
100
AcDbTrace
 10
-3.158463999999999
 20
3.165896
 30
0.0
 11
-0.6277700000000001
 21
3.687457999999999
 31
0.0
 12
-1.120037999999998
 22
3.687457999999999
 32
0.0
 13
-1.120037999999998
 23
3.687457999999999
 33
0.0
210
0.0
220
0.0
230
-1.0
  0
SOLID
  5
928
330
900
100
AcDbEntity
  8
0
  6
Continuous
 62
     7
100
AcDbTrace
 10
-3.158463999999999
 20
3.165896
 30
0.0
 11
-0.097895
 21
3.687457999999999
 31
0.0
 12
-0.6277700000000001
 22
3.687457999999999
 32
0.0
 13
-0.6277700000000001
 23
3.687457999999999
 33
0.0
210
0.0
220
0.0
230
-1.0
  0
SOLID
  5
929
330
900
100
AcDbEntity
  8
0
  6
Continuous
 62
     7
100
AcDbTrace
 10
-3.158463999999999
 20
3.165896
 30
0.0
 11
0.437766
 21
3.687457999999999
 31
0.0
 12
-0.097895
 22
3.687457999999999
 32
0.0
 13
-0.097895
 23
3.687457999999999
 33
0.0
210
0.0
220
0.0
230
-1.0
  0
SOLID
  5
92A
330
900
100
AcDbEntity
  8
0
  6
Continuous
 62
     7
100
AcDbTrace
 10
-3.158463999999999
 20
3.165896
 30
0.0
 11
0.947391
 21
3.687457999999999
 31
0.0
 12
0.437766
 22
3.687457999999999
 32
0.0
 13
0.437766
 23
3.687457999999999
 33
0.0
210
0.0
220
0.0
230
-1.0
  0
SOLID
  5
92B
330
900
100
AcDbEntity
  8
0
  6
Continuous
 62
     7
100
AcDbTrace
 10
-3.158463999999999
 20
3.165896
 30
0.0
 11
1.399159
 21
3.687457999999999
 31
0.0
 12
0.947391
 22
3.687457999999999
 32
0.0
 13
0.947391
 23
3.687457999999999
 33
0.0
210
0.0
220
0.0
230
-1.0
  0
SOLID
  5
92C
330
900
100
AcDbEntity
  8
0
  6
Continuous
 62
     7
100
AcDbTrace
 10
-3.158463999999999
 20
3.165896
 30
0.0
 11
1.593402999999999
 21
3.687457999999999
 31
0.0
 12
1.399159
 22
3.687457999999999
 32
0.0
 13
1.399159
 23
3.687457999999999
 33
0.0
210
0.0
220
0.0
230
-1.0
  0
SOLID
  5
92D
330
900
100
AcDbEntity
  8
0
  6
Continuous
 62
     7
100
AcDbTrace
 10
-3.158463999999999
 20
3.165896
 30
0.0
 11
1.761249
 21
3.687457999999999
 31
0.0
 12
1.593402999999999
 22
3.687457999999999
 32
0.0
 13
1.593402999999999
 23
3.687457999999999
 33
0.0
210
0.0
220
0.0
230
-1.0
  0
SOLID
  5
92E
330
900
100
AcDbEntity
  8
0
  6
Continuous
 62
     7
100
AcDbTrace
 10
-3.158463999999999
 20
3.165896
 30
0.0
 11
1.898719999999999
 21
3.687457999999999
 31
0.0
 12
1.761249
 22
3.687457999999999
 32
0.0
 13
1.761249
 23
3.687457999999999
 33
0.0
210
0.0
220
0.0
230
-1.0
  0
SOLID
  5
92F
330
900
100
AcDbEntity
  8
0
  6
Continuous
 62
     7
100
AcDbTrace
 10
-3.158463999999999
 20
3.165896
 30
0.0
 11
2.001837999999999
 21
3.687457999999999
 31
0.0
 12
1.898719999999999
 22
3.687457999999999
 32
0.0
 13
1.898719999999999
 23
3.687457999999999
 33
0.0
210
0.0
220
0.0
230
-1.0
  0
SOLID
  5
930
330
900
100
AcDbEntity
  8
0
  6
Continuous
 62
     7
100
AcDbTrace
 10
-3.158463999999999
 20
3.165896
 30
0.0
 11
2.066625999999998
 21
3.687457999999999
 31
0.0
 12
2.001837999999999
 22
3.687457999999999
 32
0.0
 13
2.001837999999999
 23
3.687457999999999
 33
0.0
210
0.0
220
0.0
230
-1.0
  0
SOLID
  5
931
330
900
100
AcDbEntity
  8
0
  6
Continuous
 62
     7
100
AcDbTrace
 10
-3.158463999999999
 20
3.165896
 30
0.0
 11
2.089106
 21
3.687457999999999
 31
0.0
 12
2.066625999999998
 22
3.687457999999999
 32
0.0
 13
2.066625999999998
 23
3.687457999999999
 33
0.0
210
0.0
220
0.0
230
-1.0
  0
SOLID
  5
932
330
900
100
AcDbEntity
  8
0
  6
Continuous
 62
     7
100
AcDbTrace
 10
-2.089106
 20
3.690177999999999
 30
0.0
 11
-3.158463999999999
 21
3.165896
 31
0.0
 12
-2.087397999999998
 22
3.687457999999999
 32
0.0
 13
-2.087397999999998
 23
3.687457999999999
 33
0.0
210
0.0
220
0.0
230
-1.0
  0
SOLID
  5
933
330
900
100
AcDbEntity
  8
0
  6
Continuous
 62
     7
100
AcDbTrace
 10
-2.089106
 20
3.723466
 30
0.0
 11
-3.158463999999999
 21
3.165896
 31
0.0
 12
-2.089106
 22
3.690177999999999
 32
0.0
 13
-2.089106
 23
3.690177999999999
 33
0.0
210
0.0
220
0.0
230
-1.0
  0
SOLID
  5
934
330
900
100
AcDbEntity
  8
0
  6
Continuous
 62
     7
100
AcDbTrace
 10
2.089106
 20
3.732225
 30
0.0
 11
2.089106
 21
3.687457999999999
 31
0.0
 12
3.158463999999999
 22
3.625391999999998
 32
0.0
 13
3.158463999999999
 23
3.625391999999998
 33
0.0
210
0.0
220
0.0
230
-1.0
  0
SOLID
  5
935
330
900
100
AcDbEntity
  8
0
  6
Continuous
 62
     7
100
AcDbTrace
 10
-3.158463999999999
 20
3.773079
 30
0.0
 11
-3.158463999999999
 21
3.165896
 31
0.0
 12
-2.089106
 22
3.723466
 32
0.0
 13
-2.089106
 23
3.723466
 33
0.0
210
0.0
220
0.0
230
-1.0
  0
SOLID
  5
936
330
900
100
AcDbEntity
  8
0
  6
Continuous
 62
     7
100
AcDbTrace
 10
-2.089106
 20
3.788919999999999
 30
0.0
 11
-3.158463999999999
 21
3.773079
 31
0.0
 12
-2.089106
 22
3.723466
 32
0.0
 13
-2.089106
 23
3.723466
 33
0.0
210
0.0
220
0.0
230
-1.0
  0
SOLID
  5
937
330
900
100
AcDbEntity
  8
0
  6
Continuous
 62
     7
100
AcDbTrace
 10
2.089106
 20
3.843351999999998
 30
0.0
 11
2.089106
 21
3.732225
 31
0.0
 12
3.158463999999999
 22
3.625391999999998
 32
0.0
 13
3.158463999999999
 23
3.625391999999998
 33
0.0
210
0.0
220
0.0
230
-1.0
  0
SOLID
  5
938
330
900
100
AcDbEntity
  8
0
  6
Continuous
 62
     7
100
AcDbTrace
 10
-2.089106
 20
3.987439999999999
 30
0.0
 11
-3.158463999999999
 21
3.773079
 31
0.0
 12
-2.089106
 22
3.788919999999999
 32
0.0
 13
-2.089106
 23
3.788919999999999
 33
0.0
210
0.0
220
0.0
230
-1.0
  0
SOLID
  5
939
330
900
100
AcDbEntity
  8
0
  6
Continuous
 62
     7
100
AcDbTrace
 10
-3.158463999999999
 20
4.070871
 30
0.0
 11
-3.158463999999999
 21
3.773079
 31
0.0
 12
-2.089106
 22
3.987439999999999
 32
0.0
 13
-2.089106
 23
3.987439999999999
 33
0.0
210
0.0
220
0.0
230
-1.0
  0
SOLID
  5
93A
330
900
100
AcDbEntity
  8
0
  6
Continuous
 62
     7
100
AcDbTrace
 10
2.089106
 20
4.125645999999998
 30
0.0
 11
2.089106
 21
3.843351999999998
 31
0.0
 12
3.158463999999999
 22
3.625391999999998
 32
0.0
 13
3.158463999999999
 23
3.625391999999998
 33
0.0
210
0.0
220
0.0
230
-1.0
  0
SOLID
  5
93B
330
900
100
AcDbEntity
  8
0
  6
Continuous
 62
     7
100
AcDbTrace
 10
3.158463999999999
 20
4.194068999999998
 30
0.0
 11
2.089106
 21
4.125645999999998
 31
0.0
 12
3.158463999999999
 22
3.625391999999998
 32
0.0
 13
3.158463999999999
 23
3.625391999999998
 33
0.0
210
0.0
220
0.0
230
-1.0
  0
SOLID
  5
93C
330
900
100
AcDbEntity
  8
0
  6
Continuous
 62
     7
100
AcDbTrace
 10
2.089106
 20
4.227293
 30
0.0
 11
2.089106
 21
4.125645999999998
 31
0.0
 12
3.158463999999999
 22
4.194068999999998
 32
0.0
 13
3.158463999999999
 23
4.194068999999998
 33
0.0
210
0.0
220
0.0
230
-1.0
  0
SOLID
  5
93D
330
900
100
AcDbEntity
  8
0
  6
Continuous
 62
     7
100
AcDbTrace
 10
2.089106
 20
4.253033999999998
 30
0.0
 11
2.089106
 21
4.227293
 31
0.0
 12
3.158463999999999
 22
4.194068999999998
 32
0.0
 13
3.158463999999999
 23
4.194068999999998
 33
0.0
210
0.0
220
0.0
230
-1.0
  0
SOLID
  5
93E
330
900
100
AcDbEntity
  8
0
  6
Continuous
 62
     7
100
AcDbTrace
 10
2.089106
 20
4.257732999999999
 30
0.0
 11
2.089106
 21
4.253033999999998
 31
0.0
 12
3.158463999999999
 22
4.194068999999998
 32
0.0
 13
3.158463999999999
 23
4.194068999999998
 33
0.0
210
0.0
220
0.0
230
-1.0
  0
SOLID
  5
93F
330
900
100
AcDbEntity
  8
0
  6
Continuous
 62
     7
100
AcDbTrace
 10
2.0891
 20
4.273081999999998
 30
0.0
 11
2.089106
 21
4.257732999999999
 31
0.0
 12
3.158463999999999
 22
4.194068999999998
 32
0.0
 13
3.158463999999999
 23
4.194068999999998
 33
0.0
210
0.0
220
0.0
230
-1.0
  0
SOLID
  5
940
330
900
100
AcDbEntity
  8
0
  6
Continuous
 62
     7
100
AcDbTrace
 10
2.089045999999998
 20
4.305994999999999
 30
0.0
 11
2.0891
 21
4.273081999999998
 31
0.0
 12
3.158463999999999
 22
4.194068999999998
 32
0.0
 13
3.158463999999999
 23
4.194068999999998
 33
0.0
210
0.0
220
0.0
230
-1.0
  0
SOLID
  5
941
330
900
100
AcDbEntity
  8
0
  6
Continuous
 62
     7
100
AcDbTrace
 10
-3.158463999999999
 20
4.340493
 30
0.0
 11
-3.158463999999999
 21
4.070871
 31
0.0
 12
-2.089106
 22
3.987439999999999
 32
0.0
 13
-2.089106
 23
3.987439999999999
 33
0.0
210
0.0
220
0.0
230
-1.0
  0
SOLID
  5
942
330
900
100
AcDbEntity
  8
0
  6
Continuous
 62
     7
100
AcDbTrace
 10
3.158463999999999
 20
4.429318999999999
 30
0.0
 11
2.089045999999998
 21
4.305994999999999
 31
0.0
 12
3.158463999999999
 22
4.194068999999998
 32
0.0
 13
3.158463999999999
 23
4.194068999999998
 33
0.0
210
0.0
220
0.0
230
-1.0
  0
SOLID
  5
943
330
900
100
AcDbEntity
  8
0
  6
Continuous
 62
     7
100
AcDbTrace
 10
-2.089106
 20
4.452746999999999
 30
0.0
 11
-3.158463999999999
 21
4.340493
 31
0.0
 12
-2.089106
 22
3.987439999999999
 32
0.0
 13
-2.089106
 23
3.987439999999999
 33
0.0
210
0.0
220
0.0
230
-1.0
  0
SOLID
  5
944
330
900
100
AcDbEntity
  8
0
  6
Continuous
 62
     7
100
AcDbTrace
 10
-2.089106
 20
4.541176
 30
0.0
 11
-3.158463999999999
 21
4.340493
 31
0.0
 12
-2.089106
 22
4.452746999999999
 32
0.0
 13
-2.089106
 23
4.452746999999999
 33
0.0
210
0.0
220
0.0
230
-1.0
  0
SOLID
  5
945
330
900
100
AcDbEntity
  8
0
  6
Continuous
 62
     7
100
AcDbTrace
 10
2.086596
 20
4.552348
 30
0.0
 11
2.089045999999998
 21
4.305994999999999
 31
0.0
 12
3.158463999999999
 22
4.429318999999999
 32
0.0
 13
3.158463999999999
 23
4.429318999999999
 33
0.0
210
0.0
220
0.0
230
-1.0
  0
SOLID
  5
946
330
900
100
AcDbEntity
  8
0
  6
Continuous
 62
     7
100
AcDbTrace
 10
-3.158463999999999
 20
4.563716999999998
 30
0.0
 11
-3.158463999999999
 21
4.340493
 31
0.0
 12
-2.089106
 22
4.541176
 32
0.0
 13
-2.089106
 23
4.541176
 33
0.0
210
0.0
220
0.0
230
-1.0
  0
SOLID
  5
947
330
900
100
AcDbEntity
  8
0
  6
Continuous
 62
     7
100
AcDbTrace
 10
-2.089106
 20
4.604003999999998
 30
0.0
 11
-3.158463999999999
 21
4.563716999999998
 31
0.0
 12
-2.089106
 22
4.541176
 32
0.0
 13
-2.089106
 23
4.541176
 33
0.0
210
0.0
220
0.0
230
-1.0
  0
SOLID
  5
948
330
900
100
AcDbEntity
  8
0
  6
Continuous
 62
     7
100
AcDbTrace
 10
3.158463999999999
 20
4.608236999999999
 30
0.0
 11
2.086596
 21
4.552348
 31
0.0
 12
3.158463999999999
 22
4.429318999999999
 32
0.0
 13
3.158463999999999
 23
4.429318999999999
 33
0.0
210
0.0
220
0.0
230
-1.0
  0
SOLID
  5
949
330
900
100
AcDbEntity
  8
0
  6
Continuous
 62
     7
100
AcDbTrace
 10
-2.089106
 20
4.634009999999999
 30
0.0
 11
-3.158463999999999
 21
4.563716999999998
 31
0.0
 12
-2.089106
 22
4.604003999999998
 32
0.0
 13
-2.089106
 23
4.604003999999998
 33
0.0
210
0.0
220
0.0
230
-1.0
  0
SOLID
  5
94A
330
900
100
AcDbEntity
  8
0
  6
Continuous
 62
     7
100
AcDbTrace
 10
-2.089083
 20
4.656216999999998
 30
0.0
 11
-3.158463999999999
 21
4.563716999999998
 31
0.0
 12
-2.089106
 22
4.634009999999999
 32
0.0
 13
-2.089106
 23
4.634009999999999
 33
0.0
210
0.0
220
0.0
230
-1.0
  0
SOLID
  5
94B
330
900
100
AcDbEntity
  8
0
  6
Continuous
 62
     7
100
AcDbTrace
 10
-2.088871999999999
 20
4.700892999999998
 30
0.0
 11
-3.158463999999999
 21
4.563716999999998
 31
0.0
 12
-2.089083
 22
4.656216999999998
 32
0.0
 13
-2.089083
 23
4.656216999999998
 33
0.0
210
0.0
220
0.0
230
-1.0
  0
SOLID
  5
94C
330
900
100
AcDbEntity
  8
0
  6
Continuous
 62
     7
100
AcDbTrace
 10
3.158463999999999
 20
4.713121
 30
0.0
 11
2.086596
 21
4.552348
 31
0.0
 12
3.158463999999999
 22
4.608236999999999
 32
0.0
 13
3.158463999999999
 23
4.608236999999999
 33
0.0
210
0.0
220
0.0
230
-1.0
  0
SOLID
  5
94D
330
900
100
AcDbEntity
  8
0
  6
Continuous
 62
     7
100
AcDbTrace
 10
-3.158463999999999
 20
4.722316999999999
 30
0.0
 11
-3.158463999999999
 21
4.563716999999998
 31
0.0
 12
-2.088871999999999
 22
4.700892999999998
 32
0.0
 13
-2.088871999999999
 23
4.700892999999998
 33
0.0
210
0.0
220
0.0
230
-1.0
  0
SOLID
  5
94E
330
900
100
AcDbEntity
  8
0
  6
Continuous
 62
     7
100
AcDbTrace
 10
3.158463999999999
 20
4.732266
 30
0.0
 11
2.086596
 21
4.552348
 31
0.0
 12
3.158463999999999
 22
4.713121
 32
0.0
 13
3.158463999999999
 23
4.713121
 33
0.0
210
0.0
220
0.0
230
-1.0
  0
SOLID
  5
94F
330
900
100
AcDbEntity
  8
0
  6
Continuous
 62
     7
100
AcDbTrace
 10
3.158452
 20
4.748533
 30
0.0
 11
2.086596
 21
4.552348
 31
0.0
 12
3.158463999999999
 22
4.732266
 32
0.0
 13
3.158463999999999
 23
4.732266
 33
0.0
210
0.0
220
0.0
230
-1.0
  0
SOLID
  5
950
330
900
100
AcDbEntity
  8
0
  6
Continuous
 62
     7
100
AcDbTrace
 10
2.080566999999998
 20
4.768559999999999
 30
0.0
 11
2.086596
 21
4.552348
 31
0.0
 12
3.158452
 22
4.748533
 32
0.0
 13
3.158452
 23
4.748533
 33
0.0
210
0.0
220
0.0
230
-1.0
  0
SOLID
  5
951
330
900
100
AcDbEntity
  8
0
  6
Continuous
 62
     7
100
AcDbTrace
 10
-3.158463999999999
 20
4.771685999999998
 30
0.0
 11
-3.158463999999999
 21
4.722316999999999
 31
0.0
 12
-2.088871999999999
 22
4.700892999999998
 32
0.0
 13
-2.088871999999999
 23
4.700892999999998
 33
0.0
210
0.0
220
0.0
230
-1.0
  0
SOLID
  5
952
330
900
100
AcDbEntity
  8
0
  6
Continuous
 62
     7
100
AcDbTrace
 10
3.158345
 20
4.781976999999998
 30
0.0
 11
2.080566999999998
 21
4.768559999999999
 31
0.0
 12
3.158452
 22
4.748533
 32
0.0
 13
3.158452
 23
4.748533
 33
0.0
210
0.0
220
0.0
230
-1.0
  0
SOLID
  5
953
330
900
100
AcDbEntity
  8
0
  6
Continuous
 62
     7
100
AcDbTrace
 10
-3.158463999999999
 20
4.798064
 30
0.0
 11
-3.158463999999999
 21
4.771685999999998
 31
0.0
 12
-2.088871999999999
 22
4.700892999999998
 32
0.0
 13
-2.088871999999999
 23
4.700892999999998
 33
0.0
210
0.0
220
0.0
230
-1.0
  0
SOLID
  5
954
330
900
100
AcDbEntity
  8
0
  6
Continuous
 62
     7
100
AcDbTrace
 10
-3.158463999999999
 20
4.801918999999998
 30
0.0
 11
-3.158463999999999
 21
4.798064
 31
0.0
 12
-2.088871999999999
 22
4.700892999999998
 32
0.0
 13
-2.088871999999999
 23
4.700892999999998
 33
0.0
210
0.0
220
0.0
230
-1.0
  0
SOLID
  5
955
330
900
100
AcDbEntity
  8
0
  6
Continuous
 62
     7
100
AcDbTrace
 10
-3.158412999999999
 20
4.829361999999999
 30
0.0
 11
-3.158463999999999
 21
4.801918999999998
 31
0.0
 12
-2.088871999999999
 22
4.700892999999998
 32
0.0
 13
-2.088871999999999
 23
4.700892999999998
 33
0.0
210
0.0
220
0.0
230
-1.0
  0
SOLID
  5
956
330
900
100
AcDbEntity
  8
0
  6
Continuous
 62
     7
100
AcDbTrace
 10
-3.157942999999999
 20
4.888913999999998
 30
0.0
 11
-3.158412999999999
 21
4.829361999999999
 31
0.0
 12
-2.088871999999999
 22
4.700892999999998
 32
0.0
 13
-2.088871999999999
 23
4.700892999999998
 33
0.0
210
0.0
220
0.0
230
-1.0
  0
SOLID
  5
957
330
900
100
AcDbEntity
  8
0
  6
Continuous
 62
     7
100
AcDbTrace
 10
2.070981999999998
 20
4.954626
 30
0.0
 11
2.080566999999998
 21
4.768559999999999
 31
0.0
 12
3.158345
 22
4.781976999999998
 32
0.0
 13
3.158345
 23
4.781976999999998
 33
0.0
210
0.0
220
0.0
230
-1.0
  0
SOLID
  5
958
330
900
100
AcDbEntity
  8
0
  6
Continuous
 62
     7
100
AcDbTrace
 10
-2.07919
 20
5.018936
 30
0.0
 11
-3.157942999999999
 21
4.888913999999998
 31
0.0
 12
-2.088871999999999
 22
4.700892999999998
 32
0.0
 13
-2.088871999999999
 23
4.700892999999998
 33
0.0
210
0.0
220
0.0
230
-1.0
  0
SOLID
  5
959
330
900
100
AcDbEntity
  8
0
  6
Continuous
 62
     7
100
AcDbTrace
 10
3.153474
 20
5.037132999999998
 30
0.0
 11
2.070981999999998
 21
4.954626
 31
0.0
 12
3.158345
 22
4.781976999999998
 32
0.0
 13
3.158345
 23
4.781976999999998
 33
0.0
210
0.0
220
0.0
230
-1.0
  0
SOLID
  5
95A
330
900
100
AcDbEntity
  8
0
  6
Continuous
 62
     7
100
AcDbTrace
 10
2.057859999999998
 20
5.110540999999999
 30
0.0
 11
2.070981999999998
 21
4.954626
 31
0.0
 12
3.153474
 22
5.037132999999998
 32
0.0
 13
3.153474
 23
5.037132999999998
 33
0.0
210
0.0
220
0.0
230
-1.0
  0
SOLID
  5
95B
330
900
100
AcDbEntity
  8
0
  6
Continuous
 62
     7
100
AcDbTrace
 10
-2.055241999999998
 20
5.267001999999998
 30
0.0
 11
-3.157942999999999
 21
4.888913999999998
 31
0.0
 12
-2.07919
 22
5.018936
 32
0.0
 13
-2.07919
 23
5.018936
 33
0.0
210
0.0
220
0.0
230
-1.0
  0
SOLID
  5
95C
330
900
100
AcDbEntity
  8
0
  6
Continuous
 62
     7
100
AcDbTrace
 10
3.141458999999999
 20
5.270239
 30
0.0
 11
2.057859999999998
 21
5.110540999999999
 31
0.0
 12
3.153474
 22
5.037132999999998
 32
0.0
 13
3.153474
 23
5.037132999999998
 33
0.0
210
0.0
220
0.0
230
-1.0
  0
SOLID
  5
95D
330
900
100
AcDbEntity
  8
0
  6
Continuous
 62
     7
100
AcDbTrace
 10
-3.13646
 20
5.32763
 30
0.0
 11
-3.157942999999999
 21
4.888913999999998
 31
0.0
 12
-2.055241999999998
 22
5.267001999999998
 32
0.0
 13
-2.055241999999998
 23
5.267001999999998
 33
0.0
210
0.0
220
0.0
230
-1.0
  0
SOLID
  5
95E
330
900
100
AcDbEntity
  8
0
  6
Continuous
 62
     7
100
AcDbTrace
 10
2.018574
 20
5.344643999999999
 30
0.0
 11
2.057859999999998
 21
5.110540999999999
 31
0.0
 12
3.141458999999999
 22
5.270239
 32
0.0
 13
3.141458999999999
 23
5.270239
 33
0.0
210
0.0
220
0.0
230
-1.0
  0
SOLID
  5
95F
330
900
100
AcDbEntity
  8
0
  6
Continuous
 62
     7
100
AcDbTrace
 10
-2.013425999999999
 20
5.460475999999998
 30
0.0
 11
-3.13646
 21
5.32763
 31
0.0
 12
-2.055241999999998
 22
5.267001999999998
 32
0.0
 13
-2.055241999999998
 23
5.267001999999998
 33
0.0
210
0.0
220
0.0
230
-1.0
  0
SOLID
  5
960
330
900
100
AcDbEntity
  8
0
  6
Continuous
 62
     7
100
AcDbTrace
 10
3.122298999999999
 20
5.481289
 30
0.0
 11
2.018574
 21
5.344643999999999
 31
0.0
 12
3.141458999999999
 22
5.270239
 32
0.0
 13
3.141458999999999
 23
5.270239
 33
0.0
210
0.0
220
0.0
230
-1.0
  0
SOLID
  5
961
330
900
100
AcDbEntity
  8
0
  6
Continuous
 62
     7
100
AcDbTrace
 10
1.942444999999999
 20
5.569372999999999
 30
0.0
 11
2.018574
 21
5.344643999999999
 31
0.0
 12
3.122298999999999
 22
5.481289
 32
0.0
 13
3.122298999999999
 23
5.481289
 33
0.0
210
0.0
220
0.0
230
-1.0
  0
SOLID
  5
962
330
900
100
AcDbEntity
  8
0
  6
Continuous
 62
     7
100
AcDbTrace
 10
-1.940700999999998
 20
5.653692999999998
 30
0.0
 11
-3.13646
 21
5.32763
 31
0.0
 12
-2.013425999999999
 22
5.460475999999998
 32
0.0
 13
-2.013425999999999
 23
5.460475999999998
 33
0.0
210
0.0
220
0.0
230
-1.0
  0
SOLID
  5
963
330
900
100
AcDbEntity
  8
0
  6
Continuous
 62
     7
100
AcDbTrace
 10
3.095994999999999
 20
5.670279999999999
 30
0.0
 11
1.942444999999999
 21
5.569372999999999
 31
0.0
 12
3.122298999999999
 22
5.481289
 32
0.0
 13
3.122298999999999
 23
5.481289
 33
0.0
210
0.0
220
0.0
230
-1.0
  0
SOLID
  5
964
330
900
100
AcDbEntity
  8
0
  6
Continuous
 62
     7
100
AcDbTrace
 10
-3.083467999999998
 20
5.699347999999999
 30
0.0
 11
-3.13646
 21
5.32763
 31
0.0
 12
-1.940700999999998
 22
5.653692999999998
 32
0.0
 13
-1.940700999999998
 23
5.653692999999998
 33
0.0
210
0.0
220
0.0
230
-1.0
  0
SOLID
  5
965
330
900
100
AcDbEntity
  8
0
  6
Continuous
 62
     7
100
AcDbTrace
 10
1.832752999999998
 20
5.764719
 30
0.0
 11
1.942444999999999
 21
5.569372999999999
 31
0.0
 12
3.095994999999999
 22
5.670279999999999
 32
0.0
 13
3.095994999999999
 23
5.670279999999999
 33
0.0
210
0.0
220
0.0
230
-1.0
  0
SOLID
  5
966
330
900
100
AcDbEntity
  8
0
  6
Continuous
 62
     7
100
AcDbTrace
 10
-1.842435999999999
 20
5.822051
 30
0.0
 11
-3.083467999999998
 21
5.699347999999999
 31
0.0
 12
-1.940700999999998
 22
5.653692999999998
 32
0.0
 13
-1.940700999999998
 23
5.653692999999998
 33
0.0
210
0.0
220
0.0
230
-1.0
  0
SOLID
  5
967
330
900
100
AcDbEntity
  8
0
  6
Continuous
 62
     7
100
AcDbTrace
 10
-3.045157
 20
5.860095999999998
 30
0.0
 11
-3.083467999999998
 21
5.699347999999999
 31
0.0
 12
-1.842435999999999
 22
5.822051
 32
0.0
 13
-1.842435999999999
 23
5.822051
 33
0.0
210
0.0
220
0.0
230
-1.0
  0
SOLID
  5
968
330
900
100
AcDbEntity
  8
0
  6
Continuous
 62
     7
100
AcDbTrace
 10
1.689161999999998
 20
5.930865999999999
 30
0.0
 11
1.832752999999998
 21
5.764719
 31
0.0
 12
3.095994999999999
 22
5.670279999999999
 32
0.0
 13
3.095994999999999
 23
5.670279999999999
 33
0.0
210
0.0
220
0.0
230
-1.0
  0
SOLID
  5
969
330
900
100
AcDbEntity
  8
0
  6
Continuous
 62
     7
100
AcDbTrace
 10
-1.716649
 20
5.966
 30
0.0
 11
-3.045157
 21
5.860095999999998
 31
0.0
 12
-1.842435999999999
 22
5.822051
 32
0.0
 13
-1.842435999999999
 23
5.822051
 33
0.0
210
0.0
220
0.0
230
-1.0
  0
SOLID
  5
96A
330
900
100
AcDbEntity
  8
0
  6
Continuous
 62
     7
100
AcDbTrace
 10
3.016070999999998
 20
6.000594999999998
 30
0.0
 11
1.689161999999998
 21
5.930865999999999
 31
0.0
 12
3.095994999999999
 22
5.670279999999999
 32
0.0
 13
3.095994999999999
 23
5.670279999999999
 33
0.0
210
0.0
220
0.0
230
-1.0
  0
SOLID
  5
96B
330
900
100
AcDbEntity
  8
0
  6
Continuous
 62
     7
100
AcDbTrace
 10
-2.989971999999999
 20
6.031112999999998
 30
0.0
 11
-3.045157
 21
5.860095999999998
 31
0.0
 12
-1.716649
 22
5.966
 32
0.0
 13
-1.716649
 23
5.966
 33
0.0
210
0.0
220
0.0
230
-1.0
  0
SOLID
  5
96C
330
900
100
AcDbEntity
  8
0
  6
Continuous
 62
     7
100
AcDbTrace
 10
1.506809999999999
 20
6.071315
 30
0.0
 11
1.689161999999998
 21
5.930865999999999
 31
0.0
 12
3.016070999999998
 22
6.000594999999998
 32
0.0
 13
3.016070999999998
 23
6.000594999999998
 33
0.0
210
0.0
220
0.0
230
-1.0
  0
SOLID
  5
96D
330
900
100
AcDbEntity
  8
0
  6
Continuous
 62
     7
100
AcDbTrace
 10
-1.540591
 20
6.090755999999998
 30
0.0
 11
-2.989971999999999
 21
6.031112999999998
 31
0.0
 12
-1.716649
 22
5.966
 32
0.0
 13
-1.716649
 23
5.966
 33
0.0
210
0.0
220
0.0
230
-1.0
  0
SOLID
  5
96E
330
900
100
AcDbEntity
  8
0
  6
Continuous
 62
     7
100
AcDbTrace
 10
1.283806
 20
6.187476999999998
 30
0.0
 11
1.506809999999999
 21
6.071315
 31
0.0
 12
3.016070999999998
 22
6.000594999999998
 32
0.0
 13
3.016070999999998
 23
6.000594999999998
 33
0.0
210
0.0
220
0.0
230
-1.0
  0
SOLID
  5
96F
330
900
100
AcDbEntity
  8
0
  6
Continuous
 62
     7
100
AcDbTrace
 10
-1.308095999999999
 20
6.197810999999998
 30
0.0
 11
-2.989971999999999
 21
6.031112999999998
 31
0.0
 12
-1.540591
 22
6.090755999999998
 32
0.0
 13
-1.540591
 23
6.090755999999998
 33
0.0
210
0.0
220
0.0
230
-1.0
  0
SOLID
  5
970
330
900
100
AcDbEntity
  8
0
  6
Continuous
 62
     7
100
AcDbTrace
 10
1.017465
 20
6.278871999999998
 30
0.0
 11
1.283806
 21
6.187476999999998
 31
0.0
 12
3.016070999999998
 22
6.000594999999998
 32
0.0
 13
3.016070999999998
 23
6.000594999999998
 33
0.0
210
0.0
220
0.0
230
-1.0
  0
SOLID
  5
971
330
900
100
AcDbEntity
  8
0
  6
Continuous
 62
     7
100
AcDbTrace
 10
-1.017611999999999
 20
6.285783
 30
0.0
 11
-2.989971999999999
 21
6.031112999999998
 31
0.0
 12
-1.308095999999999
 22
6.197810999999998
 32
0.0
 13
-1.308095999999999
 23
6.197810999999998
 33
0.0
210
0.0
220
0.0
230
-1.0
  0
SOLID
  5
972
330
900
100
AcDbEntity
  8
0
  6
Continuous
 62
     7
100
AcDbTrace
 10
0.8582270000000001
 20
6.313773999999998
 30
0.0
 11
1.017465
 21
6.278871999999998
 31
0.0
 12
3.016070999999998
 22
6.000594999999998
 32
0.0
 13
3.016070999999998
 23
6.000594999999998
 33
0.0
210
0.0
220
0.0
230
-1.0
  0
SOLID
  5
973
330
900
100
AcDbEntity
  8
0
  6
Continuous
 62
     7
100
AcDbTrace
 10
0.6789420000000001
 20
6.341072999999999
 30
0.0
 11
0.8582270000000001
 21
6.313773999999998
 31
0.0
 12
3.016070999999998
 22
6.000594999999998
 32
0.0
 13
3.016070999999998
 23
6.000594999999998
 33
0.0
210
0.0
220
0.0
230
-1.0
  0
SOLID
  5
974
330
900
100
AcDbEntity
  8
0
  6
Continuous
 62
     7
100
AcDbTrace
 10
-0.6568069999999999
 20
6.345219999999999
 30
0.0
 11
-2.989971999999999
 21
6.031112999999998
 31
0.0
 12
-1.017611999999999
 22
6.285783
 32
0.0
 13
-1.017611999999999
 23
6.285783
 33
0.0
210
0.0
220
0.0
230
-1.0
  0
SOLID
  5
975
330
900
100
AcDbEntity
  8
0
  6
Continuous
 62
     7
100
AcDbTrace
 10
2.862503999999999
 20
6.355992999999998
 30
0.0
 11
0.6789420000000001
 21
6.341072999999999
 31
0.0
 12
3.016070999999998
 22
6.000594999999998
 32
0.0
 13
3.016070999999998
 23
6.000594999999998
 33
0.0
210
0.0
220
0.0
230
-1.0
  0
SOLID
  5
976
330
900
100
AcDbEntity
  8
0
  6
Continuous
 62
     7
100
AcDbTrace
 10
0.479599
 20
6.360769999999998
 30
0.0
 11
0.6789420000000001
 21
6.341072999999999
 31
0.0
 12
2.862503999999999
 22
6.355992999999998
 32
0.0
 13
2.862503999999999
 23
6.355992999999998
 33
0.0
210
0.0
220
0.0
230
-1.0
  0
SOLID
  5
977
330
900
100
AcDbEntity
  8
0
  6
Continuous
 62
     7
100
AcDbTrace
 10
0.260189
 20
6.372865
 30
0.0
 11
0.479599
 21
6.360769999999998
 31
0.0
 12
2.862503999999999
 22
6.355992999999998
 32
0.0
 13
2.862503999999999
 23
6.355992999999998
 33
0.0
210
0.0
220
0.0
230
-1.0
  0
SOLID
  5
978
330
900
100
AcDbEntity
  8
0
  6
Continuous
 62
     7
100
AcDbTrace
 10
-2.839579999999998
 20
6.375701999999998
 30
0.0
 11
-0.6568069999999999
 21
6.345219999999999
 31
0.0
 12
-0.223216
 22
6.374247
 32
0.0
 13
-0.223216
 23
6.374247
 33
0.0
210
0.0
220
0.0
230
-1.0
  0
SOLID
  5
979
330
900
100
AcDbEntity
  8
0
  6
Continuous
 62
     7
100
AcDbTrace
 10
-2.839579999999998
 20
6.375701999999998
 30
0.0
 11
-2.989971999999999
 21
6.031112999999998
 31
0.0
 12
-0.6568069999999999
 22
6.345219999999999
 32
0.0
 13
-0.6568069999999999
 23
6.345219999999999
 33
0.0
210
0.0
220
0.0
230
-1.0
  0
SOLID
  5
97A
330
900
100
AcDbEntity
  8
0
  6
Continuous
 62
     7
100
AcDbTrace
 10
-2.655479999999998
 20
6.665471000000001
 30
0.0
 11
-2.839579999999998
 21
6.375701999999998
 31
0.0
 12
-0.223216
 22
6.374247
 32
0.0
 13
-0.223216
 23
6.374247
 33
0.0
210
0.0
220
0.0
230
-1.0
  0
SOLID
  5
97B
330
900
100
AcDbEntity
  8
0
  6
Continuous
 62
     7
100
AcDbTrace
 10
-2.655479999999998
 20
6.665471000000001
 30
0.0
 11
-0.223216
 21
6.374247
 31
0.0
 12
0.260189
 22
6.372865
 32
0.0
 13
0.260189
 23
6.372865
 33
0.0
210
0.0
220
0.0
230
-1.0
  0
SOLID
  5
97C
330
900
100
AcDbEntity
  8
0
  6
Continuous
 62
     7
100
AcDbTrace
 10
-2.655479999999998
 20
6.665471000000001
 30
0.0
 11
0.260189
 21
6.372865
 31
0.0
 12
2.862503999999999
 22
6.355992999999998
 32
0.0
 13
2.862503999999999
 23
6.355992999999998
 33
0.0
210
0.0
220
0.0
230
-1.0
  0
SOLID
  5
97D
330
900
100
AcDbEntity
  8
0
  6
Continuous
 62
     7
100
AcDbTrace
 10
2.64895
 20
6.673825999999999
 30
0.0
 11
-2.655479999999998
 21
6.665471000000001
 31
0.0
 12
2.862503999999999
 22
6.355992999999998
 32
0.0
 13
2.862503999999999
 23
6.355992999999998
 33
0.0
210
0.0
220
0.0
230
-1.0
  0
SOLID
  5
97E
330
900
100
AcDbEntity
  8
0
  6
Continuous
 62
     7
100
AcDbTrace
 10
-2.550790999999998
 20
6.789772
 30
0.0
 11
-2.655479999999998
 21
6.665471000000001
 31
0.0
 12
2.64895
 22
6.673825999999999
 32
0.0
 13
2.64895
 23
6.673825999999999
 33
0.0
210
0.0
220
0.0
230
-1.0
  0
SOLID
  5
97F
330
900
100
AcDbEntity
  8
0
  6
Continuous
 62
     7
100
AcDbTrace
 10
-2.410075999999999
 20
6.927693999999998
 30
0.0
 11
-2.550790999999998
 21
6.789772
 31
0.0
 12
2.64895
 22
6.673825999999999
 32
0.0
 13
2.64895
 23
6.673825999999999
 33
0.0
210
0.0
220
0.0
230
-1.0
  0
SOLID
  5
980
330
900
100
AcDbEntity
  8
0
  6
Continuous
 62
     7
100
AcDbTrace
 10
2.375976999999999
 20
6.953866999999998
 30
0.0
 11
-2.410075999999999
 21
6.927693999999998
 31
0.0
 12
2.64895
 22
6.673825999999999
 32
0.0
 13
2.64895
 23
6.673825999999999
 33
0.0
210
0.0
220
0.0
230
-1.0
  0
SOLID
  5
981
330
900
100
AcDbEntity
  8
0
  6
Continuous
 62
     7
100
AcDbTrace
 10
-2.063217999999999
 20
7.187815999999999
 30
0.0
 11
-2.410075999999999
 21
6.927693999999998
 31
0.0
 12
2.375976999999999
 22
6.953866999999998
 32
0.0
 13
2.375976999999999
 23
6.953866999999998
 33
0.0
210
0.0
220
0.0
230
-1.0
  0
SOLID
  5
982
330
900
100
AcDbEntity
  8
0
  6
Continuous
 62
     7
100
AcDbTrace
 10
2.054368999999999
 20
7.191112999999999
 30
0.0
 11
-2.063217999999999
 21
7.187815999999999
 31
0.0
 12
2.375976999999999
 22
6.953866999999998
 32
0.0
 13
2.375976999999999
 23
6.953866999999998
 33
0.0
210
0.0
220
0.0
230
-1.0
  0
SOLID
  5
983
330
900
100
AcDbEntity
  8
0
  6
Continuous
 62
     7
100
AcDbTrace
 10
1.688443999999998
 20
7.383661999999999
 30
0.0
 11
-2.063217999999999
 21
7.187815999999999
 31
0.0
 12
2.054368999999999
 22
7.191112999999999
 32
0.0
 13
2.054368999999999
 23
7.191112999999999
 33
0.0
210
0.0
220
0.0
230
-1.0
  0
SOLID
  5
984
330
900
100
AcDbEntity
  8
0
  6
Continuous
 62
     7
100
AcDbTrace
 10
-1.65419
 20
7.400250999999999
 30
0.0
 11
-2.063217999999999
 21
7.187815999999999
 31
0.0
 12
1.688443999999998
 22
7.383661999999999
 32
0.0
 13
1.688443999999998
 23
7.383661999999999
 33
0.0
210
0.0
220
0.0
230
-1.0
  0
SOLID
  5
985
330
900
100
AcDbEntity
  8
0
  6
Continuous
 62
     7
100
AcDbTrace
 10
-1.426387999999999
 20
7.488573999999999
 30
0.0
 11
-1.65419
 21
7.400250999999999
 31
0.0
 12
1.688443999999998
 22
7.383661999999999
 32
0.0
 13
1.688443999999998
 23
7.383661999999999
 33
0.0
210
0.0
220
0.0
230
-1.0
  0
SOLID
  5
986
330
900
100
AcDbEntity
  8
0
  6
Continuous
 62
     7
100
AcDbTrace
 10
1.276664999999999
 20
7.531252999999998
 30
0.0
 11
-1.426387999999999
 21
7.488573999999999
 31
0.0
 12
1.688443999999998
 22
7.383661999999999
 32
0.0
 13
1.688443999999998
 23
7.383661999999999
 33
0.0
210
0.0
220
0.0
230
-1.0
  0
SOLID
  5
987
330
900
100
AcDbEntity
  8
0
  6
Continuous
 62
     7
100
AcDbTrace
 10
-1.223292
 20
7.551688999999998
 30
0.0
 11
-1.426387999999999
 21
7.488573999999999
 31
0.0
 12
1.276664999999999
 22
7.531252999999998
 32
0.0
 13
1.276664999999999
 23
7.531252999999998
 33
0.0
210
0.0
220
0.0
230
-1.0
  0
SOLID
  5
988
330
900
100
AcDbEntity
  8
0
  6
Continuous
 62
     7
100
AcDbTrace
 10
0.8028350000000001
 20
7.630994999999998
 30
0.0
 11
-1.223292
 21
7.551688999999998
 31
0.0
 12
1.276664999999999
 22
7.531252999999998
 32
0.0
 13
1.276664999999999
 23
7.531252999999998
 33
0.0
210
0.0
220
0.0
230
-1.0
  0
SOLID
  5
989
330
900
100
AcDbEntity
  8
0
  6
Continuous
 62
     7
100
AcDbTrace
 10
-0.786644
 20
7.640963
 30
0.0
 11
-1.223292
 21
7.551688999999998
 31
0.0
 12
0.8028350000000001
 22
7.630994999999998
 32
0.0
 13
0.8028350000000001
 23
7.630994999999998
 33
0.0
210
0.0
220
0.0
230
-1.0
  0
SOLID
  5
98A
330
900
100
AcDbEntity
  8
0
  6
Continuous
 62
     7
100
AcDbTrace
 10
0.26234
 20
7.682015999999999
 30
0.0
 11
-0.786644
 21
7.640963
 31
0.0
 12
0.8028350000000001
 22
7.630994999999998
 32
0.0
 13
0.8028350000000001
 23
7.630994999999998
 33
0.0
210
0.0
220
0.0
230
-1.0
  0
SOLID
  5
98B
330
900
100
AcDbEntity
  8
0
  6
Continuous
 62
     7
100
AcDbTrace
 10
-0.299071
 20
7.684561999999998
 30
0.0
 11
-0.786644
 21
7.640963
 31
0.0
 12
0.26234
 22
7.682015999999999
 32
0.0
 13
0.26234
 23
7.682015999999999
 33
0.0
210
0.0
220
0.0
230
-1.0
  0
SOLID
  5
98C
330
900
100
AcDbEntity
  8
0
  6
Continuous
 62
     7
100
AcDbTrace
 10
-0.032959
 20
7.68923
 30
0.0
 11
-0.299071
 21
7.684561999999998
 31
0.0
 12
0.26234
 22
7.682015999999999
 32
0.0
 13
0.26234
 23
7.682015999999999
 33
0.0
210
0.0
220
0.0
230
-1.0
  0
ENDBLK
  5
98E
330
900
100
AcDbEntity
  8
0
100
AcDbBlockEnd
  0
BLOCK
  5
9F4
330
98F
100
AcDbEntity
  8
0
100
AcDbBlockBegin
  2
*U7
 70
     1
 10
0.0
 20
0.0
 30
0.0
  3
*U7
  1

  0
SOLID
  5
990
330
98F
100
AcDbEntity
  8
0
  6
Continuous
 62
     7
100
AcDbTrace
 10
-2.729203
 20
0.004005
 30
0.0
 11
-2.729203
 21
-0.007046
 31
0.0
 12
-2.71462
 22
-0.007046
 32
0.0
 13
-2.71462
 23
-0.007046
 33
0.0
210
0.0
220
0.0
230
-1.0
  0
SOLID
  5
991
330
98F
100
AcDbEntity
  8
0
  6
Continuous
 62
     7
100
AcDbTrace
 10
-2.729203
 20
0.004005
 30
0.0
 11
-2.71462
 21
-0.007046
 31
0.0
 12
-2.673405999999999
 22
-0.007046
 32
0.0
 13
-2.673405999999999
 23
-0.007046
 33
0.0
210
0.0
220
0.0
230
-1.0
  0
SOLID
  5
992
330
98F
100
AcDbEntity
  8
0
  6
Continuous
 62
     7
100
AcDbTrace
 10
-2.729203
 20
0.004005
 30
0.0
 11
-2.673405999999999
 21
-0.007046
 31
0.0
 12
-2.526301999999998
 22
-0.007046
 32
0.0
 13
-2.526301999999998
 23
-0.007046
 33
0.0
210
0.0
220
0.0
230
-1.0
  0
SOLID
  5
993
330
98F
100
AcDbEntity
  8
0
  6
Continuous
 62
     7
100
AcDbTrace
 10
-2.729203
 20
0.004005
 30
0.0
 11
-2.526301999999998
 21
-0.007046
 31
0.0
 12
-2.318328999999999
 22
-0.007046
 32
0.0
 13
-2.318328999999999
 23
-0.007046
 33
0.0
210
0.0
220
0.0
230
-1.0
  0
SOLID
  5
994
330
98F
100
AcDbEntity
  8
0
  6
Continuous
 62
     7
100
AcDbTrace
 10
-2.729203
 20
0.004005
 30
0.0
 11
-2.318328999999999
 21
-0.007046
 31
0.0
 12
-2.079919999999999
 22
-0.007046
 32
0.0
 13
-2.079919999999999
 23
-0.007046
 33
0.0
210
0.0
220
0.0
230
-1.0
  0
SOLID
  5
995
330
98F
100
AcDbEntity
  8
0
  6
Continuous
 62
     7
100
AcDbTrace
 10
-2.729203
 20
0.004005
 30
0.0
 11
-2.079919999999999
 21
-0.007046
 31
0.0
 12
-1.841511999999998
 22
-0.007046
 32
0.0
 13
-1.841511999999998
 23
-0.007046
 33
0.0
210
0.0
220
0.0
230
-1.0
  0
SOLID
  5
996
330
98F
100
AcDbEntity
  8
0
  6
Continuous
 62
     7
100
AcDbTrace
 10
-2.729203
 20
0.004005
 30
0.0
 11
-1.841511999999998
 21
-0.007046
 31
0.0
 12
-1.633537999999999
 22
-0.007046
 32
0.0
 13
-1.633537999999999
 23
-0.007046
 33
0.0
210
0.0
220
0.0
230
-1.0
  0
SOLID
  5
997
330
98F
100
AcDbEntity
  8
0
  6
Continuous
 62
     7
100
AcDbTrace
 10
-2.729203
 20
0.004005
 30
0.0
 11
-1.633537999999999
 21
-0.007046
 31
0.0
 12
-1.486434999999999
 22
-0.007046
 32
0.0
 13
-1.486434999999999
 23
-0.007046
 33
0.0
210
0.0
220
0.0
230
-1.0
  0
SOLID
  5
998
330
98F
100
AcDbEntity
  8
0
  6
Continuous
 62
     7
100
AcDbTrace
 10
-2.729203
 20
0.004005
 30
0.0
 11
-1.486434999999999
 21
-0.007046
 31
0.0
 12
-1.445220999999998
 22
-0.007046
 32
0.0
 13
-1.445220999999998
 23
-0.007046
 33
0.0
210
0.0
220
0.0
230
-1.0
  0
SOLID
  5
999
330
98F
100
AcDbEntity
  8
0
  6
Continuous
 62
     7
100
AcDbTrace
 10
-2.729203
 20
0.004005
 30
0.0
 11
-1.445220999999998
 21
-0.007046
 31
0.0
 12
-1.430636999999999
 22
-0.007046
 32
0.0
 13
-1.430636999999999
 23
-0.007046
 33
0.0
210
0.0
220
0.0
230
-1.0
  0
SOLID
  5
99A
330
98F
100
AcDbEntity
  8
0
  6
Continuous
 62
     7
100
AcDbTrace
 10
-1.430636999999999
 20
0.004005
 30
0.0
 11
-2.729203
 21
0.004005
 31
0.0
 12
-1.430636999999999
 22
-0.007046
 32
0.0
 13
-1.430636999999999
 23
-0.007046
 33
0.0
210
0.0
220
0.0
230
-1.0
  0
SOLID
  5
99B
330
98F
100
AcDbEntity
  8
0
  6
Continuous
 62
     7
100
AcDbTrace
 10
-2.729203
 20
0.036216
 30
0.0
 11
-2.729203
 21
0.004005
 31
0.0
 12
-1.430636999999999
 22
0.004005
 32
0.0
 13
-1.430636999999999
 23
0.004005
 33
0.0
210
0.0
220
0.0
230
-1.0
  0
SOLID
  5
99C
330
98F
100
AcDbEntity
  8
0
  6
Continuous
 62
     7
100
AcDbTrace
 10
-1.430636999999999
 20
0.036216
 30
0.0
 11
-2.729203
 21
0.036216
 31
0.0
 12
-1.430636999999999
 22
0.004005
 32
0.0
 13
-1.430636999999999
 23
0.004005
 33
0.0
210
0.0
220
0.0
230
-1.0
  0
SOLID
  5
99D
330
98F
100
AcDbEntity
  8
0
  6
Continuous
 62
     7
100
AcDbTrace
 10
-2.729203
 20
0.158476
 30
0.0
 11
-2.729203
 21
0.036216
 31
0.0
 12
-1.430636999999999
 22
0.036216
 32
0.0
 13
-1.430636999999999
 23
0.036216
 33
0.0
210
0.0
220
0.0
230
-1.0
  0
SOLID
  5
99E
330
98F
100
AcDbEntity
  8
0
  6
Continuous
 62
     7
100
AcDbTrace
 10
-1.430636999999999
 20
0.158476
 30
0.0
 11
-2.729203
 21
0.158476
 31
0.0
 12
-1.430636999999999
 22
0.036216
 32
0.0
 13
-1.430636999999999
 23
0.036216
 33
0.0
210
0.0
220
0.0
230
-1.0
  0
SOLID
  5
99F
330
98F
100
AcDbEntity
  8
0
  6
Continuous
 62
     7
100
AcDbTrace
 10
-2.729203
 20
0.348449
 30
0.0
 11
-2.729203
 21
0.158476
 31
0.0
 12
-1.430636999999999
 22
0.158476
 32
0.0
 13
-1.430636999999999
 23
0.158476
 33
0.0
210
0.0
220
0.0
230
-1.0
  0
SOLID
  5
9A0
330
98F
100
AcDbEntity
  8
0
  6
Continuous
 62
     7
100
AcDbTrace
 10
-1.430636999999999
 20
0.348449
 30
0.0
 11
-2.729203
 21
0.348449
 31
0.0
 12
-1.430636999999999
 22
0.158476
 32
0.0
 13
-1.430636999999999
 23
0.158476
 33
0.0
210
0.0
220
0.0
230
-1.0
  0
SOLID
  5
9A1
330
98F
100
AcDbEntity
  8
0
  6
Continuous
 62
     7
100
AcDbTrace
 10
-2.729203
 20
0.5948500000000001
 30
0.0
 11
-2.729203
 21
0.348449
 31
0.0
 12
-1.430636999999999
 22
0.348449
 32
0.0
 13
-1.430636999999999
 23
0.348449
 33
0.0
210
0.0
220
0.0
230
-1.0
  0
SOLID
  5
9A2
330
98F
100
AcDbEntity
  8
0
  6
Continuous
 62
     7
100
AcDbTrace
 10
-1.430636999999999
 20
0.5948500000000001
 30
0.0
 11
-2.729203
 21
0.5948500000000001
 31
0.0
 12
-1.430636999999999
 22
0.348449
 32
0.0
 13
-1.430636999999999
 23
0.348449
 33
0.0
210
0.0
220
0.0
230
-1.0
  0
SOLID
  5
9A3
330
98F
100
AcDbEntity
  8
0
  6
Continuous
 62
     7
100
AcDbTrace
 10
-2.729203
 20
0.8863929999999998
 30
0.0
 11
-2.729203
 21
0.5948500000000001
 31
0.0
 12
-1.430636999999999
 22
0.5948500000000001
 32
0.0
 13
-1.430636999999999
 23
0.5948500000000001
 33
0.0
210
0.0
220
0.0
230
-1.0
  0
SOLID
  5
9A4
330
98F
100
AcDbEntity
  8
0
  6
Continuous
 62
     7
100
AcDbTrace
 10
-1.430636999999999
 20
0.8863929999999998
 30
0.0
 11
-2.729203
 21
0.8863929999999998
 31
0.0
 12
-1.430636999999999
 22
0.5948500000000001
 32
0.0
 13
-1.430636999999999
 23
0.5948500000000001
 33
0.0
210
0.0
220
0.0
230
-1.0
  0
SOLID
  5
9A5
330
98F
100
AcDbEntity
  8
0
  6
Continuous
 62
     7
100
AcDbTrace
 10
-1.430636999999999
 20
1.211792999999999
 30
0.0
 11
-2.729203
 21
0.8863929999999998
 31
0.0
 12
-1.430636999999999
 22
0.8863929999999998
 32
0.0
 13
-1.430636999999999
 23
0.8863929999999998
 33
0.0
210
0.0
220
0.0
230
-1.0
  0
SOLID
  5
9A6
330
98F
100
AcDbEntity
  8
0
  6
Continuous
 62
     7
100
AcDbTrace
 10
-2.729203
 20
1.211792999999999
 30
0.0
 11
-2.729203
 21
0.8863929999999998
 31
0.0
 12
-1.430636999999999
 22
1.211792999999999
 32
0.0
 13
-1.430636999999999
 23
1.211792999999999
 33
0.0
210
0.0
220
0.0
230
-1.0
  0
SOLID
  5
9A7
330
98F
100
AcDbEntity
  8
0
  6
Continuous
 62
     7
100
AcDbTrace
 10
-2.729203
 20
1.919019999999999
 30
0.0
 11
-2.729203
 21
1.211792999999999
 31
0.0
 12
-1.430636999999999
 22
1.211792999999999
 32
0.0
 13
-1.430636999999999
 23
1.211792999999999
 33
0.0
210
0.0
220
0.0
230
-1.0
  0
SOLID
  5
9A8
330
98F
100
AcDbEntity
  8
0
  6
Continuous
 62
     7
100
AcDbTrace
 10
-1.430636999999999
 20
1.919019999999999
 30
0.0
 11
-2.729203
 21
1.919019999999999
 31
0.0
 12
-1.430636999999999
 22
1.211792999999999
 32
0.0
 13
-1.430636999999999
 23
1.211792999999999
 33
0.0
210
0.0
220
0.0
230
-1.0
  0
SOLID
  5
9A9
330
98F
100
AcDbEntity
  8
0
  6
Continuous
 62
     7
100
AcDbTrace
 10
-2.729203
 20
2.626247
 30
0.0
 11
-2.729203
 21
1.919019999999999
 31
0.0
 12
-1.430636999999999
 22
1.919019999999999
 32
0.0
 13
-1.430636999999999
 23
1.919019999999999
 33
0.0
210
0.0
220
0.0
230
-1.0
  0
SOLID
  5
9AA
330
98F
100
AcDbEntity
  8
0
  6
Continuous
 62
     7
100
AcDbTrace
 10
-1.430636999999999
 20
2.626247
 30
0.0
 11
-2.729203
 21
2.626247
 31
0.0
 12
-1.430636999999999
 22
1.919019999999999
 32
0.0
 13
-1.430636999999999
 23
1.919019999999999
 33
0.0
210
0.0
220
0.0
230
-1.0
  0
SOLID
  5
9AB
330
98F
100
AcDbEntity
  8
0
  6
Continuous
 62
     7
100
AcDbTrace
 10
-1.430636999999999
 20
2.951646999999999
 30
0.0
 11
-2.729203
 21
2.626247
 31
0.0
 12
-1.430636999999999
 22
2.626247
 32
0.0
 13
-1.430636999999999
 23
2.626247
 33
0.0
210
0.0
220
0.0
230
-1.0
  0
SOLID
  5
9AC
330
98F
100
AcDbEntity
  8
0
  6
Continuous
 62
     7
100
AcDbTrace
 10
-2.729203
 20
2.951646999999999
 30
0.0
 11
-2.729203
 21
2.626247
 31
0.0
 12
-1.430636999999999
 22
2.951646999999999
 32
0.0
 13
-1.430636999999999
 23
2.951646999999999
 33
0.0
210
0.0
220
0.0
230
-1.0
  0
SOLID
  5
9AD
330
98F
100
AcDbEntity
  8
0
  6
Continuous
 62
     7
100
AcDbTrace
 10
-2.729203
 20
3.243189999999999
 30
0.0
 11
-2.729203
 21
2.951646999999999
 31
0.0
 12
-1.430636999999999
 22
2.951646999999999
 32
0.0
 13
-1.430636999999999
 23
2.951646999999999
 33
0.0
210
0.0
220
0.0
230
-1.0
  0
SOLID
  5
9AE
330
98F
100
AcDbEntity
  8
0
  6
Continuous
 62
     7
100
AcDbTrace
 10
-1.430636999999999
 20
3.243189999999999
 30
0.0
 11
-2.729203
 21
3.243189999999999
 31
0.0
 12
-1.430636999999999
 22
2.951646999999999
 32
0.0
 13
-1.430636999999999
 23
2.951646999999999
 33
0.0
210
0.0
220
0.0
230
-1.0
  0
SOLID
  5
9AF
330
98F
100
AcDbEntity
  8
0
  6
Continuous
 62
     7
100
AcDbTrace
 10
-2.729203
 20
3.489590999999999
 30
0.0
 11
-2.729203
 21
3.243189999999999
 31
0.0
 12
-1.430636999999999
 22
3.243189999999999
 32
0.0
 13
-1.430636999999999
 23
3.243189999999999
 33
0.0
210
0.0
220
0.0
230
-1.0
  0
SOLID
  5
9B0
330
98F
100
AcDbEntity
  8
0
  6
Continuous
 62
     7
100
AcDbTrace
 10
-1.430636999999999
 20
3.489590999999999
 30
0.0
 11
-2.729203
 21
3.489590999999999
 31
0.0
 12
-1.430636999999999
 22
3.243189999999999
 32
0.0
 13
-1.430636999999999
 23
3.243189999999999
 33
0.0
210
0.0
220
0.0
230
-1.0
  0
SOLID
  5
9B1
330
98F
100
AcDbEntity
  8
0
  6
Continuous
 62
     7
100
AcDbTrace
 10
-1.430636999999999
 20
3.679564
 30
0.0
 11
-2.729203
 21
3.489590999999999
 31
0.0
 12
-1.430636999999999
 22
3.489590999999999
 32
0.0
 13
-1.430636999999999
 23
3.489590999999999
 33
0.0
210
0.0
220
0.0
230
-1.0
  0
SOLID
  5
9B2
330
98F
100
AcDbEntity
  8
0
  6
Continuous
 62
     7
100
AcDbTrace
 10
-2.729203
 20
3.679564
 30
0.0
 11
-2.729203
 21
3.489590999999999
 31
0.0
 12
-1.430636999999999
 22
3.679564
 32
0.0
 13
-1.430636999999999
 23
3.679564
 33
0.0
210
0.0
220
0.0
230
-1.0
  0
SOLID
  5
9B3
330
98F
100
AcDbEntity
  8
0
  6
Continuous
 62
     7
100
AcDbTrace
 10
-2.729203
 20
3.801825
 30
0.0
 11
-2.729203
 21
3.679564
 31
0.0
 12
-1.430636999999999
 22
3.679564
 32
0.0
 13
-1.430636999999999
 23
3.679564
 33
0.0
210
0.0
220
0.0
230
-1.0
  0
SOLID
  5
9B4
330
98F
100
AcDbEntity
  8
0
  6
Continuous
 62
     7
100
AcDbTrace
 10
-1.430636999999999
 20
3.801825
 30
0.0
 11
-2.729203
 21
3.801825
 31
0.0
 12
-1.430636999999999
 22
3.679564
 32
0.0
 13
-1.430636999999999
 23
3.679564
 33
0.0
210
0.0
220
0.0
230
-1.0
  0
SOLID
  5
9B5
330
98F
100
AcDbEntity
  8
0
  6
Continuous
 62
     7
100
AcDbTrace
 10
-2.729203
 20
3.834034999999999
 30
0.0
 11
-2.729203
 21
3.801825
 31
0.0
 12
-1.430636999999999
 22
3.801825
 32
0.0
 13
-1.430636999999999
 23
3.801825
 33
0.0
210
0.0
220
0.0
230
-1.0
  0
SOLID
  5
9B6
330
98F
100
AcDbEntity
  8
0
  6
Continuous
 62
     7
100
AcDbTrace
 10
-1.430636999999999
 20
3.834034999999999
 30
0.0
 11
-2.729203
 21
3.834034999999999
 31
0.0
 12
-1.430636999999999
 22
3.801825
 32
0.0
 13
-1.430636999999999
 23
3.801825
 33
0.0
210
0.0
220
0.0
230
-1.0
  0
SOLID
  5
9B7
330
98F
100
AcDbEntity
  8
0
  6
Continuous
 62
     7
100
AcDbTrace
 10
-1.430636999999999
 20
3.845085999999999
 30
0.0
 11
-2.729203
 21
3.834034999999999
 31
0.0
 12
-1.430636999999999
 22
3.834034999999999
 32
0.0
 13
-1.430636999999999
 23
3.834034999999999
 33
0.0
210
0.0
220
0.0
230
-1.0
  0
SOLID
  5
9B8
330
98F
100
AcDbEntity
  8
0
  6
Continuous
 62
     7
100
AcDbTrace
 10
2.729203
 20
3.845085999999999
 30
0.0
 11
-0.039592
 21
3.845085999999999
 31
0.0
 12
-0.056291
 22
3.845085999999999
 32
0.0
 13
-0.056291
 23
3.845085999999999
 33
0.0
  0
SOLID
  5
9B9
330
98F
100
AcDbEntity
  8
0
  6
Continuous
 62
     7
100
AcDbTrace
 10
2.729203
 20
3.845085999999999
 30
0.0
 11
0.007601
 21
3.845085999999999
 31
0.0
 12
-0.039592
 22
3.845085999999999
 32
0.0
 13
-0.039592
 23
3.845085999999999
 33
0.0
  0
SOLID
  5
9BA
330
98F
100
AcDbEntity
  8
0
  6
Continuous
 62
     7
100
AcDbTrace
 10
2.729203
 20
3.845085999999999
 30
0.0
 11
0.080931
 21
3.845085999999999
 31
0.0
 12
0.007601
 22
3.845085999999999
 32
0.0
 13
0.007601
 23
3.845085999999999
 33
0.0
  0
SOLID
  5
9BB
330
98F
100
AcDbEntity
  8
0
  6
Continuous
 62
     7
100
AcDbTrace
 10
2.729203
 20
3.845085999999999
 30
0.0
 11
0.176042
 21
3.845085999999999
 31
0.0
 12
0.080931
 22
3.845085999999999
 32
0.0
 13
0.080931
 23
3.845085999999999
 33
0.0
  0
SOLID
  5
9BC
330
98F
100
AcDbEntity
  8
0
  6
Continuous
 62
     7
100
AcDbTrace
 10
2.729203
 20
3.845085999999999
 30
0.0
 11
0.4141830000000001
 21
3.845085999999999
 31
0.0
 12
0.176042
 22
3.845085999999999
 32
0.0
 13
0.176042
 23
3.845085999999999
 33
0.0
  0
SOLID
  5
9BD
330
98F
100
AcDbEntity
  8
0
  6
Continuous
 62
     7
100
AcDbTrace
 10
2.729203
 20
3.845085999999999
 30
0.0
 11
0.6871730000000001
 21
3.845085999999999
 31
0.0
 12
0.4141830000000001
 22
3.845085999999999
 32
0.0
 13
0.4141830000000001
 23
3.845085999999999
 33
0.0
  0
SOLID
  5
9BE
330
98F
100
AcDbEntity
  8
0
  6
Continuous
 62
     7
100
AcDbTrace
 10
2.729203
 20
3.845085999999999
 30
0.0
 11
0.9601639999999999
 21
3.845085999999999
 31
0.0
 12
0.6871730000000001
 22
3.845085999999999
 32
0.0
 13
0.6871730000000001
 23
3.845085999999999
 33
0.0
  0
SOLID
  5
9BF
330
98F
100
AcDbEntity
  8
0
  6
Continuous
 62
     7
100
AcDbTrace
 10
2.729203
 20
3.845085999999999
 30
0.0
 11
1.198304999999999
 21
3.845085999999999
 31
0.0
 12
0.9601639999999999
 22
3.845085999999999
 32
0.0
 13
0.9601639999999999
 23
3.845085999999999
 33
0.0
  0
SOLID
  5
9C0
330
98F
100
AcDbEntity
  8
0
  6
Continuous
 62
     7
100
AcDbTrace
 10
2.729203
 20
3.845085999999999
 30
0.0
 11
1.293415999999999
 21
3.845085999999999
 31
0.0
 12
1.198304999999999
 22
3.845085999999999
 32
0.0
 13
1.198304999999999
 23
3.845085999999999
 33
0.0
  0
SOLID
  5
9C1
330
98F
100
AcDbEntity
  8
0
  6
Continuous
 62
     7
100
AcDbTrace
 10
2.729203
 20
3.845085999999999
 30
0.0
 11
1.366746
 21
3.845085999999999
 31
0.0
 12
1.293415999999999
 22
3.845085999999999
 32
0.0
 13
1.293415999999999
 23
3.845085999999999
 33
0.0
  0
SOLID
  5
9C2
330
98F
100
AcDbEntity
  8
0
  6
Continuous
 62
     7
100
AcDbTrace
 10
2.729203
 20
3.845085999999999
 30
0.0
 11
1.413937999999999
 21
3.845085999999999
 31
0.0
 12
1.366746
 22
3.845085999999999
 32
0.0
 13
1.366746
 23
3.845085999999999
 33
0.0
  0
SOLID
  5
9C3
330
98F
100
AcDbEntity
  8
0
  6
Continuous
 62
     7
100
AcDbTrace
 10
2.729203
 20
3.845085999999999
 30
0.0
 11
1.430636999999999
 21
3.845085999999999
 31
0.0
 12
1.413937999999999
 22
3.845085999999999
 32
0.0
 13
1.413937999999999
 23
3.845085999999999
 33
0.0
  0
SOLID
  5
9C4
330
98F
100
AcDbEntity
  8
0
  6
Continuous
 62
     7
100
AcDbTrace
 10
-2.729203
 20
3.845085999999999
 30
0.0
 11
-2.729203
 21
3.834034999999999
 31
0.0
 12
-1.430636999999999
 22
3.845085999999999
 32
0.0
 13
-1.430636999999999
 23
3.845085999999999
 33
0.0
210
0.0
220
0.0
230
-1.0
  0
SOLID
  5
9C5
330
98F
100
AcDbEntity
  8
0
  6
Continuous
 62
     7
100
AcDbTrace
 10
0.056291
 20
3.857578999999998
 30
0.0
 11
-4.216243
 21
3.845085999999999
 31
0.0
 12
-4.199543
 22
3.845085999999999
 32
0.0
 13
-4.199543
 23
3.845085999999999
 33
0.0
210
0.0
220
0.0
230
-1.0
  0
SOLID
  5
9C6
330
98F
100
AcDbEntity
  8
0
  6
Continuous
 62
     7
100
AcDbTrace
 10
0.056291
 20
3.857578999999998
 30
0.0
 11
-4.199543
 21
3.845085999999999
 31
0.0
 12
-4.152346999999998
 22
3.845085999999999
 32
0.0
 13
-4.152346999999998
 23
3.845085999999999
 33
0.0
210
0.0
220
0.0
230
-1.0
  0
SOLID
  5
9C7
330
98F
100
AcDbEntity
  8
0
  6
Continuous
 62
     7
100
AcDbTrace
 10
0.056291
 20
3.857578999999998
 30
0.0
 11
-4.152346999999998
 21
3.845085999999999
 31
0.0
 12
-4.079011
 22
3.845085999999999
 32
0.0
 13
-4.079011
 23
3.845085999999999
 33
0.0
210
0.0
220
0.0
230
-1.0
  0
SOLID
  5
9C8
330
98F
100
AcDbEntity
  8
0
  6
Continuous
 62
     7
100
AcDbTrace
 10
0.056291
 20
3.857578999999998
 30
0.0
 11
-4.079011
 21
3.845085999999999
 31
0.0
 12
-3.983893
 22
3.845085999999999
 32
0.0
 13
-3.983893
 23
3.845085999999999
 33
0.0
210
0.0
220
0.0
230
-1.0
  0
SOLID
  5
9C9
330
98F
100
AcDbEntity
  8
0
  6
Continuous
 62
     7
100
AcDbTrace
 10
0.056291
 20
3.857578999999998
 30
0.0
 11
-3.983893
 21
3.845085999999999
 31
0.0
 12
-3.745733999999998
 22
3.845085999999999
 32
0.0
 13
-3.745733999999998
 23
3.845085999999999
 33
0.0
210
0.0
220
0.0
230
-1.0
  0
SOLID
  5
9CA
330
98F
100
AcDbEntity
  8
0
  6
Continuous
 62
     7
100
AcDbTrace
 10
0.056291
 20
3.857578999999998
 30
0.0
 11
-3.745733999999998
 21
3.845085999999999
 31
0.0
 12
-3.472722999999999
 22
3.845085999999999
 32
0.0
 13
-3.472722999999999
 23
3.845085999999999
 33
0.0
210
0.0
220
0.0
230
-1.0
  0
SOLID
  5
9CB
330
98F
100
AcDbEntity
  8
0
  6
Continuous
 62
     7
100
AcDbTrace
 10
0.056291
 20
3.857578999999998
 30
0.0
 11
-3.472722999999999
 21
3.845085999999999
 31
0.0
 12
-3.199711999999999
 22
3.845085999999999
 32
0.0
 13
-3.199711999999999
 23
3.845085999999999
 33
0.0
210
0.0
220
0.0
230
-1.0
  0
SOLID
  5
9CC
330
98F
100
AcDbEntity
  8
0
  6
Continuous
 62
     7
100
AcDbTrace
 10
0.056291
 20
3.857578999999998
 30
0.0
 11
-3.199711999999999
 21
3.845085999999999
 31
0.0
 12
-2.961552999999998
 22
3.845085999999999
 32
0.0
 13
-2.961552999999998
 23
3.845085999999999
 33
0.0
210
0.0
220
0.0
230
-1.0
  0
SOLID
  5
9CD
330
98F
100
AcDbEntity
  8
0
  6
Continuous
 62
     7
100
AcDbTrace
 10
0.056291
 20
3.857578999999998
 30
0.0
 11
-2.961552999999998
 21
3.845085999999999
 31
0.0
 12
-2.866435
 22
3.845085999999999
 32
0.0
 13
-2.866435
 23
3.845085999999999
 33
0.0
210
0.0
220
0.0
230
-1.0
  0
SOLID
  5
9CE
330
98F
100
AcDbEntity
  8
0
  6
Continuous
 62
     7
100
AcDbTrace
 10
0.056291
 20
3.857578999999998
 30
0.0
 11
-2.866435
 21
3.845085999999999
 31
0.0
 12
-2.793099999999999
 22
3.845085999999999
 32
0.0
 13
-2.793099999999999
 23
3.845085999999999
 33
0.0
210
0.0
220
0.0
230
-1.0
  0
SOLID
  5
9CF
330
98F
100
AcDbEntity
  8
0
  6
Continuous
 62
     7
100
AcDbTrace
 10
0.056291
 20
3.857578999999998
 30
0.0
 11
-2.793099999999999
 21
3.845085999999999
 31
0.0
 12
-2.745902999999998
 22
3.845085999999999
 32
0.0
 13
-2.745902999999998
 23
3.845085999999999
 33
0.0
210
0.0
220
0.0
230
-1.0
  0
SOLID
  5
9D0
330
98F
100
AcDbEntity
  8
0
  6
Continuous
 62
     7
100
AcDbTrace
 10
0.056291
 20
3.857578999999998
 30
0.0
 11
-2.745902999999998
 21
3.845085999999999
 31
0.0
 12
-2.729203
 22
3.845085999999999
 32
0.0
 13
-2.729203
 23
3.845085999999999
 33
0.0
210
0.0
220
0.0
230
-1.0
  0
SOLID
  5
9D1
330
98F
100
AcDbEntity
  8
0
  6
Continuous
 62
     7
100
AcDbTrace
 10
0.056291
 20
3.857578999999998
 30
0.0
 11
-2.729203
 21
3.845085999999999
 31
0.0
 12
0.056291
 22
3.845085999999999
 32
0.0
 13
0.056291
 23
3.845085999999999
 33
0.0
210
0.0
220
0.0
230
-1.0
  0
SOLID
  5
9D2
330
98F
100
AcDbEntity
  8
0
  6
Continuous
 62
     7
100
AcDbTrace
 10
-4.216243
 20
3.857578999999998
 30
0.0
 11
-4.216243
 21
3.845085999999999
 31
0.0
 12
0.056291
 22
3.857578999999998
 32
0.0
 13
0.056291
 23
3.857578999999998
 33
0.0
210
0.0
220
0.0
230
-1.0
  0
SOLID
  5
9D3
330
98F
100
AcDbEntity
  8
0
  6
Continuous
 62
     7
100
AcDbTrace
 10
0.056291
 20
3.892885999999998
 30
0.0
 11
-4.216243
 21
3.857578999999998
 31
0.0
 12
0.056291
 22
3.857578999999998
 32
0.0
 13
0.056291
 23
3.857578999999998
 33
0.0
210
0.0
220
0.0
230
-1.0
  0
SOLID
  5
9D4
330
98F
100
AcDbEntity
  8
0
  6
Continuous
 62
     7
100
AcDbTrace
 10
-4.216243
 20
3.892885999999998
 30
0.0
 11
-4.216243
 21
3.857578999999998
 31
0.0
 12
0.056291
 22
3.892885999999998
 32
0.0
 13
0.056291
 23
3.892885999999998
 33
0.0
210
0.0
220
0.0
230
-1.0
  0
SOLID
  5
9D5
330
98F
100
AcDbEntity
  8
0
  6
Continuous
 62
     7
100
AcDbTrace
 10
0.056291
 20
4.018905
 30
0.0
 11
-4.216243
 21
3.892885999999998
 31
0.0
 12
0.056291
 22
3.892885999999998
 32
0.0
 13
0.056291
 23
3.892885999999998
 33
0.0
210
0.0
220
0.0
230
-1.0
  0
SOLID
  5
9D6
330
98F
100
AcDbEntity
  8
0
  6
Continuous
 62
     7
100
AcDbTrace
 10
-4.216243
 20
4.018905
 30
0.0
 11
-4.216243
 21
3.892885999999998
 31
0.0
 12
0.056291
 22
4.018905
 32
0.0
 13
0.056291
 23
4.018905
 33
0.0
210
0.0
220
0.0
230
-1.0
  0
SOLID
  5
9D7
330
98F
100
AcDbEntity
  8
0
  6
Continuous
 62
     7
100
AcDbTrace
 10
0.056291
 20
4.197068999999999
 30
0.0
 11
-4.216243
 21
4.018905
 31
0.0
 12
0.056291
 22
4.018905
 32
0.0
 13
0.056291
 23
4.018905
 33
0.0
210
0.0
220
0.0
230
-1.0
  0
SOLID
  5
9D8
330
98F
100
AcDbEntity
  8
0
  6
Continuous
 62
     7
100
AcDbTrace
 10
-4.216243
 20
4.197068999999999
 30
0.0
 11
-4.216243
 21
4.018905
 31
0.0
 12
0.056291
 22
4.197068999999999
 32
0.0
 13
0.056291
 23
4.197068999999999
 33
0.0
210
0.0
220
0.0
230
-1.0
  0
SOLID
  5
9D9
330
98F
100
AcDbEntity
  8
0
  6
Continuous
 62
     7
100
AcDbTrace
 10
0.056291
 20
4.401305999999999
 30
0.0
 11
-4.216243
 21
4.197068999999999
 31
0.0
 12
0.056291
 22
4.197068999999999
 32
0.0
 13
0.056291
 23
4.197068999999999
 33
0.0
210
0.0
220
0.0
230
-1.0
  0
SOLID
  5
9DA
330
98F
100
AcDbEntity
  8
0
  6
Continuous
 62
     7
100
AcDbTrace
 10
-4.216243
 20
4.401305999999999
 30
0.0
 11
-4.216243
 21
4.197068999999999
 31
0.0
 12
0.056291
 22
4.401305999999999
 32
0.0
 13
0.056291
 23
4.401305999999999
 33
0.0
210
0.0
220
0.0
230
-1.0
  0
SOLID
  5
9DB
330
98F
100
AcDbEntity
  8
0
  6
Continuous
 62
     7
100
AcDbTrace
 10
0.056291
 20
4.605544
 30
0.0
 11
-4.216243
 21
4.401305999999999
 31
0.0
 12
0.056291
 22
4.401305999999999
 32
0.0
 13
0.056291
 23
4.401305999999999
 33
0.0
210
0.0
220
0.0
230
-1.0
  0
SOLID
  5
9DC
330
98F
100
AcDbEntity
  8
0
  6
Continuous
 62
     7
100
AcDbTrace
 10
-4.216243
 20
4.605544
 30
0.0
 11
-4.216243
 21
4.401305999999999
 31
0.0
 12
0.056291
 22
4.605544
 32
0.0
 13
0.056291
 23
4.605544
 33
0.0
210
0.0
220
0.0
230
-1.0
  0
SOLID
  5
9DD
330
98F
100
AcDbEntity
  8
0
  6
Continuous
 62
     7
100
AcDbTrace
 10
0.056291
 20
4.783707999999998
 30
0.0
 11
-4.216243
 21
4.605544
 31
0.0
 12
0.056291
 22
4.605544
 32
0.0
 13
0.056291
 23
4.605544
 33
0.0
210
0.0
220
0.0
230
-1.0
  0
SOLID
  5
9DE
330
98F
100
AcDbEntity
  8
0
  6
Continuous
 62
     7
100
AcDbTrace
 10
-4.216243
 20
4.783707999999998
 30
0.0
 11
-4.216243
 21
4.605544
 31
0.0
 12
0.056291
 22
4.783707999999998
 32
0.0
 13
0.056291
 23
4.783707999999998
 33
0.0
210
0.0
220
0.0
230
-1.0
  0
SOLID
  5
9DF
330
98F
100
AcDbEntity
  8
0
  6
Continuous
 62
     7
100
AcDbTrace
 10
0.056291
 20
4.909726999999999
 30
0.0
 11
-4.216243
 21
4.783707999999998
 31
0.0
 12
0.056291
 22
4.783707999999998
 32
0.0
 13
0.056291
 23
4.783707999999998
 33
0.0
210
0.0
220
0.0
230
-1.0
  0
SOLID
  5
9E0
330
98F
100
AcDbEntity
  8
0
  6
Continuous
 62
     7
100
AcDbTrace
 10
-4.216243
 20
4.909726999999999
 30
0.0
 11
-4.216243
 21
4.783707999999998
 31
0.0
 12
0.056291
 22
4.909726999999999
 32
0.0
 13
0.056291
 23
4.909726999999999
 33
0.0
210
0.0
220
0.0
230
-1.0
  0
SOLID
  5
9E1
330
98F
100
AcDbEntity
  8
0
  6
Continuous
 62
     7
100
AcDbTrace
 10
0.056291
 20
4.945033999999998
 30
0.0
 11
-4.216243
 21
4.909726999999999
 31
0.0
 12
0.056291
 22
4.909726999999999
 32
0.0
 13
0.056291
 23
4.909726999999999
 33
0.0
210
0.0
220
0.0
230
-1.0
  0
SOLID
  5
9E2
330
98F
100
AcDbEntity
  8
0
  6
Continuous
 62
     7
100
AcDbTrace
 10
-4.216243
 20
4.945033999999998
 30
0.0
 11
-4.216243
 21
4.909726999999999
 31
0.0
 12
0.056291
 22
4.945033999999998
 32
0.0
 13
0.056291
 23
4.945033999999998
 33
0.0
210
0.0
220
0.0
230
-1.0
  0
SOLID
  5
9E3
330
98F
100
AcDbEntity
  8
0
  6
Continuous
 62
     7
100
AcDbTrace
 10
-4.216243
 20
4.945033999999998
 30
0.0
 11
-4.203986999999999
 21
4.957526999999998
 31
0.0
 12
-4.216243
 22
4.957526999999998
 32
0.0
 13
-4.216243
 23
4.957526999999998
 33
0.0
210
0.0
220
0.0
230
-1.0
  0
SOLID
  5
9E4
330
98F
100
AcDbEntity
  8
0
  6
Continuous
 62
     7
100
AcDbTrace
 10
-4.216243
 20
4.945033999999998
 30
0.0
 11
-4.16826
 21
4.957526999999998
 31
0.0
 12
-4.203986999999999
 22
4.957526999999998
 32
0.0
 13
-4.203986999999999
 23
4.957526999999998
 33
0.0
210
0.0
220
0.0
230
-1.0
  0
SOLID
  5
9E5
330
98F
100
AcDbEntity
  8
0
  6
Continuous
 62
     7
100
AcDbTrace
 10
-4.216243
 20
4.945033999999998
 30
0.0
 11
-4.032657999999999
 21
4.957526999999998
 31
0.0
 12
-4.16826
 22
4.957526999999998
 32
0.0
 13
-4.16826
 23
4.957526999999998
 33
0.0
210
0.0
220
0.0
230
-1.0
  0
SOLID
  5
9E6
330
98F
100
AcDbEntity
  8
0
  6
Continuous
 62
     7
100
AcDbTrace
 10
-4.216243
 20
4.945033999999998
 30
0.0
 11
-3.821951999999999
 21
4.957526999999998
 31
0.0
 12
-4.032657999999999
 22
4.957526999999998
 32
0.0
 13
-4.032657999999999
 23
4.957526999999998
 33
0.0
210
0.0
220
0.0
230
-1.0
  0
SOLID
  5
9E7
330
98F
100
AcDbEntity
  8
0
  6
Continuous
 62
     7
100
AcDbTrace
 10
-4.216243
 20
4.945033999999998
 30
0.0
 11
-3.548659999999999
 21
4.957526999999998
 31
0.0
 12
-3.821951999999999
 22
4.957526999999998
 32
0.0
 13
-3.821951999999999
 23
4.957526999999998
 33
0.0
210
0.0
220
0.0
230
-1.0
  0
SOLID
  5
9E8
330
98F
100
AcDbEntity
  8
0
  6
Continuous
 62
     7
100
AcDbTrace
 10
-4.216243
 20
4.945033999999998
 30
0.0
 11
-3.225299
 21
4.957526999999998
 31
0.0
 12
-3.548659999999999
 22
4.957526999999998
 32
0.0
 13
-3.548659999999999
 23
4.957526999999998
 33
0.0
210
0.0
220
0.0
230
-1.0
  0
SOLID
  5
9E9
330
98F
100
AcDbEntity
  8
0
  6
Continuous
 62
     7
100
AcDbTrace
 10
-4.216243
 20
4.945033999999998
 30
0.0
 11
-2.864386999999998
 21
4.957526999999998
 31
0.0
 12
-3.225299
 22
4.957526999999998
 32
0.0
 13
-3.225299
 23
4.957526999999998
 33
0.0
210
0.0
220
0.0
230
-1.0
  0
SOLID
  5
9EA
330
98F
100
AcDbEntity
  8
0
  6
Continuous
 62
     7
100
AcDbTrace
 10
-4.216243
 20
4.945033999999998
 30
0.0
 11
-2.079975999999998
 21
4.957526999999998
 31
0.0
 12
-2.864386999999998
 22
4.957526999999998
 32
0.0
 13
-2.864386999999998
 23
4.957526999999998
 33
0.0
210
0.0
220
0.0
230
-1.0
  0
SOLID
  5
9EB
330
98F
100
AcDbEntity
  8
0
  6
Continuous
 62
     7
100
AcDbTrace
 10
-4.216243
 20
4.945033999999998
 30
0.0
 11
-1.295565999999999
 21
4.957526999999998
 31
0.0
 12
-2.079975999999998
 22
4.957526999999998
 32
0.0
 13
-2.079975999999998
 23
4.957526999999998
 33
0.0
210
0.0
220
0.0
230
-1.0
  0
SOLID
  5
9EC
330
98F
100
AcDbEntity
  8
0
  6
Continuous
 62
     7
100
AcDbTrace
 10
-4.216243
 20
4.945033999999998
 30
0.0
 11
-0.9346529999999999
 21
4.957526999999998
 31
0.0
 12
-1.295565999999999
 22
4.957526999999998
 32
0.0
 13
-1.295565999999999
 23
4.957526999999998
 33
0.0
210
0.0
220
0.0
230
-1.0
  0
SOLID
  5
9ED
330
98F
100
AcDbEntity
  8
0
  6
Continuous
 62
     7
100
AcDbTrace
 10
-4.216243
 20
4.945033999999998
 30
0.0
 11
-0.611293
 21
4.957526999999998
 31
0.0
 12
-0.9346529999999999
 22
4.957526999999998
 32
0.0
 13
-0.9346529999999999
 23
4.957526999999998
 33
0.0
210
0.0
220
0.0
230
-1.0
  0
SOLID
  5
9EE
330
98F
100
AcDbEntity
  8
0
  6
Continuous
 62
     7
100
AcDbTrace
 10
-4.216243
 20
4.945033999999998
 30
0.0
 11
-0.338001
 21
4.957526999999998
 31
0.0
 12
-0.611293
 22
4.957526999999998
 32
0.0
 13
-0.611293
 23
4.957526999999998
 33
0.0
210
0.0
220
0.0
230
-1.0
  0
SOLID
  5
9EF
330
98F
100
AcDbEntity
  8
0
  6
Continuous
 62
     7
100
AcDbTrace
 10
-4.216243
 20
4.945033999999998
 30
0.0
 11
-0.127295
 21
4.957526999999998
 31
0.0
 12
-0.338001
 22
4.957526999999998
 32
0.0
 13
-0.338001
 23
4.957526999999998
 33
0.0
210
0.0
220
0.0
230
-1.0
  0
SOLID
  5
9F0
330
98F
100
AcDbEntity
  8
0
  6
Continuous
 62
     7
100
AcDbTrace
 10
-4.216243
 20
4.945033999999998
 30
0.0
 11
0.008308
 21
4.957526999999998
 31
0.0
 12
-0.127295
 22
4.957526999999998
 32
0.0
 13
-0.127295
 23
4.957526999999998
 33
0.0
210
0.0
220
0.0
230
-1.0
  0
SOLID
  5
9F1
330
98F
100
AcDbEntity
  8
0
  6
Continuous
 62
     7
100
AcDbTrace
 10
-4.216243
 20
4.945033999999998
 30
0.0
 11
0.044034
 21
4.957526999999998
 31
0.0
 12
0.008308
 22
4.957526999999998
 32
0.0
 13
0.008308
 23
4.957526999999998
 33
0.0
210
0.0
220
0.0
230
-1.0
  0
SOLID
  5
9F2
330
98F
100
AcDbEntity
  8
0
  6
Continuous
 62
     7
100
AcDbTrace
 10
-4.216243
 20
4.945033999999998
 30
0.0
 11
0.056291
 21
4.957526999999998
 31
0.0
 12
0.044034
 22
4.957526999999998
 32
0.0
 13
0.044034
 23
4.957526999999998
 33
0.0
210
0.0
220
0.0
230
-1.0
  0
SOLID
  5
9F3
330
98F
100
AcDbEntity
  8
0
  6
Continuous
 62
     7
100
AcDbTrace
 10
0.056291
 20
4.957526999999998
 30
0.0
 11
-4.216243
 21
4.945033999999998
 31
0.0
 12
0.056291
 22
4.945033999999998
 32
0.0
 13
0.056291
 23
4.945033999999998
 33
0.0
210
0.0
220
0.0
230
-1.0
  0
ENDBLK
  5
9F5
330
98F
100
AcDbEntity
  8
0
100
AcDbBlockEnd
  0
BLOCK
  5
A7A
330
9F6
100
AcDbEntity
  8
0
100
AcDbBlockBegin
  2
*U8
 70
     1
 10
0.0
 20
0.0
 30
0.0
  3
*U8
  1

  0
SOLID
  5
9F7
330
9F6
100
AcDbEntity
  8
0
  6
Continuous
 62
     7
100
AcDbTrace
 10
-4.076201999999999
 20
-0.003447
 30
0.0
 11
-5.370987
 21
-0.007046
 31
0.0
 12
-5.318916999999999
 22
-0.007046
 32
0.0
 13
-5.318916999999999
 23
-0.007046
 33
0.0
210
0.0
220
0.0
230
-1.0
  0
SOLID
  5
9F8
330
9F6
100
AcDbEntity
  8
0
  6
Continuous
 62
     7
100
AcDbTrace
 10
-4.076201999999999
 20
-0.003447
 30
0.0
 11
-5.318916999999999
 21
-0.007046
 31
0.0
 12
-5.215488999999998
 22
-0.007046
 32
0.0
 13
-5.215488999999998
 23
-0.007046
 33
0.0
210
0.0
220
0.0
230
-1.0
  0
SOLID
  5
9F9
330
9F6
100
AcDbEntity
  8
0
  6
Continuous
 62
     7
100
AcDbTrace
 10
-4.076201999999999
 20
-0.003447
 30
0.0
 11
-5.215488999999998
 21
-0.007046
 31
0.0
 12
-5.073544
 22
-0.007046
 32
0.0
 13
-5.073544
 23
-0.007046
 33
0.0
210
0.0
220
0.0
230
-1.0
  0
SOLID
  5
9FA
330
9F6
100
AcDbEntity
  8
0
  6
Continuous
 62
     7
100
AcDbTrace
 10
-4.076201999999999
 20
-0.003447
 30
0.0
 11
-5.073544
 21
-0.007046
 31
0.0
 12
-4.725456999999998
 22
-0.007046
 32
0.0
 13
-4.725456999999998
 23
-0.007046
 33
0.0
210
0.0
220
0.0
230
-1.0
  0
SOLID
  5
9FB
330
9F6
100
AcDbEntity
  8
0
  6
Continuous
 62
     7
100
AcDbTrace
 10
-4.076201999999999
 20
-0.003447
 30
0.0
 11
-4.725456999999998
 21
-0.007046
 31
0.0
 12
-4.377369999999999
 22
-0.007046
 32
0.0
 13
-4.377369999999999
 23
-0.007046
 33
0.0
210
0.0
220
0.0
230
-1.0
  0
SOLID
  5
9FC
330
9F6
100
AcDbEntity
  8
0
  6
Continuous
 62
     7
100
AcDbTrace
 10
-4.076201999999999
 20
-0.003447
 30
0.0
 11
-4.377369999999999
 21
-0.007046
 31
0.0
 12
-4.235425
 22
-0.007046
 32
0.0
 13
-4.235425
 23
-0.007046
 33
0.0
210
0.0
220
0.0
230
-1.0
  0
SOLID
  5
9FD
330
9F6
100
AcDbEntity
  8
0
  6
Continuous
 62
     7
100
AcDbTrace
 10
-4.076201999999999
 20
-0.003447
 30
0.0
 11
-4.235425
 21
-0.007046
 31
0.0
 12
-4.131997
 22
-0.007046
 32
0.0
 13
-4.131997
 23
-0.007046
 33
0.0
210
0.0
220
0.0
230
-1.0
  0
SOLID
  5
9FE
330
9F6
100
AcDbEntity
  8
0
  6
Continuous
 62
     7
100
AcDbTrace
 10
-4.076201999999999
 20
-0.003447
 30
0.0
 11
-4.131997
 21
-0.007046
 31
0.0
 12
-4.079926999999998
 22
-0.007046
 32
0.0
 13
-4.079926999999998
 23
-0.007046
 33
0.0
210
0.0
220
0.0
230
-1.0
  0
SOLID
  5
9FF
330
9F6
100
AcDbEntity
  8
0
  6
Continuous
 62
     7
100
AcDbTrace
 10
-7.08518
 20
-0.001181
 30
0.0
 11
-8.383689999999999
 21
-0.007046
 31
0.0
 12
-8.351592
 22
-0.007046
 32
0.0
 13
-8.351592
 23
-0.007046
 33
0.0
210
0.0
220
0.0
230
-1.0
  0
SOLID
  5
A00
330
9F6
100
AcDbEntity
  8
0
  6
Continuous
 62
     7
100
AcDbTrace
 10
-7.08518
 20
-0.001181
 30
0.0
 11
-8.351592
 21
-0.007046
 31
0.0
 12
-8.263857000000001
 22
-0.007046
 32
0.0
 13
-8.263857000000001
 23
-0.007046
 33
0.0
210
0.0
220
0.0
230
-1.0
  0
SOLID
  5
A01
330
9F6
100
AcDbEntity
  8
0
  6
Continuous
 62
     7
100
AcDbTrace
 10
-7.08518
 20
-0.001181
 30
0.0
 11
-8.263857000000001
 21
-0.007046
 31
0.0
 12
-8.133323999999998
 22
-0.007046
 32
0.0
 13
-8.133323999999998
 23
-0.007046
 33
0.0
210
0.0
220
0.0
230
-1.0
  0
SOLID
  5
A02
330
9F6
100
AcDbEntity
  8
0
  6
Continuous
 62
     7
100
AcDbTrace
 10
-7.08518
 20
-0.001181
 30
0.0
 11
-8.133323999999998
 21
-0.007046
 31
0.0
 12
-7.972832999999999
 22
-0.007046
 32
0.0
 13
-7.972832999999999
 23
-0.007046
 33
0.0
210
0.0
220
0.0
230
-1.0
  0
SOLID
  5
A03
330
9F6
100
AcDbEntity
  8
0
  6
Continuous
 62
     7
100
AcDbTrace
 10
-7.08518
 20
-0.001181
 30
0.0
 11
-7.972832999999999
 21
-0.007046
 31
0.0
 12
-7.613334
 22
-0.007046
 32
0.0
 13
-7.613334
 23
-0.007046
 33
0.0
210
0.0
220
0.0
230
-1.0
  0
SOLID
  5
A04
330
9F6
100
AcDbEntity
  8
0
  6
Continuous
 62
     7
100
AcDbTrace
 10
-7.08518
 20
-0.001181
 30
0.0
 11
-7.613334
 21
-0.007046
 31
0.0
 12
-7.440002999999999
 22
-0.007046
 32
0.0
 13
-7.440002999999999
 23
-0.007046
 33
0.0
210
0.0
220
0.0
230
-1.0
  0
SOLID
  5
A05
330
9F6
100
AcDbEntity
  8
0
  6
Continuous
 62
     7
100
AcDbTrace
 10
-7.08518
 20
-0.001181
 30
0.0
 11
-7.440002999999999
 21
-0.007046
 31
0.0
 12
-7.288071999999999
 22
-0.007046
 32
0.0
 13
-7.288071999999999
 23
-0.007046
 33
0.0
210
0.0
220
0.0
230
-1.0
  0
SOLID
  5
A06
330
9F6
100
AcDbEntity
  8
0
  6
Continuous
 62
     7
100
AcDbTrace
 10
-7.08518
 20
-0.001181
 30
0.0
 11
-7.288071999999999
 21
-0.007046
 31
0.0
 12
-7.170378999999998
 22
-0.007046
 32
0.0
 13
-7.170378999999998
 23
-0.007046
 33
0.0
210
0.0
220
0.0
230
-1.0
  0
SOLID
  5
A07
330
9F6
100
AcDbEntity
  8
0
  6
Continuous
 62
     7
100
AcDbTrace
 10
-7.08518
 20
-0.001181
 30
0.0
 11
-7.170378999999998
 21
-0.007046
 31
0.0
 12
-7.099763
 22
-0.007046
 32
0.0
 13
-7.099763
 23
-0.007046
 33
0.0
210
0.0
220
0.0
230
-1.0
  0
SOLID
  5
A08
330
9F6
100
AcDbEntity
  8
0
  6
Continuous
 62
     7
100
AcDbTrace
 10
-5.374711999999999
 20
0.015913
 30
0.0
 11
-5.370987
 21
-0.007046
 31
0.0
 12
-4.076201999999999
 22
-0.003447
 32
0.0
 13
-4.076201999999999
 23
-0.003447
 33
0.0
210
0.0
220
0.0
230
-1.0
  0
SOLID
  5
A09
330
9F6
100
AcDbEntity
  8
0
  6
Continuous
 62
     7
100
AcDbTrace
 10
-8.383689999999999
 20
0.024657
 30
0.0
 11
-8.383689999999999
 21
-0.007046
 31
0.0
 12
-7.08518
 22
-0.001181
 32
0.0
 13
-7.08518
 23
-0.001181
 33
0.0
210
0.0
220
0.0
230
-1.0
  0
SOLID
  5
A0A
330
9F6
100
AcDbEntity
  8
0
  6
Continuous
 62
     7
100
AcDbTrace
 10
-7.08518
 20
0.028438
 30
0.0
 11
-8.383689999999999
 21
0.024657
 31
0.0
 12
-7.08518
 22
-0.001181
 32
0.0
 13
-7.08518
 23
-0.001181
 33
0.0
210
0.0
220
0.0
230
-1.0
  0
SOLID
  5
A0B
330
9F6
100
AcDbEntity
  8
0
  6
Continuous
 62
     7
100
AcDbTrace
 10
-4.076201999999999
 20
0.048709
 30
0.0
 11
-5.374711999999999
 21
0.015913
 31
0.0
 12
-4.076201999999999
 22
-0.003447
 32
0.0
 13
-4.076201999999999
 23
-0.003447
 33
0.0
210
0.0
220
0.0
230
-1.0
  0
SOLID
  5
A0C
330
9F6
100
AcDbEntity
  8
0
  6
Continuous
 62
     7
100
AcDbTrace
 10
-5.374711999999999
 20
0.060974
 30
0.0
 11
-5.374711999999999
 21
0.015913
 31
0.0
 12
-4.076201999999999
 22
0.048709
 32
0.0
 13
-4.076201999999999
 23
0.048709
 33
0.0
210
0.0
220
0.0
230
-1.0
  0
SOLID
  5
A0D
330
9F6
100
AcDbEntity
  8
0
  6
Continuous
 62
     7
100
AcDbTrace
 10
-7.08518
 20
0.080798
 30
0.0
 11
-8.383689999999999
 21
0.024657
 31
0.0
 12
-7.08518
 22
0.028438
 32
0.0
 13
-7.08518
 23
0.028438
 33
0.0
210
0.0
220
0.0
230
-1.0
  0
SOLID
  5
A0E
330
9F6
100
AcDbEntity
  8
0
  6
Continuous
 62
     7
100
AcDbTrace
 10
-8.383689999999999
 20
0.115675
 30
0.0
 11
-8.383689999999999
 21
0.024657
 31
0.0
 12
-7.08518
 22
0.080798
 32
0.0
 13
-7.08518
 23
0.080798
 33
0.0
210
0.0
220
0.0
230
-1.0
  0
SOLID
  5
A0F
330
9F6
100
AcDbEntity
  8
0
  6
Continuous
 62
     7
100
AcDbTrace
 10
-5.374711999999999
 20
0.12709
 30
0.0
 11
-5.374711999999999
 21
0.060974
 31
0.0
 12
-4.076201999999999
 22
0.048709
 32
0.0
 13
-4.076201999999999
 23
0.048709
 33
0.0
210
0.0
220
0.0
230
-1.0
  0
SOLID
  5
A10
330
9F6
100
AcDbEntity
  8
0
  6
Continuous
 62
     7
100
AcDbTrace
 10
-4.076201999999999
 20
0.158135
 30
0.0
 11
-5.374711999999999
 21
0.12709
 31
0.0
 12
-4.076201999999999
 22
0.048709
 32
0.0
 13
-4.076201999999999
 23
0.048709
 33
0.0
210
0.0
220
0.0
230
-1.0
  0
SOLID
  5
A11
330
9F6
100
AcDbEntity
  8
0
  6
Continuous
 62
     7
100
AcDbTrace
 10
-7.08518
 20
0.243632
 30
0.0
 11
-8.383689999999999
 21
0.115675
 31
0.0
 12
-7.08518
 22
0.080798
 32
0.0
 13
-7.08518
 23
0.080798
 33
0.0
210
0.0
220
0.0
230
-1.0
  0
SOLID
  5
A12
330
9F6
100
AcDbEntity
  8
0
  6
Continuous
 62
     7
100
AcDbTrace
 10
-8.383689999999999
 20
0.259871
 30
0.0
 11
-8.383689999999999
 21
0.115675
 31
0.0
 12
-7.08518
 22
0.243632
 32
0.0
 13
-7.08518
 23
0.243632
 33
0.0
210
0.0
220
0.0
230
-1.0
  0
SOLID
  5
A13
330
9F6
100
AcDbEntity
  8
0
  6
Continuous
 62
     7
100
AcDbTrace
 10
-5.374711999999999
 20
0.312384
 30
0.0
 11
-5.374711999999999
 21
0.12709
 31
0.0
 12
-4.076201999999999
 22
0.158135
 32
0.0
 13
-4.076201999999999
 23
0.158135
 33
0.0
210
0.0
220
0.0
230
-1.0
  0
SOLID
  5
A14
330
9F6
100
AcDbEntity
  8
0
  6
Continuous
 62
     7
100
AcDbTrace
 10
-4.076201999999999
 20
0.318694
 30
0.0
 11
-5.374711999999999
 21
0.312384
 31
0.0
 12
-4.076201999999999
 22
0.158135
 32
0.0
 13
-4.076201999999999
 23
0.158135
 33
0.0
210
0.0
220
0.0
230
-1.0
  0
SOLID
  5
A15
330
9F6
100
AcDbEntity
  8
0
  6
Continuous
 62
     7
100
AcDbTrace
 10
-8.383689999999999
 20
0.451111
 30
0.0
 11
-8.383689999999999
 21
0.259871
 31
0.0
 12
-7.08518
 22
0.243632
 32
0.0
 13
-7.08518
 23
0.243632
 33
0.0
210
0.0
220
0.0
230
-1.0
  0
SOLID
  5
A16
330
9F6
100
AcDbEntity
  8
0
  6
Continuous
 62
     7
100
AcDbTrace
 10
-7.08518
 20
0.467108
 30
0.0
 11
-8.383689999999999
 21
0.451111
 31
0.0
 12
-7.08518
 22
0.243632
 32
0.0
 13
-7.08518
 23
0.243632
 33
0.0
210
0.0
220
0.0
230
-1.0
  0
SOLID
  5
A17
330
9F6
100
AcDbEntity
  8
0
  6
Continuous
 62
     7
100
AcDbTrace
 10
-4.076201999999999
 20
0.5242510000000002
 30
0.0
 11
-5.374711999999999
 21
0.312384
 31
0.0
 12
-4.076201999999999
 22
0.318694
 32
0.0
 13
-4.076201999999999
 23
0.318694
 33
0.0
210
0.0
220
0.0
230
-1.0
  0
SOLID
  5
A18
330
9F6
100
AcDbEntity
  8
0
  6
Continuous
 62
     7
100
AcDbTrace
 10
-5.374711999999999
 20
0.551582
 30
0.0
 11
-5.374711999999999
 21
0.312384
 31
0.0
 12
-4.076201999999999
 22
0.5242510000000002
 32
0.0
 13
-4.076201999999999
 23
0.5242510000000002
 33
0.0
210
0.0
220
0.0
230
-1.0
  0
SOLID
  5
A19
330
9F6
100
AcDbEntity
  8
0
  6
Continuous
 62
     7
100
AcDbTrace
 10
-8.383689999999999
 20
0.6832570000000002
 30
0.0
 11
-8.383689999999999
 21
0.451111
 31
0.0
 12
-7.08518
 22
0.467108
 32
0.0
 13
-7.08518
 23
0.467108
 33
0.0
210
0.0
220
0.0
230
-1.0
  0
SOLID
  5
A1A
330
9F6
100
AcDbEntity
  8
0
  6
Continuous
 62
     7
100
AcDbTrace
 10
-4.076201999999999
 20
0.7686690000000001
 30
0.0
 11
-5.374711999999999
 21
0.551582
 31
0.0
 12
-4.076201999999999
 22
0.5242510000000002
 32
0.0
 13
-4.076201999999999
 23
0.5242510000000002
 33
0.0
210
0.0
220
0.0
230
-1.0
  0
SOLID
  5
A1B
330
9F6
100
AcDbEntity
  8
0
  6
Continuous
 62
     7
100
AcDbTrace
 10
-5.374711999999999
 20
0.8244699999999999
 30
0.0
 11
-5.374711999999999
 21
0.551582
 31
0.0
 12
-4.076201999999999
 22
0.7686690000000001
 32
0.0
 13
-4.076201999999999
 23
0.7686690000000001
 33
0.0
210
0.0
220
0.0
230
-1.0
  0
SOLID
  5
A1C
330
9F6
100
AcDbEntity
  8
0
  6
Continuous
 62
     7
100
AcDbTrace
 10
-8.383689999999999
 20
0.9501739999999999
 30
0.0
 11
-8.383689999999999
 21
0.6832570000000002
 31
0.0
 12
-7.08518
 22
0.467108
 32
0.0
 13
-7.08518
 23
0.467108
 33
0.0
210
0.0
220
0.0
230
-1.0
  0
SOLID
  5
A1D
330
9F6
100
AcDbEntity
  8
0
  6
Continuous
 62
     7
100
AcDbTrace
 10
-7.08518
 20
1.015129999999998
 30
0.0
 11
-8.383689999999999
 21
0.9501739999999999
 31
0.0
 12
-7.08518
 22
0.467108
 32
0.0
 13
-7.08518
 23
0.467108
 33
0.0
210
0.0
220
0.0
230
-1.0
  0
SOLID
  5
A1E
330
9F6
100
AcDbEntity
  8
0
  6
Continuous
 62
     7
100
AcDbTrace
 10
-4.076201999999999
 20
1.045812999999998
 30
0.0
 11
-5.374711999999999
 21
0.8244699999999999
 31
0.0
 12
-4.076201999999999
 22
0.7686690000000001
 32
0.0
 13
-4.076201999999999
 23
0.7686690000000001
 33
0.0
210
0.0
220
0.0
230
-1.0
  0
SOLID
  5
A1F
330
9F6
100
AcDbEntity
  8
0
  6
Continuous
 62
     7
100
AcDbTrace
 10
-8.383689999999999
 20
1.245725999999999
 30
0.0
 11
-8.383689999999999
 21
0.9501739999999999
 31
0.0
 12
-7.08518
 22
1.015129999999998
 32
0.0
 13
-7.08518
 23
1.015129999999998
 33
0.0
210
0.0
220
0.0
230
-1.0
  0
SOLID
  5
A20
330
9F6
100
AcDbEntity
  8
0
  6
Continuous
 62
     7
100
AcDbTrace
 10
-4.076201999999999
 20
1.349545999999999
 30
0.0
 11
-5.374711999999999
 21
0.8244699999999999
 31
0.0
 12
-4.076201999999999
 22
1.045812999999998
 32
0.0
 13
-4.076201999999999
 23
1.045812999999998
 33
0.0
210
0.0
220
0.0
230
-1.0
  0
SOLID
  5
A21
330
9F6
100
AcDbEntity
  8
0
  6
Continuous
 62
     7
100
AcDbTrace
 10
-5.374711999999999
 20
1.39046
 30
0.0
 11
-5.374711999999999
 21
0.8244699999999999
 31
0.0
 12
-4.076201999999999
 22
1.349545999999999
 32
0.0
 13
-4.076201999999999
 23
1.349545999999999
 33
0.0
210
0.0
220
0.0
230
-1.0
  0
SOLID
  5
A22
330
9F6
100
AcDbEntity
  8
0
  6
Continuous
 62
     7
100
AcDbTrace
 10
-7.08518
 20
1.563152
 30
0.0
 11
-8.383689999999999
 21
1.245725999999999
 31
0.0
 12
-7.08518
 22
1.015129999999998
 32
0.0
 13
-7.08518
 23
1.015129999999998
 33
0.0
210
0.0
220
0.0
230
-1.0
  0
SOLID
  5
A23
330
9F6
100
AcDbEntity
  8
0
  6
Continuous
 62
     7
100
AcDbTrace
 10
-8.383689999999999
 20
1.563776
 30
0.0
 11
-8.383689999999999
 21
1.245725999999999
 31
0.0
 12
-7.08518
 22
1.563152
 32
0.0
 13
-7.08518
 23
1.563152
 33
0.0
210
0.0
220
0.0
230
-1.0
  0
SOLID
  5
A24
330
9F6
100
AcDbEntity
  8
0
  6
Continuous
 62
     7
100
AcDbTrace
 10
-5.374711999999999
 20
1.643134
 30
0.0
 11
-5.374711999999999
 21
1.39046
 31
0.0
 12
-4.076201999999999
 22
1.349545999999999
 32
0.0
 13
-4.076201999999999
 23
1.349545999999999
 33
0.0
210
0.0
220
0.0
230
-1.0
  0
SOLID
  5
A25
330
9F6
100
AcDbEntity
  8
0
  6
Continuous
 62
     7
100
AcDbTrace
 10
-7.08518
 20
1.786627999999998
 30
0.0
 11
-8.383689999999999
 21
1.563776
 31
0.0
 12
-7.08518
 22
1.563152
 32
0.0
 13
-7.08518
 23
1.563152
 33
0.0
210
0.0
220
0.0
230
-1.0
  0
SOLID
  5
A26
330
9F6
100
AcDbEntity
  8
0
  6
Continuous
 62
     7
100
AcDbTrace
 10
-5.374711999999999
 20
1.848641999999999
 30
0.0
 11
-5.374711999999999
 21
1.643134
 31
0.0
 12
-4.076201999999999
 22
1.349545999999999
 32
0.0
 13
-4.076201999999999
 23
1.349545999999999
 33
0.0
210
0.0
220
0.0
230
-1.0
  0
SOLID
  5
A27
330
9F6
100
AcDbEntity
  8
0
  6
Continuous
 62
     7
100
AcDbTrace
 10
-7.08518
 20
1.949461999999998
 30
0.0
 11
-8.383689999999999
 21
1.563776
 31
0.0
 12
-7.08518
 22
1.786627999999998
 32
0.0
 13
-7.08518
 23
1.786627999999998
 33
0.0
210
0.0
220
0.0
230
-1.0
  0
SOLID
  5
A28
330
9F6
100
AcDbEntity
  8
0
  6
Continuous
 62
     7
100
AcDbTrace
 10
-5.374711999999999
 20
1.986770999999998
 30
0.0
 11
-5.374711999999999
 21
1.848641999999999
 31
0.0
 12
-4.076201999999999
 22
1.349545999999999
 32
0.0
 13
-4.076201999999999
 23
1.349545999999999
 33
0.0
210
0.0
220
0.0
230
-1.0
  0
SOLID
  5
A29
330
9F6
100
AcDbEntity
  8
0
  6
Continuous
 62
     7
100
AcDbTrace
 10
-7.08518
 20
2.001822
 30
0.0
 11
-8.383689999999999
 21
1.563776
 31
0.0
 12
-7.08518
 22
1.949461999999998
 32
0.0
 13
-7.08518
 23
1.949461999999998
 33
0.0
210
0.0
220
0.0
230
-1.0
  0
SOLID
  5
A2A
330
9F6
100
AcDbEntity
  8
0
  6
Continuous
 62
     7
100
AcDbTrace
 10
-4.076201999999999
 20
2.012236
 30
0.0
 11
-5.374711999999999
 21
1.986770999999998
 31
0.0
 12
-4.076201999999999
 22
1.349545999999999
 32
0.0
 13
-4.076201999999999
 23
1.349545999999999
 33
0.0
210
0.0
220
0.0
230
-1.0
  0
SOLID
  5
A2B
330
9F6
100
AcDbEntity
  8
0
  6
Continuous
 62
     7
100
AcDbTrace
 10
-5.374711999999999
 20
2.024251
 30
0.0
 11
-5.374711999999999
 21
1.986770999999998
 31
0.0
 12
-4.076201999999999
 22
2.012236
 32
0.0
 13
-4.076201999999999
 23
2.012236
 33
0.0
210
0.0
220
0.0
230
-1.0
  0
SOLID
  5
A2C
330
9F6
100
AcDbEntity
  8
0
  6
Continuous
 62
     7
100
AcDbTrace
 10
-7.08518
 20
2.031441
 30
0.0
 11
-8.383689999999999
 21
1.563776
 31
0.0
 12
-7.08518
 22
2.001822
 32
0.0
 13
-7.08518
 23
2.001822
 33
0.0
210
0.0
220
0.0
230
-1.0
  0
SOLID
  5
A2D
330
9F6
100
AcDbEntity
  8
0
  6
Continuous
 62
     7
100
AcDbTrace
 10
-5.374711999999999
 20
2.037304999999999
 30
0.0
 11
-5.374711999999999
 21
2.024251
 31
0.0
 12
-4.076201999999999
 22
2.012236
 32
0.0
 13
-4.076201999999999
 23
2.012236
 33
0.0
210
0.0
220
0.0
230
-1.0
  0
SOLID
  5
A2E
330
9F6
100
AcDbEntity
  8
0
  6
Continuous
 62
     7
100
AcDbTrace
 10
-8.383689999999999
 20
2.938245
 30
0.0
 11
-5.416993999999998
 21
2.037304999999999
 31
0.0
 12
-5.374711999999999
 22
2.037304999999999
 32
0.0
 13
-5.374711999999999
 23
2.037304999999999
 33
0.0
210
0.0
220
0.0
230
-1.0
  0
SOLID
  5
A2F
330
9F6
100
AcDbEntity
  8
0
  6
Continuous
 62
     7
100
AcDbTrace
 10
-8.383689999999999
 20
2.938245
 30
0.0
 11
-5.532562999999998
 21
2.037304999999999
 31
0.0
 12
-5.416993999999998
 22
2.037304999999999
 32
0.0
 13
-5.416993999999998
 23
2.037304999999999
 33
0.0
210
0.0
220
0.0
230
-1.0
  0
SOLID
  5
A30
330
9F6
100
AcDbEntity
  8
0
  6
Continuous
 62
     7
100
AcDbTrace
 10
-8.383689999999999
 20
2.938245
 30
0.0
 11
-5.704507999999999
 21
2.037304999999999
 31
0.0
 12
-5.532562999999998
 22
2.037304999999999
 32
0.0
 13
-5.532562999999998
 23
2.037304999999999
 33
0.0
210
0.0
220
0.0
230
-1.0
  0
SOLID
  5
A31
330
9F6
100
AcDbEntity
  8
0
  6
Continuous
 62
     7
100
AcDbTrace
 10
-8.383689999999999
 20
2.938245
 30
0.0
 11
-5.915915
 21
2.037304999999999
 31
0.0
 12
-5.704507999999999
 22
2.037304999999999
 32
0.0
 13
-5.704507999999999
 23
2.037304999999999
 33
0.0
210
0.0
220
0.0
230
-1.0
  0
SOLID
  5
A32
330
9F6
100
AcDbEntity
  8
0
  6
Continuous
 62
     7
100
AcDbTrace
 10
-8.383689999999999
 20
2.938245
 30
0.0
 11
-6.389466999999998
 21
2.037304999999999
 31
0.0
 12
-5.915915
 22
2.037304999999999
 32
0.0
 13
-5.915915
 23
2.037304999999999
 33
0.0
210
0.0
220
0.0
230
-1.0
  0
SOLID
  5
A33
330
9F6
100
AcDbEntity
  8
0
  6
Continuous
 62
     7
100
AcDbTrace
 10
-8.383689999999999
 20
2.938245
 30
0.0
 11
-6.617786999999998
 21
2.037304999999999
 31
0.0
 12
-6.389466999999998
 22
2.037304999999999
 32
0.0
 13
-6.389466999999998
 23
2.037304999999999
 33
0.0
210
0.0
220
0.0
230
-1.0
  0
SOLID
  5
A34
330
9F6
100
AcDbEntity
  8
0
  6
Continuous
 62
     7
100
AcDbTrace
 10
-8.383689999999999
 20
2.938245
 30
0.0
 11
-6.817918999999998
 21
2.037304999999999
 31
0.0
 12
-6.617786999999998
 22
2.037304999999999
 32
0.0
 13
-6.617786999999998
 23
2.037304999999999
 33
0.0
210
0.0
220
0.0
230
-1.0
  0
SOLID
  5
A35
330
9F6
100
AcDbEntity
  8
0
  6
Continuous
 62
     7
100
AcDbTrace
 10
-8.383689999999999
 20
2.938245
 30
0.0
 11
-6.972950999999999
 21
2.037304999999999
 31
0.0
 12
-6.817918999999998
 22
2.037304999999999
 32
0.0
 13
-6.817918999999998
 23
2.037304999999999
 33
0.0
210
0.0
220
0.0
230
-1.0
  0
SOLID
  5
A36
330
9F6
100
AcDbEntity
  8
0
  6
Continuous
 62
     7
100
AcDbTrace
 10
-8.383689999999999
 20
2.938245
 30
0.0
 11
-7.06597
 21
2.037304999999999
 31
0.0
 12
-6.972950999999999
 22
2.037304999999999
 32
0.0
 13
-6.972950999999999
 23
2.037304999999999
 33
0.0
210
0.0
220
0.0
230
-1.0
  0
SOLID
  5
A37
330
9F6
100
AcDbEntity
  8
0
  6
Continuous
 62
     7
100
AcDbTrace
 10
-8.383689999999999
 20
2.938245
 30
0.0
 11
-7.08518
 21
2.031441
 31
0.0
 12
-7.06597
 22
2.037304999999999
 32
0.0
 13
-7.06597
 23
2.037304999999999
 33
0.0
210
0.0
220
0.0
230
-1.0
  0
SOLID
  5
A38
330
9F6
100
AcDbEntity
  8
0
  6
Continuous
 62
     7
100
AcDbTrace
 10
-8.383689999999999
 20
2.938245
 30
0.0
 11
-8.383689999999999
 21
1.563776
 31
0.0
 12
-7.08518
 22
2.031441
 32
0.0
 13
-7.08518
 23
2.031441
 33
0.0
210
0.0
220
0.0
230
-1.0
  0
SOLID
  5
A39
330
9F6
100
AcDbEntity
  8
0
  6
Continuous
 62
     7
100
AcDbTrace
 10
-7.08518
 20
3.149747
 30
0.0
 11
-8.383689999999999
 21
2.938245
 31
0.0
 12
-5.374711999999999
 22
2.037304999999999
 32
0.0
 13
-5.374711999999999
 23
2.037304999999999
 33
0.0
210
0.0
220
0.0
230
-1.0
  0
SOLID
  5
A3A
330
9F6
100
AcDbEntity
  8
0
  6
Continuous
 62
     7
100
AcDbTrace
 10
-7.08518
 20
3.149747
 30
0.0
 11
-5.374711999999999
 21
2.037304999999999
 31
0.0
 12
-4.076201999999999
 22
2.012236
 32
0.0
 13
-4.076201999999999
 23
2.012236
 33
0.0
210
0.0
220
0.0
230
-1.0
  0
SOLID
  5
A3B
330
9F6
100
AcDbEntity
  8
0
  6
Continuous
 62
     7
100
AcDbTrace
 10
-4.076201999999999
 20
2.012236
 30
0.0
 11
-7.042897999999999
 21
3.149747
 31
0.0
 12
-7.08518
 22
3.149747
 32
0.0
 13
-7.08518
 23
3.149747
 33
0.0
210
0.0
220
0.0
230
-1.0
  0
SOLID
  5
A3C
330
9F6
100
AcDbEntity
  8
0
  6
Continuous
 62
     7
100
AcDbTrace
 10
-4.076201999999999
 20
2.012236
 30
0.0
 11
-6.927328999999999
 21
3.149747
 31
0.0
 12
-7.042897999999999
 22
3.149747
 32
0.0
 13
-7.042897999999999
 23
3.149747
 33
0.0
210
0.0
220
0.0
230
-1.0
  0
SOLID
  5
A3D
330
9F6
100
AcDbEntity
  8
0
  6
Continuous
 62
     7
100
AcDbTrace
 10
-4.076201999999999
 20
2.012236
 30
0.0
 11
-6.755383999999999
 21
3.149747
 31
0.0
 12
-6.927328999999999
 22
3.149747
 32
0.0
 13
-6.927328999999999
 23
3.149747
 33
0.0
210
0.0
220
0.0
230
-1.0
  0
SOLID
  5
A3E
330
9F6
100
AcDbEntity
  8
0
  6
Continuous
 62
     7
100
AcDbTrace
 10
-4.076201999999999
 20
2.012236
 30
0.0
 11
-6.543976999999999
 21
3.149747
 31
0.0
 12
-6.755383999999999
 22
3.149747
 32
0.0
 13
-6.755383999999999
 23
3.149747
 33
0.0
210
0.0
220
0.0
230
-1.0
  0
SOLID
  5
A3F
330
9F6
100
AcDbEntity
  8
0
  6
Continuous
 62
     7
100
AcDbTrace
 10
-4.076201999999999
 20
2.012236
 30
0.0
 11
-6.070425
 21
3.149747
 31
0.0
 12
-6.543976999999999
 22
3.149747
 32
0.0
 13
-6.543976999999999
 23
3.149747
 33
0.0
210
0.0
220
0.0
230
-1.0
  0
SOLID
  5
A40
330
9F6
100
AcDbEntity
  8
0
  6
Continuous
 62
     7
100
AcDbTrace
 10
-4.076201999999999
 20
2.012236
 30
0.0
 11
-5.842105
 21
3.149747
 31
0.0
 12
-6.070425
 22
3.149747
 32
0.0
 13
-6.070425
 23
3.149747
 33
0.0
210
0.0
220
0.0
230
-1.0
  0
SOLID
  5
A41
330
9F6
100
AcDbEntity
  8
0
  6
Continuous
 62
     7
100
AcDbTrace
 10
-4.076201999999999
 20
2.012236
 30
0.0
 11
-5.641973
 21
3.149747
 31
0.0
 12
-5.842105
 22
3.149747
 32
0.0
 13
-5.842105
 23
3.149747
 33
0.0
210
0.0
220
0.0
230
-1.0
  0
SOLID
  5
A42
330
9F6
100
AcDbEntity
  8
0
  6
Continuous
 62
     7
100
AcDbTrace
 10
-4.076201999999999
 20
2.012236
 30
0.0
 11
-5.486940999999999
 21
3.149747
 31
0.0
 12
-5.641973
 22
3.149747
 32
0.0
 13
-5.641973
 23
3.149747
 33
0.0
210
0.0
220
0.0
230
-1.0
  0
SOLID
  5
A43
330
9F6
100
AcDbEntity
  8
0
  6
Continuous
 62
     7
100
AcDbTrace
 10
-4.076201999999999
 20
2.012236
 30
0.0
 11
-5.393921999999998
 21
3.149747
 31
0.0
 12
-5.486940999999999
 22
3.149747
 32
0.0
 13
-5.486940999999999
 23
3.149747
 33
0.0
210
0.0
220
0.0
230
-1.0
  0
SOLID
  5
A44
330
9F6
100
AcDbEntity
  8
0
  6
Continuous
 62
     7
100
AcDbTrace
 10
-5.374711999999999
 20
3.154933
 30
0.0
 11
-5.393921999999998
 21
3.149747
 31
0.0
 12
-4.076201999999999
 22
2.012236
 32
0.0
 13
-4.076201999999999
 23
2.012236
 33
0.0
210
0.0
220
0.0
230
-1.0
  0
SOLID
  5
A45
330
9F6
100
AcDbEntity
  8
0
  6
Continuous
 62
     7
100
AcDbTrace
 10
-7.08518
 20
3.161290999999998
 30
0.0
 11
-8.383689999999999
 21
2.938245
 31
0.0
 12
-7.08518
 22
3.149747
 32
0.0
 13
-7.08518
 23
3.149747
 33
0.0
210
0.0
220
0.0
230
-1.0
  0
SOLID
  5
A46
330
9F6
100
AcDbEntity
  8
0
  6
Continuous
 62
     7
100
AcDbTrace
 10
-7.08518
 20
3.194434
 30
0.0
 11
-8.383689999999999
 21
2.938245
 31
0.0
 12
-7.08518
 22
3.161290999999998
 32
0.0
 13
-7.08518
 23
3.161290999999998
 33
0.0
210
0.0
220
0.0
230
-1.0
  0
SOLID
  5
A47
330
9F6
100
AcDbEntity
  8
0
  6
Continuous
 62
     7
100
AcDbTrace
 10
-5.374711999999999
 20
3.227425
 30
0.0
 11
-5.374711999999999
 21
3.154933
 31
0.0
 12
-4.076201999999999
 22
2.012236
 32
0.0
 13
-4.076201999999999
 23
2.012236
 33
0.0
210
0.0
220
0.0
230
-1.0
  0
SOLID
  5
A48
330
9F6
100
AcDbEntity
  8
0
  6
Continuous
 62
     7
100
AcDbTrace
 10
-7.08518
 20
3.316577999999998
 30
0.0
 11
-8.383689999999999
 21
2.938245
 31
0.0
 12
-7.08518
 22
3.194434
 32
0.0
 13
-7.08518
 23
3.194434
 33
0.0
210
0.0
220
0.0
230
-1.0
  0
SOLID
  5
A49
330
9F6
100
AcDbEntity
  8
0
  6
Continuous
 62
     7
100
AcDbTrace
 10
-5.374711999999999
 20
3.371415999999999
 30
0.0
 11
-5.374711999999999
 21
3.227425
 31
0.0
 12
-4.076201999999999
 22
2.012236
 32
0.0
 13
-4.076201999999999
 23
2.012236
 33
0.0
210
0.0
220
0.0
230
-1.0
  0
SOLID
  5
A4A
330
9F6
100
AcDbEntity
  8
0
  6
Continuous
 62
     7
100
AcDbTrace
 10
-4.076201999999999
 20
3.386705
 30
0.0
 11
-5.374711999999999
 21
3.371415999999999
 31
0.0
 12
-4.076201999999999
 22
2.012236
 32
0.0
 13
-4.076201999999999
 23
2.012236
 33
0.0
210
0.0
220
0.0
230
-1.0
  0
SOLID
  5
A4B
330
9F6
100
AcDbEntity
  8
0
  6
Continuous
 62
     7
100
AcDbTrace
 10
-7.08518
 20
3.498305
 30
0.0
 11
-8.383689999999999
 21
2.938245
 31
0.0
 12
-7.08518
 22
3.316577999999998
 32
0.0
 13
-7.08518
 23
3.316577999999998
 33
0.0
210
0.0
220
0.0
230
-1.0
  0
SOLID
  5
A4C
330
9F6
100
AcDbEntity
  8
0
  6
Continuous
 62
     7
100
AcDbTrace
 10
-5.374711999999999
 20
3.569031999999999
 30
0.0
 11
-5.374711999999999
 21
3.371415999999999
 31
0.0
 12
-4.076201999999999
 22
3.386705
 32
0.0
 13
-4.076201999999999
 23
3.386705
 33
0.0
210
0.0
220
0.0
230
-1.0
  0
SOLID
  5
A4D
330
9F6
100
AcDbEntity
  8
0
  6
Continuous
 62
     7
100
AcDbTrace
 10
-8.383689999999999
 20
3.600935999999999
 30
0.0
 11
-8.383689999999999
 21
2.938245
 31
0.0
 12
-7.08518
 22
3.498305
 32
0.0
 13
-7.08518
 23
3.498305
 33
0.0
210
0.0
220
0.0
230
-1.0
  0
SOLID
  5
A4E
330
9F6
100
AcDbEntity
  8
0
  6
Continuous
 62
     7
100
AcDbTrace
 10
-4.076201999999999
 20
3.704755999999998
 30
0.0
 11
-5.374711999999999
 21
3.569031999999999
 31
0.0
 12
-4.076201999999999
 22
3.386705
 32
0.0
 13
-4.076201999999999
 23
3.386705
 33
0.0
210
0.0
220
0.0
230
-1.0
  0
SOLID
  5
A4F
330
9F6
100
AcDbEntity
  8
0
  6
Continuous
 62
     7
100
AcDbTrace
 10
-7.08518
 20
3.72174
 30
0.0
 11
-8.383689999999999
 21
3.600935999999999
 31
0.0
 12
-7.08518
 22
3.498305
 32
0.0
 13
-7.08518
 23
3.498305
 33
0.0
210
0.0
220
0.0
230
-1.0
  0
SOLID
  5
A50
330
9F6
100
AcDbEntity
  8
0
  6
Continuous
 62
     7
100
AcDbTrace
 10
-8.383689999999999
 20
3.904669
 30
0.0
 11
-8.383689999999999
 21
3.600935999999999
 31
0.0
 12
-7.08518
 22
3.72174
 32
0.0
 13
-7.08518
 23
3.72174
 33
0.0
210
0.0
220
0.0
230
-1.0
  0
SOLID
  5
A51
330
9F6
100
AcDbEntity
  8
0
  6
Continuous
 62
     7
100
AcDbTrace
 10
-4.076201999999999
 20
4.000308
 30
0.0
 11
-5.374711999999999
 21
3.569031999999999
 31
0.0
 12
-4.076201999999999
 22
3.704755999999998
 32
0.0
 13
-4.076201999999999
 23
3.704755999999998
 33
0.0
210
0.0
220
0.0
230
-1.0
  0
SOLID
  5
A52
330
9F6
100
AcDbEntity
  8
0
  6
Continuous
 62
     7
100
AcDbTrace
 10
-5.374711999999999
 20
4.053637
 30
0.0
 11
-5.374711999999999
 21
3.569031999999999
 31
0.0
 12
-4.076201999999999
 22
4.000308
 32
0.0
 13
-4.076201999999999
 23
4.000308
 33
0.0
210
0.0
220
0.0
230
-1.0
  0
SOLID
  5
A53
330
9F6
100
AcDbEntity
  8
0
  6
Continuous
 62
     7
100
AcDbTrace
 10
-8.383689999999999
 20
4.181813
 30
0.0
 11
-8.383689999999999
 21
3.904669
 31
0.0
 12
-7.08518
 22
3.72174
 32
0.0
 13
-7.08518
 23
3.72174
 33
0.0
210
0.0
220
0.0
230
-1.0
  0
SOLID
  5
A54
330
9F6
100
AcDbEntity
  8
0
  6
Continuous
 62
     7
100
AcDbTrace
 10
-7.08518
 20
4.222233999999999
 30
0.0
 11
-8.383689999999999
 21
4.181813
 31
0.0
 12
-7.08518
 22
3.72174
 32
0.0
 13
-7.08518
 23
3.72174
 33
0.0
210
0.0
220
0.0
230
-1.0
  0
SOLID
  5
A55
330
9F6
100
AcDbEntity
  8
0
  6
Continuous
 62
     7
100
AcDbTrace
 10
-4.076201999999999
 20
4.267224999999998
 30
0.0
 11
-5.374711999999999
 21
4.053637
 31
0.0
 12
-4.076201999999999
 22
4.000308
 32
0.0
 13
-4.076201999999999
 23
4.000308
 33
0.0
210
0.0
220
0.0
230
-1.0
  0
SOLID
  5
A56
330
9F6
100
AcDbEntity
  8
0
  6
Continuous
 62
     7
100
AcDbTrace
 10
-8.383689999999999
 20
4.426230999999998
 30
0.0
 11
-8.383689999999999
 21
4.181813
 31
0.0
 12
-7.08518
 22
4.222233999999999
 32
0.0
 13
-7.08518
 23
4.222233999999999
 33
0.0
210
0.0
220
0.0
230
-1.0
  0
SOLID
  5
A57
330
9F6
100
AcDbEntity
  8
0
  6
Continuous
 62
     7
100
AcDbTrace
 10
-7.08518
 20
4.463542999999998
 30
0.0
 11
-8.383689999999999
 21
4.426230999999998
 31
0.0
 12
-7.08518
 22
4.222233999999999
 32
0.0
 13
-7.08518
 23
4.222233999999999
 33
0.0
210
0.0
220
0.0
230
-1.0
  0
SOLID
  5
A58
330
9F6
100
AcDbEntity
  8
0
  6
Continuous
 62
     7
100
AcDbTrace
 10
-4.076201999999999
 20
4.499371
 30
0.0
 11
-5.374711999999999
 21
4.053637
 31
0.0
 12
-4.076201999999999
 22
4.267224999999998
 32
0.0
 13
-4.076201999999999
 23
4.267224999999998
 33
0.0
210
0.0
220
0.0
230
-1.0
  0
SOLID
  5
A59
330
9F6
100
AcDbEntity
  8
0
  6
Continuous
 62
     7
100
AcDbTrace
 10
-5.374711999999999
 20
4.538241999999999
 30
0.0
 11
-5.374711999999999
 21
4.053637
 31
0.0
 12
-4.076201999999999
 22
4.499371
 32
0.0
 13
-4.076201999999999
 23
4.499371
 33
0.0
210
0.0
220
0.0
230
-1.0
  0
SOLID
  5
A5A
330
9F6
100
AcDbEntity
  8
0
  6
Continuous
 62
     7
100
AcDbTrace
 10
-8.383689999999999
 20
4.631787999999999
 30
0.0
 11
-8.383689999999999
 21
4.426230999999998
 31
0.0
 12
-7.08518
 22
4.463542999999998
 32
0.0
 13
-7.08518
 23
4.463542999999998
 33
0.0
210
0.0
220
0.0
230
-1.0
  0
SOLID
  5
A5B
330
9F6
100
AcDbEntity
  8
0
  6
Continuous
 62
     7
100
AcDbTrace
 10
-7.08518
 20
4.675061999999999
 30
0.0
 11
-8.383689999999999
 21
4.631787999999999
 31
0.0
 12
-7.08518
 22
4.463542999999998
 32
0.0
 13
-7.08518
 23
4.463542999999998
 33
0.0
210
0.0
220
0.0
230
-1.0
  0
SOLID
  5
A5C
330
9F6
100
AcDbEntity
  8
0
  6
Continuous
 62
     7
100
AcDbTrace
 10
-4.076201999999999
 20
4.690609999999998
 30
0.0
 11
-5.374711999999999
 21
4.538241999999999
 31
0.0
 12
-4.076201999999999
 22
4.499371
 32
0.0
 13
-4.076201999999999
 23
4.499371
 33
0.0
210
0.0
220
0.0
230
-1.0
  0
SOLID
  5
A5D
330
9F6
100
AcDbEntity
  8
0
  6
Continuous
 62
     7
100
AcDbTrace
 10
-5.374711999999999
 20
4.735858
 30
0.0
 11
-5.374711999999999
 21
4.538241999999999
 31
0.0
 12
-4.076201999999999
 22
4.690609999999998
 32
0.0
 13
-4.076201999999999
 23
4.690609999999998
 33
0.0
210
0.0
220
0.0
230
-1.0
  0
SOLID
  5
A5E
330
9F6
100
AcDbEntity
  8
0
  6
Continuous
 62
     7
100
AcDbTrace
 10
-8.383689999999999
 20
4.792347
 30
0.0
 11
-8.383689999999999
 21
4.631787999999999
 31
0.0
 12
-7.08518
 22
4.675061999999999
 32
0.0
 13
-7.08518
 23
4.675061999999999
 33
0.0
210
0.0
220
0.0
230
-1.0
  0
SOLID
  5
A5F
330
9F6
100
AcDbEntity
  8
0
  6
Continuous
 62
     7
100
AcDbTrace
 10
-4.076201999999999
 20
4.834806999999998
 30
0.0
 11
-5.374711999999999
 21
4.735858
 31
0.0
 12
-4.076201999999999
 22
4.690609999999998
 32
0.0
 13
-4.076201999999999
 23
4.690609999999998
 33
0.0
210
0.0
220
0.0
230
-1.0
  0
SOLID
  5
A60
330
9F6
100
AcDbEntity
  8
0
  6
Continuous
 62
     7
100
AcDbTrace
 10
-7.08518
 20
4.838913999999999
 30
0.0
 11
-8.383689999999999
 21
4.792347
 31
0.0
 12
-7.08518
 22
4.675061999999999
 32
0.0
 13
-7.08518
 23
4.675061999999999
 33
0.0
210
0.0
220
0.0
230
-1.0
  0
SOLID
  5
A61
330
9F6
100
AcDbEntity
  8
0
  6
Continuous
 62
     7
100
AcDbTrace
 10
-5.374711999999999
 20
4.879849
 30
0.0
 11
-5.374711999999999
 21
4.735858
 31
0.0
 12
-4.076201999999999
 22
4.834806999999998
 32
0.0
 13
-4.076201999999999
 23
4.834806999999998
 33
0.0
210
0.0
220
0.0
230
-1.0
  0
SOLID
  5
A62
330
9F6
100
AcDbEntity
  8
0
  6
Continuous
 62
     7
100
AcDbTrace
 10
-8.383689999999999
 20
4.901773
 30
0.0
 11
-8.383689999999999
 21
4.792347
 31
0.0
 12
-7.08518
 22
4.838913999999999
 32
0.0
 13
-7.08518
 23
4.838913999999999
 33
0.0
210
0.0
220
0.0
230
-1.0
  0
SOLID
  5
A63
330
9F6
100
AcDbEntity
  8
0
  6
Continuous
 62
     7
100
AcDbTrace
 10
-4.076201999999999
 20
4.925823999999998
 30
0.0
 11
-5.374711999999999
 21
4.879849
 31
0.0
 12
-4.076201999999999
 22
4.834806999999998
 32
0.0
 13
-4.076201999999999
 23
4.834806999999998
 33
0.0
210
0.0
220
0.0
230
-1.0
  0
SOLID
  5
A64
330
9F6
100
AcDbEntity
  8
0
  6
Continuous
 62
     7
100
AcDbTrace
 10
-7.08518
 20
4.937224999999998
 30
0.0
 11
-8.383689999999999
 21
4.901773
 31
0.0
 12
-7.08518
 22
4.838913999999999
 32
0.0
 13
-7.08518
 23
4.838913999999999
 33
0.0
210
0.0
220
0.0
230
-1.0
  0
SOLID
  5
A65
330
9F6
100
AcDbEntity
  8
0
  6
Continuous
 62
     7
100
AcDbTrace
 10
-5.374711999999999
 20
4.952340999999999
 30
0.0
 11
-5.374711999999999
 21
4.879849
 31
0.0
 12
-4.076201999999999
 22
4.925823999999998
 32
0.0
 13
-4.076201999999999
 23
4.925823999999998
 33
0.0
210
0.0
220
0.0
230
-1.0
  0
SOLID
  5
A66
330
9F6
100
AcDbEntity
  8
0
  6
Continuous
 62
     7
100
AcDbTrace
 10
-8.383689999999999
 20
4.953928999999999
 30
0.0
 11
-8.383689999999999
 21
4.901773
 31
0.0
 12
-7.08518
 22
4.937224999999998
 32
0.0
 13
-7.08518
 23
4.937224999999998
 33
0.0
210
0.0
220
0.0
230
-1.0
  0
SOLID
  5
A67
330
9F6
100
AcDbEntity
  8
0
  6
Continuous
 62
     7
100
AcDbTrace
 10
-5.374711999999999
 20
4.952340999999999
 30
0.0
 11
-5.289512999999998
 21
4.957526999999998
 31
0.0
 12
-5.360128999999998
 22
4.957526999999998
 32
0.0
 13
-5.360128999999998
 23
4.957526999999998
 33
0.0
210
0.0
220
0.0
230
-1.0
  0
SOLID
  5
A68
330
9F6
100
AcDbEntity
  8
0
  6
Continuous
 62
     7
100
AcDbTrace
 10
-5.374711999999999
 20
4.952340999999999
 30
0.0
 11
-5.171819999999999
 21
4.957526999999998
 31
0.0
 12
-5.289512999999998
 22
4.957526999999998
 32
0.0
 13
-5.289512999999998
 23
4.957526999999998
 33
0.0
210
0.0
220
0.0
230
-1.0
  0
SOLID
  5
A69
330
9F6
100
AcDbEntity
  8
0
  6
Continuous
 62
     7
100
AcDbTrace
 10
-5.374711999999999
 20
4.952340999999999
 30
0.0
 11
-5.019889
 21
4.957526999999998
 31
0.0
 12
-5.171819999999999
 22
4.957526999999998
 32
0.0
 13
-5.171819999999999
 23
4.957526999999998
 33
0.0
210
0.0
220
0.0
230
-1.0
  0
SOLID
  5
A6A
330
9F6
100
AcDbEntity
  8
0
  6
Continuous
 62
     7
100
AcDbTrace
 10
-5.374711999999999
 20
4.952340999999999
 30
0.0
 11
-4.846557999999999
 21
4.957526999999998
 31
0.0
 12
-5.019889
 22
4.957526999999998
 32
0.0
 13
-5.019889
 23
4.957526999999998
 33
0.0
210
0.0
220
0.0
230
-1.0
  0
SOLID
  5
A6B
330
9F6
100
AcDbEntity
  8
0
  6
Continuous
 62
     7
100
AcDbTrace
 10
-5.374711999999999
 20
4.952340999999999
 30
0.0
 11
-4.487058999999998
 21
4.957526999999998
 31
0.0
 12
-4.846557999999999
 22
4.957526999999998
 32
0.0
 13
-4.846557999999999
 23
4.957526999999998
 33
0.0
210
0.0
220
0.0
230
-1.0
  0
SOLID
  5
A6C
330
9F6
100
AcDbEntity
  8
0
  6
Continuous
 62
     7
100
AcDbTrace
 10
-5.374711999999999
 20
4.952340999999999
 30
0.0
 11
-4.326567999999999
 21
4.957526999999998
 31
0.0
 12
-4.487058999999998
 22
4.957526999999998
 32
0.0
 13
-4.487058999999998
 23
4.957526999999998
 33
0.0
210
0.0
220
0.0
230
-1.0
  0
SOLID
  5
A6D
330
9F6
100
AcDbEntity
  8
0
  6
Continuous
 62
     7
100
AcDbTrace
 10
-5.374711999999999
 20
4.952340999999999
 30
0.0
 11
-4.196035
 21
4.957526999999998
 31
0.0
 12
-4.326567999999999
 22
4.957526999999998
 32
0.0
 13
-4.326567999999999
 23
4.957526999999998
 33
0.0
210
0.0
220
0.0
230
-1.0
  0
SOLID
  5
A6E
330
9F6
100
AcDbEntity
  8
0
  6
Continuous
 62
     7
100
AcDbTrace
 10
-5.374711999999999
 20
4.952340999999999
 30
0.0
 11
-4.108299999999998
 21
4.957526999999998
 31
0.0
 12
-4.196035
 22
4.957526999999998
 32
0.0
 13
-4.196035
 23
4.957526999999998
 33
0.0
210
0.0
220
0.0
230
-1.0
  0
SOLID
  5
A6F
330
9F6
100
AcDbEntity
  8
0
  6
Continuous
 62
     7
100
AcDbTrace
 10
-5.374711999999999
 20
4.952340999999999
 30
0.0
 11
-4.076201999999999
 21
4.957526999999998
 31
0.0
 12
-4.108299999999998
 22
4.957526999999998
 32
0.0
 13
-4.108299999999998
 23
4.957526999999998
 33
0.0
210
0.0
220
0.0
230
-1.0
  0
SOLID
  5
A70
330
9F6
100
AcDbEntity
  8
0
  6
Continuous
 62
     7
100
AcDbTrace
 10
-4.076201999999999
 20
4.957526999999998
 30
0.0
 11
-5.374711999999999
 21
4.952340999999999
 31
0.0
 12
-4.076201999999999
 22
4.925823999999998
 32
0.0
 13
-4.076201999999999
 23
4.925823999999998
 33
0.0
210
0.0
220
0.0
230
-1.0
  0
SOLID
  5
A71
330
9F6
100
AcDbEntity
  8
0
  6
Continuous
 62
     7
100
AcDbTrace
 10
-8.383689999999999
 20
4.953928999999999
 30
0.0
 11
-8.327894999999999
 21
4.957526999999998
 31
0.0
 12
-8.379964999999998
 22
4.957526999999998
 32
0.0
 13
-8.379964999999998
 23
4.957526999999998
 33
0.0
210
0.0
220
0.0
230
-1.0
  0
SOLID
  5
A72
330
9F6
100
AcDbEntity
  8
0
  6
Continuous
 62
     7
100
AcDbTrace
 10
-8.383689999999999
 20
4.953928999999999
 30
0.0
 11
-8.224467
 21
4.957526999999998
 31
0.0
 12
-8.327894999999999
 22
4.957526999999998
 32
0.0
 13
-8.327894999999999
 23
4.957526999999998
 33
0.0
210
0.0
220
0.0
230
-1.0
  0
SOLID
  5
A73
330
9F6
100
AcDbEntity
  8
0
  6
Continuous
 62
     7
100
AcDbTrace
 10
-8.383689999999999
 20
4.953928999999999
 30
0.0
 11
-8.082522
 21
4.957526999999998
 31
0.0
 12
-8.224467
 22
4.957526999999998
 32
0.0
 13
-8.224467
 23
4.957526999999998
 33
0.0
210
0.0
220
0.0
230
-1.0
  0
SOLID
  5
A74
330
9F6
100
AcDbEntity
  8
0
  6
Continuous
 62
     7
100
AcDbTrace
 10
-8.383689999999999
 20
4.953928999999999
 30
0.0
 11
-7.734435
 21
4.957526999999998
 31
0.0
 12
-8.082522
 22
4.957526999999998
 32
0.0
 13
-8.082522
 23
4.957526999999998
 33
0.0
210
0.0
220
0.0
230
-1.0
  0
SOLID
  5
A75
330
9F6
100
AcDbEntity
  8
0
  6
Continuous
 62
     7
100
AcDbTrace
 10
-8.383689999999999
 20
4.953928999999999
 30
0.0
 11
-7.386347999999999
 21
4.957526999999998
 31
0.0
 12
-7.734435
 22
4.957526999999998
 32
0.0
 13
-7.734435
 23
4.957526999999998
 33
0.0
210
0.0
220
0.0
230
-1.0
  0
SOLID
  5
A76
330
9F6
100
AcDbEntity
  8
0
  6
Continuous
 62
     7
100
AcDbTrace
 10
-8.383689999999999
 20
4.953928999999999
 30
0.0
 11
-7.244403
 21
4.957526999999998
 31
0.0
 12
-7.386347999999999
 22
4.957526999999998
 32
0.0
 13
-7.386347999999999
 23
4.957526999999998
 33
0.0
210
0.0
220
0.0
230
-1.0
  0
SOLID
  5
A77
330
9F6
100
AcDbEntity
  8
0
  6
Continuous
 62
     7
100
AcDbTrace
 10
-8.383689999999999
 20
4.953928999999999
 30
0.0
 11
-7.140975
 21
4.957526999999998
 31
0.0
 12
-7.244403
 22
4.957526999999998
 32
0.0
 13
-7.244403
 23
4.957526999999998
 33
0.0
210
0.0
220
0.0
230
-1.0
  0
SOLID
  5
A78
330
9F6
100
AcDbEntity
  8
0
  6
Continuous
 62
     7
100
AcDbTrace
 10
-8.383689999999999
 20
4.953928999999999
 30
0.0
 11
-7.088904999999999
 21
4.957526999999998
 31
0.0
 12
-7.140975
 22
4.957526999999998
 32
0.0
 13
-7.140975
 23
4.957526999999998
 33
0.0
210
0.0
220
0.0
230
-1.0
  0
SOLID
  5
A79
330
9F6
100
AcDbEntity
  8
0
  6
Continuous
 62
     7
100
AcDbTrace
 10
-7.088904999999999
 20
4.957526999999998
 30
0.0
 11
-8.383689999999999
 21
4.953928999999999
 31
0.0
 12
-7.08518
 22
4.937224999999998
 32
0.0
 13
-7.08518
 23
4.937224999999998
 33
0.0
210
0.0
220
0.0
230
-1.0
  0
ENDBLK
  5
A7B
330
9F6
100
AcDbEntity
  8
0
100
AcDbBlockEnd
  0
BLOCK
  5
ADD
330
A7C
100
AcDbEntity
  8
0
100
AcDbBlockBegin
  2
*U9
 70
     1
 10
0.0
 20
0.0
 30
0.0
  3
*U9
  1

  0
SOLID
  5
A7D
330
A7C
100
AcDbEntity
  8
0
  6
Continuous
 62
     7
100
AcDbTrace
 10
-10.54739499999999
 20
-0.097945
 30
0.0
 11
-11.12031699999999
 21
-0.097945
 31
0.0
 12
-10.833846
 22
-0.111181
 32
0.0
 13
-10.833846
 23
-0.111181
 33
0.0
210
0.0
220
0.0
230
-1.0
  0
SOLID
  5
A7E
330
A7C
100
AcDbEntity
  8
0
  6
Continuous
 62
     7
100
AcDbTrace
 10
-11.39045199999998
 20
-0.059073
 30
0.0
 11
-11.12031699999999
 21
-0.097945
 31
0.0
 12
-10.54739499999999
 22
-0.097945
 32
0.0
 13
-10.54739499999999
 23
-0.097945
 33
0.0
210
0.0
220
0.0
230
-1.0
  0
SOLID
  5
A7F
330
A7C
100
AcDbEntity
  8
0
  6
Continuous
 62
     7
100
AcDbTrace
 10
-10.27727599999999
 20
-0.059073
 30
0.0
 11
-11.39045199999998
 21
-0.059073
 31
0.0
 12
-10.54739499999999
 22
-0.097945
 32
0.0
 13
-10.54739499999999
 23
-0.097945
 33
0.0
210
0.0
220
0.0
230
-1.0
  0
SOLID
  5
A80
330
A7C
100
AcDbEntity
  8
0
  6
Continuous
 62
     7
100
AcDbTrace
 10
-11.643955
 20
0.004183
 30
0.0
 11
-11.39045199999998
 21
-0.059073
 31
0.0
 12
-10.27727599999999
 22
-0.059073
 32
0.0
 13
-10.27727599999999
 23
-0.059073
 33
0.0
210
0.0
220
0.0
230
-1.0
  0
SOLID
  5
A81
330
A7C
100
AcDbEntity
  8
0
  6
Continuous
 62
     7
100
AcDbTrace
 10
-10.023784
 20
0.004183
 30
0.0
 11
-11.643955
 21
0.004183
 31
0.0
 12
-10.27727599999999
 22
-0.059073
 32
0.0
 13
-10.27727599999999
 23
-0.059073
 33
0.0
210
0.0
220
0.0
230
-1.0
  0
SOLID
  5
A82
330
A7C
100
AcDbEntity
  8
0
  6
Continuous
 62
     7
100
AcDbTrace
 10
-11.880532
 20
0.09057
 30
0.0
 11
-11.643955
 21
0.004183
 31
0.0
 12
-10.023784
 22
0.004183
 32
0.0
 13
-10.023784
 23
0.004183
 33
0.0
210
0.0
220
0.0
230
-1.0
  0
SOLID
  5
A83
330
A7C
100
AcDbEntity
  8
0
  6
Continuous
 62
     7
100
AcDbTrace
 10
-9.787217
 20
0.09057
 30
0.0
 11
-11.880532
 21
0.09057
 31
0.0
 12
-10.023784
 22
0.004183
 32
0.0
 13
-10.023784
 23
0.004183
 33
0.0
210
0.0
220
0.0
230
-1.0
  0
SOLID
  5
A84
330
A7C
100
AcDbEntity
  8
0
  6
Continuous
 62
     7
100
AcDbTrace
 10
-12.099884
 20
0.198834
 30
0.0
 11
-11.880532
 21
0.09057
 31
0.0
 12
-9.787217
 22
0.09057
 32
0.0
 13
-9.787217
 23
0.09057
 33
0.0
210
0.0
220
0.0
230
-1.0
  0
SOLID
  5
A85
330
A7C
100
AcDbEntity
  8
0
  6
Continuous
 62
     7
100
AcDbTrace
 10
-9.567871
 20
0.198834
 30
0.0
 11
-12.099884
 21
0.198834
 31
0.0
 12
-9.787217
 22
0.09057
 32
0.0
 13
-9.787217
 23
0.09057
 33
0.0
210
0.0
220
0.0
230
-1.0
  0
SOLID
  5
A86
330
A7C
100
AcDbEntity
  8
0
  6
Continuous
 62
     7
100
AcDbTrace
 10
-12.301717
 20
0.327723
 30
0.0
 11
-12.099884
 21
0.198834
 31
0.0
 12
-9.567871
 22
0.198834
 32
0.0
 13
-9.567871
 23
0.198834
 33
0.0
210
0.0
220
0.0
230
-1.0
  0
SOLID
  5
A87
330
A7C
100
AcDbEntity
  8
0
  6
Continuous
 62
     7
100
AcDbTrace
 10
-9.366042999999999
 20
0.327723
 30
0.0
 11
-12.301717
 21
0.327723
 31
0.0
 12
-9.567871
 22
0.198834
 32
0.0
 13
-9.567871
 23
0.198834
 33
0.0
210
0.0
220
0.0
230
-1.0
  0
SOLID
  5
A88
330
A7C
100
AcDbEntity
  8
0
  6
Continuous
 62
     7
100
AcDbTrace
 10
-12.48573399999999
 20
0.4759840000000001
 30
0.0
 11
-12.301717
 21
0.327723
 31
0.0
 12
-9.366042999999999
 22
0.327723
 32
0.0
 13
-9.366042999999999
 23
0.327723
 33
0.0
210
0.0
220
0.0
230
-1.0
  0
SOLID
  5
A89
330
A7C
100
AcDbEntity
  8
0
  6
Continuous
 62
     7
100
AcDbTrace
 10
-9.182028
 20
0.4759840000000001
 30
0.0
 11
-12.48573399999999
 21
0.4759840000000001
 31
0.0
 12
-9.366042999999999
 22
0.327723
 32
0.0
 13
-9.366042999999999
 23
0.327723
 33
0.0
210
0.0
220
0.0
230
-1.0
  0
SOLID
  5
A8A
330
A7C
100
AcDbEntity
  8
0
  6
Continuous
 62
     7
100
AcDbTrace
 10
-12.651638
 20
0.6423630000000001
 30
0.0
 11
-12.48573399999999
 21
0.4759840000000001
 31
0.0
 12
-9.182028
 22
0.4759840000000001
 32
0.0
 13
-9.182028
 23
0.4759840000000001
 33
0.0
210
0.0
220
0.0
230
-1.0
  0
SOLID
  5
A8B
330
A7C
100
AcDbEntity
  8
0
  6
Continuous
 62
     7
100
AcDbTrace
 10
-9.016125
 20
0.6423630000000001
 30
0.0
 11
-12.651638
 21
0.6423630000000001
 31
0.0
 12
-9.182028
 22
0.4759840000000001
 32
0.0
 13
-9.182028
 23
0.4759840000000001
 33
0.0
210
0.0
220
0.0
230
-1.0
  0
SOLID
  5
A8C
330
A7C
100
AcDbEntity
  8
0
  6
Continuous
 62
     7
100
AcDbTrace
 10
-12.799133
 20
0.825609
 30
0.0
 11
-12.651638
 21
0.6423630000000001
 31
0.0
 12
-9.016125
 22
0.6423630000000001
 32
0.0
 13
-9.016125
 23
0.6423630000000001
 33
0.0
210
0.0
220
0.0
230
-1.0
  0
SOLID
  5
A8D
330
A7C
100
AcDbEntity
  8
0
  6
Continuous
 62
     7
100
AcDbTrace
 10
-8.868628999999998
 20
0.825609
 30
0.0
 11
-12.799133
 21
0.825609
 31
0.0
 12
-9.016125
 22
0.6423630000000001
 32
0.0
 13
-9.016125
 23
0.6423630000000001
 33
0.0
210
0.0
220
0.0
230
-1.0
  0
SOLID
  5
A8E
330
A7C
100
AcDbEntity
  8
0
  6
Continuous
 62
     7
100
AcDbTrace
 10
-10.833846
 20
1.001203999999999
 30
0.0
 11
-12.799133
 21
0.825609
 31
0.0
 12
-8.868628999999998
 22
0.825609
 32
0.0
 13
-8.868628999999998
 23
0.825609
 33
0.0
210
0.0
220
0.0
230
-1.0
  0
SOLID
  5
A8F
330
A7C
100
AcDbEntity
  8
0
  6
Continuous
 62
     7
100
AcDbTrace
 10
-12.927923
 20
1.024467
 30
0.0
 11
-12.799133
 21
0.825609
 31
0.0
 12
-10.833846
 22
1.001203999999999
 32
0.0
 13
-10.833846
 23
1.001203999999999
 33
0.0
210
0.0
220
0.0
230
-1.0
  0
SOLID
  5
A90
330
A7C
100
AcDbEntity
  8
0
  6
Continuous
 62
     7
100
AcDbTrace
 10
-8.739836999999999
 20
1.024467
 30
0.0
 11
-10.833846
 21
1.001203999999999
 31
0.0
 12
-8.868628999999998
 22
0.825609
 32
0.0
 13
-8.868628999999998
 23
0.825609
 33
0.0
210
0.0
220
0.0
230
-1.0
  0
SOLID
  5
A91
330
A7C
100
AcDbEntity
  8
0
  6
Continuous
 62
     7
100
AcDbTrace
 10
-11.124179
 20
1.034316999999999
 30
0.0
 11
-12.927923
 21
1.024467
 31
0.0
 12
-10.833846
 22
1.001203999999999
 32
0.0
 13
-10.833846
 23
1.001203999999999
 33
0.0
210
0.0
220
0.0
230
-1.0
  0
SOLID
  5
A92
330
A7C
100
AcDbEntity
  8
0
  6
Continuous
 62
     7
100
AcDbTrace
 10
-10.543513
 20
1.034316999999999
 30
0.0
 11
-10.833846
 21
1.001203999999999
 31
0.0
 12
-8.739836999999999
 22
1.024467
 32
0.0
 13
-8.739836999999999
 23
1.024467
 33
0.0
210
0.0
220
0.0
230
-1.0
  0
SOLID
  5
A93
330
A7C
100
AcDbEntity
  8
0
  6
Continuous
 62
     7
100
AcDbTrace
 10
-11.36836699999999
 20
1.127893999999999
 30
0.0
 11
-12.927923
 21
1.024467
 31
0.0
 12
-11.124179
 22
1.034316999999999
 32
0.0
 13
-11.124179
 23
1.034316999999999
 33
0.0
210
0.0
220
0.0
230
-1.0
  0
SOLID
  5
A94
330
A7C
100
AcDbEntity
  8
0
  6
Continuous
 62
     7
100
AcDbTrace
 10
-10.29932499999999
 20
1.127893999999999
 30
0.0
 11
-10.543513
 21
1.034316999999999
 31
0.0
 12
-8.739836999999999
 22
1.024467
 32
0.0
 13
-8.739836999999999
 23
1.024467
 33
0.0
210
0.0
220
0.0
230
-1.0
  0
SOLID
  5
A95
330
A7C
100
AcDbEntity
  8
0
  6
Continuous
 62
     7
100
AcDbTrace
 10
-13.037713
 20
1.237686
 30
0.0
 11
-12.927923
 21
1.024467
 31
0.0
 12
-11.36836699999999
 22
1.127893999999999
 32
0.0
 13
-11.36836699999999
 23
1.127893999999999
 33
0.0
210
0.0
220
0.0
230
-1.0
  0
SOLID
  5
A96
330
A7C
100
AcDbEntity
  8
0
  6
Continuous
 62
     7
100
AcDbTrace
 10
-8.630046
 20
1.237686
 30
0.0
 11
-10.29932499999999
 21
1.127893999999999
 31
0.0
 12
-8.739836999999999
 22
1.024467
 32
0.0
 13
-8.739836999999999
 23
1.024467
 33
0.0
210
0.0
220
0.0
230
-1.0
  0
SOLID
  5
A97
330
A7C
100
AcDbEntity
  8
0
  6
Continuous
 62
     7
100
AcDbTrace
 10
-11.56870199999999
 20
1.273298
 30
0.0
 11
-13.037713
 21
1.237686
 31
0.0
 12
-11.36836699999999
 22
1.127893999999999
 32
0.0
 13
-11.36836699999999
 23
1.127893999999999
 33
0.0
210
0.0
220
0.0
230
-1.0
  0
SOLID
  5
A98
330
A7C
100
AcDbEntity
  8
0
  6
Continuous
 62
     7
100
AcDbTrace
 10
-10.09899099999999
 20
1.273298
 30
0.0
 11
-10.29932499999999
 21
1.127893999999999
 31
0.0
 12
-8.630046
 22
1.237686
 32
0.0
 13
-8.630046
 23
1.237686
 33
0.0
210
0.0
220
0.0
230
-1.0
  0
SOLID
  5
A99
330
A7C
100
AcDbEntity
  8
0
  6
Continuous
 62
     7
100
AcDbTrace
 10
-11.727474
 20
1.461887999999998
 30
0.0
 11
-13.037713
 21
1.237686
 31
0.0
 12
-11.56870199999999
 22
1.273298
 32
0.0
 13
-11.56870199999999
 23
1.273298
 33
0.0
210
0.0
220
0.0
230
-1.0
  0
SOLID
  5
A9A
330
A7C
100
AcDbEntity
  8
0
  6
Continuous
 62
     7
100
AcDbTrace
 10
-9.940219
 20
1.461887999999998
 30
0.0
 11
-10.09899099999999
 21
1.273298
 31
0.0
 12
-8.630046
 22
1.237686
 32
0.0
 13
-8.630046
 23
1.237686
 33
0.0
210
0.0
220
0.0
230
-1.0
  0
SOLID
  5
A9B
330
A7C
100
AcDbEntity
  8
0
  6
Continuous
 62
     7
100
AcDbTrace
 10
-8.539550999999999
 20
1.464010999999999
 30
0.0
 11
-9.940219
 21
1.461887999999998
 31
0.0
 12
-8.630046
 22
1.237686
 32
0.0
 13
-8.630046
 23
1.237686
 33
0.0
210
0.0
220
0.0
230
-1.0
  0
SOLID
  5
A9C
330
A7C
100
AcDbEntity
  8
0
  6
Continuous
 62
     7
100
AcDbTrace
 10
-13.128204
 20
1.464010999999999
 30
0.0
 11
-13.037713
 21
1.237686
 31
0.0
 12
-11.727474
 22
1.461887999999998
 32
0.0
 13
-11.727474
 23
1.461887999999998
 33
0.0
210
0.0
220
0.0
230
-1.0
  0
SOLID
  5
A9D
330
A7C
100
AcDbEntity
  8
0
  6
Continuous
 62
     7
100
AcDbTrace
 10
-11.846975
 20
1.685024999999999
 30
0.0
 11
-13.128204
 21
1.464010999999999
 31
0.0
 12
-11.727474
 22
1.461887999999998
 32
0.0
 13
-11.727474
 23
1.461887999999998
 33
0.0
210
0.0
220
0.0
230
-1.0
  0
SOLID
  5
A9E
330
A7C
100
AcDbEntity
  8
0
  6
Continuous
 62
     7
100
AcDbTrace
 10
-9.820717999999999
 20
1.685024999999999
 30
0.0
 11
-9.940219
 21
1.461887999999998
 31
0.0
 12
-8.539550999999999
 22
1.464010999999999
 32
0.0
 13
-8.539550999999999
 23
1.464010999999999
 33
0.0
210
0.0
220
0.0
230
-1.0
  0
SOLID
  5
A9F
330
A7C
100
AcDbEntity
  8
0
  6
Continuous
 62
     7
100
AcDbTrace
 10
-8.46865
 20
1.702191
 30
0.0
 11
-9.820717999999999
 21
1.685024999999999
 31
0.0
 12
-8.539550999999999
 22
1.464010999999999
 32
0.0
 13
-8.539550999999999
 23
1.464010999999999
 33
0.0
210
0.0
220
0.0
230
-1.0
  0
SOLID
  5
AA0
330
A7C
100
AcDbEntity
  8
0
  6
Continuous
 62
     7
100
AcDbTrace
 10
-13.199103
 20
1.702191
 30
0.0
 11
-13.128204
 21
1.464010999999999
 31
0.0
 12
-11.846975
 22
1.685024999999999
 32
0.0
 13
-11.846975
 23
1.685024999999999
 33
0.0
210
0.0
220
0.0
230
-1.0
  0
SOLID
  5
AA1
330
A7C
100
AcDbEntity
  8
0
  6
Continuous
 62
     7
100
AcDbTrace
 10
-11.929496
 20
1.934069999999999
 30
0.0
 11
-13.199103
 21
1.702191
 31
0.0
 12
-11.846975
 22
1.685024999999999
 32
0.0
 13
-11.846975
 23
1.685024999999999
 33
0.0
210
0.0
220
0.0
230
-1.0
  0
SOLID
  5
AA2
330
A7C
100
AcDbEntity
  8
0
  6
Continuous
 62
     7
100
AcDbTrace
 10
-9.738196999999999
 20
1.934069999999999
 30
0.0
 11
-9.820717999999999
 21
1.685024999999999
 31
0.0
 12
-8.46865
 22
1.702191
 32
0.0
 13
-8.46865
 23
1.702191
 33
0.0
210
0.0
220
0.0
230
-1.0
  0
SOLID
  5
AA3
330
A7C
100
AcDbEntity
  8
0
  6
Continuous
 62
     7
100
AcDbTrace
 10
-8.417639999999998
 20
1.950971999999999
 30
0.0
 11
-9.738196999999999
 21
1.934069999999999
 31
0.0
 12
-8.46865
 22
1.702191
 32
0.0
 13
-8.46865
 23
1.702191
 33
0.0
210
0.0
220
0.0
230
-1.0
  0
SOLID
  5
AA4
330
A7C
100
AcDbEntity
  8
0
  6
Continuous
 62
     7
100
AcDbTrace
 10
-13.25011099999999
 20
1.950971999999999
 30
0.0
 11
-13.199103
 21
1.702191
 31
0.0
 12
-11.929496
 22
1.934069999999999
 32
0.0
 13
-11.929496
 23
1.934069999999999
 33
0.0
210
0.0
220
0.0
230
-1.0
  0
SOLID
  5
AA5
330
A7C
100
AcDbEntity
  8
0
  6
Continuous
 62
     7
100
AcDbTrace
 10
-11.977328
 20
2.200382999999999
 30
0.0
 11
-13.25011099999999
 21
1.950971999999999
 31
0.0
 12
-11.929496
 22
1.934069999999999
 32
0.0
 13
-11.929496
 23
1.934069999999999
 33
0.0
210
0.0
220
0.0
230
-1.0
  0
SOLID
  5
AA6
330
A7C
100
AcDbEntity
  8
0
  6
Continuous
 62
     7
100
AcDbTrace
 10
-9.690364999999999
 20
2.200382999999999
 30
0.0
 11
-9.738196999999999
 21
1.934069999999999
 31
0.0
 12
-8.417639999999998
 22
1.950971999999999
 32
0.0
 13
-8.417639999999998
 23
1.950971999999999
 33
0.0
210
0.0
220
0.0
230
-1.0
  0
SOLID
  5
AA7
330
A7C
100
AcDbEntity
  8
0
  6
Continuous
 62
     7
100
AcDbTrace
 10
-8.386815999999999
 20
2.209100999999999
 30
0.0
 11
-9.690364999999999
 21
2.200382999999999
 31
0.0
 12
-8.417639999999998
 22
1.950971999999999
 32
0.0
 13
-8.417639999999998
 23
1.950971999999999
 33
0.0
210
0.0
220
0.0
230
-1.0
  0
SOLID
  5
AA8
330
A7C
100
AcDbEntity
  8
0
  6
Continuous
 62
     7
100
AcDbTrace
 10
-13.28093299999999
 20
2.209100999999999
 30
0.0
 11
-13.25011099999999
 21
1.950971999999999
 31
0.0
 12
-11.977328
 22
2.200382999999999
 32
0.0
 13
-11.977328
 23
2.200382999999999
 33
0.0
210
0.0
220
0.0
230
-1.0
  0
SOLID
  5
AA9
330
A7C
100
AcDbEntity
  8
0
  6
Continuous
 62
     7
100
AcDbTrace
 10
-11.99276299999999
 20
2.475325
 30
0.0
 11
-13.28093299999999
 21
2.209100999999999
 31
0.0
 12
-11.977328
 22
2.200382999999999
 32
0.0
 13
-11.977328
 23
2.200382999999999
 33
0.0
210
0.0
220
0.0
230
-1.0
  0
SOLID
  5
AAA
330
A7C
100
AcDbEntity
  8
0
  6
Continuous
 62
     7
100
AcDbTrace
 10
-8.376474999999999
 20
2.475325
 30
0.0
 11
-9.690364999999999
 21
2.200382999999999
 31
0.0
 12
-8.386815999999999
 22
2.209100999999999
 32
0.0
 13
-8.386815999999999
 23
2.209100999999999
 33
0.0
210
0.0
220
0.0
230
-1.0
  0
SOLID
  5
AAB
330
A7C
100
AcDbEntity
  8
0
  6
Continuous
 62
     7
100
AcDbTrace
 10
-9.674929999999999
 20
2.475325
 30
0.0
 11
-9.690364999999999
 21
2.200382999999999
 31
0.0
 12
-8.376474999999999
 22
2.475325
 32
0.0
 13
-8.376474999999999
 23
2.475325
 33
0.0
210
0.0
220
0.0
230
-1.0
  0
SOLID
  5
AAC
330
A7C
100
AcDbEntity
  8
0
  6
Continuous
 62
     7
100
AcDbTrace
 10
-13.291273
 20
2.475325
 30
0.0
 11
-13.28093299999999
 21
2.209100999999999
 31
0.0
 12
-11.99276299999999
 22
2.475325
 32
0.0
 13
-11.99276299999999
 23
2.475325
 33
0.0
210
0.0
220
0.0
230
-1.0
  0
SOLID
  5
AAD
330
A7C
100
AcDbEntity
  8
0
  6
Continuous
 62
     7
100
AcDbTrace
 10
-8.386815999999999
 20
2.741557999999999
 30
0.0
 11
-9.674929999999999
 21
2.475325
 31
0.0
 12
-8.376474999999999
 22
2.475325
 32
0.0
 13
-8.376474999999999
 23
2.475325
 33
0.0
210
0.0
220
0.0
230
-1.0
  0
SOLID
  5
AAE
330
A7C
100
AcDbEntity
  8
0
  6
Continuous
 62
     7
100
AcDbTrace
 10
-13.28093299999999
 20
2.741557999999999
 30
0.0
 11
-13.291273
 21
2.475325
 31
0.0
 12
-11.99276299999999
 22
2.475325
 32
0.0
 13
-11.99276299999999
 23
2.475325
 33
0.0
210
0.0
220
0.0
230
-1.0
  0
SOLID
  5
AAF
330
A7C
100
AcDbEntity
  8
0
  6
Continuous
 62
     7
100
AcDbTrace
 10
-9.690364999999999
 20
2.750261999999998
 30
0.0
 11
-9.674929999999999
 21
2.475325
 31
0.0
 12
-8.386815999999999
 22
2.741557999999999
 32
0.0
 13
-8.386815999999999
 23
2.741557999999999
 33
0.0
210
0.0
220
0.0
230
-1.0
  0
SOLID
  5
AB0
330
A7C
100
AcDbEntity
  8
0
  6
Continuous
 62
     7
100
AcDbTrace
 10
-11.977328
 20
2.750261999999998
 30
0.0
 11
-13.28093299999999
 21
2.741557999999999
 31
0.0
 12
-11.99276299999999
 22
2.475325
 32
0.0
 13
-11.99276299999999
 23
2.475325
 33
0.0
210
0.0
220
0.0
230
-1.0
  0
SOLID
  5
AB1
330
A7C
100
AcDbEntity
  8
0
  6
Continuous
 62
     7
100
AcDbTrace
 10
-8.417639999999998
 20
2.999693999999998
 30
0.0
 11
-9.690364999999999
 21
2.750261999999998
 31
0.0
 12
-8.386815999999999
 22
2.741557999999999
 32
0.0
 13
-8.386815999999999
 23
2.741557999999999
 33
0.0
210
0.0
220
0.0
230
-1.0
  0
SOLID
  5
AB2
330
A7C
100
AcDbEntity
  8
0
  6
Continuous
 62
     7
100
AcDbTrace
 10
-13.25011099999999
 20
2.999693999999998
 30
0.0
 11
-13.28093299999999
 21
2.741557999999999
 31
0.0
 12
-11.977328
 22
2.750261999999998
 32
0.0
 13
-11.977328
 23
2.750261999999998
 33
0.0
210
0.0
220
0.0
230
-1.0
  0
SOLID
  5
AB3
330
A7C
100
AcDbEntity
  8
0
  6
Continuous
 62
     7
100
AcDbTrace
 10
-9.738196999999999
 20
3.016561999999999
 30
0.0
 11
-9.690364999999999
 21
2.750261999999998
 31
0.0
 12
-8.417639999999998
 22
2.999693999999998
 32
0.0
 13
-8.417639999999998
 23
2.999693999999998
 33
0.0
210
0.0
220
0.0
230
-1.0
  0
SOLID
  5
AB4
330
A7C
100
AcDbEntity
  8
0
  6
Continuous
 62
     7
100
AcDbTrace
 10
-11.929496
 20
3.016561999999999
 30
0.0
 11
-13.25011099999999
 21
2.999693999999998
 31
0.0
 12
-11.977328
 22
2.750261999999998
 32
0.0
 13
-11.977328
 23
2.750261999999998
 33
0.0
210
0.0
220
0.0
230
-1.0
  0
SOLID
  5
AB5
330
A7C
100
AcDbEntity
  8
0
  6
Continuous
 62
     7
100
AcDbTrace
 10
-8.46865
 20
3.248479
 30
0.0
 11
-9.738196999999999
 21
3.016561999999999
 31
0.0
 12
-8.417639999999998
 22
2.999693999999998
 32
0.0
 13
-8.417639999999998
 23
2.999693999999998
 33
0.0
210
0.0
220
0.0
230
-1.0
  0
SOLID
  5
AB6
330
A7C
100
AcDbEntity
  8
0
  6
Continuous
 62
     7
100
AcDbTrace
 10
-13.199103
 20
3.248479
 30
0.0
 11
-13.25011099999999
 21
2.999693999999998
 31
0.0
 12
-11.929496
 22
3.016561999999999
 32
0.0
 13
-11.929496
 23
3.016561999999999
 33
0.0
210
0.0
220
0.0
230
-1.0
  0
SOLID
  5
AB7
330
A7C
100
AcDbEntity
  8
0
  6
Continuous
 62
     7
100
AcDbTrace
 10
-9.820717999999999
 20
3.265588999999998
 30
0.0
 11
-9.738196999999999
 21
3.016561999999999
 31
0.0
 12
-8.46865
 22
3.248479
 32
0.0
 13
-8.46865
 23
3.248479
 33
0.0
210
0.0
220
0.0
230
-1.0
  0
SOLID
  5
AB8
330
A7C
100
AcDbEntity
  8
0
  6
Continuous
 62
     7
100
AcDbTrace
 10
-11.846975
 20
3.265588999999998
 30
0.0
 11
-13.199103
 21
3.248479
 31
0.0
 12
-11.929496
 22
3.016561999999999
 32
0.0
 13
-11.929496
 23
3.016561999999999
 33
0.0
210
0.0
220
0.0
230
-1.0
  0
SOLID
  5
AB9
330
A7C
100
AcDbEntity
  8
0
  6
Continuous
 62
     7
100
AcDbTrace
 10
-8.539550999999999
 20
3.486661999999999
 30
0.0
 11
-9.820717999999999
 21
3.265588999999998
 31
0.0
 12
-8.46865
 22
3.248479
 32
0.0
 13
-8.46865
 23
3.248479
 33
0.0
210
0.0
220
0.0
230
-1.0
  0
SOLID
  5
ABA
330
A7C
100
AcDbEntity
  8
0
  6
Continuous
 62
     7
100
AcDbTrace
 10
-13.128204
 20
3.486661999999999
 30
0.0
 11
-13.199103
 21
3.248479
 31
0.0
 12
-11.846975
 22
3.265588999999998
 32
0.0
 13
-11.846975
 23
3.265588999999998
 33
0.0
210
0.0
220
0.0
230
-1.0
  0
SOLID
  5
ABB
330
A7C
100
AcDbEntity
  8
0
  6
Continuous
 62
     7
100
AcDbTrace
 10
-9.940219
 20
3.488705999999999
 30
0.0
 11
-9.820717999999999
 21
3.265588999999998
 31
0.0
 12
-8.539550999999999
 22
3.486661999999999
 32
0.0
 13
-8.539550999999999
 23
3.486661999999999
 33
0.0
210
0.0
220
0.0
230
-1.0
  0
SOLID
  5
ABC
330
A7C
100
AcDbEntity
  8
0
  6
Continuous
 62
     7
100
AcDbTrace
 10
-11.727474
 20
3.488705999999999
 30
0.0
 11
-13.128204
 21
3.486661999999999
 31
0.0
 12
-11.846975
 22
3.265588999999998
 32
0.0
 13
-11.846975
 23
3.265588999999998
 33
0.0
210
0.0
220
0.0
230
-1.0
  0
SOLID
  5
ABD
330
A7C
100
AcDbEntity
  8
0
  6
Continuous
 62
     7
100
AcDbTrace
 10
-10.09899099999999
 20
3.677274999999998
 30
0.0
 11
-9.940219
 21
3.488705999999999
 31
0.0
 12
-8.539550999999999
 22
3.486661999999999
 32
0.0
 13
-8.539550999999999
 23
3.486661999999999
 33
0.0
210
0.0
220
0.0
230
-1.0
  0
SOLID
  5
ABE
330
A7C
100
AcDbEntity
  8
0
  6
Continuous
 62
     7
100
AcDbTrace
 10
-11.56870199999999
 20
3.677274999999998
 30
0.0
 11
-13.128204
 21
3.486661999999999
 31
0.0
 12
-11.727474
 22
3.488705999999999
 32
0.0
 13
-11.727474
 23
3.488705999999999
 33
0.0
210
0.0
220
0.0
230
-1.0
  0
SOLID
  5
ABF
330
A7C
100
AcDbEntity
  8
0
  6
Continuous
 62
     7
100
AcDbTrace
 10
-8.630046
 20
3.712987999999998
 30
0.0
 11
-10.09899099999999
 21
3.677274999999998
 31
0.0
 12
-8.539550999999999
 22
3.486661999999999
 32
0.0
 13
-8.539550999999999
 23
3.486661999999999
 33
0.0
210
0.0
220
0.0
230
-1.0
  0
SOLID
  5
AC0
330
A7C
100
AcDbEntity
  8
0
  6
Continuous
 62
     7
100
AcDbTrace
 10
-13.037713
 20
3.712987999999998
 30
0.0
 11
-13.128204
 21
3.486661999999999
 31
0.0
 12
-11.56870199999999
 22
3.677274999999998
 32
0.0
 13
-11.56870199999999
 23
3.677274999999998
 33
0.0
210
0.0
220
0.0
230
-1.0
  0
SOLID
  5
AC1
330
A7C
100
AcDbEntity
  8
0
  6
Continuous
 62
     7
100
AcDbTrace
 10
-10.29932499999999
 20
3.822661
 30
0.0
 11
-10.09899099999999
 21
3.677274999999998
 31
0.0
 12
-8.630046
 22
3.712987999999998
 32
0.0
 13
-8.630046
 23
3.712987999999998
 33
0.0
210
0.0
220
0.0
230
-1.0
  0
SOLID
  5
AC2
330
A7C
100
AcDbEntity
  8
0
  6
Continuous
 62
     7
100
AcDbTrace
 10
-11.36836699999999
 20
3.822661
 30
0.0
 11
-13.037713
 21
3.712987999999998
 31
0.0
 12
-11.56870199999999
 22
3.677274999999998
 32
0.0
 13
-11.56870199999999
 23
3.677274999999998
 33
0.0
210
0.0
220
0.0
230
-1.0
  0
SOLID
  5
AC3
330
A7C
100
AcDbEntity
  8
0
  6
Continuous
 62
     7
100
AcDbTrace
 10
-10.543513
 20
3.916225999999999
 30
0.0
 11
-10.29932499999999
 21
3.822661
 31
0.0
 12
-8.630046
 22
3.712987999999998
 32
0.0
 13
-8.630046
 23
3.712987999999998
 33
0.0
210
0.0
220
0.0
230
-1.0
  0
SOLID
  5
AC4
330
A7C
100
AcDbEntity
  8
0
  6
Continuous
 62
     7
100
AcDbTrace
 10
-11.124179
 20
3.916225999999999
 30
0.0
 11
-13.037713
 21
3.712987999999998
 31
0.0
 12
-11.36836699999999
 22
3.822661
 32
0.0
 13
-11.36836699999999
 23
3.822661
 33
0.0
210
0.0
220
0.0
230
-1.0
  0
SOLID
  5
AC5
330
A7C
100
AcDbEntity
  8
0
  6
Continuous
 62
     7
100
AcDbTrace
 10
-8.739836999999999
 20
3.926206999999998
 30
0.0
 11
-10.543513
 21
3.916225999999999
 31
0.0
 12
-8.630046
 22
3.712987999999998
 32
0.0
 13
-8.630046
 23
3.712987999999998
 33
0.0
210
0.0
220
0.0
230
-1.0
  0
SOLID
  5
AC6
330
A7C
100
AcDbEntity
  8
0
  6
Continuous
 62
     7
100
AcDbTrace
 10
-12.927923
 20
3.926206999999998
 30
0.0
 11
-13.037713
 21
3.712987999999998
 31
0.0
 12
-11.124179
 22
3.916225999999999
 32
0.0
 13
-11.124179
 23
3.916225999999999
 33
0.0
210
0.0
220
0.0
230
-1.0
  0
SOLID
  5
AC7
330
A7C
100
AcDbEntity
  8
0
  6
Continuous
 62
     7
100
AcDbTrace
 10
-10.833846
 20
3.949333
 30
0.0
 11
-10.543513
 21
3.916225999999999
 31
0.0
 12
-8.739836999999999
 22
3.926206999999998
 32
0.0
 13
-8.739836999999999
 23
3.926206999999998
 33
0.0
210
0.0
220
0.0
230
-1.0
  0
SOLID
  5
AC8
330
A7C
100
AcDbEntity
  8
0
  6
Continuous
 62
     7
100
AcDbTrace
 10
-10.833846
 20
3.949333
 30
0.0
 11
-12.927923
 21
3.926206999999998
 31
0.0
 12
-11.124179
 22
3.916225999999999
 32
0.0
 13
-11.124179
 23
3.916225999999999
 33
0.0
210
0.0
220
0.0
230
-1.0
  0
SOLID
  5
AC9
330
A7C
100
AcDbEntity
  8
0
  6
Continuous
 62
     7
100
AcDbTrace
 10
-8.868628999999998
 20
4.125064
 30
0.0
 11
-10.833846
 21
3.949333
 31
0.0
 12
-8.739836999999999
 22
3.926206999999998
 32
0.0
 13
-8.739836999999999
 23
3.926206999999998
 33
0.0
210
0.0
220
0.0
230
-1.0
  0
SOLID
  5
ACA
330
A7C
100
AcDbEntity
  8
0
  6
Continuous
 62
     7
100
AcDbTrace
 10
-12.799133
 20
4.125064
 30
0.0
 11
-10.833846
 21
3.949333
 31
0.0
 12
-8.868628999999998
 22
4.125064
 32
0.0
 13
-8.868628999999998
 23
4.125064
 33
0.0
210
0.0
220
0.0
230
-1.0
  0
SOLID
  5
ACB
330
A7C
100
AcDbEntity
  8
0
  6
Continuous
 62
     7
100
AcDbTrace
 10
-12.799133
 20
4.125064
 30
0.0
 11
-12.927923
 21
3.926206999999998
 31
0.0
 12
-10.833846
 22
3.949333
 32
0.0
 13
-10.833846
 23
3.949333
 33
0.0
210
0.0
220
0.0
230
-1.0
  0
SOLID
  5
ACC
330
A7C
100
AcDbEntity
  8
0
  6
Continuous
 62
     7
100
AcDbTrace
 10
-9.016125
 20
4.308307
 30
0.0
 11
-12.799133
 21
4.125064
 31
0.0
 12
-8.868628999999998
 22
4.125064
 32
0.0
 13
-8.868628999999998
 23
4.125064
 33
0.0
210
0.0
220
0.0
230
-1.0
  0
SOLID
  5
ACD
330
A7C
100
AcDbEntity
  8
0
  6
Continuous
 62
     7
100
AcDbTrace
 10
-12.651638
 20
4.308307
 30
0.0
 11
-12.799133
 21
4.125064
 31
0.0
 12
-9.016125
 22
4.308307
 32
0.0
 13
-9.016125
 23
4.308307
 33
0.0
210
0.0
220
0.0
230
-1.0
  0
SOLID
  5
ACE
330
A7C
100
AcDbEntity
  8
0
  6
Continuous
 62
     7
100
AcDbTrace
 10
-9.182028
 20
4.474683999999998
 30
0.0
 11
-12.651638
 21
4.308307
 31
0.0
 12
-9.016125
 22
4.308307
 32
0.0
 13
-9.016125
 23
4.308307
 33
0.0
210
0.0
220
0.0
230
-1.0
  0
SOLID
  5
ACF
330
A7C
100
AcDbEntity
  8
0
  6
Continuous
 62
     7
100
AcDbTrace
 10
-12.48573399999999
 20
4.474683999999998
 30
0.0
 11
-12.651638
 21
4.308307
 31
0.0
 12
-9.182028
 22
4.474683999999998
 32
0.0
 13
-9.182028
 23
4.474683999999998
 33
0.0
210
0.0
220
0.0
230
-1.0
  0
SOLID
  5
AD0
330
A7C
100
AcDbEntity
  8
0
  6
Continuous
 62
     7
100
AcDbTrace
 10
-9.366042999999999
 20
4.622940999999999
 30
0.0
 11
-12.48573399999999
 21
4.474683999999998
 31
0.0
 12
-9.182028
 22
4.474683999999998
 32
0.0
 13
-9.182028
 23
4.474683999999998
 33
0.0
210
0.0
220
0.0
230
-1.0
  0
SOLID
  5
AD1
330
A7C
100
AcDbEntity
  8
0
  6
Continuous
 62
     7
100
AcDbTrace
 10
-12.301717
 20
4.622940999999999
 30
0.0
 11
-12.48573399999999
 21
4.474683999999998
 31
0.0
 12
-9.366042999999999
 22
4.622940999999999
 32
0.0
 13
-9.366042999999999
 23
4.622940999999999
 33
0.0
210
0.0
220
0.0
230
-1.0
  0
SOLID
  5
AD2
330
A7C
100
AcDbEntity
  8
0
  6
Continuous
 62
     7
100
AcDbTrace
 10
-9.567871
 20
4.751826999999998
 30
0.0
 11
-12.301717
 21
4.622940999999999
 31
0.0
 12
-9.366042999999999
 22
4.622940999999999
 32
0.0
 13
-9.366042999999999
 23
4.622940999999999
 33
0.0
210
0.0
220
0.0
230
-1.0
  0
SOLID
  5
AD3
330
A7C
100
AcDbEntity
  8
0
  6
Continuous
 62
     7
100
AcDbTrace
 10
-12.099884
 20
4.751826999999998
 30
0.0
 11
-12.301717
 21
4.622940999999999
 31
0.0
 12
-9.567871
 22
4.751826999999998
 32
0.0
 13
-9.567871
 23
4.751826999999998
 33
0.0
210
0.0
220
0.0
230
-1.0
  0
SOLID
  5
AD4
330
A7C
100
AcDbEntity
  8
0
  6
Continuous
 62
     7
100
AcDbTrace
 10
-9.787217
 20
4.860087999999999
 30
0.0
 11
-12.099884
 21
4.751826999999998
 31
0.0
 12
-9.567871
 22
4.751826999999998
 32
0.0
 13
-9.567871
 23
4.751826999999998
 33
0.0
210
0.0
220
0.0
230
-1.0
  0
SOLID
  5
AD5
330
A7C
100
AcDbEntity
  8
0
  6
Continuous
 62
     7
100
AcDbTrace
 10
-11.880532
 20
4.860087999999999
 30
0.0
 11
-12.099884
 21
4.751826999999998
 31
0.0
 12
-9.787217
 22
4.860087999999999
 32
0.0
 13
-9.787217
 23
4.860087999999999
 33
0.0
210
0.0
220
0.0
230
-1.0
  0
SOLID
  5
AD6
330
A7C
100
AcDbEntity
  8
0
  6
Continuous
 62
     7
100
AcDbTrace
 10
-10.023784
 20
4.946470999999998
 30
0.0
 11
-11.880532
 21
4.860087999999999
 31
0.0
 12
-9.787217
 22
4.860087999999999
 32
0.0
 13
-9.787217
 23
4.860087999999999
 33
0.0
210
0.0
220
0.0
230
-1.0
  0
SOLID
  5
AD7
330
A7C
100
AcDbEntity
  8
0
  6
Continuous
 62
     7
100
AcDbTrace
 10
-11.643955
 20
4.946470999999998
 30
0.0
 11
-11.880532
 21
4.860087999999999
 31
0.0
 12
-10.023784
 22
4.946470999999998
 32
0.0
 13
-10.023784
 23
4.946470999999998
 33
0.0
210
0.0
220
0.0
230
-1.0
  0
SOLID
  5
AD8
330
A7C
100
AcDbEntity
  8
0
  6
Continuous
 62
     7
100
AcDbTrace
 10
-10.27727599999999
 20
5.009725
 30
0.0
 11
-11.643955
 21
4.946470999999998
 31
0.0
 12
-10.023784
 22
4.946470999999998
 32
0.0
 13
-10.023784
 23
4.946470999999998
 33
0.0
210
0.0
220
0.0
230
-1.0
  0
SOLID
  5
AD9
330
A7C
100
AcDbEntity
  8
0
  6
Continuous
 62
     7
100
AcDbTrace
 10
-11.39045199999998
 20
5.009725
 30
0.0
 11
-11.643955
 21
4.946470999999998
 31
0.0
 12
-10.27727599999999
 22
5.009725
 32
0.0
 13
-10.27727599999999
 23
5.009725
 33
0.0
210
0.0
220
0.0
230
-1.0
  0
SOLID
  5
ADA
330
A7C
100
AcDbEntity
  8
0
  6
Continuous
 62
     7
100
AcDbTrace
 10
-10.54739499999999
 20
5.048595999999998
 30
0.0
 11
-11.39045199999998
 21
5.009725
 31
0.0
 12
-10.27727599999999
 22
5.009725
 32
0.0
 13
-10.27727599999999
 23
5.009725
 33
0.0
210
0.0
220
0.0
230
-1.0
  0
SOLID
  5
ADB
330
A7C
100
AcDbEntity
  8
0
  6
Continuous
 62
     7
100
AcDbTrace
 10
-11.12031699999999
 20
5.048595999999998
 30
0.0
 11
-11.39045199999998
 21
5.009725
 31
0.0
 12
-10.54739499999999
 22
5.048595999999998
 32
0.0
 13
-10.54739499999999
 23
5.048595999999998
 33
0.0
210
0.0
220
0.0
230
-1.0
  0
SOLID
  5
ADC
330
A7C
100
AcDbEntity
  8
0
  6
Continuous
 62
     7
100
AcDbTrace
 10
-10.833846
 20
5.061830999999998
 30
0.0
 11
-11.12031699999999
 21
5.048595999999998
 31
0.0
 12
-10.54739499999999
 22
5.048595999999998
 32
0.0
 13
-10.54739499999999
 23
5.048595999999998
 33
0.0
210
0.0
220
0.0
230
-1.0
  0
ENDBLK
  5
ADE
330
A7C
100
AcDbEntity
  8
0
100
AcDbBlockEnd
  0
BLOCK
  5
B85
330
ADF
100
AcDbEntity
  8
0
100
AcDbBlockBegin
  2
*U10
 70
     1
 10
0.0
 20
0.0
 30
0.0
  3
*U10
  1

  0
SOLID
  5
AE0
330
ADF
100
AcDbEntity
  8
0
  6
Continuous
 62
     7
100
AcDbTrace
 10
-16.44993999999999
 20
-0.003073
 30
0.0
 11
-17.730268
 21
-0.007046
 31
0.0
 12
-17.705425
 22
-0.007046
 32
0.0
 13
-17.705425
 23
-0.007046
 33
0.0
210
0.0
220
0.0
230
-1.0
  0
SOLID
  5
AE1
330
ADF
100
AcDbEntity
  8
0
  6
Continuous
 62
     7
100
AcDbTrace
 10
-16.44993999999999
 20
-0.003073
 30
0.0
 11
-17.705425
 21
-0.007046
 31
0.0
 12
-17.609307
 22
-0.007046
 32
0.0
 13
-17.609307
 23
-0.007046
 33
0.0
210
0.0
220
0.0
230
-1.0
  0
SOLID
  5
AE2
330
ADF
100
AcDbEntity
  8
0
  6
Continuous
 62
     7
100
AcDbTrace
 10
-16.44993999999999
 20
-0.003073
 30
0.0
 11
-17.609307
 21
-0.007046
 31
0.0
 12
-17.464741
 22
-0.007046
 32
0.0
 13
-17.464741
 23
-0.007046
 33
0.0
210
0.0
220
0.0
230
-1.0
  0
SOLID
  5
AE3
330
ADF
100
AcDbEntity
  8
0
  6
Continuous
 62
     7
100
AcDbTrace
 10
-16.44993999999999
 20
-0.003073
 30
0.0
 11
-17.464741
 21
-0.007046
 31
0.0
 12
-17.09486
 22
-0.007046
 32
0.0
 13
-17.09486
 23
-0.007046
 33
0.0
210
0.0
220
0.0
230
-1.0
  0
SOLID
  5
AE4
330
ADF
100
AcDbEntity
  8
0
  6
Continuous
 62
     7
100
AcDbTrace
 10
-16.44993999999999
 20
-0.003073
 30
0.0
 11
-17.09486
 21
-0.007046
 31
0.0
 12
-16.724979
 22
-0.007046
 32
0.0
 13
-16.724979
 23
-0.007046
 33
0.0
210
0.0
220
0.0
230
-1.0
  0
SOLID
  5
AE5
330
ADF
100
AcDbEntity
  8
0
  6
Continuous
 62
     7
100
AcDbTrace
 10
-16.44993999999999
 20
-0.003073
 30
0.0
 11
-16.724979
 21
-0.007046
 31
0.0
 12
-16.580413
 22
-0.007046
 32
0.0
 13
-16.580413
 23
-0.007046
 33
0.0
210
0.0
220
0.0
230
-1.0
  0
SOLID
  5
AE6
330
ADF
100
AcDbEntity
  8
0
  6
Continuous
 62
     7
100
AcDbTrace
 10
-16.44993999999999
 20
-0.003073
 30
0.0
 11
-16.580413
 21
-0.007046
 31
0.0
 12
-16.48429499999998
 22
-0.007046
 32
0.0
 13
-16.48429499999998
 23
-0.007046
 33
0.0
210
0.0
220
0.0
230
-1.0
  0
SOLID
  5
AE7
330
ADF
100
AcDbEntity
  8
0
  6
Continuous
 62
     7
100
AcDbTrace
 10
-17.733117
 20
-0.002706
 30
0.0
 11
-17.730268
 21
-0.007046
 31
0.0
 12
-16.44993999999999
 22
-0.003073
 32
0.0
 13
-16.44993999999999
 23
-0.003073
 33
0.0
210
0.0
220
0.0
230
-1.0
  0
SOLID
  5
AE8
330
ADF
100
AcDbEntity
  8
0
  6
Continuous
 62
     7
100
AcDbTrace
 10
-14.595544
 20
-0.001859
 30
0.0
 11
-14.577188
 21
-0.007046
 31
0.0
 12
-14.49365199999999
 22
-0.007046
 32
0.0
 13
-14.49365199999999
 23
-0.007046
 33
0.0
210
0.0
220
0.0
230
-1.0
  0
SOLID
  5
AE9
330
ADF
100
AcDbEntity
  8
0
  6
Continuous
 62
     7
100
AcDbTrace
 10
-14.595544
 20
-0.001859
 30
0.0
 11
-14.49365199999999
 21
-0.007046
 31
0.0
 12
-14.35737699999999
 22
-0.007046
 32
0.0
 13
-14.35737699999999
 23
-0.007046
 33
0.0
210
0.0
220
0.0
230
-1.0
  0
SOLID
  5
AEA
330
ADF
100
AcDbEntity
  8
0
  6
Continuous
 62
     7
100
AcDbTrace
 10
-14.595544
 20
-0.001859
 30
0.0
 11
-14.35737699999999
 21
-0.007046
 31
0.0
 12
-14.184687
 22
-0.007046
 32
0.0
 13
-14.184687
 23
-0.007046
 33
0.0
210
0.0
220
0.0
230
-1.0
  0
SOLID
  5
AEB
330
ADF
100
AcDbEntity
  8
0
  6
Continuous
 62
     7
100
AcDbTrace
 10
-14.595544
 20
-0.001859
 30
0.0
 11
-14.184687
 21
-0.007046
 31
0.0
 12
-13.79535799999999
 22
-0.007046
 32
0.0
 13
-13.79535799999999
 23
-0.007046
 33
0.0
210
0.0
220
0.0
230
-1.0
  0
SOLID
  5
AEC
330
ADF
100
AcDbEntity
  8
0
  6
Continuous
 62
     7
100
AcDbTrace
 10
-14.595544
 20
-0.001859
 30
0.0
 11
-13.79535799999999
 21
-0.007046
 31
0.0
 12
-13.611367
 22
-0.007046
 32
0.0
 13
-13.611367
 23
-0.007046
 33
0.0
210
0.0
220
0.0
230
-1.0
  0
SOLID
  5
AED
330
ADF
100
AcDbEntity
  8
0
  6
Continuous
 62
     7
100
AcDbTrace
 10
-14.595544
 20
-0.001859
 30
0.0
 11
-13.611367
 21
-0.007046
 31
0.0
 12
-13.456257
 22
-0.007046
 32
0.0
 13
-13.456257
 23
-0.007046
 33
0.0
210
0.0
220
0.0
230
-1.0
  0
SOLID
  5
AEE
330
ADF
100
AcDbEntity
  8
0
  6
Continuous
 62
     7
100
AcDbTrace
 10
-14.595544
 20
-0.001859
 30
0.0
 11
-13.456257
 21
-0.007046
 31
0.0
 12
-13.346351
 22
-0.007046
 32
0.0
 13
-13.346351
 23
-0.007046
 33
0.0
210
0.0
220
0.0
230
-1.0
  0
SOLID
  5
AEF
330
ADF
100
AcDbEntity
  8
0
  6
Continuous
 62
     7
100
AcDbTrace
 10
-14.595544
 20
-0.001859
 30
0.0
 11
-13.346351
 21
-0.007046
 31
0.0
 12
-13.29797499999999
 22
-0.007046
 32
0.0
 13
-13.29797499999999
 23
-0.007046
 33
0.0
210
0.0
220
0.0
230
-1.0
  0
SOLID
  5
AF0
330
ADF
100
AcDbEntity
  8
0
  6
Continuous
 62
     7
100
AcDbTrace
 10
-13.297034
 20
0.010931
 30
0.0
 11
-14.595544
 21
-0.001859
 31
0.0
 12
-13.29797499999999
 22
-0.007046
 32
0.0
 13
-13.29797499999999
 23
-0.007046
 33
0.0
210
0.0
220
0.0
230
-1.0
  0
SOLID
  5
AF1
330
ADF
100
AcDbEntity
  8
0
  6
Continuous
 62
     7
100
AcDbTrace
 10
-14.595544
 20
0.027455
 30
0.0
 11
-14.595544
 21
-0.001859
 31
0.0
 12
-13.297034
 22
0.010931
 32
0.0
 13
-13.297034
 23
0.010931
 33
0.0
210
0.0
220
0.0
230
-1.0
  0
SOLID
  5
AF2
330
ADF
100
AcDbEntity
  8
0
  6
Continuous
 62
     7
100
AcDbTrace
 10
-16.419055
 20
0.05835
 30
0.0
 11
-17.733117
 21
-0.002706
 31
0.0
 12
-16.44993999999999
 22
-0.003073
 32
0.0
 13
-16.44993999999999
 23
-0.003073
 33
0.0
210
0.0
220
0.0
230
-1.0
  0
SOLID
  5
AF3
330
ADF
100
AcDbEntity
  8
0
  6
Continuous
 62
     7
100
AcDbTrace
 10
-17.68522699999999
 20
0.070614
 30
0.0
 11
-17.733117
 21
-0.002706
 31
0.0
 12
-16.419055
 22
0.05835
 32
0.0
 13
-16.419055
 23
0.05835
 33
0.0
210
0.0
220
0.0
230
-1.0
  0
SOLID
  5
AF4
330
ADF
100
AcDbEntity
  8
0
  6
Continuous
 62
     7
100
AcDbTrace
 10
-14.595544
 20
0.080153
 30
0.0
 11
-14.595544
 21
0.027455
 31
0.0
 12
-13.297034
 22
0.010931
 32
0.0
 13
-13.297034
 23
0.010931
 33
0.0
210
0.0
220
0.0
230
-1.0
  0
SOLID
  5
AF5
330
ADF
100
AcDbEntity
  8
0
  6
Continuous
 62
     7
100
AcDbTrace
 10
-13.297034
 20
0.096647
 30
0.0
 11
-14.595544
 21
0.080153
 31
0.0
 12
-13.297034
 22
0.010931
 32
0.0
 13
-13.297034
 23
0.010931
 33
0.0
210
0.0
220
0.0
230
-1.0
  0
SOLID
  5
AF6
330
ADF
100
AcDbEntity
  8
0
  6
Continuous
 62
     7
100
AcDbTrace
 10
-17.645849
 20
0.170682
 30
0.0
 11
-17.68522699999999
 21
0.070614
 31
0.0
 12
-16.419055
 22
0.05835
 32
0.0
 13
-16.419055
 23
0.05835
 33
0.0
210
0.0
220
0.0
230
-1.0
  0
SOLID
  5
AF7
330
ADF
100
AcDbEntity
  8
0
  6
Continuous
 62
     7
100
AcDbTrace
 10
-16.37189499999999
 20
0.222805
 30
0.0
 11
-17.645849
 21
0.170682
 31
0.0
 12
-16.419055
 22
0.05835
 32
0.0
 13
-16.419055
 23
0.05835
 33
0.0
210
0.0
220
0.0
230
-1.0
  0
SOLID
  5
AF8
330
ADF
100
AcDbEntity
  8
0
  6
Continuous
 62
     7
100
AcDbTrace
 10
-14.595544
 20
0.244334
 30
0.0
 11
-14.595544
 21
0.080153
 31
0.0
 12
-13.297034
 22
0.096647
 32
0.0
 13
-13.297034
 23
0.096647
 33
0.0
210
0.0
220
0.0
230
-1.0
  0
SOLID
  5
AF9
330
ADF
100
AcDbEntity
  8
0
  6
Continuous
 62
     7
100
AcDbTrace
 10
-13.297034
 20
0.245974
 30
0.0
 11
-14.595544
 21
0.244334
 31
0.0
 12
-13.297034
 22
0.096647
 32
0.0
 13
-13.297034
 23
0.096647
 33
0.0
210
0.0
220
0.0
230
-1.0
  0
SOLID
  5
AFA
330
ADF
100
AcDbEntity
  8
0
  6
Continuous
 62
     7
100
AcDbTrace
 10
-17.614063
 20
0.290765
 30
0.0
 11
-17.645849
 21
0.170682
 31
0.0
 12
-16.37189499999999
 22
0.222805
 32
0.0
 13
-16.37189499999999
 23
0.222805
 33
0.0
210
0.0
220
0.0
230
-1.0
  0
SOLID
  5
AFB
330
ADF
100
AcDbEntity
  8
0
  6
Continuous
 62
     7
100
AcDbTrace
 10
-13.297034
 20
0.451111
 30
0.0
 11
-14.595544
 21
0.244334
 31
0.0
 12
-13.297034
 22
0.245974
 32
0.0
 13
-13.297034
 23
0.245974
 33
0.0
210
0.0
220
0.0
230
-1.0
  0
SOLID
  5
AFC
330
ADF
100
AcDbEntity
  8
0
  6
Continuous
 62
     7
100
AcDbTrace
 10
-14.595544
 20
0.467957
 30
0.0
 11
-14.595544
 21
0.244334
 31
0.0
 12
-13.297034
 22
0.451111
 32
0.0
 13
-13.297034
 23
0.451111
 33
0.0
210
0.0
220
0.0
230
-1.0
  0
SOLID
  5
AFD
330
ADF
100
AcDbEntity
  8
0
  6
Continuous
 62
     7
100
AcDbTrace
 10
-16.321294
 20
0.6007010000000001
 30
0.0
 11
-17.614063
 21
0.290765
 31
0.0
 12
-16.37189499999999
 22
0.222805
 32
0.0
 13
-16.37189499999999
 23
0.222805
 33
0.0
210
0.0
220
0.0
230
-1.0
  0
SOLID
  5
AFE
330
ADF
100
AcDbEntity
  8
0
  6
Continuous
 62
     7
100
AcDbTrace
 10
-13.297034
 20
0.7042570000000002
 30
0.0
 11
-14.595544
 21
0.467957
 31
0.0
 12
-13.297034
 22
0.451111
 32
0.0
 13
-13.297034
 23
0.451111
 33
0.0
210
0.0
220
0.0
230
-1.0
  0
SOLID
  5
AFF
330
ADF
100
AcDbEntity
  8
0
  6
Continuous
 62
     7
100
AcDbTrace
 10
-14.595544
 20
0.7282930000000001
 30
0.0
 11
-14.595544
 21
0.467957
 31
0.0
 12
-13.297034
 22
0.7042570000000002
 32
0.0
 13
-13.297034
 23
0.7042570000000002
 33
0.0
210
0.0
220
0.0
230
-1.0
  0
SOLID
  5
B00
330
ADF
100
AcDbEntity
  8
0
  6
Continuous
 62
     7
100
AcDbTrace
 10
-16.30944399999998
 20
0.7470290000000001
 30
0.0
 11
-17.614063
 21
0.290765
 31
0.0
 12
-16.321294
 22
0.6007010000000001
 32
0.0
 13
-16.321294
 23
0.6007010000000001
 33
0.0
210
0.0
220
0.0
230
-1.0
  0
SOLID
  5
B01
330
ADF
100
AcDbEntity
  8
0
  6
Continuous
 62
     7
100
AcDbTrace
 10
-16.307171
 20
0.7734910000000001
 30
0.0
 11
-17.614063
 21
0.290765
 31
0.0
 12
-16.30944399999998
 22
0.7470290000000001
 32
0.0
 13
-16.30944399999998
 23
0.7470290000000001
 33
0.0
210
0.0
220
0.0
230
-1.0
  0
SOLID
  5
B02
330
ADF
100
AcDbEntity
  8
0
  6
Continuous
 62
     7
100
AcDbTrace
 10
-16.306093
 20
0.7848430000000001
 30
0.0
 11
-17.614063
 21
0.290765
 31
0.0
 12
-16.307171
 22
0.7734910000000001
 32
0.0
 13
-16.307171
 23
0.7734910000000001
 33
0.0
210
0.0
220
0.0
230
-1.0
  0
SOLID
  5
B03
330
ADF
100
AcDbEntity
  8
0
  6
Continuous
 62
     7
100
AcDbTrace
 10
-16.30347099999999
 20
0.8208809999999997
 30
0.0
 11
-17.614063
 21
0.290765
 31
0.0
 12
-16.306093
 22
0.7848430000000001
 32
0.0
 13
-16.306093
 23
0.7848430000000001
 33
0.0
210
0.0
220
0.0
230
-1.0
  0
SOLID
  5
B04
330
ADF
100
AcDbEntity
  8
0
  6
Continuous
 62
     7
100
AcDbTrace
 10
-17.54441599999999
 20
0.8366089999999999
 30
0.0
 11
-17.614063
 21
0.290765
 31
0.0
 12
-16.30347099999999
 22
0.8208809999999997
 32
0.0
 13
-16.30347099999999
 23
0.8208809999999997
 33
0.0
210
0.0
220
0.0
230
-1.0
  0
SOLID
  5
B05
330
ADF
100
AcDbEntity
  8
0
  6
Continuous
 62
     7
100
AcDbTrace
 10
-16.28970599999998
 20
0.9730269999999999
 30
0.0
 11
-17.54441599999999
 21
0.8366089999999999
 31
0.0
 12
-16.30347099999999
 22
0.8208809999999997
 32
0.0
 13
-16.30347099999999
 23
0.8208809999999997
 33
0.0
210
0.0
220
0.0
230
-1.0
  0
SOLID
  5
B06
330
ADF
100
AcDbEntity
  8
0
  6
Continuous
 62
     7
100
AcDbTrace
 10
-13.297034
 20
0.99761
 30
0.0
 11
-14.595544
 21
0.7282930000000001
 31
0.0
 12
-13.297034
 22
0.7042570000000002
 32
0.0
 13
-13.297034
 23
0.7042570000000002
 33
0.0
210
0.0
220
0.0
230
-1.0
  0
SOLID
  5
B07
330
ADF
100
AcDbEntity
  8
0
  6
Continuous
 62
     7
100
AcDbTrace
 10
-17.531197
 20
1.054591
 30
0.0
 11
-17.54441599999999
 21
0.8366089999999999
 31
0.0
 12
-16.28970599999998
 22
0.9730269999999999
 32
0.0
 13
-16.28970599999998
 23
0.9730269999999999
 33
0.0
210
0.0
220
0.0
230
-1.0
  0
SOLID
  5
B08
330
ADF
100
AcDbEntity
  8
0
  6
Continuous
 62
     7
100
AcDbTrace
 10
-17.52460499999999
 20
1.145934
 30
0.0
 11
-17.531197
 21
1.054591
 31
0.0
 12
-16.28970599999998
 22
0.9730269999999999
 32
0.0
 13
-16.28970599999998
 23
0.9730269999999999
 33
0.0
210
0.0
220
0.0
230
-1.0
  0
SOLID
  5
B09
330
ADF
100
AcDbEntity
  8
0
  6
Continuous
 62
     7
100
AcDbTrace
 10
-16.23909799999999
 20
1.264308999999999
 30
0.0
 11
-17.52460499999999
 21
1.145934
 31
0.0
 12
-16.28970599999998
 22
0.9730269999999999
 32
0.0
 13
-16.28970599999998
 23
0.9730269999999999
 33
0.0
210
0.0
220
0.0
230
-1.0
  0
SOLID
  5
B0A
330
ADF
100
AcDbEntity
  8
0
  6
Continuous
 62
     7
100
AcDbTrace
 10
-14.595544
 20
1.268197999999999
 30
0.0
 11
-14.595544
 21
0.7282930000000001
 31
0.0
 12
-13.297034
 22
0.99761
 32
0.0
 13
-13.297034
 23
0.99761
 33
0.0
210
0.0
220
0.0
230
-1.0
  0
SOLID
  5
B0B
330
ADF
100
AcDbEntity
  8
0
  6
Continuous
 62
     7
100
AcDbTrace
 10
-17.506288
 20
1.294218
 30
0.0
 11
-17.52460499999999
 21
1.145934
 31
0.0
 12
-16.23909799999999
 22
1.264308999999999
 32
0.0
 13
-16.23909799999999
 23
1.264308999999999
 33
0.0
210
0.0
220
0.0
230
-1.0
  0
SOLID
  5
B0C
330
ADF
100
AcDbEntity
  8
0
  6
Continuous
 62
     7
100
AcDbTrace
 10
-13.297034
 20
1.323369
 30
0.0
 11
-14.595544
 21
1.268197999999999
 31
0.0
 12
-13.297034
 22
0.99761
 32
0.0
 13
-13.297034
 23
0.99761
 33
0.0
210
0.0
220
0.0
230
-1.0
  0
SOLID
  5
B0D
330
ADF
100
AcDbEntity
  8
0
  6
Continuous
 62
     7
100
AcDbTrace
 10
-14.595544
 20
1.50231
 30
0.0
 11
-14.595544
 21
1.268197999999999
 31
0.0
 12
-13.297034
 22
1.323369
 32
0.0
 13
-13.297034
 23
1.323369
 33
0.0
210
0.0
220
0.0
230
-1.0
  0
SOLID
  5
B0E
330
ADF
100
AcDbEntity
  8
0
  6
Continuous
 62
     7
100
AcDbTrace
 10
-16.13782399999999
 20
1.516103999999999
 30
0.0
 11
-17.506288
 21
1.294218
 31
0.0
 12
-16.23909799999999
 22
1.264308999999999
 32
0.0
 13
-16.23909799999999
 23
1.264308999999999
 33
0.0
210
0.0
220
0.0
230
-1.0
  0
SOLID
  5
B0F
330
ADF
100
AcDbEntity
  8
0
  6
Continuous
 62
     7
100
AcDbTrace
 10
-17.441075
 20
1.595495
 30
0.0
 11
-17.506288
 21
1.294218
 31
0.0
 12
-16.13782399999999
 22
1.516103999999999
 32
0.0
 13
-16.13782399999999
 23
1.516103999999999
 33
0.0
210
0.0
220
0.0
230
-1.0
  0
SOLID
  5
B10
330
ADF
100
AcDbEntity
  8
0
  6
Continuous
 62
     7
100
AcDbTrace
 10
-16.060727
 20
1.618889999999999
 30
0.0
 11
-17.441075
 21
1.595495
 31
0.0
 12
-16.13782399999999
 22
1.516103999999999
 32
0.0
 13
-16.13782399999999
 23
1.516103999999999
 33
0.0
210
0.0
220
0.0
230
-1.0
  0
SOLID
  5
B11
330
ADF
100
AcDbEntity
  8
0
  6
Continuous
 62
     7
100
AcDbTrace
 10
-13.297034
 20
1.673731999999999
 30
0.0
 11
-14.595544
 21
1.50231
 31
0.0
 12
-13.297034
 22
1.323369
 32
0.0
 13
-13.297034
 23
1.323369
 33
0.0
210
0.0
220
0.0
230
-1.0
  0
SOLID
  5
B12
330
ADF
100
AcDbEntity
  8
0
  6
Continuous
 62
     7
100
AcDbTrace
 10
-14.595544
 20
1.682225999999999
 30
0.0
 11
-14.595544
 21
1.50231
 31
0.0
 12
-13.297034
 22
1.673731999999999
 32
0.0
 13
-13.297034
 23
1.673731999999999
 33
0.0
210
0.0
220
0.0
230
-1.0
  0
SOLID
  5
B13
330
ADF
100
AcDbEntity
  8
0
  6
Continuous
 62
     7
100
AcDbTrace
 10
-15.96200999999999
 20
1.70184
 30
0.0
 11
-17.441075
 21
1.595495
 31
0.0
 12
-16.060727
 22
1.618889999999999
 32
0.0
 13
-16.060727
 23
1.618889999999999
 33
0.0
210
0.0
220
0.0
230
-1.0
  0
SOLID
  5
B14
330
ADF
100
AcDbEntity
  8
0
  6
Continuous
 62
     7
100
AcDbTrace
 10
-14.595544
 20
1.744758
 30
0.0
 11
-14.595544
 21
1.682225999999999
 31
0.0
 12
-13.297034
 22
1.673731999999999
 32
0.0
 13
-13.297034
 23
1.673731999999999
 33
0.0
210
0.0
220
0.0
230
-1.0
  0
SOLID
  5
B15
330
ADF
100
AcDbEntity
  8
0
  6
Continuous
 62
     7
100
AcDbTrace
 10
-15.838691
 20
1.761631999999998
 30
0.0
 11
-17.441075
 21
1.595495
 31
0.0
 12
-15.96200999999999
 22
1.70184
 32
0.0
 13
-15.96200999999999
 23
1.70184
 33
0.0
210
0.0
220
0.0
230
-1.0
  0
SOLID
  5
B16
330
ADF
100
AcDbEntity
  8
0
  6
Continuous
 62
     7
100
AcDbTrace
 10
-14.595544
 20
1.785216999999998
 30
0.0
 11
-14.595544
 21
1.744758
 31
0.0
 12
-13.297034
 22
1.673731999999999
 32
0.0
 13
-13.297034
 23
1.673731999999999
 33
0.0
210
0.0
220
0.0
230
-1.0
  0
SOLID
  5
B17
330
ADF
100
AcDbEntity
  8
0
  6
Continuous
 62
     7
100
AcDbTrace
 10
-15.687784
 20
1.794945999999999
 30
0.0
 11
-17.441075
 21
1.595495
 31
0.0
 12
-15.838691
 22
1.761631999999998
 32
0.0
 13
-15.838691
 23
1.761631999999998
 33
0.0
210
0.0
220
0.0
230
-1.0
  0
SOLID
  5
B18
330
ADF
100
AcDbEntity
  8
0
  6
Continuous
 62
     7
100
AcDbTrace
 10
-14.60182999999999
 20
1.800847
 30
0.0
 11
-14.595544
 21
1.785216999999998
 31
0.0
 12
-13.297034
 22
1.673731999999999
 32
0.0
 13
-13.297034
 23
1.673731999999999
 33
0.0
210
0.0
220
0.0
230
-1.0
  0
SOLID
  5
B19
330
ADF
100
AcDbEntity
  8
0
  6
Continuous
 62
     7
100
AcDbTrace
 10
-17.326642
 20
1.878578999999999
 30
0.0
 11
-14.654173
 21
1.800847
 31
0.0
 12
-14.60182999999999
 22
1.800847
 32
0.0
 13
-14.60182999999999
 23
1.800847
 33
0.0
210
0.0
220
0.0
230
-1.0
  0
SOLID
  5
B1A
330
ADF
100
AcDbEntity
  8
0
  6
Continuous
 62
     7
100
AcDbTrace
 10
-17.326642
 20
1.878578999999999
 30
0.0
 11
-14.749352
 21
1.800847
 31
0.0
 12
-14.654173
 22
1.800847
 32
0.0
 13
-14.654173
 23
1.800847
 33
0.0
210
0.0
220
0.0
230
-1.0
  0
SOLID
  5
B1B
330
ADF
100
AcDbEntity
  8
0
  6
Continuous
 62
     7
100
AcDbTrace
 10
-17.326642
 20
1.878578999999999
 30
0.0
 11
-15.01871799999999
 21
1.800847
 31
0.0
 12
-14.749352
 22
1.800847
 32
0.0
 13
-14.749352
 23
1.800847
 33
0.0
210
0.0
220
0.0
230
-1.0
  0
SOLID
  5
B1C
330
ADF
100
AcDbEntity
  8
0
  6
Continuous
 62
     7
100
AcDbTrace
 10
-17.326642
 20
1.878578999999999
 30
0.0
 11
-15.31093
 21
1.800847
 31
0.0
 12
-15.01871799999999
 22
1.800847
 32
0.0
 13
-15.01871799999999
 23
1.800847
 33
0.0
210
0.0
220
0.0
230
-1.0
  0
SOLID
  5
B1D
330
ADF
100
AcDbEntity
  8
0
  6
Continuous
 62
     7
100
AcDbTrace
 10
-17.326642
 20
1.878578999999999
 30
0.0
 11
-15.434666
 21
1.800847
 31
0.0
 12
-15.31093
 22
1.800847
 32
0.0
 13
-15.31093
 23
1.800847
 33
0.0
210
0.0
220
0.0
230
-1.0
  0
SOLID
  5
B1E
330
ADF
100
AcDbEntity
  8
0
  6
Continuous
 62
     7
100
AcDbTrace
 10
-17.326642
 20
1.878578999999999
 30
0.0
 11
-15.526989
 21
1.800847
 31
0.0
 12
-15.434666
 22
1.800847
 32
0.0
 13
-15.434666
 23
1.800847
 33
0.0
210
0.0
220
0.0
230
-1.0
  0
SOLID
  5
B1F
330
ADF
100
AcDbEntity
  8
0
  6
Continuous
 62
     7
100
AcDbTrace
 10
-17.326642
 20
1.878578999999999
 30
0.0
 11
-15.575524
 21
1.800847
 31
0.0
 12
-15.526989
 22
1.800847
 32
0.0
 13
-15.526989
 23
1.800847
 33
0.0
210
0.0
220
0.0
230
-1.0
  0
SOLID
  5
B20
330
ADF
100
AcDbEntity
  8
0
  6
Continuous
 62
     7
100
AcDbTrace
 10
-17.326642
 20
1.878578999999999
 30
0.0
 11
-15.579366
 21
1.800847
 31
0.0
 12
-15.575524
 22
1.800847
 32
0.0
 13
-15.575524
 23
1.800847
 33
0.0
210
0.0
220
0.0
230
-1.0
  0
SOLID
  5
B21
330
ADF
100
AcDbEntity
  8
0
  6
Continuous
 62
     7
100
AcDbTrace
 10
-17.326642
 20
1.878578999999999
 30
0.0
 11
-15.601053
 21
1.800634999999999
 31
0.0
 12
-15.579366
 22
1.800847
 32
0.0
 13
-15.579366
 23
1.800847
 33
0.0
210
0.0
220
0.0
230
-1.0
  0
SOLID
  5
B22
330
ADF
100
AcDbEntity
  8
0
  6
Continuous
 62
     7
100
AcDbTrace
 10
-17.326642
 20
1.878578999999999
 30
0.0
 11
-15.687784
 21
1.794945999999999
 31
0.0
 12
-15.601053
 22
1.800634999999999
 32
0.0
 13
-15.601053
 23
1.800634999999999
 33
0.0
210
0.0
220
0.0
230
-1.0
  0
SOLID
  5
B23
330
ADF
100
AcDbEntity
  8
0
  6
Continuous
 62
     7
100
AcDbTrace
 10
-17.326642
 20
1.878578999999999
 30
0.0
 11
-17.441075
 21
1.595495
 31
0.0
 12
-15.687784
 22
1.794945999999999
 32
0.0
 13
-15.687784
 23
1.794945999999999
 33
0.0
210
0.0
220
0.0
230
-1.0
  0
SOLID
  5
B24
330
ADF
100
AcDbEntity
  8
0
  6
Continuous
 62
     7
100
AcDbTrace
 10
-17.246801
 20
2.004122999999998
 30
0.0
 11
-17.326642
 21
1.878578999999999
 31
0.0
 12
-14.60182999999999
 22
1.800847
 32
0.0
 13
-14.60182999999999
 23
1.800847
 33
0.0
210
0.0
220
0.0
230
-1.0
  0
SOLID
  5
B25
330
ADF
100
AcDbEntity
  8
0
  6
Continuous
 62
     7
100
AcDbTrace
 10
-17.14965499999999
 20
2.114107999999999
 30
0.0
 11
-17.246801
 21
2.004122999999998
 31
0.0
 12
-14.60182999999999
 22
1.800847
 32
0.0
 13
-14.60182999999999
 23
1.800847
 33
0.0
210
0.0
220
0.0
230
-1.0
  0
SOLID
  5
B26
330
ADF
100
AcDbEntity
  8
0
  6
Continuous
 62
     7
100
AcDbTrace
 10
-17.14965499999999
 20
2.114107999999999
 30
0.0
 11
-14.60182999999999
 21
1.800847
 31
0.0
 12
-13.297034
 22
1.673731999999999
 32
0.0
 13
-13.297034
 23
1.673731999999999
 33
0.0
210
0.0
220
0.0
230
-1.0
  0
SOLID
  5
B27
330
ADF
100
AcDbEntity
  8
0
  6
Continuous
 62
     7
100
AcDbTrace
 10
-17.033535
 20
2.204864
 30
0.0
 11
-17.14965499999999
 21
2.114107999999999
 31
0.0
 12
-13.297034
 22
1.673731999999999
 32
0.0
 13
-13.297034
 23
1.673731999999999
 33
0.0
210
0.0
220
0.0
230
-1.0
  0
SOLID
  5
B28
330
ADF
100
AcDbEntity
  8
0
  6
Continuous
 62
     7
100
AcDbTrace
 10
-16.896776
 20
2.272718999999999
 30
0.0
 11
-17.033535
 21
2.204864
 31
0.0
 12
-13.297034
 22
1.673731999999999
 32
0.0
 13
-13.297034
 23
1.673731999999999
 33
0.0
210
0.0
220
0.0
230
-1.0
  0
SOLID
  5
B29
330
ADF
100
AcDbEntity
  8
0
  6
Continuous
 62
     7
100
AcDbTrace
 10
-16.82013599999999
 20
2.296912999999999
 30
0.0
 11
-16.896776
 21
2.272718999999999
 31
0.0
 12
-13.297034
 22
1.673731999999999
 32
0.0
 13
-13.297034
 23
1.673731999999999
 33
0.0
210
0.0
220
0.0
230
-1.0
  0
SOLID
  5
B2A
330
ADF
100
AcDbEntity
  8
0
  6
Continuous
 62
     7
100
AcDbTrace
 10
-16.801635
 20
2.301511999999998
 30
0.0
 11
-16.82013599999999
 21
2.296912999999999
 31
0.0
 12
-13.297034
 22
1.673731999999999
 32
0.0
 13
-13.297034
 23
1.673731999999999
 33
0.0
210
0.0
220
0.0
230
-1.0
  0
SOLID
  5
B2B
330
ADF
100
AcDbEntity
  8
0
  6
Continuous
 62
     7
100
AcDbTrace
 10
-16.801635
 20
2.301565999999998
 30
0.0
 11
-16.801635
 21
2.301511999999998
 31
0.0
 12
-13.297034
 22
1.673731999999999
 32
0.0
 13
-13.297034
 23
1.673731999999999
 33
0.0
210
0.0
220
0.0
230
-1.0
  0
SOLID
  5
B2C
330
ADF
100
AcDbEntity
  8
0
  6
Continuous
 62
     7
100
AcDbTrace
 10
-16.801635
 20
2.302252999999998
 30
0.0
 11
-16.801635
 21
2.301565999999998
 31
0.0
 12
-13.297034
 22
1.673731999999999
 32
0.0
 13
-13.297034
 23
1.673731999999999
 33
0.0
210
0.0
220
0.0
230
-1.0
  0
SOLID
  5
B2D
330
ADF
100
AcDbEntity
  8
0
  6
Continuous
 62
     7
100
AcDbTrace
 10
-16.801635
 20
2.305308999999998
 30
0.0
 11
-16.801635
 21
2.302252999999998
 31
0.0
 12
-13.297034
 22
1.673731999999999
 32
0.0
 13
-13.297034
 23
1.673731999999999
 33
0.0
210
0.0
220
0.0
230
-1.0
  0
SOLID
  5
B2E
330
ADF
100
AcDbEntity
  8
0
  6
Continuous
 62
     7
100
AcDbTrace
 10
-16.801635
 20
2.313254
 30
0.0
 11
-16.801635
 21
2.305308999999998
 31
0.0
 12
-13.297034
 22
1.673731999999999
 32
0.0
 13
-13.297034
 23
1.673731999999999
 33
0.0
210
0.0
220
0.0
230
-1.0
  0
SOLID
  5
B2F
330
ADF
100
AcDbEntity
  8
0
  6
Continuous
 62
     7
100
AcDbTrace
 10
-16.801635
 20
2.315341
 30
0.0
 11
-16.801635
 21
2.313254
 31
0.0
 12
-13.297034
 22
1.673731999999999
 32
0.0
 13
-13.297034
 23
1.673731999999999
 33
0.0
210
0.0
220
0.0
230
-1.0
  0
SOLID
  5
B30
330
ADF
100
AcDbEntity
  8
0
  6
Continuous
 62
     7
100
AcDbTrace
 10
-16.807759
 20
2.317807
 30
0.0
 11
-16.801635
 21
2.315341
 31
0.0
 12
-13.297034
 22
1.673731999999999
 32
0.0
 13
-13.297034
 23
1.673731999999999
 33
0.0
210
0.0
220
0.0
230
-1.0
  0
SOLID
  5
B31
330
ADF
100
AcDbEntity
  8
0
  6
Continuous
 62
     7
100
AcDbTrace
 10
-16.88515799999999
 20
2.351214999999999
 30
0.0
 11
-16.807759
 21
2.317807
 31
0.0
 12
-13.297034
 22
1.673731999999999
 32
0.0
 13
-13.297034
 23
1.673731999999999
 33
0.0
210
0.0
220
0.0
230
-1.0
  0
SOLID
  5
B32
330
ADF
100
AcDbEntity
  8
0
  6
Continuous
 62
     7
100
AcDbTrace
 10
-17.027669
 20
2.431305
 30
0.0
 11
-16.88515799999999
 21
2.351214999999999
 31
0.0
 12
-13.297034
 22
1.673731999999999
 32
0.0
 13
-13.297034
 23
1.673731999999999
 33
0.0
210
0.0
220
0.0
230
-1.0
  0
SOLID
  5
B33
330
ADF
100
AcDbEntity
  8
0
  6
Continuous
 62
     7
100
AcDbTrace
 10
-17.153832
 20
2.527636999999999
 30
0.0
 11
-17.027669
 21
2.431305
 31
0.0
 12
-13.297034
 22
1.673731999999999
 32
0.0
 13
-13.297034
 23
1.673731999999999
 33
0.0
210
0.0
220
0.0
230
-1.0
  0
SOLID
  5
B34
330
ADF
100
AcDbEntity
  8
0
  6
Continuous
 62
     7
100
AcDbTrace
 10
-17.263691
 20
2.638462
 30
0.0
 11
-17.153832
 21
2.527636999999999
 31
0.0
 12
-13.297034
 22
1.673731999999999
 32
0.0
 13
-13.297034
 23
1.673731999999999
 33
0.0
210
0.0
220
0.0
230
-1.0
  0
SOLID
  5
B35
330
ADF
100
AcDbEntity
  8
0
  6
Continuous
 62
     7
100
AcDbTrace
 10
-15.67237699999999
 20
2.802160999999999
 30
0.0
 11
-17.263691
 21
2.638462
 31
0.0
 12
-13.297034
 22
1.673731999999999
 32
0.0
 13
-13.297034
 23
1.673731999999999
 33
0.0
210
0.0
220
0.0
230
-1.0
  0
SOLID
  5
B36
330
ADF
100
AcDbEntity
  8
0
  6
Continuous
 62
     7
100
AcDbTrace
 10
-13.297034
 20
1.673731999999999
 30
0.0
 11
-15.626055
 21
2.802160999999999
 31
0.0
 12
-15.67237699999999
 22
2.802160999999999
 32
0.0
 13
-15.67237699999999
 23
2.802160999999999
 33
0.0
210
0.0
220
0.0
230
-1.0
  0
SOLID
  5
B37
330
ADF
100
AcDbEntity
  8
0
  6
Continuous
 62
     7
100
AcDbTrace
 10
-13.297034
 20
1.673731999999999
 30
0.0
 11
-15.551067
 21
2.802160999999999
 31
0.0
 12
-15.626055
 22
2.802160999999999
 32
0.0
 13
-15.626055
 23
2.802160999999999
 33
0.0
210
0.0
220
0.0
230
-1.0
  0
SOLID
  5
B38
330
ADF
100
AcDbEntity
  8
0
  6
Continuous
 62
     7
100
AcDbTrace
 10
-13.297034
 20
1.673731999999999
 30
0.0
 11
-15.34002099999999
 21
2.802160999999999
 31
0.0
 12
-15.551067
 22
2.802160999999999
 32
0.0
 13
-15.551067
 23
2.802160999999999
 33
0.0
210
0.0
220
0.0
230
-1.0
  0
SOLID
  5
B39
330
ADF
100
AcDbEntity
  8
0
  6
Continuous
 62
     7
100
AcDbTrace
 10
-13.297034
 20
1.673731999999999
 30
0.0
 11
-14.848134
 21
2.802160999999999
 31
0.0
 12
-15.34002099999999
 22
2.802160999999999
 32
0.0
 13
-15.34002099999999
 23
2.802160999999999
 33
0.0
210
0.0
220
0.0
230
-1.0
  0
SOLID
  5
B3A
330
ADF
100
AcDbEntity
  8
0
  6
Continuous
 62
     7
100
AcDbTrace
 10
-13.297034
 20
1.673731999999999
 30
0.0
 11
-14.746974
 21
2.802160999999999
 31
0.0
 12
-14.848134
 22
2.802160999999999
 32
0.0
 13
-14.848134
 23
2.802160999999999
 33
0.0
210
0.0
220
0.0
230
-1.0
  0
SOLID
  5
B3B
330
ADF
100
AcDbEntity
  8
0
  6
Continuous
 62
     7
100
AcDbTrace
 10
-13.297034
 20
1.673731999999999
 30
0.0
 11
-14.667
 21
2.802160999999999
 31
0.0
 12
-14.746974
 22
2.802160999999999
 32
0.0
 13
-14.746974
 23
2.802160999999999
 33
0.0
210
0.0
220
0.0
230
-1.0
  0
SOLID
  5
B3C
330
ADF
100
AcDbEntity
  8
0
  6
Continuous
 62
     7
100
AcDbTrace
 10
-13.297034
 20
1.673731999999999
 30
0.0
 11
-14.614447
 21
2.802160999999999
 31
0.0
 12
-14.667
 22
2.802160999999999
 32
0.0
 13
-14.667
 23
2.802160999999999
 33
0.0
210
0.0
220
0.0
230
-1.0
  0
SOLID
  5
B3D
330
ADF
100
AcDbEntity
  8
0
  6
Continuous
 62
     7
100
AcDbTrace
 10
-13.297034
 20
1.673731999999999
 30
0.0
 11
-14.595544
 21
2.802160999999999
 31
0.0
 12
-14.614447
 22
2.802160999999999
 32
0.0
 13
-14.614447
 23
2.802160999999999
 33
0.0
210
0.0
220
0.0
230
-1.0
  0
SOLID
  5
B3E
330
ADF
100
AcDbEntity
  8
0
  6
Continuous
 62
     7
100
AcDbTrace
 10
-15.702802
 20
2.802313999999999
 30
0.0
 11
-17.263691
 21
2.638462
 31
0.0
 12
-15.67237699999999
 22
2.802160999999999
 32
0.0
 13
-15.67237699999999
 23
2.802160999999999
 33
0.0
210
0.0
220
0.0
230
-1.0
  0
SOLID
  5
B3F
330
ADF
100
AcDbEntity
  8
0
  6
Continuous
 62
     7
100
AcDbTrace
 10
-15.789764
 20
2.807625999999999
 30
0.0
 11
-17.263691
 21
2.638462
 31
0.0
 12
-15.702802
 22
2.802313999999999
 32
0.0
 13
-15.702802
 23
2.802313999999999
 33
0.0
210
0.0
220
0.0
230
-1.0
  0
SOLID
  5
B40
330
ADF
100
AcDbEntity
  8
0
  6
Continuous
 62
     7
100
AcDbTrace
 10
-14.595544
 20
2.82159
 30
0.0
 11
-14.595544
 21
2.802160999999999
 31
0.0
 12
-13.297034
 22
1.673731999999999
 32
0.0
 13
-13.297034
 23
1.673731999999999
 33
0.0
210
0.0
220
0.0
230
-1.0
  0
SOLID
  5
B41
330
ADF
100
AcDbEntity
  8
0
  6
Continuous
 62
     7
100
AcDbTrace
 10
-15.943381
 20
2.840612999999999
 30
0.0
 11
-17.263691
 21
2.638462
 31
0.0
 12
-15.789764
 22
2.807625999999999
 32
0.0
 13
-15.789764
 23
2.807625999999999
 33
0.0
210
0.0
220
0.0
230
-1.0
  0
SOLID
  5
B42
330
ADF
100
AcDbEntity
  8
0
  6
Continuous
 62
     7
100
AcDbTrace
 10
-14.595544
 20
2.875607
 30
0.0
 11
-14.595544
 21
2.82159
 31
0.0
 12
-13.297034
 22
1.673731999999999
 32
0.0
 13
-13.297034
 23
1.673731999999999
 33
0.0
210
0.0
220
0.0
230
-1.0
  0
SOLID
  5
B43
330
ADF
100
AcDbEntity
  8
0
  6
Continuous
 62
     7
100
AcDbTrace
 10
-17.434666
 20
2.896602999999998
 30
0.0
 11
-17.263691
 21
2.638462
 31
0.0
 12
-15.943381
 22
2.840612999999999
 32
0.0
 13
-15.943381
 23
2.840612999999999
 33
0.0
210
0.0
220
0.0
230
-1.0
  0
SOLID
  5
B44
330
ADF
100
AcDbEntity
  8
0
  6
Continuous
 62
     7
100
AcDbTrace
 10
-16.06938699999998
 20
2.902620999999999
 30
0.0
 11
-17.434666
 21
2.896602999999998
 31
0.0
 12
-15.943381
 22
2.840612999999999
 32
0.0
 13
-15.943381
 23
2.840612999999999
 33
0.0
210
0.0
220
0.0
230
-1.0
  0
SOLID
  5
B45
330
ADF
100
AcDbEntity
  8
0
  6
Continuous
 62
     7
100
AcDbTrace
 10
-14.595544
 20
2.957806
 30
0.0
 11
-14.595544
 21
2.875607
 31
0.0
 12
-13.297034
 22
1.673731999999999
 32
0.0
 13
-13.297034
 23
1.673731999999999
 33
0.0
210
0.0
220
0.0
230
-1.0
  0
SOLID
  5
B46
330
ADF
100
AcDbEntity
  8
0
  6
Continuous
 62
     7
100
AcDbTrace
 10
-16.167141
 20
2.992697
 30
0.0
 11
-17.434666
 21
2.896602999999998
 31
0.0
 12
-16.06938699999998
 22
2.902620999999999
 32
0.0
 13
-16.06938699999998
 23
2.902620999999999
 33
0.0
210
0.0
220
0.0
230
-1.0
  0
SOLID
  5
B47
330
ADF
100
AcDbEntity
  8
0
  6
Continuous
 62
     7
100
AcDbTrace
 10
-14.595544
 20
3.061782
 30
0.0
 11
-14.595544
 21
2.957806
 31
0.0
 12
-13.297034
 22
1.673731999999999
 32
0.0
 13
-13.297034
 23
1.673731999999999
 33
0.0
210
0.0
220
0.0
230
-1.0
  0
SOLID
  5
B48
330
ADF
100
AcDbEntity
  8
0
  6
Continuous
 62
     7
100
AcDbTrace
 10
-16.236002
 20
3.109884
 30
0.0
 11
-17.434666
 21
2.896602999999998
 31
0.0
 12
-16.167141
 22
2.992697
 32
0.0
 13
-16.167141
 23
2.992697
 33
0.0
210
0.0
220
0.0
230
-1.0
  0
SOLID
  5
B49
330
ADF
100
AcDbEntity
  8
0
  6
Continuous
 62
     7
100
AcDbTrace
 10
-13.297034
 20
3.165202999999999
 30
0.0
 11
-14.595544
 21
3.061782
 31
0.0
 12
-13.297034
 22
1.673731999999999
 32
0.0
 13
-13.297034
 23
1.673731999999999
 33
0.0
210
0.0
220
0.0
230
-1.0
  0
SOLID
  5
B4A
330
ADF
100
AcDbEntity
  8
0
  6
Continuous
 62
     7
100
AcDbTrace
 10
-17.540937
 20
3.191751
 30
0.0
 11
-17.434666
 21
2.896602999999998
 31
0.0
 12
-16.236002
 22
3.109884
 32
0.0
 13
-16.236002
 23
3.109884
 33
0.0
210
0.0
220
0.0
230
-1.0
  0
SOLID
  5
B4B
330
ADF
100
AcDbEntity
  8
0
  6
Continuous
 62
     7
100
AcDbTrace
 10
-16.275329
 20
3.253228
 30
0.0
 11
-17.540937
 21
3.191751
 31
0.0
 12
-16.236002
 22
3.109884
 32
0.0
 13
-16.236002
 23
3.109884
 33
0.0
210
0.0
220
0.0
230
-1.0
  0
SOLID
  5
B4C
330
ADF
100
AcDbEntity
  8
0
  6
Continuous
 62
     7
100
AcDbTrace
 10
-16.284243
 20
3.420061
 30
0.0
 11
-17.540937
 21
3.191751
 31
0.0
 12
-16.275329
 22
3.253228
 32
0.0
 13
-16.275329
 23
3.253228
 33
0.0
210
0.0
220
0.0
230
-1.0
  0
SOLID
  5
B4D
330
ADF
100
AcDbEntity
  8
0
  6
Continuous
 62
     7
100
AcDbTrace
 10
-17.58284799999999
 20
3.509923999999998
 30
0.0
 11
-17.540937
 21
3.191751
 31
0.0
 12
-16.284243
 22
3.420061
 32
0.0
 13
-16.284243
 23
3.420061
 33
0.0
210
0.0
220
0.0
230
-1.0
  0
SOLID
  5
B4E
330
ADF
100
AcDbEntity
  8
0
  6
Continuous
 62
     7
100
AcDbTrace
 10
-13.297034
 20
3.521566999999998
 30
0.0
 11
-14.595544
 21
3.061782
 31
0.0
 12
-13.297034
 22
3.165202999999999
 32
0.0
 13
-13.297034
 23
3.165202999999999
 33
0.0
210
0.0
220
0.0
230
-1.0
  0
SOLID
  5
B4F
330
ADF
100
AcDbEntity
  8
0
  6
Continuous
 62
     7
100
AcDbTrace
 10
-17.58357799999998
 20
3.550618
 30
0.0
 11
-17.58284799999999
 21
3.509923999999998
 31
0.0
 12
-16.284243
 22
3.420061
 32
0.0
 13
-16.284243
 23
3.420061
 33
0.0
210
0.0
220
0.0
230
-1.0
  0
SOLID
  5
B50
330
ADF
100
AcDbEntity
  8
0
  6
Continuous
 62
     7
100
AcDbTrace
 10
-14.595544
 20
3.567359999999998
 30
0.0
 11
-14.595544
 21
3.061782
 31
0.0
 12
-13.297034
 22
3.521566999999998
 32
0.0
 13
-13.297034
 23
3.521566999999998
 33
0.0
210
0.0
220
0.0
230
-1.0
  0
SOLID
  5
B51
330
ADF
100
AcDbEntity
  8
0
  6
Continuous
 62
     7
100
AcDbTrace
 10
-16.255641
 20
3.572387999999998
 30
0.0
 11
-17.58357799999998
 21
3.550618
 31
0.0
 12
-16.284243
 22
3.420061
 32
0.0
 13
-16.284243
 23
3.420061
 33
0.0
210
0.0
220
0.0
230
-1.0
  0
SOLID
  5
B52
330
ADF
100
AcDbEntity
  8
0
  6
Continuous
 62
     7
100
AcDbTrace
 10
-17.582621
 20
3.618002999999998
 30
0.0
 11
-17.58357799999998
 21
3.550618
 31
0.0
 12
-16.255641
 22
3.572387999999998
 32
0.0
 13
-16.255641
 23
3.572387999999998
 33
0.0
210
0.0
220
0.0
230
-1.0
  0
SOLID
  5
B53
330
ADF
100
AcDbEntity
  8
0
  6
Continuous
 62
     7
100
AcDbTrace
 10
-16.19022199999999
 20
3.696115999999999
 30
0.0
 11
-17.582621
 21
3.618002999999998
 31
0.0
 12
-16.255641
 22
3.572387999999998
 32
0.0
 13
-16.255641
 23
3.572387999999998
 33
0.0
210
0.0
220
0.0
230
-1.0
  0
SOLID
  5
B54
330
ADF
100
AcDbEntity
  8
0
  6
Continuous
 62
     7
100
AcDbTrace
 10
-17.571062
 20
3.762328999999999
 30
0.0
 11
-17.582621
 21
3.618002999999998
 31
0.0
 12
-16.19022199999999
 22
3.696115999999999
 32
0.0
 13
-16.19022199999999
 23
3.696115999999999
 33
0.0
210
0.0
220
0.0
230
-1.0
  0
SOLID
  5
B55
330
ADF
100
AcDbEntity
  8
0
  6
Continuous
 62
     7
100
AcDbTrace
 10
-14.595544
 20
3.784279999999999
 30
0.0
 11
-14.595544
 21
3.567359999999998
 31
0.0
 12
-13.297034
 22
3.521566999999998
 32
0.0
 13
-13.297034
 23
3.521566999999998
 33
0.0
210
0.0
220
0.0
230
-1.0
  0
SOLID
  5
B56
330
ADF
100
AcDbEntity
  8
0
  6
Continuous
 62
     7
100
AcDbTrace
 10
-16.093098
 20
3.792046
 30
0.0
 11
-17.571062
 21
3.762328999999999
 31
0.0
 12
-16.19022199999999
 22
3.696115999999999
 32
0.0
 13
-16.19022199999999
 23
3.696115999999999
 33
0.0
210
0.0
220
0.0
230
-1.0
  0
SOLID
  5
B57
330
ADF
100
AcDbEntity
  8
0
  6
Continuous
 62
     7
100
AcDbTrace
 10
-13.297034
 20
3.855728
 30
0.0
 11
-14.595544
 21
3.784279999999999
 31
0.0
 12
-13.297034
 22
3.521566999999998
 32
0.0
 13
-13.297034
 23
3.521566999999998
 33
0.0
210
0.0
220
0.0
230
-1.0
  0
SOLID
  5
B58
330
ADF
100
AcDbEntity
  8
0
  6
Continuous
 62
     7
100
AcDbTrace
 10
-15.969381
 20
3.860977999999998
 30
0.0
 11
-17.571062
 21
3.762328999999999
 31
0.0
 12
-16.093098
 22
3.792046
 32
0.0
 13
-16.093098
 23
3.792046
 33
0.0
210
0.0
220
0.0
230
-1.0
  0
SOLID
  5
B59
330
ADF
100
AcDbEntity
  8
0
  6
Continuous
 62
     7
100
AcDbTrace
 10
-14.595544
 20
3.861355
 30
0.0
 11
-14.595544
 21
3.784279999999999
 31
0.0
 12
-13.297034
 22
3.855728
 32
0.0
 13
-13.297034
 23
3.855728
 33
0.0
210
0.0
220
0.0
230
-1.0
  0
SOLID
  5
B5A
330
ADF
100
AcDbEntity
  8
0
  6
Continuous
 62
     7
100
AcDbTrace
 10
-15.82418399999999
 20
3.903712
 30
0.0
 11
-17.571062
 21
3.762328999999999
 31
0.0
 12
-15.969381
 22
3.860977999999998
 32
0.0
 13
-15.969381
 23
3.860977999999998
 33
0.0
210
0.0
220
0.0
230
-1.0
  0
SOLID
  5
B5B
330
ADF
100
AcDbEntity
  8
0
  6
Continuous
 62
     7
100
AcDbTrace
 10
-14.595544
 20
3.908966999999999
 30
0.0
 11
-14.595544
 21
3.861355
 31
0.0
 12
-13.297034
 22
3.855728
 32
0.0
 13
-13.297034
 23
3.855728
 33
0.0
210
0.0
220
0.0
230
-1.0
  0
SOLID
  5
B5C
330
ADF
100
AcDbEntity
  8
0
  6
Continuous
 62
     7
100
AcDbTrace
 10
-15.66262
 20
3.921047999999999
 30
0.0
 11
-17.571062
 21
3.762328999999999
 31
0.0
 12
-15.82418399999999
 22
3.903712
 32
0.0
 13
-15.82418399999999
 23
3.903712
 33
0.0
210
0.0
220
0.0
230
-1.0
  0
SOLID
  5
B5D
330
ADF
100
AcDbEntity
  8
0
  6
Continuous
 62
     7
100
AcDbTrace
 10
-14.596293
 20
3.921537999999999
 30
0.0
 11
-14.595544
 21
3.908966999999999
 31
0.0
 12
-13.297034
 22
3.855728
 32
0.0
 13
-13.297034
 23
3.855728
 33
0.0
210
0.0
220
0.0
230
-1.0
  0
SOLID
  5
B5E
330
ADF
100
AcDbEntity
  8
0
  6
Continuous
 62
     7
100
AcDbTrace
 10
-17.511209
 20
4.023741999999998
 30
0.0
 11
-14.621085
 21
3.921537999999999
 31
0.0
 12
-14.596293
 22
3.921537999999999
 32
0.0
 13
-14.596293
 23
3.921537999999999
 33
0.0
210
0.0
220
0.0
230
-1.0
  0
SOLID
  5
B5F
330
ADF
100
AcDbEntity
  8
0
  6
Continuous
 62
     7
100
AcDbTrace
 10
-17.511209
 20
4.023741999999998
 30
0.0
 11
-14.676621
 21
3.921537999999999
 31
0.0
 12
-14.621085
 22
3.921537999999999
 32
0.0
 13
-14.621085
 23
3.921537999999999
 33
0.0
210
0.0
220
0.0
230
-1.0
  0
SOLID
  5
B60
330
ADF
100
AcDbEntity
  8
0
  6
Continuous
 62
     7
100
AcDbTrace
 10
-17.511209
 20
4.023741999999998
 30
0.0
 11
-14.756989
 21
3.921537999999999
 31
0.0
 12
-14.676621
 22
3.921537999999999
 32
0.0
 13
-14.676621
 23
3.921537999999999
 33
0.0
210
0.0
220
0.0
230
-1.0
  0
SOLID
  5
B61
330
ADF
100
AcDbEntity
  8
0
  6
Continuous
 62
     7
100
AcDbTrace
 10
-17.511209
 20
4.023741999999998
 30
0.0
 11
-14.96857099999999
 21
3.921537999999999
 31
0.0
 12
-14.756989
 22
3.921537999999999
 32
0.0
 13
-14.756989
 23
3.921537999999999
 33
0.0
210
0.0
220
0.0
230
-1.0
  0
SOLID
  5
B62
330
ADF
100
AcDbEntity
  8
0
  6
Continuous
 62
     7
100
AcDbTrace
 10
-17.511209
 20
4.023741999999998
 30
0.0
 11
-15.208531
 21
3.921537999999999
 31
0.0
 12
-14.96857099999999
 22
3.921537999999999
 32
0.0
 13
-14.96857099999999
 23
3.921537999999999
 33
0.0
210
0.0
220
0.0
230
-1.0
  0
SOLID
  5
B63
330
ADF
100
AcDbEntity
  8
0
  6
Continuous
 62
     7
100
AcDbTrace
 10
-17.511209
 20
4.023741999999998
 30
0.0
 11
-15.429572
 21
3.921537999999999
 31
0.0
 12
-15.208531
 22
3.921537999999999
 32
0.0
 13
-15.208531
 23
3.921537999999999
 33
0.0
210
0.0
220
0.0
230
-1.0
  0
SOLID
  5
B64
330
ADF
100
AcDbEntity
  8
0
  6
Continuous
 62
     7
100
AcDbTrace
 10
-17.511209
 20
4.023741999999998
 30
0.0
 11
-15.518217
 21
3.921537999999999
 31
0.0
 12
-15.429572
 22
3.921537999999999
 32
0.0
 13
-15.429572
 23
3.921537999999999
 33
0.0
210
0.0
220
0.0
230
-1.0
  0
SOLID
  5
B65
330
ADF
100
AcDbEntity
  8
0
  6
Continuous
 62
     7
100
AcDbTrace
 10
-17.511209
 20
4.023741999999998
 30
0.0
 11
-15.58439599999998
 21
3.921537999999999
 31
0.0
 12
-15.518217
 22
3.921537999999999
 32
0.0
 13
-15.518217
 23
3.921537999999999
 33
0.0
210
0.0
220
0.0
230
-1.0
  0
SOLID
  5
B66
330
ADF
100
AcDbEntity
  8
0
  6
Continuous
 62
     7
100
AcDbTrace
 10
-17.511209
 20
4.023741999999998
 30
0.0
 11
-15.66262
 21
3.921047999999999
 31
0.0
 12
-15.58439599999998
 22
3.921537999999999
 32
0.0
 13
-15.58439599999998
 23
3.921537999999999
 33
0.0
210
0.0
220
0.0
230
-1.0
  0
SOLID
  5
B67
330
ADF
100
AcDbEntity
  8
0
  6
Continuous
 62
     7
100
AcDbTrace
 10
-17.511209
 20
4.023741999999998
 30
0.0
 11
-17.571062
 21
3.762328999999999
 31
0.0
 12
-15.66262
 22
3.921047999999999
 32
0.0
 13
-15.66262
 23
3.921047999999999
 33
0.0
210
0.0
220
0.0
230
-1.0
  0
SOLID
  5
B68
330
ADF
100
AcDbEntity
  8
0
  6
Continuous
 62
     7
100
AcDbTrace
 10
-13.297034
 20
4.159882999999998
 30
0.0
 11
-17.511209
 21
4.023741999999998
 31
0.0
 12
-14.596293
 22
3.921537999999999
 32
0.0
 13
-14.596293
 23
3.921537999999999
 33
0.0
210
0.0
220
0.0
230
-1.0
  0
SOLID
  5
B69
330
ADF
100
AcDbEntity
  8
0
  6
Continuous
 62
     7
100
AcDbTrace
 10
-13.297034
 20
4.159882999999998
 30
0.0
 11
-14.596293
 21
3.921537999999999
 31
0.0
 12
-13.297034
 22
3.855728
 32
0.0
 13
-13.297034
 23
3.855728
 33
0.0
210
0.0
220
0.0
230
-1.0
  0
SOLID
  5
B6A
330
ADF
100
AcDbEntity
  8
0
  6
Continuous
 62
     7
100
AcDbTrace
 10
-17.40683999999999
 20
4.249932
 30
0.0
 11
-17.511209
 21
4.023741999999998
 31
0.0
 12
-13.297034
 22
4.159882999999998
 32
0.0
 13
-13.297034
 23
4.159882999999998
 33
0.0
210
0.0
220
0.0
230
-1.0
  0
SOLID
  5
B6B
330
ADF
100
AcDbEntity
  8
0
  6
Continuous
 62
     7
100
AcDbTrace
 10
-13.297034
 20
4.426230999999998
 30
0.0
 11
-17.40683999999999
 21
4.249932
 31
0.0
 12
-13.297034
 22
4.159882999999998
 32
0.0
 13
-13.297034
 23
4.159882999999998
 33
0.0
210
0.0
220
0.0
230
-1.0
  0
SOLID
  5
B6C
330
ADF
100
AcDbEntity
  8
0
  6
Continuous
 62
     7
100
AcDbTrace
 10
-17.26330799999999
 20
4.442211
 30
0.0
 11
-17.40683999999999
 21
4.249932
 31
0.0
 12
-13.297034
 22
4.426230999999998
 32
0.0
 13
-13.297034
 23
4.426230999999998
 33
0.0
210
0.0
220
0.0
230
-1.0
  0
SOLID
  5
B6D
330
ADF
100
AcDbEntity
  8
0
  6
Continuous
 62
     7
100
AcDbTrace
 10
-17.085967
 20
4.601891
 30
0.0
 11
-17.26330799999999
 21
4.442211
 31
0.0
 12
-13.297034
 22
4.426230999999998
 32
0.0
 13
-13.297034
 23
4.426230999999998
 33
0.0
210
0.0
220
0.0
230
-1.0
  0
SOLID
  5
B6E
330
ADF
100
AcDbEntity
  8
0
  6
Continuous
 62
     7
100
AcDbTrace
 10
-13.297034
 20
4.646970999999998
 30
0.0
 11
-17.085967
 21
4.601891
 31
0.0
 12
-13.297034
 22
4.426230999999998
 32
0.0
 13
-13.297034
 23
4.426230999999998
 33
0.0
210
0.0
220
0.0
230
-1.0
  0
SOLID
  5
B6F
330
ADF
100
AcDbEntity
  8
0
  6
Continuous
 62
     7
100
AcDbTrace
 10
-16.880171
 20
4.730283999999999
 30
0.0
 11
-17.085967
 21
4.601891
 31
0.0
 12
-13.297034
 22
4.646970999999998
 32
0.0
 13
-13.297034
 23
4.646970999999998
 33
0.0
210
0.0
220
0.0
230
-1.0
  0
SOLID
  5
B70
330
ADF
100
AcDbEntity
  8
0
  6
Continuous
 62
     7
100
AcDbTrace
 10
-13.297034
 20
4.814301
 30
0.0
 11
-16.880171
 21
4.730283999999999
 31
0.0
 12
-13.297034
 22
4.646970999999998
 32
0.0
 13
-13.297034
 23
4.646970999999998
 33
0.0
210
0.0
220
0.0
230
-1.0
  0
SOLID
  5
B71
330
ADF
100
AcDbEntity
  8
0
  6
Continuous
 62
     7
100
AcDbTrace
 10
-16.651274
 20
4.828702999999999
 30
0.0
 11
-16.880171
 21
4.730283999999999
 31
0.0
 12
-13.297034
 22
4.814301
 32
0.0
 13
-13.297034
 23
4.814301
 33
0.0
210
0.0
220
0.0
230
-1.0
  0
SOLID
  5
B72
330
ADF
100
AcDbEntity
  8
0
  6
Continuous
 62
     7
100
AcDbTrace
 10
-16.404629
 20
4.898458999999999
 30
0.0
 11
-16.651274
 21
4.828702999999999
 31
0.0
 12
-13.297034
 22
4.814301
 32
0.0
 13
-13.297034
 23
4.814301
 33
0.0
210
0.0
220
0.0
230
-1.0
  0
SOLID
  5
B73
330
ADF
100
AcDbEntity
  8
0
  6
Continuous
 62
     7
100
AcDbTrace
 10
-13.297034
 20
4.92042
 30
0.0
 11
-16.404629
 21
4.898458999999999
 31
0.0
 12
-13.297034
 22
4.814301
 32
0.0
 13
-13.297034
 23
4.814301
 33
0.0
210
0.0
220
0.0
230
-1.0
  0
SOLID
  5
B74
330
ADF
100
AcDbEntity
  8
0
  6
Continuous
 62
     7
100
AcDbTrace
 10
-16.145591
 20
4.940866999999999
 30
0.0
 11
-16.404629
 21
4.898458999999999
 31
0.0
 12
-13.297034
 22
4.92042
 32
0.0
 13
-13.297034
 23
4.92042
 33
0.0
210
0.0
220
0.0
230
-1.0
  0
SOLID
  5
B75
330
ADF
100
AcDbEntity
  8
0
  6
Continuous
 62
     7
100
AcDbTrace
 10
-15.879514
 20
4.957235999999999
 30
0.0
 11
-16.145591
 21
4.940866999999999
 31
0.0
 12
-13.297034
 22
4.92042
 32
0.0
 13
-13.297034
 23
4.92042
 33
0.0
210
0.0
220
0.0
230
-1.0
  0
SOLID
  5
B76
330
ADF
100
AcDbEntity
  8
0
  6
Continuous
 62
     7
100
AcDbTrace
 10
-15.846026
 20
4.957517
 30
0.0
 11
-15.879514
 21
4.957235999999999
 31
0.0
 12
-13.297034
 22
4.92042
 32
0.0
 13
-13.297034
 23
4.92042
 33
0.0
210
0.0
220
0.0
230
-1.0
  0
SOLID
  5
B77
330
ADF
100
AcDbEntity
  8
0
  6
Continuous
 62
     7
100
AcDbTrace
 10
-15.846026
 20
4.957517
 30
0.0
 11
-15.82909299999998
 21
4.957526999999998
 31
0.0
 12
-15.837573
 22
4.957526999999998
 32
0.0
 13
-15.837573
 23
4.957526999999998
 33
0.0
210
0.0
220
0.0
230
-1.0
  0
SOLID
  5
B78
330
ADF
100
AcDbEntity
  8
0
  6
Continuous
 62
     7
100
AcDbTrace
 10
-15.846026
 20
4.957517
 30
0.0
 11
-15.785217
 21
4.957526999999998
 31
0.0
 12
-15.82909299999998
 22
4.957526999999998
 32
0.0
 13
-15.82909299999998
 23
4.957526999999998
 33
0.0
210
0.0
220
0.0
230
-1.0
  0
SOLID
  5
B79
330
ADF
100
AcDbEntity
  8
0
  6
Continuous
 62
     7
100
AcDbTrace
 10
-15.846026
 20
4.957517
 30
0.0
 11
-15.70877999999999
 21
4.957526999999998
 31
0.0
 12
-15.785217
 22
4.957526999999998
 32
0.0
 13
-15.785217
 23
4.957526999999998
 33
0.0
210
0.0
220
0.0
230
-1.0
  0
SOLID
  5
B7A
330
ADF
100
AcDbEntity
  8
0
  6
Continuous
 62
     7
100
AcDbTrace
 10
-15.846026
 20
4.957517
 30
0.0
 11
-15.603774
 21
4.957526999999998
 31
0.0
 12
-15.70877999999999
 22
4.957526999999998
 32
0.0
 13
-15.70877999999999
 23
4.957526999999998
 33
0.0
210
0.0
220
0.0
230
-1.0
  0
SOLID
  5
B7B
330
ADF
100
AcDbEntity
  8
0
  6
Continuous
 62
     7
100
AcDbTrace
 10
-15.846026
 20
4.957517
 30
0.0
 11
-15.32403299999999
 21
4.957526999999998
 31
0.0
 12
-15.603774
 22
4.957526999999998
 32
0.0
 13
-15.603774
 23
4.957526999999998
 33
0.0
210
0.0
220
0.0
230
-1.0
  0
SOLID
  5
B7C
330
ADF
100
AcDbEntity
  8
0
  6
Continuous
 62
     7
100
AcDbTrace
 10
-15.846026
 20
4.957517
 30
0.0
 11
-14.97794
 21
4.957526999999998
 31
0.0
 12
-15.32403299999999
 22
4.957526999999998
 32
0.0
 13
-15.32403299999999
 23
4.957526999999998
 33
0.0
210
0.0
220
0.0
230
-1.0
  0
SOLID
  5
B7D
330
ADF
100
AcDbEntity
  8
0
  6
Continuous
 62
     7
100
AcDbTrace
 10
-15.846026
 20
4.957517
 30
0.0
 11
-14.214487
 21
4.957526999999998
 31
0.0
 12
-14.97794
 22
4.957526999999998
 32
0.0
 13
-14.97794
 23
4.957526999999998
 33
0.0
210
0.0
220
0.0
230
-1.0
  0
SOLID
  5
B7E
330
ADF
100
AcDbEntity
  8
0
  6
Continuous
 62
     7
100
AcDbTrace
 10
-15.846026
 20
4.957517
 30
0.0
 11
-13.861022
 21
4.957526999999998
 31
0.0
 12
-14.214487
 22
4.957526999999998
 32
0.0
 13
-14.214487
 23
4.957526999999998
 33
0.0
210
0.0
220
0.0
230
-1.0
  0
SOLID
  5
B7F
330
ADF
100
AcDbEntity
  8
0
  6
Continuous
 62
     7
100
AcDbTrace
 10
-15.846026
 20
4.957517
 30
0.0
 11
-13.568993
 21
4.957526999999998
 31
0.0
 12
-13.861022
 22
4.957526999999998
 32
0.0
 13
-13.861022
 23
4.957526999999998
 33
0.0
210
0.0
220
0.0
230
-1.0
  0
SOLID
  5
B80
330
ADF
100
AcDbEntity
  8
0
  6
Continuous
 62
     7
100
AcDbTrace
 10
-15.846026
 20
4.957517
 30
0.0
 11
-13.456001
 21
4.957526999999998
 31
0.0
 12
-13.568993
 22
4.957526999999998
 32
0.0
 13
-13.568993
 23
4.957526999999998
 33
0.0
210
0.0
220
0.0
230
-1.0
  0
SOLID
  5
B81
330
ADF
100
AcDbEntity
  8
0
  6
Continuous
 62
     7
100
AcDbTrace
 10
-15.846026
 20
4.957517
 30
0.0
 11
-13.370348
 21
4.957526999999998
 31
0.0
 12
-13.456001
 22
4.957526999999998
 32
0.0
 13
-13.456001
 23
4.957526999999998
 33
0.0
210
0.0
220
0.0
230
-1.0
  0
SOLID
  5
B82
330
ADF
100
AcDbEntity
  8
0
  6
Continuous
 62
     7
100
AcDbTrace
 10
-15.846026
 20
4.957517
 30
0.0
 11
-13.31602799999999
 21
4.957526999999998
 31
0.0
 12
-13.370348
 22
4.957526999999998
 32
0.0
 13
-13.370348
 23
4.957526999999998
 33
0.0
210
0.0
220
0.0
230
-1.0
  0
SOLID
  5
B83
330
ADF
100
AcDbEntity
  8
0
  6
Continuous
 62
     7
100
AcDbTrace
 10
-15.846026
 20
4.957517
 30
0.0
 11
-13.297034
 21
4.957526999999998
 31
0.0
 12
-13.31602799999999
 22
4.957526999999998
 32
0.0
 13
-13.31602799999999
 23
4.957526999999998
 33
0.0
210
0.0
220
0.0
230
-1.0
  0
SOLID
  5
B84
330
ADF
100
AcDbEntity
  8
0
  6
Continuous
 62
     7
100
AcDbTrace
 10
-13.297034
 20
4.957526999999998
 30
0.0
 11
-15.846026
 21
4.957517
 31
0.0
 12
-13.297034
 22
4.92042
 32
0.0
 13
-13.297034
 23
4.92042
 33
0.0
210
0.0
220
0.0
230
-1.0
  0
ENDBLK
  5
B86
330
ADF
100
AcDbEntity
  8
0
100
AcDbBlockEnd
  0
ENDSEC
  0
SECTION
  2
ENTITIES
  0
LINE
  5
4CF
330
17
100
AcDbEntity
  8
OUTLINE
100
AcDbLine
 10
106.3907229999998
 20
107.211801
 30
0.0
 11
106.3907229999998
 21
87.21180099999999
 31
0.0
  0
TEXT
  5
50B
330
17
100
AcDbEntity
  8
OUTLINE
100
AcDbText
 10
79.383978
 20
129.762987
 30
0.0
 40
4.0
  1
25mm DIGIMATIC MICROMETER 17DRV012
  7
SIMPLE
100
AcDbText
  0
LINE
  5
5D3
330
17
100
AcDbEntity
  8
OUTLINE
100
AcDbLine
 10
106.3907229999998
 20
87.21180099999999
 30
0.0
 11
66.39072299999999
 21
87.21180099999999
 31
0.0
  0
LINE
  5
5D5
330
17
100
AcDbEntity
  8
OUTLINE
100
AcDbLine
 10
71.190172
 20
50.211801
 30
0.0
 11
67.390723
 21
50.211801
 31
0.0
  0
LINE
  5
5D7
330
17
100
AcDbEntity
  8
OUTLINE
100
AcDbLine
 10
104.8907229999998
 20
70.357699
 30
0.0
 11
104.8907229999998
 21
64.877703
 31
0.0
  0
LINE
  5
5D8
330
17
100
AcDbEntity
  8
OUTLINE
100
AcDbLine
 10
106.3907229999998
 20
107.211801
 30
0.0
 11
104.8907229999998
 21
107.211801
 31
0.0
  0
LINE
  5
5D9
330
17
100
AcDbEntity
  8
OUTLINE
100
AcDbLine
 10
104.8907229999998
 20
110.2118009999998
 30
0.0
 11
85.911089
 21
110.2118009999998
 31
0.0
  0
LINE
  5
5DA
330
17
100
AcDbEntity
  8
OUTLINE
100
AcDbLine
 10
71.57576500000001
 20
50.289132
 30
0.0
 11
104.276316
 21
63.95503399999999
 31
0.0
  0
ARC
  5
5DB
330
17
100
AcDbEntity
  8
OUTLINE
100
AcDbCircle
 10
67.390723
 20
51.211801
 30
0.0
 40
1.0
100
AcDbArc
 50
180.0
 51
270.0
  0
ARC
  5
5DC
330
17
100
AcDbEntity
  8
OUTLINE
100
AcDbCircle
 10
71.190172
 20
51.211801
 30
0.0
 40
1.0
100
AcDbArc
 50
270.0
 51
292.68056
  0
ARC
  5
5DD
330
17
100
AcDbEntity
  8
OUTLINE
100
AcDbCircle
 10
103.8907229999999
 20
64.877703
 30
0.0
 40
1.0
100
AcDbArc
 50
292.68056
 51
0.0
  0
LINE
  5
5E0
330
17
100
AcDbEntity
  8
OUTLINE
100
AcDbLine
 10
115.3907229999999
 20
105.811801
 30
0.0
 11
115.3907229999999
 21
88.611801
 31
0.0
  0
LINE
  5
5E1
330
17
100
AcDbEntity
  8
OUTLINE
100
AcDbLine
 10
133.390723
 20
106.3118009999999
 30
0.0
 11
133.390723
 21
88.11180099999999
 31
0.0
  0
LINE
  5
5E2
330
17
100
AcDbEntity
  8
OUTLINE
100
AcDbLine
 10
155.890723
 20
106.3118009999999
 30
0.0
 11
155.890723
 21
88.11180099999999
 31
0.0
  0
LINE
  5
5E3
330
17
100
AcDbEntity
  8
OUTLINE
100
AcDbLine
 10
172.717711
 20
102.211801
 30
0.0
 11
164.717711
 21
102.211801
 31
0.0
  0
LINE
  5
5E4
330
17
100
AcDbEntity
  8
OUTLINE
100
AcDbLine
 10
172.717711
 20
92.21180099999999
 30
0.0
 11
164.717711
 21
92.21180099999999
 31
0.0
  0
LINE
  5
5E7
330
17
100
AcDbEntity
  8
OUTLINE
100
AcDbLine
 10
163.717711
 20
101.211801
 30
0.0
 11
163.717711
 21
93.21180099999999
 31
0.0
  0
LINE
  5
5E8
330
17
100
AcDbEntity
  8
OUTLINE
100
AcDbLine
 10
173.717711
 20
101.211801
 30
0.0
 11
173.717711
 21
93.21180099999999
 31
0.0
  0
LINE
  5
5EC
330
17
100
AcDbEntity
  8
OUTLINE
100
AcDbLine
 10
163.717711
 20
101.411801
 30
0.0
 11
156.717711
 21
101.411801
 31
0.0
  0
LINE
  5
5ED
330
17
100
AcDbEntity
  8
OUTLINE
100
AcDbLine
 10
163.717711
 20
93.01180100000001
 30
0.0
 11
156.717711
 21
93.01180100000001
 31
0.0
  0
LINE
  5
5F1
330
17
100
AcDbEntity
  8
OUTLINE
100
AcDbLine
 10
155.890723
 20
106.3118009999999
 30
0.0
 11
133.390723
 21
106.3118009999999
 31
0.0
  0
LINE
  5
5F2
330
17
100
AcDbEntity
  8
OUTLINE
100
AcDbLine
 10
155.890723
 20
88.11180099999999
 30
0.0
 11
133.390723
 21
88.11180099999999
 31
0.0
  0
LINE
  5
5F3
330
17
100
AcDbEntity
  8
OUTLINE
100
AcDbLine
 10
155.890723
 20
106.3118009999999
 30
0.0
 11
156.717711
 21
101.411801
 31
0.0
  0
LINE
  5
5F4
330
17
100
AcDbEntity
  8
OUTLINE
100
AcDbLine
 10
156.717711
 20
101.411801
 30
0.0
 11
156.717711
 21
93.01180100000001
 31
0.0
  0
LINE
  5
5F5
330
17
100
AcDbEntity
  8
OUTLINE
100
AcDbLine
 10
156.717711
 20
93.01180100000001
 30
0.0
 11
155.890723
 21
88.11180099999999
 31
0.0
  0
ARC
  5
5F6
330
17
100
AcDbEntity
  8
OUTLINE
100
AcDbCircle
 10
172.717711
 20
101.211801
 30
0.0
 40
1.0
100
AcDbArc
 50
0.0
 51
90.0
  0
ARC
  5
5F7
330
17
100
AcDbEntity
  8
OUTLINE
100
AcDbCircle
 10
172.717711
 20
93.21180099999999
 30
0.0
 40
1.0
100
AcDbArc
 50
270.0
 51
0.0
  0
ARC
  5
5F8
330
17
100
AcDbEntity
  8
OUTLINE
100
AcDbCircle
 10
164.717711
 20
101.211801
 30
0.0
 40
1.0
100
AcDbArc
 50
90.0
 51
180.0
  0
ARC
  5
5F9
330
17
100
AcDbEntity
  8
OUTLINE
100
AcDbCircle
 10
164.717711
 20
93.21180099999999
 30
0.0
 40
1.0
100
AcDbArc
 50
180.0
 51
270.0
  0
LINE
  5
5FA
330
17
100
AcDbEntity
  8
OUTLINE
100
AcDbLine
 10
133.390723
 20
105.811801
 30
0.0
 11
115.3907229999999
 21
105.811801
 31
0.0
  0
LINE
  5
5FB
330
17
100
AcDbEntity
  8
OUTLINE
100
AcDbLine
 10
133.390723
 20
88.611801
 30
0.0
 11
115.3907229999999
 21
88.611801
 31
0.0
  0
LINE
  5
601
330
17
100
AcDbEntity
  8
OUTLINE
100
AcDbLine
 10
109.3907229999999
 20
104.211801
 30
0.0
 11
106.3907229999998
 21
104.211801
 31
0.0
  0
LINE
  5
607
330
17
100
AcDbEntity
  8
OUTLINE
100
AcDbLine
 10
109.3907229999999
 20
104.211801
 30
0.0
 11
115.3907229999999
 21
105.811801
 31
0.0
  0
LINE
  5
608
330
17
100
AcDbEntity
  8
OUTLINE
100
AcDbLine
 10
109.3907229999999
 20
104.211801
 30
0.0
 11
109.3907229999999
 21
90.211801
 31
0.0
  0
LINE
  5
60A
330
17
100
AcDbEntity
  8
OUTLINE
100
AcDbLine
 10
109.3907229999999
 20
90.211801
 30
0.0
 11
115.3907229999999
 21
88.611801
 31
0.0
  0
LINE
  5
60B
330
17
100
AcDbEntity
  8
OUTLINE
100
AcDbLine
 10
109.3907229999999
 20
90.211801
 30
0.0
 11
106.3907229999998
 21
90.211801
 31
0.0
  0
CIRCLE
  5
60F
330
17
100
AcDbEntity
  8
MD_DIMS
100
AcDbCircle
 10
78.39072299999999
 20
97.21180099999999
 30
0.0
 40
6.0
  0
CIRCLE
  5
610
330
17
100
AcDbEntity
  8
MD_DIMS
100
AcDbCircle
 10
78.39072299999999
 20
97.21180099999999
 30
0.0
 40
2.6
  0
LINE
  5
612
330
17
100
AcDbEntity
  8
MD_DIMS
100
AcDbLine
 10
98.890723
 20
82.21180099999999
 30
0.0
 11
72.390723
 21
82.21180099999999
 31
0.0
  0
LINE
  5
613
330
17
100
AcDbEntity
  8
MD_DIMS
100
AcDbLine
 10
98.890723
 20
72.71180099999999
 30
0.0
 11
72.390723
 21
72.71180099999999
 31
0.0
  0
LINE
  5
616
330
17
100
AcDbEntity
  8
MD_DIMS
100
AcDbLine
 10
72.390723
 20
82.21180099999999
 30
0.0
 11
72.390723
 21
72.71180099999999
 31
0.0
  0
LINE
  5
617
330
17
100
AcDbEntity
  8
MD_DIMS
100
AcDbLine
 10
98.890723
 20
82.21180099999999
 30
0.0
 11
98.890723
 21
72.71180099999999
 31
0.0
  0
LINE
  5
61C
330
17
100
AcDbEntity
  8
OUTLINE
100
AcDbLine
 10
108.890723
 20
81.211801
 30
0.0
 11
108.890723
 21
74.21180099999999
 31
0.0
  0
LINE
  5
61D
330
17
100
AcDbEntity
  8
OUTLINE
100
AcDbLine
 10
104.8907229999998
 20
83.21180099999999
 30
0.0
 11
108.890723
 21
81.211801
 31
0.0
  0
LINE
  5
61E
330
17
100
AcDbEntity
  8
OUTLINE
100
AcDbLine
 10
106.5490819999999
 20
73.040981
 30
0.0
 11
108.890723
 21
74.21180099999999
 31
0.0
  0
LINE
  5
620
330
17
100
AcDbEntity
  8
MD_DIMS
100
AcDbLine
 10
109.890723
 20
75.21180099999999
 30
0.0
 11
108.890723
 21
75.21180099999999
 31
0.0
  0
LINE
  5
622
330
17
100
AcDbEntity
  8
MD_DIMS
100
AcDbLine
 10
109.890723
 20
80.211801
 30
0.0
 11
108.890723
 21
80.211801
 31
0.0
  0
LINE
  5
624
330
17
100
AcDbEntity
  8
MD_DIMS
100
AcDbLine
 10
109.890723
 20
80.211801
 30
0.0
 11
109.890723
 21
75.21180099999999
 31
0.0
  0
ARC
  5
62A
330
17
100
AcDbEntity
  8
OUTLINE
100
AcDbCircle
 10
107.8907229999998
 20
70.357699
 30
0.0
 40
3.0
100
AcDbArc
 50
116.565051
 51
180.0
  0
LINE
  5
62B
330
17
100
AcDbEntity
  8
OUTLINE
100
AcDbLine
 10
104.8907229999998
 20
110.2118009999998
 30
0.0
 11
104.8907229999998
 21
83.21180099999999
 31
0.0
  0
LINE
  5
633
330
17
100
AcDbEntity
  8
MD_DIMS
100
AcDbLine
 10
112.3907229999999
 20
101.211801
 30
0.0
 11
109.3907229999999
 21
101.211801
 31
0.0
  0
LINE
  5
634
330
17
100
AcDbEntity
  8
MD_DIMS
100
AcDbLine
 10
112.3907229999999
 20
99.211801
 30
0.0
 11
109.3907229999999
 21
99.211801
 31
0.0
  0
LINE
  5
635
330
17
100
AcDbEntity
  8
MD_DIMS
100
AcDbLine
 10
112.3907229999999
 20
95.211801
 30
0.0
 11
109.3907229999999
 21
95.211801
 31
0.0
  0
LINE
  5
636
330
17
100
AcDbEntity
  8
MD_DIMS
100
AcDbLine
 10
112.3907229999999
 20
93.21180099999999
 30
0.0
 11
109.3907229999999
 21
93.21180099999999
 31
0.0
  0
LINE
  5
63D
330
17
100
AcDbEntity
  8
MD_DIMS
100
AcDbLine
 10
114.3907229999999
 20
97.21180099999999
 30
0.0
 11
106.3907229999998
 21
97.21180099999999
 31
0.0
  0
LINE
  5
640
330
17
100
AcDbEntity
  8
OUTLINE
100
AcDbLine
 10
60.390723
 20
105.211801
 30
0.0
 11
60.390723
 21
89.21180099999999
 31
0.0
  0
LINE
  5
642
330
17
100
AcDbEntity
  8
OUTLINE
100
AcDbLine
 10
63.390723
 20
89.21180099999999
 30
0.0
 11
60.390723
 21
89.21180099999999
 31
0.0
  0
LINE
  5
643
330
17
100
AcDbEntity
  8
OUTLINE
100
AcDbLine
 10
59.090723
 20
104.211801
 30
0.0
 11
59.090723
 21
90.211801
 31
0.0
  0
LINE
  5
648
330
17
100
AcDbEntity
  8
OUTLINE
100
AcDbLine
 10
60.390723
 20
90.211801
 30
0.0
 11
59.090723
 21
90.211801
 31
0.0
  0
LINE
  5
649
330
17
100
AcDbEntity
  8
OUTLINE
100
AcDbLine
 10
60.390723
 20
104.211801
 30
0.0
 11
59.090723
 21
104.211801
 31
0.0
  0
LINE
  5
64B
330
17
100
AcDbEntity
  8
OUTLINE
100
AcDbLine
 10
66.39072299999999
 20
86.211801
 30
0.0
 11
66.39072299999999
 21
51.211801
 31
0.0
  0
LINE
  5
64C
330
17
100
AcDbEntity
  8
OUTLINE
100
AcDbLine
 10
79.19948999999999
 20
105.8339289999999
 30
0.0
 11
84.08195699999998
 21
109.5896729999999
 31
0.0
  0
LINE
  5
64D
330
17
100
AcDbEntity
  8
OUTLINE
100
AcDbLine
 10
77.37035699999998
 20
105.211801
 30
0.0
 11
60.390723
 21
105.211801
 31
0.0
  0
ARC
  5
64E
330
17
100
AcDbEntity
  8
OUTLINE
100
AcDbCircle
 10
63.390723
 20
86.211801
 30
0.0
 40
3.0
100
AcDbArc
 50
0.0
 51
90.0
  0
ARC
  5
64F
330
17
100
AcDbEntity
  8
OUTLINE
100
AcDbCircle
 10
85.911089
 20
107.211801
 30
0.0
 40
3.0
100
AcDbArc
 50
90.0
 51
127.568592
  0
ARC
  5
650
330
17
100
AcDbEntity
  8
OUTLINE
100
AcDbCircle
 10
77.37035699999998
 20
108.211801
 30
0.0
 40
3.0
100
AcDbArc
 50
270.0
 51
307.5685919999999
  0
LINE
  5
653
330
17
100
AcDbEntity
  8
OUTLINE
100
AcDbLine
 10
43.09072299999999
 20
101.9618009999998
 30
0.0
 11
43.09072299999999
 21
92.461801
 31
0.0
  0
LINE
  5
654
330
17
100
AcDbEntity
  8
OUTLINE
100
AcDbLine
 10
59.090723
 20
101.9618009999998
 30
0.0
 11
43.09072299999999
 21
101.9618009999998
 31
0.0
  0
LINE
  5
655
330
17
100
AcDbEntity
  8
OUTLINE
100
AcDbLine
 10
59.090723
 20
92.461801
 30
0.0
 11
43.09072299999999
 21
92.461801
 31
0.0
  0
LINE
  5
656
330
17
100
AcDbEntity
  8
OUTLINE
100
AcDbLine
 10
16.090723
 20
100.211801
 30
0.0
 11
16.090723
 21
94.21180099999999
 31
0.0
  0
LINE
  5
657
330
17
100
AcDbEntity
  8
OUTLINE
100
AcDbLine
 10
43.09072299999999
 20
100.211801
 30
0.0
 11
16.090723
 21
100.211801
 31
0.0
  0
LINE
  5
658
330
17
100
AcDbEntity
  8
OUTLINE
100
AcDbLine
 10
43.09072299999999
 20
94.21180099999999
 30
0.0
 11
16.090723
 21
94.21180099999999
 31
0.0
  0
DIMENSION
  5
67D
330
17
100
AcDbEntity
  8
MD_DIMS
100
AcDbDimension
  2
*D0
 10
173.717711
 20
117.540012
 30
0.0
 11
94.904217
 21
121.5400119999999
 31
0.0
 12
-66.55403699999999
 22
-71.71141899999999
 32
0.0
 70
    32
  1
157.5
 71
     5
 42
-1.0
  3
SIMPLE
100
AcDbAlignedDimension
 13
16.090723
 23
100.211801
 33
0.0
 14
173.717711
 24
101.211801
 34
0.0
100
AcDbRotatedDimension
1001
ACAD
1000
DSTYLE
1002
{
1070
    40
1040
1.0
1002
}
  0
TEXT
  5
69F
330
17
100
AcDbEntity
  8
MD_DIMS
100
AcDbText
 10
11.021202
 20
70.12545799999999
 30
0.0
 40
4.0
  1
%%C9.5 MOUNTING
  7
SIMPLE
100
AcDbText
  0
LEADER
  5
6A6
330
17
100
AcDbEntity
  8
MD_DIMS
100
AcDbLeader
  3
SIMPLE
 76
     2
 10
49.86562199999998
 20
92.899378
 30
0.0
 10
49.86562199999998
 20
75.72560199999999
 30
0.0
1001
ACAD
1000
DSTYLE
1002
{
1070
     5
1000

1070
    40
1040
1.0
1002
}
1000
LEANOF
1010
0.0
1020
0.0
1030
0.0
  0
INSERT
  5
829
330
17
100
AcDbEntity
  8
MD_DIMS
100
AcDbBlockReference
 66
     1
  2
A4-LANDSCAPE-THOR-LABS
 10
0.0
 20
0.0
 30
0.0
  0
ATTRIB
  5
82A
330
829
100
AcDbEntity
  8
D1
100
AcDbText
 10
147.453255
 20
21.42266199999999
 30
0.0
 40
2.0
  1

100
AcDbAttribute
  2
MT
 70
     0
  0
ATTRIB
  5
82B
330
829
100
AcDbEntity
  8
D1
100
AcDbText
 10
194.7390629999999
 20
13.901704
 30
0.0
 40
2.0
  1

  7
BORDER
100
AcDbAttribute
  2
SCL
 70
     0
  0
ATTRIB
  5
82C
330
829
100
AcDbEntity
  8
D1
100
AcDbText
 10
172.077681
 20
13.901704
 30
0.0
 40
2.0
  1
1 of 1
  7
BORDER
100
AcDbAttribute
  2
SHT
 70
     0
  0
ATTRIB
  5
82D
330
829
100
AcDbEntity
  8
D1
100
AcDbText
 10
169.5349139999999
 20
6.724721999999998
 30
0.0
 40
2.0
  1
DRV012
  7
BORDER
100
AcDbAttribute
  2
PRT-NO.
 70
     0
  0
ATTRIB
  5
82E
330
829
100
AcDbEntity
  8
D1
100
AcDbText
 10
153.7642555087719
 20
13.97647099999999
 30
0.0
 40
2.0
  1
1
  7
BORDER
 72
     1
 11
154.202852
 21
13.97647099999999
 31
0.0
100
AcDbAttribute
  2
REV
 70
     0
  0
ATTRIB
  5
82F
330
829
100
AcDbEntity
  8
D1
100
AcDbText
 10
158.316341
 20
14.05115799999999
 30
0.0
 40
2.0
  1
A4
  7
BORDER
100
AcDbAttribute
  2
SIZE
 70
     0
  0
ATTRIB
  5
830
330
829
100
AcDbEntity
  8
D1
100
AcDbText
 10
134.084236
 20
14.05115799999999
 30
0.0
 40
2.0
  1
25.03.04
  7
BORDER
100
AcDbAttribute
  2
DATE
 70
     0
  0
ATTRIB
  5
831
330
829
100
AcDbEntity
  8
D1
100
AcDbText
 10
135.280874
 20
6.724721999999998
 30
0.0
 40
2.0
  1
12863-E0W
  7
BORDER
100
AcDbAttribute
  2
DRG-NO.
 70
     0
  0
ATTRIB
  5
832
330
829
100
AcDbEntity
  8
D1
100
AcDbText
 10
187.265173
 20
28.451232
 30
0.0
 40
2.0
  1

  7
BORDER
100
AcDbAttribute
  2
AP
 70
     0
  0
ATTRIB
  5
833
330
829
100
AcDbEntity
  8
D1
100
AcDbText
 10
162.227071
 20
28.47516699999999
 30
0.0
 40
2.0
  1

  7
BORDER
100
AcDbAttribute
  2
EN
 70
     0
  0
ATTRIB
  5
834
330
829
100
AcDbEntity
  8
D1
100
AcDbText
 10
145.9070079999999
 20
47.17133299999999
 30
0.0
 40
3.0
  1
Digital Mic. for LNR Stage
  7
BORDER
100
AcDbAttribute
  2
TITLE
 70
     0
  0
ATTRIB
  5
835
330
829
100
AcDbEntity
  8
D1
100
AcDbText
 10
151.1587529999999
 20
35.233812
 30
0.0
 40
1.5
  1

  7
BORDER
100
AcDbAttribute
  2
SF
 70
     0
  0
ATTRIB
  5
836
330
829
100
AcDbEntity
  8
D1
100
AcDbText
 10
140.479184
 20
28.318188
 30
0.0
 40
2.0
  1
TJH
  7
BORDER
100
AcDbAttribute
  2
DM
 70
     0
  0
SEQEND
  5
837
330
829
100
AcDbEntity
  8
MD_DIMS
  0
VIEWPORT
  5
BC
330
14
100
AcDbEntity
 67
     1
  8
0
100
AcDbViewport
 10
6.124107999999999
 20
4.5
 30
0.0
 40
12.248217
 41
9.0
 68
    -1
 69
     1
 12
6.124107999999999
 22
4.5
 13
0.0
 23
0.0
 14
1.0
 24
1.0
 15
0.0
 25
0.0
 16
0.0
 26
0.0
 36
1.0
 17
0.0
 27
0.0
 37
0.0
 42
50.0
 43
0.0
 44
0.0
 45
9.0
 50
0.0
 51
0.0
 72
   100
 90
    32800
  1

281
     0
 71
     1
 74
     0
110
0.0
120
0.0
130
0.0
111
1.0
121
0.0
131
0.0
112
0.0
122
1.0
132
0.0
 79
     0
146
0.0
  0
ENDSEC
  0
SECTION
  2
OBJECTS
  0
DICTIONARY
  5
C
330
0
100
AcDbDictionary
281
     1
  3
ACAD_GROUP
350
D
  3
ACAD_LAYOUT
350
1117
  3
ACAD_MLINESTYLE
350
1A
  3
ACAD_PLOTSETTINGS
350
1118
  3
ACAD_PLOTSTYLENAME
350
1115
  3
ACDBVARIABLEDICTIONARY
350
39
  3
ASE_INDEX_DICTIONARY
350
1150
  3
DWGPROPS
350
111E
  0
DICTIONARY
  5
1142
330
17
100
AcDbDictionary
280
     1
281
     1
  3
ACAD_LAYOUTSELFREF
360
1143
  0
DICTIONARY
  5
1140
330
14
100
AcDbDictionary
280
     1
281
     1
  3
ACAD_LAYOUTSELFREF
360
1141
  0
DICTIONARY
  5
D
102
{ACAD_REACTORS
330
C
102
}
330
C
100
AcDbDictionary
281
     1
  0
DICTIONARY
  5
1117
102
{ACAD_REACTORS
330
C
102
}
330
C
100
AcDbDictionary
281
     1
  3
Layout1
350
114C
  3
Model
350
114B
  0
DICTIONARY
  5
1A
102
{ACAD_REACTORS
330
C
102
}
330
C
100
AcDbDictionary
281
     1
  3
STANDARD
350
1B
  0
DICTIONARY
  5
1118
102
{ACAD_REACTORS
330
C
102
}
330
C
100
AcDbDictionary
281
     1
  0
ACDBDICTIONARYWDFLT
  5
1115
102
{ACAD_REACTORS
330
C
102
}
330
C
100
AcDbDictionary
281
     1
  3
Normal
350
1116
100
AcDbDictionaryWithDefault
340
1116
  0
DICTIONARY
  5
39
102
{ACAD_REACTORS
330
C
102
}
330
C
100
AcDbDictionary
281
     1
  3
DIMADEC
350
3A
  0
DICTIONARY
  5
1150
102
{ACAD_REACTORS
330
C
102
}
330
C
100
AcDbDictionary
281
     1
  3
ASEBlockHierarchyIndexRecord
350
1152
1001
DCO15
1040
1535103864.316
  0
XRECORD
  5
111E
102
{ACAD_REACTORS
330
C
102
}
330
C
100
AcDbXrecord
280
     1
  1
DWGPROPS COOKIE
  2

  3

  4

  6

  7

  8

  9

300
=
301
=
302
=
303
=
304
=
305
=
306
=
307
=
308
=
309
=
 40
0.2314384490740741
 41
2451187.694891053
 42
2453097.642578947
  1

 90
        0
  0
XRECORD
  5
1143
102
{ACAD_REACTORS
330
1142
102
}
330
1142
100
AcDbXrecord
280
     1
340
17
  0
XRECORD
  5
1141
102
{ACAD_REACTORS
330
1140
102
}
330
1140
100
AcDbXrecord
280
     1
340
14
  0
LAYOUT
  5
114C
102
{ACAD_REACTORS
330
1117
102
}
330
1117
100
AcDbPlotSettings
  1

  2
RightFax Fax Printer
  4

  6

 40
0.0
 41
0.0
 42
0.0
 43
0.0
 44
0.0
 45
0.0
 46
0.0
 47
0.0
 48
0.0
 49
0.0
140
0.0
141
0.0
142
1.0
143
1.0
 70
   688
 72
     0
 73
     0
 74
     5
  7

 75
    16
147
1.0
148
0.0
149
0.0
100
AcDbLayout
  1
Layout1
 70
     1
 71
     1
 10
0.0
 20
0.0
 11
420.0
 21
297.0
 12
0.0
 22
0.0
 32
0.0
 14
1.000000000000000E+20
 24
1.000000000000000E+20
 34
1.000000000000000E+20
 15
-1.000000000000000E+20
 25
-1.000000000000000E+20
 35
-1.000000000000000E+20
146
0.0
 13
0.0
 23
0.0
 33
0.0
 16
1.0
 26
0.0
 36
0.0
 17
0.0
 27
1.0
 37
0.0
 76
     0
330
14
  0
LAYOUT
  5
114B
102
{ACAD_REACTORS
330
1117
102
}
330
1117
100
AcDbPlotSettings
  1

  2
RightFax Fax Printer
  4

  6

 40
0.0
 41
0.0
 42
0.0
 43
0.0
 44
0.0
 45
0.0
 46
0.0
 47
0.0
 48
0.0
 49
0.0
140
0.0
141
0.0
142
1.0
143
1.0
 70
  1712
 72
     0
 73
     0
 74
     0
  7

 75
     0
147
1.0
148
0.0
149
0.0
100
AcDbLayout
  1
Model
 70
     1
 71
     0
 10
0.0
 20
0.0
 11
12.0
 21
9.0
 12
0.0
 22
0.0
 32
0.0
 14
0.0
 24
0.0
 34
0.0
 15
0.0
 25
0.0
 35
0.0
146
0.0
 13
0.0
 23
0.0
 33
0.0
 16
1.0
 26
0.0
 36
0.0
 17
0.0
 27
1.0
 37
0.0
 76
     0
330
17
  0
MLINESTYLE
  5
1B
102
{ACAD_REACTORS
330
1A
102
}
330
1A
100
AcDbMlineStyle
  2
STANDARD
 70
     0
  3

 62
   256
 51
90.0
 52
90.0
 71
     2
 49
0.5
 62
   256
  6
BYLAYER
 49
-0.5
 62
   256
  6
BYLAYER
  0
ACDBPLACEHOLDER
  5
1116
102
{ACAD_REACTORS
330
1115
102
}
330
1115
  0
DICTIONARYVAR
  5
3A
102
{ACAD_REACTORS
330
39
102
}
330
39
100
DictionaryVariables
280
     0
  1
4
  0
XRECORD
  5
1152
102
{ACAD_REACTORS
330
1150
102
}
330
1150
100
AcDbXrecord
280
     1
330
829
330
70C
330
70D
330
70E
330
712
330
713
330
714
330
715
330
716
330
80B
  0
ENDSEC
  0
EOF
