  0
SECTION
  2
HEADER
  9
$ACADVER
  1
AC1012
  9
$DWGCODEPAGE
  3
ansi_1252
  9
$INSBASE
 10
0.0
 20
0.0
 30
0.0
  9
$EXTMIN
 10
0.0
 20
0.0
 30
0.0
  9
$EXTMAX
 10
11.0
 20
8.5
 30
0.0
  9
$LIMMIN
 10
0.0
 20
0.0
  9
$LIMMAX
 10
0.0
 20
0.0
  9
$ORTHOMODE
 70
         0
  9
$REGENMODE
 70
         1
  9
$FILLMODE
 70
         1
  9
$QTEXTMODE
 70
         0
  9
$MIRRTEXT
 70
         1
  9
$DRAGMODE
 70
         2
  9
$LTSCALE
 40
1.0
  9
$OSMODE
 70
         0
  9
$ATTMODE
 70
         1
  9
$TEXTSIZE
 40
0.1111111111
  9
$TRACEWID
 40
0.05
  9
$TEXTSTYLE
  7
STANDARD
  9
$CLAYER
  8
0
  9
$CELTYPE
  6
CONTINUOUS
  9
$CECOLOR
 62
       256
  9
$CELTSCALE
 40
1.0
  9
$DELOBJ
 70
         1
  9
$DISPSILH
 70
         0
  9
$DIMSCALE
 40
1.0
  9
$DIMASZ
 40
39.3700787402
  9
$DIMEXO
 40
0.0
  9
$DIMDLI
 40
0.38
  9
$DIMRND
 40
0.0
  9
$DIMDLE
 40
39.3700787402
  9
$DIMEXE
 40
0.18
  9
$DIMTP
 40
0.0
  9
$DIMTM
 40
0.0
  9
$DIMTXT
 40
0.1111111111
  9
$DIMCEN
 40
0.09
  9
$DIMTSZ
 40
0.0
  9
$DIMTOL
 70
         0
  9
$DIMLIM
 70
         0
  9
$DIMTIH
 70
         1
  9
$DIMTOH
 70
         1
  9
$DIMSE1
 70
         0
  9
$DIMSE2
 70
         0
  9
$DIMTAD
 70
         0
  9
$DIMZIN
 70
         1
  9
$DIMBLK
  1

  9
$DIMASO
 70
         1
  9
$DIMSHO
 70
         1
  9
$DIMPOST
  1

  9
$DIMAPOST
  1

  9
$DIMALT
 70
         0
  9
$DIMALTD
 70
         2
  9
$DIMALTF
 40
25.4
  9
$DIMLFAC
 40
1.0
  9
$DIMTOFL
 70
         0
  9
$DIMTVP
 40
0.0
  9
$DIMTIX
 70
         0
  9
$DIMSOXD
 70
         0
  9
$DIMSAH
 70
         0
  9
$DIMBLK1
  1

  9
$DIMBLK2
  1

  9
$DIMSTYLE
  2
STANDARD
  9
$DIMCLRD
 70
         0
  9
$DIMCLRE
 70
         0
  9
$DIMCLRT
 70
         0
  9
$DIMTFAC
 40
1.0
  9
$DIMGAP
 40
0.0
  9
$DIMJUST
 70
         0
  9
$DIMSD1
 70
         0
  9
$DIMSD2
 70
         0
  9
$DIMTOLJ
 70
         1
  9
$DIMTZIN
 70
         1
  9
$DIMALTZ
 70
         0
  9
$DIMALTTZ
 70
         0
  9
$DIMFIT
 70
         3
  9
$DIMUPT
 70
         0
  9
$DIMUNIT
 70
         2
  9
$DIMDEC
 70
         4
  9
$DIMTDEC
 70
         4
  9
$DIMALTU
 70
         2
  9
$DIMALTTD
 70
         2
  9
$DIMTXSTY
  7
STANDARD
  9
$DIMAUNIT
 70
         0
  9
$LUNITS
 70
         2
  9
$LUPREC
 70
         2
  9
$SKETCHINC
 40
0.1
  9
$FILLETRAD
 40
0.0
  9
$AUNITS
 70
         0
  9
$AUPREC
 70
         2
  9
$MENU
  1
acad
  9
$ELEVATION
 40
0.0
  9
$PELEVATION
 40
0.0
  9
$THICKNESS
 40
0.0
  9
$LIMCHECK
 70
         0
  9
$BLIPMODE
 70
         1
  9
$CHAMFERA
 40
0.0
  9
$CHAMFERB
 40
0.0
  9
$CHAMFERC
 40
0.0
  9
$CHAMFERD
 40
0.0
  9
$SKPOLY
 70
         0
  9
$TDCREATE
 40
0.000000000
  9
$TDUPDATE
 40
0.000000000
  9
$TDINDWG
 40
0.0000000000
  9
$TDUSRTIMER
 40
0.0000000000
  9
$USRTIMER
 70
         1
  9
$ANGBASE
 50
0.0
  9
$ANGDIR
 70
         0
  9
$PDMODE
 70
         0
  9
$PDSIZE
 40
-1.0
  9
$PLINEWID
 40
0.0
  9
$COORDS
 70
         0
  9
$SPLFRAME
 70
         0
  9
$SPLINETYPE
 70
         6
  9
$SPLINESEGS
 70
         8
  9
$ATTDIA
 70
         0
  9
$ATTREQ
 70
         1
  9
$HANDLING
 70
         1
  9
$HANDSEED
  5
733
  9
$SURFTAB1
 70
         6
  9
$SURFTAB2
 70
         6
  9
$SURFTYPE
 70
         6
  9
$SURFU
 70
         6
  9
$SURFV
 70
         6
  9
$UCSNAME
  2

  9
$UCSORG
 10
0.0
 20
0.0
 30
0.0
  9
$UCSXDIR
 10
1.0
 20
0.0
 30
0.0
  9
$UCSYDIR
 10
0.0
 20
1.0
 30
0.0
  9
$PUCSNAME
  2

  9
$PUCSORG
 10
0.0
 20
0.0
 30
0.0
  9
$PUCSXDIR
 10
1.0
 20
0.0
 30
0.0
  9
$PUCSYDIR
 10
0.0
 20
1.0
 30
0.0
  9
$USERI1
 70
         0
  9
$USERI2
 70
         0
  9
$USERI3
 70
         0
  9
$USERI4
 70
         0
  9
$USERI5
 70
         0
  9
$USERR1
 40
0.0
  9
$USERR2
 40
0.0
  9
$USERR3
 40
0.0
  9
$USERR4
 40
0.0
  9
$USERR5
 40
0.0
  9
$WORLDVIEW
 70
         1
  9
$SHADEDGE
 70
         3
  9
$SHADEDIF
 70
        70
  9
$TILEMODE
 70
         1
  9
$MAXACTVP
 70
        16
  9
$PINSBASE
 10
0.0
 20
0.0
 30
0.0
  9
$PLIMCHECK
 70
         0
  9
$PEXTMIN
 10
1.0000000000E+20
 20
1.0000000000E+20
 30
1.0000000000E+20
  9
$PEXTMAX
 10
-1.0000000000E+20
 20
-1.0000000000E+20
 30
-1.0000000000E+20
  9
$PLIMMIN
 10
0.0
 20
0.0
  9
$PLIMMAX
 10
12.0
 20
9.0
  9
$UNITMODE
 70
         0
  9
$VISRETAIN
 70
         0
  9
$PLINEGEN
 70
         1
  9
$PSLTSCALE
 70
         1
  9
$TREEDEPTH
 70
      3020
  9
$PICKSTYLE
 70
         1
  9
$CMLSTYLE
  2
STANDARD
  9
$CMLJUST
 70
         0
  9
$CMLSCALE
 40
1.0
  9
$SAVEIMAGES
 70
         0
  0
ENDSEC
  0
SECTION
  2
CLASSES
  0
CLASS
  1
LWPOLYLINE
  2
AcDbPolyline
  3
"AutoCAD"
 90
    32768
280
         0
281
         1
  0
CLASS
  1
IMAGE
  2
AcDbRasterImage
  3
ISM
 90
    32895
280
         0
281
         1
  0
CLASS
  1
OLE2FRAME
  2
AcDbOle2Frame
  3
""
 90
    32768
280
         0
281
         1
  0
CLASS
  1
HATCH
  2
AcDbHatch
  3
"ACAD_SEDONA"
 90
    32768
280
         0
281
         1
  0
CLASS
  1
DICTIONARYVAR
  2
AcDbDictionaryVar
  3
"AutoCAD"
 90
    32768
280
         0
281
         0
  0
CLASS
  1
RASTERVARIABLES
  2
AcDbRasterVariables
  3
ISM
 90
    32768
280
         0
281
         0
  0
CLASS
  1
IMAGEDEF
  2
AcDbRasterImageDef
  3
ISM
 90
    32768
280
         0
281
         0
  0
CLASS
  1
IMAGEDEF_REACTOR
  2
AcDbRasterImageDefReactor
  3
ISM
 90
    32769
280
         0
281
         0
  0
CLASS
  1
IDBUFFER
  2
AcDbIdBuffer
  3
"Acad"
 90
    32768
280
         0
281
         0
  0
CLASS
  1
SPATIAL_FILTER
  2
AcDbSpatialFilter
  3
"Acad"
 90
    32768
280
         0
281
         0
  0
CLASS
  1
XRECORD
  2
AcDbXrecord
  3
"<Built In>"
 90
    32768
280
         0
281
         0
  0
CLASS
  1
SORTENTSTABLE
  2
AcDbSortentsTable
  3
"AutoCAD"
 90
    32768
280
         0
281
         0
  0
CLASS
  1
LAYER_INDEX
  2
AcDbLayerIndex
  3
"Acad"
 90
    32768
280
         0
281
         0
  0
CLASS
  1
SPATIAL_INDEX
  2
AcDbSpatialIndex
  3
"Acad"
 90
    32768
280
         0
281
         0
  0
CLASS
  1
OBJECT_PTR
  2
CAseDLPNTableRecord
  3
"ASE-LPNTableRecord"
 90
    32769
280
         0
281
         0
  0
CLASS
  1
LAYOUT
  2
AcDbLayout
  3
"AutoCAD 2000"
 90
    32768
280
         0
281
         0
  0
CLASS
  1
PLOTSETTINGS
  2
AcDbPlotSettings
  3
"AutoCAD 2000"
 90
    32768
280
         0
281
         0
  0
CLASS
  1
ACDBDICTIONARYWDFLT
  2
AcDbDictionaryWithDefault
  3
"AutoCAD 2000"
 90
    32768
280
         0
281
         0
  0
CLASS
  1
ACDBPLACEHOLDER
  2
AcDbPlaceHolder
  3
"AutoCAD 2000"
 90
    32768
280
         0
281
         0
  0
CLASS
  1
VBA_PROJECT
  2
AcDbVbaProject
  3
"acadvba"
 90
    32768
280
         0
281
         0
  0
CLASS
  1
WIPEOUT
  2
AcDbWipeout
  3
WipeOut|AutoCAD Express Tool|expresstools@autodesk.com
 90
    32895
280
         0
281
         1
  0
CLASS
  1
WIPEOUTVARIABLES
  2
AcDbWipeoutVariables
  3
WipeOut|AutoCAD Express Tool|expresstools@autodesk.com
 90
    32768
280
         0
281
         0
  0
CLASS
  1
RTEXT
  2
RText
  3
RText|AutoCAD Express Tool|expresstools@autodesk.com
 90
    32768
280
         0
281
         1
  0
CLASS
  1
ARCALIGNEDTEXT
  2
AcDbArcAlignedText
  3
ATEXT|AutoCAD Express Tool|expresstools@autodesk.com
 90
    32768
280
         0
281
         1
  0
ENDSEC
  0
SECTION
  2
TABLES
  0
TABLE
  2
VPORT
  5
7
100
AcDbSymbolTable
 70
         1
  0
VPORT
  5
15
100
AcDbSymbolTableRecord
100
AcDbViewportTableRecord
  2
*ACTIVE
 70
         0
 10
0.0
 20
0.0
 11
1.0
 21
1.0
 12
5.5
 22
4.25
 13
0.0
 23
0.0
 14
1.0
 24
1.0
 15
0.0
 25
0.0
 16
0.0
 26
0.0
 36
1.0
 17
0.0
 27
0.0
 37
0.0
 40
8.5
 41
0.7727272727
 42
50.0
 43
0.0
 44
0.0
 50
0.0
 51
0.0
 71
         0
 72
      2000
 73
         1
 74
         1
 75
         0
 76
         0
 77
         0
 78
         0
  0
ENDTAB
  0
TABLE
  2
LTYPE
  5
4
100
AcDbSymbolTable
 70
         8
  0
LTYPE
  5
11
100
AcDbSymbolTableRecord
100
AcDbLinetypeTableRecord
  2
BYBLOCK
 70
        64
  3

 72
        65
 73
         0
 40
0.0
  0
LTYPE
  5
12
100
AcDbSymbolTableRecord
100
AcDbLinetypeTableRecord
  2
BYLAYER
 70
        64
  3

 72
        65
 73
         0
 40
0.0
  0
LTYPE
  5
13
100
AcDbSymbolTableRecord
100
AcDbLinetypeTableRecord
  2
CONTINUOUS
 70
        64
  3
Solid line
 72
        65
 73
         0
 40
0.0
  0
LTYPE
  5
1D
100
AcDbSymbolTableRecord
100
AcDbLinetypeTableRecord
  2
HIDDEN
 70
        64
  3
Hidden __ __ __ __ __ __ __ __ __ __ __ __ __ __
 72
        65
 73
         2
 40
0.075
 49
0.05
 74
         0
 49
-0.025
 74
         0
  0
LTYPE
  5
1E
100
AcDbSymbolTableRecord
100
AcDbLinetypeTableRecord
  2
PHANTOM
 70
        64
  3
Phantom ______  __  __  ______  __  __  ______
 72
        65
 73
         6
 40
0.5
 49
0.25
 74
         0
 49
-0.05
 74
         0
 49
0.05
 74
         0
 49
-0.05
 74
         0
 49
0.05
 74
         0
 49
-0.05
 74
         0
  0
LTYPE
  5
1F
100
AcDbSymbolTableRecord
100
AcDbLinetypeTableRecord
  2
CENTER
 70
        64
  3
Center ____ _ ____ _ ____ _ ____ _ ____ _ ____
 72
        65
 73
         4
 40
0.4
 49
0.25
 74
         0
 49
-0.05
 74
         0
 49
0.05
 74
         0
 49
-0.05
 74
         0
  0
LTYPE
  5
20
100
AcDbSymbolTableRecord
100
AcDbLinetypeTableRecord
  2
CENTERX2
 70
        64
  3
Center (2x) ________  __  ________  __  _____
 72
        65
 73
         4
 40
0.8
 49
0.5
 74
         0
 49
-0.1
 74
         0
 49
0.1
 74
         0
 49
-0.1
 74
         0
  0
LTYPE
  5
21
100
AcDbSymbolTableRecord
100
AcDbLinetypeTableRecord
  2
DOT2
 70
        64
  3
Dot (.5x) ........................................
 72
        65
 73
         2
 40
0.025
 49
0.0
 74
         0
 49
-0.025
 74
         0
  0
ENDTAB
  0
TABLE
  2
LAYER
  5
2
100
AcDbSymbolTable
 70
         3
  0
LAYER
  5
14
100
AcDbSymbolTableRecord
100
AcDbLayerTableRecord
  2
0
 70
         0
 62
         7
  6
CONTINUOUS
  0
LAYER
  5
23
100
AcDbSymbolTableRecord
100
AcDbLayerTableRecord
  2
DEFPOINTS
 70
         0
 62
         7
  6
CONTINUOUS
  0
LAYER
  5
24
100
AcDbSymbolTableRecord
100
AcDbLayerTableRecord
  2
FORMAT
 70
         0
 62
         7
  6
CONTINUOUS
  0
ENDTAB
  0
TABLE
  2
STYLE
  5
3
100
AcDbSymbolTable
 70
         2
  0
STYLE
  5
17
100
AcDbSymbolTableRecord
100
AcDbTextStyleTableRecord
  2
STANDARD
 70
         0
 40
0.0
 41
1.0
 50
0.0
 71
         0
 42
0.0
  3
txt
  4

  0
STYLE
  5
45
100
AcDbSymbolTableRecord
100
AcDbTextStyleTableRecord
  2
SLDTEXTSTYLE0
 70
         0
 40
0.0
 41
0.75
 50
0.0
 71
         0
 42
0.0
  3
TXT
  4

  0
ENDTAB
  0
TABLE
  2
VIEW
  5
5
100
AcDbSymbolTable
 70
         0
  0
ENDTAB
  0
TABLE
  2
UCS
  5
6
100
AcDbSymbolTable
 70
         0
  0
ENDTAB
  0
TABLE
  2
APPID
  5
8
100
AcDbSymbolTable
 70
         1
  0
APPID
  5
16
100
AcDbSymbolTableRecord
100
AcDbRegAppTableRecord
  2
ACAD
 70
         0
  0
ENDTAB
  0
TABLE
  2
DIMSTYLE
  5
9
100
AcDbSymbolTable
 70
         5
  0
DIMSTYLE
105
18
100
AcDbSymbolTableRecord
100
AcDbDimStyleTableRecord
  2
STANDARD
 70
         0
  3

  4

  5

  6

  7

 40
1.0
 41
0.18
 42
0.0625
 43
0.38
 44
0.18
 45
0.0
 46
0.0
 47
0.0
 48
0.0
 71
         0
 72
         0
 73
         1
 74
         1
 75
         0
 76
         0
 77
         0
 78
         0
140
0.18
141
0.09
142
0.0
143
25.4
144
1.0
145
0.0
146
1.0
147
0.09
170
         0
171
         2
172
         0
173
         0
174
         0
175
         0
176
         0
177
         0
178
         0
270
         2
271
         4
272
         4
273
         2
274
         2
275
         0
280
         0
281
         0
282
         0
283
         1
284
         0
285
         0
286
         0
287
         3
288
         0
340
17
  0
DIMSTYLE
105
158
100
AcDbSymbolTableRecord
100
AcDbDimStyleTableRecord
  2
SLDDIMSTYLE0
 70
         0
  3

  4

  5

  6

  7

 40
1.0
 41
0.125
 42
0.0625
 43
0.38
 44
0.07
 45
0.0
 46
0.0
 47
0.0
 48
0.0
 71
         0
 72
         0
 73
         1
 74
         1
 75
         0
 76
         0
 77
         0
 78
         8
140
0.1111111111
141
0.09
142
0.0
143
25.4
144
1.0
145
0.0
146
1.0
147
0.0277777778
170
         0
171
         2
172
         0
173
         1
174
         0
175
         0
176
         7
177
         7
178
         7
270
         2
271
         2
272
         4
273
         2
274
         2
275
         0
280
         0
281
         0
282
         0
283
         1
284
        12
285
         0
286
         0
287
         3
288
         0
340
45
  0
DIMSTYLE
105
167
100
AcDbSymbolTableRecord
100
AcDbDimStyleTableRecord
  2
SLDDIMSTYLE1
 70
         0
  3

  4

  5

  6

  7

 40
1.0
 41
0.125
 42
0.0625
 43
0.38
 44
0.07
 45
0.0
 46
0.0
 47
0.0
 48
0.0
 71
         0
 72
         0
 73
         1
 74
         1
 75
         0
 76
         0
 77
         0
 78
        12
140
0.1111111111
141
0.09
142
0.0
143
25.4
144
1.0
145
0.0
146
1.0
147
0.0277777778
170
         0
171
         2
172
         0
173
         1
174
         0
175
         0
176
         7
177
         7
178
         7
270
         2
271
         2
272
         4
273
         2
274
         2
275
         0
280
         0
281
         0
282
         0
283
         1
284
        12
285
         0
286
         0
287
         3
288
         0
340
45
  0
DIMSTYLE
105
16D
100
AcDbSymbolTableRecord
100
AcDbDimStyleTableRecord
  2
SLDDIMSTYLE2
 70
         0
  3

  4

  5

  6

  7

 40
1.0
 41
0.125
 42
0.0625
 43
0.38
 44
0.0
 45
0.0
 46
0.0
 47
0.0
 48
0.0
 71
         0
 72
         0
 73
         1
 74
         1
 75
         0
 76
         0
 77
         0
 78
         0
140
0.125
141
0.09
142
0.0
143
25.4
144
1.0
145
0.0
146
1.0
147
0.03125
170
         0
171
         2
172
         0
173
         1
174
         0
175
         0
176
         0
177
         0
178
         0
270
         2
271
         0
272
         0
273
         2
274
         2
275
         0
280
         0
281
         0
282
         0
283
         1
284
         0
285
         0
286
         0
287
         3
288
         0
340
17
  0
DIMSTYLE
105
201
100
AcDbSymbolTableRecord
100
AcDbDimStyleTableRecord
  2
SLDDIMSTYLE3
 70
         0
  3

  4

  5

  6

  7

 40
1.0
 41
0.125
 42
0.0625
 43
0.38
 44
0.07
 45
0.0
 46
0.0
 47
0.0
 48
0.0
 71
         0
 72
         0
 73
         1
 74
         1
 75
         0
 76
         0
 77
         0
 78
         0
140
0.1111111111
141
0.09
142
0.0
143
25.4
144
1.0
145
0.0
146
1.0
147
0.0277777778
170
         0
171
         2
172
         0
173
         1
174
         0
175
         0
176
         7
177
         7
178
         7
270
         2
271
         2
272
         4
273
         2
274
         2
275
         0
280
         0
281
         0
282
         0
283
         1
284
        12
285
         0
286
         0
287
         3
288
         0
340
45
  0
ENDTAB
  0
TABLE
  2
BLOCK_RECORD
  5
1
100
AcDbSymbolTable
 70
        30
  0
BLOCK_RECORD
  5
A
100
AcDbSymbolTableRecord
100
AcDbBlockTableRecord
  2
*MODEL_SPACE
  0
BLOCK_RECORD
  5
B
100
AcDbSymbolTableRecord
100
AcDbBlockTableRecord
  2
*PAPER_SPACE
  0
BLOCK_RECORD
  5
51
100
AcDbSymbolTableRecord
100
AcDbBlockTableRecord
  2
NOTE11
  0
BLOCK_RECORD
  5
6B
100
AcDbSymbolTableRecord
100
AcDbBlockTableRecord
  2
NOTE16
  0
BLOCK_RECORD
  5
73
100
AcDbSymbolTableRecord
100
AcDbBlockTableRecord
  2
NOTE21
  0
BLOCK_RECORD
  5
79
100
AcDbSymbolTableRecord
100
AcDbBlockTableRecord
  2
NOTE22
  0
BLOCK_RECORD
  5
7D
100
AcDbSymbolTableRecord
100
AcDbBlockTableRecord
  2
NOTE23
  0
BLOCK_RECORD
  5
81
100
AcDbSymbolTableRecord
100
AcDbBlockTableRecord
  2
NOTE24
  0
BLOCK_RECORD
  5
85
100
AcDbSymbolTableRecord
100
AcDbBlockTableRecord
  2
NOTE25
  0
BLOCK_RECORD
  5
89
100
AcDbSymbolTableRecord
100
AcDbBlockTableRecord
  2
NOTE26
  0
BLOCK_RECORD
  5
8D
100
AcDbSymbolTableRecord
100
AcDbBlockTableRecord
  2
NOTE27
  0
BLOCK_RECORD
  5
91
100
AcDbSymbolTableRecord
100
AcDbBlockTableRecord
  2
NOTE28
  0
BLOCK_RECORD
  5
95
100
AcDbSymbolTableRecord
100
AcDbBlockTableRecord
  2
NOTE29
  0
BLOCK_RECORD
  5
99
100
AcDbSymbolTableRecord
100
AcDbBlockTableRecord
  2
NOTE30
  0
BLOCK_RECORD
  5
9D
100
AcDbSymbolTableRecord
100
AcDbBlockTableRecord
  2
NOTE31
  0
BLOCK_RECORD
  5
A1
100
AcDbSymbolTableRecord
100
AcDbBlockTableRecord
  2
NOTE32
  0
BLOCK_RECORD
  5
AA
100
AcDbSymbolTableRecord
100
AcDbBlockTableRecord
  2
NOTE34
  0
BLOCK_RECORD
  5
BE
100
AcDbSymbolTableRecord
100
AcDbBlockTableRecord
  2
NOTE45
  0
BLOCK_RECORD
  5
C4
100
AcDbSymbolTableRecord
100
AcDbBlockTableRecord
  2
NOTE46
  0
BLOCK_RECORD
  5
14E
100
AcDbSymbolTableRecord
100
AcDbBlockTableRecord
  2
*D17
  0
BLOCK_RECORD
  5
15D
100
AcDbSymbolTableRecord
100
AcDbBlockTableRecord
  2
*D18
  0
BLOCK_RECORD
  5
16E
100
AcDbSymbolTableRecord
100
AcDbBlockTableRecord
  2
NOTE48
  0
BLOCK_RECORD
  5
175
100
AcDbSymbolTableRecord
100
AcDbBlockTableRecord
  2
SW_CENTERMARK0
  0
BLOCK_RECORD
  5
1F6
100
AcDbSymbolTableRecord
100
AcDbBlockTableRecord
  2
*D21
  0
BLOCK_RECORD
  5
206
100
AcDbSymbolTableRecord
100
AcDbBlockTableRecord
  2
*D22
  0
BLOCK_RECORD
  5
214
100
AcDbSymbolTableRecord
100
AcDbBlockTableRecord
  2
*D23
  0
BLOCK_RECORD
  5
222
100
AcDbSymbolTableRecord
100
AcDbBlockTableRecord
  2
*D24
  0
BLOCK_RECORD
  5
233
100
AcDbSymbolTableRecord
100
AcDbBlockTableRecord
  2
NOTE49
  0
BLOCK_RECORD
  5
23A
100
AcDbSymbolTableRecord
100
AcDbBlockTableRecord
  2
NOTE50
  0
BLOCK_RECORD
  5
2BE
100
AcDbSymbolTableRecord
100
AcDbBlockTableRecord
  2
*D27
  0
BLOCK_RECORD
  5
2CC
100
AcDbSymbolTableRecord
100
AcDbBlockTableRecord
  2
*D28
  0
BLOCK_RECORD
  5
2DB
100
AcDbSymbolTableRecord
100
AcDbBlockTableRecord
  2
NOTE51
  0
ENDTAB
  0
ENDSEC
  0
SECTION
  2
BLOCKS
  0
BLOCK
  5
D
100
AcDbEntity
  8
0
100
AcDbBlockBegin
  2
*MODEL_SPACE
 70
         0
 10
0.0
 20
0.0
 30
0.0
  3
*MODEL_SPACE
  1

  0
ENDBLK
  5
E
100
AcDbEntity
  8
0
100
AcDbBlockEnd
  0
BLOCK
  5
F
100
AcDbEntity
 67
         1
  8
0
100
AcDbBlockBegin
  2
*PAPER_SPACE
 70
         0
 10
0.0
 20
0.0
 30
0.0
  3
*PAPER_SPACE
  1

  0
ENDBLK
  5
10
100
AcDbEntity
 67
         1
  8
0
100
AcDbBlockEnd
  0
BLOCK
  5
52
100
AcDbEntity
  8
0
 62
         0
100
AcDbBlockBegin
  2
NOTE11
 70
         0
 10
0.0
 20
0.0
 30
0.0
  3
NOTE11
  1

  0
MTEXT
  5
53
100
AcDbEntity
  8
0
 62
         7
100
AcDbMText
 10
0.0
 20
0.1018700787
 30
0.0
 40
0.0625
 41
0.0
 71
         1
 72
         1
  1
DIMENSIONS ARE IN INCHES
  7
SLDTEXTSTYLE0
  0
MTEXT
  5
54
100
AcDbEntity
  8
0
 62
         7
100
AcDbMText
 10
0.0
 20
0.0185367464
 30
0.0
 40
0.0625
 41
0.0
 71
         1
 72
         1
  1
LINEAR TOLERANCES: 
  7
SLDTEXTSTYLE0
  0
MTEXT
  5
55
100
AcDbEntity
  8
0
 62
         7
100
AcDbMText
 10
0.0
 20
-0.0647965859
 30
0.0
 40
0.0625
 41
0.0
 71
         1
 72
         1
  1
    TWO PLACE DECIMAL: 
  7
SLDTEXTSTYLE0
  0
MTEXT
  5
56
100
AcDbEntity
  8
0
 62
         7
100
AcDbMText
 10
0.9860966619
 20
-0.0647965859
 30
0.0
 40
0.0625
 41
0.0
 71
         1
 72
         1
  1
%%p
  7
SLDTEXTSTYLE0
  0
MTEXT
  5
57
100
AcDbEntity
  8
0
 62
         7
100
AcDbMText
 10
1.0456799669
 20
-0.0647965859
 30
0.0
 40
0.0625
 41
0.0
 71
         1
 72
         1
  1
0.010
  7
SLDTEXTSTYLE0
  0
MTEXT
  5
58
100
AcDbEntity
  8
0
 62
         7
100
AcDbMText
 10
0.0
 20
-0.1481299182
 30
0.0
 40
0.0625
 41
0.0
 71
         1
 72
         1
  1
    THREE PLACE DECIMAL: 
  7
SLDTEXTSTYLE0
  0
MTEXT
  5
59
100
AcDbEntity
  8
0
 62
         7
100
AcDbMText
 10
1.0267939917
 20
-0.1481299182
 30
0.0
 40
0.0625
 41
0.0
 71
         1
 72
         1
  1
%%p
  7
SLDTEXTSTYLE0
  0
MTEXT
  5
5A
100
AcDbEntity
  8
0
 62
         7
100
AcDbMText
 10
1.0863772967
 20
-0.1481299182
 30
0.0
 40
0.0625
 41
0.0
 71
         1
 72
         1
  1
0.005
  7
SLDTEXTSTYLE0
  0
MTEXT
  5
5B
100
AcDbEntity
  8
0
 62
         7
100
AcDbMText
 10
0.0
 20
-0.2314632506
 30
0.0
 40
0.0625
 41
0.0
 71
         1
 72
         1
  1
ANGULAR: 
  7
SLDTEXTSTYLE0
  0
MTEXT
  5
5C
100
AcDbEntity
  8
0
 62
         7
100
AcDbMText
 10
0.4373119015
 20
-0.2314632506
 30
0.0
 40
0.0625
 41
0.0
 71
         1
 72
         1
  1
%%p
  7
SLDTEXTSTYLE0
  0
MTEXT
  5
5D
100
AcDbEntity
  8
0
 62
         7
100
AcDbMText
 10
0.4968952432
 20
-0.2314632506
 30
0.0
 40
0.0625
 41
0.0
 71
         1
 72
         1
  1
30'     
  7
SLDTEXTSTYLE0
  0
MTEXT
  5
5E
100
AcDbEntity
  8
0
 62
         7
100
AcDbMText
 10
0.0
 20
-0.3147965829
 30
0.0
 40
0.0625
 41
0.0
 71
         1
 72
         1
  1
SURFACE FINISH: 32 MICROINCHES
  7
SLDTEXTSTYLE0
  0
MTEXT
  5
5F
100
AcDbEntity
  8
0
 62
         7
100
AcDbMText
 10
0.0
 20
-0.3981299152
 30
0.0
 40
0.0625
 41
0.0
 71
         1
 72
         1
  1
PARALLELISM: 0.002
  7
SLDTEXTSTYLE0
  0
MTEXT
  5
60
100
AcDbEntity
  8
0
 62
         7
100
AcDbMText
 10
0.0
 20
-0.4814632475
 30
0.0
 40
0.0625
 41
0.0
 71
         1
 72
         1
  1
FLATNESS: 0.002
  7
SLDTEXTSTYLE0
  0
MTEXT
  5
61
100
AcDbEntity
  8
0
 62
         7
100
AcDbMText
 10
0.0
 20
-0.5647965799
 30
0.0
 40
0.0625
 41
0.0
 71
         1
 72
         1
  1
STRAIGHTNESS: 0.002
  7
SLDTEXTSTYLE0
  0
MTEXT
  5
62
100
AcDbEntity
  8
0
 62
         7
100
AcDbMText
 10
0.0
 20
-0.6481299122
 30
0.0
 40
0.0625
 41
0.0
 71
         1
 72
         1
  1
CONCENTRICITY: 0.002
  7
SLDTEXTSTYLE0
  0
MTEXT
  5
63
100
AcDbEntity
  8
0
 62
         7
100
AcDbMText
 10
0.0
 20
-0.7314632445
 30
0.0
 40
0.0625
 41
0.0
 71
         1
 72
         1
  1
PERPENDICULARITY: 0.002
  7
SLDTEXTSTYLE0
  0
MTEXT
  5
64
100
AcDbEntity
  8
0
 62
         7
100
AcDbMText
 10
0.0
 20
-0.8147965768
 30
0.0
 40
0.0625
 41
0.0
 71
         1
 72
         1
  1
THREAD: CLASS 2 FIT
  7
SLDTEXTSTYLE0
  0
ENDBLK
  5
65
100
AcDbEntity
  8
0
100
AcDbBlockEnd
  0
BLOCK
  5
6C
100
AcDbEntity
  8
0
 62
         0
100
AcDbBlockBegin
  2
NOTE16
 70
         0
 10
0.0
 20
0.0
 30
0.0
  3
NOTE16
  1

  0
ENDBLK
  5
6D
100
AcDbEntity
  8
0
100
AcDbBlockEnd
  0
BLOCK
  5
74
100
AcDbEntity
  8
0
 62
         0
100
AcDbBlockBegin
  2
NOTE21
 70
         0
 10
0.0
 20
0.0
 30
0.0
  3
NOTE21
  1

  0
MTEXT
  5
75
100
AcDbEntity
  8
0
 62
         7
100
AcDbMText
 10
0.0
 20
0.1227034121
 30
0.0
 40
0.0833333333
 41
0.0
 71
         1
 72
         1
  1
SCALE: 
  7
SLDTEXTSTYLE0
  0
MTEXT
  5
76
100
AcDbEntity
  8
0
 62
         7
100
AcDbMText
 10
0.3914930674
 20
0.1227034121
 30
0.0
 40
0.0833333333
 41
0.0
 71
         1
 72
         1
  1
1:1
  7
SLDTEXTSTYLE0
  0
ENDBLK
  5
77
100
AcDbEntity
  8
0
100
AcDbBlockEnd
  0
BLOCK
  5
7A
100
AcDbEntity
  8
0
 62
         0
100
AcDbBlockBegin
  2
NOTE22
 70
         0
 10
0.0
 20
0.0
 30
0.0
  3
NOTE22
  1

  0
ENDBLK
  5
7B
100
AcDbEntity
  8
0
100
AcDbBlockEnd
  0
BLOCK
  5
7E
100
AcDbEntity
  8
0
 62
         0
100
AcDbBlockBegin
  2
NOTE23
 70
         0
 10
0.0
 20
0.0
 30
0.0
  3
NOTE23
  1

  0
ENDBLK
  5
7F
100
AcDbEntity
  8
0
100
AcDbBlockEnd
  0
BLOCK
  5
82
100
AcDbEntity
  8
0
 62
         0
100
AcDbBlockBegin
  2
NOTE24
 70
         0
 10
0.0
 20
0.0
 30
0.0
  3
NOTE24
  1

  0
ENDBLK
  5
83
100
AcDbEntity
  8
0
100
AcDbBlockEnd
  0
BLOCK
  5
86
100
AcDbEntity
  8
0
 62
         0
100
AcDbBlockBegin
  2
NOTE25
 70
         0
 10
0.0
 20
0.0
 30
0.0
  3
NOTE25
  1

  0
ENDBLK
  5
87
100
AcDbEntity
  8
0
100
AcDbBlockEnd
  0
BLOCK
  5
8A
100
AcDbEntity
  8
0
 62
         0
100
AcDbBlockBegin
  2
NOTE26
 70
         0
 10
0.0
 20
0.0
 30
0.0
  3
NOTE26
  1

  0
ENDBLK
  5
8B
100
AcDbEntity
  8
0
100
AcDbBlockEnd
  0
BLOCK
  5
8E
100
AcDbEntity
  8
0
 62
         0
100
AcDbBlockBegin
  2
NOTE27
 70
         0
 10
0.0
 20
0.0
 30
0.0
  3
NOTE27
  1

  0
ENDBLK
  5
8F
100
AcDbEntity
  8
0
100
AcDbBlockEnd
  0
BLOCK
  5
92
100
AcDbEntity
  8
0
 62
         0
100
AcDbBlockBegin
  2
NOTE28
 70
         0
 10
0.0
 20
0.0
 30
0.0
  3
NOTE28
  1

  0
ENDBLK
  5
93
100
AcDbEntity
  8
0
100
AcDbBlockEnd
  0
BLOCK
  5
96
100
AcDbEntity
  8
0
 62
         0
100
AcDbBlockBegin
  2
NOTE29
 70
         0
 10
0.0
 20
0.0
 30
0.0
  3
NOTE29
  1

  0
ENDBLK
  5
97
100
AcDbEntity
  8
0
100
AcDbBlockEnd
  0
BLOCK
  5
9A
100
AcDbEntity
  8
0
 62
         0
100
AcDbBlockBegin
  2
NOTE30
 70
         0
 10
0.0
 20
0.0
 30
0.0
  3
NOTE30
  1

  0
ENDBLK
  5
9B
100
AcDbEntity
  8
0
100
AcDbBlockEnd
  0
BLOCK
  5
9E
100
AcDbEntity
  8
0
 62
         0
100
AcDbBlockBegin
  2
NOTE31
 70
         0
 10
0.0
 20
0.0
 30
0.0
  3
NOTE31
  1

  0
ENDBLK
  5
9F
100
AcDbEntity
  8
0
100
AcDbBlockEnd
  0
BLOCK
  5
A2
100
AcDbEntity
  8
0
 62
         0
100
AcDbBlockBegin
  2
NOTE32
 70
         0
 10
0.0
 20
0.0
 30
0.0
  3
NOTE32
  1

  0
MTEXT
  5
A3
100
AcDbEntity
  8
0
 62
         7
100
AcDbMText
 10
0.0
 20
0.1227034121
 30
0.0
 40
0.0833333333
 41
0.0
 71
         1
 72
         1
  1
SHEET 
  7
SLDTEXTSTYLE0
  0
MTEXT
  5
A4
100
AcDbEntity
  8
0
 62
         7
100
AcDbMText
 10
0.3211612733
 20
0.1227034121
 30
0.0
 40
0.0833333333
 41
0.0
 71
         1
 72
         1
  1
1
  7
SLDTEXTSTYLE0
  0
MTEXT
  5
A5
100
AcDbEntity
  8
0
 62
         7
100
AcDbMText
 10
0.3776041512
 20
0.1227034121
 30
0.0
 40
0.0833333333
 41
0.0
 71
         1
 72
         1
  1
 OF 
  7
SLDTEXTSTYLE0
  0
MTEXT
  5
A6
100
AcDbEntity
  8
0
 62
         7
100
AcDbMText
 10
0.5861689652
 20
0.1227034121
 30
0.0
 40
0.0833333333
 41
0.0
 71
         1
 72
         1
  1
1
  7
SLDTEXTSTYLE0
  0
ENDBLK
  5
A7
100
AcDbEntity
  8
0
100
AcDbBlockEnd
  0
BLOCK
  5
AB
100
AcDbEntity
  8
0
 62
         0
100
AcDbBlockBegin
  2
NOTE34
 70
         0
 10
0.0
 20
0.0
 30
0.0
  3
NOTE34
  1

  0
MTEXT
  5
AC
100
AcDbEntity
  8
0
 62
         7
100
AcDbMText
 10
0.0
 20
0.0993700787
 30
0.0
 40
0.06
 41
0.0
 71
         1
 72
         1
  1
THE INFORMATION CONTAINED IN THIS
  7
SLDTEXTSTYLE0
  0
MTEXT
  5
AD
100
AcDbEntity
  8
0
 62
         7
100
AcDbMText
 10
0.0
 20
0.0000000042
 30
0.0
 40
0.06
 41
0.0
 71
         1
 72
         1
  1
DRAWING IS THE SOLE PROPERTY OF
  7
SLDTEXTSTYLE0
  0
MTEXT
  5
AE
100
AcDbEntity
  8
0
 62
         7
100
AcDbMText
 10
0.0
 20
-0.0993700704
 30
0.0
 40
0.06
 41
0.0
 71
         1
 72
         1
  1
THORLABS, INC.  ANY REPRODUCTION 
  7
SLDTEXTSTYLE0
  0
MTEXT
  5
AF
100
AcDbEntity
  8
0
 62
         7
100
AcDbMText
 10
0.0
 20
-0.198740145
 30
0.0
 40
0.06
 41
0.0
 71
         1
 72
         1
  1
IN PART OR AS A WHOLE WITHOUT
  7
SLDTEXTSTYLE0
  0
MTEXT
  5
B0
100
AcDbEntity
  8
0
 62
         7
100
AcDbMText
 10
0.0
 20
-0.2981102195
 30
0.0
 40
0.06
 41
0.0
 71
         1
 72
         1
  1
THE WRITTEN PERMISSION OF
  7
SLDTEXTSTYLE0
  0
MTEXT
  5
B1
100
AcDbEntity
  8
0
 62
         7
100
AcDbMText
 10
0.0
 20
-0.3974802941
 30
0.0
 40
0.06
 41
0.0
 71
         1
 72
         1
  1
THORLABS, INC. IS PROHIBITED.
  7
SLDTEXTSTYLE0
  0
ENDBLK
  5
B2
100
AcDbEntity
  8
0
100
AcDbBlockEnd
  0
BLOCK
  5
BF
100
AcDbEntity
  8
0
 62
         0
100
AcDbBlockBegin
  2
NOTE45
 70
         0
 10
0.0
 20
0.0
 30
0.0
  3
NOTE45
  1

  0
MTEXT
  5
C0
100
AcDbEntity
  8
0
 62
         7
100
AcDbMText
 10
0.0
 20
0.1227034121
 30
0.0
 40
0.0833333333
 41
0.0
 71
         1
 72
         1
  1
PO BOX 366
  7
SLDTEXTSTYLE0
  0
MTEXT
  5
C1
100
AcDbEntity
  8
0
 62
         7
100
AcDbMText
 10
0.0
 20
0.0115923023
 30
0.0
 40
0.0833333333
 41
0.0
 71
         1
 72
         1
  1
NEWTON NJ
  7
SLDTEXTSTYLE0
  0
ENDBLK
  5
C2
100
AcDbEntity
  8
0
100
AcDbBlockEnd
  0
BLOCK
  5
C5
100
AcDbEntity
  8
0
 62
         0
100
AcDbBlockBegin
  2
NOTE46
 70
         0
 10
0.0
 20
0.0
 30
0.0
  3
NOTE46
  1

  0
MTEXT
  5
C6
100
AcDbEntity
  8
0
 62
         7
100
AcDbMText
 10
0.0
 20
0.1539534121
 30
0.0
 40
0.1145833333
 41
0.0
 71
         1
 72
         1
  1
PIEZOELECTRIC ACTUATOR
  7
SLDTEXTSTYLE0
  0
MTEXT
  5
C7
100
AcDbEntity
  8
0
 62
         7
100
AcDbMText
 10
0.0
 20
0.0011756361
 30
0.0
 40
0.1145833333
 41
0.0
 71
         1
 72
         1
  1
WITH FEEDBACK, 30
  7
SLDTEXTSTYLE0
  0
MTEXT
  5
C8
100
AcDbEntity
  8
0
 62
         7
100
AcDbMText
 10
1.4134066722
 20
-0.0215288395
 30
0.0
 40
0.1145833333
 41
0.0
 71
         1
 72
         1
  1
m
  7
SLDTEXTSTYLE0
  0
MTEXT
  5
C9
100
AcDbEntity
  8
0
 62
         7
100
AcDbMText
 10
1.5388116768
 20
0.0011756361
 30
0.0
 40
0.1145833333
 41
0.0
 71
         1
 72
         1
  1
m TRAVEL
  7
SLDTEXTSTYLE0
  0
ENDBLK
  5
CA
100
AcDbEntity
  8
0
100
AcDbBlockEnd
  0
BLOCK
  5
14F
100
AcDbEntity
  8
0
 62
         7
100
AcDbBlockBegin
  2
*D17
 70
         1
 10
0.0
 20
0.0
 30
0.0
  3
*D17
  1

  0
MTEXT
  5
150
100
AcDbEntity
  8
0
 62
         7
100
AcDbMText
 10
8.4503731167
 20
2.447776031
 30
0.0
 40
0.0833333333
 41
0.0
 71
         1
 72
         1
  1
0.71
  7
SLDTEXTSTYLE0
  0
MTEXT
  5
151
100
AcDbEntity
  8
0
 62
         7
100
AcDbMText
 10
8.3669296569
 20
2.3153754041
 30
0.0
 40
0.0833333333
 41
0.0
 71
         1
 72
         1
  1
(18mm)
  7
SLDTEXTSTYLE0
  0
LINE
  5
152
100
AcDbEntity
  8
0
 62
         7
100
AcDbLine
 10
8.2036952542
 20
2.5926350999
 30
0.0
 11
8.2036952542
 21
2.2550726236
 31
0.0
  0
LINE
  5
153
100
AcDbEntity
  8
0
 62
         7
100
AcDbLine
 10
8.9123566716
 20
2.5926350999
 30
0.0
 11
8.9123566716
 21
2.2550726236
 31
0.0
  0
LINE
  5
154
100
AcDbEntity
  8
0
 62
         7
100
AcDbLine
 10
8.2036952542
 20
2.3250726236
 30
0.0
 11
8.2888046569
 21
2.3250726236
 31
0.0
  0
LINE
  5
155
100
AcDbEntity
  8
0
 62
         7
100
AcDbLine
 10
8.9123566716
 20
2.3250726236
 30
0.0
 11
8.8272472689
 21
2.3250726236
 31
0.0
  0
SOLID
  5
156
100
AcDbEntity
  8
0
 62
         7
100
AcDbTrace
 10
8.2036952542
 20
2.3250726236
 30
0.0
 11
8.3286952542
 21
2.3050726236
 31
0.0
 12
8.3286952542
 22
2.3450726236
 32
0.0
 13
8.3286952542
 23
2.3450726236
 33
0.0
  0
SOLID
  5
157
100
AcDbEntity
  8
0
 62
         7
100
AcDbTrace
 10
8.9123566716
 20
2.3250726236
 30
0.0
 11
8.7873566716
 21
2.3450726236
 31
0.0
 12
8.7873566716
 22
2.3050726236
 32
0.0
 13
8.7873566716
 23
2.3050726236
 33
0.0
  0
POINT
  5
159
100
AcDbEntity
  8
DEFPOINTS
 62
         7
100
AcDbPoint
 10
8.2036952542
 20
2.6426350999
 30
0.0
  0
POINT
  5
15A
100
AcDbEntity
  8
DEFPOINTS
 62
         7
100
AcDbPoint
 10
8.9123566716
 20
2.6426350999
 30
0.0
  0
ENDBLK
  5
15B
100
AcDbEntity
  8
0
 62
         7
100
AcDbBlockEnd
  0
BLOCK
  5
15E
100
AcDbEntity
  8
0
 62
         7
100
AcDbBlockBegin
  2
*D18
 70
         1
 10
0.0
 20
0.0
 30
0.0
  3
*D18
  1

  0
MTEXT
  5
15F
100
AcDbEntity
  8
0
 62
         7
100
AcDbMText
 10
7.7096560289
 20
3.7003778775
 30
0.0
 40
0.0833333333
 41
0.0
 71
         1
 72
         1
  1
1.87
  7
SLDTEXTSTYLE0
  0
MTEXT
  5
160
100
AcDbEntity
  8
0
 62
         7
100
AcDbMText
 10
7.6262125692
 20
3.5679772506
 30
0.0
 40
0.0833333333
 41
0.0
 71
         1
 72
         1
  1
(48mm)
  7
SLDTEXTSTYLE0
  0
LINE
  5
161
100
AcDbEntity
  8
0
 62
         7
100
AcDbLine
 10
8.1536952542
 20
2.6426350999
 30
0.0
 11
7.7473088751
 21
2.6426350999
 31
0.0
  0
LINE
  5
162
100
AcDbEntity
  8
0
 62
         7
100
AcDbLine
 10
8.3702306873
 20
4.5127138401
 30
0.0
 11
7.7473088751
 21
4.5127138401
 31
0.0
  0
LINE
  5
163
100
AcDbEntity
  8
0
 62
         7
100
AcDbLine
 10
7.8173088751
 20
2.6426350999
 30
0.0
 11
7.8173088751
 21
3.4452738431
 31
0.0
  0
LINE
  5
164
100
AcDbEntity
  8
0
 62
         7
100
AcDbLine
 10
7.8173088751
 20
4.5127138401
 30
0.0
 11
7.8173088751
 21
3.710075097
 31
0.0
  0
SOLID
  5
165
100
AcDbEntity
  8
0
 62
         7
100
AcDbTrace
 10
7.8173088751
 20
2.6426350999
 30
0.0
 11
7.8373088751
 21
2.7676350999
 31
0.0
 12
7.7973088751
 22
2.7676350999
 32
0.0
 13
7.7973088751
 23
2.7676350999
 33
0.0
  0
SOLID
  5
166
100
AcDbEntity
  8
0
 62
         7
100
AcDbTrace
 10
7.8173088751
 20
4.5127138401
 30
0.0
 11
7.7973088751
 21
4.3877138401
 31
0.0
 12
7.8373088751
 22
4.3877138401
 32
0.0
 13
7.8373088751
 23
4.3877138401
 33
0.0
  0
POINT
  5
168
100
AcDbEntity
  8
DEFPOINTS
 62
         7
100
AcDbPoint
 10
8.2036952542
 20
2.6426350999
 30
0.0
  0
POINT
  5
169
100
AcDbEntity
  8
DEFPOINTS
 62
         7
100
AcDbPoint
 10
8.4202306873
 20
4.5127138401
 30
0.0
  0
ENDBLK
  5
16A
100
AcDbEntity
  8
0
 62
         7
100
AcDbBlockEnd
  0
BLOCK
  5
16F
100
AcDbEntity
  8
0
 62
         0
100
AcDbBlockBegin
  2
NOTE48
 70
         0
 10
0.0
 20
0.0
 30
0.0
  3
NOTE48
  1

  0
MTEXT
  5
170
100
AcDbEntity
  8
0
 62
         7
100
AcDbMText
 10
0.0197659754
 20
0.1784040021
 30
0.0
 40
0.0833333333
 41
0.0
 71
         1
 72
         1
  1
#6-32 UNC TAPPED
  7
SLDTEXTSTYLE0
  0
MTEXT
  5
171
100
AcDbEntity
  8
0
 62
         7
100
AcDbMText
 10
0.0197659754
 20
0.0672928923
 30
0.0
 40
0.0833333333
 41
0.0
 71
         1
 72
         1
  1
0.30(7.5mm) TRAVEL
  7
SLDTEXTSTYLE0
  0
MTEXT
  5
172
100
AcDbEntity
  8
0
 62
         7
100
AcDbMText
 10
0.0197659754
 20
-0.0438182175
 30
0.0
 40
0.0833333333
 41
0.0
 71
         1
 72
         1
  1
2 PLACES
  7
SLDTEXTSTYLE0
  0
ENDBLK
  5
173
100
AcDbEntity
  8
0
100
AcDbBlockEnd
  0
BLOCK
  5
176
100
AcDbEntity
  8
0
 62
         0
100
AcDbBlockBegin
  2
SW_CENTERMARK0
 70
         0
 10
0.0
 20
0.0
 30
0.0
  3
SW_CENTERMARK0
  1

  0
LINE
  5
177
100
AcDbEntity
  8
0
  6
CONTINUOUS
 62
         7
100
AcDbLine
 10
8.5580259629
 20
3.016650848
 30
0.0
 11
8.5580259629
 21
3.066650848
 31
0.0
  0
LINE
  5
178
100
AcDbEntity
  8
0
  6
CONTINUOUS
 62
         7
100
AcDbLine
 10
8.5580259629
 20
3.016650848
 30
0.0
 11
8.5080259629
 21
3.016650848
 31
0.0
  0
LINE
  5
179
100
AcDbEntity
  8
0
  6
CONTINUOUS
 62
         7
100
AcDbLine
 10
8.5580259629
 20
3.016650848
 30
0.0
 11
8.5580259629
 21
2.966650848
 31
0.0
  0
LINE
  5
17A
100
AcDbEntity
  8
0
  6
CONTINUOUS
 62
         7
100
AcDbLine
 10
8.5580259629
 20
3.016650848
 30
0.0
 11
8.6080259629
 21
3.016650848
 31
0.0
  0
ENDBLK
  5
17B
100
AcDbEntity
  8
0
100
AcDbBlockEnd
  0
BLOCK
  5
1F7
100
AcDbEntity
  8
0
 62
         7
100
AcDbBlockBegin
  2
*D21
 70
         1
 10
0.0
 20
0.0
 30
0.0
  3
*D21
  1

  0
MTEXT
  5
1F8
100
AcDbEntity
  8
0
 62
         7
100
AcDbMText
 10
5.4871109237
 20
3.1393542555
 30
0.0
 40
0.0833333333
 41
0.0
 71
         1
 72
         1
  1
%%c
  7
SLDTEXTSTYLE0
  0
MTEXT
  5
1F9
100
AcDbEntity
  8
0
 62
         7
100
AcDbMText
 10
5.6128605845
 20
3.1393542555
 30
0.0
 40
0.0833333333
 41
0.0
 71
         1
 72
         1
  1
0.50
  7
SLDTEXTSTYLE0
  0
MTEXT
  5
1FA
100
AcDbEntity
  8
0
 62
         7
100
AcDbMText
 10
5.4665422943
 20
3.0069536285
 30
0.0
 40
0.0833333333
 41
0.0
 71
         1
 72
         1
  1
(13mm)
  7
SLDTEXTSTYLE0
  0
LINE
  5
1FB
100
AcDbEntity
  8
0
 62
         7
100
AcDbLine
 10
5.2934156756
 20
2.7686193519
 30
0.0
 11
5.7276386003
 21
2.7686193519
 31
0.0
  0
LINE
  5
1FC
100
AcDbEntity
  8
0
 62
         7
100
AcDbLine
 10
5.2934156756
 20
3.264682344
 30
0.0
 11
5.7276386003
 21
3.264682344
 31
0.0
  0
LINE
  5
1FD
100
AcDbEntity
  8
0
 62
         7
100
AcDbLine
 10
5.6576386003
 20
2.7686193519
 30
0.0
 11
5.6576386003
 21
2.5186193519
 31
0.0
  0
LINE
  5
1FE
100
AcDbEntity
  8
0
 62
         7
100
AcDbLine
 10
5.6576386003
 20
3.264682344
 30
0.0
 11
5.6576386003
 21
3.514682344
 31
0.0
  0
SOLID
  5
1FF
100
AcDbEntity
  8
0
 62
         7
100
AcDbTrace
 10
5.6576386003
 20
2.7686193519
 30
0.0
 11
5.6376386003
 21
2.6436193519
 31
0.0
 12
5.6776386003
 22
2.6436193519
 32
0.0
 13
5.6776386003
 23
2.6436193519
 33
0.0
  0
SOLID
  5
200
100
AcDbEntity
  8
0
 62
         7
100
AcDbTrace
 10
5.6576386003
 20
3.264682344
 30
0.0
 11
5.6776386003
 21
3.389682344
 31
0.0
 12
5.6376386003
 22
3.389682344
 32
0.0
 13
5.6376386003
 23
3.389682344
 33
0.0
  0
POINT
  5
202
100
AcDbEntity
  8
DEFPOINTS
 62
         7
100
AcDbPoint
 10
5.2434156756
 20
2.7686193519
 30
0.0
  0
POINT
  5
203
100
AcDbEntity
  8
DEFPOINTS
 62
         7
100
AcDbPoint
 10
5.2434156756
 20
3.264682344
 30
0.0
  0
ENDBLK
  5
204
100
AcDbEntity
  8
0
 62
         7
100
AcDbBlockEnd
  0
BLOCK
  5
207
100
AcDbEntity
  8
0
 62
         7
100
AcDbBlockBegin
  2
*D22
 70
         1
 10
0.0
 20
0.0
 30
0.0
  3
*D22
  1

  0
MTEXT
  5
208
100
AcDbEntity
  8
0
 62
         7
100
AcDbMText
 10
3.6003297586
 20
2.0644737283
 30
0.0
 40
0.0833333333
 41
0.0
 71
         1
 72
         1
  1
3.07
  7
SLDTEXTSTYLE0
  0
MTEXT
  5
209
100
AcDbEntity
  8
0
 62
         7
100
AcDbMText
 10
3.5168862988
 20
1.9320731014
 30
0.0
 40
0.0833333333
 41
0.0
 71
         1
 72
         1
  1
(78mm)
  7
SLDTEXTSTYLE0
  0
LINE
  5
20A
100
AcDbEntity
  8
0
 62
         7
100
AcDbLine
 10
5.2434156756
 20
2.7186193519
 30
0.0
 11
5.2434156756
 21
1.8717703208
 31
0.0
  0
LINE
  5
20B
100
AcDbEntity
  8
0
 62
         7
100
AcDbLine
 10
2.1725495339
 20
2.7501154149
 30
0.0
 11
2.1725495339
 21
1.8717703208
 31
0.0
  0
LINE
  5
20C
100
AcDbEntity
  8
0
 62
         7
100
AcDbLine
 10
5.2434156756
 20
1.9417703208
 30
0.0
 11
3.9772039107
 21
1.9417703208
 31
0.0
  0
LINE
  5
20D
100
AcDbEntity
  8
0
 62
         7
100
AcDbLine
 10
2.1725495339
 20
1.9417703208
 30
0.0
 11
3.4387612988
 21
1.9417703208
 31
0.0
  0
SOLID
  5
20E
100
AcDbEntity
  8
0
 62
         7
100
AcDbTrace
 10
5.2434156756
 20
1.9417703208
 30
0.0
 11
5.1184156756
 21
1.9617703208
 31
0.0
 12
5.1184156756
 22
1.9217703208
 32
0.0
 13
5.1184156756
 23
1.9217703208
 33
0.0
  0
SOLID
  5
20F
100
AcDbEntity
  8
0
 62
         7
100
AcDbTrace
 10
2.1725495339
 20
1.9417703208
 30
0.0
 11
2.2975495339
 21
1.9217703208
 31
0.0
 12
2.2975495339
 22
1.9617703208
 32
0.0
 13
2.2975495339
 23
1.9617703208
 33
0.0
  0
POINT
  5
210
100
AcDbEntity
  8
DEFPOINTS
 62
         7
100
AcDbPoint
 10
5.2434156756
 20
2.7686193519
 30
0.0
  0
POINT
  5
211
100
AcDbEntity
  8
DEFPOINTS
 62
         7
100
AcDbPoint
 10
2.1725495339
 20
2.8001154149
 30
0.0
  0
ENDBLK
  5
212
100
AcDbEntity
  8
0
 62
         7
100
AcDbBlockEnd
  0
BLOCK
  5
215
100
AcDbEntity
  8
0
 62
         7
100
AcDbBlockBegin
  2
*D23
 70
         1
 10
0.0
 20
0.0
 30
0.0
  3
*D23
  1

  0
MTEXT
  5
216
100
AcDbEntity
  8
0
 62
         7
100
AcDbMText
 10
3.6593848767
 20
2.4483024247
 30
0.0
 40
0.0833333333
 41
0.0
 71
         1
 72
         1
  1
2.95
  7
SLDTEXTSTYLE0
  0
MTEXT
  5
217
100
AcDbEntity
  8
0
 62
         7
100
AcDbMText
 10
3.5759414169
 20
2.3159017977
 30
0.0
 40
0.0833333333
 41
0.0
 71
         1
 72
         1
  1
(75mm)
  7
SLDTEXTSTYLE0
  0
LINE
  5
218
100
AcDbEntity
  8
0
 62
         7
100
AcDbLine
 10
2.2906597701
 20
2.7501154149
 30
0.0
 11
2.2906597701
 21
2.2555990172
 31
0.0
  0
LINE
  5
219
100
AcDbEntity
  8
0
 62
         7
100
AcDbLine
 10
5.2434156756
 20
2.7186193519
 30
0.0
 11
5.2434156756
 21
2.2555990172
 31
0.0
  0
LINE
  5
21A
100
AcDbEntity
  8
0
 62
         7
100
AcDbLine
 10
2.2906597701
 20
2.3255990172
 30
0.0
 11
3.4978164169
 21
2.3255990172
 31
0.0
  0
LINE
  5
21B
100
AcDbEntity
  8
0
 62
         7
100
AcDbLine
 10
5.2434156756
 20
2.3255990172
 30
0.0
 11
4.0362590288
 21
2.3255990172
 31
0.0
  0
SOLID
  5
21C
100
AcDbEntity
  8
0
 62
         7
100
AcDbTrace
 10
2.2906597701
 20
2.3255990172
 30
0.0
 11
2.4156597701
 21
2.3055990172
 31
0.0
 12
2.4156597701
 22
2.3455990172
 32
0.0
 13
2.4156597701
 23
2.3455990172
 33
0.0
  0
SOLID
  5
21D
100
AcDbEntity
  8
0
 62
         7
100
AcDbTrace
 10
5.2434156756
 20
2.3255990172
 30
0.0
 11
5.1184156756
 21
2.3455990172
 31
0.0
 12
5.1184156756
 22
2.3055990172
 32
0.0
 13
5.1184156756
 23
2.3055990172
 33
0.0
  0
POINT
  5
21E
100
AcDbEntity
  8
DEFPOINTS
 62
         7
100
AcDbPoint
 10
2.2906597701
 20
2.8001154149
 30
0.0
  0
POINT
  5
21F
100
AcDbEntity
  8
DEFPOINTS
 62
         7
100
AcDbPoint
 10
5.2434156756
 20
2.7686193519
 30
0.0
  0
ENDBLK
  5
220
100
AcDbEntity
  8
0
 62
         7
100
AcDbBlockEnd
  0
BLOCK
  5
223
100
AcDbEntity
  8
0
 62
         7
100
AcDbBlockBegin
  2
*D24
 70
         1
 10
0.0
 20
0.0
 30
0.0
  3
*D24
  1

  0
MTEXT
  5
224
100
AcDbEntity
  8
0
 62
         7
100
AcDbMText
 10
1.3743280968
 20
2.7041882223
 30
0.0
 40
0.0833333333
 41
0.0
 71
         1
 72
         1
  1
%%c
  7
SLDTEXTSTYLE0
  0
MTEXT
  5
225
100
AcDbEntity
  8
0
 62
         7
100
AcDbMText
 10
1.5000777577
 20
2.7041882223
 30
0.0
 40
0.0833333333
 41
0.0
 71
         1
 72
         1
  1
0.20
  7
SLDTEXTSTYLE0
  0
MTEXT
  5
226
100
AcDbEntity
  8
0
 62
         7
100
AcDbMText
 10
1.3383694414
 20
2.5717875953
 30
0.0
 40
0.0833333333
 41
0.0
 71
         1
 72
         1
  1
(5.1mm)
  7
SLDTEXTSTYLE0
  0
LINE
  5
227
100
AcDbEntity
  8
0
 62
         7
100
AcDbLine
 10
2.2406597701
 20
2.9162571472
 30
0.0
 11
1.8344671056
 21
2.9162571472
 31
0.0
  0
LINE
  5
228
100
AcDbEntity
  8
0
 62
         7
100
AcDbLine
 10
2.2406597701
 20
3.1170445488
 30
0.0
 11
1.8344671056
 21
3.1170445488
 31
0.0
  0
LINE
  5
229
100
AcDbEntity
  8
0
 62
         7
100
AcDbLine
 10
1.8294671056
 20
2.5814848148
 30
0.0
 11
1.9044671056
 21
2.5814848148
 31
0.0
  0
LINE
  5
22A
100
AcDbEntity
  8
0
 62
         7
100
AcDbLine
 10
1.9044671056
 20
2.5814848148
 30
0.0
 11
1.9044671056
 21
2.9162571472
 31
0.0
  0
LINE
  5
22B
100
AcDbEntity
  8
0
 62
         7
100
AcDbLine
 10
1.9044671056
 20
3.1170445488
 30
0.0
 11
1.9044671056
 21
3.3670445488
 31
0.0
  0
SOLID
  5
22C
100
AcDbEntity
  8
0
 62
         7
100
AcDbTrace
 10
1.9044671056
 20
2.9162571472
 30
0.0
 11
1.8844671056
 21
2.7912571472
 31
0.0
 12
1.9244671056
 22
2.7912571472
 32
0.0
 13
1.9244671056
 23
2.7912571472
 33
0.0
  0
SOLID
  5
22D
100
AcDbEntity
  8
0
 62
         7
100
AcDbTrace
 10
1.9044671056
 20
3.1170445488
 30
0.0
 11
1.9244671056
 21
3.2420445488
 31
0.0
 12
1.8844671056
 22
3.2420445488
 32
0.0
 13
1.8844671056
 23
3.2420445488
 33
0.0
  0
POINT
  5
22E
100
AcDbEntity
  8
DEFPOINTS
 62
         7
100
AcDbPoint
 10
2.2906597701
 20
2.9162571472
 30
0.0
  0
POINT
  5
22F
100
AcDbEntity
  8
DEFPOINTS
 62
         7
100
AcDbPoint
 10
2.2906597701
 20
3.1170445488
 30
0.0
  0
ENDBLK
  5
230
100
AcDbEntity
  8
0
 62
         7
100
AcDbBlockEnd
  0
BLOCK
  5
234
100
AcDbEntity
  8
0
 62
         0
100
AcDbBlockBegin
  2
NOTE49
 70
         0
 10
0.0
 20
0.0
 30
0.0
  3
NOTE49
  1

  0
MTEXT
  5
235
100
AcDbEntity
  8
0
 62
         7
100
AcDbMText
 10
-0.978004353
 20
0.1227609689
 30
0.0
 40
0.0833333333
 41
0.0
 71
         1
 72
         1
  1
SMC PIEZO INPUTS
  7
SLDTEXTSTYLE0
  0
MTEXT
  5
236
100
AcDbEntity
  8
0
 62
         7
100
AcDbMText
 10
-0.3193623584
 20
0.0116498591
 30
0.0
 40
0.0833333333
 41
0.0
 71
         1
 72
         1
  1
0-75V
  7
SLDTEXTSTYLE0
  0
ENDBLK
  5
237
100
AcDbEntity
  8
0
100
AcDbBlockEnd
  0
BLOCK
  5
23B
100
AcDbEntity
  8
0
 62
         0
100
AcDbBlockBegin
  2
NOTE50
 70
         0
 10
0.0
 20
0.0
 30
0.0
  3
NOTE50
  1

  0
MTEXT
  5
23C
100
AcDbEntity
  8
0
 62
         7
100
AcDbMText
 10
0.0197728756
 20
0.1227820004
 30
0.0
 40
0.0833333333
 41
0.0
 71
         1
 72
         1
  1
LEMO CONNECTOR
  7
SLDTEXTSTYLE0
  0
MTEXT
  5
23D
100
AcDbEntity
  8
0
 62
         7
100
AcDbMText
 10
0.0197728756
 20
0.0116708906
 30
0.0
 40
0.0833333333
 41
0.0
 71
         1
 72
         1
  1
FOR POSITION FEEDBACK
  7
SLDTEXTSTYLE0
  0
ENDBLK
  5
23E
100
AcDbEntity
  8
0
100
AcDbBlockEnd
  0
BLOCK
  5
2BF
100
AcDbEntity
  8
0
 62
         7
100
AcDbBlockBegin
  2
*D27
 70
         1
 10
0.0
 20
0.0
 30
0.0
  3
*D27
  1

  0
MTEXT
  5
2C0
100
AcDbEntity
  8
0
 62
         7
100
AcDbMText
 10
5.5894922984
 20
6.366323873
 30
0.0
 40
0.0833333333
 41
0.0
 71
         1
 72
         1
  1
0.31
  7
SLDTEXTSTYLE0
  0
MTEXT
  5
2C1
100
AcDbEntity
  8
0
 62
         7
100
AcDbMText
 10
5.5368288909
 20
6.2339232461
 30
0.0
 40
0.0833333333
 41
0.0
 71
         1
 72
         1
  1
(8mm)
  7
SLDTEXTSTYLE0
  0
LINE
  5
2C2
100
AcDbEntity
  8
0
 62
         7
100
AcDbLine
 10
5.2434156756
 20
6.5709415749
 30
0.0
 11
5.2434156756
 21
6.1736204655
 31
0.0
  0
LINE
  5
2C3
100
AcDbEntity
  8
0
 62
         7
100
AcDbLine
 10
4.9284550457
 20
6.4646423623
 30
0.0
 11
4.9284550457
 21
6.1736204655
 31
0.0
  0
LINE
  5
2C4
100
AcDbEntity
  8
0
 62
         7
100
AcDbLine
 10
5.2434156756
 20
6.2436204655
 30
0.0
 11
5.4587038909
 21
6.2436204655
 31
0.0
  0
LINE
  5
2C5
100
AcDbEntity
  8
0
 62
         7
100
AcDbLine
 10
4.9284550457
 20
6.2436204655
 30
0.0
 11
5.2434156756
 21
6.2436204655
 31
0.0
  0
SOLID
  5
2C6
100
AcDbEntity
  8
0
 62
         7
100
AcDbTrace
 10
5.2434156756
 20
6.2436204655
 30
0.0
 11
5.1184156756
 21
6.2636204655
 31
0.0
 12
5.1184156756
 22
6.2236204655
 32
0.0
 13
5.1184156756
 23
6.2236204655
 33
0.0
  0
SOLID
  5
2C7
100
AcDbEntity
  8
0
 62
         7
100
AcDbTrace
 10
4.9284550457
 20
6.2436204655
 30
0.0
 11
5.0534550457
 21
6.2236204655
 31
0.0
 12
5.0534550457
 22
6.2636204655
 32
0.0
 13
5.0534550457
 23
6.2636204655
 33
0.0
  0
POINT
  5
2C8
100
AcDbEntity
  8
DEFPOINTS
 62
         7
100
AcDbPoint
 10
5.2434156756
 20
6.6209415749
 30
0.0
  0
POINT
  5
2C9
100
AcDbEntity
  8
DEFPOINTS
 62
         7
100
AcDbPoint
 10
4.9284550457
 20
6.5146423623
 30
0.0
  0
ENDBLK
  5
2CA
100
AcDbEntity
  8
0
 62
         7
100
AcDbBlockEnd
  0
BLOCK
  5
2CD
100
AcDbEntity
  8
0
 62
         7
100
AcDbBlockBegin
  2
*D28
 70
         1
 10
0.0
 20
0.0
 30
0.0
  3
*D28
  1

  0
MTEXT
  5
2CE
100
AcDbEntity
  8
0
 62
         7
100
AcDbMText
 10
4.1908809397
 20
6.366323873
 30
0.0
 40
0.0833333333
 41
0.0
 71
         1
 72
         1
  1
1.26
  7
SLDTEXTSTYLE0
  0
MTEXT
  5
2CF
100
AcDbEntity
  8
0
 62
         7
100
AcDbMText
 10
4.1074374799
 20
6.2339232461
 30
0.0
 40
0.0833333333
 41
0.0
 71
         1
 72
         1
  1
(32mm)
  7
SLDTEXTSTYLE0
  0
LINE
  5
2D0
100
AcDbEntity
  8
0
 62
         7
100
AcDbLine
 10
3.668612526
 20
6.4646423623
 30
0.0
 11
3.668612526
 21
6.1736204655
 31
0.0
  0
LINE
  5
2D1
100
AcDbEntity
  8
0
 62
         7
100
AcDbLine
 10
4.9284550457
 20
6.4646423623
 30
0.0
 11
4.9284550457
 21
6.1736204655
 31
0.0
  0
LINE
  5
2D2
100
AcDbEntity
  8
0
 62
         7
100
AcDbLine
 10
3.668612526
 20
6.2436204655
 30
0.0
 11
4.0293124799
 21
6.2436204655
 31
0.0
  0
LINE
  5
2D3
100
AcDbEntity
  8
0
 62
         7
100
AcDbLine
 10
4.9284550457
 20
6.2436204655
 30
0.0
 11
4.5677550918
 21
6.2436204655
 31
0.0
  0
SOLID
  5
2D4
100
AcDbEntity
  8
0
 62
         7
100
AcDbTrace
 10
3.668612526
 20
6.2436204655
 30
0.0
 11
3.793612526
 21
6.2236204655
 31
0.0
 12
3.793612526
 22
6.2636204655
 32
0.0
 13
3.793612526
 23
6.2636204655
 33
0.0
  0
SOLID
  5
2D5
100
AcDbEntity
  8
0
 62
         7
100
AcDbTrace
 10
4.9284550457
 20
6.2436204655
 30
0.0
 11
4.8034550457
 21
6.2636204655
 31
0.0
 12
4.8034550457
 22
6.2236204655
 32
0.0
 13
4.8034550457
 23
6.2236204655
 33
0.0
  0
POINT
  5
2D6
100
AcDbEntity
  8
DEFPOINTS
 62
         7
100
AcDbPoint
 10
3.668612526
 20
6.5146423623
 30
0.0
  0
POINT
  5
2D7
100
AcDbEntity
  8
DEFPOINTS
 62
         7
100
AcDbPoint
 10
4.9284550457
 20
6.5146423623
 30
0.0
  0
ENDBLK
  5
2D8
100
AcDbEntity
  8
0
 62
         7
100
AcDbBlockEnd
  0
BLOCK
  5
2DC
100
AcDbEntity
  8
0
 62
         0
100
AcDbBlockBegin
  2
NOTE51
 70
         0
 10
0.0
 20
0.0
 30
0.0
  3
NOTE51
  1

  0
MTEXT
  5
2DD
100
AcDbEntity
  8
0
 62
         7
100
AcDbMText
 10
-0.8493800978
 20
0.2339233026
 30
0.0
 40
0.0833333333
 41
0.0
 71
         1
 72
         1
  1
REMOVABLE TIP
  7
SLDTEXTSTYLE0
  0
MTEXT
  5
2DE
100
AcDbEntity
  8
0
 62
         7
100
AcDbMText
 10
-0.8081764805
 20
0.1228121928
 30
0.0
 40
0.0833333333
 41
0.0
 71
         1
 72
         1
  1
PART# PAA001
  7
SLDTEXTSTYLE0
  0
MTEXT
  5
2DF
100
AcDbEntity
  8
0
 62
         7
100
AcDbMText
 10
-0.6092567584
 20
0.011701083
 30
0.0
 40
0.0833333333
 41
0.0
 71
         1
 72
         1
  1
PAA-SERIES
  7
SLDTEXTSTYLE0
  0
MTEXT
  5
2E0
100
AcDbEntity
  8
0
 62
         7
100
AcDbMText
 10
-0.7038555189
 20
-0.0994100267
 30
0.0
 40
0.0833333333
 41
0.0
 71
         1
 72
         1
  1
COMPATIBLE
  7
SLDTEXTSTYLE0
  0
ENDBLK
  5
2E1
100
AcDbEntity
  8
0
100
AcDbBlockEnd
  0
ENDSEC
  0
SECTION
  2
ENTITIES
  0
LINE
  5
25
100
AcDbEntity
  8
0
  6
CONTINUOUS
 62
         7
100
AcDbLine
 10
0.329927
 20
8.1920731707
 30
0.0
 11
10.629927
 21
8.1920731707
 31
0.0
  0
LINE
  5
26
100
AcDbEntity
  8
0
  6
CONTINUOUS
 62
         7
100
AcDbLine
 10
0.329927
 20
8.1920731707
 30
0.0
 11
0.329927
 21
0.3920731707
 31
0.0
  0
LINE
  5
27
100
AcDbEntity
  8
0
  6
CONTINUOUS
 62
         7
100
AcDbLine
 10
10.629927
 20
0.3920731707
 30
0.0
 11
0.329927
 21
0.3920731707
 31
0.0
  0
LINE
  5
28
100
AcDbEntity
  8
0
  6
CONTINUOUS
 62
         7
100
AcDbLine
 10
10.629927
 20
0.3920731707
 30
0.0
 11
10.629927
 21
8.1920731707
 31
0.0
  0
LINE
  5
29
100
AcDbEntity
  8
0
  6
CONTINUOUS
 62
         7
100
AcDbLine
 10
7.8832069922
 20
1.2010186622
 30
0.0
 11
6.3491817542
 21
1.2010186622
 31
0.0
  0
LINE
  5
2A
100
AcDbEntity
  8
0
  6
CONTINUOUS
 62
         7
100
AcDbLine
 10
6.3491817542
 20
0.3920731707
 30
0.0
 11
6.3491817542
 21
1.6988536355
 31
0.0
  0
LINE
  5
2B
100
AcDbEntity
  8
0
  6
CONTINUOUS
 62
         7
100
AcDbLine
 10
7.8832069922
 20
1.270166923
 30
0.0
 11
10.629927
 21
1.270166923
 31
0.0
  0
LINE
  5
2C
100
AcDbEntity
  8
0
  6
CONTINUOUS
 62
         7
100
AcDbLine
 10
7.8832069922
 20
1.9437769943
 30
0.0
 11
7.8832069922
 21
0.3920731707
 31
0.0
  0
LINE
  5
2D
100
AcDbEntity
  8
0
  6
CONTINUOUS
 62
         7
100
AcDbLine
 10
7.8832069922
 20
1.323339557
 30
0.0
 11
6.3491817542
 21
1.323339557
 31
0.0
  0
LINE
  5
2E
100
AcDbEntity
  8
0
  6
CONTINUOUS
 62
         7
100
AcDbLine
 10
7.8832069922
 20
1.6988536355
 30
0.0
 11
4.9283800522
 21
1.6988536355
 31
0.0
  0
LINE
  5
2F
100
AcDbEntity
  8
0
  6
CONTINUOUS
 62
         7
100
AcDbLine
 10
7.8832069922
 20
0.7890359178
 30
0.0
 11
10.629927
 21
0.7890359178
 31
0.0
  0
LINE
  5
30
100
AcDbEntity
  8
0
  6
CONTINUOUS
 62
         7
100
AcDbLine
 10
7.8832069922
 20
1.4456604517
 30
0.0
 11
6.3491817542
 21
1.4456604517
 31
0.0
  0
LINE
  5
31
100
AcDbEntity
  8
0
  6
CONTINUOUS
 62
         7
100
AcDbLine
 10
7.8832069922
 20
1.5679813464
 30
0.0
 11
6.3491817542
 21
1.5679813464
 31
0.0
  0
LINE
  5
32
100
AcDbEntity
  8
0
  6
CONTINUOUS
 62
         7
100
AcDbLine
 10
6.9294188505
 20
1.6988536355
 30
0.0
 11
6.9294188505
 21
1.2010186622
 31
0.0
  0
LINE
  5
33
100
AcDbEntity
  8
0
  6
CONTINUOUS
 62
         7
100
AcDbLine
 10
7.2989435727
 20
1.6988536355
 30
0.0
 11
7.2989435727
 21
1.2010186622
 31
0.0
  0
LINE
  5
34
100
AcDbEntity
  8
0
  6
CONTINUOUS
 62
         7
100
AcDbLine
 10
8.9000563418
 20
0.7890359178
 30
0.0
 11
8.9000563418
 21
0.3920731707
 31
0.0
  0
LINE
  5
35
100
AcDbEntity
  8
0
  6
CONTINUOUS
 62
         7
100
AcDbLine
 10
9.3113942988
 20
0.96139916
 30
0.0
 11
9.3113942988
 21
0.7890359178
 31
0.0
  0
LINE
  5
36
100
AcDbEntity
  8
0
  6
CONTINUOUS
 62
         7
100
AcDbLine
 10
10.0324602448
 20
1.270166923
 30
0.0
 11
10.0324602448
 21
0.96139916
 31
0.0
  0
LINE
  5
37
100
AcDbEntity
  8
0
  6
CONTINUOUS
 62
         7
100
AcDbLine
 10
4.9283800522
 20
1.6988536355
 30
0.0
 11
4.9283800522
 21
0.3920731707
 31
0.0
  0
LINE
  5
38
100
AcDbEntity
  8
0
  6
CONTINUOUS
 62
         7
100
AcDbLine
 10
4.9283800522
 20
1.540040151
 30
0.0
 11
6.3491817542
 21
1.540040151
 31
0.0
  0
LINE
  5
39
100
AcDbEntity
  8
0
  6
CONTINUOUS
 62
         7
100
AcDbLine
 10
4.9283800522
 20
1.4356947803
 30
0.0
 11
6.3491817542
 21
1.4356947803
 31
0.0
  0
LINE
  5
3A
100
AcDbEntity
  8
0
  6
CONTINUOUS
 62
         7
100
AcDbLine
 10
6.3491817542
 20
1.0381709011
 30
0.0
 11
7.8832069922
 21
1.0381709011
 31
0.0
  0
LINE
  5
3B
100
AcDbEntity
  8
0
  6
CONTINUOUS
 62
         7
100
AcDbLine
 10
7.8832069922
 20
1.9437769943
 30
0.0
 11
10.629927
 21
1.9437769943
 31
0.0
  0
LINE
  5
3C
100
AcDbEntity
  8
0
  6
CONTINUOUS
 62
         7
100
AcDbLine
 10
10.315241862
 20
1.2693980507
 30
0.0
 11
10.315241862
 21
0.96139916
 31
0.0
  0
LINE
  5
3D
100
AcDbEntity
  8
0
  6
CONTINUOUS
 62
         7
100
AcDbLine
 10
7.8832069922
 20
0.96139916
 30
0.0
 11
10.629927
 21
0.96139916
 31
0.0
  0
LINE
  5
3E
100
AcDbEntity
  8
0
  6
CONTINUOUS
 62
         7
100
AcDbLine
 10
10.629927
 20
1.9437769943
 30
0.0
 11
10.629927
 21
1.9698084888
 31
0.0
  0
LINE
  5
3F
100
AcDbEntity
  8
0
  6
CONTINUOUS
 62
         7
100
AcDbLine
 10
7.8832069922
 20
1.6268095213
 30
0.0
 11
10.629927
 21
1.6268095213
 31
0.0
  0
LINE
  5
40
100
AcDbEntity
  8
0
  6
CONTINUOUS
 62
         7
100
AcDbLine
 10
6.692177
 20
0.3920731707
 30
0.0
 11
6.692177
 21
0.3072739649
 31
0.0
  0
LINE
  5
41
100
AcDbEntity
  8
0
  6
CONTINUOUS
 62
         7
100
AcDbLine
 10
2.754677
 20
0.3920731707
 30
0.0
 11
2.754677
 21
0.3072739649
 31
0.0
  0
LINE
  5
42
100
AcDbEntity
  8
0
  6
CONTINUOUS
 62
         7
100
AcDbLine
 10
2.754677
 20
0.3920731707
 30
0.0
 11
2.7672319738
 21
0.3575
 31
0.0
  0
LINE
  5
43
100
AcDbEntity
  8
0
  6
CONTINUOUS
 62
         7
100
AcDbLine
 10
2.7672319738
 20
0.3575
 30
0.0
 11
2.7414258825
 21
0.3575
 31
0.0
  0
LINE
  5
44
100
AcDbEntity
  8
0
  6
CONTINUOUS
 62
         7
100
AcDbLine
 10
2.7414258825
 20
0.3575
 30
0.0
 11
2.754677
 21
0.3920731707
 31
0.0
  0
MTEXT
  5
46
100
AcDbEntity
  8
0
 62
         7
100
AcDbMText
 10
10.4087758717
 20
1.1307921136
 30
0.0
 40
0.1041666667
 41
0.0
 71
         1
 72
         1
  1
A
  7
SLDTEXTSTYLE0
  0
MTEXT
  5
47
100
AcDbEntity
  8
0
 62
         7
100
AcDbMText
 10
1.7387909509
 20
0.3228564029
 30
0.0
 40
0.09375
 41
0.0
 71
         1
 72
         1
  1
5
  7
SLDTEXTSTYLE0
  0
MTEXT
  5
48
100
AcDbEntity
  8
0
 62
         7
100
AcDbMText
 10
3.723800327
 20
0.32599373
 30
0.0
 40
0.09375
 41
0.0
 71
         1
 72
         1
  1
4
  7
SLDTEXTSTYLE0
  0
MTEXT
  5
49
100
AcDbEntity
  8
0
 62
         7
100
AcDbMText
 10
5.6324457277
 20
0.3238891623
 30
0.0
 40
0.09375
 41
0.0
 71
         1
 72
         1
  1
3
  7
SLDTEXTSTYLE0
  0
MTEXT
  5
4A
100
AcDbEntity
  8
0
 62
         7
100
AcDbMText
 10
7.6059721724
 20
0.3247091132
 30
0.0
 40
0.09375
 41
0.0
 71
         1
 72
         1
  1
2
  7
SLDTEXTSTYLE0
  0
MTEXT
  5
4B
100
AcDbEntity
  8
0
 62
         7
100
AcDbMText
 10
9.6619921328
 20
0.3136419902
 30
0.0
 40
0.09375
 41
0.0
 71
         1
 72
         1
  1
1
  7
SLDTEXTSTYLE0
  0
MTEXT
  5
4C
100
AcDbEntity
  8
0
 62
         7
100
AcDbMText
 10
9.0732091754
 20
0.608503423
 30
0.0
 40
0.125
 41
0.0
 71
         1
 72
         1
  1
PAZ007
  7
SLDTEXTSTYLE0
  0
MTEXT
  5
4D
100
AcDbEntity
  8
0
 62
         7
100
AcDbMText
 10
7.9301743649
 20
1.2662311489
 30
0.0
 40
0.0833333333
 41
0.0
 71
         1
 72
         1
  1
MATERIAL:
  7
SLDTEXTSTYLE0
  0
MTEXT
  5
4E
100
AcDbEntity
  8
0
 62
         7
100
AcDbMText
 10
8.9438302275
 20
0.7619922188
 30
0.0
 40
0.0833333333
 41
0.0
 71
         1
 72
         1
  1
PART  NO.
  7
SLDTEXTSTYLE0
  0
MTEXT
  5
4F
100
AcDbEntity
  8
0
 62
         7
100
AcDbMText
 10
4.9872272808
 20
1.678787395
 30
0.0
 40
0.1
 41
0.0
 71
         1
 72
         1
  1
TOLERANCES
  7
SLDTEXTSTYLE0
  0
MTEXT
  5
50
100
AcDbEntity
  8
0
 62
         7
100
AcDbMText
 10
6.3927073562
 20
1.1667586129
 30
0.0
 40
0.06
 41
0.0
 71
         1
 72
         1
  1
PROPRIETARY AND CONFIDENTIAL
  7
SLDTEXTSTYLE0
  0
INSERT
  5
66
100
AcDbEntity
  8
0
100
AcDbBlockReference
  2
NOTE11
 10
4.9730262909
 20
1.3359640064
 30
0.0
  0
MTEXT
  5
67
100
AcDbEntity
  8
0
 62
         7
100
AcDbMText
 10
6.4985660702
 20
1.5619929057
 30
0.0
 40
0.065
 41
0.0
 71
         1
 72
         1
  1
DRAWN
  7
SLDTEXTSTYLE0
  0
MTEXT
  5
68
100
AcDbEntity
  8
0
 62
         7
100
AcDbMText
 10
6.4369653776
 20
1.4397369011
 30
0.0
 40
0.065
 41
0.0
 71
         1
 72
         1
  1
ENG APPR.
  7
SLDTEXTSTYLE0
  0
MTEXT
  5
69
100
AcDbEntity
  8
0
 62
         7
100
AcDbMText
 10
6.4273055419
 20
1.3196390079
 30
0.0
 40
0.065
 41
0.0
 71
         1
 72
         1
  1
MFG APPR.
  7
SLDTEXTSTYLE0
  0
MTEXT
  5
6A
100
AcDbEntity
  8
0
 62
         7
100
AcDbMText
 10
6.9752663896
 20
1.6821505696
 30
0.0
 40
0.065
 41
0.0
 71
         1
 72
         1
  1
NAME
  7
SLDTEXTSTYLE0
  0
INSERT
  5
6E
100
AcDbEntity
  8
0
100
AcDbBlockReference
  2
NOTE16
 10
0.0
 20
0.0
 30
0.0
  0
MTEXT
  5
6F
100
AcDbEntity
  8
0
 62
         7
100
AcDbMText
 10
7.9386050459
 20
1.577816147
 30
0.0
 40
0.1
 41
0.0
 71
         1
 72
         1
  1
TITLE:
  7
SLDTEXTSTYLE0
  0
MTEXT
  5
70
100
AcDbEntity
  8
0
 62
         7
100
AcDbMText
 10
10.0657693915
 20
1.2425575667
 30
0.0
 40
0.0833333333
 41
0.0
 71
         1
 72
         1
  1
SIZE
  7
SLDTEXTSTYLE0
  0
MTEXT
  5
71
100
AcDbEntity
  8
0
 62
         7
100
AcDbMText
 10
10.1162261111
 20
1.1269262436
 30
0.0
 40
0.1041666667
 41
0.0
 71
         1
 72
         1
  1
A
  7
SLDTEXTSTYLE0
  0
MTEXT
  5
72
100
AcDbEntity
  8
0
 62
         7
100
AcDbMText
 10
10.335100974
 20
1.24415745
 30
0.0
 40
0.0833333333
 41
0.0
 71
         1
 72
         1
  1
REV.
  7
SLDTEXTSTYLE0
  0
INSERT
  5
78
100
AcDbEntity
  8
0
100
AcDbBlockReference
  2
NOTE21
 10
8.3227727705
 20
0.8245333449
 30
0.0
  0
INSERT
  5
7C
100
AcDbEntity
  8
0
100
AcDbBlockReference
  2
NOTE22
 10
0.0
 20
0.0
 30
0.0
  0
INSERT
  5
80
100
AcDbEntity
  8
0
100
AcDbBlockReference
  2
NOTE23
 10
0.0
 20
0.0
 30
0.0
  0
INSERT
  5
84
100
AcDbEntity
  8
0
100
AcDbBlockReference
  2
NOTE24
 10
0.0
 20
0.0
 30
0.0
  0
INSERT
  5
88
100
AcDbEntity
  8
0
100
AcDbBlockReference
  2
NOTE25
 10
0.0
 20
0.0
 30
0.0
  0
INSERT
  5
8C
100
AcDbEntity
  8
0
100
AcDbBlockReference
  2
NOTE26
 10
0.0
 20
0.0
 30
0.0
  0
INSERT
  5
90
100
AcDbEntity
  8
0
100
AcDbBlockReference
  2
NOTE27
 10
0.0
 20
0.0
 30
0.0
  0
INSERT
  5
94
100
AcDbEntity
  8
0
100
AcDbBlockReference
  2
NOTE28
 10
0.0
 20
0.0
 30
0.0
  0
INSERT
  5
98
100
AcDbEntity
  8
0
100
AcDbBlockReference
  2
NOTE29
 10
0.0
 20
0.0
 30
0.0
  0
INSERT
  5
9C
100
AcDbEntity
  8
0
100
AcDbBlockReference
  2
NOTE30
 10
0.0
 20
0.0
 30
0.0
  0
INSERT
  5
A0
100
AcDbEntity
  8
0
100
AcDbBlockReference
  2
NOTE31
 10
0.0
 20
0.0
 30
0.0
  0
INSERT
  5
A8
100
AcDbEntity
  8
0
100
AcDbBlockReference
  2
NOTE32
 10
9.6378279873
 20
0.8201337505
 30
0.0
  0
MTEXT
  5
A9
100
AcDbEntity
  8
0
 62
         7
100
AcDbMText
 10
7.9969252559
 20
0.6079408784
 30
0.0
 40
0.125
 41
0.0
 71
         1
 72
         1
  1
12770-E01
  7
SLDTEXTSTYLE0
  0
INSERT
  5
B3
100
AcDbEntity
  8
0
100
AcDbBlockReference
  2
NOTE34
 10
6.3891646717
 20
0.9312082413
 30
0.0
  0
MTEXT
  5
B4
100
AcDbEntity
  8
0
 62
         7
100
AcDbMText
 10
4.9869424832
 20
1.5430724242
 30
0.0
 40
0.0625
 41
0.0
 71
         1
 72
         1
  1
UNLESS OTHERWISE SPECIFIED:
  7
SLDTEXTSTYLE0
  0
MTEXT
  5
B5
100
AcDbEntity
  8
0
 62
         7
100
AcDbMText
 10
7.9076399399
 20
0.763088683
 30
0.0
 40
0.0833333333
 41
0.0
 71
         1
 72
         1
  1
DWG.  NO.
  7
SLDTEXTSTYLE0
  0
MTEXT
  5
B6
100
AcDbEntity
  8
0
 62
         7
100
AcDbMText
 10
7.0592138229
 20
1.5647861468
 30
0.0
 40
0.065
 41
0.0
 71
         1
 72
         1
  1
JPS
  7
SLDTEXTSTYLE0
  0
MTEXT
  5
B7
100
AcDbEntity
  8
0
 62
         7
100
AcDbMText
 10
7.0628716471
 20
1.4480432518
 30
0.0
 40
0.065
 41
0.0
 71
         1
 72
         1
  1
JMM
  7
SLDTEXTSTYLE0
  0
MTEXT
  5
B8
100
AcDbEntity
  8
0
 62
         7
100
AcDbMText
 10
7.0636219211
 20
1.3254688473
 30
0.0
 40
0.065
 41
0.0
 71
         1
 72
         1
  1
JMM
  7
SLDTEXTSTYLE0
  0
MTEXT
  5
B9
100
AcDbEntity
  8
0
 62
         7
100
AcDbMText
 10
7.3775562039
 20
1.5664735411
 30
0.0
 40
0.065
 41
0.0
 71
         1
 72
         1
  1
11/02/05
  7
SLDTEXTSTYLE0
  0
MTEXT
  5
BA
100
AcDbEntity
  8
0
 62
         7
100
AcDbMText
 10
7.4731545031
 20
1.6796112043
 30
0.0
 40
0.065
 41
0.0
 71
         1
 72
         1
  1
DATE
  7
SLDTEXTSTYLE0
  0
MTEXT
  5
BB
100
AcDbEntity
  8
0
 62
         7
100
AcDbMText
 10
7.3821011998
 20
1.4397569559
 30
0.0
 40
0.065
 41
0.0
 71
         1
 72
         1
  1
11/02/05
  7
SLDTEXTSTYLE0
  0
MTEXT
  5
BC
100
AcDbEntity
  8
0
 62
         7
100
AcDbMText
 10
7.3821011998
 20
1.3192883921
 30
0.0
 40
0.065
 41
0.0
 71
         1
 72
         1
  1
11/02/05
  7
SLDTEXTSTYLE0
  0
MTEXT
  5
BD
100
AcDbEntity
  8
0
 62
         7
100
AcDbMText
 10
7.9182509893
 20
1.8945249685
 30
0.0
 40
0.1875
 41
0.0
 71
         1
 72
         1
  1
THORLABS INC.
  7
SLDTEXTSTYLE0
  0
INSERT
  5
C3
100
AcDbEntity
  8
0
100
AcDbBlockReference
  2
NOTE45
 10
9.7899715108
 20
1.8064732284
 30
0.0
  0
INSERT
  5
CB
100
AcDbEntity
  8
0
100
AcDbBlockReference
  2
NOTE46
 10
8.2754522599
 20
1.4481687327
 30
0.0
  0
MTEXT
  5
CC
100
AcDbEntity
  8
0
 62
         7
100
AcDbMText
 10
8.3691642187
 20
1.1419615018
 30
0.0
 40
0.1041666667
 41
0.0
 71
         1
 72
         1
  1
STAINLESS STEEL
  7
SLDTEXTSTYLE0
  0
LINE
  5
CD
100
AcDbEntity
  8
0
  6
CONTINUOUS
 62
         7
100
AcDbLine
 10
8.3611755692
 20
4.1190130527
 30
0.0
 11
8.3611755779
 21
4.0796429766
 31
0.0
  0
LINE
  5
CE
100
AcDbEntity
  8
0
  6
CONTINUOUS
 62
         7
100
AcDbLine
 10
8.7548763581
 20
4.0796429704
 30
0.0
 11
8.7548763566
 21
4.1190130527
 31
0.0
  0
LINE
  5
CF
100
AcDbEntity
  8
0
  6
CONTINUOUS
 62
         7
100
AcDbLine
 10
8.4202306873
 20
4.5127138401
 30
0.0
 11
8.4202306842
 21
4.1190130569
 31
0.0
  0
LINE
  5
D0
100
AcDbEntity
  8
0
  6
CONTINUOUS
 62
         7
100
AcDbLine
 10
8.6958212328
 20
4.1190130451
 30
0.0
 11
8.6958212385
 21
4.5127138401
 31
0.0
  0
LINE
  5
D1
100
AcDbEntity
  8
0
  6
CONTINUOUS
 62
         7
100
AcDbLine
 10
8.5981222895
 20
2.7678931168
 30
0.0
 11
8.5973960416
 21
2.7686193519
 31
0.0
  0
LINE
  5
D2
100
AcDbEntity
  8
0
  6
CONTINUOUS
 62
         7
100
AcDbLine
 10
8.5186558842
 20
2.7686193519
 30
0.0
 11
8.517929651
 21
2.7678931643
 31
0.0
  0
POLYLINE
  5
D3
100
AcDbEntity
  8
0
  6
CONTINUOUS
 62
         7
100
AcDb2dPolyline
 66
         1
 10
0.0
 20
0.0
 30
0.0
 70
       128
  0
VERTEX
  5
D4
100
AcDbEntity
  8
0
100
AcDbVertex
100
AcDb2dVertex
 10
8.3611755817
 20
4.1190130444
 30
0.0
  0
VERTEX
  5
D5
100
AcDbEntity
  8
0
100
AcDbVertex
100
AcDb2dVertex
 10
8.3612590063
 20
4.11901306
 30
0.0
  0
VERTEX
  5
D6
100
AcDbEntity
  8
0
100
AcDbVertex
100
AcDb2dVertex
 10
8.36238088
 20
4.1190130604
 30
0.0
  0
VERTEX
  5
D7
100
AcDbEntity
  8
0
100
AcDbVertex
100
AcDb2dVertex
 10
8.3648047244
 20
4.1190130568
 30
0.0
  0
VERTEX
  5
D8
100
AcDbEntity
  8
0
100
AcDbVertex
100
AcDb2dVertex
 10
8.3685144638
 20
4.1190130449
 30
0.0
  0
VERTEX
  5
D9
100
AcDbEntity
  8
0
100
AcDbVertex
100
AcDb2dVertex
 10
8.3734853257
 20
4.1190130563
 30
0.0
  0
VERTEX
  5
DA
100
AcDbEntity
  8
0
100
AcDbVertex
100
AcDb2dVertex
 10
8.3796842763
 20
4.119013048
 30
0.0
  0
VERTEX
  5
DB
100
AcDbEntity
  8
0
100
AcDbVertex
100
AcDb2dVertex
 10
8.3870701002
 20
4.1190130452
 30
0.0
  0
VERTEX
  5
DC
100
AcDbEntity
  8
0
100
AcDbVertex
100
AcDb2dVertex
 10
8.3955935804
 20
4.1190130601
 30
0.0
  0
VERTEX
  5
DD
100
AcDbEntity
  8
0
100
AcDbVertex
100
AcDb2dVertex
 10
8.4051980104
 20
4.119013051
 30
0.0
  0
VERTEX
  5
DE
100
AcDbEntity
  8
0
100
AcDbVertex
100
AcDb2dVertex
 10
8.4158194933
 20
4.1190130558
 30
0.0
  0
VERTEX
  5
DF
100
AcDbEntity
  8
0
100
AcDbVertex
100
AcDb2dVertex
 10
8.4273873397
 20
4.1190130459
 30
0.0
  0
VERTEX
  5
E0
100
AcDbEntity
  8
0
100
AcDbVertex
100
AcDb2dVertex
 10
8.4398245865
 20
4.11901305
 30
0.0
  0
VERTEX
  5
E1
100
AcDbEntity
  8
0
100
AcDbVertex
100
AcDb2dVertex
 10
8.453048396
 20
4.119013045
 30
0.0
  0
VERTEX
  5
E2
100
AcDbEntity
  8
0
100
AcDbVertex
100
AcDb2dVertex
 10
8.4669708673
 20
4.119013048
 30
0.0
  0
VERTEX
  5
E3
100
AcDbEntity
  8
0
100
AcDbVertex
100
AcDb2dVertex
 10
8.4814992539
 20
4.1190130521
 30
0.0
  0
VERTEX
  5
E4
100
AcDbEntity
  8
0
100
AcDbVertex
100
AcDb2dVertex
 10
8.4965369192
 20
4.1190130574
 30
0.0
  0
VERTEX
  5
E5
100
AcDbEntity
  8
0
100
AcDbVertex
100
AcDb2dVertex
 10
8.5119838125
 20
4.1190130498
 30
0.0
  0
VERTEX
  5
E6
100
AcDbEntity
  8
0
100
AcDbVertex
100
AcDb2dVertex
 10
8.5277370953
 20
4.1190130469
 30
0.0
  0
VERTEX
  5
E7
100
AcDbEntity
  8
0
100
AcDbVertex
100
AcDb2dVertex
 10
8.5436919462
 20
4.119013044
 30
0.0
  0
VERTEX
  5
E8
100
AcDbEntity
  8
0
100
AcDbVertex
100
AcDb2dVertex
 10
8.55974215
 20
4.119013061
 30
0.0
  0
VERTEX
  5
E9
100
AcDbEntity
  8
0
100
AcDbVertex
100
AcDb2dVertex
 10
8.5757809749
 20
4.1190130494
 30
0.0
  0
VERTEX
  5
EA
100
AcDbEntity
  8
0
100
AcDbVertex
100
AcDb2dVertex
 10
8.5917016563
 20
4.1190130535
 30
0.0
  0
VERTEX
  5
EB
100
AcDbEntity
  8
0
100
AcDbVertex
100
AcDb2dVertex
 10
8.6073981975
 20
4.1190130472
 30
0.0
  0
VERTEX
  5
EC
100
AcDbEntity
  8
0
100
AcDbVertex
100
AcDb2dVertex
 10
8.6227661815
 20
4.1190130444
 30
0.0
  0
VERTEX
  5
ED
100
AcDbEntity
  8
0
100
AcDbVertex
100
AcDb2dVertex
 10
8.6377033383
 20
4.1190130559
 30
0.0
  0
VERTEX
  5
EE
100
AcDbEntity
  8
0
100
AcDbVertex
100
AcDb2dVertex
 10
8.6521102408
 20
4.1190130585
 30
0.0
  0
VERTEX
  5
EF
100
AcDbEntity
  8
0
100
AcDbVertex
100
AcDb2dVertex
 10
8.6658910416
 20
4.1190130538
 30
0.0
  0
VERTEX
  5
F0
100
AcDbEntity
  8
0
100
AcDbVertex
100
AcDb2dVertex
 10
8.6789540039
 20
4.1190130455
 30
0.0
  0
VERTEX
  5
F1
100
AcDbEntity
  8
0
100
AcDbVertex
100
AcDb2dVertex
 10
8.6912122366
 20
4.1190130611
 30
0.0
  0
VERTEX
  5
F2
100
AcDbEntity
  8
0
100
AcDbVertex
100
AcDb2dVertex
 10
8.7025841125
 20
4.1190130606
 30
0.0
  0
VERTEX
  5
F3
100
AcDbEntity
  8
0
100
AcDbVertex
100
AcDb2dVertex
 10
8.7129939887
 20
4.1190130509
 30
0.0
  0
VERTEX
  5
F4
100
AcDbEntity
  8
0
100
AcDbVertex
100
AcDb2dVertex
 10
8.7223725727
 20
4.1190130518
 30
0.0
  0
VERTEX
  5
F5
100
AcDbEntity
  8
0
100
AcDbVertex
100
AcDb2dVertex
 10
8.7306574519
 20
4.1190130538
 30
0.0
  0
VERTEX
  5
F6
100
AcDbEntity
  8
0
100
AcDbVertex
100
AcDb2dVertex
 10
8.737793518
 20
4.1190130546
 30
0.0
  0
VERTEX
  5
F7
100
AcDbEntity
  8
0
100
AcDbVertex
100
AcDb2dVertex
 10
8.7437332416
 20
4.1190130468
 30
0.0
  0
VERTEX
  5
F8
100
AcDbEntity
  8
0
100
AcDbVertex
100
AcDb2dVertex
 10
8.7484371137
 20
4.1190130536
 30
0.0
  0
VERTEX
  5
F9
100
AcDbEntity
  8
0
100
AcDbVertex
100
AcDb2dVertex
 10
8.7518738447
 20
4.1190130464
 30
0.0
  0
VERTEX
  5
FA
100
AcDbEntity
  8
0
100
AcDbVertex
100
AcDb2dVertex
 10
8.7540205332
 20
4.1190130475
 30
0.0
  0
VERTEX
  5
FB
100
AcDbEntity
  8
0
100
AcDbVertex
100
AcDb2dVertex
 10
8.7548629201
 20
4.1190130457
 30
0.0
  0
VERTEX
  5
FC
100
AcDbEntity
  8
0
100
AcDbVertex
100
AcDb2dVertex
 10
8.7548763536
 20
4.1190130569
 30
0.0
  0
SEQEND
  5
FD
100
AcDbEntity
  8
0
  0
POLYLINE
  5
FE
100
AcDbEntity
  8
0
  6
CONTINUOUS
 62
         7
100
AcDb2dPolyline
 66
         1
 10
0.0
 20
0.0
 30
0.0
 70
       128
  0
VERTEX
  5
FF
100
AcDbEntity
  8
0
100
AcDbVertex
100
AcDb2dVertex
 10
8.4202306908
 20
4.5127138463
 30
0.0
  0
VERTEX
  5
100
100
AcDbEntity
  8
0
100
AcDbVertex
100
AcDb2dVertex
 10
8.4203238037
 20
4.512713837
 30
0.0
  0
VERTEX
  5
101
100
AcDbEntity
  8
0
100
AcDbVertex
100
AcDb2dVertex
 10
8.4214833705
 20
4.5127138396
 30
0.0
  0
VERTEX
  5
102
100
AcDbEntity
  8
0
100
AcDbVertex
100
AcDb2dVertex
 10
8.4239579378
 20
4.5127138488
 30
0.0
  0
VERTEX
  5
103
100
AcDbEntity
  8
0
100
AcDbVertex
100
AcDb2dVertex
 10
8.4277236113
 20
4.5127138394
 30
0.0
  0
VERTEX
  5
104
100
AcDbEntity
  8
0
100
AcDbVertex
100
AcDb2dVertex
 10
8.4327442039
 20
4.5127138342
 30
0.0
  0
VERTEX
  5
105
100
AcDbEntity
  8
0
100
AcDbVertex
100
AcDb2dVertex
 10
8.4389713059
 20
4.5127138465
 30
0.0
  0
VERTEX
  5
106
100
AcDbEntity
  8
0
100
AcDbVertex
100
AcDb2dVertex
 10
8.4463449817
 20
4.512713849
 30
0.0
  0
VERTEX
  5
107
100
AcDbEntity
  8
0
100
AcDbVertex
100
AcDb2dVertex
 10
8.4547942127
 20
4.512713846
 30
0.0
  0
VERTEX
  5
108
100
AcDbEntity
  8
0
100
AcDbVertex
100
AcDb2dVertex
 10
8.464237594
 20
4.5127138426
 30
0.0
  0
VERTEX
  5
109
100
AcDbEntity
  8
0
100
AcDbVertex
100
AcDb2dVertex
 10
8.4745842146
 20
4.5127138424
 30
0.0
  0
VERTEX
  5
10A
100
AcDbEntity
  8
0
100
AcDbVertex
100
AcDb2dVertex
 10
8.4857344642
 20
4.5127138302
 30
0.0
  0
VERTEX
  5
10B
100
AcDbEntity
  8
0
100
AcDbVertex
100
AcDb2dVertex
 10
8.4975808808
 20
4.5127138448
 30
0.0
  0
VERTEX
  5
10C
100
AcDbEntity
  8
0
100
AcDbVertex
100
AcDb2dVertex
 10
8.5100094291
 20
4.5127138484
 30
0.0
  0
VERTEX
  5
10D
100
AcDbEntity
  8
0
100
AcDbVertex
100
AcDb2dVertex
 10
8.5229003867
 20
4.5127138351
 30
0.0
  0
VERTEX
  5
10E
100
AcDbEntity
  8
0
100
AcDbVertex
100
AcDb2dVertex
 10
8.5361296288
 20
4.5127138466
 30
0.0
  0
VERTEX
  5
10F
100
AcDbEntity
  8
0
100
AcDbVertex
100
AcDb2dVertex
 10
8.5495697609
 20
4.5127138492
 30
0.0
  0
VERTEX
  5
110
100
AcDbEntity
  8
0
100
AcDbVertex
100
AcDb2dVertex
 10
8.5630913347
 20
4.5127138451
 30
0.0
  0
VERTEX
  5
111
100
AcDbEntity
  8
0
100
AcDbVertex
100
AcDb2dVertex
 10
8.5765640944
 20
4.5127138354
 30
0.0
  0
VERTEX
  5
112
100
AcDbEntity
  8
0
100
AcDbVertex
100
AcDb2dVertex
 10
8.5898583354
 20
4.5127138337
 30
0.0
  0
VERTEX
  5
113
100
AcDbEntity
  8
0
100
AcDbVertex
100
AcDb2dVertex
 10
8.6028460403
 20
4.5127138337
 30
0.0
  0
VERTEX
  5
114
100
AcDbEntity
  8
0
100
AcDbVertex
100
AcDb2dVertex
 10
8.6154020923
 20
4.5127138479
 30
0.0
  0
VERTEX
  5
115
100
AcDbEntity
  8
0
100
AcDbVertex
100
AcDb2dVertex
 10
8.6274055559
 20
4.512713832
 30
0.0
  0
VERTEX
  5
116
100
AcDbEntity
  8
0
100
AcDbVertex
100
AcDb2dVertex
 10
8.6387408765
 20
4.512713834
 30
0.0
  0
VERTEX
  5
117
100
AcDbEntity
  8
0
100
AcDbVertex
100
AcDb2dVertex
 10
8.6492988649
 20
4.5127138405
 30
0.0
  0
VERTEX
  5
118
100
AcDbEntity
  8
0
100
AcDbVertex
100
AcDb2dVertex
 10
8.6589778371
 20
4.5127138364
 30
0.0
  0
VERTEX
  5
119
100
AcDbEntity
  8
0
100
AcDbVertex
100
AcDb2dVertex
 10
8.6676845886
 20
4.5127138349
 30
0.0
  0
VERTEX
  5
11A
100
AcDbEntity
  8
0
100
AcDbVertex
100
AcDb2dVertex
 10
8.6753352737
 20
4.5127138392
 30
0.0
  0
VERTEX
  5
11B
100
AcDbEntity
  8
0
100
AcDbVertex
100
AcDb2dVertex
 10
8.6818562125
 20
4.5127138427
 30
0.0
  0
VERTEX
  5
11C
100
AcDbEntity
  8
0
100
AcDbVertex
100
AcDb2dVertex
 10
8.6871845889
 20
4.5127138356
 30
0.0
  0
VERTEX
  5
11D
100
AcDbEntity
  8
0
100
AcDbVertex
100
AcDb2dVertex
 10
8.6912690948
 20
4.5127138491
 30
0.0
  0
VERTEX
  5
11E
100
AcDbEntity
  8
0
100
AcDbVertex
100
AcDb2dVertex
 10
8.694070402
 20
4.5127138435
 30
0.0
  0
VERTEX
  5
11F
100
AcDbEntity
  8
0
100
AcDbVertex
100
AcDb2dVertex
 10
8.6955615171
 20
4.5127138386
 30
0.0
  0
VERTEX
  5
120
100
AcDbEntity
  8
0
100
AcDbVertex
100
AcDb2dVertex
 10
8.6958212394
 20
4.5127138345
 30
0.0
  0
SEQEND
  5
121
100
AcDbEntity
  8
0
  0
LINE
  5
122
100
AcDbEntity
  8
0
  6
CONTINUOUS
 62
         7
100
AcDbLine
 10
8.9320417109
 20
3.922162659
 30
0.0
 11
8.9123566715
 21
3.922162663
 31
0.0
  0
LINE
  5
123
100
AcDbEntity
  8
0
  6
CONTINUOUS
 62
         7
100
AcDbLine
 10
8.9320417109
 20
3.922162659
 30
0.0
 11
8.9320417109
 21
3.7489343125
 31
0.0
  0
LINE
  5
124
100
AcDbEntity
  8
0
  6
CONTINUOUS
 62
         7
100
AcDbLine
 10
8.9320417109
 20
3.7489343125
 30
0.0
 11
8.9123566717
 21
3.7489343199
 31
0.0
  0
POLYLINE
  5
125
100
AcDbEntity
  8
0
  6
CONTINUOUS
 62
         7
100
AcDb2dPolyline
 66
         1
 10
0.0
 20
0.0
 30
0.0
 70
       128
  0
VERTEX
  5
126
100
AcDbEntity
  8
0
100
AcDbVertex
100
AcDb2dVertex
 10
8.5376279856
 20
2.7686192941
 30
0.0
  0
VERTEX
  5
127
100
AcDbEntity
  8
0
100
AcDbVertex
100
AcDb2dVertex
 10
8.5317877624
 20
2.7686193219
 30
0.0
  0
VERTEX
  5
128
100
AcDbEntity
  8
0
100
AcDbVertex
100
AcDb2dVertex
 10
8.5268410137
 20
2.7686193079
 30
0.0
  0
VERTEX
  5
129
100
AcDbEntity
  8
0
100
AcDbVertex
100
AcDb2dVertex
 10
8.5229562769
 20
2.7686192821
 30
0.0
  0
VERTEX
  5
12A
100
AcDbEntity
  8
0
100
AcDbVertex
100
AcDb2dVertex
 10
8.5202657606
 20
2.7686194137
 30
0.0
  0
VERTEX
  5
12B
100
AcDbEntity
  8
0
100
AcDbVertex
100
AcDb2dVertex
 10
8.5188611662
 20
2.7686193156
 30
0.0
  0
VERTEX
  5
12C
100
AcDbEntity
  8
0
100
AcDbVertex
100
AcDb2dVertex
 10
8.5186558904
 20
2.7686192963
 30
0.0
  0
SEQEND
  5
12D
100
AcDbEntity
  8
0
  0
POLYLINE
  5
12E
100
AcDbEntity
  8
0
  6
CONTINUOUS
 62
         7
100
AcDb2dPolyline
 66
         1
 10
0.0
 20
0.0
 30
0.0
 70
       128
  0
VERTEX
  5
12F
100
AcDbEntity
  8
0
100
AcDbVertex
100
AcDb2dVertex
 10
8.5973960475
 20
2.7686193611
 30
0.0
  0
VERTEX
  5
130
100
AcDbEntity
  8
0
100
AcDbVertex
100
AcDb2dVertex
 10
8.5972616778
 20
2.7686192873
 30
0.0
  0
VERTEX
  5
131
100
AcDbEntity
  8
0
100
AcDbVertex
100
AcDb2dVertex
 10
8.5959964662
 20
2.7686193348
 30
0.0
  0
VERTEX
  5
132
100
AcDbEntity
  8
0
100
AcDbVertex
100
AcDb2dVertex
 10
8.5934382187
 20
2.7686193395
 30
0.0
  0
VERTEX
  5
133
100
AcDbEntity
  8
0
100
AcDbVertex
100
AcDb2dVertex
 10
8.5896740343
 20
2.7686194115
 30
0.0
  0
VERTEX
  5
134
100
AcDbEntity
  8
0
100
AcDbVertex
100
AcDb2dVertex
 10
8.5848321213
 20
2.76861931
 30
0.0
  0
VERTEX
  5
135
100
AcDbEntity
  8
0
100
AcDbVertex
100
AcDb2dVertex
 10
8.5790773605
 20
2.7686193734
 30
0.0
  0
VERTEX
  5
136
100
AcDbEntity
  8
0
100
AcDbVertex
100
AcDb2dVertex
 10
8.5726057096
 20
2.7686192994
 30
0.0
  0
VERTEX
  5
137
100
AcDbEntity
  8
0
100
AcDbVertex
100
AcDb2dVertex
 10
8.5656375748
 20
2.7686193187
 30
0.0
  0
VERTEX
  5
138
100
AcDbEntity
  8
0
100
AcDbVertex
100
AcDb2dVertex
 10
8.5584102322
 20
2.7686193561
 30
0.0
  0
VERTEX
  5
139
100
AcDbEntity
  8
0
100
AcDbVertex
100
AcDb2dVertex
 10
8.5511698049
 20
2.7686193852
 30
0.0
  0
VERTEX
  5
13A
100
AcDbEntity
  8
0
100
AcDbVertex
100
AcDb2dVertex
 10
8.5441628374
 20
2.768619361
 30
0.0
  0
VERTEX
  5
13B
100
AcDbEntity
  8
0
100
AcDbVertex
100
AcDb2dVertex
 10
8.5376279856
 20
2.7686192941
 30
0.0
  0
SEQEND
  5
13C
100
AcDbEntity
  8
0
  0
LINE
  5
13D
100
AcDbEntity
  8
0
  6
CONTINUOUS
 62
         7
100
AcDbLine
 10
8.9123566675
 20
2.6426350508
 30
0.0
 11
8.9123566721
 21
3.4497217373
 31
0.0
  0
LINE
  5
13E
100
AcDbEntity
  8
0
  6
CONTINUOUS
 62
         7
100
AcDbLine
 10
8.203695238
 20
2.6426350557
 30
0.0
 11
8.9123566675
 21
2.6426350508
 31
0.0
  0
LINE
  5
13F
100
AcDbEntity
  8
0
  6
CONTINUOUS
 62
         7
100
AcDbLine
 10
8.203695238
 20
3.4497217425
 30
0.0
 11
8.203695238
 21
2.6426350557
 31
0.0
  0
ARC
  5
140
100
AcDbEntity
  8
0
  6
CONTINUOUS
 62
         7
100
AcDbCircle
 10
8.5580259629
 20
3.016650848
 30
0.0
 40
0.2519685039
100
AcDbArc
 50
58.1378896897
 51
31.2186383224
  0
ARC
  5
141
100
AcDbEntity
  8
0
  6
CONTINUOUS
 62
         7
100
AcDbCircle
 10
8.7371922661
 20
3.1938162023
 30
0.0
 40
0.0590551181
100
AcDbArc
 50
307.9484511642
 51
141.4080768478
  0
LINE
  5
142
100
AcDbEntity
  8
0
  6
CONTINUOUS
 62
         7
100
AcDbLine
 10
8.9123566721
 20
3.4497217373
 30
0.0
 11
8.203695238
 21
3.4497217425
 31
0.0
  0
LINE
  5
143
100
AcDbEntity
  8
0
  6
CONTINUOUS
 62
         7
100
AcDbLine
 10
8.9123566721
 20
3.4497217373
 30
0.0
 11
8.9123566716
 21
4.0796429715
 31
0.0
  0
LINE
  5
144
100
AcDbEntity
  8
0
  6
CONTINUOUS
 62
         7
100
AcDbLine
 10
8.203695238
 20
3.4497217425
 30
0.0
 11
8.9123566721
 21
3.4497217373
 31
0.0
  0
LINE
  5
145
100
AcDbEntity
  8
0
  6
CONTINUOUS
 62
         7
100
AcDbLine
 10
8.203695238
 20
3.4497217425
 30
0.0
 11
8.2036952327
 21
4.0796429768
 31
0.0
  0
LINE
  5
146
100
AcDbEntity
  8
0
  6
CONTINUOUS
 62
         7
100
AcDbLine
 10
8.2036952327
 20
4.0796429768
 30
0.0
 11
8.9123566716
 21
4.0796429715
 31
0.0
  0
ARC
  5
147
100
AcDbEntity
  8
0
  6
CONTINUOUS
 62
         7
100
AcDbCircle
 10
8.5580259629
 20
3.016650848
 30
0.0
 40
0.25
100
AcDbArc
 50
29.8251811746
 51
262.8051598063
  0
ARC
  5
148
100
AcDbEntity
  8
0
  6
CONTINUOUS
 62
         7
100
AcDbCircle
 10
8.5580259629
 20
3.016650848
 30
0.0
 40
0.25
100
AcDbArc
 50
277.1948401937
 51
29.8251811746
  0
LINE
  5
149
100
AcDbEntity
  8
0
  6
CONTINUOUS
 62
         7
100
AcDbLine
 10
8.8051118054
 20
3.0660139603
 30
0.0
 11
8.8031898854
 21
3.0655860502
 31
0.0
  0
LINE
  5
14A
100
AcDbEntity
  8
0
  6
CONTINUOUS
 62
         7
100
AcDbLine
 10
8.5597253606
 20
3.2666450904
 30
0.0
 11
8.5592864867
 21
3.268616181
 31
0.0
  0
LINE
  5
14B
100
AcDbEntity
  8
0
  6
CONTINUOUS
 62
         7
100
AcDbLine
 10
8.785252202
 20
3.159497851
 30
0.0
 11
8.7661522136
 21
3.2452829673
 31
0.0
  0
CIRCLE
  5
14C
100
AcDbEntity
  8
0
  6
CONTINUOUS
 62
         7
100
AcDbCircle
 10
8.5580259629
 20
3.016650848
 30
0.0
 40
0.05325
  0
CIRCLE
  5
14D
100
AcDbEntity
  8
0
  6
CONTINUOUS
 62
         7
100
AcDbCircle
 10
8.5580259629
 20
3.016650848
 30
0.0
 40
0.2480314961
  0
DIMENSION
  5
15C
100
AcDbEntity
  8
0
 62
         7
100
AcDbDimension
  2
*D17
 10
8.9123566716
 20
2.3250726236
 30
0.0
 11
8.5580259629
 21
2.3250726236
 31
0.0
 70
       160
  1
<>\P(18mm)
  3
SLDDIMSTYLE0
100
AcDbAlignedDimension
 13
8.2036952542
 23
2.6426350999
 33
0.0
 14
8.9123566716
 24
2.6426350999
 34
0.0
100
AcDbRotatedDimension
  0
DIMENSION
  5
16B
100
AcDbEntity
  8
0
 62
         7
100
AcDbDimension
  2
*D18
 10
7.8173088751
 20
4.5127138401
 30
0.0
 11
7.8173088751
 21
3.57767447
 31
0.0
 70
       160
  1
<>\P(48mm)
  3
SLDDIMSTYLE1
100
AcDbAlignedDimension
 13
8.2036952542
 23
2.6426350999
 33
0.0
 14
8.4202306873
 24
4.5127138401
 34
0.0
 50
-90.0
100
AcDbRotatedDimension
  0
LEADER
  5
16C
100
AcDbEntity
  8
0
 62
         7
100
AcDbLeader
  3
SLDDIMSTYLE2
 73
         2
 74
         0
 75
         0
 40
0.0
 76
         3
 10
8.5955550975
 20
3.0544281766
 30
0.0
 10
9.0480555963
 20
3.5712677012
 30
0.0
 10
9.2980555963
 20
3.5712677012
 30
0.0
 77
       256
340
174
  0
INSERT
  5
174
100
AcDbEntity
  8
0
100
AcDbBlockReference
  2
NOTE48
 10
9.2980555963
 20
3.5712677012
 30
0.0
  0
INSERT
  5
17C
100
AcDbEntity
  8
0
100
AcDbBlockReference
  2
SW_CENTERMARK0
 10
0.0
 20
0.0
 30
0.0
  0
LINE
  5
17D
100
AcDbEntity
  8
0
  6
CONTINUOUS
 62
         7
100
AcDbLine
 10
2.8142818173
 20
3.264682344
 30
0.0
 11
2.5190062268
 21
3.264682344
 31
0.0
  0
LINE
  5
17E
100
AcDbEntity
  8
0
  6
CONTINUOUS
 62
         7
100
AcDbLine
 10
2.5190062268
 20
2.7686193519
 30
0.0
 11
2.8142818173
 21
2.7686193519
 31
0.0
  0
LINE
  5
17F
100
AcDbEntity
  8
0
  6
CONTINUOUS
 62
         7
100
AcDbLine
 10
4.011132211
 20
4.3552335251
 30
0.0
 11
4.0111322119
 21
4.1190130602
 31
0.0
  0
LINE
  5
180
100
AcDbEntity
  8
0
  6
CONTINUOUS
 62
         7
100
AcDbLine
 10
4.1922345781
 20
4.1190130602
 30
0.0
 11
4.1922345733
 21
4.3552335251
 31
0.0
  0
LINE
  5
181
100
AcDbEntity
  8
0
  6
CONTINUOUS
 62
         7
100
AcDbLine
 10
4.2985337859
 20
4.1190130527
 30
0.0
 11
4.2985337843
 21
4.0796429741
 31
0.0
  0
LINE
  5
182
100
AcDbEntity
  8
0
  6
CONTINUOUS
 62
         7
100
AcDbLine
 10
4.692234572
 20
4.0796429741
 30
0.0
 11
4.6922345733
 21
4.1190130527
 31
0.0
  0
LINE
  5
183
100
AcDbEntity
  8
0
  6
CONTINUOUS
 62
         7
100
AcDbLine
 10
4.357588904
 20
4.5127138401
 30
0.0
 11
4.3575889029
 21
4.1190130602
 31
0.0
  0
LINE
  5
184
100
AcDbEntity
  8
0
  6
CONTINUOUS
 62
         7
100
AcDbLine
 10
4.6331794626
 20
4.1190130602
 30
0.0
 11
4.6331794551
 21
4.5127138401
 31
0.0
  0
LINE
  5
185
100
AcDbEntity
  8
0
  6
CONTINUOUS
 62
         7
100
AcDbLine
 10
3.6686125587
 20
3.2666508422
 30
0.0
 11
2.8812109512
 21
3.266650848
 31
0.0
  0
LINE
  5
186
100
AcDbEntity
  8
0
  6
CONTINUOUS
 62
         7
100
AcDbLine
 10
2.8812109512
 20
2.766650848
 30
0.0
 11
3.6686125587
 21
2.7666509212
 31
0.0
  0
LINE
  5
187
100
AcDbEntity
  8
0
  6
CONTINUOUS
 62
         7
100
AcDbLine
 10
2.8142817613
 20
2.8001154714
 30
0.0
 11
2.8812110015
 21
2.8001154714
 31
0.0
  0
LINE
  5
188
100
AcDbEntity
  8
0
  6
CONTINUOUS
 62
         7
100
AcDbLine
 10
2.8812110015
 20
3.2331862928
 30
0.0
 11
2.8142817613
 21
3.2331862928
 31
0.0
  0
LINE
  5
189
100
AcDbEntity
  8
0
  6
CONTINUOUS
 62
         7
100
AcDbLine
 10
2.2906597969
 20
2.9162571203
 30
0.0
 11
2.519006159
 21
2.9162571203
 31
0.0
  0
LINE
  5
18A
100
AcDbEntity
  8
0
  6
CONTINUOUS
 62
         7
100
AcDbLine
 10
2.519006159
 20
3.1170445698
 30
0.0
 11
2.2906597969
 21
3.1170445698
 31
0.0
  0
LINE
  5
18B
100
AcDbEntity
  8
0
  6
CONTINUOUS
 62
         7
100
AcDbLine
 10
5.2434156756
 20
3.264682344
 30
0.0
 11
4.9284550282
 21
3.264682361
 31
0.0
  0
LINE
  5
18C
100
AcDbEntity
  8
0
  6
CONTINUOUS
 62
         7
100
AcDbLine
 10
4.9284550282
 20
2.7686193291
 30
0.0
 11
5.2434156756
 21
2.7686193519
 31
0.0
  0
LINE
  5
18D
100
AcDbEntity
  8
0
  6
CONTINUOUS
 62
         7
100
AcDbLine
 10
2.1725495339
 20
2.8001154149
 30
0.0
 11
2.2906597701
 21
2.8001154149
 31
0.0
  0
LINE
  5
18E
100
AcDbEntity
  8
0
  6
CONTINUOUS
 62
         7
100
AcDbLine
 10
2.2906597701
 20
3.233186281
 30
0.0
 11
2.1725495339
 21
3.233186281
 31
0.0
  0
LINE
  5
18F
100
AcDbEntity
  8
0
  6
CONTINUOUS
 62
         7
100
AcDbLine
 10
2.8142818173
 20
3.2594782892
 30
0.0
 11
2.8142818173
 21
2.7686193519
 31
0.0
  0
LINE
  5
190
100
AcDbEntity
  8
0
  6
CONTINUOUS
 62
         7
100
AcDbLine
 10
2.8142818173
 20
3.264682344
 30
0.0
 11
2.8142818173
 21
3.2594782892
 31
0.0
  0
LINE
  5
191
100
AcDbEntity
  8
0
  6
CONTINUOUS
 62
         7
100
AcDbLine
 10
2.5190062268
 20
3.2594782892
 30
0.0
 11
2.5190062268
 21
2.7686193519
 31
0.0
  0
LINE
  5
192
100
AcDbEntity
  8
0
  6
CONTINUOUS
 62
         7
100
AcDbLine
 10
2.5190062268
 20
3.264682344
 30
0.0
 11
2.5190062268
 21
3.2594782892
 31
0.0
  0
LINE
  5
193
100
AcDbEntity
  8
0
  6
CONTINUOUS
 62
         7
100
AcDbLine
 10
4.0017225906
 20
4.0796429808
 30
0.0
 11
4.0017225906
 21
4.1190130486
 31
0.0
  0
LINE
  5
194
100
AcDbEntity
  8
0
  6
CONTINUOUS
 62
         7
100
AcDbLine
 10
4.0017225906
 20
4.1190130486
 30
0.0
 11
4.1434664765
 21
4.11901305
 31
0.0
  0
LINE
  5
195
100
AcDbEntity
  8
0
  6
CONTINUOUS
 62
         7
100
AcDbLine
 10
4.1434664765
 20
4.0796429822
 30
0.0
 11
4.1434664765
 21
4.11901305
 31
0.0
  0
LINE
  5
196
100
AcDbEntity
  8
0
  6
CONTINUOUS
 62
         7
100
AcDbLine
 10
4.1434664765
 20
4.11901305
 30
0.0
 11
4.2434272717
 21
4.1190130433
 31
0.0
  0
LINE
  5
197
100
AcDbEntity
  8
0
  6
CONTINUOUS
 62
         7
100
AcDbLine
 10
4.2434272717
 20
4.0796429755
 30
0.0
 11
4.2434272717
 21
4.1190130433
 31
0.0
  0
LINE
  5
198
100
AcDbEntity
  8
0
  6
CONTINUOUS
 62
         7
100
AcDbLine
 10
3.9599394999
 20
4.0796429711
 30
0.0
 11
3.9599394999
 21
4.1190130572
 31
0.0
  0
LINE
  5
199
100
AcDbEntity
  8
0
  6
CONTINUOUS
 62
         7
100
AcDbLine
 10
3.9599394999
 20
4.1190130572
 30
0.0
 11
4.0017225906
 21
4.1190130486
 31
0.0
  0
LINE
  5
19A
100
AcDbEntity
  8
0
  6
CONTINUOUS
 62
         7
100
AcDbLine
 10
4.011132211
 20
4.3552335251
 30
0.0
 11
4.1922345733
 21
4.3552335251
 31
0.0
  0
POLYLINE
  5
19B
100
AcDbEntity
  8
0
  6
CONTINUOUS
 62
         7
100
AcDb2dPolyline
 66
         1
 10
0.0
 20
0.0
 30
0.0
 70
       128
  0
VERTEX
  5
19C
100
AcDbEntity
  8
0
100
AcDbVertex
100
AcDb2dVertex
 10
4.2985337843
 20
4.1190130602
 30
0.0
  0
VERTEX
  5
19D
100
AcDbEntity
  8
0
100
AcDbVertex
100
AcDb2dVertex
 10
4.2987750848
 20
4.1190130479
 30
0.0
  0
VERTEX
  5
19E
100
AcDbEntity
  8
0
100
AcDbVertex
100
AcDb2dVertex
 10
4.3002234839
 20
4.1190130531
 30
0.0
  0
VERTEX
  5
19F
100
AcDbEntity
  8
0
100
AcDbVertex
100
AcDb2dVertex
 10
4.3029706563
 20
4.1190130583
 30
0.0
  0
VERTEX
  5
1A0
100
AcDbEntity
  8
0
100
AcDbVertex
100
AcDb2dVertex
 10
4.3069982965
 20
4.1190130473
 30
0.0
  0
VERTEX
  5
1A1
100
AcDbEntity
  8
0
100
AcDbVertex
100
AcDb2dVertex
 10
4.3122796196
 20
4.1190130514
 30
0.0
  0
VERTEX
  5
1A2
100
AcDbEntity
  8
0
100
AcDbVertex
100
AcDb2dVertex
 10
4.3187794721
 20
4.1190130442
 30
0.0
  0
VERTEX
  5
1A3
100
AcDbEntity
  8
0
100
AcDbVertex
100
AcDb2dVertex
 10
4.3264546059
 20
4.1190130503
 30
0.0
  0
VERTEX
  5
1A4
100
AcDbEntity
  8
0
100
AcDbVertex
100
AcDb2dVertex
 10
4.3352539359
 20
4.1190130478
 30
0.0
  0
VERTEX
  5
1A5
100
AcDbEntity
  8
0
100
AcDbVertex
100
AcDb2dVertex
 10
4.3451189061
 20
4.1190130598
 30
0.0
  0
VERTEX
  5
1A6
100
AcDbEntity
  8
0
100
AcDbVertex
100
AcDb2dVertex
 10
4.355983861
 20
4.1190130479
 30
0.0
  0
VERTEX
  5
1A7
100
AcDbEntity
  8
0
100
AcDbVertex
100
AcDb2dVertex
 10
4.367776504
 20
4.1190130504
 30
0.0
  0
VERTEX
  5
1A8
100
AcDbEntity
  8
0
100
AcDbVertex
100
AcDb2dVertex
 10
4.38041836
 20
4.1190130531
 30
0.0
  0
VERTEX
  5
1A9
100
AcDbEntity
  8
0
100
AcDbVertex
100
AcDb2dVertex
 10
4.3938252893
 20
4.1190130557
 30
0.0
  0
VERTEX
  5
1AA
100
AcDbEntity
  8
0
100
AcDbVertex
100
AcDb2dVertex
 10
4.4079080794
 20
4.1190130441
 30
0.0
  0
VERTEX
  5
1AB
100
AcDbEntity
  8
0
100
AcDbVertex
100
AcDb2dVertex
 10
4.4225730077
 20
4.1190130602
 30
0.0
  0
VERTEX
  5
1AC
100
AcDbEntity
  8
0
100
AcDbVertex
100
AcDb2dVertex
 10
4.4377224822
 20
4.119013045
 30
0.0
  0
VERTEX
  5
1AD
100
AcDbEntity
  8
0
100
AcDbVertex
100
AcDb2dVertex
 10
4.4532556869
 20
4.1190130494
 30
0.0
  0
VERTEX
  5
1AE
100
AcDbEntity
  8
0
100
AcDbVertex
100
AcDb2dVertex
 10
4.4690692463
 20
4.1190130446
 30
0.0
  0
VERTEX
  5
1AF
100
AcDbEntity
  8
0
100
AcDbVertex
100
AcDb2dVertex
 10
4.4850579329
 20
4.1190130547
 30
0.0
  0
VERTEX
  5
1B0
100
AcDbEntity
  8
0
100
AcDbVertex
100
AcDb2dVertex
 10
4.5011153319
 20
4.11901306
 30
0.0
  0
VERTEX
  5
1B1
100
AcDbEntity
  8
0
100
AcDbVertex
100
AcDb2dVertex
 10
4.5171345981
 20
4.1190130604
 30
0.0
  0
VERTEX
  5
1B2
100
AcDbEntity
  8
0
100
AcDbVertex
100
AcDb2dVertex
 10
4.5330091106
 20
4.1190130568
 30
0.0
  0
VERTEX
  5
1B3
100
AcDbEntity
  8
0
100
AcDbVertex
100
AcDb2dVertex
 10
4.5486332476
 20
4.1190130449
 30
0.0
  0
VERTEX
  5
1B4
100
AcDbEntity
  8
0
100
AcDbVertex
100
AcDb2dVertex
 10
4.5639030054
 20
4.1190130563
 30
0.0
  0
VERTEX
  5
1B5
100
AcDbEntity
  8
0
100
AcDbVertex
100
AcDb2dVertex
 10
4.5787167909
 20
4.119013048
 30
0.0
  0
VERTEX
  5
1B6
100
AcDbEntity
  8
0
100
AcDbVertex
100
AcDb2dVertex
 10
4.5929760087
 20
4.1190130452
 30
0.0
  0
VERTEX
  5
1B7
100
AcDbEntity
  8
0
100
AcDbVertex
100
AcDb2dVertex
 10
4.6065857848
 20
4.1190130601
 30
0.0
  0
VERTEX
  5
1B8
100
AcDbEntity
  8
0
100
AcDbVertex
100
AcDb2dVertex
 10
4.6194555078
 20
4.119013051
 30
0.0
  0
VERTEX
  5
1B9
100
AcDbEntity
  8
0
100
AcDbVertex
100
AcDb2dVertex
 10
4.631499562
 20
4.1190130558
 30
0.0
  0
VERTEX
  5
1BA
100
AcDbEntity
  8
0
100
AcDbVertex
100
AcDb2dVertex
 10
4.642637795
 20
4.1190130459
 30
0.0
  0
VERTEX
  5
1BB
100
AcDbEntity
  8
0
100
AcDbVertex
100
AcDb2dVertex
 10
4.652796086
 20
4.11901305
 30
0.0
  0
VERTEX
  5
1BC
100
AcDbEntity
  8
0
100
AcDbVertex
100
AcDb2dVertex
 10
4.6619068224
 20
4.119013045
 30
0.0
  0
VERTEX
  5
1BD
100
AcDbEntity
  8
0
100
AcDbVertex
100
AcDb2dVertex
 10
4.6699093766
 20
4.119013048
 30
0.0
  0
VERTEX
  5
1BE
100
AcDbEntity
  8
0
100
AcDbVertex
100
AcDb2dVertex
 10
4.6767504909
 20
4.1190130521
 30
0.0
  0
VERTEX
  5
1BF
100
AcDbEntity
  8
0
100
AcDbVertex
100
AcDb2dVertex
 10
4.6823846442
 20
4.1190130574
 30
0.0
  0
VERTEX
  5
1C0
100
AcDbEntity
  8
0
100
AcDbVertex
100
AcDb2dVertex
 10
4.6867743451
 20
4.1190130498
 30
0.0
  0
VERTEX
  5
1C1
100
AcDbEntity
  8
0
100
AcDbVertex
100
AcDb2dVertex
 10
4.6898903708
 20
4.1190130469
 30
0.0
  0
VERTEX
  5
1C2
100
AcDbEntity
  8
0
100
AcDbVertex
100
AcDb2dVertex
 10
4.6917120047
 20
4.119013044
 30
0.0
  0
VERTEX
  5
1C3
100
AcDbEntity
  8
0
100
AcDbVertex
100
AcDb2dVertex
 10
4.692234572
 20
4.1190130602
 30
0.0
  0
SEQEND
  5
1C4
100
AcDbEntity
  8
0
  0
POLYLINE
  5
1C5
100
AcDbEntity
  8
0
  6
CONTINUOUS
 62
         7
100
AcDb2dPolyline
 66
         1
 10
0.0
 20
0.0
 30
0.0
 70
       128
  0
VERTEX
  5
1C6
100
AcDbEntity
  8
0
100
AcDbVertex
100
AcDb2dVertex
 10
4.3575889029
 20
4.5127138313
 30
0.0
  0
VERTEX
  5
1C7
100
AcDbEntity
  8
0
100
AcDbVertex
100
AcDb2dVertex
 10
4.3576820352
 20
4.5127138358
 30
0.0
  0
VERTEX
  5
1C8
100
AcDbEntity
  8
0
100
AcDbVertex
100
AcDb2dVertex
 10
4.3588416051
 20
4.5127138454
 30
0.0
  0
VERTEX
  5
1C9
100
AcDbEntity
  8
0
100
AcDbVertex
100
AcDb2dVertex
 10
4.3613161503
 20
4.5127138488
 30
0.0
  0
VERTEX
  5
1CA
100
AcDbEntity
  8
0
100
AcDbVertex
100
AcDb2dVertex
 10
4.3650818422
 20
4.5127138471
 30
0.0
  0
VERTEX
  5
1CB
100
AcDbEntity
  8
0
100
AcDbVertex
100
AcDb2dVertex
 10
4.3701024179
 20
4.512713833
 30
0.0
  0
VERTEX
  5
1CC
100
AcDbEntity
  8
0
100
AcDbVertex
100
AcDb2dVertex
 10
4.3763295285
 20
4.5127138489
 30
0.0
  0
VERTEX
  5
1CD
100
AcDbEntity
  8
0
100
AcDbVertex
100
AcDb2dVertex
 10
4.3837031971
 20
4.5127138461
 30
0.0
  0
VERTEX
  5
1CE
100
AcDbEntity
  8
0
100
AcDbVertex
100
AcDb2dVertex
 10
4.3921524172
 20
4.5127138396
 30
0.0
  0
VERTEX
  5
1CF
100
AcDbEntity
  8
0
100
AcDbVertex
100
AcDb2dVertex
 10
4.4015958149
 20
4.5127138453
 30
0.0
  0
VERTEX
  5
1D0
100
AcDbEntity
  8
0
100
AcDbVertex
100
AcDb2dVertex
 10
4.4119424455
 20
4.5127138459
 30
0.0
  0
VERTEX
  5
1D1
100
AcDbEntity
  8
0
100
AcDbVertex
100
AcDb2dVertex
 10
4.4230926651
 20
4.5127138425
 30
0.0
  0
VERTEX
  5
1D2
100
AcDbEntity
  8
0
100
AcDbVertex
100
AcDb2dVertex
 10
4.4349390915
 20
4.5127138374
 30
0.0
  0
VERTEX
  5
1D3
100
AcDbEntity
  8
0
100
AcDbVertex
100
AcDb2dVertex
 10
4.4473676383
 20
4.5127138461
 30
0.0
  0
VERTEX
  5
1D4
100
AcDbEntity
  8
0
100
AcDbVertex
100
AcDb2dVertex
 10
4.4602586093
 20
4.5127138325
 30
0.0
  0
VERTEX
  5
1D5
100
AcDbEntity
  8
0
100
AcDbVertex
100
AcDb2dVertex
 10
4.4734878586
 20
4.5127138373
 30
0.0
  0
VERTEX
  5
1D6
100
AcDbEntity
  8
0
100
AcDbVertex
100
AcDb2dVertex
 10
4.4869279846
 20
4.512713843
 30
0.0
  0
VERTEX
  5
1D7
100
AcDbEntity
  8
0
100
AcDbVertex
100
AcDb2dVertex
 10
4.5004495463
 20
4.512713837
 30
0.0
  0
VERTEX
  5
1D8
100
AcDbEntity
  8
0
100
AcDbVertex
100
AcDb2dVertex
 10
4.5139223236
 20
4.5127138396
 30
0.0
  0
VERTEX
  5
1D9
100
AcDbEntity
  8
0
100
AcDbVertex
100
AcDb2dVertex
 10
4.5272165683
 20
4.5127138488
 30
0.0
  0
VERTEX
  5
1DA
100
AcDbEntity
  8
0
100
AcDbVertex
100
AcDb2dVertex
 10
4.5402042558
 20
4.5127138394
 30
0.0
  0
VERTEX
  5
1DB
100
AcDbEntity
  8
0
100
AcDbVertex
100
AcDb2dVertex
 10
4.5527602991
 20
4.5127138342
 30
0.0
  0
VERTEX
  5
1DC
100
AcDbEntity
  8
0
100
AcDbVertex
100
AcDb2dVertex
 10
4.5647637729
 20
4.5127138465
 30
0.0
  0
VERTEX
  5
1DD
100
AcDbEntity
  8
0
100
AcDbVertex
100
AcDb2dVertex
 10
4.576099087
 20
4.512713849
 30
0.0
  0
VERTEX
  5
1DE
100
AcDbEntity
  8
0
100
AcDbVertex
100
AcDb2dVertex
 10
4.5866570767
 20
4.512713846
 30
0.0
  0
VERTEX
  5
1DF
100
AcDbEntity
  8
0
100
AcDbVertex
100
AcDb2dVertex
 10
4.5963360482
 20
4.5127138426
 30
0.0
  0
VERTEX
  5
1E0
100
AcDbEntity
  8
0
100
AcDbVertex
100
AcDb2dVertex
 10
4.6050428143
 20
4.5127138424
 30
0.0
  0
VERTEX
  5
1E1
100
AcDbEntity
  8
0
100
AcDbVertex
100
AcDb2dVertex
 10
4.6126935009
 20
4.5127138302
 30
0.0
  0
VERTEX
  5
1E2
100
AcDbEntity
  8
0
100
AcDbVertex
100
AcDb2dVertex
 10
4.6192144272
 20
4.5127138448
 30
0.0
  0
VERTEX
  5
1E3
100
AcDbEntity
  8
0
100
AcDbVertex
100
AcDb2dVertex
 10
4.6245428024
 20
4.5127138484
 30
0.0
  0
VERTEX
  5
1E4
100
AcDbEntity
  8
0
100
AcDbVertex
100
AcDb2dVertex
 10
4.6286273118
 20
4.5127138351
 30
0.0
  0
VERTEX
  5
1E5
100
AcDbEntity
  8
0
100
AcDbVertex
100
AcDb2dVertex
 10
4.6314286128
 20
4.5127138466
 30
0.0
  0
VERTEX
  5
1E6
100
AcDbEntity
  8
0
100
AcDbVertex
100
AcDb2dVertex
 10
4.6329197372
 20
4.5127138492
 30
0.0
  0
VERTEX
  5
1E7
100
AcDbEntity
  8
0
100
AcDbVertex
100
AcDb2dVertex
 10
4.6331794626
 20
4.5127138313
 30
0.0
  0
SEQEND
  5
1E8
100
AcDbEntity
  8
0
  0
LINE
  5
1E9
100
AcDbEntity
  8
0
  6
CONTINUOUS
 62
         7
100
AcDbLine
 10
3.6686125587
 20
2.6426350557
 30
0.0
 11
4.9284550282
 21
2.6426350557
 31
0.0
  0
LINE
  5
1EA
100
AcDbEntity
  8
0
  6
CONTINUOUS
 62
         7
100
AcDbLine
 10
3.6686125587
 20
3.4497217425
 30
0.0
 11
4.9284550282
 21
3.4497217425
 31
0.0
  0
LINE
  5
1EB
100
AcDbEntity
  8
0
  6
CONTINUOUS
 62
         7
100
AcDbLine
 10
4.9284550282
 20
3.4497217425
 30
0.0
 11
4.9284550282
 21
2.6426350557
 31
0.0
  0
LINE
  5
1EC
100
AcDbEntity
  8
0
  6
CONTINUOUS
 62
         7
100
AcDbLine
 10
3.6686125587
 20
3.4497217425
 30
0.0
 11
3.6686125587
 21
2.6426350557
 31
0.0
  0
LINE
  5
1ED
100
AcDbEntity
  8
0
  6
CONTINUOUS
 62
         7
100
AcDbLine
 10
4.9284550282
 20
3.4497217425
 30
0.0
 11
4.9284550282
 21
4.0796429768
 31
0.0
  0
LINE
  5
1EE
100
AcDbEntity
  8
0
  6
CONTINUOUS
 62
         7
100
AcDbLine
 10
3.6686125587
 20
3.4497217425
 30
0.0
 11
4.9284550282
 21
3.4497217425
 31
0.0
  0
LINE
  5
1EF
100
AcDbEntity
  8
0
  6
CONTINUOUS
 62
         7
100
AcDbLine
 10
3.6686125587
 20
3.4497217425
 30
0.0
 11
3.6686125587
 21
4.0796429768
 31
0.0
  0
LINE
  5
1F0
100
AcDbEntity
  8
0
  6
CONTINUOUS
 62
         7
100
AcDbLine
 10
3.6686125587
 20
4.0796429768
 30
0.0
 11
4.9284550282
 21
4.0796429768
 31
0.0
  0
LINE
  5
1F1
100
AcDbEntity
  8
0
  6
CONTINUOUS
 62
         7
100
AcDbLine
 10
2.8812109512
 20
2.8923120252
 30
0.0
 11
2.8812109512
 21
2.766650848
 31
0.0
  0
LINE
  5
1F2
100
AcDbEntity
  8
0
  6
CONTINUOUS
 62
         7
100
AcDbLine
 10
2.8812109512
 20
3.266650848
 30
0.0
 11
2.8812109512
 21
2.8923120252
 31
0.0
  0
LINE
  5
1F3
100
AcDbEntity
  8
0
  6
CONTINUOUS
 62
         7
100
AcDbLine
 10
5.2434156756
 20
3.264682344
 30
0.0
 11
5.2434156756
 21
2.7686193519
 31
0.0
  0
LINE
  5
1F4
100
AcDbEntity
  8
0
  6
CONTINUOUS
 62
         7
100
AcDbLine
 10
2.2906597701
 20
3.233186281
 30
0.0
 11
2.2906597701
 21
2.8001154149
 31
0.0
  0
LINE
  5
1F5
100
AcDbEntity
  8
0
  6
CONTINUOUS
 62
         7
100
AcDbLine
 10
2.1725495339
 20
3.233186281
 30
0.0
 11
2.1725495339
 21
2.8001154149
 31
0.0
  0
DIMENSION
  5
205
100
AcDbEntity
  8
0
 62
         7
100
AcDbDimension
  2
*D21
 10
5.6576386003
 20
3.264682344
 30
0.0
 11
5.6576386003
 21
3.016650848
 31
0.0
 70
       160
  1
%%c<>\P(13mm)
  3
SLDDIMSTYLE3
100
AcDbAlignedDimension
 13
5.2434156756
 23
2.7686193519
 33
0.0
 14
5.2434156756
 24
3.264682344
 34
0.0
 50
90.0
100
AcDbRotatedDimension
  0
DIMENSION
  5
213
100
AcDbEntity
  8
0
 62
         7
100
AcDbDimension
  2
*D22
 10
2.1725495339
 20
1.9417703208
 30
0.0
 11
3.7079826048
 21
1.9417703208
 31
0.0
 70
       160
  1
<>\P(78mm)
  3
SLDDIMSTYLE1
100
AcDbAlignedDimension
 13
5.2434156756
 23
2.7686193519
 33
0.0
 14
2.1725495339
 24
2.8001154149
 34
0.0
100
AcDbRotatedDimension
  0
DIMENSION
  5
221
100
AcDbEntity
  8
0
 62
         7
100
AcDbDimension
  2
*D23
 10
5.2434156756
 20
2.3255990172
 30
0.0
 11
3.7670377229
 21
2.3255990172
 31
0.0
 70
       160
  1
<>\P(75mm)
  3
SLDDIMSTYLE1
100
AcDbAlignedDimension
 13
2.2906597701
 23
2.8001154149
 33
0.0
 14
5.2434156756
 24
2.7686193519
 34
0.0
100
AcDbRotatedDimension
  0
DIMENSION
  5
231
100
AcDbEntity
  8
0
 62
         7
100
AcDbDimension
  2
*D24
 10
1.9044671056
 20
3.1170445488
 30
0.0
 11
1.9044671056
 21
2.5814848148
 31
0.0
 70
       160
  1
%%c<>\P(5.1mm)
  3
SLDDIMSTYLE3
100
AcDbAlignedDimension
 13
2.2906597701
 23
2.9162571472
 33
0.0
 14
2.2906597701
 24
3.1170445488
 34
0.0
 50
90.0
100
AcDbRotatedDimension
  0
LEADER
  5
232
100
AcDbEntity
  8
0
 62
         7
100
AcDbLeader
  3
SLDDIMSTYLE2
 73
         2
 74
         1
 75
         0
 40
0.0
 76
         3
 10
4.011132211
 20
4.3552335251
 30
0.0
 10
3.7265325023
 20
4.8216493229
 30
0.0
 10
3.4765325023
 20
4.8216493229
 30
0.0
 77
       256
340
238
  0
INSERT
  5
238
100
AcDbEntity
  8
0
100
AcDbBlockReference
  2
NOTE49
 10
3.4765325023
 20
4.8216493229
 30
0.0
  0
LEADER
  5
239
100
AcDbEntity
  8
0
 62
         7
100
AcDbLeader
  3
SLDDIMSTYLE2
 73
         2
 74
         0
 75
         0
 40
0.0
 76
         3
 10
4.6331794551
 20
4.5127138401
 30
0.0
 10
4.9388412788
 20
4.8220360069
 30
0.0
 10
5.1888412788
 20
4.8220360069
 30
0.0
 77
       256
340
23F
  0
INSERT
  5
23F
100
AcDbEntity
  8
0
100
AcDbBlockReference
  2
NOTE50
 10
5.1888412788
 20
4.8220360069
 30
0.0
  0
LINE
  5
240
100
AcDbEntity
  8
0
  6
CONTINUOUS
 62
         7
100
AcDbLine
 10
2.8142818173
 20
7.117004567
 30
0.0
 11
2.5190062268
 21
7.117004567
 31
0.0
  0
LINE
  5
241
100
AcDbEntity
  8
0
  6
CONTINUOUS
 62
         7
100
AcDbLine
 10
2.5190062268
 20
6.6209415749
 30
0.0
 11
2.8142818173
 21
6.6209415749
 31
0.0
  0
LINE
  5
242
100
AcDbEntity
  8
0
  6
CONTINUOUS
 62
         7
100
AcDbLine
 10
4.7394786779
 20
7.2233037802
 30
0.0
 11
4.7394786677
 21
7.242988819
 31
0.0
  0
LINE
  5
243
100
AcDbEntity
  8
0
  6
CONTINUOUS
 62
         7
100
AcDbLine
 10
3.7591637071
 20
7.242988819
 30
0.0
 11
3.7591637326
 21
7.2233037802
 31
0.0
  0
LINE
  5
244
100
AcDbEntity
  8
0
  6
CONTINUOUS
 62
         7
100
AcDbLine
 10
3.6686125587
 20
7.1189730703
 30
0.0
 11
2.8812109512
 21
7.118973071
 31
0.0
  0
LINE
  5
245
100
AcDbEntity
  8
0
  6
CONTINUOUS
 62
         7
100
AcDbLine
 10
2.8812109512
 20
6.618973071
 30
0.0
 11
3.6686125587
 21
6.6189730594
 31
0.0
  0
LINE
  5
246
100
AcDbEntity
  8
0
  6
CONTINUOUS
 62
         7
100
AcDbLine
 10
2.8142817613
 20
6.652437647
 30
0.0
 11
2.8812110015
 21
6.652437647
 31
0.0
  0
LINE
  5
247
100
AcDbEntity
  8
0
  6
CONTINUOUS
 62
         7
100
AcDbLine
 10
2.8812110015
 20
7.085508501
 30
0.0
 11
2.8142817613
 21
7.085508501
 31
0.0
  0
LINE
  5
248
100
AcDbEntity
  8
0
  6
CONTINUOUS
 62
         7
100
AcDbLine
 10
2.2906597969
 20
6.7685793692
 30
0.0
 11
2.519006159
 21
6.7685793692
 31
0.0
  0
LINE
  5
249
100
AcDbEntity
  8
0
  6
CONTINUOUS
 62
         7
100
AcDbLine
 10
2.519006159
 20
6.9693667788
 30
0.0
 11
2.2906597969
 21
6.9693667788
 31
0.0
  0
LINE
  5
24A
100
AcDbEntity
  8
0
  6
CONTINUOUS
 62
         7
100
AcDbLine
 10
5.2434156756
 20
7.117004567
 30
0.0
 11
4.9284550282
 21
7.1170045679
 31
0.0
  0
LINE
  5
24B
100
AcDbEntity
  8
0
  6
CONTINUOUS
 62
         7
100
AcDbLine
 10
4.9284550282
 20
6.6209415755
 30
0.0
 11
5.2434156756
 21
6.6209415749
 31
0.0
  0
LINE
  5
24C
100
AcDbEntity
  8
0
  6
CONTINUOUS
 62
         7
100
AcDbLine
 10
2.1725495339
 20
6.6524376379
 30
0.0
 11
2.2906597701
 21
6.6524376379
 31
0.0
  0
LINE
  5
24D
100
AcDbEntity
  8
0
  6
CONTINUOUS
 62
         7
100
AcDbLine
 10
2.2906597701
 20
7.0855085041
 30
0.0
 11
2.1725495339
 21
7.0855085041
 31
0.0
  0
LINE
  5
24E
100
AcDbEntity
  8
0
  6
CONTINUOUS
 62
         7
100
AcDbLine
 10
2.5190062268
 20
6.8184314364
 30
0.0
 11
2.5190062268
 21
6.6209415749
 31
0.0
  0
LINE
  5
24F
100
AcDbEntity
  8
0
  6
CONTINUOUS
 62
         7
100
AcDbLine
 10
2.5190062268
 20
7.117004567
 30
0.0
 11
2.5190062268
 21
6.8184314364
 31
0.0
  0
LINE
  5
250
100
AcDbEntity
  8
0
  6
CONTINUOUS
 62
         7
100
AcDbLine
 10
2.8142818173
 20
6.8184314364
 30
0.0
 11
2.8142818173
 21
6.6209415749
 31
0.0
  0
LINE
  5
251
100
AcDbEntity
  8
0
  6
CONTINUOUS
 62
         7
100
AcDbLine
 10
2.8142818173
 20
7.117004567
 30
0.0
 11
2.8142818173
 21
6.8184314364
 31
0.0
  0
CIRCLE
  5
252
100
AcDbEntity
  8
0
  6
CONTINUOUS
 62
         7
100
AcDbCircle
 10
4.1016833922
 20
6.868973071
 30
0.0
 40
0.0905511811
  0
LINE
  5
253
100
AcDbEntity
  8
0
  6
CONTINUOUS
 62
         7
100
AcDbLine
 10
4.201644181
 20
6.9749324106
 30
0.0
 11
4.0599002952
 21
7.0085213261
 31
0.0
  0
LINE
  5
254
100
AcDbEntity
  8
0
  6
CONTINUOUS
 62
         7
100
AcDbLine
 10
4.2434272717
 20
6.8353841691
 30
0.0
 11
4.201644181
 21
6.9749324106
 31
0.0
  0
LINE
  5
255
100
AcDbEntity
  8
0
  6
CONTINUOUS
 62
         7
100
AcDbLine
 10
4.1434664765
 20
6.7294248255
 30
0.0
 11
4.2434272717
 21
6.8353841691
 31
0.0
  0
LINE
  5
256
100
AcDbEntity
  8
0
  6
CONTINUOUS
 62
         7
100
AcDbLine
 10
4.0017225906
 20
6.7630137226
 30
0.0
 11
4.1434664765
 21
6.7294248255
 31
0.0
  0
LINE
  5
257
100
AcDbEntity
  8
0
  6
CONTINUOUS
 62
         7
100
AcDbLine
 10
3.9599394999
 20
6.9025620008
 30
0.0
 11
4.0017225906
 21
6.7630137226
 31
0.0
  0
LINE
  5
258
100
AcDbEntity
  8
0
  6
CONTINUOUS
 62
         7
100
AcDbLine
 10
4.0599002952
 20
7.0085213261
 30
0.0
 11
3.9599394999
 21
6.9025620008
 31
0.0
  0
CIRCLE
  5
259
100
AcDbEntity
  8
0
  6
CONTINUOUS
 62
         7
100
AcDbCircle
 10
4.4953841796
 20
6.868973071
 30
0.0
 40
0.1377952756
  0
CIRCLE
  5
25A
100
AcDbEntity
  8
0
  6
CONTINUOUS
 62
         7
100
AcDbCircle
 10
4.4953841796
 20
6.868973071
 30
0.0
 40
0.1968503937
  0
CIRCLE
  5
25B
100
AcDbEntity
  8
0
  6
CONTINUOUS
 62
         7
100
AcDbCircle
 10
3.7867227622
 20
6.868973071
 30
0.0
 40
0.0787401575
  0
CIRCLE
  5
25C
100
AcDbEntity
  8
0
  6
CONTINUOUS
 62
         7
100
AcDbCircle
 10
3.7867227622
 20
6.868973071
 30
0.0
 40
0.0885826772
  0
LINE
  5
25D
100
AcDbEntity
  8
0
  6
CONTINUOUS
 62
         7
100
AcDbLine
 10
3.7867227409
 20
6.9154565855
 30
0.0
 11
3.7464668726
 21
6.8922148417
 31
0.0
  0
LINE
  5
25E
100
AcDbEntity
  8
0
  6
CONTINUOUS
 62
         7
100
AcDbLine
 10
3.7464668726
 20
6.8922148417
 30
0.0
 11
3.7464668726
 21
6.8457313158
 31
0.0
  0
LINE
  5
25F
100
AcDbEntity
  8
0
  6
CONTINUOUS
 62
         7
100
AcDbLine
 10
3.7867227409
 20
6.8224895529
 30
0.0
 11
3.7464668726
 21
6.8457313158
 31
0.0
  0
LINE
  5
260
100
AcDbEntity
  8
0
  6
CONTINUOUS
 62
         7
100
AcDbLine
 10
3.8269786825
 20
6.8457313158
 30
0.0
 11
3.7867227409
 21
6.8224895529
 31
0.0
  0
LINE
  5
261
100
AcDbEntity
  8
0
  6
CONTINUOUS
 62
         7
100
AcDbLine
 10
3.8269786825
 20
6.8457313158
 30
0.0
 11
3.8269786825
 21
6.8922148417
 31
0.0
  0
LINE
  5
262
100
AcDbEntity
  8
0
  6
CONTINUOUS
 62
         7
100
AcDbLine
 10
3.7867227409
 20
6.9154565855
 30
0.0
 11
3.8269786825
 21
6.8922148417
 31
0.0
  0
ARC
  5
263
100
AcDbEntity
  8
0
  6
CONTINUOUS
 62
         7
100
AcDbCircle
 10
3.7867227622
 20
6.868973071
 30
0.0
 40
0.0402559055
100
AcDbArc
 50
300.0
 51
0.0
  0
ARC
  5
264
100
AcDbEntity
  8
0
  6
CONTINUOUS
 62
         7
100
AcDbCircle
 10
3.7867227622
 20
6.868973071
 30
0.0
 40
0.0402559055
100
AcDbArc
 50
240.0
 51
300.0
  0
ARC
  5
265
100
AcDbEntity
  8
0
  6
CONTINUOUS
 62
         7
100
AcDbCircle
 10
3.7867227622
 20
6.868973071
 30
0.0
 40
0.0402559055
100
AcDbArc
 50
180.0
 51
240.0
  0
ARC
  5
266
100
AcDbEntity
  8
0
  6
CONTINUOUS
 62
         7
100
AcDbCircle
 10
3.7867227622
 20
6.868973071
 30
0.0
 40
0.0402559055
100
AcDbArc
 50
120.0
 51
180.0
  0
ARC
  5
267
100
AcDbEntity
  8
0
  6
CONTINUOUS
 62
         7
100
AcDbCircle
 10
3.7867227622
 20
6.868973071
 30
0.0
 40
0.0402559055
100
AcDbArc
 50
60.0
 51
120.0
  0
ARC
  5
268
100
AcDbEntity
  8
0
  6
CONTINUOUS
 62
         7
100
AcDbCircle
 10
3.7867227622
 20
6.868973071
 30
0.0
 40
0.0402559055
100
AcDbArc
 50
0.0
 51
60.0
  0
LINE
  5
269
100
AcDbEntity
  8
0
  6
CONTINUOUS
 62
         7
100
AcDbLine
 10
3.8457778803
 20
7.242988819
 30
0.0
 11
3.8457778687
 21
7.2233037796
 31
0.0
  0
LINE
  5
26A
100
AcDbEntity
  8
0
  6
CONTINUOUS
 62
         7
100
AcDbLine
 10
3.8457778803
 20
7.242988819
 30
0.0
 11
4.6528644945
 21
7.242988819
 31
0.0
  0
LINE
  5
26B
100
AcDbEntity
  8
0
  6
CONTINUOUS
 62
         7
100
AcDbLine
 10
4.6528644945
 20
7.242988819
 30
0.0
 11
4.6528644868
 21
7.2233037796
 31
0.0
  0
LINE
  5
26C
100
AcDbEntity
  8
0
  6
CONTINUOUS
 62
         7
100
AcDbLine
 10
4.6528644945
 20
7.242988819
 30
0.0
 11
4.7394786677
 21
7.242988819
 31
0.0
  0
LINE
  5
26D
100
AcDbEntity
  8
0
  6
CONTINUOUS
 62
         7
100
AcDbLine
 10
3.7591637071
 20
7.242988819
 30
0.0
 11
3.8457778803
 21
7.242988819
 31
0.0
  0
LINE
  5
26E
100
AcDbEntity
  8
0
  6
CONTINUOUS
 62
         7
100
AcDbLine
 10
3.9061455013
 20
7.2433825187
 30
0.0
 11
3.9061455013
 21
7.2429888207
 31
0.0
  0
LINE
  5
26F
100
AcDbEntity
  8
0
  6
CONTINUOUS
 62
         7
100
AcDbLine
 10
3.9480392874
 20
7.2433825204
 30
0.0
 11
3.9480392874
 21
7.2429888185
 31
0.0
  0
LINE
  5
270
100
AcDbEntity
  8
0
  6
CONTINUOUS
 62
         7
100
AcDbLine
 10
3.9889236151
 20
7.2433825192
 30
0.0
 11
3.9889236151
 21
7.2429888196
 31
0.0
  0
LINE
  5
271
100
AcDbEntity
  8
0
  6
CONTINUOUS
 62
         7
100
AcDbLine
 10
4.0999674056
 20
7.2433825214
 30
0.0
 11
4.0999674056
 21
7.2429888195
 31
0.0
  0
LINE
  5
272
100
AcDbEntity
  8
0
  6
CONTINUOUS
 62
         7
100
AcDbLine
 10
4.1353468469
 20
7.2433825204
 30
0.0
 11
4.1353468469
 21
7.2429888185
 31
0.0
  0
LINE
  5
273
100
AcDbEntity
  8
0
  6
CONTINUOUS
 62
         7
100
AcDbLine
 10
4.177698081
 20
7.2433825187
 30
0.0
 11
4.177698081
 21
7.2429888207
 31
0.0
  0
LINE
  5
274
100
AcDbEntity
  8
0
  6
CONTINUOUS
 62
         7
100
AcDbLine
 10
4.2211061096
 20
7.2433825207
 30
0.0
 11
4.2211061096
 21
7.2429888188
 31
0.0
  0
LINE
  5
275
100
AcDbEntity
  8
0
  6
CONTINUOUS
 62
         7
100
AcDbLine
 10
4.2420845539
 20
7.2433825204
 30
0.0
 11
4.2420845539
 21
7.2429888185
 31
0.0
  0
LINE
  5
276
100
AcDbEntity
  8
0
  6
CONTINUOUS
 62
         7
100
AcDbLine
 10
4.2614856898
 20
7.2433825196
 30
0.0
 11
4.2614856898
 21
7.2429888193
 31
0.0
  0
LINE
  5
277
100
AcDbEntity
  8
0
  6
CONTINUOUS
 62
         7
100
AcDbLine
 10
4.5365714928
 20
7.243382519
 30
0.0
 11
4.5365714928
 21
7.2429888187
 31
0.0
  0
LINE
  5
278
100
AcDbEntity
  8
0
  6
CONTINUOUS
 62
         7
100
AcDbLine
 10
4.5690801964
 20
7.2433825199
 30
0.0
 11
4.5365714928
 21
7.243382519
 31
0.0
  0
LINE
  5
279
100
AcDbEntity
  8
0
  6
CONTINUOUS
 62
         7
100
AcDbLine
 10
4.5690801964
 20
7.2433825199
 30
0.0
 11
4.5690801964
 21
7.242988818
 31
0.0
  0
LINE
  5
27A
100
AcDbEntity
  8
0
  6
CONTINUOUS
 62
         7
100
AcDbLine
 10
4.045171062
 20
7.2433825198
 30
0.0
 11
4.045171062
 21
7.2429888179
 31
0.0
  0
LINE
  5
27B
100
AcDbEntity
  8
0
  6
CONTINUOUS
 62
         7
100
AcDbLine
 10
4.0630106559
 20
7.2433825199
 30
0.0
 11
4.0630106559
 21
7.242988818
 31
0.0
  0
LINE
  5
27C
100
AcDbEntity
  8
0
  6
CONTINUOUS
 62
         7
100
AcDbLine
 10
4.5700896822
 20
7.2433825199
 30
0.0
 11
4.5700896822
 21
7.242988818
 31
0.0
  0
LINE
  5
27D
100
AcDbEntity
  8
0
  6
CONTINUOUS
 62
         7
100
AcDbLine
 10
4.580484278
 20
7.2433825198
 30
0.0
 11
4.5700896822
 21
7.2433825199
 31
0.0
  0
LINE
  5
27E
100
AcDbEntity
  8
0
  6
CONTINUOUS
 62
         7
100
AcDbLine
 10
4.580484278
 20
7.2433825198
 30
0.0
 11
4.580484278
 21
7.2429888195
 31
0.0
  0
LINE
  5
27F
100
AcDbEntity
  8
0
  6
CONTINUOUS
 62
         7
100
AcDbLine
 10
4.0787681205
 20
7.2433825199
 30
0.0
 11
4.0630106559
 21
7.2433825199
 31
0.0
  0
LINE
  5
280
100
AcDbEntity
  8
0
  6
CONTINUOUS
 62
         7
100
AcDbLine
 10
4.0787681205
 20
7.2433825199
 30
0.0
 11
4.0787681205
 21
7.242988818
 31
0.0
  0
LINE
  5
281
100
AcDbEntity
  8
0
  6
CONTINUOUS
 62
         7
100
AcDbLine
 10
4.5700896822
 20
7.2433825199
 30
0.0
 11
4.5690801964
 21
7.2433825199
 31
0.0
  0
LINE
  5
282
100
AcDbEntity
  8
0
  6
CONTINUOUS
 62
         7
100
AcDbLine
 10
4.4320893573
 20
7.2433825199
 30
0.0
 11
4.4320893573
 21
7.242988818
 31
0.0
  0
LINE
  5
283
100
AcDbEntity
  8
0
  6
CONTINUOUS
 62
         7
100
AcDbLine
 10
4.4765068837
 20
7.2433825199
 30
0.0
 11
4.4320893573
 21
7.2433825199
 31
0.0
  0
LINE
  5
284
100
AcDbEntity
  8
0
  6
CONTINUOUS
 62
         7
100
AcDbLine
 10
4.4765068837
 20
7.2433825199
 30
0.0
 11
4.4765068837
 21
7.242988818
 31
0.0
  0
LINE
  5
285
100
AcDbEntity
  8
0
  6
CONTINUOUS
 62
         7
100
AcDbLine
 10
4.3604156227
 20
7.2433825199
 30
0.0
 11
4.3604156227
 21
7.242988818
 31
0.0
  0
LINE
  5
286
100
AcDbEntity
  8
0
  6
CONTINUOUS
 62
         7
100
AcDbLine
 10
4.3674820465
 20
7.2433825199
 30
0.0
 11
4.3604156227
 21
7.2433825199
 31
0.0
  0
LINE
  5
287
100
AcDbEntity
  8
0
  6
CONTINUOUS
 62
         7
100
AcDbLine
 10
4.3674820465
 20
7.2433825199
 30
0.0
 11
4.3674820465
 21
7.242988818
 31
0.0
  0
LINE
  5
288
100
AcDbEntity
  8
0
  6
CONTINUOUS
 62
         7
100
AcDbLine
 10
4.4926587076
 20
7.2433825198
 30
0.0
 11
4.4926587076
 21
7.2429888195
 31
0.0
  0
LINE
  5
289
100
AcDbEntity
  8
0
  6
CONTINUOUS
 62
         7
100
AcDbLine
 10
4.5031163876
 20
7.2433825199
 30
0.0
 11
4.4926587076
 21
7.2433825198
 31
0.0
  0
LINE
  5
28A
100
AcDbEntity
  8
0
  6
CONTINUOUS
 62
         7
100
AcDbLine
 10
4.5031163876
 20
7.2433825199
 30
0.0
 11
4.5031163876
 21
7.242988818
 31
0.0
  0
LINE
  5
28B
100
AcDbEntity
  8
0
  6
CONTINUOUS
 62
         7
100
AcDbLine
 10
3.8576899978
 20
7.2433825199
 30
0.0
 11
3.8576899978
 21
7.242988818
 31
0.0
  0
LINE
  5
28C
100
AcDbEntity
  8
0
  6
CONTINUOUS
 62
         7
100
AcDbLine
 10
3.899079073
 20
7.2433825199
 30
0.0
 11
3.8576899978
 21
7.2433825199
 31
0.0
  0
LINE
  5
28D
100
AcDbEntity
  8
0
  6
CONTINUOUS
 62
         7
100
AcDbLine
 10
3.899079073
 20
7.2433825199
 30
0.0
 11
3.899079073
 21
7.242988818
 31
0.0
  0
LINE
  5
28E
100
AcDbEntity
  8
0
  6
CONTINUOUS
 62
         7
100
AcDbLine
 10
4.0050754252
 20
7.2433825199
 30
0.0
 11
4.0050754252
 21
7.242988818
 31
0.0
  0
LINE
  5
28F
100
AcDbEntity
  8
0
  6
CONTINUOUS
 62
         7
100
AcDbLine
 10
4.0121418535
 20
7.2433825199
 30
0.0
 11
4.0050754252
 21
7.2433825199
 31
0.0
  0
LINE
  5
290
100
AcDbEntity
  8
0
  6
CONTINUOUS
 62
         7
100
AcDbLine
 10
4.0121418535
 20
7.2433825199
 30
0.0
 11
4.0121418535
 21
7.242988818
 31
0.0
  0
LINE
  5
291
100
AcDbEntity
  8
0
  6
CONTINUOUS
 62
         7
100
AcDbLine
 10
4.317007585
 20
7.2433825199
 30
0.0
 11
4.2725900615
 21
7.2433825199
 31
0.0
  0
LINE
  5
292
100
AcDbEntity
  8
0
  6
CONTINUOUS
 62
         7
100
AcDbLine
 10
4.317007585
 20
7.2433825199
 30
0.0
 11
4.317007585
 21
7.242988818
 31
0.0
  0
LINE
  5
293
100
AcDbEntity
  8
0
  6
CONTINUOUS
 62
         7
100
AcDbLine
 10
4.2725900615
 20
7.2433825199
 30
0.0
 11
4.2725900615
 21
7.242988818
 31
0.0
  0
LINE
  5
294
100
AcDbEntity
  8
0
  6
CONTINUOUS
 62
         7
100
AcDbLine
 10
4.4108900842
 20
7.2433825199
 30
0.0
 11
4.4108900842
 21
7.242988818
 31
0.0
  0
LINE
  5
295
100
AcDbEntity
  8
0
  6
CONTINUOUS
 62
         7
100
AcDbLine
 10
4.4179565086
 20
7.2433825199
 30
0.0
 11
4.4108900842
 21
7.2433825199
 31
0.0
  0
LINE
  5
296
100
AcDbEntity
  8
0
  6
CONTINUOUS
 62
         7
100
AcDbLine
 10
4.4179565086
 20
7.2433825199
 30
0.0
 11
4.4179565086
 21
7.242988818
 31
0.0
  0
LINE
  5
297
100
AcDbEntity
  8
0
  6
CONTINUOUS
 62
         7
100
AcDbLine
 10
4.5041416491
 20
7.2433825199
 30
0.0
 11
4.5031163876
 21
7.2433825199
 31
0.0
  0
LINE
  5
298
100
AcDbEntity
  8
0
  6
CONTINUOUS
 62
         7
100
AcDbLine
 10
4.5041416491
 20
7.2433825199
 30
0.0
 11
4.5041416491
 21
7.242988818
 31
0.0
  0
LINE
  5
299
100
AcDbEntity
  8
0
  6
CONTINUOUS
 62
         7
100
AcDbLine
 10
4.5365714928
 20
7.243382519
 30
0.0
 11
4.5041416491
 21
7.2433825199
 31
0.0
  0
LINE
  5
29A
100
AcDbEntity
  8
0
  6
CONTINUOUS
 62
         7
100
AcDbLine
 10
4.0293031586
 20
7.2433825199
 30
0.0
 11
4.0293031586
 21
7.2429888196
 31
0.0
  0
LINE
  5
29B
100
AcDbEntity
  8
0
  6
CONTINUOUS
 62
         7
100
AcDbLine
 10
4.2200966329
 20
7.243382519
 30
0.0
 11
4.2200966329
 21
7.2429888187
 31
0.0
  0
LINE
  5
29C
100
AcDbEntity
  8
0
  6
CONTINUOUS
 62
         7
100
AcDbLine
 10
4.0949199673
 20
7.2433825204
 30
0.0
 11
4.0949199673
 21
7.2429888185
 31
0.0
  0
LINE
  5
29D
100
AcDbEntity
  8
0
  6
CONTINUOUS
 62
         7
100
AcDbLine
 10
4.0999674056
 20
7.2433825204
 30
0.0
 11
4.0949199673
 21
7.2433825204
 31
0.0
  0
LINE
  5
29E
100
AcDbEntity
  8
0
  6
CONTINUOUS
 62
         7
100
AcDbLine
 10
4.0282936636
 20
7.2433825198
 30
0.0
 11
4.0282936636
 21
7.2429888195
 31
0.0
  0
LINE
  5
29F
100
AcDbEntity
  8
0
  6
CONTINUOUS
 62
         7
100
AcDbLine
 10
4.0293031586
 20
7.2433825208
 30
0.0
 11
4.0282936636
 21
7.2433825198
 31
0.0
  0
LINE
  5
2A0
100
AcDbEntity
  8
0
  6
CONTINUOUS
 62
         7
100
AcDbLine
 10
4.2665331281
 20
7.2433825198
 30
0.0
 11
4.2665331281
 21
7.2429888179
 31
0.0
  0
LINE
  5
2A1
100
AcDbEntity
  8
0
  6
CONTINUOUS
 62
         7
100
AcDbLine
 10
4.2665331281
 20
7.2433825198
 30
0.0
 11
4.2614856898
 21
7.2433825188
 31
0.0
  0
LINE
  5
2A2
100
AcDbEntity
  8
0
  6
CONTINUOUS
 62
         7
100
AcDbLine
 10
4.3301309468
 20
7.2433825193
 30
0.0
 11
4.3301309468
 21
7.2429888197
 31
0.0
  0
LINE
  5
2A3
100
AcDbEntity
  8
0
  6
CONTINUOUS
 62
         7
100
AcDbLine
 10
4.3604156227
 20
7.2433825193
 30
0.0
 11
4.3301309468
 21
7.2433825193
 31
0.0
  0
LINE
  5
2A4
100
AcDbEntity
  8
0
  6
CONTINUOUS
 62
         7
100
AcDbLine
 10
4.3806054083
 20
7.2433825193
 30
0.0
 11
4.3806054083
 21
7.2429888197
 31
0.0
  0
LINE
  5
2A5
100
AcDbEntity
  8
0
  6
CONTINUOUS
 62
         7
100
AcDbLine
 10
4.4108900842
 20
7.2433825193
 30
0.0
 11
4.3806054083
 21
7.2433825193
 31
0.0
  0
LINE
  5
2A6
100
AcDbEntity
  8
0
  6
CONTINUOUS
 62
         7
100
AcDbLine
 10
3.6686125587
 20
6.5146423407
 30
0.0
 11
4.9284550282
 21
6.5146423407
 31
0.0
  0
LINE
  5
2A7
100
AcDbEntity
  8
0
  6
CONTINUOUS
 62
         7
100
AcDbLine
 10
3.6686125587
 20
7.2233037797
 30
0.0
 11
3.6686125587
 21
6.5146423407
 31
0.0
  0
LINE
  5
2A8
100
AcDbEntity
  8
0
  6
CONTINUOUS
 62
         7
100
AcDbLine
 10
4.9284550282
 20
7.2233037797
 30
0.0
 11
3.6686125587
 21
7.2233037797
 31
0.0
  0
LINE
  5
2A9
100
AcDbEntity
  8
0
  6
CONTINUOUS
 62
         7
100
AcDbLine
 10
4.9284550282
 20
6.5146423407
 30
0.0
 11
4.9284550282
 21
7.2233037797
 31
0.0
  0
CIRCLE
  5
2AA
100
AcDbEntity
  8
0
  6
CONTINUOUS
 62
         7
100
AcDbCircle
 10
3.7867227622
 20
6.868973071
 30
0.0
 40
0.0984251969
  0
CIRCLE
  5
2AB
100
AcDbEntity
  8
0
  6
CONTINUOUS
 62
         7
100
AcDbCircle
 10
4.8103448095
 20
6.868973071
 30
0.0
 40
0.0984251969
  0
LINE
  5
2AC
100
AcDbEntity
  8
0
  6
CONTINUOUS
 62
         7
100
AcDbLine
 10
2.8812109512
 20
7.118973071
 30
0.0
 11
2.8812109512
 21
6.618973071
 31
0.0
  0
CIRCLE
  5
2AD
100
AcDbEntity
  8
0
  6
CONTINUOUS
 62
         7
100
AcDbCircle
 10
4.8103448095
 20
6.868973071
 30
0.0
 40
0.0787401575
  0
CIRCLE
  5
2AE
100
AcDbEntity
  8
0
  6
CONTINUOUS
 62
         7
100
AcDbCircle
 10
4.8103448095
 20
6.868973071
 30
0.0
 40
0.0885826772
  0
LINE
  5
2AF
100
AcDbEntity
  8
0
  6
CONTINUOUS
 62
         7
100
AcDbLine
 10
4.8103448093
 20
6.9154565855
 30
0.0
 11
4.7700889043
 21
6.8922148417
 31
0.0
  0
LINE
  5
2B0
100
AcDbEntity
  8
0
  6
CONTINUOUS
 62
         7
100
AcDbLine
 10
4.7700889043
 20
6.8922148417
 30
0.0
 11
4.7700889043
 21
6.8457313158
 31
0.0
  0
LINE
  5
2B1
100
AcDbEntity
  8
0
  6
CONTINUOUS
 62
         7
100
AcDbLine
 10
4.8103448093
 20
6.8224895529
 30
0.0
 11
4.7700889043
 21
6.8457313158
 31
0.0
  0
LINE
  5
2B2
100
AcDbEntity
  8
0
  6
CONTINUOUS
 62
         7
100
AcDbLine
 10
4.8506007142
 20
6.8457313158
 30
0.0
 11
4.8103448093
 21
6.8224895529
 31
0.0
  0
LINE
  5
2B3
100
AcDbEntity
  8
0
  6
CONTINUOUS
 62
         7
100
AcDbLine
 10
4.8506007142
 20
6.8457313158
 30
0.0
 11
4.8506007142
 21
6.8922148417
 31
0.0
  0
LINE
  5
2B4
100
AcDbEntity
  8
0
  6
CONTINUOUS
 62
         7
100
AcDbLine
 10
4.8103448093
 20
6.9154565855
 30
0.0
 11
4.8506007142
 21
6.8922148417
 31
0.0
  0
ARC
  5
2B5
100
AcDbEntity
  8
0
  6
CONTINUOUS
 62
         7
100
AcDbCircle
 10
4.8103448095
 20
6.868973071
 30
0.0
 40
0.0402559055
100
AcDbArc
 50
300.0
 51
0.0
  0
ARC
  5
2B6
100
AcDbEntity
  8
0
  6
CONTINUOUS
 62
         7
100
AcDbCircle
 10
4.8103448095
 20
6.868973071
 30
0.0
 40
0.0402559055
100
AcDbArc
 50
240.0
 51
300.0
  0
ARC
  5
2B7
100
AcDbEntity
  8
0
  6
CONTINUOUS
 62
         7
100
AcDbCircle
 10
4.8103448095
 20
6.868973071
 30
0.0
 40
0.0402559055
100
AcDbArc
 50
180.0
 51
240.0
  0
ARC
  5
2B8
100
AcDbEntity
  8
0
  6
CONTINUOUS
 62
         7
100
AcDbCircle
 10
4.8103448095
 20
6.868973071
 30
0.0
 40
0.0402559055
100
AcDbArc
 50
120.0
 51
180.0
  0
ARC
  5
2B9
100
AcDbEntity
  8
0
  6
CONTINUOUS
 62
         7
100
AcDbCircle
 10
4.8103448095
 20
6.868973071
 30
0.0
 40
0.0402559055
100
AcDbArc
 50
60.0
 51
120.0
  0
ARC
  5
2BA
100
AcDbEntity
  8
0
  6
CONTINUOUS
 62
         7
100
AcDbCircle
 10
4.8103448095
 20
6.868973071
 30
0.0
 40
0.0402559055
100
AcDbArc
 50
0.0
 51
60.0
  0
LINE
  5
2BB
100
AcDbEntity
  8
0
  6
CONTINUOUS
 62
         7
100
AcDbLine
 10
5.2434156756
 20
7.117004567
 30
0.0
 11
5.2434156756
 21
6.6209415749
 31
0.0
  0
LINE
  5
2BC
100
AcDbEntity
  8
0
  6
CONTINUOUS
 62
         7
100
AcDbLine
 10
2.1725495339
 20
7.0855085041
 30
0.0
 11
2.1725495339
 21
6.6524376379
 31
0.0
  0
LINE
  5
2BD
100
AcDbEntity
  8
0
  6
CONTINUOUS
 62
         7
100
AcDbLine
 10
2.2906597701
 20
7.0855085041
 30
0.0
 11
2.2906597701
 21
6.6524376379
 31
0.0
  0
DIMENSION
  5
2CB
100
AcDbEntity
  8
0
 62
         7
100
AcDbDimension
  2
*D27
 10
4.9284550457
 20
6.2436204655
 30
0.0
 11
5.6971451446
 21
6.2436204655
 31
0.0
 70
       160
  1
<>\P(8mm)
  3
SLDDIMSTYLE0
100
AcDbAlignedDimension
 13
5.2434156756
 23
6.6209415749
 33
0.0
 14
4.9284550457
 24
6.5146423623
 34
0.0
100
AcDbRotatedDimension
  0
DIMENSION
  5
2D9
100
AcDbEntity
  8
0
 62
         7
100
AcDbDimension
  2
*D28
 10
4.9284550457
 20
6.2436204655
 30
0.0
 11
4.2985337859
 21
6.2436204655
 31
0.0
 70
       160
  1
<>\P(32mm)
  3
SLDDIMSTYLE1
100
AcDbAlignedDimension
 13
3.668612526
 23
6.5146423623
 33
0.0
 14
4.9284550457
 24
6.5146423623
 34
0.0
100
AcDbRotatedDimension
  0
LEADER
  5
2DA
100
AcDbEntity
  8
0
 62
         7
100
AcDbLeader
  3
SLDDIMSTYLE2
 73
         2
 74
         1
 75
         0
 40
0.0
 76
         3
 10
2.1725495339
 20
7.0413458834
 30
0.0
 10
1.9764003834
 20
7.3789457778
 30
0.0
 10
1.7264003834
 20
7.3789457778
 30
0.0
 77
       256
340
2E2
  0
INSERT
  5
2E2
100
AcDbEntity
  8
0
100
AcDbBlockReference
  2
NOTE51
 10
1.7264003834
 20
7.3789457778
 30
0.0
  0
LINE
  5
2E3
100
AcDbEntity
  8
0
  6
CONTINUOUS
 62
         7
100
AcDbLine
 10
7.9913649035
 20
6.2622273693
 30
0.0
 11
7.782573487
 21
6.1416946167
 31
0.0
  0
LINE
  5
2E4
100
AcDbEntity
  8
0
  6
CONTINUOUS
 62
         7
100
AcDbLine
 10
8.030584823
 20
5.7120798224
 30
0.0
 11
8.2393762427
 21
5.8326125793
 31
0.0
  0
LINE
  5
2E5
100
AcDbEntity
  8
0
  6
CONTINUOUS
 62
         7
100
AcDbLine
 10
8.9351497734
 20
7.6659499093
 30
0.0
 11
8.9351497756
 21
7.4730662484
 31
0.0
  0
LINE
  5
2E6
100
AcDbEntity
  8
0
  6
CONTINUOUS
 62
         7
100
AcDbLine
 10
9.1162521378
 20
7.4730662484
 30
0.0
 11
9.1162521394
 21
7.6659499048
 31
0.0
  0
LINE
  5
2E7
100
AcDbEntity
  8
0
  6
CONTINUOUS
 62
         7
100
AcDbLine
 10
9.1662941762
 20
7.9552492698
 30
0.0
 11
9.1662941777
 21
7.6337765066
 31
0.0
  0
LINE
  5
2E8
100
AcDbEntity
  8
0
  6
CONTINUOUS
 62
         7
100
AcDbLine
 10
9.4418847288
 20
7.6337765066
 30
0.0
 11
9.4418847316
 21
7.9552492696
 31
0.0
  0
LINE
  5
2E9
100
AcDbEntity
  8
0
  6
CONTINUOUS
 62
         7
100
AcDbLine
 10
9.5009398469
 20
7.6016292306
 30
0.0
 11
9.5009398495
 21
7.633776509
 31
0.0
  0
LINE
  5
2EA
100
AcDbEntity
  8
0
  6
CONTINUOUS
 62
         7
100
AcDbLine
 10
8.8656275712
 20
7.3244001168
 30
0.0
 11
8.8586678588
 21
7.3284191793
 31
0.0
  0
LINE
  5
2EB
100
AcDbEntity
  8
0
  6
CONTINUOUS
 62
         7
100
AcDbLine
 10
8.7473034196
 20
7.3284139607
 30
0.0
 11
8.7403425699
 21
7.3243942403
 31
0.0
  0
LINE
  5
2EC
100
AcDbEntity
  8
0
  6
CONTINUOUS
 62
         7
100
AcDbLine
 10
8.7144149861
 20
7.2875747094
 30
0.0
 11
8.7144149861
 21
7.2875747094
 31
0.0
  0
LINE
  5
2ED
100
AcDbEntity
  8
0
  6
CONTINUOUS
 62
         7
100
AcDbLine
 10
8.8915653329
 20
7.2875747094
 30
0.0
 11
8.8915653329
 21
7.2875747094
 31
0.0
  0
LINE
  5
2EE
100
AcDbEntity
  8
0
  6
CONTINUOUS
 62
         7
100
AcDbLine
 10
8.6102022626
 20
6.6217475634
 30
0.0
 11
8.0377068098
 21
6.2912529733
 31
0.0
  0
LINE
  5
2EF
100
AcDbEntity
  8
0
  6
CONTINUOUS
 62
         7
100
AcDbLine
 10
8.2876864897
 20
5.858228563
 30
0.0
 11
8.8601819425
 21
6.1887231531
 31
0.0
  0
LINE
  5
2F0
100
AcDbEntity
  8
0
  6
CONTINUOUS
 62
         7
100
AcDbLine
 10
9.5894376622
 20
7.7422467882
 30
0.0
 11
9.5824779498
 21
7.7462658508
 31
0.0
  0
LINE
  5
2F1
100
AcDbEntity
  8
0
  6
CONTINUOUS
 62
         7
100
AcDbLine
 10
9.4711134996
 20
7.7462606258
 30
0.0
 11
9.4641526609
 21
7.7422409117
 31
0.0
  0
LINE
  5
2F2
100
AcDbEntity
  8
0
  6
CONTINUOUS
 62
         7
100
AcDbLine
 10
9.6153754238
 20
7.7054213808
 30
0.0
 11
9.6153754238
 21
7.7054213808
 31
0.0
  0
LINE
  5
2F3
100
AcDbEntity
  8
0
  6
CONTINUOUS
 62
         7
100
AcDbLine
 10
7.8912423873
 20
5.8021120489
 30
0.0
 11
7.9709681707
 21
5.848136764
 31
0.0
  0
LINE
  5
2F4
100
AcDbEntity
  8
0
  6
CONTINUOUS
 62
         7
100
AcDbLine
 10
7.8705826265
 20
6.0220284411
 30
0.0
 11
7.7908568431
 21
5.976003726
 31
0.0
  0
LINE
  5
2F5
100
AcDbEntity
  8
0
  6
CONTINUOUS
 62
         7
100
AcDbLine
 10
9.8608664255
 20
6.7686789012
 30
0.0
 11
9.9570332663
 21
6.8241948726
 31
0.0
  0
LINE
  5
2F6
100
AcDbEntity
  8
0
  6
CONTINUOUS
 62
         7
100
AcDbLine
 10
7.7698561866
 20
5.5979319686
 30
0.0
 11
7.8533727906
 21
5.6461450654
 31
0.0
  0
LINE
  5
2F7
100
AcDbEntity
  8
0
  6
CONTINUOUS
 62
         7
100
AcDbLine
 10
7.6368549548
 20
6.0212055963
 30
0.0
 11
7.5533383634
 21
5.972992482
 31
0.0
  0
POLYLINE
  5
2F8
100
AcDbEntity
  8
0
  6
CONTINUOUS
 62
         7
100
AcDb2dPolyline
 66
         1
 10
0.0
 20
0.0
 30
0.0
 70
       128
  0
VERTEX
  5
2F9
100
AcDbEntity
  8
0
100
AcDbVertex
100
AcDb2dVertex
 10
8.1511088614
 20
6.2250671482
 30
0.0
  0
VERTEX
  5
2FA
100
AcDbEntity
  8
0
100
AcDbVertex
100
AcDb2dVertex
 10
8.1635471739
 20
6.2143452641
 30
0.0
  0
VERTEX
  5
2FB
100
AcDbEntity
  8
0
100
AcDbVertex
100
AcDb2dVertex
 10
8.1757284557
 20
6.2027327367
 30
0.0
  0
VERTEX
  5
2FC
100
AcDbEntity
  8
0
100
AcDbVertex
100
AcDb2dVertex
 10
8.1875876946
 20
6.190291526
 30
0.0
  0
VERTEX
  5
2FD
100
AcDbEntity
  8
0
100
AcDbVertex
100
AcDb2dVertex
 10
8.1990616145
 20
6.1770880728
 30
0.0
  0
VERTEX
  5
2FE
100
AcDbEntity
  8
0
100
AcDbVertex
100
AcDb2dVertex
 10
8.2100890241
 20
6.163192816
 30
0.0
  0
VERTEX
  5
2FF
100
AcDbEntity
  8
0
100
AcDbVertex
100
AcDb2dVertex
 10
8.2206110608
 20
6.1486797636
 30
0.0
  0
VERTEX
  5
300
100
AcDbEntity
  8
0
100
AcDbVertex
100
AcDb2dVertex
 10
8.2305715709
 20
6.1336265334
 30
0.0
  0
VERTEX
  5
301
100
AcDbEntity
  8
0
100
AcDbVertex
100
AcDb2dVertex
 10
8.2399174774
 20
6.1181133195
 30
0.0
  0
VERTEX
  5
302
100
AcDbEntity
  8
0
100
AcDbVertex
100
AcDb2dVertex
 10
8.2485988306
 20
6.1022229265
 30
0.0
  0
VERTEX
  5
303
100
AcDbEntity
  8
0
100
AcDbVertex
100
AcDb2dVertex
 10
8.2565693909
 20
6.0860401022
 30
0.0
  0
VERTEX
  5
304
100
AcDbEntity
  8
0
100
AcDbVertex
100
AcDb2dVertex
 10
8.2637865626
 20
6.0696512734
 30
0.0
  0
VERTEX
  5
305
100
AcDbEntity
  8
0
100
AcDbVertex
100
AcDb2dVertex
 10
8.2702118792
 20
6.0531438112
 30
0.0
  0
VERTEX
  5
306
100
AcDbEntity
  8
0
100
AcDbVertex
100
AcDb2dVertex
 10
8.275811061
 20
6.0366058203
 30
0.0
  0
VERTEX
  5
307
100
AcDbEntity
  8
0
100
AcDbVertex
100
AcDb2dVertex
 10
8.280554218
 20
6.020125493
 30
0.0
  0
VERTEX
  5
308
100
AcDbEntity
  8
0
100
AcDbVertex
100
AcDb2dVertex
 10
8.2844160374
 20
6.003790831
 30
0.0
  0
VERTEX
  5
309
100
AcDbEntity
  8
0
100
AcDbVertex
100
AcDb2dVertex
 10
8.2873759389
 20
5.987688904
 30
0.0
  0
VERTEX
  5
30A
100
AcDbEntity
  8
0
100
AcDbVertex
100
AcDb2dVertex
 10
8.2894181281
 20
5.971905762
 30
0.0
  0
VERTEX
  5
30B
100
AcDbEntity
  8
0
100
AcDbVertex
100
AcDb2dVertex
 10
8.2905316599
 20
5.9565254428
 30
0.0
  0
VERTEX
  5
30C
100
AcDbEntity
  8
0
100
AcDbVertex
100
AcDb2dVertex
 10
8.2907106593
 20
5.941630155
 30
0.0
  0
VERTEX
  5
30D
100
AcDbEntity
  8
0
100
AcDbVertex
100
AcDb2dVertex
 10
8.289954135
 20
5.9272991785
 30
0.0
  0
VERTEX
  5
30E
100
AcDbEntity
  8
0
100
AcDbVertex
100
AcDb2dVertex
 10
8.2882661416
 20
5.9136092575
 30
0.0
  0
VERTEX
  5
30F
100
AcDbEntity
  8
0
100
AcDbVertex
100
AcDb2dVertex
 10
8.2856556842
 20
5.9006330929
 30
0.0
  0
VERTEX
  5
310
100
AcDbEntity
  8
0
100
AcDbVertex
100
AcDb2dVertex
 10
8.2821366604
 20
5.8884402117
 30
0.0
  0
VERTEX
  5
311
100
AcDbEntity
  8
0
100
AcDbVertex
100
AcDb2dVertex
 10
8.2777278634
 20
5.8770955274
 30
0.0
  0
VERTEX
  5
312
100
AcDbEntity
  8
0
100
AcDbVertex
100
AcDb2dVertex
 10
8.2724528432
 20
5.8666596518
 30
0.0
  0
VERTEX
  5
313
100
AcDbEntity
  8
0
100
AcDbVertex
100
AcDb2dVertex
 10
8.266339706
 20
5.8571881625
 30
0.0
  0
VERTEX
  5
314
100
AcDbEntity
  8
0
100
AcDbVertex
100
AcDb2dVertex
 10
8.2594210878
 20
5.8487316159
 30
0.0
  0
VERTEX
  5
315
100
AcDbEntity
  8
0
100
AcDbVertex
100
AcDb2dVertex
 10
8.2517338881
 20
5.8413352086
 30
0.0
  0
VERTEX
  5
316
100
AcDbEntity
  8
0
100
AcDbVertex
100
AcDb2dVertex
 10
8.2433191329
 20
5.8350383693
 30
0.0
  0
VERTEX
  5
317
100
AcDbEntity
  8
0
100
AcDbVertex
100
AcDb2dVertex
 10
8.2393762037
 20
5.8326125209
 30
0.0
  0
SEQEND
  5
318
100
AcDbEntity
  8
0
  0
POLYLINE
  5
319
100
AcDbEntity
  8
0
  6
CONTINUOUS
 62
         7
100
AcDb2dPolyline
 66
         1
 10
0.0
 20
0.0
 30
0.0
 70
       128
  0
VERTEX
  5
31A
100
AcDbEntity
  8
0
100
AcDbVertex
100
AcDb2dVertex
 10
7.9913648677
 20
6.2622273151
 30
0.0
  0
VERTEX
  5
31B
100
AcDbEntity
  8
0
100
AcDbVertex
100
AcDb2dVertex
 10
7.9965193422
 20
6.2649653072
 30
0.0
  0
VERTEX
  5
31C
100
AcDbEntity
  8
0
100
AcDbVertex
100
AcDb2dVertex
 10
8.0062508809
 20
6.2689683318
 30
0.0
  0
VERTEX
  5
31D
100
AcDbEntity
  8
0
100
AcDbVertex
100
AcDb2dVertex
 10
8.0165646137
 20
6.2717893223
 30
0.0
  0
VERTEX
  5
31E
100
AcDbEntity
  8
0
100
AcDbVertex
100
AcDb2dVertex
 10
8.0274055201
 20
6.2734131757
 30
0.0
  0
VERTEX
  5
31F
100
AcDbEntity
  8
0
100
AcDbVertex
100
AcDb2dVertex
 10
8.038715754
 20
6.2738312512
 30
0.0
  0
VERTEX
  5
320
100
AcDbEntity
  8
0
100
AcDbVertex
100
AcDb2dVertex
 10
8.05043498
 20
6.2730413721
 30
0.0
  0
VERTEX
  5
321
100
AcDbEntity
  8
0
100
AcDbVertex
100
AcDb2dVertex
 10
8.0625006708
 20
6.2710476698
 30
0.0
  0
VERTEX
  5
322
100
AcDbEntity
  8
0
100
AcDbVertex
100
AcDb2dVertex
 10
8.0748484415
 20
6.2678608274
 30
0.0
  0
VERTEX
  5
323
100
AcDbEntity
  8
0
100
AcDbVertex
100
AcDb2dVertex
 10
8.0874124012
 20
6.2634978347
 30
0.0
  0
VERTEX
  5
324
100
AcDbEntity
  8
0
100
AcDbVertex
100
AcDb2dVertex
 10
8.1001255476
 20
6.2579819603
 30
0.0
  0
VERTEX
  5
325
100
AcDbEntity
  8
0
100
AcDbVertex
100
AcDb2dVertex
 10
8.1129200366
 20
6.2513426698
 30
0.0
  0
VERTEX
  5
326
100
AcDbEntity
  8
0
100
AcDbVertex
100
AcDb2dVertex
 10
8.1257275734
 20
6.2436153601
 30
0.0
  0
VERTEX
  5
327
100
AcDbEntity
  8
0
100
AcDbVertex
100
AcDb2dVertex
 10
8.1384798739
 20
6.2348412362
 30
0.0
  0
VERTEX
  5
328
100
AcDbEntity
  8
0
100
AcDbVertex
100
AcDb2dVertex
 10
8.1511088614
 20
6.2250671482
 30
0.0
  0
SEQEND
  5
329
100
AcDbEntity
  8
0
  0
POLYLINE
  5
32A
100
AcDbEntity
  8
0
  6
CONTINUOUS
 62
         7
100
AcDb2dPolyline
 66
         1
 10
0.0
 20
0.0
 30
0.0
 70
       128
  0
VERTEX
  5
32B
100
AcDbEntity
  8
0
100
AcDbVertex
100
AcDb2dVertex
 10
7.9423174807
 20
6.1045344497
 30
0.0
  0
VERTEX
  5
32C
100
AcDbEntity
  8
0
100
AcDbVertex
100
AcDb2dVertex
 10
7.9547557932
 20
6.0938125657
 30
0.0
  0
VERTEX
  5
32D
100
AcDbEntity
  8
0
100
AcDbVertex
100
AcDb2dVertex
 10
7.966937075
 20
6.0822000382
 30
0.0
  0
VERTEX
  5
32E
100
AcDbEntity
  8
0
100
AcDbVertex
100
AcDb2dVertex
 10
7.9787963139
 20
6.0697588275
 30
0.0
  0
VERTEX
  5
32F
100
AcDbEntity
  8
0
100
AcDbVertex
100
AcDb2dVertex
 10
7.9902702338
 20
6.0565553744
 30
0.0
  0
VERTEX
  5
330
100
AcDbEntity
  8
0
100
AcDbVertex
100
AcDb2dVertex
 10
8.0012976434
 20
6.0426601175
 30
0.0
  0
VERTEX
  5
331
100
AcDbEntity
  8
0
100
AcDbVertex
100
AcDb2dVertex
 10
8.0118196802
 20
6.0281470651
 30
0.0
  0
VERTEX
  5
332
100
AcDbEntity
  8
0
100
AcDbVertex
100
AcDb2dVertex
 10
8.0217801902
 20
6.0130938349
 30
0.0
  0
VERTEX
  5
333
100
AcDbEntity
  8
0
100
AcDbVertex
100
AcDb2dVertex
 10
8.0311260967
 20
5.9975806211
 30
0.0
  0
VERTEX
  5
334
100
AcDbEntity
  8
0
100
AcDbVertex
100
AcDb2dVertex
 10
8.0398074499
 20
5.981690228
 30
0.0
  0
VERTEX
  5
335
100
AcDbEntity
  8
0
100
AcDbVertex
100
AcDb2dVertex
 10
8.0477780102
 20
5.9655074037
 30
0.0
  0
VERTEX
  5
336
100
AcDbEntity
  8
0
100
AcDbVertex
100
AcDb2dVertex
 10
8.0549951819
 20
5.949118575
 30
0.0
  0
VERTEX
  5
337
100
AcDbEntity
  8
0
100
AcDbVertex
100
AcDb2dVertex
 10
8.0614204985
 20
5.9326111128
 30
0.0
  0
VERTEX
  5
338
100
AcDbEntity
  8
0
100
AcDbVertex
100
AcDb2dVertex
 10
8.0670196803
 20
5.9160731218
 30
0.0
  0
VERTEX
  5
339
100
AcDbEntity
  8
0
100
AcDbVertex
100
AcDb2dVertex
 10
8.0717628373
 20
5.8995927945
 30
0.0
  0
VERTEX
  5
33A
100
AcDbEntity
  8
0
100
AcDbVertex
100
AcDb2dVertex
 10
8.0756246567
 20
5.8832581325
 30
0.0
  0
VERTEX
  5
33B
100
AcDbEntity
  8
0
100
AcDbVertex
100
AcDb2dVertex
 10
8.0785845582
 20
5.8671562056
 30
0.0
  0
VERTEX
  5
33C
100
AcDbEntity
  8
0
100
AcDbVertex
100
AcDb2dVertex
 10
8.0806267474
 20
5.8513730636
 30
0.0
  0
VERTEX
  5
33D
100
AcDbEntity
  8
0
100
AcDbVertex
100
AcDb2dVertex
 10
8.0817402792
 20
5.8359927443
 30
0.0
  0
VERTEX
  5
33E
100
AcDbEntity
  8
0
100
AcDbVertex
100
AcDb2dVertex
 10
8.0819192786
 20
5.8210974566
 30
0.0
  0
VERTEX
  5
33F
100
AcDbEntity
  8
0
100
AcDbVertex
100
AcDb2dVertex
 10
8.0811627543
 20
5.8067664801
 30
0.0
  0
VERTEX
  5
340
100
AcDbEntity
  8
0
100
AcDbVertex
100
AcDb2dVertex
 10
8.0794747609
 20
5.793076559
 30
0.0
  0
VERTEX
  5
341
100
AcDbEntity
  8
0
100
AcDbVertex
100
AcDb2dVertex
 10
8.0768643035
 20
5.7801003944
 30
0.0
  0
VERTEX
  5
342
100
AcDbEntity
  8
0
100
AcDbVertex
100
AcDb2dVertex
 10
8.0733452797
 20
5.7679075133
 30
0.0
  0
VERTEX
  5
343
100
AcDbEntity
  8
0
100
AcDbVertex
100
AcDb2dVertex
 10
8.0689364827
 20
5.7565628289
 30
0.0
  0
VERTEX
  5
344
100
AcDbEntity
  8
0
100
AcDbVertex
100
AcDb2dVertex
 10
8.0636614625
 20
5.7461269533
 30
0.0
  0
VERTEX
  5
345
100
AcDbEntity
  8
0
100
AcDbVertex
100
AcDb2dVertex
 10
8.0575483253
 20
5.736655464
 30
0.0
  0
VERTEX
  5
346
100
AcDbEntity
  8
0
100
AcDbVertex
100
AcDb2dVertex
 10
8.0506297071
 20
5.7281989174
 30
0.0
  0
VERTEX
  5
347
100
AcDbEntity
  8
0
100
AcDbVertex
100
AcDb2dVertex
 10
8.0429425074
 20
5.7208025101
 30
0.0
  0
VERTEX
  5
348
100
AcDbEntity
  8
0
100
AcDbVertex
100
AcDb2dVertex
 10
8.0345277522
 20
5.7145056708
 30
0.0
  0
VERTEX
  5
349
100
AcDbEntity
  8
0
100
AcDbVertex
100
AcDb2dVertex
 10
8.0254303439
 20
5.7093419526
 30
0.0
  0
VERTEX
  5
34A
100
AcDbEntity
  8
0
100
AcDbVertex
100
AcDb2dVertex
 10
8.0156988162
 20
5.7053388023
 30
0.0
  0
VERTEX
  5
34B
100
AcDbEntity
  8
0
100
AcDbVertex
100
AcDb2dVertex
 10
8.0053850659
 20
5.702517941
 30
0.0
  0
VERTEX
  5
34C
100
AcDbEntity
  8
0
100
AcDbVertex
100
AcDb2dVertex
 10
7.9945441748
 20
5.7008940196
 30
0.0
  0
VERTEX
  5
34D
100
AcDbEntity
  8
0
100
AcDbVertex
100
AcDb2dVertex
 10
7.9832339279
 20
5.7004759509
 30
0.0
  0
VERTEX
  5
34E
100
AcDbEntity
  8
0
100
AcDbVertex
100
AcDb2dVertex
 10
7.9715146997
 20
5.7012658912
 30
0.0
  0
VERTEX
  5
34F
100
AcDbEntity
  8
0
100
AcDbVertex
100
AcDb2dVertex
 10
7.9594490089
 20
5.7032595935
 30
0.0
  0
VERTEX
  5
350
100
AcDbEntity
  8
0
100
AcDbVertex
100
AcDb2dVertex
 10
7.9471012381
 20
5.7064464359
 30
0.0
  0
VERTEX
  5
351
100
AcDbEntity
  8
0
100
AcDbVertex
100
AcDb2dVertex
 10
7.9345372807
 20
5.7108093674
 30
0.0
  0
VERTEX
  5
352
100
AcDbEntity
  8
0
100
AcDbVertex
100
AcDb2dVertex
 10
7.9218241473
 20
5.716325235
 30
0.0
  0
VERTEX
  5
353
100
AcDbEntity
  8
0
100
AcDbVertex
100
AcDb2dVertex
 10
7.909029656
 20
5.7229645866
 30
0.0
  0
VERTEX
  5
354
100
AcDbEntity
  8
0
100
AcDbVertex
100
AcDb2dVertex
 10
7.8976118869
 20
5.7298009963
 30
0.0
  0
SEQEND
  5
355
100
AcDbEntity
  8
0
  0
POLYLINE
  5
356
100
AcDbEntity
  8
0
  6
CONTINUOUS
 62
         7
100
AcDb2dPolyline
 66
         1
 10
0.0
 20
0.0
 30
0.0
 70
       128
  0
VERTEX
  5
357
100
AcDbEntity
  8
0
100
AcDbVertex
100
AcDb2dVertex
 10
7.7314223375
 20
6.0176809513
 30
0.0
  0
VERTEX
  5
358
100
AcDbEntity
  8
0
100
AcDbVertex
100
AcDb2dVertex
 10
7.7314180156
 20
6.0177817627
 30
0.0
  0
VERTEX
  5
359
100
AcDbEntity
  8
0
100
AcDbVertex
100
AcDb2dVertex
 10
7.7312390226
 20
6.0326770471
 30
0.0
  0
VERTEX
  5
35A
100
AcDbEntity
  8
0
100
AcDbVertex
100
AcDb2dVertex
 10
7.7319955372
 20
6.0470080287
 30
0.0
  0
VERTEX
  5
35B
100
AcDbEntity
  8
0
100
AcDbVertex
100
AcDb2dVertex
 10
7.7336835357
 20
6.0606980669
 30
0.0
  0
VERTEX
  5
35C
100
AcDbEntity
  8
0
100
AcDbVertex
100
AcDb2dVertex
 10
7.7362940107
 20
6.0736741024
 30
0.0
  0
VERTEX
  5
35D
100
AcDbEntity
  8
0
100
AcDbVertex
100
AcDb2dVertex
 10
7.739813028
 20
6.0858669869
 30
0.0
  0
VERTEX
  5
35E
100
AcDbEntity
  8
0
100
AcDbVertex
100
AcDb2dVertex
 10
7.7442218121
 20
6.0972116781
 30
0.0
  0
VERTEX
  5
35F
100
AcDbEntity
  8
0
100
AcDbVertex
100
AcDb2dVertex
 10
7.7494968517
 20
6.1076475435
 30
0.0
  0
VERTEX
  5
360
100
AcDbEntity
  8
0
100
AcDbVertex
100
AcDb2dVertex
 10
7.7556099824
 20
6.1171190362
 30
0.0
  0
VERTEX
  5
361
100
AcDbEntity
  8
0
100
AcDbVertex
100
AcDb2dVertex
 10
7.7625286071
 20
6.1255755794
 30
0.0
  0
VERTEX
  5
362
100
AcDbEntity
  8
0
100
AcDbVertex
100
AcDb2dVertex
 10
7.7702158003
 20
6.1329719901
 30
0.0
  0
VERTEX
  5
363
100
AcDbEntity
  8
0
100
AcDbVertex
100
AcDb2dVertex
 10
7.7786305467
 20
6.139268894
 30
0.0
  0
VERTEX
  5
364
100
AcDbEntity
  8
0
100
AcDbVertex
100
AcDb2dVertex
 10
7.7877279615
 20
6.1444326087
 30
0.0
  0
VERTEX
  5
365
100
AcDbEntity
  8
0
100
AcDbVertex
100
AcDb2dVertex
 10
7.7974595003
 20
6.1484356334
 30
0.0
  0
VERTEX
  5
366
100
AcDbEntity
  8
0
100
AcDbVertex
100
AcDb2dVertex
 10
7.807773233
 20
6.1512566238
 30
0.0
  0
VERTEX
  5
367
100
AcDbEntity
  8
0
100
AcDbVertex
100
AcDb2dVertex
 10
7.8186141394
 20
6.1528804772
 30
0.0
  0
VERTEX
  5
368
100
AcDbEntity
  8
0
100
AcDbVertex
100
AcDb2dVertex
 10
7.8299243734
 20
6.1532985527
 30
0.0
  0
VERTEX
  5
369
100
AcDbEntity
  8
0
100
AcDbVertex
100
AcDb2dVertex
 10
7.8416435993
 20
6.1525086736
 30
0.0
  0
VERTEX
  5
36A
100
AcDbEntity
  8
0
100
AcDbVertex
100
AcDb2dVertex
 10
7.8537092901
 20
6.1505149713
 30
0.0
  0
VERTEX
  5
36B
100
AcDbEntity
  8
0
100
AcDbVertex
100
AcDb2dVertex
 10
7.8660570608
 20
6.1473281289
 30
0.0
  0
VERTEX
  5
36C
100
AcDbEntity
  8
0
100
AcDbVertex
100
AcDb2dVertex
 10
7.8786210205
 20
6.1429651362
 30
0.0
  0
VERTEX
  5
36D
100
AcDbEntity
  8
0
100
AcDbVertex
100
AcDb2dVertex
 10
7.8913341669
 20
6.1374492618
 30
0.0
  0
VERTEX
  5
36E
100
AcDbEntity
  8
0
100
AcDbVertex
100
AcDb2dVertex
 10
7.9041286559
 20
6.1308099713
 30
0.0
  0
VERTEX
  5
36F
100
AcDbEntity
  8
0
100
AcDbVertex
100
AcDb2dVertex
 10
7.9169361927
 20
6.1230826616
 30
0.0
  0
VERTEX
  5
370
100
AcDbEntity
  8
0
100
AcDbVertex
100
AcDb2dVertex
 10
7.9296884932
 20
6.1143085377
 30
0.0
  0
VERTEX
  5
371
100
AcDbEntity
  8
0
100
AcDbVertex
100
AcDb2dVertex
 10
7.9423174807
 20
6.1045344497
 30
0.0
  0
SEQEND
  5
372
100
AcDbEntity
  8
0
  0
POLYLINE
  5
373
100
AcDbEntity
  8
0
  6
CONTINUOUS
 62
         7
100
AcDb2dPolyline
 66
         1
 10
0.0
 20
0.0
 30
0.0
 70
       128
  0
VERTEX
  5
374
100
AcDbEntity
  8
0
100
AcDbVertex
100
AcDb2dVertex
 10
7.9216119322
 20
6.0016118706
 30
0.0
  0
VERTEX
  5
375
100
AcDbEntity
  8
0
100
AcDbVertex
100
AcDb2dVertex
 10
7.9134307672
 20
6.0077539501
 30
0.0
  0
VERTEX
  5
376
100
AcDbEntity
  8
0
100
AcDbVertex
100
AcDb2dVertex
 10
7.9051634501
 20
6.0128790891
 30
0.0
  0
VERTEX
  5
377
100
AcDbEntity
  8
0
100
AcDbVertex
100
AcDb2dVertex
 10
7.8969139197
 20
6.0169228856
 30
0.0
  0
VERTEX
  5
378
100
AcDbEntity
  8
0
100
AcDbVertex
100
AcDb2dVertex
 10
7.8887859406
 20
6.0198343957
 30
0.0
  0
VERTEX
  5
379
100
AcDbEntity
  8
0
100
AcDbVertex
100
AcDb2dVertex
 10
7.8808817125
 20
6.0215769847
 30
0.0
  0
VERTEX
  5
37A
100
AcDbEntity
  8
0
100
AcDbVertex
100
AcDb2dVertex
 10
7.8733006575
 20
6.0221288456
 30
0.0
  0
VERTEX
  5
37B
100
AcDbEntity
  8
0
100
AcDbVertex
100
AcDb2dVertex
 10
7.8661380881
 20
6.0214829807
 30
0.0
  0
VERTEX
  5
37C
100
AcDbEntity
  8
0
100
AcDbVertex
100
AcDb2dVertex
 10
7.8594840891
 20
6.01964755
 30
0.0
  0
VERTEX
  5
37D
100
AcDbEntity
  8
0
100
AcDbVertex
100
AcDb2dVertex
 10
7.853422348
 20
6.0166455879
 30
0.0
  0
VERTEX
  5
37E
100
AcDbEntity
  8
0
100
AcDbVertex
100
AcDb2dVertex
 10
7.8480290815
 20
6.0125148485
 30
0.0
  0
VERTEX
  5
37F
100
AcDbEntity
  8
0
100
AcDbVertex
100
AcDb2dVertex
 10
7.8433721161
 20
6.0073072707
 30
0.0
  0
VERTEX
  5
380
100
AcDbEntity
  8
0
100
AcDbVertex
100
AcDb2dVertex
 10
7.8421901402
 20
6.0056377459
 30
0.0
  0
SEQEND
  5
381
100
AcDbEntity
  8
0
  0
POLYLINE
  5
382
100
AcDbEntity
  8
0
  6
CONTINUOUS
 62
         7
100
AcDb2dPolyline
 66
         1
 10
0.0
 20
0.0
 30
0.0
 70
       128
  0
VERTEX
  5
383
100
AcDbEntity
  8
0
100
AcDbVertex
100
AcDb2dVertex
 10
7.9425756821
 20
5.8317461299
 30
0.0
  0
VERTEX
  5
384
100
AcDbEntity
  8
0
100
AcDbVertex
100
AcDb2dVertex
 10
7.9470202132
 20
5.8322915229
 30
0.0
  0
VERTEX
  5
385
100
AcDbEntity
  8
0
100
AcDbVertex
100
AcDb2dVertex
 10
7.9536741992
 20
5.8341269604
 30
0.0
  0
VERTEX
  5
386
100
AcDbEntity
  8
0
100
AcDbVertex
100
AcDb2dVertex
 10
7.9597359639
 20
5.8371289701
 30
0.0
  0
VERTEX
  5
387
100
AcDbEntity
  8
0
100
AcDbVertex
100
AcDb2dVertex
 10
7.9651292327
 20
5.8412596483
 30
0.0
  0
VERTEX
  5
388
100
AcDbEntity
  8
0
100
AcDbVertex
100
AcDb2dVertex
 10
7.9697862004
 20
5.8464671649
 30
0.0
  0
VERTEX
  5
389
100
AcDbEntity
  8
0
100
AcDbVertex
100
AcDb2dVertex
 10
7.9736483065
 20
5.8526860744
 30
0.0
  0
VERTEX
  5
38A
100
AcDbEntity
  8
0
100
AcDbVertex
100
AcDb2dVertex
 10
7.9766669666
 20
5.8598381296
 30
0.0
  0
VERTEX
  5
38B
100
AcDbEntity
  8
0
100
AcDbVertex
100
AcDb2dVertex
 10
7.9788042473
 20
5.8678332455
 30
0.0
  0
VERTEX
  5
38C
100
AcDbEntity
  8
0
100
AcDbVertex
100
AcDb2dVertex
 10
7.9800332372
 20
5.876571102
 30
0.0
  0
VERTEX
  5
38D
100
AcDbEntity
  8
0
100
AcDbVertex
100
AcDb2dVertex
 10
7.9803385076
 20
5.8859417406
 30
0.0
  0
VERTEX
  5
38E
100
AcDbEntity
  8
0
100
AcDbVertex
100
AcDb2dVertex
 10
7.9797162294
 20
5.8958271812
 30
0.0
  0
VERTEX
  5
38F
100
AcDbEntity
  8
0
100
AcDbVertex
100
AcDb2dVertex
 10
7.9781742077
 20
5.9061032018
 30
0.0
  0
VERTEX
  5
390
100
AcDbEntity
  8
0
100
AcDbVertex
100
AcDb2dVertex
 10
7.9757318059
 20
5.9166406975
 30
0.0
  0
VERTEX
  5
391
100
AcDbEntity
  8
0
100
AcDbVertex
100
AcDb2dVertex
 10
7.9724197912
 20
5.9273070801
 30
0.0
  0
VERTEX
  5
392
100
AcDbEntity
  8
0
100
AcDbVertex
100
AcDb2dVertex
 10
7.9682797834
 20
5.9379681266
 30
0.0
  0
VERTEX
  5
393
100
AcDbEntity
  8
0
100
AcDbVertex
100
AcDb2dVertex
 10
7.9633638581
 20
5.9484897462
 30
0.0
  0
VERTEX
  5
394
100
AcDbEntity
  8
0
100
AcDbVertex
100
AcDb2dVertex
 10
7.9577338443
 20
5.9587397888
 30
0.0
  0
VERTEX
  5
395
100
AcDbEntity
  8
0
100
AcDbVertex
100
AcDb2dVertex
 10
7.9514605178
 20
5.9685892481
 30
0.0
  0
VERTEX
  5
396
100
AcDbEntity
  8
0
100
AcDbVertex
100
AcDb2dVertex
 10
7.944622788
 20
5.9779143085
 30
0.0
  0
VERTEX
  5
397
100
AcDbEntity
  8
0
100
AcDbVertex
100
AcDb2dVertex
 10
7.937306634
 20
5.9865976233
 30
0.0
  0
VERTEX
  5
398
100
AcDbEntity
  8
0
100
AcDbVertex
100
AcDb2dVertex
 10
7.929604075
 20
5.9945300559
 30
0.0
  0
VERTEX
  5
399
100
AcDbEntity
  8
0
100
AcDbVertex
100
AcDb2dVertex
 10
7.9216119322
 20
6.0016118706
 30
0.0
  0
SEQEND
  5
39A
100
AcDbEntity
  8
0
  0
POLYLINE
  5
39B
100
AcDbEntity
  8
0
  6
CONTINUOUS
 62
         7
100
AcDb2dPolyline
 66
         1
 10
0.0
 20
0.0
 30
0.0
 70
       128
  0
VERTEX
  5
39C
100
AcDbEntity
  8
0
100
AcDbVertex
100
AcDb2dVertex
 10
9.0230642862
 20
7.7182018239
 30
0.0
  0
VERTEX
  5
39D
100
AcDbEntity
  8
0
100
AcDbVertex
100
AcDb2dVertex
 10
9.0121733895
 20
7.7176373764
 30
0.0
  0
VERTEX
  5
39E
100
AcDbEntity
  8
0
100
AcDbVertex
100
AcDb2dVertex
 10
9.0014797666
 20
7.716319205
 30
0.0
  0
VERTEX
  5
39F
100
AcDbEntity
  8
0
100
AcDbVertex
100
AcDb2dVertex
 10
8.9911393501
 20
7.7142665429
 30
0.0
  0
VERTEX
  5
3A0
100
AcDbEntity
  8
0
100
AcDbVertex
100
AcDb2dVertex
 10
8.9813029149
 20
7.7115093142
 30
0.0
  0
VERTEX
  5
3A1
100
AcDbEntity
  8
0
100
AcDbVertex
100
AcDb2dVertex
 10
8.9721138859
 20
7.7080877273
 30
0.0
  0
VERTEX
  5
3A2
100
AcDbEntity
  8
0
100
AcDbVertex
100
AcDb2dVertex
 10
8.9637062898
 20
7.7040516756
 30
0.0
  0
VERTEX
  5
3A3
100
AcDbEntity
  8
0
100
AcDbVertex
100
AcDb2dVertex
 10
8.9562027191
 20
7.6994600081
 30
0.0
  0
VERTEX
  5
3A4
100
AcDbEntity
  8
0
100
AcDbVertex
100
AcDb2dVertex
 10
8.9497125958
 20
7.6943797047
 30
0.0
  0
VERTEX
  5
3A5
100
AcDbEntity
  8
0
100
AcDbVertex
100
AcDb2dVertex
 10
8.9443305363
 20
7.6888848096
 30
0.0
  0
VERTEX
  5
3A6
100
AcDbEntity
  8
0
100
AcDbVertex
100
AcDb2dVertex
 10
8.9401350571
 20
7.6830554801
 30
0.0
  0
VERTEX
  5
3A7
100
AcDbEntity
  8
0
100
AcDbVertex
100
AcDb2dVertex
 10
8.9371873166
 20
7.6769767173
 30
0.0
  0
VERTEX
  5
3A8
100
AcDbEntity
  8
0
100
AcDbVertex
100
AcDb2dVertex
 10
8.9355302995
 20
7.6707371591
 30
0.0
  0
VERTEX
  5
3A9
100
AcDbEntity
  8
0
100
AcDbVertex
100
AcDb2dVertex
 10
8.9351881692
 20
7.664427781
 30
0.0
  0
VERTEX
  5
3AA
100
AcDbEntity
  8
0
100
AcDbVertex
100
AcDb2dVertex
 10
8.9361659322
 20
7.658140608
 30
0.0
  0
VERTEX
  5
3AB
100
AcDbEntity
  8
0
100
AcDbVertex
100
AcDb2dVertex
 10
8.9384493087
 20
7.6519673175
 30
0.0
  0
VERTEX
  5
3AC
100
AcDbEntity
  8
0
100
AcDbVertex
100
AcDb2dVertex
 10
8.9420050068
 20
7.6459979225
 30
0.0
  0
VERTEX
  5
3AD
100
AcDbEntity
  8
0
100
AcDbVertex
100
AcDb2dVertex
 10
8.9467812033
 20
7.6403194529
 30
0.0
  0
VERTEX
  5
3AE
100
AcDbEntity
  8
0
100
AcDbVertex
100
AcDb2dVertex
 10
8.9527081801
 20
7.6350147527
 30
0.0
  0
VERTEX
  5
3AF
100
AcDbEntity
  8
0
100
AcDbVertex
100
AcDb2dVertex
 10
8.9596995963
 20
7.6301611518
 30
0.0
  0
VERTEX
  5
3B0
100
AcDbEntity
  8
0
100
AcDbVertex
100
AcDb2dVertex
 10
8.9676534755
 20
7.625829428
 30
0.0
  0
VERTEX
  5
3B1
100
AcDbEntity
  8
0
100
AcDbVertex
100
AcDb2dVertex
 10
8.9764537879
 20
7.6220827631
 30
0.0
  0
VERTEX
  5
3B2
100
AcDbEntity
  8
0
100
AcDbVertex
100
AcDb2dVertex
 10
8.9859722418
 20
7.6189757612
 30
0.0
  0
VERTEX
  5
3B3
100
AcDbEntity
  8
0
100
AcDbVertex
100
AcDb2dVertex
 10
8.996069996
 20
7.616553758
 30
0.0
  0
VERTEX
  5
3B4
100
AcDbEntity
  8
0
100
AcDbVertex
100
AcDb2dVertex
 10
9.0065998648
 20
7.6148520647
 30
0.0
  0
VERTEX
  5
3B5
100
AcDbEntity
  8
0
100
AcDbVertex
100
AcDb2dVertex
 10
9.0174083166
 20
7.6138954882
 30
0.0
  0
VERTEX
  5
3B6
100
AcDbEntity
  8
0
100
AcDbVertex
100
AcDb2dVertex
 10
9.0283376526
 20
7.6136979909
 30
0.0
  0
VERTEX
  5
3B7
100
AcDbEntity
  8
0
100
AcDbVertex
100
AcDb2dVertex
 10
9.0392285234
 20
7.6142624378
 30
0.0
  0
VERTEX
  5
3B8
100
AcDbEntity
  8
0
100
AcDbVertex
100
AcDb2dVertex
 10
9.0499221592
 20
7.6155806023
 30
0.0
  0
VERTEX
  5
3B9
100
AcDbEntity
  8
0
100
AcDbVertex
100
AcDb2dVertex
 10
9.0602625756
 20
7.6176332644
 30
0.0
  0
VERTEX
  5
3BA
100
AcDbEntity
  8
0
100
AcDbVertex
100
AcDb2dVertex
 10
9.0700989849
 20
7.6203904924
 30
0.0
  0
VERTEX
  5
3BB
100
AcDbEntity
  8
0
100
AcDbVertex
100
AcDb2dVertex
 10
9.0792880269
 20
7.6238120725
 30
0.0
  0
VERTEX
  5
3BC
100
AcDbEntity
  8
0
100
AcDbVertex
100
AcDb2dVertex
 10
9.0876956101
 20
7.6278481311
 30
0.0
  0
VERTEX
  5
3BD
100
AcDbEntity
  8
0
100
AcDbVertex
100
AcDb2dVertex
 10
9.0951991937
 20
7.6324397918
 30
0.0
  0
VERTEX
  5
3BE
100
AcDbEntity
  8
0
100
AcDbVertex
100
AcDb2dVertex
 10
9.10168933
 20
7.6375201026
 30
0.0
  0
VERTEX
  5
3BF
100
AcDbEntity
  8
0
100
AcDbVertex
100
AcDb2dVertex
 10
9.1070713635
 20
7.6430149971
 30
0.0
  0
VERTEX
  5
3C0
100
AcDbEntity
  8
0
100
AcDbVertex
100
AcDb2dVertex
 10
9.1112668687
 20
7.6488443272
 30
0.0
  0
VERTEX
  5
3C1
100
AcDbEntity
  8
0
100
AcDbVertex
100
AcDb2dVertex
 10
9.1142146092
 20
7.65492309
 30
0.0
  0
VERTEX
  5
3C2
100
AcDbEntity
  8
0
100
AcDbVertex
100
AcDb2dVertex
 10
9.1158716133
 20
7.6611626551
 30
0.0
  0
VERTEX
  5
3C3
100
AcDbEntity
  8
0
100
AcDbVertex
100
AcDb2dVertex
 10
9.1162137436
 20
7.6674720188
 30
0.0
  0
VERTEX
  5
3C4
100
AcDbEntity
  8
0
100
AcDbVertex
100
AcDb2dVertex
 10
9.1152359806
 20
7.6737592062
 30
0.0
  0
VERTEX
  5
3C5
100
AcDbEntity
  8
0
100
AcDbVertex
100
AcDb2dVertex
 10
9.1129526041
 20
7.6799324966
 30
0.0
  0
VERTEX
  5
3C6
100
AcDbEntity
  8
0
100
AcDbVertex
100
AcDb2dVertex
 10
9.109396906
 20
7.6859018916
 30
0.0
  0
VERTEX
  5
3C7
100
AcDbEntity
  8
0
100
AcDbVertex
100
AcDb2dVertex
 10
9.1046207354
 20
7.6915803476
 30
0.0
  0
VERTEX
  5
3C8
100
AcDbEntity
  8
0
100
AcDbVertex
100
AcDb2dVertex
 10
9.0986937198
 20
7.696885054
 30
0.0
  0
VERTEX
  5
3C9
100
AcDbEntity
  8
0
100
AcDbVertex
100
AcDb2dVertex
 10
9.0917023165
 20
7.7017386623
 30
0.0
  0
VERTEX
  5
3CA
100
AcDbEntity
  8
0
100
AcDbVertex
100
AcDb2dVertex
 10
9.0837484632
 20
7.7060703725
 30
0.0
  0
VERTEX
  5
3CB
100
AcDbEntity
  8
0
100
AcDbVertex
100
AcDb2dVertex
 10
9.0749481379
 20
7.7098170585
 30
0.0
  0
VERTEX
  5
3CC
100
AcDbEntity
  8
0
100
AcDbVertex
100
AcDb2dVertex
 10
9.0654296969
 20
7.7129240393
 30
0.0
  0
VERTEX
  5
3CD
100
AcDbEntity
  8
0
100
AcDbVertex
100
AcDb2dVertex
 10
9.0553319039
 20
7.7153460486
 30
0.0
  0
VERTEX
  5
3CE
100
AcDbEntity
  8
0
100
AcDbVertex
100
AcDb2dVertex
 10
9.0448020351
 20
7.717047742
 30
0.0
  0
VERTEX
  5
3CF
100
AcDbEntity
  8
0
100
AcDbVertex
100
AcDb2dVertex
 10
9.0339936091
 20
7.7180043191
 30
0.0
  0
VERTEX
  5
3D0
100
AcDbEntity
  8
0
100
AcDbVertex
100
AcDb2dVertex
 10
9.0230642862
 20
7.7182018239
 30
0.0
  0
SEQEND
  5
3D1
100
AcDbEntity
  8
0
  0
POLYLINE
  5
3D2
100
AcDbEntity
  8
0
  6
CONTINUOUS
 62
         7
100
AcDb2dPolyline
 66
         1
 10
0.0
 20
0.0
 30
0.0
 70
       128
  0
VERTEX
  5
3D3
100
AcDbEntity
  8
0
100
AcDbVertex
100
AcDb2dVertex
 10
8.935149779
 20
7.4730662429
 30
0.0
  0
VERTEX
  5
3D4
100
AcDbEntity
  8
0
100
AcDbVertex
100
AcDb2dVertex
 10
8.9351881615
 20
7.4715441329
 30
0.0
  0
VERTEX
  5
3D5
100
AcDbEntity
  8
0
100
AcDbVertex
100
AcDb2dVertex
 10
8.9361659243
 20
7.4652569637
 30
0.0
  0
VERTEX
  5
3D6
100
AcDbEntity
  8
0
100
AcDbVertex
100
AcDb2dVertex
 10
8.9384493139
 20
7.4590836626
 30
0.0
  0
VERTEX
  5
3D7
100
AcDbEntity
  8
0
100
AcDbVertex
100
AcDb2dVertex
 10
8.9420050251
 20
7.4531142569
 30
0.0
  0
VERTEX
  5
3D8
100
AcDbEntity
  8
0
100
AcDbVertex
100
AcDb2dVertex
 10
8.9467811959
 20
7.4474357933
 30
0.0
  0
VERTEX
  5
3D9
100
AcDbEntity
  8
0
100
AcDbVertex
100
AcDb2dVertex
 10
8.9527081982
 20
7.4421310909
 30
0.0
  0
VERTEX
  5
3DA
100
AcDbEntity
  8
0
100
AcDbVertex
100
AcDb2dVertex
 10
8.9596996145
 20
7.4372774901
 30
0.0
  0
VERTEX
  5
3DB
100
AcDbEntity
  8
0
100
AcDbVertex
100
AcDb2dVertex
 10
8.9676534679
 20
7.432945776
 30
0.0
  0
VERTEX
  5
3DC
100
AcDbEntity
  8
0
100
AcDbVertex
100
AcDb2dVertex
 10
8.9764537803
 20
7.4291991112
 30
0.0
  0
VERTEX
  5
3DD
100
AcDbEntity
  8
0
100
AcDbVertex
100
AcDb2dVertex
 10
8.9859722341
 20
7.4260921131
 30
0.0
  0
VERTEX
  5
3DE
100
AcDbEntity
  8
0
100
AcDbVertex
100
AcDb2dVertex
 10
8.9960700141
 20
7.4236700962
 30
0.0
  0
VERTEX
  5
3DF
100
AcDbEntity
  8
0
100
AcDbVertex
100
AcDb2dVertex
 10
9.0065998833
 20
7.4219683914
 30
0.0
  0
VERTEX
  5
3E0
100
AcDbEntity
  8
0
100
AcDbVertex
100
AcDb2dVertex
 10
9.0174083089
 20
7.42101184
 30
0.0
  0
VERTEX
  5
3E1
100
AcDbEntity
  8
0
100
AcDbVertex
100
AcDb2dVertex
 10
9.028337645
 20
7.4208143389
 30
0.0
  0
VERTEX
  5
3E2
100
AcDbEntity
  8
0
100
AcDbVertex
100
AcDb2dVertex
 10
9.0392285156
 20
7.4213787896
 30
0.0
  0
VERTEX
  5
3E3
100
AcDbEntity
  8
0
100
AcDbVertex
100
AcDb2dVertex
 10
9.0499221516
 20
7.4226969504
 30
0.0
  0
VERTEX
  5
3E4
100
AcDbEntity
  8
0
100
AcDbVertex
100
AcDb2dVertex
 10
9.0602625683
 20
7.4247496048
 30
0.0
  0
VERTEX
  5
3E5
100
AcDbEntity
  8
0
100
AcDbVertex
100
AcDb2dVertex
 10
9.0700990033
 20
7.427506823
 30
0.0
  0
VERTEX
  5
3E6
100
AcDbEntity
  8
0
100
AcDbVertex
100
AcDb2dVertex
 10
9.0792880191
 20
7.4309284244
 30
0.0
  0
VERTEX
  5
3E7
100
AcDbEntity
  8
0
100
AcDbVertex
100
AcDb2dVertex
 10
9.0876956026
 20
7.4349644753
 30
0.0
  0
VERTEX
  5
3E8
100
AcDbEntity
  8
0
100
AcDbVertex
100
AcDb2dVertex
 10
9.0951991859
 20
7.4395561436
 30
0.0
  0
VERTEX
  5
3E9
100
AcDbEntity
  8
0
100
AcDbVertex
100
AcDb2dVertex
 10
9.1016893221
 20
7.4446364582
 30
0.0
  0
VERTEX
  5
3EA
100
AcDbEntity
  8
0
100
AcDbVertex
100
AcDb2dVertex
 10
9.1070713558
 20
7.4501313489
 30
0.0
  0
VERTEX
  5
3EB
100
AcDbEntity
  8
0
100
AcDbVertex
100
AcDb2dVertex
 10
9.1112668609
 20
7.4559606791
 30
0.0
  0
VERTEX
  5
3EC
100
AcDbEntity
  8
0
100
AcDbVertex
100
AcDb2dVertex
 10
9.1142146014
 20
7.4620394418
 30
0.0
  0
VERTEX
  5
3ED
100
AcDbEntity
  8
0
100
AcDbVertex
100
AcDb2dVertex
 10
9.1158716058
 20
7.4682789993
 30
0.0
  0
VERTEX
  5
3EE
100
AcDbEntity
  8
0
100
AcDbVertex
100
AcDb2dVertex
 10
9.1162521317
 20
7.4730662567
 30
0.0
  0
SEQEND
  5
3EF
100
AcDbEntity
  8
0
  0
LINE
  5
3F0
100
AcDbEntity
  8
0
  6
CONTINUOUS
 62
         7
100
AcDbLine
 10
8.9351497626
 20
7.5263885824
 30
0.0
 11
8.897480328
 21
7.5129743812
 31
0.0
  0
LINE
  5
3F1
100
AcDbEntity
  8
0
  6
CONTINUOUS
 62
         7
100
AcDbLine
 10
9.1496799555
 20
7.5172155412
 30
0.0
 11
9.116252149
 21
7.5276198153
 31
0.0
  0
LINE
  5
3F2
100
AcDbEntity
  8
0
  6
CONTINUOUS
 62
         7
100
AcDbLine
 10
9.1539215697
 20
7.4331581109
 30
0.0
 11
9.1496799555
 21
7.5172155412
 31
0.0
  0
LINE
  5
3F3
100
AcDbEntity
  8
0
  6
CONTINUOUS
 62
         7
100
AcDbLine
 10
9.0299425698
 20
7.3890088046
 30
0.0
 11
9.1539215697
 21
7.4331581109
 31
0.0
  0
LINE
  5
3F4
100
AcDbEntity
  8
0
  6
CONTINUOUS
 62
         7
100
AcDbLine
 10
8.9017219293
 20
7.4289169577
 30
0.0
 11
9.0299425698
 21
7.3890088046
 31
0.0
  0
LINE
  5
3F5
100
AcDbEntity
  8
0
  6
CONTINUOUS
 62
         7
100
AcDbLine
 10
8.897480328
 20
7.5129743812
 30
0.0
 11
8.9017219293
 21
7.4289169577
 31
0.0
  0
LINE
  5
3F6
100
AcDbEntity
  8
0
  6
CONTINUOUS
 62
         7
100
AcDbLine
 10
8.9017219326
 20
7.3967696737
 30
0.0
 11
8.9017219293
 21
7.4289169577
 31
0.0
  0
LINE
  5
3F7
100
AcDbEntity
  8
0
  6
CONTINUOUS
 62
         7
100
AcDbLine
 10
9.0299425726
 20
7.356861536
 30
0.0
 11
9.0299425698
 21
7.3890088046
 31
0.0
  0
LINE
  5
3F8
100
AcDbEntity
  8
0
  6
CONTINUOUS
 62
         7
100
AcDbLine
 10
8.9017219326
 20
7.3967696737
 30
0.0
 11
9.0299425726
 21
7.356861536
 31
0.0
  0
LINE
  5
3F9
100
AcDbEntity
  8
0
  6
CONTINUOUS
 62
         7
100
AcDbLine
 10
9.1539215724
 20
7.4010108422
 30
0.0
 11
9.1539215697
 21
7.4331581109
 31
0.0
  0
LINE
  5
3FA
100
AcDbEntity
  8
0
  6
CONTINUOUS
 62
         7
100
AcDbLine
 10
9.0299425726
 20
7.356861536
 30
0.0
 11
9.1539215724
 21
7.4010108422
 31
0.0
  0
LINE
  5
3FB
100
AcDbEntity
  8
0
  6
CONTINUOUS
 62
         7
100
AcDbLine
 10
8.8974803307
 20
7.4808271125
 30
0.0
 11
8.897480328
 21
7.5129743812
 31
0.0
  0
LINE
  5
3FC
100
AcDbEntity
  8
0
  6
CONTINUOUS
 62
         7
100
AcDbLine
 10
8.8974803307
 20
7.4808271125
 30
0.0
 11
8.9017219326
 21
7.3967696737
 31
0.0
  0
POLYLINE
  5
3FD
100
AcDbEntity
  8
0
  6
CONTINUOUS
 62
         7
100
AcDb2dPolyline
 66
         1
 10
0.0
 20
0.0
 30
0.0
 70
       128
  0
VERTEX
  5
3FE
100
AcDbEntity
  8
0
100
AcDbVertex
100
AcDb2dVertex
 10
9.1867801405
 20
7.9969822627
 30
0.0
  0
VERTEX
  5
3FF
100
AcDbEntity
  8
0
100
AcDbVertex
100
AcDb2dVertex
 10
9.1802592081
 20
7.9901434755
 30
0.0
  0
VERTEX
  5
400
100
AcDbEntity
  8
0
100
AcDbVertex
100
AcDb2dVertex
 10
9.1749308284
 20
7.9829686335
 30
0.0
  0
VERTEX
  5
401
100
AcDbEntity
  8
0
100
AcDbVertex
100
AcDb2dVertex
 10
9.1708463267
 20
7.9755268199
 30
0.0
  0
VERTEX
  5
402
100
AcDbEntity
  8
0
100
AcDbVertex
100
AcDb2dVertex
 10
9.1680450122
 20
7.967889739
 30
0.0
  0
VERTEX
  5
403
100
AcDbEntity
  8
0
100
AcDbVertex
100
AcDb2dVertex
 10
9.1665538963
 20
7.9601309178
 30
0.0
  0
VERTEX
  5
404
100
AcDbEntity
  8
0
100
AcDbVertex
100
AcDb2dVertex
 10
9.1663873056
 20
7.9523250967
 30
0.0
  0
VERTEX
  5
405
100
AcDbEntity
  8
0
100
AcDbVertex
100
AcDb2dVertex
 10
9.1675468773
 20
7.9445474241
 30
0.0
  0
VERTEX
  5
406
100
AcDbEntity
  8
0
100
AcDbVertex
100
AcDb2dVertex
 10
9.1700214167
 20
7.9368728139
 30
0.0
  0
VERTEX
  5
407
100
AcDbEntity
  8
0
100
AcDbVertex
100
AcDb2dVertex
 10
9.1737871161
 20
7.9293751848
 30
0.0
  0
VERTEX
  5
408
100
AcDbEntity
  8
0
100
AcDbVertex
100
AcDb2dVertex
 10
9.1788076967
 20
7.9221267336
 30
0.0
  0
VERTEX
  5
409
100
AcDbEntity
  8
0
100
AcDbVertex
100
AcDb2dVertex
 10
9.1850347959
 20
7.91519729
 30
0.0
  0
VERTEX
  5
40A
100
AcDbEntity
  8
0
100
AcDbVertex
100
AcDb2dVertex
 10
9.1924084864
 20
7.9086535324
 30
0.0
  0
VERTEX
  5
40B
100
AcDbEntity
  8
0
100
AcDbVertex
100
AcDb2dVertex
 10
9.2008576849
 20
7.9025585445
 30
0.0
  0
VERTEX
  5
40C
100
AcDbEntity
  8
0
100
AcDbVertex
100
AcDb2dVertex
 10
9.2103010888
 20
7.8969709863
 30
0.0
  0
VERTEX
  5
40D
100
AcDbEntity
  8
0
100
AcDbVertex
100
AcDb2dVertex
 10
9.2206477083
 20
7.8919447002
 30
0.0
  0
VERTEX
  5
40E
100
AcDbEntity
  8
0
100
AcDbVertex
100
AcDb2dVertex
 10
9.2317979498
 20
7.8875280443
 30
0.0
  0
VERTEX
  5
40F
100
AcDbEntity
  8
0
100
AcDbVertex
100
AcDb2dVertex
 10
9.2436443644
 20
7.8837635947
 30
0.0
  0
VERTEX
  5
410
100
AcDbEntity
  8
0
100
AcDbVertex
100
AcDb2dVertex
 10
9.2560729171
 20
7.8806875712
 30
0.0
  0
VERTEX
  5
411
100
AcDbEntity
  8
0
100
AcDbVertex
100
AcDb2dVertex
 10
9.2689638797
 20
7.8783296535
 30
0.0
  0
VERTEX
  5
412
100
AcDbEntity
  8
0
100
AcDbVertex
100
AcDb2dVertex
 10
9.2821931199
 20
7.8767124962
 30
0.0
  0
VERTEX
  5
413
100
AcDbEntity
  8
0
100
AcDbVertex
100
AcDb2dVertex
 10
9.2956332459
 20
7.8758516831
 30
0.0
  0
VERTEX
  5
414
100
AcDbEntity
  8
0
100
AcDbVertex
100
AcDb2dVertex
 10
9.3091548292
 20
7.8757555105
 30
0.0
  0
VERTEX
  5
415
100
AcDbEntity
  8
0
100
AcDbVertex
100
AcDb2dVertex
 10
9.322627592
 20
7.8764249237
 30
0.0
  0
VERTEX
  5
416
100
AcDbEntity
  8
0
100
AcDbVertex
100
AcDb2dVertex
 10
9.3359218521
 20
7.8778534376
 30
0.0
  0
VERTEX
  5
417
100
AcDbEntity
  8
0
100
AcDbVertex
100
AcDb2dVertex
 10
9.3489095147
 20
7.880027334
 30
0.0
  0
VERTEX
  5
418
100
AcDbEntity
  8
0
100
AcDbVertex
100
AcDb2dVertex
 10
9.3614655814
 20
7.8829256445
 30
0.0
  0
VERTEX
  5
419
100
AcDbEntity
  8
0
100
AcDbVertex
100
AcDb2dVertex
 10
9.3734690563
 20
7.8865204683
 30
0.0
  0
VERTEX
  5
41A
100
AcDbEntity
  8
0
100
AcDbVertex
100
AcDb2dVertex
 10
9.3848043585
 20
7.8907772079
 30
0.0
  0
VERTEX
  5
41B
100
AcDbEntity
  8
0
100
AcDbVertex
100
AcDb2dVertex
 10
9.3953623533
 20
7.8956548398
 30
0.0
  0
VERTEX
  5
41C
100
AcDbEntity
  8
0
100
AcDbVertex
100
AcDb2dVertex
 10
9.405041339
 20
7.901106388
 30
0.0
  0
VERTEX
  5
41D
100
AcDbEntity
  8
0
100
AcDbVertex
100
AcDb2dVertex
 10
9.4137480936
 20
7.9070793723
 30
0.0
  0
VERTEX
  5
41E
100
AcDbEntity
  8
0
100
AcDbVertex
100
AcDb2dVertex
 10
9.4213987609
 20
7.9135162729
 30
0.0
  0
VERTEX
  5
41F
100
AcDbEntity
  8
0
100
AcDbVertex
100
AcDb2dVertex
 10
9.4279197095
 20
7.9203550551
 30
0.0
  0
VERTEX
  5
420
100
AcDbEntity
  8
0
100
AcDbVertex
100
AcDb2dVertex
 10
9.4332480778
 20
7.9275299049
 30
0.0
  0
VERTEX
  5
421
100
AcDbEntity
  8
0
100
AcDbVertex
100
AcDb2dVertex
 10
9.4373325895
 20
7.93497171
 30
0.0
  0
VERTEX
  5
422
100
AcDbEntity
  8
0
100
AcDbVertex
100
AcDb2dVertex
 10
9.4401338908
 20
7.9426087975
 30
0.0
  0
VERTEX
  5
423
100
AcDbEntity
  8
0
100
AcDbVertex
100
AcDb2dVertex
 10
9.4416250083
 20
7.9503676197
 30
0.0
  0
VERTEX
  5
424
100
AcDbEntity
  8
0
100
AcDbVertex
100
AcDb2dVertex
 10
9.4417915958
 20
7.9581734389
 30
0.0
  0
VERTEX
  5
425
100
AcDbEntity
  8
0
100
AcDbVertex
100
AcDb2dVertex
 10
9.4406320435
 20
7.9659511084
 30
0.0
  0
VERTEX
  5
426
100
AcDbEntity
  8
0
100
AcDbVertex
100
AcDb2dVertex
 10
9.4381574788
 20
7.973625717
 30
0.0
  0
VERTEX
  5
427
100
AcDbEntity
  8
0
100
AcDbVertex
100
AcDb2dVertex
 10
9.4343917886
 20
7.9811233527
 30
0.0
  0
VERTEX
  5
428
100
AcDbEntity
  8
0
100
AcDbVertex
100
AcDb2dVertex
 10
9.4293712079
 20
7.9883718039
 30
0.0
  0
VERTEX
  5
429
100
AcDbEntity
  8
0
100
AcDbVertex
100
AcDb2dVertex
 10
9.4231441087
 20
7.9953012475
 30
0.0
  0
VERTEX
  5
42A
100
AcDbEntity
  8
0
100
AcDbVertex
100
AcDb2dVertex
 10
9.4157704409
 20
8.0018449895
 30
0.0
  0
VERTEX
  5
42B
100
AcDbEntity
  8
0
100
AcDbVertex
100
AcDb2dVertex
 10
9.4073212165
 20
8.0079399911
 30
0.0
  0
VERTEX
  5
42C
100
AcDbEntity
  8
0
100
AcDbVertex
100
AcDb2dVertex
 10
9.3978778191
 20
8.013527553
 30
0.0
  0
VERTEX
  5
42D
100
AcDbEntity
  8
0
100
AcDbVertex
100
AcDb2dVertex
 10
9.3875311996
 20
8.0185538392
 30
0.0
  0
VERTEX
  5
42E
100
AcDbEntity
  8
0
100
AcDbVertex
100
AcDb2dVertex
 10
9.3763809807
 20
8.0229704796
 30
0.0
  0
VERTEX
  5
42F
100
AcDbEntity
  8
0
100
AcDbVertex
100
AcDb2dVertex
 10
9.364534537
 20
8.0267349409
 30
0.0
  0
VERTEX
  5
430
100
AcDbEntity
  8
0
100
AcDbVertex
100
AcDb2dVertex
 10
9.3521059811
 20
8.0298109625
 30
0.0
  0
VERTEX
  5
431
100
AcDbEntity
  8
0
100
AcDbVertex
100
AcDb2dVertex
 10
9.3392150249
 20
8.032168884
 30
0.0
  0
VERTEX
  5
432
100
AcDbEntity
  8
0
100
AcDbVertex
100
AcDb2dVertex
 10
9.3259857685
 20
8.0337860462
 30
0.0
  0
VERTEX
  5
433
100
AcDbEntity
  8
0
100
AcDbVertex
100
AcDb2dVertex
 10
9.3125456409
 20
8.0346468583
 30
0.0
  0
VERTEX
  5
434
100
AcDbEntity
  8
0
100
AcDbVertex
100
AcDb2dVertex
 10
9.2990240883
 20
8.0347430202
 30
0.0
  0
VERTEX
  5
435
100
AcDbEntity
  8
0
100
AcDbVertex
100
AcDb2dVertex
 10
9.2855513151
 20
8.0340736151
 30
0.0
  0
VERTEX
  5
436
100
AcDbEntity
  8
0
100
AcDbVertex
100
AcDb2dVertex
 10
9.2722570656
 20
8.0326450931
 30
0.0
  0
VERTEX
  5
437
100
AcDbEntity
  8
0
100
AcDbVertex
100
AcDb2dVertex
 10
9.2592693729
 20
8.0304712079
 30
0.0
  0
VERTEX
  5
438
100
AcDbEntity
  8
0
100
AcDbVertex
100
AcDb2dVertex
 10
9.2467133329
 20
8.0275728842
 30
0.0
  0
VERTEX
  5
439
100
AcDbEntity
  8
0
100
AcDbVertex
100
AcDb2dVertex
 10
9.2347098581
 20
8.0239780605
 30
0.0
  0
VERTEX
  5
43A
100
AcDbEntity
  8
0
100
AcDbVertex
100
AcDb2dVertex
 10
9.2233745461
 20
8.0197213296
 30
0.0
  0
VERTEX
  5
43B
100
AcDbEntity
  8
0
100
AcDbVertex
100
AcDb2dVertex
 10
9.2128165611
 20
8.014843689
 30
0.0
  0
VERTEX
  5
43C
100
AcDbEntity
  8
0
100
AcDbVertex
100
AcDb2dVertex
 10
9.2031375786
 20
8.0093921426
 30
0.0
  0
VERTEX
  5
43D
100
AcDbEntity
  8
0
100
AcDbVertex
100
AcDb2dVertex
 10
9.194430824
 20
8.0034191583
 30
0.0
  0
VERTEX
  5
43E
100
AcDbEntity
  8
0
100
AcDbVertex
100
AcDb2dVertex
 10
9.1867801405
 20
7.9969822627
 30
0.0
  0
SEQEND
  5
43F
100
AcDbEntity
  8
0
  0
POLYLINE
  5
440
100
AcDbEntity
  8
0
  6
CONTINUOUS
 62
         7
100
AcDb2dPolyline
 66
         1
 10
0.0
 20
0.0
 30
0.0
 70
       128
  0
VERTEX
  5
441
100
AcDbEntity
  8
0
100
AcDbVertex
100
AcDb2dVertex
 10
9.1662941809
 20
7.6337765049
 30
0.0
  0
VERTEX
  5
442
100
AcDbEntity
  8
0
100
AcDbVertex
100
AcDb2dVertex
 10
9.1663873103
 20
7.6308523318
 30
0.0
  0
VERTEX
  5
443
100
AcDbEntity
  8
0
100
AcDbVertex
100
AcDb2dVertex
 10
9.167546882
 20
7.6230746592
 30
0.0
  0
VERTEX
  5
444
100
AcDbEntity
  8
0
100
AcDbVertex
100
AcDb2dVertex
 10
9.1700214208
 20
7.6154000643
 30
0.0
  0
VERTEX
  5
445
100
AcDbEntity
  8
0
100
AcDbVertex
100
AcDb2dVertex
 10
9.1737871207
 20
7.6079024199
 30
0.0
  0
VERTEX
  5
446
100
AcDbEntity
  8
0
100
AcDbVertex
100
AcDb2dVertex
 10
9.1788076879
 20
7.6006539908
 30
0.0
  0
VERTEX
  5
447
100
AcDbEntity
  8
0
100
AcDbVertex
100
AcDb2dVertex
 10
9.1850348006
 20
7.5937245251
 30
0.0
  0
VERTEX
  5
448
100
AcDbEntity
  8
0
100
AcDbVertex
100
AcDb2dVertex
 10
9.1924084652
 20
7.5871807812
 30
0.0
  0
VERTEX
  5
449
100
AcDbEntity
  8
0
100
AcDbVertex
100
AcDb2dVertex
 10
9.200857689
 20
7.5810857948
 30
0.0
  0
VERTEX
  5
44A
100
AcDbEntity
  8
0
100
AcDbVertex
100
AcDb2dVertex
 10
9.2103010934
 20
7.5754982214
 30
0.0
  0
VERTEX
  5
44B
100
AcDbEntity
  8
0
100
AcDbVertex
100
AcDb2dVertex
 10
9.220647713
 20
7.5704719353
 30
0.0
  0
VERTEX
  5
44C
100
AcDbEntity
  8
0
100
AcDbVertex
100
AcDb2dVertex
 10
9.2317979286
 20
7.566055293
 30
0.0
  0
VERTEX
  5
44D
100
AcDbEntity
  8
0
100
AcDbVertex
100
AcDb2dVertex
 10
9.2436443691
 20
7.5622908298
 30
0.0
  0
VERTEX
  5
44E
100
AcDbEntity
  8
0
100
AcDbVertex
100
AcDb2dVertex
 10
9.2560729212
 20
7.5592148216
 30
0.0
  0
VERTEX
  5
44F
100
AcDbEntity
  8
0
100
AcDbVertex
100
AcDb2dVertex
 10
9.2689638844
 20
7.5568568886
 30
0.0
  0
VERTEX
  5
450
100
AcDbEntity
  8
0
100
AcDbVertex
100
AcDb2dVertex
 10
9.2821931246
 20
7.5552397313
 30
0.0
  0
VERTEX
  5
451
100
AcDbEntity
  8
0
100
AcDbVertex
100
AcDb2dVertex
 10
9.2956332505
 20
7.5543789182
 30
0.0
  0
VERTEX
  5
452
100
AcDbEntity
  8
0
100
AcDbVertex
100
AcDb2dVertex
 10
9.309154808
 20
7.5542827592
 30
0.0
  0
VERTEX
  5
453
100
AcDbEntity
  8
0
100
AcDbVertex
100
AcDb2dVertex
 10
9.3226275967
 20
7.5549521588
 30
0.0
  0
VERTEX
  5
454
100
AcDbEntity
  8
0
100
AcDbVertex
100
AcDb2dVertex
 10
9.3359218568
 20
7.5563806727
 30
0.0
  0
VERTEX
  5
455
100
AcDbEntity
  8
0
100
AcDbVertex
100
AcDb2dVertex
 10
9.3489095194
 20
7.5585545691
 30
0.0
  0
VERTEX
  5
456
100
AcDbEntity
  8
0
100
AcDbVertex
100
AcDb2dVertex
 10
9.3614655602
 20
7.5614528933
 30
0.0
  0
VERTEX
  5
457
100
AcDbEntity
  8
0
100
AcDbVertex
100
AcDb2dVertex
 10
9.3734690345
 20
7.5650477323
 30
0.0
  0
VERTEX
  5
458
100
AcDbEntity
  8
0
100
AcDbVertex
100
AcDb2dVertex
 10
9.3848043632
 20
7.569304443
 30
0.0
  0
VERTEX
  5
459
100
AcDbEntity
  8
0
100
AcDbVertex
100
AcDb2dVertex
 10
9.3953623579
 20
7.5741820749
 30
0.0
  0
VERTEX
  5
45A
100
AcDbEntity
  8
0
100
AcDbVertex
100
AcDb2dVertex
 10
9.4050413178
 20
7.5796336367
 30
0.0
  0
VERTEX
  5
45B
100
AcDbEntity
  8
0
100
AcDbVertex
100
AcDb2dVertex
 10
9.4137480724
 20
7.585606621
 30
0.0
  0
VERTEX
  5
45C
100
AcDbEntity
  8
0
100
AcDbVertex
100
AcDb2dVertex
 10
9.4213987656
 20
7.592043508
 30
0.0
  0
VERTEX
  5
45D
100
AcDbEntity
  8
0
100
AcDbVertex
100
AcDb2dVertex
 10
9.4279196883
 20
7.5988823038
 30
0.0
  0
VERTEX
  5
45E
100
AcDbEntity
  8
0
100
AcDbVertex
100
AcDb2dVertex
 10
9.4332480825
 20
7.60605714
 30
0.0
  0
VERTEX
  5
45F
100
AcDbEntity
  8
0
100
AcDbVertex
100
AcDb2dVertex
 10
9.4373325942
 20
7.613498945
 30
0.0
  0
VERTEX
  5
460
100
AcDbEntity
  8
0
100
AcDbVertex
100
AcDb2dVertex
 10
9.4401338955
 20
7.6211360326
 30
0.0
  0
VERTEX
  5
461
100
AcDbEntity
  8
0
100
AcDbVertex
100
AcDb2dVertex
 10
9.441625013
 20
7.6288948548
 30
0.0
  0
VERTEX
  5
462
100
AcDbEntity
  8
0
100
AcDbVertex
100
AcDb2dVertex
 10
9.4418847363
 20
7.6337765046
 30
0.0
  0
SEQEND
  5
463
100
AcDbEntity
  8
0
  0
POLYLINE
  5
464
100
AcDbEntity
  8
0
  6
CONTINUOUS
 62
         7
100
AcDb2dPolyline
 66
         1
 10
0.0
 20
0.0
 30
0.0
 70
       128
  0
VERTEX
  5
465
100
AcDbEntity
  8
0
100
AcDbVertex
100
AcDb2dVertex
 10
9.1365047209
 20
7.6933950755
 30
0.0
  0
VERTEX
  5
466
100
AcDbEntity
  8
0
100
AcDbVertex
100
AcDb2dVertex
 10
9.1286445941
 20
7.6853111242
 30
0.0
  0
VERTEX
  5
467
100
AcDbEntity
  8
0
100
AcDbVertex
100
AcDb2dVertex
 10
9.1219520149
 20
7.6768842147
 30
0.0
  0
VERTEX
  5
468
100
AcDbEntity
  8
0
100
AcDbVertex
100
AcDb2dVertex
 10
9.1164715348
 20
7.6681704251
 30
0.0
  0
VERTEX
  5
469
100
AcDbEntity
  8
0
100
AcDbVertex
100
AcDb2dVertex
 10
9.1162026617
 20
7.6676777484
 30
0.0
  0
SEQEND
  5
46A
100
AcDbEntity
  8
0
  0
POLYLINE
  5
46B
100
AcDbEntity
  8
0
  6
CONTINUOUS
 62
         7
100
AcDb2dPolyline
 66
         1
 10
0.0
 20
0.0
 30
0.0
 70
       128
  0
VERTEX
  5
46C
100
AcDbEntity
  8
0
100
AcDbVertex
100
AcDb2dVertex
 10
9.1162521394
 20
7.5997840127
 30
0.0
  0
VERTEX
  5
46D
100
AcDbEntity
  8
0
100
AcDbVertex
100
AcDb2dVertex
 10
9.1188595285
 20
7.5953100982
 30
0.0
  0
VERTEX
  5
46E
100
AcDbEntity
  8
0
100
AcDbVertex
100
AcDb2dVertex
 10
9.1249070776
 20
7.5867222314
 30
0.0
  0
VERTEX
  5
46F
100
AcDbEntity
  8
0
100
AcDbVertex
100
AcDb2dVertex
 10
9.1321470596
 20
7.578447491
 30
0.0
  0
VERTEX
  5
470
100
AcDbEntity
  8
0
100
AcDbVertex
100
AcDb2dVertex
 10
9.1405312636
 20
7.5705409735
 30
0.0
  0
VERTEX
  5
471
100
AcDbEntity
  8
0
100
AcDbVertex
100
AcDb2dVertex
 10
9.1500039464
 20
7.5630552613
 30
0.0
  0
VERTEX
  5
472
100
AcDbEntity
  8
0
100
AcDbVertex
100
AcDb2dVertex
 10
9.1605020454
 20
7.5560401902
 30
0.0
  0
VERTEX
  5
473
100
AcDbEntity
  8
0
100
AcDbVertex
100
AcDb2dVertex
 10
9.1719556792
 20
7.549542447
 30
0.0
  0
VERTEX
  5
474
100
AcDbEntity
  8
0
100
AcDbVertex
100
AcDb2dVertex
 10
9.1842886515
 20
7.5436052626
 30
0.0
  0
VERTEX
  5
475
100
AcDbEntity
  8
0
100
AcDbVertex
100
AcDb2dVertex
 10
9.1974188758
 20
7.5382681636
 30
0.0
  0
VERTEX
  5
476
100
AcDbEntity
  8
0
100
AcDbVertex
100
AcDb2dVertex
 10
9.2112589514
 20
7.5335666471
 30
0.0
  0
VERTEX
  5
477
100
AcDbEntity
  8
0
100
AcDbVertex
100
AcDb2dVertex
 10
9.2257168299
 20
7.52953201
 30
0.0
  0
VERTEX
  5
478
100
AcDbEntity
  8
0
100
AcDbVertex
100
AcDb2dVertex
 10
9.2406962599
 20
7.5261910955
 30
0.0
  0
VERTEX
  5
479
100
AcDbEntity
  8
0
100
AcDbVertex
100
AcDb2dVertex
 10
9.2560975488
 20
7.5235661671
 30
0.0
  0
VERTEX
  5
47A
100
AcDbEntity
  8
0
100
AcDbVertex
100
AcDb2dVertex
 10
9.2718182404
 20
7.5216746474
 30
0.0
  0
VERTEX
  5
47B
100
AcDbEntity
  8
0
100
AcDbVertex
100
AcDb2dVertex
 10
9.2877536569
 20
7.5205291787
 30
0.0
  0
VERTEX
  5
47C
100
AcDbEntity
  8
0
100
AcDbVertex
100
AcDb2dVertex
 10
9.3037978135
 20
7.5201373119
 30
0.0
  0
VERTEX
  5
47D
100
AcDbEntity
  8
0
100
AcDbVertex
100
AcDb2dVertex
 10
9.3198438939
 20
7.5205017182
 30
0.0
  0
VERTEX
  5
47E
100
AcDbEntity
  8
0
100
AcDbVertex
100
AcDb2dVertex
 10
9.3357851526
 20
7.5216199416
 30
0.0
  0
VERTEX
  5
47F
100
AcDbEntity
  8
0
100
AcDbVertex
100
AcDb2dVertex
 10
9.3515154573
 20
7.5234845579
 30
0.0
  0
VERTEX
  5
480
100
AcDbEntity
  8
0
100
AcDbVertex
100
AcDb2dVertex
 10
9.3669301502
 20
7.5260831397
 30
0.0
  0
VERTEX
  5
481
100
AcDbEntity
  8
0
100
AcDbVertex
100
AcDb2dVertex
 10
9.3819266768
 20
7.5293984087
 30
0.0
  0
VERTEX
  5
482
100
AcDbEntity
  8
0
100
AcDbVertex
100
AcDb2dVertex
 10
9.3964051735
 20
7.5334082919
 30
0.0
  0
VERTEX
  5
483
100
AcDbEntity
  8
0
100
AcDbVertex
100
AcDb2dVertex
 10
9.4102693591
 20
7.5380861058
 30
0.0
  0
VERTEX
  5
484
100
AcDbEntity
  8
0
100
AcDbVertex
100
AcDb2dVertex
 10
9.4234269064
 20
7.5434007298
 30
0.0
  0
VERTEX
  5
485
100
AcDbEntity
  8
0
100
AcDbVertex
100
AcDb2dVertex
 10
9.4357903014
 20
7.5493167954
 30
0.0
  0
VERTEX
  5
486
100
AcDbEntity
  8
0
100
AcDbVertex
100
AcDb2dVertex
 10
9.4472772393
 20
7.5557949225
 30
0.0
  0
VERTEX
  5
487
100
AcDbEntity
  8
0
100
AcDbVertex
100
AcDb2dVertex
 10
9.4578112866
 20
7.5627920056
 30
0.0
  0
VERTEX
  5
488
100
AcDbEntity
  8
0
100
AcDbVertex
100
AcDb2dVertex
 10
9.4673223452
 20
7.5702614662
 30
0.0
  0
VERTEX
  5
489
100
AcDbEntity
  8
0
100
AcDbVertex
100
AcDb2dVertex
 10
9.4757470965
 20
7.5781536232
 30
0.0
  0
VERTEX
  5
48A
100
AcDbEntity
  8
0
100
AcDbVertex
100
AcDb2dVertex
 10
9.4830295156
 20
7.5864159356
 30
0.0
  0
VERTEX
  5
48B
100
AcDbEntity
  8
0
100
AcDbVertex
100
AcDb2dVertex
 10
9.4891211238
 20
7.5949934129
 30
0.0
  0
VERTEX
  5
48C
100
AcDbEntity
  8
0
100
AcDbVertex
100
AcDb2dVertex
 10
9.4939813472
 20
7.6038290044
 30
0.0
  0
VERTEX
  5
48D
100
AcDbEntity
  8
0
100
AcDbVertex
100
AcDb2dVertex
 10
9.4975779015
 20
7.6128639016
 30
0.0
  0
VERTEX
  5
48E
100
AcDbEntity
  8
0
100
AcDbVertex
100
AcDb2dVertex
 10
9.4998868124
 20
7.6220379346
 30
0.0
  0
VERTEX
  5
48F
100
AcDbEntity
  8
0
100
AcDbVertex
100
AcDb2dVertex
 10
9.5008927221
 20
7.6312901027
 30
0.0
  0
VERTEX
  5
490
100
AcDbEntity
  8
0
100
AcDbVertex
100
AcDb2dVertex
 10
9.5005889396
 20
7.6405588083
 30
0.0
  0
VERTEX
  5
491
100
AcDbEntity
  8
0
100
AcDbVertex
100
AcDb2dVertex
 10
9.4989774745
 20
7.6497824018
 30
0.0
  0
VERTEX
  5
492
100
AcDbEntity
  8
0
100
AcDbVertex
100
AcDb2dVertex
 10
9.4960690927
 20
7.6588994499
 30
0.0
  0
VERTEX
  5
493
100
AcDbEntity
  8
0
100
AcDbVertex
100
AcDb2dVertex
 10
9.4918830791
 20
7.6678493367
 30
0.0
  0
VERTEX
  5
494
100
AcDbEntity
  8
0
100
AcDbVertex
100
AcDb2dVertex
 10
9.4864473567
 20
7.676572457
 30
0.0
  0
VERTEX
  5
495
100
AcDbEntity
  8
0
100
AcDbVertex
100
AcDb2dVertex
 10
9.4797980696
 20
7.6850107815
 30
0.0
  0
VERTEX
  5
496
100
AcDbEntity
  8
0
100
AcDbVertex
100
AcDb2dVertex
 10
9.4719794539
 20
7.6931081536
 30
0.0
  0
VERTEX
  5
497
100
AcDbEntity
  8
0
100
AcDbVertex
100
AcDb2dVertex
 10
9.4630435637
 20
7.7008106795
 30
0.0
  0
VERTEX
  5
498
100
AcDbEntity
  8
0
100
AcDbVertex
100
AcDb2dVertex
 10
9.4530498702
 20
7.7080671102
 30
0.0
  0
VERTEX
  5
499
100
AcDbEntity
  8
0
100
AcDbVertex
100
AcDb2dVertex
 10
9.442064884
 20
7.7148291432
 30
0.0
  0
VERTEX
  5
49A
100
AcDbEntity
  8
0
100
AcDbVertex
100
AcDb2dVertex
 10
9.441884738
 20
7.7149312
 30
0.0
  0
SEQEND
  5
49B
100
AcDbEntity
  8
0
  0
POLYLINE
  5
49C
100
AcDbEntity
  8
0
  6
CONTINUOUS
 62
         7
100
AcDb2dPolyline
 66
         1
 10
0.0
 20
0.0
 30
0.0
 70
       128
  0
VERTEX
  5
49D
100
AcDbEntity
  8
0
100
AcDbVertex
100
AcDb2dVertex
 10
9.1662941761
 20
7.7149312108
 30
0.0
  0
VERTEX
  5
49E
100
AcDbEntity
  8
0
100
AcDbVertex
100
AcDb2dVertex
 10
9.155511004
 20
7.7083215855
 30
0.0
  0
VERTEX
  5
49F
100
AcDbEntity
  8
0
100
AcDbVertex
100
AcDb2dVertex
 10
9.1454800955
 20
7.7010822922
 30
0.0
  0
VERTEX
  5
4A0
100
AcDbEntity
  8
0
100
AcDbVertex
100
AcDb2dVertex
 10
9.1365047209
 20
7.6933950755
 30
0.0
  0
SEQEND
  5
4A1
100
AcDbEntity
  8
0
  0
POLYLINE
  5
4A2
100
AcDbEntity
  8
0
  6
CONTINUOUS
 62
         7
100
AcDb2dPolyline
 66
         1
 10
0.0
 20
0.0
 30
0.0
 70
       128
  0
VERTEX
  5
4A3
100
AcDbEntity
  8
0
100
AcDbVertex
100
AcDb2dVertex
 10
9.1162521298
 20
7.5676367355
 30
0.0
  0
VERTEX
  5
4A4
100
AcDbEntity
  8
0
100
AcDbVertex
100
AcDb2dVertex
 10
9.1188595312
 20
7.5631628295
 30
0.0
  0
VERTEX
  5
4A5
100
AcDbEntity
  8
0
100
AcDbVertex
100
AcDb2dVertex
 10
9.1249070809
 20
7.5545749475
 30
0.0
  0
VERTEX
  5
4A6
100
AcDbEntity
  8
0
100
AcDbVertex
100
AcDb2dVertex
 10
9.1321470493
 20
7.5463002292
 30
0.0
  0
VERTEX
  5
4A7
100
AcDbEntity
  8
0
100
AcDbVertex
100
AcDb2dVertex
 10
9.1405312663
 20
7.5383937048
 30
0.0
  0
VERTEX
  5
4A8
100
AcDbEntity
  8
0
100
AcDbVertex
100
AcDb2dVertex
 10
9.1500039491
 20
7.5309079926
 30
0.0
  0
VERTEX
  5
4A9
100
AcDbEntity
  8
0
100
AcDbVertex
100
AcDb2dVertex
 10
9.1605020487
 20
7.5238929062
 30
0.0
  0
VERTEX
  5
4AA
100
AcDbEntity
  8
0
100
AcDbVertex
100
AcDb2dVertex
 10
9.1719556819
 20
7.5173951783
 30
0.0
  0
VERTEX
  5
4AB
100
AcDbEntity
  8
0
100
AcDbVertex
100
AcDb2dVertex
 10
9.1842886548
 20
7.5114579787
 30
0.0
  0
VERTEX
  5
4AC
100
AcDbEntity
  8
0
100
AcDbVertex
100
AcDb2dVertex
 10
9.1974188791
 20
7.5061208796
 30
0.0
  0
VERTEX
  5
4AD
100
AcDbEntity
  8
0
100
AcDbVertex
100
AcDb2dVertex
 10
9.2112589541
 20
7.5014193784
 30
0.0
  0
VERTEX
  5
4AE
100
AcDbEntity
  8
0
100
AcDbVertex
100
AcDb2dVertex
 10
9.2257168332
 20
7.497384726
 30
0.0
  0
VERTEX
  5
4AF
100
AcDbEntity
  8
0
100
AcDbVertex
100
AcDb2dVertex
 10
9.2406962626
 20
7.4940438268
 30
0.0
  0
VERTEX
  5
4B0
100
AcDbEntity
  8
0
100
AcDbVertex
100
AcDb2dVertex
 10
9.2560975515
 20
7.4914188984
 30
0.0
  0
VERTEX
  5
4B1
100
AcDbEntity
  8
0
100
AcDbVertex
100
AcDb2dVertex
 10
9.2718182172
 20
7.4895273924
 30
0.0
  0
VERTEX
  5
4B2
100
AcDbEntity
  8
0
100
AcDbVertex
100
AcDb2dVertex
 10
9.2877536602
 20
7.4883818948
 30
0.0
  0
VERTEX
  5
4B3
100
AcDbEntity
  8
0
100
AcDbVertex
100
AcDb2dVertex
 10
9.3037978162
 20
7.4879900432
 30
0.0
  0
VERTEX
  5
4B4
100
AcDbEntity
  8
0
100
AcDbVertex
100
AcDb2dVertex
 10
9.3198438967
 20
7.4883544495
 30
0.0
  0
VERTEX
  5
4B5
100
AcDbEntity
  8
0
100
AcDbVertex
100
AcDb2dVertex
 10
9.33578513
 20
7.4894726712
 30
0.0
  0
VERTEX
  5
4B6
100
AcDbEntity
  8
0
100
AcDbVertex
100
AcDb2dVertex
 10
9.3515154606
 20
7.4913372739
 30
0.0
  0
VERTEX
  5
4B7
100
AcDbEntity
  8
0
100
AcDbVertex
100
AcDb2dVertex
 10
9.3669301529
 20
7.493935871
 30
0.0
  0
VERTEX
  5
4B8
100
AcDbEntity
  8
0
100
AcDbVertex
100
AcDb2dVertex
 10
9.3819266542
 20
7.4972511384
 30
0.0
  0
VERTEX
  5
4B9
100
AcDbEntity
  8
0
100
AcDbVertex
100
AcDb2dVertex
 10
9.3964051762
 20
7.5012610232
 30
0.0
  0
VERTEX
  5
4BA
100
AcDbEntity
  8
0
100
AcDbVertex
100
AcDb2dVertex
 10
9.410269336
 20
7.5059388508
 30
0.0
  0
VERTEX
  5
4BB
100
AcDbEntity
  8
0
100
AcDbVertex
100
AcDb2dVertex
 10
9.4234269091
 20
7.5112534611
 30
0.0
  0
VERTEX
  5
4BC
100
AcDbEntity
  8
0
100
AcDbVertex
100
AcDb2dVertex
 10
9.4357903047
 20
7.5171695114
 30
0.0
  0
VERTEX
  5
4BD
100
AcDbEntity
  8
0
100
AcDbVertex
100
AcDb2dVertex
 10
9.4472772426
 20
7.5236476385
 30
0.0
  0
VERTEX
  5
4BE
100
AcDbEntity
  8
0
100
AcDbVertex
100
AcDb2dVertex
 10
9.4578112899
 20
7.5306447216
 30
0.0
  0
VERTEX
  5
4BF
100
AcDbEntity
  8
0
100
AcDbVertex
100
AcDb2dVertex
 10
9.4673223485
 20
7.5381141822
 30
0.0
  0
VERTEX
  5
4C0
100
AcDbEntity
  8
0
100
AcDbVertex
100
AcDb2dVertex
 10
9.4757470992
 20
7.5460063545
 30
0.0
  0
VERTEX
  5
4C1
100
AcDbEntity
  8
0
100
AcDbVertex
100
AcDb2dVertex
 10
9.4830295189
 20
7.5542686516
 30
0.0
  0
VERTEX
  5
4C2
100
AcDbEntity
  8
0
100
AcDbVertex
100
AcDb2dVertex
 10
9.4891211265
 20
7.5628461442
 30
0.0
  0
VERTEX
  5
4C3
100
AcDbEntity
  8
0
100
AcDbVertex
100
AcDb2dVertex
 10
9.4939813499
 20
7.5716817357
 30
0.0
  0
VERTEX
  5
4C4
100
AcDbEntity
  8
0
100
AcDbVertex
100
AcDb2dVertex
 10
9.4975779048
 20
7.5807166176
 30
0.0
  0
VERTEX
  5
4C5
100
AcDbEntity
  8
0
100
AcDbVertex
100
AcDb2dVertex
 10
9.4998868151
 20
7.5898906659
 30
0.0
  0
VERTEX
  5
4C6
100
AcDbEntity
  8
0
100
AcDbVertex
100
AcDb2dVertex
 10
9.5008927254
 20
7.5991428187
 30
0.0
  0
VERTEX
  5
4C7
100
AcDbEntity
  8
0
100
AcDbVertex
100
AcDb2dVertex
 10
9.5009398528
 20
7.6016292251
 30
0.0
  0
SEQEND
  5
4C8
100
AcDbEntity
  8
0
  0
POLYLINE
  5
4C9
100
AcDbEntity
  8
0
  6
CONTINUOUS
 62
         7
100
AcDb2dPolyline
 66
         1
 10
0.0
 20
0.0
 30
0.0
 70
       128
  0
VERTEX
  5
4CA
100
AcDbEntity
  8
0
100
AcDbVertex
100
AcDb2dVertex
 10
8.8586678474
 20
7.328419183
 30
0.0
  0
VERTEX
  5
4CB
100
AcDbEntity
  8
0
100
AcDbVertex
100
AcDb2dVertex
 10
8.8509241167
 20
7.3323395738
 30
0.0
  0
VERTEX
  5
4CC
100
AcDbEntity
  8
0
100
AcDbVertex
100
AcDb2dVertex
 10
8.8423602302
 20
7.3356429283
 30
0.0
  0
VERTEX
  5
4CD
100
AcDbEntity
  8
0
100
AcDbVertex
100
AcDb2dVertex
 10
8.8331227175
 20
7.3382727446
 30
0.0
  0
VERTEX
  5
4CE
100
AcDbEntity
  8
0
100
AcDbVertex
100
AcDb2dVertex
 10
8.8233696148
 20
7.3401839866
 30
0.0
  0
VERTEX
  5
4CF
100
AcDbEntity
  8
0
100
AcDbVertex
100
AcDb2dVertex
 10
8.8132678193
 20
7.3413439783
 30
0.0
  0
VERTEX
  5
4D0
100
AcDbEntity
  8
0
100
AcDbVertex
100
AcDb2dVertex
 10
8.8029901581
 20
7.3417328633
 30
0.0
  0
VERTEX
  5
4D1
100
AcDbEntity
  8
0
100
AcDbVertex
100
AcDb2dVertex
 10
8.7927125072
 20
7.3413439814
 30
0.0
  0
VERTEX
  5
4D2
100
AcDbEntity
  8
0
100
AcDbVertex
100
AcDb2dVertex
 10
8.7826106926
 20
7.3401839861
 30
0.0
  0
VERTEX
  5
4D3
100
AcDbEntity
  8
0
100
AcDbVertex
100
AcDb2dVertex
 10
8.7728576109
 20
7.3382727464
 30
0.0
  0
VERTEX
  5
4D4
100
AcDbEntity
  8
0
100
AcDbVertex
100
AcDb2dVertex
 10
8.7636200789
 20
7.3356429326
 30
0.0
  0
VERTEX
  5
4D5
100
AcDbEntity
  8
0
100
AcDbVertex
100
AcDb2dVertex
 10
8.7550561984
 20
7.3323395904
 30
0.0
  0
VERTEX
  5
4D6
100
AcDbEntity
  8
0
100
AcDbVertex
100
AcDb2dVertex
 10
8.7473124422
 20
7.3284191693
 30
0.0
  0
VERTEX
  5
4D7
100
AcDbEntity
  8
0
100
AcDbVertex
100
AcDb2dVertex
 10
8.7405213952
 20
7.3239488271
 30
0.0
  0
VERTEX
  5
4D8
100
AcDbEntity
  8
0
100
AcDbVertex
100
AcDb2dVertex
 10
8.7347991637
 20
7.3190049724
 30
0.0
  0
VERTEX
  5
4D9
100
AcDbEntity
  8
0
100
AcDbVertex
100
AcDb2dVertex
 10
8.7302437403
 20
7.3136722826
 30
0.0
  0
VERTEX
  5
4DA
100
AcDbEntity
  8
0
100
AcDbVertex
100
AcDb2dVertex
 10
8.7269329841
 20
7.3080419292
 30
0.0
  0
VERTEX
  5
4DB
100
AcDbEntity
  8
0
100
AcDbVertex
100
AcDb2dVertex
 10
8.7249236467
 20
7.3022103052
 30
0.0
  0
VERTEX
  5
4DC
100
AcDbEntity
  8
0
100
AcDbVertex
100
AcDb2dVertex
 10
8.7242499877
 20
7.2962771304
 30
0.0
  0
VERTEX
  5
4DD
100
AcDbEntity
  8
0
100
AcDbVertex
100
AcDb2dVertex
 10
8.7249236587
 20
7.29034398
 30
0.0
  0
VERTEX
  5
4DE
100
AcDbEntity
  8
0
100
AcDbVertex
100
AcDb2dVertex
 10
8.7269330311
 20
7.2845123319
 30
0.0
  0
VERTEX
  5
4DF
100
AcDbEntity
  8
0
100
AcDbVertex
100
AcDb2dVertex
 10
8.7302437277
 20
7.278881968
 30
0.0
  0
VERTEX
  5
4E0
100
AcDbEntity
  8
0
100
AcDbVertex
100
AcDb2dVertex
 10
8.7347991705
 20
7.2735492502
 30
0.0
  0
VERTEX
  5
4E1
100
AcDbEntity
  8
0
100
AcDbVertex
100
AcDb2dVertex
 10
8.7405213597
 20
7.2686054188
 30
0.0
  0
VERTEX
  5
4E2
100
AcDbEntity
  8
0
100
AcDbVertex
100
AcDb2dVertex
 10
8.7411210715
 20
7.2681600228
 30
0.0
  0
SEQEND
  5
4E3
100
AcDbEntity
  8
0
  0
POLYLINE
  5
4E4
100
AcDbEntity
  8
0
  6
CONTINUOUS
 62
         7
100
AcDb2dPolyline
 66
         1
 10
0.0
 20
0.0
 30
0.0
 70
       128
  0
VERTEX
  5
4E5
100
AcDbEntity
  8
0
100
AcDbVertex
100
AcDb2dVertex
 10
8.8648592121
 20
7.2681600023
 30
0.0
  0
VERTEX
  5
4E6
100
AcDbEntity
  8
0
100
AcDbVertex
100
AcDb2dVertex
 10
8.8654589481
 20
7.2686054329
 30
0.0
  0
VERTEX
  5
4E7
100
AcDbEntity
  8
0
100
AcDbVertex
100
AcDb2dVertex
 10
8.8711811406
 20
7.2735492508
 30
0.0
  0
VERTEX
  5
4E8
100
AcDbEntity
  8
0
100
AcDbVertex
100
AcDb2dVertex
 10
8.8757365765
 20
7.2788819778
 30
0.0
  0
VERTEX
  5
4E9
100
AcDbEntity
  8
0
100
AcDbVertex
100
AcDb2dVertex
 10
8.8790473067
 20
7.2845123162
 30
0.0
  0
VERTEX
  5
4EA
100
AcDbEntity
  8
0
100
AcDbVertex
100
AcDb2dVertex
 10
8.881056683
 20
7.2903439769
 30
0.0
  0
VERTEX
  5
4EB
100
AcDbEntity
  8
0
100
AcDbVertex
100
AcDb2dVertex
 10
8.8817303161
 20
7.2962771367
 30
0.0
  0
VERTEX
  5
4EC
100
AcDbEntity
  8
0
100
AcDbVertex
100
AcDb2dVertex
 10
8.8810566969
 20
7.3022102885
 30
0.0
  0
VERTEX
  5
4ED
100
AcDbEntity
  8
0
100
AcDbVertex
100
AcDb2dVertex
 10
8.8790472992
 20
7.3080419349
 30
0.0
  0
VERTEX
  5
4EE
100
AcDbEntity
  8
0
100
AcDbVertex
100
AcDb2dVertex
 10
8.8757365766
 20
7.3136722839
 30
0.0
  0
VERTEX
  5
4EF
100
AcDbEntity
  8
0
100
AcDbVertex
100
AcDb2dVertex
 10
8.8711811339
 20
7.3190049731
 30
0.0
  0
VERTEX
  5
4F0
100
AcDbEntity
  8
0
100
AcDbVertex
100
AcDb2dVertex
 10
8.8654589188
 20
7.3239488181
 30
0.0
  0
VERTEX
  5
4F1
100
AcDbEntity
  8
0
100
AcDbVertex
100
AcDb2dVertex
 10
8.8586678474
 20
7.328419183
 30
0.0
  0
SEQEND
  5
4F2
100
AcDbEntity
  8
0
  0
POLYLINE
  5
4F3
100
AcDbEntity
  8
0
  6
CONTINUOUS
 62
         7
100
AcDb2dPolyline
 66
         1
 10
0.0
 20
0.0
 30
0.0
 70
       128
  0
VERTEX
  5
4F4
100
AcDbEntity
  8
0
100
AcDbVertex
100
AcDb2dVertex
 10
8.7403425752
 20
7.3243942438
 30
0.0
  0
VERTEX
  5
4F5
100
AcDbEntity
  8
0
100
AcDbVertex
100
AcDb2dVertex
 10
8.7384535282
 20
7.3232694153
 30
0.0
  0
VERTEX
  5
4F6
100
AcDbEntity
  8
0
100
AcDbVertex
100
AcDb2dVertex
 10
8.7314859541
 20
7.3184255605
 30
0.0
  0
VERTEX
  5
4F7
100
AcDbEntity
  8
0
100
AcDbVertex
100
AcDb2dVertex
 10
8.7256023309
 20
7.3131241185
 30
0.0
  0
VERTEX
  5
4F8
100
AcDbEntity
  8
0
100
AcDbVertex
100
AcDb2dVertex
 10
8.7208918614
 20
7.3074454952
 30
0.0
  0
VERTEX
  5
4F9
100
AcDbEntity
  8
0
100
AcDbVertex
100
AcDb2dVertex
 10
8.7174258843
 20
7.3014757375
 30
0.0
  0
VERTEX
  5
4FA
100
AcDbEntity
  8
0
100
AcDbVertex
100
AcDb2dVertex
 10
8.7152569552
 20
7.2953052979
 30
0.0
  0
VERTEX
  5
4FB
100
AcDbEntity
  8
0
100
AcDbVertex
100
AcDb2dVertex
 10
8.7144180022
 20
7.2890278069
 30
0.0
  0
VERTEX
  5
4FC
100
AcDbEntity
  8
0
100
AcDbVertex
100
AcDb2dVertex
 10
8.7144150046
 20
7.2875747202
 30
0.0
  0
SEQEND
  5
4FD
100
AcDbEntity
  8
0
  0
POLYLINE
  5
4FE
100
AcDbEntity
  8
0
  6
CONTINUOUS
 62
         7
100
AcDb2dPolyline
 66
         1
 10
0.0
 20
0.0
 30
0.0
 70
       128
  0
VERTEX
  5
4FF
100
AcDbEntity
  8
0
100
AcDbVertex
100
AcDb2dVertex
 10
8.8915653389
 20
7.2875747204
 30
0.0
  0
VERTEX
  5
500
100
AcDbEntity
  8
0
100
AcDbVertex
100
AcDb2dVertex
 10
8.8914783154
 20
7.2906020159
 30
0.0
  0
VERTEX
  5
501
100
AcDbEntity
  8
0
100
AcDbVertex
100
AcDb2dVertex
 10
8.8903048745
 20
7.2968616308
 30
0.0
  0
VERTEX
  5
502
100
AcDbEntity
  8
0
100
AcDbVertex
100
AcDb2dVertex
 10
8.8878078449
 20
7.3029905665
 30
0.0
  0
VERTEX
  5
503
100
AcDbEntity
  8
0
100
AcDbVertex
100
AcDb2dVertex
 10
8.8840250476
 20
7.3088958938
 30
0.0
  0
VERTEX
  5
504
100
AcDbEntity
  8
0
100
AcDbVertex
100
AcDb2dVertex
 10
8.8790138596
 20
7.3144881094
 30
0.0
  0
VERTEX
  5
505
100
AcDbEntity
  8
0
100
AcDbVertex
100
AcDb2dVertex
 10
8.8728501989
 20
7.3196824348
 30
0.0
  0
VERTEX
  5
506
100
AcDbEntity
  8
0
100
AcDbVertex
100
AcDb2dVertex
 10
8.8656275681
 20
7.3244001338
 30
0.0
  0
SEQEND
  5
507
100
AcDbEntity
  8
0
  0
LINE
  5
508
100
AcDbEntity
  8
0
  6
CONTINUOUS
 62
         7
100
AcDbLine
 10
8.7701213361
 20
7.3152518729
 30
0.0
 11
8.7580905333
 21
7.2893319018
 31
0.0
  0
LINE
  5
509
100
AcDbEntity
  8
0
  6
CONTINUOUS
 62
         7
100
AcDbLine
 10
8.7580905333
 20
7.2893319018
 30
0.0
 11
8.7909593497
 21
7.2703571329
 31
0.0
  0
LINE
  5
50A
100
AcDbEntity
  8
0
  6
CONTINUOUS
 62
         7
100
AcDbLine
 10
8.8358589553
 20
7.2773023571
 30
0.0
 11
8.7909593497
 21
7.2703571329
 31
0.0
  0
LINE
  5
50B
100
AcDbEntity
  8
0
  6
CONTINUOUS
 62
         7
100
AcDbLine
 10
8.8478897964
 20
7.3032223803
 30
0.0
 11
8.8358589553
 21
7.2773023571
 31
0.0
  0
LINE
  5
50C
100
AcDbEntity
  8
0
  6
CONTINUOUS
 62
         7
100
AcDbLine
 10
8.8478897964
 20
7.3032223803
 30
0.0
 11
8.8150209801
 21
7.3221971492
 31
0.0
  0
LINE
  5
50D
100
AcDbEntity
  8
0
  6
CONTINUOUS
 62
         7
100
AcDbLine
 10
8.7701213361
 20
7.3152518729
 30
0.0
 11
8.8150209801
 21
7.3221971492
 31
0.0
  0
LINE
  5
50E
100
AcDbEntity
  8
0
  6
CONTINUOUS
 62
         7
100
AcDbLine
 10
8.8324211983
 20
7.2767706007
 30
0.0
 11
8.8314553833
 21
7.2773477479
 31
0.0
  0
POLYLINE
  5
50F
100
AcDbEntity
  8
0
  6
CONTINUOUS
 62
         7
100
AcDb2dPolyline
 66
         1
 10
0.0
 20
0.0
 30
0.0
 70
       128
  0
VERTEX
  5
510
100
AcDbEntity
  8
0
100
AcDbVertex
100
AcDb2dVertex
 10
8.7925711886
 20
7.2833625206
 30
0.0
  0
VERTEX
  5
511
100
AcDbEntity
  8
0
100
AcDbVertex
100
AcDb2dVertex
 10
8.7875849158
 20
7.2823853894
 30
0.0
  0
VERTEX
  5
512
100
AcDbEntity
  8
0
100
AcDbVertex
100
AcDb2dVertex
 10
8.7828621893
 20
7.2810408906
 30
0.0
  0
VERTEX
  5
513
100
AcDbEntity
  8
0
100
AcDbVertex
100
AcDb2dVertex
 10
8.7784839342
 20
7.2793520543
 30
0.0
  0
VERTEX
  5
514
100
AcDbEntity
  8
0
100
AcDbVertex
100
AcDb2dVertex
 10
8.7767696941
 20
7.2785486419
 30
0.0
  0
SEQEND
  5
515
100
AcDbEntity
  8
0
  0
POLYLINE
  5
516
100
AcDbEntity
  8
0
  6
CONTINUOUS
 62
         7
100
AcDb2dPolyline
 66
         1
 10
0.0
 20
0.0
 30
0.0
 70
       128
  0
VERTEX
  5
517
100
AcDbEntity
  8
0
100
AcDbVertex
100
AcDb2dVertex
 10
8.8314553993
 20
7.2773477559
 30
0.0
  0
VERTEX
  5
518
100
AcDbEntity
  8
0
100
AcDbVertex
100
AcDb2dVertex
 10
8.8274964042
 20
7.2793520568
 30
0.0
  0
VERTEX
  5
519
100
AcDbEntity
  8
0
100
AcDbVertex
100
AcDb2dVertex
 10
8.8231181289
 20
7.2810408978
 30
0.0
  0
VERTEX
  5
51A
100
AcDbEntity
  8
0
100
AcDbVertex
100
AcDb2dVertex
 10
8.8183954331
 20
7.2823853872
 30
0.0
  0
VERTEX
  5
51B
100
AcDbEntity
  8
0
100
AcDbVertex
100
AcDb2dVertex
 10
8.8134091649
 20
7.2833625117
 30
0.0
  0
VERTEX
  5
51C
100
AcDbEntity
  8
0
100
AcDbVertex
100
AcDb2dVertex
 10
8.8082446021
 20
7.2839555473
 30
0.0
  0
VERTEX
  5
51D
100
AcDbEntity
  8
0
100
AcDbVertex
100
AcDb2dVertex
 10
8.8029901547
 20
7.284154372
 30
0.0
  0
VERTEX
  5
51E
100
AcDbEntity
  8
0
100
AcDbVertex
100
AcDb2dVertex
 10
8.7977357071
 20
7.2839555364
 30
0.0
  0
VERTEX
  5
51F
100
AcDbEntity
  8
0
100
AcDbVertex
100
AcDb2dVertex
 10
8.7925711886
 20
7.2833625206
 30
0.0
  0
SEQEND
  5
520
100
AcDbEntity
  8
0
  0
LINE
  5
521
100
AcDbEntity
  8
0
  6
CONTINUOUS
 62
         7
100
AcDbLine
 10
8.7701213399
 20
7.2823866267
 30
0.0
 11
8.7701213361
 21
7.3152518729
 31
0.0
  0
LINE
  5
522
100
AcDbEntity
  8
0
  6
CONTINUOUS
 62
         7
100
AcDbLine
 10
8.8324211983
 20
7.2767706007
 30
0.0
 11
8.8314553833
 21
7.2773477479
 31
0.0
  0
LINE
  5
523
100
AcDbEntity
  8
0
  6
CONTINUOUS
 62
         7
100
AcDbLine
 10
8.8314553833
 20
7.2773477479
 30
0.0
 11
8.8150209917
 21
7.2868351251
 31
0.0
  0
LINE
  5
524
100
AcDbEntity
  8
0
  6
CONTINUOUS
 62
         7
100
AcDbLine
 10
8.8150209917
 20
7.2868351251
 30
0.0
 11
8.8150209801
 21
7.3221971492
 31
0.0
  0
LINE
  5
525
100
AcDbEntity
  8
0
  6
CONTINUOUS
 62
         7
100
AcDbLine
 10
8.7925711645
 20
7.2833625057
 30
0.0
 11
8.8150209917
 21
7.2868351251
 31
0.0
  0
LINE
  5
526
100
AcDbEntity
  8
0
  6
CONTINUOUS
 62
         7
100
AcDbLine
 10
8.7735323631
 20
7.2804175162
 30
0.0
 11
8.7925711645
 21
7.2833625057
 31
0.0
  0
LINE
  5
527
100
AcDbEntity
  8
0
  6
CONTINUOUS
 62
         7
100
AcDbLine
 10
8.970023292
 20
6.6051420688
 30
0.0
 11
9.8608664454
 21
7.1194148746
 31
0.0
  0
LINE
  5
528
100
AcDbEntity
  8
0
  6
CONTINUOUS
 62
         7
100
AcDbLine
 10
8.4689239864
 20
6.8944205362
 30
0.0
 11
8.970023292
 21
6.6051420688
 31
0.0
  0
LINE
  5
529
100
AcDbEntity
  8
0
  6
CONTINUOUS
 62
         7
100
AcDbLine
 10
8.970023292
 20
5.9461228503
 30
0.0
 11
8.7049818878
 21
6.0991280141
 31
0.0
  0
LINE
  5
52A
100
AcDbEntity
  8
0
  6
CONTINUOUS
 62
         7
100
AcDbLine
 10
8.4689239882
 20
6.5401892923
 30
0.0
 11
8.4689239864
 21
6.8944205362
 31
0.0
  0
LINE
  5
52B
100
AcDbEntity
  8
0
  6
CONTINUOUS
 62
         7
100
AcDbLine
 10
8.970023292
 20
6.6051420688
 30
0.0
 11
8.970023292
 21
5.9461228503
 31
0.0
  0
POLYLINE
  5
52C
100
AcDbEntity
  8
0
  6
CONTINUOUS
 62
         7
100
AcDb2dPolyline
 66
         1
 10
0.0
 20
0.0
 30
0.0
 70
       128
  0
VERTEX
  5
52D
100
AcDbEntity
  8
0
100
AcDbVertex
100
AcDb2dVertex
 10
8.5787652711
 20
6.603599372
 30
0.0
  0
VERTEX
  5
52E
100
AcDbEntity
  8
0
100
AcDbVertex
100
AcDb2dVertex
 10
8.585784831
 20
6.6093424155
 30
0.0
  0
VERTEX
  5
52F
100
AcDbEntity
  8
0
100
AcDbVertex
100
AcDb2dVertex
 10
8.5946318291
 20
6.6150202395
 30
0.0
  0
VERTEX
  5
530
100
AcDbEntity
  8
0
100
AcDbVertex
100
AcDb2dVertex
 10
8.6041296998
 20
6.6195570906
 30
0.0
  0
VERTEX
  5
531
100
AcDbEntity
  8
0
100
AcDbVertex
100
AcDb2dVertex
 10
8.6142289225
 20
6.6229291582
 30
0.0
  0
VERTEX
  5
532
100
AcDbEntity
  8
0
100
AcDbVertex
100
AcDb2dVertex
 10
8.6248768406
 20
6.6251190768
 30
0.0
  0
VERTEX
  5
533
100
AcDbEntity
  8
0
100
AcDbVertex
100
AcDb2dVertex
 10
8.6360179343
 20
6.6261152432
 30
0.0
  0
VERTEX
  5
534
100
AcDbEntity
  8
0
100
AcDbVertex
100
AcDb2dVertex
 10
8.6475941361
 20
6.625912549
 30
0.0
  0
VERTEX
  5
535
100
AcDbEntity
  8
0
100
AcDbVertex
100
AcDb2dVertex
 10
8.6595450927
 20
6.624512004
 30
0.0
  0
VERTEX
  5
536
100
AcDbEntity
  8
0
100
AcDbVertex
100
AcDb2dVertex
 10
8.6718084724
 20
6.6219209931
 30
0.0
  0
VERTEX
  5
537
100
AcDbEntity
  8
0
100
AcDbVertex
100
AcDb2dVertex
 10
8.684320369
 20
6.6181530043
 30
0.0
  0
VERTEX
  5
538
100
AcDbEntity
  8
0
100
AcDbVertex
100
AcDb2dVertex
 10
8.6970155328
 20
6.613227567
 30
0.0
  0
VERTEX
  5
539
100
AcDbEntity
  8
0
100
AcDbVertex
100
AcDb2dVertex
 10
8.7098277791
 20
6.6071705163
 30
0.0
  0
VERTEX
  5
53A
100
AcDbEntity
  8
0
100
AcDbVertex
100
AcDb2dVertex
 10
8.7226903182
 20
6.6000133406
 30
0.0
  0
VERTEX
  5
53B
100
AcDbEntity
  8
0
100
AcDbVertex
100
AcDb2dVertex
 10
8.7355360776
 20
6.5917933708
 30
0.0
  0
VERTEX
  5
53C
100
AcDbEntity
  8
0
100
AcDbVertex
100
AcDb2dVertex
 10
8.7482981213
 20
6.5825534401
 30
0.0
  0
VERTEX
  5
53D
100
AcDbEntity
  8
0
100
AcDbVertex
100
AcDb2dVertex
 10
8.76090987
 20
6.5723417683
 30
0.0
  0
VERTEX
  5
53E
100
AcDbEntity
  8
0
100
AcDbVertex
100
AcDb2dVertex
 10
8.7733055721
 20
6.5612115943
 30
0.0
  0
VERTEX
  5
53F
100
AcDbEntity
  8
0
100
AcDbVertex
100
AcDb2dVertex
 10
8.7854206444
 20
6.5492208761
 30
0.0
  0
VERTEX
  5
540
100
AcDbEntity
  8
0
100
AcDbVertex
100
AcDb2dVertex
 10
8.7971919037
 20
6.5364322299
 30
0.0
  0
VERTEX
  5
541
100
AcDbEntity
  8
0
100
AcDbVertex
100
AcDb2dVertex
 10
8.808557947
 20
6.5229122496
 30
0.0
  0
VERTEX
  5
542
100
AcDbEntity
  8
0
100
AcDbVertex
100
AcDb2dVertex
 10
8.8194595597
 20
6.5087314727
 30
0.0
  0
VERTEX
  5
543
100
AcDbEntity
  8
0
100
AcDbVertex
100
AcDb2dVertex
 10
8.8298399171
 20
6.493963734
 30
0.0
  0
VERTEX
  5
544
100
AcDbEntity
  8
0
100
AcDbVertex
100
AcDb2dVertex
 10
8.8396448368
 20
6.4786862134
 30
0.0
  0
VERTEX
  5
545
100
AcDbEntity
  8
0
100
AcDbVertex
100
AcDb2dVertex
 10
8.8488232509
 20
6.4629783475
 30
0.0
  0
VERTEX
  5
546
100
AcDbEntity
  8
0
100
AcDbVertex
100
AcDb2dVertex
 10
8.8573273221
 20
6.446922129
 30
0.0
  0
VERTEX
  5
547
100
AcDbEntity
  8
0
100
AcDbVertex
100
AcDb2dVertex
 10
8.8651126496
 20
6.4306013382
 30
0.0
  0
VERTEX
  5
548
100
AcDbEntity
  8
0
100
AcDbVertex
100
AcDb2dVertex
 10
8.872138698
 20
6.4141009583
 30
0.0
  0
VERTEX
  5
549
100
AcDbEntity
  8
0
100
AcDbVertex
100
AcDb2dVertex
 10
8.8783688275
 20
6.3975070393
 30
0.0
  0
VERTEX
  5
54A
100
AcDbEntity
  8
0
100
AcDbVertex
100
AcDb2dVertex
 10
8.8837705449
 20
6.3809060866
 30
0.0
  0
VERTEX
  5
54B
100
AcDbEntity
  8
0
100
AcDbVertex
100
AcDb2dVertex
 10
8.8883157209
 20
6.3643847069
 30
0.0
  0
VERTEX
  5
54C
100
AcDbEntity
  8
0
100
AcDbVertex
100
AcDb2dVertex
 10
8.8919805862
 20
6.3480290107
 30
0.0
  0
VERTEX
  5
54D
100
AcDbEntity
  8
0
100
AcDbVertex
100
AcDb2dVertex
 10
8.8947461017
 20
6.3319242378
 30
0.0
  0
VERTEX
  5
54E
100
AcDbEntity
  8
0
100
AcDbVertex
100
AcDb2dVertex
 10
8.8965978492
 20
6.3161542757
 30
0.0
  0
VERTEX
  5
54F
100
AcDbEntity
  8
0
100
AcDbVertex
100
AcDb2dVertex
 10
8.8975261115
 20
6.3008015567
 30
0.0
  0
VERTEX
  5
550
100
AcDbEntity
  8
0
100
AcDbVertex
100
AcDb2dVertex
 10
8.8975261187
 20
6.2859459104
 30
0.0
  0
VERTEX
  5
551
100
AcDbEntity
  8
0
100
AcDbVertex
100
AcDb2dVertex
 10
8.8965978316
 20
6.2716649163
 30
0.0
  0
VERTEX
  5
552
100
AcDbEntity
  8
0
100
AcDbVertex
100
AcDb2dVertex
 10
8.8947461036
 20
6.2580329807
 30
0.0
  0
VERTEX
  5
553
100
AcDbEntity
  8
0
100
AcDbVertex
100
AcDb2dVertex
 10
8.8919806072
 20
6.2451212544
 30
0.0
  0
VERTEX
  5
554
100
AcDbEntity
  8
0
100
AcDbVertex
100
AcDb2dVertex
 10
8.8883157111
 20
6.232996859
 30
0.0
  0
VERTEX
  5
555
100
AcDbEntity
  8
0
100
AcDbVertex
100
AcDb2dVertex
 10
8.8837705436
 20
6.2217232125
 30
0.0
  0
VERTEX
  5
556
100
AcDbEntity
  8
0
100
AcDbVertex
100
AcDb2dVertex
 10
8.8783688321
 20
6.211358916
 30
0.0
  0
VERTEX
  5
557
100
AcDbEntity
  8
0
100
AcDbVertex
100
AcDb2dVertex
 10
8.8721387069
 20
6.2019582153
 30
0.0
  0
VERTEX
  5
558
100
AcDbEntity
  8
0
100
AcDbVertex
100
AcDb2dVertex
 10
8.8651126658
 20
6.1935699417
 30
0.0
  0
VERTEX
  5
559
100
AcDbEntity
  8
0
100
AcDbVertex
100
AcDb2dVertex
 10
8.8573273053
 20
6.1862378927
 30
0.0
  0
VERTEX
  5
55A
100
AcDbEntity
  8
0
100
AcDbVertex
100
AcDb2dVertex
 10
8.8488232659
 20
6.1800002614
 30
0.0
  0
VERTEX
  5
55B
100
AcDbEntity
  8
0
100
AcDbVertex
100
AcDb2dVertex
 10
8.8396448529
 20
6.1748895965
 30
0.0
  0
VERTEX
  5
55C
100
AcDbEntity
  8
0
100
AcDbVertex
100
AcDb2dVertex
 10
8.8298398949
 20
6.1709325169
 30
0.0
  0
VERTEX
  5
55D
100
AcDbEntity
  8
0
100
AcDbVertex
100
AcDb2dVertex
 10
8.8287449446
 20
6.1705749651
 30
0.0
  0
SEQEND
  5
55E
100
AcDbEntity
  8
0
  0
LINE
  5
55F
100
AcDbEntity
  8
0
  6
CONTINUOUS
 62
         7
100
AcDbLine
 10
8.970023292
 20
5.9461228503
 30
0.0
 11
9.8608664454
 21
6.4603956561
 31
0.0
  0
LINE
  5
560
100
AcDbEntity
  8
0
  6
CONTINUOUS
 62
         7
100
AcDbLine
 10
9.8608664454
 20
7.1194148746
 30
0.0
 11
9.8608664454
 21
6.4603956561
 31
0.0
  0
LINE
  5
561
100
AcDbEntity
  8
0
  6
CONTINUOUS
 62
         7
100
AcDbLine
 10
8.9700232958
 20
7.1194984627
 30
0.0
 11
9.8608664492
 21
7.6337712686
 31
0.0
  0
LINE
  5
562
100
AcDbEntity
  8
0
  6
CONTINUOUS
 62
         7
100
AcDbLine
 10
8.4689239867
 20
7.408776932
 30
0.0
 11
8.9700232958
 21
7.1194984627
 31
0.0
  0
LINE
  5
563
100
AcDbEntity
  8
0
  6
CONTINUOUS
 62
         7
100
AcDbLine
 10
9.1662941788
 20
7.8113601747
 30
0.0
 11
9.0017294984
 21
7.7163590068
 31
0.0
  0
LINE
  5
564
100
AcDbEntity
  8
0
  6
CONTINUOUS
 62
         7
100
AcDbLine
 10
8.9383803638
 20
7.6797883299
 30
0.0
 11
8.4689239867
 21
7.408776932
 31
0.0
  0
LINE
  5
565
100
AcDbEntity
  8
0
  6
CONTINUOUS
 62
         7
100
AcDbLine
 10
9.8608664492
 20
7.6337712686
 30
0.0
 11
9.4418847163
 21
7.8756442765
 31
0.0
  0
POLYLINE
  5
566
100
AcDbEntity
  8
0
  6
CONTINUOUS
 62
         7
100
AcDb2dPolyline
 66
         1
 10
0.0
 20
0.0
 30
0.0
 70
       128
  0
VERTEX
  5
567
100
AcDbEntity
  8
0
100
AcDbVertex
100
AcDb2dVertex
 10
8.7333930193
 20
7.3525283281
 30
0.0
  0
VERTEX
  5
568
100
AcDbEntity
  8
0
100
AcDbVertex
100
AcDb2dVertex
 10
8.725783894
 20
7.3475923326
 30
0.0
  0
VERTEX
  5
569
100
AcDbEntity
  8
0
100
AcDbVertex
100
AcDb2dVertex
 10
8.7192188399
 20
7.3421797607
 30
0.0
  0
VERTEX
  5
56A
100
AcDbEntity
  8
0
100
AcDbVertex
100
AcDb2dVertex
 10
8.7137866517
 20
7.3363638083
 30
0.0
  0
VERTEX
  5
56B
100
AcDbEntity
  8
0
100
AcDbVertex
100
AcDb2dVertex
 10
8.7095607498
 20
7.3302230864
 30
0.0
  0
VERTEX
  5
56C
100
AcDbEntity
  8
0
100
AcDbVertex
100
AcDb2dVertex
 10
8.7065983773
 20
7.3238406984
 30
0.0
  0
VERTEX
  5
56D
100
AcDbEntity
  8
0
100
AcDbVertex
100
AcDb2dVertex
 10
8.7049394857
 20
7.3173029074
 30
0.0
  0
VERTEX
  5
56E
100
AcDbEntity
  8
0
100
AcDbVertex
100
AcDb2dVertex
 10
8.7046066064
 20
7.3106981864
 30
0.0
  0
VERTEX
  5
56F
100
AcDbEntity
  8
0
100
AcDbVertex
100
AcDb2dVertex
 10
8.705604178
 20
7.3041157963
 30
0.0
  0
VERTEX
  5
570
100
AcDbEntity
  8
0
100
AcDbVertex
100
AcDb2dVertex
 10
8.7079187396
 20
7.2976447679
 30
0.0
  0
VERTEX
  5
571
100
AcDbEntity
  8
0
100
AcDbVertex
100
AcDb2dVertex
 10
8.7115189083
 20
7.2913725923
 30
0.0
  0
VERTEX
  5
572
100
AcDbEntity
  8
0
100
AcDbVertex
100
AcDb2dVertex
 10
8.7163561957
 20
7.2853841475
 30
0.0
  0
VERTEX
  5
573
100
AcDbEntity
  8
0
100
AcDbVertex
100
AcDb2dVertex
 10
8.7223649713
 20
7.2797603534
 30
0.0
  0
VERTEX
  5
574
100
AcDbEntity
  8
0
100
AcDbVertex
100
AcDb2dVertex
 10
8.7294640822
 20
7.2745773046
 30
0.0
  0
VERTEX
  5
575
100
AcDbEntity
  8
0
100
AcDbVertex
100
AcDb2dVertex
 10
8.73755752
 20
7.2699050533
 30
0.0
  0
VERTEX
  5
576
100
AcDbEntity
  8
0
100
AcDbVertex
100
AcDb2dVertex
 10
8.7465357903
 20
7.2658068487
 30
0.0
  0
VERTEX
  5
577
100
AcDbEntity
  8
0
100
AcDbVertex
100
AcDb2dVertex
 10
8.7562775539
 20
7.2623380342
 30
0.0
  0
VERTEX
  5
578
100
AcDbEntity
  8
0
100
AcDbVertex
100
AcDb2dVertex
 10
8.766650945
 20
7.2595455426
 30
0.0
  0
VERTEX
  5
579
100
AcDbEntity
  8
0
100
AcDbVertex
100
AcDb2dVertex
 10
8.7775158579
 20
7.2574672002
 30
0.0
  0
VERTEX
  5
57A
100
AcDbEntity
  8
0
100
AcDbVertex
100
AcDb2dVertex
 10
8.7887252167
 20
7.2561310432
 30
0.0
  0
VERTEX
  5
57B
100
AcDbEntity
  8
0
100
AcDbVertex
100
AcDb2dVertex
 10
8.8001274934
 20
7.2555551472
 30
0.0
  0
VERTEX
  5
57C
100
AcDbEntity
  8
0
100
AcDbVertex
100
AcDb2dVertex
 10
8.8115684695
 20
7.255747314
 30
0.0
  0
VERTEX
  5
57D
100
AcDbEntity
  8
0
100
AcDbVertex
100
AcDb2dVertex
 10
8.82289347
 20
7.2567049786
 30
0.0
  0
VERTEX
  5
57E
100
AcDbEntity
  8
0
100
AcDbVertex
100
AcDb2dVertex
 10
8.8339492803
 20
7.2584151153
 30
0.0
  0
VERTEX
  5
57F
100
AcDbEntity
  8
0
100
AcDbVertex
100
AcDb2dVertex
 10
8.8445864557
 20
7.2608546797
 30
0.0
  0
VERTEX
  5
580
100
AcDbEntity
  8
0
100
AcDbVertex
100
AcDb2dVertex
 10
8.8546610851
 20
7.2639906081
 30
0.0
  0
VERTEX
  5
581
100
AcDbEntity
  8
0
100
AcDbVertex
100
AcDb2dVertex
 10
8.8640369694
 20
7.2677805298
 30
0.0
  0
VERTEX
  5
582
100
AcDbEntity
  8
0
100
AcDbVertex
100
AcDb2dVertex
 10
8.8725872559
 20
7.2721731928
 30
0.0
  0
VERTEX
  5
583
100
AcDbEntity
  8
0
100
AcDbVertex
100
AcDb2dVertex
 10
8.8801964589
 20
7.2771092046
 30
0.0
  0
VERTEX
  5
584
100
AcDbEntity
  8
0
100
AcDbVertex
100
AcDb2dVertex
 10
8.8867615001
 20
7.2825217833
 30
0.0
  0
VERTEX
  5
585
100
AcDbEntity
  8
0
100
AcDbVertex
100
AcDb2dVertex
 10
8.8921936753
 20
7.2883377425
 30
0.0
  0
VERTEX
  5
586
100
AcDbEntity
  8
0
100
AcDbVertex
100
AcDb2dVertex
 10
8.8964195642
 20
7.2944784426
 30
0.0
  0
VERTEX
  5
587
100
AcDbEntity
  8
0
100
AcDbVertex
100
AcDb2dVertex
 10
8.8993819627
 20
7.3008608455
 30
0.0
  0
VERTEX
  5
588
100
AcDbEntity
  8
0
100
AcDbVertex
100
AcDb2dVertex
 10
8.9010408154
 20
7.3073985999
 30
0.0
  0
VERTEX
  5
589
100
AcDbEntity
  8
0
100
AcDbVertex
100
AcDb2dVertex
 10
8.9013737076
 20
7.3140033426
 30
0.0
  0
VERTEX
  5
58A
100
AcDbEntity
  8
0
100
AcDbVertex
100
AcDb2dVertex
 10
8.900376149
 20
7.3205857544
 30
0.0
  0
VERTEX
  5
58B
100
AcDbEntity
  8
0
100
AcDbVertex
100
AcDb2dVertex
 10
8.8980616004
 20
7.3270567761
 30
0.0
  0
VERTEX
  5
58C
100
AcDbEntity
  8
0
100
AcDbVertex
100
AcDb2dVertex
 10
8.8944613668
 20
7.3333289286
 30
0.0
  0
VERTEX
  5
58D
100
AcDbEntity
  8
0
100
AcDbVertex
100
AcDb2dVertex
 10
8.8896241572
 20
7.3393173897
 30
0.0
  0
VERTEX
  5
58E
100
AcDbEntity
  8
0
100
AcDbVertex
100
AcDb2dVertex
 10
8.8836153557
 20
7.3449411974
 30
0.0
  0
VERTEX
  5
58F
100
AcDbEntity
  8
0
100
AcDbVertex
100
AcDb2dVertex
 10
8.8765162707
 20
7.3501242325
 30
0.0
  0
VERTEX
  5
590
100
AcDbEntity
  8
0
100
AcDbVertex
100
AcDb2dVertex
 10
8.8684228329
 20
7.3547964839
 30
0.0
  0
VERTEX
  5
591
100
AcDbEntity
  8
0
100
AcDbVertex
100
AcDb2dVertex
 10
8.8594445367
 20
7.3588947021
 30
0.0
  0
VERTEX
  5
592
100
AcDbEntity
  8
0
100
AcDbVertex
100
AcDb2dVertex
 10
8.849702799
 20
7.362363503
 30
0.0
  0
VERTEX
  5
593
100
AcDbEntity
  8
0
100
AcDbVertex
100
AcDb2dVertex
 10
8.8393293301
 20
7.3651559782
 30
0.0
  0
VERTEX
  5
594
100
AcDbEntity
  8
0
100
AcDbVertex
100
AcDb2dVertex
 10
8.8284644821
 20
7.3672343438
 30
0.0
  0
VERTEX
  5
595
100
AcDbEntity
  8
0
100
AcDbVertex
100
AcDb2dVertex
 10
8.8172551103
 20
7.3685705076
 30
0.0
  0
VERTEX
  5
596
100
AcDbEntity
  8
0
100
AcDbVertex
100
AcDb2dVertex
 10
8.8058528206
 20
7.3691463818
 30
0.0
  0
VERTEX
  5
597
100
AcDbEntity
  8
0
100
AcDbVertex
100
AcDb2dVertex
 10
8.7944118315
 20
7.3689541932
 30
0.0
  0
VERTEX
  5
598
100
AcDbEntity
  8
0
100
AcDbVertex
100
AcDb2dVertex
 10
8.78308687
 20
7.3679965654
 30
0.0
  0
VERTEX
  5
599
100
AcDbEntity
  8
0
100
AcDbVertex
100
AcDb2dVertex
 10
8.7720310337
 20
7.3662864137
 30
0.0
  0
VERTEX
  5
59A
100
AcDbEntity
  8
0
100
AcDbVertex
100
AcDb2dVertex
 10
8.7613938713
 20
7.3638468711
 30
0.0
  0
VERTEX
  5
59B
100
AcDbEntity
  8
0
100
AcDbVertex
100
AcDb2dVertex
 10
8.7513192549
 20
7.3607109358
 30
0.0
  0
VERTEX
  5
59C
100
AcDbEntity
  8
0
100
AcDbVertex
100
AcDb2dVertex
 10
8.7419433836
 20
7.3569210073
 30
0.0
  0
VERTEX
  5
59D
100
AcDbEntity
  8
0
100
AcDbVertex
100
AcDb2dVertex
 10
8.7333930193
 20
7.3525283281
 30
0.0
  0
SEQEND
  5
59E
100
AcDbEntity
  8
0
  0
POLYLINE
  5
59F
100
AcDbEntity
  8
0
  6
CONTINUOUS
 62
         7
100
AcDb2dPolyline
 66
         1
 10
0.0
 20
0.0
 30
0.0
 70
       128
  0
VERTEX
  5
5A0
100
AcDbEntity
  8
0
100
AcDbVertex
100
AcDb2dVertex
 10
9.4572031252
 20
7.7703750081
 30
0.0
  0
VERTEX
  5
5A1
100
AcDbEntity
  8
0
100
AcDbVertex
100
AcDb2dVertex
 10
9.449593974
 20
7.7654389976
 30
0.0
  0
VERTEX
  5
5A2
100
AcDbEntity
  8
0
100
AcDbVertex
100
AcDb2dVertex
 10
9.4430289199
 20
7.7600264258
 30
0.0
  0
VERTEX
  5
5A3
100
AcDbEntity
  8
0
100
AcDbVertex
100
AcDb2dVertex
 10
9.4418847459
 20
7.7589280038
 30
0.0
  0
SEQEND
  5
5A4
100
AcDbEntity
  8
0
  0
POLYLINE
  5
5A5
100
AcDbEntity
  8
0
  6
CONTINUOUS
 62
         7
100
AcDb2dPolyline
 66
         1
 10
0.0
 20
0.0
 30
0.0
 70
       128
  0
VERTEX
  5
5A6
100
AcDbEntity
  8
0
100
AcDbVertex
100
AcDb2dVertex
 10
9.485108199
 20
7.6787271612
 30
0.0
  0
VERTEX
  5
5A7
100
AcDbEntity
  8
0
100
AcDbVertex
100
AcDb2dVertex
 10
9.4904610639
 20
7.6773922301
 30
0.0
  0
VERTEX
  5
5A8
100
AcDbEntity
  8
0
100
AcDbVertex
100
AcDb2dVertex
 10
9.5013259379
 20
7.6753138653
 30
0.0
  0
VERTEX
  5
5A9
100
AcDbEntity
  8
0
100
AcDbVertex
100
AcDb2dVertex
 10
9.5125352967
 20
7.6739777083
 30
0.0
  0
VERTEX
  5
5AA
100
AcDbEntity
  8
0
100
AcDbVertex
100
AcDb2dVertex
 10
9.5239375734
 20
7.6734018123
 30
0.0
  0
VERTEX
  5
5AB
100
AcDbEntity
  8
0
100
AcDbVertex
100
AcDb2dVertex
 10
9.5353785754
 20
7.6735939941
 30
0.0
  0
VERTEX
  5
5AC
100
AcDbEntity
  8
0
100
AcDbVertex
100
AcDb2dVertex
 10
9.54670355
 20
7.6745516437
 30
0.0
  0
VERTEX
  5
5AD
100
AcDbEntity
  8
0
100
AcDbVertex
100
AcDb2dVertex
 10
9.5577593862
 20
7.6762617953
 30
0.0
  0
VERTEX
  5
5AE
100
AcDbEntity
  8
0
100
AcDbVertex
100
AcDb2dVertex
 10
9.5683965357
 20
7.6787013447
 30
0.0
  0
VERTEX
  5
5AF
100
AcDbEntity
  8
0
100
AcDbVertex
100
AcDb2dVertex
 10
9.5784711651
 20
7.6818372732
 30
0.0
  0
VERTEX
  5
5B0
100
AcDbEntity
  8
0
100
AcDbVertex
100
AcDb2dVertex
 10
9.5878470493
 20
7.6856271949
 30
0.0
  0
VERTEX
  5
5B1
100
AcDbEntity
  8
0
100
AcDbVertex
100
AcDb2dVertex
 10
9.5963973618
 20
7.6900198728
 30
0.0
  0
VERTEX
  5
5B2
100
AcDbEntity
  8
0
100
AcDbVertex
100
AcDb2dVertex
 10
9.6040065389
 20
7.6949558696
 30
0.0
  0
VERTEX
  5
5B3
100
AcDbEntity
  8
0
100
AcDbVertex
100
AcDb2dVertex
 10
9.6105715801
 20
7.7003684483
 30
0.0
  0
VERTEX
  5
5B4
100
AcDbEntity
  8
0
100
AcDbVertex
100
AcDb2dVertex
 10
9.6160037553
 20
7.7061844076
 30
0.0
  0
VERTEX
  5
5B5
100
AcDbEntity
  8
0
100
AcDbVertex
100
AcDb2dVertex
 10
9.6202296442
 20
7.7123251076
 30
0.0
  0
VERTEX
  5
5B6
100
AcDbEntity
  8
0
100
AcDbVertex
100
AcDb2dVertex
 10
9.6231920427
 20
7.7187075106
 30
0.0
  0
VERTEX
  5
5B7
100
AcDbEntity
  8
0
100
AcDbVertex
100
AcDb2dVertex
 10
9.6248509213
 20
7.7252452799
 30
0.0
  0
VERTEX
  5
5B8
100
AcDbEntity
  8
0
100
AcDbVertex
100
AcDb2dVertex
 10
9.6251838135
 20
7.7318500226
 30
0.0
  0
VERTEX
  5
5B9
100
AcDbEntity
  8
0
100
AcDbVertex
100
AcDb2dVertex
 10
9.624186229
 20
7.7384324195
 30
0.0
  0
VERTEX
  5
5BA
100
AcDbEntity
  8
0
100
AcDbVertex
100
AcDb2dVertex
 10
9.6218716804
 20
7.7449034412
 30
0.0
  0
VERTEX
  5
5BB
100
AcDbEntity
  8
0
100
AcDbVertex
100
AcDb2dVertex
 10
9.6182714727
 20
7.7511756086
 30
0.0
  0
VERTEX
  5
5BC
100
AcDbEntity
  8
0
100
AcDbVertex
100
AcDb2dVertex
 10
9.6134342631
 20
7.7571640697
 30
0.0
  0
VERTEX
  5
5BD
100
AcDbEntity
  8
0
100
AcDbVertex
100
AcDb2dVertex
 10
9.6074254357
 20
7.7627878625
 30
0.0
  0
VERTEX
  5
5BE
100
AcDbEntity
  8
0
100
AcDbVertex
100
AcDb2dVertex
 10
9.6003263507
 20
7.7679708976
 30
0.0
  0
VERTEX
  5
5BF
100
AcDbEntity
  8
0
100
AcDbVertex
100
AcDb2dVertex
 10
9.5922329129
 20
7.7726431489
 30
0.0
  0
VERTEX
  5
5C0
100
AcDbEntity
  8
0
100
AcDbVertex
100
AcDb2dVertex
 10
9.5832546167
 20
7.7767413671
 30
0.0
  0
VERTEX
  5
5C1
100
AcDbEntity
  8
0
100
AcDbVertex
100
AcDb2dVertex
 10
9.5735129049
 20
7.780210183
 30
0.0
  0
VERTEX
  5
5C2
100
AcDbEntity
  8
0
100
AcDbVertex
100
AcDb2dVertex
 10
9.5631394361
 20
7.7830026583
 30
0.0
  0
VERTEX
  5
5C3
100
AcDbEntity
  8
0
100
AcDbVertex
100
AcDb2dVertex
 10
9.5522745621
 20
7.7850810088
 30
0.0
  0
VERTEX
  5
5C4
100
AcDbEntity
  8
0
100
AcDbVertex
100
AcDb2dVertex
 10
9.5410651903
 20
7.7864171726
 30
0.0
  0
VERTEX
  5
5C5
100
AcDbEntity
  8
0
100
AcDbVertex
100
AcDb2dVertex
 10
9.5296629266
 20
7.7869930618
 30
0.0
  0
VERTEX
  5
5C6
100
AcDbEntity
  8
0
100
AcDbVertex
100
AcDb2dVertex
 10
9.5182219374
 20
7.7868008732
 30
0.0
  0
VERTEX
  5
5C7
100
AcDbEntity
  8
0
100
AcDbVertex
100
AcDb2dVertex
 10
9.5068969499
 20
7.7858432304
 30
0.0
  0
VERTEX
  5
5C8
100
AcDbEntity
  8
0
100
AcDbVertex
100
AcDb2dVertex
 10
9.4958411137
 20
7.7841330788
 30
0.0
  0
VERTEX
  5
5C9
100
AcDbEntity
  8
0
100
AcDbVertex
100
AcDb2dVertex
 10
9.4852039513
 20
7.7816935362
 30
0.0
  0
VERTEX
  5
5CA
100
AcDbEntity
  8
0
100
AcDbVertex
100
AcDb2dVertex
 10
9.4751293349
 20
7.7785576009
 30
0.0
  0
VERTEX
  5
5CB
100
AcDbEntity
  8
0
100
AcDbVertex
100
AcDb2dVertex
 10
9.4657534635
 20
7.7747676724
 30
0.0
  0
VERTEX
  5
5CC
100
AcDbEntity
  8
0
100
AcDbVertex
100
AcDb2dVertex
 10
9.4572031252
 20
7.7703750081
 30
0.0
  0
VERTEX
  5
5CD
100
AcDbEntity
  8
0
100
AcDbVertex
100
AcDb2dVertex
 10
9.4572031252
 20
7.7703750081
 30
0.0
  0
SEQEND
  5
5CE
100
AcDbEntity
  8
0
  0
LINE
  5
5CF
100
AcDbEntity
  8
0
  6
CONTINUOUS
 62
         7
100
AcDbLine
 10
8.970023292
 20
6.6051420688
 30
0.0
 11
8.9700232958
 21
7.1194984627
 31
0.0
  0
LINE
  5
5D0
100
AcDbEntity
  8
0
  6
CONTINUOUS
 62
         7
100
AcDbLine
 10
8.4689239864
 20
6.8944205362
 30
0.0
 11
8.970023292
 21
6.6051420688
 31
0.0
  0
LINE
  5
5D1
100
AcDbEntity
  8
0
  6
CONTINUOUS
 62
         7
100
AcDbLine
 10
8.4689239864
 20
6.8944205362
 30
0.0
 11
8.4689239867
 21
7.408776932
 31
0.0
  0
LINE
  5
5D2
100
AcDbEntity
  8
0
  6
CONTINUOUS
 62
         7
100
AcDbLine
 10
9.8608664454
 20
7.1194148746
 30
0.0
 11
9.8608664492
 21
7.6337712686
 31
0.0
  0
LINE
  5
5D3
100
AcDbEntity
  8
0
  6
CONTINUOUS
 62
         7
100
AcDbLine
 10
8.970023292
 20
6.6051420688
 30
0.0
 11
9.8608664454
 21
7.1194148746
 31
0.0
  0
POLYLINE
  5
5D4
100
AcDbEntity
  8
0
  6
CONTINUOUS
 62
         7
100
AcDb2dPolyline
 66
         1
 10
0.0
 20
0.0
 30
0.0
 70
       128
  0
VERTEX
  5
5D5
100
AcDbEntity
  8
0
100
AcDbVertex
100
AcDb2dVertex
 10
8.2955299646
 20
5.9101203361
 30
0.0
  0
VERTEX
  5
5D6
100
AcDbEntity
  8
0
100
AcDbVertex
100
AcDb2dVertex
 10
8.3010317232
 20
5.9190952612
 30
0.0
  0
VERTEX
  5
5D7
100
AcDbEntity
  8
0
100
AcDbVertex
100
AcDb2dVertex
 10
8.3057015032
 20
5.9290062887
 30
0.0
  0
VERTEX
  5
5D8
100
AcDbEntity
  8
0
100
AcDbVertex
100
AcDb2dVertex
 10
8.3095112462
 20
5.9397938601
 30
0.0
  0
VERTEX
  5
5D9
100
AcDbEntity
  8
0
100
AcDbVertex
100
AcDb2dVertex
 10
8.3124380241
 20
5.9513929603
 30
0.0
  0
VERTEX
  5
5DA
100
AcDbEntity
  8
0
100
AcDbVertex
100
AcDb2dVertex
 10
8.3144642662
 20
5.9637338372
 30
0.0
  0
VERTEX
  5
5DB
100
AcDbEntity
  8
0
100
AcDbVertex
100
AcDb2dVertex
 10
8.3155777452
 20
5.9767423687
 30
0.0
  0
VERTEX
  5
5DC
100
AcDbEntity
  8
0
100
AcDbVertex
100
AcDb2dVertex
 10
8.315771771
 20
5.9903403202
 30
0.0
  0
VERTEX
  5
5DD
100
AcDbEntity
  8
0
100
AcDbVertex
100
AcDb2dVertex
 10
8.3150451718
 20
6.0044458342
 30
0.0
  0
VERTEX
  5
5DE
100
AcDbEntity
  8
0
100
AcDbVertex
100
AcDb2dVertex
 10
8.3134023449
 20
6.0189741229
 30
0.0
  0
VERTEX
  5
5DF
100
AcDbEntity
  8
0
100
AcDbVertex
100
AcDb2dVertex
 10
8.3108531696
 20
6.0338377535
 30
0.0
  0
VERTEX
  5
5E0
100
AcDbEntity
  8
0
100
AcDbVertex
100
AcDb2dVertex
 10
8.3074129559
 20
6.0489473346
 30
0.0
  0
VERTEX
  5
5E1
100
AcDbEntity
  8
0
100
AcDbVertex
100
AcDb2dVertex
 10
8.3031023959
 20
6.0642121416
 30
0.0
  0
VERTEX
  5
5E2
100
AcDbEntity
  8
0
100
AcDbVertex
100
AcDb2dVertex
 10
8.2979474342
 20
6.079540184
 30
0.0
  0
VERTEX
  5
5E3
100
AcDbEntity
  8
0
100
AcDbVertex
100
AcDb2dVertex
 10
8.2919790431
 20
6.0948394633
 30
0.0
  0
VERTEX
  5
5E4
100
AcDbEntity
  8
0
100
AcDbVertex
100
AcDb2dVertex
 10
8.2852331282
 20
6.1100177827
 30
0.0
  0
VERTEX
  5
5E5
100
AcDbEntity
  8
0
100
AcDbVertex
100
AcDb2dVertex
 10
8.2777502796
 20
6.1249839566
 30
0.0
  0
VERTEX
  5
5E6
100
AcDbEntity
  8
0
100
AcDbVertex
100
AcDb2dVertex
 10
8.2695754853
 20
6.1396480218
 30
0.0
  0
VERTEX
  5
5E7
100
AcDbEntity
  8
0
100
AcDbVertex
100
AcDb2dVertex
 10
8.2607578861
 20
6.1539216657
 30
0.0
  0
VERTEX
  5
5E8
100
AcDbEntity
  8
0
100
AcDbVertex
100
AcDb2dVertex
 10
8.2513505645
 20
6.167719117
 30
0.0
  0
VERTEX
  5
5E9
100
AcDbEntity
  8
0
100
AcDbVertex
100
AcDb2dVertex
 10
8.241410053
 20
6.1809574041
 30
0.0
  0
VERTEX
  5
5EA
100
AcDbEntity
  8
0
100
AcDbVertex
100
AcDb2dVertex
 10
8.2309961363
 20
6.1935568788
 30
0.0
  0
VERTEX
  5
5EB
100
AcDbEntity
  8
0
100
AcDbVertex
100
AcDb2dVertex
 10
8.2201714752
 20
6.2054417741
 30
0.0
  0
VERTEX
  5
5EC
100
AcDbEntity
  8
0
100
AcDbVertex
100
AcDb2dVertex
 10
8.2090011592
 20
6.2165406191
 30
0.0
  0
VERTEX
  5
5ED
100
AcDbEntity
  8
0
100
AcDbVertex
100
AcDb2dVertex
 10
8.1975523609
 20
6.2267866609
 30
0.0
  0
VERTEX
  5
5EE
100
AcDbEntity
  8
0
100
AcDbVertex
100
AcDb2dVertex
 10
8.1858939142
 20
6.2361182658
 30
0.0
  0
VERTEX
  5
5EF
100
AcDbEntity
  8
0
100
AcDbVertex
100
AcDb2dVertex
 10
8.1740959668
 20
6.2444794026
 30
0.0
  0
VERTEX
  5
5F0
100
AcDbEntity
  8
0
100
AcDbVertex
100
AcDb2dVertex
 10
8.1622294728
 20
6.2518196094
 30
0.0
  0
VERTEX
  5
5F1
100
AcDbEntity
  8
0
100
AcDbVertex
100
AcDb2dVertex
 10
8.1503657904
 20
6.2580949246
 30
0.0
  0
VERTEX
  5
5F2
100
AcDbEntity
  8
0
100
AcDbVertex
100
AcDb2dVertex
 10
8.1385762665
 20
6.2632674465
 30
0.0
  0
VERTEX
  5
5F3
100
AcDbEntity
  8
0
100
AcDbVertex
100
AcDb2dVertex
 10
8.1269317968
 20
6.2673062235
 30
0.0
  0
VERTEX
  5
5F4
100
AcDbEntity
  8
0
100
AcDbVertex
100
AcDb2dVertex
 10
8.1155024217
 20
6.2701868679
 30
0.0
  0
VERTEX
  5
5F5
100
AcDbEntity
  8
0
100
AcDbVertex
100
AcDb2dVertex
 10
8.1043568766
 20
6.2718920319
 30
0.0
  0
VERTEX
  5
5F6
100
AcDbEntity
  8
0
100
AcDbVertex
100
AcDb2dVertex
 10
8.0935622057
 20
6.2724115512
 30
0.0
  0
VERTEX
  5
5F7
100
AcDbEntity
  8
0
100
AcDbVertex
100
AcDb2dVertex
 10
8.0831832991
 20
6.2717422688
 30
0.0
  0
VERTEX
  5
5F8
100
AcDbEntity
  8
0
100
AcDbVertex
100
AcDb2dVertex
 10
8.0732826098
 20
6.2698881239
 30
0.0
  0
VERTEX
  5
5F9
100
AcDbEntity
  8
0
100
AcDbVertex
100
AcDb2dVertex
 10
8.0704703614
 20
6.2691187533
 30
0.0
  0
SEQEND
  5
5FA
100
AcDbEntity
  8
0
  0
POLYLINE
  5
5FB
100
AcDbEntity
  8
0
  6
CONTINUOUS
 62
         7
100
AcDb2dPolyline
 66
         1
 10
0.0
 20
0.0
 30
0.0
 70
       128
  0
VERTEX
  5
5FC
100
AcDbEntity
  8
0
100
AcDbVertex
100
AcDb2dVertex
 10
8.2849032073
 20
5.8976699011
 30
0.0
  0
VERTEX
  5
5FD
100
AcDbEntity
  8
0
100
AcDbVertex
100
AcDb2dVertex
 10
8.2892293216
 20
5.902135425
 30
0.0
  0
VERTEX
  5
5FE
100
AcDbEntity
  8
0
100
AcDbVertex
100
AcDb2dVertex
 10
8.2955299646
 20
5.9101203361
 30
0.0
  0
SEQEND
  5
5FF
100
AcDbEntity
  8
0
  0
POLYLINE
  5
600
100
AcDbEntity
  8
0
  6
CONTINUOUS
 62
         7
100
AcDb2dPolyline
 66
         1
 10
0.0
 20
0.0
 30
0.0
 70
       128
  0
VERTEX
  5
601
100
AcDbEntity
  8
0
100
AcDbVertex
100
AcDb2dVertex
 10
8.3160587445
 20
5.884678963
 30
0.0
  0
VERTEX
  5
602
100
AcDbEntity
  8
0
100
AcDbVertex
100
AcDb2dVertex
 10
8.3093147874
 20
5.8760578667
 30
0.0
  0
VERTEX
  5
603
100
AcDbEntity
  8
0
100
AcDbVertex
100
AcDb2dVertex
 10
8.3018064337
 20
5.8684726505
 30
0.0
  0
VERTEX
  5
604
100
AcDbEntity
  8
0
100
AcDbVertex
100
AcDb2dVertex
 10
8.2935728246
 20
5.8619628958
 30
0.0
  0
VERTEX
  5
605
100
AcDbEntity
  8
0
100
AcDbVertex
100
AcDb2dVertex
 10
8.2846569003
 20
5.8565623493
 30
0.0
  0
VERTEX
  5
606
100
AcDbEntity
  8
0
100
AcDbVertex
100
AcDb2dVertex
 10
8.2751051314
 20
5.8522993033
 30
0.0
  0
VERTEX
  5
607
100
AcDbEntity
  8
0
100
AcDbVertex
100
AcDb2dVertex
 10
8.2649673138
 20
5.8491959852
 30
0.0
  0
VERTEX
  5
608
100
AcDbEntity
  8
0
100
AcDbVertex
100
AcDb2dVertex
 10
8.2586463669
 20
5.8479013188
 30
0.0
  0
SEQEND
  5
609
100
AcDbEntity
  8
0
  0
POLYLINE
  5
60A
100
AcDbEntity
  8
0
  6
CONTINUOUS
 62
         7
100
AcDb2dPolyline
 66
         1
 10
0.0
 20
0.0
 30
0.0
 70
       128
  0
VERTEX
  5
60B
100
AcDbEntity
  8
0
100
AcDbVertex
100
AcDb2dVertex
 10
8.0142412041
 20
6.2712693204
 30
0.0
  0
VERTEX
  5
60C
100
AcDbEntity
  8
0
100
AcDbVertex
100
AcDb2dVertex
 10
8.0197394956
 20
6.277348269
 30
0.0
  0
VERTEX
  5
60D
100
AcDbEntity
  8
0
100
AcDbVertex
100
AcDb2dVertex
 10
8.0276156108
 20
6.2844003654
 30
0.0
  0
VERTEX
  5
60E
100
AcDbEntity
  8
0
100
AcDbVertex
100
AcDb2dVertex
 10
8.03619597
 20
6.2903594062
 30
0.0
  0
VERTEX
  5
60F
100
AcDbEntity
  8
0
100
AcDbVertex
100
AcDb2dVertex
 10
8.0454358441
 20
6.2951943242
 30
0.0
  0
VERTEX
  5
610
100
AcDbEntity
  8
0
100
AcDbVertex
100
AcDb2dVertex
 10
8.0552870611
 20
6.2988798802
 30
0.0
  0
VERTEX
  5
611
100
AcDbEntity
  8
0
100
AcDbVertex
100
AcDb2dVertex
 10
8.0656982616
 20
6.3013969469
 30
0.0
  0
VERTEX
  5
612
100
AcDbEntity
  8
0
100
AcDbVertex
100
AcDb2dVertex
 10
8.0766151758
 20
6.3027322446
 30
0.0
  0
VERTEX
  5
613
100
AcDbEntity
  8
0
100
AcDbVertex
100
AcDb2dVertex
 10
8.0879808677
 20
6.3028789307
 30
0.0
  0
VERTEX
  5
614
100
AcDbEntity
  8
0
100
AcDbVertex
100
AcDb2dVertex
 10
8.0997361046
 20
6.3018362266
 30
0.0
  0
VERTEX
  5
615
100
AcDbEntity
  8
0
100
AcDbVertex
100
AcDb2dVertex
 10
8.1118195813
 20
6.2996095385
 30
0.0
  0
VERTEX
  5
616
100
AcDbEntity
  8
0
100
AcDbVertex
100
AcDb2dVertex
 10
8.124168299
 20
6.2962104983
 30
0.0
  0
VERTEX
  5
617
100
AcDbEntity
  8
0
100
AcDbVertex
100
AcDb2dVertex
 10
8.1367179024
 20
6.2916567864
 30
0.0
  0
VERTEX
  5
618
100
AcDbEntity
  8
0
100
AcDbVertex
100
AcDb2dVertex
 10
8.1494029294
 20
6.2859722394
 30
0.0
  0
VERTEX
  5
619
100
AcDbEntity
  8
0
100
AcDbVertex
100
AcDb2dVertex
 10
8.1621572866
 20
6.2791863607
 30
0.0
  0
VERTEX
  5
61A
100
AcDbEntity
  8
0
100
AcDbVertex
100
AcDb2dVertex
 10
8.1749144403
 20
6.2713346395
 30
0.0
  0
VERTEX
  5
61B
100
AcDbEntity
  8
0
100
AcDbVertex
100
AcDb2dVertex
 10
8.1876078966
 20
6.2624579382
 30
0.0
  0
VERTEX
  5
61C
100
AcDbEntity
  8
0
100
AcDbVertex
100
AcDb2dVertex
 10
8.2001714771
 20
6.2526025874
 30
0.0
  0
VERTEX
  5
61D
100
AcDbEntity
  8
0
100
AcDbVertex
100
AcDb2dVertex
 10
8.2125396779
 20
6.2418199573
 30
0.0
  0
VERTEX
  5
61E
100
AcDbEntity
  8
0
100
AcDbVertex
100
AcDb2dVertex
 10
8.2246480343
 20
6.2301662057
 30
0.0
  0
VERTEX
  5
61F
100
AcDbEntity
  8
0
100
AcDbVertex
100
AcDb2dVertex
 10
8.2364334033
 20
6.217702189
 30
0.0
  0
VERTEX
  5
620
100
AcDbEntity
  8
0
100
AcDbVertex
100
AcDb2dVertex
 10
8.2478343192
 20
6.2044927963
 30
0.0
  0
VERTEX
  5
621
100
AcDbEntity
  8
0
100
AcDbVertex
100
AcDb2dVertex
 10
8.2587913983
 20
6.1906069756
 30
0.0
  0
VERTEX
  5
622
100
AcDbEntity
  8
0
100
AcDbVertex
100
AcDb2dVertex
 10
8.2692474658
 20
6.1761170679
 30
0.0
  0
VERTEX
  5
623
100
AcDbEntity
  8
0
100
AcDbVertex
100
AcDb2dVertex
 10
8.2791480193
 20
6.161098623
 30
0.0
  0
VERTEX
  5
624
100
AcDbEntity
  8
0
100
AcDbVertex
100
AcDb2dVertex
 10
8.288441474
 20
6.1456299713
 30
0.0
  0
VERTEX
  5
625
100
AcDbEntity
  8
0
100
AcDbVertex
100
AcDb2dVertex
 10
8.2970793336
 20
6.1297917138
 30
0.0
  0
VERTEX
  5
626
100
AcDbEntity
  8
0
100
AcDbVertex
100
AcDb2dVertex
 10
8.3050165814
 20
6.1136664566
 30
0.0
  0
VERTEX
  5
627
100
AcDbEntity
  8
0
100
AcDbVertex
100
AcDb2dVertex
 10
8.312211854
 20
6.0973382399
 30
0.0
  0
VERTEX
  5
628
100
AcDbEntity
  8
0
100
AcDbVertex
100
AcDb2dVertex
 10
8.3186276058
 20
6.0808922119
 30
0.0
  0
VERTEX
  5
629
100
AcDbEntity
  8
0
100
AcDbVertex
100
AcDb2dVertex
 10
8.3242304336
 20
6.064414098
 30
0.0
  0
VERTEX
  5
62A
100
AcDbEntity
  8
0
100
AcDbVertex
100
AcDb2dVertex
 10
8.3289910882
 20
6.0479898955
 30
0.0
  0
VERTEX
  5
62B
100
AcDbEntity
  8
0
100
AcDbVertex
100
AcDb2dVertex
 10
8.3328847584
 20
6.0317050644
 30
0.0
  0
VERTEX
  5
62C
100
AcDbEntity
  8
0
100
AcDbVertex
100
AcDb2dVertex
 10
8.3358911444
 20
6.015644609
 30
0.0
  0
VERTEX
  5
62D
100
AcDbEntity
  8
0
100
AcDbVertex
100
AcDb2dVertex
 10
8.3379945626
 20
5.9998923031
 30
0.0
  0
VERTEX
  5
62E
100
AcDbEntity
  8
0
100
AcDbVertex
100
AcDb2dVertex
 10
8.3391840633
 20
5.9845302687
 30
0.0
  0
VERTEX
  5
62F
100
AcDbEntity
  8
0
100
AcDbVertex
100
AcDb2dVertex
 10
8.3394534491
 20
5.9696384871
 30
0.0
  0
VERTEX
  5
630
100
AcDbEntity
  8
0
100
AcDbVertex
100
AcDb2dVertex
 10
8.3388013051
 20
5.9552946625
 30
0.0
  0
VERTEX
  5
631
100
AcDbEntity
  8
0
100
AcDbVertex
100
AcDb2dVertex
 10
8.3372310219
 20
5.9415736111
 30
0.0
  0
VERTEX
  5
632
100
AcDbEntity
  8
0
100
AcDbVertex
100
AcDb2dVertex
 10
8.3347508141
 20
5.9285467714
 30
0.0
  0
VERTEX
  5
633
100
AcDbEntity
  8
0
100
AcDbVertex
100
AcDb2dVertex
 10
8.3313735952
 20
5.9162821505
 30
0.0
  0
VERTEX
  5
634
100
AcDbEntity
  8
0
100
AcDbVertex
100
AcDb2dVertex
 10
8.3271169793
 20
5.9048436038
 30
0.0
  0
VERTEX
  5
635
100
AcDbEntity
  8
0
100
AcDbVertex
100
AcDb2dVertex
 10
8.3220031255
 20
5.8942909169
 30
0.0
  0
VERTEX
  5
636
100
AcDbEntity
  8
0
100
AcDbVertex
100
AcDb2dVertex
 10
8.3160587445
 20
5.884678963
 30
0.0
  0
SEQEND
  5
637
100
AcDbEntity
  8
0
  0
POLYLINE
  5
638
100
AcDbEntity
  8
0
  6
CONTINUOUS
 62
         7
100
AcDb2dPolyline
 66
         1
 10
0.0
 20
0.0
 30
0.0
 70
       128
  0
VERTEX
  5
639
100
AcDbEntity
  8
0
100
AcDbVertex
100
AcDb2dVertex
 10
9.5824779533
 20
7.746265863
 30
0.0
  0
VERTEX
  5
63A
100
AcDbEntity
  8
0
100
AcDbVertex
100
AcDb2dVertex
 10
9.5747342226
 20
7.7501862538
 30
0.0
  0
VERTEX
  5
63B
100
AcDbEntity
  8
0
100
AcDbVertex
100
AcDb2dVertex
 10
9.5661703361
 20
7.7534896083
 30
0.0
  0
VERTEX
  5
63C
100
AcDbEntity
  8
0
100
AcDbVertex
100
AcDb2dVertex
 10
9.5569327975
 20
7.7561194097
 30
0.0
  0
VERTEX
  5
63D
100
AcDbEntity
  8
0
100
AcDbVertex
100
AcDb2dVertex
 10
9.5471796948
 20
7.7580306517
 30
0.0
  0
VERTEX
  5
63E
100
AcDbEntity
  8
0
100
AcDbVertex
100
AcDb2dVertex
 10
9.5370778993
 20
7.7591906434
 30
0.0
  0
VERTEX
  5
63F
100
AcDbEntity
  8
0
100
AcDbVertex
100
AcDb2dVertex
 10
9.5268002381
 20
7.7595795283
 30
0.0
  0
VERTEX
  5
640
100
AcDbEntity
  8
0
100
AcDbVertex
100
AcDb2dVertex
 10
9.5165225872
 20
7.7591906464
 30
0.0
  0
VERTEX
  5
641
100
AcDbEntity
  8
0
100
AcDbVertex
100
AcDb2dVertex
 10
9.5064207985
 20
7.7580306661
 30
0.0
  0
VERTEX
  5
642
100
AcDbEntity
  8
0
100
AcDbVertex
100
AcDb2dVertex
 10
9.4966676909
 20
7.7561194115
 30
0.0
  0
VERTEX
  5
643
100
AcDbEntity
  8
0
100
AcDbVertex
100
AcDb2dVertex
 10
9.4874301848
 20
7.7534896126
 30
0.0
  0
VERTEX
  5
644
100
AcDbEntity
  8
0
100
AcDbVertex
100
AcDb2dVertex
 10
9.4788662784
 20
7.7501862554
 30
0.0
  0
VERTEX
  5
645
100
AcDbEntity
  8
0
100
AcDbVertex
100
AcDb2dVertex
 10
9.4711225481
 20
7.7462658494
 30
0.0
  0
VERTEX
  5
646
100
AcDbEntity
  8
0
100
AcDbVertex
100
AcDb2dVertex
 10
9.4643314751
 20
7.7417954921
 30
0.0
  0
VERTEX
  5
647
100
AcDbEntity
  8
0
100
AcDbVertex
100
AcDb2dVertex
 10
9.4586092696
 20
7.7368516524
 30
0.0
  0
VERTEX
  5
648
100
AcDbEntity
  8
0
100
AcDbVertex
100
AcDb2dVertex
 10
9.4540538462
 20
7.7315189626
 30
0.0
  0
VERTEX
  5
649
100
AcDbEntity
  8
0
100
AcDbVertex
100
AcDb2dVertex
 10
9.45074309
 20
7.7258886092
 30
0.0
  0
VERTEX
  5
64A
100
AcDbEntity
  8
0
100
AcDbVertex
100
AcDb2dVertex
 10
9.4487337267
 20
7.7200569703
 30
0.0
  0
VERTEX
  5
64B
100
AcDbEntity
  8
0
100
AcDbVertex
100
AcDb2dVertex
 10
9.4480600936
 20
7.7141238105
 30
0.0
  0
VERTEX
  5
64C
100
AcDbEntity
  8
0
100
AcDbVertex
100
AcDb2dVertex
 10
9.448226155
 20
7.7111733188
 30
0.0
  0
SEQEND
  5
64D
100
AcDbEntity
  8
0
  0
POLYLINE
  5
64E
100
AcDbEntity
  8
0
  6
CONTINUOUS
 62
         7
100
AcDb2dPolyline
 66
         1
 10
0.0
 20
0.0
 30
0.0
 70
       128
  0
VERTEX
  5
64F
100
AcDbEntity
  8
0
100
AcDbVertex
100
AcDb2dVertex
 10
9.588669318
 20
7.6860066823
 30
0.0
  0
VERTEX
  5
650
100
AcDbEntity
  8
0
100
AcDbVertex
100
AcDb2dVertex
 10
9.5892690281
 20
7.686452098
 30
0.0
  0
VERTEX
  5
651
100
AcDbEntity
  8
0
100
AcDbVertex
100
AcDb2dVertex
 10
9.5949912465
 20
7.6913959309
 30
0.0
  0
VERTEX
  5
652
100
AcDbEntity
  8
0
100
AcDbVertex
100
AcDb2dVertex
 10
9.5995466565
 20
7.6967286428
 30
0.0
  0
VERTEX
  5
653
100
AcDbEntity
  8
0
100
AcDbVertex
100
AcDb2dVertex
 10
9.6028574126
 20
7.7023589962
 30
0.0
  0
VERTEX
  5
654
100
AcDbEntity
  8
0
100
AcDbVertex
100
AcDb2dVertex
 10
9.604866763
 20
7.708190642
 30
0.0
  0
VERTEX
  5
655
100
AcDbEntity
  8
0
100
AcDbVertex
100
AcDb2dVertex
 10
9.6055403961
 20
7.7141238018
 30
0.0
  0
VERTEX
  5
656
100
AcDbEntity
  8
0
100
AcDbVertex
100
AcDb2dVertex
 10
9.6048667769
 20
7.7200569535
 30
0.0
  0
VERTEX
  5
657
100
AcDbEntity
  8
0
100
AcDbVertex
100
AcDb2dVertex
 10
9.6028573792
 20
7.7258886
 30
0.0
  0
VERTEX
  5
658
100
AcDbEntity
  8
0
100
AcDbVertex
100
AcDb2dVertex
 10
9.5995466566
 20
7.7315189489
 30
0.0
  0
VERTEX
  5
659
100
AcDbEntity
  8
0
100
AcDbVertex
100
AcDb2dVertex
 10
9.5949912398
 20
7.7368516531
 30
0.0
  0
VERTEX
  5
65A
100
AcDbEntity
  8
0
100
AcDbVertex
100
AcDb2dVertex
 10
9.5892690247
 20
7.7417954981
 30
0.0
  0
VERTEX
  5
65B
100
AcDbEntity
  8
0
100
AcDbVertex
100
AcDb2dVertex
 10
9.5824779533
 20
7.746265863
 30
0.0
  0
SEQEND
  5
65C
100
AcDbEntity
  8
0
  0
POLYLINE
  5
65D
100
AcDbEntity
  8
0
  6
CONTINUOUS
 62
         7
100
AcDb2dPolyline
 66
         1
 10
0.0
 20
0.0
 30
0.0
 70
       128
  0
VERTEX
  5
65E
100
AcDbEntity
  8
0
100
AcDbVertex
100
AcDb2dVertex
 10
9.4641526552
 20
7.7422409088
 30
0.0
  0
VERTEX
  5
65F
100
AcDbEntity
  8
0
100
AcDbVertex
100
AcDb2dVertex
 10
9.4622636341
 20
7.7411160953
 30
0.0
  0
VERTEX
  5
660
100
AcDbEntity
  8
0
100
AcDbVertex
100
AcDb2dVertex
 10
9.45529606
 20
7.7362722406
 30
0.0
  0
VERTEX
  5
661
100
AcDbEntity
  8
0
100
AcDbVertex
100
AcDb2dVertex
 10
9.4494124368
 20
7.7309707985
 30
0.0
  0
VERTEX
  5
662
100
AcDbEntity
  8
0
100
AcDbVertex
100
AcDb2dVertex
 10
9.4447019414
 20
7.7252921602
 30
0.0
  0
VERTEX
  5
663
100
AcDbEntity
  8
0
100
AcDbVertex
100
AcDb2dVertex
 10
9.4418847326
 20
7.7206484307
 30
0.0
  0
SEQEND
  5
664
100
AcDbEntity
  8
0
  0
POLYLINE
  5
665
100
AcDbEntity
  8
0
  6
CONTINUOUS
 62
         7
100
AcDb2dPolyline
 66
         1
 10
0.0
 20
0.0
 30
0.0
 70
       128
  0
VERTEX
  5
666
100
AcDbEntity
  8
0
100
AcDbVertex
100
AcDb2dVertex
 10
9.6153754189
 20
7.7054213854
 30
0.0
  0
VERTEX
  5
667
100
AcDbEntity
  8
0
100
AcDbVertex
100
AcDb2dVertex
 10
9.6152884213
 20
7.7084486959
 30
0.0
  0
VERTEX
  5
668
100
AcDbEntity
  8
0
100
AcDbVertex
100
AcDb2dVertex
 10
9.6141149804
 20
7.7147083108
 30
0.0
  0
VERTEX
  5
669
100
AcDbEntity
  8
0
100
AcDbVertex
100
AcDb2dVertex
 10
9.6116179249
 20
7.7208372316
 30
0.0
  0
VERTEX
  5
66A
100
AcDbEntity
  8
0
100
AcDbVertex
100
AcDb2dVertex
 10
9.6078351276
 20
7.7267425588
 30
0.0
  0
VERTEX
  5
66B
100
AcDbEntity
  8
0
100
AcDbVertex
100
AcDb2dVertex
 10
9.6028239396
 20
7.7323347745
 30
0.0
  0
VERTEX
  5
66C
100
AcDbEntity
  8
0
100
AcDbVertex
100
AcDb2dVertex
 10
9.5966603048
 20
7.7375291148
 30
0.0
  0
VERTEX
  5
66D
100
AcDbEntity
  8
0
100
AcDbVertex
100
AcDb2dVertex
 10
9.5894376481
 20
7.7422467989
 30
0.0
  0
SEQEND
  5
66E
100
AcDbEntity
  8
0
  0
LINE
  5
66F
100
AcDbEntity
  8
0
  6
CONTINUOUS
 62
         7
100
AcDbLine
 10
9.493931442
 20
7.733098553
 30
0.0
 11
9.4819006133
 21
7.7071785669
 31
0.0
  0
LINE
  5
670
100
AcDbEntity
  8
0
  6
CONTINUOUS
 62
         7
100
AcDbLine
 10
9.4819006133
 20
7.7071785669
 30
0.0
 11
9.5147694296
 21
7.688203798
 31
0.0
  0
LINE
  5
671
100
AcDbEntity
  8
0
  6
CONTINUOUS
 62
         7
100
AcDbLine
 10
9.5596690612
 20
7.6951490372
 30
0.0
 11
9.5147694296
 21
7.688203798
 31
0.0
  0
LINE
  5
672
100
AcDbEntity
  8
0
  6
CONTINUOUS
 62
         7
100
AcDbLine
 10
9.5716998764
 20
7.7210690453
 30
0.0
 11
9.5596690612
 21
7.6951490372
 31
0.0
  0
LINE
  5
673
100
AcDbEntity
  8
0
  6
CONTINUOUS
 62
         7
100
AcDbLine
 10
9.5716998764
 20
7.7210690453
 30
0.0
 11
9.5388310601
 21
7.7400438143
 31
0.0
  0
LINE
  5
674
100
AcDbEntity
  8
0
  6
CONTINUOUS
 62
         7
100
AcDbLine
 10
9.493931442
 20
7.733098553
 30
0.0
 11
9.5388310601
 21
7.7400438143
 31
0.0
  0
LINE
  5
675
100
AcDbEntity
  8
0
  6
CONTINUOUS
 62
         7
100
AcDbLine
 10
9.5562312893
 20
7.6946172721
 30
0.0
 11
9.5552654742
 21
7.6951944193
 31
0.0
  0
POLYLINE
  5
676
100
AcDbEntity
  8
0
  6
CONTINUOUS
 62
         7
100
AcDb2dPolyline
 66
         1
 10
0.0
 20
0.0
 30
0.0
 70
       128
  0
VERTEX
  5
677
100
AcDbEntity
  8
0
100
AcDbVertex
100
AcDb2dVertex
 10
9.5163812686
 20
7.7012091857
 30
0.0
  0
VERTEX
  5
678
100
AcDbEntity
  8
0
100
AcDbVertex
100
AcDb2dVertex
 10
9.5113949958
 20
7.7002320544
 30
0.0
  0
VERTEX
  5
679
100
AcDbEntity
  8
0
100
AcDbVertex
100
AcDb2dVertex
 10
9.5066722952
 20
7.6988875707
 30
0.0
  0
VERTEX
  5
67A
100
AcDbEntity
  8
0
100
AcDbVertex
100
AcDb2dVertex
 10
9.5022940142
 20
7.6971987194
 30
0.0
  0
VERTEX
  5
67B
100
AcDbEntity
  8
0
100
AcDbVertex
100
AcDb2dVertex
 10
9.5005797741
 20
7.6963953069
 30
0.0
  0
SEQEND
  5
67C
100
AcDbEntity
  8
0
  0
POLYLINE
  5
67D
100
AcDbEntity
  8
0
  6
CONTINUOUS
 62
         7
100
AcDb2dPolyline
 66
         1
 10
0.0
 20
0.0
 30
0.0
 70
       128
  0
VERTEX
  5
67E
100
AcDbEntity
  8
0
100
AcDbVertex
100
AcDb2dVertex
 10
9.5552654793
 20
7.695194421
 30
0.0
  0
VERTEX
  5
67F
100
AcDbEntity
  8
0
100
AcDbVertex
100
AcDb2dVertex
 10
9.5513064842
 20
7.6971987219
 30
0.0
  0
VERTEX
  5
680
100
AcDbEntity
  8
0
100
AcDbVertex
100
AcDb2dVertex
 10
9.5469282089
 20
7.6988875629
 30
0.0
  0
VERTEX
  5
681
100
AcDbEntity
  8
0
100
AcDbVertex
100
AcDb2dVertex
 10
9.5422055131
 20
7.7002320522
 30
0.0
  0
VERTEX
  5
682
100
AcDbEntity
  8
0
100
AcDbVertex
100
AcDb2dVertex
 10
9.5372192449
 20
7.7012091768
 30
0.0
  0
VERTEX
  5
683
100
AcDbEntity
  8
0
100
AcDbVertex
100
AcDb2dVertex
 10
9.5320546821
 20
7.7018022123
 30
0.0
  0
VERTEX
  5
684
100
AcDbEntity
  8
0
100
AcDbVertex
100
AcDb2dVertex
 10
9.5268002346
 20
7.7020010371
 30
0.0
  0
VERTEX
  5
685
100
AcDbEntity
  8
0
100
AcDbVertex
100
AcDb2dVertex
 10
9.521545813
 20
7.7018022164
 30
0.0
  0
VERTEX
  5
686
100
AcDbEntity
  8
0
100
AcDbVertex
100
AcDb2dVertex
 10
9.5163812686
 20
7.7012091857
 30
0.0
  0
SEQEND
  5
687
100
AcDbEntity
  8
0
  0
LINE
  5
688
100
AcDbEntity
  8
0
  6
CONTINUOUS
 62
         7
100
AcDbLine
 10
9.4939314458
 20
7.7002333068
 30
0.0
 11
9.493931442
 21
7.733098553
 31
0.0
  0
LINE
  5
689
100
AcDbEntity
  8
0
  6
CONTINUOUS
 62
         7
100
AcDbLine
 10
9.5562312893
 20
7.6946172721
 30
0.0
 11
9.5552654742
 21
7.6951944193
 31
0.0
  0
LINE
  5
68A
100
AcDbEntity
  8
0
  6
CONTINUOUS
 62
         7
100
AcDbLine
 10
9.5552654742
 20
7.6951944193
 30
0.0
 11
9.5388310717
 21
7.7046817902
 31
0.0
  0
LINE
  5
68B
100
AcDbEntity
  8
0
  6
CONTINUOUS
 62
         7
100
AcDbLine
 10
9.5388310717
 20
7.7046817902
 30
0.0
 11
9.5388310601
 21
7.7400438143
 31
0.0
  0
LINE
  5
68C
100
AcDbEntity
  8
0
  6
CONTINUOUS
 62
         7
100
AcDbLine
 10
9.5163812554
 20
7.7012091771
 30
0.0
 11
9.5388310717
 21
7.7046817902
 31
0.0
  0
LINE
  5
68D
100
AcDbEntity
  8
0
  6
CONTINUOUS
 62
         7
100
AcDbLine
 10
9.4973424431
 20
7.6982641812
 30
0.0
 11
9.5163812554
 21
7.7012091771
 31
0.0
  0
POLYLINE
  5
68E
100
AcDbEntity
  8
0
  6
CONTINUOUS
 62
         7
100
AcDb2dPolyline
 66
         1
 10
0.0
 20
0.0
 30
0.0
 70
       128
  0
VERTEX
  5
68F
100
AcDbEntity
  8
0
100
AcDbVertex
100
AcDb2dVertex
 10
9.8608664566
 20
7.2228913964
 30
0.0
  0
VERTEX
  5
690
100
AcDbEntity
  8
0
100
AcDbVertex
100
AcDb2dVertex
 10
9.8698443642
 20
7.2157636065
 30
0.0
  0
VERTEX
  5
691
100
AcDbEntity
  8
0
100
AcDbVertex
100
AcDb2dVertex
 10
9.8822631643
 20
7.2049628026
 30
0.0
  0
VERTEX
  5
692
100
AcDbEntity
  8
0
100
AcDbVertex
100
AcDb2dVertex
 10
9.8944192567
 20
7.1932765004
 30
0.0
  0
VERTEX
  5
693
100
AcDbEntity
  8
0
100
AcDbVertex
100
AcDb2dVertex
 10
9.9062478176
 20
7.1807670401
 30
0.0
  0
VERTEX
  5
694
100
AcDbEntity
  8
0
100
AcDbVertex
100
AcDb2dVertex
 10
9.9176857084
 20
7.1675012699
 30
0.0
  0
VERTEX
  5
695
100
AcDbEntity
  8
0
100
AcDbVertex
100
AcDb2dVertex
 10
9.9286719073
 20
7.153549839
 30
0.0
  0
VERTEX
  5
696
100
AcDbEntity
  8
0
100
AcDbVertex
100
AcDb2dVertex
 10
9.9391478116
 20
7.138987278
 30
0.0
  0
VERTEX
  5
697
100
AcDbEntity
  8
0
100
AcDbVertex
100
AcDb2dVertex
 10
9.9490574937
 20
7.1238912656
 30
0.0
  0
VERTEX
  5
698
100
AcDbEntity
  8
0
100
AcDbVertex
100
AcDb2dVertex
 10
9.9583481433
 20
7.1083423351
 30
0.0
  0
VERTEX
  5
699
100
AcDbEntity
  8
0
100
AcDbVertex
100
AcDb2dVertex
 10
9.966970136
 20
7.0924234194
 30
0.0
  0
VERTEX
  5
69A
100
AcDbEntity
  8
0
100
AcDbVertex
100
AcDb2dVertex
 10
9.9748774772
 20
7.0762194971
 30
0.0
  0
VERTEX
  5
69B
100
AcDbEntity
  8
0
100
AcDbVertex
100
AcDb2dVertex
 10
9.9820280027
 20
7.059817008
 30
0.0
  0
VERTEX
  5
69C
100
AcDbEntity
  8
0
100
AcDbVertex
100
AcDb2dVertex
 10
9.9883835474
 20
7.0433034039
 30
0.0
  0
VERTEX
  5
69D
100
AcDbEntity
  8
0
100
AcDbVertex
100
AcDb2dVertex
 10
9.9939101829
 20
7.0267669045
 30
0.0
  0
VERTEX
  5
69E
100
AcDbEntity
  8
0
100
AcDbVertex
100
AcDb2dVertex
 10
9.9985784503
 20
7.0102957152
 30
0.0
  0
VERTEX
  5
69F
100
AcDbEntity
  8
0
100
AcDbVertex
100
AcDb2dVertex
 10
10.0023634513
 20
6.9939776194
 30
0.0
  0
VERTEX
  5
6A0
100
AcDbEntity
  8
0
100
AcDbVertex
100
AcDb2dVertex
 10
10.0052449566
 20
6.9778998018
 30
0.0
  0
VERTEX
  5
6A1
100
AcDbEntity
  8
0
100
AcDbVertex
100
AcDb2dVertex
 10
10.007207591
 20
6.9621479721
 30
0.0
  0
VERTEX
  5
6A2
100
AcDbEntity
  8
0
100
AcDbVertex
100
AcDb2dVertex
 10
10.0082409135
 20
6.9468062621
 30
0.0
  0
VERTEX
  5
6A3
100
AcDbEntity
  8
0
100
AcDbVertex
100
AcDb2dVertex
 10
10.0083393997
 20
6.9319563367
 30
0.0
  0
VERTEX
  5
6A4
100
AcDbEntity
  8
0
100
AcDbVertex
100
AcDb2dVertex
 10
10.0075025367
 20
6.9176775836
 30
0.0
  0
VERTEX
  5
6A5
100
AcDbEntity
  8
0
100
AcDbVertex
100
AcDb2dVertex
 10
10.0057347553
 20
6.9040461892
 30
0.0
  0
VERTEX
  5
6A6
100
AcDbEntity
  8
0
100
AcDbVertex
100
AcDb2dVertex
 10
10.003045492
 20
6.8911348673
 30
0.0
  0
VERTEX
  5
6A7
100
AcDbEntity
  8
0
100
AcDbVertex
100
AcDb2dVertex
 10
9.9994491288
 20
6.8790124107
 30
0.0
  0
VERTEX
  5
6A8
100
AcDbEntity
  8
0
100
AcDbVertex
100
AcDb2dVertex
 10
9.9949648474
 20
6.8677435281
 30
0.0
  0
VERTEX
  5
6A9
100
AcDbEntity
  8
0
100
AcDbVertex
100
AcDb2dVertex
 10
9.9896165392
 20
6.8573885321
 30
0.0
  0
VERTEX
  5
6AA
100
AcDbEntity
  8
0
100
AcDbVertex
100
AcDb2dVertex
 10
9.9834327644
 20
6.8480024016
 30
0.0
  0
VERTEX
  5
6AB
100
AcDbEntity
  8
0
100
AcDbVertex
100
AcDb2dVertex
 10
9.9764465263
 20
6.8396353799
 30
0.0
  0
VERTEX
  5
6AC
100
AcDbEntity
  8
0
100
AcDbVertex
100
AcDb2dVertex
 10
9.9686950749
 20
6.8323321196
 30
0.0
  0
VERTEX
  5
6AD
100
AcDbEntity
  8
0
100
AcDbVertex
100
AcDb2dVertex
 10
9.9602197607
 20
6.826131519
 30
0.0
  0
VERTEX
  5
6AE
100
AcDbEntity
  8
0
100
AcDbVertex
100
AcDb2dVertex
 10
9.9570332651
 20
6.824194836
 30
0.0
  0
SEQEND
  5
6AF
100
AcDbEntity
  8
0
  0
POLYLINE
  5
6B0
100
AcDbEntity
  8
0
  6
CONTINUOUS
 62
         7
100
AcDb2dPolyline
 66
         1
 10
0.0
 20
0.0
 30
0.0
 70
       128
  0
VERTEX
  5
6B1
100
AcDbEntity
  8
0
100
AcDbVertex
100
AcDb2dVertex
 10
7.5291189714
 20
5.7732917385
 30
0.0
  0
VERTEX
  5
6B2
100
AcDbEntity
  8
0
100
AcDbVertex
100
AcDb2dVertex
 10
7.5235684154
 20
5.7886174393
 30
0.0
  0
VERTEX
  5
6B3
100
AcDbEntity
  8
0
100
AcDbVertex
100
AcDb2dVertex
 10
7.5188479918
 20
5.8039240948
 30
0.0
  0
VERTEX
  5
6B4
100
AcDbEntity
  8
0
100
AcDbVertex
100
AcDb2dVertex
 10
7.5149860659
 20
5.8191198195
 30
0.0
  0
VERTEX
  5
6B5
100
AcDbEntity
  8
0
100
AcDbVertex
100
AcDb2dVertex
 10
7.5120058842
 20
5.8341131438
 30
0.0
  0
VERTEX
  5
6B6
100
AcDbEntity
  8
0
100
AcDbVertex
100
AcDb2dVertex
 10
7.5099253586
 20
5.8488138469
 30
0.0
  0
VERTEX
  5
6B7
100
AcDbEntity
  8
0
100
AcDbVertex
100
AcDb2dVertex
 10
7.5087570161
 20
5.8631334624
 30
0.0
  0
VERTEX
  5
6B8
100
AcDbEntity
  8
0
100
AcDbVertex
100
AcDb2dVertex
 10
7.5085078606
 20
5.8769860705
 30
0.0
  0
VERTEX
  5
6B9
100
AcDbEntity
  8
0
100
AcDbVertex
100
AcDb2dVertex
 10
7.5091794107
 20
5.8902881584
 30
0.0
  0
VERTEX
  5
6BA
100
AcDbEntity
  8
0
100
AcDbVertex
100
AcDb2dVertex
 10
7.5107676142
 20
5.9029598638
 30
0.0
  0
VERTEX
  5
6BB
100
AcDbEntity
  8
0
100
AcDbVertex
100
AcDb2dVertex
 10
7.5132629263
 20
5.9149249336
 30
0.0
  0
VERTEX
  5
6BC
100
AcDbEntity
  8
0
100
AcDbVertex
100
AcDb2dVertex
 10
7.5166503426
 20
5.9261113664
 30
0.0
  0
VERTEX
  5
6BD
100
AcDbEntity
  8
0
100
AcDbVertex
100
AcDb2dVertex
 10
7.5209094817
 20
5.936451908
 30
0.0
  0
VERTEX
  5
6BE
100
AcDbEntity
  8
0
100
AcDbVertex
100
AcDb2dVertex
 10
7.5260147382
 20
5.9458843905
 30
0.0
  0
VERTEX
  5
6BF
100
AcDbEntity
  8
0
100
AcDbVertex
100
AcDb2dVertex
 10
7.531935402
 20
5.9543520894
 30
0.0
  0
VERTEX
  5
6C0
100
AcDbEntity
  8
0
100
AcDbVertex
100
AcDb2dVertex
 10
7.5386358669
 20
5.961804093
 30
0.0
  0
VERTEX
  5
6C1
100
AcDbEntity
  8
0
100
AcDbVertex
100
AcDb2dVertex
 10
7.5460758393
 20
5.9681954922
 30
0.0
  0
VERTEX
  5
6C2
100
AcDbEntity
  8
0
100
AcDbVertex
100
AcDb2dVertex
 10
7.5542105697
 20
5.9734879786
 30
0.0
  0
VERTEX
  5
6C3
100
AcDbEntity
  8
0
100
AcDbVertex
100
AcDb2dVertex
 10
7.5629911291
 20
5.9776495782
 30
0.0
  0
VERTEX
  5
6C4
100
AcDbEntity
  8
0
100
AcDbVertex
100
AcDb2dVertex
 10
7.5723647245
 20
5.9806553854
 30
0.0
  0
VERTEX
  5
6C5
100
AcDbEntity
  8
0
100
AcDbVertex
100
AcDb2dVertex
 10
7.5822749817
 20
5.9824872936
 30
0.0
  0
VERTEX
  5
6C6
100
AcDbEntity
  8
0
100
AcDbVertex
100
AcDb2dVertex
 10
7.5926622794
 20
5.9831342394
 30
0.0
  0
VERTEX
  5
6C7
100
AcDbEntity
  8
0
100
AcDbVertex
100
AcDb2dVertex
 10
7.6034641728
 20
5.9825923989
 30
0.0
  0
VERTEX
  5
6C8
100
AcDbEntity
  8
0
100
AcDbVertex
100
AcDb2dVertex
 10
7.6146156683
 20
5.9808649838
 30
0.0
  0
VERTEX
  5
6C9
100
AcDbEntity
  8
0
100
AcDbVertex
100
AcDb2dVertex
 10
7.6260497406
 20
5.9779623281
 30
0.0
  0
VERTEX
  5
6CA
100
AcDbEntity
  8
0
100
AcDbVertex
100
AcDb2dVertex
 10
7.6376975828
 20
5.9739019972
 30
0.0
  0
VERTEX
  5
6CB
100
AcDbEntity
  8
0
100
AcDbVertex
100
AcDb2dVertex
 10
7.6494891674
 20
5.9687083718
 30
0.0
  0
VERTEX
  5
6CC
100
AcDbEntity
  8
0
100
AcDbVertex
100
AcDb2dVertex
 10
7.6613535741
 20
5.9624127162
 30
0.0
  0
VERTEX
  5
6CD
100
AcDbEntity
  8
0
100
AcDbVertex
100
AcDb2dVertex
 10
7.673219435
 20
5.9550528234
 30
0.0
  0
VERTEX
  5
6CE
100
AcDbEntity
  8
0
100
AcDbVertex
100
AcDb2dVertex
 10
7.685015391
 20
5.946673015
 30
0.0
  0
VERTEX
  5
6CF
100
AcDbEntity
  8
0
100
AcDbVertex
100
AcDb2dVertex
 10
7.6966705442
 20
5.9373236034
 30
0.0
  0
VERTEX
  5
6D0
100
AcDbEntity
  8
0
100
AcDbVertex
100
AcDb2dVertex
 10
7.7081147357
 20
5.9270609257
 30
0.0
  0
VERTEX
  5
6D1
100
AcDbEntity
  8
0
100
AcDbVertex
100
AcDb2dVertex
 10
7.7192791551
 20
5.9159466627
 30
0.0
  0
VERTEX
  5
6D2
100
AcDbEntity
  8
0
100
AcDbVertex
100
AcDb2dVertex
 10
7.7300967028
 20
5.904047649
 30
0.0
  0
VERTEX
  5
6D3
100
AcDbEntity
  8
0
100
AcDbVertex
100
AcDb2dVertex
 10
7.7405022613
 20
5.8914354301
 30
0.0
  0
VERTEX
  5
6D4
100
AcDbEntity
  8
0
100
AcDbVertex
100
AcDb2dVertex
 10
7.7504332664
 20
5.8781859022
 30
0.0
  0
VERTEX
  5
6D5
100
AcDbEntity
  8
0
100
AcDbVertex
100
AcDb2dVertex
 10
7.7598300348
 20
5.8643787199
 30
0.0
  0
VERTEX
  5
6D6
100
AcDbEntity
  8
0
100
AcDbVertex
100
AcDb2dVertex
 10
7.7686360059
 20
5.8500969295
 30
0.0
  0
VERTEX
  5
6D7
100
AcDbEntity
  8
0
100
AcDbVertex
100
AcDb2dVertex
 10
7.7767982195
 20
5.8354264178
 30
0.0
  0
VERTEX
  5
6D8
100
AcDbEntity
  8
0
100
AcDbVertex
100
AcDb2dVertex
 10
7.784267615
 20
5.8204553952
 30
0.0
  0
VERTEX
  5
6D9
100
AcDbEntity
  8
0
100
AcDbVertex
100
AcDb2dVertex
 10
7.7909992517
 20
5.80527392
 30
0.0
  0
VERTEX
  5
6DA
100
AcDbEntity
  8
0
100
AcDbVertex
100
AcDb2dVertex
 10
7.796952662
 20
5.7899732931
 30
0.0
  0
VERTEX
  5
6DB
100
AcDbEntity
  8
0
100
AcDbVertex
100
AcDb2dVertex
 10
7.8020919968
 20
5.7746455617
 30
0.0
  0
VERTEX
  5
6DC
100
AcDbEntity
  8
0
100
AcDbVertex
100
AcDb2dVertex
 10
7.8063864064
 20
5.7593828397
 30
0.0
  0
VERTEX
  5
6DD
100
AcDbEntity
  8
0
100
AcDbVertex
100
AcDb2dVertex
 10
7.8098100543
 20
5.7442769406
 30
0.0
  0
VERTEX
  5
6DE
100
AcDbEntity
  8
0
100
AcDbVertex
100
AcDb2dVertex
 10
7.8123422888
 20
5.7294188676
 30
0.0
  0
VERTEX
  5
6DF
100
AcDbEntity
  8
0
100
AcDbVertex
100
AcDb2dVertex
 10
7.8139679645
 20
5.7148976858
 30
0.0
  0
VERTEX
  5
6E0
100
AcDbEntity
  8
0
100
AcDbVertex
100
AcDb2dVertex
 10
7.8146772446
 20
5.7008010452
 30
0.0
  0
VERTEX
  5
6E1
100
AcDbEntity
  8
0
100
AcDbVertex
100
AcDb2dVertex
 10
7.8144658967
 20
5.6872134073
 30
0.0
  0
VERTEX
  5
6E2
100
AcDbEntity
  8
0
100
AcDbVertex
100
AcDb2dVertex
 10
7.8133351653
 20
5.674216711
 30
0.0
  0
VERTEX
  5
6E3
100
AcDbEntity
  8
0
100
AcDbVertex
100
AcDb2dVertex
 10
7.8112918704
 20
5.6618891227
 30
0.0
  0
VERTEX
  5
6E4
100
AcDbEntity
  8
0
100
AcDbVertex
100
AcDb2dVertex
 10
7.8083482954
 20
5.650304615
 30
0.0
  0
VERTEX
  5
6E5
100
AcDbEntity
  8
0
100
AcDbVertex
100
AcDb2dVertex
 10
7.8045221315
 20
5.6395331164
 30
0.0
  0
VERTEX
  5
6E6
100
AcDbEntity
  8
0
100
AcDbVertex
100
AcDb2dVertex
 10
7.7998364027
 20
5.629639112
 30
0.0
  0
VERTEX
  5
6E7
100
AcDbEntity
  8
0
100
AcDbVertex
100
AcDb2dVertex
 10
7.7943192925
 20
5.6206822144
 30
0.0
  0
VERTEX
  5
6E8
100
AcDbEntity
  8
0
100
AcDbVertex
100
AcDb2dVertex
 10
7.7880039941
 20
5.6127164031
 30
0.0
  0
VERTEX
  5
6E9
100
AcDbEntity
  8
0
100
AcDbVertex
100
AcDb2dVertex
 10
7.7809284487
 20
5.6057895628
 30
0.0
  0
VERTEX
  5
6EA
100
AcDbEntity
  8
0
100
AcDbVertex
100
AcDb2dVertex
 10
7.7731352301
 20
5.5999431851
 30
0.0
  0
VERTEX
  5
6EB
100
AcDbEntity
  8
0
100
AcDbVertex
100
AcDb2dVertex
 10
7.7646712333
 20
5.5952125317
 30
0.0
  0
VERTEX
  5
6EC
100
AcDbEntity
  8
0
100
AcDbVertex
100
AcDb2dVertex
 10
7.755587309
 20
5.5916262275
 30
0.0
  0
VERTEX
  5
6ED
100
AcDbEntity
  8
0
100
AcDbVertex
100
AcDb2dVertex
 10
7.7459381408
 20
5.5892054864
 30
0.0
  0
VERTEX
  5
6EE
100
AcDbEntity
  8
0
100
AcDbVertex
100
AcDb2dVertex
 10
7.7357817248
 20
5.587965104
 30
0.0
  0
VERTEX
  5
6EF
100
AcDbEntity
  8
0
100
AcDbVertex
100
AcDb2dVertex
 10
7.7251791479
 20
5.5879126154
 30
0.0
  0
VERTEX
  5
6F0
100
AcDbEntity
  8
0
100
AcDbVertex
100
AcDb2dVertex
 10
7.7141941912
 20
5.5890480244
 30
0.0
  0
VERTEX
  5
6F1
100
AcDbEntity
  8
0
100
AcDbVertex
100
AcDb2dVertex
 10
7.70289291
 20
5.5913648639
 30
0.0
  0
VERTEX
  5
6F2
100
AcDbEntity
  8
0
100
AcDbVertex
100
AcDb2dVertex
 10
7.6913432736
 20
5.5948489461
 30
0.0
  0
VERTEX
  5
6F3
100
AcDbEntity
  8
0
100
AcDbVertex
100
AcDb2dVertex
 10
7.6796147195
 20
5.5994794374
 30
0.0
  0
VERTEX
  5
6F4
100
AcDbEntity
  8
0
100
AcDbVertex
100
AcDb2dVertex
 10
7.6677778439
 20
5.6052283009
 30
0.0
  0
VERTEX
  5
6F5
100
AcDbEntity
  8
0
100
AcDbVertex
100
AcDb2dVertex
 10
7.6559037827
 20
5.6120612222
 30
0.0
  0
VERTEX
  5
6F6
100
AcDbEntity
  8
0
100
AcDbVertex
100
AcDb2dVertex
 10
7.6440639548
 20
5.6199370248
 30
0.0
  0
VERTEX
  5
6F7
100
AcDbEntity
  8
0
100
AcDbVertex
100
AcDb2dVertex
 10
7.6323295816
 20
5.628808283
 30
0.0
  0
VERTEX
  5
6F8
100
AcDbEntity
  8
0
100
AcDbVertex
100
AcDb2dVertex
 10
7.6207712292
 20
5.6386216821
 30
0.0
  0
VERTEX
  5
6F9
100
AcDbEntity
  8
0
100
AcDbVertex
100
AcDb2dVertex
 10
7.6094583942
 20
5.649318237
 30
0.0
  0
VERTEX
  5
6FA
100
AcDbEntity
  8
0
100
AcDbVertex
100
AcDb2dVertex
 10
7.5984591491
 20
5.6608335979
 30
0.0
  0
VERTEX
  5
6FB
100
AcDbEntity
  8
0
100
AcDbVertex
100
AcDb2dVertex
 10
7.5878396116
 20
5.6730983304
 30
0.0
  0
VERTEX
  5
6FC
100
AcDbEntity
  8
0
100
AcDbVertex
100
AcDb2dVertex
 10
7.5776636619
 20
5.6860390226
 30
0.0
  0
VERTEX
  5
6FD
100
AcDbEntity
  8
0
100
AcDbVertex
100
AcDb2dVertex
 10
7.5679924999
 20
5.6995775593
 30
0.0
  0
VERTEX
  5
6FE
100
AcDbEntity
  8
0
100
AcDbVertex
100
AcDb2dVertex
 10
7.5588842971
 20
5.7136326239
 30
0.0
  0
VERTEX
  5
6FF
100
AcDbEntity
  8
0
100
AcDbVertex
100
AcDb2dVertex
 10
7.5503938172
 20
5.7281196581
 30
0.0
  0
VERTEX
  5
700
100
AcDbEntity
  8
0
100
AcDbVertex
100
AcDb2dVertex
 10
7.5425721214
 20
5.7429516168
 30
0.0
  0
VERTEX
  5
701
100
AcDbEntity
  8
0
100
AcDbVertex
100
AcDb2dVertex
 10
7.5354662637
 20
5.7580391276
 30
0.0
  0
VERTEX
  5
702
100
AcDbEntity
  8
0
100
AcDbVertex
100
AcDb2dVertex
 10
7.5291189714
 20
5.7732917385
 30
0.0
  0
SEQEND
  5
703
100
AcDbEntity
  8
0
  0
POLYLINE
  5
704
100
AcDbEntity
  8
0
  6
CONTINUOUS
 62
         7
100
AcDb2dPolyline
 66
         1
 10
0.0
 20
0.0
 30
0.0
 70
       128
  0
VERTEX
  5
705
100
AcDbEntity
  8
0
100
AcDbVertex
100
AcDb2dVertex
 10
7.6368549779
 20
6.0212055973
 30
0.0
  0
VERTEX
  5
706
100
AcDbEntity
  8
0
100
AcDbVertex
100
AcDb2dVertex
 10
7.6377271842
 20
6.0217010939
 30
0.0
  0
VERTEX
  5
707
100
AcDbEntity
  8
0
100
AcDbVertex
100
AcDb2dVertex
 10
7.6465077436
 20
6.0258626935
 30
0.0
  0
VERTEX
  5
708
100
AcDbEntity
  8
0
100
AcDbVertex
100
AcDb2dVertex
 10
7.655881339
 20
6.0288685007
 30
0.0
  0
VERTEX
  5
709
100
AcDbEntity
  8
0
100
AcDbVertex
100
AcDb2dVertex
 10
7.6657915962
 20
6.0307004089
 30
0.0
  0
VERTEX
  5
70A
100
AcDbEntity
  8
0
100
AcDbVertex
100
AcDb2dVertex
 10
7.6761788939
 20
6.0313473547
 30
0.0
  0
VERTEX
  5
70B
100
AcDbEntity
  8
0
100
AcDbVertex
100
AcDb2dVertex
 10
7.6869807873
 20
6.0308055143
 30
0.0
  0
VERTEX
  5
70C
100
AcDbEntity
  8
0
100
AcDbVertex
100
AcDb2dVertex
 10
7.6981322828
 20
6.0290780991
 30
0.0
  0
VERTEX
  5
70D
100
AcDbEntity
  8
0
100
AcDbVertex
100
AcDb2dVertex
 10
7.7095663551
 20
6.0261754434
 30
0.0
  0
VERTEX
  5
70E
100
AcDbEntity
  8
0
100
AcDbVertex
100
AcDb2dVertex
 10
7.7212141973
 20
6.0221151125
 30
0.0
  0
VERTEX
  5
70F
100
AcDbEntity
  8
0
100
AcDbVertex
100
AcDb2dVertex
 10
7.7330057819
 20
6.0169214871
 30
0.0
  0
VERTEX
  5
710
100
AcDbEntity
  8
0
100
AcDbVertex
100
AcDb2dVertex
 10
7.7448701886
 20
6.0106258315
 30
0.0
  0
VERTEX
  5
711
100
AcDbEntity
  8
0
100
AcDbVertex
100
AcDb2dVertex
 10
7.7567360495
 20
6.0032659387
 30
0.0
  0
VERTEX
  5
712
100
AcDbEntity
  8
0
100
AcDbVertex
100
AcDb2dVertex
 10
7.7685320055
 20
5.9948861303
 30
0.0
  0
VERTEX
  5
713
100
AcDbEntity
  8
0
100
AcDbVertex
100
AcDb2dVertex
 10
7.7801871587
 20
5.9855367187
 30
0.0
  0
VERTEX
  5
714
100
AcDbEntity
  8
0
100
AcDbVertex
100
AcDb2dVertex
 10
7.7916313502
 20
5.975274041
 30
0.0
  0
VERTEX
  5
715
100
AcDbEntity
  8
0
100
AcDbVertex
100
AcDb2dVertex
 10
7.8027957696
 20
5.964159778
 30
0.0
  0
VERTEX
  5
716
100
AcDbEntity
  8
0
100
AcDbVertex
100
AcDb2dVertex
 10
7.8136133173
 20
5.9522607643
 30
0.0
  0
VERTEX
  5
717
100
AcDbEntity
  8
0
100
AcDbVertex
100
AcDb2dVertex
 10
7.8240188758
 20
5.9396485454
 30
0.0
  0
VERTEX
  5
718
100
AcDbEntity
  8
0
100
AcDbVertex
100
AcDb2dVertex
 10
7.8339498809
 20
5.9263990175
 30
0.0
  0
VERTEX
  5
719
100
AcDbEntity
  8
0
100
AcDbVertex
100
AcDb2dVertex
 10
7.8433466493
 20
5.9125918352
 30
0.0
  0
VERTEX
  5
71A
100
AcDbEntity
  8
0
100
AcDbVertex
100
AcDb2dVertex
 10
7.8521526204
 20
5.8983100448
 30
0.0
  0
VERTEX
  5
71B
100
AcDbEntity
  8
0
100
AcDbVertex
100
AcDb2dVertex
 10
7.860314834
 20
5.8836395331
 30
0.0
  0
VERTEX
  5
71C
100
AcDbEntity
  8
0
100
AcDbVertex
100
AcDb2dVertex
 10
7.8677842295
 20
5.8686685105
 30
0.0
  0
VERTEX
  5
71D
100
AcDbEntity
  8
0
100
AcDbVertex
100
AcDb2dVertex
 10
7.8745158662
 20
5.8534870353
 30
0.0
  0
VERTEX
  5
71E
100
AcDbEntity
  8
0
100
AcDbVertex
100
AcDb2dVertex
 10
7.8804692765
 20
5.8381864084
 30
0.0
  0
VERTEX
  5
71F
100
AcDbEntity
  8
0
100
AcDbVertex
100
AcDb2dVertex
 10
7.8856086113
 20
5.822858677
 30
0.0
  0
VERTEX
  5
720
100
AcDbEntity
  8
0
100
AcDbVertex
100
AcDb2dVertex
 10
7.8899030209
 20
5.807595955
 30
0.0
  0
VERTEX
  5
721
100
AcDbEntity
  8
0
100
AcDbVertex
100
AcDb2dVertex
 10
7.8933266688
 20
5.7924900559
 30
0.0
  0
VERTEX
  5
722
100
AcDbEntity
  8
0
100
AcDbVertex
100
AcDb2dVertex
 10
7.8958589033
 20
5.7776319829
 30
0.0
  0
VERTEX
  5
723
100
AcDbEntity
  8
0
100
AcDbVertex
100
AcDb2dVertex
 10
7.897484579
 20
5.7631108011
 30
0.0
  0
VERTEX
  5
724
100
AcDbEntity
  8
0
100
AcDbVertex
100
AcDb2dVertex
 10
7.8981938591
 20
5.7490141605
 30
0.0
  0
VERTEX
  5
725
100
AcDbEntity
  8
0
100
AcDbVertex
100
AcDb2dVertex
 10
7.8979825112
 20
5.7354265226
 30
0.0
  0
VERTEX
  5
726
100
AcDbEntity
  8
0
100
AcDbVertex
100
AcDb2dVertex
 10
7.8968517798
 20
5.7224298263
 30
0.0
  0
VERTEX
  5
727
100
AcDbEntity
  8
0
100
AcDbVertex
100
AcDb2dVertex
 10
7.8948084849
 20
5.710102238
 30
0.0
  0
VERTEX
  5
728
100
AcDbEntity
  8
0
100
AcDbVertex
100
AcDb2dVertex
 10
7.8918649099
 20
5.6985177303
 30
0.0
  0
VERTEX
  5
729
100
AcDbEntity
  8
0
100
AcDbVertex
100
AcDb2dVertex
 10
7.888038746
 20
5.6877462317
 30
0.0
  0
VERTEX
  5
72A
100
AcDbEntity
  8
0
100
AcDbVertex
100
AcDb2dVertex
 10
7.8833530172
 20
5.6778522273
 30
0.0
  0
VERTEX
  5
72B
100
AcDbEntity
  8
0
100
AcDbVertex
100
AcDb2dVertex
 10
7.877835907
 20
5.6688953298
 30
0.0
  0
VERTEX
  5
72C
100
AcDbEntity
  8
0
100
AcDbVertex
100
AcDb2dVertex
 10
7.8715206086
 20
5.6609295184
 30
0.0
  0
VERTEX
  5
72D
100
AcDbEntity
  8
0
100
AcDbVertex
100
AcDb2dVertex
 10
7.8644450632
 20
5.6540026781
 30
0.0
  0
VERTEX
  5
72E
100
AcDbEntity
  8
0
100
AcDbVertex
100
AcDb2dVertex
 10
7.8566518446
 20
5.6481563005
 30
0.0
  0
VERTEX
  5
72F
100
AcDbEntity
  8
0
100
AcDbVertex
100
AcDb2dVertex
 10
7.8533728011
 20
5.646145084
 30
0.0
  0
SEQEND
  5
730
100
AcDbEntity
  8
0
  0
ENDSEC
  0
SECTION
  2
OBJECTS
  0
DICTIONARY
  5
19
100
AcDbDictionary
  3
ACAD_GROUP
350
1A
  3
ACAD_MLINESTYLE
350
1B
  0
DICTIONARY
  5
1A
102
{ACAD_REACTORS
330
19
102
}
100
AcDbDictionary
  0
DICTIONARY
  5
1B
102
{ACAD_REACTORS
330
19
102
}
100
AcDbDictionary
  3
STANDARD
350
1C
  0
MLINESTYLE
  5
1C
102
{ACAD_REACTORS
330
1B
102
}
100
AcDbMlineStyle
  2
STANDARD
 70
         0
  3

 62
         0
 51
90.0
 52
90.0
 71
         2
 49
0.5
 62
       256
  6
BYLAYER
 49
-0.5
 62
       256
  6
BYLAYER
  0
ENDSEC
  0
EOF
