  0
SECTION
  2
HEADER
  9
$ACADVER
  1
AC1012
  9
$DWGCODEPAGE
  3
ansi_1252
  9
$INSBASE
 10
0.0
 20
0.0
 30
0.0
  9
$EXTMIN
 10
0.0
 20
0.0
 30
0.0
  9
$EXTMAX
 10
11.0
 20
8.5
 30
0.0
  9
$LIMMIN
 10
0.0
 20
0.0
  9
$LIMMAX
 10
0.0
 20
0.0
  9
$ORTHOMODE
 70
         0
  9
$REGENMODE
 70
         1
  9
$FILLMODE
 70
         1
  9
$QTEXTMODE
 70
         0
  9
$MIRRTEXT
 70
         1
  9
$DRAGMODE
 70
         2
  9
$LTSCALE
 40
1.0
  9
$OSMODE
 70
         0
  9
$ATTMODE
 70
         1
  9
$TEXTSIZE
 40
0.1111111111
  9
$TRACEWID
 40
0.05
  9
$TEXTSTYLE
  7
STANDARD
  9
$CLAYER
  8
0
  9
$CELTYPE
  6
CONTINUOUS
  9
$CECOLOR
 62
       256
  9
$CELTSCALE
 40
1.0
  9
$DELOBJ
 70
         1
  9
$DISPSILH
 70
         0
  9
$DIMSCALE
 40
1.0
  9
$DIMASZ
 40
39.3700787402
  9
$DIMEXO
 40
0.0
  9
$DIMDLI
 40
0.38
  9
$DIMRND
 40
0.0
  9
$DIMDLE
 40
39.3700787402
  9
$DIMEXE
 40
0.18
  9
$DIMTP
 40
0.0
  9
$DIMTM
 40
0.0
  9
$DIMTXT
 40
0.1111111111
  9
$DIMCEN
 40
0.09
  9
$DIMTSZ
 40
0.0
  9
$DIMTOL
 70
         0
  9
$DIMLIM
 70
         0
  9
$DIMTIH
 70
         1
  9
$DIMTOH
 70
         1
  9
$DIMSE1
 70
         0
  9
$DIMSE2
 70
         0
  9
$DIMTAD
 70
         0
  9
$DIMZIN
 70
         1
  9
$DIMBLK
  1

  9
$DIMASO
 70
         1
  9
$DIMSHO
 70
         1
  9
$DIMPOST
  1

  9
$DIMAPOST
  1

  9
$DIMALT
 70
         0
  9
$DIMALTD
 70
         2
  9
$DIMALTF
 40
25.4
  9
$DIMLFAC
 40
1.0
  9
$DIMTOFL
 70
         0
  9
$DIMTVP
 40
0.0
  9
$DIMTIX
 70
         0
  9
$DIMSOXD
 70
         0
  9
$DIMSAH
 70
         0
  9
$DIMBLK1
  1

  9
$DIMBLK2
  1

  9
$DIMSTYLE
  2
STANDARD
  9
$DIMCLRD
 70
         0
  9
$DIMCLRE
 70
         0
  9
$DIMCLRT
 70
         0
  9
$DIMTFAC
 40
1.0
  9
$DIMGAP
 40
0.0
  9
$DIMJUST
 70
         0
  9
$DIMSD1
 70
         0
  9
$DIMSD2
 70
         0
  9
$DIMTOLJ
 70
         1
  9
$DIMTZIN
 70
         1
  9
$DIMALTZ
 70
         0
  9
$DIMALTTZ
 70
         0
  9
$DIMFIT
 70
         3
  9
$DIMUPT
 70
         0
  9
$DIMUNIT
 70
         2
  9
$DIMDEC
 70
         4
  9
$DIMTDEC
 70
         4
  9
$DIMALTU
 70
         2
  9
$DIMALTTD
 70
         2
  9
$DIMTXSTY
  7
STANDARD
  9
$DIMAUNIT
 70
         0
  9
$LUNITS
 70
         2
  9
$LUPREC
 70
         2
  9
$SKETCHINC
 40
0.1
  9
$FILLETRAD
 40
0.0
  9
$AUNITS
 70
         0
  9
$AUPREC
 70
         2
  9
$MENU
  1
acad
  9
$ELEVATION
 40
0.0
  9
$PELEVATION
 40
0.0
  9
$THICKNESS
 40
0.0
  9
$LIMCHECK
 70
         0
  9
$BLIPMODE
 70
         1
  9
$CHAMFERA
 40
0.0
  9
$CHAMFERB
 40
0.0
  9
$CHAMFERC
 40
0.0
  9
$CHAMFERD
 40
0.0
  9
$SKPOLY
 70
         0
  9
$TDCREATE
 40
0.000000000
  9
$TDUPDATE
 40
0.000000000
  9
$TDINDWG
 40
0.0000000000
  9
$TDUSRTIMER
 40
0.0000000000
  9
$USRTIMER
 70
         1
  9
$ANGBASE
 50
0.0
  9
$ANGDIR
 70
         0
  9
$PDMODE
 70
         0
  9
$PDSIZE
 40
-1.0
  9
$PLINEWID
 40
0.0
  9
$COORDS
 70
         0
  9
$SPLFRAME
 70
         0
  9
$SPLINETYPE
 70
         6
  9
$SPLINESEGS
 70
         8
  9
$ATTDIA
 70
         0
  9
$ATTREQ
 70
         1
  9
$HANDLING
 70
         1
  9
$HANDSEED
  5
3CE
  9
$SURFTAB1
 70
         6
  9
$SURFTAB2
 70
         6
  9
$SURFTYPE
 70
         6
  9
$SURFU
 70
         6
  9
$SURFV
 70
         6
  9
$UCSNAME
  2

  9
$UCSORG
 10
0.0
 20
0.0
 30
0.0
  9
$UCSXDIR
 10
1.0
 20
0.0
 30
0.0
  9
$UCSYDIR
 10
0.0
 20
1.0
 30
0.0
  9
$PUCSNAME
  2

  9
$PUCSORG
 10
0.0
 20
0.0
 30
0.0
  9
$PUCSXDIR
 10
1.0
 20
0.0
 30
0.0
  9
$PUCSYDIR
 10
0.0
 20
1.0
 30
0.0
  9
$USERI1
 70
         0
  9
$USERI2
 70
         0
  9
$USERI3
 70
         0
  9
$USERI4
 70
         0
  9
$USERI5
 70
         0
  9
$USERR1
 40
0.0
  9
$USERR2
 40
0.0
  9
$USERR3
 40
0.0
  9
$USERR4
 40
0.0
  9
$USERR5
 40
0.0
  9
$WORLDVIEW
 70
         1
  9
$SHADEDGE
 70
         3
  9
$SHADEDIF
 70
        70
  9
$TILEMODE
 70
         1
  9
$MAXACTVP
 70
        16
  9
$PINSBASE
 10
0.0
 20
0.0
 30
0.0
  9
$PLIMCHECK
 70
         0
  9
$PEXTMIN
 10
1.0000000000E+20
 20
1.0000000000E+20
 30
1.0000000000E+20
  9
$PEXTMAX
 10
-1.0000000000E+20
 20
-1.0000000000E+20
 30
-1.0000000000E+20
  9
$PLIMMIN
 10
0.0
 20
0.0
  9
$PLIMMAX
 10
12.0
 20
9.0
  9
$UNITMODE
 70
         0
  9
$VISRETAIN
 70
         0
  9
$PLINEGEN
 70
         1
  9
$PSLTSCALE
 70
         1
  9
$TREEDEPTH
 70
      3020
  9
$PICKSTYLE
 70
         1
  9
$CMLSTYLE
  2
STANDARD
  9
$CMLJUST
 70
         0
  9
$CMLSCALE
 40
1.0
  9
$SAVEIMAGES
 70
         0
  0
ENDSEC
  0
SECTION
  2
CLASSES
  0
CLASS
  1
LWPOLYLINE
  2
AcDbPolyline
  3
"AutoCAD"
 90
    32768
280
         0
281
         1
  0
CLASS
  1
IMAGE
  2
AcDbRasterImage
  3
ISM
 90
    32895
280
         0
281
         1
  0
CLASS
  1
OLE2FRAME
  2
AcDbOle2Frame
  3
""
 90
    32768
280
         0
281
         1
  0
CLASS
  1
HATCH
  2
AcDbHatch
  3
"ACAD_SEDONA"
 90
    32768
280
         0
281
         1
  0
CLASS
  1
DICTIONARYVAR
  2
AcDbDictionaryVar
  3
"AutoCAD"
 90
    32768
280
         0
281
         0
  0
CLASS
  1
RASTERVARIABLES
  2
AcDbRasterVariables
  3
ISM
 90
    32768
280
         0
281
         0
  0
CLASS
  1
IMAGEDEF
  2
AcDbRasterImageDef
  3
ISM
 90
    32768
280
         0
281
         0
  0
CLASS
  1
IMAGEDEF_REACTOR
  2
AcDbRasterImageDefReactor
  3
ISM
 90
    32769
280
         0
281
         0
  0
CLASS
  1
IDBUFFER
  2
AcDbIdBuffer
  3
"Acad"
 90
    32768
280
         0
281
         0
  0
CLASS
  1
SPATIAL_FILTER
  2
AcDbSpatialFilter
  3
"Acad"
 90
    32768
280
         0
281
         0
  0
CLASS
  1
XRECORD
  2
AcDbXrecord
  3
"<Built In>"
 90
    32768
280
         0
281
         0
  0
CLASS
  1
SORTENTSTABLE
  2
AcDbSortentsTable
  3
"AutoCAD"
 90
    32768
280
         0
281
         0
  0
CLASS
  1
LAYER_INDEX
  2
AcDbLayerIndex
  3
"Acad"
 90
    32768
280
         0
281
         0
  0
CLASS
  1
SPATIAL_INDEX
  2
AcDbSpatialIndex
  3
"Acad"
 90
    32768
280
         0
281
         0
  0
CLASS
  1
OBJECT_PTR
  2
CAseDLPNTableRecord
  3
"ASE-LPNTableRecord"
 90
    32769
280
         0
281
         0
  0
CLASS
  1
LAYOUT
  2
AcDbLayout
  3
"AutoCAD 2000"
 90
    32768
280
         0
281
         0
  0
CLASS
  1
PLOTSETTINGS
  2
AcDbPlotSettings
  3
"AutoCAD 2000"
 90
    32768
280
         0
281
         0
  0
CLASS
  1
ACDBDICTIONARYWDFLT
  2
AcDbDictionaryWithDefault
  3
"AutoCAD 2000"
 90
    32768
280
         0
281
         0
  0
CLASS
  1
ACDBPLACEHOLDER
  2
AcDbPlaceHolder
  3
"AutoCAD 2000"
 90
    32768
280
         0
281
         0
  0
CLASS
  1
VBA_PROJECT
  2
AcDbVbaProject
  3
"acadvba"
 90
    32768
280
         0
281
         0
  0
CLASS
  1
WIPEOUT
  2
AcDbWipeout
  3
WipeOut|AutoCAD Express Tool|expresstools@autodesk.com
 90
    32895
280
         0
281
         1
  0
CLASS
  1
WIPEOUTVARIABLES
  2
AcDbWipeoutVariables
  3
WipeOut|AutoCAD Express Tool|expresstools@autodesk.com
 90
    32768
280
         0
281
         0
  0
CLASS
  1
RTEXT
  2
RText
  3
RText|AutoCAD Express Tool|expresstools@autodesk.com
 90
    32768
280
         0
281
         1
  0
CLASS
  1
ARCALIGNEDTEXT
  2
AcDbArcAlignedText
  3
ATEXT|AutoCAD Express Tool|expresstools@autodesk.com
 90
    32768
280
         0
281
         1
  0
ENDSEC
  0
SECTION
  2
TABLES
  0
TABLE
  2
VPORT
  5
7
100
AcDbSymbolTable
 70
         1
  0
VPORT
  5
15
100
AcDbSymbolTableRecord
100
AcDbViewportTableRecord
  2
*ACTIVE
 70
         0
 10
0.0
 20
0.0
 11
1.0
 21
1.0
 12
5.5
 22
4.25
 13
0.0
 23
0.0
 14
1.0
 24
1.0
 15
0.0
 25
0.0
 16
0.0
 26
0.0
 36
1.0
 17
0.0
 27
0.0
 37
0.0
 40
8.5
 41
0.7727272727
 42
50.0
 43
0.0
 44
0.0
 50
0.0
 51
0.0
 71
         0
 72
      2000
 73
         1
 74
         1
 75
         0
 76
         0
 77
         0
 78
         0
  0
ENDTAB
  0
TABLE
  2
LTYPE
  5
4
100
AcDbSymbolTable
 70
         8
  0
LTYPE
  5
11
100
AcDbSymbolTableRecord
100
AcDbLinetypeTableRecord
  2
BYBLOCK
 70
        64
  3

 72
        65
 73
         0
 40
0.0
  0
LTYPE
  5
12
100
AcDbSymbolTableRecord
100
AcDbLinetypeTableRecord
  2
BYLAYER
 70
        64
  3

 72
        65
 73
         0
 40
0.0
  0
LTYPE
  5
13
100
AcDbSymbolTableRecord
100
AcDbLinetypeTableRecord
  2
CONTINUOUS
 70
        64
  3
Solid line
 72
        65
 73
         0
 40
0.0
  0
LTYPE
  5
1D
100
AcDbSymbolTableRecord
100
AcDbLinetypeTableRecord
  2
HIDDEN
 70
        64
  3
Hidden __ __ __ __ __ __ __ __ __ __ __ __ __ __
 72
        65
 73
         2
 40
0.075
 49
0.05
 74
         0
 49
-0.025
 74
         0
  0
LTYPE
  5
1E
100
AcDbSymbolTableRecord
100
AcDbLinetypeTableRecord
  2
PHANTOM
 70
        64
  3
Phantom ______  __  __  ______  __  __  ______
 72
        65
 73
         6
 40
0.5
 49
0.25
 74
         0
 49
-0.05
 74
         0
 49
0.05
 74
         0
 49
-0.05
 74
         0
 49
0.05
 74
         0
 49
-0.05
 74
         0
  0
LTYPE
  5
1F
100
AcDbSymbolTableRecord
100
AcDbLinetypeTableRecord
  2
CENTER
 70
        64
  3
Center ____ _ ____ _ ____ _ ____ _ ____ _ ____
 72
        65
 73
         4
 40
0.4
 49
0.25
 74
         0
 49
-0.05
 74
         0
 49
0.05
 74
         0
 49
-0.05
 74
         0
  0
LTYPE
  5
20
100
AcDbSymbolTableRecord
100
AcDbLinetypeTableRecord
  2
CENTERX2
 70
        64
  3
Center (2x) ________  __  ________  __  _____
 72
        65
 73
         4
 40
0.8
 49
0.5
 74
         0
 49
-0.1
 74
         0
 49
0.1
 74
         0
 49
-0.1
 74
         0
  0
LTYPE
  5
21
100
AcDbSymbolTableRecord
100
AcDbLinetypeTableRecord
  2
DOT2
 70
        64
  3
Dot (.5x) ........................................
 72
        65
 73
         2
 40
0.025
 49
0.0
 74
         0
 49
-0.025
 74
         0
  0
ENDTAB
  0
TABLE
  2
LAYER
  5
2
100
AcDbSymbolTable
 70
         3
  0
LAYER
  5
14
100
AcDbSymbolTableRecord
100
AcDbLayerTableRecord
  2
0
 70
         0
 62
         7
  6
CONTINUOUS
  0
LAYER
  5
23
100
AcDbSymbolTableRecord
100
AcDbLayerTableRecord
  2
DEFPOINTS
 70
         0
 62
         7
  6
CONTINUOUS
  0
LAYER
  5
24
100
AcDbSymbolTableRecord
100
AcDbLayerTableRecord
  2
FORMAT
 70
         0
 62
         7
  6
CONTINUOUS
  0
ENDTAB
  0
TABLE
  2
STYLE
  5
3
100
AcDbSymbolTable
 70
         2
  0
STYLE
  5
17
100
AcDbSymbolTableRecord
100
AcDbTextStyleTableRecord
  2
STANDARD
 70
         0
 40
0.0
 41
1.0
 50
0.0
 71
         0
 42
0.0
  3
txt
  4

  0
STYLE
  5
45
100
AcDbSymbolTableRecord
100
AcDbTextStyleTableRecord
  2
SLDTEXTSTYLE0
 70
         0
 40
0.0
 41
0.75
 50
0.0
 71
         0
 42
0.0
  3
TXT
  4

  0
ENDTAB
  0
TABLE
  2
VIEW
  5
5
100
AcDbSymbolTable
 70
         0
  0
ENDTAB
  0
TABLE
  2
UCS
  5
6
100
AcDbSymbolTable
 70
         0
  0
ENDTAB
  0
TABLE
  2
APPID
  5
8
100
AcDbSymbolTable
 70
         1
  0
APPID
  5
16
100
AcDbSymbolTableRecord
100
AcDbRegAppTableRecord
  2
ACAD
 70
         0
  0
ENDTAB
  0
TABLE
  2
DIMSTYLE
  5
9
100
AcDbSymbolTable
 70
         5
  0
DIMSTYLE
105
18
100
AcDbSymbolTableRecord
100
AcDbDimStyleTableRecord
  2
STANDARD
 70
         0
  3

  4

  5

  6

  7

 40
1.0
 41
0.18
 42
0.0625
 43
0.38
 44
0.18
 45
0.0
 46
0.0
 47
0.0
 48
0.0
 71
         0
 72
         0
 73
         1
 74
         1
 75
         0
 76
         0
 77
         0
 78
         0
140
0.18
141
0.09
142
0.0
143
25.4
144
1.0
145
0.0
146
1.0
147
0.09
170
         0
171
         2
172
         0
173
         0
174
         0
175
         0
176
         0
177
         0
178
         0
270
         2
271
         4
272
         4
273
         2
274
         2
275
         0
280
         0
281
         0
282
         0
283
         1
284
         0
285
         0
286
         0
287
         3
288
         0
340
17
  0
DIMSTYLE
105
DC
100
AcDbSymbolTableRecord
100
AcDbDimStyleTableRecord
  2
SLDDIMSTYLE0
 70
         0
  3

  4

  5

  6

  7

 40
1.0
 41
0.125
 42
0.0625
 43
0.38
 44
0.07
 45
0.0
 46
0.0
 47
0.0
 48
0.0
 71
         0
 72
         0
 73
         1
 74
         1
 75
         0
 76
         0
 77
         0
 78
         8
140
0.1111111111
141
0.09
142
0.0
143
25.4
144
1.0
145
0.0
146
1.0
147
0.0277777778
170
         0
171
         2
172
         0
173
         1
174
         0
175
         0
176
         7
177
         7
178
         7
270
         2
271
         2
272
         4
273
         2
274
         2
275
         0
280
         0
281
         0
282
         0
283
         1
284
        12
285
         0
286
         0
287
         3
288
         0
340
45
  0
DIMSTYLE
105
E2
100
AcDbSymbolTableRecord
100
AcDbDimStyleTableRecord
  2
SLDDIMSTYLE1
 70
         0
  3

  4

  5

  6

  7

 40
1.0
 41
0.125
 42
0.0625
 43
0.38
 44
0.0
 45
0.0
 46
0.0
 47
0.0
 48
0.0
 71
         0
 72
         0
 73
         1
 74
         1
 75
         0
 76
         0
 77
         0
 78
         0
140
0.125
141
0.09
142
0.0
143
25.4
144
1.0
145
0.0
146
1.0
147
0.03125
170
         0
171
         2
172
         0
173
         1
174
         0
175
         0
176
         0
177
         0
178
         0
270
         2
271
         0
272
         0
273
         2
274
         2
275
         0
280
         0
281
         0
282
         0
283
         1
284
         0
285
         0
286
         0
287
         3
288
         0
340
17
  0
DIMSTYLE
105
118
100
AcDbSymbolTableRecord
100
AcDbDimStyleTableRecord
  2
SLDDIMSTYLE2
 70
         0
  3

  4

  5

  6

  7

 40
1.0
 41
0.125
 42
0.0625
 43
0.38
 44
0.07
 45
0.0
 46
0.0
 47
0.0
 48
0.0
 71
         0
 72
         0
 73
         1
 74
         1
 75
         0
 76
         0
 77
         0
 78
         0
140
0.1111111111
141
0.09
142
0.0
143
25.4
144
1.0
145
0.0
146
1.0
147
0.0277777778
170
         0
171
         2
172
         0
173
         1
174
         0
175
         0
176
         7
177
         7
178
         7
270
         2
271
         2
272
         4
273
         2
274
         2
275
         0
280
         0
281
         0
282
         0
283
         1
284
        12
285
         0
286
         0
287
         3
288
         0
340
45
  0
DIMSTYLE
105
127
100
AcDbSymbolTableRecord
100
AcDbDimStyleTableRecord
  2
SLDDIMSTYLE3
 70
         0
  3

  4

  5

  6

  7

 40
1.0
 41
0.125
 42
0.0625
 43
0.38
 44
0.07
 45
0.0
 46
0.0
 47
0.0
 48
0.0
 71
         0
 72
         0
 73
         1
 74
         1
 75
         0
 76
         0
 77
         0
 78
        12
140
0.1111111111
141
0.09
142
0.0
143
25.4
144
1.0
145
0.0
146
1.0
147
0.0277777778
170
         0
171
         2
172
         0
173
         1
174
         0
175
         0
176
         7
177
         7
178
         7
270
         2
271
         2
272
         4
273
         2
274
         2
275
         0
280
         0
281
         0
282
         0
283
         1
284
        12
285
         0
286
         0
287
         3
288
         0
340
45
  0
ENDTAB
  0
TABLE
  2
BLOCK_RECORD
  5
1
100
AcDbSymbolTable
 70
        26
  0
BLOCK_RECORD
  5
A
100
AcDbSymbolTableRecord
100
AcDbBlockTableRecord
  2
*MODEL_SPACE
  0
BLOCK_RECORD
  5
B
100
AcDbSymbolTableRecord
100
AcDbBlockTableRecord
  2
*PAPER_SPACE
  0
BLOCK_RECORD
  5
51
100
AcDbSymbolTableRecord
100
AcDbBlockTableRecord
  2
NOTE11
  0
BLOCK_RECORD
  5
6B
100
AcDbSymbolTableRecord
100
AcDbBlockTableRecord
  2
NOTE16
  0
BLOCK_RECORD
  5
73
100
AcDbSymbolTableRecord
100
AcDbBlockTableRecord
  2
NOTE21
  0
BLOCK_RECORD
  5
79
100
AcDbSymbolTableRecord
100
AcDbBlockTableRecord
  2
NOTE22
  0
BLOCK_RECORD
  5
7D
100
AcDbSymbolTableRecord
100
AcDbBlockTableRecord
  2
NOTE23
  0
BLOCK_RECORD
  5
81
100
AcDbSymbolTableRecord
100
AcDbBlockTableRecord
  2
NOTE24
  0
BLOCK_RECORD
  5
85
100
AcDbSymbolTableRecord
100
AcDbBlockTableRecord
  2
NOTE25
  0
BLOCK_RECORD
  5
89
100
AcDbSymbolTableRecord
100
AcDbBlockTableRecord
  2
NOTE26
  0
BLOCK_RECORD
  5
8D
100
AcDbSymbolTableRecord
100
AcDbBlockTableRecord
  2
NOTE27
  0
BLOCK_RECORD
  5
91
100
AcDbSymbolTableRecord
100
AcDbBlockTableRecord
  2
NOTE28
  0
BLOCK_RECORD
  5
95
100
AcDbSymbolTableRecord
100
AcDbBlockTableRecord
  2
NOTE29
  0
BLOCK_RECORD
  5
99
100
AcDbSymbolTableRecord
100
AcDbBlockTableRecord
  2
NOTE30
  0
BLOCK_RECORD
  5
9D
100
AcDbSymbolTableRecord
100
AcDbBlockTableRecord
  2
NOTE31
  0
BLOCK_RECORD
  5
A1
100
AcDbSymbolTableRecord
100
AcDbBlockTableRecord
  2
NOTE32
  0
BLOCK_RECORD
  5
AA
100
AcDbSymbolTableRecord
100
AcDbBlockTableRecord
  2
NOTE34
  0
BLOCK_RECORD
  5
BE
100
AcDbSymbolTableRecord
100
AcDbBlockTableRecord
  2
NOTE45
  0
BLOCK_RECORD
  5
C4
100
AcDbSymbolTableRecord
100
AcDbBlockTableRecord
  2
NOTE46
  0
BLOCK_RECORD
  5
D2
100
AcDbSymbolTableRecord
100
AcDbBlockTableRecord
  2
*D17
  0
BLOCK_RECORD
  5
E3
100
AcDbSymbolTableRecord
100
AcDbBlockTableRecord
  2
NOTE48
  0
BLOCK_RECORD
  5
EA
100
AcDbSymbolTableRecord
100
AcDbBlockTableRecord
  2
SW_CENTERMARK0
  0
BLOCK_RECORD
  5
10C
100
AcDbSymbolTableRecord
100
AcDbBlockTableRecord
  2
*D20
  0
BLOCK_RECORD
  5
11D
100
AcDbSymbolTableRecord
100
AcDbBlockTableRecord
  2
*D21
  0
BLOCK_RECORD
  5
12C
100
AcDbSymbolTableRecord
100
AcDbBlockTableRecord
  2
*D22
  0
BLOCK_RECORD
  5
13A
100
AcDbSymbolTableRecord
100
AcDbBlockTableRecord
  2
*D23
  0
BLOCK_RECORD
  5
149
100
AcDbSymbolTableRecord
100
AcDbBlockTableRecord
  2
*D24
  0
BLOCK_RECORD
  5
159
100
AcDbSymbolTableRecord
100
AcDbBlockTableRecord
  2
NOTE49
  0
ENDTAB
  0
ENDSEC
  0
SECTION
  2
BLOCKS
  0
BLOCK
  5
D
100
AcDbEntity
  8
0
100
AcDbBlockBegin
  2
*MODEL_SPACE
 70
         0
 10
0.0
 20
0.0
 30
0.0
  3
*MODEL_SPACE
  1

  0
ENDBLK
  5
E
100
AcDbEntity
  8
0
100
AcDbBlockEnd
  0
BLOCK
  5
F
100
AcDbEntity
 67
         1
  8
0
100
AcDbBlockBegin
  2
*PAPER_SPACE
 70
         0
 10
0.0
 20
0.0
 30
0.0
  3
*PAPER_SPACE
  1

  0
ENDBLK
  5
10
100
AcDbEntity
 67
         1
  8
0
100
AcDbBlockEnd
  0
BLOCK
  5
52
100
AcDbEntity
  8
0
 62
         0
100
AcDbBlockBegin
  2
NOTE11
 70
         0
 10
0.0
 20
0.0
 30
0.0
  3
NOTE11
  1

  0
MTEXT
  5
53
100
AcDbEntity
  8
0
 62
         7
100
AcDbMText
 10
0.0
 20
0.1018700787
 30
0.0
 40
0.0625
 41
0.0
 71
         1
 72
         1
  1
DIMENSIONS ARE IN INCHES
  7
SLDTEXTSTYLE0
  0
MTEXT
  5
54
100
AcDbEntity
  8
0
 62
         7
100
AcDbMText
 10
0.0
 20
0.0185367464
 30
0.0
 40
0.0625
 41
0.0
 71
         1
 72
         1
  1
LINEAR TOLERANCES: 
  7
SLDTEXTSTYLE0
  0
MTEXT
  5
55
100
AcDbEntity
  8
0
 62
         7
100
AcDbMText
 10
0.0
 20
-0.0647965859
 30
0.0
 40
0.0625
 41
0.0
 71
         1
 72
         1
  1
    TWO PLACE DECIMAL: 
  7
SLDTEXTSTYLE0
  0
MTEXT
  5
56
100
AcDbEntity
  8
0
 62
         7
100
AcDbMText
 10
0.9860966619
 20
-0.0647965859
 30
0.0
 40
0.0625
 41
0.0
 71
         1
 72
         1
  1
%%p
  7
SLDTEXTSTYLE0
  0
MTEXT
  5
57
100
AcDbEntity
  8
0
 62
         7
100
AcDbMText
 10
1.0456799669
 20
-0.0647965859
 30
0.0
 40
0.0625
 41
0.0
 71
         1
 72
         1
  1
0.010
  7
SLDTEXTSTYLE0
  0
MTEXT
  5
58
100
AcDbEntity
  8
0
 62
         7
100
AcDbMText
 10
0.0
 20
-0.1481299182
 30
0.0
 40
0.0625
 41
0.0
 71
         1
 72
         1
  1
    THREE PLACE DECIMAL: 
  7
SLDTEXTSTYLE0
  0
MTEXT
  5
59
100
AcDbEntity
  8
0
 62
         7
100
AcDbMText
 10
1.0267939917
 20
-0.1481299182
 30
0.0
 40
0.0625
 41
0.0
 71
         1
 72
         1
  1
%%p
  7
SLDTEXTSTYLE0
  0
MTEXT
  5
5A
100
AcDbEntity
  8
0
 62
         7
100
AcDbMText
 10
1.0863772967
 20
-0.1481299182
 30
0.0
 40
0.0625
 41
0.0
 71
         1
 72
         1
  1
0.005
  7
SLDTEXTSTYLE0
  0
MTEXT
  5
5B
100
AcDbEntity
  8
0
 62
         7
100
AcDbMText
 10
0.0
 20
-0.2314632506
 30
0.0
 40
0.0625
 41
0.0
 71
         1
 72
         1
  1
ANGULAR: 
  7
SLDTEXTSTYLE0
  0
MTEXT
  5
5C
100
AcDbEntity
  8
0
 62
         7
100
AcDbMText
 10
0.4373119015
 20
-0.2314632506
 30
0.0
 40
0.0625
 41
0.0
 71
         1
 72
         1
  1
%%p
  7
SLDTEXTSTYLE0
  0
MTEXT
  5
5D
100
AcDbEntity
  8
0
 62
         7
100
AcDbMText
 10
0.4968952432
 20
-0.2314632506
 30
0.0
 40
0.0625
 41
0.0
 71
         1
 72
         1
  1
30'     
  7
SLDTEXTSTYLE0
  0
MTEXT
  5
5E
100
AcDbEntity
  8
0
 62
         7
100
AcDbMText
 10
0.0
 20
-0.3147965829
 30
0.0
 40
0.0625
 41
0.0
 71
         1
 72
         1
  1
SURFACE FINISH: 32 MICROINCHES
  7
SLDTEXTSTYLE0
  0
MTEXT
  5
5F
100
AcDbEntity
  8
0
 62
         7
100
AcDbMText
 10
0.0
 20
-0.3981299152
 30
0.0
 40
0.0625
 41
0.0
 71
         1
 72
         1
  1
PARALLELISM: 0.002
  7
SLDTEXTSTYLE0
  0
MTEXT
  5
60
100
AcDbEntity
  8
0
 62
         7
100
AcDbMText
 10
0.0
 20
-0.4814632475
 30
0.0
 40
0.0625
 41
0.0
 71
         1
 72
         1
  1
FLATNESS: 0.002
  7
SLDTEXTSTYLE0
  0
MTEXT
  5
61
100
AcDbEntity
  8
0
 62
         7
100
AcDbMText
 10
0.0
 20
-0.5647965799
 30
0.0
 40
0.0625
 41
0.0
 71
         1
 72
         1
  1
STRAIGHTNESS: 0.002
  7
SLDTEXTSTYLE0
  0
MTEXT
  5
62
100
AcDbEntity
  8
0
 62
         7
100
AcDbMText
 10
0.0
 20
-0.6481299122
 30
0.0
 40
0.0625
 41
0.0
 71
         1
 72
         1
  1
CONCENTRICITY: 0.002
  7
SLDTEXTSTYLE0
  0
MTEXT
  5
63
100
AcDbEntity
  8
0
 62
         7
100
AcDbMText
 10
0.0
 20
-0.7314632445
 30
0.0
 40
0.0625
 41
0.0
 71
         1
 72
         1
  1
PERPENDICULARITY: 0.002
  7
SLDTEXTSTYLE0
  0
MTEXT
  5
64
100
AcDbEntity
  8
0
 62
         7
100
AcDbMText
 10
0.0
 20
-0.8147965768
 30
0.0
 40
0.0625
 41
0.0
 71
         1
 72
         1
  1
THREAD: CLASS 2 FIT
  7
SLDTEXTSTYLE0
  0
ENDBLK
  5
65
100
AcDbEntity
  8
0
100
AcDbBlockEnd
  0
BLOCK
  5
6C
100
AcDbEntity
  8
0
 62
         0
100
AcDbBlockBegin
  2
NOTE16
 70
         0
 10
0.0
 20
0.0
 30
0.0
  3
NOTE16
  1

  0
ENDBLK
  5
6D
100
AcDbEntity
  8
0
100
AcDbBlockEnd
  0
BLOCK
  5
74
100
AcDbEntity
  8
0
 62
         0
100
AcDbBlockBegin
  2
NOTE21
 70
         0
 10
0.0
 20
0.0
 30
0.0
  3
NOTE21
  1

  0
MTEXT
  5
75
100
AcDbEntity
  8
0
 62
         7
100
AcDbMText
 10
0.0
 20
0.1227034121
 30
0.0
 40
0.0833333333
 41
0.0
 71
         1
 72
         1
  1
SCALE: 
  7
SLDTEXTSTYLE0
  0
MTEXT
  5
76
100
AcDbEntity
  8
0
 62
         7
100
AcDbMText
 10
0.3914930674
 20
0.1227034121
 30
0.0
 40
0.0833333333
 41
0.0
 71
         1
 72
         1
  1
1:1
  7
SLDTEXTSTYLE0
  0
ENDBLK
  5
77
100
AcDbEntity
  8
0
100
AcDbBlockEnd
  0
BLOCK
  5
7A
100
AcDbEntity
  8
0
 62
         0
100
AcDbBlockBegin
  2
NOTE22
 70
         0
 10
0.0
 20
0.0
 30
0.0
  3
NOTE22
  1

  0
ENDBLK
  5
7B
100
AcDbEntity
  8
0
100
AcDbBlockEnd
  0
BLOCK
  5
7E
100
AcDbEntity
  8
0
 62
         0
100
AcDbBlockBegin
  2
NOTE23
 70
         0
 10
0.0
 20
0.0
 30
0.0
  3
NOTE23
  1

  0
ENDBLK
  5
7F
100
AcDbEntity
  8
0
100
AcDbBlockEnd
  0
BLOCK
  5
82
100
AcDbEntity
  8
0
 62
         0
100
AcDbBlockBegin
  2
NOTE24
 70
         0
 10
0.0
 20
0.0
 30
0.0
  3
NOTE24
  1

  0
ENDBLK
  5
83
100
AcDbEntity
  8
0
100
AcDbBlockEnd
  0
BLOCK
  5
86
100
AcDbEntity
  8
0
 62
         0
100
AcDbBlockBegin
  2
NOTE25
 70
         0
 10
0.0
 20
0.0
 30
0.0
  3
NOTE25
  1

  0
ENDBLK
  5
87
100
AcDbEntity
  8
0
100
AcDbBlockEnd
  0
BLOCK
  5
8A
100
AcDbEntity
  8
0
 62
         0
100
AcDbBlockBegin
  2
NOTE26
 70
         0
 10
0.0
 20
0.0
 30
0.0
  3
NOTE26
  1

  0
ENDBLK
  5
8B
100
AcDbEntity
  8
0
100
AcDbBlockEnd
  0
BLOCK
  5
8E
100
AcDbEntity
  8
0
 62
         0
100
AcDbBlockBegin
  2
NOTE27
 70
         0
 10
0.0
 20
0.0
 30
0.0
  3
NOTE27
  1

  0
ENDBLK
  5
8F
100
AcDbEntity
  8
0
100
AcDbBlockEnd
  0
BLOCK
  5
92
100
AcDbEntity
  8
0
 62
         0
100
AcDbBlockBegin
  2
NOTE28
 70
         0
 10
0.0
 20
0.0
 30
0.0
  3
NOTE28
  1

  0
ENDBLK
  5
93
100
AcDbEntity
  8
0
100
AcDbBlockEnd
  0
BLOCK
  5
96
100
AcDbEntity
  8
0
 62
         0
100
AcDbBlockBegin
  2
NOTE29
 70
         0
 10
0.0
 20
0.0
 30
0.0
  3
NOTE29
  1

  0
ENDBLK
  5
97
100
AcDbEntity
  8
0
100
AcDbBlockEnd
  0
BLOCK
  5
9A
100
AcDbEntity
  8
0
 62
         0
100
AcDbBlockBegin
  2
NOTE30
 70
         0
 10
0.0
 20
0.0
 30
0.0
  3
NOTE30
  1

  0
ENDBLK
  5
9B
100
AcDbEntity
  8
0
100
AcDbBlockEnd
  0
BLOCK
  5
9E
100
AcDbEntity
  8
0
 62
         0
100
AcDbBlockBegin
  2
NOTE31
 70
         0
 10
0.0
 20
0.0
 30
0.0
  3
NOTE31
  1

  0
ENDBLK
  5
9F
100
AcDbEntity
  8
0
100
AcDbBlockEnd
  0
BLOCK
  5
A2
100
AcDbEntity
  8
0
 62
         0
100
AcDbBlockBegin
  2
NOTE32
 70
         0
 10
0.0
 20
0.0
 30
0.0
  3
NOTE32
  1

  0
MTEXT
  5
A3
100
AcDbEntity
  8
0
 62
         7
100
AcDbMText
 10
0.0
 20
0.1227034121
 30
0.0
 40
0.0833333333
 41
0.0
 71
         1
 72
         1
  1
SHEET 
  7
SLDTEXTSTYLE0
  0
MTEXT
  5
A4
100
AcDbEntity
  8
0
 62
         7
100
AcDbMText
 10
0.3211612733
 20
0.1227034121
 30
0.0
 40
0.0833333333
 41
0.0
 71
         1
 72
         1
  1
1
  7
SLDTEXTSTYLE0
  0
MTEXT
  5
A5
100
AcDbEntity
  8
0
 62
         7
100
AcDbMText
 10
0.3776041512
 20
0.1227034121
 30
0.0
 40
0.0833333333
 41
0.0
 71
         1
 72
         1
  1
 OF 
  7
SLDTEXTSTYLE0
  0
MTEXT
  5
A6
100
AcDbEntity
  8
0
 62
         7
100
AcDbMText
 10
0.5861689652
 20
0.1227034121
 30
0.0
 40
0.0833333333
 41
0.0
 71
         1
 72
         1
  1
1
  7
SLDTEXTSTYLE0
  0
ENDBLK
  5
A7
100
AcDbEntity
  8
0
100
AcDbBlockEnd
  0
BLOCK
  5
AB
100
AcDbEntity
  8
0
 62
         0
100
AcDbBlockBegin
  2
NOTE34
 70
         0
 10
0.0
 20
0.0
 30
0.0
  3
NOTE34
  1

  0
MTEXT
  5
AC
100
AcDbEntity
  8
0
 62
         7
100
AcDbMText
 10
0.0
 20
0.0993700787
 30
0.0
 40
0.06
 41
0.0
 71
         1
 72
         1
  1
THE INFORMATION CONTAINED IN THIS
  7
SLDTEXTSTYLE0
  0
MTEXT
  5
AD
100
AcDbEntity
  8
0
 62
         7
100
AcDbMText
 10
0.0
 20
0.0000000042
 30
0.0
 40
0.06
 41
0.0
 71
         1
 72
         1
  1
DRAWING IS THE SOLE PROPERTY OF
  7
SLDTEXTSTYLE0
  0
MTEXT
  5
AE
100
AcDbEntity
  8
0
 62
         7
100
AcDbMText
 10
0.0
 20
-0.0993700704
 30
0.0
 40
0.06
 41
0.0
 71
         1
 72
         1
  1
THORLABS, INC.  ANY REPRODUCTION 
  7
SLDTEXTSTYLE0
  0
MTEXT
  5
AF
100
AcDbEntity
  8
0
 62
         7
100
AcDbMText
 10
0.0
 20
-0.198740145
 30
0.0
 40
0.06
 41
0.0
 71
         1
 72
         1
  1
IN PART OR AS A WHOLE WITHOUT
  7
SLDTEXTSTYLE0
  0
MTEXT
  5
B0
100
AcDbEntity
  8
0
 62
         7
100
AcDbMText
 10
0.0
 20
-0.2981102195
 30
0.0
 40
0.06
 41
0.0
 71
         1
 72
         1
  1
THE WRITTEN PERMISSION OF
  7
SLDTEXTSTYLE0
  0
MTEXT
  5
B1
100
AcDbEntity
  8
0
 62
         7
100
AcDbMText
 10
0.0
 20
-0.3974802941
 30
0.0
 40
0.06
 41
0.0
 71
         1
 72
         1
  1
THORLABS, INC. IS PROHIBITED.
  7
SLDTEXTSTYLE0
  0
ENDBLK
  5
B2
100
AcDbEntity
  8
0
100
AcDbBlockEnd
  0
BLOCK
  5
BF
100
AcDbEntity
  8
0
 62
         0
100
AcDbBlockBegin
  2
NOTE45
 70
         0
 10
0.0
 20
0.0
 30
0.0
  3
NOTE45
  1

  0
MTEXT
  5
C0
100
AcDbEntity
  8
0
 62
         7
100
AcDbMText
 10
0.0
 20
0.1227034121
 30
0.0
 40
0.0833333333
 41
0.0
 71
         1
 72
         1
  1
PO BOX 366
  7
SLDTEXTSTYLE0
  0
MTEXT
  5
C1
100
AcDbEntity
  8
0
 62
         7
100
AcDbMText
 10
0.0
 20
0.0115923023
 30
0.0
 40
0.0833333333
 41
0.0
 71
         1
 72
         1
  1
NEWTON NJ
  7
SLDTEXTSTYLE0
  0
ENDBLK
  5
C2
100
AcDbEntity
  8
0
100
AcDbBlockEnd
  0
BLOCK
  5
C5
100
AcDbEntity
  8
0
 62
         0
100
AcDbBlockBegin
  2
NOTE46
 70
         0
 10
0.0
 20
0.0
 30
0.0
  3
NOTE46
  1

  0
MTEXT
  5
C6
100
AcDbEntity
  8
0
 62
         7
100
AcDbMText
 10
0.0
 20
0.1539534121
 30
0.0
 40
0.1145833333
 41
0.0
 71
         1
 72
         1
  1
PIEZOELECTRIC ACTUATOR
  7
SLDTEXTSTYLE0
  0
MTEXT
  5
C7
100
AcDbEntity
  8
0
 62
         7
100
AcDbMText
 10
0.0
 20
0.0011756361
 30
0.0
 40
0.1145833333
 41
0.0
 71
         1
 72
         1
  1
WITH FEEDBACK
  7
SLDTEXTSTYLE0
  0
ENDBLK
  5
C8
100
AcDbEntity
  8
0
100
AcDbBlockEnd
  0
BLOCK
  5
D3
100
AcDbEntity
  8
0
 62
         7
100
AcDbBlockBegin
  2
*D17
 70
         1
 10
0.0
 20
0.0
 30
0.0
  3
*D17
  1

  0
MTEXT
  5
D4
100
AcDbEntity
  8
0
 62
         7
100
AcDbMText
 10
7.2541013182
 20
3.762773419
 30
0.0
 40
0.0833333333
 41
0.0
 71
         1
 72
         1
  1
0.93
  7
SLDTEXTSTYLE0
  0
MTEXT
  5
D5
100
AcDbEntity
  8
0
 62
         7
100
AcDbMText
 10
7.1706136464
 20
3.6305197051
 30
0.0
 40
0.0833333333
 41
0.0
 71
         1
 72
         1
  1
(24mm)
  7
SLDTEXTSTYLE0
  0
LINE
  5
D6
100
AcDbEntity
  8
0
 62
         7
100
AcDbLine
 10
7.9853599289
 20
4.1032480457
 30
0.0
 11
7.2917514949
 21
4.1032480457
 31
0.0
  0
LINE
  5
D7
100
AcDbEntity
  8
0
 62
         7
100
AcDbLine
 10
8.0641000864
 20
3.1768919773
 30
0.0
 11
7.2917514949
 21
3.1768919773
 31
0.0
  0
LINE
  5
D8
100
AcDbEntity
  8
0
 62
         7
100
AcDbLine
 10
7.3617514949
 20
4.1032480457
 30
0.0
 11
7.3617514949
 21
3.7723237254
 31
0.0
  0
LINE
  5
D9
100
AcDbEntity
  8
0
 62
         7
100
AcDbLine
 10
7.3617514949
 20
3.1768919773
 30
0.0
 11
7.3617514949
 21
3.5078162976
 31
0.0
  0
SOLID
  5
DA
100
AcDbEntity
  8
0
 62
         7
100
AcDbTrace
 10
7.3617514949
 20
4.1032480457
 30
0.0
 11
7.3417514949
 21
3.9782480457
 31
0.0
 12
7.3817514949
 22
3.9782480457
 32
0.0
 13
7.3817514949
 23
3.9782480457
 33
0.0
  0
SOLID
  5
DB
100
AcDbEntity
  8
0
 62
         7
100
AcDbTrace
 10
7.3617514949
 20
3.1768919773
 30
0.0
 11
7.3817514949
 21
3.3018919773
 31
0.0
 12
7.3417514949
 22
3.3018919773
 32
0.0
 13
7.3417514949
 23
3.3018919773
 33
0.0
  0
POINT
  5
DD
100
AcDbEntity
  8
DEFPOINTS
 62
         7
100
AcDbPoint
 10
8.0353599289
 20
4.1032480457
 30
0.0
  0
POINT
  5
DE
100
AcDbEntity
  8
DEFPOINTS
 62
         7
100
AcDbPoint
 10
8.1141000864
 20
3.1768919773
 30
0.0
  0
ENDBLK
  5
DF
100
AcDbEntity
  8
0
 62
         7
100
AcDbBlockEnd
  0
BLOCK
  5
E4
100
AcDbEntity
  8
0
 62
         0
100
AcDbBlockBegin
  2
NOTE48
 70
         0
 10
0.0
 20
0.0
 30
0.0
  3
NOTE48
  1

  0
MTEXT
  5
E5
100
AcDbEntity
  8
0
 62
         7
100
AcDbMText
 10
0.0197525583
 20
0.1783295474
 30
0.0
 40
0.0833333333
 41
0.0
 71
         1
 72
         1
  1
#6-32 UNC TAPPED
  7
SLDTEXTSTYLE0
  0
MTEXT
  5
E6
100
AcDbEntity
  8
0
 62
         7
100
AcDbMText
 10
0.0197525583
 20
0.0672184377
 30
0.0
 40
0.0833333333
 41
0.0
 71
         1
 72
         1
  1
0.30(7.5mm) DEEP
  7
SLDTEXTSTYLE0
  0
MTEXT
  5
E7
100
AcDbEntity
  8
0
 62
         7
100
AcDbMText
 10
0.0197525583
 20
-0.0438926721
 30
0.0
 40
0.0833333333
 41
0.0
 71
         1
 72
         1
  1
2 PLACES
  7
SLDTEXTSTYLE0
  0
ENDBLK
  5
E8
100
AcDbEntity
  8
0
100
AcDbBlockEnd
  0
BLOCK
  5
EB
100
AcDbEntity
  8
0
 62
         0
100
AcDbBlockBegin
  2
SW_CENTERMARK0
 70
         0
 10
0.0
 20
0.0
 30
0.0
  3
SW_CENTERMARK0
  1

  0
LINE
  5
EC
100
AcDbEntity
  8
0
  6
CONTINUOUS
 62
         7
100
AcDbLine
 10
8.1141000864
 20
3.4249234734
 30
0.0
 11
8.1141000864
 21
3.4749234734
 31
0.0
  0
LINE
  5
ED
100
AcDbEntity
  8
0
  6
CONTINUOUS
 62
         7
100
AcDbLine
 10
8.1141000864
 20
3.4249234734
 30
0.0
 11
8.0641000864
 21
3.4249234734
 31
0.0
  0
LINE
  5
EE
100
AcDbEntity
  8
0
  6
CONTINUOUS
 62
         7
100
AcDbLine
 10
8.1141000864
 20
3.4249234734
 30
0.0
 11
8.1141000864
 21
3.3749234734
 31
0.0
  0
LINE
  5
EF
100
AcDbEntity
  8
0
  6
CONTINUOUS
 62
         7
100
AcDbLine
 10
8.1141000864
 20
3.4249234734
 30
0.0
 11
8.1641000864
 21
3.4249234734
 31
0.0
  0
ENDBLK
  5
F0
100
AcDbEntity
  8
0
100
AcDbBlockEnd
  0
BLOCK
  5
10D
100
AcDbEntity
  8
0
 62
         7
100
AcDbBlockBegin
  2
*D20
 70
         1
 10
0.0
 20
0.0
 30
0.0
  3
*D20
  1

  0
MTEXT
  5
10E
100
AcDbEntity
  8
0
 62
         7
100
AcDbMText
 10
1.3906551713
 20
2.9922009922
 30
0.0
 40
0.0833333333
 41
0.0
 71
         1
 72
         1
  1
%%c
  7
SLDTEXTSTYLE0
  0
MTEXT
  5
10F
100
AcDbEntity
  8
0
 62
         7
100
AcDbMText
 10
1.5163893359
 20
2.9922009922
 30
0.0
 40
0.0833333333
 41
0.0
 71
         1
 72
         1
  1
0.20
  7
SLDTEXTSTYLE0
  0
MTEXT
  5
110
100
AcDbEntity
  8
0
 62
         7
100
AcDbMText
 10
1.3546670728
 20
2.8599472783
 30
0.0
 40
0.0833333333
 41
0.0
 71
         1
 72
         1
  1
(5.1mm)
  7
SLDTEXTSTYLE0
  0
LINE
  5
111
100
AcDbEntity
  8
0
 62
         7
100
AcDbLine
 10
2.5023760533
 20
3.5253171741
 30
0.0
 11
1.8508027877
 21
3.5253171741
 31
0.0
  0
LINE
  5
112
100
AcDbEntity
  8
0
 62
         7
100
AcDbLine
 10
2.5023760533
 20
3.3245297726
 30
0.0
 11
1.8508027877
 21
3.3245297726
 31
0.0
  0
LINE
  5
113
100
AcDbEntity
  8
0
 62
         7
100
AcDbLine
 10
1.8458027877
 20
2.8694975847
 30
0.0
 11
1.9208027877
 21
2.8694975847
 31
0.0
  0
LINE
  5
114
100
AcDbEntity
  8
0
 62
         7
100
AcDbLine
 10
1.9208027877
 20
2.8694975847
 30
0.0
 11
1.9208027877
 21
3.3245297726
 31
0.0
  0
LINE
  5
115
100
AcDbEntity
  8
0
 62
         7
100
AcDbLine
 10
1.9208027877
 20
3.5253171741
 30
0.0
 11
1.9208027877
 21
3.7753171741
 31
0.0
  0
SOLID
  5
116
100
AcDbEntity
  8
0
 62
         7
100
AcDbTrace
 10
1.9208027877
 20
3.5253171741
 30
0.0
 11
1.9408027877
 21
3.6503171741
 31
0.0
 12
1.9008027877
 22
3.6503171741
 32
0.0
 13
1.9008027877
 23
3.6503171741
 33
0.0
  0
SOLID
  5
117
100
AcDbEntity
  8
0
 62
         7
100
AcDbTrace
 10
1.9208027877
 20
3.3245297726
 30
0.0
 11
1.9008027877
 21
3.1995297726
 31
0.0
 12
1.9408027877
 22
3.1995297726
 32
0.0
 13
1.9408027877
 23
3.1995297726
 33
0.0
  0
POINT
  5
119
100
AcDbEntity
  8
DEFPOINTS
 62
         7
100
AcDbPoint
 10
2.5523760533
 20
3.5253171741
 30
0.0
  0
POINT
  5
11A
100
AcDbEntity
  8
DEFPOINTS
 62
         7
100
AcDbPoint
 10
2.5523760533
 20
3.3245297726
 30
0.0
  0
ENDBLK
  5
11B
100
AcDbEntity
  8
0
 62
         7
100
AcDbBlockEnd
  0
BLOCK
  5
11E
100
AcDbEntity
  8
0
 62
         7
100
AcDbBlockBegin
  2
*D21
 70
         1
 10
0.0
 20
0.0
 30
0.0
  3
*D21
  1

  0
MTEXT
  5
11F
100
AcDbEntity
  8
0
 62
         7
100
AcDbMText
 10
3.8620487112
 20
2.6239356222
 30
0.0
 40
0.0833333333
 41
0.0
 71
         1
 72
         1
  1
3.07
  7
SLDTEXTSTYLE0
  0
MTEXT
  5
120
100
AcDbEntity
  8
0
 62
         7
100
AcDbMText
 10
3.7785610395
 20
2.4916819083
 30
0.0
 40
0.0833333333
 41
0.0
 71
         1
 72
         1
  1
(78mm)
  7
SLDTEXTSTYLE0
  0
LINE
  5
121
100
AcDbEntity
  8
0
 62
         7
100
AcDbLine
 10
2.4342658171
 20
3.1583880403
 30
0.0
 11
2.4342658171
 21
2.4312322147
 31
0.0
  0
LINE
  5
122
100
AcDbEntity
  8
0
 62
         7
100
AcDbLine
 10
5.5051319588
 20
3.1268919773
 30
0.0
 11
5.5051319588
 21
2.4312322147
 31
0.0
  0
LINE
  5
123
100
AcDbEntity
  8
0
 62
         7
100
AcDbLine
 10
2.4342658171
 20
2.5012322147
 30
0.0
 11
3.7004360395
 21
2.5012322147
 31
0.0
  0
LINE
  5
124
100
AcDbEntity
  8
0
 62
         7
100
AcDbLine
 10
5.5051319588
 20
2.5012322147
 30
0.0
 11
4.2389617364
 21
2.5012322147
 31
0.0
  0
SOLID
  5
125
100
AcDbEntity
  8
0
 62
         7
100
AcDbTrace
 10
2.4342658171
 20
2.5012322147
 30
0.0
 11
2.5592658171
 21
2.4812322147
 31
0.0
 12
2.5592658171
 22
2.5212322147
 32
0.0
 13
2.5592658171
 23
2.5212322147
 33
0.0
  0
SOLID
  5
126
100
AcDbEntity
  8
0
 62
         7
100
AcDbTrace
 10
5.5051319588
 20
2.5012322147
 30
0.0
 11
5.3801319588
 21
2.5212322147
 31
0.0
 12
5.3801319588
 22
2.4812322147
 32
0.0
 13
5.3801319588
 23
2.4812322147
 33
0.0
  0
POINT
  5
128
100
AcDbEntity
  8
DEFPOINTS
 62
         7
100
AcDbPoint
 10
2.4342658171
 20
3.2083880403
 30
0.0
  0
POINT
  5
129
100
AcDbEntity
  8
DEFPOINTS
 62
         7
100
AcDbPoint
 10
5.5051319588
 20
3.1768919773
 30
0.0
  0
ENDBLK
  5
12A
100
AcDbEntity
  8
0
 62
         7
100
AcDbBlockEnd
  0
BLOCK
  5
12D
100
AcDbEntity
  8
0
 62
         7
100
AcDbBlockBegin
  2
*D22
 70
         1
 10
0.0
 20
0.0
 30
0.0
  3
*D22
  1

  0
MTEXT
  5
12E
100
AcDbEntity
  8
0
 62
         7
100
AcDbMText
 10
3.9211038293
 20
2.9922009922
 30
0.0
 40
0.0833333333
 41
0.0
 71
         1
 72
         1
  1
2.95
  7
SLDTEXTSTYLE0
  0
MTEXT
  5
12F
100
AcDbEntity
  8
0
 62
         7
100
AcDbMText
 10
3.8376161576
 20
2.8599472783
 30
0.0
 40
0.0833333333
 41
0.0
 71
         1
 72
         1
  1
(75mm)
  7
SLDTEXTSTYLE0
  0
LINE
  5
130
100
AcDbEntity
  8
0
 62
         7
100
AcDbLine
 10
2.5523760533
 20
3.1583880403
 30
0.0
 11
2.5523760533
 21
2.7994975847
 31
0.0
  0
LINE
  5
131
100
AcDbEntity
  8
0
 62
         7
100
AcDbLine
 10
5.5051319588
 20
3.1268919773
 30
0.0
 11
5.5051319588
 21
2.7994975847
 31
0.0
  0
LINE
  5
132
100
AcDbEntity
  8
0
 62
         7
100
AcDbLine
 10
2.5523760533
 20
2.8694975847
 30
0.0
 11
3.7594911576
 21
2.8694975847
 31
0.0
  0
LINE
  5
133
100
AcDbEntity
  8
0
 62
         7
100
AcDbLine
 10
5.5051319588
 20
2.8694975847
 30
0.0
 11
4.2980168545
 21
2.8694975847
 31
0.0
  0
SOLID
  5
134
100
AcDbEntity
  8
0
 62
         7
100
AcDbTrace
 10
2.5523760533
 20
2.8694975847
 30
0.0
 11
2.6773760533
 21
2.8494975847
 31
0.0
 12
2.6773760533
 22
2.8894975847
 32
0.0
 13
2.6773760533
 23
2.8894975847
 33
0.0
  0
SOLID
  5
135
100
AcDbEntity
  8
0
 62
         7
100
AcDbTrace
 10
5.5051319588
 20
2.8694975847
 30
0.0
 11
5.3801319588
 21
2.8894975847
 31
0.0
 12
5.3801319588
 22
2.8494975847
 32
0.0
 13
5.3801319588
 23
2.8494975847
 33
0.0
  0
POINT
  5
136
100
AcDbEntity
  8
DEFPOINTS
 62
         7
100
AcDbPoint
 10
2.5523760533
 20
3.2083880403
 30
0.0
  0
POINT
  5
137
100
AcDbEntity
  8
DEFPOINTS
 62
         7
100
AcDbPoint
 10
5.5051319588
 20
3.1768919773
 30
0.0
  0
ENDBLK
  5
138
100
AcDbEntity
  8
0
 62
         7
100
AcDbBlockEnd
  0
BLOCK
  5
13B
100
AcDbEntity
  8
0
 62
         7
100
AcDbBlockBegin
  2
*D23
 70
         1
 10
0.0
 20
0.0
 30
0.0
  3
*D23
  1

  0
MTEXT
  5
13C
100
AcDbEntity
  8
0
 62
         7
100
AcDbMText
 10
4.09404393
 20
4.504590465
 30
0.0
 40
0.0833333333
 41
0.0
 71
         1
 72
         1
  1
%%c
  7
SLDTEXTSTYLE0
  0
MTEXT
  5
13D
100
AcDbEntity
  8
0
 62
         7
100
AcDbMText
 10
4.2197780946
 20
4.504590465
 30
0.0
 40
0.0833333333
 41
0.0
 71
         1
 72
         1
  1
0.16
  7
SLDTEXTSTYLE0
  0
MTEXT
  5
13E
100
AcDbEntity
  8
0
 62
         7
100
AcDbMText
 10
4.1042359723
 20
4.3723367511
 30
0.0
 40
0.0833333333
 41
0.0
 71
         1
 72
         1
  1
(4mm)
  7
SLDTEXTSTYLE0
  0
LINE
  5
13F
100
AcDbEntity
  8
0
 62
         7
100
AcDbLine
 10
4.9342658171
 20
4.1532480457
 30
0.0
 11
4.9342658171
 21
4.4518870575
 31
0.0
  0
LINE
  5
140
100
AcDbEntity
  8
0
 62
         7
100
AcDbLine
 10
5.091746132
 20
4.1532480457
 30
0.0
 11
5.091746132
 21
4.4518870575
 31
0.0
  0
LINE
  5
141
100
AcDbEntity
  8
0
 62
         7
100
AcDbLine
 10
4.9342658171
 20
4.3818870575
 30
0.0
 11
4.5030114058
 21
4.3818870575
 31
0.0
  0
LINE
  5
142
100
AcDbEntity
  8
0
 62
         7
100
AcDbLine
 10
5.091746132
 20
4.3818870575
 30
0.0
 11
5.341746132
 21
4.3818870575
 31
0.0
  0
SOLID
  5
143
100
AcDbEntity
  8
0
 62
         7
100
AcDbTrace
 10
4.9342658171
 20
4.3818870575
 30
0.0
 11
4.8092658171
 21
4.4018870575
 31
0.0
 12
4.8092658171
 22
4.3618870575
 32
0.0
 13
4.8092658171
 23
4.3618870575
 33
0.0
  0
SOLID
  5
144
100
AcDbEntity
  8
0
 62
         7
100
AcDbTrace
 10
5.091746132
 20
4.3818870575
 30
0.0
 11
5.216746132
 21
4.3618870575
 31
0.0
 12
5.216746132
 22
4.4018870575
 32
0.0
 13
5.216746132
 23
4.4018870575
 33
0.0
  0
POINT
  5
145
100
AcDbEntity
  8
DEFPOINTS
 62
         7
100
AcDbPoint
 10
4.9342658171
 20
4.1032480457
 30
0.0
  0
POINT
  5
146
100
AcDbEntity
  8
DEFPOINTS
 62
         7
100
AcDbPoint
 10
5.091746132
 20
4.1032480457
 30
0.0
  0
ENDBLK
  5
147
100
AcDbEntity
  8
0
 62
         7
100
AcDbBlockEnd
  0
BLOCK
  5
14A
100
AcDbEntity
  8
0
 62
         7
100
AcDbBlockBegin
  2
*D24
 70
         1
 10
0.0
 20
0.0
 30
0.0
  3
*D24
  1

  0
MTEXT
  5
14B
100
AcDbEntity
  8
0
 62
         7
100
AcDbMText
 10
5.7962060508
 20
3.5476268808
 30
0.0
 40
0.0833333333
 41
0.0
 71
         1
 72
         1
  1
%%c
  7
SLDTEXTSTYLE0
  0
MTEXT
  5
14C
100
AcDbEntity
  8
0
 62
         7
100
AcDbMText
 10
5.9219402154
 20
3.5476268808
 30
0.0
 40
0.0833333333
 41
0.0
 71
         1
 72
         1
  1
0.50
  7
SLDTEXTSTYLE0
  0
MTEXT
  5
14D
100
AcDbEntity
  8
0
 62
         7
100
AcDbMText
 10
5.7755854614
 20
3.415373167
 30
0.0
 40
0.0833333333
 41
0.0
 71
         1
 72
         1
  1
(13mm)
  7
SLDTEXTSTYLE0
  0
LINE
  5
14E
100
AcDbEntity
  8
0
 62
         7
100
AcDbLine
 10
5.5551319588
 20
3.6729549694
 30
0.0
 11
6.0367233098
 21
3.6729549694
 31
0.0
  0
LINE
  5
14F
100
AcDbEntity
  8
0
 62
         7
100
AcDbLine
 10
5.5551319588
 20
3.1768919773
 30
0.0
 11
6.0367233098
 21
3.1768919773
 31
0.0
  0
LINE
  5
150
100
AcDbEntity
  8
0
 62
         7
100
AcDbLine
 10
5.9667233098
 20
3.6729549694
 30
0.0
 11
5.9667233098
 21
3.9229549694
 31
0.0
  0
LINE
  5
151
100
AcDbEntity
  8
0
 62
         7
100
AcDbLine
 10
5.9667233098
 20
3.1768919773
 30
0.0
 11
5.9667233098
 21
2.9268919773
 31
0.0
  0
SOLID
  5
152
100
AcDbEntity
  8
0
 62
         7
100
AcDbTrace
 10
5.9667233098
 20
3.6729549694
 30
0.0
 11
5.9867233098
 21
3.7979549694
 31
0.0
 12
5.9467233098
 22
3.7979549694
 32
0.0
 13
5.9467233098
 23
3.7979549694
 33
0.0
  0
SOLID
  5
153
100
AcDbEntity
  8
0
 62
         7
100
AcDbTrace
 10
5.9667233098
 20
3.1768919773
 30
0.0
 11
5.9467233098
 21
3.0518919773
 31
0.0
 12
5.9867233098
 22
3.0518919773
 32
0.0
 13
5.9867233098
 23
3.0518919773
 33
0.0
  0
POINT
  5
154
100
AcDbEntity
  8
DEFPOINTS
 62
         7
100
AcDbPoint
 10
5.5051319588
 20
3.6729549694
 30
0.0
  0
POINT
  5
155
100
AcDbEntity
  8
DEFPOINTS
 62
         7
100
AcDbPoint
 10
5.5051319588
 20
3.1768919773
 30
0.0
  0
ENDBLK
  5
156
100
AcDbEntity
  8
0
 62
         7
100
AcDbBlockEnd
  0
BLOCK
  5
15A
100
AcDbEntity
  8
0
 62
         0
100
AcDbBlockBegin
  2
NOTE49
 70
         0
 10
0.0
 20
0.0
 30
0.0
  3
NOTE49
  1

  0
MTEXT
  5
15B
100
AcDbEntity
  8
0
 62
         7
100
AcDbMText
 10
-0.8494677324
 20
0.2338621359
 30
0.0
 40
0.0833333333
 41
0.0
 71
         1
 72
         1
  1
REMOVABLE TIP
  7
SLDTEXTSTYLE0
  0
MTEXT
  5
15C
100
AcDbEntity
  8
0
 62
         7
100
AcDbMText
 10
-0.808264115
 20
0.1227510261
 30
0.0
 40
0.0833333333
 41
0.0
 71
         1
 72
         1
  1
PART# PAA001
  7
SLDTEXTSTYLE0
  0
MTEXT
  5
15D
100
AcDbEntity
  8
0
 62
         7
100
AcDbMText
 10
-0.609344393
 20
0.0116399163
 30
0.0
 40
0.0833333333
 41
0.0
 71
         1
 72
         1
  1
PAA-SERIES
  7
SLDTEXTSTYLE0
  0
MTEXT
  5
15E
100
AcDbEntity
  8
0
 62
         7
100
AcDbMText
 10
-0.7039431535
 20
-0.0994711934
 30
0.0
 40
0.0833333333
 41
0.0
 71
         1
 72
         1
  1
COMPATIBLE
  7
SLDTEXTSTYLE0
  0
ENDBLK
  5
15F
100
AcDbEntity
  8
0
100
AcDbBlockEnd
  0
ENDSEC
  0
SECTION
  2
ENTITIES
  0
LINE
  5
25
100
AcDbEntity
  8
0
  6
CONTINUOUS
 62
         7
100
AcDbLine
 10
0.329927
 20
8.1920731707
 30
0.0
 11
10.629927
 21
8.1920731707
 31
0.0
  0
LINE
  5
26
100
AcDbEntity
  8
0
  6
CONTINUOUS
 62
         7
100
AcDbLine
 10
0.329927
 20
8.1920731707
 30
0.0
 11
0.329927
 21
0.3920731707
 31
0.0
  0
LINE
  5
27
100
AcDbEntity
  8
0
  6
CONTINUOUS
 62
         7
100
AcDbLine
 10
10.629927
 20
0.3920731707
 30
0.0
 11
0.329927
 21
0.3920731707
 31
0.0
  0
LINE
  5
28
100
AcDbEntity
  8
0
  6
CONTINUOUS
 62
         7
100
AcDbLine
 10
10.629927
 20
0.3920731707
 30
0.0
 11
10.629927
 21
8.1920731707
 31
0.0
  0
LINE
  5
29
100
AcDbEntity
  8
0
  6
CONTINUOUS
 62
         7
100
AcDbLine
 10
7.8832069922
 20
1.2010186622
 30
0.0
 11
6.3491817542
 21
1.2010186622
 31
0.0
  0
LINE
  5
2A
100
AcDbEntity
  8
0
  6
CONTINUOUS
 62
         7
100
AcDbLine
 10
6.3491817542
 20
0.3920731707
 30
0.0
 11
6.3491817542
 21
1.6988536355
 31
0.0
  0
LINE
  5
2B
100
AcDbEntity
  8
0
  6
CONTINUOUS
 62
         7
100
AcDbLine
 10
7.8832069922
 20
1.270166923
 30
0.0
 11
10.629927
 21
1.270166923
 31
0.0
  0
LINE
  5
2C
100
AcDbEntity
  8
0
  6
CONTINUOUS
 62
         7
100
AcDbLine
 10
7.8832069922
 20
1.9437769943
 30
0.0
 11
7.8832069922
 21
0.3920731707
 31
0.0
  0
LINE
  5
2D
100
AcDbEntity
  8
0
  6
CONTINUOUS
 62
         7
100
AcDbLine
 10
7.8832069922
 20
1.323339557
 30
0.0
 11
6.3491817542
 21
1.323339557
 31
0.0
  0
LINE
  5
2E
100
AcDbEntity
  8
0
  6
CONTINUOUS
 62
         7
100
AcDbLine
 10
7.8832069922
 20
1.6988536355
 30
0.0
 11
4.9283800522
 21
1.6988536355
 31
0.0
  0
LINE
  5
2F
100
AcDbEntity
  8
0
  6
CONTINUOUS
 62
         7
100
AcDbLine
 10
7.8832069922
 20
0.7890359178
 30
0.0
 11
10.629927
 21
0.7890359178
 31
0.0
  0
LINE
  5
30
100
AcDbEntity
  8
0
  6
CONTINUOUS
 62
         7
100
AcDbLine
 10
7.8832069922
 20
1.4456604517
 30
0.0
 11
6.3491817542
 21
1.4456604517
 31
0.0
  0
LINE
  5
31
100
AcDbEntity
  8
0
  6
CONTINUOUS
 62
         7
100
AcDbLine
 10
7.8832069922
 20
1.5679813464
 30
0.0
 11
6.3491817542
 21
1.5679813464
 31
0.0
  0
LINE
  5
32
100
AcDbEntity
  8
0
  6
CONTINUOUS
 62
         7
100
AcDbLine
 10
6.9294188505
 20
1.6988536355
 30
0.0
 11
6.9294188505
 21
1.2010186622
 31
0.0
  0
LINE
  5
33
100
AcDbEntity
  8
0
  6
CONTINUOUS
 62
         7
100
AcDbLine
 10
7.2989435727
 20
1.6988536355
 30
0.0
 11
7.2989435727
 21
1.2010186622
 31
0.0
  0
LINE
  5
34
100
AcDbEntity
  8
0
  6
CONTINUOUS
 62
         7
100
AcDbLine
 10
8.9000563418
 20
0.7890359178
 30
0.0
 11
8.9000563418
 21
0.3920731707
 31
0.0
  0
LINE
  5
35
100
AcDbEntity
  8
0
  6
CONTINUOUS
 62
         7
100
AcDbLine
 10
9.3113942988
 20
0.96139916
 30
0.0
 11
9.3113942988
 21
0.7890359178
 31
0.0
  0
LINE
  5
36
100
AcDbEntity
  8
0
  6
CONTINUOUS
 62
         7
100
AcDbLine
 10
10.0324602448
 20
1.270166923
 30
0.0
 11
10.0324602448
 21
0.96139916
 31
0.0
  0
LINE
  5
37
100
AcDbEntity
  8
0
  6
CONTINUOUS
 62
         7
100
AcDbLine
 10
4.9283800522
 20
1.6988536355
 30
0.0
 11
4.9283800522
 21
0.3920731707
 31
0.0
  0
LINE
  5
38
100
AcDbEntity
  8
0
  6
CONTINUOUS
 62
         7
100
AcDbLine
 10
4.9283800522
 20
1.540040151
 30
0.0
 11
6.3491817542
 21
1.540040151
 31
0.0
  0
LINE
  5
39
100
AcDbEntity
  8
0
  6
CONTINUOUS
 62
         7
100
AcDbLine
 10
4.9283800522
 20
1.4356947803
 30
0.0
 11
6.3491817542
 21
1.4356947803
 31
0.0
  0
LINE
  5
3A
100
AcDbEntity
  8
0
  6
CONTINUOUS
 62
         7
100
AcDbLine
 10
6.3491817542
 20
1.0381709011
 30
0.0
 11
7.8832069922
 21
1.0381709011
 31
0.0
  0
LINE
  5
3B
100
AcDbEntity
  8
0
  6
CONTINUOUS
 62
         7
100
AcDbLine
 10
7.8832069922
 20
1.9437769943
 30
0.0
 11
10.629927
 21
1.9437769943
 31
0.0
  0
LINE
  5
3C
100
AcDbEntity
  8
0
  6
CONTINUOUS
 62
         7
100
AcDbLine
 10
10.315241862
 20
1.2693980507
 30
0.0
 11
10.315241862
 21
0.96139916
 31
0.0
  0
LINE
  5
3D
100
AcDbEntity
  8
0
  6
CONTINUOUS
 62
         7
100
AcDbLine
 10
7.8832069922
 20
0.96139916
 30
0.0
 11
10.629927
 21
0.96139916
 31
0.0
  0
LINE
  5
3E
100
AcDbEntity
  8
0
  6
CONTINUOUS
 62
         7
100
AcDbLine
 10
10.629927
 20
1.9437769943
 30
0.0
 11
10.629927
 21
1.9698084888
 31
0.0
  0
LINE
  5
3F
100
AcDbEntity
  8
0
  6
CONTINUOUS
 62
         7
100
AcDbLine
 10
7.8832069922
 20
1.6268095213
 30
0.0
 11
10.629927
 21
1.6268095213
 31
0.0
  0
LINE
  5
40
100
AcDbEntity
  8
0
  6
CONTINUOUS
 62
         7
100
AcDbLine
 10
6.692177
 20
0.3920731707
 30
0.0
 11
6.692177
 21
0.3072739649
 31
0.0
  0
LINE
  5
41
100
AcDbEntity
  8
0
  6
CONTINUOUS
 62
         7
100
AcDbLine
 10
2.754677
 20
0.3920731707
 30
0.0
 11
2.754677
 21
0.3072739649
 31
0.0
  0
LINE
  5
42
100
AcDbEntity
  8
0
  6
CONTINUOUS
 62
         7
100
AcDbLine
 10
2.754677
 20
0.3920731707
 30
0.0
 11
2.7672319738
 21
0.3575
 31
0.0
  0
LINE
  5
43
100
AcDbEntity
  8
0
  6
CONTINUOUS
 62
         7
100
AcDbLine
 10
2.7672319738
 20
0.3575
 30
0.0
 11
2.7414258825
 21
0.3575
 31
0.0
  0
LINE
  5
44
100
AcDbEntity
  8
0
  6
CONTINUOUS
 62
         7
100
AcDbLine
 10
2.7414258825
 20
0.3575
 30
0.0
 11
2.754677
 21
0.3920731707
 31
0.0
  0
MTEXT
  5
46
100
AcDbEntity
  8
0
 62
         7
100
AcDbMText
 10
10.4087758717
 20
1.1307921136
 30
0.0
 40
0.1041666667
 41
0.0
 71
         1
 72
         1
  1
A
  7
SLDTEXTSTYLE0
  0
MTEXT
  5
47
100
AcDbEntity
  8
0
 62
         7
100
AcDbMText
 10
1.7387909509
 20
0.3228564029
 30
0.0
 40
0.09375
 41
0.0
 71
         1
 72
         1
  1
5
  7
SLDTEXTSTYLE0
  0
MTEXT
  5
48
100
AcDbEntity
  8
0
 62
         7
100
AcDbMText
 10
3.723800327
 20
0.32599373
 30
0.0
 40
0.09375
 41
0.0
 71
         1
 72
         1
  1
4
  7
SLDTEXTSTYLE0
  0
MTEXT
  5
49
100
AcDbEntity
  8
0
 62
         7
100
AcDbMText
 10
5.6324457277
 20
0.3238891623
 30
0.0
 40
0.09375
 41
0.0
 71
         1
 72
         1
  1
3
  7
SLDTEXTSTYLE0
  0
MTEXT
  5
4A
100
AcDbEntity
  8
0
 62
         7
100
AcDbMText
 10
7.6059721724
 20
0.3247091132
 30
0.0
 40
0.09375
 41
0.0
 71
         1
 72
         1
  1
2
  7
SLDTEXTSTYLE0
  0
MTEXT
  5
4B
100
AcDbEntity
  8
0
 62
         7
100
AcDbMText
 10
9.6619921328
 20
0.3136419902
 30
0.0
 40
0.09375
 41
0.0
 71
         1
 72
         1
  1
1
  7
SLDTEXTSTYLE0
  0
MTEXT
  5
4C
100
AcDbEntity
  8
0
 62
         7
100
AcDbMText
 10
9.0717768819
 20
0.608503423
 30
0.0
 40
0.125
 41
0.0
 71
         1
 72
         1
  1
PAS007
  7
SLDTEXTSTYLE0
  0
MTEXT
  5
4D
100
AcDbEntity
  8
0
 62
         7
100
AcDbMText
 10
7.9301743649
 20
1.2662311489
 30
0.0
 40
0.0833333333
 41
0.0
 71
         1
 72
         1
  1
MATERIAL:
  7
SLDTEXTSTYLE0
  0
MTEXT
  5
4E
100
AcDbEntity
  8
0
 62
         7
100
AcDbMText
 10
8.9438302275
 20
0.7619922188
 30
0.0
 40
0.0833333333
 41
0.0
 71
         1
 72
         1
  1
PART  NO.
  7
SLDTEXTSTYLE0
  0
MTEXT
  5
4F
100
AcDbEntity
  8
0
 62
         7
100
AcDbMText
 10
4.9872272808
 20
1.678787395
 30
0.0
 40
0.1
 41
0.0
 71
         1
 72
         1
  1
TOLERANCES
  7
SLDTEXTSTYLE0
  0
MTEXT
  5
50
100
AcDbEntity
  8
0
 62
         7
100
AcDbMText
 10
6.3927073562
 20
1.1667586129
 30
0.0
 40
0.06
 41
0.0
 71
         1
 72
         1
  1
PROPRIETARY AND CONFIDENTIAL
  7
SLDTEXTSTYLE0
  0
INSERT
  5
66
100
AcDbEntity
  8
0
100
AcDbBlockReference
  2
NOTE11
 10
4.9730262909
 20
1.3359640064
 30
0.0
  0
MTEXT
  5
67
100
AcDbEntity
  8
0
 62
         7
100
AcDbMText
 10
6.4985660702
 20
1.5619929057
 30
0.0
 40
0.065
 41
0.0
 71
         1
 72
         1
  1
DRAWN
  7
SLDTEXTSTYLE0
  0
MTEXT
  5
68
100
AcDbEntity
  8
0
 62
         7
100
AcDbMText
 10
6.4369653776
 20
1.4397369011
 30
0.0
 40
0.065
 41
0.0
 71
         1
 72
         1
  1
ENG APPR.
  7
SLDTEXTSTYLE0
  0
MTEXT
  5
69
100
AcDbEntity
  8
0
 62
         7
100
AcDbMText
 10
6.4273055419
 20
1.3196390079
 30
0.0
 40
0.065
 41
0.0
 71
         1
 72
         1
  1
MFG APPR.
  7
SLDTEXTSTYLE0
  0
MTEXT
  5
6A
100
AcDbEntity
  8
0
 62
         7
100
AcDbMText
 10
6.9752663896
 20
1.6821505696
 30
0.0
 40
0.065
 41
0.0
 71
         1
 72
         1
  1
NAME
  7
SLDTEXTSTYLE0
  0
INSERT
  5
6E
100
AcDbEntity
  8
0
100
AcDbBlockReference
  2
NOTE16
 10
0.0
 20
0.0
 30
0.0
  0
MTEXT
  5
6F
100
AcDbEntity
  8
0
 62
         7
100
AcDbMText
 10
7.9386050459
 20
1.577816147
 30
0.0
 40
0.1
 41
0.0
 71
         1
 72
         1
  1
TITLE:
  7
SLDTEXTSTYLE0
  0
MTEXT
  5
70
100
AcDbEntity
  8
0
 62
         7
100
AcDbMText
 10
10.0657693915
 20
1.2425575667
 30
0.0
 40
0.0833333333
 41
0.0
 71
         1
 72
         1
  1
SIZE
  7
SLDTEXTSTYLE0
  0
MTEXT
  5
71
100
AcDbEntity
  8
0
 62
         7
100
AcDbMText
 10
10.1162261111
 20
1.1269262436
 30
0.0
 40
0.1041666667
 41
0.0
 71
         1
 72
         1
  1
A
  7
SLDTEXTSTYLE0
  0
MTEXT
  5
72
100
AcDbEntity
  8
0
 62
         7
100
AcDbMText
 10
10.335100974
 20
1.24415745
 30
0.0
 40
0.0833333333
 41
0.0
 71
         1
 72
         1
  1
REV.
  7
SLDTEXTSTYLE0
  0
INSERT
  5
78
100
AcDbEntity
  8
0
100
AcDbBlockReference
  2
NOTE21
 10
8.3227727705
 20
0.8245333449
 30
0.0
  0
INSERT
  5
7C
100
AcDbEntity
  8
0
100
AcDbBlockReference
  2
NOTE22
 10
0.0
 20
0.0
 30
0.0
  0
INSERT
  5
80
100
AcDbEntity
  8
0
100
AcDbBlockReference
  2
NOTE23
 10
0.0
 20
0.0
 30
0.0
  0
INSERT
  5
84
100
AcDbEntity
  8
0
100
AcDbBlockReference
  2
NOTE24
 10
0.0
 20
0.0
 30
0.0
  0
INSERT
  5
88
100
AcDbEntity
  8
0
100
AcDbBlockReference
  2
NOTE25
 10
0.0
 20
0.0
 30
0.0
  0
INSERT
  5
8C
100
AcDbEntity
  8
0
100
AcDbBlockReference
  2
NOTE26
 10
0.0
 20
0.0
 30
0.0
  0
INSERT
  5
90
100
AcDbEntity
  8
0
100
AcDbBlockReference
  2
NOTE27
 10
0.0
 20
0.0
 30
0.0
  0
INSERT
  5
94
100
AcDbEntity
  8
0
100
AcDbBlockReference
  2
NOTE28
 10
0.0
 20
0.0
 30
0.0
  0
INSERT
  5
98
100
AcDbEntity
  8
0
100
AcDbBlockReference
  2
NOTE29
 10
0.0
 20
0.0
 30
0.0
  0
INSERT
  5
9C
100
AcDbEntity
  8
0
100
AcDbBlockReference
  2
NOTE30
 10
0.0
 20
0.0
 30
0.0
  0
INSERT
  5
A0
100
AcDbEntity
  8
0
100
AcDbBlockReference
  2
NOTE31
 10
0.0
 20
0.0
 30
0.0
  0
INSERT
  5
A8
100
AcDbEntity
  8
0
100
AcDbBlockReference
  2
NOTE32
 10
9.6378279873
 20
0.8201337505
 30
0.0
  0
MTEXT
  5
A9
100
AcDbEntity
  8
0
 62
         7
100
AcDbMText
 10
7.9969541856
 20
0.6079408784
 30
0.0
 40
0.125
 41
0.0
 71
         1
 72
         1
  1
12764-E01
  7
SLDTEXTSTYLE0
  0
INSERT
  5
B3
100
AcDbEntity
  8
0
100
AcDbBlockReference
  2
NOTE34
 10
6.3891646717
 20
0.9312082413
 30
0.0
  0
MTEXT
  5
B4
100
AcDbEntity
  8
0
 62
         7
100
AcDbMText
 10
4.9869424832
 20
1.5430724242
 30
0.0
 40
0.0625
 41
0.0
 71
         1
 72
         1
  1
UNLESS OTHERWISE SPECIFIED:
  7
SLDTEXTSTYLE0
  0
MTEXT
  5
B5
100
AcDbEntity
  8
0
 62
         7
100
AcDbMText
 10
7.9076399399
 20
0.763088683
 30
0.0
 40
0.0833333333
 41
0.0
 71
         1
 72
         1
  1
DWG.  NO.
  7
SLDTEXTSTYLE0
  0
MTEXT
  5
B6
100
AcDbEntity
  8
0
 62
         7
100
AcDbMText
 10
7.0592138229
 20
1.5647861468
 30
0.0
 40
0.065
 41
0.0
 71
         1
 72
         1
  1
JPS
  7
SLDTEXTSTYLE0
  0
MTEXT
  5
B7
100
AcDbEntity
  8
0
 62
         7
100
AcDbMText
 10
7.0628716471
 20
1.4480432518
 30
0.0
 40
0.065
 41
0.0
 71
         1
 72
         1
  1
JMM
  7
SLDTEXTSTYLE0
  0
MTEXT
  5
B8
100
AcDbEntity
  8
0
 62
         7
100
AcDbMText
 10
7.0636219211
 20
1.3254688473
 30
0.0
 40
0.065
 41
0.0
 71
         1
 72
         1
  1
JMM
  7
SLDTEXTSTYLE0
  0
MTEXT
  5
B9
100
AcDbEntity
  8
0
 62
         7
100
AcDbMText
 10
7.3775562039
 20
1.5664735411
 30
0.0
 40
0.065
 41
0.0
 71
         1
 72
         1
  1
11/02/05
  7
SLDTEXTSTYLE0
  0
MTEXT
  5
BA
100
AcDbEntity
  8
0
 62
         7
100
AcDbMText
 10
7.4731545031
 20
1.6796112043
 30
0.0
 40
0.065
 41
0.0
 71
         1
 72
         1
  1
DATE
  7
SLDTEXTSTYLE0
  0
MTEXT
  5
BB
100
AcDbEntity
  8
0
 62
         7
100
AcDbMText
 10
7.3821011998
 20
1.4397569559
 30
0.0
 40
0.065
 41
0.0
 71
         1
 72
         1
  1
11/02/05
  7
SLDTEXTSTYLE0
  0
MTEXT
  5
BC
100
AcDbEntity
  8
0
 62
         7
100
AcDbMText
 10
7.3821011998
 20
1.3192883921
 30
0.0
 40
0.065
 41
0.0
 71
         1
 72
         1
  1
11/02/05
  7
SLDTEXTSTYLE0
  0
MTEXT
  5
BD
100
AcDbEntity
  8
0
 62
         7
100
AcDbMText
 10
7.9182509893
 20
1.8945249685
 30
0.0
 40
0.1875
 41
0.0
 71
         1
 72
         1
  1
THORLABS INC.
  7
SLDTEXTSTYLE0
  0
INSERT
  5
C3
100
AcDbEntity
  8
0
100
AcDbBlockReference
  2
NOTE45
 10
9.7899715108
 20
1.8064732284
 30
0.0
  0
INSERT
  5
C9
100
AcDbEntity
  8
0
100
AcDbBlockReference
  2
NOTE46
 10
8.3206658583
 20
1.4458747882
 30
0.0
  0
MTEXT
  5
CA
100
AcDbEntity
  8
0
 62
         7
100
AcDbMText
 10
8.3691642187
 20
1.1419615018
 30
0.0
 40
0.1041666667
 41
0.0
 71
         1
 72
         1
  1
STAINLESS STEEL
  7
SLDTEXTSTYLE0
  0
LINE
  5
CB
100
AcDbEntity
  8
0
  6
CONTINUOUS
 62
         7
100
AcDbLine
 10
8.1928402456
 20
3.6601246858
 30
0.0
 11
8.1928402439
 21
4.1032480457
 31
0.0
  0
LINE
  5
CC
100
AcDbEntity
  8
0
  6
CONTINUOUS
 62
         7
100
AcDbLine
 10
8.0353599289
 20
4.1032480457
 30
0.0
 11
8.0353599277
 21
3.6601246858
 31
0.0
  0
ARC
  5
CD
100
AcDbEntity
  8
0
  6
CONTINUOUS
 62
         7
100
AcDbCircle
 10
8.1141000864
 20
3.4249234734
 30
0.0
 40
0.25
100
AcDbArc
 50
0.0
 51
71.6415629247
  0
ARC
  5
CE
100
AcDbEntity
  8
0
  6
CONTINUOUS
 62
         7
100
AcDbCircle
 10
8.1141000864
 20
3.4249234734
 30
0.0
 40
0.25
100
AcDbArc
 50
108.3584370753
 51
0.0
  0
LINE
  5
CF
100
AcDbEntity
  8
0
  6
CONTINUOUS
 62
         7
100
AcDbLine
 10
8.1928402439
 20
4.1032480457
 30
0.0
 11
8.0353599289
 21
4.1032480457
 31
0.0
  0
CIRCLE
  5
D0
100
AcDbEntity
  8
0
  6
CONTINUOUS
 62
         7
100
AcDbCircle
 10
8.1141000864
 20
3.4249234734
 30
0.0
 40
0.2480314961
  0
CIRCLE
  5
D1
100
AcDbEntity
  8
0
  6
CONTINUOUS
 62
         7
100
AcDbCircle
 10
8.1141000864
 20
3.4249234734
 30
0.0
 40
0.05325
  0
DIMENSION
  5
E0
100
AcDbEntity
  8
0
 62
         7
100
AcDbDimension
  2
*D17
 10
7.3617514949
 20
3.1768919773
 30
0.0
 11
7.3617514949
 21
3.6400700115
 31
0.0
 70
       160
  1
<>\P(24mm)
  3
SLDDIMSTYLE0
100
AcDbAlignedDimension
 13
8.0353599289
 23
4.1032480457
 33
0.0
 14
8.1141000864
 24
3.1768919773
 34
0.0
 50
90.0
100
AcDbRotatedDimension
  0
LEADER
  5
E1
100
AcDbEntity
  8
0
 62
         7
100
AcDbLeader
  3
SLDDIMSTYLE1
 73
         2
 74
         0
 75
         0
 40
0.0
 76
         3
 10
8.1446379637
 20
3.4685468679
 30
0.0
 10
8.598720066
 20
4.1278465199
 30
0.0
 10
8.848720066
 20
4.1278465199
 30
0.0
 77
       256
340
E9
  0
INSERT
  5
E9
100
AcDbEntity
  8
0
100
AcDbBlockReference
  2
NOTE48
 10
8.848720066
 20
4.1278465199
 30
0.0
  0
INSERT
  5
F1
100
AcDbEntity
  8
0
100
AcDbBlockReference
  2
SW_CENTERMARK0
 10
0.0
 20
0.0
 30
0.0
  0
LINE
  5
F2
100
AcDbEntity
  8
0
  6
CONTINUOUS
 62
         7
100
AcDbLine
 10
2.5523761862
 20
3.3245297643
 30
0.0
 11
2.7807224017
 21
3.3245297643
 31
0.0
  0
LINE
  5
F3
100
AcDbEntity
  8
0
  6
CONTINUOUS
 62
         7
100
AcDbLine
 10
2.7807224017
 20
3.5253171731
 30
0.0
 11
2.5523761862
 21
3.5253171731
 31
0.0
  0
LINE
  5
F4
100
AcDbEntity
  8
0
  6
CONTINUOUS
 62
         7
100
AcDbLine
 10
3.0759981005
 20
3.6729549694
 30
0.0
 11
2.78072251
 21
3.6729549694
 31
0.0
  0
LINE
  5
F5
100
AcDbEntity
  8
0
  6
CONTINUOUS
 62
         7
100
AcDbLine
 10
2.78072251
 20
3.1768919773
 30
0.0
 11
3.0759981005
 21
3.1768919773
 31
0.0
  0
LINE
  5
F6
100
AcDbEntity
  8
0
  6
CONTINUOUS
 62
         7
100
AcDbLine
 10
4.9145807777
 20
3.6749234734
 30
0.0
 11
3.1429272344
 21
3.6749234734
 31
0.0
  0
LINE
  5
F7
100
AcDbEntity
  8
0
  6
CONTINUOUS
 62
         7
100
AcDbLine
 10
3.1429272344
 20
3.1749234734
 30
0.0
 11
4.9145807777
 21
3.1749234734
 31
0.0
  0
LINE
  5
F8
100
AcDbEntity
  8
0
  6
CONTINUOUS
 62
         7
100
AcDbLine
 10
3.075998004
 20
3.208388046
 30
0.0
 11
3.1429270975
 21
3.208388046
 31
0.0
  0
LINE
  5
F9
100
AcDbEntity
  8
0
  6
CONTINUOUS
 62
         7
100
AcDbLine
 10
3.1429270975
 20
3.6414589052
 30
0.0
 11
3.075998004
 21
3.6414589052
 31
0.0
  0
LINE
  5
FA
100
AcDbEntity
  8
0
  6
CONTINUOUS
 62
         7
100
AcDbLine
 10
5.0917461312
 20
3.6729549697
 30
0.0
 11
5.091746132
 21
4.1032480457
 31
0.0
  0
LINE
  5
FB
100
AcDbEntity
  8
0
  6
CONTINUOUS
 62
         7
100
AcDbLine
 10
4.9342658171
 20
4.1032480457
 30
0.0
 11
4.9342657904
 21
3.6729549697
 31
0.0
  0
LINE
  5
FC
100
AcDbEntity
  8
0
  6
CONTINUOUS
 62
         7
100
AcDbLine
 10
4.9342657904
 20
3.6729549697
 30
0.0
 11
4.9145807845
 21
3.6729549697
 31
0.0
  0
LINE
  5
FD
100
AcDbEntity
  8
0
  6
CONTINUOUS
 62
         7
100
AcDbLine
 10
5.5051319588
 20
3.6729549694
 30
0.0
 11
5.0917461312
 21
3.6729549697
 31
0.0
  0
LINE
  5
FE
100
AcDbEntity
  8
0
  6
CONTINUOUS
 62
         7
100
AcDbLine
 10
5.0622185856
 20
3.1768919632
 30
0.0
 11
5.5051319588
 21
3.1768919773
 31
0.0
  0
LINE
  5
FF
100
AcDbEntity
  8
0
  6
CONTINUOUS
 62
         7
100
AcDbLine
 10
4.9145807845
 20
3.1768919632
 30
0.0
 11
4.9637934093
 21
3.1768919632
 31
0.0
  0
LINE
  5
100
100
AcDbEntity
  8
0
  6
CONTINUOUS
 62
         7
100
AcDbLine
 10
2.4342658171
 20
3.2083880403
 30
0.0
 11
2.5523760533
 21
3.2083880403
 31
0.0
  0
LINE
  5
101
100
AcDbEntity
  8
0
  6
CONTINUOUS
 62
         7
100
AcDbLine
 10
2.5523760533
 20
3.6414589064
 30
0.0
 11
2.4342658171
 21
3.6414589064
 31
0.0
  0
LINE
  5
102
100
AcDbEntity
  8
0
  6
CONTINUOUS
 62
         7
100
AcDbLine
 10
3.0759981005
 20
3.6729549694
 30
0.0
 11
3.0759981005
 21
3.1768919773
 31
0.0
  0
LINE
  5
103
100
AcDbEntity
  8
0
  6
CONTINUOUS
 62
         7
100
AcDbLine
 10
2.78072251
 20
3.6729549694
 30
0.0
 11
2.78072251
 21
3.1768919773
 31
0.0
  0
LINE
  5
104
100
AcDbEntity
  8
0
  6
CONTINUOUS
 62
         7
100
AcDbLine
 10
4.9145807777
 20
3.6749234734
 30
0.0
 11
4.9145807777
 21
3.1749234734
 31
0.0
  0
LINE
  5
105
100
AcDbEntity
  8
0
  6
CONTINUOUS
 62
         7
100
AcDbLine
 10
3.1429272344
 20
3.4249234734
 30
0.0
 11
3.1429272344
 21
3.1749234734
 31
0.0
  0
LINE
  5
106
100
AcDbEntity
  8
0
  6
CONTINUOUS
 62
         7
100
AcDbLine
 10
3.1429272344
 20
3.6749234734
 30
0.0
 11
3.1429272344
 21
3.4249234734
 31
0.0
  0
LINE
  5
107
100
AcDbEntity
  8
0
  6
CONTINUOUS
 62
         7
100
AcDbLine
 10
5.091746132
 20
4.1032480457
 30
0.0
 11
4.9342658171
 21
4.1032480457
 31
0.0
  0
LINE
  5
108
100
AcDbEntity
  8
0
  6
CONTINUOUS
 62
         7
100
AcDbLine
 10
5.5051319588
 20
3.6729549694
 30
0.0
 11
5.5051319588
 21
3.1768919773
 31
0.0
  0
ARC
  5
109
100
AcDbEntity
  8
0
  6
CONTINUOUS
 62
         7
100
AcDbCircle
 10
5.0130059975
 20
2.9337903241
 30
0.0
 40
0.248032832
100
AcDbArc
 50
78.5559116044
 51
101.4440883956
  0
LINE
  5
10A
100
AcDbEntity
  8
0
  6
CONTINUOUS
 62
         7
100
AcDbLine
 10
2.4342658171
 20
3.6414589064
 30
0.0
 11
2.4342658171
 21
3.2083880403
 31
0.0
  0
LINE
  5
10B
100
AcDbEntity
  8
0
  6
CONTINUOUS
 62
         7
100
AcDbLine
 10
2.5523760533
 20
3.6414589064
 30
0.0
 11
2.5523760533
 21
3.2083880403
 31
0.0
  0
DIMENSION
  5
11C
100
AcDbEntity
  8
0
 62
         7
100
AcDbDimension
  2
*D20
 10
1.9208027877
 20
3.3245297726
 30
0.0
 11
1.9208027877
 21
2.8694975847
 31
0.0
 70
       160
  1
%%c<>\P(5.1mm)
  3
SLDDIMSTYLE2
100
AcDbAlignedDimension
 13
2.5523760533
 23
3.5253171741
 33
0.0
 14
2.5523760533
 24
3.3245297726
 34
0.0
 50
90.0
100
AcDbRotatedDimension
  0
DIMENSION
  5
12B
100
AcDbEntity
  8
0
 62
         7
100
AcDbDimension
  2
*D21
 10
5.5051319588
 20
2.5012322147
 30
0.0
 11
3.9696988879
 21
2.5012322147
 31
0.0
 70
       160
  1
<>\P(78mm)
  3
SLDDIMSTYLE3
100
AcDbAlignedDimension
 13
2.4342658171
 23
3.2083880403
 33
0.0
 14
5.5051319588
 24
3.1768919773
 34
0.0
100
AcDbRotatedDimension
  0
DIMENSION
  5
139
100
AcDbEntity
  8
0
 62
         7
100
AcDbDimension
  2
*D22
 10
5.5051319588
 20
2.8694975847
 30
0.0
 11
4.028754006
 21
2.8694975847
 31
0.0
 70
       160
  1
<>\P(75mm)
  3
SLDDIMSTYLE3
100
AcDbAlignedDimension
 13
2.5523760533
 23
3.2083880403
 33
0.0
 14
5.5051319588
 24
3.1768919773
 34
0.0
100
AcDbRotatedDimension
  0
DIMENSION
  5
148
100
AcDbEntity
  8
0
 62
         7
100
AcDbDimension
  2
*D23
 10
5.091746132
 20
4.3818870575
 30
0.0
 11
4.2645611891
 21
4.3818870575
 31
0.0
 70
       160
  1
%%c<>\P(4mm)
  3
SLDDIMSTYLE0
100
AcDbAlignedDimension
 13
4.9342658171
 23
4.1032480457
 33
0.0
 14
5.091746132
 24
4.1032480457
 34
0.0
100
AcDbRotatedDimension
  0
DIMENSION
  5
157
100
AcDbEntity
  8
0
 62
         7
100
AcDbDimension
  2
*D24
 10
5.9667233098
 20
3.1768919773
 30
0.0
 11
5.9667233098
 21
3.4249234734
 31
0.0
 70
       160
  1
%%c<>\P(13mm)
  3
SLDDIMSTYLE2
100
AcDbAlignedDimension
 13
5.5051319588
 23
3.6729549694
 33
0.0
 14
5.5051319588
 24
3.1768919773
 34
0.0
 50
90.0
100
AcDbRotatedDimension
  0
LEADER
  5
158
100
AcDbEntity
  8
0
 62
         7
100
AcDbLeader
  3
SLDDIMSTYLE1
 73
         2
 74
         1
 75
         0
 40
0.0
 76
         3
 10
2.4342658171
 20
3.6414589064
 30
0.0
 10
2.0025986902
 20
4.1295540209
 30
0.0
 10
1.7525986902
 20
4.1295540209
 30
0.0
 77
       256
340
160
  0
INSERT
  5
160
100
AcDbEntity
  8
0
100
AcDbBlockReference
  2
NOTE49
 10
1.7525986902
 20
4.1295540209
 30
0.0
  0
LINE
  5
161
100
AcDbEntity
  8
0
  6
CONTINUOUS
 62
         7
100
AcDbLine
 10
7.7167788478
 20
5.7480686658
 30
0.0
 11
7.7963052248
 21
5.793799398
 31
0.0
  0
LINE
  5
162
100
AcDbEntity
  8
0
  6
CONTINUOUS
 62
         7
100
AcDbLine
 10
7.6957647951
 20
5.967959401
 30
0.0
 11
7.6163933079
 21
5.9219603565
 31
0.0
  0
LINE
  5
163
100
AcDbEntity
  8
0
  6
CONTINUOUS
 62
         7
100
AcDbLine
 10
7.8169012879
 20
6.2081839753
 30
0.0
 11
7.6081098421
 21
6.0876512324
 31
0.0
  0
LINE
  5
164
100
AcDbEntity
  8
0
  6
CONTINUOUS
 62
         7
100
AcDbLine
 10
7.856121178
 20
5.6580364356
 30
0.0
 11
8.0649126271
 21
5.7785691853
 31
0.0
  0
LINE
  5
165
100
AcDbEntity
  8
0
  6
CONTINUOUS
 62
         7
100
AcDbLine
 10
9.1159913947
 20
6.9604057018
 30
0.0
 11
7.8632430646
 21
6.2372094848
 31
0.0
  0
LINE
  5
166
100
AcDbEntity
  8
0
  6
CONTINUOUS
 62
         7
100
AcDbLine
 10
8.1132227486
 20
5.8041850574
 30
0.0
 11
9.3659710779
 21
6.5273812706
 31
0.0
  0
LINE
  5
167
100
AcDbEntity
  8
0
  6
CONTINUOUS
 62
         7
100
AcDbLine
 10
9.3893185016
 20
6.9814301836
 30
0.0
 11
9.3893185016
 21
7.337950749
 31
0.0
  0
LINE
  5
168
100
AcDbEntity
  8
0
  6
CONTINUOUS
 62
         7
100
AcDbLine
 10
9.2318382012
 20
7.3379507555
 30
0.0
 11
9.2318382012
 21
6.9814301902
 31
0.0
  0
LINE
  5
169
100
AcDbEntity
  8
0
  6
CONTINUOUS
 62
         7
100
AcDbLine
 10
9.5345583115
 20
7.1997662686
 30
0.0
 11
9.3893185227
 21
7.1159211164
 31
0.0
  0
LINE
  5
16A
100
AcDbEntity
  8
0
  6
CONTINUOUS
 62
         7
100
AcDbLine
 10
9.2318381818
 20
7.0250096507
 30
0.0
 11
9.1326323407
 21
6.9677393377
 31
0.0
  0
LINE
  5
16B
100
AcDbEntity
  8
0
  6
CONTINUOUS
 62
         7
100
AcDbLine
 10
9.3806436766
 20
6.5381245409
 30
0.0
 11
9.7825696507
 21
6.7701514786
 31
0.0
  0
LINE
  5
16C
100
AcDbEntity
  8
0
  6
CONTINUOUS
 62
         7
100
AcDbLine
 10
7.5953925504
 20
5.5438885551
 30
0.0
 11
7.678909175
 21
5.5921016714
 31
0.0
  0
LINE
  5
16D
100
AcDbEntity
  8
0
  6
CONTINUOUS
 62
         7
100
AcDbLine
 10
7.4623913392
 20
5.9671622023
 30
0.0
 11
7.378874712
 21
5.9189490862
 31
0.0
  0
POLYLINE
  5
16E
100
AcDbEntity
  8
0
  6
CONTINUOUS
 62
         7
100
AcDb2dPolyline
 66
         1
 10
0.0
 20
0.0
 30
0.0
 70
       128
  0
VERTEX
  5
16F
100
AcDbEntity
  8
0
100
AcDbVertex
100
AcDb2dVertex
 10
7.5570801356
 20
5.9866669046
 30
0.0
  0
VERTEX
  5
170
100
AcDbEntity
  8
0
100
AcDbVertex
100
AcDb2dVertex
 10
7.5582432833
 20
5.9997591084
 30
0.0
  0
VERTEX
  5
171
100
AcDbEntity
  8
0
100
AcDbVertex
100
AcDb2dVertex
 10
7.560217089
 20
6.0122595746
 30
0.0
  0
VERTEX
  5
172
100
AcDbEntity
  8
0
100
AcDbVertex
100
AcDb2dVertex
 10
7.5629923745
 20
6.0241100249
 30
0.0
  0
VERTEX
  5
173
100
AcDbEntity
  8
0
100
AcDbVertex
100
AcDb2dVertex
 10
7.5665561892
 20
6.0352551825
 30
0.0
  0
VERTEX
  5
174
100
AcDbEntity
  8
0
100
AcDbVertex
100
AcDb2dVertex
 10
7.570891914
 20
6.0456431307
 30
0.0
  0
VERTEX
  5
175
100
AcDbEntity
  8
0
100
AcDbVertex
100
AcDb2dVertex
 10
7.5759793389
 20
6.0552253881
 30
0.0
  0
VERTEX
  5
176
100
AcDbEntity
  8
0
100
AcDbVertex
100
AcDb2dVertex
 10
7.5817947535
 20
6.0639573053
 30
0.0
  0
VERTEX
  5
177
100
AcDbEntity
  8
0
100
AcDbVertex
100
AcDb2dVertex
 10
7.5883110126
 20
6.0717981694
 30
0.0
  0
VERTEX
  5
178
100
AcDbEntity
  8
0
100
AcDbVertex
100
AcDb2dVertex
 10
7.5954977684
 20
6.0787114065
 30
0.0
  0
VERTEX
  5
179
100
AcDbEntity
  8
0
100
AcDbVertex
100
AcDb2dVertex
 10
7.6033214975
 20
6.0846647986
 30
0.0
  0
VERTEX
  5
17A
100
AcDbEntity
  8
0
100
AcDbVertex
100
AcDb2dVertex
 10
7.6117457207
 20
6.0896305809
 30
0.0
  0
VERTEX
  5
17B
100
AcDbEntity
  8
0
100
AcDbVertex
100
AcDb2dVertex
 10
7.6207311717
 20
6.0935856028
 30
0.0
  0
VERTEX
  5
17C
100
AcDbEntity
  8
0
100
AcDbVertex
100
AcDb2dVertex
 10
7.6302359394
 20
6.0965114288
 30
0.0
  0
VERTEX
  5
17D
100
AcDbEntity
  8
0
100
AcDbVertex
100
AcDb2dVertex
 10
7.6402157147
 20
6.0983944174
 30
0.0
  0
VERTEX
  5
17E
100
AcDbEntity
  8
0
100
AcDbVertex
100
AcDb2dVertex
 10
7.6506239782
 20
6.0992257749
 30
0.0
  0
VERTEX
  5
17F
100
AcDbEntity
  8
0
100
AcDbVertex
100
AcDb2dVertex
 10
7.6614121818
 20
6.0990016442
 30
0.0
  0
VERTEX
  5
180
100
AcDbEntity
  8
0
100
AcDbVertex
100
AcDb2dVertex
 10
7.6725300465
 20
6.0977230551
 30
0.0
  0
VERTEX
  5
181
100
AcDbEntity
  8
0
100
AcDbVertex
100
AcDb2dVertex
 10
7.6839257184
 20
6.0953959796
 30
0.0
  0
VERTEX
  5
182
100
AcDbEntity
  8
0
100
AcDbVertex
100
AcDb2dVertex
 10
7.6955460798
 20
6.0920312601
 30
0.0
  0
VERTEX
  5
183
100
AcDbEntity
  8
0
100
AcDbVertex
100
AcDb2dVertex
 10
7.7073369433
 20
6.0876445892
 30
0.0
  0
VERTEX
  5
184
100
AcDbEntity
  8
0
100
AcDbVertex
100
AcDb2dVertex
 10
7.719243334
 20
6.0822564178
 30
0.0
  0
VERTEX
  5
185
100
AcDbEntity
  8
0
100
AcDbVertex
100
AcDb2dVertex
 10
7.7312097423
 20
6.0758918684
 30
0.0
  0
VERTEX
  5
186
100
AcDbEntity
  8
0
100
AcDbVertex
100
AcDb2dVertex
 10
7.7431803727
 20
6.0685806156
 30
0.0
  0
VERTEX
  5
187
100
AcDbEntity
  8
0
100
AcDbVertex
100
AcDb2dVertex
 10
7.7550994141
 20
6.0603567469
 30
0.0
  0
VERTEX
  5
188
100
AcDbEntity
  8
0
100
AcDbVertex
100
AcDb2dVertex
 10
7.7669112939
 20
6.0512586074
 30
0.0
  0
VERTEX
  5
189
100
AcDbEntity
  8
0
100
AcDbVertex
100
AcDb2dVertex
 10
7.7785609398
 20
6.0413286156
 30
0.0
  0
VERTEX
  5
18A
100
AcDbEntity
  8
0
100
AcDbVertex
100
AcDb2dVertex
 10
7.789994034
 20
6.03061307
 30
0.0
  0
VERTEX
  5
18B
100
AcDbEntity
  8
0
100
AcDbVertex
100
AcDb2dVertex
 10
7.8011572741
 20
6.0191619318
 30
0.0
  0
VERTEX
  5
18C
100
AcDbEntity
  8
0
100
AcDbVertex
100
AcDb2dVertex
 10
7.8119986117
 20
6.0070285886
 30
0.0
  0
VERTEX
  5
18D
100
AcDbEntity
  8
0
100
AcDbVertex
100
AcDb2dVertex
 10
7.8224674924
 20
5.9942696173
 30
0.0
  0
VERTEX
  5
18E
100
AcDbEntity
  8
0
100
AcDbVertex
100
AcDb2dVertex
 10
7.8325151121
 20
5.9809445033
 30
0.0
  0
VERTEX
  5
18F
100
AcDbEntity
  8
0
100
AcDbVertex
100
AcDb2dVertex
 10
7.8420946207
 20
5.9671153741
 30
0.0
  0
VERTEX
  5
190
100
AcDbEntity
  8
0
100
AcDbVertex
100
AcDb2dVertex
 10
7.8511613591
 20
5.9528467038
 30
0.0
  0
VERTEX
  5
191
100
AcDbEntity
  8
0
100
AcDbVertex
100
AcDb2dVertex
 10
7.8596730533
 20
5.9382050253
 30
0.0
  0
VERTEX
  5
192
100
AcDbEntity
  8
0
100
AcDbVertex
100
AcDb2dVertex
 10
7.8675900028
 20
5.9232586081
 30
0.0
  0
VERTEX
  5
193
100
AcDbEntity
  8
0
100
AcDbVertex
100
AcDb2dVertex
 10
7.87487532
 20
5.9080771291
 30
0.0
  0
VERTEX
  5
194
100
AcDbEntity
  8
0
100
AcDbVertex
100
AcDb2dVertex
 10
7.8814950275
 20
5.8927313696
 30
0.0
  0
VERTEX
  5
195
100
AcDbEntity
  8
0
100
AcDbVertex
100
AcDb2dVertex
 10
7.8874182465
 20
5.877292897
 30
0.0
  0
VERTEX
  5
196
100
AcDbEntity
  8
0
100
AcDbVertex
100
AcDb2dVertex
 10
7.8926173776
 20
5.8618336757
 30
0.0
  0
VERTEX
  5
197
100
AcDbEntity
  8
0
100
AcDbVertex
100
AcDb2dVertex
 10
7.8970681791
 20
5.8464257829
 30
0.0
  0
VERTEX
  5
198
100
AcDbEntity
  8
0
100
AcDbVertex
100
AcDb2dVertex
 10
7.9007498967
 20
5.8311410712
 30
0.0
  0
VERTEX
  5
199
100
AcDbEntity
  8
0
100
AcDbVertex
100
AcDb2dVertex
 10
7.9036453535
 20
5.8160508026
 30
0.0
  0
VERTEX
  5
19A
100
AcDbEntity
  8
0
100
AcDbVertex
100
AcDb2dVertex
 10
7.9057410677
 20
5.8012253186
 30
0.0
  0
VERTEX
  5
19B
100
AcDbEntity
  8
0
100
AcDbVertex
100
AcDb2dVertex
 10
7.9070272518
 20
5.7867337561
 30
0.0
  0
VERTEX
  5
19C
100
AcDbEntity
  8
0
100
AcDbVertex
100
AcDb2dVertex
 10
7.9074979167
 20
5.7726436728
 30
0.0
  0
VERTEX
  5
19D
100
AcDbEntity
  8
0
100
AcDbVertex
100
AcDb2dVertex
 10
7.9071508715
 20
5.7590207784
 30
0.0
  0
VERTEX
  5
19E
100
AcDbEntity
  8
0
100
AcDbVertex
100
AcDb2dVertex
 10
7.9059877367
 20
5.745928582
 30
0.0
  0
VERTEX
  5
19F
100
AcDbEntity
  8
0
100
AcDbVertex
100
AcDb2dVertex
 10
7.9040139181
 20
5.7334281084
 30
0.0
  0
VERTEX
  5
1A0
100
AcDbEntity
  8
0
100
AcDbVertex
100
AcDb2dVertex
 10
7.9012386456
 20
5.7215776655
 30
0.0
  0
VERTEX
  5
1A1
100
AcDbEntity
  8
0
100
AcDbVertex
100
AcDb2dVertex
 10
7.8976748309
 20
5.710432508
 30
0.0
  0
VERTEX
  5
1A2
100
AcDbEntity
  8
0
100
AcDbVertex
100
AcDb2dVertex
 10
7.8933390931
 20
5.7000445523
 30
0.0
  0
VERTEX
  5
1A3
100
AcDbEntity
  8
0
100
AcDbVertex
100
AcDb2dVertex
 10
7.8882516682
 20
5.6904622949
 30
0.0
  0
VERTEX
  5
1A4
100
AcDbEntity
  8
0
100
AcDbVertex
100
AcDb2dVertex
 10
7.8824362665
 20
5.6817303703
 30
0.0
  0
VERTEX
  5
1A5
100
AcDbEntity
  8
0
100
AcDbVertex
100
AcDb2dVertex
 10
7.8759199945
 20
5.6738895361
 30
0.0
  0
VERTEX
  5
1A6
100
AcDbEntity
  8
0
100
AcDbVertex
100
AcDb2dVertex
 10
7.8687332517
 20
5.666976284
 30
0.0
  0
VERTEX
  5
1A7
100
AcDbEntity
  8
0
100
AcDbVertex
100
AcDb2dVertex
 10
7.860909516
 20
5.6610229031
 30
0.0
  0
VERTEX
  5
1A8
100
AcDbEntity
  8
0
100
AcDbVertex
100
AcDb2dVertex
 10
7.8524852928
 20
5.6560570908
 30
0.0
  0
VERTEX
  5
1A9
100
AcDbEntity
  8
0
100
AcDbVertex
100
AcDb2dVertex
 10
7.8434998484
 20
5.6521020764
 30
0.0
  0
VERTEX
  5
1AA
100
AcDbEntity
  8
0
100
AcDbVertex
100
AcDb2dVertex
 10
7.8339950807
 20
5.6491762467
 30
0.0
  0
VERTEX
  5
1AB
100
AcDbEntity
  8
0
100
AcDbVertex
100
AcDb2dVertex
 10
7.8240152989
 20
5.6472932731
 30
0.0
  0
VERTEX
  5
1AC
100
AcDbEntity
  8
0
100
AcDbVertex
100
AcDb2dVertex
 10
7.8136070418
 20
5.6464619174
 30
0.0
  0
VERTEX
  5
1AD
100
AcDbEntity
  8
0
100
AcDbVertex
100
AcDb2dVertex
 10
7.8028188318
 20
5.6466860538
 30
0.0
  0
VERTEX
  5
1AE
100
AcDbEntity
  8
0
100
AcDbVertex
100
AcDb2dVertex
 10
7.7917009704
 20
5.6479646372
 30
0.0
  0
VERTEX
  5
1AF
100
AcDbEntity
  8
0
100
AcDbVertex
100
AcDb2dVertex
 10
7.7803052952
 20
5.650291694
 30
0.0
  0
VERTEX
  5
1B0
100
AcDbEntity
  8
0
100
AcDbVertex
100
AcDb2dVertex
 10
7.768684937
 20
5.6536564322
 30
0.0
  0
VERTEX
  5
1B1
100
AcDbEntity
  8
0
100
AcDbVertex
100
AcDb2dVertex
 10
7.7568940744
 20
5.658043084
 30
0.0
  0
VERTEX
  5
1B2
100
AcDbEntity
  8
0
100
AcDbVertex
100
AcDb2dVertex
 10
7.7449876828
 20
5.6634312596
 30
0.0
  0
VERTEX
  5
1B3
100
AcDbEntity
  8
0
100
AcDbVertex
100
AcDb2dVertex
 10
7.7330212745
 20
5.6697958286
 30
0.0
  0
VERTEX
  5
1B4
100
AcDbEntity
  8
0
100
AcDbVertex
100
AcDb2dVertex
 10
7.7231482501
 20
5.6757575844
 30
0.0
  0
SEQEND
  5
1B5
100
AcDbEntity
  8
0
  0
POLYLINE
  5
1B6
100
AcDbEntity
  8
0
  6
CONTINUOUS
 62
         7
100
AcDb2dPolyline
 66
         1
 10
0.0
 20
0.0
 30
0.0
 70
       128
  0
VERTEX
  5
1B7
100
AcDbEntity
  8
0
100
AcDbVertex
100
AcDb2dVertex
 10
7.5569586938
 20
5.963637532
 30
0.0
  0
VERTEX
  5
1B8
100
AcDbEntity
  8
0
100
AcDbVertex
100
AcDb2dVertex
 10
7.5567330904
 20
5.9730440102
 30
0.0
  0
VERTEX
  5
1B9
100
AcDbEntity
  8
0
100
AcDbVertex
100
AcDb2dVertex
 10
7.5570801356
 20
5.9866669046
 30
0.0
  0
SEQEND
  5
1BA
100
AcDbEntity
  8
0
  0
POLYLINE
  5
1BB
100
AcDbEntity
  8
0
  6
CONTINUOUS
 62
         7
100
AcDb2dPolyline
 66
         1
 10
0.0
 20
0.0
 30
0.0
 70
       128
  0
VERTEX
  5
1BC
100
AcDbEntity
  8
0
100
AcDbVertex
100
AcDb2dVertex
 10
7.7681120422
 20
5.7777026736
 30
0.0
  0
VERTEX
  5
1BD
100
AcDbEntity
  8
0
100
AcDbVertex
100
AcDb2dVertex
 10
7.7739205474
 20
5.7785182986
 30
0.0
  0
VERTEX
  5
1BE
100
AcDbEntity
  8
0
100
AcDbVertex
100
AcDb2dVertex
 10
7.7801447377
 20
5.7804541344
 30
0.0
  0
VERTEX
  5
1BF
100
AcDbEntity
  8
0
100
AcDbVertex
100
AcDb2dVertex
 10
7.7858247375
 20
5.7834367438
 30
0.0
  0
VERTEX
  5
1C0
100
AcDbEntity
  8
0
100
AcDbVertex
100
AcDb2dVertex
 10
7.7908961881
 20
5.7874323837
 30
0.0
  0
VERTEX
  5
1C1
100
AcDbEntity
  8
0
100
AcDbVertex
100
AcDb2dVertex
 10
7.7953016338
 20
5.7923957812
 30
0.0
  0
VERTEX
  5
1C2
100
AcDbEntity
  8
0
100
AcDbVertex
100
AcDb2dVertex
 10
7.7989911553
 20
5.7982706807
 30
0.0
  0
VERTEX
  5
1C3
100
AcDbEntity
  8
0
100
AcDbVertex
100
AcDb2dVertex
 10
7.8019229455
 20
5.8049905156
 30
0.0
  0
VERTEX
  5
1C4
100
AcDbEntity
  8
0
100
AcDbVertex
100
AcDb2dVertex
 10
7.8040637921
 20
5.8124791615
 30
0.0
  0
VERTEX
  5
1C5
100
AcDbEntity
  8
0
100
AcDbVertex
100
AcDb2dVertex
 10
7.805389437
 20
5.820651762
 30
0.0
  0
VERTEX
  5
1C6
100
AcDbEntity
  8
0
100
AcDbVertex
100
AcDb2dVertex
 10
7.8058848556
 20
5.8294157204
 30
0.0
  0
VERTEX
  5
1C7
100
AcDbEntity
  8
0
100
AcDbVertex
100
AcDb2dVertex
 10
7.8055444412
 20
5.8386717456
 30
0.0
  0
VERTEX
  5
1C8
100
AcDbEntity
  8
0
100
AcDbVertex
100
AcDb2dVertex
 10
7.8043720473
 20
5.8483149357
 30
0.0
  0
VERTEX
  5
1C9
100
AcDbEntity
  8
0
100
AcDbVertex
100
AcDb2dVertex
 10
7.8023809548
 20
5.8582360688
 30
0.0
  0
VERTEX
  5
1CA
100
AcDbEntity
  8
0
100
AcDbVertex
100
AcDb2dVertex
 10
7.79959373
 20
5.8683227039
 30
0.0
  0
VERTEX
  5
1CB
100
AcDbEntity
  8
0
100
AcDbVertex
100
AcDb2dVertex
 10
7.7960419486
 20
5.8784605666
 30
0.0
  0
VERTEX
  5
1CC
100
AcDbEntity
  8
0
100
AcDbVertex
100
AcDb2dVertex
 10
7.7917658558
 20
5.8885347792
 30
0.0
  0
VERTEX
  5
1CD
100
AcDbEntity
  8
0
100
AcDbVertex
100
AcDb2dVertex
 10
7.7868138993
 20
5.8984312226
 30
0.0
  0
VERTEX
  5
1CE
100
AcDbEntity
  8
0
100
AcDbVertex
100
AcDb2dVertex
 10
7.7812421914
 20
5.908037745
 30
0.0
  0
VERTEX
  5
1CF
100
AcDbEntity
  8
0
100
AcDbVertex
100
AcDb2dVertex
 10
7.7751138563
 20
5.9172454971
 30
0.0
  0
VERTEX
  5
1D0
100
AcDbEntity
  8
0
100
AcDbVertex
100
AcDb2dVertex
 10
7.7684983327
 20
5.9259501723
 30
0.0
  0
VERTEX
  5
1D1
100
AcDbEntity
  8
0
100
AcDbVertex
100
AcDb2dVertex
 10
7.7614705771
 20
5.9340531264
 30
0.0
  0
VERTEX
  5
1D2
100
AcDbEntity
  8
0
100
AcDbVertex
100
AcDb2dVertex
 10
7.7541102168
 20
5.9414625689
 30
0.0
  0
VERTEX
  5
1D3
100
AcDbEntity
  8
0
100
AcDbVertex
100
AcDb2dVertex
 10
7.7465006475
 20
5.948094519
 30
0.0
  0
VERTEX
  5
1D4
100
AcDbEntity
  8
0
100
AcDbVertex
100
AcDb2dVertex
 10
7.7387280893
 20
5.9538738442
 30
0.0
  0
VERTEX
  5
1D5
100
AcDbEntity
  8
0
100
AcDbVertex
100
AcDb2dVertex
 10
7.7308806078
 20
5.9587350798
 30
0.0
  0
VERTEX
  5
1D6
100
AcDbEntity
  8
0
100
AcDbVertex
100
AcDb2dVertex
 10
7.7230471188
 20
5.9626231235
 30
0.0
  0
VERTEX
  5
1D7
100
AcDbEntity
  8
0
100
AcDbVertex
100
AcDb2dVertex
 10
7.7153163767
 20
5.9654939389
 30
0.0
  0
VERTEX
  5
1D8
100
AcDbEntity
  8
0
100
AcDbVertex
100
AcDb2dVertex
 10
7.7077759772
 20
5.9673149966
 30
0.0
  0
VERTEX
  5
1D9
100
AcDbEntity
  8
0
100
AcDbVertex
100
AcDb2dVertex
 10
7.700511353
 20
5.9680656444
 30
0.0
  0
VERTEX
  5
1DA
100
AcDbEntity
  8
0
100
AcDbVertex
100
AcDb2dVertex
 10
7.6936048189
 20
5.9677374041
 30
0.0
  0
VERTEX
  5
1DB
100
AcDbEntity
  8
0
100
AcDbVertex
100
AcDb2dVertex
 10
7.6871346256
 20
5.9663339787
 30
0.0
  0
VERTEX
  5
1DC
100
AcDbEntity
  8
0
100
AcDbVertex
100
AcDb2dVertex
 10
7.6811740783
 20
5.9638712674
 30
0.0
  0
VERTEX
  5
1DD
100
AcDbEntity
  8
0
100
AcDbVertex
100
AcDb2dVertex
 10
7.6757907233
 20
5.9603771763
 30
0.0
  0
VERTEX
  5
1DE
100
AcDbEntity
  8
0
100
AcDbVertex
100
AcDb2dVertex
 10
7.6710455536
 20
5.9558912986
 30
0.0
  0
VERTEX
  5
1DF
100
AcDbEntity
  8
0
100
AcDbVertex
100
AcDb2dVertex
 10
7.6677265023
 20
5.9515943793
 30
0.0
  0
SEQEND
  5
1E0
100
AcDbEntity
  8
0
  0
POLYLINE
  5
1E1
100
AcDbEntity
  8
0
  6
CONTINUOUS
 62
         7
100
AcDb2dPolyline
 66
         1
 10
0.0
 20
0.0
 30
0.0
 70
       128
  0
VERTEX
  5
1E2
100
AcDbEntity
  8
0
100
AcDbVertex
100
AcDb2dVertex
 10
7.8169012228
 20
6.2081839309
 30
0.0
  0
VERTEX
  5
1E3
100
AcDbEntity
  8
0
100
AcDbVertex
100
AcDb2dVertex
 10
7.8205371014
 20
6.2101632794
 30
0.0
  0
VERTEX
  5
1E4
100
AcDbEntity
  8
0
100
AcDbVertex
100
AcDb2dVertex
 10
7.8295225523
 20
6.2141183013
 30
0.0
  0
VERTEX
  5
1E5
100
AcDbEntity
  8
0
100
AcDbVertex
100
AcDb2dVertex
 10
7.83902732
 20
6.2170441273
 30
0.0
  0
VERTEX
  5
1E6
100
AcDbEntity
  8
0
100
AcDbVertex
100
AcDb2dVertex
 10
7.8490070954
 20
6.2189271158
 30
0.0
  0
VERTEX
  5
1E7
100
AcDbEntity
  8
0
100
AcDbVertex
100
AcDb2dVertex
 10
7.8594153589
 20
6.2197584734
 30
0.0
  0
VERTEX
  5
1E8
100
AcDbEntity
  8
0
100
AcDbVertex
100
AcDb2dVertex
 10
7.8702035625
 20
6.2195343426
 30
0.0
  0
VERTEX
  5
1E9
100
AcDbEntity
  8
0
100
AcDbVertex
100
AcDb2dVertex
 10
7.8813214271
 20
6.2182557536
 30
0.0
  0
VERTEX
  5
1EA
100
AcDbEntity
  8
0
100
AcDbVertex
100
AcDb2dVertex
 10
7.8927170991
 20
6.2159286781
 30
0.0
  0
VERTEX
  5
1EB
100
AcDbEntity
  8
0
100
AcDbVertex
100
AcDb2dVertex
 10
7.9043374605
 20
6.2125639586
 30
0.0
  0
VERTEX
  5
1EC
100
AcDbEntity
  8
0
100
AcDbVertex
100
AcDb2dVertex
 10
7.9161283239
 20
6.2081772877
 30
0.0
  0
VERTEX
  5
1ED
100
AcDbEntity
  8
0
100
AcDbVertex
100
AcDb2dVertex
 10
7.9280347147
 20
6.2027891163
 30
0.0
  0
VERTEX
  5
1EE
100
AcDbEntity
  8
0
100
AcDbVertex
100
AcDb2dVertex
 10
7.940001123
 20
6.1964245669
 30
0.0
  0
VERTEX
  5
1EF
100
AcDbEntity
  8
0
100
AcDbVertex
100
AcDb2dVertex
 10
7.9519717534
 20
6.189113314
 30
0.0
  0
VERTEX
  5
1F0
100
AcDbEntity
  8
0
100
AcDbVertex
100
AcDb2dVertex
 10
7.9638907948
 20
6.1808894453
 30
0.0
  0
VERTEX
  5
1F1
100
AcDbEntity
  8
0
100
AcDbVertex
100
AcDb2dVertex
 10
7.9757026746
 20
6.1717913059
 30
0.0
  0
VERTEX
  5
1F2
100
AcDbEntity
  8
0
100
AcDbVertex
100
AcDb2dVertex
 10
7.9873523205
 20
6.1618613141
 30
0.0
  0
VERTEX
  5
1F3
100
AcDbEntity
  8
0
100
AcDbVertex
100
AcDb2dVertex
 10
7.9987854147
 20
6.1511457685
 30
0.0
  0
VERTEX
  5
1F4
100
AcDbEntity
  8
0
100
AcDbVertex
100
AcDb2dVertex
 10
8.0099486548
 20
6.1396946303
 30
0.0
  0
VERTEX
  5
1F5
100
AcDbEntity
  8
0
100
AcDbVertex
100
AcDb2dVertex
 10
8.0207899924
 20
6.127561287
 30
0.0
  0
VERTEX
  5
1F6
100
AcDbEntity
  8
0
100
AcDbVertex
100
AcDb2dVertex
 10
8.0312588731
 20
6.1148023158
 30
0.0
  0
VERTEX
  5
1F7
100
AcDbEntity
  8
0
100
AcDbVertex
100
AcDb2dVertex
 10
8.0413064928
 20
6.1014772018
 30
0.0
  0
VERTEX
  5
1F8
100
AcDbEntity
  8
0
100
AcDbVertex
100
AcDb2dVertex
 10
8.0508860014
 20
6.0876480725
 30
0.0
  0
VERTEX
  5
1F9
100
AcDbEntity
  8
0
100
AcDbVertex
100
AcDb2dVertex
 10
8.0599527398
 20
6.0733794023
 30
0.0
  0
VERTEX
  5
1FA
100
AcDbEntity
  8
0
100
AcDbVertex
100
AcDb2dVertex
 10
8.068464434
 20
6.0587377237
 30
0.0
  0
VERTEX
  5
1FB
100
AcDbEntity
  8
0
100
AcDbVertex
100
AcDb2dVertex
 10
8.0763813835
 20
6.0437913065
 30
0.0
  0
VERTEX
  5
1FC
100
AcDbEntity
  8
0
100
AcDbVertex
100
AcDb2dVertex
 10
8.0836667007
 20
6.0286098275
 30
0.0
  0
VERTEX
  5
1FD
100
AcDbEntity
  8
0
100
AcDbVertex
100
AcDb2dVertex
 10
8.0902864082
 20
6.013264068
 30
0.0
  0
VERTEX
  5
1FE
100
AcDbEntity
  8
0
100
AcDbVertex
100
AcDb2dVertex
 10
8.0962096272
 20
5.9978255954
 30
0.0
  0
VERTEX
  5
1FF
100
AcDbEntity
  8
0
100
AcDbVertex
100
AcDb2dVertex
 10
8.1014087583
 20
5.9823663742
 30
0.0
  0
VERTEX
  5
200
100
AcDbEntity
  8
0
100
AcDbVertex
100
AcDb2dVertex
 10
8.1058595598
 20
5.9669584813
 30
0.0
  0
VERTEX
  5
201
100
AcDbEntity
  8
0
100
AcDbVertex
100
AcDb2dVertex
 10
8.1095412774
 20
5.9516737697
 30
0.0
  0
VERTEX
  5
202
100
AcDbEntity
  8
0
100
AcDbVertex
100
AcDb2dVertex
 10
8.1124367342
 20
5.9365835011
 30
0.0
  0
VERTEX
  5
203
100
AcDbEntity
  8
0
100
AcDbVertex
100
AcDb2dVertex
 10
8.1145324484
 20
5.9217580171
 30
0.0
  0
VERTEX
  5
204
100
AcDbEntity
  8
0
100
AcDbVertex
100
AcDb2dVertex
 10
8.1158186325
 20
5.9072664545
 30
0.0
  0
VERTEX
  5
205
100
AcDbEntity
  8
0
100
AcDbVertex
100
AcDb2dVertex
 10
8.1162892974
 20
5.8931763713
 30
0.0
  0
VERTEX
  5
206
100
AcDbEntity
  8
0
100
AcDbVertex
100
AcDb2dVertex
 10
8.1159422522
 20
5.8795534769
 30
0.0
  0
VERTEX
  5
207
100
AcDbEntity
  8
0
100
AcDbVertex
100
AcDb2dVertex
 10
8.1147791174
 20
5.8664612805
 30
0.0
  0
VERTEX
  5
208
100
AcDbEntity
  8
0
100
AcDbVertex
100
AcDb2dVertex
 10
8.1128052988
 20
5.8539608069
 30
0.0
  0
VERTEX
  5
209
100
AcDbEntity
  8
0
100
AcDbVertex
100
AcDb2dVertex
 10
8.1100300263
 20
5.842110364
 30
0.0
  0
VERTEX
  5
20A
100
AcDbEntity
  8
0
100
AcDbVertex
100
AcDb2dVertex
 10
8.1064662116
 20
5.8309652064
 30
0.0
  0
VERTEX
  5
20B
100
AcDbEntity
  8
0
100
AcDbVertex
100
AcDb2dVertex
 10
8.1021304738
 20
5.8205772507
 30
0.0
  0
VERTEX
  5
20C
100
AcDbEntity
  8
0
100
AcDbVertex
100
AcDb2dVertex
 10
8.0970430489
 20
5.8109949933
 30
0.0
  0
VERTEX
  5
20D
100
AcDbEntity
  8
0
100
AcDbVertex
100
AcDb2dVertex
 10
8.0912276472
 20
5.8022630687
 30
0.0
  0
VERTEX
  5
20E
100
AcDbEntity
  8
0
100
AcDbVertex
100
AcDb2dVertex
 10
8.0847113752
 20
5.7944222346
 30
0.0
  0
VERTEX
  5
20F
100
AcDbEntity
  8
0
100
AcDbVertex
100
AcDb2dVertex
 10
8.0775246323
 20
5.7875089825
 30
0.0
  0
VERTEX
  5
210
100
AcDbEntity
  8
0
100
AcDbVertex
100
AcDb2dVertex
 10
8.0697008967
 20
5.7815556016
 30
0.0
  0
VERTEX
  5
211
100
AcDbEntity
  8
0
100
AcDbVertex
100
AcDb2dVertex
 10
8.0649125587
 20
5.7785691341
 30
0.0
  0
SEQEND
  5
212
100
AcDbEntity
  8
0
  0
LINE
  5
213
100
AcDbEntity
  8
0
  6
CONTINUOUS
 62
         7
100
AcDbLine
 10
7.6955654265
 20
5.9676654495
 30
0.0
 11
7.6957647951
 21
5.967959401
 31
0.0
  0
LINE
  5
214
100
AcDbEntity
  8
0
  6
CONTINUOUS
 62
         7
100
AcDbLine
 10
7.7963052248
 20
5.793799398
 30
0.0
 11
7.7959509685
 21
5.7937737487
 31
0.0
  0
POLYLINE
  5
215
100
AcDbEntity
  8
0
  6
CONTINUOUS
 62
         7
100
AcDb2dPolyline
 66
         1
 10
0.0
 20
0.0
 30
0.0
 70
       128
  0
VERTEX
  5
216
100
AcDbEntity
  8
0
100
AcDbVertex
100
AcDb2dVertex
 10
8.1413465789
 20
5.9323066296
 30
0.0
  0
VERTEX
  5
217
100
AcDbEntity
  8
0
100
AcDbVertex
100
AcDb2dVertex
 10
8.1409381127
 20
5.9454487298
 30
0.0
  0
VERTEX
  5
218
100
AcDbEntity
  8
0
100
AcDbVertex
100
AcDb2dVertex
 10
8.1397149052
 20
5.9589923094
 30
0.0
  0
VERTEX
  5
219
100
AcDbEntity
  8
0
100
AcDbVertex
100
AcDb2dVertex
 10
8.1376834639
 20
5.9728651251
 30
0.0
  0
VERTEX
  5
21A
100
AcDbEntity
  8
0
100
AcDbVertex
100
AcDb2dVertex
 10
8.1348546523
 20
5.9869931374
 30
0.0
  0
VERTEX
  5
21B
100
AcDbEntity
  8
0
100
AcDbVertex
100
AcDb2dVertex
 10
8.1312435468
 20
6.0013009827
 30
0.0
  0
VERTEX
  5
21C
100
AcDbEntity
  8
0
100
AcDbVertex
100
AcDb2dVertex
 10
8.1268694112
 20
6.0157123171
 30
0.0
  0
VERTEX
  5
21D
100
AcDbEntity
  8
0
100
AcDbVertex
100
AcDb2dVertex
 10
8.1217555927
 20
6.0301502432
 30
0.0
  0
VERTEX
  5
21E
100
AcDbEntity
  8
0
100
AcDbVertex
100
AcDb2dVertex
 10
8.115929373
 20
6.044537733
 30
0.0
  0
VERTEX
  5
21F
100
AcDbEntity
  8
0
100
AcDbVertex
100
AcDb2dVertex
 10
8.1094218384
 20
6.0587980246
 30
0.0
  0
VERTEX
  5
220
100
AcDbEntity
  8
0
100
AcDbVertex
100
AcDb2dVertex
 10
8.1022677116
 20
6.0728550263
 30
0.0
  0
VERTEX
  5
221
100
AcDbEntity
  8
0
100
AcDbVertex
100
AcDb2dVertex
 10
8.0945051571
 20
6.0866337508
 30
0.0
  0
VERTEX
  5
222
100
AcDbEntity
  8
0
100
AcDbVertex
100
AcDb2dVertex
 10
8.0861755932
 20
6.1000606705
 30
0.0
  0
VERTEX
  5
223
100
AcDbEntity
  8
0
100
AcDbVertex
100
AcDb2dVertex
 10
8.0773234587
 20
6.1130641595
 30
0.0
  0
VERTEX
  5
224
100
AcDbEntity
  8
0
100
AcDbVertex
100
AcDb2dVertex
 10
8.0679959924
 20
6.1255748262
 30
0.0
  0
VERTEX
  5
225
100
AcDbEntity
  8
0
100
AcDbVertex
100
AcDb2dVertex
 10
8.058242958
 20
6.1375259271
 30
0.0
  0
VERTEX
  5
226
100
AcDbEntity
  8
0
100
AcDbVertex
100
AcDb2dVertex
 10
8.0481163842
 20
6.1488536958
 30
0.0
  0
VERTEX
  5
227
100
AcDbEntity
  8
0
100
AcDbVertex
100
AcDb2dVertex
 10
8.0376703095
 20
6.1594976973
 30
0.0
  0
VERTEX
  5
228
100
AcDbEntity
  8
0
100
AcDbVertex
100
AcDb2dVertex
 10
8.0269604637
 20
6.1694011339
 30
0.0
  0
VERTEX
  5
229
100
AcDbEntity
  8
0
100
AcDbVertex
100
AcDb2dVertex
 10
8.0160439906
 20
6.178511175
 30
0.0
  0
VERTEX
  5
22A
100
AcDbEntity
  8
0
100
AcDbVertex
100
AcDb2dVertex
 10
8.0049791328
 20
6.1867792094
 30
0.0
  0
VERTEX
  5
22B
100
AcDbEntity
  8
0
100
AcDbVertex
100
AcDb2dVertex
 10
7.9938249266
 20
6.1941611225
 30
0.0
  0
VERTEX
  5
22C
100
AcDbEntity
  8
0
100
AcDbVertex
100
AcDb2dVertex
 10
7.9826408834
 20
6.2006175332
 30
0.0
  0
VERTEX
  5
22D
100
AcDbEntity
  8
0
100
AcDbVertex
100
AcDb2dVertex
 10
7.9714866772
 20
6.2061139924
 30
0.0
  0
VERTEX
  5
22E
100
AcDbEntity
  8
0
100
AcDbVertex
100
AcDb2dVertex
 10
7.9604218201
 20
6.2106211705
 30
0.0
  0
VERTEX
  5
22F
100
AcDbEntity
  8
0
100
AcDbVertex
100
AcDb2dVertex
 10
7.949505343
 20
6.2141150233
 30
0.0
  0
VERTEX
  5
230
100
AcDbEntity
  8
0
100
AcDbVertex
100
AcDb2dVertex
 10
7.9387954972
 20
6.2165769114
 30
0.0
  0
VERTEX
  5
231
100
AcDbEntity
  8
0
100
AcDbVertex
100
AcDb2dVertex
 10
7.9283494257
 20
6.2179936893
 30
0.0
  0
VERTEX
  5
232
100
AcDbEntity
  8
0
100
AcDbVertex
100
AcDb2dVertex
 10
7.918222852
 20
6.2183578137
 30
0.0
  0
VERTEX
  5
233
100
AcDbEntity
  8
0
100
AcDbVertex
100
AcDb2dVertex
 10
7.9084698143
 20
6.2176673286
 30
0.0
  0
VERTEX
  5
234
100
AcDbEntity
  8
0
100
AcDbVertex
100
AcDb2dVertex
 10
7.899142348
 20
6.2159259252
 30
0.0
  0
VERTEX
  5
235
100
AcDbEntity
  8
0
100
AcDbVertex
100
AcDb2dVertex
 10
7.8960066132
 20
6.2150753122
 30
0.0
  0
SEQEND
  5
236
100
AcDbEntity
  8
0
  0
POLYLINE
  5
237
100
AcDbEntity
  8
0
  6
CONTINUOUS
 62
         7
100
AcDb2dPolyline
 66
         1
 10
0.0
 20
0.0
 30
0.0
 70
       128
  0
VERTEX
  5
238
100
AcDbEntity
  8
0
100
AcDbVertex
100
AcDb2dVertex
 10
8.1104394647
 20
5.8436264586
 30
0.0
  0
VERTEX
  5
239
100
AcDbEntity
  8
0
100
AcDbVertex
100
AcDb2dVertex
 10
8.115929373
 20
5.8494215924
 30
0.0
  0
VERTEX
  5
23A
100
AcDbEntity
  8
0
100
AcDbVertex
100
AcDb2dVertex
 10
8.1217555927
 20
5.8570822946
 30
0.0
  0
VERTEX
  5
23B
100
AcDbEntity
  8
0
100
AcDbVertex
100
AcDb2dVertex
 10
8.1268694112
 20
5.865615924
 30
0.0
  0
VERTEX
  5
23C
100
AcDbEntity
  8
0
100
AcDbVertex
100
AcDb2dVertex
 10
8.1312435468
 20
5.874976974
 30
0.0
  0
VERTEX
  5
23D
100
AcDbEntity
  8
0
100
AcDbVertex
100
AcDb2dVertex
 10
8.1348546523
 20
5.8851155406
 30
0.0
  0
VERTEX
  5
23E
100
AcDbEntity
  8
0
100
AcDbVertex
100
AcDb2dVertex
 10
8.1376834639
 20
5.8959774616
 30
0.0
  0
VERTEX
  5
23F
100
AcDbEntity
  8
0
100
AcDbVertex
100
AcDb2dVertex
 10
8.1397149052
 20
5.9075048251
 30
0.0
  0
VERTEX
  5
240
100
AcDbEntity
  8
0
100
AcDbVertex
100
AcDb2dVertex
 10
8.1409381127
 20
5.9196361193
 30
0.0
  0
VERTEX
  5
241
100
AcDbEntity
  8
0
100
AcDbVertex
100
AcDb2dVertex
 10
8.1413465789
 20
5.9323066296
 30
0.0
  0
SEQEND
  5
242
100
AcDbEntity
  8
0
  0
POLYLINE
  5
243
100
AcDbEntity
  8
0
  6
CONTINUOUS
 62
         7
100
AcDb2dPolyline
 66
         1
 10
0.0
 20
0.0
 30
0.0
 70
       128
  0
VERTEX
  5
244
100
AcDbEntity
  8
0
100
AcDbVertex
100
AcDb2dVertex
 10
8.1650095998
 20
5.9186462584
 30
0.0
  0
VERTEX
  5
245
100
AcDbEntity
  8
0
100
AcDbVertex
100
AcDb2dVertex
 10
8.1645974909
 20
5.9049534866
 30
0.0
  0
VERTEX
  5
246
100
AcDbEntity
  8
0
100
AcDbVertex
100
AcDb2dVertex
 10
8.1633630959
 20
5.8918003492
 30
0.0
  0
VERTEX
  5
247
100
AcDbEntity
  8
0
100
AcDbVertex
100
AcDb2dVertex
 10
8.1613121575
 20
5.8792482152
 30
0.0
  0
VERTEX
  5
248
100
AcDbEntity
  8
0
100
AcDbVertex
100
AcDb2dVertex
 10
8.1584542429
 20
5.8673555574
 30
0.0
  0
VERTEX
  5
249
100
AcDbEntity
  8
0
100
AcDbVertex
100
AcDb2dVertex
 10
8.1548026784
 20
5.8561778549
 30
0.0
  0
VERTEX
  5
24A
100
AcDbEntity
  8
0
100
AcDbVertex
100
AcDb2dVertex
 10
8.1503744851
 20
5.8457672263
 30
0.0
  0
VERTEX
  5
24B
100
AcDbEntity
  8
0
100
AcDbVertex
100
AcDb2dVertex
 10
8.1451903139
 20
5.8361722281
 30
0.0
  0
VERTEX
  5
24C
100
AcDbEntity
  8
0
100
AcDbVertex
100
AcDb2dVertex
 10
8.1392743415
 20
5.8274375246
 30
0.0
  0
VERTEX
  5
24D
100
AcDbEntity
  8
0
100
AcDbVertex
100
AcDb2dVertex
 10
8.1326541414
 20
5.8196039036
 30
0.0
  0
VERTEX
  5
24E
100
AcDbEntity
  8
0
100
AcDbVertex
100
AcDb2dVertex
 10
8.1253605794
 20
5.8127078866
 30
0.0
  0
VERTEX
  5
24F
100
AcDbEntity
  8
0
100
AcDbVertex
100
AcDb2dVertex
 10
8.1174276719
 20
5.8067816019
 30
0.0
  0
VERTEX
  5
250
100
AcDbEntity
  8
0
100
AcDbVertex
100
AcDb2dVertex
 10
8.1088923971
 20
5.8018526834
 30
0.0
  0
VERTEX
  5
251
100
AcDbEntity
  8
0
100
AcDbVertex
100
AcDb2dVertex
 10
8.0997945464
 20
5.7979441171
 30
0.0
  0
VERTEX
  5
252
100
AcDbEntity
  8
0
100
AcDbVertex
100
AcDb2dVertex
 10
8.0901765492
 20
5.7950741326
 30
0.0
  0
VERTEX
  5
253
100
AcDbEntity
  8
0
100
AcDbVertex
100
AcDb2dVertex
 10
8.084182621
 20
5.7938578063
 30
0.0
  0
SEQEND
  5
254
100
AcDbEntity
  8
0
  0
POLYLINE
  5
255
100
AcDbEntity
  8
0
  6
CONTINUOUS
 62
         7
100
AcDb2dPolyline
 66
         1
 10
0.0
 20
0.0
 30
0.0
 70
       128
  0
VERTEX
  5
256
100
AcDbEntity
  8
0
100
AcDbVertex
100
AcDb2dVertex
 10
7.8397774515
 20
6.2172258361
 30
0.0
  0
VERTEX
  5
257
100
AcDbEntity
  8
0
100
AcDbVertex
100
AcDb2dVertex
 10
7.8438116718
 20
6.2217906237
 30
0.0
  0
VERTEX
  5
258
100
AcDbEntity
  8
0
100
AcDbVertex
100
AcDb2dVertex
 10
7.8511052208
 20
6.2286866631
 30
0.0
  0
VERTEX
  5
259
100
AcDbEntity
  8
0
100
AcDbVertex
100
AcDb2dVertex
 10
7.8590381413
 20
6.2346129403
 30
0.0
  0
VERTEX
  5
25A
100
AcDbEntity
  8
0
100
AcDbVertex
100
AcDb2dVertex
 10
7.8675734225
 20
6.2395418514
 30
0.0
  0
VERTEX
  5
25B
100
AcDbEntity
  8
0
100
AcDbVertex
100
AcDb2dVertex
 10
7.8766712668
 20
6.243450414
 30
0.0
  0
VERTEX
  5
25C
100
AcDbEntity
  8
0
100
AcDbVertex
100
AcDb2dVertex
 10
7.8862892575
 20
6.2463203985
 30
0.0
  0
VERTEX
  5
25D
100
AcDbEntity
  8
0
100
AcDbVertex
100
AcDb2dVertex
 10
7.8963825669
 20
6.2481384178
 30
0.0
  0
VERTEX
  5
25E
100
AcDbEntity
  8
0
100
AcDbVertex
100
AcDb2dVertex
 10
7.9069041312
 20
6.2488960001
 30
0.0
  0
VERTEX
  5
25F
100
AcDbEntity
  8
0
100
AcDbVertex
100
AcDb2dVertex
 10
7.9178048772
 20
6.2485896193
 30
0.0
  0
VERTEX
  5
260
100
AcDbEntity
  8
0
100
AcDbVertex
100
AcDb2dVertex
 10
7.9290339944
 20
6.2472206965
 30
0.0
  0
VERTEX
  5
261
100
AcDbEntity
  8
0
100
AcDbVertex
100
AcDb2dVertex
 10
7.9405391234
 20
6.2447956187
 30
0.0
  0
VERTEX
  5
262
100
AcDbEntity
  8
0
100
AcDbVertex
100
AcDb2dVertex
 10
7.9522666214
 20
6.2413256907
 30
0.0
  0
VERTEX
  5
263
100
AcDbEntity
  8
0
100
AcDbVertex
100
AcDb2dVertex
 10
7.964161815
 20
6.2368270895
 30
0.0
  0
VERTEX
  5
264
100
AcDbEntity
  8
0
100
AcDbVertex
100
AcDb2dVertex
 10
7.9761692365
 20
6.2313207925
 30
0.0
  0
VERTEX
  5
265
100
AcDbEntity
  8
0
100
AcDbVertex
100
AcDb2dVertex
 10
7.988232905
 20
6.2248324712
 30
0.0
  0
VERTEX
  5
266
100
AcDbEntity
  8
0
100
AcDbVertex
100
AcDb2dVertex
 10
8.0002965734
 20
6.2173923774
 30
0.0
  0
VERTEX
  5
267
100
AcDbEntity
  8
0
100
AcDbVertex
100
AcDb2dVertex
 10
8.0123039954
 20
6.2090352003
 30
0.0
  0
VERTEX
  5
268
100
AcDbEntity
  8
0
100
AcDbVertex
100
AcDb2dVertex
 10
8.0241991869
 20
6.1997999046
 30
0.0
  0
VERTEX
  5
269
100
AcDbEntity
  8
0
100
AcDbVertex
100
AcDb2dVertex
 10
8.0359266865
 20
6.1897295507
 30
0.0
  0
VERTEX
  5
26A
100
AcDbEntity
  8
0
100
AcDbVertex
100
AcDb2dVertex
 10
8.0474318156
 20
6.1788710892
 30
0.0
  0
VERTEX
  5
26B
100
AcDbEntity
  8
0
100
AcDbVertex
100
AcDb2dVertex
 10
8.0586609328
 20
6.1672751492
 30
0.0
  0
VERTEX
  5
26C
100
AcDbEntity
  8
0
100
AcDbVertex
100
AcDb2dVertex
 10
8.069561682
 20
6.1549957948
 30
0.0
  0
VERTEX
  5
26D
100
AcDbEntity
  8
0
100
AcDbVertex
100
AcDb2dVertex
 10
8.0800832398
 20
6.1420902766
 30
0.0
  0
VERTEX
  5
26E
100
AcDbEntity
  8
0
100
AcDbVertex
100
AcDb2dVertex
 10
8.0901765492
 20
6.1286187703
 30
0.0
  0
VERTEX
  5
26F
100
AcDbEntity
  8
0
100
AcDbVertex
100
AcDb2dVertex
 10
8.0997945464
 20
6.1146440864
 30
0.0
  0
VERTEX
  5
270
100
AcDbEntity
  8
0
100
AcDbVertex
100
AcDb2dVertex
 10
8.1088923971
 20
6.1002313726
 30
0.0
  0
VERTEX
  5
271
100
AcDbEntity
  8
0
100
AcDbVertex
100
AcDb2dVertex
 10
8.1174276719
 20
6.0854478393
 30
0.0
  0
VERTEX
  5
272
100
AcDbEntity
  8
0
100
AcDbVertex
100
AcDb2dVertex
 10
8.1253605794
 20
6.0703624146
 30
0.0
  0
VERTEX
  5
273
100
AcDbEntity
  8
0
100
AcDbVertex
100
AcDb2dVertex
 10
8.1326541414
 20
6.0550454153
 30
0.0
  0
VERTEX
  5
274
100
AcDbEntity
  8
0
100
AcDbVertex
100
AcDb2dVertex
 10
8.1392743415
 20
6.0395682814
 30
0.0
  0
VERTEX
  5
275
100
AcDbEntity
  8
0
100
AcDbVertex
100
AcDb2dVertex
 10
8.1451903139
 20
6.0240031566
 30
0.0
  0
VERTEX
  5
276
100
AcDbEntity
  8
0
100
AcDbVertex
100
AcDb2dVertex
 10
8.1503744851
 20
6.0084226191
 30
0.0
  0
VERTEX
  5
277
100
AcDbEntity
  8
0
100
AcDbVertex
100
AcDb2dVertex
 10
8.1548026784
 20
5.9928993075
 30
0.0
  0
VERTEX
  5
278
100
AcDbEntity
  8
0
100
AcDbVertex
100
AcDb2dVertex
 10
8.1584542429
 20
5.9775055983
 30
0.0
  0
VERTEX
  5
279
100
AcDbEntity
  8
0
100
AcDbVertex
100
AcDb2dVertex
 10
8.1613121575
 20
5.9623132774
 30
0.0
  0
VERTEX
  5
27A
100
AcDbEntity
  8
0
100
AcDbVertex
100
AcDb2dVertex
 10
8.1633630959
 20
5.9473931655
 30
0.0
  0
VERTEX
  5
27B
100
AcDbEntity
  8
0
100
AcDbVertex
100
AcDb2dVertex
 10
8.1645974909
 20
5.932814841
 30
0.0
  0
VERTEX
  5
27C
100
AcDbEntity
  8
0
100
AcDbVertex
100
AcDb2dVertex
 10
8.1650095998
 20
5.9186462584
 30
0.0
  0
SEQEND
  5
27D
100
AcDbEntity
  8
0
  0
POLYLINE
  5
27E
100
AcDbEntity
  8
0
  6
CONTINUOUS
 62
         7
100
AcDb2dPolyline
 66
         1
 10
0.0
 20
0.0
 30
0.0
 70
       128
  0
VERTEX
  5
27F
100
AcDbEntity
  8
0
100
AcDbVertex
100
AcDb2dVertex
 10
9.1159914006
 20
6.9604057055
 30
0.0
  0
VERTEX
  5
280
100
AcDbEntity
  8
0
100
AcDbVertex
100
AcDb2dVertex
 10
9.1203217586
 20
6.9627380721
 30
0.0
  0
VERTEX
  5
281
100
AcDbEntity
  8
0
100
AcDbVertex
100
AcDb2dVertex
 10
9.1294196028
 20
6.9666466347
 30
0.0
  0
VERTEX
  5
282
100
AcDbEntity
  8
0
100
AcDbVertex
100
AcDb2dVertex
 10
9.1390375935
 20
6.9695166192
 30
0.0
  0
VERTEX
  5
283
100
AcDbEntity
  8
0
100
AcDbVertex
100
AcDb2dVertex
 10
9.1491309029
 20
6.9713346385
 30
0.0
  0
VERTEX
  5
284
100
AcDbEntity
  8
0
100
AcDbVertex
100
AcDb2dVertex
 10
9.1596524672
 20
6.9720922208
 30
0.0
  0
VERTEX
  5
285
100
AcDbEntity
  8
0
100
AcDbVertex
100
AcDb2dVertex
 10
9.1705532132
 20
6.97178584
 30
0.0
  0
VERTEX
  5
286
100
AcDbEntity
  8
0
100
AcDbVertex
100
AcDb2dVertex
 10
9.1817823304
 20
6.9704169172
 30
0.0
  0
VERTEX
  5
287
100
AcDbEntity
  8
0
100
AcDbVertex
100
AcDb2dVertex
 10
9.1932874595
 20
6.9679918394
 30
0.0
  0
VERTEX
  5
288
100
AcDbEntity
  8
0
100
AcDbVertex
100
AcDb2dVertex
 10
9.2050149575
 20
6.9645219114
 30
0.0
  0
VERTEX
  5
289
100
AcDbEntity
  8
0
100
AcDbVertex
100
AcDb2dVertex
 10
9.216910151
 20
6.9600233103
 30
0.0
  0
VERTEX
  5
28A
100
AcDbEntity
  8
0
100
AcDbVertex
100
AcDb2dVertex
 10
9.2289175725
 20
6.9545170132
 30
0.0
  0
VERTEX
  5
28B
100
AcDbEntity
  8
0
100
AcDbVertex
100
AcDb2dVertex
 10
9.240981241
 20
6.9480286919
 30
0.0
  0
VERTEX
  5
28C
100
AcDbEntity
  8
0
100
AcDbVertex
100
AcDb2dVertex
 10
9.2530449094
 20
6.9405885981
 30
0.0
  0
VERTEX
  5
28D
100
AcDbEntity
  8
0
100
AcDbVertex
100
AcDb2dVertex
 10
9.2650523314
 20
6.9322314211
 30
0.0
  0
VERTEX
  5
28E
100
AcDbEntity
  8
0
100
AcDbVertex
100
AcDb2dVertex
 10
9.2769475229
 20
6.9229961253
 30
0.0
  0
VERTEX
  5
28F
100
AcDbEntity
  8
0
100
AcDbVertex
100
AcDb2dVertex
 10
9.2886750225
 20
6.9129257714
 30
0.0
  0
VERTEX
  5
290
100
AcDbEntity
  8
0
100
AcDbVertex
100
AcDb2dVertex
 10
9.3001801516
 20
6.9020673099
 30
0.0
  0
VERTEX
  5
291
100
AcDbEntity
  8
0
100
AcDbVertex
100
AcDb2dVertex
 10
9.3114092688
 20
6.8904713699
 30
0.0
  0
VERTEX
  5
292
100
AcDbEntity
  8
0
100
AcDbVertex
100
AcDb2dVertex
 10
9.322310018
 20
6.8781920155
 30
0.0
  0
VERTEX
  5
293
100
AcDbEntity
  8
0
100
AcDbVertex
100
AcDb2dVertex
 10
9.3328315758
 20
6.8652864973
 30
0.0
  0
VERTEX
  5
294
100
AcDbEntity
  8
0
100
AcDbVertex
100
AcDb2dVertex
 10
9.3429248853
 20
6.851814991
 30
0.0
  0
VERTEX
  5
295
100
AcDbEntity
  8
0
100
AcDbVertex
100
AcDb2dVertex
 10
9.3525428824
 20
6.8378403071
 30
0.0
  0
VERTEX
  5
296
100
AcDbEntity
  8
0
100
AcDbVertex
100
AcDb2dVertex
 10
9.3616407331
 20
6.8234275934
 30
0.0
  0
VERTEX
  5
297
100
AcDbEntity
  8
0
100
AcDbVertex
100
AcDb2dVertex
 10
9.370176008
 20
6.80864406
 30
0.0
  0
VERTEX
  5
298
100
AcDbEntity
  8
0
100
AcDbVertex
100
AcDb2dVertex
 10
9.3781089155
 20
6.7935586353
 30
0.0
  0
VERTEX
  5
299
100
AcDbEntity
  8
0
100
AcDbVertex
100
AcDb2dVertex
 10
9.3854024774
 20
6.778241636
 30
0.0
  0
VERTEX
  5
29A
100
AcDbEntity
  8
0
100
AcDbVertex
100
AcDb2dVertex
 10
9.3920226775
 20
6.7627645021
 30
0.0
  0
VERTEX
  5
29B
100
AcDbEntity
  8
0
100
AcDbVertex
100
AcDb2dVertex
 10
9.3979386499
 20
6.7471993773
 30
0.0
  0
VERTEX
  5
29C
100
AcDbEntity
  8
0
100
AcDbVertex
100
AcDb2dVertex
 10
9.4031228212
 20
6.7316188399
 30
0.0
  0
VERTEX
  5
29D
100
AcDbEntity
  8
0
100
AcDbVertex
100
AcDb2dVertex
 10
9.4075510144
 20
6.7160955282
 30
0.0
  0
VERTEX
  5
29E
100
AcDbEntity
  8
0
100
AcDbVertex
100
AcDb2dVertex
 10
9.4112025789
 20
6.700701819
 30
0.0
  0
VERTEX
  5
29F
100
AcDbEntity
  8
0
100
AcDbVertex
100
AcDb2dVertex
 10
9.4140604936
 20
6.6855094982
 30
0.0
  0
VERTEX
  5
2A0
100
AcDbEntity
  8
0
100
AcDbVertex
100
AcDb2dVertex
 10
9.4161114319
 20
6.6705893862
 30
0.0
  0
VERTEX
  5
2A1
100
AcDbEntity
  8
0
100
AcDbVertex
100
AcDb2dVertex
 10
9.4173458269
 20
6.6560110617
 30
0.0
  0
VERTEX
  5
2A2
100
AcDbEntity
  8
0
100
AcDbVertex
100
AcDb2dVertex
 10
9.4177579358
 20
6.6418424791
 30
0.0
  0
VERTEX
  5
2A3
100
AcDbEntity
  8
0
100
AcDbVertex
100
AcDb2dVertex
 10
9.4173458269
 20
6.6281497073
 30
0.0
  0
VERTEX
  5
2A4
100
AcDbEntity
  8
0
100
AcDbVertex
100
AcDb2dVertex
 10
9.4161114319
 20
6.6149965699
 30
0.0
  0
VERTEX
  5
2A5
100
AcDbEntity
  8
0
100
AcDbVertex
100
AcDb2dVertex
 10
9.4140604936
 20
6.602444436
 30
0.0
  0
VERTEX
  5
2A6
100
AcDbEntity
  8
0
100
AcDbVertex
100
AcDb2dVertex
 10
9.4112025789
 20
6.5905517781
 30
0.0
  0
VERTEX
  5
2A7
100
AcDbEntity
  8
0
100
AcDbVertex
100
AcDb2dVertex
 10
9.4075510144
 20
6.5793740756
 30
0.0
  0
VERTEX
  5
2A8
100
AcDbEntity
  8
0
100
AcDbVertex
100
AcDb2dVertex
 10
9.4031228212
 20
6.568963447
 30
0.0
  0
VERTEX
  5
2A9
100
AcDbEntity
  8
0
100
AcDbVertex
100
AcDb2dVertex
 10
9.3979386499
 20
6.5593684488
 30
0.0
  0
VERTEX
  5
2AA
100
AcDbEntity
  8
0
100
AcDbVertex
100
AcDb2dVertex
 10
9.3920226775
 20
6.5506337453
 30
0.0
  0
VERTEX
  5
2AB
100
AcDbEntity
  8
0
100
AcDbVertex
100
AcDb2dVertex
 10
9.3854024774
 20
6.5428001243
 30
0.0
  0
VERTEX
  5
2AC
100
AcDbEntity
  8
0
100
AcDbVertex
100
AcDb2dVertex
 10
9.3781089155
 20
6.5359041074
 30
0.0
  0
VERTEX
  5
2AD
100
AcDbEntity
  8
0
100
AcDbVertex
100
AcDb2dVertex
 10
9.370176008
 20
6.5299778227
 30
0.0
  0
VERTEX
  5
2AE
100
AcDbEntity
  8
0
100
AcDbVertex
100
AcDb2dVertex
 10
9.3659710846
 20
6.5273812782
 30
0.0
  0
SEQEND
  5
2AF
100
AcDbEntity
  8
0
  0
POLYLINE
  5
2B0
100
AcDbEntity
  8
0
  6
CONTINUOUS
 62
         7
100
AcDb2dPolyline
 66
         1
 10
0.0
 20
0.0
 30
0.0
 70
       128
  0
VERTEX
  5
2B1
100
AcDbEntity
  8
0
100
AcDbVertex
100
AcDb2dVertex
 10
9.2574293704
 20
7.3714891277
 30
0.0
  0
VERTEX
  5
2B2
100
AcDbEntity
  8
0
100
AcDbVertex
100
AcDb2dVertex
 10
9.2648196075
 20
7.3749429129
 30
0.0
  0
VERTEX
  5
2B3
100
AcDbEntity
  8
0
100
AcDbVertex
100
AcDb2dVertex
 10
9.2728771588
 20
7.3778573024
 30
0.0
  0
VERTEX
  5
2B4
100
AcDbEntity
  8
0
100
AcDbVertex
100
AcDb2dVertex
 10
9.2814844716
 20
7.3801897592
 30
0.0
  0
VERTEX
  5
2B5
100
AcDbEntity
  8
0
100
AcDbVertex
100
AcDb2dVertex
 10
9.2905160012
 20
7.3819062514
 30
0.0
  0
VERTEX
  5
2B6
100
AcDbEntity
  8
0
100
AcDbVertex
100
AcDb2dVertex
 10
9.2998401423
 20
7.3829818134
 30
0.0
  0
VERTEX
  5
2B7
100
AcDbEntity
  8
0
100
AcDbVertex
100
AcDb2dVertex
 10
9.3093208369
 20
7.383400696
 30
0.0
  0
VERTEX
  5
2B8
100
AcDbEntity
  8
0
100
AcDbVertex
100
AcDb2dVertex
 10
9.3188198293
 20
7.3831568
 30
0.0
  0
VERTEX
  5
2B9
100
AcDbEntity
  8
0
100
AcDbVertex
100
AcDb2dVertex
 10
9.3281987314
 20
7.3822537418
 30
0.0
  0
VERTEX
  5
2BA
100
AcDbEntity
  8
0
100
AcDbVertex
100
AcDb2dVertex
 10
9.3373206034
 20
7.3807045991
 30
0.0
  0
VERTEX
  5
2BB
100
AcDbEntity
  8
0
100
AcDbVertex
100
AcDb2dVertex
 10
9.3460525471
 20
7.3785320306
 30
0.0
  0
VERTEX
  5
2BC
100
AcDbEntity
  8
0
100
AcDbVertex
100
AcDb2dVertex
 10
9.3542672158
 20
7.3757677033
 30
0.0
  0
VERTEX
  5
2BD
100
AcDbEntity
  8
0
100
AcDbVertex
100
AcDb2dVertex
 10
9.3618448025
 20
7.3724519232
 30
0.0
  0
VERTEX
  5
2BE
100
AcDbEntity
  8
0
100
AcDbVertex
100
AcDb2dVertex
 10
9.3686748052
 20
7.3686330358
 30
0.0
  0
VERTEX
  5
2BF
100
AcDbEntity
  8
0
100
AcDbVertex
100
AcDb2dVertex
 10
9.3746575864
 20
7.3643667044
 30
0.0
  0
VERTEX
  5
2C0
100
AcDbEntity
  8
0
100
AcDbVertex
100
AcDb2dVertex
 10
9.3797060103
 20
7.3597152055
 30
0.0
  0
VERTEX
  5
2C1
100
AcDbEntity
  8
0
100
AcDbVertex
100
AcDb2dVertex
 10
9.3837463509
 20
7.3547463049
 30
0.0
  0
VERTEX
  5
2C2
100
AcDbEntity
  8
0
100
AcDbVertex
100
AcDb2dVertex
 10
9.3867197864
 20
7.3495325157
 30
0.0
  0
VERTEX
  5
2C3
100
AcDbEntity
  8
0
100
AcDbVertex
100
AcDb2dVertex
 10
9.3885828625
 20
7.3441498123
 30
0.0
  0
VERTEX
  5
2C4
100
AcDbEntity
  8
0
100
AcDbVertex
100
AcDb2dVertex
 10
9.3893084598
 20
7.3386767131
 30
0.0
  0
VERTEX
  5
2C5
100
AcDbEntity
  8
0
100
AcDbVertex
100
AcDb2dVertex
 10
9.388886045
 20
7.3331930577
 30
0.0
  0
VERTEX
  5
2C6
100
AcDbEntity
  8
0
100
AcDbVertex
100
AcDb2dVertex
 10
9.3873216728
 20
7.3277787487
 30
0.0
  0
VERTEX
  5
2C7
100
AcDbEntity
  8
0
100
AcDbVertex
100
AcDb2dVertex
 10
9.3846382222
 20
7.3225127769
 30
0.0
  0
VERTEX
  5
2C8
100
AcDbEntity
  8
0
100
AcDbVertex
100
AcDb2dVertex
 10
9.3808748251
 20
7.317471935
 30
0.0
  0
VERTEX
  5
2C9
100
AcDbEntity
  8
0
100
AcDbVertex
100
AcDb2dVertex
 10
9.3760863671
 20
7.3127297283
 30
0.0
  0
VERTEX
  5
2CA
100
AcDbEntity
  8
0
100
AcDbVertex
100
AcDb2dVertex
 10
9.3703425983
 20
7.3083552721
 30
0.0
  0
VERTEX
  5
2CB
100
AcDbEntity
  8
0
100
AcDbVertex
100
AcDb2dVertex
 10
9.3637273794
 20
7.3044124096
 30
0.0
  0
VERTEX
  5
2CC
100
AcDbEntity
  8
0
100
AcDbVertex
100
AcDb2dVertex
 10
9.3563370937
 20
7.3009585926
 30
0.0
  0
VERTEX
  5
2CD
100
AcDbEntity
  8
0
100
AcDbVertex
100
AcDb2dVertex
 10
9.3482795943
 20
7.298044233
 30
0.0
  0
VERTEX
  5
2CE
100
AcDbEntity
  8
0
100
AcDbVertex
100
AcDb2dVertex
 10
9.3396722814
 20
7.2957117762
 30
0.0
  0
VERTEX
  5
2CF
100
AcDbEntity
  8
0
100
AcDbVertex
100
AcDb2dVertex
 10
9.3306407032
 20
7.2939952522
 30
0.0
  0
VERTEX
  5
2D0
100
AcDbEntity
  8
0
100
AcDbVertex
100
AcDb2dVertex
 10
9.3213166107
 20
7.292919722
 30
0.0
  0
VERTEX
  5
2D1
100
AcDbEntity
  8
0
100
AcDbVertex
100
AcDb2dVertex
 10
9.3118359178
 20
7.2925008384
 30
0.0
  0
VERTEX
  5
2D2
100
AcDbEntity
  8
0
100
AcDbVertex
100
AcDb2dVertex
 10
9.3023368703
 20
7.2927447064
 30
0.0
  0
VERTEX
  5
2D3
100
AcDbEntity
  8
0
100
AcDbVertex
100
AcDb2dVertex
 10
9.2929580217
 20
7.2936477936
 30
0.0
  0
VERTEX
  5
2D4
100
AcDbEntity
  8
0
100
AcDbVertex
100
AcDb2dVertex
 10
9.2838360988
 20
7.2951969058
 30
0.0
  0
VERTEX
  5
2D5
100
AcDbEntity
  8
0
100
AcDbVertex
100
AcDb2dVertex
 10
9.2751041541
 20
7.2973694749
 30
0.0
  0
VERTEX
  5
2D6
100
AcDbEntity
  8
0
100
AcDbVertex
100
AcDb2dVertex
 10
9.2668894871
 20
7.3001338013
 30
0.0
  0
VERTEX
  5
2D7
100
AcDbEntity
  8
0
100
AcDbVertex
100
AcDb2dVertex
 10
9.2593118987
 20
7.3034495822
 30
0.0
  0
VERTEX
  5
2D8
100
AcDbEntity
  8
0
100
AcDbVertex
100
AcDb2dVertex
 10
9.2524819479
 20
7.3072684996
 30
0.0
  0
VERTEX
  5
2D9
100
AcDbEntity
  8
0
100
AcDbVertex
100
AcDb2dVertex
 10
9.2464991164
 20
7.3115348001
 30
0.0
  0
VERTEX
  5
2DA
100
AcDbEntity
  8
0
100
AcDbVertex
100
AcDb2dVertex
 10
9.2414506922
 20
7.3161862993
 30
0.0
  0
VERTEX
  5
2DB
100
AcDbEntity
  8
0
100
AcDbVertex
100
AcDb2dVertex
 10
9.2374103498
 20
7.3211552008
 30
0.0
  0
VERTEX
  5
2DC
100
AcDbEntity
  8
0
100
AcDbVertex
100
AcDb2dVertex
 10
9.2344369663
 20
7.3263690199
 30
0.0
  0
VERTEX
  5
2DD
100
AcDbEntity
  8
0
100
AcDbVertex
100
AcDb2dVertex
 10
9.2325738395
 20
7.3317516927
 30
0.0
  0
VERTEX
  5
2DE
100
AcDbEntity
  8
0
100
AcDbVertex
100
AcDb2dVertex
 10
9.2318482414
 20
7.3372247924
 30
0.0
  0
VERTEX
  5
2DF
100
AcDbEntity
  8
0
100
AcDbVertex
100
AcDb2dVertex
 10
9.2322707081
 20
7.3427084777
 30
0.0
  0
VERTEX
  5
2E0
100
AcDbEntity
  8
0
100
AcDbVertex
100
AcDb2dVertex
 10
9.23383503
 20
7.3481227559
 30
0.0
  0
VERTEX
  5
2E1
100
AcDbEntity
  8
0
100
AcDbVertex
100
AcDb2dVertex
 10
9.2365184822
 20
7.3533887267
 30
0.0
  0
VERTEX
  5
2E2
100
AcDbEntity
  8
0
100
AcDbVertex
100
AcDb2dVertex
 10
9.2402818761
 20
7.3584295705
 30
0.0
  0
VERTEX
  5
2E3
100
AcDbEntity
  8
0
100
AcDbVertex
100
AcDb2dVertex
 10
9.2450703892
 20
7.3631718052
 30
0.0
  0
VERTEX
  5
2E4
100
AcDbEntity
  8
0
100
AcDbVertex
100
AcDb2dVertex
 10
9.2508141029
 20
7.3675462333
 30
0.0
  0
VERTEX
  5
2E5
100
AcDbEntity
  8
0
100
AcDbVertex
100
AcDb2dVertex
 10
9.2574293704
 20
7.3714891277
 30
0.0
  0
SEQEND
  5
2E6
100
AcDbEntity
  8
0
  0
POLYLINE
  5
2E7
100
AcDbEntity
  8
0
  6
CONTINUOUS
 62
         7
100
AcDb2dPolyline
 66
         1
 10
0.0
 20
0.0
 30
0.0
 70
       128
  0
VERTEX
  5
2E8
100
AcDbEntity
  8
0
100
AcDbVertex
100
AcDb2dVertex
 10
9.2786889307
 20
7.3580737601
 30
0.0
  0
VERTEX
  5
2E9
100
AcDbEntity
  8
0
100
AcDbVertex
100
AcDb2dVertex
 10
9.2736285736
 20
7.3549461538
 30
0.0
  0
VERTEX
  5
2EA
100
AcDbEntity
  8
0
100
AcDbVertex
100
AcDb2dVertex
 10
9.2694780418
 20
7.3514000634
 30
0.0
  0
VERTEX
  5
2EB
100
AcDbEntity
  8
0
100
AcDbVertex
100
AcDb2dVertex
 10
9.2663395392
 20
7.3475228081
 30
0.0
  0
VERTEX
  5
2EC
100
AcDbEntity
  8
0
100
AcDbVertex
100
AcDb2dVertex
 10
9.2642903509
 20
7.3434098664
 30
0.0
  0
VERTEX
  5
2ED
100
AcDbEntity
  8
0
100
AcDbVertex
100
AcDb2dVertex
 10
9.2633809373
 20
7.3391625033
 30
0.0
  0
VERTEX
  5
2EE
100
AcDbEntity
  8
0
100
AcDbVertex
100
AcDb2dVertex
 10
9.2636336408
 20
7.3348852841
 30
0.0
  0
VERTEX
  5
2EF
100
AcDbEntity
  8
0
100
AcDbVertex
100
AcDb2dVertex
 10
9.2650422876
 20
7.3306835507
 30
0.0
  0
VERTEX
  5
2F0
100
AcDbEntity
  8
0
100
AcDbVertex
100
AcDb2dVertex
 10
9.2675722101
 20
7.3266607739
 30
0.0
  0
VERTEX
  5
2F1
100
AcDbEntity
  8
0
100
AcDbVertex
100
AcDb2dVertex
 10
9.271161067
 20
7.322915985
 30
0.0
  0
VERTEX
  5
2F2
100
AcDbEntity
  8
0
100
AcDbVertex
100
AcDb2dVertex
 10
9.2757204879
 20
7.319541389
 30
0.0
  0
VERTEX
  5
2F3
100
AcDbEntity
  8
0
100
AcDbVertex
100
AcDb2dVertex
 10
9.2811382367
 20
7.3166200986
 30
0.0
  0
VERTEX
  5
2F4
100
AcDbEntity
  8
0
100
AcDbVertex
100
AcDb2dVertex
 10
9.2872809524
 20
7.3142240724
 30
0.0
  0
VERTEX
  5
2F5
100
AcDbEntity
  8
0
100
AcDbVertex
100
AcDb2dVertex
 10
9.2939972807
 20
7.3124122474
 30
0.0
  0
VERTEX
  5
2F6
100
AcDbEntity
  8
0
100
AcDbVertex
100
AcDb2dVertex
 10
9.3011218664
 20
7.3112292522
 30
0.0
  0
VERTEX
  5
2F7
100
AcDbEntity
  8
0
100
AcDbVertex
100
AcDb2dVertex
 10
9.3084793332
 20
7.3107042468
 30
0.0
  0
VERTEX
  5
2F8
100
AcDbEntity
  8
0
100
AcDbVertex
100
AcDb2dVertex
 10
9.3158885135
 20
7.3108501572
 30
0.0
  0
VERTEX
  5
2F9
100
AcDbEntity
  8
0
100
AcDbVertex
100
AcDb2dVertex
 10
9.3231668737
 20
7.3116633361
 30
0.0
  0
VERTEX
  5
2FA
100
AcDbEntity
  8
0
100
AcDbVertex
100
AcDb2dVertex
 10
9.3301353279
 20
7.3131238367
 30
0.0
  0
VERTEX
  5
2FB
100
AcDbEntity
  8
0
100
AcDbVertex
100
AcDb2dVertex
 10
9.3366221979
 20
7.3151956421
 30
0.0
  0
VERTEX
  5
2FC
100
AcDbEntity
  8
0
100
AcDbVertex
100
AcDb2dVertex
 10
9.3424677688
 20
7.3178277463
 30
0.0
  0
VERTEX
  5
2FD
100
AcDbEntity
  8
0
100
AcDbVertex
100
AcDb2dVertex
 10
9.3475281268
 20
7.3209553521
 30
0.0
  0
VERTEX
  5
2FE
100
AcDbEntity
  8
0
100
AcDbVertex
100
AcDb2dVertex
 10
9.3516786594
 20
7.3245014421
 30
0.0
  0
VERTEX
  5
2FF
100
AcDbEntity
  8
0
100
AcDbVertex
100
AcDb2dVertex
 10
9.3548171636
 20
7.3283786964
 30
0.0
  0
VERTEX
  5
300
100
AcDbEntity
  8
0
100
AcDbVertex
100
AcDb2dVertex
 10
9.3568663491
 20
7.3324916398
 30
0.0
  0
VERTEX
  5
301
100
AcDbEntity
  8
0
100
AcDbVertex
100
AcDb2dVertex
 10
9.3577758172
 20
7.3367390313
 30
0.0
  0
VERTEX
  5
302
100
AcDbEntity
  8
0
100
AcDbVertex
100
AcDb2dVertex
 10
9.3575230606
 20
7.3410162213
 30
0.0
  0
VERTEX
  5
303
100
AcDbEntity
  8
0
100
AcDbVertex
100
AcDb2dVertex
 10
9.3561144137
 20
7.3452179548
 30
0.0
  0
VERTEX
  5
304
100
AcDbEntity
  8
0
100
AcDbVertex
100
AcDb2dVertex
 10
9.3535845438
 20
7.349240761
 30
0.0
  0
VERTEX
  5
305
100
AcDbEntity
  8
0
100
AcDbVertex
100
AcDb2dVertex
 10
9.3499956861
 20
7.3529855504
 30
0.0
  0
VERTEX
  5
306
100
AcDbEntity
  8
0
100
AcDbVertex
100
AcDb2dVertex
 10
9.3454362133
 20
7.3563601164
 30
0.0
  0
VERTEX
  5
307
100
AcDbEntity
  8
0
100
AcDbVertex
100
AcDb2dVertex
 10
9.3400184645
 20
7.3592814068
 30
0.0
  0
VERTEX
  5
308
100
AcDbEntity
  8
0
100
AcDbVertex
100
AcDb2dVertex
 10
9.3338757999
 20
7.3616774635
 30
0.0
  0
VERTEX
  5
309
100
AcDbEntity
  8
0
100
AcDbVertex
100
AcDb2dVertex
 10
9.3271594723
 20
7.363489288
 30
0.0
  0
VERTEX
  5
30A
100
AcDbEntity
  8
0
100
AcDbVertex
100
AcDb2dVertex
 10
9.3200348342
 20
7.3646722536
 30
0.0
  0
VERTEX
  5
30B
100
AcDbEntity
  8
0
100
AcDbVertex
100
AcDb2dVertex
 10
9.3126773689
 20
7.3651972582
 30
0.0
  0
VERTEX
  5
30C
100
AcDbEntity
  8
0
100
AcDbVertex
100
AcDb2dVertex
 10
9.3052682408
 20
7.3650513775
 30
0.0
  0
VERTEX
  5
30D
100
AcDbEntity
  8
0
100
AcDbVertex
100
AcDb2dVertex
 10
9.2979898267
 20
7.3642381699
 30
0.0
  0
VERTEX
  5
30E
100
AcDbEntity
  8
0
100
AcDbVertex
100
AcDb2dVertex
 10
9.2910214244
 20
7.3627776991
 30
0.0
  0
VERTEX
  5
30F
100
AcDbEntity
  8
0
100
AcDbVertex
100
AcDb2dVertex
 10
9.2845345568
 20
7.3607058924
 30
0.0
  0
VERTEX
  5
310
100
AcDbEntity
  8
0
100
AcDbVertex
100
AcDb2dVertex
 10
9.2786889307
 20
7.3580737601
 30
0.0
  0
SEQEND
  5
311
100
AcDbEntity
  8
0
  0
POLYLINE
  5
312
100
AcDbEntity
  8
0
  6
CONTINUOUS
 62
         7
100
AcDb2dPolyline
 66
         1
 10
0.0
 20
0.0
 30
0.0
 70
       128
  0
VERTEX
  5
313
100
AcDbEntity
  8
0
100
AcDbVertex
100
AcDb2dVertex
 10
9.5345583101
 20
7.199766261
 30
0.0
  0
VERTEX
  5
314
100
AcDbEntity
  8
0
100
AcDbVertex
100
AcDb2dVertex
 10
9.5388545611
 20
7.2020802751
 30
0.0
  0
VERTEX
  5
315
100
AcDbEntity
  8
0
100
AcDbVertex
100
AcDb2dVertex
 10
9.5478807692
 20
7.205958057
 30
0.0
  0
VERTEX
  5
316
100
AcDbEntity
  8
0
100
AcDbVertex
100
AcDb2dVertex
 10
9.5574230403
 20
7.2088054376
 30
0.0
  0
VERTEX
  5
317
100
AcDbEntity
  8
0
100
AcDbVertex
100
AcDb2dVertex
 10
9.5674368706
 20
7.2106091458
 30
0.0
  0
VERTEX
  5
318
100
AcDbEntity
  8
0
100
AcDbVertex
100
AcDb2dVertex
 10
9.5778755854
 20
7.2113607624
 30
0.0
  0
VERTEX
  5
319
100
AcDbEntity
  8
0
100
AcDbVertex
100
AcDb2dVertex
 10
9.5886905001
 20
7.2110567931
 30
0.0
  0
VERTEX
  5
31A
100
AcDbEntity
  8
0
100
AcDbVertex
100
AcDb2dVertex
 10
9.5998312
 20
7.2096986495
 30
0.0
  0
VERTEX
  5
31B
100
AcDbEntity
  8
0
100
AcDbVertex
100
AcDb2dVertex
 10
9.6112457338
 20
7.2072926684
 30
0.0
  0
VERTEX
  5
31C
100
AcDbEntity
  8
0
100
AcDbVertex
100
AcDb2dVertex
 10
9.622880893
 20
7.2038500617
 30
0.0
  0
VERTEX
  5
31D
100
AcDbEntity
  8
0
100
AcDbVertex
100
AcDb2dVertex
 10
9.6346824222
 20
7.1993868824
 30
0.0
  0
VERTEX
  5
31E
100
AcDbEntity
  8
0
100
AcDbVertex
100
AcDb2dVertex
 10
9.6465952979
 20
7.1939239424
 30
0.0
  0
VERTEX
  5
31F
100
AcDbEntity
  8
0
100
AcDbVertex
100
AcDb2dVertex
 10
9.6585639765
 20
7.1874867104
 30
0.0
  0
VERTEX
  5
320
100
AcDbEntity
  8
0
100
AcDbVertex
100
AcDb2dVertex
 10
9.670532655
 20
7.1801052002
 30
0.0
  0
VERTEX
  5
321
100
AcDbEntity
  8
0
100
AcDbVertex
100
AcDb2dVertex
 10
9.6824455307
 20
7.1718138267
 30
0.0
  0
VERTEX
  5
322
100
AcDbEntity
  8
0
100
AcDbVertex
100
AcDb2dVertex
 10
9.6942470599
 20
7.1626512505
 30
0.0
  0
VERTEX
  5
323
100
AcDbEntity
  8
0
100
AcDbVertex
100
AcDb2dVertex
 10
9.7058822159
 20
7.1526601902
 30
0.0
  0
VERTEX
  5
324
100
AcDbEntity
  8
0
100
AcDbVertex
100
AcDb2dVertex
 10
9.7172967561
 20
7.1418872273
 30
0.0
  0
VERTEX
  5
325
100
AcDbEntity
  8
0
100
AcDbVertex
100
AcDb2dVertex
 10
9.7284374528
 20
7.1303825945
 30
0.0
  0
VERTEX
  5
326
100
AcDbEntity
  8
0
100
AcDbVertex
100
AcDb2dVertex
 10
9.7392523708
 20
7.1181999272
 30
0.0
  0
VERTEX
  5
327
100
AcDbEntity
  8
0
100
AcDbVertex
100
AcDb2dVertex
 10
9.749691079
 20
7.1053960308
 30
0.0
  0
VERTEX
  5
328
100
AcDbEntity
  8
0
100
AcDbVertex
100
AcDb2dVertex
 10
9.7597049094
 20
7.0920306001
 30
0.0
  0
VERTEX
  5
329
100
AcDbEntity
  8
0
100
AcDbVertex
100
AcDb2dVertex
 10
9.7692471804
 20
7.0781659479
 30
0.0
  0
VERTEX
  5
32A
100
AcDbEntity
  8
0
100
AcDbVertex
100
AcDb2dVertex
 10
9.7782733885
 20
7.0638667281
 30
0.0
  0
VERTEX
  5
32B
100
AcDbEntity
  8
0
100
AcDbVertex
100
AcDb2dVertex
 10
9.7867414607
 20
7.0491995969
 30
0.0
  0
VERTEX
  5
32C
100
AcDbEntity
  8
0
100
AcDbVertex
100
AcDb2dVertex
 10
9.7946119102
 20
7.0342329512
 30
0.0
  0
VERTEX
  5
32D
100
AcDbEntity
  8
0
100
AcDbVertex
100
AcDb2dVertex
 10
9.8018480439
 20
7.0190365577
 30
0.0
  0
VERTEX
  5
32E
100
AcDbEntity
  8
0
100
AcDbVertex
100
AcDb2dVertex
 10
9.8084161179
 20
7.0036812876
 30
0.0
  0
VERTEX
  5
32F
100
AcDbEntity
  8
0
100
AcDbVertex
100
AcDb2dVertex
 10
9.8142855125
 20
6.9882387232
 30
0.0
  0
VERTEX
  5
330
100
AcDbEntity
  8
0
100
AcDbVertex
100
AcDb2dVertex
 10
9.8194288488
 20
6.9727808739
 30
0.0
  0
VERTEX
  5
331
100
AcDbEntity
  8
0
100
AcDbVertex
100
AcDb2dVertex
 10
9.8238221704
 20
6.9573797869
 30
0.0
  0
VERTEX
  5
332
100
AcDbEntity
  8
0
100
AcDbVertex
100
AcDb2dVertex
 10
9.8274449819
 20
6.9421073
 30
0.0
  0
VERTEX
  5
333
100
AcDbEntity
  8
0
100
AcDbVertex
100
AcDb2dVertex
 10
9.8302803919
 20
6.9270346003
 30
0.0
  0
VERTEX
  5
334
100
AcDbEntity
  8
0
100
AcDbVertex
100
AcDb2dVertex
 10
9.8323151907
 20
6.9122319619
 30
0.0
  0
VERTEX
  5
335
100
AcDbEntity
  8
0
100
AcDbVertex
100
AcDb2dVertex
 10
9.8335398631
 20
6.8977684244
 30
0.0
  0
VERTEX
  5
336
100
AcDbEntity
  8
0
100
AcDbVertex
100
AcDb2dVertex
 10
9.8339487311
 20
6.883711411
 30
0.0
  0
VERTEX
  5
337
100
AcDbEntity
  8
0
100
AcDbVertex
100
AcDb2dVertex
 10
9.8335398631
 20
6.8701264516
 30
0.0
  0
VERTEX
  5
338
100
AcDbEntity
  8
0
100
AcDbVertex
100
AcDb2dVertex
 10
9.8323151907
 20
6.8570768907
 30
0.0
  0
VERTEX
  5
339
100
AcDbEntity
  8
0
100
AcDbVertex
100
AcDb2dVertex
 10
9.8302803919
 20
6.844623596
 30
0.0
  0
VERTEX
  5
33A
100
AcDbEntity
  8
0
100
AcDbVertex
100
AcDb2dVertex
 10
9.8274449819
 20
6.832824591
 30
0.0
  0
VERTEX
  5
33B
100
AcDbEntity
  8
0
100
AcDbVertex
100
AcDb2dVertex
 10
9.8238221704
 20
6.8217348983
 30
0.0
  0
VERTEX
  5
33C
100
AcDbEntity
  8
0
100
AcDbVertex
100
AcDb2dVertex
 10
9.8194288488
 20
6.8114062323
 30
0.0
  0
VERTEX
  5
33D
100
AcDbEntity
  8
0
100
AcDbVertex
100
AcDb2dVertex
 10
9.8142855125
 20
6.8018867603
 30
0.0
  0
VERTEX
  5
33E
100
AcDbEntity
  8
0
100
AcDbVertex
100
AcDb2dVertex
 10
9.8084161179
 20
6.7932208546
 30
0.0
  0
VERTEX
  5
33F
100
AcDbEntity
  8
0
100
AcDbVertex
100
AcDb2dVertex
 10
9.8018480439
 20
6.7854489064
 30
0.0
  0
VERTEX
  5
340
100
AcDbEntity
  8
0
100
AcDbVertex
100
AcDb2dVertex
 10
9.7946119102
 20
6.77860719
 30
0.0
  0
VERTEX
  5
341
100
AcDbEntity
  8
0
100
AcDbVertex
100
AcDb2dVertex
 10
9.7867414607
 20
6.7727275719
 30
0.0
  0
VERTEX
  5
342
100
AcDbEntity
  8
0
100
AcDbVertex
100
AcDb2dVertex
 10
9.782569646
 20
6.7701514642
 30
0.0
  0
SEQEND
  5
343
100
AcDbEntity
  8
0
  0
POLYLINE
  5
344
100
AcDbEntity
  8
0
  6
CONTINUOUS
 62
         7
100
AcDb2dPolyline
 66
         1
 10
0.0
 20
0.0
 30
0.0
 70
       128
  0
VERTEX
  5
345
100
AcDbEntity
  8
0
100
AcDbVertex
100
AcDb2dVertex
 10
7.3394197549
 20
5.8632337379
 30
0.0
  0
VERTEX
  5
346
100
AcDbEntity
  8
0
100
AcDbVertex
100
AcDb2dVertex
 10
7.3427558143
 20
5.8736348555
 30
0.0
  0
VERTEX
  5
347
100
AcDbEntity
  8
0
100
AcDbVertex
100
AcDb2dVertex
 10
7.3468621893
 20
5.8832771842
 30
0.0
  0
VERTEX
  5
348
100
AcDbEntity
  8
0
100
AcDbVertex
100
AcDb2dVertex
 10
7.3517169846
 20
5.8921092785
 30
0.0
  0
VERTEX
  5
349
100
AcDbEntity
  8
0
100
AcDbVertex
100
AcDb2dVertex
 10
7.3572942733
 20
5.9000840337
 30
0.0
  0
VERTEX
  5
34A
100
AcDbEntity
  8
0
100
AcDbVertex
100
AcDb2dVertex
 10
7.363564317
 20
5.9071588805
 30
0.0
  0
VERTEX
  5
34B
100
AcDbEntity
  8
0
100
AcDbVertex
100
AcDb2dVertex
 10
7.3704936442
 20
5.9132960845
 30
0.0
  0
VERTEX
  5
34C
100
AcDbEntity
  8
0
100
AcDbVertex
100
AcDb2dVertex
 10
7.3780453089
 20
5.918462881
 30
0.0
  0
VERTEX
  5
34D
100
AcDbEntity
  8
0
100
AcDbVertex
100
AcDb2dVertex
 10
7.3861790076
 20
5.9226317218
 30
0.0
  0
VERTEX
  5
34E
100
AcDbEntity
  8
0
100
AcDbVertex
100
AcDb2dVertex
 10
7.3948513388
 20
5.9257803654
 30
0.0
  0
VERTEX
  5
34F
100
AcDbEntity
  8
0
100
AcDbVertex
100
AcDb2dVertex
 10
7.4040160292
 20
5.9278920039
 30
0.0
  0
VERTEX
  5
350
100
AcDbEntity
  8
0
100
AcDbVertex
100
AcDb2dVertex
 10
7.4136242
 20
5.9289553679
 30
0.0
  0
VERTEX
  5
351
100
AcDbEntity
  8
0
100
AcDbVertex
100
AcDb2dVertex
 10
7.4236245678
 20
5.9289647941
 30
0.0
  0
VERTEX
  5
352
100
AcDbEntity
  8
0
100
AcDbVertex
100
AcDb2dVertex
 10
7.4339637879
 20
5.9279202251
 30
0.0
  0
VERTEX
  5
353
100
AcDbEntity
  8
0
100
AcDbVertex
100
AcDb2dVertex
 10
7.4445866877
 20
5.9258272357
 30
0.0
  0
VERTEX
  5
354
100
AcDbEntity
  8
0
100
AcDbVertex
100
AcDb2dVertex
 10
7.4554365974
 20
5.9226969917
 30
0.0
  0
VERTEX
  5
355
100
AcDbEntity
  8
0
100
AcDbVertex
100
AcDb2dVertex
 10
7.4664556253
 20
5.9185461995
 30
0.0
  0
VERTEX
  5
356
100
AcDbEntity
  8
0
100
AcDbVertex
100
AcDb2dVertex
 10
7.4775849789
 20
5.9133969995
 30
0.0
  0
VERTEX
  5
357
100
AcDbEntity
  8
0
100
AcDbVertex
100
AcDb2dVertex
 10
7.4887652773
 20
5.9072768678
 30
0.0
  0
VERTEX
  5
358
100
AcDbEntity
  8
0
100
AcDbVertex
100
AcDb2dVertex
 10
7.4999368699
 20
5.9002184547
 30
0.0
  0
VERTEX
  5
359
100
AcDbEntity
  8
0
100
AcDbVertex
100
AcDb2dVertex
 10
7.5110401529
 20
5.8922594248
 30
0.0
  0
VERTEX
  5
35A
100
AcDbEntity
  8
0
100
AcDbVertex
100
AcDb2dVertex
 10
7.5220158838
 20
5.8834422414
 30
0.0
  0
VERTEX
  5
35B
100
AcDbEntity
  8
0
100
AcDbVertex
100
AcDb2dVertex
 10
7.5328055028
 20
5.8738139472
 30
0.0
  0
VERTEX
  5
35C
100
AcDbEntity
  8
0
100
AcDbVertex
100
AcDb2dVertex
 10
7.5433514433
 20
5.8634259105
 30
0.0
  0
VERTEX
  5
35D
100
AcDbEntity
  8
0
100
AcDbVertex
100
AcDb2dVertex
 10
7.5535974366
 20
5.8523335634
 30
0.0
  0
VERTEX
  5
35E
100
AcDbEntity
  8
0
100
AcDbVertex
100
AcDb2dVertex
 10
7.5634888172
 20
5.8405960788
 30
0.0
  0
VERTEX
  5
35F
100
AcDbEntity
  8
0
100
AcDbVertex
100
AcDb2dVertex
 10
7.5729728109
 20
5.8282760889
 30
0.0
  0
VERTEX
  5
360
100
AcDbEntity
  8
0
100
AcDbVertex
100
AcDb2dVertex
 10
7.5819988116
 20
5.8154393267
 30
0.0
  0
VERTEX
  5
361
100
AcDbEntity
  8
0
100
AcDbVertex
100
AcDb2dVertex
 10
7.5905186664
 20
5.8021542781
 30
0.0
  0
VERTEX
  5
362
100
AcDbEntity
  8
0
100
AcDbVertex
100
AcDb2dVertex
 10
7.5984869188
 20
5.7884918167
 30
0.0
  0
VERTEX
  5
363
100
AcDbEntity
  8
0
100
AcDbVertex
100
AcDb2dVertex
 10
7.6058610552
 20
5.7745248525
 30
0.0
  0
VERTEX
  5
364
100
AcDbEntity
  8
0
100
AcDbVertex
100
AcDb2dVertex
 10
7.6126017314
 20
5.760327901
 30
0.0
  0
VERTEX
  5
365
100
AcDbEntity
  8
0
100
AcDbVertex
100
AcDb2dVertex
 10
7.6186729738
 20
5.7459767059
 30
0.0
  0
VERTEX
  5
366
100
AcDbEntity
  8
0
100
AcDbVertex
100
AcDb2dVertex
 10
7.624042406
 20
5.731547838
 30
0.0
  0
VERTEX
  5
367
100
AcDbEntity
  8
0
100
AcDbVertex
100
AcDb2dVertex
 10
7.6286813595
 20
5.7171182804
 30
0.0
  0
VERTEX
  5
368
100
AcDbEntity
  8
0
100
AcDbVertex
100
AcDb2dVertex
 10
7.6325650998
 20
5.70276502
 30
0.0
  0
VERTEX
  5
369
100
AcDbEntity
  8
0
100
AcDbVertex
100
AcDb2dVertex
 10
7.6356728984
 20
5.6885646476
 30
0.0
  0
VERTEX
  5
36A
100
AcDbEntity
  8
0
100
AcDbVertex
100
AcDb2dVertex
 10
7.6379881749
 20
5.6745929161
 30
0.0
  0
VERTEX
  5
36B
100
AcDbEntity
  8
0
100
AcDbVertex
100
AcDb2dVertex
 10
7.6394985882
 20
5.6609243736
 30
0.0
  0
VERTEX
  5
36C
100
AcDbEntity
  8
0
100
AcDbVertex
100
AcDb2dVertex
 10
7.6401960621
 20
5.6476319444
 30
0.0
  0
VERTEX
  5
36D
100
AcDbEntity
  8
0
100
AcDbVertex
100
AcDb2dVertex
 10
7.6400768759
 20
5.6347865623
 30
0.0
  0
VERTEX
  5
36E
100
AcDbEntity
  8
0
100
AcDbVertex
100
AcDb2dVertex
 10
7.6391416779
 20
5.6224567589
 30
0.0
  0
VERTEX
  5
36F
100
AcDbEntity
  8
0
100
AcDbVertex
100
AcDb2dVertex
 10
7.637395446
 20
5.6107083116
 30
0.0
  0
VERTEX
  5
370
100
AcDbEntity
  8
0
100
AcDbVertex
100
AcDb2dVertex
 10
7.634847501
 20
5.5996038922
 30
0.0
  0
VERTEX
  5
371
100
AcDbEntity
  8
0
100
AcDbVertex
100
AcDb2dVertex
 10
7.6315114545
 20
5.5892027671
 30
0.0
  0
VERTEX
  5
372
100
AcDbEntity
  8
0
100
AcDbVertex
100
AcDb2dVertex
 10
7.6274050665
 20
5.5795604458
 30
0.0
  0
VERTEX
  5
373
100
AcDbEntity
  8
0
100
AcDbVertex
100
AcDb2dVertex
 10
7.6225502842
 20
5.570728359
 30
0.0
  0
VERTEX
  5
374
100
AcDbEntity
  8
0
100
AcDbVertex
100
AcDb2dVertex
 10
7.6169729956
 20
5.5627535963
 30
0.0
  0
VERTEX
  5
375
100
AcDbEntity
  8
0
100
AcDbVertex
100
AcDb2dVertex
 10
7.6107029583
 20
5.5556787383
 30
0.0
  0
VERTEX
  5
376
100
AcDbEntity
  8
0
100
AcDbVertex
100
AcDb2dVertex
 10
7.6037736182
 20
5.5495415418
 30
0.0
  0
VERTEX
  5
377
100
AcDbEntity
  8
0
100
AcDbVertex
100
AcDb2dVertex
 10
7.59622196
 20
5.5443747566
 30
0.0
  0
VERTEX
  5
378
100
AcDbEntity
  8
0
100
AcDbVertex
100
AcDb2dVertex
 10
7.5880882612
 20
5.5402059082
 30
0.0
  0
VERTEX
  5
379
100
AcDbEntity
  8
0
100
AcDbVertex
100
AcDb2dVertex
 10
7.57941593
 20
5.5370572721
 30
0.0
  0
VERTEX
  5
37A
100
AcDbEntity
  8
0
100
AcDbVertex
100
AcDb2dVertex
 10
7.5702512332
 20
5.5349456411
 30
0.0
  0
VERTEX
  5
37B
100
AcDbEntity
  8
0
100
AcDbVertex
100
AcDb2dVertex
 10
7.5606430688
 20
5.5338822771
 30
0.0
  0
VERTEX
  5
37C
100
AcDbEntity
  8
0
100
AcDbVertex
100
AcDb2dVertex
 10
7.5506426977
 20
5.5338728265
 30
0.0
  0
VERTEX
  5
37D
100
AcDbEntity
  8
0
100
AcDbVertex
100
AcDb2dVertex
 10
7.5403034777
 20
5.5349174143
 30
0.0
  0
VERTEX
  5
37E
100
AcDbEntity
  8
0
100
AcDbVertex
100
AcDb2dVertex
 10
7.5296805763
 20
5.5370103897
 30
0.0
  0
VERTEX
  5
37F
100
AcDbEntity
  8
0
100
AcDbVertex
100
AcDb2dVertex
 10
7.5188306674
 20
5.5401406519
 30
0.0
  0
VERTEX
  5
380
100
AcDbEntity
  8
0
100
AcDbVertex
100
AcDb2dVertex
 10
7.5078116405
 20
5.5442914285
 30
0.0
  0
VERTEX
  5
381
100
AcDbEntity
  8
0
100
AcDbVertex
100
AcDb2dVertex
 10
7.4966822875
 20
5.5494406357
 30
0.0
  0
VERTEX
  5
382
100
AcDbEntity
  8
0
100
AcDbVertex
100
AcDb2dVertex
 10
7.4855019883
 20
5.5555607604
 30
0.0
  0
VERTEX
  5
383
100
AcDbEntity
  8
0
100
AcDbVertex
100
AcDb2dVertex
 10
7.4743303949
 20
5.5626191627
 30
0.0
  0
VERTEX
  5
384
100
AcDbEntity
  8
0
100
AcDbVertex
100
AcDb2dVertex
 10
7.4632271141
 20
5.5705781988
 30
0.0
  0
VERTEX
  5
385
100
AcDbEntity
  8
0
100
AcDbVertex
100
AcDb2dVertex
 10
7.4522513809
 20
5.5793953798
 30
0.0
  0
VERTEX
  5
386
100
AcDbEntity
  8
0
100
AcDbVertex
100
AcDb2dVertex
 10
7.4414617644
 20
5.5890236913
 30
0.0
  0
VERTEX
  5
387
100
AcDbEntity
  8
0
100
AcDbVertex
100
AcDb2dVertex
 10
7.4309158223
 20
5.5994117326
 30
0.0
  0
VERTEX
  5
388
100
AcDbEntity
  8
0
100
AcDbVertex
100
AcDb2dVertex
 10
7.420669829
 20
5.6105040835
 30
0.0
  0
VERTEX
  5
389
100
AcDbEntity
  8
0
100
AcDbVertex
100
AcDb2dVertex
 10
7.4107784516
 20
5.6222415513
 30
0.0
  0
VERTEX
  5
38A
100
AcDbEntity
  8
0
100
AcDbVertex
100
AcDb2dVertex
 10
7.4012944579
 20
5.6345615486
 30
0.0
  0
VERTEX
  5
38B
100
AcDbEntity
  8
0
100
AcDbVertex
100
AcDb2dVertex
 10
7.3922684572
 20
5.6473983033
 30
0.0
  0
VERTEX
  5
38C
100
AcDbEntity
  8
0
100
AcDbVertex
100
AcDb2dVertex
 10
7.3837486025
 20
5.6606833594
 30
0.0
  0
VERTEX
  5
38D
100
AcDbEntity
  8
0
100
AcDbVertex
100
AcDb2dVertex
 10
7.3757803436
 20
5.6743458096
 30
0.0
  0
VERTEX
  5
38E
100
AcDbEntity
  8
0
100
AcDbVertex
100
AcDb2dVertex
 10
7.3684062136
 20
5.6883127776
 30
0.0
  0
VERTEX
  5
38F
100
AcDbEntity
  8
0
100
AcDbVertex
100
AcDb2dVertex
 10
7.3616655439
 20
5.7025097328
 30
0.0
  0
VERTEX
  5
390
100
AcDbEntity
  8
0
100
AcDbVertex
100
AcDb2dVertex
 10
7.3555942951
 20
5.7168609167
 30
0.0
  0
VERTEX
  5
391
100
AcDbEntity
  8
0
100
AcDbVertex
100
AcDb2dVertex
 10
7.3502248628
 20
5.7312897845
 30
0.0
  0
VERTEX
  5
392
100
AcDbEntity
  8
0
100
AcDbVertex
100
AcDb2dVertex
 10
7.3455859093
 20
5.7457193422
 30
0.0
  0
VERTEX
  5
393
100
AcDbEntity
  8
0
100
AcDbVertex
100
AcDb2dVertex
 10
7.341702169
 20
5.7600726175
 30
0.0
  0
VERTEX
  5
394
100
AcDbEntity
  8
0
100
AcDbVertex
100
AcDb2dVertex
 10
7.3385943705
 20
5.7742729749
 30
0.0
  0
VERTEX
  5
395
100
AcDbEntity
  8
0
100
AcDbVertex
100
AcDb2dVertex
 10
7.3362790809
 20
5.7882447289
 30
0.0
  0
VERTEX
  5
396
100
AcDbEntity
  8
0
100
AcDbVertex
100
AcDb2dVertex
 10
7.3347686806
 20
5.8019132639
 30
0.0
  0
VERTEX
  5
397
100
AcDbEntity
  8
0
100
AcDbVertex
100
AcDb2dVertex
 10
7.3340712068
 20
5.8152056931
 30
0.0
  0
VERTEX
  5
398
100
AcDbEntity
  8
0
100
AcDbVertex
100
AcDb2dVertex
 10
7.3341903929
 20
5.8280510603
 30
0.0
  0
VERTEX
  5
399
100
AcDbEntity
  8
0
100
AcDbVertex
100
AcDb2dVertex
 10
7.335125591
 20
5.8403808787
 30
0.0
  0
VERTEX
  5
39A
100
AcDbEntity
  8
0
100
AcDbVertex
100
AcDb2dVertex
 10
7.3368718228
 20
5.8521293259
 30
0.0
  0
VERTEX
  5
39B
100
AcDbEntity
  8
0
100
AcDbVertex
100
AcDb2dVertex
 10
7.3394197549
 20
5.8632337379
 30
0.0
  0
SEQEND
  5
39C
100
AcDbEntity
  8
0
  0
POLYLINE
  5
39D
100
AcDbEntity
  8
0
  6
CONTINUOUS
 62
         7
100
AcDb2dPolyline
 66
         1
 10
0.0
 20
0.0
 30
0.0
 70
       128
  0
VERTEX
  5
39E
100
AcDbEntity
  8
0
100
AcDbVertex
100
AcDb2dVertex
 10
7.4623914302
 20
5.9671622614
 30
0.0
  0
VERTEX
  5
39F
100
AcDbEntity
  8
0
100
AcDbVertex
100
AcDb2dVertex
 10
7.4696957259
 20
5.970844897
 30
0.0
  0
VERTEX
  5
3A0
100
AcDbEntity
  8
0
100
AcDbVertex
100
AcDb2dVertex
 10
7.478368057
 20
5.9739935406
 30
0.0
  0
VERTEX
  5
3A1
100
AcDbEntity
  8
0
100
AcDbVertex
100
AcDb2dVertex
 10
7.4875327474
 20
5.9761051791
 30
0.0
  0
VERTEX
  5
3A2
100
AcDbEntity
  8
0
100
AcDbVertex
100
AcDb2dVertex
 10
7.4971409182
 20
5.9771685431
 30
0.0
  0
VERTEX
  5
3A3
100
AcDbEntity
  8
0
100
AcDbVertex
100
AcDb2dVertex
 10
7.5071412861
 20
5.9771779693
 30
0.0
  0
VERTEX
  5
3A4
100
AcDbEntity
  8
0
100
AcDbVertex
100
AcDb2dVertex
 10
7.5174805061
 20
5.9761334003
 30
0.0
  0
VERTEX
  5
3A5
100
AcDbEntity
  8
0
100
AcDbVertex
100
AcDb2dVertex
 10
7.5281034059
 20
5.9740404109
 30
0.0
  0
VERTEX
  5
3A6
100
AcDbEntity
  8
0
100
AcDbVertex
100
AcDb2dVertex
 10
7.5389533156
 20
5.9709101669
 30
0.0
  0
VERTEX
  5
3A7
100
AcDbEntity
  8
0
100
AcDbVertex
100
AcDb2dVertex
 10
7.5499723435
 20
5.9667593747
 30
0.0
  0
VERTEX
  5
3A8
100
AcDbEntity
  8
0
100
AcDbVertex
100
AcDb2dVertex
 10
7.5611016971
 20
5.9616101747
 30
0.0
  0
VERTEX
  5
3A9
100
AcDbEntity
  8
0
100
AcDbVertex
100
AcDb2dVertex
 10
7.5722819955
 20
5.955490043
 30
0.0
  0
VERTEX
  5
3AA
100
AcDbEntity
  8
0
100
AcDbVertex
100
AcDb2dVertex
 10
7.5834535881
 20
5.9484316299
 30
0.0
  0
VERTEX
  5
3AB
100
AcDbEntity
  8
0
100
AcDbVertex
100
AcDb2dVertex
 10
7.5945568711
 20
5.9404726
 30
0.0
  0
VERTEX
  5
3AC
100
AcDbEntity
  8
0
100
AcDbVertex
100
AcDb2dVertex
 10
7.6055326021
 20
5.9316554165
 30
0.0
  0
VERTEX
  5
3AD
100
AcDbEntity
  8
0
100
AcDbVertex
100
AcDb2dVertex
 10
7.616322221
 20
5.9220271223
 30
0.0
  0
VERTEX
  5
3AE
100
AcDbEntity
  8
0
100
AcDbVertex
100
AcDb2dVertex
 10
7.6268681615
 20
5.9116390857
 30
0.0
  0
VERTEX
  5
3AF
100
AcDbEntity
  8
0
100
AcDbVertex
100
AcDb2dVertex
 10
7.6371141548
 20
5.9005467386
 30
0.0
  0
VERTEX
  5
3B0
100
AcDbEntity
  8
0
100
AcDbVertex
100
AcDb2dVertex
 10
7.6470055354
 20
5.888809254
 30
0.0
  0
VERTEX
  5
3B1
100
AcDbEntity
  8
0
100
AcDbVertex
100
AcDb2dVertex
 10
7.6564895292
 20
5.8764892641
 30
0.0
  0
VERTEX
  5
3B2
100
AcDbEntity
  8
0
100
AcDbVertex
100
AcDb2dVertex
 10
7.6655155298
 20
5.8636525019
 30
0.0
  0
VERTEX
  5
3B3
100
AcDbEntity
  8
0
100
AcDbVertex
100
AcDb2dVertex
 10
7.6740353846
 20
5.8503674533
 30
0.0
  0
VERTEX
  5
3B4
100
AcDbEntity
  8
0
100
AcDbVertex
100
AcDb2dVertex
 10
7.682003637
 20
5.8367049919
 30
0.0
  0
VERTEX
  5
3B5
100
AcDbEntity
  8
0
100
AcDbVertex
100
AcDb2dVertex
 10
7.6893777734
 20
5.8227380276
 30
0.0
  0
VERTEX
  5
3B6
100
AcDbEntity
  8
0
100
AcDbVertex
100
AcDb2dVertex
 10
7.6961184496
 20
5.8085410762
 30
0.0
  0
VERTEX
  5
3B7
100
AcDbEntity
  8
0
100
AcDbVertex
100
AcDb2dVertex
 10
7.702189692
 20
5.7941898811
 30
0.0
  0
VERTEX
  5
3B8
100
AcDbEntity
  8
0
100
AcDbVertex
100
AcDb2dVertex
 10
7.7075591242
 20
5.7797610132
 30
0.0
  0
VERTEX
  5
3B9
100
AcDbEntity
  8
0
100
AcDbVertex
100
AcDb2dVertex
 10
7.7121980777
 20
5.7653314555
 30
0.0
  0
VERTEX
  5
3BA
100
AcDbEntity
  8
0
100
AcDbVertex
100
AcDb2dVertex
 10
7.716081818
 20
5.7509781952
 30
0.0
  0
VERTEX
  5
3BB
100
AcDbEntity
  8
0
100
AcDbVertex
100
AcDb2dVertex
 10
7.7191896166
 20
5.7367778228
 30
0.0
  0
VERTEX
  5
3BC
100
AcDbEntity
  8
0
100
AcDbVertex
100
AcDb2dVertex
 10
7.7215048931
 20
5.7228060913
 30
0.0
  0
VERTEX
  5
3BD
100
AcDbEntity
  8
0
100
AcDbVertex
100
AcDb2dVertex
 10
7.7230153064
 20
5.7091375488
 30
0.0
  0
VERTEX
  5
3BE
100
AcDbEntity
  8
0
100
AcDbVertex
100
AcDb2dVertex
 10
7.7237127803
 20
5.6958451196
 30
0.0
  0
VERTEX
  5
3BF
100
AcDbEntity
  8
0
100
AcDbVertex
100
AcDb2dVertex
 10
7.7235935941
 20
5.6829997375
 30
0.0
  0
VERTEX
  5
3C0
100
AcDbEntity
  8
0
100
AcDbVertex
100
AcDb2dVertex
 10
7.7226583961
 20
5.670669934
 30
0.0
  0
VERTEX
  5
3C1
100
AcDbEntity
  8
0
100
AcDbVertex
100
AcDb2dVertex
 10
7.7209121642
 20
5.6589214868
 30
0.0
  0
VERTEX
  5
3C2
100
AcDbEntity
  8
0
100
AcDbVertex
100
AcDb2dVertex
 10
7.7183642192
 20
5.6478170673
 30
0.0
  0
VERTEX
  5
3C3
100
AcDbEntity
  8
0
100
AcDbVertex
100
AcDb2dVertex
 10
7.7150281727
 20
5.6374159423
 30
0.0
  0
VERTEX
  5
3C4
100
AcDbEntity
  8
0
100
AcDbVertex
100
AcDb2dVertex
 10
7.7109217847
 20
5.627773621
 30
0.0
  0
VERTEX
  5
3C5
100
AcDbEntity
  8
0
100
AcDbVertex
100
AcDb2dVertex
 10
7.7060670024
 20
5.6189415342
 30
0.0
  0
VERTEX
  5
3C6
100
AcDbEntity
  8
0
100
AcDbVertex
100
AcDb2dVertex
 10
7.7004897138
 20
5.6109667715
 30
0.0
  0
VERTEX
  5
3C7
100
AcDbEntity
  8
0
100
AcDbVertex
100
AcDb2dVertex
 10
7.6942196765
 20
5.6038919135
 30
0.0
  0
VERTEX
  5
3C8
100
AcDbEntity
  8
0
100
AcDbVertex
100
AcDb2dVertex
 10
7.6872903364
 20
5.597754717
 30
0.0
  0
VERTEX
  5
3C9
100
AcDbEntity
  8
0
100
AcDbVertex
100
AcDb2dVertex
 10
7.6797386782
 20
5.5925879317
 30
0.0
  0
VERTEX
  5
3CA
100
AcDbEntity
  8
0
100
AcDbVertex
100
AcDb2dVertex
 10
7.6789092686
 20
5.5921017303
 30
0.0
  0
SEQEND
  5
3CB
100
AcDbEntity
  8
0
  0
ENDSEC
  0
SECTION
  2
OBJECTS
  0
DICTIONARY
  5
19
100
AcDbDictionary
  3
ACAD_GROUP
350
1A
  3
ACAD_MLINESTYLE
350
1B
  0
DICTIONARY
  5
1A
102
{ACAD_REACTORS
330
19
102
}
100
AcDbDictionary
  0
DICTIONARY
  5
1B
102
{ACAD_REACTORS
330
19
102
}
100
AcDbDictionary
  3
STANDARD
350
1C
  0
MLINESTYLE
  5
1C
102
{ACAD_REACTORS
330
1B
102
}
100
AcDbMlineStyle
  2
STANDARD
 70
         0
  3

 62
         0
 51
90.0
 52
90.0
 71
         2
 49
0.5
 62
       256
  6
BYLAYER
 49
-0.5
 62
       256
  6
BYLAYER
  0
ENDSEC
  0
EOF
