  0
SECTION
  2
HEADER
  9
$ACADVER
  1
AC1015
  9
$ACADMAINTVER
 70
     6
  9
$DWGCODEPAGE
  3
ANSI_1252
  9
$INSBASE
 10
0.0
 20
0.0
 30
0.0
  9
$EXTMIN
 10
0.0
 20
0.0
 30
0.0
  9
$EXTMAX
 10
11.0
 20
8.5
 30
0.0
  9
$LIMMIN
 10
0.0
 20
0.0
  9
$LIMMAX
 10
0.0
 20
0.0
  9
$ORTHOMODE
 70
     0
  9
$REGENMODE
 70
     1
  9
$FILLMODE
 70
     1
  9
$QTEXTMODE
 70
     0
  9
$MIRRTEXT
 70
     1
  9
$LTSCALE
 40
1.0
  9
$ATTMODE
 70
     1
  9
$TEXTSIZE
 40
0.1377952756
  9
$TRACEWID
 40
0.05
  9
$TEXTSTYLE
  7
Standard
  9
$CLAYER
  8
0
  9
$CELTYPE
  6
ByLayer
  9
$CECOLOR
 62
   256
  9
$CELTSCALE
 40
1.0
  9
$DISPSILH
 70
     0
  9
$DIMSCALE
 40
1.0
  9
$DIMASZ
 40
0.156
  9
$DIMEXO
 40
0.05
  9
$DIMDLI
 40
0.38
  9
$DIMRND
 40
0.0
  9
$DIMDLE
 40
0.0
  9
$DIMEXE
 40
0.125
  9
$DIMTP
 40
0.0
  9
$DIMTM
 40
0.0
  9
$DIMTXT
 40
0.1388888889
  9
$DIMCEN
 40
0.09
  9
$DIMTSZ
 40
0.0
  9
$DIMTOL
 70
     0
  9
$DIMLIM
 70
     0
  9
$DIMTIH
 70
     1
  9
$DIMTOH
 70
     1
  9
$DIMSE1
 70
     0
  9
$DIMSE2
 70
     0
  9
$DIMTAD
 70
     0
  9
$DIMZIN
 70
     0
  9
$DIMBLK
  1

  9
$DIMASO
 70
     1
  9
$DIMSHO
 70
     1
  9
$DIMPOST
  1

  9
$DIMAPOST
  1

  9
$DIMALT
 70
     0
  9
$DIMALTD
 70
     2
  9
$DIMALTF
 40
25.4
  9
$DIMLFAC
 40
0.5
  9
$DIMTOFL
 70
     0
  9
$DIMTVP
 40
0.0
  9
$DIMTIX
 70
     0
  9
$DIMSOXD
 70
     0
  9
$DIMSAH
 70
     0
  9
$DIMBLK1
  1

  9
$DIMBLK2
  1

  9
$DIMSTYLE
  2
Standard
  9
$DIMCLRD
 70
     0
  9
$DIMCLRE
 70
     0
  9
$DIMCLRT
 70
     0
  9
$DIMTFAC
 40
1.0
  9
$DIMGAP
 40
0.06
  9
$DIMJUST
 70
     0
  9
$DIMSD1
 70
     0
  9
$DIMSD2
 70
     0
  9
$DIMTOLJ
 70
     1
  9
$DIMTZIN
 70
     0
  9
$DIMALTZ
 70
     0
  9
$DIMALTTZ
 70
     0
  9
$DIMUPT
 70
     0
  9
$DIMDEC
 70
     4
  9
$DIMTDEC
 70
     4
  9
$DIMALTU
 70
     2
  9
$DIMALTTD
 70
     2
  9
$DIMTXSTY
  7
Standard
  9
$DIMAUNIT
 70
     0
  9
$DIMADEC
 70
     0
  9
$DIMALTRND
 40
0.0
  9
$DIMAZIN
 70
     0
  9
$DIMDSEP
 70
    46
  9
$DIMATFIT
 70
     3
  9
$DIMFRAC
 70
     0
  9
$DIMLDRBLK
  1

  9
$DIMLUNIT
 70
     2
  9
$DIMLWD
 70
    -2
  9
$DIMLWE
 70
    -2
  9
$DIMTMOVE
 70
     0
  9
$LUNITS
 70
     2
  9
$LUPREC
 70
     2
  9
$SKETCHINC
 40
0.1
  9
$FILLETRAD
 40
0.5
  9
$AUNITS
 70
     0
  9
$AUPREC
 70
     0
  9
$MENU
  1
.
  9
$ELEVATION
 40
0.0
  9
$PELEVATION
 40
0.0
  9
$THICKNESS
 40
0.0
  9
$LIMCHECK
 70
     0
  9
$CHAMFERA
 40
0.5
  9
$CHAMFERB
 40
0.5
  9
$CHAMFERC
 40
1.0
  9
$CHAMFERD
 40
0.0
  9
$SKPOLY
 70
     0
  9
$TDCREATE
 40
2454805.329390232
  9
$TDUCREATE
 40
2454805.537723565
  9
$TDUPDATE
 40
2454805.329390243
  9
$TDUUPDATE
 40
2454805.537723576
  9
$TDINDWG
 40
0.0000000116
  9
$TDUSRTIMER
 40
0.0000000116
  9
$USRTIMER
 70
     1
  9
$ANGBASE
 50
0.0
  9
$ANGDIR
 70
     0
  9
$PDMODE
 70
     0
  9
$PDSIZE
 40
-1.0
  9
$PLINEWID
 40
0.0
  9
$SPLFRAME
 70
     0
  9
$SPLINETYPE
 70
     6
  9
$SPLINESEGS
 70
     8
  9
$HANDSEED
  5
473
  9
$SURFTAB1
 70
     6
  9
$SURFTAB2
 70
     6
  9
$SURFTYPE
 70
     6
  9
$SURFU
 70
     6
  9
$SURFV
 70
     6
  9
$UCSBASE
  2

  9
$UCSNAME
  2

  9
$UCSORG
 10
0.0
 20
0.0
 30
0.0
  9
$UCSXDIR
 10
1.0
 20
0.0
 30
0.0
  9
$UCSYDIR
 10
0.0
 20
1.0
 30
0.0
  9
$UCSORTHOREF
  2

  9
$UCSORTHOVIEW
 70
     0
  9
$UCSORGTOP
 10
0.0
 20
0.0
 30
0.0
  9
$UCSORGBOTTOM
 10
0.0
 20
0.0
 30
0.0
  9
$UCSORGLEFT
 10
0.0
 20
0.0
 30
0.0
  9
$UCSORGRIGHT
 10
0.0
 20
0.0
 30
0.0
  9
$UCSORGFRONT
 10
0.0
 20
0.0
 30
0.0
  9
$UCSORGBACK
 10
0.0
 20
0.0
 30
0.0
  9
$PUCSBASE
  2

  9
$PUCSNAME
  2

  9
$PUCSORG
 10
0.0
 20
0.0
 30
0.0
  9
$PUCSXDIR
 10
1.0
 20
0.0
 30
0.0
  9
$PUCSYDIR
 10
0.0
 20
1.0
 30
0.0
  9
$PUCSORTHOREF
  2

  9
$PUCSORTHOVIEW
 70
     0
  9
$PUCSORGTOP
 10
0.0
 20
0.0
 30
0.0
  9
$PUCSORGBOTTOM
 10
0.0
 20
0.0
 30
0.0
  9
$PUCSORGLEFT
 10
0.0
 20
0.0
 30
0.0
  9
$PUCSORGRIGHT
 10
0.0
 20
0.0
 30
0.0
  9
$PUCSORGFRONT
 10
0.0
 20
0.0
 30
0.0
  9
$PUCSORGBACK
 10
0.0
 20
0.0
 30
0.0
  9
$USERI1
 70
     0
  9
$USERI2
 70
     0
  9
$USERI3
 70
     0
  9
$USERI4
 70
     0
  9
$USERI5
 70
     0
  9
$USERR1
 40
0.0
  9
$USERR2
 40
0.0
  9
$USERR3
 40
0.0
  9
$USERR4
 40
0.0
  9
$USERR5
 40
0.0
  9
$WORLDVIEW
 70
     1
  9
$SHADEDGE
 70
     3
  9
$SHADEDIF
 70
    70
  9
$TILEMODE
 70
     1
  9
$MAXACTVP
 70
    64
  9
$PINSBASE
 10
0.0
 20
0.0
 30
0.0
  9
$PLIMCHECK
 70
     0
  9
$PEXTMIN
 10
1.0000000000E+20
 20
1.0000000000E+20
 30
1.0000000000E+20
  9
$PEXTMAX
 10
-1.0000000000E+20
 20
-1.0000000000E+20
 30
-1.0000000000E+20
  9
$PLIMMIN
 10
0.0
 20
0.0
  9
$PLIMMAX
 10
12.0
 20
9.0
  9
$UNITMODE
 70
     0
  9
$VISRETAIN
 70
     1
  9
$PLINEGEN
 70
     0
  9
$PSLTSCALE
 70
     1
  9
$TREEDEPTH
 70
  3020
  9
$CMLSTYLE
  2
Standard
  9
$CMLJUST
 70
     0
  9
$CMLSCALE
 40
1.0
  9
$PROXYGRAPHICS
 70
     1
  9
$MEASUREMENT
 70
     0
  9
$CELWEIGHT
370
    -1
  9
$ENDCAPS
280
     0
  9
$JOINSTYLE
280
     0
  9
$LWDISPLAY
290
     1
  9
$INSUNITS
 70
     1
  9
$HYPERLINKBASE
  1

  9
$STYLESHEET
  1

  9
$XEDIT
290
     1
  9
$CEPSNTYPE
380
     0
  9
$PSTYLEMODE
290
     1
  9
$FINGERPRINTGUID
  2
{C763D20A-5D6F-4AF9-A3C4-14D328C5DCC3}
  9
$VERSIONGUID
  2
{FAEB1C32-E019-11D5-929B-00C0DF256EC4}
  9
$EXTNAMES
290
     1
  9
$PSVPSCALE
 40
0.0
  9
$OLESTARTUP
290
     0
  0
ENDSEC
  0
SECTION
  2
CLASSES
  0
CLASS
  1
ACDBDICTIONARYWDFLT
  2
AcDbDictionaryWithDefault
  3
ObjectDBX Classes
 90
        0
280
     0
281
     0
  0
CLASS
  1
ACDBPLACEHOLDER
  2
AcDbPlaceHolder
  3
ObjectDBX Classes
 90
        0
280
     0
281
     0
  0
CLASS
  1
LAYOUT
  2
AcDbLayout
  3
ObjectDBX Classes
 90
        0
280
     0
281
     0
  0
ENDSEC
  0
SECTION
  2
TABLES
  0
TABLE
  2
VPORT
  5
8
330
0
100
AcDbSymbolTable
 70
     1
  0
VPORT
  5
29
330
8
100
AcDbSymbolTableRecord
100
AcDbViewportTableRecord
  2
*Active
 70
     0
 10
0.0
 20
0.0
 11
1.0
 21
1.0
 12
5.5
 22
4.25
 13
0.0
 23
0.0
 14
0.5
 24
0.5
 15
0.5
 25
0.5
 16
0.0
 26
0.0
 36
1.0
 17
0.0
 27
0.0
 37
0.0
 40
8.5
 41
1.2941176471
 42
50.0
 43
0.0
 44
0.0
 50
0.0
 51
0.0
 71
     0
 72
  2000
 73
     1
 74
     3
 75
     0
 76
     0
 77
     0
 78
     0
281
     0
 65
     1
110
0.0
120
0.0
130
0.0
111
1.0
121
0.0
131
0.0
112
0.0
122
1.0
132
0.0
 79
     0
146
0.0
  0
ENDTAB
  0
TABLE
  2
LTYPE
  5
5
330
0
100
AcDbSymbolTable
 70
     6
  0
LTYPE
  5
14
330
5
100
AcDbSymbolTableRecord
100
AcDbLinetypeTableRecord
  2
ByBlock
 70
     0
  3

 72
    65
 73
     0
 40
0.0
  0
LTYPE
  5
15
330
5
100
AcDbSymbolTableRecord
100
AcDbLinetypeTableRecord
  2
ByLayer
 70
     0
  3

 72
    65
 73
     0
 40
0.0
  0
LTYPE
  5
16
330
5
100
AcDbSymbolTableRecord
100
AcDbLinetypeTableRecord
  2
Continuous
 70
     0
  3
Solid line
 72
    65
 73
     0
 40
0.0
  0
LTYPE
  5
2A
330
5
100
AcDbSymbolTableRecord
100
AcDbLinetypeTableRecord
  2
HIDDEN
 70
     0
  3
Hidden __ __ __ __ __ __ __ __ __ __ __ __ __ __
 72
    65
 73
     2
 40
0.075
 49
0.05
 74
     0
 49
-0.025
 74
     0
  0
LTYPE
  5
2B
330
5
100
AcDbSymbolTableRecord
100
AcDbLinetypeTableRecord
  2
PHANTOM
 70
     0
  3
Phantom ______  __  __  ______  __  __  ______
 72
    65
 73
     6
 40
0.5
 49
0.25
 74
     0
 49
-0.05
 74
     0
 49
0.05
 74
     0
 49
-0.05
 74
     0
 49
0.05
 74
     0
 49
-0.05
 74
     0
  0
LTYPE
  5
2C
330
5
100
AcDbSymbolTableRecord
100
AcDbLinetypeTableRecord
  2
CENTER
 70
     0
  3
Center ____ _ ____ _ ____ _ ____ _ ____ _ ____
 72
    65
 73
     4
 40
0.4
 49
0.25
 74
     0
 49
-0.05
 74
     0
 49
0.05
 74
     0
 49
-0.05
 74
     0
  0
LTYPE
  5
2D
330
5
100
AcDbSymbolTableRecord
100
AcDbLinetypeTableRecord
  2
CENTERX2
 70
     0
  3
Center (2x) ________  __  ________  __  _____
 72
    65
 73
     4
 40
0.8
 49
0.5
 74
     0
 49
-0.1
 74
     0
 49
0.1
 74
     0
 49
-0.1
 74
     0
  0
LTYPE
  5
2E
330
5
100
AcDbSymbolTableRecord
100
AcDbLinetypeTableRecord
  2
DOT2
 70
     0
  3
Dot (.5x) ........................................
 72
    65
 73
     2
 40
0.025
 49
0.0
 74
     0
 49
-0.025
 74
     0
  0
ENDTAB
  0
TABLE
  2
LAYER
  5
2
330
0
100
AcDbSymbolTable
 70
     2
  0
LAYER
  5
10
330
2
100
AcDbSymbolTableRecord
100
AcDbLayerTableRecord
  2
0
 70
     0
 62
     7
  6
Continuous
370
    -3
390
F
  0
LAYER
  5
2F
330
2
100
AcDbSymbolTableRecord
100
AcDbLayerTableRecord
  2
FORMAT
 70
     0
 62
     7
  6
Continuous
370
    -3
390
F
  0
ENDTAB
  0
TABLE
  2
STYLE
  5
3
330
0
100
AcDbSymbolTable
 70
    21
  0
STYLE
  5
11
330
3
100
AcDbSymbolTableRecord
100
AcDbTextStyleTableRecord
  2
Standard
 70
     0
 40
0.0
 41
1.0
 50
0.0
 71
     0
 42
0.2
  3
txt
  4

  0
STYLE
  5
4D
330
3
100
AcDbSymbolTableRecord
100
AcDbTextStyleTableRecord
  2
SLDTEXTSTYLE0
 70
     0
 40
0.0
 41
0.75
 50
0.0
 71
     0
 42
0.2
  3
TXT
  4

  0
STYLE
  5
56
330
3
100
AcDbSymbolTableRecord
100
AcDbTextStyleTableRecord
  2
SLDTEXTSTYLE1
 70
     0
 40
0.0
 41
0.6428571429
 50
0.0
 71
     0
 42
0.2
  3
TXT
  4

  0
STYLE
  5
58
330
3
100
AcDbSymbolTableRecord
100
AcDbTextStyleTableRecord
  2
SLDTEXTSTYLE2
 70
     0
 40
0.0
 41
0.7211538462
 50
0.0
 71
     0
 42
0.2
  3
TXT
  4

  0
STYLE
  5
63
330
3
100
AcDbSymbolTableRecord
100
AcDbTextStyleTableRecord
  2
SLDTEXTSTYLE3
 70
     0
 40
0.0
 41
0.6375
 50
0.0
 71
     0
 42
0.2
  3
TXT
  4

  0
STYLE
  5
69
330
3
100
AcDbSymbolTableRecord
100
AcDbTextStyleTableRecord
  2
SLDTEXTSTYLE4
 70
     0
 40
0.0
 41
0.7016129032
 50
0.0
 71
     0
 42
0.2
  3
TXT
  4

  0
STYLE
  5
6B
330
3
100
AcDbSymbolTableRecord
100
AcDbTextStyleTableRecord
  2
SLDTEXTSTYLE5
 70
     0
 40
0.0
 41
0.6853448276
 50
0.0
 71
     0
 42
0.2
  3
TXT
  4

  0
STYLE
  5
6D
330
3
100
AcDbSymbolTableRecord
100
AcDbTextStyleTableRecord
  2
SLDTEXTSTYLE6
 70
     0
 40
0.0
 41
0.689516129
 50
0.0
 71
     0
 42
0.2
  3
TXT
  4

  0
STYLE
  5
6F
330
3
100
AcDbSymbolTableRecord
100
AcDbTextStyleTableRecord
  2
SLDTEXTSTYLE7
 70
     0
 40
0.0
 41
0.6666666667
 50
0.0
 71
     0
 42
0.2
  3
TXT
  4

  0
STYLE
  5
71
330
3
100
AcDbSymbolTableRecord
100
AcDbTextStyleTableRecord
  2
SLDTEXTSTYLE8
 70
     0
 40
0.0
 41
0.7010869565
 50
0.0
 71
     0
 42
0.2
  3
TXT
  4

  0
STYLE
  5
73
330
3
100
AcDbSymbolTableRecord
100
AcDbTextStyleTableRecord
  2
SLDTEXTSTYLE9
 70
     0
 40
0.0
 41
0.7083333333
 50
0.0
 71
     0
 42
0.2
  3
TXT
  4

  0
STYLE
  5
82
330
3
100
AcDbSymbolTableRecord
100
AcDbTextStyleTableRecord
  2
SLDTEXTSTYLE10
 70
     0
 40
0.0
 41
0.65625
 50
0.0
 71
     0
 42
0.2
  3
TXT
  4

  0
STYLE
  5
89
330
3
100
AcDbSymbolTableRecord
100
AcDbTextStyleTableRecord
  2
SLDTEXTSTYLE11
 70
     0
 40
0.0
 41
0.7142857143
 50
0.0
 71
     0
 42
0.2
  3
TXT
  4

  0
STYLE
  5
92
330
3
100
AcDbSymbolTableRecord
100
AcDbTextStyleTableRecord
  2
SLDTEXTSTYLE12
 70
     0
 40
0.0
 41
0.69375
 50
0.0
 71
     0
 42
0.2
  3
TXT
  4

  0
STYLE
  5
94
330
3
100
AcDbSymbolTableRecord
100
AcDbTextStyleTableRecord
  2
SLDTEXTSTYLE13
 70
     0
 40
0.0
 41
0.6988636364
 50
0.0
 71
     0
 42
0.2
  3
TXT
  4

  0
STYLE
  5
96
330
3
100
AcDbSymbolTableRecord
100
AcDbTextStyleTableRecord
  2
SLDTEXTSTYLE14
 70
     0
 40
0.0
 41
0.7115384615
 50
0.0
 71
     0
 42
0.2
  3
TXT
  4

  0
STYLE
  5
99
330
3
100
AcDbSymbolTableRecord
100
AcDbTextStyleTableRecord
  2
SLDTEXTSTYLE15
 70
     0
 40
0.0
 41
0.6796875
 50
0.0
 71
     0
 42
0.2
  3
TXT
  4

  0
STYLE
  5
A3
330
3
100
AcDbSymbolTableRecord
100
AcDbTextStyleTableRecord
  2
SLDTEXTSTYLE16
 70
     0
 40
0.0
 41
0.6995192308
 50
0.0
 71
     0
 42
0.2
  3
TXT
  4

  0
STYLE
  5
436
330
3
100
AcDbSymbolTableRecord
100
AcDbTextStyleTableRecord
  2
SLDTEXTSTYLE17
 70
     0
 40
0.0
 41
0.675
 50
0.0
 71
     0
 42
0.2
  3
TXT
  4

  0
STYLE
  5
438
330
3
100
AcDbSymbolTableRecord
100
AcDbTextStyleTableRecord
  2
SLDTEXTSTYLE18
 70
     0
 40
0.0
 41
0.625
 50
0.0
 71
     0
 42
0.2
  3
TXT
  4

  0
STYLE
  5
43E
330
3
100
AcDbSymbolTableRecord
100
AcDbTextStyleTableRecord
  2
SLDTEXTSTYLE19
 70
     0
 40
0.0
 41
0.6875
 50
0.0
 71
     0
 42
0.2
  3
TXT
  4

  0
ENDTAB
  0
TABLE
  2
VIEW
  5
6
330
0
100
AcDbSymbolTable
 70
     0
  0
ENDTAB
  0
TABLE
  2
UCS
  5
7
330
0
100
AcDbSymbolTable
 70
     0
  0
ENDTAB
  0
TABLE
  2
APPID
  5
9
330
0
100
AcDbSymbolTable
 70
     1
  0
APPID
  5
12
330
9
100
AcDbSymbolTableRecord
100
AcDbRegAppTableRecord
  2
ACAD
 70
     0
  0
ENDTAB
  0
TABLE
  2
DIMSTYLE
  5
A
330
0
100
AcDbSymbolTable
 70
     6
100
AcDbDimStyleTable
  0
DIMSTYLE
105
27
330
A
100
AcDbSymbolTableRecord
100
AcDbDimStyleTableRecord
  2
Standard
 70
     0
340
11
  0
DIMSTYLE
105
D6
102
{ACAD_REACTORS
330
D5
102
}
330
A
100
AcDbSymbolTableRecord
100
AcDbDimStyleTableRecord
  2
SLDDIMSTYLE0
 70
     0
 41
0.156
 44
0.0
 78
     4
140
0.1041666667
147
0.0260416667
170
     1
172
     1
173
     1
271
     2
272
     2
284
    12
340
4D
  0
DIMSTYLE
105
3B3
102
{ACAD_REACTORS
330
3B2
330
3C5
330
3D7
330
421
102
}
330
A
100
AcDbSymbolTableRecord
100
AcDbDimStyleTableRecord
  2
SLDDIMSTYLE1
 70
     0
 41
0.156
 44
0.0
 78
    12
140
0.1041666667
147
0.0260416667
170
     1
173
     1
271
     2
272
     2
284
    12
340
4D
  0
DIMSTYLE
105
3EA
102
{ACAD_REACTORS
330
3E9
102
}
330
A
100
AcDbSymbolTableRecord
100
AcDbDimStyleTableRecord
  2
SLDDIMSTYLE2
 70
     0
 41
0.156
 44
0.0
 78
     4
140
0.1041666667
147
0.0260416667
170
     1
173
     1
271
     2
272
     2
284
    12
340
4D
  0
DIMSTYLE
105
3FD
102
{ACAD_REACTORS
330
3FC
330
40F
102
}
330
A
100
AcDbSymbolTableRecord
100
AcDbDimStyleTableRecord
  2
SLDDIMSTYLE3
 70
     0
 41
0.156
 44
0.0
 78
     8
140
0.1041666667
147
0.0260416667
170
     1
173
     1
271
     2
272
     2
284
    12
340
4D
  0
DIMSTYLE
105
442
330
A
100
AcDbSymbolTableRecord
100
AcDbDimStyleTableRecord
  2
SLDDIMSTYLE4
 70
     0
 41
0.156
 44
0.0
140
0.156
147
0.039
173
     1
271
     0
272
     0
340
11
  0
ENDTAB
  0
TABLE
  2
BLOCK_RECORD
  5
1
330
0
100
AcDbSymbolTable
 70
    22
  0
BLOCK_RECORD
  5
1F
330
1
100
AcDbSymbolTableRecord
100
AcDbBlockTableRecord
  2
*Model_Space
340
22
  0
BLOCK_RECORD
  5
1B
330
1
100
AcDbSymbolTableRecord
100
AcDbBlockTableRecord
  2
*Paper_Space
340
1E
  0
BLOCK_RECORD
  5
23
330
1
100
AcDbSymbolTableRecord
100
AcDbBlockTableRecord
  2
*Paper_Space0
340
26
  0
BLOCK_RECORD
  5
66
330
1
100
AcDbSymbolTableRecord
100
AcDbBlockTableRecord
  2
SW_NOTE_0
340
0
102
{BLKREFS
331
75
102
}
1001
ACAD
1000
DesignCenter Data
1002
{
1070
     1
1070
     0
1002
}
  0
BLOCK_RECORD
  5
7F
330
1
100
AcDbSymbolTableRecord
100
AcDbBlockTableRecord
  2
SW_NOTE_1
340
0
102
{BLKREFS
331
85
102
}
1001
ACAD
1000
DesignCenter Data
1002
{
1070
     1
1070
     0
1002
}
  0
BLOCK_RECORD
  5
86
330
1
100
AcDbSymbolTableRecord
100
AcDbBlockTableRecord
  2
SW_NOTE_2
340
0
102
{BLKREFS
331
8C
102
}
1001
ACAD
1000
DesignCenter Data
1002
{
1070
     1
1070
     0
1002
}
  0
BLOCK_RECORD
  5
8E
330
1
100
AcDbSymbolTableRecord
100
AcDbBlockTableRecord
  2
SW_NOTE_3
340
0
102
{BLKREFS
331
9D
102
}
1001
ACAD
1000
DesignCenter Data
1002
{
1070
     1
1070
     0
1002
}
  0
BLOCK_RECORD
  5
9F
330
1
100
AcDbSymbolTableRecord
100
AcDbBlockTableRecord
  2
SW_NOTE_4
340
0
102
{BLKREFS
331
A5
102
}
1001
ACAD
1000
DesignCenter Data
1002
{
1070
     1
1070
     0
1002
}
  0
BLOCK_RECORD
  5
A6
330
1
100
AcDbSymbolTableRecord
100
AcDbBlockTableRecord
  2
SW_TABLEANNOTATION_0
340
0
102
{BLKREFS
331
C2
102
}
1001
ACAD
1000
DesignCenter Data
1002
{
1070
     1
1070
     0
1002
}
  0
BLOCK_RECORD
  5
D7
330
1
100
AcDbSymbolTableRecord
100
AcDbBlockTableRecord
  2
*D7
340
0
  0
BLOCK_RECORD
  5
3B4
330
1
100
AcDbSymbolTableRecord
100
AcDbBlockTableRecord
  2
*D8
340
0
  0
BLOCK_RECORD
  5
3C6
330
1
100
AcDbSymbolTableRecord
100
AcDbBlockTableRecord
  2
*D9
340
0
  0
BLOCK_RECORD
  5
3D8
330
1
100
AcDbSymbolTableRecord
100
AcDbBlockTableRecord
  2
*D10
340
0
  0
BLOCK_RECORD
  5
3EB
330
1
100
AcDbSymbolTableRecord
100
AcDbBlockTableRecord
  2
*D11
340
0
  0
BLOCK_RECORD
  5
3FE
330
1
100
AcDbSymbolTableRecord
100
AcDbBlockTableRecord
  2
*D12
340
0
  0
BLOCK_RECORD
  5
410
330
1
100
AcDbSymbolTableRecord
100
AcDbBlockTableRecord
  2
*D13
340
0
  0
BLOCK_RECORD
  5
422
330
1
100
AcDbSymbolTableRecord
100
AcDbBlockTableRecord
  2
*D14
340
0
  0
BLOCK_RECORD
  5
433
330
1
100
AcDbSymbolTableRecord
100
AcDbBlockTableRecord
  2
SW_NOTE_5
340
0
102
{BLKREFS
331
43A
102
}
1001
ACAD
1000
DesignCenter Data
1002
{
1070
     1
1070
     0
1002
}
  0
BLOCK_RECORD
  5
43B
330
1
100
AcDbSymbolTableRecord
100
AcDbBlockTableRecord
  2
SW_NOTE_6
340
0
102
{BLKREFS
331
441
102
}
1001
ACAD
1000
DesignCenter Data
1002
{
1070
     1
1070
     0
1002
}
  0
BLOCK_RECORD
  5
445
330
1
100
AcDbSymbolTableRecord
100
AcDbBlockTableRecord
  2
SW_NOTE_7
340
0
102
{BLKREFS
331
44A
102
}
1001
ACAD
1000
DesignCenter Data
1002
{
1070
     1
1070
     0
1002
}
  0
BLOCK_RECORD
  5
44C
330
1
100
AcDbSymbolTableRecord
100
AcDbBlockTableRecord
  2
SW_NOTE_8
340
0
102
{BLKREFS
331
451
102
}
1001
ACAD
1000
DesignCenter Data
1002
{
1070
     1
1070
     0
1002
}
  0
BLOCK_RECORD
  5
453
330
1
100
AcDbSymbolTableRecord
100
AcDbBlockTableRecord
  2
SW_NOTE_9
340
0
102
{BLKREFS
331
458
102
}
1001
ACAD
1000
DesignCenter Data
1002
{
1070
     1
1070
     0
1002
}
  0
BLOCK_RECORD
  5
45A
330
1
100
AcDbSymbolTableRecord
100
AcDbBlockTableRecord
  2
SW_NOTE_10
340
0
102
{BLKREFS
331
45F
102
}
1001
ACAD
1000
DesignCenter Data
1002
{
1070
     1
1070
     0
1002
}
  0
BLOCK_RECORD
  5
461
330
1
100
AcDbSymbolTableRecord
100
AcDbBlockTableRecord
  2
SW_NOTE_11
340
0
102
{BLKREFS
331
466
102
}
1001
ACAD
1000
DesignCenter Data
1002
{
1070
     1
1070
     0
1002
}
  0
ENDTAB
  0
ENDSEC
  0
SECTION
  2
BLOCKS
  0
BLOCK
  5
20
330
1F
100
AcDbEntity
  8
0
100
AcDbBlockBegin
  2
*Model_Space
 70
     0
 71
     0
 10
0.0
 20
0.0
 30
0.0
  3
*Model_Space
  1

  0
ENDBLK
  5
21
330
1F
100
AcDbEntity
  8
0
100
AcDbBlockEnd
  0
BLOCK
  5
1C
330
1B
100
AcDbEntity
 67
     1
  8
0
100
AcDbBlockBegin
  2
*Paper_Space
 70
     0
 71
     0
 10
0.0
 20
0.0
 30
0.0
  3
*Paper_Space
  1

  0
ENDBLK
  5
1D
330
1B
100
AcDbEntity
 67
     1
  8
0
100
AcDbBlockEnd
  0
BLOCK
  5
24
330
23
100
AcDbEntity
  8
0
100
AcDbBlockBegin
  2
*Paper_Space0
 70
     0
 71
     0
 10
0.0
 20
0.0
 30
0.0
  3
*Paper_Space0
  1

  0
ENDBLK
  5
25
330
23
100
AcDbEntity
  8
0
100
AcDbBlockEnd
  0
BLOCK
  5
67
330
66
100
AcDbEntity
  8
0
100
AcDbBlockBegin
  2
SW_NOTE_0
 70
     0
 71
     0
 10
0.0
 20
0.0
 30
0.0
  3
SW_NOTE_0
  1

  0
MTEXT
  5
6A
330
66
100
AcDbEntity
  8
0
  6
Continuous
 62
     0
370
     0
100
AcDbMText
 10
0.0
 20
0.076640625
 30
0.0
 40
0.06
 41
0.0
 71
     1
 72
     1
  1
THE INFORMATION CONTAINED IN THIS
  7
SLDTEXTSTYLE4
 73
     1
 44
1.0
  0
MTEXT
  5
6C
330
66
100
AcDbEntity
  8
0
  6
Continuous
 62
     0
370
     0
100
AcDbMText
 10
0.0
 20
-0.0227294496
 30
0.0
 40
0.06
 41
0.0
 71
     1
 72
     1
  1
DRAWING IS THE SOLE PROPERTY OF
  7
SLDTEXTSTYLE5
 73
     1
 44
1.0
  0
MTEXT
  5
6E
330
66
100
AcDbEntity
  8
0
  6
Continuous
 62
     0
370
     0
100
AcDbMText
 10
0.0
 20
-0.1220995241
 30
0.0
 40
0.06
 41
0.0
 71
     1
 72
     1
  1
THORLABS, INC.  ANY REPRODUCTION 
  7
SLDTEXTSTYLE6
 73
     1
 44
1.0
  0
MTEXT
  5
70
330
66
100
AcDbEntity
  8
0
  6
Continuous
 62
     0
370
     0
100
AcDbMText
 10
0.0
 20
-0.2214695987
 30
0.0
 40
0.06
 41
0.0
 71
     1
 72
     1
  1
IN PART OR AS A WHOLE WITHOUT
  7
SLDTEXTSTYLE7
 73
     1
 44
1.0
  0
MTEXT
  5
72
330
66
100
AcDbEntity
  8
0
  6
Continuous
 62
     0
370
     0
100
AcDbMText
 10
0.0
 20
-0.3208396733
 30
0.0
 40
0.06
 41
0.0
 71
     1
 72
     1
  1
THE WRITTEN PERMISSION OF
  7
SLDTEXTSTYLE8
 73
     1
 44
1.0
  0
MTEXT
  5
74
330
66
100
AcDbEntity
  8
0
  6
Continuous
 62
     0
370
     0
100
AcDbMText
 10
0.0
 20
-0.4202097478
 30
0.0
 40
0.06
 41
0.0
 71
     1
 72
     1
  1
THORLABS, INC. IS PROHIBITED.
  7
SLDTEXTSTYLE9
 73
     1
 44
1.0
  0
ENDBLK
  5
68
330
66
100
AcDbEntity
  8
0
100
AcDbBlockEnd
  0
BLOCK
  5
80
330
7F
100
AcDbEntity
  8
0
100
AcDbBlockBegin
  2
SW_NOTE_1
 70
     0
 71
     0
 10
0.0
 20
0.0
 30
0.0
  3
SW_NOTE_1
  1

  0
MTEXT
  5
83
330
7F
100
AcDbEntity
  8
0
  6
Continuous
 62
     0
370
     0
100
AcDbMText
 10
0.0
 20
0.1330566406
 30
0.0
 40
0.1041666667
 41
0.0
 71
     1
 72
     1
  1
PO BOX 366
  7
SLDTEXTSTYLE10
 73
     1
 44
1.0
  0
MTEXT
  5
84
330
7F
100
AcDbEntity
  8
0
  6
Continuous
 62
     0
370
     0
100
AcDbMText
 10
0.0
 20
-0.0058322466
 30
0.0
 40
0.1041666667
 41
0.0
 71
     1
 72
     1
  1
NEWTON NJ
  7
SLDTEXTSTYLE0
 73
     1
 44
1.0
  0
ENDBLK
  5
81
330
7F
100
AcDbEntity
  8
0
100
AcDbBlockEnd
  0
BLOCK
  5
87
330
86
100
AcDbEntity
  8
0
100
AcDbBlockBegin
  2
SW_NOTE_2
 70
     0
 71
     0
 10
0.0
 20
0.0
 30
0.0
  3
SW_NOTE_2
  1

  0
MTEXT
  5
8A
330
86
100
AcDbEntity
  8
0
  6
Continuous
 62
     0
370
     0
100
AcDbMText
 10
0.0
 20
0.1330566406
 30
0.0
 40
0.1041666667
 41
0.0
 71
     1
 72
     1
  1
MATCHED ACHROMATIC PAIR
  7
SLDTEXTSTYLE11
 73
     1
 44
1.0
  0
MTEXT
  5
8B
330
86
100
AcDbEntity
  8
0
  6
Continuous
 62
     0
370
     0
100
AcDbMText
 10
0.2816359799
 20
-0.0058322466
 30
0.0
 40
0.1041666667
 41
0.0
 71
     1
 72
     1
  1
F1=40mm, F2=100mm
  7
SLDTEXTSTYLE0
 73
     1
 44
1.0
  0
ENDBLK
  5
88
330
86
100
AcDbEntity
  8
0
100
AcDbBlockEnd
  0
BLOCK
  5
8F
330
8E
100
AcDbEntity
  8
0
100
AcDbBlockBegin
  2
SW_NOTE_3
 70
     0
 71
     0
 10
0.0
 20
0.0
 30
0.0
  3
SW_NOTE_3
  1

  0
LINE
  5
91
330
8E
100
AcDbEntity
  8
0
  6
Continuous
 62
     0
370
     0
100
AcDbLine
 10
1.0817708433
 20
-0.6526041506
 30
0.0
 11
1.4039930543
 21
-0.6526041506
 31
0.0
  0
MTEXT
  5
93
330
8E
100
AcDbEntity
  8
0
  6
Continuous
 62
     0
370
     0
100
AcDbMText
 10
0.0
 20
0.1197509766
 30
0.0
 40
0.09375
 41
0.0
 71
     1
 72
     1
  1
DESIGN WAVELENGTH:  486.1, 587.6 & 656.3nm
  7
SLDTEXTSTYLE12
 73
     1
 44
1.0
  0
MTEXT
  5
95
330
8E
100
AcDbEntity
  8
0
  6
Continuous
 62
     0
370
     0
100
AcDbMText
 10
0.0
 20
-0.0052490219
 30
0.0
 40
0.09375
 41
0.0
 71
     1
 72
     1
  1
COATING:  BBAR 400-700nm
  7
SLDTEXTSTYLE13
 73
     1
 44
1.0
  0
MTEXT
  5
97
330
8E
100
AcDbEntity
  8
0
  6
Continuous
 62
     0
370
     0
100
AcDbMText
 10
0.0
 20
-0.1302490204
 30
0.0
 40
0.09375
 41
0.0
 71
     1
 72
     1
  1
COATING RANGE: R(AVG)<0.5% FROM 400-700nm
  7
SLDTEXTSTYLE14
 73
     1
 44
1.0
  0
MTEXT
  5
98
330
8E
100
AcDbEntity
  8
0
  6
Continuous
 62
     0
370
     0
100
AcDbMText
 10
0.0
 20
-0.2552490189
 30
0.0
 40
0.09375
 41
0.0
 71
     1
 72
     1
  1
MAGNIFICATION: 1:1.25
  7
SLDTEXTSTYLE0
 73
     1
 44
1.0
  0
MTEXT
  5
9A
330
8E
100
AcDbEntity
  8
0
  6
Continuous
 62
     0
370
     0
100
AcDbMText
 10
0.0
 20
-0.6091552547
 30
0.0
 40
0.09375
 41
0.0
 71
     1
 72
     1
  1
Dimensions are in 
  7
SLDTEXTSTYLE15
 73
     1
 44
1.0
  0
MTEXT
  5
9B
330
8E
100
AcDbEntity
  8
0
  6
Continuous
 62
     0
370
     0
100
AcDbMText
 10
1.0817708433
 20
-0.5052490159
 30
0.0
 40
0.09375
 41
0.0
 71
     1
 72
     1
  1
[mm]
  7
SLDTEXTSTYLE0
 73
     1
 44
1.0
  0
MTEXT
  5
9C
330
8E
100
AcDbEntity
  8
0
  6
Continuous
 62
     0
370
     0
100
AcDbMText
 10
1.1922743109
 20
-0.6854573399
 30
0.0
 40
0.09375
 41
0.0
 71
     1
 72
     1
  1
in
  7
SLDTEXTSTYLE0
 73
     1
 44
1.0
  0
ENDBLK
  5
90
330
8E
100
AcDbEntity
  8
0
100
AcDbBlockEnd
  0
BLOCK
  5
A0
330
9F
100
AcDbEntity
  8
0
100
AcDbBlockBegin
  2
SW_NOTE_4
 70
     0
 71
     0
 10
0.0
 20
0.0
 30
0.0
  3
SW_NOTE_4
  1

  0
MTEXT
  5
A2
330
9F
100
AcDbEntity
  8
0
  6
Continuous
 62
     0
370
     0
100
AcDbMText
 10
0.0
 20
0.1149609375
 30
0.0
 40
0.09
 41
0.0
 71
     1
 72
     1
  1
NOTE:
  7
SLDTEXTSTYLE0
 73
     1
 44
1.0
  0
MTEXT
  5
A4
330
9F
100
AcDbEntity
  8
0
  6
Continuous
 62
     0
370
     0
100
AcDbMText
 10
0.0
 20
-0.0144091455
 30
0.0
 40
0.09
 41
0.0
 71
     1
 72
     1
  1
FOR INFORMATION ONLY.  NOT INTENDED FOR MANUFACTURING.
  7
SLDTEXTSTYLE16
 73
     1
 44
1.0
  0
ENDBLK
  5
A1
330
9F
100
AcDbEntity
  8
0
100
AcDbBlockEnd
  0
BLOCK
  5
A7
330
A6
100
AcDbEntity
  8
0
100
AcDbBlockBegin
  2
SW_TABLEANNOTATION_0
 70
     0
 71
     0
 10
0.0
 20
0.0
 30
0.0
  3
SW_TABLEANNOTATION_0
  1

  0
LINE
  5
A9
330
A6
100
AcDbEntity
  8
0
  6
Continuous
 62
     0
370
     0
100
AcDbLine
 10
0.0
 20
0.0
 30
0.0
 11
0.0
 21
-1.0877351438
 31
0.0
  0
LINE
  5
AA
330
A6
100
AcDbEntity
  8
0
  6
Continuous
 62
     0
370
     0
100
AcDbLine
 10
0.0
 20
-1.0877351438
 30
0.0
 11
5.3007222216
 21
-1.0877351438
 31
0.0
  0
LINE
  5
AB
330
A6
100
AcDbEntity
  8
0
  6
Continuous
 62
     0
370
     0
100
AcDbLine
 10
5.3007222216
 20
-1.0877351438
 30
0.0
 11
5.3007222216
 21
0.0
 31
0.0
  0
LINE
  5
AC
330
A6
100
AcDbEntity
  8
0
  6
Continuous
 62
     0
370
     0
100
AcDbLine
 10
5.3007222216
 20
0.0
 30
0.0
 11
0.0
 21
0.0
 31
0.0
  0
LINE
  5
AD
330
A6
100
AcDbEntity
  8
0
  6
Continuous
 62
     0
370
     0
100
AcDbLine
 10
1.7669074072
 20
0.0
 30
0.0
 11
1.7669074072
 21
-1.0877351438
 31
0.0
  0
LINE
  5
AE
330
A6
100
AcDbEntity
  8
0
  6
Continuous
 62
     0
370
     0
100
AcDbLine
 10
3.5338148144
 20
0.0
 30
0.0
 11
3.5338148144
 21
-1.0877351438
 31
0.0
  0
LINE
  5
AF
330
A6
100
AcDbEntity
  8
0
  6
Continuous
 62
     0
370
     0
100
AcDbLine
 10
0.0
 20
-0.2175470288
 30
0.0
 11
5.3007222216
 21
-0.2175470288
 31
0.0
  0
LINE
  5
B0
330
A6
100
AcDbEntity
  8
0
  6
Continuous
 62
     0
370
     0
100
AcDbLine
 10
0.0
 20
-0.4350940575
 30
0.0
 11
5.3007222216
 21
-0.4350940575
 31
0.0
  0
LINE
  5
B1
330
A6
100
AcDbEntity
  8
0
  6
Continuous
 62
     0
370
     0
100
AcDbLine
 10
0.0
 20
-0.6526410863
 30
0.0
 11
5.3007222216
 21
-0.6526410863
 31
0.0
  0
LINE
  5
B2
330
A6
100
AcDbEntity
  8
0
  6
Continuous
 62
     0
370
     0
100
AcDbLine
 10
0.0
 20
-0.870188115
 30
0.0
 11
5.3007222216
 21
-0.870188115
 31
0.0
  0
MTEXT
  5
B3
330
A6
100
AcDbEntity
  8
0
  6
Continuous
 62
     0
370
     0
100
AcDbMText
 10
0.6662347763
 20
-0.0391846857
 30
0.0
 40
0.1377952756
 41
0.0
 71
     1
 72
     1
  1
PART
  7
SLDTEXTSTYLE0
 73
     1
 44
1.0
  0
MTEXT
  5
B4
330
A6
100
AcDbEntity
  8
0
  6
Continuous
 62
     0
370
     0
100
AcDbMText
 10
2.2344873384
 20
-0.0391846857
 30
0.0
 40
0.1377952756
 41
0.0
 71
     1
 72
     1
  1
PART NO.
  7
SLDTEXTSTYLE0
 73
     1
 44
1.0
  0
MTEXT
  5
B5
330
A6
100
AcDbEntity
  8
0
  6
Continuous
 62
     0
370
     0
100
AcDbMText
 10
3.9896246982
 20
-0.0391846857
 30
0.0
 40
0.1377952756
 41
0.0
 71
     1
 72
     1
  1
MATERIAL
  7
SLDTEXTSTYLE0
 73
     1
 44
1.0
  0
MTEXT
  5
B6
330
A6
100
AcDbEntity
  8
0
  6
Continuous
 62
     0
370
     0
100
AcDbMText
 10
0.8155129793
 20
-0.2567317144
 30
0.0
 40
0.1377952756
 41
0.0
 71
     1
 72
     1
  1
A
  7
SLDTEXTSTYLE0
 73
     1
 44
1.0
  0
MTEXT
  5
B7
330
A6
100
AcDbEntity
  8
0
  6
Continuous
 62
     0
370
     0
100
AcDbMText
 10
2.0224357113
 20
-0.2567317144
 30
0.0
 40
0.1377952756
 41
0.0
 71
     1
 72
     1
  1
AC254-040-A1
  7
SLDTEXTSTYLE0
 73
     1
 44
1.0
  0
MTEXT
  5
B8
330
A6
100
AcDbEntity
  8
0
  6
Continuous
 62
     0
370
     0
100
AcDbMText
 10
4.0877081451
 20
-0.2567317144
 30
0.0
 40
0.1377952756
 41
0.0
 71
     1
 72
     1
  1
BK7-SF5
  7
SLDTEXTSTYLE0
 73
     1
 44
1.0
  0
MTEXT
  5
B9
330
A6
100
AcDbEntity
  8
0
  6
Continuous
 62
     0
370
     0
100
AcDbMText
 10
0.8307278706
 20
-0.4742787432
 30
0.0
 40
0.1377952756
 41
0.0
 71
     1
 72
     1
  1
B
  7
SLDTEXTSTYLE0
 73
     1
 44
1.0
  0
MTEXT
  5
BA
330
A6
100
AcDbEntity
  8
0
  6
Continuous
 62
     0
370
     0
100
AcDbMText
 10
2.0224357113
 20
-0.4742787432
 30
0.0
 40
0.1377952756
 41
0.0
 71
     1
 72
     1
  1
AC254-100-A1
  7
SLDTEXTSTYLE0
 73
     1
 44
1.0
  0
MTEXT
  5
BB
330
A6
100
AcDbEntity
  8
0
  6
Continuous
 62
     0
370
     0
100
AcDbMText
 10
4.0877081451
 20
-0.4742787432
 30
0.0
 40
0.1377952756
 41
0.0
 71
     1
 72
     1
  1
BK7-SF5
  7
SLDTEXTSTYLE0
 73
     1
 44
1.0
  0
MTEXT
  5
BC
330
A6
100
AcDbEntity
  8
0
  6
Continuous
 62
     0
370
     0
100
AcDbMText
 10
0.8088145975
 20
-0.691825772
 30
0.0
 40
0.1377952756
 41
0.0
 71
     1
 72
     1
  1
C
  7
SLDTEXTSTYLE0
 73
     1
 44
1.0
  0
MTEXT
  5
BD
330
A6
100
AcDbEntity
  8
0
  6
Continuous
 62
     0
370
     0
100
AcDbMText
 10
2.088079873
 20
-0.691825772
 30
0.0
 40
0.1377952756
 41
0.0
 71
     1
 72
     1
  1
LENS MOUNT
  7
SLDTEXTSTYLE0
 73
     1
 44
1.0
  0
MTEXT
  5
BE
330
A6
100
AcDbEntity
  8
0
  6
Continuous
 62
     0
370
     0
100
AcDbMText
 10
3.5793966839
 20
-0.691825772
 30
0.0
 40
0.1377952756
 41
0.0
 71
     1
 72
     1
  1
6061-T6 ALUMINUM
  7
SLDTEXTSTYLE0
 73
     1
 44
1.0
  0
MTEXT
  5
BF
330
A6
100
AcDbEntity
  8
0
  6
Continuous
 62
     0
370
     0
100
AcDbMText
 10
0.8151302112
 20
-0.9093728007
 30
0.0
 40
0.1377952756
 41
0.0
 71
     1
 72
     1
  1
D
  7
SLDTEXTSTYLE0
 73
     1
 44
1.0
  0
MTEXT
  5
C0
330
A6
100
AcDbEntity
  8
0
  6
Continuous
 62
     0
370
     0
100
AcDbMText
 10
2.3577375412
 20
-0.9093728007
 30
0.0
 40
0.1377952756
 41
0.0
 71
     1
 72
     1
  1
SM1RR
  7
SLDTEXTSTYLE0
 73
     1
 44
1.0
  0
MTEXT
  5
C1
330
A6
100
AcDbEntity
  8
0
  6
Continuous
 62
     0
370
     0
100
AcDbMText
 10
3.5793966839
 20
-0.9093728007
 30
0.0
 40
0.1377952756
 41
0.0
 71
     1
 72
     1
  1
6061-T6 ALUMINUM
  7
SLDTEXTSTYLE0
 73
     1
 44
1.0
  0
ENDBLK
  5
A8
330
A6
100
AcDbEntity
  8
0
100
AcDbBlockEnd
  0
BLOCK
  5
D8
330
D7
100
AcDbEntity
  8
0
100
AcDbBlockBegin
  2
*D7
 70
     1
 71
     0
 10
0.0
 20
0.0
 30
0.0
  3
*D7
  1

  0
SOLID
  5
DA
330
D7
100
AcDbEntity
  8
0
  6
Continuous
 62
     7
370
     0
100
AcDbTrace
 10
1.9235109782
 20
5.1192919008
 30
0.0
 11
1.9833762149
 21
5.2656754839
 31
0.0
 12
1.9326644995
 22
5.2771786103
 32
0.0
 13
1.9326644995
 23
5.2771786103
 33
0.0
  0
LINE
  5
DB
330
D7
100
AcDbEntity
  8
0
  6
Continuous
 62
     7
370
     0
100
AcDbLine
 10
2.398634921
 20
5.766656681
 30
0.0
 11
2.398634921
 21
5.6260137627
 31
0.0
  0
LINE
  5
DC
330
D7
100
AcDbEntity
  8
0
  6
Continuous
 62
     7
370
     0
100
AcDbLine
 10
2.398634921
 20
5.6260137627
 30
0.0
 11
2.4197360883
 21
5.6260137627
 31
0.0
  0
LINE
  5
DD
330
D7
100
AcDbEntity
  8
0
  6
Continuous
 62
     7
370
     0
100
AcDbLine
 10
2.398634921
 20
5.766656681
 30
0.0
 11
2.4197360883
 21
5.766656681
 31
0.0
  0
LINE
  5
DE
330
D7
100
AcDbEntity
  8
0
  6
Continuous
 62
     7
370
     0
100
AcDbLine
 10
2.8292442595
 20
5.766656681
 30
0.0
 11
2.8292442595
 21
5.6260137627
 31
0.0
  0
LINE
  5
DF
330
D7
100
AcDbEntity
  8
0
  6
Continuous
 62
     7
370
     0
100
AcDbLine
 10
2.8292442595
 20
5.6260137627
 30
0.0
 11
2.8081430922
 21
5.6260137627
 31
0.0
  0
LINE
  5
E0
330
D7
100
AcDbEntity
  8
0
  6
Continuous
 62
     7
370
     0
100
AcDbLine
 10
2.8292442595
 20
5.766656681
 30
0.0
 11
2.8081430922
 21
5.766656681
 31
0.0
  0
LINE
  5
E1
330
D7
100
AcDbEntity
  8
0
  6
Continuous
 62
     7
370
     0
100
AcDbLine
 10
1.9235109782
 20
5.1192919008
 30
0.0
 11
2.0356376447
 21
5.6136040934
 31
0.0
  0
LINE
  5
E2
330
D7
100
AcDbEntity
  8
0
  6
Continuous
 62
     7
370
     0
100
AcDbLine
 10
2.0356376447
 20
5.6136040934
 30
0.0
 11
2.2856376447
 21
5.6136040934
 31
0.0
  0
MTEXT
  5
E3
330
D7
100
AcDbEntity
  8
0
  6
Continuous
 62
     7
370
     0
100
AcDbMText
 10
2.4048706797
 20
5.5811984749
 30
0.0
 40
0.1041666667
 41
0.0
 71
     1
 72
     1
  1
%%c
  7
SLDTEXTSTYLE0
 73
     1
 44
1.0
  0
MTEXT
  5
E4
330
D7
100
AcDbEntity
  8
0
  6
Continuous
 62
     7
370
     0
100
AcDbMText
 10
2.5537867108
 20
5.5811984749
 30
0.0
 40
0.1041666667
 41
0.0
 71
     1
 72
     1
  1
1.20
  7
SLDTEXTSTYLE0
 73
     1
 44
1.0
  0
MTEXT
  5
E5
330
D7
100
AcDbEntity
  8
0
  6
Continuous
 62
     7
370
     0
100
AcDbMText
 10
2.4408372556
 20
5.7466607317
 30
0.0
 40
0.1041666667
 41
0.0
 71
     1
 72
     1
  1
30.48
  7
SLDTEXTSTYLE0
 73
     1
 44
1.0
  0
ENDBLK
  5
D9
330
D7
100
AcDbEntity
  8
0
100
AcDbBlockEnd
  0
BLOCK
  5
3B5
330
3B4
100
AcDbEntity
  8
0
100
AcDbBlockBegin
  2
*D8
 70
     1
 71
     0
 10
0.0
 20
0.0
 30
0.0
  3
*D8
  1

  0
SOLID
  5
3B7
330
3B4
100
AcDbEntity
  8
0
  6
Continuous
 62
     7
370
     0
100
AcDbTrace
 10
3.7995670242
 20
3.081442595
 30
0.0
 11
3.9555670242
 21
3.055442595
 31
0.0
 12
3.9555670242
 22
3.107442595
 32
0.0
 13
3.9555670242
 23
3.107442595
 33
0.0
  0
SOLID
  5
3B8
330
3B4
100
AcDbEntity
  8
0
  6
Continuous
 62
     7
370
     0
100
AcDbTrace
 10
7.4060625754
 20
3.081442595
 30
0.0
 11
7.2500625754
 21
3.107442595
 31
0.0
 12
7.2500625754
 22
3.055442595
 32
0.0
 13
7.2500625754
 23
3.055442595
 33
0.0
  0
LINE
  5
3B9
330
3B4
100
AcDbEntity
  8
0
  6
Continuous
 62
     7
370
     0
100
AcDbLine
 10
5.4365052481
 20
3.2344951825
 30
0.0
 11
5.4365052481
 21
3.0938522642
 31
0.0
  0
LINE
  5
3BA
330
3B4
100
AcDbEntity
  8
0
  6
Continuous
 62
     7
370
     0
100
AcDbLine
 10
5.4365052481
 20
3.0938522642
 30
0.0
 11
5.4576064154
 21
3.0938522642
 31
0.0
  0
LINE
  5
3BB
330
3B4
100
AcDbEntity
  8
0
  6
Continuous
 62
     7
370
     0
100
AcDbLine
 10
5.4365052481
 20
3.2344951825
 30
0.0
 11
5.4576064154
 21
3.2344951825
 31
0.0
  0
LINE
  5
3BC
330
3B4
100
AcDbEntity
  8
0
  6
Continuous
 62
     7
370
     0
100
AcDbLine
 10
5.8671145866
 20
3.2344951825
 30
0.0
 11
5.8671145866
 21
3.0938522642
 31
0.0
  0
LINE
  5
3BD
330
3B4
100
AcDbEntity
  8
0
  6
Continuous
 62
     7
370
     0
100
AcDbLine
 10
5.8671145866
 20
3.0938522642
 30
0.0
 11
5.8460134193
 21
3.0938522642
 31
0.0
  0
LINE
  5
3BE
330
3B4
100
AcDbEntity
  8
0
  6
Continuous
 62
     7
370
     0
100
AcDbLine
 10
5.8671145866
 20
3.2344951825
 30
0.0
 11
5.8460134193
 21
3.2344951825
 31
0.0
  0
LINE
  5
3BF
330
3B4
100
AcDbEntity
  8
0
  6
Continuous
 62
     7
370
     0
100
AcDbLine
 10
3.7995670242
 20
4.4841567224
 30
0.0
 11
3.7995670242
 21
2.956442595
 31
0.0
  0
LINE
  5
3C0
330
3B4
100
AcDbEntity
  8
0
  6
Continuous
 62
     7
370
     0
100
AcDbLine
 10
7.4060625754
 20
3.8941567224
 30
0.0
 11
7.4060625754
 21
2.956442595
 31
0.0
  0
LINE
  5
3C1
330
3B4
100
AcDbEntity
  8
0
  6
Continuous
 62
     7
370
     0
100
AcDbLine
 10
3.7995670242
 20
3.081442595
 30
0.0
 11
5.3106653648
 21
3.081442595
 31
0.0
  0
LINE
  5
3C2
330
3B4
100
AcDbEntity
  8
0
  6
Continuous
 62
     7
370
     0
100
AcDbLine
 10
7.4060625754
 20
3.081442595
 30
0.0
 11
5.9929544699
 21
3.081442595
 31
0.0
  0
MTEXT
  5
3C3
330
3B4
100
AcDbEntity
  8
0
  6
Continuous
 62
     7
370
     0
100
AcDbMText
 10
5.5171990224
 20
3.0490369765
 30
0.0
 40
0.1041666667
 41
0.0
 71
     1
 72
     1
  1
3.61
  7
SLDTEXTSTYLE0
 73
     1
 44
1.0
  0
MTEXT
  5
3C4
330
3B4
100
AcDbEntity
  8
0
  6
Continuous
 62
     7
370
     0
100
AcDbMText
 10
5.4787075827
 20
3.2144992333
 30
0.0
 40
0.1041666667
 41
0.0
 71
     1
 72
     1
  1
91.60
  7
SLDTEXTSTYLE0
 73
     1
 44
1.0
  0
ENDBLK
  5
3B6
330
3B4
100
AcDbEntity
  8
0
100
AcDbBlockEnd
  0
BLOCK
  5
3C7
330
3C6
100
AcDbEntity
  8
0
100
AcDbBlockBegin
  2
*D9
 70
     1
 71
     0
 10
0.0
 20
0.0
 30
0.0
  3
*D9
  1

  0
SOLID
  5
3C9
330
3C6
100
AcDbEntity
  8
0
  6
Continuous
 62
     7
370
     0
100
AcDbTrace
 10
3.7995670242
 20
5.401197096
 30
0.0
 11
3.9555670242
 21
5.375197096
 31
0.0
 12
3.9555670242
 22
5.427197096
 32
0.0
 13
3.9555670242
 23
5.427197096
 33
0.0
  0
SOLID
  5
3CA
330
3C6
100
AcDbEntity
  8
0
  6
Continuous
 62
     7
370
     0
100
AcDbTrace
 10
7.6198618193
 20
5.401197096
 30
0.0
 11
7.4638618193
 21
5.427197096
 31
0.0
 12
7.4638618193
 22
5.375197096
 32
0.0
 13
7.4638618193
 23
5.375197096
 33
0.0
  0
LINE
  5
3CB
330
3C6
100
AcDbEntity
  8
0
  6
Continuous
 62
     7
370
     0
100
AcDbLine
 10
5.4397604051
 20
5.5542496836
 30
0.0
 11
5.4397604051
 21
5.4136067653
 31
0.0
  0
LINE
  5
3CC
330
3C6
100
AcDbEntity
  8
0
  6
Continuous
 62
     7
370
     0
100
AcDbLine
 10
5.4397604051
 20
5.4136067653
 30
0.0
 11
5.4608615724
 21
5.4136067653
 31
0.0
  0
LINE
  5
3CD
330
3C6
100
AcDbEntity
  8
0
  6
Continuous
 62
     7
370
     0
100
AcDbLine
 10
5.4397604051
 20
5.5542496836
 30
0.0
 11
5.4608615724
 21
5.5542496836
 31
0.0
  0
LINE
  5
3CE
330
3C6
100
AcDbEntity
  8
0
  6
Continuous
 62
     7
370
     0
100
AcDbLine
 10
5.8703697436
 20
5.5542496836
 30
0.0
 11
5.8703697436
 21
5.4136067653
 31
0.0
  0
LINE
  5
3CF
330
3C6
100
AcDbEntity
  8
0
  6
Continuous
 62
     7
370
     0
100
AcDbLine
 10
5.8703697436
 20
5.4136067653
 30
0.0
 11
5.8492685763
 21
5.4136067653
 31
0.0
  0
LINE
  5
3D0
330
3C6
100
AcDbEntity
  8
0
  6
Continuous
 62
     7
370
     0
100
AcDbLine
 10
5.8703697436
 20
5.5542496836
 30
0.0
 11
5.8492685763
 21
5.5542496836
 31
0.0
  0
LINE
  5
3D1
330
3C6
100
AcDbEntity
  8
0
  6
Continuous
 62
     7
370
     0
100
AcDbLine
 10
3.7995670242
 20
4.5841567224
 30
0.0
 11
3.7995670242
 21
5.526197096
 31
0.0
  0
LINE
  5
3D2
330
3C6
100
AcDbEntity
  8
0
  6
Continuous
 62
     7
370
     0
100
AcDbLine
 10
7.6198618193
 20
4.5841567224
 30
0.0
 11
7.6198618193
 21
5.526197096
 31
0.0
  0
LINE
  5
3D3
330
3C6
100
AcDbEntity
  8
0
  6
Continuous
 62
     7
370
     0
100
AcDbLine
 10
3.7995670242
 20
5.401197096
 30
0.0
 11
5.3139205219
 21
5.401197096
 31
0.0
  0
LINE
  5
3D4
330
3C6
100
AcDbEntity
  8
0
  6
Continuous
 62
     7
370
     0
100
AcDbLine
 10
7.6198618193
 20
5.401197096
 30
0.0
 11
5.9962096269
 21
5.401197096
 31
0.0
  0
MTEXT
  5
3D5
330
3C6
100
AcDbEntity
  8
0
  6
Continuous
 62
     7
370
     0
100
AcDbMText
 10
5.5204541794
 20
5.3687914775
 30
0.0
 40
0.1041666667
 41
0.0
 71
     1
 72
     1
  1
3.82
  7
SLDTEXTSTYLE0
 73
     1
 44
1.0
  0
MTEXT
  5
3D6
330
3C6
100
AcDbEntity
  8
0
  6
Continuous
 62
     7
370
     0
100
AcDbMText
 10
5.4819627397
 20
5.5342537343
 30
0.0
 40
0.1041666667
 41
0.0
 71
     1
 72
     1
  1
97.04
  7
SLDTEXTSTYLE0
 73
     1
 44
1.0
  0
ENDBLK
  5
3C8
330
3C6
100
AcDbEntity
  8
0
100
AcDbBlockEnd
  0
BLOCK
  5
3D9
330
3D8
100
AcDbEntity
  8
0
100
AcDbBlockBegin
  2
*D10
 70
     1
 71
     0
 10
0.0
 20
0.0
 30
0.0
  3
*D10
  1

  0
SOLID
  5
3DB
330
3D8
100
AcDbEntity
  8
0
  6
Continuous
 62
     7
370
     0
100
AcDbTrace
 10
9.8225268288
 20
3.081442595
 30
0.0
 11
9.6665268288
 21
3.107442595
 31
0.0
 12
9.6665268288
 22
3.055442595
 32
0.0
 13
9.6665268288
 23
3.055442595
 33
0.0
  0
SOLID
  5
3DC
330
3D8
100
AcDbEntity
  8
0
  6
Continuous
 62
     7
370
     0
100
AcDbTrace
 10
8.7135489154
 20
3.081442595
 30
0.0
 11
8.8695489154
 21
3.055442595
 31
0.0
 12
8.8695489154
 22
3.107442595
 32
0.0
 13
8.8695489154
 23
3.107442595
 33
0.0
  0
LINE
  5
3DD
330
3D8
100
AcDbEntity
  8
0
  6
Continuous
 62
     7
370
     0
100
AcDbLine
 10
9.094753887
 20
3.2344951825
 30
0.0
 11
9.094753887
 21
3.0938522642
 31
0.0
  0
LINE
  5
3DE
330
3D8
100
AcDbEntity
  8
0
  6
Continuous
 62
     7
370
     0
100
AcDbLine
 10
9.094753887
 20
3.0938522642
 30
0.0
 11
9.1158550543
 21
3.0938522642
 31
0.0
  0
LINE
  5
3DF
330
3D8
100
AcDbEntity
  8
0
  6
Continuous
 62
     7
370
     0
100
AcDbLine
 10
9.094753887
 20
3.2344951825
 30
0.0
 11
9.1158550543
 21
3.2344951825
 31
0.0
  0
LINE
  5
3E0
330
3D8
100
AcDbEntity
  8
0
  6
Continuous
 62
     7
370
     0
100
AcDbLine
 10
9.5253632255
 20
3.2344951825
 30
0.0
 11
9.5253632255
 21
3.0938522642
 31
0.0
  0
LINE
  5
3E1
330
3D8
100
AcDbEntity
  8
0
  6
Continuous
 62
     7
370
     0
100
AcDbLine
 10
9.5253632255
 20
3.0938522642
 30
0.0
 11
9.5042620582
 21
3.0938522642
 31
0.0
  0
LINE
  5
3E2
330
3D8
100
AcDbEntity
  8
0
  6
Continuous
 62
     7
370
     0
100
AcDbLine
 10
9.5253632255
 20
3.2344951825
 30
0.0
 11
9.5042620582
 21
3.2344951825
 31
0.0
  0
LINE
  5
3E3
330
3D8
100
AcDbEntity
  8
0
  6
Continuous
 62
     7
370
     0
100
AcDbLine
 10
9.8225268288
 20
4.4841567224
 30
0.0
 11
9.8225268288
 21
2.956442595
 31
0.0
  0
LINE
  5
3E4
330
3D8
100
AcDbEntity
  8
0
  6
Continuous
 62
     7
370
     0
100
AcDbLine
 10
8.7135489154
 20
3.8941567224
 30
0.0
 11
8.7135489154
 21
2.956442595
 31
0.0
  0
LINE
  5
3E5
330
3D8
100
AcDbEntity
  8
0
  6
Continuous
 62
     7
370
     0
100
AcDbLine
 10
9.8225268288
 20
3.081442595
 30
0.0
 11
9.6512031088
 21
3.081442595
 31
0.0
  0
LINE
  5
3E6
330
3D8
100
AcDbEntity
  8
0
  6
Continuous
 62
     7
370
     0
100
AcDbLine
 10
8.7135489154
 20
3.081442595
 30
0.0
 11
8.9689140038
 21
3.081442595
 31
0.0
  0
MTEXT
  5
3E7
330
3D8
100
AcDbEntity
  8
0
  6
Continuous
 62
     7
370
     0
100
AcDbMText
 10
9.1754476613
 20
3.0490369765
 30
0.0
 40
0.1041666667
 41
0.0
 71
     1
 72
     1
  1
1.11
  7
SLDTEXTSTYLE0
 73
     1
 44
1.0
  0
MTEXT
  5
3E8
330
3D8
100
AcDbEntity
  8
0
  6
Continuous
 62
     7
370
     0
100
AcDbMText
 10
9.1369562217
 20
3.2144992333
 30
0.0
 40
0.1041666667
 41
0.0
 71
     1
 72
     1
  1
28.17
  7
SLDTEXTSTYLE0
 73
     1
 44
1.0
  0
ENDBLK
  5
3DA
330
3D8
100
AcDbEntity
  8
0
100
AcDbBlockEnd
  0
BLOCK
  5
3EC
330
3EB
100
AcDbEntity
  8
0
100
AcDbBlockBegin
  2
*D11
 70
     1
 71
     0
 10
0.0
 20
0.0
 30
0.0
  3
*D11
  1

  0
SOLID
  5
3EE
330
3EB
100
AcDbEntity
  8
0
  6
Continuous
 62
     7
370
     0
100
AcDbTrace
 10
9.8225268288
 20
5.401197096
 30
0.0
 11
9.6665268288
 21
5.427197096
 31
0.0
 12
9.6665268288
 22
5.375197096
 32
0.0
 13
9.6665268288
 23
5.375197096
 33
0.0
  0
SOLID
  5
3EF
330
3EB
100
AcDbEntity
  8
0
  6
Continuous
 62
     7
370
     0
100
AcDbTrace
 10
8.5252644531
 20
5.401197096
 30
0.0
 11
8.6812644531
 21
5.375197096
 31
0.0
 12
8.6812644531
 22
5.427197096
 32
0.0
 13
8.6812644531
 23
5.427197096
 33
0.0
  0
LINE
  5
3F0
330
3EB
100
AcDbEntity
  8
0
  6
Continuous
 62
     7
370
     0
100
AcDbLine
 10
8.8919450336
 20
5.5542496836
 30
0.0
 11
8.8919450336
 21
5.4136067653
 31
0.0
  0
LINE
  5
3F1
330
3EB
100
AcDbEntity
  8
0
  6
Continuous
 62
     7
370
     0
100
AcDbLine
 10
8.8919450336
 20
5.4136067653
 30
0.0
 11
8.9130462009
 21
5.4136067653
 31
0.0
  0
LINE
  5
3F2
330
3EB
100
AcDbEntity
  8
0
  6
Continuous
 62
     7
370
     0
100
AcDbLine
 10
8.8919450336
 20
5.5542496836
 30
0.0
 11
8.9130462009
 21
5.5542496836
 31
0.0
  0
LINE
  5
3F3
330
3EB
100
AcDbEntity
  8
0
  6
Continuous
 62
     7
370
     0
100
AcDbLine
 10
9.3225543721
 20
5.5542496836
 30
0.0
 11
9.3225543721
 21
5.4136067653
 31
0.0
  0
LINE
  5
3F4
330
3EB
100
AcDbEntity
  8
0
  6
Continuous
 62
     7
370
     0
100
AcDbLine
 10
9.3225543721
 20
5.4136067653
 30
0.0
 11
9.3014532048
 21
5.4136067653
 31
0.0
  0
LINE
  5
3F5
330
3EB
100
AcDbEntity
  8
0
  6
Continuous
 62
     7
370
     0
100
AcDbLine
 10
9.3225543721
 20
5.5542496836
 30
0.0
 11
9.3014532048
 21
5.5542496836
 31
0.0
  0
LINE
  5
3F6
330
3EB
100
AcDbEntity
  8
0
  6
Continuous
 62
     7
370
     0
100
AcDbLine
 10
9.8225268288
 20
4.5841567224
 30
0.0
 11
9.8225268288
 21
5.526197096
 31
0.0
  0
LINE
  5
3F7
330
3EB
100
AcDbEntity
  8
0
  6
Continuous
 62
     7
370
     0
100
AcDbLine
 10
8.5252644531
 20
4.5841567224
 30
0.0
 11
8.5252644531
 21
5.526197096
 31
0.0
  0
LINE
  5
3F8
330
3EB
100
AcDbEntity
  8
0
  6
Continuous
 62
     7
370
     0
100
AcDbLine
 10
9.8225268288
 20
5.401197096
 30
0.0
 11
9.4483942554
 21
5.401197096
 31
0.0
  0
LINE
  5
3F9
330
3EB
100
AcDbEntity
  8
0
  6
Continuous
 62
     7
370
     0
100
AcDbLine
 10
8.5252644531
 20
5.401197096
 30
0.0
 11
8.7661051503
 21
5.401197096
 31
0.0
  0
MTEXT
  5
3FA
330
3EB
100
AcDbEntity
  8
0
  6
Continuous
 62
     7
370
     0
100
AcDbMText
 10
8.9726388079
 20
5.3687914775
 30
0.0
 40
0.1041666667
 41
0.0
 71
     1
 72
     1
  1
1.30
  7
SLDTEXTSTYLE0
 73
     1
 44
1.0
  0
MTEXT
  5
3FB
330
3EB
100
AcDbEntity
  8
0
  6
Continuous
 62
     7
370
     0
100
AcDbMText
 10
8.9341473682
 20
5.5342537343
 30
0.0
 40
0.1041666667
 41
0.0
 71
     1
 72
     1
  1
32.95
  7
SLDTEXTSTYLE0
 73
     1
 44
1.0
  0
ENDBLK
  5
3ED
330
3EB
100
AcDbEntity
  8
0
100
AcDbBlockEnd
  0
BLOCK
  5
3FF
330
3FE
100
AcDbEntity
  8
0
100
AcDbBlockBegin
  2
*D12
 70
     1
 71
     0
 10
0.0
 20
0.0
 30
0.0
  3
*D12
  1

  0
SOLID
  5
401
330
3FE
100
AcDbEntity
  8
0
  6
Continuous
 62
     7
370
     0
100
AcDbTrace
 10
7.8757673311
 20
3.5350078071
 30
0.0
 11
7.7197673311
 21
3.5610078071
 31
0.0
 12
7.7197673311
 22
3.5090078071
 32
0.0
 13
7.7197673311
 23
3.5090078071
 33
0.0
  0
SOLID
  5
402
330
3FE
100
AcDbEntity
  8
0
  6
Continuous
 62
     7
370
     0
100
AcDbTrace
 10
8.0331384688
 20
3.5350078071
 30
0.0
 11
8.1891384688
 21
3.5090078071
 31
0.0
 12
8.1891384688
 22
3.5610078071
 32
0.0
 13
8.1891384688
 23
3.5610078071
 33
0.0
  0
LINE
  5
403
330
3FE
100
AcDbEntity
  8
0
  6
Continuous
 62
     7
370
     0
100
AcDbLine
 10
8.3327844213
 20
3.6880603946
 30
0.0
 11
8.3327844213
 21
3.5474174763
 31
0.0
  0
LINE
  5
404
330
3FE
100
AcDbEntity
  8
0
  6
Continuous
 62
     7
370
     0
100
AcDbLine
 10
8.3327844213
 20
3.5474174763
 30
0.0
 11
8.3538855887
 21
3.5474174763
 31
0.0
  0
LINE
  5
405
330
3FE
100
AcDbEntity
  8
0
  6
Continuous
 62
     7
370
     0
100
AcDbLine
 10
8.3327844213
 20
3.6880603946
 30
0.0
 11
8.3538855887
 21
3.6880603946
 31
0.0
  0
LINE
  5
406
330
3FE
100
AcDbEntity
  8
0
  6
Continuous
 62
     7
370
     0
100
AcDbLine
 10
8.4940264447
 20
3.6880603946
 30
0.0
 11
8.4940264447
 21
3.5474174763
 31
0.0
  0
LINE
  5
407
330
3FE
100
AcDbEntity
  8
0
  6
Continuous
 62
     7
370
     0
100
AcDbLine
 10
8.4940264447
 20
3.5474174763
 30
0.0
 11
8.4729252774
 21
3.5474174763
 31
0.0
  0
LINE
  5
408
330
3FE
100
AcDbEntity
  8
0
  6
Continuous
 62
     7
370
     0
100
AcDbLine
 10
8.4940264447
 20
3.6880603946
 30
0.0
 11
8.4729252774
 21
3.6880603946
 31
0.0
  0
LINE
  5
409
330
3FE
100
AcDbEntity
  8
0
  6
Continuous
 62
     7
370
     0
100
AcDbLine
 10
7.8757673311
 20
4.4841567224
 30
0.0
 11
7.8757673311
 21
3.4100078071
 31
0.0
  0
LINE
  5
40A
330
3FE
100
AcDbEntity
  8
0
  6
Continuous
 62
     7
370
     0
100
AcDbLine
 10
8.0331384688
 20
4.4841567224
 30
0.0
 11
8.0331384688
 21
3.4100078071
 31
0.0
  0
LINE
  5
40B
330
3FE
100
AcDbEntity
  8
0
  6
Continuous
 62
     7
370
     0
100
AcDbLine
 10
7.8757673311
 20
3.5350078071
 30
0.0
 11
7.3757673311
 21
3.5350078071
 31
0.0
  0
LINE
  5
40C
330
3FE
100
AcDbEntity
  8
0
  6
Continuous
 62
     7
370
     0
100
AcDbLine
 10
8.0331384688
 20
3.5350078071
 30
0.0
 11
8.1951569894
 21
3.5350078071
 31
0.0
  0
MTEXT
  5
40D
330
3FE
100
AcDbEntity
  8
0
  6
Continuous
 62
     7
370
     0
100
AcDbMText
 10
8.2787945381
 20
3.5026021886
 30
0.0
 40
0.1041666667
 41
0.0
 71
     1
 72
     1
  1
0.16
  7
SLDTEXTSTYLE0
 73
     1
 44
1.0
  0
MTEXT
  5
40E
330
3FE
100
AcDbEntity
  8
0
  6
Continuous
 62
     7
370
     0
100
AcDbMText
 10
8.374986756
 20
3.6680644454
 30
0.0
 40
0.1041666667
 41
0.0
 71
     1
 72
     1
  1
4
  7
SLDTEXTSTYLE0
 73
     1
 44
1.0
  0
ENDBLK
  5
400
330
3FE
100
AcDbEntity
  8
0
100
AcDbBlockEnd
  0
BLOCK
  5
411
330
410
100
AcDbEntity
  8
0
100
AcDbBlockBegin
  2
*D13
 70
     1
 71
     0
 10
0.0
 20
0.0
 30
0.0
  3
*D13
  1

  0
SOLID
  5
413
330
410
100
AcDbEntity
  8
0
  6
Continuous
 62
     7
370
     0
100
AcDbTrace
 10
7.6198618193
 20
5.7695261103
 30
0.0
 11
7.4638618193
 21
5.7955261103
 31
0.0
 12
7.4638618193
 22
5.7435261103
 32
0.0
 13
7.4638618193
 23
5.7435261103
 33
0.0
  0
SOLID
  5
414
330
410
100
AcDbEntity
  8
0
  6
Continuous
 62
     7
370
     0
100
AcDbTrace
 10
8.5252644531
 20
5.7695261103
 30
0.0
 11
8.6812644531
 21
5.7435261103
 31
0.0
 12
8.6812644531
 22
5.7955261103
 32
0.0
 13
8.6812644531
 23
5.7955261103
 33
0.0
  0
LINE
  5
415
330
410
100
AcDbEntity
  8
0
  6
Continuous
 62
     7
370
     0
100
AcDbLine
 10
7.9406932941
 20
5.9225786978
 30
0.0
 11
7.9406932941
 21
5.7819357795
 31
0.0
  0
LINE
  5
416
330
410
100
AcDbEntity
  8
0
  6
Continuous
 62
     7
370
     0
100
AcDbLine
 10
7.9406932941
 20
5.7819357795
 30
0.0
 11
7.9617944614
 21
5.7819357795
 31
0.0
  0
LINE
  5
417
330
410
100
AcDbEntity
  8
0
  6
Continuous
 62
     7
370
     0
100
AcDbLine
 10
7.9406932941
 20
5.9225786978
 30
0.0
 11
7.9617944614
 21
5.9225786978
 31
0.0
  0
LINE
  5
418
330
410
100
AcDbEntity
  8
0
  6
Continuous
 62
     7
370
     0
100
AcDbLine
 10
8.1789181968
 20
5.9225786978
 30
0.0
 11
8.1789181968
 21
5.7819357795
 31
0.0
  0
LINE
  5
419
330
410
100
AcDbEntity
  8
0
  6
Continuous
 62
     7
370
     0
100
AcDbLine
 10
8.1789181968
 20
5.7819357795
 30
0.0
 11
8.1578170295
 21
5.7819357795
 31
0.0
  0
LINE
  5
41A
330
410
100
AcDbEntity
  8
0
  6
Continuous
 62
     7
370
     0
100
AcDbLine
 10
8.1789181968
 20
5.9225786978
 30
0.0
 11
8.1578170295
 21
5.9225786978
 31
0.0
  0
LINE
  5
41B
330
410
100
AcDbEntity
  8
0
  6
Continuous
 62
     7
370
     0
100
AcDbLine
 10
7.6198618193
 20
4.5841567224
 30
0.0
 11
7.6198618193
 21
5.8945261103
 31
0.0
  0
LINE
  5
41C
330
410
100
AcDbEntity
  8
0
  6
Continuous
 62
     7
370
     0
100
AcDbLine
 10
8.5252644531
 20
4.5841567224
 30
0.0
 11
8.5252644531
 21
5.8945261103
 31
0.0
  0
LINE
  5
41D
330
410
100
AcDbEntity
  8
0
  6
Continuous
 62
     7
370
     0
100
AcDbLine
 10
7.6198618193
 20
5.7695261103
 30
0.0
 11
7.1198618193
 21
5.7695261103
 31
0.0
  0
LINE
  5
41E
330
410
100
AcDbEntity
  8
0
  6
Continuous
 62
     7
370
     0
100
AcDbLine
 10
8.5252644531
 20
5.7695261103
 30
0.0
 11
9.0252644531
 21
5.7695261103
 31
0.0
  0
MTEXT
  5
41F
330
410
100
AcDbEntity
  8
0
  6
Continuous
 62
     7
370
     0
100
AcDbMText
 10
7.9251948505
 20
5.7371204918
 30
0.0
 40
0.1041666667
 41
0.0
 71
     1
 72
     1
  1
0.91
  7
SLDTEXTSTYLE0
 73
     1
 44
1.0
  0
MTEXT
  5
420
330
410
100
AcDbEntity
  8
0
  6
Continuous
 62
     7
370
     0
100
AcDbMText
 10
7.9828956287
 20
5.9025827486
 30
0.0
 40
0.1041666667
 41
0.0
 71
     1
 72
     1
  1
23
  7
SLDTEXTSTYLE0
 73
     1
 44
1.0
  0
ENDBLK
  5
412
330
410
100
AcDbEntity
  8
0
100
AcDbBlockEnd
  0
BLOCK
  5
423
330
422
100
AcDbEntity
  8
0
100
AcDbBlockBegin
  2
*D14
 70
     1
 71
     0
 10
0.0
 20
0.0
 30
0.0
  3
*D14
  1

  0
SOLID
  5
425
330
422
100
AcDbEntity
  8
0
  6
Continuous
 62
     7
370
     0
100
AcDbTrace
 10
7.4060625754
 20
2.5901259173
 30
0.0
 11
7.5620625754
 21
2.5641259173
 31
0.0
 12
7.5620625754
 22
2.6161259173
 32
0.0
 13
7.5620625754
 23
2.6161259173
 33
0.0
  0
SOLID
  5
426
330
422
100
AcDbEntity
  8
0
  6
Continuous
 62
     7
370
     0
100
AcDbTrace
 10
8.7135489154
 20
2.5901259173
 30
0.0
 11
8.5575489154
 21
2.6161259173
 31
0.0
 12
8.5575489154
 22
2.5641259173
 32
0.0
 13
8.5575489154
 23
2.5641259173
 33
0.0
  0
LINE
  5
427
330
422
100
AcDbEntity
  8
0
  6
Continuous
 62
     7
370
     0
100
AcDbLine
 10
7.8445010762
 20
2.7431785049
 30
0.0
 11
7.8445010762
 21
2.6025355866
 31
0.0
  0
LINE
  5
428
330
422
100
AcDbEntity
  8
0
  6
Continuous
 62
     7
370
     0
100
AcDbLine
 10
7.8445010762
 20
2.6025355866
 30
0.0
 11
7.8656022435
 21
2.6025355866
 31
0.0
  0
LINE
  5
429
330
422
100
AcDbEntity
  8
0
  6
Continuous
 62
     7
370
     0
100
AcDbLine
 10
7.8445010762
 20
2.7431785049
 30
0.0
 11
7.8656022435
 21
2.7431785049
 31
0.0
  0
LINE
  5
42A
330
422
100
AcDbEntity
  8
0
  6
Continuous
 62
     7
370
     0
100
AcDbLine
 10
8.2751104147
 20
2.7431785049
 30
0.0
 11
8.2751104147
 21
2.6025355866
 31
0.0
  0
LINE
  5
42B
330
422
100
AcDbEntity
  8
0
  6
Continuous
 62
     7
370
     0
100
AcDbLine
 10
8.2751104147
 20
2.6025355866
 30
0.0
 11
8.2540092474
 21
2.6025355866
 31
0.0
  0
LINE
  5
42C
330
422
100
AcDbEntity
  8
0
  6
Continuous
 62
     7
370
     0
100
AcDbLine
 10
8.2751104147
 20
2.7431785049
 30
0.0
 11
8.2540092474
 21
2.7431785049
 31
0.0
  0
LINE
  5
42D
330
422
100
AcDbEntity
  8
0
  6
Continuous
 62
     7
370
     0
100
AcDbLine
 10
7.4060625754
 20
3.8941567224
 30
0.0
 11
7.4060625754
 21
2.4651259173
 31
0.0
  0
LINE
  5
42E
330
422
100
AcDbEntity
  8
0
  6
Continuous
 62
     7
370
     0
100
AcDbLine
 10
8.7135489154
 20
3.8941567224
 30
0.0
 11
8.7135489154
 21
2.4651259173
 31
0.0
  0
LINE
  5
42F
330
422
100
AcDbEntity
  8
0
  6
Continuous
 62
     7
370
     0
100
AcDbLine
 10
7.4060625754
 20
2.5901259173
 30
0.0
 11
7.7186611929
 21
2.5901259173
 31
0.0
  0
LINE
  5
430
330
422
100
AcDbEntity
  8
0
  6
Continuous
 62
     7
370
     0
100
AcDbLine
 10
8.7135489154
 20
2.5901259173
 30
0.0
 11
8.4009502979
 21
2.5901259173
 31
0.0
  0
MTEXT
  5
431
330
422
100
AcDbEntity
  8
0
  6
Continuous
 62
     7
370
     0
100
AcDbMText
 10
7.9251948505
 20
2.5577202988
 30
0.0
 40
0.1041666667
 41
0.0
 71
     1
 72
     1
  1
1.31
  7
SLDTEXTSTYLE0
 73
     1
 44
1.0
  0
MTEXT
  5
432
330
422
100
AcDbEntity
  8
0
  6
Continuous
 62
     7
370
     0
100
AcDbMText
 10
7.8867034108
 20
2.7231825556
 30
0.0
 40
0.1041666667
 41
0.0
 71
     1
 72
     1
  1
33.21
  7
SLDTEXTSTYLE0
 73
     1
 44
1.0
  0
ENDBLK
  5
424
330
422
100
AcDbEntity
  8
0
100
AcDbBlockEnd
  0
BLOCK
  5
434
330
433
100
AcDbEntity
  8
0
100
AcDbBlockBegin
  2
SW_NOTE_5
 70
     0
 71
     0
 10
0.0
 20
0.0
 30
0.0
  3
SW_NOTE_5
  1

  0
MTEXT
  5
437
330
433
100
AcDbEntity
  8
0
  6
Continuous
 62
     0
370
     0
100
AcDbMText
 10
0.0
 20
0.1596679688
 30
0.0
 40
0.125
 41
0.0
 71
     1
 72
     1
  1
SECTION A-A 
  7
SLDTEXTSTYLE17
 73
     1
 44
1.0
  0
MTEXT
  5
439
330
433
100
AcDbEntity
  8
0
  6
Continuous
 62
     0
370
     0
100
AcDbMText
 10
0.1009259241
 20
-0.0069986959
 30
0.0
 40
0.125
 41
0.0
 71
     1
 72
     1
  1
SCALE 1 : 1
  7
SLDTEXTSTYLE18
 73
     1
 44
1.0
  0
ENDBLK
  5
435
330
433
100
AcDbEntity
  8
0
100
AcDbBlockEnd
  0
BLOCK
  5
43C
330
43B
100
AcDbEntity
  8
0
100
AcDbBlockBegin
  2
SW_NOTE_6
 70
     0
 71
     0
 10
0.0
 20
0.0
 30
0.0
  3
SW_NOTE_6
  1

  0
MTEXT
  5
43F
330
43B
100
AcDbEntity
  8
0
  6
Continuous
 62
     0
370
     0
100
AcDbMText
 10
-1.3413952016
 20
0.1665790489
 30
0.0
 40
0.09
 41
0.0
 71
     1
 72
     1
  1
INTERNAL  SM1 THREAD
  7
SLDTEXTSTYLE19
 73
     1
 44
1.0
  0
MTEXT
  5
440
330
43B
100
AcDbEntity
  8
0
  6
Continuous
 62
     0
370
     0
100
AcDbMText
 10
-0.9608326895
 20
0.0372089659
 30
0.0
 40
0.09
 41
0.0
 71
     1
 72
     1
  1
(1.035-40)
  7
SLDTEXTSTYLE0
 73
     1
 44
1.0
  0
ENDBLK
  5
43D
330
43B
100
AcDbEntity
  8
0
100
AcDbBlockEnd
  0
BLOCK
  5
446
330
445
100
AcDbEntity
  8
0
100
AcDbBlockBegin
  2
SW_NOTE_7
 70
     0
 71
     0
 10
0.0
 20
0.0
 30
0.0
  3
SW_NOTE_7
  1

  0
CIRCLE
  5
448
330
445
100
AcDbEntity
  8
0
  6
Continuous
 62
     0
370
     0
100
AcDbCircle
 10
0.1967821119
 20
0.0077551411
 30
0.0
 40
0.1969348668812023
  0
MTEXT
  5
449
330
445
100
AcDbEntity
  8
0
  6
Continuous
 62
     0
370
     0
100
AcDbMText
 10
0.1288413876
 20
0.0786150513
 30
0.0
 40
0.1377952756
 41
0.0
 71
     1
 72
     1
  1
A
  7
SLDTEXTSTYLE0
 73
     1
 44
1.0
  0
ENDBLK
  5
447
330
445
100
AcDbEntity
  8
0
100
AcDbBlockEnd
  0
BLOCK
  5
44D
330
44C
100
AcDbEntity
  8
0
100
AcDbBlockBegin
  2
SW_NOTE_8
 70
     0
 71
     0
 10
0.0
 20
0.0
 30
0.0
  3
SW_NOTE_8
  1

  0
CIRCLE
  5
44F
330
44C
100
AcDbEntity
  8
0
  6
Continuous
 62
     0
370
     0
100
AcDbCircle
 10
-0.1938423472
 20
0.0347632886
 30
0.0
 40
0.196934866881202
  0
MTEXT
  5
450
330
44C
100
AcDbEntity
  8
0
  6
Continuous
 62
     0
370
     0
100
AcDbMText
 10
-0.2465681802
 20
0.1056231988
 30
0.0
 40
0.1377952756
 41
0.0
 71
     1
 72
     1
  1
B
  7
SLDTEXTSTYLE0
 73
     1
 44
1.0
  0
ENDBLK
  5
44E
330
44C
100
AcDbEntity
  8
0
100
AcDbBlockEnd
  0
BLOCK
  5
454
330
453
100
AcDbEntity
  8
0
100
AcDbBlockBegin
  2
SW_NOTE_9
 70
     0
 71
     0
 10
0.0
 20
0.0
 30
0.0
  3
SW_NOTE_9
  1

  0
CIRCLE
  5
456
330
453
100
AcDbEntity
  8
0
  6
Continuous
 62
     0
370
     0
100
AcDbCircle
 10
0.1732397086
 20
-0.0936554599
 30
0.0
 40
0.1969348668812023
  0
MTEXT
  5
457
330
453
100
AcDbEntity
  8
0
  6
Continuous
 62
     0
370
     0
100
AcDbMText
 10
0.0986006025
 20
-0.0227955497
 30
0.0
 40
0.1377952756
 41
0.0
 71
     1
 72
     1
  1
C
  7
SLDTEXTSTYLE0
 73
     1
 44
1.0
  0
ENDBLK
  5
455
330
453
100
AcDbEntity
  8
0
100
AcDbBlockEnd
  0
BLOCK
  5
45B
330
45A
100
AcDbEntity
  8
0
100
AcDbBlockBegin
  2
SW_NOTE_10
 70
     0
 71
     0
 10
0.0
 20
0.0
 30
0.0
  3
SW_NOTE_10
  1

  0
CIRCLE
  5
45D
330
45A
100
AcDbEntity
  8
0
  6
Continuous
 62
     0
370
     0
100
AcDbCircle
 10
0.1969100554
 20
0.0031260015
 30
0.0
 40
0.1969348668812025
  0
MTEXT
  5
45E
330
45A
100
AcDbEntity
  8
0
  6
Continuous
 62
     0
370
     0
100
AcDbMText
 10
0.128586563
 20
0.0739859117
 30
0.0
 40
0.1377952756
 41
0.0
 71
     1
 72
     1
  1
D
  7
SLDTEXTSTYLE0
 73
     1
 44
1.0
  0
ENDBLK
  5
45C
330
45A
100
AcDbEntity
  8
0
100
AcDbBlockEnd
  0
BLOCK
  5
462
330
461
100
AcDbEntity
  8
0
100
AcDbBlockBegin
  2
SW_NOTE_11
 70
     0
 71
     0
 10
0.0
 20
0.0
 30
0.0
  3
SW_NOTE_11
  1

  0
CIRCLE
  5
464
330
461
100
AcDbEntity
  8
0
  6
Continuous
 62
     0
370
     0
100
AcDbCircle
 10
-0.1956696
 20
-0.0222878765
 30
0.0
 40
0.1969348668812025
  0
MTEXT
  5
465
330
461
100
AcDbEntity
  8
0
  6
Continuous
 62
     0
370
     0
100
AcDbMText
 10
-0.2639930924
 20
0.0485720337
 30
0.0
 40
0.1377952756
 41
0.0
 71
     1
 72
     1
  1
D
  7
SLDTEXTSTYLE0
 73
     1
 44
1.0
  0
ENDBLK
  5
463
330
461
100
AcDbEntity
  8
0
100
AcDbBlockEnd
  0
ENDSEC
  0
SECTION
  2
ENTITIES
  0
LINE
  5
30
330
1F
100
AcDbEntity
  8
0
  6
Continuous
 62
     7
370
     0
100
AcDbLine
 10
0.329927
 20
8.1920731707
 30
0.0
 11
10.629927
 21
8.1920731707
 31
0.0
  0
LINE
  5
31
330
1F
100
AcDbEntity
  8
0
  6
Continuous
 62
     7
370
     0
100
AcDbLine
 10
0.329927
 20
8.1920731707
 30
0.0
 11
0.329927
 21
0.3920731707
 31
0.0
  0
LINE
  5
32
330
1F
100
AcDbEntity
  8
0
  6
Continuous
 62
     7
370
     0
100
AcDbLine
 10
10.629927
 20
0.3920731707
 30
0.0
 11
0.329927
 21
0.3920731707
 31
0.0
  0
LINE
  5
33
330
1F
100
AcDbEntity
  8
0
  6
Continuous
 62
     7
370
     0
100
AcDbLine
 10
10.629927
 20
0.3920731707
 30
0.0
 11
10.629927
 21
8.1920731707
 31
0.0
  0
LINE
  5
34
330
1F
100
AcDbEntity
  8
0
  6
Continuous
 62
     7
370
     0
100
AcDbLine
 10
7.8832069922
 20
1.2010186622
 30
0.0
 11
6.3491817542
 21
1.2010186622
 31
0.0
  0
LINE
  5
35
330
1F
100
AcDbEntity
  8
0
  6
Continuous
 62
     7
370
     0
100
AcDbLine
 10
6.3491817542
 20
0.3920731707
 30
0.0
 11
6.3491817542
 21
1.6988536355
 31
0.0
  0
LINE
  5
36
330
1F
100
AcDbEntity
  8
0
  6
Continuous
 62
     7
370
     0
100
AcDbLine
 10
7.8832069922
 20
1.270166923
 30
0.0
 11
10.629927
 21
1.270166923
 31
0.0
  0
LINE
  5
37
330
1F
100
AcDbEntity
  8
0
  6
Continuous
 62
     7
370
     0
100
AcDbLine
 10
7.8832069922
 20
1.9437769943
 30
0.0
 11
7.8832069922
 21
0.3920731707
 31
0.0
  0
LINE
  5
38
330
1F
100
AcDbEntity
  8
0
  6
Continuous
 62
     7
370
     0
100
AcDbLine
 10
7.8832069922
 20
1.323339557
 30
0.0
 11
6.3491817542
 21
1.323339557
 31
0.0
  0
LINE
  5
39
330
1F
100
AcDbEntity
  8
0
  6
Continuous
 62
     7
370
     0
100
AcDbLine
 10
7.8832069922
 20
1.6988536355
 30
0.0
 11
6.3491817542
 21
1.6988536355
 31
0.0
  0
LINE
  5
3A
330
1F
100
AcDbEntity
  8
0
  6
Continuous
 62
     7
370
     0
100
AcDbLine
 10
7.8832069922
 20
0.7890359178
 30
0.0
 11
10.629927
 21
0.7890359178
 31
0.0
  0
LINE
  5
3B
330
1F
100
AcDbEntity
  8
0
  6
Continuous
 62
     7
370
     0
100
AcDbLine
 10
7.8832069922
 20
1.4456604517
 30
0.0
 11
6.3491817542
 21
1.4456604517
 31
0.0
  0
LINE
  5
3C
330
1F
100
AcDbEntity
  8
0
  6
Continuous
 62
     7
370
     0
100
AcDbLine
 10
7.8832069922
 20
1.5679813464
 30
0.0
 11
6.3491817542
 21
1.5679813464
 31
0.0
  0
LINE
  5
3D
330
1F
100
AcDbEntity
  8
0
  6
Continuous
 62
     7
370
     0
100
AcDbLine
 10
6.9294188505
 20
1.6988536355
 30
0.0
 11
6.9294188505
 21
1.2010186622
 31
0.0
  0
LINE
  5
3E
330
1F
100
AcDbEntity
  8
0
  6
Continuous
 62
     7
370
     0
100
AcDbLine
 10
7.2989435727
 20
1.6988536355
 30
0.0
 11
7.2989435727
 21
1.2010186622
 31
0.0
  0
LINE
  5
3F
330
1F
100
AcDbEntity
  8
0
  6
Continuous
 62
     7
370
     0
100
AcDbLine
 10
8.9000563418
 20
0.7890359178
 30
0.0
 11
8.9000563418
 21
0.3920731707
 31
0.0
  0
LINE
  5
40
330
1F
100
AcDbEntity
  8
0
  6
Continuous
 62
     7
370
     0
100
AcDbLine
 10
9.3113942988
 20
0.96139916
 30
0.0
 11
9.3113942988
 21
0.7890359178
 31
0.0
  0
LINE
  5
41
330
1F
100
AcDbEntity
  8
0
  6
Continuous
 62
     7
370
     0
100
AcDbLine
 10
10.0324602448
 20
1.270166923
 30
0.0
 11
10.0324602448
 21
0.96139916
 31
0.0
  0
LINE
  5
42
330
1F
100
AcDbEntity
  8
0
  6
Continuous
 62
     7
370
     0
100
AcDbLine
 10
6.3491817542
 20
1.0381709011
 30
0.0
 11
7.8832069922
 21
1.0381709011
 31
0.0
  0
LINE
  5
43
330
1F
100
AcDbEntity
  8
0
  6
Continuous
 62
     7
370
     0
100
AcDbLine
 10
7.8832069922
 20
1.9437769943
 30
0.0
 11
10.629927
 21
1.9437769943
 31
0.0
  0
LINE
  5
44
330
1F
100
AcDbEntity
  8
0
  6
Continuous
 62
     7
370
     0
100
AcDbLine
 10
10.315241862
 20
1.2693980507
 30
0.0
 11
10.315241862
 21
0.96139916
 31
0.0
  0
LINE
  5
45
330
1F
100
AcDbEntity
  8
0
  6
Continuous
 62
     7
370
     0
100
AcDbLine
 10
7.8832069922
 20
0.96139916
 30
0.0
 11
10.629927
 21
0.96139916
 31
0.0
  0
LINE
  5
46
330
1F
100
AcDbEntity
  8
0
  6
Continuous
 62
     7
370
     0
100
AcDbLine
 10
10.629927
 20
1.9437769943
 30
0.0
 11
10.629927
 21
1.9698084888
 31
0.0
  0
LINE
  5
47
330
1F
100
AcDbEntity
  8
0
  6
Continuous
 62
     7
370
     0
100
AcDbLine
 10
7.8832069922
 20
1.6268095213
 30
0.0
 11
10.629927
 21
1.6268095213
 31
0.0
  0
LINE
  5
48
330
1F
100
AcDbEntity
  8
0
  6
Continuous
 62
     7
370
     0
100
AcDbLine
 10
6.692177
 20
0.3920731707
 30
0.0
 11
6.692177
 21
0.3072739649
 31
0.0
  0
LINE
  5
49
330
1F
100
AcDbEntity
  8
0
  6
Continuous
 62
     7
370
     0
100
AcDbLine
 10
2.754677
 20
0.3920731707
 30
0.0
 11
2.754677
 21
0.3072739649
 31
0.0
  0
LINE
  5
4A
330
1F
100
AcDbEntity
  8
0
  6
Continuous
 62
     7
370
     0
100
AcDbLine
 10
2.754677
 20
0.3920731707
 30
0.0
 11
2.7672319738
 21
0.3575
 31
0.0
  0
LINE
  5
4B
330
1F
100
AcDbEntity
  8
0
  6
Continuous
 62
     7
370
     0
100
AcDbLine
 10
2.7672319738
 20
0.3575
 30
0.0
 11
2.7414258825
 21
0.3575
 31
0.0
  0
LINE
  5
4C
330
1F
100
AcDbEntity
  8
0
  6
Continuous
 62
     7
370
     0
100
AcDbLine
 10
2.7414258825
 20
0.3575
 30
0.0
 11
2.754677
 21
0.3920731707
 31
0.0
  0
MTEXT
  5
4E
330
1F
100
AcDbEntity
  8
0
  6
Continuous
 62
     7
370
     0
100
AcDbMText
 10
10.4043270877
 20
1.1203120088
 30
0.0
 40
0.1041666667
 41
0.0
 71
     1
 72
     1
  1
C
  7
SLDTEXTSTYLE0
 73
     1
 44
1.0
  0
MTEXT
  5
4F
330
1F
100
AcDbEntity
  8
0
  6
Continuous
 62
     7
370
     0
100
AcDbMText
 10
1.7387909509
 20
0.3094873007
 30
0.0
 40
0.09375
 41
0.0
 71
     1
 72
     1
  1
5
  7
SLDTEXTSTYLE0
 73
     1
 44
1.0
  0
MTEXT
  5
50
330
1F
100
AcDbEntity
  8
0
  6
Continuous
 62
     7
370
     0
100
AcDbMText
 10
3.723800327
 20
0.3126246278
 30
0.0
 40
0.09375
 41
0.0
 71
     1
 72
     1
  1
4
  7
SLDTEXTSTYLE0
 73
     1
 44
1.0
  0
MTEXT
  5
51
330
1F
100
AcDbEntity
  8
0
  6
Continuous
 62
     7
370
     0
100
AcDbMText
 10
5.6324457277
 20
0.3105200602
 30
0.0
 40
0.09375
 41
0.0
 71
     1
 72
     1
  1
3
  7
SLDTEXTSTYLE0
 73
     1
 44
1.0
  0
MTEXT
  5
52
330
1F
100
AcDbEntity
  8
0
  6
Continuous
 62
     7
370
     0
100
AcDbMText
 10
7.6059721724
 20
0.3113400111
 30
0.0
 40
0.09375
 41
0.0
 71
     1
 72
     1
  1
2
  7
SLDTEXTSTYLE0
 73
     1
 44
1.0
  0
MTEXT
  5
53
330
1F
100
AcDbEntity
  8
0
  6
Continuous
 62
     7
370
     0
100
AcDbMText
 10
9.6619921328
 20
0.300272888
 30
0.0
 40
0.09375
 41
0.0
 71
     1
 72
     1
  1
1
  7
SLDTEXTSTYLE0
 73
     1
 44
1.0
  0
MTEXT
  5
54
330
1F
100
AcDbEntity
  8
0
  6
Continuous
 62
     7
370
     0
100
AcDbMText
 10
8.9308081577
 20
0.5574111891
 30
0.0
 40
0.09375
 41
0.0
 71
     1
 72
     1
  1
MAP1040100-1-CT-ENGRAVE
  7
SLDTEXTSTYLE0
 73
     1
 44
1.0
  0
MTEXT
  5
55
330
1F
100
AcDbEntity
  8
0
  6
Continuous
 62
     7
370
     0
100
AcDbMText
 10
7.9301743649
 20
1.2499730493
 30
0.0
 40
0.0833333333
 41
0.0
 71
     1
 72
     1
  1
MATERIAL:
  7
SLDTEXTSTYLE0
 73
     1
 44
1.0
  0
MTEXT
  5
57
330
1F
100
AcDbEntity
  8
0
  6
Continuous
 62
     7
370
     0
100
AcDbMText
 10
8.9438302275
 20
0.7457341193
 30
0.0
 40
0.0833333333
 41
0.0
 71
     1
 72
     1
  1
PART  NO.
  7
SLDTEXTSTYLE1
 73
     1
 44
1.0
  0
MTEXT
  5
59
330
1F
100
AcDbEntity
  8
0
  6
Continuous
 62
     7
370
     0
100
AcDbMText
 10
6.3927073562
 20
1.1440291591
 30
0.0
 40
0.06
 41
0.0
 71
     1
 72
     1
  1
PROPRIETARY AND CONFIDENTIAL
  7
SLDTEXTSTYLE2
 73
     1
 44
1.0
  0
MTEXT
  5
5A
330
1F
100
AcDbEntity
  8
0
  6
Continuous
 62
     7
370
     0
100
AcDbMText
 10
6.4985660702
 20
1.5406501707
 30
0.0
 40
0.065
 41
0.0
 71
     1
 72
     1
  1
DRAWN
  7
SLDTEXTSTYLE0
 73
     1
 44
1.0
  0
MTEXT
  5
5B
330
1F
100
AcDbEntity
  8
0
  6
Continuous
 62
     7
370
     0
100
AcDbMText
 10
6.4369653776
 20
1.4183941661
 30
0.0
 40
0.065
 41
0.0
 71
     1
 72
     1
  1
ENG APPR.
  7
SLDTEXTSTYLE0
 73
     1
 44
1.0
  0
MTEXT
  5
5C
330
1F
100
AcDbEntity
  8
0
  6
Continuous
 62
     7
370
     0
100
AcDbMText
 10
6.4273055419
 20
1.298296273
 30
0.0
 40
0.065
 41
0.0
 71
     1
 72
     1
  1
MFG APPR.
  7
SLDTEXTSTYLE0
 73
     1
 44
1.0
  0
MTEXT
  5
5D
330
1F
100
AcDbEntity
  8
0
  6
Continuous
 62
     7
370
     0
100
AcDbMText
 10
6.9752663896
 20
1.6608078346
 30
0.0
 40
0.065
 41
0.0
 71
     1
 72
     1
  1
NAME
  7
SLDTEXTSTYLE0
 73
     1
 44
1.0
  0
MTEXT
  5
5E
330
1F
100
AcDbEntity
  8
0
  6
Continuous
 62
     7
370
     0
100
AcDbMText
 10
7.9386050459
 20
1.5661804433
 30
0.0
 40
0.1
 41
0.0
 71
     1
 72
     1
  1
TITLE:
  7
SLDTEXTSTYLE0
 73
     1
 44
1.0
  0
MTEXT
  5
5F
330
1F
100
AcDbEntity
  8
0
  6
Continuous
 62
     7
370
     0
100
AcDbMText
 10
10.0657693915
 20
1.2262994671
 30
0.0
 40
0.0833333333
 41
0.0
 71
     1
 72
     1
  1
SIZE
  7
SLDTEXTSTYLE0
 73
     1
 44
1.0
  0
MTEXT
  5
60
330
1F
100
AcDbEntity
  8
0
  6
Continuous
 62
     7
370
     0
100
AcDbMText
 10
10.1162261111
 20
1.1164461388
 30
0.0
 40
0.1041666667
 41
0.0
 71
     1
 72
     1
  1
A
  7
SLDTEXTSTYLE0
 73
     1
 44
1.0
  0
MTEXT
  5
61
330
1F
100
AcDbEntity
  8
0
  6
Continuous
 62
     7
370
     0
100
AcDbMText
 10
10.335100974
 20
1.2278993505
 30
0.0
 40
0.0833333333
 41
0.0
 71
     1
 72
     1
  1
REV.
  7
SLDTEXTSTYLE0
 73
     1
 44
1.0
  0
MTEXT
  5
62
330
1F
100
AcDbEntity
  8
0
  6
Continuous
 62
     7
370
     0
100
AcDbMText
 10
8.3227727705
 20
0.9309786574
 30
0.0
 40
0.0833333333
 41
0.0
 71
     1
 72
     1
  1
SCALE: 1:1
  7
SLDTEXTSTYLE0
 73
     1
 44
1.0
  0
MTEXT
  5
64
330
1F
100
AcDbEntity
  8
0
  6
Continuous
 62
     7
370
     0
100
AcDbMText
 10
9.6378279873
 20
0.926579063
 30
0.0
 40
0.0833333333
 41
0.0
 71
     1
 72
     1
  1
SHEET 1 OF 1
  7
SLDTEXTSTYLE3
 73
     1
 44
1.0
  0
MTEXT
  5
65
330
1F
100
AcDbEntity
  8
0
  6
Continuous
 62
     7
370
     0
100
AcDbMText
 10
8.0557405306
 20
0.5735646172
 30
0.0
 40
0.1041666667
 41
0.0
 71
     1
 72
     1
  1
13325-E01
  7
SLDTEXTSTYLE0
 73
     1
 44
1.0
  0
INSERT
  5
75
330
1F
100
AcDbEntity
  8
0
  6
Continuous
 62
     7
370
     0
100
AcDbBlockReference
  2
SW_NOTE_0
 10
6.3891646717
 20
0.9312082413
 30
0.0
  0
MTEXT
  5
76
330
1F
100
AcDbEntity
  8
0
  6
Continuous
 62
     7
370
     0
100
AcDbMText
 10
7.9076399399
 20
0.7468305835
 30
0.0
 40
0.0833333333
 41
0.0
 71
     1
 72
     1
  1
DWG.  NO.
  7
SLDTEXTSTYLE1
 73
     1
 44
1.0
  0
MTEXT
  5
77
330
1F
100
AcDbEntity
  8
0
  6
Continuous
 62
     7
370
     0
100
AcDbMText
 10
7.0592138229
 20
1.5434434118
 30
0.0
 40
0.065
 41
0.0
 71
     1
 72
     1
  1
AP
  7
SLDTEXTSTYLE0
 73
     1
 44
1.0
  0
MTEXT
  5
78
330
1F
100
AcDbEntity
  8
0
  6
Continuous
 62
     7
370
     0
100
AcDbMText
 10
7.0628716471
 20
1.4267005168
 30
0.0
 40
0.065
 41
0.0
 71
     1
 72
     1
  1
TO
  7
SLDTEXTSTYLE0
 73
     1
 44
1.0
  0
MTEXT
  5
79
330
1F
100
AcDbEntity
  8
0
  6
Continuous
 62
     7
370
     0
100
AcDbMText
 10
7.0636219211
 20
1.3041261123
 30
0.0
 40
0.065
 41
0.0
 71
     1
 72
     1
  1
TO
  7
SLDTEXTSTYLE0
 73
     1
 44
1.0
  0
MTEXT
  5
7A
330
1F
100
AcDbEntity
  8
0
  6
Continuous
 62
     7
370
     0
100
AcDbMText
 10
7.3775562039
 20
1.5451308061
 30
0.0
 40
0.065
 41
0.0
 71
     1
 72
     1
  1
04/14/06
  7
SLDTEXTSTYLE0
 73
     1
 44
1.0
  0
MTEXT
  5
7B
330
1F
100
AcDbEntity
  8
0
  6
Continuous
 62
     7
370
     0
100
AcDbMText
 10
7.4731545031
 20
1.6582684693
 30
0.0
 40
0.065
 41
0.0
 71
     1
 72
     1
  1
DATE
  7
SLDTEXTSTYLE0
 73
     1
 44
1.0
  0
MTEXT
  5
7C
330
1F
100
AcDbEntity
  8
0
  6
Continuous
 62
     7
370
     0
100
AcDbMText
 10
7.3821011998
 20
1.4184142209
 30
0.0
 40
0.065
 41
0.0
 71
     1
 72
     1
  1
04/14/06
  7
SLDTEXTSTYLE0
 73
     1
 44
1.0
  0
MTEXT
  5
7D
330
1F
100
AcDbEntity
  8
0
  6
Continuous
 62
     7
370
     0
100
AcDbMText
 10
7.3821011998
 20
1.2979456571
 30
0.0
 40
0.065
 41
0.0
 71
     1
 72
     1
  1
04/14/06
  7
SLDTEXTSTYLE0
 73
     1
 44
1.0
  0
MTEXT
  5
7E
330
1F
100
AcDbEntity
  8
0
  6
Continuous
 62
     7
370
     0
100
AcDbMText
 10
7.9182509893
 20
1.8945248266
 30
0.0
 40
0.1875
 41
0.0
 71
     1
 72
     1
  1
THORLABS INC.
  7
SLDTEXTSTYLE0
 73
     1
 44
1.0
  0
INSERT
  5
85
330
1F
100
AcDbEntity
  8
0
  6
Continuous
 62
     7
370
     0
100
AcDbBlockReference
  2
SW_NOTE_1
 10
9.7899715108
 20
1.7786954532
 30
0.0
  0
INSERT
  5
8C
330
1F
100
AcDbEntity
  8
0
  6
Continuous
 62
     7
370
     0
100
AcDbBlockReference
  2
SW_NOTE_2
 10
8.391173417
 20
1.4616600239
 30
0.0
  0
MTEXT
  5
8D
330
1F
100
AcDbEntity
  8
0
  6
Continuous
 62
     7
370
     0
100
AcDbMText
 10
8.3691642187
 20
1.131481397
 30
0.0
 40
0.1041666667
 41
0.0
 71
     1
 72
     1
  1
SEE TABLE
  7
SLDTEXTSTYLE0
 73
     1
 44
1.0
  0
INSERT
  5
9D
330
1F
100
AcDbEntity
  8
0
  6
Continuous
 62
     7
370
     0
100
AcDbBlockReference
  2
SW_NOTE_3
 10
0.6866182535
 20
1.8483387121
 30
0.0
  0
MTEXT
  5
9E
330
1F
100
AcDbEntity
  8
0
  6
Continuous
 62
     7
370
     0
100
AcDbMText
 10
0.7056263088
 20
2.1546574082
 30
0.0
 40
0.09
 41
0.0
 71
     1
 72
     1
  1
SPECIFICATIONS:
  7
SLDTEXTSTYLE0
 73
     1
 44
1.0
  0
INSERT
  5
A5
330
1F
100
AcDbEntity
  8
0
  6
Continuous
 62
     7
370
     0
100
AcDbBlockReference
  2
SW_NOTE_4
 10
0.3800324519
 20
0.5883491839
 30
0.0
  0
INSERT
  5
C2
330
1F
100
AcDbEntity
  8
0
  6
Continuous
 62
     7
370
     0
100
AcDbBlockReference
  2
SW_TABLEANNOTATION_0
 10
0.3174104478
 20
8.1967910448
 30
0.0
  0
CIRCLE
  5
C3
330
1F
100
AcDbEntity
  8
0
  6
Continuous
 62
     7
370
     0
100
AcDbCircle
 10
1.7907825973
 20
4.5341567224
 30
0.0
 40
0.5060000000000016
  0
CIRCLE
  5
C4
330
1F
100
AcDbEntity
  8
0
  6
Continuous
 62
     7
370
     0
100
AcDbCircle
 10
1.7907825973
 20
4.5341567224
 30
0.0
 40
0.5160000000000013
  0
CIRCLE
  5
C5
330
1F
100
AcDbEntity
  8
0
  6
Continuous
 62
     7
370
     0
100
AcDbCircle
 10
1.7907825973
 20
4.5341567224
 30
0.0
 40
0.5900000000000013
  0
CIRCLE
  5
C6
330
1F
100
AcDbEntity
  8
0
  6
Continuous
 62
     7
370
     0
100
AcDbCircle
 10
1.7907825973
 20
4.5341567224
 30
0.0
 40
0.6000000000000016
  0
ARC
  5
C7
330
1F
100
AcDbEntity
  8
0
  6
Continuous
 62
     7
370
     0
100
AcDbCircle
 10
1.7907825973
 20
4.5341567224
 30
0.0
 40
0.5001794919243118
100
AcDbArc
 50
266.6204299882
 51
84.9021090343
  0
SPLINE
  5
C8
330
1F
100
AcDbEntity
  8
0
  6
Continuous
 62
     7
370
     0
100
AcDbSpline
210
0.0
220
0.0
230
1.0
 70
    24
 71
     1
 72
     4
 73
     2
 74
     0
 42
0.00000001
 43
0.00000001
 40
0.0
 40
0.0
 40
1.0
 40
1.0
 10
1.760930938156864
 20
4.029910651280677
 30
0.0
 10
1.761296803097028
 20
4.034847082587935
 30
0.0
  0
SPLINE
  5
C9
330
1F
100
AcDbEntity
  8
0
  6
Continuous
 62
     7
370
     0
100
AcDbSpline
210
0.0
220
0.0
230
1.0
 70
    24
 71
     1
 72
     4
 73
     2
 74
     0
 42
0.00000001
 43
0.00000001
 40
0.0
 40
0.0
 40
1.0
 40
1.0
 10
1.835227361544908
 20
5.032357670927164
 30
0.0
 10
1.835579852472902
 20
5.037113649319029
 30
0.0
  0
ARC
  5
CA
330
1F
100
AcDbEntity
  8
0
  6
Continuous
 62
     7
370
     0
100
AcDbCircle
 10
1.7907825973
 20
4.5341567224
 30
0.0
 40
0.4500000000000003
100
AcDbArc
 50
266.716243385
 51
84.8062956375
  0
LINE
  5
CB
330
1F
100
AcDbEntity
  8
0
  6
Continuous
 62
     7
370
     0
100
AcDbLine
 10
1.7612968031
 20
4.0348470826
 30
0.0
 11
1.7650061505
 21
4.0848955878
 31
0.0
  0
LINE
  5
CC
330
1F
100
AcDbEntity
  8
0
  6
Continuous
 62
     7
370
     0
100
AcDbLine
 10
1.8352273615
 20
5.0323576709
 30
0.0
 11
1.8315180165
 21
4.9823092024
 31
0.0
  0
ARC
  5
CD
330
1F
100
AcDbEntity
  8
0
  6
Continuous
 62
     7
370
     0
100
AcDbCircle
 10
1.7907825973
 20
4.5341567224
 30
0.0
 40
0.4500000000000003
100
AcDbArc
 50
86.716243385
 51
264.8062956375
  0
ARC
  5
CE
330
1F
100
AcDbEntity
  8
0
  6
Continuous
 62
     7
370
     0
100
AcDbCircle
 10
1.7907825973
 20
4.5341567224
 30
0.0
 40
0.5001794919243127
100
AcDbArc
 50
86.6204299882
 51
264.9021090343
  0
LINE
  5
CF
330
1F
100
AcDbEntity
  8
0
  6
Continuous
 62
     7
370
     0
100
AcDbLine
 10
1.8202683914
 20
5.0334663848
 30
0.0
 11
1.8165590441
 21
4.983417843
 31
0.0
  0
LINE
  5
D0
330
1F
100
AcDbEntity
  8
0
  6
Continuous
 62
     7
370
     0
100
AcDbLine
 10
1.746337833
 20
4.0359557781
 30
0.0
 11
1.7500471781
 21
4.0860042649
 31
0.0
  0
SPLINE
  5
D1
330
1F
100
AcDbEntity
  8
0
  6
Continuous
 62
     7
370
     0
100
AcDbSpline
210
0.0
220
0.0
230
1.0
 70
    24
 71
     1
 72
     4
 73
     2
 74
     0
 42
0.00000001
 43
0.00000001
 40
0.0
 40
0.0
 40
1.0
 40
1.0
 10
1.820626256259789
 20
5.038294889006581
 30
0.0
 10
1.82026839143554
 20
5.033466384785874
 30
0.0
  0
SPLINE
  5
D2
330
1F
100
AcDbEntity
  8
0
  6
Continuous
 62
     7
370
     0
100
AcDbSpline
210
0.0
220
0.0
230
1.0
 70
    24
 71
     1
 72
     4
 73
     2
 74
     0
 42
0.00000001
 43
0.00000001
 40
0.0
 40
0.0
 40
1.0
 40
1.0
 10
1.74633783298766
 20
4.035955778113522
 30
0.0
 10
1.745987184538381
 20
4.031224659434476
 30
0.0
  0
ARC
  5
D3
330
1F
100
AcDbEntity
  8
0
  6
Continuous
 62
     7
370
     0
100
AcDbCircle
 10
1.7907825973
 20
4.5341567224
 30
0.0
 40
0.4500000000000003
100
AcDbArc
 50
264.8062956375
 51
266.716243385
  0
ARC
  5
D4
330
1F
100
AcDbEntity
  8
0
  6
Continuous
 62
     7
370
     0
100
AcDbCircle
 10
1.7907825973
 20
4.5341567224
 30
0.0
 40
0.4500000000000003
100
AcDbArc
 50
84.8062956375
 51
86.716243385
  0
DIMENSION
  5
D5
330
1F
100
AcDbEntity
  8
0
  6
Continuous
 62
     7
370
     0
100
AcDbDimension
  2
*D7
 10
1.6580542163
 20
3.9490215441
 30
0.0
 11
2.6056446486
 21
5.6136040934
 31
0.0
 70
   163
  1
<>
 71
     1
 42
-1.0
  3
SLDDIMSTYLE0
100
AcDbDiametricDimension
 15
1.9235109782
 25
5.1192919008
 35
0.0
 40
0.0
  0
LINE
  5
E6
330
1F
100
AcDbEntity
  8
0
  6
PHANTOM
 62
     7
370
    15
100
AcDbLine
 10
1.7907825973
 20
5.3316938144
 30
0.0
 11
1.7907825973
 21
3.7623466334
 31
0.0
  0
LINE
  5
E7
330
1F
100
AcDbEntity
  8
0
  6
Continuous
 62
     7
370
    15
100
AcDbLine
 10
1.7907825973
 20
5.3316938144
 30
0.0
 11
1.3207825973
 21
5.3316938144
 31
0.0
  0
SOLID
  5
E8
330
1F
100
AcDbEntity
  8
0
  6
Continuous
 62
     7
370
    15
100
AcDbTrace
 10
1.3207825973
 20
5.3316938144
 30
0.0
 11
1.5607825973
 21
5.2716938144
 31
0.0
 12
1.5607825973
 22
5.3916938144
 32
0.0
 13
1.5607825973
 23
5.3916938144
 33
0.0
  0
LINE
  5
E9
330
1F
100
AcDbEntity
  8
0
  6
Continuous
 62
     7
370
    15
100
AcDbLine
 10
1.7907825973
 20
3.7623466334
 30
0.0
 11
1.3207825973
 21
3.7623466334
 31
0.0
  0
SOLID
  5
EA
330
1F
100
AcDbEntity
  8
0
  6
Continuous
 62
     7
370
    15
100
AcDbTrace
 10
1.3207825973
 20
3.7623466334
 30
0.0
 11
1.5607825973
 21
3.7023466334
 31
0.0
 12
1.5607825973
 22
3.8223466334
 32
0.0
 13
1.5607825973
 23
3.8223466334
 33
0.0
  0
MTEXT
  5
EB
330
1F
100
AcDbEntity
  8
0
  6
Continuous
 62
     7
100
AcDbMText
 10
1.1330549708
 20
5.4475319467
 30
0.0
 40
0.1458333333
 41
0.0
 71
     1
 72
     1
  1
A
  7
SLDTEXTSTYLE0
 73
     1
 44
1.0
  0
MTEXT
  5
EC
330
1F
100
AcDbEntity
  8
0
  6
Continuous
 62
     7
100
AcDbMText
 10
1.1330549708
 20
3.8781847657
 30
0.0
 40
0.1458333333
 41
0.0
 71
     1
 72
     1
  1
A
  7
SLDTEXTSTYLE0
 73
     1
 44
1.0
  0
LINE
  5
ED
330
1F
100
AcDbEntity
  8
0
  6
Continuous
 62
     7
370
     0
100
AcDbLine
 10
7.0572335381
 20
7.0187046693
 30
0.0
 11
7.0572335381
 21
7.0105405882
 31
0.0
  0
LINE
  5
EE
330
1F
100
AcDbEntity
  8
0
  6
Continuous
 62
     7
370
     0
100
AcDbLine
 10
7.4743587334
 20
6.2879802659
 30
0.0
 11
7.4814286519
 21
6.2838975619
 31
0.0
  0
LINE
  5
EF
330
1F
100
AcDbEntity
  8
0
  6
Continuous
 62
     7
370
     0
100
AcDbLine
 10
7.3677744954
 20
7.4009328376
 30
0.0
 11
7.181521987
 21
7.2934115532
 31
0.0
  0
LINE
  5
F0
330
1F
100
AcDbEntity
  8
0
  6
Continuous
 62
     7
370
     0
100
AcDbLine
 10
7.481374821
 20
7.4665129097
 30
0.0
 11
7.4027913103
 21
7.4211476146
 31
0.0
  0
LINE
  5
F1
330
1F
100
AcDbEntity
  8
0
  6
Continuous
 62
     7
370
     0
100
AcDbLine
 10
8.0919123087
 20
7.8189686991
 30
0.0
 11
7.5215301503
 21
7.4896940879
 31
0.0
  0
LINE
  5
F2
330
1F
100
AcDbEntity
  8
0
  6
Continuous
 62
     7
370
     0
100
AcDbLine
 10
8.0027425498
 20
6.3818889797
 30
0.0
 11
8.6918635483
 21
6.7797100642
 31
0.0
  0
LINE
  5
F3
330
1F
100
AcDbEntity
  8
0
  6
Continuous
 62
     7
370
     0
100
AcDbLine
 10
7.7814732266
 20
6.2541529183
 30
0.0
 11
7.9449801907
 21
6.3485434796
 31
0.0
  0
LINE
  5
F4
330
1F
100
AcDbEntity
  8
0
  6
Continuous
 62
     7
370
     0
100
AcDbLine
 10
8.8161519972
 20
7.0544169481
 30
0.0
 11
8.8161519972
 21
7.0625810292
 31
0.0
  0
LINE
  5
F5
330
1F
100
AcDbEntity
  8
0
  6
Continuous
 62
     7
370
     0
100
AcDbLine
 10
8.3990268019
 20
7.7851413515
 30
0.0
 11
8.3919568833
 21
7.7892240556
 31
0.0
  0
LINE
  5
F6
330
1F
100
AcDbEntity
  8
0
  6
Continuous
 62
     7
370
     0
100
AcDbLine
 10
7.4027913103
 20
7.4211476146
 30
0.0
 11
7.3677744954
 21
7.4009328376
 31
0.0
  0
LINE
  5
F7
330
1F
100
AcDbEntity
  8
0
  6
Continuous
 62
     7
370
     0
100
AcDbLine
 10
7.9449801907
 20
6.3485434796
 30
0.0
 11
8.0027425498
 21
6.3818889797
 31
0.0
  0
LINE
  5
F8
330
1F
100
AcDbEntity
  8
0
  6
Continuous
 62
     7
370
     0
100
AcDbLine
 10
7.5215301503
 20
7.4896940879
 30
0.0
 11
7.481374821
 21
7.4665129097
 31
0.0
  0
LWPOLYLINE
  5
F9
330
1F
100
AcDbEntity
  8
0
  6
Continuous
 62
     7
370
     0
100
AcDbPolyline
 90
       83
 70
   128
 43
0.0
 10
7.8916021827
 20
6.5244753037
 10
7.8906694191
 20
6.5619034343
 10
7.8872939767
 20
6.6005509989
 10
7.8814956641
 20
6.6401911983
 10
7.873308508
 20
6.6805914079
 10
7.8627805538
 20
6.7215145434
 10
7.8499735839
 20
6.7627204514
 10
7.8349627546
 20
6.8039673193
 10
7.8178361554
 20
6.8450130941
 10
7.7986942921
 20
6.8856169029
 10
7.7776494966
 20
6.9255404664
 10
7.7548252682
 20
6.9645494971
 10
7.7303555486
 20
7.0024150747
 10
7.7043839358
 20
7.0389149889
 10
7.6770628416
 20
7.0738350435
 10
7.648552597
 20
7.106970314
 10
7.6190205114
 20
7.1381263493
 10
7.5886398909
 20
7.1671203134
 10
7.557589021
 20
7.1937820582
 10
7.5260501206
 20
7.2179551221
 10
7.4942082725
 20
7.2394976478
 10
7.4622503374
 20
7.2582832152
 10
7.430363857
 20
7.2742015832
 10
7.398735954
 20
7.2871593364
 10
7.3675522334
 20
7.2970804337
 10
7.3369956937
 20
7.303906654
 10
7.3072456529
 20
7.3075979383
 10
7.278476696
 20
7.3081326249
 10
7.2508576507
 20
7.3055075758
 10
7.2245505965
 20
7.299738196
 10
7.1997099137
 20
7.2908583424
 10
7.1764813773
 20
7.2789201256
 10
7.1550013016
 20
7.2639936038
 10
7.1353957402
 20
7.2461663717
 10
7.1177797464
 20
7.2255430466
 10
7.1022566977
 20
7.2022446544
 10
7.0889176896
 20
7.1764079193
 10
7.0778410008
 20
7.1481844615
 10
7.0690916336
 20
7.1177399076
 10
7.0627209328
 20
7.0852529183
 10
7.0587662842
 20
7.0509141401
 10
7.0572508952
 20
7.0149250867
 10
7.0581836588
 20
6.9774969561
 10
7.0615591012
 20
6.9388493915
 10
7.0673574138
 20
6.8992091921
 10
7.07554457
 20
6.8588089825
 10
7.0860725241
 20
6.817885847
 10
7.098879494
 20
6.776679939
 10
7.1138903233
 20
6.7354330711
 10
7.1310169225
 20
6.6943872963
 10
7.1501587858
 20
6.6537834875
 10
7.1712035813
 20
6.613859924
 10
7.1940278097
 20
6.5748508933
 10
7.2184975293
 20
6.5369853157
 10
7.2444691421
 20
6.5004854015
 10
7.2717902363
 20
6.4655653469
 10
7.3003004809
 20
6.4324300764
 10
7.3298325665
 20
6.4012740411
 10
7.360213187
 20
6.372280077
 10
7.3912640569
 20
6.3456183322
 10
7.4228029573
 20
6.3214452683
 10
7.4546448054
 20
6.2999027426
 10
7.4866027405
 20
6.2811171752
 10
7.5184892209
 20
6.2651988072
 10
7.5501171239
 20
6.252241054
 10
7.5813008445
 20
6.2423199567
 10
7.6118573842
 20
6.2354937364
 10
7.641607425
 20
6.2318024521
 10
7.6703763819
 20
6.2312677655
 10
7.6979954272
 20
6.2338928146
 10
7.7243024814
 20
6.2396621944
 10
7.7491431642
 20
6.248542048
 10
7.7723717006
 20
6.2604802648
 10
7.7938517763
 20
6.2754067866
 10
7.8134573377
 20
6.2932340187
 10
7.8310733316
 20
6.3138573438
 10
7.8465963802
 20
6.337155736
 10
7.8599353883
 20
6.3629924711
 10
7.8710120771
 20
6.3912159289
 10
7.8797614443
 20
6.4216604828
 10
7.8861321451
 20
6.4541474721
 10
7.8900867937
 20
6.4884862503
 10
7.8916021827
 20
6.5244753037
  0
LWPOLYLINE
  5
FA
330
1F
100
AcDbEntity
  8
0
  6
Continuous
 62
     7
370
     0
100
AcDbPolyline
 90
       22
 70
   128
 43
0.0
 10
7.9057440241
 20
6.5244009902
 10
7.9042029506
 20
6.4878019528
 10
7.9001812741
 20
6.4528811614
 10
7.8937025953
 20
6.4198435451
 10
7.8848049337
 20
6.3888829818
 10
7.8735405044
 20
6.3601811604
 10
7.8599754115
 20
6.3339065146
 10
7.8441892603
 20
6.3102132344
 10
7.8262746902
 20
6.2892403614
 10
7.8063368312
 20
6.2711109728
 10
7.7844926864
 20
6.2559314591
 10
7.760870446
 20
6.2437908996
 10
7.7356087347
 20
6.23476054
 10
7.7088557982
 20
6.2288933741
 10
7.6807686335
 20
6.2262238327
 10
7.6515120672
 20
6.2267675817
 10
7.6212577884
 20
6.2305214302
 10
7.5901833413
 20
6.2374633492
 10
7.558471083
 20
6.2475526006
 10
7.5263071138
 20
6.2607299768
 10
7.4938801846
 20
6.2769181476
 10
7.4814286519
 20
6.2838975619
  0
LWPOLYLINE
  5
FB
330
1F
100
AcDbEntity
  8
0
  6
Continuous
 62
     7
370
     0
100
AcDbPolyline
 90
       43
 70
   128
 43
0.0
 10
7.0572335381
 20
7.0187046693
 10
7.0572511894
 20
7.0231634814
 10
7.0587922629
 20
7.0597625187
 10
7.0628139395
 20
7.0946833101
 10
7.0692926182
 20
7.1277209264
 10
7.0781902798
 20
7.1586814897
 10
7.0894547091
 20
7.1873833111
 10
7.1030198021
 20
7.2136579569
 10
7.1188059533
 20
7.2373512371
 10
7.1367205233
 20
7.2583241101
 10
7.1566583824
 20
7.2764534987
 10
7.1785025272
 20
7.2916330124
 10
7.2021247675
 20
7.3037735719
 10
7.2273864789
 20
7.3128039315
 10
7.2541394153
 20
7.3186710974
 10
7.28222658
 20
7.3213406388
 10
7.3114831464
 20
7.3207968898
 10
7.3417374252
 20
7.3170430413
 10
7.3728118723
 20
7.3101011223
 10
7.4045241305
 20
7.3000118709
 10
7.4366880997
 20
7.2868344947
 10
7.4691150289
 20
7.2706463239
 10
7.501614624
 20
7.251542357
 10
7.5339961644
 20
7.2296347038
 10
7.5660696224
 20
7.205051927
 10
7.5976467782
 20
7.1779382882
 10
7.6285423245
 20
7.1484529009
 10
7.6585749539
 20
7.1167687972
 10
7.687568423
 20
7.083071912
 10
7.7153525867
 20
7.047559992
 10
7.7417643963
 20
7.0104414353
 10
7.7666488569
 20
6.9719340682
 10
7.7898599366
 20
6.9322638675
 10
7.8112614235
 20
6.8916636334
 10
7.8307277252
 20
6.8503716245
 10
7.8481446057
 20
6.8086301586
 10
7.8634098559
 20
6.7666841912
 10
7.8764338931
 20
6.724779878
 10
7.8871402871
 20
6.6831631301
 10
7.8954662086
 20
6.6420781711
 10
7.9013627977
 20
6.6017661039
 10
7.904795451
 20
6.5624634958
 10
7.9057440241
 20
6.5244009902
  0
SPLINE
  5
FC
330
1F
100
AcDbEntity
  8
0
  6
Continuous
 62
     7
370
     0
100
AcDbSpline
210
0.0
220
0.0
230
1.0
 70
    24
 71
     1
 72
     4
 73
     2
 74
     0
 42
0.00000001
 43
0.00000001
 40
0.0
 40
0.0
 40
1.0
 40
1.0
 10
8.446811544224678
 20
7.654377090286033
 30
0.0
 10
8.46452748354564
 20
7.649858217744786
 30
0.0
  0
ARC
  5
FD
330
1F
100
AcDbEntity
  8
0
  6
Continuous
 62
     7
370
     0
100
AcDbCircle
 10
8.4291561348
 20
7.6168013803
 30
0.0
 40
0.0415168334726273
100
AcDbArc
 50
64.832938096
 51
112.9434663712
  0
SPLINE
  5
FE
330
1F
100
AcDbEntity
  8
0
  6
Continuous
 62
     7
370
     0
100
AcDbSpline
210
0.0
220
0.0
230
1.0
 70
     8
 71
     3
 72
    13
 73
     9
 74
     0
 42
0.00000001
 43
0.00000001
 40
0.0
 40
0.0
 40
0.0
 40
0.0
 40
0.2505394783771106
 40
0.499687627264414
 40
0.6251017812162438
 40
0.7498743002531577
 40
0.8749192415306258
 40
1.0
 40
1.0
 40
1.0
 40
1.0
 10
8.41834828941893
 20
7.625178296857711
 30
0.0
 10
8.415877066618757
 20
7.627629868367338
 30
0.0
 10
8.410948344544858
 20
7.632519396990333
 30
0.0
 10
8.406685567777005
 20
7.639461521809113
 30
0.0
 10
8.40599265507261
 20
7.645070398635455
 30
0.0
 10
8.406972937204232
 20
7.649000273803066
 30
0.0
 10
8.409217456021025
 20
7.652500564886151
 30
0.0
 10
8.411720320276967
 20
7.654189317386482
 30
0.0
 10
8.412971931605973
 20
7.655033814548597
 30
0.0
  0
ARC
  5
FF
330
1F
100
AcDbEntity
  8
0
  6
Continuous
 62
     7
370
     0
100
AcDbCircle
 10
8.4455781121
 20
7.6464908665
 30
0.0
 40
0.034578734348586
100
AcDbArc
 50
218.0500093438
 51
291.0373393708
  0
SPLINE
  5
100
330
1F
100
AcDbEntity
  8
0
  6
Continuous
 62
     7
370
     0
100
AcDbSpline
210
0.0
220
0.0
230
1.0
 70
    24
 71
     1
 72
     4
 73
     2
 74
     0
 42
0.00000001
 43
0.00000001
 40
0.0
 40
0.0
 40
1.0
 40
1.0
 10
8.444461903888227
 20
7.629872261881107
 30
0.0
 10
8.457991057634429
 20
7.614216919559676
 30
0.0
  0
ARC
  5
101
330
1F
100
AcDbEntity
  8
0
  6
Continuous
 62
     7
370
     0
100
AcDbCircle
 10
8.4379649868
 20
7.6419219943
 30
0.0
 40
0.0136896305379035
100
AcDbArc
 50
227.6728182364
 51
298.3324459915
  0
SPLINE
  5
102
330
1F
100
AcDbEntity
  8
0
  6
Continuous
 62
     7
370
     0
100
AcDbSpline
210
0.0
220
0.0
230
1.0
 70
     8
 71
     3
 72
    12
 73
     8
 74
     0
 42
0.00000001
 43
0.00000001
 40
0.0
 40
0.0
 40
0.0
 40
0.0
 40
0.2494023648056529
 40
0.4991486310883431
 40
0.7488658669771225
 40
0.87435467340247
 40
1.0
 40
1.0
 40
1.0
 40
1.0
 10
8.428601545805336
 20
7.641524831361288
 30
0.0
 10
8.427837430420063
 20
7.640940200322222
 30
0.0
 10
8.426308146009108
 20
7.639770132095047
 30
0.0
 10
8.425772939930841
 20
7.637085017951623
 30
0.0
 10
8.426407555401228
 20
7.634757090903439
 30
0.0
 10
8.427582061858887
 20
7.633003023460883
 30
0.0
 10
8.428358453737692
 20
7.632201900887252
 30
0.0
 10
8.428746891621488
 20
7.6318010899493
 30
0.0
  0
ARC
  5
103
330
1F
100
AcDbEntity
  8
0
  6
Continuous
 62
     7
370
     0
100
AcDbCircle
 10
8.4375581307
 20
7.6145917684
 30
0.0
 40
0.0283832748733962
100
AcDbArc
 50
59.9298072301
 51
108.3945357727
  0
ARC
  5
104
330
1F
100
AcDbEntity
  8
0
  6
Continuous
 62
     7
370
     0
100
AcDbCircle
 10
8.4793829277
 20
7.6985643831
 30
0.0
 40
0.0655088041871015
100
AcDbArc
 50
245.0792627846
 51
287.1658798653
  0
ARC
  5
105
330
1F
100
AcDbEntity
  8
0
  6
Continuous
 62
     7
370
     0
100
AcDbCircle
 10
7.8958851062
 20
7.0542355611
 30
0.0
 40
0.8377504038838365
100
AcDbArc
 50
43.9798304104
 51
48.2418623495
  0
LINE
  5
106
330
1F
100
AcDbEntity
  8
0
  6
Continuous
 62
     7
370
     0
100
AcDbLine
 10
8.4409485386
 20
7.6717376737
 30
0.0
 11
8.4538165046
 21
7.6791661923
 31
0.0
  0
ARC
  5
107
330
1F
100
AcDbEntity
  8
0
  6
Continuous
 62
     7
370
     0
100
AcDbCircle
 10
7.8970782373
 20
7.0619772436
 30
0.0
 40
0.8170695728517107
100
AcDbArc
 50
46.0131560136
 51
48.2689222449
  0
LINE
  5
108
330
1F
100
AcDbEntity
  8
0
  6
Continuous
 62
     7
370
     0
100
AcDbLine
 10
8.3600663732
 20
7.6942073791
 30
0.0
 11
8.372658843
 21
7.7014768572
 31
0.0
  0
ARC
  5
109
330
1F
100
AcDbEntity
  8
0
  6
Continuous
 62
     7
370
     0
100
AcDbCircle
 10
7.919518658
 20
7.1057612089
 30
0.0
 40
0.7350858348750335
100
AcDbArc
 50
49.0237175739
 51
53.1791706573
  0
LINE
  5
10A
330
1F
100
AcDbEntity
  8
0
  6
Continuous
 62
     7
370
     0
100
AcDbLine
 10
8.414141136
 20
7.6680065926
 30
0.0
 11
8.4015486662
 21
7.6607371145
 31
0.0
  0
ARC
  5
10B
330
1F
100
AcDbEntity
  8
0
  6
Continuous
 62
     7
370
     0
100
AcDbCircle
 10
7.9321111277
 20
7.1130306869
 30
0.0
 40
0.735085834874329
100
AcDbArc
 50
49.0237175738
 51
53.1791706573
  0
ARC
  5
10C
330
1F
100
AcDbEntity
  8
0
  6
Continuous
 62
     7
370
     0
100
AcDbCircle
 10
8.2996945037
 20
7.7260023488
 30
0.0
 40
0.0520199134644863
100
AcDbArc
 50
65.6079689714
 51
127.2305368277
  0
SPLINE
  5
10D
330
1F
100
AcDbEntity
  8
0
  6
Continuous
 62
     7
370
     0
100
AcDbSpline
210
0.0
220
0.0
230
1.0
 70
    24
 71
     1
 72
     4
 73
     2
 74
     0
 42
0.00000001
 43
0.00000001
 40
0.0
 40
0.0
 40
1.0
 40
1.0
 10
8.256561216817246
 20
7.759051265492741
 30
0.0
 10
8.268221230807226
 20
7.767420997872859
 30
0.0
  0
SPLINE
  5
10E
330
1F
100
AcDbEntity
  8
0
  6
Continuous
 62
     7
370
     0
100
AcDbSpline
210
0.0
220
0.0
230
1.0
 70
     8
 71
     3
 72
    12
 73
     8
 74
     0
 42
0.00000001
 43
0.00000001
 40
0.0
 40
0.0
 40
0.0
 40
0.0
 40
0.2503262674180372
 40
0.4997345046006532
 40
0.6249000363599464
 40
0.7501600021982606
 40
1.0
 40
1.0
 40
1.0
 40
1.0
 10
8.262026844200077
 20
7.739695844102581
 30
0.0
 10
8.259707073516307
 20
7.740978609089031
 30
0.0
 10
8.255076039524553
 20
7.743539434733238
 30
0.0
 10
8.251881241272239
 20
7.747729109065485
 30
0.0
 10
8.251617150209816
 20
7.751290352957433
 30
0.0
 10
8.252502586008912
 20
7.754890691562116
 30
0.0
 10
8.254938647650933
 20
7.757387941260308
 30
0.0
 10
8.256561216817246
 20
7.759051265492741
 30
0.0
  0
ARC
  5
10F
330
1F
100
AcDbEntity
  8
0
  6
Continuous
 62
     7
370
     0
100
AcDbCircle
 10
8.2851574223
 20
7.7852299441
 30
0.0
 40
0.0510722811763615
100
AcDbArc
 50
243.0701752969
 51
305.3952959056
  0
SPLINE
  5
110
330
1F
100
AcDbEntity
  8
0
  6
Continuous
 62
     7
370
     0
100
AcDbSpline
210
0.0
220
0.0
230
1.0
 70
     8
 71
     3
 72
     9
 73
     5
 74
     0
 42
0.00000001
 43
0.00000001
 40
0.0
 40
0.0
 40
0.0
 40
0.0
 40
0.4987092906772073
 40
1.0
 40
1.0
 40
1.0
 40
1.0
 10
8.331005002991036
 20
7.757982775060512
 30
0.0
 10
8.329090240803955
 20
7.755298632866311
 30
0.0
 10
8.325250805239236
 20
7.749916454823156
 30
0.0
 10
8.31824910330955
 20
7.745707159752928
 30
0.0
 10
8.31473921518275
 20
7.743597079241423
 30
0.0
  0
SPLINE
  5
111
330
1F
100
AcDbEntity
  8
0
  6
Continuous
 62
     7
370
     0
100
AcDbSpline
210
0.0
220
0.0
230
1.0
 70
     8
 71
     3
 72
    11
 73
     7
 74
     0
 42
0.00000001
 43
0.00000001
 40
0.0
 40
0.0
 40
0.0
 40
0.0
 40
0.250403188903163
 40
0.5003824607867525
 40
0.750098415989144
 40
1.0
 40
1.0
 40
1.0
 40
1.0
 10
8.321177571258847
 20
7.773379022489985
 30
0.0
 10
8.32293983096466
 20
7.772393075084437
 30
0.0
 10
8.326461366980249
 20
7.770422849420958
 30
0.0
 10
8.33037787240706
 20
7.766720063214362
 30
0.0
 10
8.332116859877809
 20
7.762385030785407
 30
0.0
 10
8.331375713742222
 20
7.759450557062043
 30
0.0
 10
8.331005002991036
 20
7.757982775060512
 30
0.0
  0
LINE
  5
112
330
1F
100
AcDbEntity
  8
0
  6
Continuous
 62
     7
370
     0
100
AcDbLine
 10
8.1757344214
 20
7.8028781935
 30
0.0
 11
8.1967295237
 21
7.814998408
 31
0.0
  0
ARC
  5
113
330
1F
100
AcDbEntity
  8
0
  6
Continuous
 62
     7
370
     0
100
AcDbCircle
 10
8.1620123488
 20
7.8229249145
 30
0.0
 40
0.0242933386078619
100
AcDbArc
 50
267.9311997637
 51
304.3918191818
  0
SPLINE
  5
114
330
1F
100
AcDbEntity
  8
0
  6
Continuous
 62
     7
370
     0
100
AcDbSpline
210
0.0
220
0.0
230
1.0
 70
     8
 71
     3
 72
    11
 73
     7
 74
     0
 42
0.00000001
 43
0.00000001
 40
0.0
 40
0.0
 40
0.0
 40
0.0
 40
0.2494767937949696
 40
0.5035301869018266
 40
0.7522417858142384
 40
1.0
 40
1.0
 40
1.0
 40
1.0
 10
8.160245624054166
 20
7.801193015452055
 30
0.0
 10
8.159950656350283
 20
7.800894159638277
 30
0.0
 10
8.159355309822026
 20
7.800290965563672
 30
0.0
 10
8.159260152980075
 20
7.799509802004731
 30
0.0
 10
8.159818125766675
 20
7.798912337412426
 30
0.0
 10
8.160696851541694
 20
7.798735606233993
 30
0.0
 10
8.161135370708486
 20
7.798647410335663
 30
0.0
  0
SPLINE
  5
115
330
1F
100
AcDbEntity
  8
0
  6
Continuous
 62
     7
370
     0
100
AcDbSpline
210
0.0
220
0.0
230
1.0
 70
    24
 71
     1
 72
     4
 73
     2
 74
     0
 42
0.00000001
 43
0.00000001
 40
0.0
 40
0.0
 40
1.0
 40
1.0
 10
8.1636421478779
 20
7.803355027165846
 30
0.0
 10
8.160245624054166
 20
7.801193015452055
 30
0.0
  0
LINE
  5
116
330
1F
100
AcDbEntity
  8
0
  6
Continuous
 62
     7
370
     0
100
AcDbLine
 10
8.1863017061
 20
7.8164361117
 30
0.0
 11
8.1636421479
 21
7.8033550272
 31
0.0
  0
ARC
  5
117
330
1F
100
AcDbEntity
  8
0
  6
Continuous
 62
     7
370
     0
100
AcDbCircle
 10
8.1512368141
 20
7.5258217898
 30
0.0
 40
0.2927221049733829
100
AcDbArc
 50
83.1200739249
 51
85.9883499347
  0
LINE
  5
118
330
1F
100
AcDbEntity
  8
0
  6
Continuous
 62
     7
370
     0
100
AcDbLine
 10
8.1504792888
 20
7.8055673054
 30
0.0
 11
8.1717154503
 21
7.8178266805
 31
0.0
  0
ARC
  5
119
330
1F
100
AcDbEntity
  8
0
  6
Continuous
 62
     7
370
     0
100
AcDbCircle
 10
8.1353992896
 20
7.8281312605
 30
0.0
 40
0.0271392417415272
100
AcDbArc
 50
271.9858872247
 51
303.7556988462
  0
SPLINE
  5
11A
330
1F
100
AcDbEntity
  8
0
  6
Continuous
 62
     7
370
     0
100
AcDbSpline
210
0.0
220
0.0
230
1.0
 70
     8
 71
     3
 72
    10
 73
     6
 74
     0
 42
0.00000001
 43
0.00000001
 40
0.0
 40
0.0
 40
0.0
 40
0.0
 40
0.4988594542991764
 40
0.7491987595266382
 40
1.0
 40
1.0
 40
1.0
 40
1.0
 10
8.134880573781391
 20
7.802395744397237
 30
0.0
 10
8.134776790199115
 20
7.802041591306763
 30
0.0
 10
8.134620925595508
 20
7.801509715938304
 30
0.0
 10
8.135359569913133
 20
7.801106878402178
 30
0.0
 10
8.136012825746317
 20
7.801041192141262
 30
0.0
 10
8.136339754738023
 20
7.801008318737062
 30
0.0
  0
SPLINE
  5
11B
330
1F
100
AcDbEntity
  8
0
  6
Continuous
 62
     7
370
     0
100
AcDbSpline
210
0.0
220
0.0
230
1.0
 70
     8
 71
     3
 72
     9
 73
     5
 74
     0
 42
0.00000001
 43
0.00000001
 40
0.0
 40
0.0
 40
0.0
 40
0.0
 40
0.5015784057012747
 40
1.0
 40
1.0
 40
1.0
 40
1.0
 10
8.138047889490679
 20
7.804821903484122
 30
0.0
 10
8.13732541427309
 20
7.804396690904178
 30
0.0
 10
8.135885010919642
 20
7.803548941927926
 30
0.0
 10
8.135214680792211
 20
7.802779333738163
 30
0.0
 10
8.134880573781391
 20
7.802395744397237
 30
0.0
  0
LINE
  5
11C
330
1F
100
AcDbEntity
  8
0
  6
Continuous
 62
     7
370
     0
100
AcDbLine
 10
8.1614880201
 20
7.8183536029
 30
0.0
 11
8.1380478895
 21
7.8048219035
 31
0.0
  0
ARC
  5
11D
330
1F
100
AcDbEntity
  8
0
  6
Continuous
 62
     7
370
     0
100
AcDbCircle
 10
8.1527058488
 20
7.553788342
 30
0.0
 40
0.2647109816404434
100
AcDbArc
 50
88.0987803987
 51
91.1660049151
  0
LINE
  5
11E
330
1F
100
AcDbEntity
  8
0
  6
Continuous
 62
     7
370
     0
100
AcDbLine
 10
8.1214799438
 20
7.8035278333
 30
0.0
 11
8.1473191867
 21
7.8184445108
 31
0.0
  0
SPLINE
  5
11F
330
1F
100
AcDbEntity
  8
0
  6
Continuous
 62
     7
370
     0
100
AcDbSpline
210
0.0
220
0.0
230
1.0
 70
     8
 71
     3
 72
    13
 73
     9
 74
     0
 42
0.00000001
 43
0.00000001
 40
0.0
 40
0.0
 40
0.0
 40
0.0
 40
0.2493026324883332
 40
0.3767800005158712
 40
0.4994269650587898
 40
0.6183515801738888
 40
0.7497380290329964
 40
1.0
 40
1.0
 40
1.0
 40
1.0
 10
8.117840749157672
 20
7.7941141486407
 30
0.0
 10
8.116146282001523
 20
7.794245616911722
 30
0.0
 10
8.113585373078918
 20
7.794444309619973
 30
0.0
 10
8.112324433226657
 20
7.795595199143793
 30
0.0
 10
8.112448754332805
 20
7.796791295507908
 30
0.0
 10
8.11370225798186
 20
7.79830007786939
 30
0.0
 10
8.116505730148912
 20
7.800543592159577
 30
0.0
 10
8.11950995479351
 20
7.802345953608853
 30
0.0
 10
8.121479943772183
 20
7.80352783333181
 30
0.0
  0
ARC
  5
120
330
1F
100
AcDbEntity
  8
0
  6
Continuous
 62
     7
370
     0
100
AcDbCircle
 10
8.1184642198
 20
7.8518254656
 30
0.0
 40
0.0577146846689537
100
AcDbArc
 50
269.3810426161
 51
289.594166255
  0
SPLINE
  5
121
330
1F
100
AcDbEntity
  8
0
  6
Continuous
 62
     7
370
     0
100
AcDbSpline
210
0.0
220
0.0
230
1.0
 70
     8
 71
     3
 72
    12
 73
     8
 74
     0
 42
0.00000001
 43
0.00000001
 40
0.0
 40
0.0
 40
0.0
 40
0.0
 40
0.2503253654036914
 40
0.4999978777420963
 40
0.7494826629082532
 40
0.8746982187917993
 40
1.0
 40
1.0
 40
1.0
 40
1.0
 10
8.142396932899773
 20
7.792364430876964
 30
0.0
 10
8.141272343823724
 20
7.792521141812541
 30
0.0
 10
8.139026098620207
 20
7.792834154978751
 30
0.0
 10
8.13675474017539
 20
7.79381125236144
 30
0.0
 10
8.136481135023825
 20
7.79517642799385
 30
0.0
 10
8.1370317425921
 20
7.796436532527009
 30
0.0
 10
8.137556630875583
 20
7.797114063680342
 30
0.0
 10
8.137819165347727
 20
7.79745294585641
 30
0.0
  0
ARC
  5
122
330
1F
100
AcDbEntity
  8
0
  6
Continuous
 62
     7
370
     0
100
AcDbCircle
 10
8.1472066068
 20
7.8423066196
 30
0.0
 40
0.0501732516517258
100
AcDbArc
 50
264.4991041608
 51
287.874209604
  0
LINE
  5
123
330
1F
100
AcDbEntity
  8
0
  6
Continuous
 62
     7
370
     0
100
AcDbLine
 10
8.1566026748
 20
7.7910893391
 30
0.0
 11
8.1626061951
 21
7.7945550975
 31
0.0
  0
ARC
  5
124
330
1F
100
AcDbEntity
  8
0
  6
Continuous
 62
     7
370
     0
100
AcDbCircle
 10
8.1054502235
 20
7.4688009408
 30
0.0
 40
0.3263225167702877
100
AcDbArc
 50
78.4957445346
 51
80.9814470354
  0
LINE
  5
125
330
1F
100
AcDbEntity
  8
0
  6
Continuous
 62
     7
370
     0
100
AcDbLine
 10
8.2116729776
 20
7.8123176579
 30
0.0
 11
8.1705322195
 21
7.7885676037
 31
0.0
  0
ARC
  5
126
330
1F
100
AcDbEntity
  8
0
  6
Continuous
 62
     7
370
     0
100
AcDbCircle
 10
8.1467214533
 20
7.493245214
 30
0.0
 40
0.3256162234767984
100
AcDbArc
 50
78.4938784424
 51
81.1655621232
  0
SPLINE
  5
127
330
1F
100
AcDbEntity
  8
0
  6
Continuous
 62
     7
370
     0
100
AcDbSpline
210
0.0
220
0.0
230
1.0
 70
    24
 71
     1
 72
     4
 73
     2
 74
     0
 42
0.00000001
 43
0.00000001
 40
0.0
 40
0.0
 40
1.0
 40
1.0
 10
8.075130676713002
 20
7.214821002429229
 30
0.0
 10
8.082159817555146
 20
7.206152622016523
 30
0.0
  0
SPLINE
  5
128
330
1F
100
AcDbEntity
  8
0
  6
Continuous
 62
     7
370
     0
100
AcDbSpline
210
0.0
220
0.0
230
1.0
 70
    24
 71
     1
 72
     4
 73
     2
 74
     0
 42
0.00000001
 43
0.00000001
 40
0.0
 40
0.0
 40
1.0
 40
1.0
 10
8.067902620624006
 20
7.221416093689403
 30
0.0
 10
8.075130676713002
 20
7.214821002429229
 30
0.0
  0
ARC
  5
129
330
1F
100
AcDbEntity
  8
0
  6
Continuous
 62
     7
370
     0
100
AcDbCircle
 10
8.0572060613
 20
7.2047118162
 30
0.0
 40
0.0198355556750221
100
AcDbArc
 50
57.3665931792
 51
117.1861878453
  0
ARC
  5
12A
330
1F
100
AcDbEntity
  8
0
  6
Continuous
 62
     7
370
     0
100
AcDbCircle
 10
8.0562354191
 20
7.2094035633
 30
0.0
 40
0.0152723997269797
100
AcDbArc
 50
121.9945020046
 51
215.0073699983
  0
ARC
  5
12B
330
1F
100
AcDbEntity
  8
0
  6
Continuous
 62
     7
370
     0
100
AcDbCircle
 10
8.0280885629
 20
7.1826793647
 30
0.0
 40
0.0238157947950414
100
AcDbArc
 50
48.9585517959
 51
73.1433747622
  0
SPLINE
  5
12C
330
1F
100
AcDbEntity
  8
0
  6
Continuous
 62
     7
370
     0
100
AcDbSpline
210
0.0
220
0.0
230
1.0
 70
     8
 71
     3
 72
     9
 73
     5
 74
     0
 42
0.00000001
 43
0.00000001
 40
0.0
 40
0.0
 40
0.0
 40
0.0
 40
0.5001654445837151
 40
0.9999999999999999
 40
0.9999999999999999
 40
0.9999999999999999
 40
0.9999999999999999
 10
8.02379891698954
 20
7.204055406488749
 30
0.0
 10
8.025482893248363
 20
7.204839557871169
 30
0.0
 10
8.028849731715628
 20
7.206407341873264
 30
0.0
 10
8.03294677178532
 20
7.205783628679434
 30
0.0
 10
8.034994613987076
 20
7.205471875272488
 30
0.0
  0
SPLINE
  5
12D
330
1F
100
AcDbEntity
  8
0
  6
Continuous
 62
     7
370
     0
100
AcDbSpline
210
0.0
220
0.0
230
1.0
 70
     8
 71
     3
 72
    14
 73
    10
 74
     0
 42
0.00000001
 43
0.00000001
 40
0.0
 40
0.0
 40
0.0
 40
0.0
 40
0.2499004290087719
 40
0.3800976031627718
 40
0.4999571058493033
 40
0.6257216768296763
 40
0.7499966555366548
 40
0.8749516763670047
 40
1.0
 40
1.0
 40
1.0
 40
1.0
 10
8.023337214858264
 20
7.176341484431839
 30
0.0
 10
8.021788601223497
 20
7.178814330558473
 30
0.0
 10
8.019433165768124
 20
7.182575520122858
 30
0.0
 10
8.017662298044705
 20
7.187911541877543
 30
0.0
 10
8.017115586984094
 20
7.191922816866122
 30
0.0
 10
8.017476261755094
 20
7.195702217291172
 30
0.0
 10
8.018727727294458
 20
7.199150981234894
 30
0.0
 10
8.02082447434577
 20
7.202063623904609
 30
0.0
 10
8.022807189454415
 20
7.203391313793328
 30
0.0
 10
8.02379891698954
 20
7.204055406488749
 30
0.0
  0
ARC
  5
12E
330
1F
100
AcDbEntity
  8
0
  6
Continuous
 62
     7
370
     0
100
AcDbCircle
 10
7.1723222722
 20
6.5956349419
 30
0.0
 40
1.030265267324058
100
AcDbArc
 50
31.7321910104
 51
34.3084306641
  0
LINE
  5
12F
330
1F
100
AcDbEntity
  8
0
  6
Continuous
 62
     7
370
     0
100
AcDbLine
 10
8.1053772259
 20
7.1702913921
 30
0.0
 11
8.0485791032
 21
7.1375025339
 31
0.0
  0
ARC
  5
130
330
1F
100
AcDbEntity
  8
0
  6
Continuous
 62
     7
370
     0
100
AcDbCircle
 10
7.2286124122
 20
6.628099482
 30
0.0
 40
1.030867889611862
100
AcDbArc
 50
31.7326725826
 51
34.1072764079
  0
ARC
  5
131
330
1F
100
AcDbEntity
  8
0
  6
Continuous
 62
     7
370
     0
100
AcDbCircle
 10
7.3113721906
 20
6.7004390927
 30
0.0
 40
0.8945807236634452
100
AcDbArc
 50
43.1801671723
 51
43.3136933738
  0
ARC
  5
132
330
1F
100
AcDbEntity
  8
0
  6
Continuous
 62
     7
370
     0
100
AcDbCircle
 10
7.9692902728
 20
7.3210690208
 30
0.0
 40
0.0098767555143889
100
AcDbArc
 50
191.6781923616
 51
224.758888938
  0
SPLINE
  5
133
330
1F
100
AcDbEntity
  8
0
  6
Continuous
 62
     7
370
     0
100
AcDbSpline
210
0.0
220
0.0
230
1.0
 70
    24
 71
     1
 72
     4
 73
     2
 74
     0
 42
0.00000001
 43
0.00000001
 40
0.0
 40
0.0
 40
1.0
 40
1.0
 10
7.961041618646572
 20
7.324668091895776
 30
0.0
 10
7.959617966913779
 20
7.319069821523897
 30
0.0
  0
SPLINE
  5
134
330
1F
100
AcDbEntity
  8
0
  6
Continuous
 62
     7
370
     0
100
AcDbSpline
210
0.0
220
0.0
230
1.0
 70
    24
 71
     1
 72
     4
 73
     2
 74
     0
 42
0.00000001
 43
0.00000001
 40
0.0
 40
0.0
 40
1.0
 40
1.0
 10
7.969657476020599
 20
7.343622040301544
 30
0.0
 10
7.961041618646572
 20
7.324668091895776
 30
0.0
  0
ARC
  5
135
330
1F
100
AcDbEntity
  8
0
  6
Continuous
 62
     7
370
     0
100
AcDbCircle
 10
7.3682662972
 20
6.7469046347
 30
0.0
 40
0.8471971506242806
100
AcDbArc
 50
44.7764926102
 51
46.5487444453
  0
SPLINE
  5
136
330
1F
100
AcDbEntity
  8
0
  6
Continuous
 62
     7
370
     0
100
AcDbSpline
210
0.0
220
0.0
230
1.0
 70
    24
 71
     1
 72
     4
 73
     2
 74
     0
 42
0.00000001
 43
0.00000001
 40
0.0
 40
0.0
 40
1.0
 40
1.0
 10
7.942506738466647
 20
7.344703462985223
 30
0.0
 10
7.950915305005132
 20
7.361935646776066
 30
0.0
  0
SPLINE
  5
137
330
1F
100
AcDbEntity
  8
0
  6
Continuous
 62
     7
370
     0
100
AcDbSpline
210
0.0
220
0.0
230
1.0
 70
    24
 71
     1
 72
     4
 73
     2
 74
     0
 42
0.00000001
 43
0.00000001
 40
0.0
 40
0.0
 40
1.0
 40
1.0
 10
7.94097205842272
 20
7.336067744387642
 30
0.0
 10
7.942506738466647
 20
7.344703462985223
 30
0.0
  0
SPLINE
  5
138
330
1F
100
AcDbEntity
  8
0
  6
Continuous
 62
     7
370
     0
100
AcDbSpline
210
0.0
220
0.0
230
1.0
 70
    24
 71
     1
 72
     4
 73
     2
 74
     0
 42
0.00000001
 43
0.00000001
 40
0.0
 40
0.0
 40
1.0
 40
1.0
 10
7.943166540480468
 20
7.330577624671752
 30
0.0
 10
7.94097205842272
 20
7.336067744387642
 30
0.0
  0
SPLINE
  5
139
330
1F
100
AcDbEntity
  8
0
  6
Continuous
 62
     7
370
     0
100
AcDbSpline
210
0.0
220
0.0
230
1.0
 70
    24
 71
     1
 72
     4
 73
     2
 74
     0
 42
0.00000001
 43
0.00000001
 40
0.0
 40
0.0
 40
1.0
 40
1.0
 10
7.93512901560985
 20
7.33504639760844
 30
0.0
 10
7.943166540480468
 20
7.330577624671752
 30
0.0
  0
ARC
  5
13A
330
1F
100
AcDbEntity
  8
0
  6
Continuous
 62
     7
370
     0
100
AcDbCircle
 10
7.9257351252
 20
7.3122256816
 30
0.0
 40
0.0246785384110785
100
AcDbArc
 50
67.6260371054
 51
117.6951342168
  0
SPLINE
  5
13B
330
1F
100
AcDbEntity
  8
0
  6
Continuous
 62
     7
370
     0
100
AcDbSpline
210
0.0
220
0.0
230
1.0
 70
     8
 71
     3
 72
    14
 73
    10
 74
     0
 42
0.00000001
 43
0.00000001
 40
0.0
 40
0.0
 40
0.0
 40
0.0
 40
0.2503817225611411
 40
0.3755492991303381
 40
0.5004182237810678
 40
0.6251583274713192
 40
0.7499167264452342
 40
0.8736417210982196
 40
1.0
 40
1.0
 40
1.0
 40
1.0
 10
7.919186481297342
 20
7.304391246584748
 30
0.0
 10
7.916816430447546
 20
7.306894713973996
 30
0.0
 10
7.913261574580114
 20
7.310649682243288
 30
0.0
 10
7.909337931526928
 20
7.315958166558278
 30
0.0
 10
7.907314650519317
 20
7.320181964827806
 30
0.0
 10
7.906930224940937
 20
7.324433057475678
 30
0.0
 10
7.908062996300183
 20
7.328314139582178
 30
0.0
 10
7.910539547369934
 20
7.331649544942148
 30
0.0
 10
7.913014733909774
 20
7.333262105951811
 30
0.0
 10
7.914265358578467
 20
7.334076876291742
 30
0.0
  0
ARC
  5
13C
330
1F
100
AcDbEntity
  8
0
  6
Continuous
 62
     7
370
     0
100
AcDbCircle
 10
7.2733770266
 20
6.6768669605
 30
0.0
 40
0.9004757527964495
100
AcDbArc
 50
41.6682225578
 51
44.1772848317
  0
LINE
  5
13D
330
1F
100
AcDbEntity
  8
0
  6
Continuous
 62
     7
370
     0
100
AcDbLine
 10
8.0028368563
 20
7.3083066429
 30
0.0
 11
7.9460387336
 21
7.2755177847
 31
0.0
  0
ARC
  5
13E
330
1F
100
AcDbEntity
  8
0
  6
Continuous
 62
     7
370
     0
100
AcDbCircle
 10
7.323281113
 20
6.7033736211
 30
0.0
 40
0.9098021593317714
100
AcDbArc
 50
41.6751234208
 51
43.1763600219
  0
LINE
  5
13F
330
1F
100
AcDbEntity
  8
0
  6
Continuous
 62
     7
370
     0
100
AcDbLine
 10
7.9637054089
 20
7.3125959709
 30
0.0
 11
7.9867552533
 21
7.3259023628
 31
0.0
  0
ARC
  5
140
330
1F
100
AcDbEntity
  8
0
  6
Continuous
 62
     7
370
     0
100
AcDbCircle
 10
7.8239804785
 20
7.4045476228
 30
0.0
 40
0.0469620568076844
100
AcDbArc
 50
58.6879195079
 51
127.5339115807
  0
SPLINE
  5
141
330
1F
100
AcDbEntity
  8
0
  6
Continuous
 62
     7
370
     0
100
AcDbSpline
210
0.0
220
0.0
230
1.0
 70
    24
 71
     1
 72
     4
 73
     2
 74
     0
 42
0.00000001
 43
0.00000001
 40
0.0
 40
0.0
 40
1.0
 40
1.0
 10
7.783718497092813
 20
7.43320478549228
 30
0.0
 10
7.795369743160936
 20
7.441788200169851
 30
0.0
  0
SPLINE
  5
142
330
1F
100
AcDbEntity
  8
0
  6
Continuous
 62
     7
370
     0
100
AcDbSpline
210
0.0
220
0.0
230
1.0
 70
     8
 71
     3
 72
    12
 73
     8
 74
     0
 42
0.00000001
 43
0.00000001
 40
0.0
 40
0.0
 40
0.0
 40
0.0
 40
0.2503262674180365
 40
0.4997345046006517
 40
0.6249000363599453
 40
0.7501600021982598
 40
1.0
 40
1.0
 40
1.0
 40
1.0
 10
7.789236085966827
 20
7.411041931852445
 30
0.0
 10
7.786915902153536
 20
7.412641141581083
 30
0.0
 10
7.782284043417827
 20
7.415833696200845
 30
0.0
 10
7.779073905340722
 20
7.420778545267334
 30
0.0
 10
7.778796742486126
 20
7.424811365458182
 30
0.0
 10
7.779669149834894
 20
7.42880801025322
 30
0.0
 10
7.782099639326569
 20
7.431447032133819
 30
0.0
 10
7.783718497092813
 20
7.43320478549228
 30
0.0
  0
ARC
  5
143
330
1F
100
AcDbEntity
  8
0
  6
Continuous
 62
     7
370
     0
100
AcDbCircle
 10
7.81492778
 20
7.4494352651
 30
0.0
 40
0.0461964412114372
100
AcDbArc
 50
236.2107211648
 51
305.6690136759
  0
SPLINE
  5
144
330
1F
100
AcDbEntity
  8
0
  6
Continuous
 62
     7
370
     0
100
AcDbSpline
210
0.0
220
0.0
230
1.0
 70
     8
 71
     3
 72
     9
 73
     5
 74
     0
 42
0.00000001
 43
0.00000001
 40
0.0
 40
0.0
 40
0.0
 40
0.0
 40
0.4987092906772072
 40
1.0
 40
1.0
 40
1.0
 40
1.0
 10
7.858157301307471
 20
7.426842889899442
 30
0.0
 10
7.856234354613792
 20
7.423983984750528
 30
0.0
 10
7.852378507671244
 20
7.418251376190075
 30
0.0
 10
7.845375538074737
 20
7.414024311147422
 30
0.0
 10
7.841865014478338
 20
7.411905322713838
 30
0.0
  0
SPLINE
  5
145
330
1F
100
AcDbEntity
  8
0
  6
Continuous
 62
     7
370
     0
100
AcDbSpline
210
0.0
220
0.0
230
1.0
 70
     8
 71
     3
 72
    11
 73
     7
 74
     0
 42
0.00000001
 43
0.00000001
 40
0.0
 40
0.0
 40
0.0
 40
0.0
 40
0.2504031889031622
 40
0.5003824607867541
 40
0.7500984159891433
 40
1.0
 40
1.0
 40
1.0
 40
1.0
 10
7.848386624600365
 20
7.444669621924581
 30
0.0
 10
7.850147197697834
 20
7.443445643490157
 30
0.0
 10
7.853665363352055
 20
7.440999758740647
 30
0.0
 10
7.857566959941301
 20
7.43660685963123
 30
0.0
 10
7.85928672227943
 20
7.43166501577794
 30
0.0
 10
7.858533868203715
 20
7.428450663281065
 30
0.0
 10
7.858157301307471
 20
7.426842889899442
 30
0.0
  0
LINE
  5
146
330
1F
100
AcDbEntity
  8
0
  6
Continuous
 62
     7
370
     0
100
AcDbLine
 10
7.7170184269
 20
7.4810683346
 30
0.0
 11
7.7292320895
 21
7.4881191319
 31
0.0
  0
ARC
  5
147
330
1F
100
AcDbEntity
  8
0
  6
Continuous
 62
     7
370
     0
100
AcDbCircle
 10
7.5670841391
 20
7.0677142066
 30
0.0
 40
0.4397066360518738
100
AcDbArc
 50
66.8899467629
 51
70.0629754576
  0
LINE
  5
148
330
1F
100
AcDbEntity
  8
0
  6
Continuous
 62
     7
370
     0
100
AcDbLine
 10
7.7518819987
 20
7.4791863445
 30
0.0
 11
7.7396683361
 21
7.4721355472
 31
0.0
  0
ARC
  5
149
330
1F
100
AcDbEntity
  8
0
  6
Continuous
 62
     7
370
     0
100
AcDbCircle
 10
7.5792978017
 20
7.0747650039
 30
0.0
 40
0.4397066360523554
100
AcDbArc
 50
66.8899467629
 51
70.0629754576
  0
ARC
  5
14A
330
1F
100
AcDbEntity
  8
0
  6
Continuous
 62
     7
370
     0
100
AcDbCircle
 10
7.6642597039
 20
7.4323995668
 30
0.0
 40
0.0838643689256455
100
AcDbArc
 50
88.1417420126
 51
125.2919159776
  0
SPLINE
  5
14B
330
1F
100
AcDbEntity
  8
0
  6
Continuous
 62
     7
370
     0
100
AcDbSpline
210
0.0
220
0.0
230
1.0
 70
    24
 71
     1
 72
     4
 73
     2
 74
     0
 42
0.00000001
 43
0.00000001
 40
0.0
 40
0.0
 40
1.0
 40
1.0
 10
7.60401248107441
 20
7.493131090895305
 30
0.0
 10
7.615807696487776
 20
7.500851267645219
 30
0.0
  0
SPLINE
  5
14C
330
1F
100
AcDbEntity
  8
0
  6
Continuous
 62
     7
370
     0
100
AcDbSpline
210
0.0
220
0.0
230
1.0
 70
     8
 71
     3
 72
    12
 73
     8
 74
     0
 42
0.00000001
 43
0.00000001
 40
0.0
 40
0.0
 40
0.0
 40
0.0
 40
0.2503262674180389
 40
0.4997345046006491
 40
0.6249000363599446
 40
0.7501600021982584
 40
1.0
 40
1.0
 40
1.0
 40
1.0
 10
7.607857488114019
 20
7.482365794377031
 30
0.0
 10
7.605706984222048
 20
7.482675483882957
 30
0.0
 10
7.6014138630559
 20
7.483293727159705
 30
0.0
 10
7.59865835274521
 20
7.485173940538191
 30
0.0
 10
7.598677179440258
 20
7.487296113958037
 30
0.0
 10
7.599805406141519
 20
7.489688888227492
 30
0.0
 10
7.602330566559677
 20
7.491754958850596
 30
0.0
 10
7.60401248107441
 20
7.493131090895305
 30
0.0
  0
ARC
  5
14D
330
1F
100
AcDbEntity
  8
0
  6
Continuous
 62
     7
370
     0
100
AcDbCircle
 10
7.6144347088
 20
7.562489954
 30
0.0
 40
0.0803936613890996
100
AcDbArc
 50
265.3072338667
 51
303.8023910987
  0
SPLINE
  5
14E
330
1F
100
AcDbEntity
  8
0
  6
Continuous
 62
     7
370
     0
100
AcDbSpline
210
0.0
220
0.0
230
1.0
 70
     8
 71
     3
 72
     9
 73
     5
 74
     0
 42
0.00000001
 43
0.00000001
 40
0.0
 40
0.0
 40
0.0
 40
0.0
 40
0.4987092906772061
 40
1.0
 40
1.0
 40
1.0
 40
1.0
 10
7.675654099937901
 20
7.508350492549011
 30
0.0
 10
7.673666571354856
 20
7.506211205966509
 30
0.0
 10
7.669681226344846
 20
7.501921559427943
 30
0.0
 10
7.662673197740451
 20
7.497768051410484
 30
0.0
 10
7.659160138110399
 20
7.495685936430233
 30
0.0
  0
SPLINE
  5
14F
330
1F
100
AcDbEntity
  8
0
  6
Continuous
 62
     7
370
     0
100
AcDbSpline
210
0.0
220
0.0
230
1.0
 70
     8
 71
     3
 72
    11
 73
     7
 74
     0
 42
0.00000001
 43
0.00000001
 40
0.0
 40
0.0
 40
0.0
 40
0.0
 40
0.2504031889031628
 40
0.5003824607867531
 40
0.7500984159891444
 40
1.0
 40
1.0
 40
1.0
 40
1.0
 10
7.666979176720981
 20
7.516219831894947
 30
0.0
 10
7.668619031386808
 20
7.515967605876806
 30
0.0
 10
7.67189596454654
 20
7.515463580843478
 30
0.0
 10
7.675482256118478
 20
7.513896919422255
 30
0.0
 10
7.676945948096309
 20
7.511445586306777
 30
0.0
 10
7.676084822638743
 20
7.509382445982569
 30
0.0
 10
7.675654099937901
 20
7.508350492549011
 30
0.0
  0
LINE
  5
150
330
1F
100
AcDbEntity
  8
0
  6
Continuous
 62
     7
370
     0
100
AcDbLine
 10
7.5584563751
 20
7.500477067
 30
0.0
 11
7.5782117448
 21
7.5118815992
 31
0.0
  0
ARC
  5
151
330
1F
100
AcDbEntity
  8
0
  6
Continuous
 62
     7
370
     0
100
AcDbCircle
 10
7.523683482
 20
7.5557132297
 30
0.0
 40
0.0652701138928721
100
AcDbArc
 50
287.4483358397
 51
302.1916991643
  0
SPLINE
  5
152
330
1F
100
AcDbEntity
  8
0
  6
Continuous
 62
     7
370
     0
100
AcDbSpline
210
0.0
220
0.0
230
1.0
 70
     8
 71
     3
 72
    13
 73
     9
 74
     0
 42
0.00000001
 43
0.00000001
 40
0.0
 40
0.0
 40
0.0
 40
0.0
 40
0.2556326815358561
 40
0.3827690308606761
 40
0.5009930149486721
 40
0.6250249963111311
 40
0.7509663452183926
 40
1.0
 40
1.0
 40
1.0
 40
1.0
 10
7.545940852948666
 20
7.49635711640208
 30
0.0
 10
7.545093691237896
 20
7.49586026060727
 30
0.0
 10
7.543825202150095
 20
7.49511629856801
 30
0.0
 10
7.542466174472022
 20
7.494238556725353
 30
0.0
 10
7.541736274390061
 20
7.49368921388677
 30
0.0
 10
7.541454435328667
 20
7.493322367536307
 30
0.0
 10
7.541689055760939
 20
7.493097326214345
 30
0.0
 10
7.542629718771921
 20
7.493307055052211
 30
0.0
 10
7.54325444507431
 20
7.493446343107395
 30
0.0
  0
LINE
  5
153
330
1F
100
AcDbEntity
  8
0
  6
Continuous
 62
     7
370
     0
100
AcDbLine
 10
7.5685659741
 20
7.5094183209
 30
0.0
 11
7.5459408529
 21
7.4963571164
 31
0.0
  0
ARC
  5
154
330
1F
100
AcDbEntity
  8
0
  6
Continuous
 62
     7
370
     0
100
AcDbCircle
 10
7.6251741076
 20
7.3072950636
 30
0.0
 40
0.2099006715355326
100
AcDbArc
 50
105.6458269352
 51
109.2339612723
  0
LINE
  5
155
330
1F
100
AcDbEntity
  8
0
  6
Continuous
 62
     7
370
     0
100
AcDbLine
 10
7.5298781184
 20
7.4903837488
 30
0.0
 11
7.5560272945
 21
7.5054793469
 31
0.0
  0
SPLINE
  5
156
330
1F
100
AcDbEntity
  8
0
  6
Continuous
 62
     7
370
     0
100
AcDbSpline
210
0.0
220
0.0
230
1.0
 70
     8
 71
     3
 72
    13
 73
     9
 74
     0
 42
0.00000001
 43
0.00000001
 40
0.0
 40
0.0
 40
0.0
 40
0.0
 40
0.2493827994174827
 40
0.3744361297780042
 40
0.4994378368474264
 40
0.6245077693644093
 40
0.749758285296826
 40
0.9999999999999999
 40
0.9999999999999999
 40
0.9999999999999999
 40
0.9999999999999999
 10
7.524977320477335
 20
7.484700014508584
 30
0.0
 10
7.523511405097401
 20
7.484309311146676
 30
0.0
 10
7.521310404536309
 20
7.48372268907384
 30
0.0
 10
7.520445510677879
 20
7.483945265238761
 30
0.0
 10
7.520756707007651
 20
7.484557727295263
 30
0.0
 10
7.52213977316254
 20
7.485648042176924
 30
0.0
 10
7.524999419037852
 20
7.487528334852792
 30
0.0
 10
7.527927043024181
 20
7.489241819905383
 30
0.0
 10
7.52987811840357
 20
7.490383748826131
 30
0.0
  0
ARC
  5
157
330
1F
100
AcDbEntity
  8
0
  6
Continuous
 62
     7
370
     0
100
AcDbCircle
 10
7.4840012757
 20
7.6217794225
 30
0.0
 40
0.1430727100194913
100
AcDbArc
 50
286.642560129
 51
295.0895104112
  0
LINE
  5
158
330
1F
100
AcDbEntity
  8
0
  6
Continuous
 62
     7
370
     0
100
AcDbLine
 10
7.5379651761
 20
7.4883361448
 30
0.0
 11
7.5446689157
 21
7.4922061313
 31
0.0
  0
ARC
  5
159
330
1F
100
AcDbEntity
  8
0
  6
Continuous
 62
     7
370
     0
100
AcDbCircle
 10
7.5871836946
 20
7.2709669415
 30
0.0
 40
0.2228717862305908
100
AcDbArc
 50
99.5630679369
 51
102.758246703
  0
LINE
  5
15A
330
1F
100
AcDbEntity
  8
0
  6
Continuous
 62
     7
370
     0
100
AcDbLine
 10
7.5912980602
 20
7.514491606
 30
0.0
 11
7.5501573021
 21
7.4907415518
 31
0.0
  0
ARC
  5
15B
330
1F
100
AcDbEntity
  8
0
  6
Continuous
 62
     7
370
     0
100
AcDbCircle
 10
7.6282693624
 20
7.2950094142
 30
0.0
 40
0.2225742790393312
100
AcDbArc
 50
99.5615891972
 51
102.9971728271
  0
LINE
  5
15C
330
1F
100
AcDbEntity
  8
0
  6
Continuous
 62
     7
370
     0
100
AcDbLine
 10
7.9881093521
 20
7.0636407084
 30
0.0
 11
8.0039159436
 21
7.0727656594
 31
0.0
  0
ARC
  5
15D
330
1F
100
AcDbEntity
  8
0
  6
Continuous
 62
     7
370
     0
100
AcDbCircle
 10
7.0875820336
 20
6.5463744312
 30
0.0
 40
1.038515215486501
100
AcDbArc
 50
28.5587373551
 51
29.8732215224
  0
LINE
  5
15E
330
1F
100
AcDbEntity
  8
0
  6
Continuous
 62
     7
370
     0
100
AcDbLine
 10
8.0155450843
 20
7.0519713822
 30
0.0
 11
7.9997384928
 21
7.0428464312
 31
0.0
  0
ARC
  5
15F
330
1F
100
AcDbEntity
  8
0
  6
Continuous
 62
     7
370
     0
100
AcDbCircle
 10
7.1033886251
 20
6.5554993822
 30
0.0
 40
1.038515215491363
100
AcDbArc
 50
28.5587373551
 51
29.8732215224
  0
SPLINE
  5
160
330
1F
100
AcDbEntity
  8
0
  6
Continuous
 62
     7
370
     0
100
AcDbSpline
210
0.0
220
0.0
230
1.0
 70
    24
 71
     1
 72
     4
 73
     2
 74
     0
 42
0.00000001
 43
0.00000001
 40
0.0
 40
0.0
 40
1.0
 40
1.0
 10
7.953726682133501
 20
7.108583355793779
 30
0.0
 10
7.969496358016531
 20
7.101167422609196
 30
0.0
  0
ARC
  5
161
330
1F
100
AcDbEntity
  8
0
  6
Continuous
 62
     7
370
     0
100
AcDbCircle
 10
7.9340165811
 20
7.0847532886
 30
0.0
 40
0.0309250737227312
100
AcDbArc
 50
50.4054890469
 51
111.9569495604
  0
SPLINE
  5
162
330
1F
100
AcDbEntity
  8
0
  6
Continuous
 62
     7
370
     0
100
AcDbSpline
210
0.0
220
0.0
230
1.0
 70
     8
 71
     3
 72
    13
 73
     9
 74
     0
 42
0.00000001
 43
0.00000001
 40
0.0
 40
0.0
 40
0.0
 40
0.0
 40
0.2505394783768868
 40
0.4996876272639555
 40
0.6251017812218739
 40
0.7498743002533831
 40
0.8749192415307372
 40
1.0
 40
1.0
 40
1.0
 40
1.0
 10
7.923581767502179
 20
7.076868312627618
 30
0.0
 10
7.921624643860603
 20
7.080076633569483
 30
0.0
 10
7.917721265139389
 20
7.086475458574341
 30
0.0
 10
7.914665635670105
 20
7.095343293794327
 30
0.0
 10
7.914732792610417
 20
7.102209006424045
 30
0.0
 10
7.916134601848228
 20
7.106851709153392
 30
0.0
 10
7.918653536047136
 20
7.11082337714923
 30
0.0
 10
7.921186652532924
 20
7.112564518600641
 30
0.0
 10
7.922453392142867
 20
7.11343521398926
 30
0.0
  0
SPLINE
  5
163
330
1F
100
AcDbEntity
  8
0
  6
Continuous
 62
     7
370
     0
100
AcDbSpline
210
0.0
220
0.0
230
1.0
 70
     8
 71
     3
 72
    13
 73
     9
 74
     0
 42
0.00000001
 43
0.00000001
 40
0.0
 40
0.0
 40
0.0
 40
0.0
 40
0.2498382263897569
 40
0.3762310097284123
 40
0.499699803406264
 40
0.6247385092170372
 40
0.7498143474918726
 40
1.0
 40
1.0
 40
1.0
 40
1.0
 10
7.958557052483997
 20
7.059720102745309
 30
0.0
 10
7.955486690413173
 20
7.058749839692507
 30
0.0
 10
7.950863036784062
 20
7.057288722019152
 30
0.0
 10
7.944040933043225
 20
7.057930354909883
 30
0.0
 10
7.939001966444605
 20
7.059985334415578
 30
0.0
 10
7.934353117685135
 20
7.063196593161575
 30
0.0
 10
7.928959464898556
 20
7.068769830531438
 30
0.0
 10
7.925732904886905
 20
7.073628831802914
 30
0.0
 10
7.923581767502179
 20
7.076868312627618
 30
0.0
  0
SPLINE
  5
164
330
1F
100
AcDbEntity
  8
0
  6
Continuous
 62
     7
370
     0
100
AcDbSpline
210
0.0
220
0.0
230
1.0
 70
    24
 71
     1
 72
     4
 73
     2
 74
     0
 42
0.00000001
 43
0.00000001
 40
0.0
 40
0.0
 40
1.0
 40
1.0
 10
7.948295557042352
 20
7.079591356091347
 30
0.0
 10
7.958557052483997
 20
7.059720102745309
 30
0.0
  0
ARC
  5
165
330
1F
100
AcDbEntity
  8
0
  6
Continuous
 62
     7
370
     0
100
AcDbCircle
 10
7.9432630212
 20
7.0889792607
 30
0.0
 40
0.0106517214821518
100
AcDbArc
 50
210.2643978447
 51
298.1942429913
  0
SPLINE
  5
166
330
1F
100
AcDbEntity
  8
0
  6
Continuous
 62
     7
370
     0
100
AcDbSpline
210
0.0
220
0.0
230
1.0
 70
     8
 71
     3
 72
    12
 73
     8
 74
     0
 42
0.00000001
 43
0.00000001
 40
0.0
 40
0.0
 40
0.0
 40
0.0
 40
0.2494023648056276
 40
0.4991486310883144
 40
0.7488658669771149
 40
0.8743546734024692
 40
1.0
 40
1.0
 40
1.0
 40
1.0
 10
7.935211840842779
 20
7.095262196062876
 30
0.0
 10
7.934428999474191
 20
7.094648869799332
 30
0.0
 10
7.932862237275305
 20
7.093421371555293
 30
0.0
 10
7.932015940264749
 20
7.090263594855647
 30
0.0
 10
7.932295500770216
 20
7.087405067416078
 30
0.0
 10
7.933147761043685
 20
7.085176061132989
 30
0.0
 10
7.933757816732945
 20
7.084132829502642
 30
0.0
 10
7.934063034687179
 20
7.083610888588701
 30
0.0
  0
SPLINE
  5
167
330
1F
100
AcDbEntity
  8
0
  6
Continuous
 62
     7
370
     0
100
AcDbSpline
210
0.0
220
0.0
230
1.0
 70
     8
 71
     3
 72
    12
 73
     8
 74
     0
 42
0.00000001
 43
0.00000001
 40
0.0
 40
0.0
 40
0.0
 40
0.0
 40
0.5004590000213519
 40
0.7499685526057056
 40
0.8749070349480823
 40
0.9374264460328748
 40
1.0
 40
1.0
 40
1.0
 40
1.0
 10
7.956299170033492
 20
7.089826136110606
 30
0.0
 10
7.952818556106407
 20
7.091595546873171
 30
0.0
 10
7.947602642337319
 20
7.094247117588273
 30
0.0
 10
7.941188279060825
 20
7.096187416849191
 30
0.0
 10
7.938035046434807
 20
7.096195327842866
 30
0.0
 10
7.936351872664975
 20
7.095804764368594
 30
0.0
 10
7.935591961085449
 20
7.095443104342819
 30
0.0
 10
7.935211840842779
 20
7.095262196062876
 30
0.0
  0
ARC
  5
168
330
1F
100
AcDbEntity
  8
0
  6
Continuous
 62
     7
370
     0
100
AcDbCircle
 10
7.9861404997
 20
7.1273597781
 30
0.0
 40
0.0479508001604852
100
AcDbArc
 50
231.5133510678
 51
285.597353869
  0
ARC
  5
169
330
1F
100
AcDbEntity
  8
0
  6
Continuous
 62
     7
370
     0
100
AcDbCircle
 10
7.1074849472
 20
6.5579953672
 30
0.0
 40
1.033719075386362
100
AcDbArc
 50
30.4053110666
 51
34.1098929763
  0
LINE
  5
16A
330
1F
100
AcDbEntity
  8
0
  6
Continuous
 62
     7
370
     0
100
AcDbLine
 10
7.9504986652
 20
7.1302578612
 30
0.0
 11
7.9633666311
 21
7.1376863798
 31
0.0
  0
ARC
  5
16B
330
1F
100
AcDbEntity
  8
0
  6
Continuous
 62
     7
370
     0
100
AcDbCircle
 10
7.0980082379
 20
6.5527851555
 30
0.0
 40
1.029667254249405
100
AcDbArc
 50
32.1800781501
 51
34.1135142581
  0
SPLINE
  5
16C
330
1F
100
AcDbEntity
  8
0
  6
Continuous
 62
     7
370
     0
100
AcDbSpline
210
0.0
220
0.0
230
1.0
 70
    24
 71
     1
 72
     4
 73
     2
 74
     0
 42
0.00000001
 43
0.00000001
 40
0.0
 40
0.0
 40
1.0
 40
1.0
 10
7.893649285064936
 20
7.180027994980695
 30
0.0
 10
7.899573439732155
 20
7.177914666652026
 30
0.0
  0
ARC
  5
16D
330
1F
100
AcDbEntity
  8
0
  6
Continuous
 62
     7
370
     0
100
AcDbCircle
 10
7.9020319667
 20
7.1949884831
 30
0.0
 40
0.0171489228762458
100
AcDbArc
 50
219.0923968451
 51
240.7371570777
  0
ARC
  5
16E
330
1F
100
AcDbEntity
  8
0
  6
Continuous
 62
     7
370
     0
100
AcDbCircle
 10
7.894820551
 20
7.1903219935
 30
0.0
 40
0.0086589691288767
100
AcDbArc
 50
111.5996906349
 51
225.2282160912
  0
ARC
  5
16F
330
1F
100
AcDbEntity
  8
0
  6
Continuous
 62
     7
370
     0
100
AcDbCircle
 10
7.8986030477
 20
7.1882529655
 30
0.0
 40
0.0122879926106714
100
AcDbArc
 50
38.794498917
 51
124.5568052611
  0
ARC
  5
170
330
1F
100
AcDbEntity
  8
0
  6
Continuous
 62
     7
370
     0
100
AcDbCircle
 10
7.9017363673
 20
7.1899772483
 30
0.0
 40
0.0087874198639219
100
AcDbArc
 50
307.1756036641
 51
42.8352418012
  0
SPLINE
  5
171
330
1F
100
AcDbEntity
  8
0
  6
Continuous
 62
     7
370
     0
100
AcDbSpline
210
0.0
220
0.0
230
1.0
 70
    24
 71
     1
 72
     4
 73
     2
 74
     0
 42
0.00000001
 43
0.00000001
 40
0.0
 40
0.0
 40
1.0
 40
1.0
 10
7.922255962446578
 20
7.166309084659657
 30
0.0
 10
7.907046252736099
 20
7.182975543900962
 30
0.0
  0
SPLINE
  5
172
330
1F
100
AcDbEntity
  8
0
  6
Continuous
 62
     7
370
     0
100
AcDbSpline
210
0.0
220
0.0
230
1.0
 70
     8
 71
     3
 72
    12
 73
     8
 74
     0
 42
0.00000001
 43
0.00000001
 40
0.0
 40
0.0
 40
0.0
 40
0.0
 40
0.2504240434343215
 40
0.4999145453398338
 40
0.6247093935793209
 40
0.7503037755853393
 40
0.9999999999999999
 40
0.9999999999999999
 40
0.9999999999999999
 40
0.9999999999999999
 10
7.917649446874981
 20
7.201671996965844
 30
0.0
 10
7.919804922717045
 20
7.198801594966224
 30
0.0
 10
7.924107839125543
 20
7.193071491375118
 30
0.0
 10
7.927316701783786
 20
7.184888704774448
 30
0.0
 10
7.927653210198105
 20
7.178468504444513
 30
0.0
 10
7.926634599514882
 20
7.17232465176696
 30
0.0
 10
7.924005325937287
 20
7.168712438330964
 30
0.0
 10
7.922255962446578
 20
7.166309084659657
 30
0.0
  0
ARC
  5
173
330
1F
100
AcDbEntity
  8
0
  6
Continuous
 62
     7
370
     0
100
AcDbCircle
 10
7.8897562788
 20
7.1844100393
 30
0.0
 40
0.0328025000418074
100
AcDbArc
 50
31.7516954324
 51
114.3947238462
  0
SPLINE
  5
174
330
1F
100
AcDbEntity
  8
0
  6
Continuous
 62
     7
370
     0
100
AcDbSpline
210
0.0
220
0.0
230
1.0
 70
     8
 71
     3
 72
    13
 73
     9
 74
     0
 42
0.00000001
 43
0.00000001
 40
0.0
 40
0.0
 40
0.0
 40
0.0
 40
0.2497868956772746
 40
0.3752957420456404
 40
0.500265726424872
 40
0.627046957587206
 40
0.7507135917213824
 40
1.0
 40
1.0
 40
1.0
 40
1.0
 10
7.874910327372868
 20
7.183589515638979
 30
0.0
 10
7.872934924696206
 20
7.186342918166113
 30
0.0
 10
7.869966953893066
 20
7.19047980549869
 30
0.0
 10
7.868123399740878
 20
7.196461484866242
 30
0.0
 10
7.867743944401234
 20
7.200891424204573
 30
0.0
 10
7.868374048305279
 20
7.205059859935785
 30
0.0
 10
7.870542677713787
 20
7.210115368604588
 30
0.0
 10
7.873938417380808
 20
7.212613923195058
 30
0.0
 10
7.876208171609289
 20
7.214283987865176
 30
0.0
  0
SPLINE
  5
175
330
1F
100
AcDbEntity
  8
0
  6
Continuous
 62
     7
370
     0
100
AcDbSpline
210
0.0
220
0.0
230
1.0
 70
    24
 71
     1
 72
     4
 73
     2
 74
     0
 42
0.00000001
 43
0.00000001
 40
0.0
 40
0.0
 40
1.0
 40
1.0
 10
7.886279517281722
 20
7.173863624565473
 30
0.0
 10
7.874910327372869
 20
7.183589515638979
 30
0.0
  0
SPLINE
  5
176
330
1F
100
AcDbEntity
  8
0
  6
Continuous
 62
     7
370
     0
100
AcDbSpline
210
0.0
220
0.0
230
1.0
 70
    24
 71
     1
 72
     4
 73
     2
 74
     0
 42
0.00000001
 43
0.00000001
 40
0.0
 40
0.0
 40
1.0
 40
1.0
 10
7.876589749785938
 20
7.170416103768885
 30
0.0
 10
7.886279517281722
 20
7.173863624565473
 30
0.0
  0
ARC
  5
177
330
1F
100
AcDbEntity
  8
0
  6
Continuous
 62
     7
370
     0
100
AcDbCircle
 10
7.1201576499
 20
6.5744743781
 30
0.0
 40
0.9629828981529346
100
AcDbArc
 50
38.2321856881
 51
40.3141472785
  0
LINE
  5
178
330
1F
100
AcDbEntity
  8
0
  6
Continuous
 62
     7
370
     0
100
AcDbLine
 10
7.8418479248
 20
7.190233722
 30
0.0
 11
7.8544403946
 21
7.1975032
 31
0.0
  0
ARC
  5
179
330
1F
100
AcDbEntity
  8
0
  6
Continuous
 62
     7
370
     0
100
AcDbCircle
 10
7.1020087237
 20
6.5626316834
 30
0.0
 40
0.970178520869109
100
AcDbArc
 50
37.2496279009
 51
40.3077816227
  0
SPLINE
  5
17A
330
1F
100
AcDbEntity
  8
0
  6
Continuous
 62
     7
370
     0
100
AcDbSpline
210
0.0
220
0.0
230
1.0
 70
    24
 71
     1
 72
     4
 73
     2
 74
     0
 42
0.00000001
 43
0.00000001
 40
0.0
 40
0.0
 40
1.0
 40
1.0
 10
7.909003559713209
 20
7.161944973034128
 30
0.0
 10
7.874276582884432
 20
7.149869893997876
 30
0.0
  0
SPLINE
  5
17B
330
1F
100
AcDbEntity
  8
0
  6
Continuous
 62
     7
370
     0
100
AcDbSpline
210
0.0
220
0.0
230
1.0
 70
    24
 71
     1
 72
     4
 73
     2
 74
     0
 42
0.00000001
 43
0.00000001
 40
0.0
 40
0.0
 40
1.0
 40
1.0
 10
7.899573439732155
 20
7.177914666652026
 30
0.0
 10
7.909003559713209
 20
7.161944973034128
 30
0.0
  0
SPLINE
  5
17C
330
1F
100
AcDbEntity
  8
0
  6
Continuous
 62
     7
370
     0
100
AcDbSpline
210
0.0
220
0.0
230
1.0
 70
     8
 71
     3
 72
    13
 73
     9
 74
     0
 42
0.00000001
 43
0.00000001
 40
0.0
 40
0.0
 40
0.0
 40
0.0
 40
0.2501705057673755
 40
0.3840880186942976
 40
0.499910293641795
 40
0.6140227116115536
 40
0.7498213084067399
 40
1.0
 40
1.0
 40
1.0
 40
1.0
 10
7.738677867261318
 20
7.33349885284545
 30
0.0
 10
7.73796785503017
 20
7.333050226801531
 30
0.0
 10
7.736877769729052
 20
7.3323614490105
 30
0.0
 10
7.735946916955002
 20
7.331191022006912
 30
0.0
 10
7.735703239118543
 20
7.330200803430427
 30
0.0
 10
7.736050139387408
 20
7.329173281068342
 30
0.0
 10
7.737011695042949
 20
7.327858455932629
 30
0.0
 10
7.738100813103862
 20
7.326976366025537
 30
0.0
 10
7.738806746172119
 20
7.326404622284487
 30
0.0
  0
SPLINE
  5
17D
330
1F
100
AcDbEntity
  8
0
  6
Continuous
 62
     7
370
     0
100
AcDbSpline
210
0.0
220
0.0
230
1.0
 70
    24
 71
     1
 72
     4
 73
     2
 74
     0
 42
0.00000001
 43
0.00000001
 40
0.0
 40
0.0
 40
1.0
 40
1.0
 10
7.759895811261227
 20
7.322958708752317
 30
0.0
 10
7.738677867261318
 20
7.33349885284545
 30
0.0
  0
ARC
  5
17E
330
1F
100
AcDbEntity
  8
0
  6
Continuous
 62
     7
370
     0
100
AcDbCircle
 10
7.7800622985
 20
7.3542395492
 30
0.0
 40
0.0372179820242705
100
AcDbArc
 50
237.1904743981
 51
261.149505724
  0
SPLINE
  5
17F
330
1F
100
AcDbEntity
  8
0
  6
Continuous
 62
     7
370
     0
100
AcDbSpline
210
0.0
220
0.0
230
1.0
 70
     8
 71
     3
 72
     9
 73
     5
 74
     0
 42
0.00000001
 43
0.00000001
 40
0.0
 40
0.0
 40
0.0
 40
0.0
 40
0.5006506955429186
 40
1.0
 40
1.0
 40
1.0
 40
1.0
 10
7.784740063535686
 20
7.319678695837478
 30
0.0
 10
7.783233364919914
 20
7.31893238443261
 30
0.0
 10
7.78022388419975
 20
7.317441701584246
 30
0.0
 10
7.776296966475835
 20
7.317457050683961
 30
0.0
 10
7.774336062841739
 20
7.317464715246229
 30
0.0
  0
SPLINE
  5
180
330
1F
100
AcDbEntity
  8
0
  6
Continuous
 62
     7
370
     0
100
AcDbSpline
210
0.0
220
0.0
230
1.0
 70
     8
 71
     3
 72
    14
 73
    10
 74
     0
 42
0.00000001
 43
0.00000001
 40
0.0
 40
0.0
 40
0.0
 40
0.0
 40
0.2500047170986168
 40
0.3799563988543005
 40
0.5001514804936645
 40
0.6248780927841975
 40
0.7508658106747941
 40
0.8742378331967752
 40
0.9999999999999999
 40
0.9999999999999999
 40
0.9999999999999999
 40
0.9999999999999999
 10
7.781857635041236
 20
7.338472530526285
 30
0.0
 10
7.783536333949452
 20
7.337018176881379
 30
0.0
 10
7.786087615378576
 20
7.334807854692293
 30
0.0
 10
7.788386287528869
 20
7.331448879309884
 30
0.0
 10
7.789390585993261
 20
7.328799278846225
 30
0.0
 10
7.78952883196856
 20
7.326162743232699
 30
0.0
 10
7.788867989006816
 20
7.323624238225076
 30
0.0
 10
7.787261899098088
 20
7.321366634635906
 30
0.0
 10
7.78558603469402
 20
7.320244929243728
 30
0.0
 10
7.784740063535686
 20
7.319678695837478
 30
0.0
  0
SPLINE
  5
181
330
1F
100
AcDbEntity
  8
0
  6
Continuous
 62
     7
370
     0
100
AcDbSpline
210
0.0
220
0.0
230
1.0
 70
    24
 71
     1
 72
     4
 73
     2
 74
     0
 42
0.00000001
 43
0.00000001
 40
0.0
 40
0.0
 40
1.0
 40
1.0
 10
7.770571274963712
 20
7.344955030001753
 30
0.0
 10
7.781857635041236
 20
7.338472530526285
 30
0.0
  0
SPLINE
  5
182
330
1F
100
AcDbEntity
  8
0
  6
Continuous
 62
     7
370
     0
100
AcDbSpline
210
0.0
220
0.0
230
1.0
 70
    24
 71
     1
 72
     4
 73
     2
 74
     0
 42
0.00000001
 43
0.00000001
 40
0.0
 40
0.0
 40
1.0
 40
1.0
 10
7.760233743402635
 20
7.347103437833442
 30
0.0
 10
7.770571274963712
 20
7.344955030001753
 30
0.0
  0
SPLINE
  5
183
330
1F
100
AcDbEntity
  8
0
  6
Continuous
 62
     7
370
     0
100
AcDbSpline
210
0.0
220
0.0
230
1.0
 70
     8
 71
     3
 72
     9
 73
     5
 74
     0
 42
0.00000001
 43
0.00000001
 40
0.0
 40
0.0
 40
0.0
 40
0.0
 40
0.4998463205888346
 40
0.9999999999999999
 40
0.9999999999999999
 40
0.9999999999999999
 40
0.9999999999999999
 10
7.763580816032762
 20
7.351276492901655
 30
0.0
 10
7.763224173334759
 20
7.350499467779849
 30
0.0
 10
7.76251066863679
 20
7.348944939738326
 30
0.0
 10
7.760992873983212
 20
7.347717397567043
 30
0.0
 10
7.760233743402635
 20
7.347103437833442
 30
0.0
  0
ARC
  5
184
330
1F
100
AcDbEntity
  8
0
  6
Continuous
 62
     7
370
     0
100
AcDbCircle
 10
7.3604645251
 20
6.8099579836
 30
0.0
 40
0.6749284944024025
100
AcDbArc
 50
53.3251898818
 51
54.8635505727
  0
SPLINE
  5
185
330
1F
100
AcDbEntity
  8
0
  6
Continuous
 62
     7
370
     0
100
AcDbSpline
210
0.0
220
0.0
230
1.0
 70
     8
 71
     3
 72
     9
 73
     5
 74
     0
 42
0.00000001
 43
0.00000001
 40
0.0
 40
0.0
 40
0.0
 40
0.0
 40
0.5000572978128665
 40
1.0
 40
1.0
 40
1.0
 40
1.0
 10
7.742106851913677
 20
7.355461435339265
 30
0.0
 10
7.743621134765039
 20
7.356356745171804
 30
0.0
 10
7.74664935344715
 20
7.358147159663215
 30
0.0
 10
7.748151948419522
 20
7.360651510309541
 30
0.0
 10
7.748903159810301
 20
7.36190354213889
 30
0.0
  0
LINE
  5
186
330
1F
100
AcDbEntity
  8
0
  6
Continuous
 62
     7
370
     0
100
AcDbLine
 10
7.7239355851
 20
7.3449713863
 30
0.0
 11
7.7421068519
 21
7.3554614353
 31
0.0
  0
ARC
  5
187
330
1F
100
AcDbEntity
  8
0
  6
Continuous
 62
     7
370
     0
100
AcDbCircle
 10
7.7281822734
 20
7.334820989
 30
0.0
 40
0.0110029508697486
100
AcDbArc
 50
112.7032913509
 51
176.3796272574
  0
ARC
  5
188
330
1F
100
AcDbEntity
  8
0
  6
Continuous
 62
     7
370
     0
100
AcDbCircle
 10
7.744285086
 20
7.3451775124
 30
0.0
 40
0.0287555505442248
100
AcDbArc
 50
199.6330898859
 51
243.5272285961
  0
SPLINE
  5
189
330
1F
100
AcDbEntity
  8
0
  6
Continuous
 62
     7
370
     0
100
AcDbSpline
210
0.0
220
0.0
230
1.0
 70
     8
 71
     3
 72
     9
 73
     5
 74
     0
 42
0.00000001
 43
0.00000001
 40
0.0
 40
0.0
 40
0.0
 40
0.0
 40
0.4989850375674067
 40
1.0
 40
1.0
 40
1.0
 40
1.0
 10
7.747916402255663
 20
7.309843466938492
 30
0.0
 10
7.744872174938024
 20
7.311197714010668
 30
0.0
 10
7.738771336058204
 20
7.31391171737794
 30
0.0
 10
7.733904840492192
 20
7.317592806678987
 30
0.0
 10
7.731466653399009
 20
7.319437087496863
 30
0.0
  0
ARC
  5
18A
330
1F
100
AcDbEntity
  8
0
  6
Continuous
 62
     7
370
     0
100
AcDbCircle
 10
7.7562461789
 20
7.3342997477
 30
0.0
 40
0.0258359216408467
100
AcDbArc
 50
251.1912255134
 51
289.8120004197
  0
SPLINE
  5
18B
330
1F
100
AcDbEntity
  8
0
  6
Continuous
 62
     7
370
     0
100
AcDbSpline
210
0.0
220
0.0
230
1.0
 70
    24
 71
     1
 72
     4
 73
     2
 74
     0
 42
0.00000001
 43
0.00000001
 40
0.0
 40
0.0
 40
1.0
 40
1.0
 10
7.751827625564274
 20
7.322898126464102
 30
0.0
 10
7.765002876442915
 20
7.309993059387671
 30
0.0
  0
SPLINE
  5
18C
330
1F
100
AcDbEntity
  8
0
  6
Continuous
 62
     7
370
     0
100
AcDbSpline
210
0.0
220
0.0
230
1.0
 70
     8
 71
     3
 72
     9
 73
     5
 74
     0
 42
0.00000001
 43
0.00000001
 40
0.0
 40
0.0
 40
0.0
 40
0.0
 40
0.4984185104767997
 40
0.9999999999999999
 40
0.9999999999999999
 40
0.9999999999999999
 40
0.9999999999999999
 10
7.745771481896905
 20
7.322683275395247
 30
0.0
 10
7.746823188573291
 20
7.322551666911004
 30
0.0
 10
7.748933276088663
 20
7.322287614751073
 30
0.0
 10
7.750860810155782
 20
7.322694193892656
 30
0.0
 10
7.751827625564274
 20
7.322898126464102
 30
0.0
  0
SPLINE
  5
18D
330
1F
100
AcDbEntity
  8
0
  6
Continuous
 62
     7
370
     0
100
AcDbSpline
210
0.0
220
0.0
230
1.0
 70
     8
 71
     3
 72
     9
 73
     5
 74
     0
 42
0.00000001
 43
0.00000001
 40
0.0
 40
0.0
 40
0.0
 40
0.0
 40
0.501198428036174
 40
1.0
 40
1.0
 40
1.0
 40
1.0
 10
7.738806746172118
 20
7.326404622284487
 30
0.0
 10
7.739818147004141
 20
7.325644517931332
 30
0.0
 10
7.741836111896781
 20
7.324127944233895
 30
0.0
 10
7.744461789687448
 20
7.323164061578798
 30
0.0
 10
7.745771481896905
 20
7.322683275395247
 30
0.0
  0
ARC
  5
18E
330
1F
100
AcDbEntity
  8
0
  6
Continuous
 62
     7
370
     0
100
AcDbCircle
 10
7.6608628806
 20
7.4027262511
 30
0.0
 40
0.0206277926596622
100
AcDbArc
 50
246.0036260276
 51
304.4573146968
  0
SPLINE
  5
18F
330
1F
100
AcDbEntity
  8
0
  6
Continuous
 62
     7
370
     0
100
AcDbSpline
210
0.0
220
0.0
230
1.0
 70
     8
 71
     3
 72
    12
 73
     8
 74
     0
 42
0.00000001
 43
0.00000001
 40
0.0
 40
0.0
 40
0.0
 40
0.0
 40
0.2499205863328103
 40
0.3770821375959512
 40
0.5003335730966026
 40
0.7497132612427451
 40
1.0
 40
1.0
 40
1.0
 40
1.0
 10
7.65031533761614
 20
7.390800104858561
 30
0.0
 10
7.64978787290691
 20
7.390204532791339
 30
0.0
 10
7.64899203002345
 20
7.389305928992843
 30
0.0
 10
7.648709360327897
 20
7.388012837263878
 30
0.0
 10
7.648895949030249
 20
7.386736073145664
 30
0.0
 10
7.650090774126157
 20
7.385257930438458
 30
0.0
 10
7.651678626576578
 20
7.384340727725381
 30
0.0
 10
7.65247399402583
 20
7.383881293864159
 30
0.0
  0
SPLINE
  5
190
330
1F
100
AcDbEntity
  8
0
  6
Continuous
 62
     7
370
     0
100
AcDbSpline
210
0.0
220
0.0
230
1.0
 70
    24
 71
     1
 72
     4
 73
     2
 74
     0
 42
0.00000001
 43
0.00000001
 40
0.0
 40
0.0
 40
1.0
 40
1.0
 10
7.63355822838521
 20
7.396826073224021
 30
0.0
 10
7.65031533761614
 20
7.390800104858561
 30
0.0
  0
SPLINE
  5
191
330
1F
100
AcDbEntity
  8
0
  6
Continuous
 62
     7
370
     0
100
AcDbSpline
210
0.0
220
0.0
230
1.0
 70
     8
 71
     3
 72
    12
 73
     8
 74
     0
 42
0.00000001
 43
0.00000001
 40
0.0
 40
0.0
 40
0.0
 40
0.0
 40
0.2504931653223356
 40
0.5001218721704479
 40
0.6252456824059347
 40
0.7504040889272343
 40
1.0
 40
1.0
 40
1.0
 40
1.0
 10
7.642130958664106
 20
7.377404260617291
 30
0.0
 10
7.639792006833638
 20
7.37871593960345
 30
0.0
 10
7.635122174956727
 20
7.381334770937232
 30
0.0
 10
7.630967897203061
 20
7.385300434569321
 30
0.0
 10
7.629837300309842
 20
7.38884614775601
 30
0.0
 10
7.630092373696383
 20
7.392499074314009
 30
0.0
 10
7.632172686875037
 20
7.3950962728883
 30
0.0
 10
7.63355822838521
 20
7.396826073224021
 30
0.0
  0
SPLINE
  5
192
330
1F
100
AcDbEntity
  8
0
  6
Continuous
 62
     7
370
     0
100
AcDbSpline
210
0.0
220
0.0
230
1.0
 70
    24
 71
     1
 72
     4
 73
     2
 74
     0
 42
0.00000001
 43
0.00000001
 40
0.0
 40
0.0
 40
1.0
 40
1.0
 10
7.655831247876253
 20
7.372089173894782
 30
0.0
 10
7.642130958664106
 20
7.377404260617291
 30
0.0
  0
SPLINE
  5
193
330
1F
100
AcDbEntity
  8
0
  6
Continuous
 62
     7
370
     0
100
AcDbSpline
210
0.0
220
0.0
230
1.0
 70
     8
 71
     3
 72
     9
 73
     5
 74
     0
 42
0.00000001
 43
0.00000001
 40
0.0
 40
0.0
 40
0.0
 40
0.0
 40
0.4972076013829881
 40
1.0
 40
1.0
 40
1.0
 40
1.0
 10
7.675046786819087
 20
7.371686645429018
 30
0.0
 10
7.671830020574391
 20
7.371306042937757
 30
0.0
 10
7.665360356321978
 20
7.370540562904464
 30
0.0
 10
7.659019421636325
 20
7.371571051874026
 30
0.0
 10
7.655831247876253
 20
7.372089173894782
 30
0.0
  0
SPLINE
  5
194
330
1F
100
AcDbEntity
  8
0
  6
Continuous
 62
     7
370
     0
100
AcDbSpline
210
0.0
220
0.0
230
1.0
 70
     8
 71
     3
 72
     9
 73
     5
 74
     0
 42
0.00000001
 43
0.00000001
 40
0.0
 40
0.0
 40
0.0
 40
0.0
 40
0.5005315226334652
 40
1.0
 40
1.0
 40
1.0
 40
1.0
 10
7.687799847678702
 20
7.376518544858582
 30
0.0
 10
7.68591952152275
 20
7.37549267501226
 30
0.0
 10
7.682162862709213
 20
7.373443114095646
 30
0.0
 10
7.677417130473065
 20
7.372271719902877
 30
0.0
 10
7.675046786819087
 20
7.371686645429018
 30
0.0
  0
SPLINE
  5
195
330
1F
100
AcDbEntity
  8
0
  6
Continuous
 62
     7
370
     0
100
AcDbSpline
210
0.0
220
0.0
230
1.0
 70
     8
 71
     3
 72
    14
 73
    10
 74
     0
 42
0.00000001
 43
0.00000001
 40
0.0
 40
0.0
 40
0.0
 40
0.0
 40
0.2500796953167305
 40
0.3795939076692235
 40
0.5000103126990064
 40
0.6249779831585222
 40
0.7499325412132495
 40
0.8625387534417025
 40
1.0
 40
1.0
 40
1.0
 40
1.0
 10
7.684041954405291
 20
7.402837908126268
 30
0.0
 10
7.687094607290018
 20
7.401111367925099
 30
0.0
 10
7.691728203935297
 20
7.398490666788686
 30
0.0
 10
7.695893659731602
 20
7.394040075646271
 30
0.0
 10
7.697467470535384
 20
7.390308534110265
 30
0.0
 10
7.69735074500152
 20
7.386484885674074
 30
0.0
 10
7.695860203148196
 20
7.382809725693364
 30
0.0
 10
7.692493157417394
 20
7.37942906607866
 30
0.0
 10
7.689464622954099
 20
7.377550942896529
 30
0.0
 10
7.687799847678702
 20
7.376518544858582
 30
0.0
  0
ARC
  5
196
330
1F
100
AcDbEntity
  8
0
  6
Continuous
 62
     7
370
     0
100
AcDbCircle
 10
7.6627630166
 20
7.3624062107
 30
0.0
 40
0.0456893351869712
100
AcDbArc
 50
62.2424613726
 51
111.1149649124
  0
SPLINE
  5
197
330
1F
100
AcDbEntity
  8
0
  6
Continuous
 62
     7
370
     0
100
AcDbSpline
210
0.0
220
0.0
230
1.0
 70
    24
 71
     1
 72
     4
 73
     2
 74
     0
 42
0.00000001
 43
0.00000001
 40
0.0
 40
0.0
 40
1.0
 40
1.0
 10
7.659534288712682
 20
7.396828252569811
 30
0.0
 10
7.646303868944194
 20
7.405027940029171
 30
0.0
  0
ARC
  5
198
330
1F
100
AcDbEntity
  8
0
  6
Continuous
 62
     7
370
     0
100
AcDbCircle
 10
7.6662874643
 20
7.3791139086
 30
0.0
 40
0.0189579366931407
100
AcDbArc
 50
64.7837341107
 51
110.8681673426
  0
SPLINE
  5
199
330
1F
100
AcDbEntity
  8
0
  6
Continuous
 62
     7
370
     0
100
AcDbSpline
210
0.0
220
0.0
230
1.0
 70
     8
 71
     3
 72
    14
 73
    10
 74
     0
 42
0.00000001
 43
0.00000001
 40
0.0
 40
0.0
 40
0.0
 40
0.0
 40
0.2499126333277524
 40
0.3788826256983385
 40
0.5000564188328328
 40
0.6248407341091103
 40
0.7500055571873577
 40
0.874921873512087
 40
1.0
 40
1.0
 40
1.0
 40
1.0
 10
7.6725339228211
 20
7.385717647308044
 30
0.0
 10
7.67374294461556
 20
7.386478463255815
 30
0.0
 10
7.675575894578559
 20
7.387631906121532
 30
0.0
 10
7.677170706618794
 20
7.389465219729984
 30
0.0
 10
7.677849453445984
 20
7.390936195904998
 30
0.0
 10
7.677913979913517
 20
7.392430840576623
 30
0.0
 10
7.677346709088046
 20
7.393886611448885
 30
0.0
 10
7.67616461550325
 20
7.395214498891899
 30
0.0
 10
7.674964617857049
 20
7.395914862074435
 30
0.0
 10
7.674364230681686
 20
7.396265270322504
 30
0.0
  0
ARC
  5
19A
330
1F
100
AcDbEntity
  8
0
  6
Continuous
 62
     7
370
     0
100
AcDbCircle
 10
7.5523573763
 20
7.4779029117
 30
0.0
 40
0.0625228344084757
100
AcDbArc
 50
257.5593900493
 51
299.2493737031
  0
SPLINE
  5
19B
330
1F
100
AcDbEntity
  8
0
  6
Continuous
 62
     7
370
     0
100
AcDbSpline
210
0.0
220
0.0
230
1.0
 70
     8
 71
     3
 72
    13
 73
     9
 74
     0
 42
0.00000001
 43
0.00000001
 40
0.0
 40
0.0
 40
0.0
 40
0.0
 40
0.2502092620005199
 40
0.3753081960891699
 40
0.5003750810855425
 40
0.6255355602286988
 40
0.7507183164374087
 40
1.0
 40
1.0
 40
1.0
 40
1.0
 10
7.581437844604773
 20
7.441775590727583
 30
0.0
 10
7.584239609776454
 20
7.441017609083958
 30
0.0
 10
7.588442193741737
 20
7.439880653876692
 30
0.0
 10
7.591974990206055
 20
7.437236587290856
 30
0.0
 10
7.592915610566962
 20
7.434700646441035
 30
0.0
 10
7.592297746540304
 20
7.431880431875085
 30
0.0
 10
7.589892934995361
 20
7.427948468572263
 30
0.0
 10
7.585698805138889
 20
7.425188782584078
 30
0.0
 10
7.582906764985918
 20
7.423351654418694
 30
0.0
  0
ARC
  5
19C
330
1F
100
AcDbEntity
  8
0
  6
Continuous
 62
     7
370
     0
100
AcDbCircle
 10
7.5687608617
 20
7.3843495509
 30
0.0
 40
0.0588086383890304
100
AcDbArc
 50
77.5514242728
 51
110.6987397552
  0
SPLINE
  5
19D
330
1F
100
AcDbEntity
  8
0
  6
Continuous
 62
     7
370
     0
100
AcDbSpline
210
0.0
220
0.0
230
1.0
 70
    24
 71
     1
 72
     4
 73
     2
 74
     0
 42
0.00000001
 43
0.00000001
 40
0.0
 40
0.0
 40
1.0
 40
1.0
 10
7.561251353207576
 20
7.435828206232256
 30
0.0
 10
7.547974697441084
 20
7.439362197829869
 30
0.0
  0
SPLINE
  5
19E
330
1F
100
AcDbEntity
  8
0
  6
Continuous
 62
     7
370
     0
100
AcDbSpline
210
0.0
220
0.0
230
1.0
 70
    24
 71
     1
 72
     4
 73
     2
 74
     0
 42
0.00000001
 43
0.00000001
 40
0.0
 40
0.0
 40
1.0
 40
1.0
 10
7.566461001142272
 20
7.436772710967842
 30
0.0
 10
7.561251353207576
 20
7.435828206232256
 30
0.0
  0
SPLINE
  5
19F
330
1F
100
AcDbEntity
  8
0
  6
Continuous
 62
     7
370
     0
100
AcDbSpline
210
0.0
220
0.0
230
1.0
 70
     8
 71
     3
 72
     9
 73
     5
 74
     0
 42
0.00000001
 43
0.00000001
 40
0.0
 40
0.0
 40
0.0
 40
0.0
 40
0.499813390079239
 40
0.9999999999999999
 40
0.9999999999999999
 40
0.9999999999999999
 40
0.9999999999999999
 10
7.571844564856381
 20
7.436503448118595
 30
0.0
 10
7.571054076516908
 20
7.436642596722367
 30
0.0
 10
7.569472509565793
 20
7.436920997834735
 30
0.0
 10
7.567465087020087
 20
7.436822152220522
 30
0.0
 10
7.566461001142272
 20
7.436772710967842
 30
0.0
  0
SPLINE
  5
1A0
330
1F
100
AcDbEntity
  8
0
  6
Continuous
 62
     7
370
     0
100
AcDbSpline
210
0.0
220
0.0
230
1.0
 70
     8
 71
     3
 72
    10
 73
     6
 74
     0
 42
0.00000001
 43
0.00000001
 40
0.0
 40
0.0
 40
0.0
 40
0.0
 40
0.2506462839715529
 40
0.5011586610055278
 40
1.0
 40
1.0
 40
1.0
 40
1.0
 10
7.574896378278063
 20
7.433598807260113
 30
0.0
 10
7.574928514525704
 20
7.433925820424958
 30
0.0
 10
7.574992769852302
 20
7.434579672048963
 30
0.0
 10
7.574288024426567
 20
7.435716331246906
 30
0.0
 10
7.57282109383626
 20
7.436188876744001
 30
0.0
 10
7.571844564856381
 20
7.436503448118595
 30
0.0
  0
SPLINE
  5
1A1
330
1F
100
AcDbEntity
  8
0
  6
Continuous
 62
     7
370
     0
100
AcDbSpline
210
0.0
220
0.0
230
1.0
 70
     8
 71
     3
 72
     9
 73
     5
 74
     0
 42
0.00000001
 43
0.00000001
 40
0.0
 40
0.0
 40
0.0
 40
0.0
 40
0.5011623542816249
 40
1.0
 40
1.0
 40
1.0
 40
1.0
 10
7.571225327139244
 20
7.429845435585169
 30
0.0
 10
7.572116144877635
 20
7.430466893913463
 30
0.0
 10
7.573893648177277
 20
7.431706927852535
 30
0.0
 10
7.574562653325134
 20
7.432969158897359
 30
0.0
 10
7.574896378278063
 20
7.433598807260113
 30
0.0
  0
ARC
  5
1A2
330
1F
100
AcDbEntity
  8
0
  6
Continuous
 62
     7
370
     0
100
AcDbCircle
 10
7.4883714206
 20
7.1029795914
 30
0.0
 40
0.3372032769020898
100
AcDbArc
 50
75.7762580573
 51
80.9968093994
  0
LINE
  5
1A3
330
1F
100
AcDbEntity
  8
0
  6
Continuous
 62
     7
370
     0
100
AcDbLine
 10
7.5393494563
 20
7.4349946349
 30
0.0
 11
7.5411401812
 21
7.4360283984
 31
0.0
  0
SPLINE
  5
1A4
330
1F
100
AcDbEntity
  8
0
  6
Continuous
 62
     7
370
     0
100
AcDbSpline
210
0.0
220
0.0
230
1.0
 70
     8
 71
     3
 72
    13
 73
     9
 74
     0
 42
0.00000001
 43
0.00000001
 40
0.0
 40
0.0
 40
0.0
 40
0.0
 40
0.2500649107443239
 40
0.3783596976320487
 40
0.5001025157056066
 40
0.6229520872463432
 40
0.7501470080802048
 40
1.0
 40
1.0
 40
1.0
 40
1.0
 10
7.538888237377799
 20
7.416848123882076
 30
0.0
 10
7.535886807252532
 20
7.417619715304001
 30
0.0
 10
7.531345505590978
 20
7.418787168571339
 30
0.0
 10
7.527833407927457
 20
7.421260551226656
 30
0.0
 10
7.526951187180622
 20
7.423602414293225
 30
0.0
 10
7.527907633338512
 20
7.426299699527871
 30
0.0
 10
7.531514085585391
 20
7.430190910061653
 30
0.0
 10
7.536226648832635
 20
7.433080097797279
 30
0.0
 10
7.539349456271976
 20
7.434994634850918
 30
0.0
  0
LINE
  5
1A5
330
1F
100
AcDbEntity
  8
0
  6
Continuous
 62
     7
370
     0
100
AcDbLine
 10
7.4886766816
 20
7.4275252764
 30
0.0
 11
7.468990186
 21
7.4161605044
 31
0.0
  0
SPLINE
  5
1A6
330
1F
100
AcDbEntity
  8
0
  6
Continuous
 62
     7
370
     0
100
AcDbSpline
210
0.0
220
0.0
230
1.0
 70
     8
 71
     3
 72
    11
 73
     7
 74
     0
 42
0.00000001
 43
0.00000001
 40
0.0
 40
0.0
 40
0.0
 40
0.0
 40
0.4988199337615866
 40
0.7491888849042855
 40
0.8745696102450834
 40
1.0
 40
1.0
 40
1.0
 40
1.0
 10
7.494699655292945
 20
7.423927555696329
 30
0.0
 10
7.492832835489466
 20
7.424204304266718
 30
0.0
 10
7.490029016812175
 20
7.424619959173058
 30
0.0
 10
7.488799875597195
 20
7.425912543958095
 30
0.0
 10
7.488565635236179
 20
7.426788769264087
 30
0.0
 10
7.488639661268778
 20
7.427279741599667
 30
0.0
 10
7.488676681614218
 20
7.427525276377451
 30
0.0
  0
ARC
  5
1A7
330
1F
100
AcDbEntity
  8
0
  6
Continuous
 62
     7
370
     0
100
AcDbCircle
 10
7.4963400104
 20
7.4901040138
 30
0.0
 40
0.0661967852289116
100
AcDbArc
 50
268.5800662657
 51
302.4739940607
  0
SPLINE
  5
1A8
330
1F
100
AcDbEntity
  8
0
  6
Continuous
 62
     7
370
     0
100
AcDbSpline
210
0.0
220
0.0
230
1.0
 70
     8
 71
     3
 72
    13
 73
     9
 74
     0
 42
0.00000001
 43
0.00000001
 40
0.0
 40
0.0
 40
0.0
 40
0.0
 40
0.1251722017704555
 40
0.2501710903368906
 40
0.3751630043242042
 40
0.5002554073255646
 40
0.749909980747716
 40
1.0
 40
1.0
 40
1.0
 40
1.0
 10
7.537773962831377
 20
7.448744739126255
 30
0.0
 10
7.538910602966773
 20
7.448596248891123
 30
0.0
 10
7.541182309447692
 20
7.44829947402017
 30
0.0
 10
7.543345805369028
 20
7.447174214685618
 30
0.0
 10
7.544030025737125
 20
7.44548986794483
 30
0.0
 10
7.542915946400256
 20
7.44272606195687
 30
0.0
 10
7.539289063710628
 20
7.438852016557663
 30
0.0
 10
7.534352570361571
 20
7.435790277093393
 30
0.0
 10
7.531882173013003
 20
7.434258073458198
 30
0.0
  0
ARC
  5
1A9
330
1F
100
AcDbEntity
  8
0
  6
Continuous
 62
     7
370
     0
100
AcDbCircle
 10
7.5353497527
 20
7.4150165739
 30
0.0
 40
0.0338151730328518
100
AcDbArc
 50
85.888938428
 51
100.7751420011
  0
SPLINE
  5
1AA
330
1F
100
AcDbEntity
  8
0
  6
Continuous
 62
     7
370
     0
100
AcDbSpline
210
0.0
220
0.0
230
1.0
 70
    24
 71
     1
 72
     4
 73
     2
 74
     0
 42
0.00000001
 43
0.00000001
 40
0.0
 40
0.0
 40
1.0
 40
1.0
 10
7.518640986260347
 20
7.445485434894849
 30
0.0
 10
7.529027832751032
 20
7.448235533120394
 30
0.0
  0
LINE
  5
1AB
330
1F
100
AcDbEntity
  8
0
  6
Continuous
 62
     7
370
     0
100
AcDbLine
 10
7.5247248595
 20
7.4489975802
 30
0.0
 11
7.5186409863
 21
7.4454854349
 31
0.0
  0
ARC
  5
1AC
330
1F
100
AcDbEntity
  8
0
  6
Continuous
 62
     7
370
     0
100
AcDbCircle
 10
7.5130337482
 20
7.1810252554
 30
0.0
 40
0.2682272337623816
100
AcDbArc
 50
87.5018807603
 51
90.3390947937
  0
LINE
  5
1AD
330
1F
100
AcDbEntity
  8
0
  6
Continuous
 62
     7
370
     0
100
AcDbLine
 10
7.4546481801
 20
7.4164589334
 30
0.0
 11
7.5114463027
 21
7.4492477916
 31
0.0
  0
ARC
  5
1AE
330
1F
100
AcDbEntity
  8
0
  6
Continuous
 62
     7
370
     0
100
AcDbCircle
 10
7.456229219
 20
7.1476652766
 30
0.0
 40
0.2687983065355345
100
AcDbArc
 50
87.2789096626
 51
90.3370087342
  0
SPLINE
  5
1AF
330
1F
100
AcDbEntity
  8
0
  6
Continuous
 62
     7
370
     0
100
AcDbSpline
210
0.0
220
0.0
230
1.0
 70
     8
 71
     3
 72
    13
 73
     9
 74
     0
 42
0.00000001
 43
0.00000001
 40
0.0
 40
0.0
 40
0.0
 40
0.0
 40
0.2501705057673131
 40
0.3840880186890853
 40
0.4999102936415509
 40
0.6140227116093808
 40
0.7498213084068029
 40
1.0
 40
1.0
 40
1.0
 40
1.0
 10
7.38488006178533
 20
7.410466799492052
 30
0.0
 10
7.384162371989532
 20
7.410051004300672
 30
0.0
 10
7.383060499285327
 20
7.409412631880441
 30
0.0
 10
7.382004821011466
 20
7.40877802874037
 30
0.0
 10
7.381594426400105
 20
7.408506094145467
 30
0.0
 10
7.381702229919514
 20
7.408514847696114
 30
0.0
 10
7.382302805787027
 20
7.408775181010983
 30
0.0
 10
7.383106499179997
 20
7.409159667327732
 30
0.0
 10
7.383627428694616
 20
7.40940887961704
 30
0.0
  0
SPLINE
  5
1B0
330
1F
100
AcDbEntity
  8
0
  6
Continuous
 62
     7
370
     0
100
AcDbSpline
210
0.0
220
0.0
230
1.0
 70
    24
 71
     1
 72
     4
 73
     2
 74
     0
 42
0.00000001
 43
0.00000001
 40
0.0
 40
0.0
 40
1.0
 40
1.0
 10
7.401945966773304
 20
7.418881673421516
 30
0.0
 10
7.38488006178533
 20
7.410466799492052
 30
0.0
  0
ARC
  5
1B1
330
1F
100
AcDbEntity
  8
0
  6
Continuous
 62
     7
370
     0
100
AcDbCircle
 10
7.2281829318
 20
7.8091532652
 30
0.0
 40
0.4272066334533628
100
AcDbArc
 50
294.0003586501
 51
295.8117795297
  0
SPLINE
  5
1B2
330
1F
100
AcDbEntity
  8
0
  6
Continuous
 62
     7
370
     0
100
AcDbSpline
210
0.0
220
0.0
230
1.0
 70
     8
 71
     3
 72
     9
 73
     5
 74
     0
 42
0.00000001
 43
0.00000001
 40
0.0
 40
0.0
 40
0.0
 40
0.0
 40
0.5006506955429185
 40
1.0
 40
1.0
 40
1.0
 40
1.0
 10
7.424040390724052
 20
7.42980876853952
 30
0.0
 10
7.422551122234061
 20
7.428964699202647
 30
0.0
 10
7.419576456457604
 20
7.427278754602174
 30
0.0
 10
7.415987672486849
 20
7.425471699873238
 30
0.0
 10
7.414195615707206
 20
7.424569348351229
 30
0.0
  0
SPLINE
  5
1B3
330
1F
100
AcDbEntity
  8
0
  6
Continuous
 62
     7
370
     0
100
AcDbSpline
210
0.0
220
0.0
230
1.0
 70
     8
 71
     3
 72
    14
 73
    10
 74
     0
 42
0.00000001
 43
0.00000001
 40
0.0
 40
0.0
 40
0.0
 40
0.0
 40
0.2500047170986605
 40
0.3799563988546119
 40
0.5001514804937028
 40
0.62487809278217
 40
0.7508658106728215
 40
0.8742378331941347
 40
1.0
 40
1.0
 40
1.0
 40
1.0
 10
7.424386899885342
 20
7.432073670964936
 30
0.0
 10
7.425658064626679
 20
7.432601810482196
 30
0.0
 10
7.427589976884473
 20
7.433404475293483
 30
0.0
 10
7.429144678535113
 20
7.433835804160961
 30
0.0
 10
7.429648566205849
 20
7.43378629506147
 30
0.0
 10
7.429376288040994
 20
7.43332663825284
 30
0.0
 10
7.428395994542603
 20
7.432510368098373
 30
0.0
 10
7.426595865230289
 20
7.43131209912765
 30
0.0
 10
7.424897646351812
 20
7.430313073553682
 30
0.0
 10
7.424040390724051
 20
7.42980876853952
 30
0.0
  0
SPLINE
  5
1B4
330
1F
100
AcDbEntity
  8
0
  6
Continuous
 62
     7
370
     0
100
AcDbSpline
210
0.0
220
0.0
230
1.0
 70
    24
 71
     1
 72
     4
 73
     2
 74
     0
 42
0.00000001
 43
0.00000001
 40
0.0
 40
0.0
 40
1.0
 40
1.0
 10
7.415432013608342
 20
7.427780813107684
 30
0.0
 10
7.424386899885342
 20
7.432073670964936
 30
0.0
  0
SPLINE
  5
1B5
330
1F
100
AcDbEntity
  8
0
  6
Continuous
 62
     7
370
     0
100
AcDbSpline
210
0.0
220
0.0
230
1.0
 70
    24
 71
     1
 72
     4
 73
     2
 74
     0
 42
0.00000001
 43
0.00000001
 40
0.0
 40
0.0
 40
1.0
 40
1.0
 10
7.406666325483213
 20
7.423087510046648
 30
0.0
 10
7.415432013608342
 20
7.427780813107684
 30
0.0
  0
SPLINE
  5
1B6
330
1F
100
AcDbEntity
  8
0
  6
Continuous
 62
     7
370
     0
100
AcDbSpline
210
0.0
220
0.0
230
1.0
 70
     8
 71
     3
 72
     9
 73
     5
 74
     0
 42
0.00000001
 43
0.00000001
 40
0.0
 40
0.0
 40
0.0
 40
0.0
 40
0.4998463205888427
 40
1.0
 40
1.0
 40
1.0
 40
1.0
 10
7.410463569960567
 20
7.425355771446032
 30
0.0
 10
7.409991800311214
 20
7.425064616324833
 30
0.0
 10
7.409047970918217
 20
7.424482127049219
 30
0.0
 10
7.40746036994927
 20
7.423552477626155
 30
0.0
 10
7.406666325483213
 20
7.423087510046648
 30
0.0
  0
ARC
  5
1B7
330
1F
100
AcDbEntity
  8
0
  6
Continuous
 62
     7
370
     0
100
AcDbCircle
 10
7.501796695
 20
7.1354623452
 30
0.0
 40
0.297289691067038
100
AcDbArc
 50
115.0801869577
 51
117.0927375095
  0
SPLINE
  5
1B8
330
1F
100
AcDbEntity
  8
0
  6
Continuous
 62
     7
370
     0
100
AcDbSpline
210
0.0
220
0.0
230
1.0
 70
     8
 71
     3
 72
     9
 73
     5
 74
     0
 42
0.00000001
 43
0.00000001
 40
0.0
 40
0.0
 40
0.0
 40
0.0
 40
0.4989850375674104
 40
1.0
 40
1.0
 40
1.0
 40
1.0
 10
7.388954872089071
 20
7.410807886533107
 30
0.0
 10
7.386414821749324
 20
7.409635318208446
 30
0.0
 10
7.381324387871527
 20
7.407285411424914
 30
0.0
 10
7.377630417442285
 20
7.405577763841469
 30
0.0
 10
7.375779682986451
 20
7.404722206851601
 30
0.0
  0
ARC
  5
1B9
330
1F
100
AcDbEntity
  8
0
  6
Continuous
 62
     7
370
     0
100
AcDbCircle
 10
7.2685246837
 20
7.6662360475
 30
0.0
 40
0.2823950701970352
100
AcDbArc
 50
295.2431087155
 51
298.7961631591
  0
SPLINE
  5
1BA
330
1F
100
AcDbEntity
  8
0
  6
Continuous
 62
     7
370
     0
100
AcDbSpline
210
0.0
220
0.0
230
1.0
 70
    24
 71
     1
 72
     4
 73
     2
 74
     0
 42
0.00000001
 43
0.00000001
 40
0.0
 40
0.0
 40
1.0
 40
1.0
 10
7.394659782747926
 20
7.415051721004134
 30
0.0
 10
7.404552974458562
 20
7.418762251301587
 30
0.0
  0
SPLINE
  5
1BB
330
1F
100
AcDbEntity
  8
0
  6
Continuous
 62
     7
370
     0
100
AcDbSpline
210
0.0
220
0.0
230
1.0
 70
     8
 71
     3
 72
     9
 73
     5
 74
     0
 42
0.00000001
 43
0.00000001
 40
0.0
 40
0.0
 40
0.0
 40
0.0
 40
0.4984185104767979
 40
1.0
 40
1.0
 40
1.0
 40
1.0
 10
7.38917867277937
 20
7.412129906055163
 30
0.0
 10
7.390100082807637
 20
7.412608556192732
 30
0.0
 10
7.391948750160268
 20
7.413568893996221
 30
0.0
 10
7.393754201683595
 20
7.414556404176826
 30
0.0
 10
7.394659782747926
 20
7.415051721004134
 30
0.0
  0
SPLINE
  5
1BC
330
1F
100
AcDbEntity
  8
0
  6
Continuous
 62
     7
370
     0
100
AcDbSpline
210
0.0
220
0.0
230
1.0
 70
     8
 71
     3
 72
     9
 73
     5
 74
     0
 42
0.00000001
 43
0.00000001
 40
0.0
 40
0.0
 40
0.0
 40
0.0
 40
0.5011984280361813
 40
1.0
 40
1.0
 40
1.0
 40
1.0
 10
7.383627428694616
 20
7.40940887961704
 30
0.0
 10
7.384388426089791
 20
7.409772054073724
 30
0.0
 10
7.385906781600514
 20
7.410496666196128
 30
0.0
 10
7.388089786502604
 20
7.411586363384591
 30
0.0
 10
7.38917867277937
 20
7.412129906055161
 30
0.0
  0
LINE
  5
1BD
330
1F
100
AcDbEntity
  8
0
  6
Continuous
 62
     7
370
     0
100
AcDbLine
 10
7.7693601313
 20
7.125836881
 30
0.0
 11
7.7925706818
 21
7.1392360466
 31
0.0
  0
ARC
  5
1BE
330
1F
100
AcDbEntity
  8
0
  6
Continuous
 62
     7
370
     0
100
AcDbCircle
 10
7.0316132072
 20
6.5256889217
 30
0.0
 40
0.9510247615091355
100
AcDbArc
 50
39.127926028
 51
40.9481639419
  0
LINE
  5
1BF
330
1F
100
AcDbEntity
  8
0
  6
Continuous
 62
     7
370
     0
100
AcDbLine
 10
7.7384573589
 20
7.1423476322
 30
0.0
 11
7.7499248861
 21
7.1489676948
 31
0.0
  0
ARC
  5
1C0
330
1F
100
AcDbEntity
  8
0
  6
Continuous
 62
     7
370
     0
100
AcDbCircle
 10
7.02014568
 20
6.5190688592
 30
0.0
 40
0.9510247615067428
100
AcDbArc
 50
39.127926028
 51
40.9481639419
  0
LINE
  5
1C1
330
1F
100
AcDbEntity
  8
0
  6
Continuous
 62
     7
370
     0
100
AcDbLine
 10
7.7479747427
 20
7.113491359
 30
0.0
 11
7.7578926041
 21
7.1192168185
 31
0.0
  0
ARC
  5
1C2
330
1F
100
AcDbEntity
  8
0
  6
Continuous
 62
     7
370
     0
100
AcDbCircle
 10
7.0121964912
 20
6.5149828527
 30
0.0
 40
0.9484630027668876
100
AcDbArc
 50
39.1261470483
 51
41.2606930645
  0
LINE
  5
1C3
330
1F
100
AcDbEntity
  8
0
  6
Continuous
 62
     7
370
     0
100
AcDbLine
 10
7.7129698252
 20
7.1334368666
 30
0.0
 11
7.7251720088
 21
7.1404810372
 31
0.0
  0
ARC
  5
1C4
330
1F
100
AcDbEntity
  8
0
  6
Continuous
 62
     7
370
     0
100
AcDbCircle
 10
6.9914186877
 20
6.5006639545
 30
0.0
 40
0.959707039835703
100
AcDbArc
 50
37.6822967052
 51
41.2495308354
  0
LINE
  5
1C5
330
1F
100
AcDbEntity
  8
0
  6
Continuous
 62
     7
370
     0
100
AcDbLine
 10
7.8077409055
 20
7.120104968
 30
0.0
 11
7.7509427828
 21
7.0873161097
 31
0.0
  0
ARC
  5
1C6
330
1F
100
AcDbEntity
  8
0
  6
Continuous
 62
     7
370
     0
100
AcDbCircle
 10
7.0356797233
 20
6.5234698216
 30
0.0
 40
0.975731503487116
100
AcDbArc
 50
37.6962112595
 51
39.1299681903
  0
ARC
  5
1C7
330
1F
100
AcDbEntity
  8
0
  6
Continuous
 62
     7
370
     0
100
AcDbCircle
 10
7.6879033042
 20
7.1138242584
 30
0.0
 40
0.0486062362853186
100
AcDbArc
 50
51.5873575496
 51
93.4355260227
  0
LINE
  5
1C8
330
1F
100
AcDbEntity
  8
0
  6
Continuous
 62
     7
370
     0
100
AcDbLine
 10
7.7310402044
 20
7.1593782637
 30
0.0
 11
7.7181033644
 21
7.151909985
 31
0.0
  0
SPLINE
  5
1C9
330
1F
100
AcDbEntity
  8
0
  6
Continuous
 62
     7
370
     0
100
AcDbSpline
210
0.0
220
0.0
230
1.0
 70
    24
 71
     1
 72
     4
 73
     2
 74
     0
 42
0.00000001
 43
0.00000001
 40
0.0
 40
0.0
 40
1.0
 40
1.0
 10
7.707596185688908
 20
7.171022508651458
 30
0.0
 10
7.731040204377003
 20
7.159378263700561
 30
0.0
  0
LINE
  5
1CA
330
1F
100
AcDbEntity
  8
0
  6
Continuous
 62
     7
370
     0
100
AcDbLine
 10
7.7454424691
 20
7.192870703
 30
0.0
 11
7.7075961857
 21
7.1710225087
 31
0.0
  0
ARC
  5
1CB
330
1F
100
AcDbEntity
  8
0
  6
Continuous
 62
     7
370
     0
100
AcDbCircle
 10
7.1106921553
 20
6.5897725549
 30
0.0
 40
0.8755771451665859
100
AcDbArc
 50
43.5352484874
 51
44.9308815779
  0
LINE
  5
1CC
330
1F
100
AcDbEntity
  8
0
  6
Continuous
 62
     7
370
     0
100
AcDbLine
 10
7.6728027619
 20
7.1748062616
 30
0.0
 11
7.730565121
 21
7.2081517618
 31
0.0
  0
ARC
  5
1CD
330
1F
100
AcDbEntity
  8
0
  6
Continuous
 62
     7
370
     0
100
AcDbCircle
 10
7.0546854538
 20
6.5581528465
 30
0.0
 40
0.8731153651657776
100
AcDbArc
 50
43.7881321643
 51
44.9320725312
  0
LINE
  5
1CE
330
1F
100
AcDbEntity
  8
0
  6
Continuous
 62
     7
370
     0
100
AcDbLine
 10
7.627731664
 20
7.2359955508
 30
0.0
 11
7.6403241338
 21
7.2432650288
 31
0.0
  0
ARC
  5
1CF
330
1F
100
AcDbEntity
  8
0
  6
Continuous
 62
     7
370
     0
100
AcDbCircle
 10
7.1273509114
 20
6.6279301744
 30
0.0
 40
0.7874797772435004
100
AcDbArc
 50
46.5798485372
 51
50.548824731
  0
LINE
  5
1D0
330
1F
100
AcDbEntity
  8
0
  6
Continuous
 62
     7
370
     0
100
AcDbLine
 10
7.6812121027
 20
7.2071721786
 30
0.0
 11
7.6686196329
 21
7.1999027005
 31
0.0
  0
ARC
  5
1D1
330
1F
100
AcDbEntity
  8
0
  6
Continuous
 62
     7
370
     0
100
AcDbCircle
 10
7.1399433812
 20
6.6351996524
 30
0.0
 40
0.7874797772448182
100
AcDbArc
 50
46.5798485372
 51
50.548824731
  0
ARC
  5
1D2
330
1F
100
AcDbEntity
  8
0
  6
Continuous
 62
     7
370
     0
100
AcDbCircle
 10
7.5919320158
 20
7.1960748511
 30
0.0
 40
0.0564006546705359
100
AcDbArc
 50
62.277178773
 51
98.3772382264
  0
LINE
  5
1D3
330
1F
100
AcDbEntity
  8
0
  6
Continuous
 62
     7
370
     0
100
AcDbLine
 10
7.6311061395
 20
7.2534694635
 30
0.0
 11
7.6181692995
 21
7.2460011847
 31
0.0
  0
SPLINE
  5
1D4
330
1F
100
AcDbEntity
  8
0
  6
Continuous
 62
     7
370
     0
100
AcDbSpline
210
0.0
220
0.0
230
1.0
 70
    24
 71
     1
 72
     4
 73
     2
 74
     0
 42
0.00000001
 43
0.00000001
 40
0.0
 40
0.0
 40
1.0
 40
1.0
 10
7.606507151416961
 20
7.261245227829892
 30
0.0
 10
7.6311061395092
 20
7.253469463484032
 30
0.0
  0
LINE
  5
1D5
330
1F
100
AcDbEntity
  8
0
  6
Continuous
 62
     7
370
     0
100
AcDbLine
 10
7.6443534348
 20
7.2830934222
 30
0.0
 11
7.6065071514
 21
7.2612452278
 31
0.0
  0
ARC
  5
1D6
330
1F
100
AcDbEntity
  8
0
  6
Continuous
 62
     7
370
     0
100
AcDbCircle
 10
7.2430312432
 20
6.743208824
 30
0.0
 40
0.6727071285640374
100
AcDbArc
 50
53.3748025925
 51
55.0385468998
  0
LINE
  5
1D7
330
1F
100
AcDbEntity
  8
0
  6
Continuous
 62
     7
370
     0
100
AcDbLine
 10
7.5707470246
 20
7.2611722065
 30
0.0
 11
7.6285093837
 21
7.2945177066
 31
0.0
  0
ARC
  5
1D8
330
1F
100
AcDbEntity
  8
0
  6
Continuous
 62
     7
370
     0
100
AcDbCircle
 10
7.1869925089
 20
6.7122829206
 30
0.0
 40
0.6697364977007559
100
AcDbArc
 50
53.6756174474
 51
55.0407785276
  0
ARC
  5
1D9
330
1F
100
AcDbEntity
  8
0
  6
Continuous
 62
     7
370
     0
100
AcDbCircle
 10
7.5171147286
 20
7.2961463984
 30
0.0
 40
0.0555825385919901
100
AcDbArc
 50
69.6278611666
 51
126.995463716
  0
SPLINE
  5
1DA
330
1F
100
AcDbEntity
  8
0
  6
Continuous
 62
     7
370
     0
100
AcDbSpline
210
0.0
220
0.0
230
1.0
 70
    24
 71
     1
 72
     4
 73
     2
 74
     0
 42
0.00000001
 43
0.00000001
 40
0.0
 40
0.0
 40
1.0
 40
1.0
 10
7.471994302314184
 20
7.332291081750105
 30
0.0
 10
7.483667836439286
 20
7.34053923567651
 30
0.0
  0
SPLINE
  5
1DB
330
1F
100
AcDbEntity
  8
0
  6
Continuous
 62
     7
370
     0
100
AcDbSpline
210
0.0
220
0.0
230
1.0
 70
     8
 71
     3
 72
    12
 73
     8
 74
     0
 42
0.00000001
 43
0.00000001
 40
0.0
 40
0.0
 40
0.0
 40
0.0
 40
0.2503262674180378
 40
0.4997345046006489
 40
0.6249000363599427
 40
0.7501600021982603
 40
1.0
 40
1.0
 40
1.0
 40
1.0
 10
7.477315405688159
 20
7.314537404622665
 30
0.0
 10
7.475009075028863
 20
7.315639246979872
 30
0.0
 10
7.470404871796991
 20
7.317838890869452
 30
0.0
 10
7.467249662687435
 20
7.321597804904738
 30
0.0
 10
7.467012122150694
 20
7.324890299554512
 30
0.0
 10
7.467920940365375
 20
7.328264927320629
 30
0.0
 10
7.470365843897174
 20
7.330681496068483
 30
0.0
 10
7.471994302314184
 20
7.332291081750105
 30
0.0
  0
ARC
  5
1DC
330
1F
100
AcDbEntity
  8
0
  6
Continuous
 62
     7
370
     0
100
AcDbCircle
 10
7.4985545248
 20
7.3646854823
 30
0.0
 40
0.0544603513762911
100
AcDbArc
 50
247.0459781068
 51
305.1965076723
  0
SPLINE
  5
1DD
330
1F
100
AcDbEntity
  8
0
  6
Continuous
 62
     7
370
     0
100
AcDbSpline
210
0.0
220
0.0
230
1.0
 70
     8
 71
     3
 72
     9
 73
     5
 74
     0
 42
0.00000001
 43
0.00000001
 40
0.0
 40
0.0
 40
0.0
 40
0.0
 40
0.4987092906772033
 40
1.0
 40
1.0
 40
1.0
 40
1.0
 10
7.546219494013044
 20
7.334249846228713
 30
0.0
 10
7.544301713992722
 20
7.331666208129744
 30
0.0
 10
7.540456227140613
 20
7.326485558506271
 30
0.0
 10
7.533454446355178
 20
7.322286513065814
 30
0.0
 10
7.529944518698725
 20
7.320181570598489
 30
0.0
  0
SPLINE
  5
1DE
330
1F
100
AcDbEntity
  8
0
  6
Continuous
 62
     7
370
     0
100
AcDbSpline
210
0.0
220
0.0
230
1.0
 70
     8
 71
     3
 72
    11
 73
     7
 74
     0
 42
0.00000001
 43
0.00000001
 40
0.0
 40
0.0
 40
0.0
 40
0.0
 40
0.2504031889031613
 40
0.5003824607867521
 40
0.7500984159891447
 40
1.0
 40
1.0
 40
1.0
 40
1.0
 10
7.536463912634508
 20
7.348252325808066
 30
0.0
 10
7.538217108476633
 20
7.347402608261189
 30
0.0
 10
7.5417205321094
 20
7.345704611686373
 30
0.0
 10
7.545616004768558
 20
7.342397488544844
 30
0.0
 10
7.547339700425717
 20
7.33841078584203
 30
0.0
 10
7.546592988628821
 20
7.335637169604623
 30
0.0
 10
7.546219494013044
 20
7.334249846228713
 30
0.0
  0
LINE
  5
1DF
330
1F
100
AcDbEntity
  8
0
  6
Continuous
 62
     7
370
     0
100
AcDbLine
 10
7.3928310245
 20
7.3678797417
 30
0.0
 11
7.4138261268
 21
7.3799999563
 31
0.0
  0
ARC
  5
1E0
330
1F
100
AcDbEntity
  8
0
  6
Continuous
 62
     7
370
     0
100
AcDbCircle
 10
7.3772257213
 20
7.3911277309
 30
0.0
 40
0.0279999015745954
100
AcDbArc
 50
272.3595293903
 51
303.8716406347
  0
SPLINE
  5
1E1
330
1F
100
AcDbEntity
  8
0
  6
Continuous
 62
     7
370
     0
100
AcDbSpline
210
0.0
220
0.0
230
1.0
 70
     8
 71
     3
 72
    11
 73
     7
 74
     0
 42
0.00000001
 43
0.00000001
 40
0.0
 40
0.0
 40
0.0
 40
0.0
 40
0.2494767938027077
 40
0.5035301869203826
 40
0.7522417857883964
 40
0.9999999999999999
 40
0.9999999999999999
 40
0.9999999999999999
 40
0.9999999999999999
 10
7.377602023194747
 20
7.365323803883529
 30
0.0
 10
7.377302175789326
 20
7.365040836505248
 30
0.0
 10
7.376696980340897
 20
7.364469710771639
 30
0.0
 10
7.376574552752057
 20
7.363777805828681
 30
0.0
 10
7.377098439017968
 20
7.363292624230474
 30
0.0
 10
7.377952342914186
 20
7.363198527016043
 30
0.0
 10
7.37837847497471
 20
7.363151568757562
 30
0.0
  0
SPLINE
  5
1E2
330
1F
100
AcDbEntity
  8
0
  6
Continuous
 62
     7
370
     0
100
AcDbSpline
210
0.0
220
0.0
230
1.0
 70
    24
 71
     1
 72
     4
 73
     2
 74
     0
 42
0.00000001
 43
0.00000001
 40
0.0
 40
0.0
 40
1.0
 40
1.0
 10
7.381006203824699
 20
7.367460915554283
 30
0.0
 10
7.377602023194747
 20
7.365323803883529
 30
0.0
  0
LINE
  5
1E3
330
1F
100
AcDbEntity
  8
0
  6
Continuous
 62
     7
370
     0
100
AcDbLine
 10
7.403665762
 20
7.3805420001
 30
0.0
 11
7.3810062038
 21
7.3674609156
 31
0.0
  0
ARC
  5
1E4
330
1F
100
AcDbEntity
  8
0
  6
Continuous
 62
     7
370
     0
100
AcDbCircle
 10
7.3943393488
 20
7.1154313143
 30
0.0
 40
0.2652746834354747
100
AcDbArc
 50
87.9852044205
 51
91.0480818679
  0
LINE
  5
1E5
330
1F
100
AcDbEntity
  8
0
  6
Continuous
 62
     7
370
     0
100
AcDbLine
 10
7.3682509263
 20
7.3684022415
 30
0.0
 11
7.3894870878
 21
7.3806616166
 31
0.0
  0
ARC
  5
1E6
330
1F
100
AcDbEntity
  8
0
  6
Continuous
 62
     7
370
     0
100
AcDbCircle
 10
7.350561881
 20
7.3954395399
 30
0.0
 40
0.0323097171813463
100
AcDbArc
 50
276.6086309905
 51
303.1945587264
  0
SPLINE
  5
1E7
330
1F
100
AcDbEntity
  8
0
  6
Continuous
 62
     7
370
     0
100
AcDbSpline
210
0.0
220
0.0
230
1.0
 70
     8
 71
     3
 72
    10
 73
     6
 74
     0
 42
0.00000001
 43
0.00000001
 40
0.0
 40
0.0
 40
0.0
 40
0.0
 40
0.4988594542991832
 40
0.7491987595266186
 40
1.0
 40
1.0
 40
1.0
 40
1.0
 10
7.352931687264663
 20
7.364413266279861
 30
0.0
 10
7.352813046632868
 20
7.364101607699912
 30
0.0
 10
7.352634869365897
 20
7.36363355157813
 30
0.0
 10
7.353332469846731
 20
7.363349099664966
 30
0.0
 10
7.353964164303735
 20
7.363346038521169
 30
0.0
 10
7.354280302670059
 20
7.36334450653844
 30
0.0
  0
SPLINE
  5
1E8
330
1F
100
AcDbEntity
  8
0
  6
Continuous
 62
     7
370
     0
100
AcDbSpline
210
0.0
220
0.0
230
1.0
 70
     8
 71
     3
 72
     9
 73
     5
 74
     0
 42
0.00000001
 43
0.00000001
 40
0.0
 40
0.0
 40
0.0
 40
0.0
 40
0.50157840570128
 40
1.0
 40
1.0
 40
1.0
 40
1.0
 10
7.356129484743506
 20
7.366752602140278
 30
0.0
 10
7.355406580095536
 20
7.366328595555829
 30
0.0
 10
7.353965320584058
 20
7.365483250980326
 30
0.0
 10
7.35327550583277
 20
7.364769176447139
 30
0.0
 10
7.352931687264663
 20
7.364413266279861
 30
0.0
  0
LINE
  5
1E9
330
1F
100
AcDbEntity
  8
0
  6
Continuous
 62
     7
370
     0
100
AcDbLine
 10
7.3795696154
 20
7.3802843015
 30
0.0
 11
7.3561294847
 21
7.3667526021
 31
0.0
  0
ARC
  5
1EA
330
1F
100
AcDbEntity
  8
0
  6
Continuous
 62
     7
370
     0
100
AcDbCircle
 10
7.3934948711
 20
7.1384685274
 30
0.0
 40
0.2422163937157203
100
AcDbArc
 50
93.2958072758
 51
96.5501251248
  0
LINE
  5
1EB
330
1F
100
AcDbEntity
  8
0
  6
Continuous
 62
     7
370
     0
100
AcDbLine
 10
7.340025424
 20
7.3641871616
 30
0.0
 11
7.3658646669
 21
7.379103839
 31
0.0
  0
SPLINE
  5
1EC
330
1F
100
AcDbEntity
  8
0
  6
Continuous
 62
     7
370
     0
100
AcDbSpline
210
0.0
220
0.0
230
1.0
 70
     8
 71
     3
 72
    13
 73
     9
 74
     0
 42
0.00000001
 43
0.00000001
 40
0.0
 40
0.0
 40
0.0
 40
0.0
 40
0.2493026324882217
 40
0.3767800005102117
 40
0.4994269650590031
 40
0.618351580174044
 40
0.7497380290331029
 40
1.0
 40
1.0
 40
1.0
 40
1.0
 10
7.335971956388149
 20
7.35590445631453
 30
0.0
 10
7.334336729747788
 20
7.355870328802496
 30
0.0
 10
7.331865353139208
 20
7.355818750670835
 30
0.0
 10
7.330711865072299
 20
7.35667737843066
 30
0.0
 10
7.330902112383798
 20
7.357695877841262
 30
0.0
 10
7.332202717492198
 20
7.359078871525812
 30
0.0
 10
7.335044237613637
 20
7.36122132753246
 30
0.0
 10
7.338052673535366
 20
7.363012571802417
 30
0.0
 10
7.340025424015097
 20
7.364187161550979
 30
0.0
  0
ARC
  5
1ED
330
1F
100
AcDbEntity
  8
0
  6
Continuous
 62
     7
370
     0
100
AcDbCircle
 10
7.3305838315
 20
7.4243186552
 30
0.0
 40
0.0686260482090031
100
AcDbArc
 50
274.5031716769
 51
291.3378582017
  0
SPLINE
  5
1EE
330
1F
100
AcDbEntity
  8
0
  6
Continuous
 62
     7
370
     0
100
AcDbSpline
210
0.0
220
0.0
230
1.0
 70
     8
 71
     3
 72
    12
 73
     8
 74
     0
 42
0.00000001
 43
0.00000001
 40
0.0
 40
0.0
 40
0.0
 40
0.0
 40
0.2503253654036866
 40
0.4999978777420973
 40
0.7494826629082564
 40
0.8746982187917938
 40
0.9999999999999999
 40
0.9999999999999999
 40
0.9999999999999999
 40
0.9999999999999999
 10
7.359810069469217
 20
7.356311673534479
 30
0.0
 10
7.358717238697737
 20
7.356366845847753
 30
0.0
 10
7.356534427277126
 20
7.356477046583915
 30
0.0
 10
7.354358183290227
 20
7.357157623770417
 30
0.0
 10
7.354150149817265
 20
7.358321671790402
 30
0.0
 10
7.354742138738079
 20
7.359455995295773
 30
0.0
 10
7.355283697308869
 20
7.360083162160691
 30
0.0
 10
7.35555456979353
 20
7.360396853525135
 30
0.0
  0
ARC
  5
1EF
330
1F
100
AcDbEntity
  8
0
  6
Continuous
 62
     7
370
     0
100
AcDbCircle
 10
7.3604485416
 20
7.4134116482
 30
0.0
 40
0.057103544185291
100
AcDbArc
 50
269.3593651175
 51
289.6786385373
  0
LINE
  5
1F0
330
1F
100
AcDbEntity
  8
0
  6
Continuous
 62
     7
370
     0
100
AcDbLine
 10
7.3736743103
 20
7.356177412
 30
0.0
 11
7.3796778306
 21
7.3596431704
 31
0.0
  0
ARC
  5
1F1
330
1F
100
AcDbEntity
  8
0
  6
Continuous
 62
     7
370
     0
100
AcDbCircle
 10
7.3516136006
 20
7.0630908558
 30
0.0
 40
0.2939156414755678
100
AcDbArc
 50
83.0302218332
 51
85.6954472018
  0
LINE
  5
1F2
330
1F
100
AcDbEntity
  8
0
  6
Continuous
 62
     7
370
     0
100
AcDbLine
 10
7.4284197838
 20
7.3785846019
 30
0.0
 11
7.3872790256
 21
7.3548345477
 31
0.0
  0
ARC
  5
1F3
330
1F
100
AcDbEntity
  8
0
  6
Continuous
 62
     7
370
     0
100
AcDbCircle
 10
7.3928185868
 20
7.0874471723
 30
0.0
 40
0.2933060656449757
100
AcDbArc
 50
83.0283047186
 51
85.8927720975
  0
LWPOLYLINE
  5
1F4
330
1F
100
AcDbEntity
  8
0
  6
Continuous
 62
     7
370
     0
100
AcDbPolyline
 90
       43
 70
   128
 43
0.0
 10
8.6918635483
 20
6.7797100642
 10
8.6948830081
 20
6.781488605
 10
8.7167271529
 20
6.7966681187
 10
8.7366650119
 20
6.8147975073
 10
8.754579582
 20
6.8357703803
 10
8.7703657332
 20
6.8594636605
 10
8.7839308261
 20
6.8857383063
 10
8.7951952554
 20
6.9144401278
 10
8.804092917
 20
6.9454006911
 10
8.8105715958
 20
6.9784383073
 10
8.8145932723
 20
7.0133590987
 10
8.8161343458
 20
7.0499581361
 10
8.8151857727
 20
7.0880206418
 10
8.8117531194
 20
7.1273232499
 10
8.8058565303
 20
7.167635317
 10
8.7975306088
 20
7.208720276
 10
8.7868242148
 20
7.2503370239
 10
8.7738001776
 20
7.2922413371
 10
8.7585349274
 20
7.3341873045
 10
8.7411180469
 20
7.3759287704
 10
8.7216517452
 20
7.4172207794
 10
8.7002502583
 20
7.4578210134
 10
8.6770391786
 20
7.4974912142
 10
8.652154718
 20
7.5359985812
 10
8.6257429084
 20
7.5731171379
 10
8.5979587447
 20
7.608629058
 10
8.5689652756
 20
7.6423259432
 10
8.5389326462
 20
7.6740100468
 10
8.5080370999
 20
7.7034954341
 10
8.4764599441
 20
7.7306090729
 10
8.4443864861
 20
7.7551918497
 10
8.4120049457
 20
7.7770995029
 10
8.3795053506
 20
7.7962034698
 10
8.3470784214
 20
7.8123916406
 10
8.3149144522
 20
7.8255690168
 10
8.283202194
 20
7.8356582682
 10
8.2521277469
 20
7.8426001872
 10
8.2218734681
 20
7.8463540357
 10
8.1926169017
 20
7.8468977847
 10
8.164529737
 20
7.8442282433
 10
8.1377768006
 20
7.8383610774
 10
8.1125150892
 20
7.8293307178
 10
8.0919123087
 20
7.8189686991
  0
LINE
  5
1F5
330
1F
100
AcDbEntity
  8
0
  6
Continuous
 62
     7
370
     0
100
AcDbLine
 10
7.4680541489
 20
7.3531717538
 30
0.0
 11
7.4890492512
 21
7.3652919684
 31
0.0
  0
ARC
  5
1F6
330
1F
100
AcDbEntity
  8
0
  6
Continuous
 62
     7
370
     0
100
AcDbCircle
 10
7.4567934106
 20
7.3691149869
 30
0.0
 40
0.0195189884465872
100
AcDbArc
 50
259.4817458195
 51
305.2336397028
  0
SPLINE
  5
1F7
330
1F
100
AcDbEntity
  8
0
  6
Continuous
 62
     7
370
     0
100
AcDbSpline
210
0.0
220
0.0
230
1.0
 70
     8
 71
     3
 72
    11
 73
     7
 74
     0
 42
0.00000001
 43
0.00000001
 40
0.0
 40
0.0
 40
0.0
 40
0.0
 40
0.2494767938119793
 40
0.5035301869050852
 40
0.7522417857960376
 40
1.0
 40
1.0
 40
1.0
 40
1.0
 10
7.45216478422672
 20
7.353208384716112
 30
0.0
 10
7.451877415771916
 20
7.352878074157146
 30
0.0
 10
7.451297407148479
 20
7.35221139356152
 30
0.0
 10
7.451244644488423
 20
7.351253560841207
 30
0.0
 10
7.451855491299427
 20
7.350433913975626
 30
0.0
 10
7.452772579554886
 20
7.350093740239828
 30
0.0
 10
7.453230243127669
 20
7.349923979994437
 30
0.0
  0
SPLINE
  5
1F8
330
1F
100
AcDbEntity
  8
0
  6
Continuous
 62
     7
370
     0
100
AcDbSpline
210
0.0
220
0.0
230
1.0
 70
    24
 71
     1
 72
     4
 73
     2
 74
     0
 42
0.00000001
 43
0.00000001
 40
0.0
 40
0.0
 40
1.0
 40
1.0
 10
7.455549378999909
 20
7.355419694228277
 30
0.0
 10
7.45216478422672
 20
7.353208384716112
 30
0.0
  0
LINE
  5
1F9
330
1F
100
AcDbEntity
  8
0
  6
Continuous
 62
     7
370
     0
100
AcDbLine
 10
7.4782089372
 20
7.3685007787
 30
0.0
 11
7.455549379
 21
7.3554196942
 31
0.0
  0
ARC
  5
1FA
330
1F
100
AcDbEntity
  8
0
  6
Continuous
 62
     7
370
     0
100
AcDbCircle
 10
7.3806283647
 20
7.0201475827
 30
0.0
 40
0.3617622386929696
100
AcDbArc
 50
74.3513971225
 51
76.8420021238
  0
LINE
  5
1FB
330
1F
100
AcDbEntity
  8
0
  6
Continuous
 62
     7
370
     0
100
AcDbLine
 10
7.4417427109
 20
7.3601527549
 30
0.0
 11
7.4629788723
 21
7.3724121299
 31
0.0
  0
ARC
  5
1FC
330
1F
100
AcDbEntity
  8
0
  6
Continuous
 62
     7
370
     0
100
AcDbCircle
 10
7.4298333627
 20
7.377371204
 30
0.0
 40
0.0209357962932479
100
AcDbArc
 50
263.137618874
 51
304.6701398614
  0
SPLINE
  5
1FD
330
1F
100
AcDbEntity
  8
0
  6
Continuous
 62
     7
370
     0
100
AcDbSpline
210
0.0
220
0.0
230
1.0
 70
     8
 71
     3
 72
    10
 73
     6
 74
     0
 42
0.00000001
 43
0.00000001
 40
0.0
 40
0.0
 40
0.0
 40
0.0
 40
0.498859454299165
 40
0.7491987595266183
 40
1.0
 40
1.0
 40
1.0
 40
1.0
 10
7.425693800704516
 20
7.358607108741469
 30
0.0
 10
7.42561410476143
 20
7.358168341627881
 30
0.0
 10
7.425494415535967
 20
7.357509390946704
 30
0.0
 10
7.426299443783434
 20
7.356870920214397
 30
0.0
 10
7.426987502621526
 20
7.35668062628677
 30
0.0
 10
7.427331849155832
 20
7.356585391619544
 30
0.0
  0
SPLINE
  5
1FE
330
1F
100
AcDbEntity
  8
0
  6
Continuous
 62
     7
370
     0
100
AcDbSpline
210
0.0
220
0.0
230
1.0
 70
     8
 71
     3
 72
     9
 73
     5
 74
     0
 42
0.00000001
 43
0.00000001
 40
0.0
 40
0.0
 40
0.0
 40
0.0
 40
0.501578405701264
 40
1.0
 40
1.0
 40
1.0
 40
1.0
 10
7.428811638084298
 20
7.361206182149236
 30
0.0
 10
7.428089862699395
 20
7.360778566122951
 30
0.0
 10
7.426650854606741
 20
7.359926025380719
 30
0.0
 10
7.426012146578328
 20
7.359045821408574
 30
0.0
 10
7.425693800704516
 20
7.358607108741469
 30
0.0
  0
LINE
  5
1FF
330
1F
100
AcDbEntity
  8
0
  6
Continuous
 62
     7
370
     0
100
AcDbLine
 10
7.4522517687
 20
7.3747378815
 30
0.0
 11
7.4288116381
 21
7.3612061821
 31
0.0
  0
ARC
  5
200
330
1F
100
AcDbEntity
  8
0
  6
Continuous
 62
     7
370
     0
100
AcDbCircle
 10
7.3886135327
 20
7.0568842199
 30
0.0
 40
0.3241616499550073
100
AcDbArc
 50
78.678367908
 51
81.3580384088
  0
LINE
  5
201
330
1F
100
AcDbEntity
  8
0
  6
Continuous
 62
     7
370
     0
100
AcDbLine
 10
7.4114826367
 20
7.3624488559
 30
0.0
 11
7.4373218797
 21
7.3773655333
 31
0.0
  0
SPLINE
  5
202
330
1F
100
AcDbEntity
  8
0
  6
Continuous
 62
     7
370
     0
100
AcDbSpline
210
0.0
220
0.0
230
1.0
 70
     8
 71
     3
 72
    13
 73
     9
 74
     0
 42
0.00000001
 43
0.00000001
 40
0.0
 40
0.0
 40
0.0
 40
0.0
 40
0.2493026324882757
 40
0.3767800005093488
 40
0.4994269650586446
 40
0.6183515801712948
 40
0.7497380290330565
 40
1.0
 40
1.0
 40
1.0
 40
1.0
 10
7.40852381802747
 20
7.350778112642359
 30
0.0
 10
7.406732683044952
 20
7.351239673359829
 30
0.0
 10
7.404025676572981
 20
7.351937246608967
 30
0.0
 10
7.40258808925558
 20
7.353671500425853
 30
0.0
 10
7.402603752002476
 20
7.355222256432948
 30
0.0
 10
7.403779446616936
 20
7.356982347421635
 30
0.0
 10
7.406519976390577
 20
7.359427818088806
 30
0.0
 10
7.409517223317826
 20
7.361252403201751
 30
0.0
 10
7.411482636731104
 20
7.362448855860372
 30
0.0
  0
ARC
  5
203
330
1F
100
AcDbEntity
  8
0
  6
Continuous
 62
     7
370
     0
100
AcDbCircle
 10
7.4165697626
 20
7.3959853489
 30
0.0
 40
0.0459176593025017
100
AcDbArc
 50
259.9082192651
 51
285.8885058068
  0
SPLINE
  5
204
330
1F
100
AcDbEntity
  8
0
  6
Continuous
 62
     7
370
     0
100
AcDbSpline
210
0.0
220
0.0
230
1.0
 70
     8
 71
     3
 72
    12
 73
     8
 74
     0
 42
0.00000001
 43
0.00000001
 40
0.0
 40
0.0
 40
0.0
 40
0.0
 40
0.2503253654036826
 40
0.4999978777420969
 40
0.7494826629082544
 40
0.8746982187917948
 40
1.0
 40
1.0
 40
1.0
 40
1.0
 10
7.43422754203449
 20
7.344743269129053
 30
0.0
 10
7.433053193353362
 20
7.345101153187097
 30
0.0
 10
7.430707558713635
 20
7.345815987935114
 30
0.0
 10
7.428285947238174
 20
7.347381204084261
 30
0.0
 10
7.427908225794027
 20
7.349145581178572
 30
0.0
 10
7.428392941537442
 20
7.350655438814761
 30
0.0
 10
7.428891236139338
 20
7.351433001341014
 30
0.0
 10
7.429140469194059
 20
7.351821916418394
 30
0.0
  0
ARC
  5
205
330
1F
100
AcDbEntity
  8
0
  6
Continuous
 62
     7
370
     0
100
AcDbCircle
 10
7.4447246163
 20
7.3855239346
 30
0.0
 40
0.0421099898466549
100
AcDbArc
 50
255.5652357814
 51
284.0729509557
  0
LINE
  5
206
330
1F
100
AcDbEntity
  8
0
  6
Continuous
 62
     7
370
     0
100
AcDbLine
 10
7.4489604396
 20
7.3412120369
 30
0.0
 11
7.4549639598
 21
7.3446777954
 31
0.0
  0
ARC
  5
207
330
1F
100
AcDbEntity
  8
0
  6
Continuous
 62
     7
370
     0
100
AcDbCircle
 10
7.3272704014
 20
6.955309592
 30
0.0
 40
0.4046346035372572
100
AcDbArc
 50
70.3442952784
 51
72.4979115666
  0
LINE
  5
208
330
1F
100
AcDbEntity
  8
0
  6
Continuous
 62
     7
370
     0
100
AcDbLine
 10
7.504517012
 20
7.3601165439
 30
0.0
 11
7.4633762538
 21
7.3363664898
 31
0.0
  0
ARC
  5
209
330
1F
100
AcDbEntity
  8
0
  6
Continuous
 62
     7
370
     0
100
AcDbCircle
 10
7.3686975445
 20
6.9798956113
 30
0.0
 40
0.4037510190537107
100
AcDbArc
 50
70.3426642154
 51
72.6574417874
  0
ARC
  5
20A
330
1F
100
AcDbEntity
  8
0
  6
Continuous
 62
     7
370
     0
100
AcDbCircle
 10
7.5660295781
 20
7.2777611688
 30
0.0
 40
0.0490531557687706
100
AcDbArc
 50
61.7430344407
 51
127.4144458338
  0
SPLINE
  5
20B
330
1F
100
AcDbEntity
  8
0
  6
Continuous
 62
     7
370
     0
100
AcDbSpline
210
0.0
220
0.0
230
1.0
 70
    24
 71
     1
 72
     4
 73
     2
 74
     0
 42
0.00000001
 43
0.00000001
 40
0.0
 40
0.0
 40
1.0
 40
1.0
 10
7.524573394307311
 20
7.308233695893472
 30
0.0
 10
7.536226052286544
 20
7.316722199884559
 30
0.0
  0
SPLINE
  5
20C
330
1F
100
AcDbEntity
  8
0
  6
Continuous
 62
     7
370
     0
100
AcDbSpline
210
0.0
220
0.0
230
1.0
 70
     8
 71
     3
 72
    12
 73
     8
 74
     0
 42
0.00000001
 43
0.00000001
 40
0.0
 40
0.0
 40
0.0
 40
0.0
 40
0.2503262674180366
 40
0.4997345046006504
 40
0.6249000363599462
 40
0.7501600021982593
 40
1.0
 40
1.0
 40
1.0
 40
1.0
 10
7.530101354887143
 20
7.287316530242414
 30
0.0
 10
7.527777512149229
 20
7.288775440353656
 30
0.0
 10
7.523138348982778
 20
7.291687910264297
 30
0.0
 10
7.519926044243961
 20
7.296297652534185
 30
0.0
 10
7.519649125864062
 20
7.300121141199568
 30
0.0
 10
7.52052267312756
 20
7.303941825272192
 30
0.0
 10
7.522953987271298
 20
7.306517881554905
 30
0.0
 10
7.524573394307311
 20
7.308233695893472
 30
0.0
  0
ARC
  5
20D
330
1F
100
AcDbEntity
  8
0
  6
Continuous
 62
     7
370
     0
100
AcDbCircle
 10
7.5547631959
 20
7.328755694
 30
0.0
 40
0.0482225123167084
100
AcDbArc
 50
239.2416991624
 51
305.5572829985
  0
SPLINE
  5
20E
330
1F
100
AcDbEntity
  8
0
  6
Continuous
 62
     7
370
     0
100
AcDbSpline
210
0.0
220
0.0
230
1.0
 70
     8
 71
     3
 72
     9
 73
     5
 74
     0
 42
0.00000001
 43
0.00000001
 40
0.0
 40
0.0
 40
0.0
 40
0.0
 40
0.4987092906772062
 40
1.0
 40
1.0
 40
1.0
 40
1.0
 10
7.599078843474665
 20
7.304218454699021
 30
0.0
 10
7.597161765238384
 20
7.301436862327153
 30
0.0
 10
7.593317685586933
 20
7.295859279507131
 30
0.0
 10
7.586315511867434
 20
7.291640066835354
 30
0.0
 10
7.582805387236785
 20
7.289525014722336
 30
0.0
  0
SPLINE
  5
20F
330
1F
100
AcDbEntity
  8
0
  6
Continuous
 62
     7
370
     0
100
AcDbSpline
210
0.0
220
0.0
230
1.0
 70
     8
 71
     3
 72
    11
 73
     7
 74
     0
 42
0.00000001
 43
0.00000001
 40
0.0
 40
0.0
 40
0.0
 40
0.0
 40
0.2504031889031618
 40
0.5003824607867592
 40
0.7500984159891422
 40
0.9999999999999999
 40
0.9999999999999999
 40
0.9999999999999999
 40
0.9999999999999999
 10
7.589252654424094
 20
7.320968816445616
 30
0.0
 10
7.591016893324912
 20
7.319850331476244
 30
0.0
 10
7.594542384379853
 20
7.317615255062963
 30
0.0
 10
7.598459191478844
 20
7.31352800546692
 30
0.0
 10
7.600195125569413
 20
7.308854793130829
 30
0.0
 10
7.599451029660497
 20
7.305764283594134
 30
0.0
 10
7.599078843474665
 20
7.304218454699021
 30
0.0
  0
LINE
  5
210
330
1F
100
AcDbEntity
  8
0
  6
Continuous
 62
     7
370
     0
100
AcDbLine
 10
7.6467982933
 20
7.2470024816
 30
0.0
 11
7.6593448471
 21
7.2542454529
 31
0.0
  0
ARC
  5
211
330
1F
100
AcDbEntity
  8
0
  6
Continuous
 62
     7
370
     0
100
AcDbCircle
 10
7.1464175407
 20
6.6389371052
 30
0.0
 40
0.7874797772440761
100
AcDbArc
 50
46.5798485372
 51
50.548824731
  0
LINE
  5
212
330
1F
100
AcDbEntity
  8
0
  6
Continuous
 62
     7
370
     0
100
AcDbLine
 10
7.700232816
 20
7.2181526026
 30
0.0
 11
7.6876862622
 21
7.2109096313
 31
0.0
  0
ARC
  5
213
330
1F
100
AcDbEntity
  8
0
  6
Continuous
 62
     7
370
     0
100
AcDbCircle
 10
7.1589640944
 20
6.6461800765
 30
0.0
 40
0.7874797772440817
100
AcDbArc
 50
46.5798485372
 51
50.548824731
  0
LINE
  5
214
330
1F
100
AcDbEntity
  8
0
  6
Continuous
 62
     7
370
     0
100
AcDbLine
 10
7.443330476
 20
7.4322485072
 30
0.0
 11
7.4644059313
 21
7.4444151086
 31
0.0
  0
ARC
  5
215
330
1F
100
AcDbEntity
  8
0
  6
Continuous
 62
     7
370
     0
100
AcDbCircle
 10
7.4877001474
 20
7.2177818687
 30
0.0
 40
0.2190082344432373
100
AcDbArc
 50
101.6886681119
 51
103.8041263521
  0
ARC
  5
216
330
1F
100
AcDbEntity
  8
0
  6
Continuous
 62
     7
370
     0
100
AcDbCircle
 10
7.4750916282
 20
7.2927321619
 30
0.0
 40
0.1433252630484381
100
AcDbArc
 50
106.0589761897
 51
121.4099143529
  0
SPLINE
  5
217
330
1F
100
AcDbEntity
  8
0
  6
Continuous
 62
     7
370
     0
100
AcDbSpline
210
0.0
220
0.0
230
1.0
 70
     8
 71
     3
 72
    13
 73
     9
 74
     0
 42
0.00000001
 43
0.00000001
 40
0.0
 40
0.0
 40
0.0
 40
0.0
 40
0.2501206955155637
 40
0.380825445184598
 40
0.5003377339298973
 40
0.6236969560603953
 40
0.7504281227973939
 40
1.0
 40
1.0
 40
1.0
 40
1.0
 10
7.39814420207817
 20
7.409448339967544
 30
0.0
 10
7.396273266976418
 20
7.408996118098572
 30
0.0
 10
7.393424643468605
 20
7.408307580134057
 30
0.0
 10
7.391391959613716
 20
7.408187978396032
 30
0.0
 10
7.390968285257379
 20
7.408607742396499
 30
0.0
 10
7.391825505575656
 20
7.4095936648796
 30
0.0
 10
7.394523842844408
 20
7.411586416607729
 30
0.0
 10
7.398054809046106
 20
7.413671657071547
 30
0.0
 10
7.400396618068086
 20
7.415054631207301
 30
0.0
  0
ARC
  5
218
330
1F
100
AcDbEntity
  8
0
  6
Continuous
 62
     7
370
     0
100
AcDbCircle
 10
7.4529233427
 20
7.1929809651
 30
0.0
 40
0.223291017755595
100
AcDbArc
 50
97.8605061185
 51
104.2011129399
  0
LINE
  5
219
330
1F
100
AcDbEntity
  8
0
  6
Continuous
 62
     7
370
     0
100
AcDbLine
 10
7.4791837934
 20
7.4469627917
 30
0.0
 11
7.4223856708
 21
7.4141739334
 31
0.0
  0
ARC
  5
21A
330
1F
100
AcDbEntity
  8
0
  6
Continuous
 62
     7
370
     0
100
AcDbCircle
 10
7.5102653812
 20
7.2225403075
 30
0.0
 40
0.2265645966921904
100
AcDbArc
 50
97.8850694965
 51
101.6780564215
  0
LINE
  5
21B
330
1F
100
AcDbEntity
  8
0
  6
Continuous
 62
     7
370
     0
100
AcDbLine
 10
7.6181141917
 20
7.4117371146
 30
0.0
 11
7.6378695613
 21
7.4231416468
 31
0.0
  0
ARC
  5
21C
330
1F
100
AcDbEntity
  8
0
  6
Continuous
 62
     7
370
     0
100
AcDbCircle
 10
7.6065476323
 20
7.427062459
 30
0.0
 40
0.0192002989087997
100
AcDbArc
 50
255.7010324147
 51
307.0430983201
  0
SPLINE
  5
21D
330
1F
100
AcDbEntity
  8
0
  6
Continuous
 62
     7
370
     0
100
AcDbSpline
210
0.0
220
0.0
230
1.0
 70
     8
 71
     3
 72
    13
 73
     9
 74
     0
 42
0.00000001
 43
0.00000001
 40
0.0
 40
0.0
 40
0.0
 40
0.0
 40
0.2556326815354639
 40
0.3827690308503694
 40
0.5009930149481254
 40
0.6250249963017496
 40
0.7509663452185107
 40
1.0
 40
1.0
 40
1.0
 40
1.0
 10
7.603519173709615
 20
7.41455875943093
 30
0.0
 10
7.602677943065769
 20
7.414042745794277
 30
0.0
 10
7.601418334801549
 20
7.41327009795277
 30
0.0
 10
7.600129526375473
 20
7.412165027261851
 30
0.0
 10
7.599495306002445
 20
7.411305323880574
 30
0.0
 10
7.599363747728161
 20
7.410449107051003
 30
0.0
 10
7.599859138229307
 20
7.409371110409603
 30
0.0
 10
7.601028740186989
 20
7.408821798572029
 30
0.0
 10
7.601805512631254
 20
7.408456981895783
 30
0.0
  0
LINE
  5
21E
330
1F
100
AcDbEntity
  8
0
  6
Continuous
 62
     7
370
     0
100
AcDbLine
 10
7.6261442949
 20
7.4276199639
 30
0.0
 11
7.6035191737
 21
7.4145587594
 31
0.0
  0
ARC
  5
21F
330
1F
100
AcDbEntity
  8
0
  6
Continuous
 62
     7
370
     0
100
AcDbCircle
 10
7.4858958735
 20
7.0438934776
 30
0.0
 40
0.4085531005754086
100
AcDbArc
 50
69.9231173748
 51
72.2247233451
  0
LINE
  5
220
330
1F
100
AcDbEntity
  8
0
  6
Continuous
 62
     7
370
     0
100
AcDbLine
 10
7.5844715975
 20
7.4178471506
 30
0.0
 11
7.6106207736
 21
7.4329427486
 31
0.0
  0
SPLINE
  5
221
330
1F
100
AcDbEntity
  8
0
  6
Continuous
 62
     7
370
     0
100
AcDbSpline
210
0.0
220
0.0
230
1.0
 70
     8
 71
     3
 72
    13
 73
     9
 74
     0
 42
0.00000001
 43
0.00000001
 40
0.0
 40
0.0
 40
0.0
 40
0.0
 40
0.2492945499288342
 40
0.375766564511048
 40
0.4994575090412801
 40
0.6241755381067254
 40
0.7497536491744008
 40
0.9999999999999999
 40
0.9999999999999999
 40
0.9999999999999999
 40
0.9999999999999999
 10
7.582098809766638
 20
7.404048905285167
 30
0.0
 10
7.58028028496247
 20
7.404844794328892
 30
0.0
 10
7.577539186858501
 20
7.406044453494237
 30
0.0
 10
7.576026978910853
 20
7.40835519508116
 30
0.0
 10
7.575980251471815
 20
7.410273898247542
 30
0.0
 10
7.577059320214382
 20
7.412264833204278
 30
0.0
 10
7.579657199040477
 20
7.414874246818771
 30
0.0
 10
7.582547237451521
 20
7.416658853185204
 30
0.0
 10
7.584471597463815
 20
7.417847150585034
 30
0.0
  0
ARC
  5
222
330
1F
100
AcDbEntity
  8
0
  6
Continuous
 62
     7
370
     0
100
AcDbCircle
 10
7.5952361091
 20
7.4425036007
 30
0.0
 40
0.040636833502662
100
AcDbArc
 50
251.1382647133
 51
279.5779850206
  0
LINE
  5
223
330
1F
100
AcDbEntity
  8
0
  6
Continuous
 62
     7
370
     0
100
AcDbLine
 10
7.5810714387
 20
7.3903527885
 30
0.0
 11
7.601997667
 21
7.402433243
 31
0.0
  0
ARC
  5
224
330
1F
100
AcDbEntity
  8
0
  6
Continuous
 62
     7
370
     0
100
AcDbCircle
 10
7.4120447622
 20
6.9664834477
 30
0.0
 40
0.4563279910883269
100
AcDbArc
 50
66.1306188827
 51
68.2593346246
  0
LINE
  5
225
330
1F
100
AcDbEntity
  8
0
  6
Continuous
 62
     7
370
     0
100
AcDbLine
 10
7.6534973532
 20
7.4165707157
 30
0.0
 11
7.5966992306
 21
7.3837818575
 31
0.0
  0
ARC
  5
226
330
1F
100
AcDbEntity
  8
0
  6
Continuous
 62
     7
370
     0
100
AcDbCircle
 10
7.4688428848
 20
6.999272306
 30
0.0
 40
0.4563279910904797
100
AcDbArc
 50
66.1306188827
 51
68.2593346246
  0
ARC
  5
227
330
1F
100
AcDbEntity
  8
0
  6
Continuous
 62
     7
370
     0
100
AcDbCircle
 10
7.337197528
 20
6.8116814116
 30
0.0
 40
0.6438094072701698
100
AcDbArc
 50
55.383565915
 51
56.006761748
  0
LINE
  5
228
330
1F
100
AcDbEntity
  8
0
  6
Continuous
 62
     7
370
     0
100
AcDbLine
 10
7.714434625
 20
7.3481594101
 30
0.0
 11
7.7029326608
 21
7.3415194675
 31
0.0
  0
ARC
  5
229
330
1F
100
AcDbEntity
  8
0
  6
Continuous
 62
     7
370
     0
100
AcDbCircle
 10
7.3486994921
 20
6.8183213541
 30
0.0
 40
0.6438094073222393
100
AcDbArc
 50
55.3835659151
 51
56.0067617479
  0
LINE
  5
22A
330
1F
100
AcDbEntity
  8
0
  6
Continuous
 62
     7
370
     0
100
AcDbLine
 10
7.7231366578
 20
7.3604689074
 30
0.0
 11
7.7086501519
 21
7.3521060256
 31
0.0
  0
SPLINE
  5
22B
330
1F
100
AcDbEntity
  8
0
  6
Continuous
 62
     7
370
     0
100
AcDbSpline
210
0.0
220
0.0
230
1.0
 70
     8
 71
     3
 72
    13
 73
     9
 74
     0
 42
0.00000001
 43
0.00000001
 40
0.0
 40
0.0
 40
0.0
 40
0.0
 40
0.2500979381482603
 40
0.3777541129345243
 40
0.4995112558107526
 40
0.6243482411511506
 40
0.7495213959045036
 40
1.0
 40
1.0
 40
1.0
 40
1.0
 10
7.725109142640496
 20
7.378994063688299
 30
0.0
 10
7.727173050860686
 20
7.377608818498981
 30
0.0
 10
7.730290428895342
 20
7.375516509895552
 30
0.0
 10
7.732755694162655
 20
7.372008128605347
 30
0.0
 10
7.732935060018532
 20
7.369177227360112
 30
0.0
 10
7.731593430343074
 20
7.366563229454181
 30
0.0
 10
7.728309794259481
 20
7.363584633502418
 30
0.0
 10
7.725206130960138
 20
7.361715329481674
 30
0.0
 10
7.723136657751269
 20
7.360468907361408
 30
0.0
  0
SPLINE
  5
22C
330
1F
100
AcDbEntity
  8
0
  6
Continuous
 62
     7
370
     0
100
AcDbSpline
210
0.0
220
0.0
230
1.0
 70
    24
 71
     1
 72
     4
 73
     2
 74
     0
 42
0.00000001
 43
0.00000001
 40
0.0
 40
0.0
 40
1.0
 40
1.0
 10
7.712914989837572
 20
7.385036986684559
 30
0.0
 10
7.725109142640496
 20
7.378994063688299
 30
0.0
  0
SPLINE
  5
22D
330
1F
100
AcDbEntity
  8
0
  6
Continuous
 62
     7
370
     0
100
AcDbSpline
210
0.0
220
0.0
230
1.0
 70
    24
 71
     1
 72
     4
 73
     2
 74
     0
 42
0.00000001
 43
0.00000001
 40
0.0
 40
0.0
 40
1.0
 40
1.0
 10
7.703180397368685
 20
7.37804425255254
 30
0.0
 10
7.712914989837572
 20
7.385036986684559
 30
0.0
  0
SPLINE
  5
22E
330
1F
100
AcDbEntity
  8
0
  6
Continuous
 62
     7
370
     0
100
AcDbSpline
210
0.0
220
0.0
230
1.0
 70
    24
 71
     1
 72
     4
 73
     2
 74
     0
 42
0.00000001
 43
0.00000001
 40
0.0
 40
0.0
 40
1.0
 40
1.0
 10
7.709077880012248
 20
7.375618401259196
 30
0.0
 10
7.703180397368685
 20
7.37804425255254
 30
0.0
  0
ARC
  5
22F
330
1F
100
AcDbEntity
  8
0
  6
Continuous
 62
     7
370
     0
100
AcDbCircle
 10
7.7083924903
 20
7.3736119799
 30
0.0
 40
0.002120256081725
100
AcDbArc
 50
347.7442232722
 51
71.1399295843
  0
SPLINE
  5
230
330
1F
100
AcDbEntity
  8
0
  6
Continuous
 62
     7
370
     0
100
AcDbSpline
210
0.0
220
0.0
230
1.0
 70
     8
 71
     3
 72
     9
 73
     5
 74
     0
 42
0.00000001
 43
0.00000001
 40
0.0
 40
0.0
 40
0.0
 40
0.0
 40
0.5014428105295644
 40
1.0
 40
1.0
 40
1.0
 40
1.0
 10
7.707479349800334
 20
7.370829316450139
 30
0.0
 10
7.708079142817665
 20
7.371171091407149
 30
0.0
 10
7.709275277261585
 20
7.371852674530555
 30
0.0
 10
7.710068805747484
 20
7.372726331848523
 30
0.0
 10
7.710464425079179
 20
7.373161899985529
 30
0.0
  0
LINE
  5
231
330
1F
100
AcDbEntity
  8
0
  6
Continuous
 62
     7
370
     0
100
AcDbLine
 10
7.6928780539
 20
7.3624001678
 30
0.0
 11
7.7074793498
 21
7.3708293165
 31
0.0
  0
ARC
  5
232
330
1F
100
AcDbEntity
  8
0
  6
Continuous
 62
     7
370
     0
100
AcDbCircle
 10
7.3744045949
 20
6.8578157752
 30
0.0
 40
0.5966831264210295
100
AcDbArc
 50
57.7415202909
 51
58.7210212679
  0
LINE
  5
233
330
1F
100
AcDbEntity
  8
0
  6
Continuous
 62
     7
370
     0
100
AcDbLine
 10
7.6727038419
 20
7.3611306961
 30
0.0
 11
7.6842058061
 21
7.3677706387
 31
0.0
  0
ARC
  5
234
330
1F
100
AcDbEntity
  8
0
  6
Continuous
 62
     7
370
     0
100
AcDbCircle
 10
7.3629026307
 20
6.8511758326
 30
0.0
 40
0.5966831263900501
100
AcDbArc
 50
57.7415202909
 51
58.7210212679
  0
LINE
  5
235
330
1F
100
AcDbEntity
  8
0
  6
Continuous
 62
     7
370
     0
100
AcDbLine
 10
7.6657187253
 20
7.3467214211
 30
0.0
 11
7.6813760897
 21
7.3557602252
 31
0.0
  0
SPLINE
  5
236
330
1F
100
AcDbEntity
  8
0
  6
Continuous
 62
     7
370
     0
100
AcDbSpline
210
0.0
220
0.0
230
1.0
 70
    24
 71
     1
 72
     4
 73
     2
 74
     0
 42
0.00000001
 43
0.00000001
 40
0.0
 40
0.0
 40
1.0
 40
1.0
 10
7.68959500166966
 20
7.341105721462497
 30
0.0
 10
7.66571872528805
 20
7.346721421070179
 30
0.0
  0
LINE
  5
237
330
1F
100
AcDbEntity
  8
0
  6
Continuous
 62
     7
370
     0
100
AcDbLine
 10
7.6971481877
 20
7.345466083
 30
0.0
 11
7.6895950017
 21
7.3411057215
 31
0.0
  0
LINE
  5
238
330
1F
100
AcDbEntity
  8
0
  6
Continuous
 62
     7
370
     0
100
AcDbLine
 10
7.8076406144
 20
7.2500405524
 30
0.0
 11
7.8509509047
 21
7.2750430508
 31
0.0
  0
SPLINE
  5
239
330
1F
100
AcDbEntity
  8
0
  6
Continuous
 62
     7
370
     0
100
AcDbSpline
210
0.0
220
0.0
230
1.0
 70
    24
 71
     1
 72
     4
 73
     2
 74
     0
 42
0.00000001
 43
0.00000001
 40
0.0
 40
0.0
 40
1.0
 40
1.0
 10
7.840521971016753
 20
7.285374330844156
 30
0.0
 10
7.807640614361565
 20
7.250040552383301
 30
0.0
  0
ARC
  5
23A
330
1F
100
AcDbEntity
  8
0
  6
Continuous
 62
     7
370
     0
100
AcDbCircle
 10
7.2590870626
 20
6.6882971448
 30
0.0
 40
0.8334072946871486
100
AcDbArc
 50
45.7604367183
 51
46.9321360231
  0
SPLINE
  5
23B
330
1F
100
AcDbEntity
  8
0
  6
Continuous
 62
     7
370
     0
100
AcDbSpline
210
0.0
220
0.0
230
1.0
 70
    24
 71
     1
 72
     4
 73
     2
 74
     0
 42
0.00000001
 43
0.00000001
 40
0.0
 40
0.0
 40
1.0
 40
1.0
 10
7.774212847396642
 20
7.281930883525715
 30
0.0
 10
7.828191012549708
 20
7.297139006838065
 30
0.0
  0
LINE
  5
23C
330
1F
100
AcDbEntity
  8
0
  6
Continuous
 62
     7
370
     0
100
AcDbLine
 10
7.8175231377
 20
7.306933382
 30
0.0
 11
7.7742128474
 21
7.2819308835
 31
0.0
  0
ARC
  5
23D
330
1F
100
AcDbEntity
  8
0
  6
Continuous
 62
     7
370
     0
100
AcDbCircle
 10
7.2907985782
 20
6.722884091
 30
0.0
 40
0.7864809825556598
100
AcDbArc
 50
47.9542952404
 51
49.3004015526
  0
LINE
  5
23E
330
1F
100
AcDbEntity
  8
0
  6
Continuous
 62
     7
370
     0
100
AcDbLine
 10
7.7468592701
 20
7.2863570647
 30
0.0
 11
7.8036573927
 21
7.319145923
 31
0.0
  0
ARC
  5
23F
330
1F
100
AcDbEntity
  8
0
  6
Continuous
 62
     7
370
     0
100
AcDbCircle
 10
7.228500254
 20
6.6838309147
 30
0.0
 40
0.7948168537294932
100
AcDbArc
 50
47.1485538935
 51
49.2942742981
  0
SPLINE
  5
240
330
1F
100
AcDbEntity
  8
0
  6
Continuous
 62
     7
370
     0
100
AcDbSpline
210
0.0
220
0.0
230
1.0
 70
    24
 71
     1
 72
     4
 73
     2
 74
     0
 42
0.00000001
 43
0.00000001
 40
0.0
 40
0.0
 40
1.0
 40
1.0
 10
7.812082468530715
 20
7.278518369036267
 30
0.0
 10
7.769055076391592
 20
7.266526645765844
 30
0.0
  0
SPLINE
  5
241
330
1F
100
AcDbEntity
  8
0
  6
Continuous
 62
     7
370
     0
100
AcDbSpline
210
0.0
220
0.0
230
1.0
 70
    24
 71
     1
 72
     4
 73
     2
 74
     0
 42
0.00000001
 43
0.00000001
 40
0.0
 40
0.0
 40
1.0
 40
1.0
 10
7.785958254063806
 20
7.250401768641045
 30
0.0
 10
7.812082468530715
 20
7.278518369036267
 30
0.0
  0
ARC
  5
242
330
1F
100
AcDbEntity
  8
0
  6
Continuous
 62
     7
370
     0
100
AcDbCircle
 10
7.1768549858
 20
6.6296192322
 30
0.0
 40
0.8696998039717231
100
AcDbArc
 50
43.5163178252
 51
45.5440770651
  0
LINE
  5
243
330
1F
100
AcDbEntity
  8
0
  6
Continuous
 62
     7
370
     0
100
AcDbLine
 10
7.8643405323
 20
7.2612495739
 30
0.0
 11
7.8075424097
 21
7.2284607156
 31
0.0
  0
ARC
  5
244
330
1F
100
AcDbEntity
  8
0
  6
Continuous
 62
     7
370
     0
100
AcDbCircle
 10
7.2282436383
 20
6.6571720433
 30
0.0
 40
0.8772279757875887
100
AcDbArc
 50
43.521041173
 51
44.7766397925
  0
LINE
  5
245
330
1F
100
AcDbEntity
  8
0
  6
Continuous
 62
     7
370
     0
100
AcDbLine
 10
7.9272955233
 20
7.1573870858
 30
0.0
 11
7.9431021148
 21
7.1665120369
 31
0.0
  0
ARC
  5
246
330
1F
100
AcDbEntity
  8
0
  6
Continuous
 62
     7
370
     0
100
AcDbCircle
 10
7.1098741757
 20
6.5612304096
 30
0.0
 40
1.011721524057095
100
AcDbArc
 50
34.7661960586
 51
36.1037877258
  0
LINE
  5
247
330
1F
100
AcDbEntity
  8
0
  6
Continuous
 62
     7
370
     0
100
AcDbLine
 10
7.9567956141
 20
7.147268312
 30
0.0
 11
7.9409890225
 21
7.138143361
 31
0.0
  0
ARC
  5
248
330
1F
100
AcDbEntity
  8
0
  6
Continuous
 62
     7
370
     0
100
AcDbCircle
 10
7.1256807672
 20
6.5703553606
 30
0.0
 40
1.01172152406348
100
AcDbArc
 50
34.7661960586
 51
36.1037877258
  0
LINE
  5
249
330
1F
100
AcDbEntity
  8
0
  6
Continuous
 62
     7
370
     0
100
AcDbLine
 10
7.9627751854
 20
7.0490156052
 30
0.0
 11
7.9785817769
 21
7.0581405563
 31
0.0
  0
ARC
  5
24A
330
1F
100
AcDbEntity
  8
0
  6
Continuous
 62
     7
370
     0
100
AcDbCircle
 10
7.0622478669
 20
6.5317493281
 30
0.0
 40
1.038515215494473
100
AcDbArc
 50
28.5587373551
 51
29.8732215224
  0
LINE
  5
24B
330
1F
100
AcDbEntity
  8
0
  6
Continuous
 62
     7
370
     0
100
AcDbLine
 10
7.9902109176
 20
7.0373462791
 30
0.0
 11
7.9744043261
 21
7.0282213281
 31
0.0
  0
ARC
  5
24C
330
1F
100
AcDbEntity
  8
0
  6
Continuous
 62
     7
370
     0
100
AcDbCircle
 10
7.0780544585
 20
6.5408742791
 30
0.0
 40
1.03851521547978
100
AcDbArc
 50
28.5587373551
 51
29.8732215224
  0
ARC
  5
24D
330
1F
100
AcDbEntity
  8
0
  6
Continuous
 62
     7
370
     0
100
AcDbCircle
 10
7.9763168959
 20
6.9447284986
 30
0.0
 40
0.034158547135079
100
AcDbArc
 50
32.0909293592
 51
86.60514151
  0
LINE
  5
24E
330
1F
100
AcDbEntity
  8
0
  6
Continuous
 62
     7
370
     0
100
AcDbLine
 10
8.0181930632
 20
6.9703439995
 30
0.0
 11
8.0052562233
 21
6.9628757208
 31
0.0
  0
SPLINE
  5
24F
330
1F
100
AcDbEntity
  8
0
  6
Continuous
 62
     7
370
     0
100
AcDbSpline
210
0.0
220
0.0
230
1.0
 70
    24
 71
     1
 72
     4
 73
     2
 74
     0
 42
0.00000001
 43
0.00000001
 40
0.0
 40
0.0
 40
1.0
 40
1.0
 10
8.000044541104405
 20
6.986649780099897
 30
0.0
 10
8.018193063226697
 20
6.970343999501571
 30
0.0
  0
LINE
  5
250
330
1F
100
AcDbEntity
  8
0
  6
Continuous
 62
     7
370
     0
100
AcDbLine
 10
8.0378908245
 20
7.0084979745
 30
0.0
 11
8.0000445411
 21
6.9866497801
 31
0.0
  0
ARC
  5
251
330
1F
100
AcDbEntity
  8
0
  6
Continuous
 62
     7
370
     0
100
AcDbCircle
 10
7.1132242823
 20
6.5606339632
 30
0.0
 40
1.027419284876465
100
AcDbArc
 50
25.8433162626
 51
27.0978069626
  0
LINE
  5
252
330
1F
100
AcDbEntity
  8
0
  6
Continuous
 62
     7
370
     0
100
AcDbLine
 10
7.9701016399
 20
6.9952890777
 30
0.0
 11
8.0278639991
 21
7.0286345779
 31
0.0
  0
ARC
  5
253
330
1F
100
AcDbEntity
  8
0
  6
Continuous
 62
     7
370
     0
100
AcDbCircle
 10
7.0547835766
 20
6.5269470275
 30
0.0
 40
1.028178697059482
100
AcDbArc
 50
26.0717066853
 51
27.0975262237
  0
LINE
  5
254
330
1F
100
AcDbEntity
  8
0
  6
Continuous
 62
     7
370
     0
100
AcDbLine
 10
7.5157726382
 20
7.485519023
 30
0.0
 11
7.5367677405
 21
7.4976392376
 31
0.0
  0
ARC
  5
255
330
1F
100
AcDbEntity
  8
0
  6
Continuous
 62
     7
370
     0
100
AcDbCircle
 10
7.3865389463
 20
7.7066401098
 30
0.0
 40
0.2561169306355255
100
AcDbArc
 50
296.8999610798
 51
300.3040487182
  0
SPLINE
  5
256
330
1F
100
AcDbEntity
  8
0
  6
Continuous
 62
     7
370
     0
100
AcDbSpline
210
0.0
220
0.0
230
1.0
 70
     8
 71
     3
 72
    11
 73
     7
 74
     0
 42
0.00000001
 43
0.00000001
 40
0.0
 40
0.0
 40
0.0
 40
0.0
 40
0.2494767938119423
 40
0.5035301868948514
 40
0.7522417857870595
 40
0.9999999999999999
 40
0.9999999999999999
 40
0.9999999999999999
 40
0.9999999999999999
 10
7.502475601166933
 20
7.478494424714216
 30
0.0
 10
7.502139865362063
 20
7.478292796769761
 30
0.0
 10
7.501462234749648
 20
7.477885842058649
 30
0.0
 10
7.501138843740159
 20
7.4776510919748
 30
0.0
 10
7.501410927438912
 20
7.477741300784743
 30
0.0
 10
7.502080724684326
 20
7.478071034710149
 30
0.0
 10
7.502414980191969
 20
7.478235585074276
 30
0.0
  0
SPLINE
  5
257
330
1F
100
AcDbEntity
  8
0
  6
Continuous
 62
     7
370
     0
100
AcDbSpline
210
0.0
220
0.0
230
1.0
 70
    24
 71
     1
 72
     4
 73
     2
 74
     0
 42
0.00000001
 43
0.00000001
 40
0.0
 40
0.0
 40
1.0
 40
1.0
 10
7.505936068500792
 20
7.480504076276272
 30
0.0
 10
7.502475601166933
 20
7.478494424714216
 30
0.0
  0
LINE
  5
258
330
1F
100
AcDbEntity
  8
0
  6
Continuous
 62
     7
370
     0
100
AcDbLine
 10
7.5285956267
 20
7.4935851608
 30
0.0
 11
7.5059360685
 21
7.4805040763
 31
0.0
  0
SPLINE
  5
259
330
1F
100
AcDbEntity
  8
0
  6
Continuous
 62
     7
370
     0
100
AcDbSpline
210
0.0
220
0.0
230
1.0
 70
     8
 71
     3
 72
    11
 73
     7
 74
     0
 42
0.00000001
 43
0.00000001
 40
0.0
 40
0.0
 40
0.0
 40
0.0
 40
0.4988183325239033
 40
0.7490569579726323
 40
0.8745026418118528
 40
1.0
 40
1.0
 40
1.0
 40
1.0
 10
7.502431343963313
 20
7.477727696875005
 30
0.0
 10
7.498993994108687
 20
7.475897851077802
 30
0.0
 10
7.493832253535587
 20
7.47315003962613
 30
0.0
 10
7.488972344019911
 20
7.470595926639104
 30
0.0
 10
7.486634526984356
 20
7.469361835724174
 30
0.0
 10
7.485611519246887
 20
7.468816096243938
 30
0.0
 10
7.485099910048953
 20
7.468543170314312
 30
0.0
  0
LINE
  5
25A
330
1F
100
AcDbEntity
  8
0
  6
Continuous
 62
     7
370
     0
100
AcDbLine
 10
7.4964278237
 20
7.4742619384
 30
0.0
 11
7.502431344
 21
7.4777276969
 31
0.0
  0
ARC
  5
25B
330
1F
100
AcDbEntity
  8
0
  6
Continuous
 62
     7
370
     0
100
AcDbCircle
 10
7.58165543
 20
7.2900695361
 30
0.0
 40
0.2029546401310217
100
AcDbArc
 50
111.4188408185
 51
114.8304370064
  0
LINE
  5
25C
330
1F
100
AcDbEntity
  8
0
  6
Continuous
 62
     7
370
     0
100
AcDbLine
 10
7.5486806185
 20
7.5027573268
 30
0.0
 11
7.5075398603
 21
7.4790072726
 31
0.0
  0
ARC
  5
25D
330
1F
100
AcDbEntity
  8
0
  6
Continuous
 62
     7
370
     0
100
AcDbCircle
 10
7.6227577673
 20
7.3139118897
 30
0.0
 40
0.2028546846194591
100
AcDbArc
 50
111.418258662
 51
115.0810337657
  0
ARC
  5
25E
330
1F
100
AcDbEntity
  8
0
  6
Continuous
 62
     7
370
     0
100
AcDbCircle
 10
7.6353540678
 20
7.4009227967
 30
0.0
 40
0.1181947106692902
100
AcDbArc
 50
97.9049767214
 51
124.0203144436
  0
SPLINE
  5
25F
330
1F
100
AcDbEntity
  8
0
  6
Continuous
 62
     7
370
     0
100
AcDbSpline
210
0.0
220
0.0
230
1.0
 70
    24
 71
     1
 72
     4
 73
     2
 74
     0
 42
0.00000001
 43
0.00000001
 40
0.0
 40
0.0
 40
1.0
 40
1.0
 10
7.557336825124653
 20
7.491423599378912
 30
0.0
 10
7.56922568651156
 20
7.498887212772275
 30
0.0
  0
SPLINE
  5
260
330
1F
100
AcDbEntity
  8
0
  6
Continuous
 62
     7
370
     0
100
AcDbSpline
210
0.0
220
0.0
230
1.0
 70
     8
 71
     3
 72
    12
 73
     8
 74
     0
 42
0.00000001
 43
0.00000001
 40
0.0
 40
0.0
 40
0.0
 40
0.0
 40
0.2503262674180374
 40
0.4997345046006516
 40
0.6249000363599454
 40
0.7501600021982588
 40
1.0
 40
1.0
 40
1.0
 40
1.0
 10
7.55999943977328
 20
7.484072030686527
 30
0.0
 10
7.5579780824378
 20
7.483993241735406
 30
0.0
 10
7.553942780760965
 20
7.483835952778627
 30
0.0
 10
7.551506357175954
 20
7.484798827864049
 30
0.0
 10
7.551727089787661
 20
7.486350530402537
 30
0.0
 10
7.553026545035386
 20
7.48826527523786
 30
0.0
 10
7.555613651004786
 20
7.490160956973012
 30
0.0
 10
7.557336825124653
 20
7.491423599378912
 30
0.0
  0
ARC
  5
261
330
1F
100
AcDbEntity
  8
0
  6
Continuous
 62
     7
370
     0
100
AcDbCircle
 10
7.5505266552
 20
7.5938215365
 30
0.0
 40
0.1101575584517007
100
AcDbArc
 50
274.9331316378
 51
302.7558796192
  0
SPLINE
  5
262
330
1F
100
AcDbEntity
  8
0
  6
Continuous
 62
     7
370
     0
100
AcDbSpline
210
0.0
220
0.0
230
1.0
 70
     8
 71
     3
 72
     9
 73
     5
 74
     0
 42
0.00000001
 43
0.00000001
 40
0.0
 40
0.0
 40
0.0
 40
0.0
 40
0.4987092906772066
 40
0.9999999999999999
 40
0.9999999999999999
 40
0.9999999999999999
 40
0.9999999999999999
 10
7.62682713419617
 20
7.513149437469216
 30
0.0
 10
7.624774662519941
 20
7.51123040452527
 30
0.0
 10
7.620659095165175
 20
7.507382405340536
 30
0.0
 10
7.613644793400764
 20
7.503251588301663
 30
0.0
 10
7.610128589093878
 20
7.501180848098162
 30
0.0
  0
SPLINE
  5
263
330
1F
100
AcDbEntity
  8
0
  6
Continuous
 62
     7
370
     0
100
AcDbSpline
210
0.0
220
0.0
230
1.0
 70
     8
 71
     3
 72
    11
 73
     7
 74
     0
 42
0.00000001
 43
0.00000001
 40
0.0
 40
0.0
 40
0.0
 40
0.0
 40
0.2504031889031592
 40
0.5003824607867526
 40
0.7500984159891421
 40
1.0
 40
1.0
 40
1.0
 40
1.0
 10
7.619098680499532
 20
7.517994364587874
 30
0.0
 10
7.620642905522677
 20
7.518035709015089
 30
0.0
 10
7.62372874129208
 20
7.518118327875976
 30
0.0
 10
7.627045377013606
 20
7.517409600936342
 30
0.0
 10
7.628276601169384
 20
7.515716793671077
 30
0.0
 10
7.62731040951411
 20
7.514005434816962
 30
0.0
 10
7.62682713419617
 20
7.513149437469216
 30
0.0
  0
SPLINE
  5
264
330
1F
100
AcDbEntity
  8
0
  6
Continuous
 62
     7
370
     0
100
AcDbSpline
210
0.0
220
0.0
230
1.0
 70
     8
 71
     3
 72
     9
 73
     5
 74
     0
 42
0.00000001
 43
0.00000001
 40
0.0
 40
0.0
 40
0.0
 40
0.0
 40
0.5000883479088509
 40
1.0
 40
1.0
 40
1.0
 40
1.0
 10
7.729269975782304
 20
7.501517925688418
 30
0.0
 10
7.719960863763755
 20
7.497354825939444
 30
0.0
 10
7.701345928907793
 20
7.489030097386215
 30
0.0
 10
7.679016000964873
 20
7.484136953534636
 30
0.0
 10
7.667853009795852
 20
7.481690813907871
 30
0.0
  0
ARC
  5
265
330
1F
100
AcDbEntity
  8
0
  6
Continuous
 62
     7
370
     0
100
AcDbCircle
 10
7.6124181922
 20
7.1367345
 30
0.0
 40
0.3830421477621049
100
AcDbArc
 50
72.2380777335
 51
74.6233693282
  0
SPLINE
  5
266
330
1F
100
AcDbEntity
  8
0
  6
Continuous
 62
     7
370
     0
100
AcDbSpline
210
0.0
220
0.0
230
1.0
 70
    24
 71
     1
 72
     4
 73
     2
 74
     0
 42
0.00000001
 43
0.00000001
 40
0.0
 40
0.0
 40
1.0
 40
1.0
 10
7.693747248766106
 20
7.496854315519128
 30
0.0
 10
7.713986746745056
 20
7.506065131968964
 30
0.0
  0
SPLINE
  5
267
330
1F
100
AcDbEntity
  8
0
  6
Continuous
 62
     7
370
     0
100
AcDbSpline
210
0.0
220
0.0
230
1.0
 70
    24
 71
     1
 72
     4
 73
     2
 74
     0
 42
0.00000001
 43
0.00000001
 40
0.0
 40
0.0
 40
1.0
 40
1.0
 10
7.669237177914706
 20
7.488885898330279
 30
0.0
 10
7.693747248766106
 20
7.496854315519128
 30
0.0
  0
SPLINE
  5
268
330
1F
100
AcDbEntity
  8
0
  6
Continuous
 62
     7
370
     0
100
AcDbSpline
210
0.0
220
0.0
230
1.0
 70
    24
 71
     1
 72
     4
 73
     2
 74
     0
 42
0.00000001
 43
0.00000001
 40
0.0
 40
0.0
 40
1.0
 40
1.0
 10
7.647890287694015
 20
7.484301152496514
 30
0.0
 10
7.669237177914706
 20
7.488885898330279
 30
0.0
  0
LINE
  5
269
330
1F
100
AcDbEntity
  8
0
  6
Continuous
 62
     7
370
     0
100
AcDbLine
 10
7.63723777
 20
7.4781515849
 30
0.0
 11
7.6478902877
 21
7.4843011525
 31
0.0
  0
ARC
  5
26A
330
1F
100
AcDbEntity
  8
0
  6
Continuous
 62
     7
370
     0
100
AcDbCircle
 10
7.5583268896
 20
7.1121436675
 30
0.0
 40
0.374417844941447
100
AcDbArc
 50
70.7386363635
 51
77.8333291221
  0
LINE
  5
26B
330
1F
100
AcDbEntity
  8
0
  6
Continuous
 62
     7
370
     0
100
AcDbLine
 10
7.6951661817
 20
7.4732965406
 30
0.0
 11
7.6818390555
 21
7.4656029544
 31
0.0
  0
ARC
  5
26C
330
1F
100
AcDbEntity
  8
0
  6
Continuous
 62
     7
370
     0
100
AcDbCircle
 10
7.5674857987
 20
7.1064846029
 30
0.0
 40
0.3883983494561334
100
AcDbArc
 50
70.8079475793
 51
75.0240796626
  0
ARC
  5
26D
330
1F
100
AcDbEntity
  8
0
  6
Continuous
 62
     7
370
     0
100
AcDbCircle
 10
7.7743962409
 20
7.4269266749
 30
0.0
 40
0.0526139966666826
100
AcDbArc
 50
66.3221962826
 51
127.1921513634
  0
SPLINE
  5
26E
330
1F
100
AcDbEntity
  8
0
  6
Continuous
 62
     7
370
     0
100
AcDbSpline
210
0.0
220
0.0
230
1.0
 70
    24
 71
     1
 72
     4
 73
     2
 74
     0
 42
0.00000001
 43
0.00000001
 40
0.0
 40
0.0
 40
1.0
 40
1.0
 10
7.730929605859458
 20
7.460491679751074
 30
0.0
 10
7.742591606190515
 20
7.468839654494027
 30
0.0
  0
SPLINE
  5
26F
330
1F
100
AcDbEntity
  8
0
  6
Continuous
 62
     7
370
     0
100
AcDbSpline
210
0.0
220
0.0
230
1.0
 70
     8
 71
     3
 72
    12
 73
     8
 74
     0
 42
0.00000001
 43
0.00000001
 40
0.0
 40
0.0
 40
0.0
 40
0.0
 40
0.2503262674180347
 40
0.4997345046006483
 40
0.6249000363599422
 40
0.750160002198258
 40
1.0
 40
1.0
 40
1.0
 40
1.0
 10
7.736375206784921
 20
7.441422682303481
 30
0.0
 10
7.734057170790888
 20
7.442673113902073
 30
0.0
 10
7.729429599816924
 20
7.44516939134792
 30
0.0
 10
7.726240319325604
 20
7.449282032308782
 30
0.0
 10
7.725980009196202
 20
7.452795203135588
 30
0.0
 10
7.726868818585055
 20
7.456355160042576
 30
0.0
 10
7.729306174575965
 20
7.458837971973299
 30
0.0
 10
7.730929605859458
 20
7.460491679751074
 30
0.0
  0
ARC
  5
270
330
1F
100
AcDbEntity
  8
0
  6
Continuous
 62
     7
370
     0
100
AcDbCircle
 10
7.759193042
 20
7.4877476962
 30
0.0
 40
0.0516397184292211
100
AcDbArc
 50
243.7770007248
 51
305.3623830156
  0
SPLINE
  5
271
330
1F
100
AcDbEntity
  8
0
  6
Continuous
 62
     7
370
     0
100
AcDbSpline
210
0.0
220
0.0
230
1.0
 70
     8
 71
     3
 72
     9
 73
     5
 74
     0
 42
0.00000001
 43
0.00000001
 40
0.0
 40
0.0
 40
0.0
 40
0.0
 40
0.4987092906772078
 40
0.9999999999999999
 40
0.9999999999999999
 40
0.9999999999999999
 40
0.9999999999999999
 10
7.805345516343468
 20
7.459964159978679
 30
0.0
 10
7.80343060379082
 20
7.457297949653263
 30
0.0
 10
7.799590866716647
 20
7.451951728166605
 30
0.0
 10
7.79258919130399
 20
7.447744260304252
 30
0.0
 10
7.789079316469931
 20
7.44563509575508
 30
0.0
  0
SPLINE
  5
272
330
1F
100
AcDbEntity
  8
0
  6
Continuous
 62
     7
370
     0
100
AcDbSpline
210
0.0
220
0.0
230
1.0
 70
     8
 71
     3
 72
    11
 73
     7
 74
     0
 42
0.00000001
 43
0.00000001
 40
0.0
 40
0.0
 40
0.0
 40
0.0
 40
0.2504031889031607
 40
0.5003824607867515
 40
0.7500984159891428
 40
1.0
 40
1.0
 40
1.0
 40
1.0
 10
7.795525654711679
 20
7.475111532651811
 30
0.0
 10
7.797286801332404
 20
7.474149924384974
 30
0.0
 10
7.800806113062198
 20
7.47222833579427
 30
0.0
 10
7.804720353229962
 20
7.468596204430463
 30
0.0
 10
7.806457936026394
 20
7.46432335290986
 30
0.0
 10
7.805716414739832
 20
7.461417584160605
 30
0.0
 10
7.805345516343468
 20
7.459964159978679
 30
0.0
  0
LINE
  5
273
330
1F
100
AcDbEntity
  8
0
  6
Continuous
 62
     7
370
     0
100
AcDbLine
 10
7.8718038177
 20
7.4136171406
 30
0.0
 11
7.8824218985
 21
7.4197468281
 31
0.0
  0
ARC
  5
274
330
1F
100
AcDbEntity
  8
0
  6
Continuous
 62
     7
370
     0
100
AcDbCircle
 10
7.4637863864
 20
6.8658403551
 30
0.0
 40
0.6830356000558636
100
AcDbArc
 50
53.3190201221
 51
54.0542808002
  0
LINE
  5
275
330
1F
100
AcDbEntity
  8
0
  6
Continuous
 62
     7
370
     0
100
AcDbLine
 10
7.8525043287
 20
7.4117438165
 30
0.0
 11
7.8647409493
 21
7.4188078673
 31
0.0
  0
ARC
  5
276
330
1F
100
AcDbEntity
  8
0
  6
Continuous
 62
     7
370
     0
100
AcDbCircle
 10
7.4515497658
 20
6.8587763044
 30
0.0
 40
0.6830356000401413
100
AcDbArc
 50
53.3190201221
 51
54.0542808002
  0
LINE
  5
277
330
1F
100
AcDbEntity
  8
0
  6
Continuous
 62
     7
370
     0
100
AcDbLine
 10
7.8246595393
 20
7.386401328
 30
0.0
 11
7.8595671971
 21
7.4065530899
 31
0.0
  0
ARC
  5
278
330
1F
100
AcDbEntity
  8
0
  6
Continuous
 62
     7
370
     0
100
AcDbCircle
 10
7.4038541344
 20
6.8215252455
 30
0.0
 40
0.7043878031852614
100
AcDbArc
 50
51.9260596551
 51
53.315668536
  0
SPLINE
  5
279
330
1F
100
AcDbEntity
  8
0
  6
Continuous
 62
     7
370
     0
100
AcDbSpline
210
0.0
220
0.0
230
1.0
 70
    24
 71
     1
 72
     4
 73
     2
 74
     0
 42
0.00000001
 43
0.00000001
 40
0.0
 40
0.0
 40
1.0
 40
1.0
 10
7.900511912545777
 20
7.372603893139344
 30
0.0
 10
7.838234520213489
 20
7.376030302086459
 30
0.0
  0
LINE
  5
27A
330
1F
100
AcDbEntity
  8
0
  6
Continuous
 62
     7
370
     0
100
AcDbLine
 10
7.9134831895
 20
7.380092052
 30
0.0
 11
7.9005119125
 21
7.3726038931
 31
0.0
  0
ARC
  5
27B
330
1F
100
AcDbEntity
  8
0
  6
Continuous
 62
     7
370
     0
100
AcDbCircle
 10
7.424399124
 20
6.8150756141
 30
0.0
 40
0.7472929801655992
100
AcDbArc
 50
49.1201978295
 51
51.9123631588
  0
LINE
  5
27C
330
1F
100
AcDbEntity
  8
0
  6
Continuous
 62
     7
370
     0
100
AcDbLine
 10
7.8959968794
 20
7.4093758022
 30
0.0
 11
7.8853787986
 21
7.4032461147
 31
0.0
  0
ARC
  5
27D
330
1F
100
AcDbEntity
  8
0
  6
Continuous
 62
     7
370
     0
100
AcDbCircle
 10
7.4616164936
 20
6.8548707457
 30
0.0
 40
0.7043878031912919
100
AcDbArc
 50
51.9260596551
 51
53.315668536
  0
SPLINE
  5
27E
330
1F
100
AcDbEntity
  8
0
  6
Continuous
 62
     7
370
     0
100
AcDbSpline
210
0.0
220
0.0
230
1.0
 70
    24
 71
     1
 72
     4
 73
     2
 74
     0
 42
0.00000001
 43
0.00000001
 40
0.0
 40
0.0
 40
1.0
 40
1.0
 10
7.970234394503676
 20
7.247228176160869
 30
0.0
 10
8.008112069086797
 20
7.30232988123824
 30
0.0
  0
ARC
  5
27F
330
1F
100
AcDbEntity
  8
0
  6
Continuous
 62
     7
370
     0
100
AcDbCircle
 10
7.2188339436
 20
6.6297387839
 30
0.0
 40
0.9725717388663588
100
AcDbArc
 50
37.8525062782
 51
39.4128421946
  0
SPLINE
  5
280
330
1F
100
AcDbEntity
  8
0
  6
Continuous
 62
     7
370
     0
100
AcDbSpline
210
0.0
220
0.0
230
1.0
 70
    24
 71
     1
 72
     4
 73
     2
 74
     0
 42
0.00000001
 43
0.00000001
 40
0.0
 40
0.0
 40
1.0
 40
1.0
 10
8.061462430022273
 20
7.235577148732069
 30
0.0
 10
7.986769788438915
 20
7.226538855434846
 30
0.0
  0
ARC
  5
281
330
1F
100
AcDbEntity
  8
0
  6
Continuous
 62
     7
370
     0
100
AcDbCircle
 10
7.2570043664
 20
6.6480986009
 30
0.0
 40
0.9961344388967508
100
AcDbArc
 50
36.139857926
 51
37.5779048741
  0
SPLINE
  5
282
330
1F
100
AcDbEntity
  8
0
  6
Continuous
 62
     7
370
     0
100
AcDbSpline
210
0.0
220
0.0
230
1.0
 70
    24
 71
     1
 72
     4
 73
     2
 74
     0
 42
0.00000001
 43
0.00000001
 40
0.0
 40
0.0
 40
1.0
 40
1.0
 10
8.034746819951039
 20
7.253196047671913
 30
0.0
 10
8.046465689384675
 20
7.255580814468695
 30
0.0
  0
ARC
  5
283
330
1F
100
AcDbEntity
  8
0
  6
Continuous
 62
     7
370
     0
100
AcDbCircle
 10
7.2660506604
 20
6.6569484605
 30
0.0
 40
0.9728334754256334
100
AcDbArc
 50
37.7993357368
 51
39.4285997071
  0
SPLINE
  5
284
330
1F
100
AcDbEntity
  8
0
  6
Continuous
 62
     7
370
     0
100
AcDbSpline
210
0.0
220
0.0
230
1.0
 70
    24
 71
     1
 72
     4
 73
     2
 74
     0
 42
0.00000001
 43
0.00000001
 40
0.0
 40
0.0
 40
1.0
 40
1.0
 10
8.024416488674198
 20
7.283186179196111
 30
0.0
 10
8.017483430412632
 20
7.274810713000207
 30
0.0
  0
ARC
  5
285
330
1F
100
AcDbEntity
  8
0
  6
Continuous
 62
     7
370
     0
100
AcDbCircle
 10
7.2970317418
 20
6.6801978765
 30
0.0
 40
0.9448192753848623
100
AcDbArc
 50
39.6580941875
 51
41.1830371309
  0
SPLINE
  5
286
330
1F
100
AcDbEntity
  8
0
  6
Continuous
 62
     7
370
     0
100
AcDbSpline
210
0.0
220
0.0
230
1.0
 70
    24
 71
     1
 72
     4
 73
     2
 74
     0
 42
0.00000001
 43
0.00000001
 40
0.0
 40
0.0
 40
1.0
 40
1.0
 10
8.121655817590376
 20
7.141241544012394
 30
0.0
 10
8.127927154052742
 20
7.132022991181346
 30
0.0
  0
SPLINE
  5
287
330
1F
100
AcDbEntity
  8
0
  6
Continuous
 62
     7
370
     0
100
AcDbSpline
210
0.0
220
0.0
230
1.0
 70
    24
 71
     1
 72
     4
 73
     2
 74
     0
 42
0.00000001
 43
0.00000001
 40
0.0
 40
0.0
 40
1.0
 40
1.0
 10
8.115057997151984
 20
7.148323094492329
 30
0.0
 10
8.121655817590376
 20
7.141241544012394
 30
0.0
  0
ARC
  5
288
330
1F
100
AcDbEntity
  8
0
  6
Continuous
 62
     7
370
     0
100
AcDbCircle
 10
8.1043291897
 20
7.1340064561
 30
0.0
 40
0.0178905965692671
100
AcDbArc
 50
53.1523188301
 51
117.7137091692
  0
ARC
  5
289
330
1F
100
AcDbEntity
  8
0
  6
Continuous
 62
     7
370
     0
100
AcDbCircle
 10
8.1052537968
 20
7.1356068504
 30
0.0
 40
0.01697587731953
100
AcDbArc
 50
122.9958673011
 51
209.5336872098
  0
ARC
  5
28A
330
1F
100
AcDbEntity
  8
0
  6
Continuous
 62
     7
370
     0
100
AcDbCircle
 10
8.0748164367
 20
7.1119816191
 30
0.0
 40
0.0218688100108342
100
AcDbArc
 50
44.2404061126
 51
69.9139765154
  0
SPLINE
  5
28B
330
1F
100
AcDbEntity
  8
0
  6
Continuous
 62
     7
370
     0
100
AcDbSpline
210
0.0
220
0.0
230
1.0
 70
     8
 71
     3
 72
     9
 73
     5
 74
     0
 42
0.00000001
 43
0.00000001
 40
0.0
 40
0.0
 40
0.0
 40
0.0
 40
0.5001654445837097
 40
0.9999999999999999
 40
0.9999999999999999
 40
0.9999999999999999
 40
0.9999999999999999
 10
8.071421715969544
 20
7.131341082735656
 30
0.0
 10
8.07309497113125
 20
7.1321162020725
 30
0.0
 10
8.076440374496928
 20
7.13366592795868
 30
0.0
 10
8.080365127940972
 20
7.132902108750803
 30
0.0
 10
8.082326855333793
 20
7.132520325516615
 30
0.0
  0
SPLINE
  5
28C
330
1F
100
AcDbEntity
  8
0
  6
Continuous
 62
     7
370
     0
100
AcDbSpline
210
0.0
220
0.0
230
1.0
 70
     8
 71
     3
 72
    14
 73
    10
 74
     0
 42
0.00000001
 43
0.00000001
 40
0.0
 40
0.0
 40
0.0
 40
0.0
 40
0.2499004290088881
 40
0.3800976031629529
 40
0.4999571058495303
 40
0.625721676820806
 40
0.749996655536536
 40
0.8749516763669458
 40
1.0
 40
1.0
 40
1.0
 40
1.0
 10
8.069352991194863
 20
7.102388174486521
 30
0.0
 10
8.068004677851436
 20
7.105006926212424
 30
0.0
 10
8.065953898378257
 20
7.108990037639015
 30
0.0
 10
8.064555700229443
 20
7.114612320899637
 30
0.0
 10
8.064261062894738
 20
7.118821328214377
 30
0.0
 10
8.064828492738583
 20
7.12276640229041
 30
0.0
 10
8.066237046534871
 20
7.126343084110147
 30
0.0
 10
8.068431527467194
 20
7.129336258165928
 30
0.0
 10
8.070424738509177
 20
7.130672641630207
 30
0.0
 10
8.071421715969544
 20
7.131341082735656
 30
0.0
  0
ARC
  5
28D
330
1F
100
AcDbEntity
  8
0
  6
Continuous
 62
     7
370
     0
100
AcDbCircle
 10
7.1676898894
 20
6.5925591224
 30
0.0
 40
1.035819487866877
100
AcDbArc
 50
26.9181807763
 51
29.4852014401
  0
LINE
  5
28E
330
1F
100
AcDbEntity
  8
0
  6
Continuous
 62
     7
370
     0
100
AcDbLine
 10
8.1480805195
 20
7.0942817624
 30
0.0
 11
8.0912823969
 21
7.0614929041
 31
0.0
  0
ARC
  5
28F
330
1F
100
AcDbEntity
  8
0
  6
Continuous
 62
     7
370
     0
100
AcDbCircle
 10
7.2247563465
 20
6.625489124
 30
0.0
 40
1.035516328332081
100
AcDbArc
 50
26.917938913
 51
29.2854301628
  0
LINE
  5
290
330
1F
100
AcDbEntity
  8
0
  6
Continuous
 62
     7
370
     0
100
AcDbLine
 10
8.2523606848
 20
7.7818929635
 30
0.0
 11
8.2733557871
 21
7.794013178
 31
0.0
  0
ARC
  5
291
330
1F
100
AcDbEntity
  8
0
  6
Continuous
 62
     7
370
     0
100
AcDbCircle
 10
8.2419500539
 20
7.7964563275
 30
0.0
 40
0.0179017542896169
100
AcDbArc
 50
255.4718518084
 51
305.5591068016
  0
SPLINE
  5
292
330
1F
100
AcDbEntity
  8
0
  6
Continuous
 62
     7
370
     0
100
AcDbSpline
210
0.0
220
0.0
230
1.0
 70
     8
 71
     3
 72
    11
 73
     7
 74
     0
 42
0.00000001
 43
0.00000001
 40
0.0
 40
0.0
 40
0.0
 40
0.0
 40
0.2494767937680131
 40
0.5035301868598614
 40
0.7522417857863324
 40
1.0
 40
1.0
 40
1.0
 40
1.0
 10
8.236332104833295
 20
7.782773954732106
 30
0.0
 10
8.236047426405143
 20
7.78242820005661
 30
0.0
 10
8.235472847182931
 20
7.781730347908797
 30
0.0
 10
8.23543504326746
 20
7.780685790954209
 30
0.0
 10
8.236064472181479
 20
7.779757107926682
 30
0.0
 10
8.236994952010946
 20
7.779336760527007
 30
0.0
 10
8.237459298512604
 20
7.779126990429539
 30
0.0
  0
SPLINE
  5
293
330
1F
100
AcDbEntity
  8
0
  6
Continuous
 62
     7
370
     0
100
AcDbSpline
210
0.0
220
0.0
230
1.0
 70
    24
 71
     1
 72
     4
 73
     2
 74
     0
 42
0.00000001
 43
0.00000001
 40
0.0
 40
0.0
 40
1.0
 40
1.0
 10
8.239712473703252
 20
7.785009470491175
 30
0.0
 10
8.236332104833295
 20
7.782773954732106
 30
0.0
  0
LINE
  5
294
330
1F
100
AcDbEntity
  8
0
  6
Continuous
 62
     7
370
     0
100
AcDbLine
 10
8.2623720319
 20
7.798090555
 30
0.0
 11
8.2397124737
 21
7.7850094705
 31
0.0
  0
ARC
  5
295
330
1F
100
AcDbEntity
  8
0
  6
Continuous
 62
     7
370
     0
100
AcDbCircle
 10
8.1273272274
 20
7.4184896383
 30
0.0
 40
0.4029068815697486
100
AcDbArc
 50
70.4167460149
 51
72.7347558091
  0
LINE
  5
296
330
1F
100
AcDbEntity
  8
0
  6
Continuous
 62
     7
370
     0
100
AcDbLine
 10
8.2256720791
 20
7.7909825686
 30
0.0
 11
8.2469082406
 21
7.8032419437
 31
0.0
  0
ARC
  5
297
330
1F
100
AcDbEntity
  8
0
  6
Continuous
 62
     7
370
     0
100
AcDbCircle
 10
8.2147980059
 20
7.8064995575
 30
0.0
 40
0.0189478867518977
100
AcDbArc
 50
258.9299899227
 51
305.0221955321
  0
SPLINE
  5
298
330
1F
100
AcDbEntity
  8
0
  6
Continuous
 62
     7
370
     0
100
AcDbSpline
210
0.0
220
0.0
230
1.0
 70
     8
 71
     3
 72
    10
 73
     6
 74
     0
 42
0.00000001
 43
0.00000001
 40
0.0
 40
0.0
 40
0.0
 40
0.0
 40
0.4988594542991757
 40
0.7491987595266165
 40
1.0
 40
1.0
 40
1.0
 40
1.0
 10
8.209454198651898
 20
7.790239106998015
 30
0.0
 10
8.209383639724606
 20
7.78975854907412
 30
0.0
 10
8.209277672682498
 20
7.789036835979663
 30
0.0
 10
8.210107783139643
 20
7.788282033044518
 30
0.0
 10
8.210808948406328
 20
7.788030240633931
 30
0.0
 10
8.211159854195472
 20
7.787904228381564
 30
0.0
  0
SPLINE
  5
299
330
1F
100
AcDbEntity
  8
0
  6
Continuous
 62
     7
370
     0
100
AcDbSpline
210
0.0
220
0.0
230
1.0
 70
     8
 71
     3
 72
     9
 73
     5
 74
     0
 42
0.00000001
 43
0.00000001
 40
0.0
 40
0.0
 40
0.0
 40
0.0
 40
0.5015784057012963
 40
1.0
 40
1.0
 40
1.0
 40
1.0
 10
8.212553231681479
 20
7.792923599775452
 30
0.0
 10
8.21183172398022
 20
7.792494795635052
 30
0.0
 10
8.210393249570126
 20
7.791639886142286
 30
0.0
 10
8.209766556173687
 20
7.790705049678635
 30
0.0
 10
8.209454198651898
 20
7.790239106998015
 30
0.0
  0
LINE
  5
29A
330
1F
100
AcDbEntity
  8
0
  6
Continuous
 62
     7
370
     0
100
AcDbLine
 10
8.2359933623
 20
7.8064552992
 30
0.0
 11
8.2125532317
 21
7.7929235998
 31
0.0
  0
ARC
  5
29B
330
1F
100
AcDbEntity
  8
0
  6
Continuous
 62
     7
370
     0
100
AcDbCircle
 10
8.1392089158
 20
7.4587934618
 30
0.0
 40
0.3608822276973607
100
AcDbArc
 50
74.4435023363
 51
76.9381548491
  0
LINE
  5
29C
330
1F
100
AcDbEntity
  8
0
  6
Continuous
 62
     7
370
     0
100
AcDbLine
 10
8.1949300162
 20
7.7954217924
 30
0.0
 11
8.2207692591
 21
7.8103384698
 31
0.0
  0
SPLINE
  5
29D
330
1F
100
AcDbEntity
  8
0
  6
Continuous
 62
     7
370
     0
100
AcDbSpline
210
0.0
220
0.0
230
1.0
 70
     8
 71
     3
 72
    13
 73
     9
 74
     0
 42
0.00000001
 43
0.00000001
 40
0.0
 40
0.0
 40
0.0
 40
0.0
 40
0.2493026324882645
 40
0.3767800005160297
 40
0.4994269650590692
 40
0.6183515801772449
 40
0.7497380290330583
 40
0.9999999999999999
 40
0.9999999999999999
 40
0.9999999999999999
 40
0.9999999999999999
 10
8.19223465729709
 20
7.782633738121922
 30
0.0
 10
8.190406470532006
 20
7.783258513184107
 30
0.0
 10
8.1876434663735
 20
7.784202758120079
 30
0.0
 10
8.186137369603383
 20
7.786225848255715
 30
0.0
 10
8.186110722304383
 20
7.787952289196805
 30
0.0
 10
8.187256011610533
 20
7.789836923870578
 30
0.0
 10
8.189971891458885
 20
7.792382508086011
 30
0.0
 10
8.192966399052416
 20
7.794218113350423
 30
0.0
 10
8.194930016176208
 20
7.795421792358455
 30
0.0
  0
ARC
  5
29E
330
1F
100
AcDbEntity
  8
0
  6
Continuous
 62
     7
370
     0
100
AcDbCircle
 10
8.2028383149
 20
7.8238338698
 30
0.0
 40
0.0425427831931577
100
AcDbArc
 50
255.5670468427
 51
283.945756913
  0
SPLINE
  5
29F
330
1F
100
AcDbEntity
  8
0
  6
Continuous
 62
     7
370
     0
100
AcDbSpline
210
0.0
220
0.0
230
1.0
 70
     8
 71
     3
 72
    12
 73
     8
 74
     0
 42
0.00000001
 43
0.00000001
 40
0.0
 40
0.0
 40
0.0
 40
0.0
 40
0.2503253654036838
 40
0.4999978777421001
 40
0.7494826629082535
 40
0.8746982187917984
 40
1.0
 40
1.0
 40
1.0
 40
1.0
 10
8.218363393028605
 20
7.774487350381728
 30
0.0
 10
8.217171236349396
 20
7.774944087437497
 30
0.0
 10
8.214790032157085
 20
7.775856370370562
 30
0.0
 10
8.212313865800736
 20
7.777710900409777
 30
0.0
 10
8.211898004205867
 20
7.779671800565303
 30
0.0
 10
8.212358465448641
 20
7.781304660054386
 30
0.0
 10
8.212846939965418
 20
7.782131501070679
 30
0.0
 10
8.213091261287598
 20
7.782545063873638
 30
0.0
  0
ARC
  5
2A0
330
1F
100
AcDbEntity
  8
0
  6
Continuous
 62
     7
370
     0
100
AcDbCircle
 10
8.2309641941
 20
7.8121134689
 30
0.0
 40
0.0396800325294932
100
AcDbArc
 50
251.4845568788
 51
282.1022920439
  0
LINE
  5
2A1
330
1F
100
AcDbEntity
  8
0
  6
Continuous
 62
     7
370
     0
100
AcDbLine
 10
8.2332798973
 20
7.7698495726
 30
0.0
 11
8.2392834175
 21
7.773315331
 31
0.0
  0
ARC
  5
2A2
330
1F
100
AcDbEntity
  8
0
  6
Continuous
 62
     7
370
     0
100
AcDbCircle
 10
8.0698084044
 20
7.3507602386
 30
0.0
 40
0.4498430824645109
100
AcDbArc
 50
66.6842660111
 51
68.6910536964
  0
LINE
  5
2A3
330
1F
100
AcDbEntity
  8
0
  6
Continuous
 62
     7
370
     0
100
AcDbLine
 10
8.288996021
 20
7.7876181661
 30
0.0
 11
8.2478552628
 21
7.763868112
 31
0.0
  0
ARC
  5
2A4
330
1F
100
AcDbEntity
  8
0
  6
Continuous
 62
     7
370
     0
100
AcDbCircle
 10
8.1113180696
 20
7.375395606
 30
0.0
 40
0.4488840535176949
100
AcDbArc
 50
66.6827823476
 51
68.8396679632
  0
LINE
  5
2A5
330
1F
100
AcDbEntity
  8
0
  6
Continuous
 62
     7
370
     0
100
AcDbLine
 10
8.3447777376
 20
7.7468218239
 30
0.0
 11
8.3553958183
 21
7.7529515115
 31
0.0
  0
ARC
  5
2A6
330
1F
100
AcDbEntity
  8
0
  6
Continuous
 62
     7
370
     0
100
AcDbCircle
 10
8.0393537509
 20
7.2483676905
 30
0.0
 40
0.5845856094711359
100
AcDbArc
 50
58.5024317618
 51
59.3180843726
  0
LINE
  5
2A7
330
1F
100
AcDbEntity
  8
0
  6
Continuous
 62
     7
370
     0
100
AcDbLine
 10
8.3254145037
 20
7.7440550812
 30
0.0
 11
8.3376511243
 21
7.7511191319
 31
0.0
  0
ARC
  5
2A8
330
1F
100
AcDbEntity
  8
0
  6
Continuous
 62
     7
370
     0
100
AcDbCircle
 10
8.0271171303
 20
7.2413036398
 30
0.0
 40
0.5845856094765212
100
AcDbArc
 50
58.5024317618
 51
59.3180843726
  0
LINE
  5
2A9
330
1F
100
AcDbEntity
  8
0
  6
Continuous
 62
     7
370
     0
100
AcDbLine
 10
8.2976334592
 20
7.7196060113
 30
0.0
 11
8.332541117
 21
7.7397577732
 31
0.0
  0
ARC
  5
2AA
330
1F
100
AcDbEntity
  8
0
  6
Continuous
 62
     7
370
     0
100
AcDbCircle
 10
7.9811125512
 20
7.2031287206
 30
0.0
 40
0.6057510024848227
100
AcDbArc
 50
56.9614863256
 51
58.4981275728
  0
SPLINE
  5
2AB
330
1F
100
AcDbEntity
  8
0
  6
Continuous
 62
     7
370
     0
100
AcDbSpline
210
0.0
220
0.0
230
1.0
 70
    24
 71
     1
 72
     4
 73
     2
 74
     0
 42
0.00000001
 43
0.00000001
 40
0.0
 40
0.0
 40
1.0
 40
1.0
 10
8.374145600988989
 20
7.710935689806555
 30
0.0
 10
8.311369607950445
 20
7.710932377029924
 30
0.0
  0
LINE
  5
2AC
330
1F
100
AcDbEntity
  8
0
  6
Continuous
 62
     7
370
     0
100
AcDbLine
 10
8.387116878
 20
7.7184238486
 30
0.0
 11
8.374145601
 21
7.7109356898
 31
0.0
  0
ARC
  5
2AD
330
1F
100
AcDbEntity
  8
0
  6
Continuous
 62
     7
370
     0
100
AcDbCircle
 10
8.0044146171
 20
7.1940545343
 30
0.0
 40
0.6491719327366003
100
AcDbArc
 50
53.8767818977
 51
56.9436909613
  0
LINE
  5
2AE
330
1F
100
AcDbEntity
  8
0
  6
Continuous
 62
     7
370
     0
100
AcDbLine
 10
8.3691319671
 20
7.7442778772
 30
0.0
 11
8.3585138864
 21
7.7381481897
 31
0.0
  0
ARC
  5
2AF
330
1F
100
AcDbEntity
  8
0
  6
Continuous
 62
     7
370
     0
100
AcDbCircle
 10
8.0388749103
 20
7.2364742208
 30
0.0
 40
0.605751002472785
100
AcDbArc
 50
56.9614863256
 51
58.4981275728
  0
LINE
  5
2B0
330
1F
100
AcDbEntity
  8
0
  6
Continuous
 62
     7
370
     0
100
AcDbLine
 10
8.3791330024
 20
7.7052143099
 30
0.0
 11
8.3916795562
 21
7.7124572812
 31
0.0
  0
ARC
  5
2B1
330
1F
100
AcDbEntity
  8
0
  6
Continuous
 62
     7
370
     0
100
AcDbCircle
 10
7.9385852872
 20
7.1167681397
 30
0.0
 40
0.7350858348746504
100
AcDbArc
 50
49.0237175738
 51
53.1791706573
  0
LINE
  5
2B2
330
1F
100
AcDbEntity
  8
0
  6
Continuous
 62
     7
370
     0
100
AcDbLine
 10
8.4331618492
 20
7.6789870166
 30
0.0
 11
8.4206152955
 21
7.6717440453
 31
0.0
  0
ARC
  5
2B3
330
1F
100
AcDbEntity
  8
0
  6
Continuous
 62
     7
370
     0
100
AcDbCircle
 10
7.951131841
 20
7.124011111
 30
0.0
 40
0.7350858348741018
100
AcDbArc
 50
49.0237175738
 51
53.1791706573
  0
LINE
  5
2B4
330
1F
100
AcDbEntity
  8
0
  6
Continuous
 62
     7
370
     0
100
AcDbLine
 10
8.5043002868
 20
7.5913250583
 30
0.0
 11
8.5275108373
 21
7.6047242239
 31
0.0
  0
ARC
  5
2B5
330
1F
100
AcDbEntity
  8
0
  6
Continuous
 62
     7
370
     0
100
AcDbCircle
 10
7.8186899709
 20
6.9885882486
 30
0.0
 40
0.9128817924528649
100
AcDbArc
 50
41.3194940664
 51
43.1900920832
  0
LINE
  5
2B6
330
1F
100
AcDbEntity
  8
0
  6
Continuous
 62
     7
370
     0
100
AcDbLine
 10
8.4727926841
 20
7.6067636903
 30
0.0
 11
8.4842602113
 21
7.6133837528
 31
0.0
  0
ARC
  5
2B7
330
1F
100
AcDbEntity
  8
0
  6
Continuous
 62
     7
370
     0
100
AcDbCircle
 10
7.8072224437
 20
6.9819681861
 30
0.0
 40
0.9128817924514707
100
AcDbArc
 50
41.3194940664
 51
43.1900920832
  0
LINE
  5
2B8
330
1F
100
AcDbEntity
  8
0
  6
Continuous
 62
     7
370
     0
100
AcDbLine
 10
8.4829148983
 20
7.5789795363
 30
0.0
 11
8.4928327596
 21
7.5847049957
 31
0.0
  0
ARC
  5
2B9
330
1F
100
AcDbEntity
  8
0
  6
Continuous
 62
     7
370
     0
100
AcDbCircle
 10
7.799502668
 20
6.9782216464
 30
0.0
 40
0.9099243478080341
100
AcDbArc
 50
41.3172936613
 51
43.5116982292
  0
LINE
  5
2BA
330
1F
100
AcDbEntity
  8
0
  6
Continuous
 62
     7
370
     0
100
AcDbLine
 10
8.4472083885
 20
7.5976628123
 30
0.0
 11
8.459410572
 21
7.6047069829
 31
0.0
  0
ARC
  5
2BB
330
1F
100
AcDbEntity
  8
0
  6
Continuous
 62
     7
370
     0
100
AcDbCircle
 10
7.7775971268
 20
6.9622760694
 30
0.0
 40
0.9230902202692594
100
AcDbArc
 50
39.8367393708
 51
43.4977209943
  0
LINE
  5
2BC
330
1F
100
AcDbEntity
  8
0
  6
Continuous
 62
     7
370
     0
100
AcDbLine
 10
8.5432112254
 20
7.5863985618
 30
0.0
 11
8.4864131028
 21
7.5536097036
 31
0.0
  0
ARC
  5
2BD
330
1F
100
AcDbEntity
  8
0
  6
Continuous
 62
     7
370
     0
100
AcDbCircle
 10
7.8200255783
 20
6.9827025374
 30
0.0
 40
0.9420437198470705
100
AcDbArc
 50
39.8542254267
 51
41.3219643287
  0
LINE
  5
2BE
330
1F
100
AcDbEntity
  8
0
  6
Continuous
 62
     7
370
     0
100
AcDbLine
 10
7.9461835474
 20
6.3492437576
 30
0.0
 11
8.0039459065
 21
6.3825892578
 31
0.0
  0
LWPOLYLINE
  5
2BF
330
1F
100
AcDbEntity
  8
0
  6
Continuous
 62
     7
370
     0
100
AcDbPolyline
 90
       77
 70
   128
 43
0.0
 10
7.8392784579
 20
6.555232324
 10
7.8377574588
 20
6.5213313792
 10
7.8337545411
 20
6.4891270453
 10
7.8272970488
 20
6.4588393105
 10
7.8184290931
 20
6.4306750707
 10
7.8072112512
 20
6.4048267163
 10
7.7937201522
 20
6.3814708178
 10
7.7780479541
 20
6.3607669196
 10
7.7603017139
 20
6.3428564502
 10
7.7406026563
 20
6.3278617565
 10
7.719085346
 20
6.3158852673
 10
7.6958967679
 20
6.3070087943
 10
7.6711953236
 20
6.3012929727
 10
7.645149749
 20
6.2987768473
 10
7.6179379617
 20
6.299477606
 10
7.589745846
 20
6.3033904617
 10
7.5607659824
 20
6.3104886858
 10
7.5311963328
 20
6.32072379
 10
7.501238888
 20
6.3340258584
 10
7.4710982877
 20
6.3503040243
 10
7.4409804227
 20
6.3694470913
 10
7.4110910286
 20
6.3913242928
 10
7.3816342803
 20
6.4157861854
 10
7.3528113971
 20
6.4426656696
 10
7.3248192687
 20
6.4717791312
 10
7.2978491097
 20
6.5029276957
 10
7.2720851535
 20
6.535898587
 10
7.2477033942
 20
6.5704665802
 10
7.2248703839
 20
6.6063955411
 10
7.2037420951
 20
6.6434400384
 10
7.1844628556
 20
6.6813470205
 10
7.167164362
 20
6.7198575445
 10
7.1519647807
 20
6.7587085442
 10
7.1389679401
 20
6.7976346281
 10
7.128262622
 20
6.8363698915
 10
7.1199219543
 20
6.8746497333
 10
7.1140029125
 20
6.9122126633
 10
7.1105459295
 20
6.9488020886
 10
7.10957462
 20
6.9841680664
 10
7.1110956191
 20
7.0180690112
 10
7.1150985368
 20
7.0502733451
 10
7.1215560291
 20
7.0805610799
 10
7.1304239848
 20
7.1087253197
 10
7.1416418267
 20
7.134573674
 10
7.1551329257
 20
7.1579295726
 10
7.1708051238
 20
7.1786334708
 10
7.188551364
 20
7.1965439402
 10
7.2082504216
 20
7.2115386339
 10
7.2297677319
 20
7.223515123
 10
7.25295631
 20
7.2323915961
 10
7.2776577543
 20
7.2381074177
 10
7.3037033289
 20
7.240623543
 10
7.3309151162
 20
7.2399227844
 10
7.359107232
 20
7.2360099287
 10
7.3880870955
 20
7.2289117046
 10
7.4176567451
 20
7.2186766004
 10
7.4476141899
 20
7.205374532
 10
7.4777547902
 20
7.1890963661
 10
7.5078726552
 20
7.1699532991
 10
7.5377620493
 20
7.1480760976
 10
7.5672187976
 20
7.123614205
 10
7.5960416808
 20
7.0967347208
 10
7.6240338092
 20
7.0676212592
 10
7.6510039682
 20
7.0364726947
 10
7.6767679244
 20
7.0035018034
 10
7.7011496837
 20
6.9689338102
 10
7.723982694
 20
6.9330048493
 10
7.7451109828
 20
6.895960352
 10
7.7643902223
 20
6.8580533699
 10
7.7816887159
 20
6.8195428459
 10
7.7968882972
 20
6.7806918462
 10
7.8098851378
 20
6.7417657623
 10
7.820590456
 20
6.7030304989
 10
7.8289311236
 20
6.6647506571
 10
7.8348501654
 20
6.6271877271
 10
7.8383071484
 20
6.5905983018
 10
7.8392784579
 20
6.555232324
  0
LWPOLYLINE
  5
2C0
330
1F
100
AcDbEntity
  8
0
  6
Continuous
 62
     7
370
     0
100
AcDbPolyline
 90
       50
 70
   128
 43
0.0
 10
7.3517258609
 20
7.2373298512
 10
7.345943794
 20
7.2378802452
 10
7.319259367
 20
7.2385674232
 10
7.2937185515
 20
7.23610006
 10
7.2694958174
 20
7.2304950101
 10
7.2467566304
 20
7.2217905618
 10
7.2256563222
 20
7.2100461751
 10
7.2063390293
 20
7.1953420762
 10
7.1889367085
 20
7.177778709
 10
7.1735682351
 20
7.1574760491
 10
7.1603385916
 20
7.1345727842
 10
7.1493381497
 20
7.109225367
 10
7.1406420536
 20
7.0816069458
 10
7.1343097065
 20
7.0519061826
 10
7.1303843647
 20
7.0203259637
 10
7.1288928424
 20
6.987082014
 10
7.129845328
 20
6.9524014233
 10
7.1332353152
 20
6.9165210954
 10
7.1390396469
 20
6.8796861291
 10
7.1472186737
 20
6.8421481448
 10
7.1577165245
 20
6.8041635648
 10
7.1704614883
 20
6.7659918624
 10
7.1853665041
 20
6.7278937889
 10
7.2023297555
 20
6.690129593
 10
7.2212353664
 20
6.6529572423
 10
7.2419541922
 20
6.6166306616
 10
7.2643447023
 20
6.5813979984
 10
7.2882539469
 20
6.5474999275
 10
7.3135186016
 20
6.5151680071
 10
7.3399660831
 20
6.4846230969
 10
7.3674157284
 20
6.4560738497
 10
7.3956800286
 20
6.4297152857
 10
7.4245659097
 20
6.4057274608
 10
7.453876052
 20
6.384274236
 10
7.4834102374
 20
6.3655021587
 10
7.5129667176
 20
6.3495394612
 10
7.5423435917
 20
6.3364951848
 10
7.5713401861
 20
6.3264584353
 10
7.5997584244
 20
6.3194977737
 10
7.6274041813
 20
6.3156607485
 10
7.6540886084
 20
6.3149735705
 10
7.6796294238
 20
6.3174409337
 10
7.7038521579
 20
6.3230459836
 10
7.726591345
 20
6.3317504319
 10
7.7476916532
 20
6.3434948186
 10
7.767008946
 20
6.3581989175
 10
7.7844112669
 20
6.3757622847
 10
7.7997797402
 20
6.3960649446
 10
7.8130093838
 20
6.4189682094
 10
7.8180234479
 20
6.4295912189
  0
SPLINE
  5
2C1
330
1F
100
AcDbEntity
  8
0
  6
Continuous
 62
     7
370
     0
100
AcDbSpline
210
0.0
220
0.0
230
1.0
 70
     8
 71
     3
 72
    14
 73
    10
 74
     0
 42
0.00000001
 43
0.00000001
 40
0.0
 40
0.0
 40
0.0
 40
0.0
 40
0.5001598129721613
 40
0.6334839770296015
 40
0.7547008492887803
 40
0.8160823888840438
 40
0.8744466572121776
 40
0.9383930382634592
 40
1.0
 40
1.0
 40
1.0
 40
1.0
 10
7.567211520927976
 20
7.299401333336878
 30
0.0
 10
7.570898100814707
 20
7.301579748361154
 30
0.0
 10
7.57556738696628
 20
7.304338848507563
 30
0.0
 10
7.579701867534362
 20
7.308300407986403
 30
0.0
 10
7.580746535369654
 20
7.31017101332662
 30
0.0
 10
7.580938308463724
 20
7.311664341491369
 30
0.0
 10
7.580615666625686
 20
7.312792865315056
 30
0.0
 10
7.579842397860845
 20
7.313856836399673
 30
0.0
 10
7.578962843280653
 20
7.314439860773409
 30
0.0
 10
7.578531260304334
 20
7.31472594125113
 30
0.0
  0
ARC
  5
2C2
330
1F
100
AcDbEntity
  8
0
  6
Continuous
 62
     7
370
     0
100
AcDbCircle
 10
7.5705918711
 20
7.2905204267
 30
0.0
 40
0.0254743172084717
100
AcDbArc
 50
71.8405514643
 51
135.0412168388
  0
SPLINE
  5
2C3
330
1F
100
AcDbEntity
  8
0
  6
Continuous
 62
     7
370
     0
100
AcDbSpline
210
0.0
220
0.0
230
1.0
 70
     8
 71
     3
 72
    14
 73
    10
 74
     0
 42
0.00000001
 43
0.00000001
 40
0.0
 40
0.0
 40
0.0
 40
0.0
 40
0.5003034315361304
 40
0.6254176539425118
 40
0.7501401738687475
 40
0.8143424488239657
 40
0.8750383566947469
 40
0.9374874297319945
 40
1.0
 40
1.0
 40
1.0
 40
1.0
 10
7.552565855306097
 20
7.30852052639051
 30
0.0
 10
7.548796043029162
 20
7.306296108132617
 30
0.0
 10
7.544083488604328
 20
7.303515414736276
 30
0.0
 10
7.539780533638439
 20
7.299580180652708
 30
0.0
 10
7.538679016092964
 20
7.297711896658091
 30
0.0
 10
7.53855055104151
 20
7.296155649776809
 30
0.0
 10
7.538933389089064
 20
7.29500438487355
 30
0.0
 10
7.539773240756235
 20
7.293934169031585
 30
0.0
 10
7.540679363134062
 20
7.293348726088287
 30
0.0
 10
7.541132654538666
 20
7.293055855874973
 30
0.0
  0
SPLINE
  5
2C4
330
1F
100
AcDbEntity
  8
0
  6
Continuous
 62
     7
370
     0
100
AcDbSpline
210
0.0
220
0.0
230
1.0
 70
     8
 71
     3
 72
    14
 73
    10
 74
     0
 42
0.00000001
 43
0.00000001
 40
0.0
 40
0.0
 40
0.0
 40
0.0
 40
0.0625005409549599
 40
0.1249727346346867
 40
0.185484448246908
 40
0.2498740647270128
 40
0.3606505595065946
 40
0.4996888686475215
 40
1.0
 40
1.0
 40
1.0
 40
1.0
 10
7.541132654538666
 20
7.293055855874973
 30
0.0
 10
7.541619535348148
 20
7.292794719445859
 30
0.0
 10
7.542593076141114
 20
7.292272565026707
 30
0.0
 10
7.544376017448504
 20
7.291762198253704
 30
0.0
 10
7.546318653120896
 20
7.291515159606402
 30
0.0
 10
7.54880791640266
 20
7.291571657803728
 30
0.0
 10
7.551955589726619
 20
7.292181367391952
 30
0.0
 10
7.558657122525891
 20
7.294548233920315
 30
0.0
 10
7.563456138976265
 20
7.297270822095506
 30
0.0
 10
7.567211520927976
 20
7.299401333336878
 30
0.0
  0
SPLINE
  5
2C5
330
1F
100
AcDbEntity
  8
0
  6
Continuous
 62
     7
370
     0
100
AcDbSpline
210
0.0
220
0.0
230
1.0
 70
     8
 71
     3
 72
    14
 73
    10
 74
     0
 42
0.00000001
 43
0.00000001
 40
0.0
 40
0.0
 40
0.0
 40
0.0
 40
0.5001598129721216
 40
0.6334839770282574
 40
0.7547008492878894
 40
0.8160823888832814
 40
0.8744466572108948
 40
0.938393038263655
 40
0.9999999999999999
 40
0.9999999999999999
 40
0.9999999999999999
 40
0.9999999999999999
 10
7.514382102870353
 20
7.327789067031278
 30
0.0
 10
7.518068823271762
 20
7.32996135844423
 30
0.0
 10
7.522738287394036
 20
7.332712702650319
 30
0.0
 10
7.526878842347685
 20
7.336479495570826
 30
0.0
 10
7.527928720954609
 20
7.338192820576156
 30
0.0
 10
7.528126636345456
 20
7.339513855919614
 30
0.0
 10
7.527810187505409
 20
7.340477978453605
 30
0.0
 10
7.527044469722485
 20
7.341352394471646
 30
0.0
 10
7.526170877249892
 20
7.34179771088263
 30
0.0
 10
7.525742219781785
 20
7.342016220326365
 30
0.0
  0
ARC
  5
2C6
330
1F
100
AcDbEntity
  8
0
  6
Continuous
 62
     7
370
     0
100
AcDbCircle
 10
7.5198586963
 20
7.3133620085
 30
0.0
 40
0.0292520034678005
100
AcDbArc
 50
78.3968178161
 51
133.1990681811
  0
SPLINE
  5
2C7
330
1F
100
AcDbEntity
  8
0
  6
Continuous
 62
     7
370
     0
100
AcDbSpline
210
0.0
220
0.0
230
1.0
 70
     8
 71
     3
 72
    14
 73
    10
 74
     0
 42
0.00000001
 43
0.00000001
 40
0.0
 40
0.0
 40
0.0
 40
0.0
 40
0.5003034315360932
 40
0.6254176539424582
 40
0.7501401738686915
 40
0.8143424488202703
 40
0.875038356694753
 40
0.9374874297319996
 40
1.0
 40
1.0
 40
1.0
 40
1.0
 10
7.499834668764529
 20
7.334686126929378
 30
0.0
 10
7.496064448876566
 20
7.332468018285996
 30
0.0
 10
7.491351384906691
 20
7.329695212391636
 30
0.0
 10
7.487037716613586
 20
7.325947627444889
 30
0.0
 10
7.485927396840421
 20
7.324238227976747
 30
0.0
 10
7.485788908030546
 20
7.322872160061761
 30
0.0
 10
7.486162883420785
 20
7.32189631509368
 30
0.0
 10
7.486993175343339
 20
7.321024112457276
 30
0.0
 10
7.48789301741839
 20
7.320578972162719
 30
0.0
 10
7.488343167075987
 20
7.320356288920032
 30
0.0
  0
ARC
  5
2C8
330
1F
100
AcDbEntity
  8
0
  6
Continuous
 62
     7
370
     0
100
AcDbCircle
 10
7.4942622202
 20
7.3489472594
 30
0.0
 40
0.0291972393443937
100
AcDbArc
 50
258.3035592653
 51
313.5590843796
  0
ARC
  5
2C9
330
1F
100
AcDbEntity
  8
0
  6
Continuous
 62
     7
370
     0
100
AcDbCircle
 10
7.1886704883
 20
6.6047022825
 30
0.0
 40
1.03730518916493
100
AcDbArc
 50
28.3013063955
 51
28.8972357675
  0
SPLINE
  5
2CA
330
1F
100
AcDbEntity
  8
0
  6
Continuous
 62
     7
370
     0
100
AcDbSpline
210
0.0
220
0.0
230
1.0
 70
     8
 71
     3
 72
    12
 73
     8
 74
     0
 42
0.00000001
 43
0.00000001
 40
0.0
 40
0.0
 40
0.0
 40
0.0
 40
0.2508758277601051
 40
0.5006089009255097
 40
0.6255741322432389
 40
0.7506852523713172
 40
1.0
 40
1.0
 40
1.0
 40
1.0
 10
8.096818569771587
 20
7.105969793538659
 30
0.0
 10
8.09619539387947
 20
7.107037465031324
 30
0.0
 10
8.09495188069918
 20
7.109167944708321
 30
0.0
 10
8.092865315755471
 20
7.111529757209052
 30
0.0
 10
8.090788427300206
 20
7.112561758620766
 30
0.0
 10
8.088615821083287
 20
7.112892079753265
 30
0.0
 10
8.087208295806873
 20
7.112258221658296
 30
0.0
 10
8.086271082758072
 20
7.111836161687047
 30
0.0
  0
SPLINE
  5
2CB
330
1F
100
AcDbEntity
  8
0
  6
Continuous
 62
     7
370
     0
100
AcDbSpline
210
0.0
220
0.0
230
1.0
 70
     8
 71
     3
 72
    13
 73
     9
 74
     0
 42
0.00000001
 43
0.00000001
 40
0.0
 40
0.0
 40
0.0
 40
0.0
 40
0.1252642250000446
 40
0.2502628772395176
 40
0.3767307195485737
 40
0.5001238771615901
 40
0.7494666677386416
 40
1.0
 40
1.0
 40
1.0
 40
1.0
 10
8.086271082758072
 20
7.111836161687047
 30
0.0
 10
8.085859155204158
 20
7.111564175006789
 30
0.0
 10
8.085036173424188
 20
7.111020778285401
 30
0.0
 10
8.08409544030935
 20
7.10980024898095
 30
0.0
 10
8.08352351720961
 20
7.108294664489275
 30
0.0
 10
8.08340625751794
 20
7.106007070306714
 30
0.0
 10
8.084310767966283
 20
7.103088067073934
 30
0.0
 10
8.085417931441073
 20
7.100961727598919
 30
0.0
 10
8.08597283162939
 20
7.099896025738288
 30
0.0
  0
ARC
  5
2CC
330
1F
100
AcDbEntity
  8
0
  6
Continuous
 62
     7
370
     0
100
AcDbCircle
 10
7.1778932131
 20
6.5984810358
 30
0.0
 40
1.037316531078974
100
AcDbArc
 50
28.3013085871
 51
28.9061948253
  0
LINE
  5
2CD
330
1F
100
AcDbEntity
  8
0
  6
Continuous
 62
     7
370
     0
100
AcDbLine
 10
8.0912156951
 20
7.0902814319
 30
0.0
 11
8.1019830029
 21
7.0964972664
 31
0.0
  0
ARC
  5
2CE
330
1F
100
AcDbEntity
  8
0
  6
Continuous
 62
     7
370
     0
100
AcDbCircle
 10
7.210873468
 20
6.6175235982
 30
0.0
 40
1.03743289041285
100
AcDbArc
 50
28.3013329899
 51
29.0002594735
  0
SPLINE
  5
2CF
330
1F
100
AcDbEntity
  8
0
  6
Continuous
 62
     7
370
     0
100
AcDbSpline
210
0.0
220
0.0
230
1.0
 70
     8
 71
     3
 72
    13
 73
     9
 74
     0
 42
0.00000001
 43
0.00000001
 40
0.0
 40
0.0
 40
0.0
 40
0.0
 40
0.2576868080679343
 40
0.4999433752796073
 40
0.6237499127125473
 40
0.7488287379031628
 40
0.8752064661222207
 40
1.0
 40
1.0
 40
1.0
 40
1.0
 10
8.118230441004506
 20
7.120485152941035
 30
0.0
 10
8.1175144734941
 20
7.121688917706901
 30
0.0
 10
8.116125410482196
 20
7.124024366015652
 30
0.0
 10
8.113837110874856
 20
7.126596166600013
 30
0.0
 10
8.111606536712955
 20
7.127797007389213
 30
0.0
 10
8.109822999110943
 20
7.128151611614393
 30
0.0
 10
8.108083902740518
 20
7.127984577201982
 30
0.0
 10
8.107079620436364
 20
7.127483298478802
 30
0.0
 10
8.10658064640287
 20
7.127234239956737
 30
0.0
  0
SPLINE
  5
2D0
330
1F
100
AcDbEntity
  8
0
  6
Continuous
 62
     7
370
     0
100
AcDbSpline
210
0.0
220
0.0
230
1.0
 70
     8
 71
     3
 72
    13
 73
     9
 74
     0
 42
0.00000001
 43
0.00000001
 40
0.0
 40
0.0
 40
0.0
 40
0.0
 40
0.1296897594727071
 40
0.2496082834019598
 40
0.3753937891446955
 40
0.4998958881045426
 40
0.7495309619036333
 40
1.0
 40
1.0
 40
1.0
 40
1.0
 10
8.10658064640287
 20
7.127234239956737
 30
0.0
 10
8.10610937166041
 20
7.126913522298924
 30
0.0
 10
8.105202329501068
 20
7.126296250863239
 30
0.0
 10
8.104263975857696
 20
7.124840388229633
 30
0.0
 10
8.103764673222575
 20
7.123117141487711
 30
0.0
 10
8.103810727354597
 20
7.120541007683223
 30
0.0
 10
8.104888532065445
 20
7.11732943171314
 30
0.0
 10
8.10612780034021
 20
7.114965662180011
 30
0.0
 10
8.106748467767934
 20
7.113781806524435
 30
0.0
  0
ARC
  5
2D1
330
1F
100
AcDbEntity
  8
0
  6
Continuous
 62
     7
370
     0
100
AcDbCircle
 10
7.1993638388
 20
6.6108791027
 30
0.0
 40
1.037428549109637
100
AcDbArc
 50
28.3013320157
 51
28.9966762373
  0
LINE
  5
2D2
330
1F
100
AcDbEntity
  8
0
  6
Continuous
 62
     7
370
     0
100
AcDbLine
 10
8.1127847477
 20
7.1027329809
 30
0.0
 11
8.1242981909
 21
7.1093795502
 31
0.0
  0
ARC
  5
2D3
330
1F
100
AcDbEntity
  8
0
  6
Continuous
 62
     7
370
     0
100
AcDbCircle
 10
7.1963599162
 20
6.6096800202
 30
0.0
 40
1.028147650111039
100
AcDbArc
 50
33.1200517169
 51
33.7195144455
  0
SPLINE
  5
2D4
330
1F
100
AcDbEntity
  8
0
  6
Continuous
 62
     7
370
     0
100
AcDbSpline
210
0.0
220
0.0
230
1.0
 70
     8
 71
     3
 72
    12
 73
     8
 74
     0
 42
0.00000001
 43
0.00000001
 40
0.0
 40
0.0
 40
0.0
 40
0.0
 40
0.2508758277600923
 40
0.5006089009254665
 40
0.6255741322407161
 40
0.7506852523713502
 40
0.9999999999999999
 40
0.9999999999999999
 40
0.9999999999999999
 40
0.9999999999999999
 10
8.05153724781811
 20
7.180433313529424
 30
0.0
 10
8.050827970882173
 20
7.18144272974912
 30
0.0
 10
8.049412647809712
 20
7.183456964236475
 30
0.0
 10
8.047112922635357
 20
7.185670140752551
 30
0.0
 10
8.044903231482035
 20
7.186608309104279
 30
0.0
 10
8.042636545930256
 20
7.186871601514459
 30
0.0
 10
8.041218443110772
 20
7.186230134468402
 30
0.0
 10
8.040274186912162
 20
7.185803008010347
 30
0.0
  0
SPLINE
  5
2D5
330
1F
100
AcDbEntity
  8
0
  6
Continuous
 62
     7
370
     0
100
AcDbSpline
210
0.0
220
0.0
230
1.0
 70
     8
 71
     3
 72
    13
 73
     9
 74
     0
 42
0.00000001
 43
0.00000001
 40
0.0
 40
0.0
 40
0.0
 40
0.0
 40
0.1252642249999301
 40
0.2502628772392776
 40
0.3767307195584709
 40
0.5001238771620428
 40
0.7494666677388616
 40
1.0
 40
1.0
 40
1.0
 40
1.0
 10
8.040274186912162
 20
7.185803008010347
 30
0.0
 10
8.039864285223636
 20
7.185532473546909
 30
0.0
 10
8.03904535087941
 20
7.184991978180316
 30
0.0
 10
8.038144790333536
 20
7.183800185468384
 30
0.0
 10
8.03764267257937
 20
7.182344296796539
 30
0.0
 10
8.03765757279653
 20
7.180150045681694
 30
0.0
 10
8.038767772973257
 20
7.177374441205973
 30
0.0
 10
8.0400417057208
 20
7.175361033265981
 30
0.0
 10
8.040680189140465
 20
7.174351931655878
 30
0.0
  0
ARC
  5
2D6
330
1F
100
AcDbEntity
  8
0
  6
Continuous
 62
     7
370
     0
100
AcDbCircle
 10
7.1856170222
 20
6.6034802356
 30
0.0
 40
1.028118433328463
100
AcDbArc
 50
33.1200459985
 51
33.7285346638
  0
LINE
  5
2D7
330
1F
100
AcDbEntity
  8
0
  6
Continuous
 62
     7
370
     0
100
AcDbLine
 10
8.0466945876
 20
7.1652390266
 30
0.0
 11
8.0574618954
 21
7.1714548611
 31
0.0
  0
ARC
  5
2D8
330
1F
100
AcDbEntity
  8
0
  6
Continuous
 62
     7
370
     0
100
AcDbCircle
 10
7.2189580348
 20
6.6227484169
 30
0.0
 40
1.0278089967538
100
AcDbArc
 50
33.1199802087
 51
33.8232628909
  0
SPLINE
  5
2D9
330
1F
100
AcDbEntity
  8
0
  6
Continuous
 62
     7
370
     0
100
AcDbSpline
210
0.0
220
0.0
230
1.0
 70
     8
 71
     3
 72
    13
 73
     9
 74
     0
 42
0.00000001
 43
0.00000001
 40
0.0
 40
0.0
 40
0.0
 40
0.0
 40
0.2576868080814902
 40
0.4999433752796603
 40
0.6237499127101181
 40
0.7488287378920726
 40
0.8752064661218177
 40
1.0
 40
1.0
 40
1.0
 40
1.0
 10
8.072819133231771
 20
7.194860782123991
 30
0.0
 10
8.072005989755983
 20
7.195997975850218
 30
0.0
 10
8.070428393693152
 20
7.198204268341746
 30
0.0
 10
8.067908509154359
 20
7.200612115208679
 30
0.0
 10
8.065530553353065
 20
7.201707104057053
 30
0.0
 10
8.063665267923184
 20
7.202002463847637
 30
0.0
 10
8.061876836556127
 20
7.201799465342599
 30
0.0
 10
8.060867931911723
 20
7.201294807910072
 30
0.0
 10
8.0603666612852
 20
7.201044070688488
 30
0.0
  0
SPLINE
  5
2DA
330
1F
100
AcDbEntity
  8
0
  6
Continuous
 62
     7
370
     0
100
AcDbSpline
210
0.0
220
0.0
230
1.0
 70
     8
 71
     3
 72
    13
 73
     9
 74
     0
 42
0.00000001
 43
0.00000001
 40
0.0
 40
0.0
 40
0.0
 40
0.0
 40
0.1296897594728433
 40
0.2496082834027407
 40
0.375393789136543
 40
0.4998958881042368
 40
0.7495309619034884
 40
1.0
 40
1.0
 40
1.0
 40
1.0
 10
8.0603666612852
 20
7.201044070688488
 30
0.0
 10
8.059898252127722
 20
7.200725448011911
 30
0.0
 10
8.058996725236137
 20
7.200112208696205
 30
0.0
 10
8.058112266416147
 20
7.198695618493648
 30
0.0
 10
8.057697726761193
 20
7.197033764924385
 30
0.0
 10
8.057897976981524
 20
7.194568259835694
 30
0.0
 10
8.059203968142679
 20
7.191517973225972
 30
0.0
 10
8.060628313555886
 20
7.189280904487328
 30
0.0
 10
8.061341673868425
 20
7.188160504870936
 30
0.0
  0
ARC
  5
2DB
330
1F
100
AcDbEntity
  8
0
  6
Continuous
 62
     7
370
     0
100
AcDbCircle
 10
7.2074346706
 20
6.6160953175
 30
0.0
 40
1.027820873901504
100
AcDbArc
 50
33.1199829093
 51
33.8196536598
  0
LINE
  5
2DC
330
1F
100
AcDbEntity
  8
0
  6
Continuous
 62
     7
370
     0
100
AcDbLine
 10
8.0682636402
 20
7.1776905756
 30
0.0
 11
8.0797770834
 21
7.1843371449
 31
0.0
  0
SPLINE
  5
2DD
330
1F
100
AcDbEntity
  8
0
  6
Continuous
 62
     7
370
     0
100
AcDbSpline
210
0.0
220
0.0
230
1.0
 70
    24
 71
     1
 72
     4
 73
     2
 74
     0
 42
0.00000001
 43
0.00000001
 40
0.0
 40
0.0
 40
1.0
 40
1.0
 10
7.993452615364729
 20
7.245250938826845
 30
0.0
 10
8.019220934408203
 20
7.250263327278165
 30
0.0
  0
ARC
  5
2DE
330
1F
100
AcDbEntity
  8
0
  6
Continuous
 62
     7
370
     0
100
AcDbCircle
 10
7.2537610974
 20
6.6498739983
 30
0.0
 40
0.9728289203806249
100
AcDbArc
 50
38.1089056335
 51
39.1283824178
  0
SPLINE
  5
2DF
330
1F
100
AcDbEntity
  8
0
  6
Continuous
 62
     7
370
     0
100
AcDbSpline
210
0.0
220
0.0
230
1.0
 70
    24
 71
     1
 72
     4
 73
     2
 74
     0
 42
0.00000001
 43
0.00000001
 40
0.0
 40
0.0
 40
1.0
 40
1.0
 10
8.008417466080015
 20
7.263787570095534
 30
0.0
 10
7.993452615364729
 20
7.245250938826845
 30
0.0
  0
SPLINE
  5
2E0
330
1F
100
AcDbEntity
  8
0
  6
Continuous
 62
     7
370
     0
100
AcDbSpline
210
0.0
220
0.0
230
1.0
 70
     8
 71
     3
 72
     9
 73
     5
 74
     0
 42
0.00000001
 43
0.00000001
 40
0.0
 40
0.0
 40
0.0
 40
0.0
 40
0.4999994477952371
 40
1.0
 40
1.0
 40
1.0
 40
1.0
 10
7.746621339543479
 20
7.338084521785234
 30
0.0
 10
7.74810786337711
 20
7.337469698996735
 30
0.0
 10
7.751080914327841
 20
7.336240052061703
 30
0.0
 10
7.75394407612504
 20
7.334860633049815
 30
0.0
 10
7.755375658604692
 20
7.33417092278215
 30
0.0
  0
ARC
  5
2E1
330
1F
100
AcDbEntity
  8
0
  6
Continuous
 62
     7
370
     0
100
AcDbCircle
 10
7.7736079024
 20
7.3695093599
 30
0.0
 40
0.039764555205624
100
AcDbArc
 50
242.7093259302
 51
255.8432305581
  0
ARC
  5
2E2
330
1F
100
AcDbEntity
  8
0
  6
Continuous
 62
     7
370
     0
100
AcDbCircle
 10
7.7650325678
 20
7.3374145663
 30
0.0
 40
0.0065636682922649
100
AcDbArc
 50
259.9082777276
 51
297.7130700396
  0
SPLINE
  5
2E3
330
1F
100
AcDbEntity
  8
0
  6
Continuous
 62
     7
370
     0
100
AcDbSpline
210
0.0
220
0.0
230
1.0
 70
     8
 71
     3
 72
    13
 73
     9
 74
     0
 42
0.00000001
 43
0.00000001
 40
0.0
 40
0.0
 40
0.0
 40
0.0
 40
0.2485845284652072
 40
0.3735388535818274
 40
0.4967972082380286
 40
0.6212572301579082
 40
0.7502093099586292
 40
1.0
 40
1.0
 40
1.0
 40
1.0
 10
7.768084962352522
 20
7.33160383238514
 30
0.0
 10
7.768652023486315
 20
7.332016350095198
 30
0.0
 10
7.769504125453945
 20
7.332636225328179
 30
0.0
 10
7.769865663895941
 20
7.333785503808815
 30
0.0
 10
7.76985002060966
 20
7.334681470772465
 30
0.0
 10
7.769522072994148
 20
7.335588845196081
 30
0.0
 10
7.768754025115745
 20
7.336747627202861
 30
0.0
 10
7.767859743026349
 20
7.337499040350028
 30
0.0
 10
7.767269940770072
 20
7.337994616829588
 30
0.0
  0
ARC
  5
2E4
330
1F
100
AcDbEntity
  8
0
  6
Continuous
 62
     7
370
     0
100
AcDbCircle
 10
7.7570870112
 20
7.3256381688
 30
0.0
 40
0.0160116789725398
100
AcDbArc
 50
50.5081182122
 51
119.7768349499
  0
LINE
  5
2E5
330
1F
100
AcDbEntity
  8
0
  6
Continuous
 62
     7
370
     0
100
AcDbLine
 10
7.7491352419
 20
7.3395357667
 30
0.0
 11
7.7466213395
 21
7.3380845218
 31
0.0
  0
ARC
  5
2E6
330
1F
100
AcDbEntity
  8
0
  6
Continuous
 62
     7
370
     0
100
AcDbCircle
 10
7.3041398218
 20
6.6975428824
 30
0.0
 40
0.8897701407531334
100
AcDbArc
 50
43.179470652
 51
43.8197248513
  0
SPLINE
  5
2E7
330
1F
100
AcDbEntity
  8
0
  6
Continuous
 62
     7
370
     0
100
AcDbSpline
210
0.0
220
0.0
230
1.0
 70
    24
 71
     1
 72
     4
 73
     2
 74
     0
 42
0.00000001
 43
0.00000001
 40
0.0
 40
0.0
 40
1.0
 40
1.0
 10
7.946128469367584
 20
7.313612261436035
 30
0.0
 10
7.941025670453287
 20
7.317633895922421
 30
0.0
  0
ARC
  5
2E8
330
1F
100
AcDbEntity
  8
0
  6
Continuous
 62
     7
370
     0
100
AcDbCircle
 10
7.9359897472
 20
7.311167989
 30
0.0
 40
0.0081956375459089
100
AcDbArc
 50
52.0870251164
 51
117.0222226316
  0
SPLINE
  5
2E9
330
1F
100
AcDbEntity
  8
0
  6
Continuous
 62
     7
370
     0
100
AcDbSpline
210
0.0
220
0.0
230
1.0
 70
     8
 71
     3
 72
    13
 73
     9
 74
     0
 42
0.00000001
 43
0.00000001
 40
0.0
 40
0.0
 40
0.0
 40
0.0
 40
0.1252323796024521
 40
0.2501692759914863
 40
0.3766784429534034
 40
0.4998070571086119
 40
0.7494738685101627
 40
1.0
 40
1.0
 40
1.0
 40
1.0
 10
7.932266173653878
 20
7.318468911865575
 30
0.0
 10
7.931806878936762
 20
7.318167694081282
 30
0.0
 10
7.930889373198934
 20
7.317565969229836
 30
0.0
 10
7.929949185463707
 20
7.3163119279481
 30
0.0
 10
7.929542279364796
 20
7.314817591327873
 30
0.0
 10
7.929968085952638
 20
7.312644207426645
 30
0.0
 10
7.931701180358707
 20
7.310063705421308
 30
0.0
 10
7.933428089000206
 20
7.308185859976237
 30
0.0
 10
7.934293026715821
 20
7.30724532420584
 30
0.0
  0
ARC
  5
2EA
330
1F
100
AcDbEntity
  8
0
  6
Continuous
 62
     7
370
     0
100
AcDbCircle
 10
7.2927784823
 20
6.6910528198
 30
0.0
 40
0.8895134137606525
100
AcDbArc
 50
43.1794077526
 51
43.8465914765
  0
LINE
  5
2EB
330
1F
100
AcDbEntity
  8
0
  6
Continuous
 62
     7
370
     0
100
AcDbLine
 10
7.9414246579
 20
7.2997335671
 30
0.0
 11
7.9529725381
 21
7.3064000164
 31
0.0
  0
SPLINE
  5
2EC
330
1F
100
AcDbEntity
  8
0
  6
Continuous
 62
     7
370
     0
100
AcDbSpline
210
0.0
220
0.0
230
1.0
 70
    24
 71
     1
 72
     4
 73
     2
 74
     0
 42
0.00000001
 43
0.00000001
 40
0.0
 40
0.0
 40
1.0
 40
1.0
 10
7.855280844402808
 20
7.385870935577179
 30
0.0
 10
7.888042076721335
 20
7.384193118114732
 30
0.0
  0
ARC
  5
2ED
330
1F
100
AcDbEntity
  8
0
  6
Continuous
 62
     7
370
     0
100
AcDbCircle
 10
7.4206366561
 20
6.8185535218
 30
0.0
 40
0.7337683422892907
100
AcDbArc
 50
50.4320287642
 51
51.9253844382
  0
LINE
  5
2EE
330
1F
100
AcDbEntity
  8
0
  6
Continuous
 62
     7
370
     0
100
AcDbLine
 10
7.873142178
 20
7.396182064
 30
0.0
 11
7.8552808444
 21
7.3858709356
 31
0.0
  0
SPLINE
  5
2EF
330
1F
100
AcDbEntity
  8
0
  6
Continuous
 62
     7
370
     0
100
AcDbSpline
210
0.0
220
0.0
230
1.0
 70
     8
 71
     3
 72
    14
 73
    10
 74
     0
 42
0.00000001
 43
0.00000001
 40
0.0
 40
0.0
 40
0.0
 40
0.0
 40
0.5001598129720262
 40
0.6334839770251139
 40
0.7547008492904173
 40
0.8160823888853997
 40
0.8744466572140772
 40
0.9383930382643247
 40
1.0
 40
1.0
 40
1.0
 40
1.0
 10
7.826328429022015
 20
7.42266896526964
 30
0.0
 10
7.830015139793984
 20
7.424849778093649
 30
0.0
 10
7.83468459171994
 20
7.427611915204769
 30
0.0
 10
7.838822550829144
 20
7.431649822059983
 30
0.0
 10
7.839869897447108
 20
7.433582096256687
 30
0.0
 10
7.840064419914242
 20
7.435143002146959
 30
0.0
 10
7.839744259956364
 20
7.436336025675058
 30
0.0
 10
7.838973677814622
 20
7.437474386382219
 30
0.0
 10
7.838095871870252
 20
7.438111478071524
 30
0.0
 10
7.837665146920791
 20
7.438424088492356
 30
0.0
  0
SPLINE
  5
2F0
330
1F
100
AcDbEntity
  8
0
  6
Continuous
 62
     7
370
     0
100
AcDbSpline
210
0.0
220
0.0
230
1.0
 70
     8
 71
     3
 72
    14
 73
    10
 74
     0
 42
0.00000001
 43
0.00000001
 40
0.0
 40
0.0
 40
0.0
 40
0.0
 40
0.0625270621852665
 40
0.1249759676500097
 40
0.1874784178584993
 40
0.2499337956407287
 40
0.3634906992456214
 40
0.4998436771421687
 40
1.0
 40
1.0
 40
1.0
 40
1.0
 10
7.837665146920791
 20
7.438424088492357
 30
0.0
 10
7.837181286566718
 20
7.438706998652621
 30
0.0
 10
7.836214170667709
 20
7.439272465344983
 30
0.0
 10
7.834417000833763
 20
7.439820861150451
 30
0.0
 10
7.832507013101062
 20
7.440129056034735
 30
0.0
 10
7.830015119982992
 20
7.440170712739524
 30
0.0
 10
7.826873739430614
 20
7.439680784773588
 30
0.0
 10
7.820084077785324
 20
7.437523311568589
 30
0.0
 10
7.8153948328388
 20
7.434800362858029
 30
0.0
 10
7.8117101176168
 20
7.432660724029827
 30
0.0
  0
SPLINE
  5
2F1
330
1F
100
AcDbEntity
  8
0
  6
Continuous
 62
     7
370
     0
100
AcDbSpline
210
0.0
220
0.0
230
1.0
 70
     8
 71
     3
 72
    14
 73
    10
 74
     0
 42
0.00000001
 43
0.00000001
 40
0.0
 40
0.0
 40
0.0
 40
0.0
 40
0.5003034315361727
 40
0.6254176539425635
 40
0.7501401738688085
 40
0.8143424488243255
 40
0.8750383566947341
 40
0.9374874297319896
 40
1.0
 40
1.0
 40
1.0
 40
1.0
 10
7.8117101176168
 20
7.432660724029827
 30
0.0
 10
7.807940282535251
 20
7.430433821490802
 30
0.0
 10
7.803227699602902
 20
7.427650022552545
 30
0.0
 10
7.798923465655887
 20
7.423640978650679
 30
0.0
 10
7.797820750555244
 20
7.421710213057416
 30
0.0
 10
7.797690633704656
 20
7.420079204586214
 30
0.0
 10
7.798071784767317
 20
7.418858999941522
 30
0.0
 10
7.798909542712696
 20
7.417710988317612
 30
0.0
 10
7.79981397127387
 20
7.417070448634997
 30
0.0
 10
7.800266415339804
 20
7.416750016053768
 30
0.0
  0
SPLINE
  5
2F2
330
1F
100
AcDbEntity
  8
0
  6
Continuous
 62
     7
370
     0
100
AcDbSpline
210
0.0
220
0.0
230
1.0
 70
     8
 71
     3
 72
    14
 73
    10
 74
     0
 42
0.00000001
 43
0.00000001
 40
0.0
 40
0.0
 40
0.0
 40
0.0
 40
0.0625005409549601
 40
0.1249727346346854
 40
0.1854844482473661
 40
0.2498740647270421
 40
0.3606505595074722
 40
0.4996888686475289
 40
1.0
 40
1.0
 40
1.0
 40
1.0
 10
7.800266415339804
 20
7.416750016053768
 30
0.0
 10
7.800752423101891
 20
7.416462010635582
 30
0.0
 10
7.80172421819604
 20
7.415886130424782
 30
0.0
 10
7.803504410545381
 20
7.415299950962433
 30
0.0
 10
7.805444449086247
 20
7.414985802208972
 30
0.0
 10
7.807930942586275
 20
7.414974869239839
 30
0.0
 10
7.811076052007992
 20
7.415525857216847
 30
0.0
 10
7.817774259058734
 20
7.417819926937143
 30
0.0
 10
7.822573147354963
 20
7.42054023684467
 30
0.0
 10
7.826328429022015
 20
7.42266896526964
 30
0.0
  0
SPLINE
  5
2F3
330
1F
100
AcDbEntity
  8
0
  6
Continuous
 62
     7
370
     0
100
AcDbSpline
210
0.0
220
0.0
230
1.0
 70
     8
 71
     3
 72
    14
 73
    10
 74
     0
 42
0.00000001
 43
0.00000001
 40
0.0
 40
0.0
 40
0.0
 40
0.0
 40
0.5001598129721259
 40
0.6334839770290738
 40
0.7547008492888236
 40
0.8160823888840666
 40
0.8744466572136268
 40
0.938393038265655
 40
1.0
 40
1.0
 40
1.0
 40
1.0
 10
7.773474622998233
 20
7.454188471436026
 30
0.0
 10
7.777161206921274
 20
7.45636331459129
 30
0.0
 10
7.781830498185084
 20
7.459117890740107
 30
0.0
 10
7.785966066837823
 20
7.462965809009019
 30
0.0
 10
7.787011795991811
 20
7.464744638723445
 30
0.0
 10
7.787204991277477
 20
7.466137421782731
 30
0.0
 10
7.786883905006516
 20
7.467169998542872
 30
0.0
 10
7.786112675205914
 20
7.468123333507436
 30
0.0
 10
7.785234886761557
 20
7.468625972582315
 30
0.0
 10
7.784804170399075
 20
7.468872609315077
 30
0.0
  0
ARC
  5
2F4
330
1F
100
AcDbEntity
  8
0
  6
Continuous
 62
     7
370
     0
100
AcDbCircle
 10
7.777980623
 20
7.4421915938
 30
0.0
 40
0.0275397419623887
100
AcDbArc
 50
75.6543536846
 51
133.9746815779
  0
SPLINE
  5
2F5
330
1F
100
AcDbEntity
  8
0
  6
Continuous
 62
     7
370
     0
100
AcDbSpline
210
0.0
220
0.0
230
1.0
 70
     8
 71
     3
 72
    14
 73
    10
 74
     0
 42
0.00000001
 43
0.00000001
 40
0.0
 40
0.0
 40
0.0
 40
0.0
 40
0.5003034315361875
 40
0.6254176539425832
 40
0.7501401738688331
 40
0.8143424488236932
 40
0.87503835669473
 40
0.9374874297319868
 40
1.0
 40
1.0
 40
1.0
 40
1.0
 10
7.758858666590925
 20
7.46201047803769
 30
0.0
 10
7.755088693016976
 20
7.459789745864549
 30
0.0
 10
7.750375936958508
 20
7.457013660356809
 30
0.0
 10
7.746069027454093
 20
7.453188020462996
 30
0.0
 10
7.744964322303386
 20
7.451412525185861
 30
0.0
 10
7.744832348027798
 20
7.449967331856291
 30
0.0
 10
7.745212178291521
 20
7.448918493740264
 30
0.0
 10
7.746048900470471
 20
7.447963887105494
 30
0.0
 10
7.746953100358282
 20
7.447460348557487
 30
0.0
 10
7.747405430029437
 20
7.447208451351013
 30
0.0
  0
ARC
  5
2F6
330
1F
100
AcDbEntity
  8
0
  6
Continuous
 62
     7
370
     0
100
AcDbCircle
 10
7.7542416756
 20
7.4738482523
 30
0.0
 40
0.027502967971539
100
AcDbArc
 50
255.6074512184
 51
314.3712250137
  0
ARC
  5
2F7
330
1F
100
AcDbEntity
  8
0
  6
Continuous
 62
     7
370
     0
100
AcDbCircle
 10
7.5511942829
 20
7.4417774402
 30
0.0
 40
0.0197288425729644
100
AcDbArc
 50
259.4854409911
 51
285.115138232
  0
ARC
  5
2F8
330
1F
100
AcDbEntity
  8
0
  6
Continuous
 62
     7
370
     0
100
AcDbCircle
 10
7.5479253054
 20
7.4559004493
 30
0.0
 40
0.0342197215597444
100
AcDbArc
 50
284.2330110545
 51
297.3146521699
  0
ARC
  5
2F9
330
1F
100
AcDbEntity
  8
0
  6
Continuous
 62
     7
370
     0
100
AcDbCircle
 10
7.4783360105
 20
7.0877934976
 30
0.0
 40
0.3483071183265103
100
AcDbArc
 50
75.8255150699
 51
78.3353379802
  0
SPLINE
  5
2FA
330
1F
100
AcDbEntity
  8
0
  6
Continuous
 62
     7
370
     0
100
AcDbSpline
210
0.0
220
0.0
230
1.0
 70
     8
 71
     3
 72
    13
 73
     9
 74
     0
 42
0.00000001
 43
0.00000001
 40
0.0
 40
0.0
 40
0.0
 40
0.0
 40
0.2503831206489671
 40
0.4995031561264066
 40
0.6232338939509441
 40
0.7495671229800284
 40
0.874683395938814
 40
0.9999999999999999
 40
0.9999999999999999
 40
0.9999999999999999
 40
0.9999999999999999
 10
7.548757895643834
 20
7.428907271500266
 30
0.0
 10
7.547833752811201
 20
7.428264332538801
 30
0.0
 10
7.545990129086024
 20
7.426981697992126
 30
0.0
 10
7.544542317116997
 20
7.425305846820194
 30
0.0
 10
7.544515772551966
 20
7.424118769701813
 30
0.0
 10
7.545073901202471
 20
7.423366098640336
 30
0.0
 10
7.546122302142866
 20
7.422773441516869
 30
0.0
 10
7.547103211035078
 20
7.422511132549353
 30
0.0
 10
7.547594057814974
 20
7.422379873149968
 30
0.0
  0
SPLINE
  5
2FB
330
1F
100
AcDbEntity
  8
0
  6
Continuous
 62
     7
370
     0
100
AcDbSpline
210
0.0
220
0.0
230
1.0
 70
     8
 71
     3
 72
    13
 73
     9
 74
     0
 42
0.00000001
 43
0.00000001
 40
0.0
 40
0.0
 40
0.0
 40
0.0
 40
0.2502837930806612
 40
0.4996335298262963
 40
0.6262055894898515
 40
0.7498197801867649
 40
0.8748231480904183
 40
1.0
 40
1.0
 40
1.0
 40
1.0
 10
7.504998820028842
 20
7.437012980209515
 30
0.0
 10
7.503909470471672
 20
7.436358314196879
 30
0.0
 10
7.501734836797776
 20
7.435051425377891
 30
0.0
 10
7.499861081649534
 20
7.433423839085727
 30
0.0
 10
7.499432272911416
 20
7.432340154598561
 30
0.0
 10
7.499718447327857
 20
7.431697897849205
 30
0.0
 10
7.500540068006301
 20
7.43124204242091
 30
0.0
 10
7.501512148978924
 20
7.431132721060584
 30
0.0
 10
7.501998526503275
 20
7.43107802247673
 30
0.0
  0
ARC
  5
2FC
330
1F
100
AcDbEntity
  8
0
  6
Continuous
 62
     7
370
     0
100
AcDbCircle
 10
7.5006915157
 20
7.4616369904
 30
0.0
 40
0.0305869056385741
100
AcDbArc
 50
272.449054975
 51
304.2101484887
  0
SPLINE
  5
2FD
330
1F
100
AcDbEntity
  8
0
  6
Continuous
 62
     7
370
     0
100
AcDbSpline
210
0.0
220
0.0
230
1.0
 70
     8
 71
     3
 72
    13
 73
     9
 74
     0
 42
0.00000001
 43
0.00000001
 40
0.0
 40
0.0
 40
0.0
 40
0.0
 40
0.2503895108603592
 40
0.499917463582177
 40
0.6260458464145627
 40
0.7500378636042443
 40
0.8749142295199399
 40
1.0
 40
1.0
 40
1.0
 40
1.0
 10
7.517888387498606
 20
7.436342200488589
 30
0.0
 10
7.518960577405023
 20
7.436981934582836
 30
0.0
 10
7.521101267950136
 20
7.438259201528503
 30
0.0
 10
7.523061356718865
 20
7.439887896200082
 30
0.0
 10
7.523690130496052
 20
7.441037164764223
 30
0.0
 10
7.523573460193025
 20
7.441747721689969
 30
0.0
 10
7.522898327065524
 20
7.442272349332893
 30
0.0
 10
7.52196294653378
 20
7.442389898887165
 30
0.0
 10
7.521494864462661
 20
7.442448722902584
 30
0.0
  0
ARC
  5
2FE
330
1F
100
AcDbEntity
  8
0
  6
Continuous
 62
     7
370
     0
100
AcDbCircle
 10
7.522795345
 20
7.4107536658
 30
0.0
 40
0.031721725869328
100
AcDbArc
 50
92.349586335
 51
124.1263719754
  0
SPLINE
  5
2FF
330
1F
100
AcDbEntity
  8
0
  6
Continuous
 62
     7
370
     0
100
AcDbSpline
210
0.0
220
0.0
230
1.0
 70
     8
 71
     3
 72
    14
 73
    10
 74
     0
 42
0.00000001
 43
0.00000001
 40
0.0
 40
0.0
 40
0.0
 40
0.0
 40
0.5001598129721933
 40
0.6334839770332604
 40
0.7547008492917724
 40
0.8160823888865705
 40
0.8744466572126827
 40
0.9383930382643727
 40
1.0
 40
1.0
 40
1.0
 40
1.0
 10
7.64444037950391
 20
7.498214057665732
 30
0.0
 10
7.648129477034763
 20
7.500372671772082
 30
0.0
 10
7.652801951941573
 20
7.503106692805968
 30
0.0
 10
7.657021079104047
 20
7.506439392760972
 30
0.0
 10
7.658134971755584
 20
7.507802349648621
 30
0.0
 10
7.658403813469428
 20
7.508739824289196
 30
0.0
 10
7.658155655754961
 20
7.509338145729603
 30
0.0
 10
7.657469436092184
 20
7.509791028801213
 30
0.0
 10
7.656654477698038
 20
7.509930384577113
 30
0.0
 10
7.656254591008526
 20
7.509998764165923
 30
0.0
  0
ARC
  5
300
330
1F
100
AcDbEntity
  8
0
  6
Continuous
 62
     7
370
     0
100
AcDbCircle
 10
7.6590612802
 20
7.464959072
 30
0.0
 40
0.0451270581466523
100
AcDbArc
 50
93.5658274991
 51
128.7050142496
  0
SPLINE
  5
301
330
1F
100
AcDbEntity
  8
0
  6
Continuous
 62
     7
370
     0
100
AcDbSpline
210
0.0
220
0.0
230
1.0
 70
     8
 71
     3
 72
    14
 73
    10
 74
     0
 42
0.00000001
 43
0.00000001
 40
0.0
 40
0.0
 40
0.0
 40
0.0
 40
0.5003034315361543
 40
0.6254176539425397
 40
0.7501401738687871
 40
0.814342448824923
 40
0.8750383566947423
 40
0.9374874297319913
 40
0.9999999999999999
 40
0.9999999999999999
 40
0.9999999999999999
 40
0.9999999999999999
 10
7.630842836486905
 20
7.500175130941005
 30
0.0
 10
7.627069681686257
 20
7.497970963567081
 30
0.0
 10
7.62235294885047
 20
7.495215585328591
 30
0.0
 10
7.617954599029785
 20
7.491883428530519
 30
0.0
 10
7.616773075227146
 20
7.490525931467464
 30
0.0
 10
7.616550304069118
 20
7.48958137305939
 30
0.0
 10
7.616847245889535
 20
7.488994546783394
 30
0.0
 10
7.617591403678044
 20
7.488561722755163
 30
0.0
 10
7.618431126570321
 20
7.488428189342783
 30
0.0
 10
7.618851201362238
 20
7.488361388710175
 30
0.0
  0
ARC
  5
302
330
1F
100
AcDbEntity
  8
0
  6
Continuous
 62
     7
370
     0
100
AcDbCircle
 10
7.6163439994
 20
7.5330292653
 30
0.0
 40
0.0447381856745036
100
AcDbArc
 50
273.2126334965
 51
308.9040356313
  0
ARC
  5
303
330
1F
100
AcDbEntity
  8
0
  6
Continuous
 62
     7
370
     0
100
AcDbCircle
 10
7.4764848033
 20
7.2098161575
 30
0.0
 40
0.2203645781992582
100
AcDbArc
 50
101.6918100491
 51
102.6356910353
  0
ARC
  5
304
330
1F
100
AcDbEntity
  8
0
  6
Continuous
 62
     7
370
     0
100
AcDbCircle
 10
7.4394757719
 20
7.3763988773
 30
0.0
 40
0.0497216887829036
100
AcDbArc
 50
103.0130345083
 51
120.13451707
  0
SPLINE
  5
305
330
1F
100
AcDbEntity
  8
0
  6
Continuous
 62
     7
370
     0
100
AcDbSpline
210
0.0
220
0.0
230
1.0
 70
     8
 71
     3
 72
    13
 73
     9
 74
     0
 42
0.00000001
 43
0.00000001
 40
0.0
 40
0.0
 40
0.0
 40
0.0
 40
0.1297148784687392
 40
0.2501166036125265
 40
0.3795473458373768
 40
0.5003189319527626
 40
0.7495371040293933
 40
0.9999999999999999
 40
0.9999999999999999
 40
0.9999999999999999
 40
0.9999999999999999
 10
7.414513900753695
 20
7.419400636869133
 30
0.0
 10
7.414014367982204
 20
7.419104406117387
 30
0.0
 10
7.413051167448282
 20
7.418533213125595
 30
0.0
 10
7.412021901537568
 20
7.417804115520005
 30
0.0
 10
7.411397377926274
 20
7.41723545414101
 30
0.0
 10
7.411319364910913
 20
7.416783241534104
 30
0.0
 10
7.412659683380839
 20
7.416885608251018
 30
0.0
 10
7.414239962553646
 20
7.417226977395786
 30
0.0
 10
7.41503207040678
 20
7.417398087149709
 30
0.0
  0
ARC
  5
306
330
1F
100
AcDbEntity
  8
0
  6
Continuous
 62
     7
370
     0
100
AcDbCircle
 10
7.4637739775
 20
7.202678591
 30
0.0
 40
0.2201822779888053
100
AcDbArc
 50
101.6915282734
 51
102.7895541028
  0
LINE
  5
307
330
1F
100
AcDbEntity
  8
0
  6
Continuous
 62
     7
370
     0
100
AcDbLine
 10
7.4191556889
 20
7.4182926997
 30
0.0
 11
7.4318285118
 21
7.4256085646
 31
0.0
  0
ARC
  5
308
330
1F
100
AcDbEntity
  8
0
  6
Continuous
 62
     7
370
     0
100
AcDbCircle
 10
7.9126409545
 20
7.0226759926
 30
0.0
 40
0.9043918487586396
100
AcDbArc
 50
2.5289178901
 51
57.4657055772
  0
SPLINE
  5
309
330
1F
100
AcDbEntity
  8
0
  6
Continuous
 62
     7
370
     0
100
AcDbSpline
210
0.0
220
0.0
230
1.0
 70
     8
 71
     3
 72
    14
 73
    10
 74
     0
 42
0.00000001
 43
0.00000001
 40
0.0
 40
0.0
 40
0.0
 40
0.0
 40
0.5001598129720836
 40
0.6334839770255357
 40
0.7547008492888596
 40
0.8160823888840986
 40
0.874446657211529
 40
0.9383930382633842
 40
1.0
 40
1.0
 40
1.0
 40
1.0
 10
7.596170459143134
 20
7.501197263455868
 30
0.0
 10
7.599861653429404
 20
7.503349128576928
 30
0.0
 10
7.60453678400926
 20
7.506074601594865
 30
0.0
 10
7.60882378616642
 20
7.509193515181589
 30
0.0
 10
7.609992715798439
 20
7.510383998339361
 30
0.0
 10
7.610322168558958
 20
7.511132772050755
 30
0.0
 10
7.610132091035504
 20
7.511551215745731
 30
0.0
 10
7.60951314120626
 20
7.511796922002545
 30
0.0
 10
7.608747405022695
 20
7.511786026426459
 30
0.0
 10
7.608371670862907
 20
7.511780680146351
 30
0.0
  0
ARC
  5
30A
330
1F
100
AcDbEntity
  8
0
  6
Continuous
 62
     7
370
     0
100
AcDbCircle
 10
7.6210064196
 20
7.4493599837
 30
0.0
 40
0.063686577982378
100
AcDbArc
 50
101.4427974738
 51
126.2268474468
  0
SPLINE
  5
30B
330
1F
100
AcDbEntity
  8
0
  6
Continuous
 62
     7
370
     0
100
AcDbSpline
210
0.0
220
0.0
230
1.0
 70
     8
 71
     3
 72
    14
 73
    10
 74
     0
 42
0.00000001
 43
0.00000001
 40
0.0
 40
0.0
 40
0.0
 40
0.0
 40
0.5003034315362526
 40
0.625417653942666
 40
0.7501401738689376
 40
0.814342448826169
 40
0.8750383566947133
 40
0.9374874297319759
 40
1.0
 40
1.0
 40
1.0
 40
1.0
 10
7.583368688464333
 20
7.500734894075593
 30
0.0
 10
7.579593179038828
 20
7.498537538116262
 30
0.0
 10
7.574873502741413
 20
7.495790674668332
 30
0.0
 10
7.570406166993011
 20
7.492661854995401
 30
0.0
 10
7.569166430707099
 20
7.491476671487633
 30
0.0
 10
7.568874359746076
 20
7.49073864393425
 30
0.0
 10
7.569107662955861
 20
7.490342528339711
 30
0.0
 10
7.569780314092326
 20
7.490125218692169
 30
0.0
 10
7.570569735241555
 20
7.490144655993603
 30
0.0
 10
7.570964646381941
 20
7.490154379582695
 30
0.0
  0
ARC
  5
30C
330
1F
100
AcDbEntity
  8
0
  6
Continuous
 62
     7
370
     0
100
AcDbCircle
 10
7.5590738807
 20
7.5515835824
 30
0.0
 40
0.0625694595264549
100
AcDbArc
 50
280.9551797077
 51
306.3621009243
  0
SPLINE
  5
30D
330
1F
100
AcDbEntity
  8
0
  6
Continuous
 62
     7
370
     0
100
AcDbSpline
210
0.0
220
0.0
230
1.0
 70
     8
 71
     3
 72
     9
 73
     5
 74
     0
 42
0.00000001
 43
0.00000001
 40
0.0
 40
0.0
 40
0.0
 40
0.0
 40
0.4999994477952532
 40
1.0
 40
1.0
 40
1.0
 40
1.0
 10
7.392823534067491
 20
7.415052468431834
 30
0.0
 10
7.39402109521974
 20
7.415682938036649
 30
0.0
 10
7.396416220169438
 20
7.416943878638874
 30
0.0
 10
7.398712573032896
 20
7.418100617216197
 30
0.0
 10
7.399860750732683
 20
7.418678987143617
 30
0.0
  0
ARC
  5
30E
330
1F
100
AcDbEntity
  8
0
  6
Continuous
 62
     7
370
     0
100
AcDbCircle
 10
6.6656206202
 20
8.8947271277
 30
0.0
 40
1.648583234960437
100
AcDbArc
 50
296.4474257342
 51
296.7211876723
  0
ARC
  5
30F
330
1F
100
AcDbEntity
  8
0
  6
Continuous
 62
     7
370
     0
100
AcDbCircle
 10
7.3631606851
 20
7.5075153576
 30
0.0
 40
0.0958727310655866
100
AcDbArc
 50
297.1469697168
 51
299.795093132
  0
SPLINE
  5
310
330
1F
100
AcDbEntity
  8
0
  6
Continuous
 62
     7
370
     0
100
AcDbSpline
210
0.0
220
0.0
230
1.0
 70
     8
 71
     3
 72
    13
 73
     9
 74
     0
 42
0.00000001
 43
0.00000001
 40
0.0
 40
0.0
 40
0.0
 40
0.0
 40
0.2485845284603712
 40
0.3735388535790129
 40
0.4967972082134738
 40
0.6212572301373454
 40
0.7502093099251217
 40
1.0
 40
1.0
 40
1.0
 40
1.0
 10
7.410799810911427
 20
7.42431623349385
 30
0.0
 10
7.411381491536245
 20
7.424658794150562
 30
0.0
 10
7.412255561676852
 20
7.425173547485301
 30
0.0
 10
7.412779907581355
 20
7.42554886400121
 30
0.0
 10
7.412921936835502
 20
7.425699138885323
 30
0.0
 10
7.412786549856086
 20
7.425701412325677
 30
0.0
 10
7.412302034276139
 20
7.425535758437697
 30
0.0
 10
7.41163633562985
 20
7.425235097214013
 30
0.0
 10
7.411197290088997
 20
7.425036803330883
 30
0.0
  0
ARC
  5
311
330
1F
100
AcDbEntity
  8
0
  6
Continuous
 62
     7
370
     0
100
AcDbCircle
 10
7.5156724923
 20
7.2118507571
 30
0.0
 40
0.2374096842434429
100
AcDbArc
 50
116.1078966478
 51
120.4553446081
  0
LINE
  5
312
330
1F
100
AcDbEntity
  8
0
  6
Continuous
 62
     7
370
     0
100
AcDbLine
 10
7.3953374364
 20
7.4165037134
 30
0.0
 11
7.3928235341
 21
7.4150524684
 31
0.0
  0
SPLINE
  5
313
330
1F
100
AcDbEntity
  8
0
  6
Continuous
 62
     7
370
     0
100
AcDbSpline
210
0.0
220
0.0
230
1.0
 70
    24
 71
     1
 72
     4
 73
     2
 74
     0
 42
0.00000001
 43
0.00000001
 40
0.0
 40
0.0
 40
1.0
 40
1.0
 10
8.328415932139764
 20
7.720773010520643
 30
0.0
 10
8.361413427009248
 20
7.720927871285713
 30
0.0
  0
ARC
  5
314
330
1F
100
AcDbEntity
  8
0
  6
Continuous
 62
     7
370
     0
100
AcDbCircle
 10
7.9998818159
 20
7.1984845523
 30
0.0
 40
0.6353362317960636
100
AcDbArc
 50
55.31670383
 51
56.9605775739
  0
LINE
  5
315
330
1F
100
AcDbEntity
  8
0
  6
Continuous
 62
     7
370
     0
100
AcDbLine
 10
8.3462772658
 20
7.7310841389
 30
0.0
 11
8.3284159321
 21
7.7207730105
 31
0.0
  0
SPLINE
  5
316
330
1F
100
AcDbEntity
  8
0
  6
Continuous
 62
     7
370
     0
100
AcDbSpline
210
0.0
220
0.0
230
1.0
 70
     8
 71
     3
 72
    14
 73
    10
 74
     0
 42
0.00000001
 43
0.00000001
 40
0.0
 40
0.0
 40
0.0
 40
0.0
 40
0.5001598129720235
 40
0.6334839770247878
 40
0.7547008492901848
 40
0.8160823888852057
 40
0.8744466572155234
 40
0.9383930382647695
 40
1.0
 40
1.0
 40
1.0
 40
1.0
 10
8.29913068980355
 20
7.752355961078359
 30
0.0
 10
8.302817258373093
 20
7.754531358859377
 30
0.0
 10
8.3074865301907
 20
7.757286637476708
 30
0.0
 10
8.311621465916176
 20
7.761152194901785
 30
0.0
 10
8.312666656440594
 20
7.762945268584748
 30
0.0
 10
8.312859222575511
 20
7.764353654887929
 30
0.0
 10
8.312537506060764
 20
7.765401119972572
 30
0.0
 10
8.311765512615109
 20
7.766371620908507
 30
0.0
 10
8.310887126477342
 20
7.766886730368458
 30
0.0
 10
8.310456116836516
 20
7.767139486114222
 30
0.0
  0
ARC
  5
317
330
1F
100
AcDbEntity
  8
0
  6
Continuous
 62
     7
370
     0
100
AcDbCircle
 10
8.3034450647
 20
7.7408627853
 30
0.0
 40
0.0271959530000345
100
AcDbArc
 50
75.0605788898
 51
134.1415166614
  0
SPLINE
  5
318
330
1F
100
AcDbEntity
  8
0
  6
Continuous
 62
     7
370
     0
100
AcDbSpline
210
0.0
220
0.0
230
1.0
 70
     8
 71
     3
 72
    14
 73
    10
 74
     0
 42
0.00000001
 43
0.00000001
 40
0.0
 40
0.0
 40
0.0
 40
0.0
 40
0.500303431536206
 40
0.6254176539426067
 40
0.7501401738688733
 40
0.8143424488246419
 40
0.8750383566947232
 40
0.9374874297319838
 40
1.0
 40
1.0
 40
1.0
 40
1.0
 10
8.284504906393204
 20
7.760379195344093
 30
0.0
 10
8.28073497231473
 20
7.758157891891435
 30
0.0
 10
8.276022265628637
 20
7.75538109224049
 30
0.0
 10
8.271716403794976
 20
7.751538461351105
 30
0.0
 10
8.270612561499227
 20
7.749748579419428
 30
0.0
 10
8.270481573891653
 20
7.748286165414797
 30
0.0
 10
8.270862279733503
 20
7.747221442770443
 30
0.0
 10
8.271699950230982
 20
7.746248905428029
 30
0.0
 10
8.272604777617605
 20
7.745732661679676
 30
0.0
 10
8.273057421197594
 20
7.745474408645059
 30
0.0
  0
ARC
  5
319
330
1F
100
AcDbEntity
  8
0
  6
Continuous
 62
     7
370
     0
100
AcDbCircle
 10
8.2800767052
 20
7.771714109
 30
0.0
 40
0.0271623309108937
100
AcDbArc
 50
255.0236810366
 51
314.546317657
  0
ARC
  5
31A
330
1F
100
AcDbEntity
  8
0
  6
Continuous
 62
     7
370
     0
100
AcDbCircle
 10
7.7396089436
 20
6.6682319138
 30
0.0
 40
0.2906141623393962
100
AcDbArc
 50
232.6202553396
 51
279.891677087
  0
SPLINE
  5
31B
330
1F
100
AcDbEntity
  8
0
  6
Continuous
 62
     7
370
     0
100
AcDbSpline
210
0.0
220
0.0
230
1.0
 70
    24
 71
     1
 72
     4
 73
     2
 74
     0
 42
0.00000001
 43
0.00000001
 40
0.0
 40
0.0
 40
1.0
 40
1.0
 10
7.565250526869579
 20
6.434108568585284
 30
0.0
 10
7.563178550756631
 20
6.437301387781303
 30
0.0
  0
LWPOLYLINE
  5
31C
330
1F
100
AcDbEntity
  8
0
  6
Continuous
 62
     7
370
     0
100
AcDbPolyline
 90
       12
 70
   128
 43
0.0
 10
7.5658014553
 20
6.4766538537
 10
7.594048147
 20
6.4599263038
 10
7.6222158656
 20
6.4461389372
 10
7.6500826051
 20
6.4354004197
 10
7.6774287322
 20
6.4277953878
 10
7.7040387165
 20
6.4233837811
 10
7.7297028296
 20
6.4222003699
 10
7.7542187981
 20
6.4242544814
 10
7.7773933978
 20
6.4295299258
 10
7.7990439767
 20
6.4379851246
 10
7.8189998941
 20
6.4495534374
 10
7.8262193007
 20
6.4548357992
  0
LINE
  5
31D
330
1F
100
AcDbEntity
  8
0
  6
Continuous
 62
     7
370
     0
100
AcDbLine
 10
7.5631785508
 20
6.4373013878
 30
0.0
 11
7.5658014553
 21
6.4766538537
 31
0.0
  0
LINE
  5
31E
330
1F
100
AcDbEntity
  8
0
  6
Continuous
 62
     7
370
     0
100
AcDbLine
 10
7.5658014553
 20
6.4766538537
 30
0.0
 11
7.5834791248
 21
6.4868589551
 31
0.0
  0
ARC
  5
31F
330
1F
100
AcDbEntity
  8
0
  6
Continuous
 62
     7
370
     0
100
AcDbCircle
 10
7.8389204505
 20
6.883698169
 30
0.0
 40
0.4719445227200472
100
AcDbArc
 50
235.6903172029
 51
237.231032327
  0
LINE
  5
320
330
1F
100
AcDbEntity
  8
0
  6
Continuous
 62
     7
370
     0
100
AcDbLine
 10
7.5552238654
 20
6.4836654531
 30
0.0
 11
7.5729015349
 21
6.4938705545
 31
0.0
  0
LWPOLYLINE
  5
321
330
1F
100
AcDbEntity
  8
0
  6
Continuous
 62
     7
370
     0
100
AcDbPolyline
 90
       28
 70
   128
 43
0.0
 10
7.3776857166
 20
7.2318029418
 10
7.3690123354
 20
7.2279585994
 10
7.349056418
 20
7.2163902866
 10
7.3309524458
 20
7.2018000361
 10
7.3148431066
 20
7.1843028421
 10
7.3008553671
 20
7.1640366097
 10
7.2890994727
 20
7.1411610687
 10
7.2796680781
 20
7.115856514
 10
7.2726355176
 20
7.0883223853
 10
7.2680572188
 20
7.0587756946
 10
7.2659692657
 20
7.027449316
 10
7.2663881149
 20
6.9945901506
 10
7.269310465
 20
6.9604571799
 10
7.2747132833
 20
6.9253194253
 10
7.2825539873
 20
6.8894538273
 10
7.2927707798
 20
6.8531430629
 10
7.3052831366
 20
6.8166733178
 10
7.3199924406
 20
6.7803320309
 10
7.3367827596
 20
6.7444056282
 10
7.3555217595
 20
6.7091772661
 10
7.3760617477
 20
6.6749245994
 10
7.3982408369
 20
6.6419175925
 10
7.421884221
 20
6.6104163926
 10
7.4468055534
 20
6.5806692782
 10
7.4728084147
 20
6.5529107033
 10
7.4996878617
 20
6.527359449
 10
7.5272320424
 20
6.504216899
 10
7.5552238654
 20
6.4836654531
  0
LWPOLYLINE
  5
322
330
1F
100
AcDbEntity
  8
0
  6
Continuous
 62
     7
370
     0
100
AcDbPolyline
 90
       34
 70
   128
 43
0.0
 10
7.3832543113
 20
7.2303019972
 10
7.3711210729
 20
7.2165935613
 10
7.357220556
 20
7.1963513566
 10
7.3455378417
 20
7.1735207947
 10
7.3361643631
 20
7.1482805557
 10
7.3291734802
 20
7.1208281786
 10
7.3246199062
 20
7.0913785156
 10
7.3225392791
 20
7.0601620502
 10
7.3229478825
 20
7.0274230935
 10
7.3258425185
 20
6.9934178723
 10
7.3312005328
 20
6.9584125236
 10
7.3389799916
 20
6.9226810116
 10
7.3491200101
 20
6.8865029839
 10
7.3615412288
 20
6.8501615826
 10
7.376146435
 20
6.8139412285
 10
7.392821323
 20
6.7781253949
 10
7.4114353893
 20
6.7429943892
 10
7.4318429535
 20
6.7088231594
 10
7.4538842988
 20
6.6758791414
 10
7.4773869218
 20
6.644420167
 10
7.5021668826
 20
6.6146924453
 10
7.5280302444
 20
6.586928636
 10
7.5547745913
 20
6.5613460285
 10
7.5821906126
 20
6.5381448415
 10
7.6100637407
 20
6.5175066557
 10
7.6381758306
 20
6.4995929928
 10
7.666306867
 20
6.4845440517
 10
7.6942366866
 20
6.4724776106
 10
7.7217467005
 20
6.4634881057
 10
7.7486216056
 20
6.4576458923
 10
7.7746510693
 20
6.4549966935
 10
7.7996313758
 20
6.4555612429
 10
7.8233670204
 20
6.4593351221
 10
7.8277042649
 20
6.4604086767
  0
LWPOLYLINE
  5
323
330
1F
100
AcDbEntity
  8
0
  6
Continuous
 62
     7
370
     0
100
AcDbPolyline
 90
       26
 70
   128
 43
0.0
 10
7.296211299
 20
7.2364877197
 10
7.2800416656
 20
7.2172194109
 10
7.2659306456
 20
7.1951416398
 10
7.2540680021
 20
7.1705039808
 10
7.2445375824
 20
7.1434805778
 10
7.2374067495
 20
7.1142624374
 10
7.2327259056
 20
7.0830560794
 10
7.2305281358
 20
7.0500820765
 10
7.2308289743
 20
7.0155734955
 10
7.2336262949
 20
6.9797742498
 10
7.2389003253
 20
6.9429373757
 10
7.2466137879
 20
6.9053232435
 10
7.2567121622
 20
6.8671977174
 10
7.2691240709
 20
6.8288302761
 10
7.2837617843
 20
6.7904921084
 10
7.3005218401
 20
6.752454196
 10
7.3192857748
 20
6.7149853985
 10
7.3399209612
 20
6.6783505527
 10
7.3622815458
 20
6.6428086011
 10
7.3862094795
 20
6.6086107612
 10
7.4115356348
 20
6.5759987501
 10
7.4380810016
 20
6.5452030759
 10
7.4656579519
 20
6.5164414088
 10
7.4940715662
 20
6.4899170417
 10
7.5231210116
 20
6.4658174543
 10
7.5526009608
 20
6.4443129871
  0
SPLINE
  5
324
330
1F
100
AcDbEntity
  8
0
  6
Continuous
 62
     7
370
     0
100
AcDbSpline
210
0.0
220
0.0
230
1.0
 70
    24
 71
     1
 72
     4
 73
     2
 74
     0
 42
0.00000001
 43
0.00000001
 40
0.0
 40
0.0
 40
1.0
 40
1.0
 10
7.552600960828768
 20
6.44431298709628
 30
0.0
 10
7.554672936941715
 20
6.441120167900261
 30
0.0
  0
LINE
  5
325
330
1F
100
AcDbEntity
  8
0
  6
Continuous
 62
     7
370
     0
100
AcDbLine
 10
7.5526009608
 20
6.4443129871
 30
0.0
 11
7.5552238654
 21
6.4836654531
 31
0.0
  0
LINE
  5
326
330
1F
100
AcDbEntity
  8
0
  6
Continuous
 62
     7
370
     0
100
AcDbLine
 10
7.5719922172
 20
6.4802277045
 30
0.0
 11
7.5729015349
 21
6.4938705545
 31
0.0
  0
ARC
  5
327
330
1F
100
AcDbEntity
  8
0
  6
Continuous
 62
     7
370
     0
100
AcDbCircle
 10
7.5028502639
 20
7.2478194274
 30
0.0
 40
0.2001360904210798
100
AcDbArc
 50
117.4916512997
 51
119.9969946311
  0
SPLINE
  5
328
330
1F
100
AcDbEntity
  8
0
  6
Continuous
 62
     7
370
     0
100
AcDbSpline
210
0.0
220
0.0
230
1.0
 70
     8
 71
     3
 72
     9
 73
     5
 74
     0
 42
0.00000001
 43
0.00000001
 40
0.0
 40
0.0
 40
0.0
 40
0.0
 40
0.8150366501089028
 40
1.0
 40
1.0
 40
1.0
 40
1.0
 10
7.366401437073207
 20
7.400130598950737
 30
0.0
 10
7.366601755438659
 20
7.400250900701648
 30
0.0
 10
7.366847533791603
 20
7.400398503574348
 30
0.0
 10
7.367630010584964
 20
7.400849074980213
 30
0.0
 10
7.367774740113876
 20
7.400932414176807
 30
0.0
  0
ARC
  5
329
330
1F
100
AcDbEntity
  8
0
  6
Continuous
 62
     7
370
     0
100
AcDbCircle
 10
7.6215829566
 20
7.3163768421
 30
0.0
 40
0.2001235412176693
100
AcDbArc
 50
117.6875492328
 51
119.9970365236
  0
SPLINE
  5
32A
330
1F
100
AcDbEntity
  8
0
  6
Continuous
 62
     7
370
     0
100
AcDbSpline
210
0.0
220
0.0
230
1.0
 70
     8
 71
     3
 72
    10
 73
     6
 74
     0
 42
0.00000001
 43
0.00000001
 40
0.0
 40
0.0
 40
0.0
 40
0.0
 40
0.4588199142682151
 40
0.9164432179294522
 40
1.0
 40
1.0
 40
1.0
 40
1.0
 10
7.485099910048953
 20
7.468543170314312
 30
0.0
 10
7.484267381918625
 20
7.468095126673699
 30
0.0
 10
7.482604496906339
 20
7.467200207898367
 30
0.0
 10
7.481213088216742
 20
7.46642305696529
 30
0.0
 10
7.481354139957356
 20
7.466499250873353
 30
0.0
 10
7.481375917975178
 20
7.466511015012387
 30
0.0
  0
LINE
  5
32B
330
1F
100
AcDbEntity
  8
0
  6
Continuous
 62
     7
370
     0
100
AcDbLine
 10
8.0039459065
 20
6.3825892578
 30
0.0
 11
8.0027425498
 21
6.3818889797
 31
0.0
  0
LWPOLYLINE
  5
32C
330
1F
100
AcDbEntity
  8
0
  6
Continuous
 62
     7
370
     0
100
AcDbPolyline
 90
        3
 70
   128
 43
0.0
 10
7.9461835474
 20
6.3492437576
 10
7.9450312484
 20
6.3485729646
 10
7.9449801907
 20
6.3485434796
  0
LINE
  5
32D
330
1F
100
AcDbEntity
  8
0
  6
Continuous
 62
     7
370
     0
100
AcDbLine
 10
7.6198618193
 20
4.5341567224
 30
0.0
 11
3.7995670242
 21
4.5341567224
 31
0.0
  0
LINE
  5
32E
330
1F
100
AcDbEntity
  8
0
  6
Continuous
 62
     7
370
     0
100
AcDbLine
 10
3.7995670242
 20
4.5341567224
 30
0.0
 11
7.6302261009
 21
4.8574819191
 31
0.0
  0
LINE
  5
32F
330
1F
100
AcDbEntity
  8
0
  6
Continuous
 62
     7
370
     0
100
AcDbLine
 10
3.7995670242
 20
4.5341567224
 30
0.0
 11
7.6292055954
 21
4.2271462935
 31
0.0
  0
LINE
  5
330
330
1F
100
AcDbEntity
  8
0
  6
Continuous
 62
     7
370
     0
100
AcDbLine
 10
8.5252644531
 20
4.5341567224
 30
0.0
 11
9.8225268288
 21
4.5341567224
 31
0.0
  0
LINE
  5
331
330
1F
100
AcDbEntity
  8
0
  6
Continuous
 62
     7
370
     0
100
AcDbLine
 10
9.8225268288
 20
4.5341567224
 30
0.0
 11
8.5021291339
 21
4.8574819191
 31
0.0
  0
LINE
  5
332
330
1F
100
AcDbEntity
  8
0
  6
Continuous
 62
     7
370
     0
100
AcDbLine
 10
9.8225268288
 20
4.5341567224
 30
0.0
 11
8.5021291339
 21
4.2108315258
 31
0.0
  0
LINE
  5
333
330
1F
100
AcDbEntity
  8
0
  6
Continuous
 62
     7
370
     0
100
AcDbLine
 10
8.5252644531
 20
4.5341567224
 30
0.0
 11
7.6198618193
 21
4.5341567224
 31
0.0
  0
LINE
  5
334
330
1F
100
AcDbEntity
  8
0
  6
Continuous
 62
     7
370
     0
100
AcDbLine
 10
8.7135489154
 20
3.9441567224
 30
0.0
 11
8.7035489154
 21
3.9341567224
 31
0.0
  0
LINE
  5
335
330
1F
100
AcDbEntity
  8
0
  6
Continuous
 62
     7
370
     0
100
AcDbLine
 10
8.7035489154
 20
5.1341567224
 30
0.0
 11
8.7135489154
 21
5.1241567224
 31
0.0
  0
LINE
  5
336
330
1F
100
AcDbEntity
  8
0
  6
Continuous
 62
     7
370
     0
100
AcDbLine
 10
7.5477995884
 20
3.9341567224
 30
0.0
 11
7.6751091956
 21
3.9341567224
 31
0.0
  0
SPLINE
  5
337
330
1F
100
AcDbEntity
  8
0
  6
Continuous
 62
     7
370
     0
100
AcDbSpline
210
0.0
220
0.0
230
1.0
 70
    24
 71
     1
 72
     4
 73
     2
 74
     0
 42
0.00000001
 43
0.00000001
 40
0.0
 40
0.0
 40
1.0
 40
1.0
 10
7.688497640354665
 20
3.934157342765865
 30
0.0
 10
7.675109195629169
 20
3.934156722445779
 30
0.0
  0
SPLINE
  5
338
330
1F
100
AcDbEntity
  8
0
  6
Continuous
 62
     7
370
     0
100
AcDbSpline
210
0.0
220
0.0
230
1.0
 70
    24
 71
     1
 72
     4
 73
     2
 74
     0
 42
0.00000001
 43
0.00000001
 40
0.0
 40
0.0
 40
1.0
 40
1.0
 10
7.701237532712225
 20
3.934156722445779
 30
0.0
 10
7.688497640354665
 20
3.934157342765865
 30
0.0
  0
LINE
  5
339
330
1F
100
AcDbEntity
  8
0
  6
Continuous
 62
     7
370
     0
100
AcDbLine
 10
7.7012375327
 20
3.9341567224
 30
0.0
 11
8.7035489154
 21
3.9341567224
 31
0.0
  0
LINE
  5
33A
330
1F
100
AcDbEntity
  8
0
  6
Continuous
 62
     7
370
     0
100
AcDbLine
 10
8.7035489154
 20
5.1341567224
 30
0.0
 11
8.6088782498
 21
5.1341567224
 31
0.0
  0
LINE
  5
33B
330
1F
100
AcDbEntity
  8
0
  6
Continuous
 62
     7
370
     0
100
AcDbLine
 10
8.5765688609
 20
5.1341567224
 30
0.0
 11
7.7213137561
 21
5.1341567224
 31
0.0
  0
LINE
  5
33C
330
1F
100
AcDbEntity
  8
0
  6
Continuous
 62
     7
370
     0
100
AcDbLine
 10
7.6788384119
 20
5.1341567224
 30
0.0
 11
7.5621145477
 21
5.1341567224
 31
0.0
  0
LINE
  5
33D
330
1F
100
AcDbEntity
  8
0
  6
Continuous
 62
     7
370
     0
100
AcDbLine
 10
7.4796338227
 20
5.1341567224
 30
0.0
 11
7.4160625754
 21
5.1341567224
 31
0.0
  0
LINE
  5
33E
330
1F
100
AcDbEntity
  8
0
  6
Continuous
 62
     7
370
     0
100
AcDbLine
 10
7.4160625754
 20
3.9341567224
 30
0.0
 11
7.4807379001
 21
3.9341567224
 31
0.0
  0
LINE
  5
33F
330
1F
100
AcDbEntity
  8
0
  6
Continuous
 62
     7
370
     0
100
AcDbLine
 10
7.4060625754
 20
5.1241567224
 30
0.0
 11
7.4160625754
 21
5.1341567224
 31
0.0
  0
LINE
  5
340
330
1F
100
AcDbEntity
  8
0
  6
Continuous
 62
     7
370
     0
100
AcDbLine
 10
7.4160625754
 20
3.9341567224
 30
0.0
 11
7.4060625754
 21
3.9441567224
 31
0.0
  0
LINE
  5
341
330
1F
100
AcDbEntity
  8
0
  6
Continuous
 62
     7
370
     0
100
AcDbLine
 10
8.1523619754
 20
4.0091567224
 30
0.0
 11
8.1723619754
 21
4.0091567224
 31
0.0
  0
LINE
  5
342
330
1F
100
AcDbEntity
  8
0
  6
Continuous
 62
     7
370
     0
100
AcDbLine
 10
8.1723619754
 20
5.0591567224
 30
0.0
 11
8.1523619754
 21
5.0591567224
 31
0.0
  0
LINE
  5
343
330
1F
100
AcDbEntity
  8
0
  6
Continuous
 62
     7
370
     0
100
AcDbLine
 10
7.8160071654
 20
5.0591567224
 30
0.0
 11
7.8360071654
 21
5.0591567224
 31
0.0
  0
LINE
  5
344
330
1F
100
AcDbEntity
  8
0
  6
Continuous
 62
     7
370
     0
100
AcDbLine
 10
7.8360071654
 20
4.0091567224
 30
0.0
 11
7.8160071654
 21
4.0091567224
 31
0.0
  0
LINE
  5
345
330
1F
100
AcDbEntity
  8
0
  6
Continuous
 62
     7
370
     0
100
AcDbLine
 10
8.7135489154
 20
5.0501567224
 30
0.0
 11
8.6962284073
 21
5.0401567224
 31
0.0
  0
LINE
  5
346
330
1F
100
AcDbEntity
  8
0
  6
Continuous
 62
     7
370
     0
100
AcDbLine
 10
8.6962284073
 20
4.0281567224
 30
0.0
 11
8.7135489154
 21
4.0181567224
 31
0.0
  0
LINE
  5
347
330
1F
100
AcDbEntity
  8
0
  6
Continuous
 62
     7
370
     0
100
AcDbLine
 10
8.6962284073
 20
4.0281567224
 30
0.0
 11
8.6962284073
 21
5.0401567224
 31
0.0
  0
LINE
  5
348
330
1F
100
AcDbEntity
  8
0
  6
Continuous
 62
     7
370
     0
100
AcDbLine
 10
8.7135489154
 20
5.0501567224
 30
0.0
 11
8.7135489154
 21
4.0181567224
 31
0.0
  0
LINE
  5
349
330
1F
100
AcDbEntity
  8
0
  6
Continuous
 62
     7
370
     0
100
AcDbLine
 10
7.4060625754
 20
4.0181567224
 30
0.0
 11
7.4233830835
 21
4.0281567224
 31
0.0
  0
LINE
  5
34A
330
1F
100
AcDbEntity
  8
0
  6
Continuous
 62
     7
370
     0
100
AcDbLine
 10
7.4233830835
 20
5.0401567224
 30
0.0
 11
7.4060625754
 21
5.0501567224
 31
0.0
  0
LINE
  5
34B
330
1F
100
AcDbEntity
  8
0
  6
Continuous
 62
     7
370
     0
100
AcDbLine
 10
7.4233830835
 20
5.0401567224
 30
0.0
 11
7.4233830835
 21
4.0281567224
 31
0.0
  0
LINE
  5
34C
330
1F
100
AcDbEntity
  8
0
  6
Continuous
 62
     7
370
     0
100
AcDbLine
 10
7.4060625754
 20
4.0181567224
 30
0.0
 11
7.4060625754
 21
5.0501567224
 31
0.0
  0
LINE
  5
34D
330
1F
100
AcDbEntity
  8
0
  6
Continuous
 62
     7
370
     0
100
AcDbLine
 10
8.4135489154
 20
4.0281567224
 30
0.0
 11
8.4135489154
 21
4.0341567224
 31
0.0
  0
LINE
  5
34E
330
1F
100
AcDbEntity
  8
0
  6
Continuous
 62
     7
370
     0
100
AcDbLine
 10
8.4135489154
 20
5.0341567224
 30
0.0
 11
8.4135489154
 21
5.0401567224
 31
0.0
  0
LINE
  5
34F
330
1F
100
AcDbEntity
  8
0
  6
Continuous
 62
     7
370
     0
100
AcDbLine
 10
8.4135489154
 20
5.0401567224
 30
0.0
 11
8.6962284073
 21
5.0401567224
 31
0.0
  0
LINE
  5
350
330
1F
100
AcDbEntity
  8
0
  6
Continuous
 62
     7
370
     0
100
AcDbLine
 10
8.6962284073
 20
4.0281567224
 30
0.0
 11
8.4135489154
 21
4.0281567224
 31
0.0
  0
LINE
  5
351
330
1F
100
AcDbEntity
  8
0
  6
Continuous
 62
     7
370
     0
100
AcDbLine
 10
8.4123942149
 20
5.0381567224
 30
0.0
 11
8.4123942149
 21
5.0341567224
 31
0.0
  0
LINE
  5
352
330
1F
100
AcDbEntity
  8
0
  6
Continuous
 62
     7
370
     0
100
AcDbLine
 10
8.4123942149
 20
4.0341567224
 30
0.0
 11
8.4123942149
 21
4.0301567224
 31
0.0
  0
LINE
  5
353
330
1F
100
AcDbEntity
  8
0
  6
Continuous
 62
     7
370
     0
100
AcDbLine
 10
8.4123942149
 20
5.0381567224
 30
0.0
 11
8.4135489154
 21
5.0401567224
 31
0.0
  0
LINE
  5
354
330
1F
100
AcDbEntity
  8
0
  6
Continuous
 62
     7
370
     0
100
AcDbLine
 10
8.4135489154
 20
4.0281567224
 30
0.0
 11
8.4123942149
 21
4.0301567224
 31
0.0
  0
LINE
  5
355
330
1F
100
AcDbEntity
  8
0
  6
Continuous
 62
     7
370
     0
100
AcDbLine
 10
7.707217276
 20
4.0301567224
 30
0.0
 11
7.707217276
 21
4.0341567224
 31
0.0
  0
LINE
  5
356
330
1F
100
AcDbEntity
  8
0
  6
Continuous
 62
     7
370
     0
100
AcDbLine
 10
7.707217276
 20
5.0341567224
 30
0.0
 11
7.707217276
 21
5.0381567224
 31
0.0
  0
LINE
  5
357
330
1F
100
AcDbEntity
  8
0
  6
Continuous
 62
     7
370
     0
100
AcDbLine
 10
7.707217276
 20
4.0301567224
 30
0.0
 11
7.7060625754
 21
4.0281567224
 31
0.0
  0
LINE
  5
358
330
1F
100
AcDbEntity
  8
0
  6
Continuous
 62
     7
370
     0
100
AcDbLine
 10
7.7060625754
 20
5.0401567224
 30
0.0
 11
7.7060625754
 21
5.0341567224
 31
0.0
  0
LINE
  5
359
330
1F
100
AcDbEntity
  8
0
  6
Continuous
 62
     7
370
     0
100
AcDbLine
 10
7.7060625754
 20
4.0341567224
 30
0.0
 11
7.7060625754
 21
4.0281567224
 31
0.0
  0
LINE
  5
35A
330
1F
100
AcDbEntity
  8
0
  6
Continuous
 62
     7
370
     0
100
AcDbLine
 10
7.7060625754
 20
5.0401567224
 30
0.0
 11
7.707217276
 21
5.0381567224
 31
0.0
  0
LINE
  5
35B
330
1F
100
AcDbEntity
  8
0
  6
Continuous
 62
     7
370
     0
100
AcDbLine
 10
7.7060625754
 20
4.0281567224
 30
0.0
 11
7.4233830835
 21
4.0281567224
 31
0.0
  0
LINE
  5
35C
330
1F
100
AcDbEntity
  8
0
  6
Continuous
 62
     7
370
     0
100
AcDbLine
 10
7.4233830835
 20
5.0401567224
 30
0.0
 11
7.7060625754
 21
5.0401567224
 31
0.0
  0
LINE
  5
35D
330
1F
100
AcDbEntity
  8
0
  6
Continuous
 62
     7
370
     0
100
AcDbLine
 10
8.1723619754
 20
4.0301567224
 30
0.0
 11
8.4123942149
 21
4.0301567224
 31
0.0
  0
LINE
  5
35E
330
1F
100
AcDbEntity
  8
0
  6
Continuous
 62
     7
370
     0
100
AcDbLine
 10
8.4123942149
 20
5.0381567224
 30
0.0
 11
8.1723619754
 21
5.0381567224
 31
0.0
  0
LINE
  5
35F
330
1F
100
AcDbEntity
  8
0
  6
Continuous
 62
     7
370
     0
100
AcDbLine
 10
8.1723619754
 20
4.0301567224
 30
0.0
 11
8.1723619754
 21
4.0442698868
 31
0.0
  0
LINE
  5
360
330
1F
100
AcDbEntity
  8
0
  6
Continuous
 62
     7
370
     0
100
AcDbLine
 10
8.1723619754
 20
5.0240435581
 30
0.0
 11
8.1723619754
 21
5.0381567224
 31
0.0
  0
LINE
  5
361
330
1F
100
AcDbEntity
  8
0
  6
Continuous
 62
     7
370
     0
100
AcDbLine
 10
7.8160071654
 20
5.0381567224
 30
0.0
 11
7.707217276
 21
5.0381567224
 31
0.0
  0
LINE
  5
362
330
1F
100
AcDbEntity
  8
0
  6
Continuous
 62
     7
370
     0
100
AcDbLine
 10
7.707217276
 20
4.0301567224
 30
0.0
 11
7.8160071654
 21
4.0301567224
 31
0.0
  0
LINE
  5
363
330
1F
100
AcDbEntity
  8
0
  6
Continuous
 62
     7
370
     0
100
AcDbLine
 10
7.8160071654
 20
5.0381567224
 30
0.0
 11
7.8160071654
 21
5.0341567224
 31
0.0
  0
LINE
  5
364
330
1F
100
AcDbEntity
  8
0
  6
Continuous
 62
     7
370
     0
100
AcDbLine
 10
7.8160071654
 20
4.0341567224
 30
0.0
 11
7.8160071654
 21
4.0301567224
 31
0.0
  0
LINE
  5
365
330
1F
100
AcDbEntity
  8
0
  6
Continuous
 62
     7
370
     0
100
AcDbLine
 10
8.1523619754
 20
4.9851567224
 30
0.0
 11
7.8360071654
 21
4.9851567224
 31
0.0
  0
LINE
  5
366
330
1F
100
AcDbEntity
  8
0
  6
Continuous
 62
     7
370
     0
100
AcDbLine
 10
7.8360071654
 20
4.0831567224
 30
0.0
 11
8.1523619754
 21
4.0831567224
 31
0.0
  0
LINE
  5
367
330
1F
100
AcDbEntity
  8
0
  6
Continuous
 62
     7
370
     0
100
AcDbLine
 10
7.8360071654
 20
4.9851567224
 30
0.0
 11
7.8360071654
 21
4.9755997157
 31
0.0
  0
LINE
  5
368
330
1F
100
AcDbEntity
  8
0
  6
Continuous
 62
     7
370
     0
100
AcDbLine
 10
7.8360071654
 20
4.0927137292
 30
0.0
 11
7.8360071654
 21
4.0831567224
 31
0.0
  0
LINE
  5
369
330
1F
100
AcDbEntity
  8
0
  6
Continuous
 62
     7
370
     0
100
AcDbLine
 10
7.6751091956
 20
3.9341567224
 30
0.0
 11
7.7012375327
 21
3.9341567224
 31
0.0
  0
LINE
  5
36A
330
1F
100
AcDbEntity
  8
0
  6
Continuous
 62
     7
370
     0
100
AcDbLine
 10
7.5304294585
 20
3.9341567224
 30
0.0
 11
7.5477995884
 21
3.9341567224
 31
0.0
  0
LINE
  5
36B
330
1F
100
AcDbEntity
  8
0
  6
Continuous
 62
     7
370
     0
100
AcDbLine
 10
7.5196199511
 20
3.9341567224
 30
0.0
 11
7.5304294585
 21
3.9341567224
 31
0.0
  0
LINE
  5
36C
330
1F
100
AcDbEntity
  8
0
  6
Continuous
 62
     7
370
     0
100
AcDbLine
 10
7.4807379001
 20
3.9341567224
 30
0.0
 11
7.5196199511
 21
3.9341567224
 31
0.0
  0
LINE
  5
36D
330
1F
100
AcDbEntity
  8
0
  6
Continuous
 62
     7
370
     0
100
AcDbLine
 10
7.8160071654
 20
4.0091567224
 30
0.0
 11
7.8160071654
 21
4.0301567224
 31
0.0
  0
LINE
  5
36E
330
1F
100
AcDbEntity
  8
0
  6
Continuous
 62
     7
370
     0
100
AcDbLine
 10
7.8360071654
 20
4.0091567224
 30
0.0
 11
7.8360071654
 21
4.0831567224
 31
0.0
  0
LINE
  5
36F
330
1F
100
AcDbEntity
  8
0
  6
Continuous
 62
     7
370
     0
100
AcDbLine
 10
8.1523619754
 20
4.0091567224
 30
0.0
 11
8.1523619754
 21
4.0831567224
 31
0.0
  0
LINE
  5
370
330
1F
100
AcDbEntity
  8
0
  6
Continuous
 62
     7
370
     0
100
AcDbLine
 10
8.1723619754
 20
4.0301567224
 30
0.0
 11
8.1723619754
 21
4.0091567224
 31
0.0
  0
LINE
  5
371
330
1F
100
AcDbEntity
  8
0
  6
Continuous
 62
     7
370
     0
100
AcDbLine
 10
7.4060625754
 20
3.9441567224
 30
0.0
 11
7.4060625754
 21
4.0181567224
 31
0.0
  0
LINE
  5
372
330
1F
100
AcDbEntity
  8
0
  6
Continuous
 62
     7
370
     0
100
AcDbLine
 10
8.7135489154
 20
4.0181567224
 30
0.0
 11
8.7135489154
 21
3.9441567224
 31
0.0
  0
LINE
  5
373
330
1F
100
AcDbEntity
  8
0
  6
Continuous
 62
     7
370
     0
100
AcDbLine
 10
7.4968376748
 20
5.1341567224
 30
0.0
 11
7.4796338227
 21
5.1341567224
 31
0.0
  0
LINE
  5
374
330
1F
100
AcDbEntity
  8
0
  6
Continuous
 62
     7
370
     0
100
AcDbLine
 10
7.544627502
 20
5.1341567224
 30
0.0
 11
7.4968376748
 21
5.1341567224
 31
0.0
  0
LINE
  5
375
330
1F
100
AcDbEntity
  8
0
  6
Continuous
 62
     7
370
     0
100
AcDbLine
 10
7.5621145477
 20
5.1341567224
 30
0.0
 11
7.544627502
 21
5.1341567224
 31
0.0
  0
LINE
  5
376
330
1F
100
AcDbEntity
  8
0
  6
Continuous
 62
     7
370
     0
100
AcDbLine
 10
7.7213137561
 20
5.1341567224
 30
0.0
 11
7.6788384119
 21
5.1341567224
 31
0.0
  0
LINE
  5
377
330
1F
100
AcDbEntity
  8
0
  6
Continuous
 62
     7
370
     0
100
AcDbLine
 10
8.6088782498
 20
5.1341567224
 30
0.0
 11
8.5765688609
 21
5.1341567224
 31
0.0
  0
LINE
  5
378
330
1F
100
AcDbEntity
  8
0
  6
Continuous
 62
     7
370
     0
100
AcDbLine
 10
7.8160071654
 20
5.0381567224
 30
0.0
 11
7.8160071654
 21
5.0591567224
 31
0.0
  0
LINE
  5
379
330
1F
100
AcDbEntity
  8
0
  6
Continuous
 62
     7
370
     0
100
AcDbLine
 10
7.8360071654
 20
4.9851567224
 30
0.0
 11
7.8360071654
 21
5.0591567224
 31
0.0
  0
LINE
  5
37A
330
1F
100
AcDbEntity
  8
0
  6
Continuous
 62
     7
370
     0
100
AcDbLine
 10
8.1523619754
 20
4.9851567224
 30
0.0
 11
8.1523619754
 21
5.0591567224
 31
0.0
  0
LINE
  5
37B
330
1F
100
AcDbEntity
  8
0
  6
Continuous
 62
     7
370
     0
100
AcDbLine
 10
8.1723619754
 20
5.0591567224
 30
0.0
 11
8.1723619754
 21
5.0381567224
 31
0.0
  0
LINE
  5
37C
330
1F
100
AcDbEntity
  8
0
  6
Continuous
 62
     7
370
     0
100
AcDbLine
 10
7.4060625754
 20
5.0501567224
 30
0.0
 11
7.4060625754
 21
5.1241567224
 31
0.0
  0
LINE
  5
37D
330
1F
100
AcDbEntity
  8
0
  6
Continuous
 62
     7
370
     0
100
AcDbLine
 10
8.7135489154
 20
5.1241567224
 30
0.0
 11
8.7135489154
 21
5.0501567224
 31
0.0
  0
LINE
  5
37E
330
1F
100
AcDbEntity
  8
0
  6
Continuous
 62
     7
370
     0
100
AcDbLine
 10
8.4958694268
 20
4.0166567224
 30
0.0
 11
8.5485489187
 21
4.0166567224
 31
0.0
  0
LINE
  5
37F
330
1F
100
AcDbEntity
  8
0
  6
Continuous
 62
     7
370
     0
100
AcDbLine
 10
8.5485489187
 20
5.0516567224
 30
0.0
 11
8.4958694268
 21
5.0516567224
 31
0.0
  0
LINE
  5
380
330
1F
100
AcDbEntity
  8
0
  6
Continuous
 62
     7
370
     0
100
AcDbLine
 10
8.4785489187
 20
5.0416567224
 30
0.0
 11
8.4958694268
 21
5.0516567224
 31
0.0
  0
LINE
  5
381
330
1F
100
AcDbEntity
  8
0
  6
Continuous
 62
     7
370
     0
100
AcDbLine
 10
8.4958694268
 20
4.0166567224
 30
0.0
 11
8.4785489187
 21
4.0266567224
 31
0.0
  0
LINE
  5
382
330
1F
100
AcDbEntity
  8
0
  6
Continuous
 62
     7
370
     0
100
AcDbLine
 10
8.5585489187
 20
4.0852488019
 30
0.0
 11
8.5335489187
 21
4.0852488019
 31
0.0
  0
LINE
  5
383
330
1F
100
AcDbEntity
  8
0
  6
Continuous
 62
     7
370
     0
100
AcDbLine
 10
8.5335489187
 20
4.0844539484
 30
0.0
 11
8.5335489187
 21
4.0852488019
 31
0.0
  0
LINE
  5
384
330
1F
100
AcDbEntity
  8
0
  6
Continuous
 62
     7
370
     0
100
AcDbLine
 10
8.5585489187
 20
4.0844539484
 30
0.0
 11
8.5335489187
 21
4.0844539484
 31
0.0
  0
LINE
  5
385
330
1F
100
AcDbEntity
  8
0
  6
Continuous
 62
     7
370
     0
100
AcDbLine
 10
8.5585489187
 20
4.0841567224
 30
0.0
 11
8.5585489187
 21
4.0844539484
 31
0.0
  0
LINE
  5
386
330
1F
100
AcDbEntity
  8
0
  6
Continuous
 62
     7
370
     0
100
AcDbLine
 10
8.4785489187
 20
4.0841567224
 30
0.0
 11
8.5585489187
 21
4.0841567224
 31
0.0
  0
LINE
  5
387
330
1F
100
AcDbEntity
  8
0
  6
Continuous
 62
     7
370
     0
100
AcDbLine
 10
8.5585489187
 20
4.9841567224
 30
0.0
 11
8.4785489187
 21
4.9841567224
 31
0.0
  0
LINE
  5
388
330
1F
100
AcDbEntity
  8
0
  6
Continuous
 62
     7
370
     0
100
AcDbLine
 10
8.5585489187
 20
4.0852488019
 30
0.0
 11
8.5585489187
 21
4.9841567224
 31
0.0
  0
LINE
  5
389
330
1F
100
AcDbEntity
  8
0
  6
Continuous
 62
     7
370
     0
100
AcDbLine
 10
8.5485489187
 20
5.0516567224
 30
0.0
 11
8.5585489187
 21
5.0343362144
 31
0.0
  0
LINE
  5
38A
330
1F
100
AcDbEntity
  8
0
  6
Continuous
 62
     7
370
     0
100
AcDbLine
 10
8.5585489187
 20
5.0343362144
 30
0.0
 11
8.5585489187
 21
4.9841567224
 31
0.0
  0
LINE
  5
38B
330
1F
100
AcDbEntity
  8
0
  6
Continuous
 62
     7
370
     0
100
AcDbLine
 10
8.4785489187
 20
5.0416567224
 30
0.0
 11
8.4785489187
 21
4.9841567224
 31
0.0
  0
LINE
  5
38C
330
1F
100
AcDbEntity
  8
0
  6
Continuous
 62
     7
370
     0
100
AcDbLine
 10
8.5585489187
 20
4.0841567224
 30
0.0
 11
8.5585489187
 21
4.0339772305
 31
0.0
  0
LINE
  5
38D
330
1F
100
AcDbEntity
  8
0
  6
Continuous
 62
     7
370
     0
100
AcDbLine
 10
8.5585489187
 20
4.0339772305
 30
0.0
 11
8.5485489187
 21
4.0166567224
 31
0.0
  0
LINE
  5
38E
330
1F
100
AcDbEntity
  8
0
  6
Continuous
 62
     7
370
     0
100
AcDbLine
 10
8.4785489187
 20
4.0841567224
 30
0.0
 11
8.4785489187
 21
4.0266567224
 31
0.0
  0
LINE
  5
38F
330
1F
100
AcDbEntity
  8
0
  6
Continuous
 62
     7
370
     0
100
AcDbLine
 10
8.5585489187
 20
4.0844539484
 30
0.0
 11
8.5585489187
 21
4.0852488019
 31
0.0
  0
LINE
  5
390
330
1F
100
AcDbEntity
  8
0
  6
Continuous
 62
     7
370
     0
100
AcDbLine
 10
7.6410626688
 20
4.0266567224
 30
0.0
 11
7.6237421607
 21
4.0166567224
 31
0.0
  0
LINE
  5
391
330
1F
100
AcDbEntity
  8
0
  6
Continuous
 62
     7
370
     0
100
AcDbLine
 10
7.6237421607
 20
5.0516567224
 30
0.0
 11
7.6410626688
 21
5.0416567224
 31
0.0
  0
LINE
  5
392
330
1F
100
AcDbEntity
  8
0
  6
Continuous
 62
     7
370
     0
100
AcDbLine
 10
7.6237421607
 20
5.0516567224
 30
0.0
 11
7.5710626688
 21
5.0516567224
 31
0.0
  0
LINE
  5
393
330
1F
100
AcDbEntity
  8
0
  6
Continuous
 62
     7
370
     0
100
AcDbLine
 10
7.5710626688
 20
4.0166567224
 30
0.0
 11
7.6237421607
 21
4.0166567224
 31
0.0
  0
LINE
  5
394
330
1F
100
AcDbEntity
  8
0
  6
Continuous
 62
     7
370
     0
100
AcDbLine
 10
7.5610626688
 20
4.0848955793
 30
0.0
 11
7.5860626688
 21
4.0848955793
 31
0.0
  0
LINE
  5
395
330
1F
100
AcDbEntity
  8
0
  6
Continuous
 62
     7
370
     0
100
AcDbLine
 10
7.5860626688
 20
4.0860042644
 30
0.0
 11
7.5860626688
 21
4.0848955793
 31
0.0
  0
LINE
  5
396
330
1F
100
AcDbEntity
  8
0
  6
Continuous
 62
     7
370
     0
100
AcDbLine
 10
7.5610626688
 20
4.0860042644
 30
0.0
 11
7.5860626688
 21
4.0860042644
 31
0.0
  0
LINE
  5
397
330
1F
100
AcDbEntity
  8
0
  6
Continuous
 62
     7
370
     0
100
AcDbLine
 10
7.5610626688
 20
4.9841567224
 30
0.0
 11
7.5610626688
 21
4.0860042644
 31
0.0
  0
LINE
  5
398
330
1F
100
AcDbEntity
  8
0
  6
Continuous
 62
     7
370
     0
100
AcDbLine
 10
7.6410626688
 20
4.9841567224
 30
0.0
 11
7.5610626688
 21
4.9841567224
 31
0.0
  0
LINE
  5
399
330
1F
100
AcDbEntity
  8
0
  6
Continuous
 62
     7
370
     0
100
AcDbLine
 10
7.5610626688
 20
4.0841567224
 30
0.0
 11
7.6410626688
 21
4.0841567224
 31
0.0
  0
LINE
  5
39A
330
1F
100
AcDbEntity
  8
0
  6
Continuous
 62
     7
370
     0
100
AcDbLine
 10
7.5610626688
 20
4.0848955793
 30
0.0
 11
7.5610626688
 21
4.0841567224
 31
0.0
  0
LINE
  5
39B
330
1F
100
AcDbEntity
  8
0
  6
Continuous
 62
     7
370
     0
100
AcDbLine
 10
7.5610626688
 20
5.0343362144
 30
0.0
 11
7.5710626688
 21
5.0516567224
 31
0.0
  0
LINE
  5
39C
330
1F
100
AcDbEntity
  8
0
  6
Continuous
 62
     7
370
     0
100
AcDbLine
 10
7.5610626688
 20
4.9841567224
 30
0.0
 11
7.5610626688
 21
5.0343362144
 31
0.0
  0
LINE
  5
39D
330
1F
100
AcDbEntity
  8
0
  6
Continuous
 62
     7
370
     0
100
AcDbLine
 10
7.6410626688
 20
4.9841567224
 30
0.0
 11
7.6410626688
 21
5.0416567224
 31
0.0
  0
LINE
  5
39E
330
1F
100
AcDbEntity
  8
0
  6
Continuous
 62
     7
370
     0
100
AcDbLine
 10
7.5710626688
 20
4.0166567224
 30
0.0
 11
7.5610626688
 21
4.0339772305
 31
0.0
  0
LINE
  5
39F
330
1F
100
AcDbEntity
  8
0
  6
Continuous
 62
     7
370
     0
100
AcDbLine
 10
7.5610626688
 20
4.0339772305
 30
0.0
 11
7.5610626688
 21
4.0841567224
 31
0.0
  0
LINE
  5
3A0
330
1F
100
AcDbEntity
  8
0
  6
Continuous
 62
     7
370
     0
100
AcDbLine
 10
7.6410626688
 20
4.0266567224
 30
0.0
 11
7.6410626688
 21
4.0841567224
 31
0.0
  0
LINE
  5
3A1
330
1F
100
AcDbEntity
  8
0
  6
Continuous
 62
     7
370
     0
100
AcDbLine
 10
7.5610626688
 20
4.0848955793
 30
0.0
 11
7.5610626688
 21
4.0860042644
 31
0.0
  0
ARC
  5
3A2
330
1F
100
AcDbEntity
  8
0
  6
Continuous
 62
     7
370
     0
100
AcDbCircle
 10
7.6358943743
 20
4.5341567224
 30
0.0
 40
0.7909448818897643
100
AcDbArc
 50
320.7906836425
 51
39.2093163575
  0
LINE
  5
3A3
330
1F
100
AcDbEntity
  8
0
  6
Continuous
 62
     7
370
     0
100
AcDbLine
 10
8.1787051995
 20
4.0341567224
 30
0.0
 11
8.248751459
 21
4.0341567224
 31
0.0
  0
ARC
  5
3A4
330
1F
100
AcDbEntity
  8
0
  6
Continuous
 62
     7
370
     0
100
AcDbCircle
 10
8.9646345318
 20
4.5341567224
 30
0.0
 40
0.9314960629921263
100
AcDbArc
 50
147.5359091707
 51
212.4640908293
  0
LINE
  5
3A5
330
1F
100
AcDbEntity
  8
0
  6
Continuous
 62
     7
370
     0
100
AcDbLine
 10
8.248751459
 20
5.0341567224
 30
0.0
 11
8.1787051995
 21
5.0341567224
 31
0.0
  0
ARC
  5
3A6
330
1F
100
AcDbEntity
  8
0
  6
Continuous
 62
     7
370
     0
100
AcDbCircle
 10
6.2543983113
 20
4.5341567224
 30
0.0
 40
2.270866141732285
100
AcDbArc
 50
347.2803766009
 51
12.7196233991
  0
LINE
  5
3A7
330
1F
100
AcDbEntity
  8
0
  6
Continuous
 62
     7
370
     0
100
AcDbLine
 10
8.248751459
 20
4.0341567224
 30
0.0
 11
8.4695355607
 21
4.0341567224
 31
0.0
  0
ARC
  5
3A8
330
1F
100
AcDbEntity
  8
0
  6
Continuous
 62
     7
370
     0
100
AcDbCircle
 10
7.6358943743
 20
4.5341567224
 30
0.0
 40
0.7909448818897638
100
AcDbArc
 50
320.7906836425
 51
39.2093163575
  0
LINE
  5
3A9
330
1F
100
AcDbEntity
  8
0
  6
Continuous
 62
     7
370
     0
100
AcDbLine
 10
8.4695355607
 20
5.0341567224
 30
0.0
 11
8.248751459
 21
5.0341567224
 31
0.0
  0
ARC
  5
3AA
330
1F
100
AcDbEntity
  8
0
  6
Continuous
 62
     7
370
     0
100
AcDbCircle
 10
9.5178933153
 20
4.5341567224
 30
0.0
 40
1.799606299212595
100
AcDbArc
 50
163.8687552727
 51
196.1312447273
  0
LINE
  5
3AB
330
1F
100
AcDbEntity
  8
0
  6
Continuous
 62
     7
370
     0
100
AcDbLine
 10
7.6446830341
 20
4.0341567224
 30
0.0
 11
7.789141502
 21
4.0341567224
 31
0.0
  0
ARC
  5
3AC
330
1F
100
AcDbEntity
  8
0
  6
Continuous
 62
     7
370
     0
100
AcDbCircle
 10
12.6682870161
 20
4.5341567224
 30
0.0
 40
5.048425196850356
100
AcDbArc
 50
174.3160626373
 51
185.6839373627
  0
LINE
  5
3AD
330
1F
100
AcDbEntity
  8
0
  6
Continuous
 62
     7
370
     0
100
AcDbLine
 10
7.789141502
 20
5.0341567224
 30
0.0
 11
7.6446830341
 21
5.0341567224
 31
0.0
  0
ARC
  5
3AE
330
1F
100
AcDbEntity
  8
0
  6
Continuous
 62
     7
370
     0
100
AcDbCircle
 10
5.4052948901
 20
4.5341567224
 30
0.0
 40
2.470472440944879
100
AcDbArc
 50
348.3232197246
 51
11.6767802754
  0
LINE
  5
3AF
330
1F
100
AcDbEntity
  8
0
  6
Continuous
 62
     7
370
     0
100
AcDbLine
 10
7.789141502
 20
4.0341567224
 30
0.0
 11
7.8246406863
 21
4.0341567224
 31
0.0
  0
ARC
  5
3B0
330
1F
100
AcDbEntity
  8
0
  6
Continuous
 62
     7
370
     0
100
AcDbCircle
 10
9.5178933153
 20
4.5341567224
 30
0.0
 40
1.799606299212595
100
AcDbArc
 50
163.8687552727
 51
196.1312447273
  0
LINE
  5
3B1
330
1F
100
AcDbEntity
  8
0
  6
Continuous
 62
     7
370
     0
100
AcDbLine
 10
7.8246406863
 20
5.0341567224
 30
0.0
 11
7.789141502
 21
5.0341567224
 31
0.0
  0
DIMENSION
  5
3B2
330
1F
100
AcDbEntity
  8
0
  6
Continuous
 62
     7
370
     0
100
AcDbDimension
  2
*D8
 10
7.4060625754
 20
3.081442595
 30
0.0
 11
5.6518099173
 21
3.081442595
 31
0.0
 70
   160
 71
     1
 42
-1.0
  3
SLDDIMSTYLE1
100
AcDbAlignedDimension
 13
3.7995670242
 23
4.5341567224
 33
0.0
 14
7.4060625754
 24
3.9441567224
 34
0.0
100
AcDbRotatedDimension
  0
DIMENSION
  5
3C5
330
1F
100
AcDbEntity
  8
0
  6
Continuous
 62
     7
370
     0
100
AcDbDimension
  2
*D9
 10
7.6198618193
 20
5.401197096
 30
0.0
 11
5.6550650744
 21
5.401197096
 31
0.0
 70
   160
 71
     1
 42
-1.0
  3
SLDDIMSTYLE1
100
AcDbAlignedDimension
 13
3.7995670242
 23
4.5341567224
 33
0.0
 14
7.6198618193
 24
4.5341567224
 34
0.0
100
AcDbRotatedDimension
  0
DIMENSION
  5
3D7
330
1F
100
AcDbEntity
  8
0
  6
Continuous
 62
     7
370
     0
100
AcDbDimension
  2
*D10
 10
8.7135489154
 20
3.081442595
 30
0.0
 11
9.3100585563
 21
3.081442595
 31
0.0
 70
   160
 71
     1
 42
-1.0
  3
SLDDIMSTYLE1
100
AcDbAlignedDimension
 13
9.8225268288
 23
4.5341567224
 33
0.0
 14
8.7135489154
 24
3.9441567224
 34
0.0
100
AcDbRotatedDimension
  0
DIMENSION
  5
3E9
330
1F
100
AcDbEntity
  8
0
  6
Continuous
 62
     7
370
     0
100
AcDbDimension
  2
*D11
 10
8.5252644531
 20
5.401197096
 30
0.0
 11
9.1072497028
 21
5.401197096
 31
0.0
 70
   160
 71
     1
 42
-1.0
  3
SLDDIMSTYLE2
100
AcDbAlignedDimension
 13
9.8225268288
 23
4.5341567224
 33
0.0
 14
8.5252644531
 24
4.5341567224
 34
0.0
100
AcDbRotatedDimension
  0
DIMENSION
  5
3FC
330
1F
100
AcDbEntity
  8
0
  6
Continuous
 62
     7
370
     0
100
AcDbDimension
  2
*D12
 10
8.0331384688
 20
3.5350078071
 30
0.0
 11
8.413405433
 21
3.5350078071
 31
0.0
 70
   160
 71
     1
 42
-1.0
  3
SLDDIMSTYLE3
100
AcDbAlignedDimension
 13
7.8757673311
 23
4.5341567224
 33
0.0
 14
8.0331384688
 24
4.5341567224
 34
0.0
100
AcDbRotatedDimension
  0
DIMENSION
  5
40F
330
1F
100
AcDbEntity
  8
0
  6
Continuous
 62
     7
370
     0
100
AcDbDimension
  2
*D13
 10
8.5252644531
 20
5.7695261103
 30
0.0
 11
8.0598057454
 21
5.7695261103
 31
0.0
 70
   160
 71
     1
 42
-1.0
  3
SLDDIMSTYLE3
100
AcDbAlignedDimension
 13
7.6198618193
 23
4.5341567224
 33
0.0
 14
8.5252644531
 24
4.5341567224
 34
0.0
100
AcDbRotatedDimension
  0
DIMENSION
  5
421
330
1F
100
AcDbEntity
  8
0
  6
Continuous
 62
     7
370
     0
100
AcDbDimension
  2
*D14
 10
8.7135489154
 20
2.5901259173
 30
0.0
 11
8.0598057454
 21
2.5901259173
 31
0.0
 70
   160
 71
     1
 42
-1.0
  3
SLDDIMSTYLE1
100
AcDbAlignedDimension
 13
7.4060625754
 23
3.9441567224
 33
0.0
 14
8.7135489154
 24
3.9441567224
 34
0.0
100
AcDbRotatedDimension
  0
INSERT
  5
43A
330
1F
100
AcDbEntity
  8
0
  6
Continuous
 62
     7
370
     0
100
AcDbBlockReference
  2
SW_NOTE_5
 10
7.5202223787
 20
3.0336762294
 30
0.0
  0
INSERT
  5
441
102
{ACAD_REACTORS
330
443
330
444
102
}
330
1F
100
AcDbEntity
  8
0
  6
Continuous
 62
     7
370
     0
100
AcDbBlockReference
  2
SW_NOTE_6
 10
6.9555830938
 20
3.675138716
 30
0.0
  0
LEADER
  5
443
330
1F
100
AcDbEntity
  8
0
  6
Continuous
 62
     7
370
     0
100
AcDbLeader
  3
SLDDIMSTYLE4
 73
     2
 76
     3
 10
7.5011488393
 20
4.0281567224
 30
0.0
 10
7.2055830938
 20
3.675138716
 30
0.0
 10
6.9555830938
 20
3.675138716
 30
0.0
340
441
  0
LEADER
  5
444
330
1F
100
AcDbEntity
  8
0
  6
Continuous
 62
     7
370
     0
100
AcDbLeader
  3
SLDDIMSTYLE4
 73
     2
 76
     3
 10
8.6688647022
 20
4.0281567224
 30
0.0
 10
7.2055830938
 20
3.675138716
 30
0.0
 10
6.9555830938
 20
3.675138716
 30
0.0
340
441
  0
INSERT
  5
44A
330
1F
100
AcDbEntity
  8
0
  6
Continuous
 62
     7
370
     0
100
AcDbBlockReference
  2
SW_NOTE_7
 10
9.1657501838
 20
4.9441057304
 30
0.0
  0
LEADER
  5
44B
330
1F
100
AcDbEntity
  8
0
  6
Continuous
 62
     7
370
     0
100
AcDbLeader
  3
SLDDIMSTYLE4
 76
     2
 10
8.3311788631
 20
4.9112154525
 30
0.0
 10
9.1657501838
 20
4.9441057304
 30
0.0
  0
INSERT
  5
451
102
{ACAD_REACTORS
330
452
102
}
330
1F
100
AcDbEntity
  8
0
  6
Continuous
 62
     7
370
     0
100
AcDbBlockReference
  2
SW_NOTE_8
 10
6.9098516857
 20
5.0744104233
 30
0.0
  0
LEADER
  5
452
330
1F
100
AcDbEntity
  8
0
  6
Continuous
 62
     7
370
     0
100
AcDbLeader
  3
SLDDIMSTYLE4
 73
     2
 76
     2
 10
7.760543752
 20
4.9218490544
 30
0.0
 10
6.9098516857
 20
5.0744104233
 30
0.0
340
451
  0
INSERT
  5
458
330
1F
100
AcDbEntity
  8
0
  6
Continuous
 62
     7
370
     0
100
AcDbBlockReference
  2
SW_NOTE_9
 10
9.3684342214
 20
3.5901178879
 30
0.0
  0
LEADER
  5
459
330
1F
100
AcDbEntity
  8
0
  6
Continuous
 62
     7
370
     0
100
AcDbLeader
  3
SLDDIMSTYLE4
 76
     2
 10
8.7135489154
 20
3.9441567224
 30
0.0
 10
9.3684342214
 20
3.5901178879
 30
0.0
  0
INSERT
  5
45F
330
1F
100
AcDbEntity
  8
0
  6
Continuous
 62
     7
370
     0
100
AcDbBlockReference
  2
SW_NOTE_10
 10
9.338506287
 20
4.0965387611
 30
0.0
  0
LEADER
  5
460
330
1F
100
AcDbEntity
  8
0
  6
Continuous
 62
     7
370
     0
100
AcDbLeader
  3
SLDDIMSTYLE4
 76
     2
 10
8.5585489187
 20
4.0841567224
 30
0.0
 10
9.338506287
 20
4.0965387611
 30
0.0
  0
INSERT
  5
466
330
1F
100
AcDbEntity
  8
0
  6
Continuous
 62
     7
370
     0
100
AcDbBlockReference
  2
SW_NOTE_11
 10
7.2591933354
 20
4.0497720943
 30
0.0
  0
LINE
  5
467
330
1F
100
AcDbEntity
  8
0
  6
Continuous
 62
     7
370
     0
100
AcDbLine
 10
7.2591933354
 20
4.0497720943
 30
0.0
 11
7.5610626688
 21
4.0841567224
 31
0.0
  0
SOLID
  5
468
330
1F
100
AcDbEntity
  8
0
  6
Continuous
 62
     7
370
     0
100
AcDbTrace
 10
7.5610626688
 20
4.0841567224
 30
0.0
 11
7.4031224174
 21
4.0923345575
 31
0.0
 12
7.4090074574
 22
4.0406686471
 32
0.0
 13
7.4090074574
 23
4.0406686471
 33
0.0
  0
HATCH
  5
469
330
1F
100
AcDbEntity
  8
0
  6
Continuous
 62
     7
370
     0
100
AcDbHatch
 10
0.0
 20
0.0
 30
0.0
210
0.0
220
0.0
230
1.0
  2
ANSI31
 70
     0
 71
     0
 91
        1
 92
        0
 93
       28
 72
     1
 10
8.696228407343911
 20
5.040156722445783
 11
8.713548915419599
 21
5.050156722445784
 72
     1
 10
8.713548915419599
 20
5.050156722445784
 11
8.713548915419599
 21
5.124156722445783
 72
     1
 10
8.713548915419599
 20
5.124156722445783
 11
8.7035489154196
 21
5.134156722445782
 72
     1
 10
8.7035489154196
 20
5.134156722445782
 11
8.608878249829457
 21
5.134156722445782
 72
     1
 10
8.608878249829457
 20
5.134156722445782
 11
8.57656886089709
 21
5.134156722445782
 72
     1
 10
8.57656886089709
 20
5.134156722445782
 11
7.721313756093054
 21
5.134156722445782
 72
     1
 10
7.721313756093054
 20
5.134156722445782
 11
7.67883841187222
 21
5.134156722445782
 72
     1
 10
7.67883841187222
 20
5.134156722445782
 11
7.562114547704576
 21
5.134156722445782
 72
     1
 10
7.562114547704576
 20
5.134156722445782
 11
7.544627501989274
 21
5.134156722445782
 72
     1
 10
7.544627501989274
 20
5.134156722445782
 11
7.496837674758709
 21
5.134156722445782
 72
     1
 10
7.496837674758709
 20
5.134156722445782
 11
7.47963382274824
 21
5.134156722445782
 72
     1
 10
7.47963382274824
 20
5.134156722445782
 11
7.4160625754196
 21
5.134156722445782
 72
     1
 10
7.4160625754196
 20
5.134156722445782
 11
7.406062575419599
 21
5.124156722445782
 72
     1
 10
7.406062575419599
 20
5.124156722445782
 11
7.406062575419599
 21
5.050156722445782
 72
     1
 10
7.406062575419599
 20
5.050156722445782
 11
7.423383083495288
 21
5.040156722445782
 72
     1
 10
7.423383083495288
 20
5.040156722445782
 11
7.706062575419599
 21
5.040156722445783
 72
     1
 10
7.706062575419599
 20
5.040156722445783
 11
7.707217275957978
 21
5.038156722445782
 72
     1
 10
7.707217275957978
 20
5.038156722445782
 11
7.8160071654196
 21
5.038156722445782
 72
     1
 10
7.8160071654196
 20
5.038156722445782
 11
7.8160071654196
 21
5.059156722445784
 72
     1
 10
7.8160071654196
 20
5.059156722445784
 11
7.8360071654196
 21
5.059156722445783
 72
     1
 10
7.8360071654196
 20
5.059156722445783
 11
7.8360071654196
 21
4.985156722445783
 72
     1
 10
7.8360071654196
 20
4.985156722445783
 11
8.1523619754196
 21
4.985156722445783
 72
     1
 10
8.1523619754196
 20
4.985156722445783
 11
8.1523619754196
 21
5.059156722445784
 72
     1
 10
8.1523619754196
 20
5.059156722445784
 11
8.1723619754196
 21
5.059156722445783
 72
     1
 10
8.1723619754196
 20
5.059156722445783
 11
8.1723619754196
 21
5.038156722445782
 72
     1
 10
8.1723619754196
 20
5.038156722445782
 11
8.41239421488122
 21
5.038156722445782
 72
     1
 10
8.41239421488122
 20
5.038156722445782
 11
8.4135489154196
 21
5.040156722445784
 72
     1
 10
8.4135489154196
 20
5.040156722445784
 11
8.696228407343911
 21
5.040156722445783
 97
        0
 75
     0
 76
     1
 52
0.0
 41
1.0
 77
     0
 78
     1
 53
45.0
 43
0.0
 44
0.0
 45
-0.0883883476483184
 46
0.0883883476483184
 79
     0
 98
        1
 10
0.0
 20
0.0
  0
HATCH
  5
46A
330
1F
100
AcDbEntity
  8
0
  6
Continuous
 62
     7
370
     0
100
AcDbHatch
 10
0.0
 20
0.0
 30
0.0
210
0.0
220
0.0
230
1.0
  2
ANSI31
 70
     0
 71
     0
 91
        1
 92
        0
 93
       26
 72
     1
 10
8.713548915419599
 20
4.018156722445781
 11
8.696228407343911
 21
4.028156722445782
 72
     1
 10
8.696228407343911
 20
4.028156722445782
 11
8.4135489154196
 21
4.028156722445781
 72
     1
 10
8.4135489154196
 20
4.028156722445781
 11
8.41239421488122
 21
4.030156722445781
 72
     1
 10
8.41239421488122
 20
4.030156722445781
 11
8.1723619754196
 21
4.030156722445781
 72
     1
 10
8.1723619754196
 20
4.030156722445781
 11
8.1723619754196
 21
4.009156722445782
 72
     1
 10
8.1723619754196
 20
4.009156722445782
 11
8.1523619754196
 21
4.00915672244578
 72
     1
 10
8.1523619754196
 20
4.00915672244578
 11
8.1523619754196
 21
4.083156722445782
 72
     1
 10
8.1523619754196
 20
4.083156722445782
 11
7.8360071654196
 21
4.083156722445782
 72
     1
 10
7.8360071654196
 20
4.083156722445782
 11
7.8360071654196
 21
4.009156722445782
 72
     1
 10
7.8360071654196
 20
4.009156722445782
 11
7.8160071654196
 21
4.00915672244578
 72
     1
 10
7.8160071654196
 20
4.00915672244578
 11
7.8160071654196
 21
4.030156722445781
 72
     1
 10
7.8160071654196
 20
4.030156722445781
 11
7.707217275957978
 21
4.030156722445781
 72
     1
 10
7.707217275957978
 20
4.030156722445781
 11
7.706062575419599
 21
4.028156722445782
 72
     1
 10
7.706062575419599
 20
4.028156722445782
 11
7.423383083495288
 21
4.028156722445782
 72
     1
 10
7.423383083495288
 20
4.028156722445782
 11
7.406062575419599
 21
4.018156722445782
 72
     1
 10
7.406062575419599
 20
4.018156722445782
 11
7.406062575419599
 21
3.944156722445782
 72
     1
 10
7.406062575419599
 20
3.944156722445782
 11
7.4160625754196
 21
3.934156722445781
 72
     1
 10
7.4160625754196
 20
3.934156722445781
 11
7.480737900094923
 21
3.934156722445781
 72
     1
 10
7.480737900094923
 20
3.934156722445781
 11
7.519619951052581
 21
3.934156722445781
 72
     1
 10
7.519619951052581
 20
3.934156722445781
 11
7.530429458536481
 21
3.934156722445781
 72
     1
 10
7.530429458536481
 20
3.934156722445781
 11
7.547799588406613
 21
3.934156722445781
 72
     1
 10
7.547799588406613
 20
3.934156722445781
 11
7.675109195629137
 21
3.934156722445781
 72
     1
 10
7.675109195629137
 20
3.934156722445781
 11
7.701237532712225
 21
3.934156722445781
 72
     1
 10
7.701237532712225
 20
3.934156722445781
 11
8.7035489154196
 21
3.934156722445781
 72
     1
 10
8.7035489154196
 20
3.934156722445781
 11
8.713548915419599
 21
3.944156722445781
 72
     1
 10
8.713548915419599
 20
3.944156722445781
 11
8.713548915419599
 21
4.018156722445781
 97
        0
 75
     0
 76
     1
 52
0.0
 41
1.0
 77
     0
 78
     1
 53
45.0
 43
0.0
 44
0.0
 45
-0.0883883476483184
 46
0.0883883476483184
 79
     0
 98
        1
 10
0.0
 20
0.0
  0
HATCH
  5
46B
330
1F
100
AcDbEntity
  8
0
  6
Continuous
 62
     7
370
     0
100
AcDbHatch
 10
0.0
 20
0.0
 30
0.0
210
0.0
220
0.0
230
1.0
  2
ANSI31
 70
     0
 71
     0
 91
        1
 92
        0
 93
        6
 72
     1
 10
8.558548918713402
 20
4.084156722445782
 11
8.478548918713404
 21
4.084156722445782
 72
     1
 10
8.478548918713404
 20
4.084156722445782
 11
8.478548918713404
 21
4.026656722445782
 72
     1
 10
8.478548918713404
 20
4.026656722445782
 11
8.495869426789092
 21
4.016656722445782
 72
     1
 10
8.495869426789092
 20
4.016656722445782
 11
8.548548918713404
 21
4.016656722445782
 72
     1
 10
8.548548918713404
 20
4.016656722445782
 11
8.558548918713402
 21
4.033977230521471
 72
     1
 10
8.558548918713402
 20
4.033977230521471
 11
8.558548918713402
 21
4.084156722445782
 97
        0
 75
     0
 76
     1
 52
0.0
 41
1.0
 77
     0
 78
     1
 53
45.0
 43
0.0
 44
0.0
 45
-0.0883883476483184
 46
0.0883883476483184
 79
     0
 98
        1
 10
0.0
 20
0.0
  0
HATCH
  5
46C
330
1F
100
AcDbEntity
  8
0
  6
Continuous
 62
     7
370
     0
100
AcDbHatch
 10
0.0
 20
0.0
 30
0.0
210
0.0
220
0.0
230
1.0
  2
ANSI31
 70
     0
 71
     0
 91
        1
 92
        0
 93
        6
 72
     1
 10
8.558548918713402
 20
4.984156722445783
 11
8.558548918713402
 21
5.034336214370095
 72
     1
 10
8.558548918713402
 20
5.034336214370095
 11
8.548548918713404
 21
5.051656722445783
 72
     1
 10
8.548548918713404
 20
5.051656722445783
 11
8.495869426789092
 21
5.051656722445783
 72
     1
 10
8.495869426789092
 20
5.051656722445783
 11
8.478548918713404
 21
5.041656722445783
 72
     1
 10
8.478548918713404
 20
5.041656722445783
 11
8.478548918713404
 21
4.984156722445783
 72
     1
 10
8.478548918713404
 20
4.984156722445783
 11
8.558548918713402
 21
4.984156722445783
 97
        0
 75
     0
 76
     1
 52
0.0
 41
1.0
 77
     0
 78
     1
 53
45.0
 43
0.0
 44
0.0
 45
-0.0883883476483184
 46
0.0883883476483184
 79
     0
 98
        1
 10
0.0
 20
0.0
  0
HATCH
  5
46D
330
1F
100
AcDbEntity
  8
0
  6
Continuous
 62
     7
370
     0
100
AcDbHatch
 10
0.0
 20
0.0
 30
0.0
210
0.0
220
0.0
230
1.0
  2
ANSI31
 70
     0
 71
     0
 91
        1
 92
        0
 93
        6
 72
     1
 10
7.561062668762656
 20
4.984156722445783
 11
7.641062668762656
 21
4.984156722445783
 72
     1
 10
7.641062668762656
 20
4.984156722445783
 11
7.641062668762656
 21
5.041656722445783
 72
     1
 10
7.641062668762656
 20
5.041656722445783
 11
7.623742160686967
 21
5.051656722445782
 72
     1
 10
7.623742160686967
 20
5.051656722445782
 11
7.571062668762656
 21
5.051656722445782
 72
     1
 10
7.571062668762656
 20
5.051656722445782
 11
7.561062668762656
 21
5.034336214370094
 72
     1
 10
7.561062668762656
 20
5.034336214370094
 11
7.561062668762656
 21
4.984156722445783
 97
        0
 75
     0
 76
     1
 52
0.0
 41
1.0
 77
     0
 78
     1
 53
45.0
 43
0.0
 44
0.0
 45
-0.0883883476483184
 46
0.0883883476483184
 79
     0
 98
        1
 10
0.0
 20
0.0
  0
HATCH
  5
46E
330
1F
100
AcDbEntity
  8
0
  6
Continuous
 62
     7
370
     0
100
AcDbHatch
 10
0.0
 20
0.0
 30
0.0
210
0.0
220
0.0
230
1.0
  2
ANSI31
 70
     0
 71
     0
 91
        1
 92
        0
 93
        6
 72
     1
 10
7.561062668762656
 20
4.084156722445782
 11
7.561062668762656
 21
4.033977230521471
 72
     1
 10
7.561062668762656
 20
4.033977230521471
 11
7.571062668762656
 21
4.016656722445783
 72
     1
 10
7.571062668762656
 20
4.016656722445783
 11
7.623742160686967
 21
4.016656722445783
 72
     1
 10
7.623742160686967
 20
4.016656722445783
 11
7.641062668762656
 21
4.026656722445782
 72
     1
 10
7.641062668762656
 20
4.026656722445782
 11
7.641062668762656
 21
4.084156722445782
 72
     1
 10
7.641062668762656
 20
4.084156722445782
 11
7.561062668762656
 21
4.084156722445782
 97
        0
 75
     0
 76
     1
 52
0.0
 41
1.0
 77
     0
 78
     1
 53
45.0
 43
0.0
 44
0.0
 45
-0.0883883476483184
 46
0.0883883476483184
 79
     0
 98
        1
 10
0.0
 20
0.0
  0
HATCH
  5
46F
330
1F
100
AcDbEntity
  8
0
  6
Continuous
 62
     7
370
     0
100
AcDbHatch
 10
0.0
 20
0.0
 30
0.0
210
0.0
220
0.0
230
1.0
  2
ANSI31
 70
     0
 71
     0
 91
        1
 92
        0
 93
        4
 72
     1
 10
7.824640686322534
 20
5.03415672244578
 11
7.789141501993315
 21
5.034156722445783
 72
     2
 10
9.517893315344686
 20
4.534156722445783
 40
1.799606299212595
 50
163.8687552727385
 51
196.1312447272623
 73
     1
 72
     1
 10
7.789141501993315
 20
4.034156722445783
 11
7.824640686322534
 21
4.034156722445786
 72
     2
 10
5.405294890147842
 20
4.534156722445783
 40
2.470472440944878
 50
348.3232197245636
 51
371.676780275438
 73
     1
 97
        0
 75
     0
 76
     1
 52
0.0
 41
1.0
 77
     0
 78
     1
 53
45.0
 43
0.0
 44
0.0
 45
-0.0883883476483184
 46
0.0883883476483184
 79
     0
 98
        1
 10
0.0
 20
0.0
  0
HATCH
  5
470
330
1F
100
AcDbEntity
  8
0
  6
Continuous
 62
     7
370
     0
100
AcDbHatch
 10
0.0
 20
0.0
 30
0.0
210
0.0
220
0.0
230
1.0
  2
ANSI31
 70
     0
 71
     0
 91
        1
 92
        0
 93
        4
 72
     1
 10
7.789141501993315
 20
5.034156722445784
 11
7.644683034109431
 21
5.034156722445782
 72
     2
 10
12.66828701613205
 20
4.534156722445783
 40
5.048425196850355
 50
174.316062637307
 51
185.6839373626938
 73
     1
 72
     1
 10
7.644683034109431
 20
4.034156722445783
 11
7.789141501993315
 21
4.034156722445781
 72
     2
 10
9.517893315344686
 20
4.534156722445783
 40
1.799606299212595
 50
163.8687552727384
 51
196.1312447272624
 73
     0
 97
        0
 75
     0
 76
     1
 52
0.0
 41
1.0
 77
     0
 78
     1
 53
45.0
 43
0.0
 44
0.0
 45
-0.0883883476483184
 46
0.0883883476483184
 79
     0
 98
        1
 10
0.0
 20
0.0
  0
HATCH
  5
471
330
1F
100
AcDbEntity
  8
0
  6
Continuous
 62
     7
370
     0
100
AcDbHatch
 10
0.0
 20
0.0
 30
0.0
210
0.0
220
0.0
230
1.0
  2
ANSI31
 70
     0
 71
     0
 91
        1
 92
        0
 93
        4
 72
     1
 10
8.469535560743063
 20
5.034156722445782
 11
8.248751458973443
 21
5.034156722445783
 72
     2
 10
7.635894374338197
 20
4.534156722445783
 40
0.7909448818897639
 50
320.7906836425316
 51
399.20931635747
 73
     0
 72
     1
 10
8.248751458973443
 20
4.034156722445783
 11
8.469535560743063
 21
4.034156722445783
 72
     2
 10
6.254398311346071
 20
4.534156722445783
 40
2.270866141732284
 50
347.2803766008738
 51
372.7196233991278
 73
     1
 97
        0
 75
     0
 76
     1
 52
0.0
 41
1.0
 77
     0
 78
     1
 53
45.0
 43
0.0
 44
0.0
 45
-0.0883883476483184
 46
0.0883883476483184
 79
     0
 98
        1
 10
0.0
 20
0.0
  0
HATCH
  5
472
330
1F
100
AcDbEntity
  8
0
  6
Continuous
 62
     7
370
     0
100
AcDbHatch
 10
0.0
 20
0.0
 30
0.0
210
0.0
220
0.0
230
1.0
  2
ANSI31
 70
     0
 71
     0
 91
        1
 92
        0
 93
        4
 72
     1
 10
8.248751458973443
 20
5.034156722445783
 11
8.178705199518317
 21
5.034156722445783
 72
     2
 10
8.964634531818513
 20
4.534156722445783
 40
0.9314960629921262
 50
147.5359091707224
 51
212.4640908292783
 73
     1
 72
     1
 10
8.178705199518317
 20
4.034156722445783
 11
8.248751458973443
 21
4.034156722445783
 72
     2
 10
7.635894374338197
 20
4.534156722445783
 40
0.7909448818897639
 50
320.7906836425316
 51
399.2093163574701
 73
     1
 97
        0
 75
     0
 76
     1
 52
0.0
 41
1.0
 77
     0
 78
     1
 53
45.0
 43
0.0
 44
0.0
 45
-0.0883883476483184
 46
0.0883883476483184
 79
     0
 98
        1
 10
0.0
 20
0.0
  0
ENDSEC
  0
SECTION
  2
OBJECTS
  0
DICTIONARY
  5
C
330
0
100
AcDbDictionary
281
     1
  3
ACAD_GROUP
350
D
  3
ACAD_LAYOUT
350
1A
  3
ACAD_MLINESTYLE
350
17
  3
ACAD_PLOTSETTINGS
350
19
  3
ACAD_PLOTSTYLENAME
350
E
  0
DICTIONARY
  5
D
102
{ACAD_REACTORS
330
C
102
}
330
C
100
AcDbDictionary
281
     1
  0
DICTIONARY
  5
1A
102
{ACAD_REACTORS
330
C
102
}
330
C
100
AcDbDictionary
281
     1
  3
Layout1
350
1E
  3
Layout2
350
26
  3
Model
350
22
  0
DICTIONARY
  5
17
102
{ACAD_REACTORS
330
C
102
}
330
C
100
AcDbDictionary
281
     1
  3
Standard
350
18
  0
DICTIONARY
  5
19
102
{ACAD_REACTORS
330
C
102
}
330
C
100
AcDbDictionary
281
     1
  0
ACDBDICTIONARYWDFLT
  5
E
102
{ACAD_REACTORS
330
C
102
}
330
C
100
AcDbDictionary
281
     1
  3
Normal
350
F
100
AcDbDictionaryWithDefault
340
F
  0
LAYOUT
  5
1E
102
{ACAD_REACTORS
330
1A
102
}
330
1A
100
AcDbPlotSettings
  1

  2
none_device
  4

  6

 40
0.0
 41
0.0
 42
0.0
 43
0.0
 44
0.0
 45
0.0
 46
0.0
 47
0.0
 48
0.0
 49
0.0
140
0.0
141
0.0
142
1.0
143
1.0
 70
   688
 72
     0
 73
     0
 74
     5
  7

 75
    16
147
1.0
148
0.0
149
0.0
100
AcDbLayout
  1
Layout1
 70
     1
 71
     1
 10
0.0
 20
0.0
 11
12.0
 21
9.0
 12
0.0
 22
0.0
 32
0.0
 14
1.0000000000E+20
 24
1.0000000000E+20
 34
1.0000000000E+20
 15
-1.0000000000E+20
 25
-1.0000000000E+20
 35
-1.0000000000E+20
146
0.0
 13
0.0
 23
0.0
 33
0.0
 16
1.0
 26
0.0
 36
0.0
 17
0.0
 27
1.0
 37
0.0
 76
     0
330
1B
  0
LAYOUT
  5
26
102
{ACAD_REACTORS
330
1A
102
}
330
1A
100
AcDbPlotSettings
  1

  2
none_device
  4

  6

 40
0.0
 41
0.0
 42
0.0
 43
0.0
 44
0.0
 45
0.0
 46
0.0
 47
0.0
 48
0.0
 49
0.0
140
0.0
141
0.0
142
1.0
143
1.0
 70
   688
 72
     0
 73
     0
 74
     5
  7

 75
    16
147
1.0
148
0.0
149
0.0
100
AcDbLayout
  1
Layout2
 70
     1
 71
     2
 10
0.0
 20
0.0
 11
0.0
 21
0.0
 12
0.0
 22
0.0
 32
0.0
 14
0.0
 24
0.0
 34
0.0
 15
0.0
 25
0.0
 35
0.0
146
0.0
 13
0.0
 23
0.0
 33
0.0
 16
1.0
 26
0.0
 36
0.0
 17
0.0
 27
1.0
 37
0.0
 76
     0
330
23
  0
LAYOUT
  5
22
102
{ACAD_REACTORS
330
1A
102
}
330
1A
100
AcDbPlotSettings
  1

  2
none_device
  4

  6

 40
0.0
 41
0.0
 42
0.0
 43
0.0
 44
0.0
 45
0.0
 46
0.0
 47
0.0
 48
0.0
 49
0.0
140
0.0
141
0.0
142
1.0
143
1.0
 70
  1712
 72
     0
 73
     0
 74
     0
  7

 75
     0
147
1.0
148
0.0
149
0.0
100
AcDbLayout
  1
Model
 70
     1
 71
     0
 10
0.0
 20
0.0
 11
0.0
 21
0.0
 12
0.0
 22
0.0
 32
0.0
 14
0.0
 24
0.0
 34
0.0
 15
11.0
 25
8.5
 35
0.0
146
0.0
 13
0.0
 23
0.0
 33
0.0
 16
1.0
 26
0.0
 36
0.0
 17
0.0
 27
1.0
 37
0.0
 76
     0
330
1F
  0
MLINESTYLE
  5
18
102
{ACAD_REACTORS
330
17
102
}
330
17
100
AcDbMlineStyle
  2
Standard
 70
     0
  3

 62
   256
 51
90.0
 52
90.0
 71
     2
 49
0.5
 62
   256
  6
BYLAYER
 49
-0.5
 62
   256
  6
BYLAYER
  0
ACDBPLACEHOLDER
  5
F
102
{ACAD_REACTORS
330
E
102
}
330
E
  0
ENDSEC
  0
EOF
