  0
SECTION
  2
HEADER
  9
$ACADVER
  1
AC1015
  9
$ACADMAINTVER
 70
     6
  9
$DWGCODEPAGE
  3
ANSI_1252
  9
$INSBASE
 10
0.0
 20
0.0
 30
0.0
  9
$EXTMIN
 10
0.0
 20
0.0
 30
0.0
  9
$EXTMAX
 10
11.0
 20
8.5
 30
0.0
  9
$LIMMIN
 10
0.0
 20
0.0
  9
$LIMMAX
 10
11.0
 20
8.5
  9
$ORTHOMODE
 70
     0
  9
$REGENMODE
 70
     1
  9
$FILLMODE
 70
     1
  9
$QTEXTMODE
 70
     0
  9
$MIRRTEXT
 70
     1
  9
$LTSCALE
 40
1.0
  9
$ATTMODE
 70
     1
  9
$TEXTSIZE
 40
0.1111111111
  9
$TRACEWID
 40
0.05
  9
$TEXTSTYLE
  7
Standard
  9
$CLAYER
  8
0
  9
$CELTYPE
  6
ByLayer
  9
$CECOLOR
 62
   256
  9
$CELTSCALE
 40
1.0
  9
$DISPSILH
 70
     0
  9
$DIMSCALE
 40
1.0
  9
$DIMASZ
 40
0.125
  9
$DIMEXO
 40
0.05
  9
$DIMDLI
 40
0.38
  9
$DIMRND
 40
0.0
  9
$DIMDLE
 40
0.0
  9
$DIMEXE
 40
0.07
  9
$DIMTP
 40
0.0
  9
$DIMTM
 40
0.0
  9
$DIMTXT
 40
0.1111111111
  9
$DIMCEN
 40
0.09
  9
$DIMTSZ
 40
0.0
  9
$DIMTOL
 70
     0
  9
$DIMLIM
 70
     0
  9
$DIMTIH
 70
     1
  9
$DIMTOH
 70
     1
  9
$DIMSE1
 70
     0
  9
$DIMSE2
 70
     0
  9
$DIMTAD
 70
     0
  9
$DIMZIN
 70
     1
  9
$DIMBLK
  1

  9
$DIMASO
 70
     1
  9
$DIMSHO
 70
     1
  9
$DIMPOST
  1

  9
$DIMAPOST
  1

  9
$DIMALT
 70
     0
  9
$DIMALTD
 70
     2
  9
$DIMALTF
 40
25.4
  9
$DIMLFAC
 40
1.0
  9
$DIMTOFL
 70
     0
  9
$DIMTVP
 40
0.0
  9
$DIMTIX
 70
     0
  9
$DIMSOXD
 70
     0
  9
$DIMSAH
 70
     0
  9
$DIMBLK1
  1

  9
$DIMBLK2
  1

  9
$DIMSTYLE
  2
Standard
  9
$DIMCLRD
 70
     0
  9
$DIMCLRE
 70
     0
  9
$DIMCLRT
 70
     0
  9
$DIMTFAC
 40
1.0
  9
$DIMGAP
 40
0.1
  9
$DIMJUST
 70
     0
  9
$DIMSD1
 70
     0
  9
$DIMSD2
 70
     0
  9
$DIMTOLJ
 70
     1
  9
$DIMTZIN
 70
     1
  9
$DIMALTZ
 70
     0
  9
$DIMALTTZ
 70
     0
  9
$DIMUPT
 70
     0
  9
$DIMDEC
 70
     2
  9
$DIMTDEC
 70
     2
  9
$DIMALTU
 70
     2
  9
$DIMALTTD
 70
     2
  9
$DIMTXSTY
  7
Standard
  9
$DIMAUNIT
 70
     0
  9
$DIMADEC
 70
     0
  9
$DIMALTRND
 40
0.0
  9
$DIMAZIN
 70
     0
  9
$DIMDSEP
 70
    46
  9
$DIMATFIT
 70
     3
  9
$DIMFRAC
 70
     0
  9
$DIMLDRBLK
  1

  9
$DIMLUNIT
 70
     2
  9
$DIMLWD
 70
    -2
  9
$DIMLWE
 70
    -2
  9
$DIMTMOVE
 70
     0
  9
$LUNITS
 70
     2
  9
$LUPREC
 70
     2
  9
$SKETCHINC
 40
0.1
  9
$FILLETRAD
 40
0.5
  9
$AUNITS
 70
     0
  9
$AUPREC
 70
     0
  9
$MENU
  1
.
  9
$ELEVATION
 40
0.0
  9
$PELEVATION
 40
0.0
  9
$THICKNESS
 40
0.0
  9
$LIMCHECK
 70
     0
  9
$CHAMFERA
 40
0.0
  9
$CHAMFERB
 40
0.0
  9
$CHAMFERC
 40
0.0
  9
$CHAMFERD
 40
0.0
  9
$SKPOLY
 70
     0
  9
$TDCREATE
 40
2457465.431370544
  9
$TDUCREATE
 40
2457465.598037211
  9
$TDUPDATE
 40
2457465.431378669
  9
$TDUUPDATE
 40
2457465.598045336
  9
$TDINDWG
 40
0.0000000116
  9
$TDUSRTIMER
 40
0.0000000116
  9
$USRTIMER
 70
     1
  9
$ANGBASE
 50
0.0
  9
$ANGDIR
 70
     0
  9
$PDMODE
 70
     0
  9
$PDSIZE
 40
-1.0
  9
$PLINEWID
 40
0.0
  9
$SPLFRAME
 70
     0
  9
$SPLINETYPE
 70
     6
  9
$SPLINESEGS
 70
     8
  9
$HANDSEED
  5
214
  9
$SURFTAB1
 70
     6
  9
$SURFTAB2
 70
     6
  9
$SURFTYPE
 70
     6
  9
$SURFU
 70
     6
  9
$SURFV
 70
     6
  9
$UCSBASE
  2

  9
$UCSNAME
  2

  9
$UCSORG
 10
0.0
 20
0.0
 30
0.0
  9
$UCSXDIR
 10
1.0
 20
0.0
 30
0.0
  9
$UCSYDIR
 10
0.0
 20
1.0
 30
0.0
  9
$UCSORTHOREF
  2

  9
$UCSORTHOVIEW
 70
     0
  9
$UCSORGTOP
 10
0.0
 20
0.0
 30
0.0
  9
$UCSORGBOTTOM
 10
0.0
 20
0.0
 30
0.0
  9
$UCSORGLEFT
 10
0.0
 20
0.0
 30
0.0
  9
$UCSORGRIGHT
 10
0.0
 20
0.0
 30
0.0
  9
$UCSORGFRONT
 10
0.0
 20
0.0
 30
0.0
  9
$UCSORGBACK
 10
0.0
 20
0.0
 30
0.0
  9
$PUCSBASE
  2

  9
$PUCSNAME
  2

  9
$PUCSORG
 10
0.0
 20
0.0
 30
0.0
  9
$PUCSXDIR
 10
1.0
 20
0.0
 30
0.0
  9
$PUCSYDIR
 10
0.0
 20
1.0
 30
0.0
  9
$PUCSORTHOREF
  2

  9
$PUCSORTHOVIEW
 70
     0
  9
$PUCSORGTOP
 10
0.0
 20
0.0
 30
0.0
  9
$PUCSORGBOTTOM
 10
0.0
 20
0.0
 30
0.0
  9
$PUCSORGLEFT
 10
0.0
 20
0.0
 30
0.0
  9
$PUCSORGRIGHT
 10
0.0
 20
0.0
 30
0.0
  9
$PUCSORGFRONT
 10
0.0
 20
0.0
 30
0.0
  9
$PUCSORGBACK
 10
0.0
 20
0.0
 30
0.0
  9
$USERI1
 70
     0
  9
$USERI2
 70
     0
  9
$USERI3
 70
     0
  9
$USERI4
 70
     0
  9
$USERI5
 70
     0
  9
$USERR1
 40
0.0
  9
$USERR2
 40
0.0
  9
$USERR3
 40
0.0
  9
$USERR4
 40
0.0
  9
$USERR5
 40
0.0
  9
$WORLDVIEW
 70
     1
  9
$SHADEDGE
 70
     3
  9
$SHADEDIF
 70
    70
  9
$TILEMODE
 70
     1
  9
$MAXACTVP
 70
    64
  9
$PINSBASE
 10
0.0
 20
0.0
 30
0.0
  9
$PLIMCHECK
 70
     0
  9
$PEXTMIN
 10
1.0000000000E+20
 20
1.0000000000E+20
 30
1.0000000000E+20
  9
$PEXTMAX
 10
-1.0000000000E+20
 20
-1.0000000000E+20
 30
-1.0000000000E+20
  9
$PLIMMIN
 10
0.0
 20
0.0
  9
$PLIMMAX
 10
12.0
 20
9.0
  9
$UNITMODE
 70
     0
  9
$VISRETAIN
 70
     1
  9
$PLINEGEN
 70
     0
  9
$PSLTSCALE
 70
     1
  9
$TREEDEPTH
 70
  3020
  9
$CMLSTYLE
  2
Standard
  9
$CMLJUST
 70
     0
  9
$CMLSCALE
 40
1.0
  9
$PROXYGRAPHICS
 70
     1
  9
$MEASUREMENT
 70
     0
  9
$CELWEIGHT
370
    -1
  9
$ENDCAPS
280
     0
  9
$JOINSTYLE
280
     0
  9
$LWDISPLAY
290
     1
  9
$INSUNITS
 70
     1
  9
$HYPERLINKBASE
  1

  9
$STYLESHEET
  1

  9
$XEDIT
290
     1
  9
$CEPSNTYPE
380
     0
  9
$PSTYLEMODE
290
     1
  9
$FINGERPRINTGUID
  2
{045479DC-29CF-4F3C-8BAF-CB6497C6F2D7}
  9
$VERSIONGUID
  2
{FAEB1C32-E019-11D5-929B-00C0DF256EC4}
  9
$EXTNAMES
290
     1
  9
$PSVPSCALE
 40
0.0
  9
$OLESTARTUP
290
     0
  0
ENDSEC
  0
SECTION
  2
CLASSES
  0
CLASS
  1
ACDBDICTIONARYWDFLT
  2
AcDbDictionaryWithDefault
  3
ObjectDBX Classes
 90
        0
280
     0
281
     0
  0
CLASS
  1
VISUALSTYLE
  2
AcDbVisualStyle
  3
ObjectDBX Classes
 90
     4095
280
     0
281
     0
  0
CLASS
  1
MATERIAL
  2
AcDbMaterial
  3
ObjectDBX Classes
 90
     1153
280
     0
281
     0
  0
CLASS
  1
SCALE
  2
AcDbScale
  3
ObjectDBX Classes
 90
     1153
280
     0
281
     0
  0
CLASS
  1
SUN
  2
AcDbSun
  3
SCENEOE
 90
     1153
280
     0
281
     0
  0
CLASS
  1
ACDBPLACEHOLDER
  2
AcDbPlaceHolder
  3
ObjectDBX Classes
 90
        0
280
     0
281
     0
  0
CLASS
  1
LAYOUT
  2
AcDbLayout
  3
ObjectDBX Classes
 90
        0
280
     0
281
     0
  0
ENDSEC
  0
SECTION
  2
TABLES
  0
TABLE
  2
VPORT
  5
8
330
0
100
AcDbSymbolTable
 70
     1
  0
VPORT
  5
29
330
8
100
AcDbSymbolTableRecord
100
AcDbViewportTableRecord
  2
*Active
 70
     0
 10
0.0
 20
0.0
 11
1.0
 21
1.0
 12
5.5
 22
4.25
 13
0.0
 23
0.0
 14
0.5
 24
0.5
 15
0.5
 25
0.5
 16
0.0
 26
0.0
 36
1.0
 17
0.0
 27
0.0
 37
0.0
 40
8.5
 41
1.2941176471
 42
50.0
 43
0.0
 44
0.0
 50
0.0
 51
0.0
 71
     0
 72
  2000
 73
     1
 74
     3
 75
     0
 76
     0
 77
     0
 78
     0
281
     0
 65
     1
110
0.0
120
0.0
130
0.0
111
1.0
121
0.0
131
0.0
112
0.0
122
1.0
132
0.0
 79
     0
146
0.0
  0
ENDTAB
  0
TABLE
  2
LTYPE
  5
5
330
0
100
AcDbSymbolTable
 70
     6
  0
LTYPE
  5
14
330
5
100
AcDbSymbolTableRecord
100
AcDbLinetypeTableRecord
  2
ByBlock
 70
     0
  3

 72
    65
 73
     0
 40
0.0
  0
LTYPE
  5
15
330
5
100
AcDbSymbolTableRecord
100
AcDbLinetypeTableRecord
  2
ByLayer
 70
     0
  3

 72
    65
 73
     0
 40
0.0
  0
LTYPE
  5
16
330
5
100
AcDbSymbolTableRecord
100
AcDbLinetypeTableRecord
  2
Continuous
 70
     0
  3
Solid line
 72
    65
 73
     0
 40
0.0
  0
LTYPE
  5
6A
330
5
100
AcDbSymbolTableRecord
100
AcDbLinetypeTableRecord
  2
HIDDEN
 70
     0
  3
Hidden __ __ __ __ __ __ __ __ __ __ __ __ __ __
 72
    65
 73
     2
 40
0.075
 49
0.05
 74
     0
 49
-0.025
 74
     0
  0
LTYPE
  5
6B
330
5
100
AcDbSymbolTableRecord
100
AcDbLinetypeTableRecord
  2
PHANTOM
 70
     0
  3
Phantom ______  __  __  ______  __  __  ______
 72
    65
 73
     6
 40
0.5
 49
0.25
 74
     0
 49
-0.05
 74
     0
 49
0.05
 74
     0
 49
-0.05
 74
     0
 49
0.05
 74
     0
 49
-0.05
 74
     0
  0
LTYPE
  5
6C
330
5
100
AcDbSymbolTableRecord
100
AcDbLinetypeTableRecord
  2
CENTER
 70
     0
  3
Center ____ _ ____ _ ____ _ ____ _ ____ _ ____
 72
    65
 73
     4
 40
0.4
 49
0.25
 74
     0
 49
-0.05
 74
     0
 49
0.05
 74
     0
 49
-0.05
 74
     0
  0
LTYPE
  5
6D
330
5
100
AcDbSymbolTableRecord
100
AcDbLinetypeTableRecord
  2
CENTERX2
 70
     0
  3
Center (2x) ________  __  ________  __  _____
 72
    65
 73
     4
 40
0.8
 49
0.5
 74
     0
 49
-0.1
 74
     0
 49
0.1
 74
     0
 49
-0.1
 74
     0
  0
LTYPE
  5
6E
330
5
100
AcDbSymbolTableRecord
100
AcDbLinetypeTableRecord
  2
DOT2
 70
     0
  3
Dot (.5x) ........................................
 72
    65
 73
     2
 40
0.025
 49
0.0
 74
     0
 49
-0.025
 74
     0
  0
ENDTAB
  0
TABLE
  2
LAYER
  5
2
330
0
100
AcDbSymbolTable
 70
     2
  0
LAYER
  5
10
330
2
100
AcDbSymbolTableRecord
100
AcDbLayerTableRecord
  2
0
 70
     0
 62
     7
  6
Continuous
370
    -3
390
F
  0
LAYER
  5
6F
330
2
100
AcDbSymbolTableRecord
100
AcDbLayerTableRecord
  2
FORMAT
 70
     0
 62
     7
  6
Continuous
370
    -3
390
F
  0
ENDTAB
  0
TABLE
  2
STYLE
  5
3
330
0
100
AcDbSymbolTable
 70
     5
  0
STYLE
  5
11
330
3
100
AcDbSymbolTableRecord
100
AcDbTextStyleTableRecord
  2
Standard
 70
     0
 40
0.0
 41
1.0
 50
0.0
 71
     0
 42
0.1111111111
  3
txt
  4

  0
STYLE
  5
96
330
3
100
AcDbSymbolTableRecord
100
AcDbTextStyleTableRecord
  2
SLDTEXTSTYLE0
 70
     0
 40
0.0
 41
0.75
 50
0.0
 71
     0
 42
0.1111111111
  3
TXT
  4

  0
STYLE
  5
A2
330
3
100
AcDbSymbolTableRecord
100
AcDbTextStyleTableRecord
  2
SLDTEXTSTYLE1
 70
     0
 40
0.0
 41
0.6
 50
0.0
 71
     0
 42
0.1111111111
  3
TXT
  4

  0
STYLE
  5
A7
330
3
100
AcDbSymbolTableRecord
100
AcDbTextStyleTableRecord
  2
SLDTEXTSTYLE2
 70
     0
 40
0.0
 41
0.6875
 50
0.0
 71
     0
 42
0.1111111111
  3
TXT
  4

  0
STYLE
  5
1EF
330
3
100
AcDbSymbolTableRecord
100
AcDbTextStyleTableRecord
  2
SLDTEXTSTYLE3
 70
     0
 40
0.0
 41
0.7
 50
0.0
 71
     0
 42
0.1111111111
  3
TXT
  4

  0
ENDTAB
  0
TABLE
  2
VIEW
  5
6
330
0
100
AcDbSymbolTable
 70
     0
  0
ENDTAB
  0
TABLE
  2
UCS
  5
7
330
0
100
AcDbSymbolTable
 70
     0
  0
ENDTAB
  0
TABLE
  2
APPID
  5
9
330
0
100
AcDbSymbolTable
 70
     1
  0
APPID
  5
12
330
9
100
AcDbSymbolTableRecord
100
AcDbRegAppTableRecord
  2
ACAD
 70
     0
  0
ENDTAB
  0
TABLE
  2
DIMSTYLE
  5
A
330
0
100
AcDbSymbolTable
 70
     5
100
AcDbDimStyleTable
  0
DIMSTYLE
105
27
330
A
100
AcDbSymbolTableRecord
100
AcDbDimStyleTableRecord
  2
Standard
 70
     0
178
     0
340
11
  0
DIMSTYLE
105
11D
102
{ACAD_REACTORS
330
11C
102
}
330
A
100
AcDbSymbolTableRecord
100
AcDbDimStyleTableRecord
  2
SLDDIMSTYLE0
 70
     0
 41
0.125
 44
0.0
 45
0.000000001
 78
     4
 79
     1
140
0.0833333333
141
0.0
147
0.0208333333
148
0.000000001
170
     1
171
     1
173
     1
178
     0
271
     2
272
     2
274
     1
276
     2
284
    12
340
96
  0
DIMSTYLE
105
1B0
102
{ACAD_REACTORS
330
1AF
102
}
330
A
100
AcDbSymbolTableRecord
100
AcDbDimStyleTableRecord
  2
SLDDIMSTYLE1
 70
     0
 41
0.125
 44
0.0
 45
0.000000001
 78
     4
 79
     1
140
0.0833333333
147
0.0208333333
148
0.000000001
170
     1
171
     1
173
     1
178
     0
271
     2
272
     2
274
     1
276
     2
284
    12
340
96
  0
DIMSTYLE
105
1C4
102
{ACAD_REACTORS
330
1C3
330
1D8
102
}
330
A
100
AcDbSymbolTableRecord
100
AcDbDimStyleTableRecord
  2
SLDDIMSTYLE2
 70
     0
 41
0.125
 44
0.0
 45
0.000000001
 78
     8
 79
     2
140
0.0833333333
147
0.0208333333
148
0.000000001
170
     1
171
     1
172
     1
173
     1
178
     0
271
     2
272
     2
274
     1
276
     2
284
    12
289
     0
340
96
  0
DIMSTYLE
105
1F4
330
A
100
AcDbSymbolTableRecord
100
AcDbDimStyleTableRecord
  2
SLDDIMSTYLE3
 70
     0
 41
0.125
 44
0.0
 45
0.000000001
146
0.125
147
0.0
173
     1
178
     0
271
     0
272
     0
276
     2
340
11
  0
ENDTAB
  0
TABLE
  2
BLOCK_RECORD
  5
1
330
0
100
AcDbSymbolTable
 70
    20
  0
BLOCK_RECORD
  5
1F
330
1
100
AcDbSymbolTableRecord
100
AcDbBlockTableRecord
  2
*Model_Space
340
22
  0
BLOCK_RECORD
  5
1B
330
1
100
AcDbSymbolTableRecord
100
AcDbBlockTableRecord
  2
*Paper_Space
340
1E
  0
BLOCK_RECORD
  5
23
330
1
100
AcDbSymbolTableRecord
100
AcDbBlockTableRecord
  2
*Paper_Space0
340
26
  0
BLOCK_RECORD
  5
70
330
1
100
AcDbSymbolTableRecord
100
AcDbBlockTableRecord
  2
Third Angle Projection Block
340
0
102
{BLKREFS
331
95
102
}
  0
BLOCK_RECORD
  5
A9
330
1
100
AcDbSymbolTableRecord
100
AcDbBlockTableRecord
  2
SW_NOTE_0
340
0
102
{BLKREFS
331
AE
102
}
  0
BLOCK_RECORD
  5
AF
330
1
100
AcDbSymbolTableRecord
100
AcDbBlockTableRecord
  2
SW_NOTE_1
340
0
102
{BLKREFS
331
B4
102
}
  0
BLOCK_RECORD
  5
B6
330
1
100
AcDbSymbolTableRecord
100
AcDbBlockTableRecord
  2
SW_NOTE_2
340
0
102
{BLKREFS
331
BC
102
}
  0
BLOCK_RECORD
  5
BE
330
1
100
AcDbSymbolTableRecord
100
AcDbBlockTableRecord
  2
SW_NOTE_3
340
0
102
{BLKREFS
331
C3
102
}
  0
BLOCK_RECORD
  5
C4
330
1
100
AcDbSymbolTableRecord
100
AcDbBlockTableRecord
  2
SW_NOTE_4
340
0
102
{BLKREFS
331
D9
102
}
  0
BLOCK_RECORD
  5
DA
330
1
100
AcDbSymbolTableRecord
100
AcDbBlockTableRecord
  2
SW_TABLEANNOTATION_0
340
0
102
{BLKREFS
331
103
102
}
  0
BLOCK_RECORD
  5
E8
330
1
100
AcDbSymbolTableRecord
100
AcDbBlockTableRecord
  2
SW_SYMBOL_C#_1
340
0
102
{BLKREFS
331
ED
102
}
  0
BLOCK_RECORD
  5
F1
330
1
100
AcDbSymbolTableRecord
100
AcDbBlockTableRecord
  2
SW_SYMBOL_C#_2
340
0
102
{BLKREFS
331
F6
102
}
  0
BLOCK_RECORD
  5
F9
330
1
100
AcDbSymbolTableRecord
100
AcDbBlockTableRecord
  2
SW_SYMBOL_C#_3
340
0
102
{BLKREFS
331
FE
102
}
  0
BLOCK_RECORD
  5
11E
330
1
100
AcDbSymbolTableRecord
100
AcDbBlockTableRecord
  2
_D
340
0
  0
BLOCK_RECORD
  5
1B1
330
1
100
AcDbSymbolTableRecord
100
AcDbBlockTableRecord
  2
_D_1
340
0
  0
BLOCK_RECORD
  5
1C5
330
1
100
AcDbSymbolTableRecord
100
AcDbBlockTableRecord
  2
_D_2
340
0
  0
BLOCK_RECORD
  5
1D9
330
1
100
AcDbSymbolTableRecord
100
AcDbBlockTableRecord
  2
_D_3
340
0
  0
BLOCK_RECORD
  5
1EC
330
1
100
AcDbSymbolTableRecord
100
AcDbBlockTableRecord
  2
SW_NOTE_5
340
0
102
{BLKREFS
331
1F3
102
}
  0
BLOCK_RECORD
  5
1F6
330
1
100
AcDbSymbolTableRecord
100
AcDbBlockTableRecord
  2
SW_NOTE_6
340
0
102
{BLKREFS
331
1FC
102
}
  0
BLOCK_RECORD
  5
1FE
330
1
100
AcDbSymbolTableRecord
100
AcDbBlockTableRecord
  2
SW_NOTE_7
340
0
102
{BLKREFS
331
203
102
}
  0
BLOCK_RECORD
  5
205
330
1
100
AcDbSymbolTableRecord
100
AcDbBlockTableRecord
  2
SW_NOTE_8
340
0
102
{BLKREFS
331
20A
102
}
  0
BLOCK_RECORD
  5
20C
330
1
100
AcDbSymbolTableRecord
100
AcDbBlockTableRecord
  2
SW_NOTE_9
340
0
102
{BLKREFS
331
211
102
}
  0
ENDTAB
  0
ENDSEC
  0
SECTION
  2
BLOCKS
  0
BLOCK
  5
20
330
1F
100
AcDbEntity
  8
0
100
AcDbBlockBegin
  2
*Model_Space
 70
     0
 10
0.0
 20
0.0
 30
0.0
  3
*Model_Space
  1
*Model_Space
  0
ENDBLK
  5
21
330
1F
100
AcDbEntity
  8
0
100
AcDbBlockEnd
  0
BLOCK
  5
1C
330
1B
100
AcDbEntity
 67
     1
  8
0
100
AcDbBlockBegin
  2
*Paper_Space
 70
     0
 10
0.0
 20
0.0
 30
0.0
  3
*Paper_Space
  1
*Paper_Space
  0
ENDBLK
  5
1D
330
1B
100
AcDbEntity
 67
     1
  8
0
100
AcDbBlockEnd
  0
BLOCK
  5
24
330
23
100
AcDbEntity
  8
0
100
AcDbBlockBegin
  2
*Paper_Space0
 70
     0
 10
0.0
 20
0.0
 30
0.0
  3
*Paper_Space0
  1
*Paper_Space0
  0
ENDBLK
  5
25
330
23
100
AcDbEntity
  8
0
100
AcDbBlockEnd
  0
BLOCK
  5
71
330
70
100
AcDbEntity
  8
0
100
AcDbBlockBegin
  2
Third Angle Projection Block
 70
     0
 10
0.0
 20
0.0
 30
0.0
  3
Third Angle Projection Block
  1
Third Angle Projection Block
  0
CIRCLE
  5
73
330
70
100
AcDbEntity
  8
0
  6
Continuous
 62
     7
370
    30
100
AcDbCircle
 10
3.9951432636
 20
0.7456853688
 30
0.0
 40
0.0696152422706639
  0
CIRCLE
  5
74
330
70
100
AcDbEntity
  8
0
  6
Continuous
 62
     7
370
    30
100
AcDbCircle
 10
3.9951432636
 20
0.7456853688
 30
0.0
 40
0.1535916633280245
  0
LINE
  5
75
330
70
100
AcDbEntity
  8
0
  6
CENTERX2
 62
     7
370
     0
100
AcDbLine
 10
4.3360937897
 20
0.7456853688
 30
0.0
 11
4.7028635231
 21
0.7456853688
 31
0.0
  0
LINE
  5
76
330
70
100
AcDbEntity
  8
0
  6
Continuous
 62
     7
370
    30
100
AcDbLine
 10
4.3701432636
 20
0.815300611
 30
0.0
 11
4.3701432636
 21
0.6760701265
 31
0.0
  0
LINE
  5
77
330
70
100
AcDbEntity
  8
0
  6
Continuous
 62
     7
370
    30
100
AcDbLine
 10
4.3701432636
 20
0.6760701265
 30
0.0
 11
4.6701432636
 21
0.5956853688
 31
0.0
  0
LINE
  5
78
330
70
100
AcDbEntity
  8
0
  6
Continuous
 62
     7
370
    30
100
AcDbLine
 10
4.6701432636
 20
0.5956853688
 30
0.0
 11
4.6701432636
 21
0.8956853688
 31
0.0
  0
LINE
  5
79
330
70
100
AcDbEntity
  8
0
  6
Continuous
 62
     7
370
    30
100
AcDbLine
 10
4.6701432636
 20
0.8956853688
 30
0.0
 11
4.3701432636
 21
0.815300611
 31
0.0
  0
LINE
  5
7A
330
70
100
AcDbEntity
  8
0
  6
CENTERX2
 62
     7
370
     0
100
AcDbLine
 10
3.8032513961
 20
0.7456853688
 30
0.0
 11
4.187035131
 21
0.7456853688
 31
0.0
  0
LINE
  5
7B
330
70
100
AcDbEntity
  8
0
  6
CENTERX2
 62
     7
370
     0
100
AcDbLine
 10
3.9951432636
 20
0.9375772362
 30
0.0
 11
3.9951432636
 21
0.5537935013
 31
0.0
  0
POINT
  5
7C
330
70
100
AcDbEntity
  8
0
  6
Continuous
 62
     7
370
     0
100
AcDbPoint
 10
3.9951432636
 20
0.7456853688
 30
0.0
  0
ENDBLK
  5
72
330
70
100
AcDbEntity
  8
0
100
AcDbBlockEnd
  0
BLOCK
  5
AA
330
A9
100
AcDbEntity
  8
0
100
AcDbBlockBegin
  2
SW_NOTE_0
 70
     0
 10
0.0
 20
0.0
 30
0.0
  3
SW_NOTE_0
  1
SW_NOTE_0
  0
MTEXT
  5
AC
330
A9
100
AcDbEntity
  8
0
  6
Continuous
 62
     0
370
     0
100
AcDbMText
 10
0.78375
 20
0.0773440644
 30
0.0
 40
0.06
 41
0.0
 71
     2
 72
     1
  1
VALUES IN PARENTHESIS ARE CALCULATED
  7
SLDTEXTSTYLE0
 73
     1
 44
1.0
  0
MTEXT
  5
AD
330
A9
100
AcDbEntity
  8
0
  6
Continuous
 62
     0
370
     0
100
AcDbMText
 10
0.7825936818
 20
-0.0220260102
 30
0.0
 40
0.06
 41
0.0
 71
     2
 72
     1
  1
AND MAY CONTAIN ROUNDOFF ERRORS
  7
SLDTEXTSTYLE0
 73
     1
 44
1.0
  0
ENDBLK
  5
AB
330
A9
100
AcDbEntity
  8
0
100
AcDbBlockEnd
  0
BLOCK
  5
B0
330
AF
100
AcDbEntity
  8
0
100
AcDbBlockBegin
  2
SW_NOTE_1
 70
     0
 10
0.0
 20
0.0
 30
0.0
  3
SW_NOTE_1
  1
SW_NOTE_1
  0
MTEXT
  5
B2
330
AF
100
AcDbEntity
  8
0
  6
Continuous
 62
     0
370
     0
100
AcDbMText
 10
0.0
 20
0.1074223116
 30
0.0
 40
0.0833333333
 41
0.0
 71
     1
 72
     1
  1
DRAWING
  7
SLDTEXTSTYLE0
 73
     1
 44
1.0
  0
MTEXT
  5
B3
330
AF
100
AcDbEntity
  8
0
  6
Continuous
 62
     0
370
     0
100
AcDbMText
 10
0.0
 20
-0.0036887981
 30
0.0
 40
0.0833333333
 41
0.0
 71
     1
 72
     1
  1
PROJECTION
  7
SLDTEXTSTYLE0
 73
     1
 44
1.0
  0
ENDBLK
  5
B1
330
AF
100
AcDbEntity
  8
0
100
AcDbBlockEnd
  0
BLOCK
  5
B7
330
B6
100
AcDbEntity
  8
0
100
AcDbBlockBegin
  2
SW_NOTE_2
 70
     0
 10
0.0
 20
0.0
 30
0.0
  3
SW_NOTE_2
  1
SW_NOTE_2
  0
MTEXT
  5
B9
330
B6
100
AcDbEntity
  8
0
  6
Continuous
 62
     0
370
     0
100
AcDbMText
 10
0.0823567708
 20
0.1477056785
 30
0.0
 40
0.1145833333
 41
0.0
 71
     2
 72
     1
  1
%%c
  7
SLDTEXTSTYLE0
 73
     1
 44
1.0
  0
MTEXT
  5
BA
330
B6
100
AcDbEntity
  8
0
  6
Continuous
 62
     0
370
     0
100
AcDbMText
 10
1.2471759303
 20
0.1477056785
 30
0.0
 40
0.1145833333
 41
0.0
 71
     2
 72
     1
  1
2" MOUNTED PLANO-CONVEX
  7
SLDTEXTSTYLE0
 73
     1
 44
1.0
  0
MTEXT
  5
BB
330
B6
100
AcDbEntity
  8
0
  6
Continuous
 62
     0
370
     0
100
AcDbMText
 10
1.1579654396
 20
-0.0050720974
 30
0.0
 40
0.1145833333
 41
0.0
 71
     2
 72
     1
  1
LENS, f=100mm, -UV COAT
  7
SLDTEXTSTYLE0
 73
     1
 44
1.0
  0
ENDBLK
  5
B8
330
B6
100
AcDbEntity
  8
0
100
AcDbBlockEnd
  0
BLOCK
  5
BF
330
BE
100
AcDbEntity
  8
0
100
AcDbBlockBegin
  2
SW_NOTE_3
 70
     0
 10
0.0
 20
0.0
 30
0.0
  3
SW_NOTE_3
  1
SW_NOTE_3
  0
MTEXT
  5
C1
330
BE
100
AcDbEntity
  8
0
  6
Continuous
 62
     0
370
     0
100
AcDbMText
 10
0.986328125
 20
0.1611334675
 30
0.0
 40
0.125
 41
0.0
 71
     2
 72
     1
  1
FOR INFORMATION ONLY
  7
SLDTEXTSTYLE0
 73
     1
 44
1.0
  0
MTEXT
  5
C2
330
BE
100
AcDbEntity
  8
0
  6
Continuous
 62
     0
370
     0
100
AcDbMText
 10
0.999088459
 20
-0.0055331972
 30
0.0
 40
0.125
 41
0.0
 71
     2
 72
     1
  1
NOT FOR MANUFACTURING PURPOSES
  7
SLDTEXTSTYLE0
 73
     1
 44
1.0
  0
ENDBLK
  5
C0
330
BE
100
AcDbEntity
  8
0
100
AcDbBlockEnd
  0
BLOCK
  5
C5
330
C4
100
AcDbEntity
  8
0
100
AcDbBlockBegin
  2
SW_NOTE_4
 70
     0
 10
0.0
 20
0.0
 30
0.0
  3
SW_NOTE_4
  1
SW_NOTE_4
  0
MTEXT
  5
C7
330
C4
100
AcDbEntity
  8
0
  6
Continuous
 62
     0
370
     0
100
AcDbMText
 10
0.0
 20
0.1074223116
 30
0.0
 40
0.0833333333
 41
0.0
 71
     1
 72
     1
  1
NOTES/SPECIFICATIONS:
  7
SLDTEXTSTYLE0
 73
     1
 44
1.0
  0
MTEXT
  5
C8
330
C4
100
AcDbEntity
  8
0
  6
Continuous
 62
     0
370
     0
100
AcDbMText
 10
0.4183921567
 20
-0.1147999079
 30
0.0
 40
0.0833333333
 41
0.0
 71
     1
 72
     1
  1
DESIGN WAVELENGTH: 546nm
  7
SLDTEXTSTYLE0
 73
     1
 44
1.0
  0
MTEXT
  5
C9
330
C4
100
AcDbEntity
  8
0
  6
Continuous
 62
     0
370
     0
100
AcDbMText
 10
0.0
 20
-0.1147999079
 30
0.0
 40
0.0833333333
 41
0.0
 71
     1
 72
     1
  1
1.
  7
SLDTEXTSTYLE0
 73
     1
 44
1.0
  0
MTEXT
  5
CA
330
C4
100
AcDbEntity
  8
0
  6
Continuous
 62
     0
370
     0
100
AcDbMText
 10
0.4183921567
 20
-0.2259110177
 30
0.0
 40
0.0833333333
 41
0.0
 71
     1
 72
     1
  1
FOCAL LENGTH: f=100.0mm
  7
SLDTEXTSTYLE0
 73
     1
 44
1.0
  0
MTEXT
  5
CB
330
C4
100
AcDbEntity
  8
0
  6
Continuous
 62
     0
370
     0
100
AcDbMText
 10
1.8858304981
 20
-0.2259110177
 30
0.0
 40
0.0833333333
 41
0.0
 71
     1
 72
     1
  1
%%p
  7
SLDTEXTSTYLE0
 73
     1
 44
1.0
  0
MTEXT
  5
CC
330
C4
100
AcDbEntity
  8
0
  6
Continuous
 62
     0
370
     0
100
AcDbMText
 10
1.9652749536
 20
-0.2259110177
 30
0.0
 40
0.0833333333
 41
0.0
 71
     1
 72
     1
  1
1%
  7
SLDTEXTSTYLE0
 73
     1
 44
1.0
  0
MTEXT
  5
CD
330
C4
100
AcDbEntity
  8
0
  6
Continuous
 62
     0
370
     0
100
AcDbMText
 10
0.0
 20
-0.2259110177
 30
0.0
 40
0.0833333333
 41
0.0
 71
     1
 72
     1
  1
2.
  7
SLDTEXTSTYLE0
 73
     1
 44
1.0
  0
MTEXT
  5
CE
330
C4
100
AcDbEntity
  8
0
  6
Continuous
 62
     0
370
     0
100
AcDbMText
 10
0.4183921567
 20
-0.3370221274
 30
0.0
 40
0.0833333333
 41
0.0
 71
     1
 72
     1
  1
WORKING DISTANCE (REF): 88.9mm
  7
SLDTEXTSTYLE0
 73
     1
 44
1.0
  0
MTEXT
  5
CF
330
C4
100
AcDbEntity
  8
0
  6
Continuous
 62
     0
370
     0
100
AcDbMText
 10
0.0
 20
-0.3370221274
 30
0.0
 40
0.0833333333
 41
0.0
 71
     1
 72
     1
  1
3.
  7
SLDTEXTSTYLE0
 73
     1
 44
1.0
  0
MTEXT
  5
D0
330
C4
100
AcDbEntity
  8
0
  6
Continuous
 62
     0
370
     0
100
AcDbMText
 10
0.4183921567
 20
-0.4481332372
 30
0.0
 40
0.0833333333
 41
0.0
 71
     1
 72
     1
  1
CLEAR APERTURE: >
  7
SLDTEXTSTYLE0
 73
     1
 44
1.0
  0
MTEXT
  5
D1
330
C4
100
AcDbEntity
  8
0
  6
Continuous
 62
     0
370
     0
100
AcDbMText
 10
1.4507996036
 20
-0.4481332372
 30
0.0
 40
0.0833333333
 41
0.0
 71
     1
 72
     1
  1
%%c
  7
SLDTEXTSTYLE0
 73
     1
 44
1.0
  0
MTEXT
  5
D2
330
C4
100
AcDbEntity
  8
0
  6
Continuous
 62
     0
370
     0
100
AcDbMText
 10
1.5765865971
 20
-0.4481332372
 30
0.0
 40
0.0833333333
 41
0.0
 71
     1
 72
     1
  1
45.72mm
  7
SLDTEXTSTYLE0
 73
     1
 44
1.0
  0
MTEXT
  5
D3
330
C4
100
AcDbEntity
  8
0
  6
Continuous
 62
     0
370
     0
100
AcDbMText
 10
0.0
 20
-0.4481332372
 30
0.0
 40
0.0833333333
 41
0.0
 71
     1
 72
     1
  1
4.
  7
SLDTEXTSTYLE0
 73
     1
 44
1.0
  0
MTEXT
  5
D4
330
C4
100
AcDbEntity
  8
0
  6
Continuous
 62
     0
370
     0
100
AcDbMText
 10
0.4183921567
 20
-0.559244347
 30
0.0
 40
0.0833333333
 41
0.0
 71
     1
 72
     1
  1
SURFACE QUALITY: 40-20 SCRATCH-DIG
  7
SLDTEXTSTYLE0
 73
     1
 44
1.0
  0
MTEXT
  5
D5
330
C4
100
AcDbEntity
  8
0
  6
Continuous
 62
     0
370
     0
100
AcDbMText
 10
0.0
 20
-0.559244347
 30
0.0
 40
0.0833333333
 41
0.0
 71
     1
 72
     1
  1
5.
  7
SLDTEXTSTYLE0
 73
     1
 44
1.0
  0
MTEXT
  5
D6
330
C4
100
AcDbEntity
  8
0
  6
Continuous
 62
     0
370
     0
100
AcDbMText
 10
0.4183921567
 20
-0.6703554567
 30
0.0
 40
0.0833333333
 41
0.0
 71
     1
 72
     1
  1
COATING: BBAR Ravg<0.5% FROM 245-400nm, AOI: 0°,
  7
SLDTEXTSTYLE0
 73
     1
 44
1.0
  0
MTEXT
  5
D7
330
C4
100
AcDbEntity
  8
0
  6
Continuous
 62
     0
370
     0
100
AcDbMText
 10
0.0
 20
-0.6703554567
 30
0.0
 40
0.0833333333
 41
0.0
 71
     1
 72
     1
  1
6.
  7
SLDTEXTSTYLE0
 73
     1
 44
1.0
  0
MTEXT
  5
D8
330
C4
100
AcDbEntity
  8
0
  6
Continuous
 62
     0
370
     0
100
AcDbMText
 10
0.4249507874
 20
-0.7814665665
 30
0.0
 40
0.0833333333
 41
0.0
 71
     1
 72
     1
  1
ON OUTER OPTICAL SURFACES
  7
SLDTEXTSTYLE0
 73
     1
 44
1.0
  0
ENDBLK
  5
C6
330
C4
100
AcDbEntity
  8
0
100
AcDbBlockEnd
  0
BLOCK
  5
DB
330
DA
100
AcDbEntity
  8
0
100
AcDbBlockBegin
  2
SW_TABLEANNOTATION_0
 70
     0
 10
0.0
 20
0.0
 30
0.0
  3
SW_TABLEANNOTATION_0
  1
SW_TABLEANNOTATION_0
  0
LINE
  5
DD
330
DA
100
AcDbEntity
  8
0
  6
Continuous
 62
     0
370
     0
100
AcDbLine
 10
0.0
 20
0.0
 30
0.0
 11
0.0
 21
-1.2444444391
 31
0.0
  0
LINE
  5
DE
330
DA
100
AcDbEntity
  8
0
  6
Continuous
 62
     0
370
     0
100
AcDbLine
 10
0.0
 20
-1.2444444391
 30
0.0
 11
3.3
 21
-1.2444444391
 31
0.0
  0
LINE
  5
DF
330
DA
100
AcDbEntity
  8
0
  6
Continuous
 62
     0
370
     0
100
AcDbLine
 10
3.3
 20
-1.2444444391
 30
0.0
 11
3.3
 21
0.0
 31
0.0
  0
LINE
  5
E0
330
DA
100
AcDbEntity
  8
0
  6
Continuous
 62
     0
370
     0
100
AcDbLine
 10
3.3
 20
0.0
 30
0.0
 11
0.0
 21
0.0
 31
0.0
  0
LINE
  5
E1
330
DA
100
AcDbEntity
  8
0
  6
Continuous
 62
     0
370
     0
100
AcDbLine
 10
1.1
 20
0.0
 30
0.0
 11
1.1
 21
-1.2444444391
 31
0.0
  0
LINE
  5
E2
330
DA
100
AcDbEntity
  8
0
  6
Continuous
 62
     0
370
     0
100
AcDbLine
 10
2.2
 20
0.0
 30
0.0
 11
2.2
 21
-1.2444444391
 31
0.0
  0
LINE
  5
E3
330
DA
100
AcDbEntity
  8
0
  6
Continuous
 62
     0
370
     0
100
AcDbLine
 10
0.0
 20
-0.3111111098
 30
0.0
 11
3.3
 21
-0.3111111098
 31
0.0
  0
LINE
  5
E4
330
DA
100
AcDbEntity
  8
0
  6
Continuous
 62
     0
370
     0
100
AcDbLine
 10
0.0
 20
-0.6222222195
 30
0.0
 11
3.3
 21
-0.6222222195
 31
0.0
  0
LINE
  5
E5
330
DA
100
AcDbEntity
  8
0
  6
Continuous
 62
     0
370
     0
100
AcDbLine
 10
0.0
 20
-0.9333333293
 30
0.0
 11
3.3
 21
-0.9333333293
 31
0.0
  0
MTEXT
  5
E6
330
DA
100
AcDbEntity
  8
0
  6
Continuous
 62
     0
370
     0
100
AcDbMText
 10
1.1543981952
 20
-0.113990325
 30
0.0
 40
0.0833333333
 41
0.0
 71
     1
 72
     1
  1
PART DESCRIPTION
  7
SLDTEXTSTYLE0
 73
     1
 44
1.0
  0
MTEXT
  5
E7
330
DA
100
AcDbEntity
  8
0
  6
Continuous
 62
     0
370
     0
100
AcDbMText
 10
2.491203698
 20
-0.113990325
 30
0.0
 40
0.0833333333
 41
0.0
 71
     1
 72
     1
  1
MATERIAL
  7
SLDTEXTSTYLE0
 73
     1
 44
1.0
  0
INSERT
  5
ED
330
DA
100
AcDbEntity
  8
0
  6
Continuous
 62
     0
370
     0
100
AcDbBlockReference
  2
SW_SYMBOL_C#_1
 10
0.4374537001
 20
-0.5209677568
 30
0.0
 41
0.0027037109
 42
0.0027037109
 43
0.0027037109
  0
MTEXT
  5
EE
330
DA
100
AcDbEntity
  8
0
  6
Continuous
 62
     0
370
     0
100
AcDbMText
 10
1.4729938215
 20
-0.4251014347
 30
0.0
 40
0.0833333333
 41
0.0
 71
     1
 72
     1
  1
SM2RR
  7
SLDTEXTSTYLE0
 73
     1
 44
1.0
  0
MTEXT
  5
EF
330
DA
100
AcDbEntity
  8
0
  6
Continuous
 62
     0
370
     0
100
AcDbMText
 10
2.4676697448
 20
-0.3695458798
 30
0.0
 40
0.0833333333
 41
0.0
 71
     1
 72
     1
  1
ANODIZED
  7
SLDTEXTSTYLE0
 73
     1
 44
1.0
  0
MTEXT
  5
F0
330
DA
100
AcDbEntity
  8
0
  6
Continuous
 62
     0
370
     0
100
AcDbMText
 10
2.4546296155
 20
-0.4806569896
 30
0.0
 40
0.0833333333
 41
0.0
 71
     1
 72
     1
  1
ALUMINUM
  7
SLDTEXTSTYLE0
 73
     1
 44
1.0
  0
INSERT
  5
F6
330
DA
100
AcDbEntity
  8
0
  6
Continuous
 62
     0
370
     0
100
AcDbBlockReference
  2
SW_SYMBOL_C#_2
 10
0.4374537001
 20
-0.8320788666
 30
0.0
 41
0.0027037109
 42
0.0027037109
 43
0.0027037109
  0
MTEXT
  5
F7
330
DA
100
AcDbEntity
  8
0
  6
Continuous
 62
     0
370
     0
100
AcDbMText
 10
1.3662037001
 20
-0.7362125445
 30
0.0
 40
0.0833333333
 41
0.0
 71
     1
 72
     1
  1
LA4545-UV
  7
SLDTEXTSTYLE0
 73
     1
 44
1.0
  0
MTEXT
  5
F8
330
DA
100
AcDbEntity
  8
0
  6
Continuous
 62
     0
370
     0
100
AcDbMText
 10
2.3169753357
 20
-0.7362125445
 30
0.0
 40
0.0833333333
 41
0.0
 71
     1
 72
     1
  1
UV FUSED SILICA
  7
SLDTEXTSTYLE0
 73
     1
 44
1.0
  0
INSERT
  5
FE
330
DA
100
AcDbEntity
  8
0
  6
Continuous
 62
     0
370
     0
100
AcDbBlockReference
  2
SW_SYMBOL_C#_3
 10
0.4374537001
 20
-1.1431899763
 30
0.0
 41
0.0027037109
 42
0.0027037109
 43
0.0027037109
  0
MTEXT
  5
FF
330
DA
100
AcDbEntity
  8
0
  6
Continuous
 62
     0
370
     0
100
AcDbMText
 10
1.3456018548
 20
-0.9917680994
 30
0.0
 40
0.0833333333
 41
0.0
 71
     1
 72
     1
  1
ENGRAVED
  7
SLDTEXTSTYLE0
 73
     1
 44
1.0
  0
MTEXT
  5
100
330
DA
100
AcDbEntity
  8
0
  6
Continuous
 62
     0
370
     0
100
AcDbMText
 10
1.3975308615
 20
-1.1028792091
 30
0.0
 40
0.0833333333
 41
0.0
 71
     1
 72
     1
  1
HOUSING
  7
SLDTEXTSTYLE0
 73
     1
 44
1.0
  0
MTEXT
  5
101
330
DA
100
AcDbEntity
  8
0
  6
Continuous
 62
     0
370
     0
100
AcDbMText
 10
2.4676697448
 20
-0.9917680994
 30
0.0
 40
0.0833333333
 41
0.0
 71
     1
 72
     1
  1
ANODIZED
  7
SLDTEXTSTYLE0
 73
     1
 44
1.0
  0
MTEXT
  5
102
330
DA
100
AcDbEntity
  8
0
  6
Continuous
 62
     0
370
     0
100
AcDbMText
 10
2.4546296155
 20
-1.1028792091
 30
0.0
 40
0.0833333333
 41
0.0
 71
     1
 72
     1
  1
ALUMINUM
  7
SLDTEXTSTYLE0
 73
     1
 44
1.0
  0
ENDBLK
  5
DC
330
DA
100
AcDbEntity
  8
0
100
AcDbBlockEnd
  0
BLOCK
  5
E9
330
E8
100
AcDbEntity
  8
0
100
AcDbBlockBegin
  2
SW_SYMBOL_C#_1
 70
     0
 10
0.0
 20
0.0
 30
0.0
  3
SW_SYMBOL_C#_1
  1
SW_SYMBOL_C#_1
  0
CIRCLE
  5
EB
330
E8
100
AcDbEntity
  8
0
  6
Continuous
 62
     0
370
     0
100
AcDbCircle
 10
31.4960629921
 20
19.6850393701
 30
0.0
 40
31.49606299212599
  0
MTEXT
  5
EC
330
E8
100
AcDbEntity
  8
0
  6
Continuous
 62
     0
370
     0
100
AcDbMText
 10
31.4960629921
 20
19.6850393701
 30
0.0
 40
30.821835344
 41
0.0
 71
     5
 72
     1
  1
1
  7
SLDTEXTSTYLE0
 73
     1
 44
1.0
  0
ENDBLK
  5
EA
330
E8
100
AcDbEntity
  8
0
100
AcDbBlockEnd
  0
BLOCK
  5
F2
330
F1
100
AcDbEntity
  8
0
100
AcDbBlockBegin
  2
SW_SYMBOL_C#_2
 70
     0
 10
0.0
 20
0.0
 30
0.0
  3
SW_SYMBOL_C#_2
  1
SW_SYMBOL_C#_2
  0
CIRCLE
  5
F4
330
F1
100
AcDbEntity
  8
0
  6
Continuous
 62
     0
370
     0
100
AcDbCircle
 10
31.4960629921
 20
19.6850393701
 30
0.0
 40
31.49606299212599
  0
MTEXT
  5
F5
330
F1
100
AcDbEntity
  8
0
  6
Continuous
 62
     0
370
     0
100
AcDbMText
 10
31.4960629921
 20
19.6850393701
 30
0.0
 40
30.821835344
 41
0.0
 71
     5
 72
     1
  1
2
  7
SLDTEXTSTYLE0
 73
     1
 44
1.0
  0
ENDBLK
  5
F3
330
F1
100
AcDbEntity
  8
0
100
AcDbBlockEnd
  0
BLOCK
  5
FA
330
F9
100
AcDbEntity
  8
0
100
AcDbBlockBegin
  2
SW_SYMBOL_C#_3
 70
     0
 10
0.0
 20
0.0
 30
0.0
  3
SW_SYMBOL_C#_3
  1
SW_SYMBOL_C#_3
  0
CIRCLE
  5
FC
330
F9
100
AcDbEntity
  8
0
  6
Continuous
 62
     0
370
     0
100
AcDbCircle
 10
31.4960629921
 20
19.6850393701
 30
0.0
 40
31.49606299212599
  0
MTEXT
  5
FD
330
F9
100
AcDbEntity
  8
0
  6
Continuous
 62
     0
370
     0
100
AcDbMText
 10
31.4960629921
 20
19.6850393701
 30
0.0
 40
30.821835344
 41
0.0
 71
     5
 72
     1
  1
3
  7
SLDTEXTSTYLE0
 73
     1
 44
1.0
  0
ENDBLK
  5
FB
330
F9
100
AcDbEntity
  8
0
100
AcDbBlockEnd
  0
BLOCK
  5
11F
330
11E
100
AcDbEntity
  8
0
100
AcDbBlockBegin
  2
_D
 70
     0
 10
0.0
 20
0.0
 30
0.0
  3
_D
  1
_D
  0
SOLID
  5
121
330
11E
100
AcDbEntity
  8
0
  6
Continuous
 62
     7
370
     0
100
AcDbTrace
 10
3.2909586738
 20
5.2715652336
 30
0.0
 11
3.3707791819
 21
5.3698184091
 31
0.0
 12
3.3361381657
 22
5.3898184091
 32
0.0
 13
3.3361381657
 23
5.3898184091
 33
0.0
  0
LINE
  5
122
330
11E
100
AcDbEntity
  8
0
  6
Continuous
 62
     7
370
     0
100
AcDbLine
 10
3.7140533815
 20
5.6253983323
 30
0.0
 11
3.6971552334
 21
5.6253983323
 31
0.0
  0
LINE
  5
123
330
11E
100
AcDbEntity
  8
0
  6
Continuous
 62
     7
370
     0
100
AcDbLine
 10
3.6971552334
 20
5.6253983323
 30
0.0
 11
3.6971552334
 21
5.4929909277
 31
0.0
  0
LINE
  5
124
330
11E
100
AcDbEntity
  8
0
  6
Continuous
 62
     7
370
     0
100
AcDbLine
 10
3.6971552334
 20
5.4929909277
 30
0.0
 11
3.7140533815
 21
5.4929909277
 31
0.0
  0
LINE
  5
125
330
11E
100
AcDbEntity
  8
0
  6
Continuous
 62
     7
370
     0
100
AcDbLine
 10
4.1800642012
 20
5.6253983323
 30
0.0
 11
4.1969623492
 21
5.6253983323
 31
0.0
  0
LINE
  5
126
330
11E
100
AcDbEntity
  8
0
  6
Continuous
 62
     7
370
     0
100
AcDbLine
 10
4.1969623492
 20
5.6253983323
 30
0.0
 11
4.1969623492
 21
5.4929909277
 31
0.0
  0
LINE
  5
127
330
11E
100
AcDbEntity
  8
0
  6
Continuous
 62
     7
370
     0
100
AcDbLine
 10
4.1969623492
 20
5.4929909277
 30
0.0
 11
4.1800642012
 21
5.4929909277
 31
0.0
  0
LINE
  5
128
330
11E
100
AcDbEntity
  8
0
  6
Continuous
 62
     7
370
     0
100
AcDbLine
 10
3.2909586738
 20
5.2715652336
 30
0.0
 11
3.5344816221
 21
5.6933593529
 31
0.0
  0
LINE
  5
129
330
11E
100
AcDbEntity
  8
0
  6
Continuous
 62
     7
370
     0
100
AcDbLine
 10
3.5344816221
 20
5.6933593529
 30
0.0
 11
3.6844816221
 21
5.6933593529
 31
0.0
  0
MTEXT
  5
12A
330
11E
100
AcDbEntity
  8
0
  6
Continuous
 62
     7
370
     0
100
AcDbMText
 10
3.6844816221
 20
5.7497187908
 30
0.0
 40
0.0833333333
 41
0.0
 71
     1
 72
     1
  1
%%c
  7
SLDTEXTSTYLE0
 73
     1
 44
1.0
  0
MTEXT
  5
12B
330
11E
100
AcDbEntity
  8
0
  6
Continuous
 62
     7
370
     0
100
AcDbMText
 10
3.8102686615
 20
5.7497187908
 30
0.0
 40
0.0833333333
 41
0.0
 71
     1
 72
     1
  1
2.20in
  7
SLDTEXTSTYLE0
 73
     1
 44
1.0
  0
MTEXT
  5
12C
330
11E
100
AcDbEntity
  8
0
  6
Continuous
 62
     7
370
     0
100
AcDbMText
 10
3.7351760673
 20
5.6004132348
 30
0.0
 40
0.0833333333
 41
0.0
 71
     1
 72
     1
  1
55.9mm
  7
SLDTEXTSTYLE0
 73
     1
 44
1.0
  0
ENDBLK
  5
120
330
11E
100
AcDbEntity
  8
0
100
AcDbBlockEnd
  0
BLOCK
  5
1B2
330
1B1
100
AcDbEntity
  8
0
100
AcDbBlockBegin
  2
_D_1
 70
     0
 10
0.0
 20
0.0
 30
0.0
  3
_D_1
  1
_D_1
  0
SOLID
  5
1B4
330
1B1
100
AcDbEntity
  8
0
  6
Continuous
 62
     7
370
     0
100
AcDbTrace
 10
8.4605740685
 20
5.2689372894
 30
0.0
 11
8.4405740685
 21
5.1439372894
 31
0.0
 12
8.4805740685
 22
5.1439372894
 32
0.0
 13
8.4805740685
 23
5.1439372894
 33
0.0
  0
SOLID
  5
1B5
330
1B1
100
AcDbEntity
  8
0
  6
Continuous
 62
     7
370
     0
100
AcDbTrace
 10
8.4605740685
 20
3.3689372894
 30
0.0
 11
8.4805740685
 21
3.4939372894
 31
0.0
 12
8.4405740685
 22
3.4939372894
 32
0.0
 13
8.4405740685
 23
3.4939372894
 33
0.0
  0
LINE
  5
1B6
330
1B1
100
AcDbEntity
  8
0
  6
Continuous
 62
     7
370
     0
100
AcDbLine
 10
8.2275686678
 20
4.3295854322
 30
0.0
 11
8.2106705198
 21
4.3295854322
 31
0.0
  0
LINE
  5
1B7
330
1B1
100
AcDbEntity
  8
0
  6
Continuous
 62
     7
370
     0
100
AcDbLine
 10
8.2106705198
 20
4.3295854322
 30
0.0
 11
8.2106705198
 21
4.1971780277
 31
0.0
  0
LINE
  5
1B8
330
1B1
100
AcDbEntity
  8
0
  6
Continuous
 62
     7
370
     0
100
AcDbLine
 10
8.2106705198
 20
4.1971780277
 30
0.0
 11
8.2275686678
 21
4.1971780277
 31
0.0
  0
LINE
  5
1B9
330
1B1
100
AcDbEntity
  8
0
  6
Continuous
 62
     7
370
     0
100
AcDbLine
 10
8.6935794875
 20
4.3295854322
 30
0.0
 11
8.7104776356
 21
4.3295854322
 31
0.0
  0
LINE
  5
1BA
330
1B1
100
AcDbEntity
  8
0
  6
Continuous
 62
     7
370
     0
100
AcDbLine
 10
8.7104776356
 20
4.3295854322
 30
0.0
 11
8.7104776356
 21
4.1971780277
 31
0.0
  0
LINE
  5
1BB
330
1B1
100
AcDbEntity
  8
0
  6
Continuous
 62
     7
370
     0
100
AcDbLine
 10
8.7104776356
 20
4.1971780277
 30
0.0
 11
8.6935794875
 21
4.1971780277
 31
0.0
  0
LINE
  5
1BC
330
1B1
100
AcDbEntity
  8
0
  6
Continuous
 62
     7
370
     0
100
AcDbLine
 10
7.6444323362
 20
5.2689372894
 30
0.0
 11
8.5305740685
 21
5.2689372894
 31
0.0
  0
LINE
  5
1BD
330
1B1
100
AcDbEntity
  8
0
  6
Continuous
 62
     7
370
     0
100
AcDbLine
 10
7.6444323362
 20
3.3689372894
 30
0.0
 11
8.5305740685
 21
3.3689372894
 31
0.0
  0
LINE
  5
1BE
330
1B1
100
AcDbEntity
  8
0
  6
Continuous
 62
     7
370
     0
100
AcDbLine
 10
8.4605740685
 20
5.2689372894
 30
0.0
 11
8.4605740685
 21
4.4575946935
 31
0.0
  0
LINE
  5
1BF
330
1B1
100
AcDbEntity
  8
0
  6
Continuous
 62
     7
370
     0
100
AcDbLine
 10
8.4605740685
 20
3.3689372894
 30
0.0
 11
8.4605740685
 21
4.1802798854
 31
0.0
  0
MTEXT
  5
1C0
330
1B1
100
AcDbEntity
  8
0
  6
Continuous
 62
     7
370
     0
100
AcDbMText
 10
8.2449799324
 20
4.4539058908
 30
0.0
 40
0.0833333333
 41
0.0
 71
     1
 72
     1
  1
%%c
  7
SLDTEXTSTYLE0
 73
     1
 44
1.0
  0
MTEXT
  5
1C1
330
1B1
100
AcDbEntity
  8
0
  6
Continuous
 62
     7
370
     0
100
AcDbMText
 10
8.3707669718
 20
4.4539058908
 30
0.0
 40
0.0833333333
 41
0.0
 71
     1
 72
     1
  1
1.90in
  7
SLDTEXTSTYLE0
 73
     1
 44
1.0
  0
MTEXT
  5
1C2
330
1B1
100
AcDbEntity
  8
0
  6
Continuous
 62
     7
370
     0
100
AcDbMText
 10
8.2486913537
 20
4.3046003347
 30
0.0
 40
0.0833333333
 41
0.0
 71
     1
 72
     1
  1
48.3mm
  7
SLDTEXTSTYLE0
 73
     1
 44
1.0
  0
ENDBLK
  5
1B3
330
1B1
100
AcDbEntity
  8
0
100
AcDbBlockEnd
  0
BLOCK
  5
1C6
330
1C5
100
AcDbEntity
  8
0
100
AcDbBlockBegin
  2
_D_2
 70
     0
 10
0.0
 20
0.0
 30
0.0
  3
_D_2
  1
_D_2
  0
SOLID
  5
1C8
330
1C5
100
AcDbEntity
  8
0
  6
Continuous
 62
     7
370
     0
100
AcDbTrace
 10
7.4744323362
 20
5.6538036106
 30
0.0
 11
7.3494323362
 21
5.6738036106
 31
0.0
 12
7.3494323362
 22
5.6338036106
 32
0.0
 13
7.3494323362
 23
5.6338036106
 33
0.0
  0
SOLID
  5
1C9
330
1C5
100
AcDbEntity
  8
0
  6
Continuous
 62
     7
370
     0
100
AcDbTrace
 10
7.5944323362
 20
5.6538036106
 30
0.0
 11
7.7194323362
 21
5.6338036106
 31
0.0
 12
7.7194323362
 22
5.6738036106
 32
0.0
 13
7.7194323362
 23
5.6738036106
 33
0.0
  0
LINE
  5
1CA
330
1C5
100
AcDbEntity
  8
0
  6
Continuous
 62
     7
370
     0
100
AcDbLine
 10
8.2583557172
 20
5.6538036014
 30
0.0
 11
8.2414575691
 21
5.6538036014
 31
0.0
  0
LINE
  5
1CB
330
1C5
100
AcDbEntity
  8
0
  6
Continuous
 62
     7
370
     0
100
AcDbLine
 10
8.2414575691
 20
5.6538036014
 30
0.0
 11
8.2414575691
 21
5.5213961968
 31
0.0
  0
LINE
  5
1CC
330
1C5
100
AcDbEntity
  8
0
  6
Continuous
 62
     7
370
     0
100
AcDbLine
 10
8.2414575691
 20
5.5213961968
 30
0.0
 11
8.2583557172
 21
5.5213961968
 31
0.0
  0
LINE
  5
1CD
330
1C5
100
AcDbEntity
  8
0
  6
Continuous
 62
     7
370
     0
100
AcDbLine
 10
8.6627924382
 20
5.6538036014
 30
0.0
 11
8.6796905862
 21
5.6538036014
 31
0.0
  0
LINE
  5
1CE
330
1C5
100
AcDbEntity
  8
0
  6
Continuous
 62
     7
370
     0
100
AcDbLine
 10
8.6796905862
 20
5.6538036014
 30
0.0
 11
8.6796905862
 21
5.5213961968
 31
0.0
  0
LINE
  5
1CF
330
1C5
100
AcDbEntity
  8
0
  6
Continuous
 62
     7
370
     0
100
AcDbLine
 10
8.6796905862
 20
5.5213961968
 30
0.0
 11
8.6627924382
 21
5.5213961968
 31
0.0
  0
LINE
  5
1D0
330
1C5
100
AcDbEntity
  8
0
  6
Continuous
 62
     7
370
     0
100
AcDbLine
 10
7.4744323362
 20
5.4589372894
 30
0.0
 11
7.4744323362
 21
5.7238036106
 31
0.0
  0
LINE
  5
1D1
330
1C5
100
AcDbEntity
  8
0
  6
Continuous
 62
     7
370
     0
100
AcDbLine
 10
7.5944323362
 20
5.3691167813
 30
0.0
 11
7.5944323362
 21
5.7238036106
 31
0.0
  0
LINE
  5
1D2
330
1C5
100
AcDbEntity
  8
0
  6
Continuous
 62
     7
370
     0
100
AcDbLine
 10
7.4744323362
 20
5.6538036106
 30
0.0
 11
7.2244323362
 21
5.6538036106
 31
0.0
  0
LINE
  5
1D3
330
1C5
100
AcDbEntity
  8
0
  6
Continuous
 62
     7
370
     0
100
AcDbLine
 10
7.5944323362
 20
5.6538036106
 30
0.0
 11
8.1504527073
 21
5.6538036106
 31
0.0
  0
MTEXT
  5
1D4
330
1C5
100
AcDbEntity
  8
0
  6
Continuous
 62
     7
370
     0
100
AcDbMText
 10
8.2298642057
 20
5.7781240599
 30
0.0
 40
0.0833333333
 41
0.0
 71
     1
 72
     1
  1

  7
SLDTEXTSTYLE0
 73
     1
 44
1.0
  0
MTEXT
  5
1D5
330
1C5
100
AcDbEntity
  8
0
  6
Continuous
 62
     7
370
     0
100
AcDbMText
 10
8.3078734475
 20
5.7781240599
 30
0.0
 40
0.0833333333
 41
0.0
 71
     1
 72
     1
  1
0.12in
  7
SLDTEXTSTYLE0
 73
     1
 44
1.0
  0
MTEXT
  5
1D6
330
1C5
100
AcDbEntity
  8
0
  6
Continuous
 62
     7
370
     0
100
AcDbMText
 10
8.279478403
 20
5.6288185039
 30
0.0
 40
0.0833333333
 41
0.0
 71
     1
 72
     1
  1
3.0mm
  7
SLDTEXTSTYLE0
 73
     1
 44
1.0
  0
MTEXT
  5
1D7
330
1C5
100
AcDbEntity
  8
0
  6
Continuous
 62
     7
370
     0
100
AcDbMText
 10
8.7548641609
 20
5.7781240599
 30
0.0
 40
0.0833333333
 41
0.0
 71
     1
 72
     1
  1

  7
SLDTEXTSTYLE0
 73
     1
 44
1.0
  0
ENDBLK
  5
1C7
330
1C5
100
AcDbEntity
  8
0
100
AcDbBlockEnd
  0
BLOCK
  5
1DA
330
1D9
100
AcDbEntity
  8
0
100
AcDbBlockBegin
  2
_D_3
 70
     0
 10
0.0
 20
0.0
 30
0.0
  3
_D_3
  1
_D_3
  0
SOLID
  5
1DC
330
1D9
100
AcDbEntity
  8
0
  6
Continuous
 62
     7
370
     0
100
AcDbTrace
 10
7.0144323362
 20
5.9545848639
 30
0.0
 11
6.8894323362
 21
5.9745848639
 31
0.0
 12
6.8894323362
 22
5.9345848639
 32
0.0
 13
6.8894323362
 23
5.9345848639
 33
0.0
  0
SOLID
  5
1DD
330
1D9
100
AcDbEntity
  8
0
  6
Continuous
 62
     7
370
     0
100
AcDbTrace
 10
7.5944323362
 20
5.9545848639
 30
0.0
 11
7.7194323362
 21
5.9345848639
 31
0.0
 12
7.7194323362
 22
5.9745848639
 32
0.0
 13
7.7194323362
 23
5.9745848639
 33
0.0
  0
LINE
  5
1DE
330
1D9
100
AcDbEntity
  8
0
  6
Continuous
 62
     7
370
     0
100
AcDbLine
 10
7.0714269172
 20
5.9545848547
 30
0.0
 11
7.0545287692
 21
5.9545848547
 31
0.0
  0
LINE
  5
1DF
330
1D9
100
AcDbEntity
  8
0
  6
Continuous
 62
     7
370
     0
100
AcDbLine
 10
7.0545287692
 20
5.9545848547
 30
0.0
 11
7.0545287692
 21
5.8221774501
 31
0.0
  0
LINE
  5
1E0
330
1D9
100
AcDbEntity
  8
0
  6
Continuous
 62
     7
370
     0
100
AcDbLine
 10
7.0545287692
 20
5.8221774501
 30
0.0
 11
7.0714269172
 21
5.8221774501
 31
0.0
  0
LINE
  5
1E1
330
1D9
100
AcDbEntity
  8
0
  6
Continuous
 62
     7
370
     0
100
AcDbLine
 10
7.5374377369
 20
5.9545848547
 30
0.0
 11
7.5543358849
 21
5.9545848547
 31
0.0
  0
LINE
  5
1E2
330
1D9
100
AcDbEntity
  8
0
  6
Continuous
 62
     7
370
     0
100
AcDbLine
 10
7.5543358849
 20
5.9545848547
 30
0.0
 11
7.5543358849
 21
5.8221774501
 31
0.0
  0
LINE
  5
1E3
330
1D9
100
AcDbEntity
  8
0
  6
Continuous
 62
     7
370
     0
100
AcDbLine
 10
7.5543358849
 20
5.8221774501
 30
0.0
 11
7.5374377369
 21
5.8221774501
 31
0.0
  0
LINE
  5
1E4
330
1D9
100
AcDbEntity
  8
0
  6
Continuous
 62
     7
370
     0
100
AcDbLine
 10
7.0144323362
 20
5.4589372894
 30
0.0
 11
7.0144323362
 21
6.0245848639
 31
0.0
  0
LINE
  5
1E5
330
1D9
100
AcDbEntity
  8
0
  6
Continuous
 62
     7
370
     0
100
AcDbLine
 10
7.5944323362
 20
5.3691167813
 30
0.0
 11
7.5944323362
 21
6.0245848639
 31
0.0
  0
LINE
  5
1E6
330
1D9
100
AcDbEntity
  8
0
  6
Continuous
 62
     7
370
     0
100
AcDbLine
 10
7.0144323362
 20
5.9545848639
 30
0.0
 11
6.7644323362
 21
5.9545848639
 31
0.0
  0
LINE
  5
1E7
330
1D9
100
AcDbEntity
  8
0
  6
Continuous
 62
     7
370
     0
100
AcDbLine
 10
7.5944323362
 20
5.9545848639
 30
0.0
 11
7.8444323362
 21
5.9545848639
 31
0.0
  0
MTEXT
  5
1E8
330
1D9
100
AcDbEntity
  8
0
  6
Continuous
 62
     7
370
     0
100
AcDbMText
 10
7.0429354057
 20
6.0789053133
 30
0.0
 40
0.0833333333
 41
0.0
 71
     1
 72
     1
  1

  7
SLDTEXTSTYLE0
 73
     1
 44
1.0
  0
MTEXT
  5
1E9
330
1D9
100
AcDbEntity
  8
0
  6
Continuous
 62
     7
370
     0
100
AcDbMText
 10
7.1517316969
 20
6.0789053133
 30
0.0
 40
0.0833333333
 41
0.0
 71
     1
 72
     1
  1
0.58in
  7
SLDTEXTSTYLE0
 73
     1
 44
1.0
  0
MTEXT
  5
1EA
330
1D9
100
AcDbEntity
  8
0
  6
Continuous
 62
     7
370
     0
100
AcDbMText
 10
7.0925496031
 20
5.9295997572
 30
0.0
 40
0.0833333333
 41
0.0
 71
     1
 72
     1
  1
14.7mm
  7
SLDTEXTSTYLE0
 73
     1
 44
1.0
  0
MTEXT
  5
1EB
330
1D9
100
AcDbEntity
  8
0
  6
Continuous
 62
     7
370
     0
100
AcDbMText
 10
7.6295094962
 20
6.0789053133
 30
0.0
 40
0.0833333333
 41
0.0
 71
     1
 72
     1
  1

  7
SLDTEXTSTYLE0
 73
     1
 44
1.0
  0
ENDBLK
  5
1DB
330
1D9
100
AcDbEntity
  8
0
100
AcDbBlockEnd
  0
BLOCK
  5
1ED
330
1EC
100
AcDbEntity
  8
0
100
AcDbBlockBegin
  2
SW_NOTE_5
 70
     0
 10
0.0
 20
0.0
 30
0.0
  3
SW_NOTE_5
  1
SW_NOTE_5
  0
MTEXT
  5
1F0
330
1EC
100
AcDbEntity
  8
0
  6
Continuous
 62
     0
370
     0
100
AcDbMText
 10
-2.2699146567
 20
0.0378429139
 30
0.0
 40
0.0833333333
 41
0.0
 71
     1
 72
     1
  1
SM2 (
  7
SLDTEXTSTYLE3
 73
     1
 44
1.0
  0
MTEXT
  5
1F1
330
1EC
100
AcDbEntity
  8
0
  6
Continuous
 62
     0
370
     0
100
AcDbMText
 10
-1.9483097219
 20
0.0378429139
 30
0.0
 40
0.0833333333
 41
0.0
 71
     1
 72
     1
  1
%%c
  7
SLDTEXTSTYLE0
 73
     1
 44
1.0
  0
MTEXT
  5
1F2
330
1EC
100
AcDbEntity
  8
0
  6
Continuous
 62
     0
370
     0
100
AcDbMText
 10
-1.8225226916
 20
0.0378429139
 30
0.0
 40
0.0833333333
 41
0.0
 71
     1
 72
     1
  1
2.035-40) SERIES INTERNAL THREAD
  7
SLDTEXTSTYLE0
 73
     1
 44
1.0
  0
ENDBLK
  5
1EE
330
1EC
100
AcDbEntity
  8
0
100
AcDbBlockEnd
  0
BLOCK
  5
1F7
330
1F6
100
AcDbEntity
  8
0
100
AcDbBlockBegin
  2
SW_NOTE_6
 70
     0
 10
0.0
 20
0.0
 30
0.0
  3
SW_NOTE_6
  1
SW_NOTE_6
  0
MTEXT
  5
1F9
330
1F6
100
AcDbEntity
  8
0
  6
Continuous
 62
     0
370
     0
100
AcDbMText
 10
0.0214166882
 20
0.0362265413
 30
0.0
 40
0.0833333333
 41
0.0
 71
     1
 72
     1
  1
SM2 (
  7
SLDTEXTSTYLE3
 73
     1
 44
1.0
  0
MTEXT
  5
1FA
330
1F6
100
AcDbEntity
  8
0
  6
Continuous
 62
     0
370
     0
100
AcDbMText
 10
0.3123117561
 20
0.0362265413
 30
0.0
 40
0.0833333333
 41
0.0
 71
     1
 72
     1
  1
%%c
  7
SLDTEXTSTYLE0
 73
     1
 44
1.0
  0
MTEXT
  5
1FB
330
1F6
100
AcDbEntity
  8
0
  6
Continuous
 62
     0
370
     0
100
AcDbMText
 10
0.4380988046
 20
0.0362265413
 30
0.0
 40
0.0833333333
 41
0.0
 71
     1
 72
     1
  1
2.035-40) SERIES EXTERNAL THREAD
  7
SLDTEXTSTYLE0
 73
     1
 44
1.0
  0
ENDBLK
  5
1F8
330
1F6
100
AcDbEntity
  8
0
100
AcDbBlockEnd
  0
BLOCK
  5
1FF
330
1FE
100
AcDbEntity
  8
0
100
AcDbBlockBegin
  2
SW_NOTE_7
 70
     0
 10
0.0
 20
0.0
 30
0.0
  3
SW_NOTE_7
  1
SW_NOTE_7
  0
CIRCLE
  5
201
330
1FE
100
AcDbEntity
  8
0
  6
Continuous
 62
     0
370
     0
100
AcDbCircle
 10
-0.1752436686
 20
0.0
 30
0.0
 40
0.1752436685975053
  0
MTEXT
  5
202
330
1FE
100
AcDbEntity
  8
0
  6
Continuous
 62
     0
370
     0
100
AcDbMText
 10
-0.1765023493
 20
0.0643634991
 30
0.0
 40
0.125
 41
0.0
 71
     2
 72
     1
  1
1
  7
SLDTEXTSTYLE0
 73
     1
 44
1.0
  0
ENDBLK
  5
200
330
1FE
100
AcDbEntity
  8
0
100
AcDbBlockEnd
  0
BLOCK
  5
206
330
205
100
AcDbEntity
  8
0
100
AcDbBlockBegin
  2
SW_NOTE_8
 70
     0
 10
0.0
 20
0.0
 30
0.0
  3
SW_NOTE_8
  1
SW_NOTE_8
  0
CIRCLE
  5
208
330
205
100
AcDbEntity
  8
0
  6
Continuous
 62
     0
370
     0
100
AcDbCircle
 10
-0.1752436686
 20
0.0
 30
0.0
 40
0.1752436685975056
  0
MTEXT
  5
209
330
205
100
AcDbEntity
  8
0
  6
Continuous
 62
     0
370
     0
100
AcDbMText
 10
-0.1765023493
 20
0.0643634991
 30
0.0
 40
0.125
 41
0.0
 71
     2
 72
     1
  1
3
  7
SLDTEXTSTYLE0
 73
     1
 44
1.0
  0
ENDBLK
  5
207
330
205
100
AcDbEntity
  8
0
100
AcDbBlockEnd
  0
BLOCK
  5
20D
330
20C
100
AcDbEntity
  8
0
100
AcDbBlockBegin
  2
SW_NOTE_9
 70
     0
 10
0.0
 20
0.0
 30
0.0
  3
SW_NOTE_9
  1
SW_NOTE_9
  0
CIRCLE
  5
20F
330
20C
100
AcDbEntity
  8
0
  6
Continuous
 62
     0
370
     0
100
AcDbCircle
 10
0.1752436686
 20
0.0
 30
0.0
 40
0.1752436685975056
  0
MTEXT
  5
210
330
20C
100
AcDbEntity
  8
0
  6
Continuous
 62
     0
370
     0
100
AcDbMText
 10
0.1739849879
 20
0.0643634991
 30
0.0
 40
0.125
 41
0.0
 71
     2
 72
     1
  1
2
  7
SLDTEXTSTYLE0
 73
     1
 44
1.0
  0
ENDBLK
  5
20E
330
20C
100
AcDbEntity
  8
0
100
AcDbBlockEnd
  0
ENDSEC
  0
SECTION
  2
ENTITIES
  0
LINE
  5
7D
330
1F
100
AcDbEntity
  8
0
  6
Continuous
 62
     7
370
     0
100
AcDbLine
 10
0.0621791378
 20
8.4506055117
 30
0.0
 11
10.9444569626
 21
8.4506055117
 31
0.0
  0
LINE
  5
7E
330
1F
100
AcDbEntity
  8
0
  6
Continuous
 62
     7
370
     0
100
AcDbLine
 10
0.0621791378
 20
8.4506055117
 30
0.0
 11
0.0621791378
 21
0.035557648
 31
0.0
  0
LINE
  5
7F
330
1F
100
AcDbEntity
  8
0
  6
Continuous
 62
     7
370
     0
100
AcDbLine
 10
10.9444569626
 20
0.035557648
 30
0.0
 11
0.0621791378
 21
0.035557648
 31
0.0
  0
LINE
  5
80
330
1F
100
AcDbEntity
  8
0
  6
Continuous
 62
     7
370
     0
100
AcDbLine
 10
10.9444569626
 20
0.035557648
 30
0.0
 11
10.9444569626
 21
8.4506055117
 31
0.0
  0
LINE
  5
81
330
1F
100
AcDbEntity
  8
0
  6
Continuous
 62
     7
370
     0
100
AcDbLine
 10
8.4938096065
 20
0.4840901186
 30
0.0
 11
6.7571952625
 21
0.4840901186
 31
0.0
  0
LINE
  5
82
330
1F
100
AcDbEntity
  8
0
  6
Continuous
 62
     7
370
     0
100
AcDbLine
 10
6.7571952625
 20
0.4840901186
 30
0.0
 11
6.7571952625
 21
1.030163002
 31
0.0
  0
LINE
  5
83
330
1F
100
AcDbEntity
  8
0
  6
Continuous
 62
     7
370
     0
100
AcDbLine
 10
6.7571952625
 20
0.035557648
 30
0.0
 11
6.7571952625
 21
1.030163002
 31
0.0
  0
LINE
  5
84
330
1F
100
AcDbEntity
  8
0
  6
Continuous
 62
     7
370
     0
100
AcDbLine
 10
8.4938096065
 20
0.6756085809
 30
0.0
 11
10.9444569626
 21
0.6756085809
 31
0.0
  0
LINE
  5
85
330
1F
100
AcDbEntity
  8
0
  6
Continuous
 62
     7
370
     0
100
AcDbLine
 10
8.4938096065
 20
1.3873799542
 30
0.0
 11
8.4938096065
 21
0.035557648
 31
0.0
  0
LINE
  5
86
330
1F
100
AcDbEntity
  8
0
  6
Continuous
 62
     7
370
     0
100
AcDbLine
 10
8.4938096065
 20
1.030163002
 30
0.0
 11
6.7571952625
 21
1.030163002
 31
0.0
  0
LINE
  5
87
330
1F
100
AcDbEntity
  8
0
  6
Continuous
 62
     7
370
     0
100
AcDbLine
 10
8.4938096065
 20
0.3598787426
 30
0.0
 11
10.9444569626
 21
0.3598787426
 31
0.0
  0
LINE
  5
88
330
1F
100
AcDbEntity
  8
0
  6
Continuous
 62
     7
370
     0
100
AcDbLine
 10
8.4938096065
 20
0.6662079686
 30
0.0
 11
6.7571952625
 21
0.6662079686
 31
0.0
  0
LINE
  5
89
330
1F
100
AcDbEntity
  8
0
  6
Continuous
 62
     7
370
     0
100
AcDbLine
 10
8.4938096065
 20
0.8459606517
 30
0.0
 11
6.7571952625
 21
0.8459606517
 31
0.0
  0
LINE
  5
8A
330
1F
100
AcDbEntity
  8
0
  6
Continuous
 62
     7
370
     0
100
AcDbLine
 10
7.3281027587
 20
1.030163002
 30
0.0
 11
7.3281027587
 21
0.4840901186
 31
0.0
  0
LINE
  5
8B
330
1F
100
AcDbEntity
  8
0
  6
Continuous
 62
     7
370
     0
100
AcDbLine
 10
7.8037240401
 20
1.030163002
 30
0.0
 11
7.8037240401
 21
0.4840901186
 31
0.0
  0
LINE
  5
8C
330
1F
100
AcDbEntity
  8
0
  6
Continuous
 62
     7
370
     0
100
AcDbLine
 10
9.990119718
 20
0.3598787426
 30
0.0
 11
9.990119718
 21
0.035557648
 31
0.0
  0
LINE
  5
8D
330
1F
100
AcDbEntity
  8
0
  6
Continuous
 62
     7
370
     0
100
AcDbLine
 10
6.7571952625
 20
0.4840901186
 30
0.0
 11
6.7571952625
 21
0.297745443
 31
0.0
  0
LINE
  5
8E
330
1F
100
AcDbEntity
  8
0
  6
Continuous
 62
     7
370
     0
100
AcDbLine
 10
6.7571952625
 20
0.297745443
 30
0.0
 11
8.4938096065
 21
0.297745443
 31
0.0
  0
LINE
  5
8F
330
1F
100
AcDbEntity
  8
0
  6
Continuous
 62
     7
370
     0
100
AcDbLine
 10
6.7571952625
 20
0.297745443
 30
0.0
 11
6.7571952625
 21
1.3873799542
 31
0.0
  0
LINE
  5
90
330
1F
100
AcDbEntity
  8
0
  6
Continuous
 62
     7
370
     0
100
AcDbLine
 10
6.7571952625
 20
1.3873799542
 30
0.0
 11
8.4938096065
 21
1.3873799542
 31
0.0
  0
LINE
  5
91
330
1F
100
AcDbEntity
  8
0
  6
Continuous
 62
     7
370
     0
100
AcDbLine
 10
10.6365495992
 20
0.6756085809
 30
0.0
 11
10.6365495992
 21
0.3598787426
 31
0.0
  0
LINE
  5
92
330
1F
100
AcDbEntity
  8
0
  6
Continuous
 62
     7
370
     0
100
AcDbLine
 10
8.4938096065
 20
1.3873799542
 30
0.0
 11
10.9444569626
 21
1.3873799542
 31
0.0
  0
LINE
  5
93
330
1F
100
AcDbEntity
  8
0
  6
Continuous
 62
     7
370
     0
100
AcDbLine
 10
10.9444569626
 20
1.3873799542
 30
0.0
 11
10.9444569626
 21
1.9698084888
 31
0.0
  0
LINE
  5
94
330
1F
100
AcDbEntity
  8
0
  6
Continuous
 62
     7
370
     0
100
AcDbLine
 10
8.4938096065
 20
0.9800288797
 30
0.0
 11
10.9444569626
 21
0.9800288797
 31
0.0
  0
INSERT
  5
95
330
1F
100
AcDbEntity
  8
0
  6
Continuous
 62
     7
100
AcDbBlockReference
  2
Third Angle Projection Block
 10
4.6348905679
 20
0.6108753523
 30
0.0
 41
0.8
 42
0.8
 43
0.8
  0
MTEXT
  5
97
330
1F
100
AcDbEntity
  8
0
  6
Continuous
 62
     7
370
     0
100
AcDbMText
 10
10.7892734632
 20
0.5227176726
 30
0.0
 40
0.125
 41
0.0
 71
     2
 72
     1
  1
A
  7
SLDTEXTSTYLE0
 73
     1
 44
1.0
  0
MTEXT
  5
98
330
1F
100
AcDbEntity
  8
0
  6
Continuous
 62
     7
370
     0
100
AcDbMText
 10
9.2294157495
 20
0.2019943461
 30
0.0
 40
0.125
 41
0.0
 71
     2
 72
     1
  1
LA4545-UV-ML
  7
SLDTEXTSTYLE0
 73
     1
 44
1.0
  0
MTEXT
  5
99
330
1F
100
AcDbEntity
  8
0
  6
Continuous
 62
     7
370
     0
100
AcDbMText
 10
8.5204715199
 20
0.6623747189
 30
0.0
 40
0.0833333333
 41
0.0
 71
     1
 72
     1
  1
MATERIAL
  7
SLDTEXTSTYLE0
 73
     1
 44
1.0
  0
MTEXT
  5
9A
330
1F
100
AcDbEntity
  8
0
  6
Continuous
 62
     7
370
     0
100
AcDbMText
 10
6.8594860853
 20
0.7895493672
 30
0.0
 40
0.0729166667
 41
0.0
 71
     1
 72
     1
  1
DRAWN
  7
SLDTEXTSTYLE0
 73
     1
 44
1.0
  0
MTEXT
  5
9B
330
1F
100
AcDbEntity
  8
0
  6
Continuous
 62
     7
370
     0
100
AcDbMText
 10
6.7872445848
 20
0.613335314
 30
0.0
 40
0.0729166667
 41
0.0
 71
     1
 72
     1
  1
APPROVAL
  7
SLDTEXTSTYLE0
 73
     1
 44
1.0
  0
MTEXT
  5
9C
330
1F
100
AcDbEntity
  8
0
  6
Continuous
 62
     7
370
     0
100
AcDbMText
 10
10.6936137314
 20
0.6373332609
 30
0.0
 40
0.0833333333
 41
0.0
 71
     1
 72
     1
  1
REV
  7
SLDTEXTSTYLE0
 73
     1
 44
1.0
  0
MTEXT
  5
9D
330
1F
100
AcDbEntity
  8
0
  6
Continuous
 62
     7
370
     0
100
AcDbMText
 10
7.4919633718
 20
0.7999100272
 30
0.0
 40
0.0833333333
 41
0.0
 71
     1
 72
     1
  1
GG
  7
SLDTEXTSTYLE0
 73
     1
 44
1.0
  0
MTEXT
  5
9E
330
1F
100
AcDbEntity
  8
0
  6
Continuous
 62
     7
370
     0
100
AcDbMText
 10
7.4919633718
 20
0.623695974
 30
0.0
 40
0.0833333333
 41
0.0
 71
     1
 72
     1
  1
DD
  7
SLDTEXTSTYLE0
 73
     1
 44
1.0
  0
MTEXT
  5
9F
330
1F
100
AcDbEntity
  8
0
  6
Continuous
 62
     7
370
     0
100
AcDbMText
 10
7.8687497515
 20
0.7999100272
 30
0.0
 40
0.0833333333
 41
0.0
 71
     1
 72
     1
  1
13/OCT/15
  7
SLDTEXTSTYLE0
 73
     1
 44
1.0
  0
MTEXT
  5
A0
330
1F
100
AcDbEntity
  8
0
  6
Continuous
 62
     7
370
     0
100
AcDbMText
 10
8.0163191884
 20
0.9772495896
 30
0.0
 40
0.0833333333
 41
0.0
 71
     1
 72
     1
  1
DATE
  7
SLDTEXTSTYLE0
 73
     1
 44
1.0
  0
MTEXT
  5
A1
330
1F
100
AcDbEntity
  8
0
  6
Continuous
 62
     7
370
     0
100
AcDbMText
 10
7.8687497515
 20
0.623695974
 30
0.0
 40
0.0833333333
 41
0.0
 71
     1
 72
     1
  1
13/OCT/15
  7
SLDTEXTSTYLE0
 73
     1
 44
1.0
  0
MTEXT
  5
A3
330
1F
100
AcDbEntity
  8
0
  6
Continuous
 62
     7
370
     0
100
AcDbMText
 10
9.0316104912
 20
1.0943207896
 30
0.0
 40
0.0833333333
 41
0.0
 71
     1
 72
     1
  1
w w w . t h o r  l a b s . c o m
  7
SLDTEXTSTYLE1
 73
     1
 44
1.0
  0
MTEXT
  5
A4
330
1F
100
AcDbEntity
  8
0
  6
Continuous
 62
     7
370
     0
100
AcDbMText
 10
8.5315119501
 20
0.328719653
 30
0.0
 40
0.0833333333
 41
0.0
 71
     1
 72
     1
  1
ITEM #
  7
SLDTEXTSTYLE0
 73
     1
 44
1.0
  0
MTEXT
  5
A5
330
1F
100
AcDbEntity
  8
0
  6
Continuous
 62
     7
370
     0
100
AcDbMText
 10
10.0209370115
 20
0.328719653
 30
0.0
 40
0.0833333333
 41
0.0
 71
     1
 72
     1
  1
APPROX WEIGHT
  7
SLDTEXTSTYLE0
 73
     1
 44
1.0
  0
MTEXT
  5
A6
330
1F
100
AcDbEntity
  8
0
  6
Continuous
 62
     7
370
     0
100
AcDbMText
 10
9.5949135982
 20
0.5414715262
 30
0.0
 40
0.125
 41
0.0
 71
     2
 72
     1
  1
SEE TABLE
  7
SLDTEXTSTYLE0
 73
     1
 44
1.0
  0
MTEXT
  5
A8
330
1F
100
AcDbEntity
  8
0
  6
Continuous
 62
     7
370
     0
100
AcDbMText
 10
10.4826226539
 20
0.2019943461
 30
0.0
 40
0.125
 41
0.0
 71
     2
 72
     1
  1
46 g
  7
SLDTEXTSTYLE2
 73
     1
 44
1.0
  0
INSERT
  5
AE
330
1F
100
AcDbEntity
  8
0
  6
Continuous
 62
     7
370
     0
100
AcDbBlockReference
  2
SW_NOTE_0
 10
6.8835832285
 20
0.1754273811
 30
0.0
  0
INSERT
  5
B4
330
1F
100
AcDbEntity
  8
0
  6
Continuous
 62
     7
370
     0
100
AcDbBlockReference
  2
SW_NOTE_1
 10
6.8719828753
 20
1.2001390658
 30
0.0
  0
MTEXT
  5
B5
330
1F
100
AcDbEntity
  8
0
  6
Continuous
 62
     7
370
     0
100
AcDbMText
 10
7.3987149145
 20
0.9772495896
 30
0.0
 40
0.0833333333
 41
0.0
 71
     1
 72
     1
  1
NAME
  7
SLDTEXTSTYLE0
 73
     1
 44
1.0
  0
INSERT
  5
BC
330
1F
100
AcDbEntity
  8
0
  6
Continuous
 62
     7
370
     0
100
AcDbBlockReference
  2
SW_NOTE_2
 10
8.5755302951
 20
0.8160048101
 30
0.0
  0
MTEXT
  5
BD
330
1F
100
AcDbEntity
  8
0
  6
Continuous
 62
     7
370
     0
100
AcDbMText
 10
7.0281258754
 20
0.4200025137
 30
0.0
 40
0.0625
 41
0.0
 71
     1
 72
     1
  1
COPYRIGHT © 2015 BY THORLABS
  7
SLDTEXTSTYLE0
 73
     1
 44
1.0
  0
INSERT
  5
C3
330
1F
100
AcDbEntity
  8
0
  6
Continuous
 62
     7
370
     0
100
AcDbBlockReference
  2
SW_NOTE_3
 10
2.1096529316
 20
0.3219551564
 30
0.0
  0
INSERT
  5
D9
330
1F
100
AcDbEntity
  8
0
  6
Continuous
 62
     7
370
     0
100
AcDbBlockReference
  2
SW_NOTE_4
 10
0.2229009106
 20
1.7636814979
 30
0.0
  0
INSERT
  5
103
330
1F
100
AcDbEntity
  8
0
  6
Continuous
 62
     7
370
     0
100
AcDbBlockReference
  2
SW_TABLEANNOTATION_0
 10
0.0612779343
 20
8.4504327236
 30
0.0
  0
ARC
  5
104
330
1F
100
AcDbEntity
  8
0
  6
Continuous
 62
     7
370
     0
100
AcDbCircle
 10
2.7409586738
 20
4.3189372894
 30
0.0
 40
1.000179491924312
100
AcDbArc
 50
0.8593146732
 51
179.1406853268
  0
LINE
  5
105
330
1F
100
AcDbEntity
  8
0
  6
Continuous
 62
     7
370
     0
100
AcDbLine
 10
3.7410256876
 20
4.3339372891
 30
0.0
 11
3.7008414652
 21
4.3339372891
 31
0.0
  0
ARC
  5
106
330
1F
100
AcDbEntity
  8
0
  6
Continuous
 62
     7
370
     0
100
AcDbCircle
 10
2.7409586738
 20
4.3189372894
 30
0.0
 40
0.9600000000000011
100
AcDbArc
 50
0.8952829866
 51
179.1047170134
  0
LINE
  5
107
330
1F
100
AcDbEntity
  8
0
  6
Continuous
 62
     7
370
     0
100
AcDbLine
 10
1.7810758824
 20
4.3339372891
 30
0.0
 11
1.74089166
 21
4.3339372891
 31
0.0
  0
ARC
  5
108
330
1F
100
AcDbEntity
  8
0
  6
Continuous
 62
     7
370
     0
100
AcDbCircle
 10
2.7409586738
 20
4.3189372894
 30
0.0
 40
0.9500000000000001
100
AcDbArc
 50
0.9047077972
 51
179.0952922028
  0
LINE
  5
109
330
1F
100
AcDbEntity
  8
0
  6
Continuous
 62
     7
370
     0
100
AcDbLine
 10
1.7910771136
 20
4.3339372891
 30
0.0
 11
1.7810758824
 21
4.3339372891
 31
0.0
  0
LINE
  5
10A
330
1F
100
AcDbEntity
  8
0
  6
Continuous
 62
     7
370
     0
100
AcDbLine
 10
3.7008414652
 20
4.3339372891
 30
0.0
 11
3.690840234
 21
4.3339372891
 31
0.0
  0
LINE
  5
10B
330
1F
100
AcDbEntity
  8
0
  6
Continuous
 62
     7
370
     0
100
AcDbLine
 10
1.74089166
 20
4.3339372891
 30
0.0
 11
1.7235692801
 21
4.3339372891
 31
0.0
  0
LINE
  5
10C
330
1F
100
AcDbEntity
  8
0
  6
Continuous
 62
     7
370
     0
100
AcDbLine
 10
3.7583480675
 20
4.3339372891
 30
0.0
 11
3.7410256876
 21
4.3339372891
 31
0.0
  0
ARC
  5
10D
330
1F
100
AcDbEntity
  8
0
  6
Continuous
 62
     7
370
     0
100
AcDbCircle
 10
2.7409586738
 20
4.3189372894
 30
0.0
 40
1.000179491924312
100
AcDbArc
 50
180.8593146732
 51
359.1406853268
  0
LINE
  5
10E
330
1F
100
AcDbEntity
  8
0
  6
Continuous
 62
     7
370
     0
100
AcDbLine
 10
3.7410256876
 20
4.3039372898
 30
0.0
 11
3.7583480675
 21
4.3039372898
 31
0.0
  0
LINE
  5
10F
330
1F
100
AcDbEntity
  8
0
  6
Continuous
 62
     7
370
     0
100
AcDbLine
 10
1.7235692801
 20
4.3039372898
 30
0.0
 11
1.74089166
 21
4.3039372898
 31
0.0
  0
ARC
  5
110
330
1F
100
AcDbEntity
  8
0
  6
Continuous
 62
     7
370
     0
100
AcDbCircle
 10
2.7409586738
 20
4.3189372894
 30
0.0
 40
0.9500000000000001
100
AcDbArc
 50
180.9047077972
 51
359.0952922028
  0
LINE
  5
111
330
1F
100
AcDbEntity
  8
0
  6
Continuous
 62
     7
370
     0
100
AcDbLine
 10
3.690840234
 20
4.3039372898
 30
0.0
 11
3.7008414652
 21
4.3039372898
 31
0.0
  0
ARC
  5
112
330
1F
100
AcDbEntity
  8
0
  6
Continuous
 62
     7
370
     0
100
AcDbCircle
 10
2.7409586738
 20
4.3189372894
 30
0.0
 40
0.9600000000000011
100
AcDbArc
 50
180.8952829866
 51
359.1047170134
  0
LINE
  5
113
330
1F
100
AcDbEntity
  8
0
  6
Continuous
 62
     7
370
     0
100
AcDbLine
 10
1.7810758824
 20
4.3039372898
 30
0.0
 11
1.7910771136
 21
4.3039372898
 31
0.0
  0
LINE
  5
114
330
1F
100
AcDbEntity
  8
0
  6
Continuous
 62
     7
370
     0
100
AcDbLine
 10
3.7008414652
 20
4.3039372898
 30
0.0
 11
3.7410256876
 21
4.3039372898
 31
0.0
  0
LINE
  5
115
330
1F
100
AcDbEntity
  8
0
  6
Continuous
 62
     7
370
     0
100
AcDbLine
 10
1.74089166
 20
4.3039372898
 30
0.0
 11
1.7810758824
 21
4.3039372898
 31
0.0
  0
ARC
  5
116
330
1F
100
AcDbEntity
  8
0
  6
Continuous
 62
     7
370
     0
100
AcDbCircle
 10
2.7409586738
 20
4.3189372894
 30
0.0
 40
0.9500000000000001
100
AcDbArc
 50
179.0952922028
 51
180.9047077972
  0
ARC
  5
117
330
1F
100
AcDbEntity
  8
0
  6
Continuous
 62
     7
370
     0
100
AcDbCircle
 10
2.7409586738
 20
4.3189372894
 30
0.0
 40
0.9499999999999997
100
AcDbArc
 50
359.0952922028
 51
0.9047077972
  0
CIRCLE
  5
118
330
1F
100
AcDbEntity
  8
0
  6
Continuous
 62
     7
370
     0
100
AcDbCircle
 10
2.7409586738
 20
4.3189372894
 30
0.0
 40
1.034820508075689
  0
CIRCLE
  5
119
330
1F
100
AcDbEntity
  8
0
  6
Continuous
 62
     7
370
     0
100
AcDbCircle
 10
2.7409586738
 20
4.3189372894
 30
0.0
 40
1.0175
  0
CIRCLE
  5
11A
330
1F
100
AcDbEntity
  8
0
  6
Continuous
 62
     7
370
     0
100
AcDbCircle
 10
2.7409586738
 20
4.3189372894
 30
0.0
 40
1.090000000000001
  0
CIRCLE
  5
11B
330
1F
100
AcDbEntity
  8
0
  6
Continuous
 62
     7
370
     0
100
AcDbCircle
 10
2.7409586738
 20
4.3189372894
 30
0.0
 40
1.1
  0
DIMENSION
  5
11C
330
1F
100
AcDbEntity
  8
0
  6
Continuous
 62
     7
370
     0
100
AcDbDimension
  2
_D
 10
2.1909586738
 20
3.3663093453
 30
0.0
 11
3.9470587821
 21
5.687225095
 31
0.0
 70
   163
  1
<>
 71
     1
 42
-1.0
  3
SLDDIMSTYLE0
100
AcDbDiametricDimension
 15
3.2909586738
 25
5.2715652336
 35
0.0
 40
0.0
  0
LINE
  5
12D
330
1F
100
AcDbEntity
  8
0
  6
PHANTOM
 62
     7
370
    30
100
AcDbLine
 10
2.7409586738
 20
5.7862065323
 30
0.0
 11
2.7409586738
 21
2.8944701041
 31
0.0
  0
LINE
  5
12E
330
1F
100
AcDbEntity
  8
0
  6
Continuous
 62
     7
370
    30
100
AcDbLine
 10
2.7409586738
 20
5.7862065323
 30
0.0
 11
2.359212225
 21
5.7862065323
 31
0.0
  0
SOLID
  5
12F
330
1F
100
AcDbEntity
  8
0
  6
Continuous
 62
     7
370
    30
100
AcDbTrace
 10
2.359212225
 20
5.7862065323
 30
0.0
 11
2.509212225
 21
5.7612065323
 31
0.0
 12
2.509212225
 22
5.8112065323
 32
0.0
 13
2.509212225
 23
5.8112065323
 33
0.0
  0
LINE
  5
130
330
1F
100
AcDbEntity
  8
0
  6
Continuous
 62
     7
370
    30
100
AcDbLine
 10
2.7409586738
 20
2.8944701041
 30
0.0
 11
2.3491364883
 21
2.8944701041
 31
0.0
  0
SOLID
  5
131
330
1F
100
AcDbEntity
  8
0
  6
Continuous
 62
     7
370
    30
100
AcDbTrace
 10
2.3491364883
 20
2.8944701041
 30
0.0
 11
2.4991364883
 21
2.8694701041
 31
0.0
 12
2.4991364883
 22
2.9194701041
 32
0.0
 13
2.4991364883
 23
2.9194701041
 33
0.0
  0
MTEXT
  5
132
330
1F
100
AcDbEntity
  8
0
  6
Continuous
 62
     7
100
AcDbMText
 10
2.1601573477
 20
5.8396276451
 30
0.0
 40
0.1041666667
 41
0.0
 71
     1
 72
     1
  1
A
  7
SLDTEXTSTYLE0
 73
     1
 44
1.0
  0
MTEXT
  5
133
330
1F
100
AcDbEntity
  8
0
  6
Continuous
 62
     7
100
AcDbMText
 10
2.1463484042
 20
2.939586631
 30
0.0
 40
0.1041666667
 41
0.0
 71
     1
 72
     1
  1
A
  7
SLDTEXTSTYLE0
 73
     1
 44
1.0
  0
LINE
  5
134
330
1F
100
AcDbEntity
  8
0
  6
Continuous
 62
     7
370
     0
100
AcDbLine
 10
8.7381914284
 20
7.4519299958
 30
0.0
 11
8.7381914284
 21
7.4437659146
 31
0.0
  0
LINE
  5
135
330
1F
100
AcDbEntity
  8
0
  6
Continuous
 62
     7
370
     0
100
AcDbLine
 10
9.5088125519
 20
6.1088663361
 30
0.0
 11
9.5158824705
 21
6.1047836321
 31
0.0
  0
LINE
  5
136
330
1F
100
AcDbEntity
  8
0
  6
Continuous
 62
     7
370
     0
100
AcDbLine
 10
9.2771805684
 20
8.1351690675
 30
0.0
 11
8.9660535847
 21
7.9555592829
 31
0.0
  0
LINE
  5
137
330
1F
100
AcDbEntity
  8
0
  6
Continuous
 62
     7
370
     0
100
AcDbLine
 10
10.0659641906
 20
6.0502517856
 30
0.0
 11
10.3770911743
 21
6.2298615702
 31
0.0
  0
LINE
  5
138
330
1F
100
AcDbEntity
  8
0
  6
Continuous
 62
     7
370
     0
100
AcDbLine
 10
10.6049533307
 20
6.7334908573
 30
0.0
 11
10.6049533307
 21
6.7416549385
 31
0.0
  0
LINE
  5
139
330
1F
100
AcDbEntity
  8
0
  6
Continuous
 62
     7
370
     0
100
AcDbLine
 10
9.8343322072
 20
8.076554517
 30
0.0
 11
9.8272622886
 21
8.080637221
 31
0.0
  0
LWPOLYLINE
  5
13A
330
1F
100
AcDbEntity
  8
0
  6
Continuous
 62
     7
370
     0
100
AcDbPolyline
 90
       18
 70
   128
 43
0.0
 10
9.1147469783
 20
7.9241679802
 10
9.1008559358
 20
7.9136009158
 10
9.0820034954
 20
7.8973238617
 10
9.0641704172
 20
7.8795553506
 10
9.0473890966
 20
7.8603276604
 10
9.0316900182
 20
7.8396757197
 10
9.0171017007
 20
7.8176370445
 10
9.003650645
 20
7.7942516699
 10
8.991361286
 20
7.7695620775
 10
8.9802559483
 20
7.7436131177
 10
8.9703548058
 20
7.7164519292
 10
8.9616758447
 20
7.6881278523
 10
8.954234831
 20
7.6586923403
 10
8.9480452819
 20
7.6281988651
 10
8.9431184413
 20
7.5967028205
 10
8.9394632592
 20
7.5642614219
 10
8.9370863755
 20
7.5309336017
 10
8.935992108
 20
7.4967799026
  0
LINE
  5
13B
330
1F
100
AcDbEntity
  8
0
  6
Continuous
 62
     7
370
     0
100
AcDbLine
 10
8.935992108
 20
7.4967799026
 30
0.0
 11
8.930814373
 21
7.5079330266
 31
0.0
  0
ARC
  5
13C
330
1F
100
AcDbEntity
  8
0
  6
Continuous
 62
     7
370
     0
100
AcDbCircle
 10
9.4813789237
 20
7.5383048962
 30
0.0
 40
0.5514016457727571
100
AcDbArc
 50
136.8875197129
 51
183.157518836
  0
LWPOLYLINE
  5
13D
330
1F
100
AcDbEntity
  8
0
  6
Continuous
 62
     7
370
     0
100
AcDbPolyline
 90
        3
 70
   128
 43
0.0
 10
8.941377509
 20
7.4936709768
 10
8.9413867689
 20
7.4926414921
 10
8.9414209747
 20
7.489559863
  0
LINE
  5
13E
330
1F
100
AcDbEntity
  8
0
  6
Continuous
 62
     7
370
     0
100
AcDbLine
 10
8.930814373
 20
7.4834368022
 30
0.0
 11
8.9414209747
 21
7.489559863
 31
0.0
  0
LWPOLYLINE
  5
13F
330
1F
100
AcDbEntity
  8
0
  6
Continuous
 62
     7
370
     0
100
AcDbPolyline
 90
       54
 70
   128
 43
0.0
 10
10.0873779064
 20
6.1681370888
 10
10.0745797864
 20
6.1644772573
 10
10.0497772037
 20
6.1587859916
 10
10.0242680373
 20
6.1547244818
 10
9.9980973978
 20
6.1522999101
 10
9.9713115655
 20
6.1515165643
 10
9.9439579085
 20
6.1523758295
 10
9.9160847992
 20
6.1548761862
 10
9.8877415285
 20
6.1590132129
 10
9.8589782188
 20
6.1647795935
 10
9.8298457354
 20
6.1721651307
 10
9.8003955961
 20
6.1811567641
 10
9.7706798809
 20
6.1917385926
 10
9.7407511392
 20
6.2038919033
 10
9.7106622969
 20
6.2175952043
 10
9.6804665636
 20
6.2328242626
 10
9.6502173373
 20
6.249552147
 10
9.619968111
 20
6.2677492758
 10
9.5897723776
 20
6.2873834692
 10
9.5596835354
 20
6.308420006
 10
9.5297547936
 20
6.330821685
 10
9.5000390784
 20
6.354548891
 10
9.4705889392
 20
6.3795596646
 10
9.4414564558
 20
6.4058097768
 10
9.4126931461
 20
6.4332528067
 10
9.3843498754
 20
6.4618402238
 10
9.3564767661
 20
6.491521474
 10
9.3291231091
 20
6.522244069
 10
9.3023372767
 20
6.5539536786
 10
9.2761666372
 20
6.5865942275
 10
9.2506574709
 20
6.6201079939
 10
9.2258548882
 20
6.6544357119
 10
9.2018027502
 20
6.6895166763
 10
9.1785435909
 20
6.7252888496
 10
9.1561185417
 20
6.7616889721
 10
9.1345672594
 20
6.7986526738
 10
9.1139278553
 20
6.8361145878
 10
9.0942368282
 20
6.8740084663
 10
9.0755289998
 20
6.9122672975
 10
9.0578374532
 20
6.9508234243
 10
9.0411934742
 20
6.9896086639
 10
9.0256264961
 20
7.0285544283
 10
9.0111640475
 20
7.0675918456
 10
8.997831704
 20
7.1066518818
 10
8.9856530426
 20
7.145665463
 10
8.9746496
 20
7.1845635973
 10
8.9648408348
 20
7.2232774971
 10
8.9562440928
 20
7.2617387006
 10
8.9488745767
 20
7.2998791926
 10
8.9427453186
 20
7.3376315255
 10
8.9378671576
 20
7.3749289378
 10
8.9342487203
 20
7.4117054725
 10
8.9318964055
 20
7.4478960939
 10
8.930814373
 20
7.4834368022
  0
LWPOLYLINE
  5
140
330
1F
100
AcDbEntity
  8
0
  6
Continuous
 62
     7
370
     0
100
AcDbPolyline
 90
       22
 70
   128
 43
0.0
 10
8.9644066287
 20
7.480376549
 10
8.9654979059
 20
7.5135834197
 10
8.9678535933
 20
7.545974373
 10
8.9714692954
 20
7.5774889712
 10
8.9763382659
 20
7.6080684119
 10
8.9824514196
 20
7.6376556376
 10
8.9897973503
 20
7.666195442
 10
8.9983623514
 20
7.6936345733
 10
9.0081304415
 20
7.7199218335
 10
9.0190833946
 20
7.7450081736
 10
9.0312007738
 20
7.7688467856
 10
9.0444599695
 20
7.7913931895
 10
9.0588362418
 20
7.8126053164
 10
9.074302766
 20
7.832443587
 10
9.0908306837
 20
7.8508709856
 10
9.1083891557
 20
7.8678531288
 10
9.1269454201
 20
7.8833583299
 10
9.1464648529
 20
7.8973576583
 10
9.1669110335
 20
7.9098249927
 10
9.1882458116
 20
7.9207370707
 10
9.2104293791
 20
7.9300735316
 10
9.2138594609
 20
7.9313486387
  0
LINE
  5
141
330
1F
100
AcDbEntity
  8
0
  6
Continuous
 62
     7
370
     0
100
AcDbLine
 10
8.9644066287
 20
7.480376549
 30
0.0
 11
8.935992108
 21
7.4967799026
 31
0.0
  0
LWPOLYLINE
  5
142
330
1F
100
AcDbEntity
  8
0
  6
Continuous
 62
     7
370
     0
100
AcDbPolyline
 90
       21
 70
   128
 43
0.0
 10
9.2324376141
 20
7.9301851432
 10
9.2110642903
 20
7.921654178
 10
9.1894292985
 20
7.911117834
 10
9.1686882107
 20
7.8989935438
 10
9.1488808164
 20
7.8853045665
 10
9.1300451141
 20
7.870077163
 10
9.1122172381
 20
7.8533405456
 10
9.0954313893
 20
7.8351268215
 10
9.0797197696
 20
7.815470932
 10
9.0651125201
 20
7.7944105849
 10
9.0516376632
 20
7.7719861822
 10
9.0393210492
 20
7.7482407427
 10
9.028186306
 20
7.7232198196
 10
9.0182547946
 20
7.696971413
 10
9.0095455675
 20
7.6695458776
 10
9.0020753325
 20
7.6409958264
 10
8.9958584204
 20
7.6113760299
 10
8.9909067577
 20
7.5807433103
 10
8.9872298436
 20
7.5491564334
 10
8.984834732
 20
7.5166759954
 10
8.9837260176
 20
7.4833643065
  0
LINE
  5
143
330
1F
100
AcDbEntity
  8
0
  6
Continuous
 62
     7
370
     0
100
AcDbLine
 10
8.9837260176
 20
7.4833643065
 30
0.0
 11
8.9644066287
 21
7.480376549
 31
0.0
  0
LWPOLYLINE
  5
144
330
1F
100
AcDbEntity
  8
0
  6
Continuous
 62
     7
370
     0
100
AcDbPolyline
 90
       57
 70
   128
 43
0.0
 10
8.9837260176
 20
7.4588680821
 10
8.984834732
 20
7.4242762988
 10
8.9872298436
 20
7.3890305238
 10
8.9909067577
 20
7.3531983723
 10
8.9958584204
 20
7.3168485847
 10
9.0020753325
 20
7.2800508942
 10
9.0095455675
 20
7.2428758933
 10
9.0182547946
 20
7.2053948983
 10
9.028186306
 20
7.1676798127
 10
9.0393210492
 20
7.1298029888
 10
9.0516376632
 20
7.0918370894
 10
9.0651125201
 20
7.0538549481
 10
9.0797197696
 20
7.0159294297
 10
9.0954313893
 20
6.9781332902
 10
9.1122172381
 20
6.9405390377
 10
9.1300451141
 20
6.9032187927
 10
9.1488808164
 20
6.8662441502
 10
9.1686882107
 20
6.8296860423
 10
9.1894292985
 20
6.7936146018
 10
9.2110642903
 20
6.758099028
 10
9.2335516815
 20
6.7232074539
 10
9.2568483326
 20
6.6890068151
 10
9.2809095512
 20
6.6555627222
 10
9.3056891785
 20
6.622939334
 10
9.3311396773
 20
6.5911992352
 10
9.3572122236
 20
6.5604033158
 10
9.3838567998
 20
6.5306106545
 10
9.4110222912
 20
6.5018784055
 10
9.4386565836
 20
6.4742616885
 10
9.4667066635
 20
6.4478134833
 10
9.4951187197
 20
6.4225845281
 10
9.5238382468
 20
6.3986232219
 10
9.5528101492
 20
6.3759755321
 10
9.5819788475
 20
6.3546849057
 10
9.6112883845
 20
6.3347921868
 10
9.640682533
 20
6.3163355373
 10
9.6701049034
 20
6.2993503644
 10
9.6994990519
 20
6.2838692525
 10
9.7288085889
 20
6.2699219003
 10
9.7579772872
 20
6.2575350644
 10
9.7869491896
 20
6.2467325077
 10
9.8156687166
 20
6.2375349538
 10
9.8440807729
 20
6.2299600471
 10
9.8721308528
 20
6.2240223194
 10
9.8997651452
 20
6.2197331615
 10
9.9269306365
 20
6.2171008018
 10
9.9535752128
 20
6.2161302902
 10
9.9796477591
 20
6.2168234885
 10
10.0050982579
 20
6.2191790668
 10
10.0298778852
 20
6.2231925062
 10
10.0539391038
 20
6.2288561075
 10
10.0772357549
 20
6.2361590054
 10
10.0997231461
 20
6.2450871903
 10
10.1213581379
 20
6.2556235343
 10
10.1420992257
 20
6.2677478245
 10
10.16190662
 20
6.2814368018
 10
10.1772043939
 20
6.2936237546
  0
LINE
  5
145
330
1F
100
AcDbEntity
  8
0
  6
Continuous
 62
     7
370
     0
100
AcDbLine
 10
8.9891562384
 20
7.4620028819
 30
0.0
 11
8.9837260176
 21
7.4588680821
 31
0.0
  0
ARC
  5
146
330
1F
100
AcDbEntity
  8
0
  6
Continuous
 62
     7
370
     0
100
AcDbCircle
 10
9.8848102103
 20
7.4742509941
 30
0.0
 40
0.8957377147315794
100
AcDbArc
 50
179.2165262291
 51
180.7834737709
  0
LINE
  5
147
330
1F
100
AcDbEntity
  8
0
  6
Continuous
 62
     7
370
     0
100
AcDbLine
 10
8.9837260176
 20
7.4833643065
 30
0.0
 11
8.9891562384
 21
7.4864991062
 31
0.0
  0
LWPOLYLINE
  5
148
330
1F
100
AcDbEntity
  8
0
  6
Continuous
 62
     7
370
     0
100
AcDbPolyline
 90
       55
 70
   128
 43
0.0
 10
9.7067858798
 20
6.3373249762
 10
9.677686445
 20
6.3548518832
 10
9.6486416414
 20
6.3738022067
 10
9.6197059975
 20
6.3941403696
 10
9.590933837
 20
6.415828189
 10
9.5623791766
 20
6.4388249485
 10
9.5340956246
 20
6.4630874739
 10
9.5061362806
 20
6.4885702149
 10
9.4785536353
 20
6.5152253303
 10
9.4513994721
 20
6.543002778
 10
9.4247247703
 20
6.5718504086
 10
9.3985796087
 20
6.6017140638
 10
9.3730130722
 20
6.6325376776
 10
9.3480731592
 20
6.664263382
 10
9.3238066919
 20
6.6968316153
 10
9.300259228
 20
6.730181234
 10
9.2774749754
 20
6.7642496276
 10
9.2554967092
 20
6.7989728364
 10
9.2343656912
 20
6.8342856711
 10
9.2141215928
 20
6.8701218355
 10
9.1948024201
 20
6.9064140511
 10
9.1764444429
 20
6.943094183
 10
9.1590821263
 20
6.9800933681
 10
9.1427480662
 20
7.0173421442
 10
9.1274729282
 20
7.0547705806
 10
9.1132853898
 20
7.0923084095
 10
9.1002120865
 20
7.1298851574
 10
9.0882775621
 20
7.1674302779
 10
9.0775042225
 20
7.2048732841
 10
9.0679122934
 20
7.2421438804
 10
9.0595197827
 20
7.2791720954
 10
9.0523424465
 20
7.3158884124
 10
9.0463937595
 20
7.3522239003
 10
9.0416848897
 20
7.3881103431
 10
9.0382246774
 20
7.4234803677
 10
9.036019619
 20
7.4582675706
 10
9.0350738542
 20
7.4924066425
 10
9.0353891584
 20
7.5258334908
 10
9.0369649399
 20
7.55848536
 10
9.0397982402
 20
7.5903009499
 10
9.0438837401
 20
7.6212205297
 10
9.0492137695
 20
7.6511860514
 10
9.0557783219
 20
7.6801412578
 10
9.0635650729
 20
7.7080317885
 10
9.0725594037
 20
7.7348052819
 10
9.0827444285
 20
7.7604114736
 10
9.094101026
 20
7.7848022906
 10
9.1066078752
 20
7.8079319418
 10
9.1202414959
 20
7.8297570036
 10
9.1349762924
 20
7.8502365018
 10
9.1507846016
 20
7.8693319882
 10
9.1676367452
 20
7.8870076131
 10
9.1855010849
 20
7.9032301923
 10
9.2043440824
 20
7.9179692696
 10
9.2068237812
 20
7.9197465707
  0
LWPOLYLINE
  5
149
330
1F
100
AcDbEntity
  8
0
  6
Continuous
 62
     7
370
     0
100
AcDbPolyline
 90
       18
 70
   128
 43
0.0
 10
10.1553558168
 20
6.276662861
 10
10.1360967842
 20
6.2685778081
 10
10.1133125316
 20
6.2608155525
 10
10.0897650677
 20
6.254653257
 10
10.0654986004
 20
6.2501024905
 10
10.0405586874
 20
6.2471717967
 10
10.0149921509
 20
6.2458666776
 10
9.9888469893
 20
6.2461895834
 10
9.9621722874
 20
6.248139908
 10
9.9350181243
 20
6.2517139898
 10
9.9074354789
 20
6.2569051188
 10
9.8794761349
 20
6.2637035493
 10
9.851192583
 20
6.2720965178
 10
9.8226379226
 20
6.2820682675
 10
9.7938657621
 20
6.2936000775
 10
9.7649301182
 20
6.3066702979
 10
9.7358853146
 20
6.3212543909
 10
9.7067858798
 20
6.3373249762
  0
LWPOLYLINE
  5
14A
330
1F
100
AcDbEntity
  8
0
  6
Continuous
 62
     7
370
     0
100
AcDbPolyline
 90
       55
 70
   128
 43
0.0
 10
8.935992108
 20
7.4722836783
 10
8.9370863755
 20
7.4368665649
 10
8.9394632592
 20
7.4007944532
 10
8.9431184413
 20
7.3641328711
 10
8.9480452819
 20
7.3269484175
 10
8.954234831
 20
7.2893086411
 10
8.9616758447
 20
7.2512819174
 10
8.9703548058
 20
7.2129373254
 10
8.9802559483
 20
7.174344521
 10
8.991361286
 20
7.1355736114
 10
9.003650645
 20
7.096695027
 10
9.0171017007
 20
7.057779394
 10
9.0316900182
 20
7.018897406
 10
9.0473890966
 20
6.9801196952
 10
9.0641704172
 20
6.9415167046
 10
9.0820034954
 20
6.9031585597
 10
9.1008559358
 20
6.8651149413
 10
9.1206934915
 20
6.8274549587
 10
9.1414801259
 20
6.7902470244
 10
9.1631780784
 20
6.7535587297
 10
9.1857479328
 20
6.7174567219
 10
9.2091486892
 20
6.6820065833
 10
9.2333378381
 20
6.647272712
 10
9.2582714379
 20
6.613318205
 10
9.2839041947
 20
6.5802047435
 10
9.3101895445
 20
6.5479924807
 10
9.3370797377
 20
6.516739933
 10
9.3645259261
 20
6.4865038731
 10
9.3924782514
 20
6.4573392274
 10
9.4208859359
 20
6.4292989759
 10
9.4496973747
 20
6.402434056
 10
9.4788602294
 20
6.37679327
 10
9.5083215233
 20
6.3524231966
 10
9.5380277375
 20
6.329368106
 10
9.5679249083
 20
6.3076698797
 10
9.5979587248
 20
6.2873679343
 10
9.6280746283
 20
6.26849915
 10
9.6582179107
 20
6.2510978035
 10
9.6883338141
 20
6.2351955057
 10
9.7183676307
 20
6.2208211446
 10
9.7482648014
 20
6.2080008324
 10
9.7779710156
 20
6.1967578581
 10
9.8074323096
 20
6.1871126456
 10
9.8365951643
 20
6.1790827162
 10
9.8654066031
 20
6.172682657
 10
9.8938142876
 20
6.1679240941
 10
9.9217666129
 20
6.164815672
 10
9.9492128013
 20
6.1633630372
 10
9.9761029945
 20
6.1635688287
 10
10.0023883442
 20
6.1654326726
 10
10.028021101
 20
6.1689511831
 10
10.0529547009
 20
6.1741179685
 10
10.0771438497
 20
6.180923643
 10
10.1005446061
 20
6.1893558433
 10
10.1131387782
 20
6.1947152671
  0
LINE
  5
14B
330
1F
100
AcDbEntity
  8
0
  6
Continuous
 62
     7
370
     0
100
AcDbLine
 10
8.930814373
 20
7.4834368022
 30
0.0
 11
8.935992108
 21
7.4722836783
 31
0.0
  0
LINE
  5
14C
330
1F
100
AcDbEntity
  8
0
  6
Continuous
 62
     7
370
     0
100
AcDbLine
 10
8.935992108
 20
7.4722836783
 30
0.0
 11
8.9644066287
 21
7.4558803247
 31
0.0
  0
LWPOLYLINE
  5
14D
330
1F
100
AcDbEntity
  8
0
  6
Continuous
 62
     7
370
     0
100
AcDbPolyline
 90
       58
 70
   128
 43
0.0
 10
10.1689213696
 20
6.2769536314
 10
10.1593471189
 20
6.2692424351
 10
10.139827686
 20
6.2552431067
 10
10.1193815055
 20
6.2427757723
 10
10.0980467274
 20
6.2318636944
 10
10.0758631599
 20
6.2225272335
 10
10.0528721948
 20
6.2147838104
 10
10.0291167306
 20
6.2086478733
 10
10.004641092
 20
6.2041308713
 10
9.9794909476
 20
6.2012412324
 10
9.9537132246
 20
6.1999843485
 10
9.9273560211
 20
6.2003625646
 10
9.9004685164
 20
6.2023751751
 10
9.8731008795
 20
6.2060184247
 10
9.845304175
 20
6.2112855155
 10
9.8171302682
 20
6.2181666198
 10
9.7886317282
 20
6.2266488983
 10
9.7598617299
 20
6.236716524
 10
9.7308739546
 20
6.248350712
 10
9.7017224901
 20
6.2615297543
 10
9.6724617293
 20
6.2762290604
 10
9.6431462695
 20
6.2924212031
 10
9.6138308096
 20
6.3100759699
 10
9.5845700489
 20
6.329160419
 10
9.5554185843
 20
6.3496389413
 10
9.526430809
 20
6.3714733263
 10
9.4976608107
 20
6.3946228335
 10
9.4691622708
 20
6.4190442689
 10
9.440988364
 20
6.444692065
 10
9.4131916594
 20
6.4715183661
 10
9.3858240225
 20
6.4994731175
 10
9.3589365179
 20
6.5285041591
 10
9.3325793144
 20
6.5585573224
 10
9.3068015914
 20
6.5895765318
 10
9.281651447
 20
6.6215039093
 10
9.2571758084
 20
6.6542798821
 10
9.2334203441
 20
6.6878432944
 10
9.2104293791
 20
6.7221315207
 10
9.1882458116
 20
6.7570805835
 10
9.1669110335
 20
6.7926252719
 10
9.1464648529
 20
6.8286992639
 10
9.1269454201
 20
6.8652352497
 10
9.1083891557
 20
6.9021650577
 10
9.0908306837
 20
6.9394197811
 10
9.074302766
 20
6.9769299073
 10
9.0588362418
 20
7.0146254467
 10
9.0444599695
 20
7.0524360642
 10
9.0312007738
 20
7.0902912096
 10
9.0190833946
 20
7.1281202499
 10
9.0081304415
 20
7.1658526005
 10
8.9983623514
 20
7.2034178574
 10
8.9897973503
 20
7.2407459285
 10
8.9824514196
 20
7.277767164
 10
8.9763382659
 20
7.3144124867
 10
8.9714692954
 20
7.350613521
 10
8.9678535933
 20
7.3863027201
 10
8.9654979059
 20
7.4214134921
 10
8.9644066287
 20
7.4558803247
  0
LINE
  5
14E
330
1F
100
AcDbEntity
  8
0
  6
Continuous
 62
     7
370
     0
100
AcDbLine
 10
8.9644066287
 20
7.4558803247
 30
0.0
 11
8.9837260176
 21
7.4588680821
 31
0.0
  0
LINE
  5
14F
330
1F
100
AcDbEntity
  8
0
  6
Continuous
 62
     7
370
     0
100
AcDbLine
 10
8.9414209747
 20
7.489559863
 30
0.0
 11
8.9891562384
 21
7.4620028819
 31
0.0
  0
LWPOLYLINE
  5
150
330
1F
100
AcDbEntity
  8
0
  6
Continuous
 62
     7
370
     0
100
AcDbPolyline
 90
      119
 70
   128
 43
0.0
 10
8.7381914284
 20
7.4519299958
 10
8.7388222398
 20
7.4877324979
 10
8.7407136507
 20
7.5227486089
 10
8.7438625934
 20
7.5569215325
 10
8.7482639602
 20
7.5901958402
 10
8.7539106121
 20
7.6225175608
 10
8.7607933901
 20
7.6538342685
 10
8.7689011305
 20
7.6840951673
 10
8.7782206823
 20
7.7132511741
 10
8.7887369294
 20
7.7412549977
 10
8.8004328142
 20
7.7680612158
 10
8.813289366
 20
7.7936263485
 10
8.8272857315
 20
7.8179089292
 10
8.8423992084
 20
7.8408695714
 10
8.8586052827
 20
7.8624710328
 10
8.8758776681
 20
7.8826782759
 10
8.8941883486
 20
7.9014585244
 10
8.9135076243
 20
7.9187813166
 10
8.9338041593
 20
7.934618555
 10
8.9550450324
 20
7.9489445514
 10
8.977195791
 20
7.9617360691
 10
9.0002205064
 20
7.9729723602
 10
9.0240818325
 20
7.9826351993
 10
9.048741066
 20
7.9907089133
 10
9.0741582097
 20
7.9971804067
 10
9.1002920367
 20
8.0020391825
 10
9.127100158
 20
8.00527736
 10
9.1545390907
 20
8.0068896866
 10
9.1825643287
 20
8.0068735473
 10
9.2111304151
 20
8.0052289682
 10
9.2401910154
 20
8.0019586168
 10
9.2696989933
 20
7.9970677977
 10
9.2996064868
 20
7.9905644437
 10
9.3298649857
 20
7.9824591034
 10
9.3604254107
 20
7.9727649236
 10
9.3912381928
 20
7.9614976284
 10
9.4222533533
 20
7.9486754932
 10
9.4534205856
 20
7.9343193157
 10
9.4846893364
 20
7.9184523817
 10
9.5160088877
 20
7.9011004273
 10
9.5473284389
 20
7.8822915975
 10
9.5785971897
 20
7.8620564004
 10
9.6097644221
 20
7.8404276573
 10
9.6407795826
 20
7.8174404504
 10
9.6715923646
 20
7.7931320648
 10
9.7021527896
 20
7.7675419288
 10
9.7324112886
 20
7.7407115499
 10
9.7623187821
 20
7.7126844469
 10
9.79182676
 20
7.6835060799
 10
9.8208873603
 20
7.6532237764
 10
9.8494534466
 20
7.6218866542
 10
9.8774786846
 20
7.5895455425
 10
9.9049176173
 20
7.5562528984
 10
9.9317257386
 20
7.522062723
 10
9.9578595657
 20
7.4870304727
 10
9.9832767093
 20
7.4512129699
 10
10.0079359429
 20
7.4146683109
 10
10.0317972689
 20
7.3774557711
 10
10.0548219843
 20
7.3396357095
 10
10.0769727429
 20
7.3012694703
 10
10.0982136161
 20
7.2624192837
 10
10.118510151
 20
7.2231481649
 10
10.1378294268
 20
7.1835198117
 10
10.1561401073
 20
7.1435985015
 10
10.1734124926
 20
7.1034489868
 10
10.1896185669
 20
7.0631363902
 10
10.2047320439
 20
7.022726099
 10
10.2187284093
 20
6.9822836587
 10
10.2315849612
 20
6.9418746672
 10
10.243280846
 20
6.901564668
 10
10.253797093
 20
6.861419044
 10
10.2631166449
 20
6.8215029117
 10
10.2712243852
 20
6.781881015
 10
10.2781071633
 20
6.742617621
 10
10.2837538152
 20
6.7037764148
 10
10.288155182
 20
6.6654203973
 10
10.2913041246
 20
6.6276117818
 10
10.2931955356
 20
6.5904118942
 10
10.293826347
 20
6.5538810727
 10
10.2931955356
 20
6.5180785706
 10
10.2913041246
 20
6.4830624596
 10
10.288155182
 20
6.448889536
 10
10.2837538152
 20
6.4156152283
 10
10.2781071633
 20
6.3832935077
 10
10.2712243852
 20
6.3519768
 10
10.2631166449
 20
6.3217159012
 10
10.253797093
 20
6.2925598944
 10
10.243280846
 20
6.2645560708
 10
10.2315849612
 20
6.2377498527
 10
10.2187284093
 20
6.21218472
 10
10.2047320439
 20
6.1879021393
 10
10.1896185669
 20
6.1649414971
 10
10.1734124926
 20
6.1433400357
 10
10.1561401073
 20
6.1231327926
 10
10.1378294268
 20
6.1043525441
 10
10.118510151
 20
6.0870297519
 10
10.0982136161
 20
6.0711925135
 10
10.0769727429
 20
6.0568665171
 10
10.0548219843
 20
6.0440749994
 10
10.0317972689
 20
6.0328387083
 10
10.0079359429
 20
6.0231758692
 10
9.9832767093
 20
6.0151021552
 10
9.9578595657
 20
6.0086306618
 10
9.9317257386
 20
6.003771886
 10
9.9049176173
 20
6.0005337085
 10
9.8774786846
 20
5.9989213819
 10
9.8494534466
 20
5.9989375212
 10
9.8208873603
 20
6.0005821003
 10
9.79182676
 20
6.0038524517
 10
9.7623187821
 20
6.0087432708
 10
9.7324112886
 20
6.0152466248
 10
9.7021527896
 20
6.0233519651
 10
9.6715923646
 20
6.0330461449
 10
9.6407795826
 20
6.0443134401
 10
9.6097644221
 20
6.0571355753
 10
9.5785971897
 20
6.0714917528
 10
9.5473284389
 20
6.0873586868
 10
9.5160088877
 20
6.1047106412
 10
9.5158824705
 20
6.1047836321
  0
LWPOLYLINE
  5
151
330
1F
100
AcDbEntity
  8
0
  6
Continuous
 62
     7
370
     0
100
AcDbPolyline
 90
      156
 70
   128
 43
0.0
 10
8.7381914284
 20
7.4437659146
 10
8.7388245955
 20
7.4073314352
 10
8.7407230567
 20
7.3702257784
 10
8.7438836927
 20
7.3325099085
 10
8.7483013106
 20
7.2942457928
 10
8.7539686523
 20
7.255496299
 10
8.7608764063
 20
7.2163250924
 10
8.7690132233
 20
7.1767965313
 10
8.7783657345
 20
7.136975561
 10
8.7889185737
 20
7.0969276071
 10
8.8006544026
 20
7.0567184685
 10
8.8135539393
 20
7.0164142086
 10
8.8275959899
 20
6.9760810472
 10
8.8427574834
 20
6.9357852515
 10
8.8590135094
 20
6.8955930276
 10
8.8763373593
 20
6.855570411
 10
8.8947005701
 20
6.8157831588
 10
8.9140729711
 20
6.7762966415
 10
8.9344227335
 20
6.7371757352
 10
8.9557164227
 20
6.6984847154
 10
8.9779190531
 20
6.6602871515
 10
9.000994146
 20
6.6226458019
 10
9.0249037891
 20
6.5856225113
 10
9.0496086987
 20
6.5492781087
 10
9.075068285
 20
6.5136723081
 10
9.1012407177
 20
6.4788636096
 10
9.1280829957
 20
6.4449092039
 10
9.1555510171
 20
6.4118648778
 10
9.1835996522
 20
6.3797849232
 10
9.212182817
 20
6.3487220474
 10
9.2412535495
 20
6.3187272865
 10
9.2707640865
 20
6.2898499219
 10
9.3006659424
 20
6.262137399
 10
9.3309099884
 20
6.2356352495
 10
9.3614465337
 20
6.2103870162
 10
9.3922254068
 20
6.186434182
 10
9.423196038
 20
6.1638161013
 10
9.4543075428
 20
6.1425699356
 10
9.485508805
 20
6.1227305922
 10
9.516748561
 20
6.1043306671
 10
9.547975484
 20
6.0874003914
 10
9.5791382682
 20
6.0719675815
 10
9.6101857132
 20
6.0580575934
 10
9.6410668082
 20
6.0456932811
 10
9.6717308157
 20
6.0348949594
 10
9.7021273546
 20
6.0256803697
 10
9.7322064837
 20
6.0180646516
 10
9.7619187829
 20
6.0120603176
 10
9.7912154351
 20
6.007677233
 10
9.8200483059
 20
6.0049225991
 10
9.848370023
 20
6.0038009418
 10
9.8761340539
 20
6.0043141039
 10
9.9032947823
 20
6.0064612423
 10
9.9298075833
 20
6.0102388293
 10
9.9556288963
 20
6.0156406583
 10
9.9807162971
 20
6.0226578541
 10
10.0050285671
 20
6.0312788875
 10
10.0285257613
 20
6.0414895941
 10
10.0511692739
 20
6.0532731978
 10
10.0729219016
 20
6.0666103382
 10
10.0937479049
 20
6.0814791024
 10
10.1136130669
 20
6.0978550609
 10
10.1324847489
 20
6.1157113083
 10
10.150331945
 20
6.1350185066
 10
10.1671253323
 20
6.1557449343
 10
10.1828373192
 20
6.1778565378
 10
10.197442091
 20
6.2013169879
 10
10.210915652
 20
6.2260877391
 10
10.2232358654
 20
6.252128093
 10
10.2343824889
 20
6.2793952656
 10
10.2443372087
 20
6.3078444569
 10
10.2530836693
 20
6.3374289249
 10
10.2606075002
 20
6.3681000624
 10
10.2668963398
 20
6.3998074769
 10
10.2719398555
 20
6.4324990731
 10
10.2757297609
 20
6.4661211389
 10
10.2782598291
 20
6.5006184332
 10
10.2795259033
 20
6.5359342772
 10
10.2795259033
 20
6.5720106469
 10
10.2782598291
 20
6.608788269
 10
10.2757297609
 20
6.6462067179
 10
10.2719398555
 20
6.6842045153
 10
10.2668963398
 20
6.7227192308
 10
10.2606075002
 20
6.761687585
 10
10.2530836693
 20
6.8010455528
 10
10.2443372087
 20
6.8407284692
 10
10.2343824889
 20
6.8806711353
 10
10.2232358654
 20
6.9208079255
 10
10.210915652
 20
6.961072895
 10
10.197442091
 20
7.0013998887
 10
10.1828373192
 20
7.0417226493
 10
10.1671253323
 20
7.0819749268
 10
10.150331945
 20
7.1220905866
 10
10.1324847489
 20
7.162003719
 10
10.1136130669
 20
7.2016487467
 10
10.0937479049
 20
7.240960533
 10
10.0729219016
 20
7.2798744888
 10
10.0511692739
 20
7.3183266785
 10
10.0285257613
 20
7.3562539254
 10
10.0050285671
 20
7.393593915
 10
9.9807162971
 20
7.4302852978
 10
9.9556288963
 20
7.46626779
 10
9.9298075833
 20
7.5014822725
 10
9.9032947823
 20
7.5358708879
 10
9.8761340539
 20
7.5693771359
 10
9.848370023
 20
7.6019459657
 10
9.8200483059
 20
7.6335238669
 10
9.7912154351
 20
7.664058957
 10
9.7619187829
 20
7.693501067
 10
9.7322064837
 20
7.7218018236
 10
9.7021273546
 20
7.7489147287
 10
9.6717308157
 20
7.7747952358
 10
9.6410668082
 20
7.7994008235
 10
9.6101857132
 20
7.8226910646
 10
9.5791382682
 20
7.8446276935
 10
9.547975484
 20
7.8651746684
 10
9.516748561
 20
7.8842982305
 10
9.485508805
 20
7.90196696
 10
9.4543075428
 20
7.9181518271
 10
9.423196038
 20
7.9328262402
 10
9.3922254068
 20
7.9459660892
 10
9.3614465337
 20
7.9575497854
 10
9.3309099884
 20
7.9675582969
 10
9.3006659424
 20
7.9759751796
 10
9.2707640865
 20
7.9827866046
 10
9.2412535495
 20
7.9879813809
 10
9.212182817
 20
7.9915509733
 10
9.1835996522
 20
7.9934895171
 10
9.1555510171
 20
7.9937938272
 10
9.1280829957
 20
7.9924634037
 10
9.1012407177
 20
7.9895004324
 10
9.075068285
 20
7.9849097816
 10
9.0496086987
 20
7.9786989935
 10
9.0249037891
 20
7.9708782725
 10
9.000994146
 20
7.9614604681
 10
8.9779190531
 20
7.9504610537
 10
8.9557164227
 20
7.9378981013
 10
8.9344227335
 20
7.9237922518
 10
8.9140729711
 20
7.908166681
 10
8.8947005701
 20
7.8910470617
 10
8.8763373593
 20
7.8724615215
 10
8.8590135094
 20
7.8524405963
 10
8.8427574834
 20
7.8310171804
 10
8.8275959899
 20
7.8082264725
 10
8.8135539393
 20
7.7841059176
 10
8.8006544026
 20
7.7586951458
 10
8.7889185737
 20
7.7320359068
 10
8.7783657345
 20
7.7041720017
 10
8.7690132233
 20
7.6751492109
 10
8.7608764063
 20
7.6450152188
 10
8.7539686523
 20
7.6138195353
 10
8.7483013106
 20
7.5816134149
 10
8.7438836927
 20
7.5484497723
 10
8.7407230567
 20
7.5143830951
 10
8.7388245955
 20
7.4794693548
 10
8.7381914284
 20
7.4437659146
  0
LWPOLYLINE
  5
152
330
1F
100
AcDbEntity
  8
0
  6
Continuous
 62
     7
370
     0
100
AcDbPolyline
 90
       60
 70
   128
 43
0.0
 10
10.6049533307
 20
6.7334908573
 10
10.6043225193
 20
6.7700216788
 10
10.6024311084
 20
6.8072215664
 10
10.5992821657
 20
6.8450301819
 10
10.5948807989
 20
6.8833861994
 10
10.589234147
 20
6.9222274056
 10
10.582351369
 20
6.9614907996
 10
10.5742436286
 20
7.0011126963
 10
10.5649240767
 20
7.0410288286
 10
10.5544078297
 20
7.0811744526
 10
10.5427119449
 20
7.1214844518
 10
10.5298553931
 20
7.1618934433
 10
10.5158590276
 20
7.2023358836
 10
10.5007455507
 20
7.2427461748
 10
10.4845394764
 20
7.2830587714
 10
10.467267091
 20
7.3232082861
 10
10.4489564105
 20
7.3631295963
 10
10.4296371348
 20
7.4027579495
 10
10.4093405998
 20
7.4420290683
 10
10.3880997266
 20
7.4808792549
 10
10.365948968
 20
7.5192454941
 10
10.3429242526
 20
7.5570655557
 10
10.3190629266
 20
7.5942780955
 10
10.2944036931
 20
7.6308227545
 10
10.2689865494
 20
7.6666402573
 10
10.2428527224
 20
7.7016725076
 10
10.2160446011
 20
7.735862683
 10
10.1886056684
 20
7.7691553271
 10
10.1605804303
 20
7.8014964388
 10
10.132014344
 20
7.832833561
 10
10.1029537437
 20
7.8631158645
 10
10.0734457658
 20
7.8922942315
 10
10.0435382723
 20
7.9203213345
 10
10.0132797734
 20
7.9471517134
 10
9.9827193483
 20
7.9727418494
 10
9.9519065663
 20
7.997050235
 10
9.9208914058
 20
8.0200374419
 10
9.8897241734
 20
8.041666185
 10
9.8584554226
 20
8.0619013821
 10
9.8271358714
 20
8.0807102119
 10
9.7958163202
 20
8.0980621663
 10
9.7645475694
 20
8.1139291003
 10
9.733380337
 20
8.1282852778
 10
9.7023651765
 20
8.141107413
 10
9.6715523945
 20
8.1523747082
 10
9.6409919694
 20
8.162068888
 10
9.6107334705
 20
8.1701742283
 10
9.580825977
 20
8.1766775823
 10
9.5513179991
 20
8.1815684014
 10
9.5222573988
 20
8.1848387528
 10
9.4936913125
 20
8.1864833319
 10
9.4656660744
 20
8.1864994712
 10
9.4382271417
 20
8.1848871446
 10
9.4114190204
 20
8.1816489671
 10
9.3852851934
 20
8.1767901913
 10
9.3598680497
 20
8.1703186979
 10
9.3352088162
 20
8.1622449839
 10
9.3113474902
 20
8.1525821448
 10
9.2883227748
 20
8.1413458537
 10
9.2771805684
 20
8.1351690675
  0
LWPOLYLINE
  5
153
330
1F
100
AcDbEntity
  8
0
  6
Continuous
 62
     7
370
     0
100
AcDbPolyline
 90
       21
 70
   128
 43
0.0
 10
10.3770911743
 20
6.2298615702
 10
10.3880997266
 20
6.2364763017
 10
10.4093405998
 20
6.2508022981
 10
10.4296371348
 20
6.2666395365
 10
10.4489564105
 20
6.2839623287
 10
10.467267091
 20
6.3027425772
 10
10.4845394764
 20
6.3229498203
 10
10.5007455507
 20
6.3445512817
 10
10.5158590276
 20
6.3675119239
 10
10.5298553931
 20
6.3917945046
 10
10.5427119449
 20
6.4173596373
 10
10.5544078297
 20
6.4441658554
 10
10.5649240767
 20
6.472169679
 10
10.5742436286
 20
6.5013256858
 10
10.582351369
 20
6.5315865846
 10
10.589234147
 20
6.5629032923
 10
10.5948807989
 20
6.5952250129
 10
10.5992821657
 20
6.6284993206
 10
10.6024311084
 20
6.6626722442
 10
10.6043225193
 20
6.6976883552
 10
10.6049533307
 20
6.7334908573
  0
LWPOLYLINE
  5
154
330
1F
100
AcDbEntity
  8
0
  6
Continuous
 62
     7
370
     0
100
AcDbPolyline
 90
      152
 70
   128
 43
0.0
 10
8.7772092213
 20
7.4212414222
 10
8.7778425996
 20
7.4560253908
 10
8.7797416382
 20
7.4900178588
 10
8.7829030493
 20
7.5231599791
 10
8.7873213601
 20
7.5553943766
 10
8.7929889216
 20
7.5866652476
 10
8.7998959223
 20
7.6169184564
 10
8.8080304048
 20
7.6461016293
 10
8.8173782868
 20
7.6741642448
 10
8.8279233855
 20
7.7010577213
 10
8.8396474454
 20
7.7267355013
 10
8.8525301699
 20
7.7511531318
 10
8.8665492567
 20
7.7742683414
 10
8.8816804362
 20
7.7960411135
 10
8.8978975135
 20
7.8164337553
 10
8.9151724138
 20
7.8354109635
 10
8.9334752313
 20
7.8529398851
 10
8.9527742802
 20
7.8689901741
 10
8.9730361504
 20
7.8835340448
 10
8.9942257649
 20
7.8965463188
 10
9.0163064406
 20
7.9080044697
 10
9.0392399518
 20
7.9178886611
 10
9.0629865963
 20
7.9261817819
 10
9.0875052643
 20
7.932869475
 10
9.1127535095
 20
7.9379401628
 10
9.1386876226
 20
7.9413850671
 10
9.1652627068
 20
7.943198224
 10
9.1924327559
 20
7.9433764947
 10
9.2201507333
 20
7.9419195706
 10
9.2483686543
 20
7.9388299738
 10
9.2770376684
 20
7.9341130531
 10
9.3061081443
 20
7.9277769742
 10
9.3355297556
 20
7.9198327061
 10
9.3652515682
 20
7.9102940017
 10
9.3952221281
 20
7.8991773744
 10
9.4253895507
 20
7.8865020691
 10
9.4557016108
 20
7.8722900289
 10
9.4861058325
 20
7.8565658577
 10
9.5165495806
 20
7.8393567768
 10
9.5469801513
 20
7.8206925783
 10
9.5773448637
 20
7.8006055733
 10
9.607591151
 20
7.7791305362
 10
9.6376666513
 20
7.7563046442
 10
9.6675192982
 20
7.7321674131
 10
9.6970974115
 20
7.7067606289
 10
9.726349786
 20
7.6801282753
 10
9.7552257803
 20
7.652316458
 10
9.783675405
 20
7.6233733243
 10
9.8116494084
 20
7.59334898
 10
9.8390993624
 20
7.5622954028
 10
9.8659777461
 20
7.5302663522
 10
9.892238028
 20
7.4973172763
 10
9.9178347469
 20
7.4635052161
 10
9.94272359
 20
7.4288887064
 10
9.9668614702
 20
7.3935276747
 10
9.9902066004
 20
7.3574833376
 10
10.0127185659
 20
7.3208180944
 10
10.0343583943
 20
7.2835954193
 10
10.0550886232
 20
7.2458797517
 10
10.0748733646
 20
7.2077363843
 10
10.0936783675
 20
7.1692313503
 10
10.1114710772
 20
7.1304313089
 10
10.128220691
 20
7.0914034303
 10
10.1438982123
 20
7.0522152787
 10
10.1584765005
 20
7.0129346962
 10
10.1719303178
 20
6.9736296846
 10
10.1842363733
 20
6.9343682881
 10
10.1953733629
 20
6.8952184754
 10
10.2053220064
 20
6.856248022
 10
10.2140650808
 20
6.817524393
 10
10.2215874504
 20
6.7791146261
 10
10.2278760925
 20
6.7410852155
 10
10.2329201202
 20
6.7035019974
 10
10.2367108016
 20
6.666430035
 10
10.2392415742
 20
6.6299335067
 10
10.2405080567
 20
6.5940755949
 10
10.2405080567
 20
6.558918376
 10
10.2392415742
 20
6.5245227138
 10
10.2367108016
 20
6.4909481533
 10
10.2329201202
 20
6.4582528185
 10
10.2278760925
 20
6.4264933108
 10
10.2215874504
 20
6.3957246119
 10
10.2140650808
 20
6.365999988
 10
10.2053220064
 20
6.3373708978
 10
10.1953733629
 20
6.3098869037
 10
10.1842363733
 20
6.2835955855
 10
10.1719303178
 20
6.2585424582
 10
10.1584765005
 20
6.2347708935
 10
10.1438982123
 20
6.2123220442
 10
10.128220691
 20
6.1912347735
 10
10.1114710772
 20
6.1715455873
 10
10.0936783675
 20
6.1532885712
 10
10.0748733646
 20
6.1364953315
 10
10.0550886232
 20
6.1211949403
 10
10.0343583943
 20
6.1074138855
 10
10.0127185659
 20
6.0951760245
 10
9.9902066004
 20
6.0845025434
 10
9.9668614702
 20
6.0754119199
 10
9.94272359
 20
6.0679198915
 10
9.9178347469
 20
6.0620394284
 10
9.892238028
 20
6.0577807106
 10
9.8659777461
 20
6.0551511109
 10
9.8390993624
 20
6.0541551816
 10
9.8116494084
 20
6.0547946467
 10
9.783675405
 20
6.0570683992
 10
9.7552257803
 20
6.0609725029
 10
9.726349786
 20
6.066500199
 10
9.6970974115
 20
6.0736419182
 10
9.6675192982
 20
6.0823852966
 10
9.6376666513
 20
6.0927151981
 10
9.607591151
 20
6.1046137395
 10
9.5773448637
 20
6.1180603224
 10
9.5469801513
 20
6.1330316682
 10
9.5165495806
 20
6.1495018588
 10
9.4861058325
 20
6.1674423812
 10
9.4557016108
 20
6.1868221771
 10
9.4253895507
 20
6.2076076966
 10
9.3952221281
 20
6.229762956
 10
9.3652515682
 20
6.2532496006
 10
9.3355297556
 20
6.2780269706
 10
9.3061081443
 20
6.3040521719
 10
9.2770376684
 20
6.33128015
 10
9.2483686543
 20
6.3596637684
 10
9.2201507333
 20
6.3891538897
 10
9.1924327559
 20
6.4196994611
 10
9.1652627068
 20
6.4512476027
 10
9.1386876226
 20
6.4837436988
 10
9.1127535095
 20
6.5171314927
 10
9.0875052643
 20
6.551353184
 10
9.0629865963
 20
6.5863495287
 10
9.0392399518
 20
6.6220599415
 10
9.0163064406
 20
6.6584226014
 10
8.9942257649
 20
6.6953745577
 10
8.9730361504
 20
6.7328518399
 10
8.9527742802
 20
6.770789568
 10
8.9334752313
 20
6.8091220647
 10
8.9151724138
 20
6.8477829694
 10
8.8978975135
 20
6.886705353
 10
8.8816804362
 20
6.9258218337
 10
8.8665492567
 20
6.9650646938
 10
8.8525301699
 20
7.0043659965
 10
8.8396474454
 20
7.0436577041
 10
8.8279233855
 20
7.0828717955
 10
8.8173782868
 20
7.1219403838
 10
8.8080304048
 20
7.1607958341
 10
8.7998959223
 20
7.1993708806
 10
8.7929889216
 20
7.2375987426
 10
8.7873213601
 20
7.2754132409
 10
8.7829030493
 20
7.3127489114
 10
8.7797416382
 20
7.3495411193
 10
8.7778425996
 20
7.3857261706
 10
8.7772092213
 20
7.4212414222
  0
LWPOLYLINE
  5
155
330
1F
100
AcDbEntity
  8
0
  6
Continuous
 62
     7
370
     0
100
AcDbPolyline
 90
      151
 70
   128
 43
0.0
 10
8.7965277378
 20
7.4182531611
 10
8.797158845
 20
7.3830972698
 10
8.7990510595
 20
7.3472743929
 10
8.8022010616
 20
7.310847376
 10
8.8066033252
 20
7.2738801245
 10
8.8122501272
 20
7.2364374915
 10
8.8191315612
 20
7.1985851641
 10
8.8272355548
 20
7.1603895481
 10
8.8365478909
 20
7.1219176516
 10
8.8470522325
 20
7.0832369675
 10
8.8587301514
 20
7.0444153547
 10
8.8715611605
 20
7.0055209196
 10
8.8855227499
 20
6.9666218962
 10
8.9005904262
 20
6.9277865266
 10
8.9167377557
 20
6.8890829413
 10
8.9339364103
 20
6.8505790395
 10
8.9521562179
 20
6.8123423702
 10
8.9713652146
 20
6.7744400134
 10
8.9915297014
 20
6.7369384627
 10
9.0126143029
 20
6.6999035087
 10
9.0345820296
 20
6.6634001231
 10
9.0573943426
 20
6.6274923455
 10
9.0810112213
 20
6.5922431701
 10
9.1053912338
 20
6.5577144361
 10
9.1304916091
 20
6.5239667185
 10
9.1562683127
 20
6.4910592224
 10
9.1826761236
 20
6.4590496786
 10
9.2096687134
 20
6.4279942428
 10
9.2371987279
 20
6.3979473967
 10
9.2652178703
 20
6.3689618528
 10
9.2936769852
 20
6.3410884615
 10
9.3225261459
 20
6.3143761223
 10
9.3517147411
 20
6.2888716976
 10
9.381191564
 20
6.2646199309
 10
9.4109049023
 20
6.241663368
 10
9.4408026287
 20
6.2200422825
 10
9.4708322925
 20
6.1997946052
 10
9.5009412113
 20
6.1809558574
 10
9.531076564
 20
6.1635590886
 10
9.5611854829
 20
6.1476348186
 10
9.5912151466
 20
6.1332109842
 10
9.621112873
 20
6.1203128895
 10
9.6508262114
 20
6.1089631622
 10
9.6803030343
 20
6.0991817136
 10
9.7094916294
 20
6.0909857036
 10
9.7383407901
 20
6.084389511
 10
9.7667999051
 20
6.0794047075
 10
9.7948190474
 20
6.0760400383
 10
9.822349062
 20
6.0743014061
 10
9.8493416517
 20
6.0741918611
 10
9.8757494626
 20
6.0757115955
 10
9.9015261663
 20
6.0788579431
 10
9.9266265416
 20
6.0836253841
 10
9.951006554
 20
6.090005555
 10
9.9746234328
 20
6.0979872626
 10
9.9974357457
 20
6.1075565043
 10
10.0194034724
 20
6.1186964925
 10
10.0404880739
 20
6.1313876838
 10
10.0606525608
 20
6.1456078135
 10
10.0798615575
 20
6.1613319348
 10
10.098081365
 20
6.1785324621
 10
10.1152800197
 20
6.1971792199
 10
10.1314273491
 20
6.2172394954
 10
10.1464950255
 20
6.2386780962
 10
10.1604566149
 20
6.2614574116
 10
10.173287624
 20
6.2855374789
 10
10.1849655429
 20
6.3108760536
 10
10.1954698844
 20
6.3374286831
 10
10.2047822205
 20
6.3651487851
 10
10.2128862142
 20
6.3939877292
 10
10.2197676482
 20
6.423894922
 10
10.2254144502
 20
6.4548178962
 10
10.2298167138
 20
6.4867024024
 10
10.2329667159
 20
6.5194925043
 10
10.2348589303
 20
6.5531306768
 10
10.2354900375
 20
6.5875579074
 10
10.2348589303
 20
6.6227137987
 10
10.2329667159
 20
6.6585366756
 10
10.2298167138
 20
6.6949636925
 10
10.2254144502
 20
6.731930944
 10
10.2197676482
 20
6.769373577
 10
10.2128862142
 20
6.8072259044
 10
10.2047822205
 20
6.8454215204
 10
10.1954698844
 20
6.8838934169
 10
10.1849655429
 20
6.922574101
 10
10.173287624
 20
6.9613957138
 10
10.1604566149
 20
7.0002901489
 10
10.1464950255
 20
7.0391891723
 10
10.1314273491
 20
7.0780245419
 10
10.1152800197
 20
7.1167281272
 10
10.098081365
 20
7.155232029
 10
10.0798615575
 20
7.1934686983
 10
10.0606525608
 20
7.2313710551
 10
10.0404880739
 20
7.2688726058
 10
10.0194034724
 20
7.3059075598
 10
9.9974357457
 20
7.3424109453
 10
9.9746234328
 20
7.378318723
 10
9.951006554
 20
7.4135678984
 10
9.9266265416
 20
7.4480966324
 10
9.9015261663
 20
7.48184435
 10
9.8757494626
 20
7.5147518461
 10
9.8493416517
 20
7.5467613899
 10
9.822349062
 20
7.5778168257
 10
9.7948190474
 20
7.6078636718
 10
9.7667999051
 20
7.6368492157
 10
9.7383407901
 20
7.664722607
 10
9.7094916294
 20
7.6914349462
 10
9.6803030343
 20
7.7169393709
 10
9.6508262114
 20
7.7411911376
 10
9.621112873
 20
7.7641477005
 10
9.5912151466
 20
7.785768786
 10
9.5611854829
 20
7.8060164633
 10
9.531076564
 20
7.8248552111
 10
9.5009412113
 20
7.8422519799
 10
9.4708322925
 20
7.8581762499
 10
9.4408026287
 20
7.8726000843
 10
9.4109049023
 20
7.885498179
 10
9.381191564
 20
7.8968479063
 10
9.3517147411
 20
7.9066293549
 10
9.3225261459
 20
7.9148253649
 10
9.2936769852
 20
7.9214215575
 10
9.2652178703
 20
7.926406361
 10
9.2371987279
 20
7.9297710302
 10
9.2096687134
 20
7.9315096624
 10
9.1826761236
 20
7.9316192074
 10
9.1562683127
 20
7.930099473
 10
9.1304916091
 20
7.9269531254
 10
9.1053912338
 20
7.9221856844
 10
9.0810112213
 20
7.9158055135
 10
9.0573943426
 20
7.9078238059
 10
9.0345820296
 20
7.8982545642
 10
9.0126143029
 20
7.887114576
 10
8.9915297014
 20
7.8744233847
 10
8.9713652146
 20
7.860203255
 10
8.9521562179
 20
7.8444791337
 10
8.9339364103
 20
7.8272786064
 10
8.9167377557
 20
7.8086318486
 10
8.9005904262
 20
7.7885715731
 10
8.8855227499
 20
7.7671329723
 10
8.8715611605
 20
7.7443536569
 10
8.8587301514
 20
7.7202735896
 10
8.8470522325
 20
7.6949350149
 10
8.8365478909
 20
7.6683823854
 10
8.8272355548
 20
7.6406622834
 10
8.8191315612
 20
7.6118233393
 10
8.8122501272
 20
7.5819161464
 10
8.8066033252
 20
7.5509931722
 10
8.8022010616
 20
7.5191086661
 10
8.7990510595
 20
7.4863185642
 10
8.797158845
 20
7.4526803917
 10
8.7965277378
 20
7.4182531611
  0
ARC
  5
156
330
1F
100
AcDbEntity
  8
0
  6
Continuous
 62
     7
370
     0
100
AcDbCircle
 10
8.9333798885
 20
6.6665609723
 30
0.0
 40
1.673259357196385
100
AcDbArc
 50
2.5722330061
 51
57.4223904612
  0
LWPOLYLINE
  5
157
330
1F
100
AcDbEntity
  8
0
  6
Continuous
 62
     7
370
     0
100
AcDbPolyline
 90
       47
 70
   128
 43
0.0
 10
10.631469835
 20
6.8161521787
 10
10.6308387278
 20
6.8513080701
 10
10.6289465133
 20
6.8871309469
 10
10.6257965112
 20
6.9235579638
 10
10.6213942476
 20
6.9605252153
 10
10.6157474456
 20
6.9979678483
 10
10.6088660116
 20
7.0358201758
 10
10.600762018
 20
7.0740157917
 10
10.5914496819
 20
7.1124876882
 10
10.5809453403
 20
7.1511683724
 10
10.5692674215
 20
7.1899899851
 10
10.5564364123
 20
7.2288844202
 10
10.5424748229
 20
7.2677834436
 10
10.5274071466
 20
7.3066188132
 10
10.5112598171
 20
7.3453223985
 10
10.4940611625
 20
7.3838263003
 10
10.475841355
 20
7.4220629696
 10
10.4566323582
 20
7.4599653264
 10
10.4364678714
 20
7.4974668771
 10
10.4153832699
 20
7.5345018311
 10
10.3934155432
 20
7.5710052167
 10
10.3706032302
 20
7.6069129943
 10
10.3469863515
 20
7.6421621697
 10
10.3226063391
 20
7.6766909037
 10
10.2975059637
 20
7.7104386213
 10
10.2717292601
 20
7.7433461174
 10
10.2453214492
 20
7.7753556612
 10
10.2183288594
 20
7.806411097
 10
10.1907988449
 20
7.8364579431
 10
10.1627797026
 20
7.865443487
 10
10.1343205876
 20
7.8933168783
 10
10.1054714269
 20
7.9200292175
 10
10.0762828317
 20
7.9455336422
 10
10.0468060088
 20
7.9697854089
 10
10.0170926705
 20
7.9927419718
 10
9.9871949441
 20
8.0143630573
 10
9.9571652803
 20
8.0346107346
 10
9.9270563615
 20
8.0534494824
 10
9.8969210088
 20
8.0708462512
 10
9.8668120899
 20
8.0867705212
 10
9.8367824262
 20
8.1011943556
 10
9.8068846998
 20
8.1140924503
 10
9.7771713615
 20
8.1254421776
 10
9.7476945385
 20
8.1352236262
 10
9.7185059434
 20
8.1434196362
 10
9.6896567827
 20
8.1500158289
 10
9.6658773015
 20
8.1542875295
  0
ARC
  5
158
330
1F
100
AcDbEntity
  8
0
  6
Continuous
 62
     7
370
     0
100
AcDbCircle
 10
9.9109710696
 20
6.8036228809
 30
0.0
 40
0.7206076979277926
100
AcDbArc
 50
339.9782748456
 51
0.9962592106
  0
ARC
  5
159
330
1F
100
AcDbEntity
  8
0
  6
Continuous
 62
     7
370
     0
100
AcDbCircle
 10
8.8341935298
 20
4.3158768172
 30
0.0
 40
1.811023622047244
100
AcDbArc
 50
146.6773347054
 51
179.9031750768
  0
LINE
  5
15A
330
1F
100
AcDbEntity
  8
0
  6
Continuous
 62
     7
370
     0
100
AcDbLine
 10
7.3361646197
 20
5.3189372894
 30
0.0
 11
7.3209200998
 21
5.3107688143
 31
0.0
  0
LINE
  5
15B
330
1F
100
AcDbEntity
  8
0
  6
Continuous
 62
     7
370
     0
100
AcDbLine
 10
7.3361646197
 20
5.3189372894
 30
0.0
 11
7.4345898165
 21
5.3189372894
 31
0.0
  0
LINE
  5
15C
330
1F
100
AcDbEntity
  8
0
  6
Continuous
 62
     7
370
     0
100
AcDbLine
 10
7.4444323362
 20
5.3090947697
 30
0.0
 11
7.4345898165
 21
5.3189372894
 31
0.0
  0
LINE
  5
15D
330
1F
100
AcDbEntity
  8
0
  6
Continuous
 62
     7
370
     0
100
AcDbLine
 10
7.4444323362
 20
5.3090947697
 30
0.0
 11
7.4444323362
 21
3.3287798091
 31
0.0
  0
LINE
  5
15E
330
1F
100
AcDbEntity
  8
0
  6
Continuous
 62
     7
370
     0
100
AcDbLine
 10
7.4345898165
 20
3.3189372894
 30
0.0
 11
7.4444323362
 21
3.3287798091
 31
0.0
  0
LINE
  5
15F
330
1F
100
AcDbEntity
  8
0
  6
Continuous
 62
     7
370
     0
100
AcDbLine
 10
7.4345898165
 20
3.3189372894
 30
0.0
 11
7.3361646197
 21
3.3189372894
 31
0.0
  0
LINE
  5
160
330
1F
100
AcDbEntity
  8
0
  6
Continuous
 62
     7
370
     0
100
AcDbLine
 10
7.3209200998
 20
3.3271057646
 30
0.0
 11
7.3361646197
 21
3.3189372894
 31
0.0
  0
ARC
  5
161
330
1F
100
AcDbEntity
  8
0
  6
Continuous
 62
     7
370
     0
100
AcDbCircle
 10
8.8341935298
 20
4.3219977616
 30
0.0
 40
1.811023622047244
100
AcDbArc
 50
180.0968249232
 51
213.3226652946
  0
LINE
  5
162
330
1F
100
AcDbEntity
  8
0
  6
Continuous
 62
     7
370
     0
100
AcDbLine
 10
7.3042317459
 20
3.3516167813
 30
0.0
 11
7.2942317459
 21
3.3689372894
 31
0.0
  0
LINE
  5
163
330
1F
100
AcDbEntity
  8
0
  6
Continuous
 62
     7
370
     0
100
AcDbLine
 10
7.2942317459
 20
5.2689372894
 30
0.0
 11
7.3042317459
 21
5.2862577975
 31
0.0
  0
LINE
  5
164
330
1F
100
AcDbEntity
  8
0
  6
Continuous
 62
     7
370
     0
100
AcDbLine
 10
7.3042317459
 20
5.2862577975
 30
0.0
 11
7.3042317459
 21
5.2849090661
 31
0.0
  0
LINE
  5
165
330
1F
100
AcDbEntity
  8
0
  6
Continuous
 62
     7
370
     0
100
AcDbLine
 10
7.3042317459
 20
3.3529655128
 30
0.0
 11
7.3042317459
 21
3.3516167813
 31
0.0
  0
LINE
  5
166
330
1F
100
AcDbEntity
  8
0
  6
Continuous
 62
     7
370
     0
100
AcDbLine
 10
7.3042317459
 20
5.3264372894
 30
0.0
 11
7.2869112378
 21
5.3364372894
 31
0.0
  0
LINE
  5
167
330
1F
100
AcDbEntity
  8
0
  6
Continuous
 62
     7
370
     0
100
AcDbLine
 10
7.2869112378
 20
3.3014372894
 30
0.0
 11
7.3042317459
 21
3.3114372894
 31
0.0
  0
LINE
  5
168
330
1F
100
AcDbEntity
  8
0
  6
Continuous
 62
     7
370
     0
100
AcDbLine
 10
7.2042317459
 20
5.2789372894
 30
0.0
 11
7.2215522539
 21
5.2689372894
 31
0.0
  0
LINE
  5
169
330
1F
100
AcDbEntity
  8
0
  6
Continuous
 62
     7
370
     0
100
AcDbLine
 10
7.2042317459
 20
5.2789372894
 30
0.0
 11
7.2042317459
 21
5.3191167813
 31
0.0
  0
LINE
  5
16A
330
1F
100
AcDbEntity
  8
0
  6
Continuous
 62
     7
370
     0
100
AcDbLine
 10
7.2142317459
 20
5.3364372894
 30
0.0
 11
7.2042317459
 21
5.3191167813
 31
0.0
  0
LINE
  5
16B
330
1F
100
AcDbEntity
  8
0
  6
Continuous
 62
     7
370
     0
100
AcDbLine
 10
7.2142317459
 20
5.3364372894
 30
0.0
 11
7.2869112378
 21
5.3364372894
 31
0.0
  0
LINE
  5
16C
330
1F
100
AcDbEntity
  8
0
  6
Continuous
 62
     7
370
     0
100
AcDbLine
 10
7.2942317459
 20
5.2689372894
 30
0.0
 11
7.2215522539
 21
5.2689372894
 31
0.0
  0
LINE
  5
16D
330
1F
100
AcDbEntity
  8
0
  6
Continuous
 62
     7
370
     0
100
AcDbLine
 10
7.3042317459
 20
5.3264372894
 30
0.0
 11
7.3042317459
 21
5.2862577975
 31
0.0
  0
LINE
  5
16E
330
1F
100
AcDbEntity
  8
0
  6
Continuous
 62
     7
370
     0
100
AcDbLine
 10
7.2869112378
 20
3.3014372894
 30
0.0
 11
7.2142317459
 21
3.3014372894
 31
0.0
  0
LINE
  5
16F
330
1F
100
AcDbEntity
  8
0
  6
Continuous
 62
     7
370
     0
100
AcDbLine
 10
7.2042317459
 20
3.3187577975
 30
0.0
 11
7.2142317459
 21
3.3014372894
 31
0.0
  0
LINE
  5
170
330
1F
100
AcDbEntity
  8
0
  6
Continuous
 62
     7
370
     0
100
AcDbLine
 10
7.2042317459
 20
3.3187577975
 30
0.0
 11
7.2042317459
 21
3.3589372894
 31
0.0
  0
LINE
  5
171
330
1F
100
AcDbEntity
  8
0
  6
Continuous
 62
     7
370
     0
100
AcDbLine
 10
7.2215522539
 20
3.3689372894
 30
0.0
 11
7.2042317459
 21
3.3589372894
 31
0.0
  0
LINE
  5
172
330
1F
100
AcDbEntity
  8
0
  6
Continuous
 62
     7
370
     0
100
AcDbLine
 10
7.2215522539
 20
3.3689372894
 30
0.0
 11
7.2942317459
 21
3.3689372894
 31
0.0
  0
LINE
  5
173
330
1F
100
AcDbEntity
  8
0
  6
Continuous
 62
     7
370
     0
100
AcDbLine
 10
7.3042317459
 20
3.3516167813
 30
0.0
 11
7.3042317459
 21
3.3114372894
 31
0.0
  0
LINE
  5
174
330
1F
100
AcDbEntity
  8
0
  6
Continuous
 62
     7
370
     0
100
AcDbLine
 10
7.2215522539
 20
5.2689372894
 30
0.0
 11
7.2215522539
 21
5.1400094977
 31
0.0
  0
LINE
  5
175
330
1F
100
AcDbEntity
  8
0
  6
Continuous
 62
     7
370
     0
100
AcDbLine
 10
7.2215522539
 20
3.4978650811
 30
0.0
 11
7.2215522539
 21
3.3689372894
 31
0.0
  0
LINE
  5
176
330
1F
100
AcDbEntity
  8
0
  6
Continuous
 62
     7
370
     0
100
AcDbLine
 10
7.2042317459
 20
3.3589372894
 30
0.0
 11
7.2042317459
 21
3.5326745436
 31
0.0
  0
LINE
  5
177
330
1F
100
AcDbEntity
  8
0
  6
Continuous
 62
     7
370
     0
100
AcDbLine
 10
7.2042317459
 20
5.1052000353
 30
0.0
 11
7.2042317459
 21
5.2789372894
 31
0.0
  0
LINE
  5
178
330
1F
100
AcDbEntity
  8
0
  6
Continuous
 62
     7
370
     0
100
AcDbLine
 10
7.0244323362
 20
3.3014372894
 30
0.0
 11
7.0144323362
 21
3.2841167813
 31
0.0
  0
LINE
  5
179
330
1F
100
AcDbEntity
  8
0
  6
Continuous
 62
     7
370
     0
100
AcDbLine
 10
7.0244323362
 20
3.3014372894
 30
0.0
 11
7.4344323362
 21
3.3014372894
 31
0.0
  0
LINE
  5
17A
330
1F
100
AcDbEntity
  8
0
  6
Continuous
 62
     7
370
     0
100
AcDbLine
 10
7.4344323362
 20
3.3014372894
 30
0.0
 11
7.4344323362
 21
3.2914372894
 31
0.0
  0
LINE
  5
17B
330
1F
100
AcDbEntity
  8
0
  6
Continuous
 62
     7
370
     0
100
AcDbLine
 10
7.4344323362
 20
3.2914372894
 30
0.0
 11
7.4444323362
 21
3.2914372894
 31
0.0
  0
LINE
  5
17C
330
1F
100
AcDbEntity
  8
0
  6
Continuous
 62
     7
370
     0
100
AcDbLine
 10
7.4444323362
 20
3.2914372894
 30
0.0
 11
7.4444323362
 21
3.3689372894
 31
0.0
  0
LINE
  5
17D
330
1F
100
AcDbEntity
  8
0
  6
Continuous
 62
     7
370
     0
100
AcDbLine
 10
7.4444323362
 20
3.3689372894
 30
0.0
 11
7.5944323362
 21
3.3689372894
 31
0.0
  0
LINE
  5
17E
330
1F
100
AcDbEntity
  8
0
  6
Continuous
 62
     7
370
     0
100
AcDbLine
 10
7.5944323362
 20
3.3689372894
 30
0.0
 11
7.5944323362
 21
3.3187577975
 31
0.0
  0
LINE
  5
17F
330
1F
100
AcDbEntity
  8
0
  6
Continuous
 62
     7
370
     0
100
AcDbLine
 10
7.5844323362
 20
3.3014372894
 30
0.0
 11
7.5944323362
 21
3.3187577975
 31
0.0
  0
LINE
  5
180
330
1F
100
AcDbEntity
  8
0
  6
Continuous
 62
     7
370
     0
100
AcDbLine
 10
7.5844323362
 20
3.3014372894
 30
0.0
 11
7.4844323362
 21
3.3014372894
 31
0.0
  0
LINE
  5
181
330
1F
100
AcDbEntity
  8
0
  6
Continuous
 62
     7
370
     0
100
AcDbLine
 10
7.4844323362
 20
3.3014372894
 30
0.0
 11
7.4844323362
 21
3.3114372894
 31
0.0
  0
LINE
  5
182
330
1F
100
AcDbEntity
  8
0
  6
Continuous
 62
     7
370
     0
100
AcDbLine
 10
7.4844323362
 20
3.3114372894
 30
0.0
 11
7.4744323362
 21
3.3114372894
 31
0.0
  0
LINE
  5
183
330
1F
100
AcDbEntity
  8
0
  6
Continuous
 62
     7
370
     0
100
AcDbLine
 10
7.4744323362
 20
3.3114372894
 30
0.0
 11
7.4744323362
 21
3.2289372894
 31
0.0
  0
LINE
  5
184
330
1F
100
AcDbEntity
  8
0
  6
Continuous
 62
     7
370
     0
100
AcDbLine
 10
7.4644323362
 20
3.2189372894
 30
0.0
 11
7.4744323362
 21
3.2289372894
 31
0.0
  0
LINE
  5
185
330
1F
100
AcDbEntity
  8
0
  6
Continuous
 62
     7
370
     0
100
AcDbLine
 10
7.4644323362
 20
3.2189372894
 30
0.0
 11
7.2844323362
 21
3.2189372894
 31
0.0
  0
LINE
  5
186
330
1F
100
AcDbEntity
  8
0
  6
Continuous
 62
     7
370
     0
100
AcDbLine
 10
7.2844323362
 20
3.2189372894
 30
0.0
 11
7.263912902
 21
3.2189372894
 31
0.0
  0
LINE
  5
187
330
1F
100
AcDbEntity
  8
0
  6
Continuous
 62
     7
370
     0
100
AcDbLine
 10
7.263912902
 20
3.2189372894
 30
0.0
 11
7.2406462155
 21
3.2189372894
 31
0.0
  0
LINE
  5
188
330
1F
100
AcDbEntity
  8
0
  6
Continuous
 62
     7
370
     0
100
AcDbLine
 10
7.2406462155
 20
3.2189372894
 30
0.0
 11
7.2106344835
 21
3.2189372894
 31
0.0
  0
LINE
  5
189
330
1F
100
AcDbEntity
  8
0
  6
Continuous
 62
     7
370
     0
100
AcDbLine
 10
7.2106344835
 20
3.2189372894
 30
0.0
 11
7.0244323362
 21
3.2189372894
 31
0.0
  0
LINE
  5
18A
330
1F
100
AcDbEntity
  8
0
  6
Continuous
 62
     7
370
     0
100
AcDbLine
 10
7.0144323362
 20
3.2289372894
 30
0.0
 11
7.0244323362
 21
3.2189372894
 31
0.0
  0
LINE
  5
18B
330
1F
100
AcDbEntity
  8
0
  6
Continuous
 62
     7
370
     0
100
AcDbLine
 10
7.0144323362
 20
3.2289372894
 30
0.0
 11
7.0144323362
 21
3.2841167813
 31
0.0
  0
LINE
  5
18C
330
1F
100
AcDbEntity
  8
0
  6
Continuous
 62
     7
370
     0
100
AcDbLine
 10
7.2044323362
 20
5.4189372894
 30
0.0
 11
7.2136631055
 21
5.4189372894
 31
0.0
  0
LINE
  5
18D
330
1F
100
AcDbEntity
  8
0
  6
Continuous
 62
     7
370
     0
100
AcDbLine
 10
7.2136631055
 20
5.4189372894
 30
0.0
 11
7.2382784901
 21
5.4189372894
 31
0.0
  0
LINE
  5
18E
330
1F
100
AcDbEntity
  8
0
  6
Continuous
 62
     7
370
     0
100
AcDbLine
 10
7.2382784901
 20
5.4189372894
 30
0.0
 11
7.2475092593
 21
5.4189372894
 31
0.0
  0
LINE
  5
18F
330
1F
100
AcDbEntity
  8
0
  6
Continuous
 62
     7
370
     0
100
AcDbLine
 10
7.2475092593
 20
5.4189372894
 30
0.0
 11
7.275201567
 21
5.4189372894
 31
0.0
  0
LINE
  5
190
330
1F
100
AcDbEntity
  8
0
  6
Continuous
 62
     7
370
     0
100
AcDbLine
 10
7.275201567
 20
5.4189372894
 30
0.0
 11
7.2844323362
 21
5.4189372894
 31
0.0
  0
LINE
  5
191
330
1F
100
AcDbEntity
  8
0
  6
Continuous
 62
     7
370
     0
100
AcDbLine
 10
7.2844323362
 20
5.4189372894
 30
0.0
 11
7.3393711815
 21
5.4189372894
 31
0.0
  0
LINE
  5
192
330
1F
100
AcDbEntity
  8
0
  6
Continuous
 62
     7
370
     0
100
AcDbLine
 10
7.3393711815
 20
5.4189372894
 30
0.0
 11
7.3606739214
 21
5.4189372894
 31
0.0
  0
LINE
  5
193
330
1F
100
AcDbEntity
  8
0
  6
Continuous
 62
     7
370
     0
100
AcDbLine
 10
7.3606739214
 20
5.4189372894
 30
0.0
 11
7.4644323362
 21
5.4189372894
 31
0.0
  0
LINE
  5
194
330
1F
100
AcDbEntity
  8
0
  6
Continuous
 62
     7
370
     0
100
AcDbLine
 10
7.4744323362
 20
5.4089372894
 30
0.0
 11
7.4644323362
 21
5.4189372894
 31
0.0
  0
LINE
  5
195
330
1F
100
AcDbEntity
  8
0
  6
Continuous
 62
     7
370
     0
100
AcDbLine
 10
7.4744323362
 20
5.4089372894
 30
0.0
 11
7.4744323362
 21
5.3264372894
 31
0.0
  0
LINE
  5
196
330
1F
100
AcDbEntity
  8
0
  6
Continuous
 62
     7
370
     0
100
AcDbLine
 10
7.4744323362
 20
5.3264372894
 30
0.0
 11
7.4844323362
 21
5.3264372894
 31
0.0
  0
LINE
  5
197
330
1F
100
AcDbEntity
  8
0
  6
Continuous
 62
     7
370
     0
100
AcDbLine
 10
7.4844323362
 20
5.3264372894
 30
0.0
 11
7.4844323362
 21
5.3364372894
 31
0.0
  0
LINE
  5
198
330
1F
100
AcDbEntity
  8
0
  6
Continuous
 62
     7
370
     0
100
AcDbLine
 10
7.4844323362
 20
5.3364372894
 30
0.0
 11
7.5844323362
 21
5.3364372894
 31
0.0
  0
LINE
  5
199
330
1F
100
AcDbEntity
  8
0
  6
Continuous
 62
     7
370
     0
100
AcDbLine
 10
7.5944323362
 20
5.3191167813
 30
0.0
 11
7.5844323362
 21
5.3364372894
 31
0.0
  0
LINE
  5
19A
330
1F
100
AcDbEntity
  8
0
  6
Continuous
 62
     7
370
     0
100
AcDbLine
 10
7.5944323362
 20
5.3191167813
 30
0.0
 11
7.5944323362
 21
5.2689372894
 31
0.0
  0
LINE
  5
19B
330
1F
100
AcDbEntity
  8
0
  6
Continuous
 62
     7
370
     0
100
AcDbLine
 10
7.5944323362
 20
5.2689372894
 30
0.0
 11
7.4444323362
 21
5.2689372894
 31
0.0
  0
LINE
  5
19C
330
1F
100
AcDbEntity
  8
0
  6
Continuous
 62
     7
370
     0
100
AcDbLine
 10
7.4444323362
 20
5.2689372894
 30
0.0
 11
7.4444323362
 21
5.3464372894
 31
0.0
  0
LINE
  5
19D
330
1F
100
AcDbEntity
  8
0
  6
Continuous
 62
     7
370
     0
100
AcDbLine
 10
7.4444323362
 20
5.3464372894
 30
0.0
 11
7.4344323362
 21
5.3464372894
 31
0.0
  0
LINE
  5
19E
330
1F
100
AcDbEntity
  8
0
  6
Continuous
 62
     7
370
     0
100
AcDbLine
 10
7.4344323362
 20
5.3464372894
 30
0.0
 11
7.4344323362
 21
5.3364372894
 31
0.0
  0
LINE
  5
19F
330
1F
100
AcDbEntity
  8
0
  6
Continuous
 62
     7
370
     0
100
AcDbLine
 10
7.4344323362
 20
5.3364372894
 30
0.0
 11
7.0244323362
 21
5.3364372894
 31
0.0
  0
LINE
  5
1A0
330
1F
100
AcDbEntity
  8
0
  6
Continuous
 62
     7
370
     0
100
AcDbLine
 10
7.0144323362
 20
5.3537577975
 30
0.0
 11
7.0244323362
 21
5.3364372894
 31
0.0
  0
LINE
  5
1A1
330
1F
100
AcDbEntity
  8
0
  6
Continuous
 62
     7
370
     0
100
AcDbLine
 10
7.0144323362
 20
5.3537577975
 30
0.0
 11
7.0144323362
 21
5.4089372894
 31
0.0
  0
LINE
  5
1A2
330
1F
100
AcDbEntity
  8
0
  6
Continuous
 62
     7
370
     0
100
AcDbLine
 10
7.0244323362
 20
5.4189372894
 30
0.0
 11
7.0144323362
 21
5.4089372894
 31
0.0
  0
LINE
  5
1A3
330
1F
100
AcDbEntity
  8
0
  6
Continuous
 62
     7
370
     0
100
AcDbLine
 10
7.0244323362
 20
5.4189372894
 30
0.0
 11
7.2044323362
 21
5.4189372894
 31
0.0
  0
LINE
  5
1A4
330
1F
100
AcDbEntity
  8
0
  6
Continuous
 62
     7
370
     0
100
AcDbLine
 10
7.5944323362
 20
3.3689372894
 30
0.0
 11
7.5944323362
 21
5.2689372894
 31
0.0
  0
LINE
  5
1A5
330
1F
100
AcDbEntity
  8
0
  6
Continuous
 62
     7
370
     0
100
AcDbLine
 10
7.0244323362
 20
5.3364372894
 30
0.0
 11
7.0244323362
 21
4.3834858543
 31
0.0
  0
LINE
  5
1A6
330
1F
100
AcDbEntity
  8
0
  6
Continuous
 62
     7
370
     0
100
AcDbLine
 10
7.0244323362
 20
4.2543887245
 30
0.0
 11
7.0244323362
 21
3.3014372894
 31
0.0
  0
LINE
  5
1A7
330
1F
100
AcDbEntity
  8
0
  6
Continuous
 62
     7
370
     0
100
AcDbLine
 10
7.4344323362
 20
3.3014372894
 30
0.0
 11
7.4344323362
 21
3.3189372894
 31
0.0
  0
LINE
  5
1A8
330
1F
100
AcDbEntity
  8
0
  6
Continuous
 62
     7
370
     0
100
AcDbLine
 10
7.4344323362
 20
5.3189372894
 30
0.0
 11
7.4344323362
 21
5.3364372894
 31
0.0
  0
LINE
  5
1A9
330
1F
100
AcDbEntity
  8
0
  6
Continuous
 62
     7
370
     0
100
AcDbLine
 10
7.0144323362
 20
3.2841167813
 30
0.0
 11
7.0144323362
 21
5.3537577975
 31
0.0
  0
HATCH
  5
1AA
330
1F
100
AcDbEntity
  8
0
  6
Continuous
 62
     7
370
     0
100
AcDbHatch
 10
0.0
 20
0.0
 30
0.0
210
0.0
220
0.0
230
1.0
  2
ANSI31
 70
     0
 71
     0
 91
        1
 92
        0
 93
       24
 72
     1
 10
7.204432336226962
 20
5.418937289423174
 11
7.024432336226962
 21
5.418937289423175
 72
     1
 10
7.024432336226962
 20
5.418937289423175
 11
7.014432336226962
 21
5.408937289423175
 72
     1
 10
7.014432336226962
 20
5.408937289423175
 11
7.014432336226962
 21
5.353757797498863
 72
     1
 10
7.014432336226962
 20
5.353757797498863
 11
7.024432336226962
 21
5.336437289423174
 72
     1
 10
7.024432336226962
 20
5.336437289423174
 11
7.434432336226963
 21
5.336437289423174
 72
     1
 10
7.434432336226963
 20
5.336437289423174
 11
7.434432336226963
 21
5.346437289423174
 72
     1
 10
7.434432336226963
 20
5.346437289423174
 11
7.444432336226963
 21
5.346437289423174
 72
     1
 10
7.444432336226963
 20
5.346437289423174
 11
7.444432336226963
 21
5.268937289423174
 72
     1
 10
7.444432336226963
 20
5.268937289423174
 11
7.594432336226963
 21
5.268937289423174
 72
     1
 10
7.594432336226963
 20
5.268937289423174
 11
7.594432336226963
 21
5.319116781347486
 72
     1
 10
7.594432336226963
 20
5.319116781347486
 11
7.584432336226963
 21
5.336437289423174
 72
     1
 10
7.584432336226963
 20
5.336437289423174
 11
7.484432336226962
 21
5.336437289423174
 72
     1
 10
7.484432336226962
 20
5.336437289423174
 11
7.484432336226962
 21
5.326437289423174
 72
     1
 10
7.484432336226962
 20
5.326437289423174
 11
7.474432336226962
 21
5.326437289423174
 72
     1
 10
7.474432336226962
 20
5.326437289423174
 11
7.474432336226962
 21
5.408937289423175
 72
     1
 10
7.474432336226962
 20
5.408937289423175
 11
7.464432336226964
 21
5.418937289423174
 72
     1
 10
7.464432336226964
 20
5.418937289423174
 11
7.360673921425488
 21
5.418937289423174
 72
     1
 10
7.360673921425488
 20
5.418937289423174
 11
7.339371181523249
 21
5.418937289423174
 72
     1
 10
7.339371181523249
 20
5.418937289423174
 11
7.284432336226963
 21
5.418937289423174
 72
     1
 10
7.284432336226963
 20
5.418937289423174
 11
7.275201566996193
 21
5.418937289423174
 72
     1
 10
7.275201566996193
 20
5.418937289423174
 11
7.247509259303885
 21
5.418937289423174
 72
     1
 10
7.247509259303885
 20
5.418937289423174
 11
7.238278490073116
 21
5.418937289423174
 72
     1
 10
7.238278490073116
 20
5.418937289423174
 11
7.213663105457732
 21
5.418937289423174
 72
     1
 10
7.213663105457732
 20
5.418937289423174
 11
7.204432336226962
 21
5.418937289423174
 97
        0
 75
     0
 76
     1
 52
0.0
 41
1.0
 77
     0
 78
     1
 53
45.0
 43
0.0
 44
0.0
 45
-0.0883883476483184
 46
0.0883883476483184
 79
     0
 98
        1
 10
0.0
 20
0.0
  0
HATCH
  5
1AB
330
1F
100
AcDbEntity
  8
0
  6
Continuous
 62
     7
370
     0
100
AcDbHatch
 10
0.0
 20
0.0
 30
0.0
210
0.0
220
0.0
230
1.0
  2
ANSI31
 70
     0
 71
     0
 91
        1
 92
        0
 93
       20
 72
     1
 10
7.014432336226962
 20
3.284116781347485
 11
7.014432336226962
 21
3.228937289423173
 72
     1
 10
7.014432336226962
 20
3.228937289423173
 11
7.024432336226962
 21
3.218937289423173
 72
     1
 10
7.024432336226962
 20
3.218937289423173
 11
7.21063448345151
 21
3.218937289423174
 72
     1
 10
7.21063448345151
 20
3.218937289423174
 11
7.240646215518941
 21
3.218937289423174
 72
     1
 10
7.240646215518941
 20
3.218937289423174
 11
7.263912901957554
 21
3.218937289423174
 72
     1
 10
7.263912901957554
 20
3.218937289423174
 11
7.284432336226963
 21
3.218937289423174
 72
     1
 10
7.284432336226963
 20
3.218937289423174
 11
7.464432336226963
 21
3.218937289423174
 72
     1
 10
7.464432336226963
 20
3.218937289423174
 11
7.474432336226962
 21
3.228937289423173
 72
     1
 10
7.474432336226962
 20
3.228937289423173
 11
7.474432336226962
 21
3.311437289423174
 72
     1
 10
7.474432336226962
 20
3.311437289423174
 11
7.484432336226962
 21
3.311437289423174
 72
     1
 10
7.484432336226962
 20
3.311437289423174
 11
7.484432336226962
 21
3.301437289423174
 72
     1
 10
7.484432336226962
 20
3.301437289423174
 11
7.584432336226963
 21
3.301437289423174
 72
     1
 10
7.584432336226963
 20
3.301437289423174
 11
7.594432336226963
 21
3.318757797498862
 72
     1
 10
7.594432336226963
 20
3.318757797498862
 11
7.594432336226963
 21
3.368937289423174
 72
     1
 10
7.594432336226963
 20
3.368937289423174
 11
7.444432336226963
 21
3.368937289423174
 72
     1
 10
7.444432336226963
 20
3.368937289423174
 11
7.444432336226963
 21
3.291437289423174
 72
     1
 10
7.444432336226963
 20
3.291437289423174
 11
7.434432336226963
 21
3.291437289423174
 72
     1
 10
7.434432336226963
 20
3.291437289423174
 11
7.434432336226963
 21
3.301437289423174
 72
     1
 10
7.434432336226963
 20
3.301437289423174
 11
7.024432336226962
 21
3.301437289423174
 72
     1
 10
7.024432336226962
 20
3.301437289423174
 11
7.014432336226962
 21
3.284116781347485
 97
        0
 75
     0
 76
     1
 52
0.0
 41
1.0
 77
     0
 78
     1
 53
45.0
 43
0.0
 44
0.0
 45
-0.0883883476483184
 46
0.0883883476483184
 79
     0
 98
        1
 10
0.0
 20
0.0
  0
HATCH
  5
1AC
330
1F
100
AcDbEntity
  8
0
  6
Continuous
 62
     7
370
     0
100
AcDbHatch
 10
0.0
 20
0.0
 30
0.0
210
0.0
220
0.0
230
1.0
  2
ANSI31
 70
     0
 71
     0
 91
        1
 92
        0
 93
        8
 72
     1
 10
7.304231745856287
 20
3.311437289423175
 11
7.304231745856287
 21
3.351616781347486
 72
     1
 10
7.304231745856287
 20
3.351616781347486
 11
7.294231745856286
 21
3.368937289423175
 72
     1
 10
7.294231745856286
 20
3.368937289423175
 11
7.221552253931976
 21
3.368937289423175
 72
     1
 10
7.221552253931976
 20
3.368937289423175
 11
7.204231745856285
 21
3.358937289423173
 72
     1
 10
7.204231745856285
 20
3.358937289423173
 11
7.204231745856285
 21
3.318757797498862
 72
     1
 10
7.204231745856285
 20
3.318757797498862
 11
7.214231745856286
 21
3.301437289423174
 72
     1
 10
7.214231745856286
 20
3.301437289423174
 11
7.286911237780596
 21
3.301437289423174
 72
     1
 10
7.286911237780596
 20
3.301437289423174
 11
7.304231745856287
 21
3.311437289423175
 97
        0
 75
     0
 76
     1
 52
90.0
 41
0.25
 77
     0
 78
     1
 53
135.0000000000002
 43
0.0
 44
0.0
 45
-0.0220970869120795
 46
-0.0220970869120797
 79
     0
 98
        1
 10
0.0
 20
0.0
  0
HATCH
  5
1AD
330
1F
100
AcDbEntity
  8
0
  6
Continuous
 62
     7
370
     0
100
AcDbHatch
 10
0.0
 20
0.0
 30
0.0
210
0.0
220
0.0
230
1.0
  2
ANSI31
 70
     0
 71
     0
 91
        1
 92
        0
 93
        8
 72
     1
 10
7.221552253931976
 20
5.268937289423175
 11
7.294231745856286
 21
5.268937289423175
 72
     1
 10
7.294231745856286
 20
5.268937289423175
 11
7.304231745856287
 21
5.286257797498862
 72
     1
 10
7.304231745856287
 20
5.286257797498862
 11
7.304231745856287
 21
5.326437289423174
 72
     1
 10
7.304231745856287
 20
5.326437289423174
 11
7.286911237780596
 21
5.336437289423175
 72
     1
 10
7.286911237780596
 20
5.336437289423175
 11
7.214231745856286
 21
5.336437289423175
 72
     1
 10
7.214231745856286
 20
5.336437289423175
 11
7.204231745856285
 21
5.319116781347486
 72
     1
 10
7.204231745856285
 20
5.319116781347486
 11
7.204231745856285
 21
5.278937289423176
 72
     1
 10
7.204231745856285
 20
5.278937289423176
 11
7.221552253931976
 21
5.268937289423175
 97
        0
 75
     0
 76
     1
 52
90.0
 41
0.25
 77
     0
 78
     1
 53
135.0000000000002
 43
0.0
 44
0.0
 45
-0.0220970869120795
 46
-0.0220970869120797
 79
     0
 98
        1
 10
0.0
 20
0.0
  0
HATCH
  5
1AE
330
1F
100
AcDbEntity
  8
0
  6
Continuous
 62
     7
370
     0
100
AcDbHatch
 10
0.0
 20
0.0
 30
0.0
210
0.0
220
0.0
230
1.0
  2
ANSI31
 70
     0
 71
     0
 91
        1
 92
        0
 93
        9
 72
     2
 10
8.834193529786955
 20
4.321997761610637
 40
1.811023622047244
 50
180.0968249232023
 51
213.3226652946134
 73
     1
 72
     1
 10
7.320920099826781
 20
3.327105764562871
 11
7.336164619691529
 21
3.318937289423173
 72
     1
 10
7.336164619691529
 20
3.318937289423173
 11
7.434589816541923
 21
3.318937289423173
 72
     1
 10
7.434589816541923
 20
3.318937289423173
 11
7.444432336226963
 21
3.328779809108212
 72
     1
 10
7.444432336226963
 20
3.328779809108212
 11
7.444432336226963
 21
5.309094769738135
 72
     1
 10
7.444432336226963
 20
5.309094769738135
 11
7.434589816541925
 21
5.318937289423174
 72
     1
 10
7.434589816541925
 20
5.318937289423174
 11
7.336164619691529
 21
5.318937289423174
 72
     1
 10
7.336164619691529
 20
5.318937289423174
 11
7.320920099826781
 21
5.310768814283477
 72
     2
 10
8.834193529786955
 20
4.315876817235711
 40
1.811023622047244
 50
146.6773347053874
 51
179.9031750767985
 73
     1
 97
        0
 75
     0
 76
     1
 52
0.0
 41
1.0
 77
     0
 78
     1
 53
45.0
 43
0.0
 44
0.0
 45
-0.0883883476483184
 46
0.0883883476483184
 79
     0
 98
        1
 10
0.0
 20
0.0
  0
DIMENSION
  5
1AF
330
1F
100
AcDbEntity
  8
0
  6
Continuous
 62
     7
370
     0
100
AcDbDimension
  2
_D_1
 10
8.4605740685
 20
3.3689372894
 30
0.0
 11
8.4605740685
 21
4.3189372894
 31
0.0
 70
   160
  1
%%c<>
 71
     2
 42
-1.0
  3
SLDDIMSTYLE1
100
AcDbAlignedDimension
 13
7.5944323362
 23
5.2689372894
 33
0.0
 14
7.5944323362
 24
3.3689372894
 34
0.0
 50
90.0
100
AcDbRotatedDimension
  0
DIMENSION
  5
1C3
330
1F
100
AcDbEntity
  8
0
  6
Continuous
 62
     7
370
     0
100
AcDbDimension
  2
_D_2
 10
7.5944323362
 20
5.6538036106
 30
0.0
 11
8.4605740685
 21
5.6538036106
 31
0.0
 70
   160
  1
<>
 71
     2
 42
-1.0
  3
SLDDIMSTYLE2
100
AcDbAlignedDimension
 13
7.4744323362
 23
5.4089372894
 33
0.0
 14
7.5944323362
 24
5.3191167813
 34
0.0
100
AcDbRotatedDimension
  0
DIMENSION
  5
1D8
330
1F
100
AcDbEntity
  8
0
  6
Continuous
 62
     7
370
     0
100
AcDbDimension
  2
_D_3
 10
7.5944323362
 20
5.9545848639
 30
0.0
 11
7.3044323362
 21
5.9545848639
 31
0.0
 70
   160
  1
<>
 71
     2
 42
-1.0
  3
SLDDIMSTYLE2
100
AcDbAlignedDimension
 13
7.0144323362
 23
5.4089372894
 33
0.0
 14
7.5944323362
 24
5.3191167813
 34
0.0
100
AcDbRotatedDimension
  0
INSERT
  5
1F3
102
{ACAD_REACTORS
330
1F5
102
}
330
1F
100
AcDbEntity
  8
0
  6
Continuous
 62
     7
370
     0
100
AcDbBlockReference
  2
SW_NOTE_5
 10
6.4126384757
 20
3.6770470994
 30
0.0
  0
LEADER
  5
1F5
330
1F
100
AcDbEntity
  8
0
  6
Continuous
 62
     7
370
     0
100
AcDbLeader
  3
SLDDIMSTYLE3
 73
     2
 76
     3
 10
7.0988336433
 20
3.3014372894
 30
0.0
 10
6.6626384757
 20
3.6770470994
 30
0.0
 10
6.4126384757
 20
3.6770470994
 30
0.0
340
1F3
  0
INSERT
  5
1FC
102
{ACAD_REACTORS
330
1FD
102
}
330
1F
100
AcDbEntity
  8
0
  6
Continuous
 62
     7
370
     0
100
AcDbBlockReference
  2
SW_NOTE_6
 10
8.3614394512
 20
2.6720497733
 30
0.0
  0
LEADER
  5
1FD
330
1F
100
AcDbEntity
  8
0
  6
Continuous
 62
     7
370
     0
100
AcDbLeader
  3
SLDDIMSTYLE3
 73
     2
 76
     3
 10
7.5408411183
 20
3.3014372894
 30
0.0
 10
8.1114394512
 20
2.6720497733
 30
0.0
 10
8.3614394512
 20
2.6720497733
 30
0.0
340
1FC
  0
INSERT
  5
203
102
{ACAD_REACTORS
330
204
102
}
330
1F
100
AcDbEntity
  8
0
  6
Continuous
 62
     7
370
     0
100
AcDbBlockReference
  2
SW_NOTE_7
 10
6.2789888972
 20
4.0196684431
 30
0.0
  0
LEADER
  5
204
330
1F
100
AcDbEntity
  8
0
  6
Continuous
 62
     7
370
     0
100
AcDbLeader
  3
SLDDIMSTYLE3
 73
     2
 76
     3
 10
7.2042317459
 20
3.3925424629
 30
0.0
 10
6.5250518893
 20
4.0196684431
 30
0.0
 10
6.2789888972
 20
4.0196684431
 30
0.0
340
203
  0
INSERT
  5
20A
102
{ACAD_REACTORS
330
20B
102
}
330
1F
100
AcDbEntity
  8
0
  6
Continuous
 62
     7
370
     0
100
AcDbBlockReference
  2
SW_NOTE_8
 10
6.5832541427
 20
2.6919655535
 30
0.0
  0
LEADER
  5
20B
330
1F
100
AcDbEntity
  8
0
  6
Continuous
 62
     7
370
     0
100
AcDbLeader
  3
SLDDIMSTYLE3
 73
     2
 76
     3
 10
7.1857961212
 20
3.2189372894
 30
0.0
 10
6.8293171348
 20
2.6919655535
 30
0.0
 10
6.5832541427
 20
2.6919655535
 30
0.0
340
20A
  0
INSERT
  5
211
102
{ACAD_REACTORS
330
212
102
}
330
1F
100
AcDbEntity
  8
0
  6
Continuous
 62
     7
370
     0
100
AcDbBlockReference
  2
SW_NOTE_9
 10
8.3073025705
 20
3.0746021501
 30
0.0
  0
LEADER
  5
212
330
1F
100
AcDbEntity
  8
0
  6
Continuous
 62
     7
370
     0
100
AcDbLeader
  3
SLDDIMSTYLE3
 73
     2
 76
     3
 10
7.4444323362
 20
3.7782146967
 30
0.0
 10
8.0612395784
 20
3.0746021501
 30
0.0
 10
8.3073025705
 20
3.0746021501
 30
0.0
340
211
  0
OLE2FRAME
  5
213
330
1F
100
AcDbEntity
  8
0
100
AcDbOle2Frame
 70
     2
  3
Paintbrush Picture
 10
9.0178120406
 20
1.3267570784
 30
0.0
 11
10.4397105087
 21
1.1242314806
 31
0.0
 71
     2
 72
     0
 73
     1
 90
     7296
310
8055C64EE7A81E092240C05F59A1653AF53F0000000000000000FD155DBC21E1
310
2440C05F59A1653AF53F0000000000000000FD155DBC21E12440A1732426DAFC
310
F13F0000000000000000C64EE7A81E092240A1732426DAFCF13F000000000000
310
00000000000001000000000100000100000001000000000001000000001C0000
310
D0CF11E0A1B11AE1000000000000000000000000000000003E000300FEFF0900
310
0600000000000000000000000100000001000000000000000010000002000000
310
01000000FEFFFFFF0000000000000000FFFFFFFFFFFFFFFFFFFFFFFFFFFFFFFF
310
FFFFFFFFFFFFFFFFFFFFFFFFFFFFFFFFFFFFFFFFFFFFFFFFFFFFFFFFFFFFFFFF
310
FFFFFFFFFFFFFFFFFFFFFFFFFFFFFFFFFFFFFFFFFFFFFFFFFFFFFFFFFFFFFFFF
310
FFFFFFFFFFFFFFFFFFFFFFFFFFFFFFFFFFFFFFFFFFFFFFFFFFFFFFFFFFFFFFFF
310
FFFFFFFFFFFFFFFFFFFFFFFFFFFFFFFFFFFFFFFFFFFFFFFFFFFFFFFFFFFFFFFF
310
FFFFFFFFFFFFFFFFFFFFFFFFFFFFFFFFFFFFFFFFFFFFFFFFFFFFFFFFFFFFFFFF
310
FFFFFFFFFFFFFFFFFFFFFFFFFFFFFFFFFFFFFFFFFFFFFFFFFFFFFFFFFFFFFFFF
310
FFFFFFFFFFFFFFFFFFFFFFFFFFFFFFFFFFFFFFFFFFFFFFFFFFFFFFFFFFFFFFFF
310
FFFFFFFFFFFFFFFFFFFFFFFFFFFFFFFFFFFFFFFFFFFFFFFFFFFFFFFFFFFFFFFF
310
FFFFFFFFFFFFFFFFFFFFFFFFFFFFFFFFFFFFFFFFFFFFFFFFFFFFFFFFFFFFFFFF
310
FFFFFFFFFFFFFFFFFFFFFFFFFFFFFFFFFFFFFFFFFFFFFFFFFFFFFFFFFFFFFFFF
310
FFFFFFFFFFFFFFFFFFFFFFFFFFFFFFFFFFFFFFFFFFFFFFFFFFFFFFFFFFFFFFFF
310
FFFFFFFFFFFFFFFFFFFFFFFFFFFFFFFFFFFFFFFFFFFFFFFFFFFFFFFFFFFFFFFF
310
FFFFFFFFFFFFFFFFFFFFFFFFFFFFFFFFFFFFFFFFFFFFFFFFFFFFFFFFFFFFFFFF
310
FDFFFFFFFEFFFFFFFEFFFFFFFEFFFFFF05000000060000000700000008000000
310
090000000A0000000B0000000C000000FEFFFFFFFFFFFFFFFFFFFFFFFFFFFFFF
310
FFFFFFFFFFFFFFFFFFFFFFFFFFFFFFFFFFFFFFFFFFFFFFFFFFFFFFFFFFFFFFFF
310
FFFFFFFFFFFFFFFFFFFFFFFFFFFFFFFFFFFFFFFFFFFFFFFFFFFFFFFFFFFFFFFF
310
FFFFFFFFFFFFFFFFFFFFFFFFFFFFFFFFFFFFFFFFFFFFFFFFFFFFFFFFFFFFFFFF
310
FFFFFFFFFFFFFFFFFFFFFFFFFFFFFFFFFFFFFFFFFFFFFFFFFFFFFFFFFFFFFFFF
310
FFFFFFFFFFFFFFFFFFFFFFFFFFFFFFFFFFFFFFFFFFFFFFFFFFFFFFFFFFFFFFFF
310
FFFFFFFFFFFFFFFFFFFFFFFFFFFFFFFFFFFFFFFFFFFFFFFFFFFFFFFFFFFFFFFF
310
FFFFFFFFFFFFFFFFFFFFFFFFFFFFFFFFFFFFFFFFFFFFFFFFFFFFFFFFFFFFFFFF
310
FFFFFFFFFFFFFFFFFFFFFFFFFFFFFFFFFFFFFFFFFFFFFFFFFFFFFFFFFFFFFFFF
310
FFFFFFFFFFFFFFFFFFFFFFFFFFFFFFFFFFFFFFFFFFFFFFFFFFFFFFFFFFFFFFFF
310
FFFFFFFFFFFFFFFFFFFFFFFFFFFFFFFFFFFFFFFFFFFFFFFFFFFFFFFFFFFFFFFF
310
FFFFFFFFFFFFFFFFFFFFFFFFFFFFFFFFFFFFFFFFFFFFFFFFFFFFFFFFFFFFFFFF
310
FFFFFFFFFFFFFFFFFFFFFFFFFFFFFFFFFFFFFFFFFFFFFFFFFFFFFFFFFFFFFFFF
310
FFFFFFFFFFFFFFFFFFFFFFFFFFFFFFFFFFFFFFFFFFFFFFFFFFFFFFFFFFFFFFFF
310
FFFFFFFFFFFFFFFFFFFFFFFFFFFFFFFFFFFFFFFFFFFFFFFFFFFFFFFFFFFFFFFF
310
52006F006F007400200045006E00740072007900000000000000000000000000
310
0000000000000000000000000000000000000000000000000000000000000000
310
16000500FFFFFFFFFFFFFFFF020000000A00030000000000C000000000000046
310
000000000000000000000000D0FF47415880D10103000000C000000000000000
310
01004F006C006500000000000000000000000000000000000000000000000000
310
0000000000000000000000000000000000000000000000000000000000000000
310
0A000200FFFFFFFFFFFFFFFFFFFFFFFF00000000000000000000000000000000
310
0000000000000000000000000000000000000000000000001400000000000000
310
010043006F006D0070004F0062006A0000000000000000000000000000000000
310
0000000000000000000000000000000000000000000000000000000000000000
310
120002010100000003000000FFFFFFFF00000000000000000000000000000000
310
0000000000000000000000000000000000000000010000004D00000000000000
310
01004F006C006500310030004E00610074006900760065000000000000000000
310
0000000000000000000000000000000000000000000000000000000000000000
310
1A000200FFFFFFFFFFFFFFFFFFFFFFFF00000000000000000000000000000000
310
000000000000000000000000000000000000000004000000E411000000000000
310
FEFFFFFF02000000FEFFFFFFFFFFFFFFFFFFFFFFFFFFFFFFFFFFFFFFFFFFFFFF
310
FFFFFFFFFFFFFFFFFFFFFFFFFFFFFFFFFFFFFFFFFFFFFFFFFFFFFFFFFFFFFFFF
310
FFFFFFFFFFFFFFFFFFFFFFFFFFFFFFFFFFFFFFFFFFFFFFFFFFFFFFFFFFFFFFFF
310
FFFFFFFFFFFFFFFFFFFFFFFFFFFFFFFFFFFFFFFFFFFFFFFFFFFFFFFFFFFFFFFF
310
FFFFFFFFFFFFFFFFFFFFFFFFFFFFFFFFFFFFFFFFFFFFFFFFFFFFFFFFFFFFFFFF
310
FFFFFFFFFFFFFFFFFFFFFFFFFFFFFFFFFFFFFFFFFFFFFFFFFFFFFFFFFFFFFFFF
310
FFFFFFFFFFFFFFFFFFFFFFFFFFFFFFFFFFFFFFFFFFFFFFFFFFFFFFFFFFFFFFFF
310
FFFFFFFFFFFFFFFFFFFFFFFFFFFFFFFFFFFFFFFFFFFFFFFFFFFFFFFFFFFFFFFF
310
FFFFFFFFFFFFFFFFFFFFFFFFFFFFFFFFFFFFFFFFFFFFFFFFFFFFFFFFFFFFFFFF
310
FFFFFFFFFFFFFFFFFFFFFFFFFFFFFFFFFFFFFFFFFFFFFFFFFFFFFFFFFFFFFFFF
310
FFFFFFFFFFFFFFFFFFFFFFFFFFFFFFFFFFFFFFFFFFFFFFFFFFFFFFFFFFFFFFFF
310
FFFFFFFFFFFFFFFFFFFFFFFFFFFFFFFFFFFFFFFFFFFFFFFFFFFFFFFFFFFFFFFF
310
FFFFFFFFFFFFFFFFFFFFFFFFFFFFFFFFFFFFFFFFFFFFFFFFFFFFFFFFFFFFFFFF
310
FFFFFFFFFFFFFFFFFFFFFFFFFFFFFFFFFFFFFFFFFFFFFFFFFFFFFFFFFFFFFFFF
310
FFFFFFFFFFFFFFFFFFFFFFFFFFFFFFFFFFFFFFFFFFFFFFFFFFFFFFFFFFFFFFFF
310
FFFFFFFFFFFFFFFFFFFFFFFFFFFFFFFFFFFFFFFFFFFFFFFFFFFFFFFFFFFFFFFF
310
0100000200000000000000000000000000000000000000000000000000000000
310
0000000000000000000000000000000000000000000000000000000000000000
310
0100FEFF030A0000FFFFFFFF0A00030000000000C00000000000004607000000
310
5042727573680007000000504272757368000700000050427275736800F439B2
310
7100000000000000000000000000000000000000000000000000000000000000
310
0000000000000000000000000000000000000000000000000000000000000000
310
0000000000000000000000000000000000000000000000000000000000000000
310
0000000000000000000000000000000000000000000000000000000000000000
310
0000000000000000000000000000000000000000000000000000000000000000
310
0000000000000000000000000000000000000000000000000000000000000000
310
0000000000000000000000000000000000000000000000000000000000000000
310
0000000000000000000000000000000000000000000000000000000000000000
310
0000000000000000000000000000000000000000000000000000000000000000
310
0000000000000000000000000000000000000000000000000000000000000000
310
0000000000000000000000000000000000000000000000000000000000000000
310
0000000000000000000000000000000000000000000000000000000000000000
310
E0110000424DDE11000000000000360400002800000096000000170000000100
310
08000000000000000000E7240000E72400000001000000010000000000FF0101
310
01FF020202FF030303FF040404FF050505FF060606FF070707FF080808FF0909
310
09FF0A0A0AFF0B0B0BFF0C0C0CFF0D0D0DFF0E0E0EFF0F0F0FFF101010FF1111
310
11FF121212FF131313FF141414FF151515FF161616FF171717FF181818FF1919
310
19FF1A1A1AFF1B1B1BFF1C1C1CFF1D1D1DFF1E1E1EFF1F1F1FFF202020FF2121
310
21FF222222FF232323FF242424FF252525FF262626FF272727FF282828FF2929
310
29FF2A2A2AFF2B2B2BFF2C2C2CFF2D2D2DFF2E2E2EFF2F2F2FFF303030FF3131
310
31FF323232FF333333FF343434FF353535FF363636FF373737FF383838FF3939
310
39FF3A3A3AFF3B3B3BFF3C3C3CFF3D3D3DFF3E3E3EFF3F3F3FFF404040FF4141
310
41FF424242FF434343FF444444FF454545FF464646FF474747FF484848FF4949
310
49FF4A4A4AFF4B4B4BFF4C4C4CFF4D4D4DFF4E4E4EFF4F4F4FFF505050FF5151
310
51FF525252FF535353FF545454FF555555FF565656FF575757FF585858FF5959
310
59FF5A5A5AFF5B5B5BFF5C5C5CFF5D5D5DFF5E5E5EFF5F5F5FFF606060FF6161
310
61FF626262FF636363FF646464FF656565FF666666FF676767FF686868FF6969
310
69FF6A6A6AFF6B6B6BFF6C6C6CFF6D6D6DFF6E6E6EFF6F6F6FFF707070FF7171
310
71FF727272FF737373FF747474FF757575FF767676FF777777FF787878FF7979
310
79FF7A7A7AFF7B7B7BFF7C7C7CFF7D7D7DFF7E7E7EFF7F7F7FFF808080FF8181
310
81FF828282FF838383FF848484FF858585FF868686FF878787FF888888FF8989
310
89FF8A8A8AFF8B8B8BFF8C8C8CFF8D8D8DFF8E8E8EFF8F8F8FFF909090FF9191
310
91FF929292FF939393FF949494FF959595FF969696FF979797FF989898FF9999
310
99FF9A9A9AFF9B9B9BFF9C9C9CFF9D9D9DFF9E9E9EFF9F9F9FFFA0A0A0FFA1A1
310
A1FFA2A2A2FFA3A3A3FFA4A4A4FFA5A5A5FFA6A6A6FFA7A7A7FFA8A8A8FFA9A9
310
A9FFAAAAAAFFABABABFFACACACFFADADADFFAEAEAEFFAFAFAFFFB0B0B0FFB1B1
310
B1FFB2B2B2FFB3B3B3FFB4B4B4FFB5B5B5FFB6B6B6FFB7B7B7FFB8B8B8FFB9B9
310
B9FFBABABAFFBBBBBBFFBCBCBCFFBDBDBDFFBEBEBEFFBFBFBFFFC0C0C0FFC1C1
310
C1FFC2C2C2FFC3C3C3FFC4C4C4FFC5C5C5FFC6C6C6FFC7C7C7FFC8C8C8FFC9C9
310
C9FFCACACAFFCBCBCBFFCCCCCCFFCDCDCDFFCECECEFFCFCFCFFFD0D0D0FFD1D1
310
D1FFD2D2D2FFD3D3D3FFD4D4D4FFD5D5D5FFD6D6D6FFD7D7D7FFD8D8D8FFD9D9
310
D9FFDADADAFFDBDBDBFFDCDCDCFFDDDDDDFFDEDEDEFFDFDFDFFFE0E0E0FFE1E1
310
E1FFE2E2E2FFE3E3E3FFE4E4E4FFE5E5E5FFE6E6E6FFE7E7E7FFE8E8E8FFE9E9
310
E9FFEAEAEAFFEBEBEBFFECECECFFEDEDEDFFEEEEEEFFEFEFEFFFF0F0F0FFF1F1
310
F1FFF2F2F2FFF3F3F3FFF4F4F4FFF5F5F5FFF6F6F6FFF7F7F7FFF8F8F8FFF9F9
310
F9FFFAFAFAFFFBFBFBFFFCFCFCFFFDFDFDFFFEFEFEFFFFFFFFFFFFFFFFFFFFFF
310
C94E4E4E4F4E4EFFFFFFFFFFC94E4E4E4E4E72FFFFFFFFFFFFFF734E4D4E4E4E
310
C9FFFFFFFFFFAA683516171616265B9BE9FFFFFFFFFF4E4E4E4D4E4EFFFFFFFF
310
FFFFFFFF4E4E4F4E4D4E4E4E4F4E4E4F4D4E4E4E4E4E4D4E4F4E4D4E4E4EAAFF
310
FFFFFFFFFFEA4E4F4F4E4E4E4E4E4D4D4F4F4E4E4E4E4E5B7FAAFFFFFFFFFFFF
310
C9744E1716171616164D8DEAFFFFFFFF0000FFFFFFFFFFFFBA161617161716FF
310
FFFFFFFFB917171616174FFFFFFFFFFFFFFF4E1716161616B9FFFFFFB9341717
310
1716171617171616268CFFFFFFFF161617161617FFFFFFFFFFFFFFB917161717
310
1617167F807F7F7F7F7F7F807F7F807F7F807F7F7F414EFFFFFFFFFFFF8C167F
310
7F807F7F7F7E7F7F807F807F7F807F4E3417258EFFFFEA4E162674AABAEAEBBA
310
AA74341680FFFFFF0000FFFFFFFFFFFFB9171717171617FFFFFFFFFFBB161616
310
16164EFFFFFFFFFFFFFF4E1717171717B9FFFF9C171617171716161616171616
310
171766FFFFFF161717161617FFFFFFFFFFFFFF8E16171717161616FFFFFFFFFF
310
FFFFFFFFFFFFFFFFFFFFFFFFFFAA16D9FFFFFFFFFF3467FFFFFFFFEAFFFFFFFF
310
FFFFFFFFFFFFFFFFFFCA671667EB26278DFFFFFFFFFFFFFFFFFFFF8C2541EAFF
310
0000FFFFFFFFFFFFB9171717171716FFFFFFFFFFBA16171617174EFFFFFFFFFF
310
FFFF4E1717161616BAFF9B1617161616171716171617161616161667FFFF1616
310
16161716FFFFFFFFFFFFFF7F16161617174017FFFFFFFFFFFFFFFFFFFFFFFFFF
310
FFFFFFFFFFFF344E7F7F7F7E7417DAFFFFFFFF80FFFFFFFFFFFFFFFFFFFFFFFF
310
FFFFFF9B163425CAFFFFFFFFFFFFFFFFFFFFFFFFCA2667FF0000FFFFFFFFFFFF
310
BA171717171617FFFFFFFFFFB916171716164EFFFFFFFFFFFFFF4F1716161717
310
B9C91716171616161716161617171616161617168DFF161716161717FFFFFFFF
310
FFFFFF7F17171716164F16FFFFFFFFFFFFFFFFFFFFFFFFFFFFFFFFFFFFFF9B16
310
17161617174EFFFFFFFFFF34FFFFFFFFD9BABABABABADAFFFFFFFFFF7F16AAFF
310
FFFFFFFFFFFFFFFFFFFFFFFFFF9C16BA0000FFFFFFFFFFFFB9161717161717FF
310
FFFFFFFFB917161716174DFFFFFFFFFFFFFF4E1616161616BA4E161617171716
310
419BEAEAAA4E16161617161726E9171717161616FFFFFFFFFFFFFF4F16161717
310
164E16FFFFFFFFFFBAB9B9B9B9B9BABABACAFFFFFFFFFFFFFFFFFFFFFFFFFFFF
310
FFFFBA16FFFFFFFF7F1617161617174DEAFFFFFFEA41FFFFFFFFFFAA4D16174E
310
9BFFFFFFFFFF34730000FFFFFFFFFFFFB9161617171617FFFFFFFFFFBA161616
310
16164EFFFFFFFFFFFFFF4F16161717169B1617161716175BFFFFFFFFFFFF7417
310
16171616168D171717161617FFFFFFFFFFFFEA2616171717167416FFFFFFFFFF
310
16171616171717171717EAFFFFFFFFFFFFFFFFFFFFFFFFFFFFFF6716FFFFFFFF
310
7F4EFFFFFFFFBA2573FFFFFFFFBAFFFFFFFFAA167FB9BB9B269BFFFFFFFF664F
310
0000FFFFFFFFFFFFB9171616161616FFFFFFFFFFBA16161717164EFFFFFFFFFF
310
FFFF4E16161616174E161617171626EAFFFFFFFFFFFFFF4E16161616164E1716
310
16161617FFFFFFFFFFFF671616161716347F16FFFFFFFFFF16B9FFFFFFFFFFFF
310
D9168DFFFFFFFFFFFFFFFFFFFFFFFFFFFFEA1716FFFFFFFF7F4EFFFFFFFFFF7F
310
4EFFFFFFFFFFFFFFFFFF5B66FFFFFFEA347FFFFFFFFF7F4D0000FFFFFFFFFFFF
310
B9171616171617FFFFFFFFFFBA17161716174EFFFFFFFFFFFFFF4D1716161617
310
17161716161673FFFFFFFFFFFFFFFF9B1617161717161616171616174F4E4E4E
310
4E341616171616167E7F16FFFFFFFFFF16BAFFFFFFFFFFFFFF5B41FFFFFFFF34
310
1616171616BAFFFFFF9B1716FFFFFFFF7F4EFFFFFFFFFF4E4EFFFFFFFF734E4E
310
4E4E267EDA9B67164EEAFFFFFFFF744D0000FFFFFFFFFFFFBA171717161617FF
310
FFFFFFFFBA1616171616347F7F7F7F80807F331616161717161717161716B9FF
310
FFFFFFFFFFFFFFE9161616161616171716161716171616161616171616171734
310
EA7F16FFFFFFFFFF16BAFFFFFFFFFFFFFFAA17C9FFFFFF7326BABA5B25FFFFFF
310
FF401716FFFFFFFF7F264F4E4E4E4217AAFFFFFFEA16677F73261616164173CA
310
FFFFFFFFFFFF417F0000FFFFFFFFFFFFBA171616171617FFFFFFFFFFBA161616
310
17171616161616161616161717161616161616161617EAFFFFFFFFFFFFFFFFFF
310
261717161716161617161616161617161617161616174EEAFF8016FFFFFFFFFF
310
17BAFFFFFFFFFFFFFFFF3467FFFFFFC916C9FF3467FFFFFFDA166716FFFFFFFF
310
9C4D4E4E4E4E67AAFFFFFFFF6834FF7F262567AAEAFFFFFFFFFFFFFFFF9B17D9
310
0000FFFFFFFFFFFFB9161616161616FFFFFFFFFFBA1617161717171616161616
310
1716171716161716161617171716FFFFFFFFFFFFFFFFFFFF4E17161716171616
310
1617171616161716171717161616169BFF7F17FFFFFFFFFF17B9FFFFFFFFFFFF
310
FFFF7326FFFFFFFF3473DA16AAFFFFFF7317AA16FFFFFFFFFFFFFFFFFFFFFFFF
310
FFFFEA6725BA4E167FEAFFFFFFFFFFFFFFFFFFFF9C167FFF0000FFFFFFFFFFFF
310
B9161717171716FFFFFFFFFFBA16161716171616171717161617161716161616
310
171617171617EAFFFFFFFFFFFFFFFFFF26161717161616161616161617171616
310
1616161616171616AA8016FFFFFFFFFF16BAFFFFFFFFFFFFFFFFDA179BFFFFFF
310
74348D26FFFFFFFF2566B917FFFFFFFFD8BAB9BAB9BADAFFFFEA41169B7425C9
310
FFFFFFFFFFFFFFFFFFFFAB4F1680FFFF0000FFFFFFFFFFFFBA161717171617FF
310
FFFFFFFFBA17161717161617171617161616161617171616171716171617BBFF
310
FFFFFFFFFFFFFFE9171616161617161617161716FFFFFFFFFFD9671616161617
310
348017FFFFFFFFFF16BAFFFFFFFFFFFFFFFFFF4E5AFFFFFFC916265AFFFFFFAA
310
16AABA16FFFFFFFF7F1617161616179BFFFFEB4127168DFFFFFFFFFFFFFFD99B
310
6734175AC9FFFFFF0000FFFFFFFFFFFFB9161617171617FFFFFFFFFFBB161616
310
1616347F807F7F7F7F8033171716171617171616161672FFFFFFFFFFFFFFFF9C
310
171617171617161716161617FFFFFFFFFFFFFF4117161616174E17FFFFFFFFFF
310
16BAFFFFFFFFFFFFFFFFFF9B16DAFFFFFF34169BFFFFFF5A26FFB917FFFFFFFF
310
7F4EFFFFFFEA5B26FFFFFFEA2616EAFFFFFFFFDA743416331617414E4E4E4ECA
310
0000FFFFFFFFFFFFBA161716161616FFFFFFFFFFBA17171616164EFFFFFFFFFF
310
FFFF4E16161717174E161717171626EBFFFFFFFFFFFFFF4E16161617165B1616
310
16171617FFFFFFFFFFFFFF6716161616161617FFFFFFFFFF16BAFFFFFFFFFFFF
310
FFFFFFEA268CFFFFFF7316EAFFFFEB1774FFB916FFFFFFFF7F4EFFFFFFFF7316
310
FFFFFFFF6826FFFFFFFFEB264D9CEABA257F807F7F6616BA0000FFFFFFFFFFFF
310
BA161716161616FFFFFFFFFFBA16171616164DFFFFFFFFFFFFFF4E1617161617
310
9B1617171717165BEBFFFFFFFFFF671616161617179B171616161616FFFFFFFF
310
FFFFFF3417161617171617FFFFFFFFFF17BAFFFFFFFFFFFFFFFFFFFF6734FFFF
310
FFEBCAFFFFFF8D17C9FFBA17FFFFFFFF7F357F808066174FFFFFFFFF7F16FFFF
310
FFFFD91673B99B415BFFFFFFFFBA16DA00009B7F7F7F807F671617161616167F
310
80807F7E6617161616164EFFFFFFFFFFFFFF4E1616161617B94E171716161616
310
349BC9D9AA4E16171616161634FF161617161717B9B9BAB9BA9B411716171716
310
163416FFFFFFFFFF16B9FFFFFFFFFFFFFFFFFFFFC917CAFFFFFFFFFFFFFF3342
310
FFFFBA17FFFFFFFF9B4E4E4F4E4E66EAFFFFFFFF5B16C9FFFFFFFFAA4E164E73
310
EAFFFFFFFF8D26FF00004E161716161616171617171616171717171617161616
310
17174EFFFFFFFFFFFFFF4E1717171616B9D92616171716171716171717171716
310
16171716AAFF161717171617161617171616161617161716166717FFFFFFFFFF
310
17B9FFFFFFFFFFFFFFFFFFFFFF3467FFFFFFFFFFFFCA168CFFFFBB17FFFFFFFF
310
FFFFFFFFFFFFFFFFFFFFFFEA26265BFFFFFFFFFFFFFFFFFFFFFFFFFFEA3467FF
310
00004D16161616161617161717161617161616171617171616164EFFFFFFFFFF
310
FFFF4D1617161616BAFF9B1616161616161716161616171717161766FFFF1616
310
16171617161617161716171616171717667F16FFFFFFFFFF17BAFFFFFFFFFFFF
310
FFFFFFFFFF8C26EAFFFFFFFFFF6617EAFFFFBA17FFFFFFFFFFFFFFFFFFFFFFFF
310
FFFFEA5A25BA269BFFFFFFFFFFFFFFFFFFFFFFFF6616DAFF00004E1616171616
310
1616161616161716161617171616171616174EFFFFFFFFFFFFFF4D1717171716
310
B9FFFF9C161616161616161716161717171667FFFFFF17161717171716161617
310
1716161616161641E97E16FFFFFFFFFF16B9FFFFFFFFFFFFFFFFFFFFFFEA169B
310
FFFFFFFFEA265BFFFFFFB916FFFFFFFFFFFFFFFFFFFFFFFFFF9B3416AAFF9B17
310
67EAFFFFFFFFFFFFFFFFEA5B169BFFFF00004D17161716161616161717171616
310
161717161716171716174EFFFFFFFFFFFFFF4D1616161616BAFFFFFFBB411616
310
161716161616171634ABFFFFFFFF161716161617171716171617171617267FFF
310
FF7F164E4E4E4E4F17BAFFFFFFFFFFFFFFFFFFFFFFFF66344D4E4E4F4117AAFF
310
FFFFBA174E4E4E4D4E4D4D4E4E4E4E4116174EBBFFFFFFCA342666ABEAFFFFEA
310
AA6725269CFFFFFF0000724F4E4D4D4D4E4D4D4E4E4E4D4E4E4E4E4E4E4E4E4D
310
4E4E74FFFFFFFFFFFFFF734E4E4E4D4ECAFFFFFFFFFFAA663416171717265B9B
310
FFFFFFFFFFFF7F8080807F80807F7F7F7F7F807FBAFFFFFFFF9B4E4E4F4D4D4E
310
4DC9FFFFFFFFFFFFFFFFFFFFFFFFBA4E4E4E4E4D4E4EFFFFFFFFC94E4E4E4F4E
310
4E4E4D4E4E5A807F9CD9FFFFFFFFFFFFFF9B5B2617171716174E8DEAFFFFFFFF
310
0000000000000000000000000000000000000000000000000000000000000000
  1
OLE
  0
ENDSEC
  0
SECTION
  2
OBJECTS
  0
DICTIONARY
  5
C
330
0
100
AcDbDictionary
281
     1
  3
ACAD_GROUP
350
D
  3
ACAD_LAYOUT
350
1A
  3
ACAD_MLINESTYLE
350
17
  3
ACAD_PLOTSETTINGS
350
19
  3
ACAD_PLOTSTYLENAME
350
E
  3
ACAD_SCALELIST
350
47
  0
DICTIONARY
  5
D
102
{ACAD_REACTORS
330
C
102
}
330
C
100
AcDbDictionary
281
     1
  0
DICTIONARY
  5
1A
102
{ACAD_REACTORS
330
C
102
}
330
C
100
AcDbDictionary
281
     1
  3
Layout1
350
1E
  3
Layout2
350
26
  3
Model
350
22
  0
DICTIONARY
  5
17
102
{ACAD_REACTORS
330
C
102
}
330
C
100
AcDbDictionary
281
     1
  3
Standard
350
18
  0
DICTIONARY
  5
19
102
{ACAD_REACTORS
330
C
102
}
330
C
100
AcDbDictionary
281
     1
  0
ACDBDICTIONARYWDFLT
  5
E
102
{ACAD_REACTORS
330
C
102
}
330
C
100
AcDbDictionary
281
     1
  3
Normal
350
F
100
AcDbDictionaryWithDefault
340
F
  0
DICTIONARY
  5
47
102
{ACAD_REACTORS
330
C
102
}
330
C
100
AcDbDictionary
281
     1
  3
A0
350
48
  3
A1
350
49
  3
A2
350
4A
  3
A3
350
4B
  3
A4
350
4C
  3
A5
350
4D
  3
A6
350
4E
  3
A7
350
4F
  3
A8
350
50
  3
A9
350
51
  3
B0
350
52
  3
B1
350
53
  3
B2
350
54
  3
B3
350
55
  3
B4
350
56
  3
B5
350
57
  3
B6
350
58
  3
B7
350
59
  3
B8
350
5A
  3
B9
350
5B
  3
C0
350
5C
  3
C1
350
5D
  3
C2
350
5E
  3
C3
350
5F
  3
C4
350
60
  3
C5
350
61
  3
C6
350
62
  3
C7
350
63
  3
C8
350
64
  3
C9
350
65
  3
D0
350
66
  3
D1
350
67
  3
D2
350
68
  0
LAYOUT
  5
1E
102
{ACAD_REACTORS
330
1A
102
}
330
1A
100
AcDbPlotSettings
  1

  2
none_device
  4

  6

 40
0.0
 41
0.0
 42
0.0
 43
0.0
 44
0.0
 45
0.0
 46
0.0
 47
0.0
 48
0.0
 49
0.0
140
0.0
141
0.0
142
1.0
143
1.0
 70
   688
 72
     0
 73
     0
 74
     5
  7

 75
    16
147
1.0
148
0.0
149
0.0
100
AcDbLayout
  1
Layout1
 70
     1
 71
     1
 10
0.0
 20
0.0
 11
12.0
 21
9.0
 12
0.0
 22
0.0
 32
0.0
 14
1.0000000000E+20
 24
1.0000000000E+20
 34
1.0000000000E+20
 15
-1.0000000000E+20
 25
-1.0000000000E+20
 35
-1.0000000000E+20
146
0.0
 13
0.0
 23
0.0
 33
0.0
 16
1.0
 26
0.0
 36
0.0
 17
0.0
 27
1.0
 37
0.0
 76
     0
330
1B
  0
LAYOUT
  5
26
102
{ACAD_REACTORS
330
1A
102
}
330
1A
100
AcDbPlotSettings
  1

  2
none_device
  4

  6

 40
0.0
 41
0.0
 42
0.0
 43
0.0
 44
0.0
 45
0.0
 46
0.0
 47
0.0
 48
0.0
 49
0.0
140
0.0
141
0.0
142
1.0
143
1.0
 70
   688
 72
     0
 73
     0
 74
     5
  7

 75
    16
147
1.0
148
0.0
149
0.0
100
AcDbLayout
  1
Layout2
 70
     1
 71
     2
 10
0.0
 20
0.0
 11
0.0
 21
0.0
 12
0.0
 22
0.0
 32
0.0
 14
0.0
 24
0.0
 34
0.0
 15
0.0
 25
0.0
 35
0.0
146
0.0
 13
0.0
 23
0.0
 33
0.0
 16
1.0
 26
0.0
 36
0.0
 17
0.0
 27
1.0
 37
0.0
 76
     0
330
23
  0
LAYOUT
  5
22
102
{ACAD_REACTORS
330
1A
102
}
330
1A
100
AcDbPlotSettings
  1

  2
none_device
  4
Letter_(8.50_x_11.00_Inches)
  6

 40
6.35
 41
6.35
 42
6.35000508
 43
6.35000508
 44
215.9
 45
279.4
 46
0.0
 47
0.0
 48
0.0
 49
0.0
140
0.0
141
0.0
142
1.0
143
1.0
 70
  1712
 72
     0
 73
     0
 74
     0
  7

 75
     0
147
1.0
148
0.0
149
0.0
100
AcDbLayout
  1
Model
 70
     1
 71
     0
 10
0.0
 20
0.0
 11
11.0
 21
8.5
 12
0.0
 22
0.0
 32
0.0
 14
0.0
 24
0.0
 34
0.0
 15
11.0
 25
8.5
 35
0.0
146
0.0
 13
0.0
 23
0.0
 33
0.0
 16
1.0
 26
0.0
 36
0.0
 17
0.0
 27
1.0
 37
0.0
 76
     0
330
1F
331
29
  0
MLINESTYLE
  5
18
102
{ACAD_REACTORS
330
17
102
}
330
17
100
AcDbMlineStyle
  2
Standard
 70
     0
  3

 62
   256
 51
90.0
 52
90.0
 71
     2
 49
0.5
 62
   256
  6
BYLAYER
 49
-0.5
 62
   256
  6
BYLAYER
  0
ACDBPLACEHOLDER
  5
F
102
{ACAD_REACTORS
330
E
102
}
330
E
  0
SCALE
  5
48
102
{ACAD_REACTORS
330
47
102
}
330
47
100
AcDbScale
 70
     0
300
1:1
140
1.0
141
1.0
290
     1
  0
SCALE
  5
49
102
{ACAD_REACTORS
330
47
102
}
330
47
100
AcDbScale
 70
     0
300
1:2
140
1.0
141
2.0
290
     0
  0
SCALE
  5
4A
102
{ACAD_REACTORS
330
47
102
}
330
47
100
AcDbScale
 70
     0
300
1:4
140
1.0
141
4.0
290
     0
  0
SCALE
  5
4B
102
{ACAD_REACTORS
330
47
102
}
330
47
100
AcDbScale
 70
     0
300
1:5
140
1.0
141
5.0
290
     0
  0
SCALE
  5
4C
102
{ACAD_REACTORS
330
47
102
}
330
47
100
AcDbScale
 70
     0
300
1:8
140
1.0
141
8.0
290
     0
  0
SCALE
  5
4D
102
{ACAD_REACTORS
330
47
102
}
330
47
100
AcDbScale
 70
     0
300
1:10
140
1.0
141
10.0
290
     0
  0
SCALE
  5
4E
102
{ACAD_REACTORS
330
47
102
}
330
47
100
AcDbScale
 70
     0
300
1:16
140
1.0
141
16.0
290
     0
  0
SCALE
  5
4F
102
{ACAD_REACTORS
330
47
102
}
330
47
100
AcDbScale
 70
     0
300
1:20
140
1.0
141
20.0
290
     0
  0
SCALE
  5
50
102
{ACAD_REACTORS
330
47
102
}
330
47
100
AcDbScale
 70
     0
300
1:30
140
1.0
141
30.0
290
     0
  0
SCALE
  5
51
102
{ACAD_REACTORS
330
47
102
}
330
47
100
AcDbScale
 70
     0
300
1:40
140
1.0
141
40.0
290
     0
  0
SCALE
  5
52
102
{ACAD_REACTORS
330
47
102
}
330
47
100
AcDbScale
 70
     0
300
1:50
140
1.0
141
50.0
290
     0
  0
SCALE
  5
53
102
{ACAD_REACTORS
330
47
102
}
330
47
100
AcDbScale
 70
     0
300
1:100
140
1.0
141
100.0
290
     0
  0
SCALE
  5
54
102
{ACAD_REACTORS
330
47
102
}
330
47
100
AcDbScale
 70
     0
300
2:1
140
2.0
141
1.0
290
     0
  0
SCALE
  5
55
102
{ACAD_REACTORS
330
47
102
}
330
47
100
AcDbScale
 70
     0
300
4:1
140
4.0
141
1.0
290
     0
  0
SCALE
  5
56
102
{ACAD_REACTORS
330
47
102
}
330
47
100
AcDbScale
 70
     0
300
8:1
140
8.0
141
1.0
290
     0
  0
SCALE
  5
57
102
{ACAD_REACTORS
330
47
102
}
330
47
100
AcDbScale
 70
     0
300
10:1
140
10.0
141
1.0
290
     0
  0
SCALE
  5
58
102
{ACAD_REACTORS
330
47
102
}
330
47
100
AcDbScale
 70
     0
300
100:1
140
100.0
141
1.0
290
     0
  0
SCALE
  5
59
102
{ACAD_REACTORS
330
47
102
}
330
47
100
AcDbScale
 70
     0
300
1/128" = 1'-0"
140
0.0078125
141
12.0
290
     0
  0
SCALE
  5
5A
102
{ACAD_REACTORS
330
47
102
}
330
47
100
AcDbScale
 70
     0
300
1/64" = 1'-0"
140
0.015625
141
12.0
290
     0
  0
SCALE
  5
5B
102
{ACAD_REACTORS
330
47
102
}
330
47
100
AcDbScale
 70
     0
300
1/32" = 1'-0"
140
0.03125
141
12.0
290
     0
  0
SCALE
  5
5C
102
{ACAD_REACTORS
330
47
102
}
330
47
100
AcDbScale
 70
     0
300
1/16" = 1'-0"
140
0.0625
141
12.0
290
     0
  0
SCALE
  5
5D
102
{ACAD_REACTORS
330
47
102
}
330
47
100
AcDbScale
 70
     0
300
3/32" = 1'-0"
140
0.09375
141
12.0
290
     0
  0
SCALE
  5
5E
102
{ACAD_REACTORS
330
47
102
}
330
47
100
AcDbScale
 70
     0
300
1/8" = 1'-0"
140
0.125
141
12.0
290
     0
  0
SCALE
  5
5F
102
{ACAD_REACTORS
330
47
102
}
330
47
100
AcDbScale
 70
     0
300
3/16" = 1'-0"
140
0.1875
141
12.0
290
     0
  0
SCALE
  5
60
102
{ACAD_REACTORS
330
47
102
}
330
47
100
AcDbScale
 70
     0
300
1/4" = 1'-0"
140
0.25
141
12.0
290
     0
  0
SCALE
  5
61
102
{ACAD_REACTORS
330
47
102
}
330
47
100
AcDbScale
 70
     0
300
3/8" = 1'-0"
140
0.375
141
12.0
290
     0
  0
SCALE
  5
62
102
{ACAD_REACTORS
330
47
102
}
330
47
100
AcDbScale
 70
     0
300
1/2" = 1'-0"
140
0.5
141
12.0
290
     0
  0
SCALE
  5
63
102
{ACAD_REACTORS
330
47
102
}
330
47
100
AcDbScale
 70
     0
300
3/4" = 1'-0"
140
0.75
141
12.0
290
     0
  0
SCALE
  5
64
102
{ACAD_REACTORS
330
47
102
}
330
47
100
AcDbScale
 70
     0
300
1" = 1'-0"
140
1.0
141
12.0
290
     0
  0
SCALE
  5
65
102
{ACAD_REACTORS
330
47
102
}
330
47
100
AcDbScale
 70
     0
300
1-1/2" = 1'-0"
140
1.5
141
12.0
290
     0
  0
SCALE
  5
66
102
{ACAD_REACTORS
330
47
102
}
330
47
100
AcDbScale
 70
     0
300
3" = 1'-0"
140
3.0
141
12.0
290
     0
  0
SCALE
  5
67
102
{ACAD_REACTORS
330
47
102
}
330
47
100
AcDbScale
 70
     0
300
6" = 1'-0"
140
6.0
141
12.0
290
     0
  0
SCALE
  5
68
102
{ACAD_REACTORS
330
47
102
}
330
47
100
AcDbScale
 70
     0
300
1'-0" = 1'-0"
140
12.0
141
12.0
290
     0
  0
ENDSEC
  0
EOF
