  0
SECTION
  2
HEADER
  9
$ACADVER
  1
AC1015
  9
$ACADMAINTVER
 70
     6
  9
$DWGCODEPAGE
  3
ANSI_1252
  9
$INSBASE
 10
0.0
 20
0.0
 30
0.0
  9
$EXTMIN
 10
0.0
 20
0.0
 30
0.0
  9
$EXTMAX
 10
279.4
 20
215.9
 30
0.0
  9
$LIMMIN
 10
0.0
 20
0.0
  9
$LIMMAX
 10
279.4
 20
215.9
  9
$ORTHOMODE
 70
     0
  9
$REGENMODE
 70
     1
  9
$FILLMODE
 70
     1
  9
$QTEXTMODE
 70
     0
  9
$MIRRTEXT
 70
     1
  9
$LTSCALE
 40
1.0
  9
$ATTMODE
 70
     1
  9
$TEXTSIZE
 40
2.8222222222
  9
$TRACEWID
 40
1.0
  9
$TEXTSTYLE
  7
Standard
  9
$CLAYER
  8
0
  9
$CELTYPE
  6
ByLayer
  9
$CECOLOR
 62
   256
  9
$CELTSCALE
 40
1.0
  9
$DISPSILH
 70
     0
  9
$DIMSCALE
 40
1.0
  9
$DIMASZ
 40
3.175
  9
$DIMEXO
 40
1.27
  9
$DIMDLI
 40
3.75
  9
$DIMRND
 40
0.0
  9
$DIMDLE
 40
0.0
  9
$DIMEXE
 40
1.778
  9
$DIMTP
 40
0.0
  9
$DIMTM
 40
0.0
  9
$DIMTXT
 40
2.8222222222
  9
$DIMCEN
 40
2.5
  9
$DIMTSZ
 40
0.0
  9
$DIMTOL
 70
     0
  9
$DIMLIM
 70
     0
  9
$DIMTIH
 70
     1
  9
$DIMTOH
 70
     1
  9
$DIMSE1
 70
     0
  9
$DIMSE2
 70
     0
  9
$DIMTAD
 70
     0
  9
$DIMZIN
 70
     1
  9
$DIMBLK
  1

  9
$DIMASO
 70
     1
  9
$DIMSHO
 70
     1
  9
$DIMPOST
  1

  9
$DIMAPOST
  1

  9
$DIMALT
 70
     0
  9
$DIMALTD
 70
     3
  9
$DIMALTF
 40
0.0393700787
  9
$DIMLFAC
 40
1.0
  9
$DIMTOFL
 70
     1
  9
$DIMTVP
 40
0.0
  9
$DIMTIX
 70
     0
  9
$DIMSOXD
 70
     0
  9
$DIMSAH
 70
     0
  9
$DIMBLK1
  1

  9
$DIMBLK2
  1

  9
$DIMSTYLE
  2
ISO-25
  9
$DIMCLRD
 70
     0
  9
$DIMCLRE
 70
     0
  9
$DIMCLRT
 70
     0
  9
$DIMTFAC
 40
1.0
  9
$DIMGAP
 40
2.54
  9
$DIMJUST
 70
     0
  9
$DIMSD1
 70
     0
  9
$DIMSD2
 70
     0
  9
$DIMTOLJ
 70
     0
  9
$DIMTZIN
 70
     1
  9
$DIMALTZ
 70
     0
  9
$DIMALTTZ
 70
     0
  9
$DIMUPT
 70
     0
  9
$DIMDEC
 70
     1
  9
$DIMTDEC
 70
     1
  9
$DIMALTU
 70
     2
  9
$DIMALTTD
 70
     3
  9
$DIMTXSTY
  7
Standard
  9
$DIMAUNIT
 70
     0
  9
$DIMADEC
 70
     0
  9
$DIMALTRND
 40
0.0
  9
$DIMAZIN
 70
     0
  9
$DIMDSEP
 70
    44
  9
$DIMATFIT
 70
     3
  9
$DIMFRAC
 70
     0
  9
$DIMLDRBLK
  1

  9
$DIMLUNIT
 70
     2
  9
$DIMLWD
 70
    -2
  9
$DIMLWE
 70
    -2
  9
$DIMTMOVE
 70
     0
  9
$LUNITS
 70
     2
  9
$LUPREC
 70
     1
  9
$SKETCHINC
 40
1.0
  9
$FILLETRAD
 40
10.0
  9
$AUNITS
 70
     0
  9
$AUPREC
 70
     0
  9
$MENU
  1
.
  9
$ELEVATION
 40
0.0
  9
$PELEVATION
 40
0.0
  9
$THICKNESS
 40
0.0
  9
$LIMCHECK
 70
     0
  9
$CHAMFERA
 40
10.0
  9
$CHAMFERB
 40
10.0
  9
$CHAMFERC
 40
20.0
  9
$CHAMFERD
 40
0.0
  9
$SKPOLY
 70
     0
  9
$TDCREATE
 40
2456477.595058785
  9
$TDUCREATE
 40
2456477.761725451
  9
$TDUPDATE
 40
2456477.595061609
  9
$TDUUPDATE
 40
2456477.761728276
  9
$TDINDWG
 40
0.0000000116
  9
$TDUSRTIMER
 40
0.0000000116
  9
$USRTIMER
 70
     1
  9
$ANGBASE
 50
0.0
  9
$ANGDIR
 70
     0
  9
$PDMODE
 70
     0
  9
$PDSIZE
 40
-1.0
  9
$PLINEWID
 40
0.0
  9
$SPLFRAME
 70
     0
  9
$SPLINETYPE
 70
     6
  9
$SPLINESEGS
 70
     8
  9
$HANDSEED
  5
237
  9
$SURFTAB1
 70
     6
  9
$SURFTAB2
 70
     6
  9
$SURFTYPE
 70
     6
  9
$SURFU
 70
     6
  9
$SURFV
 70
     6
  9
$UCSBASE
  2

  9
$UCSNAME
  2

  9
$UCSORG
 10
0.0
 20
0.0
 30
0.0
  9
$UCSXDIR
 10
1.0
 20
0.0
 30
0.0
  9
$UCSYDIR
 10
0.0
 20
1.0
 30
0.0
  9
$UCSORTHOREF
  2

  9
$UCSORTHOVIEW
 70
     0
  9
$UCSORGTOP
 10
0.0
 20
0.0
 30
0.0
  9
$UCSORGBOTTOM
 10
0.0
 20
0.0
 30
0.0
  9
$UCSORGLEFT
 10
0.0
 20
0.0
 30
0.0
  9
$UCSORGRIGHT
 10
0.0
 20
0.0
 30
0.0
  9
$UCSORGFRONT
 10
0.0
 20
0.0
 30
0.0
  9
$UCSORGBACK
 10
0.0
 20
0.0
 30
0.0
  9
$PUCSBASE
  2

  9
$PUCSNAME
  2

  9
$PUCSORG
 10
0.0
 20
0.0
 30
0.0
  9
$PUCSXDIR
 10
1.0
 20
0.0
 30
0.0
  9
$PUCSYDIR
 10
0.0
 20
1.0
 30
0.0
  9
$PUCSORTHOREF
  2

  9
$PUCSORTHOVIEW
 70
     0
  9
$PUCSORGTOP
 10
0.0
 20
0.0
 30
0.0
  9
$PUCSORGBOTTOM
 10
0.0
 20
0.0
 30
0.0
  9
$PUCSORGLEFT
 10
0.0
 20
0.0
 30
0.0
  9
$PUCSORGRIGHT
 10
0.0
 20
0.0
 30
0.0
  9
$PUCSORGFRONT
 10
0.0
 20
0.0
 30
0.0
  9
$PUCSORGBACK
 10
0.0
 20
0.0
 30
0.0
  9
$USERI1
 70
     0
  9
$USERI2
 70
     0
  9
$USERI3
 70
     0
  9
$USERI4
 70
     0
  9
$USERI5
 70
     0
  9
$USERR1
 40
0.0
  9
$USERR2
 40
0.0
  9
$USERR3
 40
0.0
  9
$USERR4
 40
0.0
  9
$USERR5
 40
0.0
  9
$WORLDVIEW
 70
     1
  9
$SHADEDGE
 70
     3
  9
$SHADEDIF
 70
    70
  9
$TILEMODE
 70
     1
  9
$MAXACTVP
 70
    64
  9
$PINSBASE
 10
0.0
 20
0.0
 30
0.0
  9
$PLIMCHECK
 70
     0
  9
$PEXTMIN
 10
1.0000000000E+20
 20
1.0000000000E+20
 30
1.0000000000E+20
  9
$PEXTMAX
 10
-1.0000000000E+20
 20
-1.0000000000E+20
 30
-1.0000000000E+20
  9
$PLIMMIN
 10
0.0
 20
0.0
  9
$PLIMMAX
 10
420.0
 20
297.0
  9
$UNITMODE
 70
     0
  9
$VISRETAIN
 70
     1
  9
$PLINEGEN
 70
     0
  9
$PSLTSCALE
 70
     1
  9
$TREEDEPTH
 70
  3020
  9
$CMLSTYLE
  2
Standard
  9
$CMLJUST
 70
     0
  9
$CMLSCALE
 40
20.0
  9
$PROXYGRAPHICS
 70
     1
  9
$MEASUREMENT
 70
     1
  9
$CELWEIGHT
370
    -1
  9
$ENDCAPS
280
     0
  9
$JOINSTYLE
280
     0
  9
$LWDISPLAY
290
     1
  9
$INSUNITS
 70
     4
  9
$HYPERLINKBASE
  1

  9
$STYLESHEET
  1

  9
$XEDIT
290
     1
  9
$CEPSNTYPE
380
     0
  9
$PSTYLEMODE
290
     1
  9
$FINGERPRINTGUID
  2
{E566B1C6-6D2C-441A-B522-EE7359FBBBE8}
  9
$VERSIONGUID
  2
{FAEB1C32-E019-11D5-929B-00C0DF256EC4}
  9
$EXTNAMES
290
     1
  9
$PSVPSCALE
 40
0.0
  9
$OLESTARTUP
290
     0
  0
ENDSEC
  0
SECTION
  2
CLASSES
  0
CLASS
  1
ACDBDICTIONARYWDFLT
  2
AcDbDictionaryWithDefault
  3
ObjectDBX Classes
 90
        0
280
     0
281
     0
  0
CLASS
  1
VISUALSTYLE
  2
AcDbVisualStyle
  3
ObjectDBX Classes
 90
     4095
280
     0
281
     0
  0
CLASS
  1
MATERIAL
  2
AcDbMaterial
  3
ObjectDBX Classes
 90
     1153
280
     0
281
     0
  0
CLASS
  1
ACDBPLACEHOLDER
  2
AcDbPlaceHolder
  3
ObjectDBX Classes
 90
        0
280
     0
281
     0
  0
CLASS
  1
LAYOUT
  2
AcDbLayout
  3
ObjectDBX Classes
 90
        0
280
     0
281
     0
  0
ENDSEC
  0
SECTION
  2
TABLES
  0
TABLE
  2
VPORT
  5
8
330
0
100
AcDbSymbolTable
 70
     1
  0
VPORT
  5
29
330
8
100
AcDbSymbolTableRecord
100
AcDbViewportTableRecord
  2
*Active
 70
     0
 10
0.0
 20
0.0
 11
1.0
 21
1.0
 12
139.7
 22
107.95
 13
0.0
 23
0.0
 14
10.0
 24
10.0
 15
10.0
 25
10.0
 16
0.0
 26
0.0
 36
1.0
 17
0.0
 27
0.0
 37
0.0
 40
215.9
 41
1.2941176471
 42
50.0
 43
0.0
 44
0.0
 50
0.0
 51
0.0
 71
     0
 72
  2000
 73
     1
 74
     3
 75
     0
 76
     0
 77
     0
 78
     0
281
     0
 65
     1
110
0.0
120
0.0
130
0.0
111
1.0
121
0.0
131
0.0
112
0.0
122
1.0
132
0.0
 79
     0
146
0.0
  0
ENDTAB
  0
TABLE
  2
LTYPE
  5
5
330
0
100
AcDbSymbolTable
 70
     6
  0
LTYPE
  5
14
330
5
100
AcDbSymbolTableRecord
100
AcDbLinetypeTableRecord
  2
ByBlock
 70
     0
  3

 72
    65
 73
     0
 40
0.0
  0
LTYPE
  5
15
330
5
100
AcDbSymbolTableRecord
100
AcDbLinetypeTableRecord
  2
ByLayer
 70
     0
  3

 72
    65
 73
     0
 40
0.0
  0
LTYPE
  5
16
330
5
100
AcDbSymbolTableRecord
100
AcDbLinetypeTableRecord
  2
Continuous
 70
     0
  3
Solid line
 72
    65
 73
     0
 40
0.0
  0
LTYPE
  5
3F
330
5
100
AcDbSymbolTableRecord
100
AcDbLinetypeTableRecord
  2
HIDDEN
 70
     0
  3
Hidden __ __ __ __ __ __ __ __ __ __ __ __ __ __
 72
    65
 73
     2
 40
1.905
 49
1.27
 74
     0
 49
-0.635
 74
     0
  0
LTYPE
  5
40
330
5
100
AcDbSymbolTableRecord
100
AcDbLinetypeTableRecord
  2
PHANTOM
 70
     0
  3
Phantom ______  __  __  ______  __  __  ______
 72
    65
 73
     6
 40
12.7
 49
6.35
 74
     0
 49
-1.27
 74
     0
 49
1.27
 74
     0
 49
-1.27
 74
     0
 49
1.27
 74
     0
 49
-1.27
 74
     0
  0
LTYPE
  5
41
330
5
100
AcDbSymbolTableRecord
100
AcDbLinetypeTableRecord
  2
CENTER
 70
     0
  3
Center ____ _ ____ _ ____ _ ____ _ ____ _ ____
 72
    65
 73
     4
 40
10.16
 49
6.35
 74
     0
 49
-1.27
 74
     0
 49
1.27
 74
     0
 49
-1.27
 74
     0
  0
LTYPE
  5
42
330
5
100
AcDbSymbolTableRecord
100
AcDbLinetypeTableRecord
  2
CENTERX2
 70
     0
  3
Center (2x) ________  __  ________  __  _____
 72
    65
 73
     4
 40
20.32
 49
12.7
 74
     0
 49
-2.54
 74
     0
 49
2.54
 74
     0
 49
-2.54
 74
     0
  0
LTYPE
  5
43
330
5
100
AcDbSymbolTableRecord
100
AcDbLinetypeTableRecord
  2
DOT2
 70
     0
  3
Dot (.5x) ........................................
 72
    65
 73
     2
 40
0.635
 49
0.0
 74
     0
 49
-0.635
 74
     0
  0
ENDTAB
  0
TABLE
  2
LAYER
  5
2
330
0
100
AcDbSymbolTable
 70
     2
  0
LAYER
  5
10
330
2
100
AcDbSymbolTableRecord
100
AcDbLayerTableRecord
  2
0
 70
     0
 62
     7
  6
Continuous
370
    -3
390
F
  0
LAYER
  5
44
330
2
100
AcDbSymbolTableRecord
100
AcDbLayerTableRecord
  2
FORMAT
 70
     0
 62
     7
  6
Continuous
370
    -3
390
F
  0
ENDTAB
  0
TABLE
  2
STYLE
  5
3
330
0
100
AcDbSymbolTable
 70
     5
  0
STYLE
  5
11
330
3
100
AcDbSymbolTableRecord
100
AcDbTextStyleTableRecord
  2
Standard
 70
     0
 40
0.0
 41
1.0
 50
0.0
 71
     0
 42
2.8222222222
  3
txt
  4

  0
STYLE
  5
6B
330
3
100
AcDbSymbolTableRecord
100
AcDbTextStyleTableRecord
  2
SLDTEXTSTYLE0
 70
     0
 40
0.0
 41
0.75
 50
0.0
 71
     0
 42
0.2
  3
TXT
  4

  0
STYLE
  5
75
330
3
100
AcDbSymbolTableRecord
100
AcDbTextStyleTableRecord
  2
SLDTEXTSTYLE1
 70
     0
 40
0.0
 41
0.6
 50
0.0
 71
     0
 42
0.2
  3
TXT
  4

  0
STYLE
  5
9E
330
3
100
AcDbSymbolTableRecord
100
AcDbTextStyleTableRecord
  2
SLDTEXTSTYLE2
 70
     0
 40
0.0
 41
0.75
 50
0.0
 71
     0
 42
0.2
  3
TXT
  4
bigfont
  0
STYLE
  5
B3
330
3
100
AcDbSymbolTableRecord
100
AcDbTextStyleTableRecord
  2
SLDTEXTSTYLE3
 70
     0
 40
0.0
 41
0.7
 50
0.0
 71
     0
 42
0.2
  3
TXT
  4

  0
ENDTAB
  0
TABLE
  2
VIEW
  5
6
330
0
100
AcDbSymbolTable
 70
     0
  0
ENDTAB
  0
TABLE
  2
UCS
  5
7
330
0
100
AcDbSymbolTable
 70
     0
  0
ENDTAB
  0
TABLE
  2
APPID
  5
9
330
0
100
AcDbSymbolTable
 70
     1
  0
APPID
  5
12
330
9
100
AcDbSymbolTableRecord
100
AcDbRegAppTableRecord
  2
ACAD
 70
     0
  0
ENDTAB
  0
TABLE
  2
DIMSTYLE
  5
A
330
0
100
AcDbSymbolTable
 70
     5
100
AcDbDimStyleTable
  0
DIMSTYLE
105
27
330
A
100
AcDbSymbolTableRecord
100
AcDbDimStyleTableRecord
  2
ISO-25
 70
     0
 41
2.5
 42
0.625
 43
3.75
 44
1.25
 73
     0
 74
     0
 77
     1
 78
     8
140
2.5
141
2.5
143
0.0393700787
147
0.625
171
     3
172
     1
178
     0
271
     2
272
     2
274
     3
278
    44
283
     0
284
     8
340
11
  0
DIMSTYLE
105
C0
102
{ACAD_REACTORS
330
BF
102
}
330
A
100
AcDbSymbolTableRecord
100
AcDbDimStyleTableRecord
  2
SLDDIMSTYLE0
 70
     0
 41
3.175
 44
0.0
 45
0.000000001
 78
    12
 79
     3
140
2.1166666667
141
0.0
143
0.0393700787
147
0.5291666667
148
0.000000001
170
     1
173
     1
178
     0
271
     1
272
     1
276
     2
284
    12
340
6B
  0
DIMSTYLE
105
1FE
102
{ACAD_REACTORS
330
1FD
102
}
330
A
100
AcDbSymbolTableRecord
100
AcDbDimStyleTableRecord
  2
SLDDIMSTYLE1
 70
     0
 41
3.175
 44
0.0
 45
0.000000001
 78
     4
 79
     1
140
2.1166666667
141
0.0
143
0.0393700787
147
0.5291666667
148
0.000000001
170
     1
173
     1
178
     0
271
     1
272
     1
276
     2
284
    12
340
6B
  0
DIMSTYLE
105
20F
102
{ACAD_REACTORS
330
20E
102
}
330
A
100
AcDbSymbolTableRecord
100
AcDbDimStyleTableRecord
  2
SLDDIMSTYLE2
 70
     0
 41
3.175
 44
0.0
 45
0.000000001
 78
     4
 79
     1
140
2.1166666667
143
0.0393700787
147
0.5291666667
148
0.000000001
170
     1
172
     1
173
     1
178
     0
271
     1
272
     1
276
     2
284
    12
289
     0
340
6B
  0
DIMSTYLE
105
222
102
{ACAD_REACTORS
330
221
102
}
330
A
100
AcDbSymbolTableRecord
100
AcDbDimStyleTableRecord
  2
SLDDIMSTYLE3
 70
     0
 41
3.175
 44
0.0
 45
0.000000001
 78
    12
 79
     3
140
2.1166666667
143
0.0393700787
147
0.5291666667
148
0.000000001
170
     1
172
     1
173
     1
178
     0
271
     1
272
     1
276
     2
284
    12
289
     0
340
6B
  0
ENDTAB
  0
TABLE
  2
BLOCK_RECORD
  5
1
330
0
100
AcDbSymbolTable
 70
    12
  0
BLOCK_RECORD
  5
1F
330
1
100
AcDbSymbolTableRecord
100
AcDbBlockTableRecord
  2
*Model_Space
340
22
  0
BLOCK_RECORD
  5
1B
330
1
100
AcDbSymbolTableRecord
100
AcDbBlockTableRecord
  2
*Paper_Space
340
1E
  0
BLOCK_RECORD
  5
23
330
1
100
AcDbSymbolTableRecord
100
AcDbBlockTableRecord
  2
*Paper_Space0
340
26
  0
BLOCK_RECORD
  5
45
330
1
100
AcDbSymbolTableRecord
100
AcDbBlockTableRecord
  2
Third Angle Projection Block
340
0
102
{BLKREFS
331
6A
102
}
  0
BLOCK_RECORD
  5
7B
330
1
100
AcDbSymbolTableRecord
100
AcDbBlockTableRecord
  2
SW_NOTE_0
340
0
102
{BLKREFS
331
80
102
}
  0
BLOCK_RECORD
  5
81
330
1
100
AcDbSymbolTableRecord
100
AcDbBlockTableRecord
  2
SW_NOTE_1
340
0
102
{BLKREFS
331
86
102
}
  0
BLOCK_RECORD
  5
88
330
1
100
AcDbSymbolTableRecord
100
AcDbBlockTableRecord
  2
SW_NOTE_2
340
0
102
{BLKREFS
331
8D
102
}
  0
BLOCK_RECORD
  5
8F
330
1
100
AcDbSymbolTableRecord
100
AcDbBlockTableRecord
  2
SW_NOTE_3
340
0
102
{BLKREFS
331
95
102
}
  0
BLOCK_RECORD
  5
96
330
1
100
AcDbSymbolTableRecord
100
AcDbBlockTableRecord
  2
SW_NOTE_4
340
0
102
{BLKREFS
331
BA
102
}
  0
BLOCK_RECORD
  5
C1
330
1
100
AcDbSymbolTableRecord
100
AcDbBlockTableRecord
  2
_D
340
0
  0
BLOCK_RECORD
  5
D0
330
1
100
AcDbSymbolTableRecord
100
AcDbBlockTableRecord
  2
SW_CENTERMARKSYMBOL_0
340
0
102
{BLKREFS
331
D7
102
}
  0
BLOCK_RECORD
  5
1FF
330
1
100
AcDbSymbolTableRecord
100
AcDbBlockTableRecord
  2
_D_1
340
0
  0
BLOCK_RECORD
  5
210
330
1
100
AcDbSymbolTableRecord
100
AcDbBlockTableRecord
  2
_D_2
340
0
  0
BLOCK_RECORD
  5
223
330
1
100
AcDbSymbolTableRecord
100
AcDbBlockTableRecord
  2
_D_3
340
0
  0
ENDTAB
  0
ENDSEC
  0
SECTION
  2
BLOCKS
  0
BLOCK
  5
20
330
1F
100
AcDbEntity
  8
0
100
AcDbBlockBegin
  2
*Model_Space
 70
     0
 10
0.0
 20
0.0
 30
0.0
  3
*Model_Space
  1

  0
ENDBLK
  5
21
330
1F
100
AcDbEntity
  8
0
100
AcDbBlockEnd
  0
BLOCK
  5
1C
330
1B
100
AcDbEntity
 67
     1
  8
0
100
AcDbBlockBegin
  2
*Paper_Space
 70
     0
 10
0.0
 20
0.0
 30
0.0
  3
*Paper_Space
  1

  0
ENDBLK
  5
1D
330
1B
100
AcDbEntity
 67
     1
  8
0
100
AcDbBlockEnd
  0
BLOCK
  5
24
330
23
100
AcDbEntity
  8
0
100
AcDbBlockBegin
  2
*Paper_Space0
 70
     0
 10
0.0
 20
0.0
 30
0.0
  3
*Paper_Space0
  1

  0
ENDBLK
  5
25
330
23
100
AcDbEntity
  8
0
100
AcDbBlockEnd
  0
BLOCK
  5
46
330
45
100
AcDbEntity
  8
0
100
AcDbBlockBegin
  2
Third Angle Projection Block
 70
     0
 10
0.0
 20
0.0
 30
0.0
  3
Third Angle Projection Block
  1

  0
CIRCLE
  5
48
330
45
100
AcDbEntity
  8
0
  6
Continuous
 62
     7
370
    30
100
AcDbCircle
 10
101.4766388944
 20
18.9404083667
 30
0.0
 40
1.768227153674871
  0
CIRCLE
  5
49
330
45
100
AcDbEntity
  8
0
  6
Continuous
 62
     7
370
    30
100
AcDbCircle
 10
101.4766388944
 20
18.9404083667
 30
0.0
 40
3.901228248531818
  0
LINE
  5
4A
330
45
100
AcDbEntity
  8
0
  6
CENTERX2
 62
     7
370
     0
100
AcDbLine
 10
110.1367822585
 20
18.9404083667
 30
0.0
 11
119.4527334874
 21
18.9404083667
 31
0.0
  0
LINE
  5
4B
330
45
100
AcDbEntity
  8
0
  6
Continuous
 62
     7
370
    30
100
AcDbLine
 10
111.0016388944
 20
20.7086355204
 30
0.0
 11
111.0016388944
 21
17.172181213
 31
0.0
  0
LINE
  5
4C
330
45
100
AcDbEntity
  8
0
  6
Continuous
 62
     7
370
    30
100
AcDbLine
 10
111.0016388944
 20
17.172181213
 30
0.0
 11
118.6216388944
 21
15.1304083667
 31
0.0
  0
LINE
  5
4D
330
45
100
AcDbEntity
  8
0
  6
Continuous
 62
     7
370
    30
100
AcDbLine
 10
118.6216388944
 20
15.1304083667
 30
0.0
 11
118.6216388944
 21
22.7504083667
 31
0.0
  0
LINE
  5
4E
330
45
100
AcDbEntity
  8
0
  6
Continuous
 62
     7
370
    30
100
AcDbLine
 10
118.6216388944
 20
22.7504083667
 30
0.0
 11
111.0016388944
 21
20.7086355204
 31
0.0
  0
LINE
  5
4F
330
45
100
AcDbEntity
  8
0
  6
CENTERX2
 62
     7
370
     0
100
AcDbLine
 10
96.6025854619
 20
18.9404083667
 30
0.0
 11
106.3506923269
 21
18.9404083667
 31
0.0
  0
LINE
  5
50
330
45
100
AcDbEntity
  8
0
  6
CENTERX2
 62
     7
370
     0
100
AcDbLine
 10
101.4766388944
 20
23.8144617992
 30
0.0
 11
101.4766388944
 21
14.0663549342
 31
0.0
  0
POINT
  5
51
330
45
100
AcDbEntity
  8
0
  6
Continuous
 62
     7
370
     0
100
AcDbPoint
 10
101.4766388944
 20
18.9404083667
 30
0.0
  0
ENDBLK
  5
47
330
45
100
AcDbEntity
  8
0
100
AcDbBlockEnd
  0
BLOCK
  5
7C
330
7B
100
AcDbEntity
  8
0
100
AcDbBlockBegin
  2
SW_NOTE_0
 70
     0
 10
0.0
 20
0.0
 30
0.0
  3
SW_NOTE_0
  1

  0
MTEXT
  5
7E
330
7B
100
AcDbEntity
  8
0
  6
Continuous
 62
     0
370
     0
100
AcDbMText
 10
19.90725
 20
1.9645392354
 30
0.0
 40
1.524
 41
0.0
 71
     2
 72
     1
  1
VALUES IN PARENTHESIS ARE CALCULATED
  7
SLDTEXTSTYLE0
 73
     1
 44
1.0
  0
MTEXT
  5
7F
330
7B
100
AcDbEntity
  8
0
  6
Continuous
 62
     0
370
     0
100
AcDbMText
 10
19.8778795174
 20
-0.5594606586
 30
0.0
 40
1.524
 41
0.0
 71
     2
 72
     1
  1
AND MAY CONTAIN ROUNDOFF ERRORS
  7
SLDTEXTSTYLE0
 73
     1
 44
1.0
  0
ENDBLK
  5
7D
330
7B
100
AcDbEntity
  8
0
100
AcDbBlockEnd
  0
BLOCK
  5
82
330
81
100
AcDbEntity
  8
0
100
AcDbBlockBegin
  2
SW_NOTE_1
 70
     0
 10
0.0
 20
0.0
 30
0.0
  3
SW_NOTE_1
  1

  0
MTEXT
  5
84
330
81
100
AcDbEntity
  8
0
  6
Continuous
 62
     0
370
     0
100
AcDbMText
 10
0.0
 20
2.7285267159
 30
0.0
 40
2.1166666667
 41
0.0
 71
     1
 72
     1
  1
DRAWING
  7
SLDTEXTSTYLE0
 73
     1
 44
1.0
  0
MTEXT
  5
85
330
81
100
AcDbEntity
  8
0
  6
Continuous
 62
     0
370
     0
100
AcDbMText
 10
0.0
 20
-0.0936954723
 30
0.0
 40
2.1166666667
 41
0.0
 71
     1
 72
     1
  1
PROJECTION
  7
SLDTEXTSTYLE0
 73
     1
 44
1.0
  0
ENDBLK
  5
83
330
81
100
AcDbEntity
  8
0
100
AcDbBlockEnd
  0
BLOCK
  5
89
330
88
100
AcDbEntity
  8
0
100
AcDbBlockBegin
  2
SW_NOTE_2
 70
     0
 10
0.0
 20
0.0
 30
0.0
  3
SW_NOTE_2
  1

  0
MTEXT
  5
8B
330
88
100
AcDbEntity
  8
0
  6
Continuous
 62
     0
370
     0
100
AcDbMText
 10
25.052734375
 20
4.0927900738
 30
0.0
 40
3.175
 41
0.0
 71
     2
 72
     1
  1
FOR INFORMATION ONLY
  7
SLDTEXTSTYLE0
 73
     1
 44
1.0
  0
MTEXT
  5
8C
330
88
100
AcDbEntity
  8
0
  6
Continuous
 62
     0
370
     0
100
AcDbMText
 10
25.3768468589
 20
-0.1405432084
 30
0.0
 40
3.175
 41
0.0
 71
     2
 72
     1
  1
NOT FOR MANUFACTURING PURPOSES
  7
SLDTEXTSTYLE0
 73
     1
 44
1.0
  0
ENDBLK
  5
8A
330
88
100
AcDbEntity
  8
0
100
AcDbBlockEnd
  0
BLOCK
  5
90
330
8F
100
AcDbEntity
  8
0
100
AcDbBlockBegin
  2
SW_NOTE_3
 70
     0
 10
0.0
 20
0.0
 30
0.0
  3
SW_NOTE_3
  1

  0
MTEXT
  5
92
330
8F
100
AcDbEntity
  8
0
  6
Continuous
 62
     0
370
     0
100
AcDbMText
 10
1.9016927083
 20
3.4106583948
 30
0.0
 40
2.6458333333
 41
0.0
 71
     2
 72
     1
  1
%%c
  7
SLDTEXTSTYLE0
 73
     1
 44
1.0
  0
MTEXT
  5
93
330
8F
100
AcDbEntity
  8
0
  6
Continuous
 62
     0
370
     0
100
AcDbMText
 10
29.5425665677
 20
3.4106583948
 30
0.0
 40
2.6458333333
 41
0.0
 71
     2
 72
     1
  1
50.8mm, f= 50.0mm CONCAVE
  7
SLDTEXTSTYLE0
 73
     1
 44
1.0
  0
MTEXT
  5
94
330
8F
100
AcDbEntity
  8
0
  6
Continuous
 62
     0
370
     0
100
AcDbMText
 10
27.9107239693
 20
-0.1171193403
 30
0.0
 40
2.6458333333
 41
0.0
 71
     2
 72
     1
  1
PROTECTED SILVER MIRROR
  7
SLDTEXTSTYLE0
 73
     1
 44
1.0
  0
ENDBLK
  5
91
330
8F
100
AcDbEntity
  8
0
100
AcDbBlockEnd
  0
BLOCK
  5
97
330
96
100
AcDbEntity
  8
0
100
AcDbBlockBegin
  2
SW_NOTE_4
 70
     0
 10
0.0
 20
0.0
 30
0.0
  3
SW_NOTE_4
  1

  0
MTEXT
  5
99
330
96
100
AcDbEntity
  8
0
  6
Continuous
 62
     0
370
     0
100
AcDbMText
 10
0.0
 20
3.0695925553
 30
0.0
 40
2.38125
 41
0.0
 71
     1
 72
     1
  1
NOTES/SPECIFICATIONS:
  7
SLDTEXTSTYLE0
 73
     1
 44
1.0
  0
MTEXT
  5
9A
330
96
100
AcDbEntity
  8
0
  6
Continuous
 62
     0
370
     0
100
AcDbMText
 10
9.9999997765
 20
-3.2804073679
 30
0.0
 40
2.38125
 41
0.0
 71
     1
 72
     1
  1
CLEAR APERTURE: >90% DIAMETER
  7
SLDTEXTSTYLE0
 73
     1
 44
1.0
  0
MTEXT
  5
9B
330
96
100
AcDbEntity
  8
0
  6
Continuous
 62
     0
370
     0
100
AcDbMText
 10
0.0
 20
-3.2804073679
 30
0.0
 40
2.38125
 41
0.0
 71
     1
 72
     1
  1
1.
  7
SLDTEXTSTYLE0
 73
     1
 44
1.0
  0
MTEXT
  5
9C
330
96
100
AcDbEntity
  8
0
  6
Continuous
 62
     0
370
     0
100
AcDbMText
 10
9.9999997765
 20
-6.5976282029
 30
0.0
 40
2.38125
 41
0.0
 71
     1
 72
     1
  1
SURFACE ACCURACY
  7
SLDTEXTSTYLE0
 73
     1
 44
1.0
  0
MTEXT
  5
9D
330
96
100
AcDbEntity
  8
0
  6
Continuous
 62
     0
370
     0
100
AcDbMText
 10
42.9582651705
 20
-6.6891910621
 30
0.0
 40
2.286
 41
0.0
 71
     1
 72
     1
  1
:
  7
SLDTEXTSTYLE0
 73
     1
 44
1.0
  0
MTEXT
  5
9F
330
96
100
AcDbEntity
  8
0
  6
Continuous
 62
     0
370
     0
100
AcDbMText
 10
44.6957833081
 20
-6.5976282029
 30
0.0
 40
2.38125
 41
0.0
 71
     1
 72
     1
  1
\M+183C9/
  7
SLDTEXTSTYLE2
 73
     1
 44
1.0
  0
MTEXT
  5
A0
330
96
100
AcDbEntity
  8
0
  6
Continuous
 62
     0
370
     0
100
AcDbMText
 10
47.7715637535
 20
-6.6891910621
 30
0.0
 40
2.286
 41
0.0
 71
     1
 72
     1
  1
4
  7
SLDTEXTSTYLE0
 73
     1
 44
1.0
  0
MTEXT
  5
A1
330
96
100
AcDbEntity
  8
0
  6
Continuous
 62
     0
370
     0
100
AcDbMText
 10
50.3052156419
 20
-6.5976282029
 30
0.0
 40
2.38125
 41
0.0
 71
     1
 72
     1
  1
AT 632.8nm OVER CLEAR APERTURE
  7
SLDTEXTSTYLE0
 73
     1
 44
1.0
  0
MTEXT
  5
A2
330
96
100
AcDbEntity
  8
0
  6
Continuous
 62
     0
370
     0
100
AcDbMText
 10
0.0
 20
-6.5976282029
 30
0.0
 40
2.38125
 41
0.0
 71
     1
 72
     1
  1
2.
  7
SLDTEXTSTYLE0
 73
     1
 44
1.0
  0
MTEXT
  5
A3
330
96
100
AcDbEntity
  8
0
  6
Continuous
 62
     0
370
     0
100
AcDbMText
 10
9.9999997765
 20
-9.7726281646
 30
0.0
 40
2.38125
 41
0.0
 71
     1
 72
     1
  1
SURFACE QUALITY: 40-20 SCRATCH-DIG
  7
SLDTEXTSTYLE0
 73
     1
 44
1.0
  0
MTEXT
  5
A4
330
96
100
AcDbEntity
  8
0
  6
Continuous
 62
     0
370
     0
100
AcDbMText
 10
0.0
 20
-9.7726281646
 30
0.0
 40
2.38125
 41
0.0
 71
     1
 72
     1
  1
3.
  7
SLDTEXTSTYLE0
 73
     1
 44
1.0
  0
MTEXT
  5
A5
330
96
100
AcDbEntity
  8
0
  6
Continuous
 62
     0
370
     0
100
AcDbMText
 10
9.9999997765
 20
-12.9476281262
 30
0.0
 40
2.38125
 41
0.0
 71
     1
 72
     1
  1
BACK SURFACE: FINE GROUND
  7
SLDTEXTSTYLE0
 73
     1
 44
1.0
  0
MTEXT
  5
A6
330
96
100
AcDbEntity
  8
0
  6
Continuous
 62
     0
370
     0
100
AcDbMText
 10
0.0
 20
-12.9476281262
 30
0.0
 40
2.38125
 41
0.0
 71
     1
 72
     1
  1
4.
  7
SLDTEXTSTYLE0
 73
     1
 44
1.0
  0
MTEXT
  5
A7
330
96
100
AcDbEntity
  8
0
  6
Continuous
 62
     0
370
     0
100
AcDbMText
 10
9.9999997765
 20
-16.1226280878
 30
0.0
 40
2.38125
 41
0.0
 71
     1
 72
     1
  1
THICKNESS TOLERANCE:
  7
SLDTEXTSTYLE0
 73
     1
 44
1.0
  0
MTEXT
  5
A8
330
96
100
AcDbEntity
  8
0
  6
Continuous
 62
     0
370
     0
100
AcDbMText
 10
46.741804108
 20
-16.1226280878
 30
0.0
 40
2.38125
 41
0.0
 71
     1
 72
     1
  1
%%p
  7
SLDTEXTSTYLE0
 73
     1
 44
1.0
  0
MTEXT
  5
A9
330
96
100
AcDbEntity
  8
0
  6
Continuous
 62
     0
370
     0
100
AcDbMText
 10
49.0119289607
 20
-16.1226280878
 30
0.0
 40
2.38125
 41
0.0
 71
     1
 72
     1
  1
0.2 mm
  7
SLDTEXTSTYLE0
 73
     1
 44
1.0
  0
MTEXT
  5
AA
330
96
100
AcDbEntity
  8
0
  6
Continuous
 62
     0
370
     0
100
AcDbMText
 10
0.0
 20
-16.1226280878
 30
0.0
 40
2.38125
 41
0.0
 71
     1
 72
     1
  1
5.
  7
SLDTEXTSTYLE0
 73
     1
 44
1.0
  0
MTEXT
  5
AB
330
96
100
AcDbEntity
  8
0
  6
Continuous
 62
     0
370
     0
100
AcDbMText
 10
9.9999997765
 20
-19.2976280495
 30
0.0
 40
2.38125
 41
0.0
 71
     1
 72
     1
  1
DIAMETER TOLERANCE: + 0.0/-0.2 mm
  7
SLDTEXTSTYLE0
 73
     1
 44
1.0
  0
MTEXT
  5
AC
330
96
100
AcDbEntity
  8
0
  6
Continuous
 62
     0
370
     0
100
AcDbMText
 10
0.0
 20
-19.2976280495
 30
0.0
 40
2.38125
 41
0.0
 71
     1
 72
     1
  1
6.
  7
SLDTEXTSTYLE0
 73
     1
 44
1.0
  0
MTEXT
  5
AD
330
96
100
AcDbEntity
  8
0
  6
Continuous
 62
     0
370
     0
100
AcDbMText
 10
9.9999997765
 20
-22.4726280111
 30
0.0
 40
2.38125
 41
0.0
 71
     1
 72
     1
  1
COATING: PROTECTED SILVER
  7
SLDTEXTSTYLE0
 73
     1
 44
1.0
  0
MTEXT
  5
AE
330
96
100
AcDbEntity
  8
0
  6
Continuous
 62
     0
370
     0
100
AcDbMText
 10
0.0
 20
-22.4726280111
 30
0.0
 40
2.38125
 41
0.0
 71
     1
 72
     1
  1
7.
  7
SLDTEXTSTYLE0
 73
     1
 44
1.0
  0
MTEXT
  5
AF
330
96
100
AcDbEntity
  8
0
  6
Continuous
 62
     0
370
     0
100
AcDbMText
 10
10.0
 20
-25.6476279727
 30
0.0
 40
2.38125
 41
0.0
 71
     1
 72
     1
  1
Ravg: >97.5% FROM 450nm - 2µm
  7
SLDTEXTSTYLE0
 73
     1
 44
1.0
  0
MTEXT
  5
B0
330
96
100
AcDbEntity
  8
0
  6
Continuous
 62
     0
370
     0
100
AcDbMText
 10
10.0
 20
-28.8226279343
 30
0.0
 40
2.38125
 41
0.0
 71
     1
 72
     1
  1
Ravg: >96% FROM 2µm - 20µm
  7
SLDTEXTSTYLE0
 73
     1
 44
1.0
  0
MTEXT
  5
B1
330
96
100
AcDbEntity
  8
0
  6
Continuous
 62
     0
370
     0
100
AcDbMText
 10
10.0
 20
-31.997627896
 30
0.0
 40
2.38125
 41
0.0
 71
     1
 72
     1
  1
AOI: 0
  7
SLDTEXTSTYLE0
 73
     1
 44
1.0
  0
MTEXT
  5
B2
330
96
100
AcDbEntity
  8
0
  6
Continuous
 62
     0
370
     0
100
AcDbMText
 10
19.344201535
 20
-31.997627896
 30
0.0
 40
2.38125
 41
0.0
 71
     1
 72
     1
  1
%%d
  7
SLDTEXTSTYLE0
 73
     1
 44
1.0
  0
MTEXT
  5
B4
330
96
100
AcDbEntity
  8
0
  6
Continuous
 62
     0
370
     0
100
AcDbMText
 10
21.7505871639
 20
-31.997627896
 30
0.0
 40
2.38125
 41
0.0
 71
     1
 72
     1
  1
TO 45
  7
SLDTEXTSTYLE3
 73
     1
 44
1.0
  0
MTEXT
  5
B5
330
96
100
AcDbEntity
  8
0
  6
Continuous
 62
     0
370
     0
100
AcDbMText
 10
30.2459171414
 20
-31.997627896
 30
0.0
 40
2.38125
 41
0.0
 71
     1
 72
     1
  1
%%d
  7
SLDTEXTSTYLE0
 73
     1
 44
1.0
  0
MTEXT
  5
B6
330
96
100
AcDbEntity
  8
0
  6
Continuous
 62
     0
370
     0
100
AcDbMText
 10
9.9999997765
 20
-35.1726278576
 30
0.0
 40
2.38125
 41
0.0
 71
     1
 72
     1
  1
DAMAGE THRESHOLD: 3J/cm
  7
SLDTEXTSTYLE0
 73
     1
 44
1.0
  0
MTEXT
  5
B7
330
96
100
AcDbEntity
  8
0
  6
Continuous
 62
     0
370
     0
100
AcDbMText
 10
54.2956609279
 20
-35.1257800342
 30
0.0
 40
1.3229166667
 41
0.0
 71
     1
 72
     1
  1
2
  7
SLDTEXTSTYLE0
 73
     1
 44
1.0
  0
MTEXT
  5
B8
330
96
100
AcDbEntity
  8
0
  6
Continuous
 62
     0
370
     0
100
AcDbMText
 10
56.1661160499
 20
-35.1726278576
 30
0.0
 40
2.38125
 41
0.0
 71
     1
 72
     1
  1
10ns PULSE, 10Hz AT 1064nm
  7
SLDTEXTSTYLE0
 73
     1
 44
1.0
  0
MTEXT
  5
B9
330
96
100
AcDbEntity
  8
0
  6
Continuous
 62
     0
370
     0
100
AcDbMText
 10
0.0
 20
-35.1726278576
 30
0.0
 40
2.38125
 41
0.0
 71
     1
 72
     1
  1
8.
  7
SLDTEXTSTYLE0
 73
     1
 44
1.0
  0
ENDBLK
  5
98
330
96
100
AcDbEntity
  8
0
100
AcDbBlockEnd
  0
BLOCK
  5
C2
330
C1
100
AcDbEntity
  8
0
100
AcDbBlockBegin
  2
_D
 70
     0
 10
0.0
 20
0.0
 30
0.0
  3
_D
  1

  0
SOLID
  5
C4
330
C1
100
AcDbEntity
  8
0
  6
Continuous
 62
     7
370
     0
100
AcDbTrace
 10
76.6232763541
 20
89.6997369946
 30
0.0
 11
78.5083713984
 21
87.0949134547
 31
0.0
 12
79.2270011434
 22
87.8131246281
 32
0.0
 13
79.2270011434
 23
87.8131246281
 33
0.0
  0
LINE
  5
C5
330
C1
100
AcDbEntity
  8
0
  6
Continuous
 62
     7
370
     0
100
AcDbLine
 10
93.2923392885
 20
77.517237181
 30
0.0
 11
93.2923392885
 21
74.6594463413
 31
0.0
  0
LINE
  5
C6
330
C1
100
AcDbEntity
  8
0
  6
Continuous
 62
     7
370
     0
100
AcDbLine
 10
93.2923392885
 20
74.6594463413
 30
0.0
 11
93.7210079144
 21
74.6594463413
 31
0.0
  0
LINE
  5
C7
330
C1
100
AcDbEntity
  8
0
  6
Continuous
 62
     7
370
     0
100
AcDbLine
 10
93.2923392885
 20
77.517237181
 30
0.0
 11
93.7210079144
 21
77.517237181
 31
0.0
  0
LINE
  5
C8
330
C1
100
AcDbEntity
  8
0
  6
Continuous
 62
     7
370
     0
100
AcDbLine
 10
102.7622736396
 20
77.517237181
 30
0.0
 11
102.7622736396
 21
74.6594463413
 31
0.0
  0
LINE
  5
C9
330
C1
100
AcDbEntity
  8
0
  6
Continuous
 62
     7
370
     0
100
AcDbLine
 10
102.7622736396
 20
74.6594463413
 30
0.0
 11
102.3336050137
 21
74.6594463413
 31
0.0
  0
LINE
  5
CA
330
C1
100
AcDbEntity
  8
0
  6
Continuous
 62
     7
370
     0
100
AcDbLine
 10
102.7622736396
 20
77.517237181
 30
0.0
 11
102.3336050137
 21
77.517237181
 31
0.0
  0
LINE
  5
CB
330
C1
100
AcDbEntity
  8
0
  6
Continuous
 62
     7
370
     0
100
AcDbLine
 10
76.6232763541
 20
89.6997369946
 30
0.0
 11
86.8665949373
 21
79.4504486314
 31
0.0
  0
LINE
  5
CC
330
C1
100
AcDbEntity
  8
0
  6
Continuous
 62
     7
370
     0
100
AcDbLine
 10
86.8665949373
 20
79.4504486314
 30
0.0
 11
90.6765949373
 21
79.4504486314
 31
0.0
  0
MTEXT
  5
CD
330
C1
100
AcDbEntity
  8
0
  6
Continuous
 62
     7
370
     0
100
AcDbMText
 10
92.4350020366
 20
80.4979217957
 30
0.0
 40
2.1166666667
 41
0.0
 71
     1
 72
     1
  1
%%c
  7
SLDTEXTSTYLE0
 73
     1
 44
1.0
  0
MTEXT
  5
CE
330
C1
100
AcDbEntity
  8
0
  6
Continuous
 62
     7
370
     0
100
AcDbMText
 10
95.4608982198
 20
80.4979217957
 30
0.0
 40
2.1166666667
 41
0.0
 71
     1
 72
     1
  1
50.8mm
  7
SLDTEXTSTYLE0
 73
     1
 44
1.0
  0
MTEXT
  5
CF
330
C1
100
AcDbEntity
  8
0
  6
Continuous
 62
     7
370
     0
100
AcDbMText
 10
94.1496765404
 20
77.1358149255
 30
0.0
 40
2.1166666667
 41
0.0
 71
     1
 72
     1
  1
2.00in
  7
SLDTEXTSTYLE0
 73
     1
 44
1.0
  0
ENDBLK
  5
C3
330
C1
100
AcDbEntity
  8
0
100
AcDbBlockEnd
  0
BLOCK
  5
D1
330
D0
100
AcDbEntity
  8
0
100
AcDbBlockBegin
  2
SW_CENTERMARKSYMBOL_0
 70
     0
 10
0.0
 20
0.0
 30
0.0
  3
SW_CENTERMARKSYMBOL_0
  1

  0
LINE
  5
D3
330
D0
100
AcDbEntity
  8
0
  6
Continuous
 62
     0
370
     0
100
AcDbLine
 10
0.0
 20
0.0
 30
0.0
 11
0.0
 21
2.0
 31
0.0
  0
LINE
  5
D4
330
D0
100
AcDbEntity
  8
0
  6
Continuous
 62
     0
370
     0
100
AcDbLine
 10
0.0
 20
0.0
 30
0.0
 11
-2.0
 21
0.0
 31
0.0
  0
LINE
  5
D5
330
D0
100
AcDbEntity
  8
0
  6
Continuous
 62
     0
370
     0
100
AcDbLine
 10
0.0
 20
0.0
 30
0.0
 11
0.0
 21
-2.0
 31
0.0
  0
LINE
  5
D6
330
D0
100
AcDbEntity
  8
0
  6
Continuous
 62
     0
370
     0
100
AcDbLine
 10
0.0
 20
0.0
 30
0.0
 11
2.0
 21
0.0
 31
0.0
  0
ENDBLK
  5
D2
330
D0
100
AcDbEntity
  8
0
100
AcDbBlockEnd
  0
BLOCK
  5
200
330
1FF
100
AcDbEntity
  8
0
100
AcDbBlockBegin
  2
_D_1
 70
     0
 10
0.0
 20
0.0
 30
0.0
  3
_D_1
  1

  0
SOLID
  5
202
330
1FF
100
AcDbEntity
  8
0
  6
Continuous
 62
     7
370
     0
100
AcDbTrace
 10
134.3851091495
 20
92.8770085839
 30
0.0
 11
137.4500733337
 21
91.9050602572
 31
0.0
 12
137.6003242095
 22
92.9098889363
 32
0.0
 13
137.6003242095
 23
92.9098889363
 33
0.0
  0
LINE
  5
203
330
1FF
100
AcDbEntity
  8
0
  6
Continuous
 62
     7
370
     0
100
AcDbLine
 10
159.4889115729
 20
88.1253330653
 30
0.0
 11
159.4889115729
 21
85.2675422257
 31
0.0
  0
LINE
  5
204
330
1FF
100
AcDbEntity
  8
0
  6
Continuous
 62
     7
370
     0
100
AcDbLine
 10
159.4889115729
 20
85.2675422257
 30
0.0
 11
159.9175801989
 21
85.2675422257
 31
0.0
  0
LINE
  5
205
330
1FF
100
AcDbEntity
  8
0
  6
Continuous
 62
     7
370
     0
100
AcDbLine
 10
159.4889115729
 20
88.1253330653
 30
0.0
 11
159.9175801989
 21
88.1253330653
 31
0.0
  0
LINE
  5
206
330
1FF
100
AcDbEntity
  8
0
  6
Continuous
 62
     7
370
     0
100
AcDbLine
 10
168.9588459241
 20
88.1253330653
 30
0.0
 11
168.9588459241
 21
85.2675422257
 31
0.0
  0
LINE
  5
207
330
1FF
100
AcDbEntity
  8
0
  6
Continuous
 62
     7
370
     0
100
AcDbLine
 10
168.9588459241
 20
85.2675422257
 30
0.0
 11
168.5301772981
 21
85.2675422257
 31
0.0
  0
LINE
  5
208
330
1FF
100
AcDbEntity
  8
0
  6
Continuous
 62
     7
370
     0
100
AcDbLine
 10
168.9588459241
 20
88.1253330653
 30
0.0
 11
168.5301772981
 21
88.1253330653
 31
0.0
  0
LINE
  5
209
330
1FF
100
AcDbEntity
  8
0
  6
Continuous
 62
     7
370
     0
100
AcDbLine
 10
134.3851091495
 20
92.8770085839
 30
0.0
 11
153.234074321
 21
90.0585445157
 31
0.0
  0
LINE
  5
20A
330
1FF
100
AcDbEntity
  8
0
  6
Continuous
 62
     7
370
     0
100
AcDbLine
 10
153.234074321
 20
90.0585445157
 30
0.0
 11
157.044074321
 21
90.0585445157
 31
0.0
  0
MTEXT
  5
20B
330
1FF
100
AcDbEntity
  8
0
  6
Continuous
 62
     7
370
     0
100
AcDbMText
 10
158.631574321
 20
91.1060176801
 30
0.0
 40
2.1166666667
 41
0.0
 71
     1
 72
     1
  1
R
  7
SLDTEXTSTYLE0
 73
     1
 44
1.0
  0
MTEXT
  5
20C
330
1FF
100
AcDbEntity
  8
0
  6
Continuous
 62
     7
370
     0
100
AcDbMText
 10
160.3434470691
 20
91.1060176801
 30
0.0
 40
2.1166666667
 41
0.0
 71
     1
 72
     1
  1
100.0mm
  7
SLDTEXTSTYLE0
 73
     1
 44
1.0
  0
MTEXT
  5
20D
330
1FF
100
AcDbEntity
  8
0
  6
Continuous
 62
     7
370
     0
100
AcDbMText
 10
160.3462488248
 20
87.7439108098
 30
0.0
 40
2.1166666667
 41
0.0
 71
     1
 72
     1
  1
3.94in
  7
SLDTEXTSTYLE0
 73
     1
 44
1.0
  0
ENDBLK
  5
201
330
1FF
100
AcDbEntity
  8
0
100
AcDbBlockEnd
  0
BLOCK
  5
211
330
210
100
AcDbEntity
  8
0
100
AcDbBlockBegin
  2
_D_2
 70
     0
 10
0.0
 20
0.0
 30
0.0
  3
_D_2
  1

  0
SOLID
  5
213
330
210
100
AcDbEntity
  8
0
  6
Continuous
 62
     7
370
     0
100
AcDbTrace
 10
144.4846486105
 20
143.0654806202
 30
0.0
 11
147.6596486105
 21
142.5574806202
 31
0.0
 12
147.6596486105
 22
143.5734806202
 32
0.0
 13
147.6596486105
 23
143.5734806202
 33
0.0
  0
SOLID
  5
214
330
210
100
AcDbEntity
  8
0
  6
Continuous
 62
     7
370
     0
100
AcDbTrace
 10
135.4846486105
 20
143.0654806202
 30
0.0
 11
132.3096486105
 21
143.5734806202
 31
0.0
 12
132.3096486105
 22
142.5574806202
 32
0.0
 13
132.3096486105
 23
142.5574806202
 33
0.0
  0
LINE
  5
215
330
210
100
AcDbEntity
  8
0
  6
Continuous
 62
     7
370
     0
100
AcDbLine
 10
153.7662675155
 20
142.8133226049
 30
0.0
 11
153.7662675155
 21
139.9555317652
 31
0.0
  0
LINE
  5
216
330
210
100
AcDbEntity
  8
0
  6
Continuous
 62
     7
370
     0
100
AcDbLine
 10
153.7662675155
 20
139.9555317652
 30
0.0
 11
154.1949361414
 21
139.9555317652
 31
0.0
  0
LINE
  5
217
330
210
100
AcDbEntity
  8
0
  6
Continuous
 62
     7
370
     0
100
AcDbLine
 10
153.7662675155
 20
142.8133226049
 30
0.0
 11
154.1949361414
 21
142.8133226049
 31
0.0
  0
LINE
  5
218
330
210
100
AcDbEntity
  8
0
  6
Continuous
 62
     7
370
     0
100
AcDbLine
 10
163.2362018666
 20
142.8133226049
 30
0.0
 11
163.2362018666
 21
139.9555317652
 31
0.0
  0
LINE
  5
219
330
210
100
AcDbEntity
  8
0
  6
Continuous
 62
     7
370
     0
100
AcDbLine
 10
163.2362018666
 20
139.9555317652
 30
0.0
 11
162.8075332406
 21
139.9555317652
 31
0.0
  0
LINE
  5
21A
330
210
100
AcDbEntity
  8
0
  6
Continuous
 62
     7
370
     0
100
AcDbLine
 10
163.2362018666
 20
142.8133226049
 30
0.0
 11
162.8075332406
 21
142.8133226049
 31
0.0
  0
LINE
  5
21B
330
210
100
AcDbEntity
  8
0
  6
Continuous
 62
     7
370
     0
100
AcDbLine
 10
144.4846486105
 20
134.1354806202
 30
0.0
 11
144.4846486105
 21
144.8434806202
 31
0.0
  0
LINE
  5
21C
330
210
100
AcDbEntity
  8
0
  6
Continuous
 62
     7
370
     0
100
AcDbLine
 10
135.4846486105
 20
108.9354806202
 30
0.0
 11
135.4846486105
 21
144.8434806202
 31
0.0
  0
LINE
  5
21D
330
210
100
AcDbEntity
  8
0
  6
Continuous
 62
     7
370
     0
100
AcDbLine
 10
144.4846486105
 20
143.0654806202
 30
0.0
 11
150.8920611987
 21
143.0654806202
 31
0.0
  0
LINE
  5
21E
330
210
100
AcDbEntity
  8
0
  6
Continuous
 62
     7
370
     0
100
AcDbLine
 10
135.4846486105
 20
143.0654806202
 30
0.0
 11
129.1346486105
 21
143.0654806202
 31
0.0
  0
MTEXT
  5
21F
330
210
100
AcDbEntity
  8
0
  6
Continuous
 62
     7
370
     0
100
AcDbMText
 10
153.9021526681
 20
145.7940072196
 30
0.0
 40
2.1166666667
 41
0.0
 71
     1
 72
     1
  1
9.0mm
  7
SLDTEXTSTYLE0
 73
     1
 44
1.0
  0
MTEXT
  5
220
330
210
100
AcDbEntity
  8
0
  6
Continuous
 62
     7
370
     0
100
AcDbMText
 10
154.6236047674
 20
142.4319003494
 30
0.0
 40
2.1166666667
 41
0.0
 71
     1
 72
     1
  1
0.35in
  7
SLDTEXTSTYLE0
 73
     1
 44
1.0
  0
ENDBLK
  5
212
330
210
100
AcDbEntity
  8
0
100
AcDbBlockEnd
  0
BLOCK
  5
224
330
223
100
AcDbEntity
  8
0
100
AcDbBlockBegin
  2
_D_3
 70
     0
 10
0.0
 20
0.0
 30
0.0
  3
_D_3
  1

  0
SOLID
  5
226
330
223
100
AcDbEntity
  8
0
  6
Continuous
 62
     7
370
     0
100
AcDbTrace
 10
144.4846486105
 20
155.0654806202
 30
0.0
 11
147.6596486105
 21
154.5574806202
 31
0.0
 12
147.6596486105
 22
155.5734806202
 32
0.0
 13
147.6596486105
 23
155.5734806202
 33
0.0
  0
SOLID
  5
227
330
223
100
AcDbEntity
  8
0
  6
Continuous
 62
     7
370
     0
100
AcDbTrace
 10
132.2557159481
 20
155.0654806202
 30
0.0
 11
129.0807159481
 21
155.5734806202
 31
0.0
 12
129.0807159481
 22
154.5574806202
 32
0.0
 13
129.0807159481
 23
154.5574806202
 33
0.0
  0
LINE
  5
228
330
223
100
AcDbEntity
  8
0
  6
Continuous
 62
     7
370
     0
100
AcDbLine
 10
154.638753229
 20
154.8133226049
 30
0.0
 11
154.638753229
 21
151.9555317652
 31
0.0
  0
LINE
  5
229
330
223
100
AcDbEntity
  8
0
  6
Continuous
 62
     7
370
     0
100
AcDbLine
 10
154.638753229
 20
151.9555317652
 30
0.0
 11
155.067421855
 21
151.9555317652
 31
0.0
  0
LINE
  5
22A
330
223
100
AcDbEntity
  8
0
  6
Continuous
 62
     7
370
     0
100
AcDbLine
 10
154.638753229
 20
154.8133226049
 30
0.0
 11
155.067421855
 21
154.8133226049
 31
0.0
  0
LINE
  5
22B
330
223
100
AcDbEntity
  8
0
  6
Continuous
 62
     7
370
     0
100
AcDbLine
 10
164.1086875802
 20
154.8133226049
 30
0.0
 11
164.1086875802
 21
151.9555317652
 31
0.0
  0
LINE
  5
22C
330
223
100
AcDbEntity
  8
0
  6
Continuous
 62
     7
370
     0
100
AcDbLine
 10
164.1086875802
 20
151.9555317652
 30
0.0
 11
163.6800189542
 21
151.9555317652
 31
0.0
  0
LINE
  5
22D
330
223
100
AcDbEntity
  8
0
  6
Continuous
 62
     7
370
     0
100
AcDbLine
 10
164.1086875802
 20
154.8133226049
 30
0.0
 11
163.6800189542
 21
154.8133226049
 31
0.0
  0
LINE
  5
22E
330
223
100
AcDbEntity
  8
0
  6
Continuous
 62
     7
370
     0
100
AcDbLine
 10
144.4846486105
 20
134.1354806202
 30
0.0
 11
144.4846486105
 21
156.8434806202
 31
0.0
  0
LINE
  5
22F
330
223
100
AcDbEntity
  8
0
  6
Continuous
 62
     7
370
     0
100
AcDbLine
 10
132.2557159481
 20
134.1418394672
 30
0.0
 11
132.2557159481
 21
156.8434806202
 31
0.0
  0
LINE
  5
230
330
223
100
AcDbEntity
  8
0
  6
Continuous
 62
     7
370
     0
100
AcDbLine
 10
144.4846486105
 20
155.0654806202
 30
0.0
 11
151.7645469122
 21
155.0654806202
 31
0.0
  0
LINE
  5
231
330
223
100
AcDbEntity
  8
0
  6
Continuous
 62
     7
370
     0
100
AcDbLine
 10
132.2557159481
 20
155.0654806202
 30
0.0
 11
125.9057159481
 21
155.0654806202
 31
0.0
  0
MTEXT
  5
232
330
223
100
AcDbEntity
  8
0
  6
Continuous
 62
     7
370
     0
100
AcDbMText
 10
153.9929485344
 20
157.7940072196
 30
0.0
 40
2.1166666667
 41
0.0
 71
     1
 72
     1
  1
12.2mm
  7
SLDTEXTSTYLE0
 73
     1
 44
1.0
  0
MTEXT
  5
233
330
223
100
AcDbEntity
  8
0
  6
Continuous
 62
     7
370
     0
100
AcDbMText
 10
165.7597748321
 20
157.7940072196
 30
0.0
 40
2.1166666667
 41
0.0
 71
     1
 72
     1
  1
REF
  7
SLDTEXTSTYLE0
 73
     1
 44
1.0
  0
MTEXT
  5
234
330
223
100
AcDbEntity
  8
0
  6
Continuous
 62
     7
370
     0
100
AcDbMText
 10
155.4960904809
 20
154.4319003494
 30
0.0
 40
2.1166666667
 41
0.0
 71
     1
 72
     1
  1
0.48in
  7
SLDTEXTSTYLE0
 73
     1
 44
1.0
  0
ENDBLK
  5
225
330
223
100
AcDbEntity
  8
0
100
AcDbBlockEnd
  0
ENDSEC
  0
SECTION
  2
ENTITIES
  0
LINE
  5
52
330
1F
100
AcDbEntity
  8
0
  6
Continuous
 62
     7
370
     0
100
AcDbLine
 10
1.5793501011
 20
214.6453799966
 30
0.0
 11
277.9892068491
 21
214.6453799966
 31
0.0
  0
LINE
  5
53
330
1F
100
AcDbEntity
  8
0
  6
Continuous
 62
     7
370
     0
100
AcDbLine
 10
1.5793501011
 20
214.6453799966
 30
0.0
 11
1.5793501011
 21
0.9031642596
 31
0.0
  0
LINE
  5
54
330
1F
100
AcDbEntity
  8
0
  6
Continuous
 62
     7
370
     0
100
AcDbLine
 10
277.9892068491
 20
0.9031642596
 30
0.0
 11
1.5793501011
 21
0.9031642596
 31
0.0
  0
LINE
  5
55
330
1F
100
AcDbEntity
  8
0
  6
Continuous
 62
     7
370
     0
100
AcDbLine
 10
277.9892068491
 20
0.9031642596
 30
0.0
 11
277.9892068491
 21
214.6453799966
 31
0.0
  0
LINE
  5
56
330
1F
100
AcDbEntity
  8
0
  6
Continuous
 62
     7
370
     0
100
AcDbLine
 10
215.7427640041
 20
12.2958890132
 30
0.0
 11
171.6327596684
 21
12.2958890132
 31
0.0
  0
LINE
  5
57
330
1F
100
AcDbEntity
  8
0
  6
Continuous
 62
     7
370
     0
100
AcDbLine
 10
171.6327596684
 20
12.2958890132
 30
0.0
 11
171.6327596684
 21
26.1661402506
 31
0.0
  0
LINE
  5
58
330
1F
100
AcDbEntity
  8
0
  6
Continuous
 62
     7
370
     0
100
AcDbLine
 10
171.6327596684
 20
0.9031642596
 30
0.0
 11
171.6327596684
 21
26.1661402506
 31
0.0
  0
LINE
  5
59
330
1F
100
AcDbEntity
  8
0
  6
Continuous
 62
     7
370
     0
100
AcDbLine
 10
215.7427640041
 20
17.1604579552
 30
0.0
 11
277.9892068491
 21
17.1604579552
 31
0.0
  0
LINE
  5
5A
330
1F
100
AcDbEntity
  8
0
  6
Continuous
 62
     7
370
     0
100
AcDbLine
 10
215.7427640041
 20
35.2394508358
 30
0.0
 11
215.7427640041
 21
0.9031642596
 31
0.0
  0
LINE
  5
5B
330
1F
100
AcDbEntity
  8
0
  6
Continuous
 62
     7
370
     0
100
AcDbLine
 10
215.7427640041
 20
26.1661402506
 30
0.0
 11
171.6327596684
 21
26.1661402506
 31
0.0
  0
LINE
  5
5C
330
1F
100
AcDbEntity
  8
0
  6
Continuous
 62
     7
370
     0
100
AcDbLine
 10
215.7427640041
 20
9.1409200612
 30
0.0
 11
277.9892068491
 21
9.1409200612
 31
0.0
  0
LINE
  5
5D
330
1F
100
AcDbEntity
  8
0
  6
Continuous
 62
     7
370
     0
100
AcDbLine
 10
215.7427640041
 20
16.9216824031
 30
0.0
 11
171.6327596684
 21
16.9216824031
 31
0.0
  0
LINE
  5
5E
330
1F
100
AcDbEntity
  8
0
  6
Continuous
 62
     7
370
     0
100
AcDbLine
 10
215.7427640041
 20
21.4874005542
 30
0.0
 11
171.6327596684
 21
21.4874005542
 31
0.0
  0
LINE
  5
5F
330
1F
100
AcDbEntity
  8
0
  6
Continuous
 62
     7
370
     0
100
AcDbLine
 10
186.1338100705
 20
26.1661402506
 30
0.0
 11
186.1338100705
 21
12.2958890132
 31
0.0
  0
LINE
  5
60
330
1F
100
AcDbEntity
  8
0
  6
Continuous
 62
     7
370
     0
100
AcDbLine
 10
198.2145906188
 20
26.1661402506
 30
0.0
 11
198.2145906188
 21
12.2958890132
 31
0.0
  0
LINE
  5
61
330
1F
100
AcDbEntity
  8
0
  6
Continuous
 62
     7
370
     0
100
AcDbLine
 10
253.7490408369
 20
9.1409200612
 30
0.0
 11
253.7490408369
 21
0.9031642596
 31
0.0
  0
LINE
  5
62
330
1F
100
AcDbEntity
  8
0
  6
Continuous
 62
     7
370
     0
100
AcDbLine
 10
171.6327596684
 20
12.2958890132
 30
0.0
 11
171.6327596684
 21
7.5627342528
 31
0.0
  0
LINE
  5
63
330
1F
100
AcDbEntity
  8
0
  6
Continuous
 62
     7
370
     0
100
AcDbLine
 10
171.6327596684
 20
7.5627342528
 30
0.0
 11
215.7427640041
 21
7.5627342528
 31
0.0
  0
LINE
  5
64
330
1F
100
AcDbEntity
  8
0
  6
Continuous
 62
     7
370
     0
100
AcDbLine
 10
171.6327596684
 20
7.5627342528
 30
0.0
 11
171.6327596684
 21
35.2394508358
 31
0.0
  0
LINE
  5
65
330
1F
100
AcDbEntity
  8
0
  6
Continuous
 62
     7
370
     0
100
AcDbLine
 10
171.6327596684
 20
35.2394508358
 30
0.0
 11
215.7427640041
 21
35.2394508358
 31
0.0
  0
LINE
  5
66
330
1F
100
AcDbEntity
  8
0
  6
Continuous
 62
     7
370
     0
100
AcDbLine
 10
270.1683598194
 20
17.1604579552
 30
0.0
 11
270.1683598194
 21
9.1409200612
 31
0.0
  0
LINE
  5
67
330
1F
100
AcDbEntity
  8
0
  6
Continuous
 62
     7
370
     0
100
AcDbLine
 10
215.7427640041
 20
35.2394508358
 30
0.0
 11
277.9892068491
 21
35.2394508358
 31
0.0
  0
LINE
  5
68
330
1F
100
AcDbEntity
  8
0
  6
Continuous
 62
     7
370
     0
100
AcDbLine
 10
277.9892068491
 20
35.2394508358
 30
0.0
 11
277.9892068491
 21
50.0331356147
 31
0.0
  0
LINE
  5
69
330
1F
100
AcDbEntity
  8
0
  6
Continuous
 62
     7
370
     0
100
AcDbLine
 10
215.7427640041
 20
24.8927335446
 30
0.0
 11
277.9892068491
 21
24.8927335446
 31
0.0
  0
INSERT
  5
6A
330
1F
100
AcDbEntity
  8
0
  6
Continuous
 62
     7
100
AcDbBlockReference
  2
Third Angle Projection Block
 10
117.7262204235
 20
15.5162339489
 30
0.0
 41
0.8
 42
0.8
 43
0.8
  0
MTEXT
  5
6C
330
1F
100
AcDbEntity
  8
0
  6
Continuous
 62
     7
370
     0
100
AcDbMText
 10
273.8657318933
 20
13.1125292762
 30
0.0
 40
3.175
 41
0.0
 71
     2
 72
     1
  1
D
  7
SLDTEXTSTYLE0
 73
     1
 44
1.0
  0
MTEXT
  5
6D
330
1F
100
AcDbEntity
  8
0
  6
Continuous
 62
     7
370
     0
100
AcDbMText
 10
234.5844416461
 20
5.1306563898
 30
0.0
 40
3.175
 41
0.0
 71
     2
 72
     1
  1
CM508-050-P01
  7
SLDTEXTSTYLE0
 73
     1
 44
1.0
  0
MTEXT
  5
6E
330
1F
100
AcDbEntity
  8
0
  6
Continuous
 62
     7
370
     0
100
AcDbMText
 10
216.4199766059
 20
16.8243178599
 30
0.0
 40
2.1166666667
 41
0.0
 71
     1
 72
     1
  1
MATERIAL
  7
SLDTEXTSTYLE0
 73
     1
 44
1.0
  0
MTEXT
  5
6F
330
1F
100
AcDbEntity
  8
0
  6
Continuous
 62
     7
370
     0
100
AcDbMText
 10
174.230946566
 20
20.054553926
 30
0.0
 40
1.8520833333
 41
0.0
 71
     1
 72
     1
  1
DRAWN
  7
SLDTEXTSTYLE0
 73
     1
 44
1.0
  0
MTEXT
  5
70
330
1F
100
AcDbEntity
  8
0
  6
Continuous
 62
     7
370
     0
100
AcDbMText
 10
172.3960124543
 20
15.5787169747
 30
0.0
 40
1.8520833333
 41
0.0
 71
     1
 72
     1
  1
APPROVAL
  7
SLDTEXTSTYLE0
 73
     1
 44
1.0
  0
MTEXT
  5
71
330
1F
100
AcDbEntity
  8
0
  6
Continuous
 62
     7
370
     0
100
AcDbMText
 10
271.321689486
 20
16.0237652193
 30
0.0
 40
2.1166666667
 41
0.0
 71
     1
 72
     1
  1
REV
  7
SLDTEXTSTYLE0
 73
     1
 44
1.0
  0
MTEXT
  5
72
330
1F
100
AcDbEntity
  8
0
  6
Continuous
 62
     7
370
     0
100
AcDbMText
 10
190.2958696448
 20
20.3177146903
 30
0.0
 40
2.1166666667
 41
0.0
 71
     1
 72
     1
  1
BAG
  7
SLDTEXTSTYLE0
 73
     1
 44
1.0
  0
MTEXT
  5
73
330
1F
100
AcDbEntity
  8
0
  6
Continuous
 62
     7
370
     0
100
AcDbMText
 10
199.8662436873
 20
20.3177146903
 30
0.0
 40
2.1166666667
 41
0.0
 71
     1
 72
     1
  1
28/OCT/10
  7
SLDTEXTSTYLE0
 73
     1
 44
1.0
  0
MTEXT
  5
74
330
1F
100
AcDbEntity
  8
0
  6
Continuous
 62
     7
370
     0
100
AcDbMText
 10
203.6145073853
 20
24.8221395769
 30
0.0
 40
2.1166666667
 41
0.0
 71
     1
 72
     1
  1
DATE
  7
SLDTEXTSTYLE0
 73
     1
 44
1.0
  0
MTEXT
  5
76
330
1F
100
AcDbEntity
  8
0
  6
Continuous
 62
     7
370
     0
100
AcDbMText
 10
229.402906477
 20
27.7957480569
 30
0.0
 40
2.1166666667
 41
0.0
 71
     1
 72
     1
  1
w w w . t h o r  l a b s . c o m
  7
SLDTEXTSTYLE1
 73
     1
 44
1.0
  0
MTEXT
  5
77
330
1F
100
AcDbEntity
  8
0
  6
Continuous
 62
     7
370
     0
100
AcDbMText
 10
216.7004035316
 20
8.3494791871
 30
0.0
 40
2.1166666667
 41
0.0
 71
     1
 72
     1
  1
ITEM #
  7
SLDTEXTSTYLE0
 73
     1
 44
1.0
  0
MTEXT
  5
78
330
1F
100
AcDbEntity
  8
0
  6
Continuous
 62
     7
370
     0
100
AcDbMText
 10
254.5318000914
 20
8.3494791871
 30
0.0
 40
2.1166666667
 41
0.0
 71
     1
 72
     1
  1
APPROX WEIGHT
  7
SLDTEXTSTYLE0
 73
     1
 44
1.0
  0
MTEXT
  5
79
330
1F
100
AcDbEntity
  8
0
  6
Continuous
 62
     7
370
     0
100
AcDbMText
 10
243.7058359879
 20
13.1125292762
 30
0.0
 40
3.175
 41
0.0
 71
     2
 72
     1
  1
N-BK7
  7
SLDTEXTSTYLE0
 73
     1
 44
1.0
  0
MTEXT
  5
7A
330
1F
100
AcDbEntity
  8
0
  6
Continuous
 62
     7
370
     0
100
AcDbMText
 10
266.1678480997
 20
5.1306563898
 30
0.0
 40
3.175
 41
0.0
 71
     2
 72
     1
  1
0.05 kg
  7
SLDTEXTSTYLE0
 73
     1
 44
1.0
  0
INSERT
  5
80
330
1F
100
AcDbEntity
  8
0
  6
Continuous
 62
     7
370
     0
100
AcDbBlockReference
  2
SW_NOTE_0
 10
174.8430140051
 20
4.4558554801
 30
0.0
  0
INSERT
  5
86
330
1F
100
AcDbEntity
  8
0
  6
Continuous
 62
     7
370
     0
100
AcDbBlockReference
  2
SW_NOTE_1
 10
174.5483650337
 20
30.4835322715
 30
0.0
  0
MTEXT
  5
87
330
1F
100
AcDbEntity
  8
0
  6
Continuous
 62
     7
370
     0
100
AcDbMText
 10
187.9273588276
 20
24.8221395769
 30
0.0
 40
2.1166666667
 41
0.0
 71
     1
 72
     1
  1
NAME
  7
SLDTEXTSTYLE0
 73
     1
 44
1.0
  0
INSERT
  5
8D
330
1F
100
AcDbEntity
  8
0
  6
Continuous
 62
     7
370
     0
100
AcDbBlockReference
  2
SW_NOTE_2
 10
58.6204667508
 20
8.1776609732
 30
0.0
  0
MTEXT
  5
8E
330
1F
100
AcDbEntity
  8
0
  6
Continuous
 62
     7
370
     0
100
AcDbMText
 10
179.1174811218
 20
10.6680638482
 30
0.0
 40
1.5875
 41
0.0
 71
     1
 72
     1
  1
COPYRIGHT © 2010 BY THORLABS
  7
SLDTEXTSTYLE0
 73
     1
 44
1.0
  0
INSERT
  5
95
330
1F
100
AcDbEntity
  8
0
  6
Continuous
 62
     7
370
     0
100
AcDbBlockReference
  2
SW_NOTE_3
 10
218.9785626079
 20
20.5867261075
 30
0.0
  0
INSERT
  5
BA
330
1F
100
AcDbEntity
  8
0
  6
Continuous
 62
     7
370
     0
100
AcDbBlockReference
  2
SW_NOTE_4
 10
7.0257848731
 20
55.7535067465
 30
0.0
  0
MTEXT
  5
BB
330
1F
100
AcDbEntity
  8
0
  6
Continuous
 62
     7
370
     0
100
AcDbMText
 10
200.6158964269
 20
15.7105733048
 30
0.0
 40
2.1166666667
 41
0.0
 71
     1
 72
     1
  1
03/JUL/13
  7
SLDTEXTSTYLE0
 73
     1
 44
1.0
  0
MTEXT
  5
BC
330
1F
100
AcDbEntity
  8
0
  6
Continuous
 62
     7
370
     0
100
AcDbMText
 10
190.1716057611
 20
15.7105733048
 30
0.0
 40
2.1166666667
 41
0.0
 71
     1
 72
     1
  1
WD
  7
SLDTEXTSTYLE0
 73
     1
 44
1.0
  0
CIRCLE
  5
BD
330
1F
100
AcDbEntity
  8
0
  6
Continuous
 62
     7
370
     0
100
AcDbCircle
 10
58.6679970196
 20
107.6654806202
 30
0.0
 40
25.39999999999999
  0
CIRCLE
  5
BE
330
1F
100
AcDbEntity
  8
0
  6
Continuous
 62
     7
370
     0
100
AcDbCircle
 10
58.6679970196
 20
107.6654806202
 30
0.0
 40
25.20635884701419
  0
DIMENSION
  5
BF
330
1F
100
AcDbEntity
  8
0
  6
Continuous
 62
     7
370
     0
100
AcDbDimension
  2
_D
 10
40.7127176851
 20
125.6312242457
 30
0.0
 11
99.1564140213
 21
79.4504486314
 31
0.0
 70
   163
  1
<>
 71
     1
 42
-1.0
  3
SLDDIMSTYLE0
100
AcDbDiametricDimension
 15
76.6232763541
 25
89.6997369946
 35
0.0
 40
0.0
  0
INSERT
  5
D7
330
1F
100
AcDbEntity
  8
0
  6
Continuous
 62
     7
370
     0
100
AcDbBlockReference
  2
SW_CENTERMARKSYMBOL_0
 10
58.6679970196
 20
107.6654806202
 30
0.0
  0
LINE
  5
D8
330
1F
100
AcDbEntity
  8
0
  6
PHANTOM
 62
     7
370
    30
100
AcDbLine
 10
58.6679970196
 20
139.8721533733
 30
0.0
 11
58.6679970196
 21
75.4560224719
 31
0.0
  0
LINE
  5
D9
330
1F
100
AcDbEntity
  8
0
  6
Continuous
 62
     7
370
    30
100
AcDbLine
 10
58.6679970196
 20
139.8721533733
 30
0.0
 11
49.7779970196
 21
139.8721533733
 31
0.0
  0
SOLID
  5
DA
330
1F
100
AcDbEntity
  8
0
  6
Continuous
 62
     7
370
    30
100
AcDbTrace
 10
49.7779970196
 20
139.8721533733
 30
0.0
 11
53.5879970196
 21
139.2371533733
 31
0.0
 12
53.5879970196
 22
140.5071533733
 32
0.0
 13
53.5879970196
 23
140.5071533733
 33
0.0
  0
LINE
  5
DB
330
1F
100
AcDbEntity
  8
0
  6
Continuous
 62
     7
370
    30
100
AcDbLine
 10
58.6679970196
 20
75.4560224719
 30
0.0
 11
49.7779970196
 21
75.4560224719
 31
0.0
  0
SOLID
  5
DC
330
1F
100
AcDbEntity
  8
0
  6
Continuous
 62
     7
370
    30
100
AcDbTrace
 10
49.7779970196
 20
75.4560224719
 30
0.0
 11
53.5879970196
 21
74.8210224719
 31
0.0
 12
53.5879970196
 22
76.0910224719
 32
0.0
 13
53.5879970196
 23
76.0910224719
 33
0.0
  0
MTEXT
  5
DD
330
1F
100
AcDbEntity
  8
0
  6
Continuous
 62
     7
100
AcDbMText
 10
46.3724629356
 20
141.9734701672
 30
0.0
 40
2.6458333333
 41
0.0
 71
     1
 72
     1
  1
A
  7
SLDTEXTSTYLE0
 73
     1
 44
1.0
  0
MTEXT
  5
DE
330
1F
100
AcDbEntity
  8
0
  6
Continuous
 62
     7
100
AcDbMText
 10
46.3724629356
 20
77.5573392658
 30
0.0
 40
2.6458333333
 41
0.0
 71
     1
 72
     1
  1
A
  7
SLDTEXTSTYLE0
 73
     1
 44
1.0
  0
LINE
  5
DF
330
1F
100
AcDbEntity
  8
0
  6
Continuous
 62
     7
370
     0
100
AcDbLine
 10
216.6989439493
 20
177.1955594442
 30
0.0
 11
216.7207618882
 21
177.1188912982
 31
0.0
  0
LINE
  5
E0
330
1F
100
AcDbEntity
  8
0
  6
Continuous
 62
     7
370
     0
100
AcDbLine
 10
226.7829597628
 20
159.6887647531
 30
0.0
 11
226.8384419849
 21
159.6315305842
 31
0.0
  0
LINE
  5
E1
330
1F
100
AcDbEntity
  8
0
  6
Continuous
 62
     7
370
     0
100
AcDbLine
 10
229.114832927
 20
201.9829805762
 30
0.0
 11
220.7147026491
 21
197.1336885868
 31
0.0
  0
LINE
  5
E2
330
1F
100
AcDbEntity
  8
0
  6
Continuous
 62
     7
370
     0
100
AcDbLine
 10
246.112638458
 20
153.1384063779
 30
0.0
 11
254.5127687359
 21
157.9876983672
 31
0.0
  0
LINE
  5
E3
330
1F
100
AcDbEntity
  8
0
  6
Continuous
 62
     7
370
     0
100
AcDbLine
 10
259.7743130736
 20
169.6169564516
 30
0.0
 11
259.7743130736
 21
169.7802380739
 31
0.0
  0
LINE
  5
E4
330
1F
100
AcDbEntity
  8
0
  6
Continuous
 62
     7
370
     0
100
AcDbLine
 10
241.9581182911
 20
200.6421365857
 30
0.0
 11
241.8167199198
 21
200.7237906658
 31
0.0
  0
LWPOLYLINE
  5
E5
330
1F
100
AcDbEntity
  8
0
  6
Continuous
 62
     7
370
     0
100
AcDbPolyline
 90
       53
 70
   128
 43
0.0
 10
251.3741827957
 20
164.7676644622
 10
251.3611622828
 20
163.9855893493
 10
251.3221196228
 20
163.2196813348
 10
251.2571114236
 20
162.4710509119
 10
251.1662319411
 20
161.7407835233
 10
251.0496129416
 20
161.0299379868
 10
250.9074235118
 20
160.3395449605
 10
250.7398698125
 20
159.6706054483
 10
250.5471947808
 20
159.0240893486
 10
250.3296777769
 20
158.4009340478
 10
250.0876341797
 20
157.8020430616
 10
249.8214149293
 20
157.2282847247
 10
249.5314060181
 20
156.6804909318
 10
249.2180279314
 20
156.1594559315
 10
248.8817350374
 20
155.6659351747
 10
248.5230149287
 20
155.2006442195
 10
248.1423877151
 20
154.7642576932
 10
247.7404052697
 20
154.3574083144
 10
247.3176504286
 20
153.9806859761
 10
246.8747361459
 20
153.6346368894
 10
246.412304605
 20
153.3197627925
 10
245.9310262874
 20
153.0365202228
 10
245.4315990006
 20
152.7853198549
 10
244.9147468666
 20
152.5665259052
 10
244.3812192714
 20
152.3804556042
 10
243.831789779
 20
152.227378736
 10
243.2672550098
 20
152.1075172474
 10
242.6884334851
 20
152.021044926
 10
242.0961644409
 20
151.9680871485
 10
241.4913066105
 20
151.9487206987
 10
240.8747369801
 20
151.9629736559
 10
240.2473495167
 20
152.0108253549
 10
239.6100538721
 20
152.0922064151
 10
238.9637740641
 20
152.2069988418
 10
238.3094471365
 20
152.3550361971
 10
237.648021801
 20
152.5361038408
 10
236.9804570609
 20
152.7499392422
 10
236.3077208214
 20
152.9962323605
 10
235.6307884857
 20
153.2746260941
 10
234.950641541
 20
153.5847167987
 10
234.2682661352
 20
153.9260548725
 10
233.5846516476
 20
154.2981454078
 10
232.9007892537
 20
154.7004489091
 10
232.2176704887
 20
155.1323820746
 10
231.5362858094
 20
155.5933186426
 10
230.8576231585
 20
156.0825902991
 10
230.182666532
 20
156.599487647
 10
229.5123945524
 20
157.1432612346
 10
228.8477790501
 20
157.7131226421
 10
228.1897836539
 20
158.3082456249
 10
227.5393623944
 20
158.9277673117
 10
226.8974583201
 20
159.5707894552
 10
226.8384419849
 20
159.6315305842
  0
LWPOLYLINE
  5
E6
330
1F
100
AcDbEntity
  8
0
  6
Continuous
 62
     7
370
     0
100
AcDbPolyline
 90
       95
 70
   128
 43
0.0
 10
216.6989439493
 20
177.1955594442
 10
216.6156404107
 20
177.4929931824
 10
216.3858184538
 20
178.3694738799
 10
216.1806852547
 20
179.2412664182
 10
216.0005382368
 20
180.1071067816
 10
215.845638596
 20
180.9657395842
 10
215.716210922
 20
181.8159198905
 10
215.6124428726
 20
182.6564150205
 10
215.5344849015
 20
183.4860063365
 10
215.4824500403
 20
184.3034910105
 10
215.4564137347
 20
185.1076837677
 10
215.4564137347
 20
185.8974186056
 10
215.4824500403
 20
186.6715504842
 10
215.5344849015
 20
187.4289569863
 10
215.6124428726
 20
188.1685399447
 10
215.716210922
 20
188.8892270351
 10
215.845638596
 20
189.5899733299
 10
216.0005382368
 20
190.269762814
 10
216.1806852547
 20
190.9276098577
 10
216.3858184538
 20
191.5625606456
 10
216.6156404107
 20
192.1736945598
 10
216.8698179053
 20
192.7601255146
 10
217.1479824046
 20
193.3210032411
 10
217.4497305967
 20
193.8555145203
 10
217.7746249756
 20
194.3628843619
 10
218.1221944755
 20
194.8423771281
 10
218.4919351539
 20
195.2932976002
 10
218.883310922
 20
195.7149919867
 10
219.2957543225
 20
196.1068488711
 10
219.7286673518
 20
196.4683000983
 10
220.1814223274
 20
196.7988215985
 10
220.653362798
 20
197.0979341473
 10
221.1438044949
 20
197.36520406
 10
221.6520363246
 20
197.6002438208
 10
222.1773213995
 20
197.8027126445
 10
222.7188981065
 20
197.9723169707
 10
223.2759812111
 20
198.1088108892
 10
223.8477629961
 20
198.2119964971
 10
224.4334144325
 20
198.281724185
 10
225.0320863817
 20
198.3178928543
 10
225.6429108268
 20
198.3204500642
 10
226.2650021305
 20
198.2893921067
 10
226.8974583201
 20
198.224764013
 10
227.5393623944
 20
198.1266594876
 10
228.1897836539
 20
197.9952207727
 10
228.8477790501
 20
197.830638442
 10
229.5123945524
 20
197.6331511239
 10
230.182666532
 20
197.4030451564
 10
230.8576231585
 20
197.1406541709
 10
231.5362858094
 20
196.8463586094
 10
232.2176704887
 20
196.5205851723
 10
232.9007892537
 20
196.1638062
 10
233.5846516476
 20
195.7765389877
 10
234.2682661352
 20
195.3593450361
 10
234.950641541
 20
194.9128292363
 10
235.6307884857
 20
194.4376389937
 10
236.3077208214
 20
193.9344632886
 10
236.9804570609
 20
193.4040316778
 10
237.648021801
 20
192.8471132363
 10
238.3094471365
 20
192.2645154427
 10
238.9637740641
 20
191.6570830081
 10
239.6100538721
 20
191.0256966513
 10
240.2473495167
 20
190.3712718223
 10
240.8747369801
 20
189.6947573745
 10
241.4913066105
 20
188.9971341892
 10
242.0961644409
 20
188.2794137534
 10
242.6884334851
 20
187.5426366929
 10
243.2672550098
 20
186.7878712642
 10
243.831789779
 20
186.0162118049
 10
244.3812192714
 20
185.2287771475
 10
244.9147468666
 20
184.4267089969
 10
245.4315990006
 20
183.6111702754
 10
245.9310262874
 20
182.783343436
 10
246.412304605
 20
181.9444287486
 10
246.8747361459
 20
181.0956425593
 10
247.3176504286
 20
180.2382155268
 10
247.7404052697
 20
179.3733908384
 10
248.1423877151
 20
178.5024224073
 10
248.5230149287
 20
177.6265730543
 10
248.8817350374
 20
176.7471126774
 10
249.2180279314
 20
175.8653164099
 10
249.5314060181
 20
174.9824627723
 10
249.8214149293
 20
174.0998318177
 10
250.0876341797
 20
173.2187032768
 10
250.3296777769
 20
172.3403547018
 10
250.5471947808
 20
171.4660596139
 10
250.7398698125
 20
170.5970856577
 10
250.9074235118
 20
169.7346927621
 10
251.0496129416
 20
168.8801313146
 10
251.1662319411
 20
168.0346403474
 10
251.2571114236
 20
167.1994457416
 10
251.3221196228
 20
166.3757584496
 10
251.3611622828
 20
165.5647727392
 10
251.3741827957
 20
164.7676644622
 10
251.3741827957
 20
164.7676644622
  0
LWPOLYLINE
  5
E7
330
1F
100
AcDbEntity
  8
0
  6
Continuous
 62
     7
370
     0
100
AcDbPolyline
 90
      165
 70
   128
 43
0.0
 10
251.1316482452
 20
164.7857424546
 10
251.1185689591
 20
165.581640624
 10
251.0793502966
 20
166.3914717255
 10
251.0140498163
 20
167.2140472201
 10
250.9227633557
 20
168.0481598648
 10
250.8056248904
 20
168.8925854844
 10
250.6628063371
 20
169.7460847678
 10
250.4945173018
 20
170.6074050872
 10
250.3010047719
 20
171.475282336
 10
250.0825527537
 20
172.3484427849
 10
249.8394818556
 20
173.2256049505
 10
249.5721488177
 20
174.1054814763
 10
249.2809459881
 20
174.9867810221
 10
248.9663007471
 20
175.8682101594
 10
248.62867488
 20
176.7484752694
 10
248.2685638994
 20
177.6262844416
 10
247.8864963176
 20
178.5003493701
 10
247.4830328716
 20
179.3693872439
 10
247.0587656997
 20
180.2321226302
 10
246.6143174724
 20
181.0872893459
 10
246.1503404788
 20
181.9336323158
 10
245.667515669
 20
182.769909415
 10
245.1665516552
 20
183.5948932914
 10
244.648183671
 20
184.4073731675
 10
244.113172493
 20
185.206156617
 10
243.5623033238
 20
185.9900713151
 10
242.9963846399
 20
186.7579667588
 10
242.4162470051
 20
187.5087159556
 10
241.8227418512
 20
188.2412170777
 10
241.216740229
 20
188.9543950786
 10
240.5991315294
 20
189.6472032712
 10
239.9708221784
 20
190.3186248639
 10
239.3327343064
 20
190.9676744531
 10
238.6858043956
 20
191.5933994688
 10
238.0309819048
 20
192.1948815735
 10
237.3692278761
 20
192.7712380091
 10
236.7015135251
 20
193.3216228931
 10
236.0288188144
 20
193.8452284598
 10
235.3521310165
 20
194.3412862457
 10
234.6724432638
 20
194.8090682178
 10
233.9907530921
 20
195.2478878414
 10
233.3080609755
 20
195.6571010883
 10
232.6253688589
 20
196.0361073815
 10
231.9436786871
 20
196.3843504771
 10
231.2639909345
 20
196.7013192803
 10
230.5873031365
 20
196.9865485957
 10
229.9146084259
 20
197.2396198099
 10
229.2468940748
 20
197.460161506
 10
228.5851400462
 20
197.6478500087
 10
227.9303175553
 20
197.8024098592
 10
227.2833876445
 20
197.9236142197
 10
226.6452997726
 20
198.0112852059
 10
226.0169904215
 20
198.0652941486
 10
225.3993817219
 20
198.0855617823
 10
224.7933800997
 20
198.0720583615
 10
224.1998749459
 20
198.0248037042
 10
223.619737311
 20
197.9438671632
 10
223.0538186272
 20
197.8293675239
 10
222.502949458
 20
197.6814728306
 10
221.96793828
 20
197.5004001388
 10
221.4495702958
 20
197.286415198
 10
220.9486062819
 20
197.0398320603
 10
220.4657814722
 20
196.7610126207
 10
220.0018044786
 20
196.450366085
 10
219.5573562513
 20
196.1083483699
 10
219.1330890793
 20
195.7354614335
 10
218.7296256334
 20
195.332252539
 10
218.3475580516
 20
194.8993134508
 10
217.9874470709
 20
194.4372795668
 10
217.6498212038
 20
193.9468289856
 10
217.3351759628
 20
193.4286815108
 10
217.0439731333
 20
192.8835975954
 10
216.7766400954
 20
192.3123772253
 10
216.5335691973
 20
191.715858745
 10
216.315117179
 20
191.0949176277
 10
216.1216046491
 20
190.4504651902
 10
215.9533156138
 20
189.7834472551
 10
215.8104970606
 20
189.0948427634
 10
215.6933585953
 20
188.3856623371
 10
215.6020721347
 20
187.6569467963
 10
215.5367716544
 20
186.9097656314
 10
215.4975529918
 20
186.145215434
 10
215.4844737057
 20
185.3644182868
 10
215.4975529918
 20
184.5685201173
 10
215.5367716544
 20
183.7586890158
 10
215.6020721347
 20
182.9361135212
 10
215.6933585953
 20
182.1020008765
 10
215.8104970606
 20
181.2575752569
 10
215.9533156138
 20
180.4040759735
 10
216.1216046491
 20
179.5427556542
 10
216.315117179
 20
178.6748784053
 10
216.5335691973
 20
177.8017179564
 10
216.7766400954
 20
176.9245557908
 10
217.0439731333
 20
176.0446792651
 10
217.3351759628
 20
175.1633797192
 10
217.6498212038
 20
174.2819505819
 10
217.9874470709
 20
173.4016854719
 10
218.3475580516
 20
172.5238762997
 10
218.7296256334
 20
171.6498113712
 10
219.1330890793
 20
170.7807734974
 10
219.5573562513
 20
169.9180381111
 10
220.0018044786
 20
169.0628713954
 10
220.4657814722
 20
168.2165284255
 10
220.9486062819
 20
167.3802513263
 10
221.4495702958
 20
166.5552674499
 10
221.96793828
 20
165.7427875738
 10
222.502949458
 20
164.9440041243
 10
223.0538186272
 20
164.1600894262
 10
223.619737311
 20
163.3921939825
 10
224.1998749459
 20
162.6414447857
 10
224.7933800997
 20
161.9089436636
 10
225.3993817219
 20
161.1957656628
 10
226.0169904215
 20
160.5029574702
 10
226.6452997726
 20
159.8315358774
 10
227.2833876445
 20
159.1824862883
 10
227.9303175553
 20
158.5567612725
 10
228.5851400462
 20
157.9552791678
 10
229.2468940748
 20
157.3789227322
 10
229.9146084259
 20
156.8285378482
 10
230.5873031365
 20
156.3049322816
 10
231.2639909345
 20
155.8088744956
 10
231.9436786871
 20
155.3410925235
 10
232.6253688589
 20
154.9022728999
 10
233.3080609755
 20
154.493059653
 10
233.9907530921
 20
154.1140533598
 10
234.6724432638
 20
153.7658102642
 10
235.3521310165
 20
153.448841461
 10
236.0288188144
 20
153.1636121456
 10
236.7015135251
 20
152.9105409314
 10
237.3692278761
 20
152.6899992353
 10
238.0309819048
 20
152.5023107326
 10
238.6858043956
 20
152.3477508821
 10
239.3327343064
 20
152.2265465217
 10
239.9708221784
 20
152.1388755355
 10
240.5991315294
 20
152.0848665927
 10
241.216740229
 20
152.064598959
 10
241.8227418512
 20
152.0781023798
 10
242.4162470051
 20
152.1253570371
 10
242.9963846399
 20
152.2062935782
 10
243.5623033238
 20
152.3207932174
 10
244.113172493
 20
152.4686879108
 10
244.648183671
 20
152.6497606025
 10
245.1665516552
 20
152.8637455434
 10
245.667515669
 20
153.110328681
 10
246.1503404788
 20
153.3891481207
 10
246.6143174724
 20
153.6997946564
 10
247.0587656997
 20
154.0418123715
 10
247.4830328716
 20
154.4146993078
 10
247.8864963176
 20
154.8179082024
 10
248.2685638994
 20
155.2508472905
 10
248.62867488
 20
155.7128811745
 10
248.9663007471
 20
156.2033317558
 10
249.2809459881
 20
156.7214792305
 10
249.5721488177
 20
157.2665631459
 10
249.8394818556
 20
157.837783516
 10
250.0825527537
 20
158.4343019963
 10
250.3010047719
 20
159.0552431136
 10
250.4945173018
 20
159.6996955512
 10
250.6628063371
 20
160.3667134862
 10
250.8056248904
 20
161.0553179779
 10
250.9227633557
 20
161.7644984042
 10
251.0140498163
 20
162.493213945
 10
251.0793502966
 20
163.2403951099
 10
251.1185689591
 20
164.0049453073
 10
251.1316482452
 20
164.7857424546
  0
LWPOLYLINE
  5
E8
330
1F
100
AcDbEntity
  8
0
  6
Continuous
 62
     7
370
     0
100
AcDbPolyline
 90
       85
 70
   128
 43
0.0
 10
254.5127687359
 20
157.9876983672
 10
254.574108587
 20
158.0234528067
 10
255.0460490576
 20
158.3225653555
 10
255.4988040332
 20
158.6530868558
 10
255.9317170625
 20
159.014538083
 10
256.344160463
 20
159.4063949673
 10
256.7355362311
 20
159.8280893539
 10
257.1052769095
 20
160.279009826
 10
257.4528464093
 20
160.7585025922
 10
257.7777407883
 20
161.2658724338
 10
258.0794889804
 20
161.8003837129
 10
258.3576534797
 20
162.3612614394
 10
258.6118309743
 20
162.9476923942
 10
258.8416529311
 20
163.5588263085
 10
259.0467861303
 20
164.1937770964
 10
259.2269331482
 20
164.8516241401
 10
259.381832789
 20
165.5314136242
 10
259.511260463
 20
166.232159919
 10
259.6150285124
 20
166.9528470093
 10
259.6929864835
 20
167.6924299678
 10
259.7450213447
 20
168.4498364698
 10
259.7710576503
 20
169.2239683484
 10
259.7710576503
 20
170.0137031863
 10
259.7450213447
 20
170.8178959436
 10
259.6929864835
 20
171.6353806175
 10
259.6150285124
 20
172.4649719335
 10
259.511260463
 20
173.3054670635
 10
259.381832789
 20
174.1556473699
 10
259.2269331482
 20
175.0142801725
 10
259.0467861303
 20
175.8801205359
 10
258.8416529311
 20
176.7519130742
 10
258.6118309743
 20
177.6283937717
 10
258.3576534797
 20
178.5082918151
 10
258.0794889804
 20
179.3903314365
 10
257.7777407883
 20
180.2732337626
 10
257.4528464093
 20
181.1557186695
 10
257.1052769095
 20
182.0365066384
 10
256.7355362311
 20
182.9143206111
 10
256.344160463
 20
183.7878878411
 10
255.9317170625
 20
184.6559417395
 10
255.4988040332
 20
185.5172237111
 10
255.0460490576
 20
186.3704849795
 10
254.574108587
 20
187.2144883973
 10
254.0836668901
 20
188.0480102402
 10
253.5754350604
 20
188.8698419813
 10
253.0501499855
 20
189.6787920432
 10
252.5085732785
 20
190.4736875256
 10
251.9514901739
 20
191.2533759059
 10
251.3797083889
 20
192.0167267107
 10
250.7940569525
 20
192.7626331542
 10
250.1953850032
 20
193.4900137433
 10
249.5845605582
 20
194.1978138458
 10
248.9624692545
 20
194.8850072192
 10
248.3300130649
 20
195.5505974988
 10
247.6881089906
 20
196.1936196424
 10
247.0376877311
 20
196.8131413291
 10
246.3796923349
 20
197.408264312
 10
245.7150768326
 20
197.9781257195
 10
245.044804853
 20
198.521899307
 10
244.3698482265
 20
199.0387966549
 10
243.6911855756
 20
199.5280683114
 10
243.0098008963
 20
199.9890048794
 10
242.3266821313
 20
200.420938045
 10
241.6428197374
 20
200.8232415462
 10
240.9592052498
 20
201.1953320816
 10
240.276829844
 20
201.5366701554
 10
239.5966828993
 20
201.84676086
 10
238.9197505636
 20
202.1251545936
 10
238.2470143241
 20
202.3714477118
 10
237.579449584
 20
202.5852831133
 10
236.9180242485
 20
202.766350757
 10
236.2636973209
 20
202.9143881122
 10
235.6174175129
 20
203.029180539
 10
234.9801218683
 20
203.1105615992
 10
234.3527344049
 20
203.1584132981
 10
233.7361647745
 20
203.1726662554
 10
233.1313069441
 20
203.1532998055
 10
232.5390378999
 20
203.1003420281
 10
231.9602163752
 20
203.0138697067
 10
231.3956816059
 20
202.8940082181
 10
230.8462521136
 20
202.7409313498
 10
230.3127245184
 20
202.5548610488
 10
229.7958723843
 20
202.3360670992
 10
229.2964450976
 20
202.0848667313
 10
229.114832927
 20
201.9829805762
  0
ARC
  5
E9
330
1F
100
AcDbEntity
  8
0
  6
Continuous
 62
     7
370
     0
100
AcDbCircle
 10
221.1179664648
 20
168.0378886005
 30
0.0
 40
38.69559296387332
100
AcDbArc
 50
2.5807340673
 51
57.4138894
  0
SPLINE
  5
EA
330
1F
100
AcDbEntity
  8
0
  6
Continuous
 62
     7
370
     0
100
AcDbSpline
210
0.0
220
0.0
230
1.0
 70
     8
 71
     3
 72
    15
 73
    11
 74
     0
 42
0.00000001
 43
0.00000001
 12
1.0
 22
0.0
 32
0.0
 13
1.0
 23
0.0
 33
0.0
 40
0.0
 40
0.0
 40
0.0
 40
0.0
 40
0.0763829976036969
 40
0.1659855054655332
 40
0.2707148802617357
 40
0.3888240826834133
 40
0.5206018700426673
 40
0.6660294782576531
 40
0.8252434598020228
 40
1.0
 40
1.0
 40
1.0
 40
1.0
 10
223.4784289451279
 20
106.853942445534
 30
0.0
 10
223.4725436305142
 20
106.8553815349993
 30
0.0
 10
223.4597544372169
 20
106.8585087753512
 30
0.0
 10
223.4385692386536
 20
106.8620582402883
 30
0.0
 10
223.4140167097013
 20
106.8654192683012
 30
0.0
 10
223.3859771690512
 20
106.8676491539514
 30
0.0
 10
223.3547063303002
 20
106.8698637141338
 30
0.0
 10
223.3201085945882
 20
106.8708845712171
 30
0.0
 10
223.2821051491738
 20
106.8717663006719
 30
0.0
 10
223.2556225148066
 20
106.8719541100738
 30
0.0
 10
223.2417649637473
 20
106.8720523849788
 30
0.0
  0
SPLINE
  5
EB
330
1F
100
AcDbEntity
  8
0
  6
Continuous
 62
     7
370
     0
100
AcDbSpline
210
0.0
220
0.0
230
1.0
 70
     8
 71
     3
 72
    15
 73
    11
 74
     0
 42
0.00000001
 43
0.00000001
 12
1.0
 22
0.0
 32
0.0
 13
1.0
 23
0.0
 33
0.0
 40
0.0
 40
0.0
 40
0.0
 40
0.0
 40
0.1428946013811191
 40
0.2768798469236296
 40
0.4054067255101085
 40
0.5318333729300085
 40
0.6542249868698854
 40
0.7698109407908951
 40
0.8841096717431476
 40
0.9999999999999999
 40
0.9999999999999999
 40
0.9999999999999999
 40
0.9999999999999999
 10
223.6994525242608
 20
106.510265185616
 30
0.0
 10
223.6988387363849
 20
106.5311810513245
 30
0.0
 10
223.6976494297808
 20
106.5717086964535
 30
0.0
 10
223.6856668696321
 20
106.6300267297749
 30
0.0
 10
223.6668807467833
 20
106.68391362657
 30
0.0
 10
223.6399845472764
 20
106.7323491381165
 30
0.0
 10
223.6074323224828
 20
106.7748399822732
 30
0.0
 10
223.5691678721373
 20
106.8096044869826
 30
0.0
 10
223.5264179650649
 20
106.8373974272938
 30
0.0
 10
223.494498851267
 20
106.8484020762883
 30
0.0
 10
223.4784289451279
 20
106.853942445534
 30
0.0
  0
SPLINE
  5
EC
330
1F
100
AcDbEntity
  8
0
  6
Continuous
 62
     7
370
     0
100
AcDbSpline
210
0.0
220
0.0
230
1.0
 70
     8
 71
     3
 72
    23
 73
    19
 74
     0
 42
0.00000001
 43
0.00000001
 12
1.0
 22
0.0
 32
0.0
 13
1.0
 23
0.0
 33
0.0
 40
0.0
 40
0.0
 40
0.0
 40
0.0
 40
0.0877310226443747
 40
0.169005684660542
 40
0.2448021443962134
 40
0.3142317617715646
 40
0.3789415805204463
 40
0.439171854935432
 40
0.4957867026411701
 40
0.5494347689706728
 40
0.6020003354234685
 40
0.6542545252912737
 40
0.7069046930323722
 40
0.7612021463875933
 40
0.8168623067330519
 40
0.8746699957507752
 40
0.9360077445631972
 40
0.9999999999999999
 40
0.9999999999999999
 40
0.9999999999999999
 40
0.9999999999999999
 10
223.2467040381414
 20
106.1344839421369
 30
0.0
 10
223.2664686709002
 20
106.134814414306
 30
0.0
 10
223.3045434042248
 20
106.1354510383134
 30
0.0
 10
223.3595596573642
 20
106.1398937464494
 30
0.0
 10
223.4100510021717
 20
106.1475838694545
 30
0.0
 10
223.4561574971455
 20
106.1583093395925
 30
0.0
 10
223.4979378508392
 20
106.1716407911173
 30
0.0
 10
223.5353173095681
 20
106.1885014078714
 30
0.0
 10
223.5681031191893
 20
106.2087266757355
 30
0.0
 10
223.5965125266718
 20
106.2321104974281
 30
0.0
 10
223.6208987969223
 20
106.258306082697
 30
0.0
 10
223.6420289203707
 20
106.286884020379
 30
0.0
 10
223.6599822154122
 20
106.3180485322521
 30
0.0
 10
223.6740554771495
 20
106.3519300078282
 30
0.0
 10
223.6859774701238
 20
106.3878693864785
 30
0.0
 10
223.6934189460471
 20
106.4266113344632
 30
0.0
 10
223.6985929808744
 20
106.4675940366369
 30
0.0
 10
223.6991619925503
 20
106.495842037119
 30
0.0
 10
223.6994525242608
 20
106.510265185616
 30
0.0
  0
LINE
  5
ED
330
1F
100
AcDbEntity
  8
0
  6
Continuous
 62
     7
370
     0
100
AcDbLine
 10
222.7511502406
 20
106.1344839421
 30
0.0
 11
223.2467040381
 21
106.1344839421
 31
0.0
  0
LINE
  5
EE
330
1F
100
AcDbEntity
  8
0
  6
Continuous
 62
     7
370
     0
100
AcDbLine
 10
222.7511502406
 20
106.872052385
 30
0.0
 11
222.7511502406
 21
106.1344839421
 31
0.0
  0
LINE
  5
EF
330
1F
100
AcDbEntity
  8
0
  6
Continuous
 62
     7
370
     0
100
AcDbLine
 10
223.2417649637
 20
106.872052385
 30
0.0
 11
222.7511502406
 21
106.872052385
 31
0.0
  0
SPLINE
  5
F0
330
1F
100
AcDbEntity
  8
0
  6
Continuous
 62
     7
370
     0
100
AcDbSpline
210
0.0
220
0.0
230
1.0
 70
     8
 71
     3
 72
    15
 73
    11
 74
     0
 42
0.00000001
 43
0.00000001
 12
1.0
 22
0.0
 32
0.0
 13
1.0
 23
0.0
 33
0.0
 40
0.0
 40
0.0
 40
0.0
 40
0.0
 40
0.1426572507006123
 40
0.2811689939054435
 40
0.416977192367973
 40
0.5508524927475571
 40
0.6783641702618121
 40
0.795032443007094
 40
0.9019981783473521
 40
1.0
 40
1.0
 40
1.0
 40
1.0
 10
226.0175247731924
 20
106.5954642189131
 30
0.0
 10
226.0504411691116
 20
106.6124162287115
 30
0.0
 10
226.1153174363756
 20
106.6458276362376
 30
0.0
 10
226.2069735732372
 20
106.7035337301052
 30
0.0
 10
226.2925444365667
 20
106.7660895113723
 30
0.0
 10
226.3706134897987
 20
106.8334811301724
 30
0.0
 10
226.4405974213583
 20
106.9023674621957
 30
0.0
 10
226.4995738967737
 20
106.9718764770261
 30
0.0
 10
226.5489216584935
 20
107.0394602744402
 30
0.0
 10
226.5736803653967
 20
107.0865924781382
 30
0.0
 10
226.5855183285059
 20
107.1091279558922
 30
0.0
  0
LINE
  5
F1
330
1F
100
AcDbEntity
  8
0
  6
Continuous
 62
     7
370
     0
100
AcDbLine
 10
226.0175247732
 20
106.3526263945
 30
0.0
 11
226.0175247732
 21
106.5954642189
 31
0.0
  0
SPLINE
  5
F2
330
1F
100
AcDbEntity
  8
0
  6
Continuous
 62
     7
370
     0
100
AcDbSpline
210
0.0
220
0.0
230
1.0
 70
     8
 71
     3
 72
    15
 73
    11
 74
     0
 42
0.00000001
 43
0.00000001
 12
1.0
 22
0.0
 32
0.0
 13
1.0
 23
0.0
 33
0.0
 40
0.0
 40
0.0
 40
0.0
 40
0.0
 40
0.111670300101588
 40
0.2320944808560198
 40
0.3627434591045547
 40
0.5025575097108851
 40
0.6415251033312812
 40
0.7710984952996689
 40
0.8901617573732539
 40
1.0
 40
1.0
 40
1.0
 40
1.0
 10
226.4916759150194
 20
106.6555562907071
 30
0.0
 10
226.4765083235212
 20
106.6409290148071
 30
0.0
 10
226.4449841468026
 20
106.6105278248465
 30
0.0
 10
226.3916958563195
 20
106.567502549588
 30
0.0
 10
226.3322193139664
 20
106.5238946093387
 30
0.0
 10
226.2673268604909
 20
106.48196069964
 30
0.0
 10
226.201179981893
 20
106.4424844458637
 30
0.0
 10
226.1372575399051
 20
106.4069816247139
 30
0.0
 10
226.0766267469212
 20
106.3769376240297
 30
0.0
 10
226.0366889161115
 20
106.360509445597
 30
0.0
 10
226.0175247731924
 20
106.3526263945399
 30
0.0
  0
LINE
  5
F3
330
1F
100
AcDbEntity
  8
0
  6
Continuous
 62
     7
370
     0
100
AcDbLine
 10
226.491675915
 20
105.054473008
 30
0.0
 11
226.491675915
 21
106.6555562907
 31
0.0
  0
LINE
  5
F4
330
1F
100
AcDbEntity
  8
0
  6
Continuous
 62
     7
370
     0
100
AcDbLine
 10
226.755093216
 20
105.054473008
 30
0.0
 11
226.491675915
 21
105.054473008
 31
0.0
  0
LINE
  5
F5
330
1F
100
AcDbEntity
  8
0
  6
Continuous
 62
     7
370
     0
100
AcDbLine
 10
226.755093216
 20
107.1091279559
 30
0.0
 11
226.755093216
 21
105.054473008
 31
0.0
  0
LINE
  5
F6
330
1F
100
AcDbEntity
  8
0
  6
Continuous
 62
     7
370
     0
100
AcDbLine
 10
226.5855183285
 20
107.1091279559
 30
0.0
 11
226.755093216
 21
107.1091279559
 31
0.0
  0
LINE
  5
F7
330
1F
100
AcDbEntity
  8
0
  6
Continuous
 62
     7
370
     0
100
AcDbLine
 10
223.2545242393
 20
105.8974083712
 30
0.0
 11
222.7511502406
 21
105.8974083712
 31
0.0
  0
SPLINE
  5
F8
330
1F
100
AcDbEntity
  8
0
  6
Continuous
 62
     7
370
     0
100
AcDbSpline
210
0.0
220
0.0
230
1.0
 70
     8
 71
     3
 72
    23
 73
    19
 74
     0
 42
0.00000001
 43
0.00000001
 12
1.0
 22
0.0
 32
0.0
 13
1.0
 23
0.0
 33
0.0
 40
0.0
 40
0.0
 40
0.0
 40
0.0
 40
0.058048068659147
 40
0.1142127550191541
 40
0.1688916471752764
 40
0.2226262701242397
 40
0.2756512298918107
 40
0.3287250271459033
 40
0.3816587912372605
 40
0.4359534350342106
 40
0.4912638558489658
 40
0.548992591180569
 40
0.6104165486580292
 40
0.6762479649809728
 40
0.7474094740183921
 40
0.8248664857445538
 40
0.9090259917114393
 40
1.0
 40
1.0
 40
1.0
 40
1.0
 10
223.9892115553773
 20
106.5184969762727
 30
0.0
 10
223.9887578509432
 20
106.4972080987733
 30
0.0
 10
223.9878651626148
 20
106.4553210660668
 30
0.0
 10
223.9801997895122
 20
106.3937829699154
 30
0.0
 10
223.9681098389306
 20
106.3345808193482
 30
0.0
 10
223.9500760381266
 20
106.2781197438712
 30
0.0
 10
223.9280292321993
 20
106.2237396580431
 30
0.0
 10
223.9002451623628
 20
106.1723576949695
 30
0.0
 10
223.8678012077565
 20
106.123276130947
 30
0.0
 10
223.8305779233508
 20
106.0766285211942
 30
0.0
 10
223.786755779542
 20
106.0333614519923
 30
0.0
 10
223.7340323533284
 20
105.9966578500712
 30
0.0
 10
223.6734241574173
 20
105.9658371420162
 30
0.0
 10
223.6049170561101
 20
105.940934343242
 30
0.0
 10
223.5286773518883
 20
105.9213398535009
 30
0.0
 10
223.4444552428336
 20
105.9069832495573
 30
0.0
 10
223.3520866619715
 20
105.8990572094091
 30
0.0
 10
223.2878778422265
 20
105.8979720584779
 30
0.0
 10
223.2545242392652
 20
105.8974083712234
 30
0.0
  0
SPLINE
  5
F9
330
1F
100
AcDbEntity
  8
0
  6
Continuous
 62
     7
370
     0
100
AcDbSpline
210
0.0
220
0.0
230
1.0
 70
     8
 71
     3
 72
    19
 73
    15
 74
     0
 42
0.00000001
 43
0.00000001
 12
1.0
 22
0.0
 32
0.0
 13
1.0
 23
0.0
 33
0.0
 40
0.0
 40
0.0
 40
0.0
 40
0.0
 40
0.0892424937815279
 40
0.1729768290722685
 40
0.2526551372368087
 40
0.3289533944009836
 40
0.4046880824662921
 40
0.4814988935669583
 40
0.5618700905962241
 40
0.6456290048367237
 40
0.7322912491886802
 40
0.8191788448148045
 40
0.908074685965368
 40
0.9999999999999999
 40
0.9999999999999999
 40
0.9999999999999999
 40
0.9999999999999999
 10
223.52082266701
 20
107.0897832478489
 30
0.0
 10
223.5445455567122
 20
107.0852177246947
 30
0.0
 10
223.5905271296515
 20
107.0763684681935
 30
0.0
 10
223.6556299099285
 20
107.0550348303489
 30
0.0
 10
223.7149423141215
 20
107.0284867465954
 30
0.0
 10
223.7683716482906
 20
106.9954105736438
 30
0.0
 10
223.8168055387727
 20
106.9565541609068
 30
0.0
 10
223.8595537473626
 20
106.9099950571326
 30
0.0
 10
223.8974468078372
 20
106.8567728450877
 30
0.0
 10
223.9296674842982
 20
106.7969291680305
 30
0.0
 10
223.9564862605601
 20
106.7325373971821
 30
0.0
 10
223.9752702360483
 20
106.6639378805183
 30
0.0
 10
223.9873014061804
 20
106.5923224412573
 30
0.0
 10
223.9885677667875
 20
106.5433787981048
 30
0.0
 10
223.9892115553773
 20
106.5184969762727
 30
0.0
  0
SPLINE
  5
FA
330
1F
100
AcDbEntity
  8
0
  6
Continuous
 62
     7
370
     0
100
AcDbSpline
210
0.0
220
0.0
230
1.0
 70
     8
 71
     3
 72
    11
 73
     7
 74
     0
 42
0.00000001
 43
0.00000001
 12
1.0
 22
0.0
 32
0.0
 13
1.0
 23
0.0
 33
0.0
 40
0.0
 40
0.0
 40
0.0
 40
0.0
 40
0.3071626301099397
 40
0.576852859909682
 40
0.8066330493509283
 40
1.0
 40
1.0
 40
1.0
 40
1.0
 10
223.2162464127115
 20
107.1091279558922
 30
0.0
 10
223.2475345524677
 20
107.1089497048003
 30
0.0
 10
223.3062938256682
 20
107.1086149484137
 30
0.0
 10
223.3883503957587
 20
107.1046945206974
 30
0.0
 10
223.4588137051307
 20
107.0998443026799
 30
0.0
 10
223.5013738270701
 20
107.092938853734
 30
0.0
 10
223.52082266701
 20
107.0897832478489
 30
0.0
  0
LINE
  5
FB
330
1F
100
AcDbEntity
  8
0
  6
Continuous
 62
     7
370
     0
100
AcDbLine
 10
222.4613912095
 20
107.1091279559
 30
0.0
 11
223.2162464127
 21
107.1091279559
 31
0.0
  0
LINE
  5
FC
330
1F
100
AcDbEntity
  8
0
  6
Continuous
 62
     7
370
     0
100
AcDbLine
 10
222.4613912095
 20
105.054473008
 30
0.0
 11
222.4613912095
 21
107.1091279559
 31
0.0
  0
LINE
  5
FD
330
1F
100
AcDbEntity
  8
0
  6
Continuous
 62
     7
370
     0
100
AcDbLine
 10
222.7511502406
 20
105.054473008
 30
0.0
 11
222.4613912095
 21
105.054473008
 31
0.0
  0
LINE
  5
FE
330
1F
100
AcDbEntity
  8
0
  6
Continuous
 62
     7
370
     0
100
AcDbLine
 10
222.7511502406
 20
105.8974083712
 30
0.0
 11
222.7511502406
 21
105.054473008
 31
0.0
  0
SPLINE
  5
FF
330
1F
100
AcDbEntity
  8
0
  6
Continuous
 62
     7
370
     0
100
AcDbSpline
210
0.0
220
0.0
230
1.0
 70
     8
 71
     3
 72
    31
 73
    27
 74
     0
 42
0.00000001
 43
0.00000001
 12
1.0
 22
0.0
 32
0.0
 13
1.0
 23
0.0
 33
0.0
 40
0.0
 40
0.0
 40
0.0
 40
0.0
 40
0.0628739462114324
 40
0.1228366299919128
 40
0.1796565674430314
 40
0.2339600122308621
 40
0.2855950186955589
 40
0.3345131060783806
 40
0.3809048259061763
 40
0.4248945919393346
 40
0.4665290347654872
 40
0.5064882940692463
 40
0.5450315536447542
 40
0.5818311798231344
 40
0.617448279949443
 40
0.6520669127690463
 40
0.6858797142465102
 40
0.7191745547913923
 40
0.7521816462063928
 40
0.7852401639180908
 40
0.8186564497770833
 40
0.8525477406533113
 40
0.8876263422585189
 40
0.923635078068751
 40
0.9610218444769891
 40
1.0
 40
1.0
 40
1.0
 40
1.0
 10
221.1443047044157
 20
106.0678064378175
 30
0.0
 10
221.1440343401797
 20
106.0385814544745
 30
0.0
 10
221.1435061304264
 20
105.9814846968868
 30
0.0
 10
221.14036841415
 20
105.8980125860081
 30
0.0
 10
221.1344001946731
 20
105.8187047167254
 30
0.0
 10
221.1270561915673
 20
105.743379417785
 30
0.0
 10
221.1159462531509
 20
105.672237772283
 30
0.0
 10
221.1039746925606
 20
105.6049775181893
 30
0.0
 10
221.0891688292353
 20
105.5419040762931
 30
0.0
 10
221.0718938627863
 20
105.4829898031301
 30
0.0
 10
221.0524383278463
 20
105.4279231812404
 30
0.0
 10
221.0311023232053
 20
105.3762880477072
 30
0.0
 10
221.0074706494018
 20
105.3281196854677
 30
0.0
 10
220.9808399385704
 20
105.2838879045677
 30
0.0
 10
220.9524286663714
 20
105.2430056021696
 30
0.0
 10
220.9220287504428
 20
105.2053194195669
 30
0.0
 10
220.8889956769774
 20
105.1713717698581
 30
0.0
 10
220.8533628248048
 20
105.1413531974406
 30
0.0
 10
220.8158525544836
 20
105.1143126938863
 30
0.0
 10
220.7757186971182
 20
105.0911602128237
 30
0.0
 10
220.7331369123471
 20
105.0719787844028
 30
0.0
 10
220.688391705471
 20
105.0555796160646
 30
0.0
 10
220.6410290718139
 20
105.043563267368
 30
0.0
 10
220.5914225086971
 20
105.0343649402094
 30
0.0
 10
220.5393892393189
 20
105.0289482990614
 30
0.0
 10
220.5038840153242
 20
105.0284073757519
 30
0.0
 10
220.4857614518783
 20
105.0281312778741
 30
0.0
  0
SPLINE
  5
100
330
1F
100
AcDbEntity
  8
0
  6
Continuous
 62
     7
370
     0
100
AcDbSpline
210
0.0
220
0.0
230
1.0
 70
     8
 71
     3
 72
    27
 73
    23
 74
     0
 42
0.00000001
 43
0.00000001
 12
1.0
 22
0.0
 32
0.0
 13
1.0
 23
0.0
 33
0.0
 40
0.0
 40
0.0
 40
0.0
 40
0.0
 40
0.0567243372181508
 40
0.1114372357370108
 40
0.1643678222229016
 40
0.2164353724620903
 40
0.2676414903219249
 40
0.3173597799690282
 40
0.3674730633322807
 40
0.4182103970528084
 40
0.4714042826470199
 40
0.5279657201290494
 40
0.5880611158232139
 40
0.6521342629937146
 40
0.6863448363353056
 40
0.7232636803169653
 40
0.762610250771542
 40
0.8047389366452182
 40
0.84943033879095
 40
0.8967112583864923
 40
0.9468896380534765
 40
1.0
 40
1.0
 40
1.0
 40
1.0
 10
220.4857614518783
 20
107.1091279558922
 30
0.0
 10
220.5121486409877
 20
107.1083521912074
 30
0.0
 10
220.5639873324105
 20
107.1068281703674
 30
0.0
 10
220.6396720895884
 20
107.094398532942
 30
0.0
 10
220.7110000952337
 20
107.0731357224345
 30
0.0
 10
220.7779250080604
 20
107.0444512737878
 30
0.0
 10
220.8393027570519
 20
107.0080165032099
 30
0.0
 10
220.8941156738852
 20
106.9637244885614
 30
0.0
 10
220.9417725127139
 20
106.912040287249
 30
0.0
 10
220.9817531728862
 20
106.8523514584345
 30
0.0
 10
221.0167002606045
 20
106.786304618622
 30
0.0
 10
221.0477464861797
 20
106.7136033252294
 30
0.0
 10
221.0758113723543
 20
106.6343290482659
 30
0.0
 10
221.0957268265379
 20
106.5633675035906
 30
0.0
 10
221.1099325036548
 20
106.5021109802953
 30
0.0
 10
221.119335533221
 20
106.4515883327148
 30
0.0
 10
221.1271419328754
 20
106.3970741115459
 30
0.0
 10
221.1331226900053
 20
106.3387002013644
 30
0.0
 10
221.138029760117
 20
106.2765320737049
 30
0.0
 10
221.1418192654751
 20
106.2105310215017
 30
0.0
 10
221.1437428274493
 20
106.1405320863541
 30
0.0
 10
221.1441139009624
 20
106.0925027783249
 30
0.0
 10
221.1443047044157
 20
106.0678064378175
 30
0.0
  0
SPLINE
  5
101
330
1F
100
AcDbEntity
  8
0
  6
Continuous
 62
     7
370
     0
100
AcDbSpline
210
0.0
220
0.0
230
1.0
 70
     8
 71
     3
 72
    31
 73
    27
 74
     0
 42
0.00000001
 43
0.00000001
 12
1.0
 22
0.0
 32
0.0
 13
1.0
 23
0.0
 33
0.0
 40
0.0
 40
0.0
 40
0.0
 40
0.0
 40
0.0631144583947934
 40
0.1236146457694899
 40
0.1809737111859575
 40
0.2352614550083221
 40
0.2871007018338719
 40
0.3360307363034435
 40
0.3823823485850661
 40
0.4263340836597072
 40
0.4682106947981602
 40
0.5082496012618051
 40
0.546628336606585
 40
0.5836495392304462
 40
0.6189943150301618
 40
0.653583018620596
 40
0.6871561361903314
 40
0.7204221919788074
 40
0.7532302188118172
 40
0.7862601560778999
 40
0.8195039834988841
 40
0.8535452747120185
 40
0.8883082803397299
 40
0.9239958607406952
 40
0.961350304754645
 40
1.0
 40
1.0
 40
1.0
 40
1.0
 10
219.827218199341
 20
106.0678064378175
 30
0.0
 10
219.8274835923293
 20
106.0971693430196
 30
0.0
 10
219.8280033854334
 20
106.1546789092528
 30
0.0
 10
219.8312274931988
 20
106.238825735899
 30
0.0
 10
219.8368565241037
 20
106.3187364929384
 30
0.0
 10
219.8452591176063
 20
106.3943417816124
 30
0.0
 10
219.8552093625488
 20
106.4658122579147
 30
0.0
 10
219.8681447437475
 20
106.5330459261051
 30
0.0
 10
219.8826989280913
 20
106.5961936357496
 30
0.0
 10
219.9001613375146
 20
106.6551895655906
 30
0.0
 10
219.9193468088601
 20
106.7105409732309
 30
0.0
 10
219.9411133381782
 20
106.7621590625161
 30
0.0
 10
219.9656036363723
 20
106.8099891061223
 30
0.0
 10
219.9916141575082
 20
106.854527128428
 30
0.0
 10
220.0205141487415
 20
106.8950803798871
 30
0.0
 10
220.0505592645506
 20
106.9327869507503
 30
0.0
 10
220.0839330045609
 20
106.966263993936
 30
0.0
 10
220.1192476170714
 20
106.9963728767992
 30
0.0
 10
220.1570231189072
 20
107.0229422112719
 30
0.0
 10
220.1970596401597
 20
107.0458683422054
 30
0.0
 10
220.2392031311865
 20
107.0661104627556
 30
0.0
 10
220.2842568003215
 20
107.0813487258177
 30
0.0
 10
220.3312853420523
 20
107.0937711405801
 30
0.0
 10
220.3806507577049
 20
107.1029092195012
 30
0.0
 10
220.4324074472061
 20
107.1082964254184
 30
0.0
 10
220.4677758691928
 20
107.1088476477844
 30
0.0
 10
220.4857614518783
 20
107.1091279558922
 30
0.0
  0
SPLINE
  5
102
330
1F
100
AcDbEntity
  8
0
  6
Continuous
 62
     7
370
     0
100
AcDbSpline
210
0.0
220
0.0
230
1.0
 70
     8
 71
     3
 72
    15
 73
    11
 74
     0
 42
0.00000001
 43
0.00000001
 12
1.0
 22
0.0
 32
0.0
 13
1.0
 23
0.0
 33
0.0
 40
0.0
 40
0.0
 40
0.0
 40
0.0
 40
0.0974206681772145
 40
0.2008855880393207
 40
0.3111719701726506
 40
0.429797945825373
 40
0.5577399263645872
 40
0.6947152693641585
 40
0.8421299102060552
 40
1.0
 40
1.0
 40
1.0
 40
1.0
 10
220.0268391227663
 20
105.2261058431681
 30
0.0
 10
220.0105553658477
 20
105.2495954014161
 30
0.0
 10
219.9769775620275
 20
105.298031876034
 30
0.0
 10
219.937677654018
 20
105.3806205583168
 30
0.0
 10
219.9026214402779
 20
105.4715391018165
 30
0.0
 10
219.875108739866
 20
105.5725713175784
 30
0.0
 10
219.8535594370969
 20
105.6829131033768
 30
0.0
 10
219.8379954603006
 20
105.8027809732997
 30
0.0
 10
219.829187781692
 20
105.932123140473
 30
0.0
 10
219.8278895475141
 20
106.0215576816986
 30
0.0
 10
219.827218199341
 20
106.0678064378175
 30
0.0
  0
SPLINE
  5
103
330
1F
100
AcDbEntity
  8
0
  6
Continuous
 62
     7
370
     0
100
AcDbSpline
210
0.0
220
0.0
230
1.0
 70
     8
 71
     3
 72
    15
 73
    11
 74
     0
 42
0.00000001
 43
0.00000001
 12
1.0
 22
0.0
 32
0.0
 13
1.0
 23
0.0
 33
0.0
 40
0.0
 40
0.0
 40
0.0
 40
0.0
 40
0.1379032299933934
 40
0.2688733426002937
 40
0.3951781273461133
 40
0.5170892381308875
 40
0.6367430265135479
 40
0.756221816463797
 40
0.8766283594636795
 40
1.0
 40
1.0
 40
1.0
 40
1.0
 10
220.4857614518783
 20
105.0281312778741
 30
0.0
 10
220.4620006699406
 20
105.0288090554352
 30
0.0
 10
220.4156736849766
 20
105.030130535131
 30
0.0
 10
220.3480165393911
 20
105.0391091756933
 30
0.0
 10
220.2845166994678
 20
105.0549120046461
 30
0.0
 10
220.2246385804215
 20
105.0761058265707
 30
0.0
 10
220.1690552286822
 20
105.1044537838515
 30
0.0
 10
220.1175012558471
 20
105.1389446093814
 30
0.0
 10
220.068940721998
 20
105.1787758376755
 30
0.0
 10
220.0409863265122
 20
105.2102017624867
 30
0.0
 10
220.0268391227663
 20
105.2261058431681
 30
0.0
  0
SPLINE
  5
104
330
1F
100
AcDbEntity
  8
0
  6
Continuous
 62
     7
370
     0
100
AcDbSpline
210
0.0
220
0.0
230
1.0
 70
     8
 71
     3
 72
    31
 73
    27
 74
     0
 42
0.00000001
 43
0.00000001
 12
1.0
 22
0.0
 32
0.0
 13
1.0
 23
0.0
 33
0.0
 40
0.0
 40
0.0
 40
0.0
 40
0.0
 40
0.0628739462114324
 40
0.1228366299919129
 40
0.1796565674430314
 40
0.2339600122308621
 40
0.2855950186955587
 40
0.3345131060783809
 40
0.3809048259061763
 40
0.4248945919393347
 40
0.4665290347654873
 40
0.5064882940692463
 40
0.5450315536447544
 40
0.5818311798231345
 40
0.617448279949443
 40
0.652066912769046
 40
0.6858797142465105
 40
0.7191745547913923
 40
0.7521816462063928
 40
0.7852401639180911
 40
0.8186564497770834
 40
0.8525477406533113
 40
0.8876263422585191
 40
0.923635078068751
 40
0.9610218444769892
 40
1.0
 40
1.0
 40
1.0
 40
1.0
 10
217.9832970922362
 20
106.0678064378175
 30
0.0
 10
217.9830267280002
 20
106.0385814544745
 30
0.0
 10
217.9824985182469
 20
105.9814846968868
 30
0.0
 10
217.9793608019705
 20
105.8980125860081
 30
0.0
 10
217.9733925824936
 20
105.8187047167254
 30
0.0
 10
217.9660485793878
 20
105.743379417785
 30
0.0
 10
217.9549386409714
 20
105.672237772283
 30
0.0
 10
217.9429670803812
 20
105.6049775181893
 30
0.0
 10
217.9281612170558
 20
105.5419040762931
 30
0.0
 10
217.9108862506068
 20
105.4829898031301
 30
0.0
 10
217.8914307156668
 20
105.4279231812404
 30
0.0
 10
217.8700947110259
 20
105.3762880477072
 30
0.0
 10
217.8464630372223
 20
105.3281196854677
 30
0.0
 10
217.8198323263909
 20
105.2838879045677
 30
0.0
 10
217.7914210541919
 20
105.2430056021696
 30
0.0
 10
217.7610211382633
 20
105.2053194195669
 30
0.0
 10
217.7279880647979
 20
105.1713717698581
 30
0.0
 10
217.6923552126253
 20
105.1413531974406
 30
0.0
 10
217.6548449423041
 20
105.1143126938863
 30
0.0
 10
217.6147110849388
 20
105.0911602128237
 30
0.0
 10
217.5721293001676
 20
105.0719787844028
 30
0.0
 10
217.5273840932915
 20
105.0555796160646
 30
0.0
 10
217.4800214596344
 20
105.043563267368
 30
0.0
 10
217.4304148965177
 20
105.0343649402094
 30
0.0
 10
217.3783816271394
 20
105.0289482990614
 30
0.0
 10
217.3428764031448
 20
105.0284073757519
 30
0.0
 10
217.3247538396988
 20
105.0281312778741
 30
0.0
  0
SPLINE
  5
105
330
1F
100
AcDbEntity
  8
0
  6
Continuous
 62
     7
370
     0
100
AcDbSpline
210
0.0
220
0.0
230
1.0
 70
     8
 71
     3
 72
    27
 73
    23
 74
     0
 42
0.00000001
 43
0.00000001
 12
1.0
 22
0.0
 32
0.0
 13
1.0
 23
0.0
 33
0.0
 40
0.0
 40
0.0
 40
0.0
 40
0.0
 40
0.0567243372181506
 40
0.1114372357370108
 40
0.1643678222229014
 40
0.21643537246209
 40
0.267641490321925
 40
0.3173597799690279
 40
0.3674730633322807
 40
0.4182103970528082
 40
0.4714042826470199
 40
0.5279657201290493
 40
0.5880611158232139
 40
0.6521342629937146
 40
0.6863448363353056
 40
0.7232636803169653
 40
0.762610250771542
 40
0.8047389366452182
 40
0.84943033879095
 40
0.8967112583864923
 40
0.9468896380534765
 40
1.0
 40
1.0
 40
1.0
 40
1.0
 10
217.3247538396988
 20
107.1091279558922
 30
0.0
 10
217.3511410288082
 20
107.1083521912074
 30
0.0
 10
217.402979720231
 20
107.1068281703674
 30
0.0
 10
217.4786644774089
 20
107.094398532942
 30
0.0
 10
217.5499924830542
 20
107.0731357224345
 30
0.0
 10
217.6169173958809
 20
107.0444512737878
 30
0.0
 10
217.6782951448724
 20
107.0080165032099
 30
0.0
 10
217.7331080617057
 20
106.9637244885614
 30
0.0
 10
217.7807649005344
 20
106.912040287249
 30
0.0
 10
217.8207455607067
 20
106.8523514584345
 30
0.0
 10
217.855692648425
 20
106.786304618622
 30
0.0
 10
217.8867388740002
 20
106.7136033252294
 30
0.0
 10
217.9148037601748
 20
106.6343290482659
 30
0.0
 10
217.9347192143584
 20
106.5633675035906
 30
0.0
 10
217.9489248914753
 20
106.5021109802953
 30
0.0
 10
217.9583279210415
 20
106.4515883327148
 30
0.0
 10
217.9661343206959
 20
106.3970741115459
 30
0.0
 10
217.9721150778258
 20
106.3387002013644
 30
0.0
 10
217.9770221479375
 20
106.2765320737049
 30
0.0
 10
217.9808116532956
 20
106.2105310215017
 30
0.0
 10
217.9827352152698
 20
106.1405320863541
 30
0.0
 10
217.9831062887829
 20
106.0925027783249
 30
0.0
 10
217.9832970922362
 20
106.0678064378175
 30
0.0
  0
SPLINE
  5
106
330
1F
100
AcDbEntity
  8
0
  6
Continuous
 62
     7
370
     0
100
AcDbSpline
210
0.0
220
0.0
230
1.0
 70
     8
 71
     3
 72
    31
 73
    27
 74
     0
 42
0.00000001
 43
0.00000001
 12
1.0
 22
0.0
 32
0.0
 13
1.0
 23
0.0
 33
0.0
 40
0.0
 40
0.0
 40
0.0
 40
0.0
 40
0.0631144583947934
 40
0.12361464576949
 40
0.1809737111859576
 40
0.2352614550083222
 40
0.287100701833872
 40
0.3360307363034437
 40
0.3823823485850664
 40
0.4263340836597074
 40
0.4682106947981604
 40
0.5082496012618052
 40
0.546628336606585
 40
0.5836495392304464
 40
0.6189943150301618
 40
0.6535830186205961
 40
0.6871561361903314
 40
0.7204221919788075
 40
0.753230218811817
 40
0.7862601560779
 40
0.8195039834988841
 40
0.8535452747120184
 40
0.8883082803397299
 40
0.923995860740695
 40
0.961350304754645
 40
1.0
 40
1.0
 40
1.0
 40
1.0
 10
216.6662105871615
 20
106.0678064378175
 30
0.0
 10
216.6664759801498
 20
106.0971693430196
 30
0.0
 10
216.666995773254
 20
106.1546789092528
 30
0.0
 10
216.6702198810193
 20
106.238825735899
 30
0.0
 10
216.6758489119242
 20
106.3187364929384
 30
0.0
 10
216.6842515054269
 20
106.3943417816124
 30
0.0
 10
216.6942017503693
 20
106.4658122579147
 30
0.0
 10
216.707137131568
 20
106.5330459261051
 30
0.0
 10
216.7216913159118
 20
106.5961936357496
 30
0.0
 10
216.7391537253351
 20
106.6551895655906
 30
0.0
 10
216.7583391966806
 20
106.7105409732309
 30
0.0
 10
216.7801057259987
 20
106.7621590625161
 30
0.0
 10
216.8045960241928
 20
106.8099891061223
 30
0.0
 10
216.8306065453287
 20
106.854527128428
 30
0.0
 10
216.859506536562
 20
106.8950803798871
 30
0.0
 10
216.8895516523711
 20
106.9327869507503
 30
0.0
 10
216.9229253923814
 20
106.966263993936
 30
0.0
 10
216.9582400048919
 20
106.9963728767992
 30
0.0
 10
216.9960155067277
 20
107.0229422112719
 30
0.0
 10
217.0360520279802
 20
107.0458683422054
 30
0.0
 10
217.0781955190071
 20
107.0661104627556
 30
0.0
 10
217.123249188142
 20
107.0813487258177
 30
0.0
 10
217.1702777298728
 20
107.0937711405801
 30
0.0
 10
217.2196431455255
 20
107.1029092195012
 30
0.0
 10
217.2713998350266
 20
107.1082964254184
 30
0.0
 10
217.3067682570133
 20
107.1088476477844
 30
0.0
 10
217.3247538396988
 20
107.1091279558922
 30
0.0
  0
SPLINE
  5
107
330
1F
100
AcDbEntity
  8
0
  6
Continuous
 62
     7
370
     0
100
AcDbSpline
210
0.0
220
0.0
230
1.0
 70
     8
 71
     3
 72
    15
 73
    11
 74
     0
 42
0.00000001
 43
0.00000001
 12
1.0
 22
0.0
 32
0.0
 13
1.0
 23
0.0
 33
0.0
 40
0.0
 40
0.0
 40
0.0
 40
0.0
 40
0.0974206681772145
 40
0.2008855880393206
 40
0.3111719701726505
 40
0.4297979458253725
 40
0.5577399263645877
 40
0.6947152693641585
 40
0.8421299102060552
 40
1.0
 40
1.0
 40
1.0
 40
1.0
 10
216.8658315105869
 20
105.2261058431681
 30
0.0
 10
216.8495477536682
 20
105.2495954014161
 30
0.0
 10
216.815969949848
 20
105.298031876034
 30
0.0
 10
216.7766700418385
 20
105.3806205583168
 30
0.0
 10
216.7416138280984
 20
105.4715391018165
 30
0.0
 10
216.7141011276865
 20
105.5725713175784
 30
0.0
 10
216.6925518249174
 20
105.6829131033768
 30
0.0
 10
216.6769878481212
 20
105.8027809732997
 30
0.0
 10
216.6681801695125
 20
105.932123140473
 30
0.0
 10
216.6668819353347
 20
106.0215576816986
 30
0.0
 10
216.6662105871615
 20
106.0678064378175
 30
0.0
  0
SPLINE
  5
108
330
1F
100
AcDbEntity
  8
0
  6
Continuous
 62
     7
370
     0
100
AcDbSpline
210
0.0
220
0.0
230
1.0
 70
     8
 71
     3
 72
    15
 73
    11
 74
     0
 42
0.00000001
 43
0.00000001
 12
1.0
 22
0.0
 32
0.0
 13
1.0
 23
0.0
 33
0.0
 40
0.0
 40
0.0
 40
0.0
 40
0.0
 40
0.1379032299933935
 40
0.2688733426002935
 40
0.3951781273461131
 40
0.5170892381308877
 40
0.6367430265135475
 40
0.7562218164637969
 40
0.8766283594636793
 40
1.0
 40
1.0
 40
1.0
 40
1.0
 10
217.3247538396988
 20
105.0281312778741
 30
0.0
 10
217.3009930577611
 20
105.0288090554352
 30
0.0
 10
217.2546660727971
 20
105.030130535131
 30
0.0
 10
217.1870089272116
 20
105.0391091756933
 30
0.0
 10
217.1235090872883
 20
105.0549120046461
 30
0.0
 10
217.063630968242
 20
105.0761058265707
 30
0.0
 10
217.0080476165027
 20
105.1044537838514
 30
0.0
 10
216.9564936436676
 20
105.1389446093814
 30
0.0
 10
216.9079331098185
 20
105.1787758376755
 30
0.0
 10
216.8799787143327
 20
105.2102017624867
 30
0.0
 10
216.8658315105869
 20
105.2261058431681
 30
0.0
  0
SPLINE
  5
109
330
1F
100
AcDbEntity
  8
0
  6
Continuous
 62
     7
370
     0
100
AcDbSpline
210
0.0
220
0.0
230
1.0
 70
     8
 71
     3
 72
    23
 73
    19
 74
     0
 42
0.00000001
 43
0.00000001
 12
1.0
 22
0.0
 32
0.0
 13
1.0
 23
0.0
 33
0.0
 40
0.0
 40
0.0
 40
0.0
 40
0.0
 40
0.0635999003471699
 40
0.1252966507935535
 40
0.1855687201945878
 40
0.2446982110006626
 40
0.3037168061899893
 40
0.3629196509481437
 40
0.4233003138688771
 40
0.4851773095450755
 40
0.5470834132243567
 40
0.608524799634247
 40
0.6699648532447271
 40
0.7322993779782991
 40
0.7956502934901157
 40
0.8610554709467161
 40
0.929122115173219
 40
1.0
 40
1.0
 40
1.0
 40
1.0
 10
215.4544910024926
 20
105.6525125991861
 30
0.0
 10
215.4539675168427
 20
105.6309403332858
 30
0.0
 10
215.452936210216
 20
105.5884413253853
 30
0.0
 10
215.4438748257921
 20
105.5260577692464
 30
0.0
 10
215.4301645500308
 20
105.4661298511496
 30
0.0
 10
215.4101733851806
 20
105.4089107288043
 30
0.0
 10
215.384639700834
 20
105.3543599534346
 30
0.0
 10
215.3530542246017
 20
105.302556738727
 30
0.0
 10
215.3157272943298
 20
105.253554373697
 30
0.0
 10
215.2737599897635
 20
105.2072005434976
 30
0.0
 10
215.2268405683218
 20
105.1652986886045
 30
0.0
 10
215.176082445464
 20
105.1283739089129
 30
0.0
 10
215.1212951701984
 20
105.0974446979876
 30
0.0
 10
215.0631434995288
 20
105.0718354225376
 30
0.0
 10
215.0013489832297
 20
105.0519883290056
 30
0.0
 10
214.9359910538583
 20
105.0380911554139
 30
0.0
 10
214.8670914603768
 20
105.0298160001193
 30
0.0
 10
214.819980052416
 20
105.0287003760321
 30
0.0
 10
214.7959477499552
 20
105.0281312778741
 30
0.0
  0
SPLINE
  5
10A
330
1F
100
AcDbEntity
  8
0
  6
Continuous
 62
     7
370
     0
100
AcDbSpline
210
0.0
220
0.0
230
1.0
 70
     8
 71
     3
 72
    23
 73
    19
 74
     0
 42
0.00000001
 43
0.00000001
 12
1.0
 22
0.0
 32
0.0
 13
1.0
 23
0.0
 33
0.0
 40
0.0
 40
0.0
 40
0.0
 40
0.0
 40
0.0690130029109932
 40
0.1352355440560497
 40
0.1996111851157138
 40
0.2624185195032886
 40
0.3237234972102992
 40
0.3837653656042444
 40
0.4437730350956272
 40
0.5037949564977896
 40
0.5638225777168209
 40
0.6234843128834681
 40
0.6834691722744386
 40
0.7435907624559172
 40
0.8057272199738402
 40
0.8686162107352969
 40
0.933278202847215
 40
1.0
 40
1.0
 40
1.0
 40
1.0
 10
215.0708895578896
 20
106.1814051488802
 30
0.0
 10
215.0862285447204
 20
106.1761982896746
 30
0.0
 10
215.1162863040098
 20
106.1659951046546
 30
0.0
 10
215.1587790077516
 20
106.1461569685331
 30
0.0
 10
215.1987846111163
 20
106.1247667489015
 30
0.0
 10
215.2365287101158
 20
106.1016118231711
 30
0.0
 10
215.2706180770593
 20
106.0749702146763
 30
0.0
 10
215.302190033371
 20
106.0464171313339
 30
0.0
 10
215.3311118365947
 20
106.0155502040535
 30
0.0
 10
215.3569884456048
 20
105.9821069063672
 30
0.0
 10
215.380090986809
 20
105.9467891559597
 30
0.0
 10
215.3998685959183
 20
105.9095108465573
 30
0.0
 10
215.4166653395261
 20
105.8708025861342
 30
0.0
 10
215.431020415035
 20
105.8304848771399
 30
0.0
 10
215.4415056629768
 20
105.7882737264583
 30
0.0
 10
215.4488420504699
 20
105.7443631166305
 30
0.0
 10
215.4534967814961
 20
105.6989844719608
 30
0.0
 10
215.4541561496858
 20
105.6681642873825
 30
0.0
 10
215.4544910024926
 20
105.6525125991861
 30
0.0
  0
SPLINE
  5
10B
330
1F
100
AcDbEntity
  8
0
  6
Continuous
 62
     7
370
     0
100
AcDbSpline
210
0.0
220
0.0
230
1.0
 70
     8
 71
     3
 72
    15
 73
    11
 74
     0
 42
0.00000001
 43
0.00000001
 12
1.0
 22
0.0
 32
0.0
 13
1.0
 23
0.0
 33
0.0
 40
0.0
 40
0.0
 40
0.0
 40
0.0
 40
0.1248350921668871
 40
0.2447781332833286
 40
0.3609889778410595
 40
0.4779641722472781
 40
0.5969221175582977
 40
0.7215907566966706
 40
0.8550978657574203
 40
1.0
 40
1.0
 40
1.0
 40
1.0
 10
215.3754658121882
 20
106.5843513015265
 30
0.0
 10
215.3747129889557
 20
106.5617644994776
 30
0.0
 10
215.3732368442087
 20
106.5174760294135
 30
0.0
 10
215.3581942690829
 20
106.4536338316868
 30
0.0
 10
215.334749129015
 20
106.3940339403246
 30
0.0
 10
215.3008638269327
 20
106.33981222566
 30
0.0
 10
215.2579493521031
 20
106.2904086988682
 30
0.0
 10
215.2046959113976
 20
106.2474616712666
 30
0.0
 10
215.1419122546805
 20
106.2100022583955
 30
0.0
 10
215.0952010715662
 20
106.1911941184703
 30
0.0
 10
215.0708895578896
 20
106.1814051488802
 30
0.0
  0
SPLINE
  5
10C
330
1F
100
AcDbEntity
  8
0
  6
Continuous
 62
     7
370
     0
100
AcDbSpline
210
0.0
220
0.0
230
1.0
 70
     8
 71
     3
 72
    23
 73
    19
 74
     0
 42
0.00000001
 43
0.00000001
 12
1.0
 22
0.0
 32
0.0
 13
1.0
 23
0.0
 33
0.0
 40
0.0
 40
0.0
 40
0.0
 40
0.0
 40
0.0732007449685411
 40
0.1425867913224124
 40
0.2096247814680876
 40
0.2748829267682081
 40
0.3379306095315751
 40
0.4004618221882003
 40
0.4625006206857346
 40
0.5250054581372536
 40
0.5866888527108448
 40
0.6468127657705338
 40
0.7052153157505646
 40
0.7628810210075594
 40
0.8207275416930107
 40
0.8792954957245834
 40
0.9385111654136072
 40
1.0
 40
1.0
 40
1.0
 40
1.0
 10
214.7926550336926
 20
107.1091279558922
 30
0.0
 10
214.8140770001672
 20
107.1086452384706
 30
0.0
 10
214.8558045736332
 20
107.1077049594025
 30
0.0
 10
214.9168274472581
 20
107.1006251548707
 30
0.0
 10
214.9747134230732
 20
107.08875896142
 30
0.0
 10
215.0294284208563
 20
107.0719238202212
 30
0.0
 10
215.0810587006439
 20
107.0503990785173
 30
0.0
 10
215.1292650002859
 20
107.0239423454285
 30
0.0
 10
215.1745435743723
 20
106.9929899766716
 30
0.0
 10
215.2157371181441
 20
106.9571728542413
 30
0.0
 10
215.2532183328576
 20
106.9182871068675
 30
0.0
 10
215.2856922650766
 20
106.8766273094906
 30
0.0
 10
215.3135441231537
 20
106.8331655653053
 30
0.0
 10
215.3365594991893
 20
106.7876378342088
 30
0.0
 10
215.3535863614022
 20
106.7395256772496
 30
0.0
 10
215.3665646524477
 20
106.6897355497397
 30
0.0
 10
215.374092662869
 20
106.6376758479207
 30
0.0
 10
215.3750023849747
 20
106.6023479211236
 30
0.0
 10
215.3754658121882
 20
106.5843513015265
 30
0.0
  0
SPLINE
  5
10D
330
1F
100
AcDbEntity
  8
0
  6
Continuous
 62
     7
370
     0
100
AcDbSpline
210
0.0
220
0.0
230
1.0
 70
     8
 71
     3
 72
    23
 73
    19
 74
     0
 42
0.00000001
 43
0.00000001
 12
1.0
 22
0.0
 32
0.0
 13
1.0
 23
0.0
 33
0.0
 40
0.0
 40
0.0
 40
0.0
 40
0.0
 40
0.0621313717366117
 40
0.1219658247853498
 40
0.1805702366487599
 40
0.2385759705888211
 40
0.2960002420906481
 40
0.3543589964435931
 40
0.4137812280524368
 40
0.4750979653520683
 40
0.5372798973856026
 40
0.5989179536770425
 40
0.6612351129787322
 40
0.7243219805737479
 40
0.7892171825086325
 40
0.8563966620881328
 40
0.9265077687361053
 40
1.0
 40
1.0
 40
1.0
 40
1.0
 10
214.2164296877223
 20
106.5909367340519
 30
0.0
 10
214.2168816900399
 20
106.6089366621352
 30
0.0
 10
214.2177689847176
 20
106.6442710835941
 30
0.0
 10
214.2254354126596
 20
106.6961183650888
 30
0.0
 10
214.2377143015344
 20
106.7458010320068
 30
0.0
 10
214.2551409177824
 20
106.793178860086
 30
0.0
 10
214.2769736118038
 20
106.8386418122584
 30
0.0
 10
214.3045227897772
 20
106.8813569870438
 30
0.0
 10
214.3361888587372
 20
106.9225316017321
 30
0.0
 10
214.3732841537722
 20
106.960501253076
 30
0.0
 10
214.4141625276086
 20
106.9952777787995
 30
0.0
 10
214.4584401858979
 20
107.0262254711091
 30
0.0
 10
214.5064559418812
 20
107.0515331597861
 30
0.0
 10
214.5574092361312
 20
107.0726925201149
 30
0.0
 10
214.6115520075249
 20
107.0892580619786
 30
0.0
 10
214.6690749760605
 20
107.1005401188578
 30
0.0
 10
214.7297753606905
 20
107.1077163440153
 30
0.0
 10
214.7713687057974
 20
107.1086500902826
 30
0.0
 10
214.7926550336926
 20
107.1091279558922
 30
0.0
  0
SPLINE
  5
10E
330
1F
100
AcDbEntity
  8
0
  6
Continuous
 62
     7
370
     0
100
AcDbSpline
210
0.0
220
0.0
230
1.0
 70
     8
 71
     3
 72
    15
 73
    11
 74
     0
 42
0.00000001
 43
0.00000001
 12
1.0
 22
0.0
 32
0.0
 13
1.0
 23
0.0
 33
0.0
 40
0.0
 40
0.0
 40
0.0
 40
0.0
 40
0.1453591950554982
 40
0.2787017789350159
 40
0.403602234418053
 40
0.5216687911804246
 40
0.6375206936077399
 40
0.7537041507630957
 40
0.8732127703640605
 40
1.0
 40
1.0
 40
1.0
 40
1.0
 10
214.5275913745463
 20
106.1814051488802
 30
0.0
 10
214.5025977241314
 20
106.1911828064704
 30
0.0
 10
214.4546766082361
 20
106.209929818403
 30
0.0
 10
214.3900433775464
 20
106.2474478662078
 30
0.0
 10
214.3353416790364
 20
106.2906074393656
 30
0.0
 10
214.2912431772543
 20
106.3404493027511
 30
0.0
 10
214.2576321015917
 20
106.3959430887553
 30
0.0
 10
214.2334307982781
 20
106.4563812536384
 30
0.0
 10
214.2192556704694
 20
106.5221005049375
 30
0.0
 10
214.2173900596711
 20
106.5675436742155
 30
0.0
 10
214.2164296877223
 20
106.5909367340519
 30
0.0
  0
SPLINE
  5
10F
330
1F
100
AcDbEntity
  8
0
  6
Continuous
 62
     7
370
     0
100
AcDbSpline
210
0.0
220
0.0
230
1.0
 70
     8
 71
     3
 72
    23
 73
    19
 74
     0
 42
0.00000001
 43
0.00000001
 12
1.0
 22
0.0
 32
0.0
 13
1.0
 23
0.0
 33
0.0
 40
0.0
 40
0.0
 40
0.0
 40
0.0
 40
0.0698340680322546
 40
0.1370265239564768
 40
0.2014822968650625
 40
0.2645399492437558
 40
0.3259725932884497
 40
0.3863863095292154
 40
0.4457607667910175
 40
0.5056119070745058
 40
0.5651144217391012
 40
0.6247503916637627
 40
0.684178951264583
 40
0.7442191416569949
 40
0.8051791454666242
 40
0.8683948608225701
 40
0.9332039334133251
 40
1.0
 40
1.0
 40
1.0
 40
1.0
 10
214.1374044974179
 20
105.6595096212443
 30
0.0
 10
214.137761808524
 20
105.6759801693594
 30
0.0
 10
214.1384629147351
 20
105.7082982344453
 30
0.0
 10
214.1427457350285
 20
105.7557000417098
 30
0.0
 10
214.1512813136052
 20
105.8008789464388
 30
0.0
 10
214.1622756824667
 20
105.8441011876411
 30
0.0
 10
214.1762350908503
 20
105.8854748956864
 30
0.0
 10
214.1934566781202
 20
105.9246751626315
 30
0.0
 10
214.2143509003454
 20
105.9616072456475
 30
0.0
 10
214.2380881068705
 20
105.9965114602525
 30
0.0
 10
214.2649678340527
 20
106.0291427659443
 30
0.0
 10
214.2945544237164
 20
106.0592154034078
 30
0.0
 10
214.3269553478554
 20
106.0863873165839
 30
0.0
 10
214.3614425001547
 20
106.1114521152097
 30
0.0
 10
214.3994614584385
 20
106.1326367875992
 30
0.0
 10
214.439598309706
 20
106.1520776717074
 30
0.0
 10
214.4825431127763
 20
106.1686571411198
 30
0.0
 10
214.5124249007276
 20
106.177113255734
 30
0.0
 10
214.5275913745463
 20
106.1814051488802
 30
0.0
  0
SPLINE
  5
110
330
1F
100
AcDbEntity
  8
0
  6
Continuous
 62
     7
370
     0
100
AcDbSpline
210
0.0
220
0.0
230
1.0
 70
     8
 71
     3
 72
    23
 73
    19
 74
     0
 42
0.00000001
 43
0.00000001
 12
1.0
 22
0.0
 32
0.0
 13
1.0
 23
0.0
 33
0.0
 40
0.0
 40
0.0
 40
0.0
 40
0.0
 40
0.0704416310595481
 40
0.1380893247200285
 40
0.2031777335235316
 40
0.266138723805254
 40
0.3279287813674601
 40
0.3891903607612971
 40
0.4502535751031185
 40
0.5123465781279283
 40
0.5738427205586506
 40
0.633932556807092
 40
0.6934598075975582
 40
0.7524794354833054
 40
0.8123859308429279
 40
0.8730704652319969
 40
0.935184306583771
 40
1.0
 40
1.0
 40
1.0
 40
1.0
 10
214.7959477499552
 20
105.0281312778741
 30
0.0
 10
214.7719178513088
 20
105.0287126407507
 30
0.0
 10
214.7248111556337
 20
105.0298523078176
 30
0.0
 10
214.655848611927
 20
105.0379582902629
 30
0.0
 10
214.5905841935158
 20
105.0524854598817
 30
0.0
 10
214.5288700249533
 20
105.0723527276807
 30
0.0
 10
214.4703713278451
 20
105.0972686289979
 30
0.0
 10
214.4159520014543
 20
105.1288947536545
 30
0.0
 10
214.3648623273795
 20
105.1657727522382
 30
0.0
 10
214.3179102815909
 20
105.2079337820614
 30
0.0
 10
214.275594376003
 20
105.2542826677636
 30
0.0
 10
214.2387594970969
 20
105.3040087219162
 30
0.0
 10
214.207361527137
 20
105.3563466760653
 30
0.0
 10
214.181521679216
 20
105.4115915719265
 30
0.0
 10
214.1618258228532
 20
105.4697439128516
 30
0.0
 10
214.1480030372422
 20
105.5305853742468
 30
0.0
 10
214.1389252515816
 20
105.5940694640139
 30
0.0
 10
214.1379185583756
 20
105.637388866489
 30
0.0
 10
214.1374044974179
 20
105.6595096212443
 30
0.0
  0
SPLINE
  5
111
330
1F
100
AcDbEntity
  8
0
  6
Continuous
 62
     7
370
     0
100
AcDbSpline
210
0.0
220
0.0
230
1.0
 70
     8
 71
     3
 72
    15
 73
    11
 74
     0
 42
0.00000001
 43
0.00000001
 12
1.0
 22
0.0
 32
0.0
 13
1.0
 23
0.0
 33
0.0
 40
0.0
 40
0.0
 40
0.0
 40
0.0
 40
0.132461622242638
 40
0.26164950103549
 40
0.3875466984163659
 40
0.5107816292933464
 40
0.6326753605997106
 40
0.7546603541381373
 40
0.8765227798028644
 40
1.0
 40
1.0
 40
1.0
 40
1.0
 10
212.2934833903132
 20
105.7591142881906
 30
0.0
 10
212.2930169846539
 20
105.7363202356036
 30
0.0
 10
212.2920957003909
 20
105.6912954776022
 30
0.0
 10
212.2845455853118
 20
105.6249431732727
 30
0.0
 10
212.272108565073
 20
105.5610075054225
 30
0.0
 10
212.2554588268155
 20
105.4992991408755
 30
0.0
 10
212.2329627960476
 20
105.4401685354062
 30
0.0
 10
212.2056772163551
 20
105.3834246923638
 30
0.0
 10
212.1742017697202
 20
105.3284755089612
 30
0.0
 10
212.1489600949241
 20
105.2946025087704
 30
0.0
 10
212.1362561887699
 20
105.2775545347726
 30
0.0
  0
SPLINE
  5
112
330
1F
100
AcDbEntity
  8
0
  6
Continuous
 62
     7
370
     0
100
AcDbSpline
210
0.0
220
0.0
230
1.0
 70
     8
 71
     3
 72
    23
 73
    19
 74
     0
 42
0.00000001
 43
0.00000001
 12
1.0
 22
0.0
 32
0.0
 13
1.0
 23
0.0
 33
0.0
 40
0.0
 40
0.0
 40
0.0
 40
0.0
 40
0.0619974190757221
 40
0.1220879540822937
 40
0.1813753107870036
 40
0.2395080083953663
 40
0.2978356978967516
 40
0.3568799706531185
 40
0.4172818251154289
 40
0.4796404090798165
 40
0.5425000674783568
 40
0.6049624196481908
 40
0.6669910330782646
 40
0.7302162430101637
 40
0.794172863251256
 40
0.8604581431502615
 40
0.9285781799847829
 40
1.0
 40
1.0
 40
1.0
 40
1.0
 10
211.6905047247086
 20
106.4242429732533
 30
0.0
 10
211.7112499447776
 20
106.4236994320308
 30
0.0
 10
211.7521023143274
 20
106.4226290675413
 30
0.0
 10
211.8122996954056
 20
106.4138346755368
 30
0.0
 10
211.8698585180062
 20
106.3989056121024
 30
0.0
 10
211.9252302687193
 20
106.3787983401833
 30
0.0
 10
211.9776848063914
 20
106.3521427164019
 30
0.0
 10
212.0277534577599
 20
106.3198684159997
 30
0.0
 10
212.0752340783565
 20
106.2817094109496
 30
0.0
 10
212.1198582465724
 20
106.2383856829274
 30
0.0
 10
212.1603341418218
 20
106.1902917902677
 30
0.0
 10
212.1965613891109
 20
106.1389962494759
 30
0.0
 10
212.2261498258638
 20
106.0834722649763
 30
0.0
 10
212.2510357319253
 20
106.0251695774922
 30
0.0
 10
212.2698052151328
 20
105.9631311272336
 30
0.0
 10
212.2840519079907
 20
105.8982373665145
 30
0.0
 10
212.2916691416949
 20
105.8296769751784
 30
0.0
 10
212.2928691758654
 20
105.7830033083514
 30
0.0
 10
212.2934833903132
 20
105.7591142881906
 30
0.0
  0
SPLINE
  5
113
330
1F
100
AcDbEntity
  8
0
  6
Continuous
 62
     7
370
     0
100
AcDbSpline
210
0.0
220
0.0
230
1.0
 70
     8
 71
     3
 72
    15
 73
    11
 74
     0
 42
0.00000001
 43
0.00000001
 12
1.0
 22
0.0
 32
0.0
 13
1.0
 23
0.0
 33
0.0
 40
0.0
 40
0.0
 40
0.0
 40
0.0
 40
0.1367294018595733
 40
0.2685149167908308
 40
0.3955294046848096
 40
0.5199999535658124
 40
0.640496476841269
 40
0.7612361017625323
 40
0.8801067171759528
 40
1.0
 40
1.0
 40
1.0
 40
1.0
 10
211.3241900404847
 20
106.287183658819
 30
0.0
 10
211.338724701705
 20
106.2980906723223
 30
0.0
 10
211.3672684771849
 20
106.3195103215233
 30
0.0
 10
211.4117916506331
 20
106.347556528759
 30
0.0
 10
211.4569514587481
 20
106.3711976113133
 30
0.0
 10
211.502485014786
 20
106.3905576699368
 30
0.0
 10
211.5487540113861
 20
106.405639121548
 30
0.0
 10
211.5954792400048
 20
106.4161170177166
 30
0.0
 10
211.642819792193
 20
106.4231985964845
 30
0.0
 10
211.6745644246047
 20
106.4238938550259
 30
0.0
 10
211.6905047247086
 20
106.4242429732533
 30
0.0
  0
LINE
  5
114
330
1F
100
AcDbEntity
  8
0
  6
Continuous
 62
     7
370
     0
100
AcDbLine
 10
211.4287337818
 20
106.8193689248
 30
0.0
 11
211.3241900405
 21
106.2871836588
 31
0.0
  0
LINE
  5
115
330
1F
100
AcDbEntity
  8
0
  6
Continuous
 62
     7
370
     0
100
AcDbLine
 10
212.1881164699
 20
106.8193689248
 30
0.0
 11
211.4287337818
 21
106.8193689248
 31
0.0
  0
LINE
  5
116
330
1F
100
AcDbEntity
  8
0
  6
Continuous
 62
     7
370
     0
100
AcDbLine
 10
212.1881164699
 20
107.0827862258
 30
0.0
 11
212.1881164699
 21
106.8193689248
 31
0.0
  0
LINE
  5
117
330
1F
100
AcDbEntity
  8
0
  6
Continuous
 62
     7
370
     0
100
AcDbLine
 10
211.2134724562
 20
107.0827862258
 30
0.0
 11
212.1881164699
 21
107.0827862258
 31
0.0
  0
LINE
  5
118
330
1F
100
AcDbEntity
  8
0
  6
Continuous
 62
     7
370
     0
100
AcDbLine
 10
211.0027386153
 20
106.0291170217
 30
0.0
 11
211.2134724562
 21
107.0827862258
 31
0.0
  0
LINE
  5
119
330
1F
100
AcDbEntity
  8
0
  6
Continuous
 62
     7
370
     0
100
AcDbLine
 10
211.2661559164
 20
106.0027752916
 30
0.0
 11
211.0027386153
 21
106.0291170217
 31
0.0
  0
SPLINE
  5
11A
330
1F
100
AcDbEntity
  8
0
  6
Continuous
 62
     7
370
     0
100
AcDbSpline
210
0.0
220
0.0
230
1.0
 70
     8
 71
     3
 72
    15
 73
    11
 74
     0
 42
0.00000001
 43
0.00000001
 12
1.0
 22
0.0
 32
0.0
 13
1.0
 23
0.0
 33
0.0
 40
0.0
 40
0.0
 40
0.0
 40
0.0
 40
0.1478596367312514
 40
0.283561321939547
 40
0.4123693961385312
 40
0.5342363558879457
 40
0.6526916293119823
 40
0.7686630594981229
 40
0.8836524018604046
 40
1.0
 40
1.0
 40
1.0
 40
1.0
 10
211.6176533773967
 20
106.1871674023399
 30
0.0
 10
211.5971686085312
 20
106.1865681828109
 30
0.0
 10
211.557883457644
 20
106.1854190153604
 30
0.0
 10
211.5014347357134
 20
106.1757514816518
 30
0.0
 10
211.4500474204134
 20
106.1601348124718
 30
0.0
 10
211.4043033171317
 20
106.1368600669882
 30
0.0
 10
211.363433221256
 20
106.1090545604988
 30
0.0
 10
211.3265880785345
 20
106.0775913684939
 30
0.0
 10
211.2934640633445
 20
106.0424917628677
 30
0.0
 10
211.2752941924608
 20
106.0160658338353
 30
0.0
 10
211.2661559163548
 20
106.0027752916294
 30
0.0
  0
SPLINE
  5
11B
330
1F
100
AcDbEntity
  8
0
  6
Continuous
 62
     7
370
     0
100
AcDbSpline
210
0.0
220
0.0
230
1.0
 70
     8
 71
     3
 72
    23
 73
    19
 74
     0
 42
0.00000001
 43
0.00000001
 12
1.0
 22
0.0
 32
0.0
 13
1.0
 23
0.0
 33
0.0
 40
0.0
 40
0.0
 40
0.0
 40
0.0
 40
0.0728659334565351
 40
0.1418868719641256
 40
0.2074526264147115
 40
0.2704376800000974
 40
0.3316408722476697
 40
0.3901075774931577
 40
0.4480692869488358
 40
0.505502951924537
 40
0.5624881528337238
 40
0.6190843288847293
 40
0.6764155306922391
 40
0.7354523604507931
 40
0.7962407694486783
 40
0.8604056780892032
 40
0.9283049272851064
 40
1.0
 40
1.0
 40
1.0
 40
1.0
 10
212.0300660892982
 20
105.7434738859428
 30
0.0
 10
212.0297636987083
 20
105.7602234942968
 30
0.0
 10
212.0291748740973
 20
105.7928388664362
 30
0.0
 10
212.024216010221
 20
105.840332271137
 30
0.0
 10
212.0158498230606
 20
105.8849904444
 30
0.0
 10
212.0050247602247
 20
105.9273055972426
 30
0.0
 10
211.9901037764686
 20
105.966616503287
 30
0.0
 10
211.9724066495635
 20
106.0034931322355
 30
0.0
 10
211.9507269253213
 20
106.0371528534549
 30
0.0
 10
211.9266068015105
 20
106.0686437087661
 30
0.0
 10
211.8990585749615
 20
106.0968739916511
 30
0.0
 10
211.8677100737627
 20
106.120710889919
 30
0.0
 10
211.8337910811069
 20
106.1415729898118
 30
0.0
 10
211.796618433734
 20
106.1584908513724
 30
0.0
 10
211.7561702425859
 20
106.1710601867874
 30
0.0
 10
211.7128484512264
 20
106.1807311593853
 30
0.0
 10
211.6662035318996
 20
106.1858176949674
 30
0.0
 10
211.6341274974706
 20
106.1867094173644
 30
0.0
 10
211.6176533773967
 20
106.1871674023399
 30
0.0
  0
SPLINE
  5
11C
330
1F
100
AcDbEntity
  8
0
  6
Continuous
 62
     7
370
     0
100
AcDbSpline
210
0.0
220
0.0
230
1.0
 70
     8
 71
     3
 72
    23
 73
    19
 74
     0
 42
0.00000001
 43
0.00000001
 12
1.0
 22
0.0
 32
0.0
 13
1.0
 23
0.0
 33
0.0
 40
0.0
 40
0.0
 40
0.0
 40
0.0
 40
0.0658010376094729
 40
0.1286767959489733
 40
0.1886758749524341
 40
0.2475984367338953
 40
0.304849420118827
 40
0.3617858992828986
 40
0.4195227063685901
 40
0.4786818154207406
 40
0.5387695030440189
 40
0.5987990560131542
 40
0.6601842815006784
 40
0.722951530610966
 40
0.7879926891048742
 40
0.8554037684344732
 40
0.9261530612840041
 40
1.0
 40
1.0
 40
1.0
 40
1.0
 10
211.6164186087981
 20
105.2652068487875
 30
0.0
 10
211.6320798878905
 20
105.2655852707526
 30
0.0
 10
211.6627062015063
 20
105.2663252913928
 30
0.0
 10
211.7072616862902
 20
105.2725840886504
 30
0.0
 10
211.7493479501598
 20
105.2829041202322
 30
0.0
 10
211.7887636167439
 20
105.2973462377922
 30
0.0
 10
211.8259707583149
 20
105.3153067198422
 30
0.0
 10
211.8597350506302
 20
105.3385622723964
 30
0.0
 10
211.891897508992
 20
105.364703811374
 30
0.0
 10
211.9203884719182
 20
105.3958695429663
 30
0.0
 10
211.9463232529428
 20
105.4297986476582
 30
0.0
 10
211.9687069187361
 20
105.4668337087052
 30
0.0
 10
211.9875508028324
 20
105.506454909717
 30
0.0
 10
212.0034152936
 20
105.5486546545787
 30
0.0
 10
212.0151300623148
 20
105.5936740157887
 30
0.0
 10
212.0237472209623
 20
105.6412734989301
 30
0.0
 10
212.0292790928257
 20
105.691483424919
 30
0.0
 10
212.0298000371245
 20
105.7258979810331
 30
0.0
 10
212.0300660892982
 20
105.7434738859428
 30
0.0
  0
SPLINE
  5
11D
330
1F
100
AcDbEntity
  8
0
  6
Continuous
 62
     7
370
     0
100
AcDbSpline
210
0.0
220
0.0
230
1.0
 70
     8
 71
     3
 72
    23
 73
    19
 74
     0
 42
0.00000001
 43
0.00000001
 12
1.0
 22
0.0
 32
0.0
 13
1.0
 23
0.0
 33
0.0
 40
0.0
 40
0.0
 40
0.0
 40
0.0
 40
0.0773613371189759
 40
0.1504798322806804
 40
0.2199772368520742
 40
0.2866809968624409
 40
0.3496784941856623
 40
0.4106796250174851
 40
0.4694271135192905
 40
0.5267557014271295
 40
0.583141980834837
 40
0.6388244277786258
 40
0.6952634704038123
 40
0.7526958048985352
 40
0.8108491833348948
 40
0.8713563036360843
 40
0.934436430984128
 40
1.0
 40
1.0
 40
1.0
 40
1.0
 10
211.2398141862533
 20
105.6339910702085
 30
0.0
 10
211.2424224310834
 20
105.6191489509882
 30
0.0
 10
211.2474958729239
 20
105.5902787207915
 30
0.0
 10
211.2571638770751
 20
105.5484882062675
 30
0.0
 10
211.2697198624054
 20
105.5096636501774
 30
0.0
 10
211.2838278942577
 20
105.4734688096905
 30
0.0
 10
211.3005976701926
 20
105.4402863999244
 30
0.0
 10
211.3187678613546
 20
105.4095924879871
 30
0.0
 10
211.3401958883909
 20
105.3824766120687
 30
0.0
 10
211.3627245817572
 20
105.3575205862843
 30
0.0
 10
211.3874515441501
 20
105.3355299140428
 30
0.0
 10
211.4146153722432
 20
105.3169910187054
 30
0.0
 10
211.4434581774251
 20
105.3008169551271
 30
0.0
 10
211.47433125419
 20
105.2875743504351
 30
0.0
 10
211.507281919124
 20
105.2778814612206
 30
0.0
 10
211.5418907983223
 20
105.2702160498481
 30
0.0
 10
211.5786035437195
 20
105.2663534852102
 30
0.0
 10
211.6036523993349
 20
105.2655939484982
 30
0.0
 10
211.6164186087981
 20
105.2652068487875
 30
0.0
  0
LINE
  5
11E
330
1F
100
AcDbEntity
  8
0
  6
Continuous
 62
     7
370
     0
100
AcDbLine
 10
210.9763968852
 20
105.6076493401
 30
0.0
 11
211.2398141863
 21
105.6339910702
 31
0.0
  0
SPLINE
  5
11F
330
1F
100
AcDbEntity
  8
0
  6
Continuous
 62
     7
370
     0
100
AcDbSpline
210
0.0
220
0.0
230
1.0
 70
     8
 71
     3
 72
    23
 73
    19
 74
     0
 42
0.00000001
 43
0.00000001
 12
1.0
 22
0.0
 32
0.0
 13
1.0
 23
0.0
 33
0.0
 40
0.0
 40
0.0
 40
0.0
 40
0.0
 40
0.0692980234597528
 40
0.135560844101282
 40
0.1996709556470567
 40
0.2617162384956084
 40
0.3226619299471026
 40
0.3829069237782244
 40
0.4430320330728902
 40
0.503500787350163
 40
0.5637242810171083
 40
0.6239800220534739
 40
0.6836293869955233
 40
0.7438482724857305
 40
0.80519184622951
 40
0.8676487429597676
 40
0.9327780842312613
 40
1.0
 40
1.0
 40
1.0
 40
1.0
 10
211.6147722506668
 20
105.0281312778741
 30
0.0
 10
211.5926612377648
 20
105.0285797961665
 30
0.0
 10
211.5494076581778
 20
105.0294571879776
 30
0.0
 10
211.4860767218626
 20
105.0370848168092
 30
0.0
 10
211.4258415124589
 20
105.0492481952014
 30
0.0
 10
211.368683159261
 20
105.0666942451711
 30
0.0
 10
211.3144294594886
 20
105.0887389619808
 30
0.0
 10
211.2637110417533
 20
105.1167433113682
 30
0.0
 10
211.2156477425673
 20
105.1487785428305
 30
0.0
 10
211.1712967943337
 20
105.1858316559436
 30
0.0
 10
211.1308873059251
 20
105.2271601220108
 30
0.0
 10
211.0946795836314
 20
105.2718882799076
 30
0.0
 10
211.0631636165838
 20
105.3200452956569
 30
0.0
 10
211.0363546159176
 20
105.3713430083532
 30
0.0
 10
211.0140105518274
 20
105.4257322220644
 30
0.0
 10
210.9969164593751
 20
105.4835841639409
 30
0.0
 10
210.9833765156133
 20
105.544331217329
 30
0.0
 10
210.9787478230852
 20
105.5863219970773
 30
0.0
 10
210.9763968852384
 20
105.607649340107
 30
0.0
  0
SPLINE
  5
120
330
1F
100
AcDbEntity
  8
0
  6
Continuous
 62
     7
370
     0
100
AcDbSpline
210
0.0
220
0.0
230
1.0
 70
     8
 71
     3
 72
    15
 73
    11
 74
     0
 42
0.00000001
 43
0.00000001
 12
1.0
 22
0.0
 32
0.0
 13
1.0
 23
0.0
 33
0.0
 40
0.0
 40
0.0
 40
0.0
 40
0.0
 40
0.1278926194654212
 40
0.2515785135038573
 40
0.3727928197023035
 40
0.4927776986078535
 40
0.6135900692425712
 40
0.7378086492801463
 40
0.8661799015391671
 40
0.9999999999999999
 40
0.9999999999999999
 40
0.9999999999999999
 40
0.9999999999999999
 10
212.1362561887699
 20
105.2775545347726
 30
0.0
 10
212.1201162321811
 20
105.2576541838475
 30
0.0
 10
212.0883672047266
 20
105.2185080570042
 30
0.0
 10
212.0333941102581
 20
105.167698727357
 30
0.0
 10
211.9742972542985
 20
105.1245177897591
 30
0.0
 10
211.9107249442799
 20
105.0894364073392
 30
0.0
 10
211.8431039616936
 20
105.0612455458988
 30
0.0
 10
211.7706036013053
 20
105.0424855861658
 30
0.0
 10
211.6940999052444
 20
105.0298875301137
 30
0.0
 10
211.6415786335838
 20
105.0287247502298
 30
0.0
 10
211.6147722506668
 20
105.0281312778741
 30
0.0
  0
SPLINE
  5
121
330
1F
100
AcDbEntity
  8
0
  6
Continuous
 62
     7
370
     0
100
AcDbSpline
210
0.0
220
0.0
230
1.0
 70
     8
 71
     3
 72
    27
 73
    23
 74
     0
 42
0.00000001
 43
0.00000001
 12
1.0
 22
0.0
 32
0.0
 13
1.0
 23
0.0
 33
0.0
 40
0.0
 40
0.0
 40
0.0
 40
0.0
 40
0.0467628351215619
 40
0.091968696607212
 40
0.1358043853805056
 40
0.1782315801839235
 40
0.2194414332265379
 40
0.2601769432685921
 40
0.3002796061140319
 40
0.3405476414666171
 40
0.3803111902076692
 40
0.4196419535698123
 40
0.4590173240985177
 40
0.4981819588897615
 40
0.5376702145628715
 40
0.5779133315743612
 40
0.6186488416164155
 40
0.6607616027603175
 40
0.7452991770631804
 40
0.8297447416906314
 40
0.9146020866092538
 40
1.0
 40
1.0
 40
1.0
 40
1.0
 10
207.5099898396947
 20
106.8983941150803
 30
0.0
 10
207.4918642619991
 20
106.8981311309509
 30
0.0
 10
207.456216599671
 20
106.897613918777
 30
0.0
 10
207.4038458953548
 20
106.8919530889119
 30
0.0
 10
207.3535518038802
 20
106.8836152389084
 30
0.0
 10
207.3057091653907
 20
106.8711119160655
 30
0.0
 10
207.260056181552
 20
106.8555235238984
 30
0.0
 10
207.216863765186
 20
106.836113217481
 30
0.0
 10
207.1757645023446
 20
106.813362061535
 30
0.0
 10
207.1372170817397
 20
106.7871334326009
 30
0.0
 10
207.1015454595865
 20
106.7576474059314
 30
0.0
 10
207.067781611307
 20
106.7264760622582
 30
0.0
 10
207.0375465762146
 20
106.6921656412996
 30
0.0
 10
207.0096874018776
 20
106.6558474935303
 30
0.0
 10
206.9850153464907
 20
106.6168798509782
 30
0.0
 10
206.9628063636617
 20
106.5757935001086
 30
0.0
 10
206.9432020187224
 20
106.5322517060292
 30
0.0
 10
206.9218319515186
 20
106.470969928811
 30
0.0
 10
206.9000423037666
 20
106.3920404170243
 30
0.0
 10
206.881139757471
 20
106.2954562770804
 30
0.0
 10
206.8690992811359
 20
106.1973504606122
 30
0.0
 10
206.867759171619
 20
106.1313627004521
 30
0.0
 10
206.867086989405
 20
106.0982640632473
 30
0.0
  0
SPLINE
  5
122
330
1F
100
AcDbEntity
  8
0
  6
Continuous
 62
     7
370
     0
100
AcDbSpline
210
0.0
220
0.0
230
1.0
 70
     8
 71
     3
 72
    23
 73
    19
 74
     0
 42
0.00000001
 43
0.00000001
 12
1.0
 22
0.0
 32
0.0
 13
1.0
 23
0.0
 33
0.0
 40
0.0
 40
0.0
 40
0.0
 40
0.0
 40
0.0772311103286299
 40
0.1511651795217243
 40
0.2207847057253998
 40
0.2871495176777696
 40
0.3506324812950841
 40
0.4113067715078916
 40
0.4699644151376497
 40
0.5267072266832779
 40
0.5824983333641278
 40
0.6385087274080254
 40
0.6949179812139082
 40
0.7524203526591543
 40
0.8112509754155086
 40
0.8718561089908092
 40
0.9346441878526853
 40
1.0
 40
1.0
 40
1.0
 40
1.0
 10
208.0261231138709
 20
106.4761032543907
 30
0.0
 10
208.0204326987949
 20
106.4938749079627
 30
0.0
 10
208.009294795781
 20
106.5286595328527
 30
0.0
 10
207.9895183594734
 20
106.5782338051994
 30
0.0
 10
207.9681604676416
 20
106.6242549267399
 30
0.0
 10
207.9447123577491
 20
106.6664100665826
 30
0.0
 10
207.9191232128353
 20
106.7047093221316
 30
0.0
 10
207.8919822829287
 20
106.7396181639052
 30
0.0
 10
207.8626392985464
 20
106.770485013028
 30
0.0
 10
207.8316911205118
 20
106.7980215822867
 30
0.0
 10
207.7983385760082
 20
106.8214801041466
 30
0.0
 10
207.7633635935166
 20
106.8422682150227
 30
0.0
 10
207.7260287259495
 20
106.8594672067596
 30
0.0
 10
207.6868710628763
 20
106.874014000778
 30
0.0
 10
207.6455246017768
 20
106.8850856784806
 30
0.0
 10
207.6021577109514
 20
106.8928750404969
 30
0.0
 10
207.5567322872255
 20
106.8973831416108
 30
0.0
 10
207.5257774123384
 20
106.8980526520647
 30
0.0
 10
207.5099898396947
 20
106.8983941150803
 30
0.0
  0
LINE
  5
123
330
1F
100
AcDbEntity
  8
0
  6
Continuous
 62
     7
370
     0
100
AcDbLine
 10
208.315882145
 20
106.5382532738
 30
0.0
 11
208.0261231139
 21
106.4761032544
 31
0.0
  0
SPLINE
  5
124
330
1F
100
AcDbEntity
  8
0
  6
Continuous
 62
     7
370
     0
100
AcDbSpline
210
0.0
220
0.0
230
1.0
 70
     8
 71
     3
 72
    23
 73
    19
 74
     0
 42
0.00000001
 43
0.00000001
 12
1.0
 22
0.0
 32
0.0
 13
1.0
 23
0.0
 33
0.0
 40
0.0
 40
0.0
 40
0.0
 40
0.0
 40
0.0686494919759957
 40
0.134937373785155
 40
0.1988418982006104
 40
0.2614093284183097
 40
0.3225167637069052
 40
0.3823768656987784
 40
0.4424709047536874
 40
0.5022278334792912
 40
0.5621014330908561
 40
0.62173160809488
 40
0.6818513124344153
 40
0.7420491672939588
 40
0.8039081304743815
 40
0.8671621602461707
 40
0.9323605979385298
 40
1.0
 40
1.0
 40
1.0
 40
1.0
 10
207.5239838838111
 20
107.1354696859937
 30
0.0
 10
207.5485597774205
 20
107.1350064425584
 30
0.0
 10
207.5968661296837
 20
107.1340958917184
 30
0.0
 10
207.6677470951054
 20
107.1266064314449
 30
0.0
 10
207.7356325533631
 20
107.1140624058992
 30
0.0
 10
207.8008166643634
 20
107.0976058306527
 30
0.0
 10
207.8626217210885
 20
107.0750733534794
 30
0.0
 10
207.9217187241244
 20
107.048284827821
 30
0.0
 10
207.977519775319
 20
107.0161016592225
 30
0.0
 10
208.0304590544617
 20
106.9794082993606
 30
0.0
 10
208.0796747913704
 20
106.9381370771022
 30
0.0
 10
208.1258557079861
 20
106.8932739506561
 30
0.0
 10
208.1671187891281
 20
106.8436976691276
 30
0.0
 10
208.2050983036551
 20
106.7906080668688
 30
0.0
 10
208.2385992893913
 20
106.733268972269
 30
0.0
 10
208.2688542137165
 20
106.6721803206651
 30
0.0
 10
208.2948725680764
 20
106.6068879877785
 30
0.0
 10
208.3087936834395
 20
106.5614100719414
 30
0.0
 10
208.3158821449873
 20
106.5382532738489
 30
0.0
  0
SPLINE
  5
125
330
1F
100
AcDbEntity
  8
0
  6
Continuous
 62
     7
370
     0
100
AcDbSpline
210
0.0
220
0.0
230
1.0
 70
     8
 71
     3
 72
    31
 73
    27
 74
     0
 42
0.00000001
 43
0.00000001
 12
1.0
 22
0.0
 32
0.0
 13
1.0
 23
0.0
 33
0.0
 40
0.0
 40
0.0
 40
0.0
 40
0.0
 40
0.0494014326173349
 40
0.0976047534771127
 40
0.1442547055445423
 40
0.1894721438466749
 40
0.2339150059350921
 40
0.2772371111508619
 40
0.3198588355644323
 40
0.3619566544332702
 40
0.4034857542265475
 40
0.4439336363338552
 40
0.4836491750513743
 40
0.5228932833172718
 40
0.5618583840947368
 40
0.6007948668981946
 40
0.6401043361891355
 40
0.6796434268265384
 40
0.7193997691904886
 40
0.7588541926680972
 40
0.7983154646830742
 40
0.8378024081343659
 40
0.8774685864444087
 40
0.9176827969423332
 40
0.9583928898538524
 40
0.9999999999999999
 40
0.9999999999999999
 40
0.9999999999999999
 40
0.9999999999999999
 10
206.5773279582886
 20
106.0970292946488
 30
0.0
 10
206.5777928166628
 20
106.1231038304227
 30
0.0
 10
206.5787112594005
 20
106.1746205274375
 30
0.0
 10
206.5838958537585
 20
106.2506349092696
 30
0.0
 10
206.5934180743303
 20
106.3239980869245
 30
0.0
 10
206.6066416690092
 20
106.3947583171282
 30
0.0
 10
206.6233748064596
 20
106.4629729055005
 30
0.0
 10
206.6440299889363
 20
106.5286750858956
 30
0.0
 10
206.6683459292516
 20
106.5917807930768
 30
0.0
 10
206.6962484963445
 20
106.6523596137315
 30
0.0
 10
206.7279230699147
 20
106.7097353284733
 30
0.0
 10
206.7624242935378
 20
106.7639895015283
 30
0.0
 10
206.800575153886
 20
106.8142313035088
 30
0.0
 10
206.8412445346984
 20
106.861420617878
 30
0.0
 10
206.8854481810158
 20
106.9047716895878
 30
0.0
 10
206.9330511143318
 20
106.9443827189668
 30
0.0
 10
206.9836426368021
 20
106.980615008804
 30
0.0
 10
207.0372153639731
 20
107.0131321931246
 30
0.0
 10
207.0930690379163
 20
107.0416643210317
 30
0.0
 10
207.1503740518168
 20
107.0670781359782
 30
0.0
 10
207.2093583320776
 20
107.0879082118971
 30
0.0
 10
207.2695542346639
 20
107.1052275826696
 30
0.0
 10
207.3310913558918
 20
107.1190154106976
 30
0.0
 10
207.3941134839225
 20
107.1282353743013
 30
0.0
 10
207.4585623852881
 20
107.1342438169347
 30
0.0
 10
207.5020188680317
 20
107.1350581051857
 30
0.0
 10
207.5239838838111
 20
107.1354696859937
 30
0.0
  0
SPLINE
  5
126
330
1F
100
AcDbEntity
  8
0
  6
Continuous
 62
     7
370
     0
100
AcDbSpline
210
0.0
220
0.0
230
1.0
 70
     8
 71
     3
 72
    31
 73
    27
 74
     0
 42
0.00000001
 43
0.00000001
 12
1.0
 22
0.0
 32
0.0
 13
1.0
 23
0.0
 33
0.0
 40
0.0
 40
0.0
 40
0.0
 40
0.0
 40
0.0491959188678573
 40
0.0962478839423339
 40
0.1413486305545651
 40
0.18465611934875
 40
0.226058682310063
 40
0.2661730836384061
 40
0.3052898413966903
 40
0.3432450951047079
 40
0.3808772760868657
 40
0.4184957931350257
 40
0.4563187508918002
 40
0.494236737091876
 40
0.533023528957667
 40
0.572473194333944
 40
0.613078809089891
 40
0.6549344546107934
 40
0.6973967795046183
 40
0.7398840686663996
 40
0.7821947798191174
 40
0.8250615348667028
 40
0.8679874655774052
 40
0.9114105439600777
 40
0.9553719455228146
 40
1.0
 40
1.0
 40
1.0
 40
1.0
 10
207.5297461372708
 20
105.0281312778741
 30
0.0
 10
207.5031187474334
 20
105.0285181260375
 30
0.0
 10
207.4510243870527
 20
105.0292749635556
 30
0.0
 10
207.3747091524741
 20
105.0354308788447
 30
0.0
 10
207.3021258706008
 20
105.0461073559142
 30
0.0
 10
207.2334100890594
 20
105.0609407928165
 30
0.0
 10
207.1683305187064
 20
105.0792814154057
 30
0.0
 10
207.1071570267811
 20
105.1023555438106
 30
0.0
 10
207.0499967607612
 20
105.1299966896669
 30
0.0
 10
206.9963729280745
 20
105.1614318161208
 30
0.0
 10
206.9465132874248
 20
105.1971435353277
 30
0.0
 10
206.8992840131699
 20
105.2361680850464
 30
0.0
 10
206.855831675054
 20
105.2795797680176
 30
0.0
 10
206.8150698002756
 20
105.3263535941474
 30
0.0
 10
206.7778861972938
 20
105.3771065751851
 30
0.0
 10
206.7429128732261
 20
105.4311492105659
 30
0.0
 10
206.7118568558705
 20
105.4894337292505
 30
0.0
 10
206.6835672332185
 20
105.5508795347761
 30
0.0
 10
206.6587368267529
 20
105.6148917213527
 30
0.0
 10
206.6367706022338
 20
105.6802058714783
 30
0.0
 10
206.618812012825
 20
105.7469521306441
 30
0.0
 10
206.6033508262216
 20
105.8145688406844
 30
0.0
 10
206.5921190233184
 20
105.8836249497312
 30
0.0
 10
206.583201319559
 20
105.9536023256361
 30
0.0
 10
206.578298186742
 20
106.0249299902513
 30
0.0
 10
206.577652986193
 20
106.0728759256816
 30
0.0
 10
206.5773279582886
 20
106.0970292946488
 30
0.0
  0
SPLINE
  5
127
330
1F
100
AcDbEntity
  8
0
  6
Continuous
 62
     7
370
     0
100
AcDbSpline
210
0.0
220
0.0
230
1.0
 70
     8
 71
     3
 72
    23
 73
    19
 74
     0
 42
0.00000001
 43
0.00000001
 12
1.0
 22
0.0
 32
0.0
 13
1.0
 23
0.0
 33
0.0
 40
0.0
 40
0.0
 40
0.0
 40
0.0
 40
0.0715783870982365
 40
0.140016209075356
 40
0.206197439946981
 40
0.2701561038056543
 40
0.3320010402688309
 40
0.3927550109285565
 40
0.4525790344906381
 40
0.512252798847904
 40
0.5715322524285594
 40
0.630151752872219
 40
0.6887691695485556
 40
0.7481639008503594
 40
0.8087033721996509
 40
0.8702562984804197
 40
0.9339000275070017
 40
1.0
 40
1.0
 40
1.0
 40
1.0
 10
208.3685656051903
 20
105.7121930814473
 30
0.0
 10
208.3613063326139
 20
105.6850347723969
 30
0.0
 10
208.3471062944738
 20
105.6319097491562
 30
0.0
 10
208.319031094163
 20
105.5558819603034
 30
0.0
 10
208.2875201249065
 20
105.4845331234483
 30
0.0
 10
208.2518087879022
 20
105.418051184092
 30
0.0
 10
208.2115062258537
 20
105.3568183720994
 30
0.0
 10
208.1676802938344
 20
105.3000477277138
 30
0.0
 10
208.1185951083772
 20
105.2489297850626
 30
0.0
 10
208.0660516635754
 20
105.2022847687139
 30
0.0
 10
208.0096408513577
 20
105.1611439887592
 30
0.0
 10
207.950042792846
 20
105.1256181705325
 30
0.0
 10
207.8875455722404
 20
105.0953929106432
 30
0.0
 10
207.821896595258
 20
105.0705375128191
 30
0.0
 10
207.7530533010945
 20
105.0518316949147
 30
0.0
 10
207.6813701649916
 20
105.0381977989357
 30
0.0
 10
207.6066381636615
 20
105.0298001130818
 30
0.0
 10
207.5556982690156
 20
105.0286945330411
 30
0.0
 10
207.5297461372708
 20
105.0281312778741
 30
0.0
  0
LINE
  5
128
330
1F
100
AcDbEntity
  8
0
  6
Continuous
 62
     7
370
     0
100
AcDbLine
 10
208.0788065741
 20
105.7796937648
 30
0.0
 11
208.3685656052
 21
105.7121930814
 31
0.0
  0
SPLINE
  5
129
330
1F
100
AcDbEntity
  8
0
  6
Continuous
 62
     7
370
     0
100
AcDbSpline
210
0.0
220
0.0
230
1.0
 70
     8
 71
     3
 72
    23
 73
    19
 74
     0
 42
0.00000001
 43
0.00000001
 12
1.0
 22
0.0
 32
0.0
 13
1.0
 23
0.0
 33
0.0
 40
0.0
 40
0.0
 40
0.0
 40
0.0
 40
0.0633358805656859
 40
0.1251107589802128
 40
0.1846884118917139
 40
0.2432104439678636
 40
0.3008880404131166
 40
0.358370115531299
 40
0.4157614077031932
 40
0.4743866229897766
 40
0.533966264972407
 40
0.5940075641988068
 40
0.6550724073076795
 40
0.7186100426051375
 40
0.7843747830517759
 40
0.8529914722129185
 40
0.9249004292977553
 40
0.9999999999999999
 40
0.9999999999999999
 40
0.9999999999999999
 40
0.9999999999999999
 10
207.5025812281036
 20
105.2652068487875
 30
0.0
 10
207.5204373336376
 20
105.2655813288793
 30
0.0
 10
207.5557094557875
 20
105.2663210594727
 30
0.0
 10
207.6074228655706
 20
105.2727959629642
 30
0.0
 10
207.6572738796911
 20
105.2823375801823
 30
0.0
 10
207.7046585600811
 20
105.2970612590461
 30
0.0
 10
207.7502142842588
 20
105.3150886787493
 30
0.0
 10
207.7935678011012
 20
105.3373196400582
 30
0.0
 10
207.8345827705131
 20
105.3640569980133
 30
0.0
 10
207.8737416186855
 20
105.3944147565179
 30
0.0
 10
207.9103222218586
 20
105.4289566979784
 30
0.0
 10
207.9438463781028
 20
105.4674045357458
 30
0.0
 10
207.9739213339501
 20
105.5099335478823
 30
0.0
 10
208.0018083862207
 20
105.5558612058271
 30
0.0
 10
208.0252386354998
 20
105.6065595383614
 30
0.0
 10
208.0469405786603
 20
105.6605174513626
 30
0.0
 10
208.0650242054119
 20
105.7186217910754
 30
0.0
 10
208.0741464559746
 20
105.7590440044576
 30
0.0
 10
208.0788065740738
 20
105.7796937648324
 30
0.0
  0
SPLINE
  5
12A
330
1F
100
AcDbEntity
  8
0
  6
Continuous
 62
     7
370
     0
100
AcDbSpline
210
0.0
220
0.0
230
1.0
 70
     8
 71
     3
 72
    27
 73
    23
 74
     0
 42
0.00000001
 43
0.00000001
 12
1.0
 22
0.0
 32
0.0
 13
1.0
 23
0.0
 33
0.0
 40
0.0
 40
0.0
 40
0.0
 40
0.0
 40
0.1053432609984026
 40
0.2043754661654296
 40
0.2980686612490644
 40
0.3870699389029766
 40
0.4297257277325169
 40
0.4709012389537418
 40
0.5111216710274202
 40
0.5501787824700682
 40
0.5883543698960263
 40
0.6266830105708967
 40
0.6644516852874769
 40
0.7025148539501567
 40
0.7404811716294024
 40
0.777618121594641
 40
0.8147160450669567
 40
0.8515265100150813
 40
0.8880984508373161
 40
0.9251116757437154
 40
0.9621036957071507
 40
1.0
 40
1.0
 40
1.0
 40
1.0
 10
206.867086989405
 20
106.0982640632473
 30
0.0
 10
206.8678451155415
 20
106.0566480660189
 30
0.0
 10
206.8693159489018
 20
105.9759092626735
 30
0.0
 10
206.8838294590026
 20
105.8589054002079
 30
0.0
 10
206.9059572953829
 20
105.7497722905148
 30
0.0
 10
206.9326624059081
 20
105.6646267202728
 30
0.0
 10
206.9594503149374
 20
105.601821744523
 30
0.0
 10
206.9811150297953
 20
105.5578385142481
 30
0.0
 10
207.0058444375124
 20
105.5171385667019
 30
0.0
 10
207.0330234275861
 20
105.4794907619283
 30
0.0
 10
207.0630020939355
 20
105.445004917464
 30
0.0
 10
207.095362773046
 20
105.4134978420796
 30
0.0
 10
207.1301126934106
 20
105.3846663635328
 30
0.0
 10
207.1676636093208
 20
105.3598601357289
 30
0.0
 10
207.2065701388158
 20
105.3378343685023
 30
0.0
 10
207.2463413128417
 20
105.3182486356656
 30
0.0
 10
207.2870021717661
 20
105.3016838896795
 30
0.0
 10
207.3287167649815
 20
105.2888160585803
 30
0.0
 10
207.3708993080109
 20
105.2776964635437
 30
0.0
 10
207.4140143980933
 20
105.2704326221799
 30
0.0
 10
207.4580497404813
 20
105.2663331389689
 30
0.0
 10
207.4876183840773
 20
105.2655852889702
 30
0.0
 10
207.5025812281036
 20
105.2652068487875
 30
0.0
  0
SPLINE
  5
12B
330
1F
100
AcDbEntity
  8
0
  6
Continuous
 62
     7
370
     0
100
AcDbSpline
210
0.0
220
0.0
230
1.0
 70
     8
 71
     3
 72
    23
 73
    19
 74
     0
 42
0.00000001
 43
0.00000001
 12
1.0
 22
0.0
 32
0.0
 13
1.0
 23
0.0
 33
0.0
 40
0.0
 40
0.0
 40
0.0
 40
0.0
 40
0.0704642259291749
 40
0.137956965604269
 40
0.2035785636142838
 40
0.2676916802449431
 40
0.3301858648593746
 40
0.3915337640898202
 40
0.4526637734870348
 40
0.5131537880892133
 40
0.5734535531000283
 40
0.6329675593891928
 40
0.6923319074206212
 40
0.75147419157163
 40
0.8121874455294295
 40
0.872961717848316
 40
0.935420306759491
 40
1.0
 40
1.0
 40
1.0
 40
1.0
 10
222.126768919295
 20
109.2954915543164
 30
0.0
 10
222.1419271039934
 20
109.2907463924537
 30
0.0
 10
222.1716042506233
 20
109.2814561728673
 30
0.0
 10
222.2142682319025
 20
109.2644563740663
 30
0.0
 10
222.2543166804966
 20
109.245099670206
 30
0.0
 10
222.2918367708225
 20
109.223354252748
 30
0.0
 10
222.3265749843754
 20
109.1990187484153
 30
0.0
 10
222.3584333028451
 20
109.172055219489
 30
0.0
 10
222.3876326180467
 20
109.142880919553
 30
0.0
 10
222.4141207625409
 20
109.111513594982
 30
0.0
 10
222.4373878185068
 20
109.0781551012035
 30
0.0
 10
222.4582554610729
 20
109.0435345231474
 30
0.0
 10
222.4754870525597
 20
109.0072349527613
 30
0.0
 10
222.4896111606006
 20
108.9693506328131
 30
0.0
 10
222.5006300646553
 20
108.9301156553446
 30
0.0
 10
222.5085428371977
 20
108.8893791156169
 30
0.0
 10
222.5130529155264
 20
108.8472358359054
 30
0.0
 10
222.5137303148878
 20
108.8186070476215
 30
0.0
 10
222.5140746696935
 20
108.8040536521103
 30
0.0
  0
SPLINE
  5
12C
330
1F
100
AcDbEntity
  8
0
  6
Continuous
 62
     7
370
     0
100
AcDbSpline
210
0.0
220
0.0
230
1.0
 70
     8
 71
     3
 72
    15
 73
    11
 74
     0
 42
0.00000001
 43
0.00000001
 12
1.0
 22
0.0
 32
0.0
 13
1.0
 23
0.0
 33
0.0
 40
0.0
 40
0.0
 40
0.0
 40
0.0
 40
0.1158426906010177
 40
0.2305685484828844
 40
0.3473546045205441
 40
0.4682527467344622
 40
0.5923025714800838
 40
0.7199701656206967
 40
0.8556003811349103
 40
1.0
 40
1.0
 40
1.0
 40
1.0
 10
222.435049479389
 20
109.7375387125821
 30
0.0
 10
222.4340907826906
 20
109.7155053329296
 30
0.0
 10
222.4321826320334
 20
109.671650996171
 30
0.0
 10
222.4169958876747
 20
109.6070508908022
 30
0.0
 10
222.3930265588419
 20
109.5443245907211
 30
0.0
 10
222.3591332492872
 20
109.484234658866
 30
0.0
 10
222.3158133512717
 20
109.4278804268734
 30
0.0
 10
222.2621090483011
 20
109.3771686014489
 30
0.0
 10
222.1987920663237
 20
109.3319905013565
 30
0.0
 10
222.1512726734546
 20
109.3079092458816
 30
0.0
 10
222.126768919295
 20
109.2954915543164
 30
0.0
  0
SPLINE
  5
12D
330
1F
100
AcDbEntity
  8
0
  6
Continuous
 62
     7
370
     0
100
AcDbSpline
210
0.0
220
0.0
230
1.0
 70
     8
 71
     3
 72
    23
 73
    19
 74
     0
 42
0.00000001
 43
0.00000001
 12
1.0
 22
0.0
 32
0.0
 13
1.0
 23
0.0
 33
0.0
 40
0.0
 40
0.0
 40
0.0
 40
0.0
 40
0.0587320371008649
 40
0.1146029008469815
 40
0.1676568100446119
 40
0.2179667070908431
 40
0.2657752056293755
 40
0.3111706510536958
 40
0.3537918046646693
 40
0.3947449080003065
 40
0.472805951082463
 40
0.549192366561607
 40
0.6247801075795548
 40
0.7026247640242256
 40
0.7797414321940388
 40
0.8540634639886252
 40
0.92715526641035
 40
0.9999999999999999
 40
0.9999999999999999
 40
0.9999999999999999
 40
0.9999999999999999
 10
221.755515160677
 20
110.2701355680717
 30
0.0
 10
221.7745915571463
 20
110.2700623864139
 30
0.0
 10
221.8118150297348
 20
110.2699195881952
 30
0.0
 10
221.866168996852
 20
110.266348352603
 30
0.0
 10
221.9176462624791
 20
110.2614636429342
 30
0.0
 10
221.9663576452212
 20
110.255167102373
 30
0.0
 10
222.0120923714468
 20
110.2460309498797
 30
0.0
 10
222.0548078215923
 20
110.2349631118594
 30
0.0
 10
222.094726285914
 20
110.2221967182777
 30
0.0
 10
222.1435205255349
 20
110.2027493657448
 30
0.0
 10
222.1997505371532
 20
110.1728157564282
 30
0.0
 10
222.2599782214201
 20
110.1281500879114
 30
0.0
 10
222.3123786467298
 20
110.07452264207
 30
0.0
 10
222.3554964907235
 20
110.0130357387339
 30
0.0
 10
222.391020943853
 20
109.9473561297542
 30
0.0
 10
222.4162073652411
 20
109.8787350740447
 30
0.0
 10
222.4323104085943
 20
109.8086666192025
 30
0.0
 10
222.4341374868648
 20
109.7612212399666
 30
0.0
 10
222.435049479389
 20
109.7375387125821
 30
0.0
  0
LINE
  5
12E
330
1F
100
AcDbEntity
  8
0
  6
Continuous
 62
     7
370
     0
100
AcDbLine
 10
220.9862543238
 20
110.2701355681
 30
0.0
 11
221.7555151607
 21
110.2701355681
 31
0.0
  0
LINE
  5
12F
330
1F
100
AcDbEntity
  8
0
  6
Continuous
 62
     7
370
     0
100
AcDbLine
 10
220.9862543238
 20
108.2154806202
 30
0.0
 11
220.9862543238
 21
110.2701355681
 31
0.0
  0
LINE
  5
130
330
1F
100
AcDbEntity
  8
0
  6
Continuous
 62
     7
370
     0
100
AcDbLine
 10
221.7575731083
 20
108.2154806202
 30
0.0
 11
220.9862543238
 21
108.2154806202
 31
0.0
  0
SPLINE
  5
131
330
1F
100
AcDbEntity
  8
0
  6
Continuous
 62
     7
370
     0
100
AcDbSpline
210
0.0
220
0.0
230
1.0
 70
     8
 71
     3
 72
    23
 73
    19
 74
     0
 42
0.00000001
 43
0.00000001
 12
1.0
 22
0.0
 32
0.0
 13
1.0
 23
0.0
 33
0.0
 40
0.0
 40
0.0
 40
0.0
 40
0.0
 40
0.0642545754247028
 40
0.1273603868320974
 40
0.1894718420926419
 40
0.2517207629332009
 40
0.3120272840890018
 40
0.3686746571150508
 40
0.4226814918055488
 40
0.4740604252251504
 40
0.525773772273917
 40
0.5796221048577136
 40
0.6373752855308656
 40
0.698400381820801
 40
0.7643573310122576
 40
0.8363147679791493
 40
0.9146777942540475
 40
1.0
 40
1.0
 40
1.0
 40
1.0
 10
222.5140746696935
 20
108.8040536521103
 30
0.0
 10
222.5133649019334
 20
108.7806883792364
 30
0.0
 10
222.5119580558699
 20
108.7343755653708
 30
0.0
 10
222.5006595136044
 20
108.6662108917231
 30
0.0
 10
222.4815655762385
 20
108.6006422206572
 30
0.0
 10
222.4552843953134
 20
108.5387297183453
 30
0.0
 10
222.4239693103385
 20
108.48148249483
 30
0.0
 10
222.3883786191049
 20
108.4303994690628
 30
0.0
 10
222.3494199578834
 20
108.3860062818571
 30
0.0
 10
222.3059962908193
 20
108.3486636765049
 30
0.0
 10
222.258387719195
 20
108.3169707324607
 30
0.0
 10
222.2052495755068
 20
108.2902832009305
 30
0.0
 10
222.1469927142712
 20
108.2667473556613
 30
0.0
 10
222.0824330972757
 20
108.2479460536415
 30
0.0
 10
222.0116001119088
 20
108.2330103238238
 30
0.0
 10
221.9335324896338
 20
108.2233065558412
 30
0.0
 10
221.8481102913057
 20
108.2163599588219
 30
0.0
 10
221.7885956039816
 20
108.2157819248684
 30
0.0
 10
221.7575731083412
 20
108.215480620155
 30
0.0
  0
LINE
  5
132
330
1F
100
AcDbEntity
  8
0
  6
Continuous
 62
     7
370
     0
100
AcDbLine
 10
217.7989049815
 20
108.4525561911
 30
0.0
 11
218.7735489953
 21
108.4525561911
 31
0.0
  0
LINE
  5
133
330
1F
100
AcDbEntity
  8
0
  6
Continuous
 62
     7
370
     0
100
AcDbLine
 10
217.7989049815
 20
110.2701355681
 30
0.0
 11
217.7989049815
 21
108.4525561911
 31
0.0
  0
LINE
  5
134
330
1F
100
AcDbEntity
  8
0
  6
Continuous
 62
     7
370
     0
100
AcDbLine
 10
217.5091459504
 20
110.2701355681
 30
0.0
 11
217.7989049815
 21
110.2701355681
 31
0.0
  0
LINE
  5
135
330
1F
100
AcDbEntity
  8
0
  6
Continuous
 62
     7
370
     0
100
AcDbLine
 10
217.5091459504
 20
108.2154806202
 30
0.0
 11
217.5091459504
 21
110.2701355681
 31
0.0
  0
LINE
  5
136
330
1F
100
AcDbEntity
  8
0
  6
Continuous
 62
     7
370
     0
100
AcDbLine
 10
218.7735489953
 20
108.2154806202
 30
0.0
 11
217.5091459504
 21
108.2154806202
 31
0.0
  0
LINE
  5
137
330
1F
100
AcDbEntity
  8
0
  6
Continuous
 62
     7
370
     0
100
AcDbLine
 10
218.7735489953
 20
108.4525561911
 30
0.0
 11
218.7735489953
 21
108.2154806202
 31
0.0
  0
SPLINE
  5
138
330
1F
100
AcDbEntity
  8
0
  6
Continuous
 62
     7
370
     0
100
AcDbSpline
210
0.0
220
0.0
230
1.0
 70
     8
 71
     3
 72
    31
 73
    27
 74
     0
 42
0.00000001
 43
0.00000001
 12
1.0
 22
0.0
 32
0.0
 13
1.0
 23
0.0
 33
0.0
 40
0.0
 40
0.0
 40
0.0
 40
0.0
 40
0.0430989705688968
 40
0.0855867603450731
 40
0.1269076657436391
 40
0.1679674856215208
 40
0.208449558601066
 40
0.2490254246415441
 40
0.289280534171679
 40
0.3300098489827308
 40
0.370597724099577
 40
0.4104659863326995
 40
0.4500332158929483
 40
0.4896882096042475
 40
0.5291164230741915
 40
0.5690368070925096
 40
0.6097030542359448
 40
0.6507589174942197
 40
0.6925092624061777
 40
0.7342191213706863
 40
0.7767069111468624
 40
0.8195518402403216
 40
0.8633507288313336
 40
0.9078385251300618
 40
0.9533337036124183
 40
1.0
 40
1.0
 40
1.0
 40
1.0
 10
214.1122975359149
 20
110.2964772981732
 30
0.0
 10
214.135495260925
 20
110.296072222223
 30
0.0
 10
214.1815617470797
 20
110.295267814651
 30
0.0
 10
214.2496669354001
 20
110.2891473472983
 30
0.0
 10
214.3160220599049
 20
110.2782233733838
 30
0.0
 10
214.3805617774297
 20
110.2635840233326
 30
0.0
 10
214.4434617654786
 20
110.2443778326972
 30
0.0
 10
214.504759586744
 20
110.2217055090754
 30
0.0
 10
214.5639186472935
 20
110.1936113076619
 30
0.0
 10
214.6213325165866
 20
110.1621570535121
 30
0.0
 10
214.6763234664199
 20
110.1269741101838
 30
0.0
 10
214.7280038233796
 20
110.088107584084
 30
0.0
 10
214.7762497966788
 20
110.0458514210294
 30
0.0
 10
214.8217094606027
 20
110.0009001971667
 30
0.0
 10
214.8628658901573
 20
109.9517368714284
 30
0.0
 10
214.9014193620932
 20
109.8998590429455
 30
0.0
 10
214.9362620197548
 20
109.8443468337531
 30
0.0
 10
214.9675174925567
 20
109.785655072421
 30
0.0
 10
214.9954630614068
 20
109.7246902424664
 30
0.0
 10
215.0193479464332
 20
109.6611996695042
 30
0.0
 10
215.0398574613798
 20
109.595944967383
 30
0.0
 10
215.0570256557019
 20
109.5285398979763
 30
0.0
 10
215.0693442983377
 20
109.4590075049638
 30
0.0
 10
215.0791537666554
 20
109.3876473965569
 30
0.0
 10
215.0843167608477
 20
109.3142263439189
 30
0.0
 10
215.0852395323709
 20
109.2646291144926
 30
0.0
 10
215.0857067810717
 20
109.2395153778507
 30
0.0
  0
SPLINE
  5
139
330
1F
100
AcDbEntity
  8
0
  6
Continuous
 62
     7
370
     0
100
AcDbSpline
210
0.0
220
0.0
230
1.0
 70
     8
 71
     3
 72
    23
 73
    19
 74
     0
 42
0.00000001
 43
0.00000001
 12
1.0
 22
0.0
 32
0.0
 13
1.0
 23
0.0
 33
0.0
 40
0.0
 40
0.0
 40
0.0
 40
0.0
 40
0.0752263466908988
 40
0.1465747215268522
 40
0.2145002518264754
 40
0.2795299716530227
 40
0.3424029515883814
 40
0.4034960527288082
 40
0.4637616065030392
 40
0.5238643590795866
 40
0.5832517242549664
 40
0.6413020392831351
 40
0.6988977748564887
 40
0.7562952438113087
 40
0.814627804812969
 40
0.874324768339998
 40
0.9357832838625453
 40
1.0
 40
1.0
 40
1.0
 40
1.0
 10
213.136418753561
 20
109.2156431849462
 30
0.0
 10
213.137132872555
 20
109.2568372457118
 30
0.0
 10
213.1385242971992
 20
109.3371017840137
 30
0.0
 10
213.1515251275335
 20
109.4539772941257
 30
0.0
 10
213.1726351389809
 20
109.5639418609634
 30
0.0
 10
213.202813768278
 20
109.6669869175074
 30
0.0
 10
213.2410652676389
 20
109.7632739360588
 30
0.0
 10
213.2875672722789
 20
109.8530209438434
 30
0.0
 10
213.343718531753
 20
109.9352120693451
 30
0.0
 10
213.4072399150315
 20
110.0106297186801
 30
0.0
 10
213.4781903825464
 20
110.0773044485136
 30
0.0
 10
213.5537324644509
 20
110.1365211611831
 30
0.0
 10
213.6348094443773
 20
110.1859149004475
 30
0.0
 10
213.7206722332502
 20
110.2266978452798
 30
0.0
 10
213.8116856250152
 20
110.2580098093671
 30
0.0
 10
213.9075940817257
 20
110.2799310333919
 30
0.0
 10
214.008295029922
 20
110.2940723531482
 30
0.0
 10
214.0771264847861
 20
110.2956640058046
 30
0.0
 10
214.1122975359149
 20
110.2964772981732
 30
0.0
  0
SPLINE
  5
13A
330
1F
100
AcDbEntity
  8
0
  6
Continuous
 62
     7
370
     0
100
AcDbSpline
210
0.0
220
0.0
230
1.0
 70
     8
 71
     3
 72
    31
 73
    27
 74
     0
 42
0.00000001
 43
0.00000001
 12
1.0
 22
0.0
 32
0.0
 13
1.0
 23
0.0
 33
0.0
 40
0.0
 40
0.0
 40
0.0
 40
0.0
 40
0.0446969998899171
 40
0.0885335629185875
 40
0.1314091332352275
 40
0.1738139421467784
 40
0.2157145332694449
 40
0.2572471603264208
 40
0.2988479641797117
 40
0.3406041827148143
 40
0.3820294481091344
 40
0.4229697500404858
 40
0.4636322295306197
 40
0.5040475437003945
 40
0.5445912057564576
 40
0.5849639251690937
 40
0.6262652162680831
 40
0.6679794005009905
 40
0.7099427472053506
 40
0.7513818550852256
 40
0.7926185649779642
 40
0.8339484357458206
 40
0.8750080506311037
 40
0.9164455302232757
 40
0.957906613728307
 40
1.0
 40
1.0
 40
1.0
 40
1.0
 10
214.1110627673164
 20
108.1891388900536
 30
0.0
 10
214.0874482093188
 20
108.1894882703651
 30
0.0
 10
214.0406736839274
 20
108.1901803052639
 30
0.0
 10
213.9715396756538
 20
108.1970879931937
 30
0.0
 10
213.9041256128487
 20
108.2076259117566
 30
0.0
 10
213.8386274801915
 20
108.2228394825182
 30
0.0
 10
213.7751347782817
 20
108.2426866604744
 30
0.0
 10
213.7135723807219
 20
108.2667090566832
 30
0.0
 10
213.6537237660622
 20
108.2945856192693
 30
0.0
 10
213.5963315565659
 20
108.3271145455015
 30
0.0
 10
213.5415910918777
 20
108.3632832148791
 30
0.0
 10
213.4900329363475
 20
108.402911834538
 30
0.0
 10
213.4416855997451
 20
108.4456351915768
 30
0.0
 10
213.3973248589053
 20
108.4921594521109
 30
0.0
 10
213.3555140090944
 20
108.5407980936466
 30
0.0
 10
213.3179248359268
 20
108.5933589843381
 30
0.0
 10
213.2833297356651
 20
108.648650098206
 30
0.0
 10
213.252752434027
 20
108.707204417641
 30
0.0
 10
213.2251304179489
 20
108.767281930278
 30
0.0
 10
213.201858272763
 20
108.828901853294
 30
0.0
 10
213.1814065674385
 20
108.8911560728157
 30
0.0
 10
213.1651188543785
 20
108.9544282978213
 30
0.0
 10
213.1521395291252
 20
109.0185725736998
 30
0.0
 10
213.143411873439
 20
109.0834821666167
 30
0.0
 10
213.1371086941406
 20
109.1492537483665
 30
0.0
 10
213.1366498910928
 20
109.1934020080078
 30
0.0
 10
213.136418753561
 20
109.2156431849462
 30
0.0
  0
SPLINE
  5
13B
330
1F
100
AcDbEntity
  8
0
  6
Continuous
 62
     7
370
     0
100
AcDbSpline
210
0.0
220
0.0
230
1.0
 70
     8
 71
     3
 72
    31
 73
    27
 74
     0
 42
0.00000001
 43
0.00000001
 12
1.0
 22
0.0
 32
0.0
 13
1.0
 23
0.0
 33
0.0
 40
0.0
 40
0.0
 40
0.0
 40
0.0
 40
0.0475595569054264
 40
0.0939621052432108
 40
0.1391115332408221
 40
0.1836263101269046
 40
0.2274570284004936
 40
0.2707025105518545
 40
0.3136105321155538
 40
0.3562604510849769
 40
0.3983661529550377
 40
0.4395565149792806
 40
0.4800453830214204
 40
0.5198884957050127
 40
0.5596577503171976
 40
0.5994212546627414
 40
0.6392077550883982
 40
0.6796683749857806
 40
0.7200198525128486
 40
0.7598588655624579
 40
0.7995598848323808
 40
0.8391991446364383
 40
0.8789560762302792
 40
0.918794269302466
 40
0.9590833628432752
 40
1.0
 40
1.0
 40
1.0
 40
1.0
 10
215.0857067810717
 20
109.2395153778507
 30
0.0
 10
215.0852786795201
 20
109.2139875151306
 30
0.0
 10
215.0844328910884
 20
109.163552820621
 30
0.0
 10
215.0787099404729
 20
109.0890453458469
 30
0.0
 10
215.0686470040885
 20
109.0166768261476
 30
0.0
 10
215.0553002322769
 20
108.9462314716861
 30
0.0
 10
215.0374159655203
 20
108.8778559350369
 30
0.0
 10
215.0161632627854
 20
108.8113541793466
 30
0.0
 10
214.9904569181243
 20
108.7471223023506
 30
0.0
 10
214.961424455873
 20
108.6850054919278
 30
0.0
 10
214.9285742371463
 20
108.6258580697875
 30
0.0
 10
214.8923382168593
 20
108.5700936226115
 30
0.0
 10
214.8526907241201
 20
108.5182337827382
 30
0.0
 10
214.8102339997434
 20
108.4696423623048
 30
0.0
 10
214.7639765667601
 20
108.4251882667939
 30
0.0
 10
214.7144880222228
 20
108.3844558177918
 30
0.0
 10
214.6619586493085
 20
108.3470608620169
 30
0.0
 10
214.6062119760353
 20
108.3140161718137
 30
0.0
 10
214.5482484524909
 20
108.2850513205106
 30
0.0
 10
214.4892150854277
 20
108.2593542790439
 30
0.0
 10
214.4290680235422
 20
108.237438819479
 30
0.0
 10
214.367601702595
 20
108.2196785177627
 30
0.0
 10
214.3049837966749
 20
108.206257555443
 30
0.0
 10
214.2413905200133
 20
108.1962077972995
 30
0.0
 10
214.1766134050384
 20
108.19042111205
 30
0.0
 10
214.1330252603976
 20
108.1895684936807
 30
0.0
 10
214.1110627673164
 20
108.1891388900536
 30
0.0
  0
LINE
  5
13C
330
1F
100
AcDbEntity
  8
0
  6
Continuous
 62
     7
370
     0
100
AcDbLine
 10
210.8710299648
 20
110.0330599972
 30
0.0
 11
210.2124867123
 21
110.0330599972
 31
0.0
  0
LINE
  5
13D
330
1F
100
AcDbEntity
  8
0
  6
Continuous
 62
     7
370
     0
100
AcDbLine
 10
210.8710299648
 20
110.2701355681
 30
0.0
 11
210.8710299648
 21
110.0330599972
 31
0.0
  0
LINE
  5
13E
330
1F
100
AcDbEntity
  8
0
  6
Continuous
 62
     7
370
     0
100
AcDbLine
 10
209.2641844286
 20
110.2701355681
 30
0.0
 11
210.8710299648
 21
110.2701355681
 31
0.0
  0
LINE
  5
13F
330
1F
100
AcDbEntity
  8
0
  6
Continuous
 62
     7
370
     0
100
AcDbLine
 10
209.2641844286
 20
110.0330599972
 30
0.0
 11
209.2641844286
 21
110.2701355681
 31
0.0
  0
LINE
  5
140
330
1F
100
AcDbEntity
  8
0
  6
Continuous
 62
     7
370
     0
100
AcDbLine
 10
209.9227276812
 20
110.0330599972
 30
0.0
 11
209.2641844286
 21
110.0330599972
 31
0.0
  0
LINE
  5
141
330
1F
100
AcDbEntity
  8
0
  6
Continuous
 62
     7
370
     0
100
AcDbLine
 10
209.9227276812
 20
108.2154806202
 30
0.0
 11
209.9227276812
 21
110.0330599972
 31
0.0
  0
LINE
  5
142
330
1F
100
AcDbEntity
  8
0
  6
Continuous
 62
     7
370
     0
100
AcDbLine
 10
210.2124867123
 20
108.2154806202
 30
0.0
 11
209.9227276812
 21
108.2154806202
 31
0.0
  0
LINE
  5
143
330
1F
100
AcDbEntity
  8
0
  6
Continuous
 62
     7
370
     0
100
AcDbLine
 10
210.2124867123
 20
110.0330599972
 30
0.0
 11
210.2124867123
 21
108.2154806202
 31
0.0
  0
CIRCLE
  5
144
330
1F
100
AcDbEntity
  8
0
  6
Continuous
 62
     7
370
     0
100
AcDbCircle
 10
216.8607722134
 20
107.6654806202
 30
0.0
 40
25.19999999999999
  0
LINE
  5
145
330
1F
100
AcDbEntity
  8
0
  6
Continuous
 62
     7
370
     0
100
AcDbLine
 10
212.477875501
 20
109.1901246339
 30
0.0
 11
211.4768897572
 21
109.1901246339
 31
0.0
  0
LINE
  5
146
330
1F
100
AcDbEntity
  8
0
  6
Continuous
 62
     7
370
     0
100
AcDbLine
 10
212.477875501
 20
108.2154806202
 30
0.0
 11
212.477875501
 21
109.1901246339
 31
0.0
  0
LINE
  5
147
330
1F
100
AcDbEntity
  8
0
  6
Continuous
 62
     7
370
     0
100
AcDbLine
 10
212.7676345321
 20
108.2154806202
 30
0.0
 11
212.477875501
 21
108.2154806202
 31
0.0
  0
LINE
  5
148
330
1F
100
AcDbEntity
  8
0
  6
Continuous
 62
     7
370
     0
100
AcDbLine
 10
212.7676345321
 20
110.2701355681
 30
0.0
 11
212.7676345321
 21
108.2154806202
 31
0.0
  0
LINE
  5
149
330
1F
100
AcDbEntity
  8
0
  6
Continuous
 62
     7
370
     0
100
AcDbLine
 10
212.477875501
 20
110.2701355681
 30
0.0
 11
212.7676345321
 21
110.2701355681
 31
0.0
  0
LINE
  5
14A
330
1F
100
AcDbEntity
  8
0
  6
Continuous
 62
     7
370
     0
100
AcDbLine
 10
212.477875501
 20
109.4272002048
 30
0.0
 11
212.477875501
 21
110.2701355681
 31
0.0
  0
LINE
  5
14B
330
1F
100
AcDbEntity
  8
0
  6
Continuous
 62
     7
370
     0
100
AcDbLine
 10
211.4768897572
 20
109.4272002048
 30
0.0
 11
212.477875501
 21
109.4272002048
 31
0.0
  0
LINE
  5
14C
330
1F
100
AcDbEntity
  8
0
  6
Continuous
 62
     7
370
     0
100
AcDbLine
 10
211.4768897572
 20
110.2701355681
 30
0.0
 11
211.4768897572
 21
109.4272002048
 31
0.0
  0
LINE
  5
14D
330
1F
100
AcDbEntity
  8
0
  6
Continuous
 62
     7
370
     0
100
AcDbLine
 10
211.1871307261
 20
110.2701355681
 30
0.0
 11
211.4768897572
 21
110.2701355681
 31
0.0
  0
LINE
  5
14E
330
1F
100
AcDbEntity
  8
0
  6
Continuous
 62
     7
370
     0
100
AcDbLine
 10
211.1871307261
 20
108.2154806202
 30
0.0
 11
211.1871307261
 21
110.2701355681
 31
0.0
  0
LINE
  5
14F
330
1F
100
AcDbEntity
  8
0
  6
Continuous
 62
     7
370
     0
100
AcDbLine
 10
211.4768897572
 20
108.2154806202
 30
0.0
 11
211.1871307261
 21
108.2154806202
 31
0.0
  0
LINE
  5
150
330
1F
100
AcDbEntity
  8
0
  6
Continuous
 62
     7
370
     0
100
AcDbLine
 10
211.4768897572
 20
109.1901246339
 30
0.0
 11
211.4768897572
 21
108.2154806202
 31
0.0
  0
LINE
  5
151
330
1F
100
AcDbEntity
  8
0
  6
Continuous
 62
     7
370
     0
100
AcDbLine
 10
216.0410060868
 20
109.1374411737
 30
0.0
 11
215.7442500336
 21
109.1374411737
 31
0.0
  0
SPLINE
  5
152
330
1F
100
AcDbEntity
  8
0
  6
Continuous
 62
     7
370
     0
100
AcDbSpline
210
0.0
220
0.0
230
1.0
 70
     8
 71
     3
 72
    11
 73
     7
 74
     0
 42
0.00000001
 43
0.00000001
 12
1.0
 22
0.0
 32
0.0
 13
1.0
 23
0.0
 33
0.0
 40
0.0
 40
0.0
 40
0.0
 40
0.0
 40
0.1774946570818496
 40
0.4052256231013751
 40
0.6783881083348569
 40
0.9999999999999999
 40
0.9999999999999999
 40
0.9999999999999999
 40
0.9999999999999999
 10
216.1838276546778
 20
109.1279746144522
 30
0.0
 10
216.175476074026
 20
109.1294806882814
 30
0.0
 10
216.1564091650319
 20
109.1329190999829
 30
0.0
 10
216.1240336011387
 20
109.1351647321471
 30
0.0
 10
216.0848066335936
 20
109.1375481702534
 30
0.0
 10
216.0563781817166
 20
109.137478724861
 30
0.0
 10
216.0410060867838
 20
109.1374411737074
 30
0.0
  0
SPLINE
  5
153
330
1F
100
AcDbEntity
  8
0
  6
Continuous
 62
     7
370
     0
100
AcDbSpline
210
0.0
220
0.0
230
1.0
 70
     8
 71
     3
 72
    21
 73
    17
 74
     0
 42
0.00000001
 43
0.00000001
 12
1.0
 22
0.0
 32
0.0
 13
1.0
 23
0.0
 33
0.0
 40
0.0
 40
0.0
 40
0.0
 40
0.0
 40
0.0807814705861227
 40
0.1565412257955895
 40
0.227934986843486
 40
0.2943103173046012
 40
0.3568678635548113
 40
0.4147585592592751
 40
0.4676413968340161
 40
0.5167484215300129
 40
0.604729741894053
 40
0.6815706529393896
 40
0.7481095416219826
 40
0.8049410995352804
 40
0.9054060495000024
 40
1.0
 40
1.0
 40
1.0
 40
1.0
 10
216.6151734850898
 20
108.6492959877641
 30
0.0
 10
216.605968698539
 20
108.664516921378
 30
0.0
 10
216.5881313336163
 20
108.6940125914665
 30
0.0
 10
216.5623658990217
 20
108.7370895977179
 30
0.0
 10
216.5371037375199
 20
108.7767488455778
 30
0.0
 10
216.5136735148294
 20
108.8141238179328
 30
0.0
 10
216.4911243932525
 20
108.8485359905923
 30
0.0
 10
216.4696742500781
 20
108.8801049047396
 30
0.0
 10
216.4499134027718
 20
108.9092447032875
 30
0.0
 10
216.4254370386156
 20
108.9431710121365
 30
0.0
 10
216.3969506159959
 20
108.9807107876981
 30
0.0
 10
216.3637089153235
 20
109.0193696677124
 30
0.0
 10
216.3320529604837
 20
109.0501918777843
 30
0.0
 10
216.2930680678865
 20
109.0804163334474
 30
0.0
 10
216.2447793804575
 20
109.1086862312893
 30
0.0
 10
216.2037330846161
 20
109.1216754727173
 30
0.0
 10
216.1838276546778
 20
109.1279746144522
 30
0.0
  0
LINE
  5
154
330
1F
100
AcDbEntity
  8
0
  6
Continuous
 62
     7
370
     0
100
AcDbLine
 10
216.8711821745
 20
108.2154806202
 30
0.0
 11
216.6151734851
 21
108.6492959878
 31
0.0
  0
LINE
  5
155
330
1F
100
AcDbEntity
  8
0
  6
Continuous
 62
     7
370
     0
100
AcDbLine
 10
217.2033349275
 20
108.2154806202
 30
0.0
 11
216.8711821745
 21
108.2154806202
 31
0.0
  0
LINE
  5
156
330
1F
100
AcDbEntity
  8
0
  6
Continuous
 62
     7
370
     0
100
AcDbLine
 10
216.8662431001
 20
108.7826509964
 30
0.0
 11
217.2033349275
 21
108.2154806202
 31
0.0
  0
SPLINE
  5
157
330
1F
100
AcDbEntity
  8
0
  6
Continuous
 62
     7
370
     0
100
AcDbSpline
210
0.0
220
0.0
230
1.0
 70
     8
 71
     3
 72
    11
 73
     7
 74
     0
 42
0.00000001
 43
0.00000001
 12
1.0
 22
0.0
 32
0.0
 13
1.0
 23
0.0
 33
0.0
 40
0.0
 40
0.0
 40
0.0
 40
0.0
 40
0.2295275697008571
 40
0.4714659343032296
 40
0.7281863484998701
 40
1.0
 40
1.0
 40
1.0
 40
1.0
 10
216.649747005848
 20
109.0625318787313
 30
0.0
 10
216.66915681572
 20
109.0435045928526
 30
0.0
 10
216.7090259441121
 20
109.0044211959179
 30
0.0
 10
216.7639673348001
 20
108.9378507219962
 30
0.0
 10
216.8172348999689
 20
108.8637475694248
 30
0.0
 10
216.8495989621404
 20
108.8101929699271
 30
0.0
 10
216.8662431001197
 20
108.7826509964029
 30
0.0
  0
SPLINE
  5
158
330
1F
100
AcDbEntity
  8
0
  6
Continuous
 62
     7
370
     0
100
AcDbSpline
210
0.0
220
0.0
230
1.0
 70
     8
 71
     3
 72
    11
 73
     7
 74
     0
 42
0.00000001
 43
0.00000001
 12
1.0
 22
0.0
 32
0.0
 13
1.0
 23
0.0
 33
0.0
 40
0.0
 40
0.0
 40
0.0
 40
0.0
 40
0.2930762433192213
 40
0.5565623371181898
 40
0.7919136092098108
 40
1.0
 40
1.0
 40
1.0
 40
1.0
 10
216.4900502671077
 20
109.1637829038089
 30
0.0
 10
216.5065921141146
 20
109.1554263275738
 30
0.0
 10
216.5380056771047
 20
109.1395568884577
 30
0.0
 10
216.5814981443224
 20
109.1146737457513
 30
0.0
 10
216.618365203247
 20
109.0892493056322
 30
0.0
 10
216.6397241586439
 20
109.0710649987345
 30
0.0
 10
216.649747005848
 20
109.0625318787313
 30
0.0
  0
SPLINE
  5
159
330
1F
100
AcDbEntity
  8
0
  6
Continuous
 62
     7
370
     0
100
AcDbSpline
210
0.0
220
0.0
230
1.0
 70
     8
 71
     3
 72
    23
 73
    19
 74
     0
 42
0.00000001
 43
0.00000001
 12
1.0
 22
0.0
 32
0.0
 13
1.0
 23
0.0
 33
0.0
 40
0.0
 40
0.0
 40
0.0
 40
0.0
 40
0.0614130692946597
 40
0.1212950233845471
 40
0.1792240423087202
 40
0.2359380947348319
 40
0.2922168332673612
 40
0.3481966394342069
 40
0.4044447389633588
 40
0.4620255339229974
 40
0.5203342118681488
 40
0.5803829016508381
 40
0.641825904813988
 40
0.7063632097966277
 40
0.7738513938275595
 40
0.8452662573568828
 40
0.920154675768406
 40
1.0
 40
1.0
 40
1.0
 40
1.0
 10
217.0349948085824
 20
109.7161360568746
 30
0.0
 10
217.0345927483066
 20
109.6985602082493
 30
0.0
 10
217.0337986516898
 20
109.6638467019144
 30
0.0
 10
217.0277157917261
 20
109.6128085558471
 30
0.0
 10
217.0167093477472
 20
109.5640436596279
 30
0.0
 10
217.00259575275
 20
109.5171249390381
 30
0.0
 10
216.9832785468219
 20
109.4727171573535
 30
0.0
 10
216.9609004022127
 20
109.4299132721003
 30
0.0
 10
216.933177062646
 20
109.3898892202056
 30
0.0
 10
216.9021377182979
 20
109.3515792253395
 30
0.0
 10
216.8665439139756
 20
109.3158037853117
 30
0.0
 10
216.8260825317425
 20
109.2838535900402
 30
0.0
 10
216.7811546559961
 20
109.2551143254375
 30
0.0
 10
216.7315486944771
 20
109.2303789189805
 30
0.0
 10
216.6778356616745
 20
109.2077695831504
 30
0.0
 10
216.6193416065743
 20
109.1895634565621
 30
0.0
 10
216.5563026063052
 20
109.1746967581419
 30
0.0
 10
216.5126010410314
 20
109.1674977290465
 30
0.0
 10
216.4900502671077
 20
109.1637829038089
 30
0.0
  0
SPLINE
  5
15A
330
1F
100
AcDbEntity
  8
0
  6
Continuous
 62
     7
370
     0
100
AcDbSpline
210
0.0
220
0.0
230
1.0
 70
     8
 71
     3
 72
    27
 73
    23
 74
     0
 42
0.00000001
 43
0.00000001
 12
1.0
 22
0.0
 32
0.0
 13
1.0
 23
0.0
 33
0.0
 40
0.0
 40
0.0
 40
0.0
 40
0.0
 40
0.0621127506505295
 40
0.1202119588785538
 40
0.1743851213884739
 40
0.2254437557784867
 40
0.2723582126361769
 40
0.3163881629634409
 40
0.3568694790582284
 40
0.3939783235063669
 40
0.4295893718770922
 40
0.4646830409549871
 40
0.5000363461428401
 40
0.535482747753064
 40
0.5713634671484438
 40
0.6079085322052602
 40
0.645662298533116
 40
0.6845173397035776
 40
0.7625786223763463
 40
0.8404972886541806
 40
0.9190729926935233
 40
1.0
 40
1.0
 40
1.0
 40
1.0
 10
216.3459939306152
 20
110.2701355680717
 30
0.0
 10
216.3669860948017
 20
110.2699710857785
 30
0.0
 10
216.4076139715506
 20
110.2696527495518
 30
0.0
 10
216.4665327815842
 20
110.2673992905982
 30
0.0
 10
216.5215275841801
 20
110.262541424242
 30
0.0
 10
216.5726994963801
 20
110.257288318821
 30
0.0
 10
216.6200394264023
 20
110.2492255036103
 30
0.0
 10
216.6634985349302
 20
110.239977636707
 30
0.0
 10
216.7031439206297
 20
110.2289725352758
 30
0.0
 10
216.7391528223551
 20
110.2159746621016
 30
0.0
 10
216.7725612313778
 20
110.2012695158139
 30
0.0
 10
216.803528303031
 20
110.1831257394537
 30
0.0
 10
216.8333412985712
 20
110.1632440292407
 30
0.0
 10
216.8608937537265
 20
110.1398859868081
 30
0.0
 10
216.8869123671971
 20
110.1143110923485
 30
0.0
 10
216.9113730241144
 20
110.0861718373051
 30
0.0
 10
216.9339136039171
 20
110.0552240302127
 30
0.0
 10
216.9617147097013
 20
110.0109313002405
 30
0.0
 10
216.9915396280323
 20
109.9519427112843
 30
0.0
 10
217.0163884696787
 20
109.8764500989163
 30
0.0
 10
217.032410558251
 20
109.7974820708632
 30
0.0
 10
217.0341249675053
 20
109.7435165716683
 30
0.0
 10
217.0349948085824
 20
109.7161360568746
 30
0.0
  0
LINE
  5
15B
330
1F
100
AcDbEntity
  8
0
  6
Continuous
 62
     7
370
     0
100
AcDbLine
 10
215.4544910025
 20
110.2701355681
 30
0.0
 11
216.3459939306
 21
110.2701355681
 31
0.0
  0
LINE
  5
15C
330
1F
100
AcDbEntity
  8
0
  6
Continuous
 62
     7
370
     0
100
AcDbLine
 10
215.4544910025
 20
108.2154806202
 30
0.0
 11
215.4544910025
 21
110.2701355681
 31
0.0
  0
LINE
  5
15D
330
1F
100
AcDbEntity
  8
0
  6
Continuous
 62
     7
370
     0
100
AcDbLine
 10
215.7442500336
 20
108.2154806202
 30
0.0
 11
215.4544910025
 21
108.2154806202
 31
0.0
  0
LINE
  5
15E
330
1F
100
AcDbEntity
  8
0
  6
Continuous
 62
     7
370
     0
100
AcDbLine
 10
215.7442500336
 20
109.1374411737
 30
0.0
 11
215.7442500336
 21
108.2154806202
 31
0.0
  0
LINE
  5
15F
330
1F
100
AcDbEntity
  8
0
  6
Continuous
 62
     7
370
     0
100
AcDbLine
 10
220.2256368671
 20
108.8476821426
 30
0.0
 11
219.3497743413
 21
108.8476821426
 31
0.0
  0
LINE
  5
160
330
1F
100
AcDbEntity
  8
0
  6
Continuous
 62
     7
370
     0
100
AcDbLine
 10
220.4594197218
 20
108.2154806202
 30
0.0
 11
220.2256368671
 21
108.8476821426
 31
0.0
  0
LINE
  5
161
330
1F
100
AcDbEntity
  8
0
  6
Continuous
 62
     7
370
     0
100
AcDbLine
 10
220.7668771028
 20
108.2154806202
 30
0.0
 11
220.4594197218
 21
108.2154806202
 31
0.0
  0
LINE
  5
162
330
1F
100
AcDbEntity
  8
0
  6
Continuous
 62
     7
370
     0
100
AcDbLine
 10
219.9511066487
 20
110.2701355681
 30
0.0
 11
220.7668771028
 21
108.2154806202
 31
0.0
  0
LINE
  5
163
330
1F
100
AcDbEntity
  8
0
  6
Continuous
 62
     7
370
     0
100
AcDbLine
 10
219.6243045597
 20
110.2701355681
 30
0.0
 11
219.9511066487
 21
110.2701355681
 31
0.0
  0
LINE
  5
164
330
1F
100
AcDbEntity
  8
0
  6
Continuous
 62
     7
370
     0
100
AcDbLine
 10
218.8085341056
 20
108.2154806202
 30
0.0
 11
219.6243045597
 21
110.2701355681
 31
0.0
  0
LINE
  5
165
330
1F
100
AcDbEntity
  8
0
  6
Continuous
 62
     7
370
     0
100
AcDbLine
 10
219.1159914866
 20
108.2154806202
 30
0.0
 11
218.8085341056
 21
108.2154806202
 31
0.0
  0
LINE
  5
166
330
1F
100
AcDbEntity
  8
0
  6
Continuous
 62
     7
370
     0
100
AcDbLine
 10
219.3497743413
 20
108.8476821426
 30
0.0
 11
219.1159914866
 21
108.2154806202
 31
0.0
  0
SPLINE
  5
167
330
1F
100
AcDbEntity
  8
0
  6
Continuous
 62
     7
370
     0
100
AcDbSpline
210
0.0
220
0.0
230
1.0
 70
     8
 71
     3
 72
    23
 73
    19
 74
     0
 42
0.00000001
 43
0.00000001
 12
1.0
 22
0.0
 32
0.0
 13
1.0
 23
0.0
 33
0.0
 40
0.0
 40
0.0
 40
0.0
 40
0.0
 40
0.0749313059818448
 40
0.1470775964339469
 40
0.2163644561730687
 40
0.2825027309006237
 40
0.3466877108244162
 40
0.4088355551310375
 40
0.4692619872876909
 40
0.5284320432534628
 40
0.5870013379727417
 40
0.644416393832067
 40
0.7021887902662974
 40
0.7597671795443349
 40
0.8184897928274489
 40
0.8776328274167843
 40
0.9380195662701677
 40
1.0
 40
1.0
 40
1.0
 40
1.0
 10
224.0279009714638
 20
109.2954915543164
 30
0.0
 10
224.0426738674643
 20
109.2886803005793
 30
0.0
 10
224.071670586628
 20
109.2753109509433
 30
0.0
 10
224.11274832218
 20
109.25248479764
 30
0.0
 10
224.1510783059905
 20
109.2287810662642
 30
0.0
 10
224.1863508574068
 20
109.2035615723238
 30
0.0
 10
224.218451923225
 20
109.176773267243
 30
0.0
 10
224.247740430861
 20
109.148723086063
 30
0.0
 10
224.2743932726222
 20
109.119568675376
 30
0.0
 10
224.2973350088816
 20
109.0883769242921
 30
0.0
 10
224.3179343342819
 20
109.0564087438998
 30
0.0
 10
224.3359601156951
 20
109.0232173377946
 30
0.0
 10
224.3504741287118
 20
108.9886075136768
 30
0.0
 10
224.3632038234186
 20
108.9529964608447
 30
0.0
 10
224.3723601252237
 20
108.915988080801
 30
0.0
 10
224.3795405126525
 20
108.8779561829018
 30
0.0
 10
224.3837287125578
 20
108.8387220061712
 30
0.0
 10
224.3841328210992
 20
108.8121579830268
 30
0.0
 10
224.3843375068997
 20
108.7987029881835
 30
0.0
  0
SPLINE
  5
168
330
1F
100
AcDbEntity
  8
0
  6
Continuous
 62
     7
370
     0
100
AcDbSpline
210
0.0
220
0.0
230
1.0
 70
     8
 71
     3
 72
    23
 73
    19
 74
     0
 42
0.00000001
 43
0.00000001
 12
1.0
 22
0.0
 32
0.0
 13
1.0
 23
0.0
 33
0.0
 40
0.0
 40
0.0
 40
0.0
 40
0.0
 40
0.0327432182311376
 40
0.0724096054938575
 40
0.1196114857927603
 40
0.1746729151985131
 40
0.2373450901947013
 40
0.3083524168429163
 40
0.3876300477623597
 40
0.4747836155862522
 40
0.5633323159904144
 40
0.6451362168299873
 40
0.7202025267224655
 40
0.7891341563324459
 40
0.8514970735699655
 40
0.9073306044315619
 40
0.9569686823424193
 40
1.0
 40
1.0
 40
1.0
 40
1.0
 10
223.219950718507
 20
109.5712565413164
 30
0.0
 10
223.2270861955062
 20
109.5651747949684
 30
0.0
 10
223.242865862333
 20
109.5517253884176
 30
0.0
 10
223.2722263649347
 20
109.5339266735694
 30
0.0
 10
223.3086290337732
 20
109.515943340566
 30
0.0
 10
223.3523171055234
 20
109.4980665159505
 30
0.0
 10
223.4032154132913
 20
109.4800791769346
 30
0.0
 10
223.4612418571003
 20
109.4615589994599
 30
0.0
 10
223.5266174528301
 20
109.4431650006694
 30
0.0
 10
223.5973498811774
 20
109.4254393394204
 30
0.0
 10
223.6688061269056
 20
109.407642419651
 30
0.0
 10
223.7367135834626
 20
109.3899133291469
 30
0.0
 10
223.7990641232315
 20
109.3731110301247
 30
0.0
 10
223.8557588225552
 20
109.3567231397205
 30
0.0
 10
223.9068563622139
 20
109.3407959969639
 30
0.0
 10
223.9521791595349
 20
109.3249959076838
 30
0.0
 10
223.9920938930894
 20
109.3104638333408
 30
0.0
 10
224.016546382919
 20
109.3002393325663
 30
0.0
 10
224.0279009714638
 20
109.2954915543164
 30
0.0
  0
SPLINE
  5
169
330
1F
100
AcDbEntity
  8
0
  6
Continuous
 62
     7
370
     0
100
AcDbSpline
210
0.0
220
0.0
230
1.0
 70
     8
 71
     3
 72
    11
 73
     7
 74
     0
 42
0.00000001
 43
0.00000001
 12
1.0
 22
0.0
 32
0.0
 13
1.0
 23
0.0
 33
0.0
 40
0.0
 40
0.0
 40
0.0
 40
0.0
 40
0.2627412305282691
 40
0.5099565029432329
 40
0.7533267184204503
 40
1.0
 40
1.0
 40
1.0
 40
1.0
 10
223.1462761921294
 20
109.752767525297
 30
0.0
 10
223.1470249976701
 20
109.7350901772506
 30
0.0
 10
223.1484783601826
 20
109.7007800745959
 30
0.0
 10
223.163319316377
 20
109.6520357612153
 30
0.0
 10
223.1861448108389
 20
109.6076021612564
 30
0.0
 10
223.2086315597433
 20
109.5834260664333
 30
0.0
 10
223.219950718507
 20
109.5712565413164
 30
0.0
  0
SPLINE
  5
16A
330
1F
100
AcDbEntity
  8
0
  6
Continuous
 62
     7
370
     0
100
AcDbSpline
210
0.0
220
0.0
230
1.0
 70
     8
 71
     3
 72
    23
 73
    19
 74
     0
 42
0.00000001
 43
0.00000001
 12
1.0
 22
0.0
 32
0.0
 13
1.0
 23
0.0
 33
0.0
 40
0.0
 40
0.0
 40
0.0
 40
0.0
 40
0.0915110363280375
 40
0.177142860314148
 40
0.257108485228235
 40
0.3311983993883849
 40
0.4005922945239581
 40
0.4656249598049642
 40
0.5269734913138602
 40
0.5854431157040231
 40
0.6413985080863308
 40
0.6950441672657243
 40
0.7467815514927477
 40
0.7969589345766993
 40
0.8475448623598797
 40
0.8974385414187385
 40
0.9476489188871287
 40
1.0
 40
1.0
 40
1.0
 40
1.0
 10
223.5813263283369
 20
110.0594017272598
 30
0.0
 10
223.5630666157366
 20
110.0592640941782
 30
0.0
 10
223.5277203028947
 20
110.0589976703816
 30
0.0
 10
223.4766231992839
 20
110.0541410974715
 30
0.0
 10
223.4292627890489
 20
110.0474777071701
 30
0.0
 10
223.3857204187216
 20
110.0376486398599
 30
0.0
 10
223.346138727422
 20
110.0247823577492
 30
0.0
 10
223.3099302661142
 20
110.0099247542895
 30
0.0
 10
223.2781083669987
 20
109.9910962902232
 30
0.0
 10
223.2499312067038
 20
109.9701238301098
 30
0.0
 10
223.2256248371681
 20
109.9469189615268
 30
0.0
 10
223.20467634721
 20
109.9224666404358
 30
0.0
 10
223.1861490258461
 20
109.8974852936087
 30
0.0
 10
223.1717528884694
 20
109.8706094242553
 30
0.0
 10
223.1600322688592
 20
109.8428568623633
 30
0.0
 10
223.152471181345
 20
109.8137059506651
 30
0.0
 10
223.147117754756
 20
109.783695905294
 30
0.0
 10
223.1465605894636
 20
109.7632194495448
 30
0.0
 10
223.1462761921294
 20
109.752767525297
 30
0.0
  0
SPLINE
  5
16B
330
1F
100
AcDbEntity
  8
0
  6
Continuous
 62
     7
370
     0
100
AcDbSpline
210
0.0
220
0.0
230
1.0
 70
     8
 71
     3
 72
    23
 73
    19
 74
     0
 42
0.00000001
 43
0.00000001
 12
1.0
 22
0.0
 32
0.0
 13
1.0
 23
0.0
 33
0.0
 40
0.0
 40
0.0
 40
0.0
 40
0.0
 40
0.0671554674490462
 40
0.1314033464826141
 40
0.1927317719102091
 40
0.2512526591565257
 40
0.3077037298841914
 40
0.3626989162982003
 40
0.417778332785431
 40
0.4723043857981144
 40
0.5278725997916964
 40
0.5852299868117375
 40
0.6450565760102912
 40
0.707952356429442
 40
0.7744342720454286
 40
0.84494043137526
 40
0.9204035944750272
 40
1.0
 40
1.0
 40
1.0
 40
1.0
 10
224.0418950155803
 20
109.6906175058388
 30
0.0
 10
224.0400539293959
 20
109.7053301170904
 30
0.0
 10
224.0364514693882
 20
109.7341183368349
 30
0.0
 10
224.0275142443158
 20
109.7757936159045
 30
0.0
 10
224.0149860531797
 20
109.8144997397694
 30
0.0
 10
224.000311701885
 20
109.8505976692382
 30
0.0
 10
223.9825233159285
 20
109.8837119461171
 30
0.0
 10
223.9617872051902
 20
109.9141605399069
 30
0.0
 10
223.9378508478302
 20
109.9415847142189
 30
0.0
 10
223.9113301515055
 20
109.9667091208734
 30
0.0
 10
223.8814180963005
 20
109.9885854657013
 30
0.0
 10
223.8482683796548
 20
110.0075748046169
 30
0.0
 10
223.8118250437898
 20
110.0236164477477
 30
0.0
 10
223.7721201952171
 20
110.0367550766694
 30
0.0
 10
223.7291459731522
 20
110.0469422556138
 30
0.0
 10
223.6828046322271
 20
110.0544361389209
 30
0.0
 10
223.6331140840912
 20
110.0582740920867
 30
0.0
 10
223.5988929776548
 20
110.0590192281274
 30
0.0
 10
223.5813263283369
 20
110.0594017272598
 30
0.0
  0
LINE
  5
16C
330
1F
100
AcDbEntity
  8
0
  6
Continuous
 62
     7
370
     0
100
AcDbLine
 10
224.3316540467
 20
109.6906175058
 30
0.0
 11
224.0418950156
 21
109.6906175058
 31
0.0
  0
SPLINE
  5
16D
330
1F
100
AcDbEntity
  8
0
  6
Continuous
 62
     7
370
     0
100
AcDbSpline
210
0.0
220
0.0
230
1.0
 70
     8
 71
     3
 72
    23
 73
    19
 74
     0
 42
0.00000001
 43
0.00000001
 12
1.0
 22
0.0
 32
0.0
 13
1.0
 23
0.0
 33
0.0
 40
0.0
 40
0.0
 40
0.0
 40
0.0
 40
0.1004750608070148
 40
0.1956443031597846
 40
0.286083379069932
 40
0.3729828804699542
 40
0.4150256681909619
 40
0.4560516735090279
 40
0.4959387495188998
 40
0.5355660888033517
 40
0.5740871099085042
 40
0.6125192874870976
 40
0.651080960134445
 40
0.6895131377130386
 40
0.7662374603277348
 40
0.8423504388672227
 40
0.9199744947371038
 40
1.0
 40
1.0
 40
1.0
 40
1.0
 10
223.5698018214175
 20
110.2964772981732
 30
0.0
 10
223.6063355892354
 20
110.295640182678
 30
0.0
 10
223.6774738745884
 20
110.2940101575115
 30
0.0
 10
223.7808398139448
 20
110.2804486450533
 30
0.0
 10
223.8772519379754
 20
110.2571599595621
 30
0.0
 10
223.9528616335903
 20
110.231090612706
 30
0.0
 10
224.0087589973527
 20
110.2046989361387
 30
0.0
 10
224.0484700410067
 20
110.1841057788949
 30
0.0
 10
224.0853297421922
 20
110.1602963377418
 30
0.0
 10
224.1196699125639
 20
110.134530797613
 30
0.0
 10
224.1518095258321
 20
110.1068209255155
 30
0.0
 10
224.1809225217666
 20
110.0765075951713
 30
0.0
 10
224.2082730678504
 20
110.0446250425564
 30
0.0
 10
224.2404137707953
 20
109.9988516863273
 30
0.0
 10
224.2750682624617
 20
109.9382709083206
 30
0.0
 10
224.3050317876223
 20
109.8597861041606
 30
0.0
 10
224.325617078913
 20
109.7769518373858
 30
0.0
 10
224.3296213917596
 20
109.7196863880247
 30
0.0
 10
224.3316540466967
 20
109.6906175058388
 30
0.0
  0
SPLINE
  5
16E
330
1F
100
AcDbEntity
  8
0
  6
Continuous
 62
     7
370
     0
100
AcDbSpline
210
0.0
220
0.0
230
1.0
 70
     8
 71
     3
 72
    23
 73
    19
 74
     0
 42
0.00000001
 43
0.00000001
 12
1.0
 22
0.0
 32
0.0
 13
1.0
 23
0.0
 33
0.0
 40
0.0
 40
0.0
 40
0.0
 40
0.0
 40
0.0749954673898322
 40
0.1491654404266561
 40
0.2236642943382247
 40
0.3004120221906725
 40
0.3395704846106348
 40
0.3789205746932795
 40
0.4180957375990935
 40
0.4582296767501551
 40
0.4984267212184583
 40
0.5397075464534805
 40
0.5822159516458436
 40
0.6258238199943749
 40
0.7154812648736979
 40
0.8073840844133601
 40
0.9016341255073719
 40
1.0
 40
1.0
 40
1.0
 40
1.0
 10
222.856517161013
 20
109.7338344067866
 30
0.0
 10
222.857495065546
 20
109.7593068657124
 30
0.0
 10
222.8594401105661
 20
109.8099714016727
 30
0.0
 10
222.8766937258593
 20
109.8843184497473
 30
0.0
 10
222.9042135723377
 20
109.9558600855781
 30
0.0
 10
222.9355395152993
 20
110.0126580396704
 30
0.0
 10
222.9660892322504
 20
110.0556083983727
 30
0.0
 10
222.9914151796475
 20
110.0865404615637
 30
0.0
 10
223.0198231830094
 20
110.1151329955148
 30
0.0
 10
223.0504383745849
 20
110.1417851327135
 30
0.0
 10
223.0838080319459
 20
110.1660986593811
 30
0.0
 10
223.1191042505647
 20
110.1890728309067
 30
0.0
 10
223.157604556408
 20
110.2088196826525
 30
0.0
 10
223.2117032117138
 20
110.2339529678056
 30
0.0
 10
223.2840741772697
 20
110.2590509033425
 30
0.0
 10
223.3751801710362
 20
110.2809205706397
 30
0.0
 10
223.4710662379642
 20
110.2937991630275
 30
0.0
 10
223.536424433756
 20
110.2955719593699
 30
0.0
 10
223.5698018214175
 20
110.2964772981732
 30
0.0
  0
SPLINE
  5
16F
330
1F
100
AcDbEntity
  8
0
  6
Continuous
 62
     7
370
     0
100
AcDbSpline
210
0.0
220
0.0
230
1.0
 70
     8
 71
     3
 72
    15
 73
    11
 74
     0
 42
0.00000001
 43
0.00000001
 12
1.0
 22
0.0
 32
0.0
 13
1.0
 23
0.0
 33
0.0
 40
0.0
 40
0.0
 40
0.0
 40
0.0
 40
0.1448052410584837
 40
0.2795118010254855
 40
0.4063939211311608
 40
0.5275015404829168
 40
0.6453932904726503
 40
0.7618854106740865
 40
0.8789420729184871
 40
1.0
 40
1.0
 40
1.0
 40
1.0
 10
223.159858646713
 20
109.2897293008567
 30
0.0
 10
223.1356761027151
 20
109.3027934077324
 30
0.0
 10
223.0889974992554
 20
109.3280105339562
 30
0.0
 10
223.0261732688615
 20
109.3730988262033
 30
0.0
 10
222.973237477012
 20
109.4231326317011
 30
0.0
 10
222.9304134494093
 20
109.4780393993295
 30
0.0
 10
222.8968539347157
 20
109.5368905238248
 30
0.0
 10
222.8742114768911
 20
109.5997860526516
 30
0.0
 10
222.8587032624142
 20
109.6655843144602
 30
0.0
 10
222.8572539793716
 20
109.7108309354108
 30
0.0
 10
222.856517161013
 20
109.7338344067866
 30
0.0
  0
SPLINE
  5
170
330
1F
100
AcDbEntity
  8
0
  6
Continuous
 62
     7
370
     0
100
AcDbSpline
210
0.0
220
0.0
230
1.0
 70
     8
 71
     3
 72
    23
 73
    19
 74
     0
 42
0.00000001
 43
0.00000001
 12
1.0
 22
0.0
 32
0.0
 13
1.0
 23
0.0
 33
0.0
 40
0.0
 40
0.0
 40
0.0
 40
0.0
 40
0.031200111153937
 40
0.0704867190162008
 40
0.1172148300204117
 40
0.1715755269954914
 40
0.2341219784876085
 40
0.3039626396728061
 40
0.3821556401561972
 40
0.4676462220680265
 40
0.5543353814021599
 40
0.6350744656665042
 40
0.7100366878785244
 40
0.7790924037748317
 40
0.8429656453505103
 40
0.9010012068505269
 40
0.953246256459026
 40
1.0
 40
1.0
 40
1.0
 40
1.0
 10
223.8756128443146
 20
109.0621202891984
 30
0.0
 10
223.8683741960406
 20
109.0650907915699
 30
0.0
 10
223.8520207745919
 20
109.0718016960586
 30
0.0
 10
223.8239917776231
 20
109.0806857781351
 30
0.0
 10
223.7907318230787
 20
109.0921738027721
 30
0.0
 10
223.7514418672805
 20
109.1040045984486
 30
0.0
 10
223.7063322466322
 20
109.1165199256493
 30
0.0
 10
223.6554780641167
 20
109.1306853785645
 30
0.0
 10
223.598907736221
 20
109.1457495623795
 30
0.0
 10
223.5382256951315
 20
109.1617837451843
 30
0.0
 10
223.4769553253491
 20
109.1780880502333
 30
0.0
 10
223.4184186449753
 20
109.1944076239519
 30
0.0
 10
223.3645621161962
 20
109.2109740817361
 30
0.0
 10
223.3149445813345
 20
109.2269252933826
 30
0.0
 10
223.2698218413572
 20
109.2429423145851
 30
0.0
 10
223.2290658275764
 20
109.2585866337216
 30
0.0
 10
223.1926257271276
 20
109.2735408483165
 30
0.0
 10
223.1703695009944
 20
109.2845364529271
 30
0.0
 10
223.159858646713
 20
109.2897293008567
 30
0.0
  0
SPLINE
  5
171
330
1F
100
AcDbEntity
  8
0
  6
Continuous
 62
     7
370
     0
100
AcDbSpline
210
0.0
220
0.0
230
1.0
 70
     8
 71
     3
 72
    15
 73
    11
 74
     0
 42
0.00000001
 43
0.00000001
 12
1.0
 22
0.0
 32
0.0
 13
1.0
 23
0.0
 33
0.0
 40
0.0
 40
0.0
 40
0.0
 40
0.0
 40
0.1177675192120368
 40
0.230176448544057
 40
0.3398429589695384
 40
0.4506252599208614
 40
0.5669428888721625
 40
0.6960213064547937
 40
0.8394383602270619
 40
1.0
 40
1.0
 40
1.0
 40
1.0
 10
224.0945784757832
 20
108.784708944067
 30
0.0
 10
224.0938847806681
 20
108.7995614584955
 30
0.0
 10
224.0925289545537
 20
108.8285906767891
 30
0.0
 10
224.0836934112696
 20
108.8708535923766
 30
0.0
 10
224.0669002127289
 20
108.9095364360262
 30
0.0
 10
224.0451091077477
 20
108.9462180611018
 30
0.0
 10
224.0147939600784
 20
108.9797554600729
 30
0.0
 10
223.9764941921268
 20
109.010657181694
 30
0.0
 10
223.9293659638946
 20
109.0386729817676
 30
0.0
 10
223.8941918317644
 20
109.0540160668967
 30
0.0
 10
223.8756128443146
 20
109.0621202891984
 30
0.0
  0
SPLINE
  5
172
330
1F
100
AcDbEntity
  8
0
  6
Continuous
 62
     7
370
     0
100
AcDbSpline
210
0.0
220
0.0
230
1.0
 70
     8
 71
     3
 72
    19
 73
    15
 74
     0
 42
0.00000001
 43
0.00000001
 12
1.0
 22
0.0
 32
0.0
 13
1.0
 23
0.0
 33
0.0
 40
0.0
 40
0.0
 40
0.0
 40
0.0
 40
0.1055838864195047
 40
0.2058681332620123
 40
0.300946717742213
 40
0.3930019285950097
 40
0.4809485116065868
 40
0.5628738662802266
 40
0.6414613436333616
 40
0.7177416181792268
 40
0.7917717603087844
 40
0.8627163930302565
 40
0.9317768462002763
 40
1.0
 40
1.0
 40
1.0
 40
1.0
 10
223.6253664083503
 20
108.426214460967
 30
0.0
 10
223.6485939902521
 20
108.4266443787687
 30
0.0
 10
223.6938832771731
 20
108.4274826352328
 30
0.0
 10
223.7593992929223
 20
108.4375521721502
 30
0.0
 10
223.8210500541135
 20
108.4518355397565
 30
0.0
 10
223.8776881757893
 20
108.4734413694709
 30
0.0
 10
223.9291047256816
 20
108.4996776212645
 30
0.0
 10
223.9737542389969
 20
108.531410983054
 30
0.0
 10
224.0118736183959
 20
108.567197498048
 30
0.0
 10
224.0417238555152
 20
108.6079797632195
 30
0.0
 10
224.0651736057651
 20
108.6507127572078
 30
0.0
 10
224.0823764217142
 20
108.6946378677748
 30
0.0
 10
224.0926237866133
 20
108.7395112904179
 30
0.0
 10
224.0939295674
 20
108.7697044426835
 30
0.0
 10
224.0945784757832
 20
108.784708944067
 30
0.0
  0
SPLINE
  5
173
330
1F
100
AcDbEntity
  8
0
  6
Continuous
 62
     7
370
     0
100
AcDbSpline
210
0.0
220
0.0
230
1.0
 70
     8
 71
     3
 72
    19
 73
    15
 74
     0
 42
0.00000001
 43
0.00000001
 12
1.0
 22
0.0
 32
0.0
 13
1.0
 23
0.0
 33
0.0
 40
0.0
 40
0.0
 40
0.0
 40
0.0
 40
0.0937964706969321
 40
0.1801880710186105
 40
0.2603631916661885
 40
0.3348466760639744
 40
0.4070930058327154
 40
0.4814483792884674
 40
0.5592709137563652
 40
0.6422698113109349
 40
0.7285859445716477
 40
0.8159775452756136
 40
0.9060351298875359
 40
1.0
 40
1.0
 40
1.0
 40
1.0
 10
223.0672510018249
 20
108.9267073328954
 30
0.0
 10
223.0704381830638
 20
108.900690956391
 30
0.0
 10
223.076560929849
 20
108.8507120961802
 30
0.0
 10
223.0936807414081
 20
108.7798745854917
 30
0.0
 10
223.1157150435082
 20
108.7161843934911
 30
0.0
 10
223.14316917648
 20
108.6587962388907
 30
0.0
 10
223.1792840423509
 20
108.6083982022058
 30
0.0
 10
223.2227962434561
 20
108.5629399427569
 30
0.0
 10
223.2756394435555
 20
108.5235758426935
 30
0.0
 10
223.3352873705022
 20
108.4885443727023
 30
0.0
 10
223.4017185146281
 20
108.4610391281131
 30
0.0
 10
223.4726396857385
 20
108.440649037549
 30
0.0
 10
223.5477126516726
 20
108.4285677464198
 30
0.0
 10
223.5991179987718
 20
108.4270099150836
 30
0.0
 10
223.6253664083503
 20
108.426214460967
 30
0.0
  0
LINE
  5
174
330
1F
100
AcDbEntity
  8
0
  6
Continuous
 62
     7
370
     0
100
AcDbLine
 10
222.7774919707
 20
108.9267073329
 30
0.0
 11
223.0672510018
 21
108.9267073329
 31
0.0
  0
SPLINE
  5
175
330
1F
100
AcDbEntity
  8
0
  6
Continuous
 62
     7
370
     0
100
AcDbSpline
210
0.0
220
0.0
230
1.0
 70
     8
 71
     3
 72
    31
 73
    27
 74
     0
 42
0.00000001
 43
0.00000001
 12
1.0
 22
0.0
 32
0.0
 13
1.0
 23
0.0
 33
0.0
 40
0.0
 40
0.0
 40
0.0
 40
0.0
 40
0.0524925849212958
 40
0.1028254751380329
 40
0.1513973394924577
 40
0.1980330772483325
 40
0.2428758954632244
 40
0.2859991683849086
 40
0.3278486614843784
 40
0.3683945968796912
 40
0.4078519911389193
 40
0.4468375528599374
 40
0.4851660451611074
 40
0.5233414044713737
 40
0.5616022144094732
 40
0.5999198855663566
 40
0.6384964264110082
 40
0.6777905770472508
 40
0.7172899891758322
 40
0.7566052415928194
 40
0.7960678905323556
 40
0.8358862309537681
 40
0.8757136832726162
 40
0.9162634539474125
 40
0.9577596754778293
 40
1.0
 40
1.0
 40
1.0
 40
1.0
 10
223.6381256838683
 20
108.1891388900536
 30
0.0
 10
223.6157549386387
 20
108.1893235036472
 30
0.0
 10
223.5719338444617
 20
108.1896851353047
 30
0.0
 10
223.5075436407991
 20
108.194064608773
 30
0.0
 10
223.4458373317764
 20
108.2003997323763
 30
0.0
 10
223.3868754735358
 20
108.2098359695074
 30
0.0
 10
223.3308429646454
 20
108.2222158002358
 30
0.0
 10
223.2775386738191
 20
108.2370815843434
 30
0.0
 10
223.2268362548175
 20
108.2542025995656
 30
0.0
 10
223.1789128635366
 20
108.2743366167183
 30
0.0
 10
223.1338936000596
 20
108.2977301452735
 30
0.0
 10
223.0909689725221
 20
108.3229658436233
 30
0.0
 10
223.0508406124943
 20
108.3515716903636
 30
0.0
 10
223.0134240447784
 20
108.3830981882402
 30
0.0
 10
222.9777712131536
 20
108.4166345648269
 30
0.0
 10
222.9453598213913
 20
108.4535504181932
 30
0.0
 10
222.9150879649696
 20
108.4927661957721
 30
0.0
 10
222.887647347053
 20
108.5346408152914
 30
0.0
 10
222.86313333251
 20
108.5786264181987
 30
0.0
 10
222.8410882493206
 20
108.6239843135871
 30
0.0
 10
222.8225149582774
 20
108.6710435375646
 30
0.0
 10
222.80754665303
 20
108.7195662538374
 30
0.0
 10
222.7948677406364
 20
108.7692277477851
 30
0.0
 10
222.7860752079193
 20
108.8204423580224
 30
0.0
 10
222.7796106417069
 20
108.8730492891652
 30
0.0
 10
222.7782023658002
 20
108.908715671648
 30
0.0
 10
222.7774919707084
 20
108.9267073328954
 30
0.0
  0
SPLINE
  5
176
330
1F
100
AcDbEntity
  8
0
  6
Continuous
 62
     7
370
     0
100
AcDbSpline
210
0.0
220
0.0
230
1.0
 70
     8
 71
     3
 72
    23
 73
    19
 74
     0
 42
0.00000001
 43
0.00000001
 12
1.0
 22
0.0
 32
0.0
 13
1.0
 23
0.0
 33
0.0
 40
0.0
 40
0.0
 40
0.0
 40
0.0
 40
0.0748159666505558
 40
0.1485345605139197
 40
0.2238723272963846
 40
0.3012971209351247
 40
0.3408936290197579
 40
0.38034006206544
 40
0.4201265887284643
 40
0.4599499070829665
 40
0.5008311555562169
 40
0.5419071755971084
 40
0.5844387941530512
 40
0.6280801713306066
 40
0.7172666799070602
 40
0.8078600064218678
 40
0.9019246558363443
 40
1.0
 40
1.0
 40
1.0
 40
1.0
 10
224.3843375068997
 20
108.7987029881835
 30
0.0
 10
224.3832652213996
 20
108.7718504753862
 30
0.0
 10
224.3811363782845
 20
108.7185393124673
 30
0.0
 10
224.3628062712885
 20
108.6399561927659
 30
0.0
 10
224.3340106426693
 20
108.5638095884048
 30
0.0
 10
224.3002406352941
 20
108.5033830632694
 30
0.0
 10
224.2683177713065
 20
108.4572259796505
 30
0.0
 10
224.2415010597365
 20
108.4240503774312
 30
0.0
 10
224.2117628683796
 20
108.3933744777244
 30
0.0
 10
224.1798353213228
 20
108.3642372627997
 30
0.0
 10
224.1454705312725
 20
108.3372332270699
 30
0.0
 10
224.1083787817317
 20
108.312353175166
 30
0.0
 10
224.068951558563
 20
108.2893381079762
 30
0.0
 10
224.0126504753551
 20
108.261292900862
 30
0.0
 10
223.9378732835325
 20
108.2319549511128
 30
0.0
 10
223.8426221527899
 20
108.207523300099
 30
0.0
 10
223.7422389981057
 20
108.1916738839704
 30
0.0
 10
223.6733097275694
 20
108.1899955656613
 30
0.0
 10
223.6381256838683
 20
108.1891388900536
 30
0.0
  0
LINE
  5
177
330
1F
100
AcDbEntity
  8
0
  6
Continuous
 62
     7
370
     0
100
AcDbLine
 10
209.519369939
 20
105.054473008
 30
0.0
 11
208.9744253975
 21
106.7930271947
 31
0.0
  0
LINE
  5
178
330
1F
100
AcDbEntity
  8
0
  6
Continuous
 62
     7
370
     0
100
AcDbLine
 10
209.8222998352
 20
105.054473008
 30
0.0
 11
209.519369939
 21
105.054473008
 31
0.0
  0
LINE
  5
179
330
1F
100
AcDbEntity
  8
0
  6
Continuous
 62
     7
370
     0
100
AcDbLine
 10
210.3705370929
 20
106.7930271947
 30
0.0
 11
209.8222998352
 21
105.054473008
 31
0.0
  0
LINE
  5
17A
330
1F
100
AcDbEntity
  8
0
  6
Continuous
 62
     7
370
     0
100
AcDbLine
 10
210.3705370929
 20
105.054473008
 30
0.0
 11
210.3705370929
 21
106.7930271947
 31
0.0
  0
LINE
  5
17B
330
1F
100
AcDbEntity
  8
0
  6
Continuous
 62
     7
370
     0
100
AcDbLine
 10
210.660296124
 20
105.054473008
 30
0.0
 11
210.3705370929
 21
105.054473008
 31
0.0
  0
LINE
  5
17C
330
1F
100
AcDbEntity
  8
0
  6
Continuous
 62
     7
370
     0
100
AcDbLine
 10
210.660296124
 20
107.1091279559
 30
0.0
 11
210.660296124
 21
105.054473008
 31
0.0
  0
LINE
  5
17D
330
1F
100
AcDbEntity
  8
0
  6
Continuous
 62
     7
370
     0
100
AcDbLine
 10
210.2281271145
 20
107.1091279559
 30
0.0
 11
210.660296124
 21
107.1091279559
 31
0.0
  0
LINE
  5
17E
330
1F
100
AcDbEntity
  8
0
  6
Continuous
 62
     7
370
     0
100
AcDbLine
 10
209.7733206808
 20
105.6920251943
 30
0.0
 11
210.2281271145
 21
107.1091279559
 31
0.0
  0
SPLINE
  5
17F
330
1F
100
AcDbEntity
  8
0
  6
Continuous
 62
     7
370
     0
100
AcDbSpline
210
0.0
220
0.0
230
1.0
 70
     8
 71
     3
 72
    15
 73
    11
 74
     0
 42
0.00000001
 43
0.00000001
 12
1.0
 22
0.0
 32
0.0
 13
1.0
 23
0.0
 33
0.0
 40
0.0
 40
0.0
 40
0.0
 40
0.0
 40
0.0892047702332451
 40
0.1898334556643485
 40
0.2992325919749813
 40
0.4192609378429058
 40
0.5492073901909386
 40
0.6890743636843492
 40
0.8395791979483176
 40
1.0
 40
1.0
 40
1.0
 40
1.0
 10
209.6724812452144
 20
105.3656346947995
 30
0.0
 10
209.6753495827809
 20
105.3753794831713
 30
0.0
 10
209.6814535885516
 20
105.3961170160018
 30
0.0
 10
209.6913491576595
 20
105.4287232315643
 30
0.0
 10
209.7018783249312
 20
105.4648056781162
 30
0.0
 10
209.7144785107352
 20
105.5037441572441
 30
0.0
 10
209.727612713207
 20
105.5461494914629
 30
0.0
 10
209.7413987680591
 20
105.5919864645123
 30
0.0
 10
209.7573007138697
 20
105.6407974491877
 30
0.0
 10
209.7678683515846
 20
105.6745900441061
 30
0.0
 10
209.7733206807591
 20
105.6920251943383
 30
0.0
  0
SPLINE
  5
180
330
1F
100
AcDbEntity
  8
0
  6
Continuous
 62
     7
370
     0
100
AcDbSpline
210
0.0
220
0.0
230
1.0
 70
     8
 71
     3
 72
    15
 73
    11
 74
     0
 42
0.00000001
 43
0.00000001
 12
1.0
 22
0.0
 32
0.0
 13
1.0
 23
0.0
 33
0.0
 40
0.0
 40
0.0
 40
0.0
 40
0.0
 40
0.1625255217041879
 40
0.3143148980392382
 40
0.4549784905465753
 40
0.5845192373662004
 40
0.704567103309074
 40
0.8134949897289303
 40
0.911681259682607
 40
1.0
 40
1.0
 40
1.0
 40
1.0
 10
209.5798736003263
 20
105.6673298223682
 30
0.0
 10
209.5849285896282
 20
105.6509967621944
 30
0.0
 10
209.594704644677
 20
105.6194095745985
 30
0.0
 10
209.6092013744675
 20
105.5737947691808
 30
0.0
 10
209.6223909682633
 20
105.5314060321355
 30
0.0
 10
209.6342702743927
 20
105.4921084378765
 30
0.0
 10
209.6454809290649
 20
105.4560970971628
 30
0.0
 10
209.6551875895844
 20
105.4230765103833
 30
0.0
 10
209.6644674728341
 20
105.3934136096627
 30
0.0
 10
209.6699058990869
 20
105.3745618663516
 30
0.0
 10
209.6724812452144
 20
105.3656346947995
 30
0.0
  0
LINE
  5
181
330
1F
100
AcDbEntity
  8
0
  6
Continuous
 62
     7
370
     0
100
AcDbLine
 10
209.1205396817
 20
107.1091279559
 30
0.0
 11
209.5798736003
 21
105.6673298224
 31
0.0
  0
LINE
  5
182
330
1F
100
AcDbEntity
  8
0
  6
Continuous
 62
     7
370
     0
100
AcDbLine
 10
208.6846663664
 20
107.1091279559
 30
0.0
 11
209.1205396817
 21
107.1091279559
 31
0.0
  0
LINE
  5
183
330
1F
100
AcDbEntity
  8
0
  6
Continuous
 62
     7
370
     0
100
AcDbLine
 10
208.6846663664
 20
105.054473008
 30
0.0
 11
208.6846663664
 21
107.1091279559
 31
0.0
  0
LINE
  5
184
330
1F
100
AcDbEntity
  8
0
  6
Continuous
 62
     7
370
     0
100
AcDbLine
 10
208.9744253975
 20
105.054473008
 30
0.0
 11
208.6846663664
 21
105.054473008
 31
0.0
  0
LINE
  5
185
330
1F
100
AcDbEntity
  8
0
  6
Continuous
 62
     7
370
     0
100
AcDbLine
 10
208.9744253975
 20
106.7930271947
 30
0.0
 11
208.9744253975
 21
105.054473008
 31
0.0
  0
SPLINE
  5
186
330
1F
100
AcDbEntity
  8
0
  6
Continuous
 62
     7
370
     0
100
AcDbSpline
210
0.0
220
0.0
230
1.0
 70
     8
 71
     3
 72
    31
 73
    27
 74
     0
 42
0.00000001
 43
0.00000001
 12
1.0
 22
0.0
 32
0.0
 13
1.0
 23
0.0
 33
0.0
 40
0.0
 40
0.0
 40
0.0
 40
0.0
 40
0.0628739462114324
 40
0.1228366299919128
 40
0.1796565674430314
 40
0.233960012230862
 40
0.2855950186955586
 40
0.3345131060783809
 40
0.3809048259061764
 40
0.4248945919393347
 40
0.4665290347654873
 40
0.5064882940692464
 40
0.5450315536447543
 40
0.5818311798231344
 40
0.617448279949443
 40
0.652066912769046
 40
0.6858797142465105
 40
0.7191745547913924
 40
0.7521816462063929
 40
0.7852401639180909
 40
0.8186564497770833
 40
0.8525477406533113
 40
0.887626342258519
 40
0.923635078068751
 40
0.9610218444769891
 40
1.0
 40
1.0
 40
1.0
 40
1.0
 10
213.8739871964029
 20
106.0678064378175
 30
0.0
 10
213.8737168321669
 20
106.0385814544745
 30
0.0
 10
213.8731886224136
 20
105.9814846968868
 30
0.0
 10
213.8700509061372
 20
105.8980125860081
 30
0.0
 10
213.8640826866603
 20
105.8187047167254
 30
0.0
 10
213.8567386835545
 20
105.743379417785
 30
0.0
 10
213.845628745138
 20
105.672237772283
 30
0.0
 10
213.8336571845478
 20
105.6049775181893
 30
0.0
 10
213.8188513212225
 20
105.5419040762931
 30
0.0
 10
213.8015763547735
 20
105.4829898031301
 30
0.0
 10
213.7821208198335
 20
105.4279231812404
 30
0.0
 10
213.7607848151925
 20
105.3762880477072
 30
0.0
 10
213.737153141389
 20
105.3281196854677
 30
0.0
 10
213.7105224305576
 20
105.2838879045677
 30
0.0
 10
213.6821111583586
 20
105.2430056021696
 30
0.0
 10
213.65171124243
 20
105.2053194195669
 30
0.0
 10
213.6186781689646
 20
105.1713717698581
 30
0.0
 10
213.583045316792
 20
105.1413531974406
 30
0.0
 10
213.5455350464707
 20
105.1143126938863
 30
0.0
 10
213.5054011891054
 20
105.0911602128237
 30
0.0
 10
213.4628194043343
 20
105.0719787844028
 30
0.0
 10
213.4180741974582
 20
105.0555796160646
 30
0.0
 10
213.3707115638011
 20
105.043563267368
 30
0.0
 10
213.3211050006843
 20
105.0343649402094
 30
0.0
 10
213.2690717313061
 20
105.0289482990614
 30
0.0
 10
213.2335665073114
 20
105.0284073757519
 30
0.0
 10
213.2154439438655
 20
105.0281312778741
 30
0.0
  0
SPLINE
  5
187
330
1F
100
AcDbEntity
  8
0
  6
Continuous
 62
     7
370
     0
100
AcDbSpline
210
0.0
220
0.0
230
1.0
 70
     8
 71
     3
 72
    27
 73
    23
 74
     0
 42
0.00000001
 43
0.00000001
 12
1.0
 22
0.0
 32
0.0
 13
1.0
 23
0.0
 33
0.0
 40
0.0
 40
0.0
 40
0.0
 40
0.0
 40
0.0567243372181508
 40
0.1114372357370108
 40
0.1643678222229016
 40
0.21643537246209
 40
0.2676414903219249
 40
0.3173597799690281
 40
0.3674730633322806
 40
0.4182103970528083
 40
0.4714042826470201
 40
0.5279657201290494
 40
0.5880611158232139
 40
0.6521342629937146
 40
0.6863448363353056
 40
0.7232636803169652
 40
0.762610250771542
 40
0.8047389366452182
 40
0.8494303387909499
 40
0.8967112583864923
 40
0.9468896380534765
 40
1.0
 40
1.0
 40
1.0
 40
1.0
 10
213.2154439438655
 20
107.1091279558922
 30
0.0
 10
213.2418311329749
 20
107.1083521912074
 30
0.0
 10
213.2936698243977
 20
107.1068281703674
 30
0.0
 10
213.3693545815756
 20
107.094398532942
 30
0.0
 10
213.4406825872208
 20
107.0731357224345
 30
0.0
 10
213.5076075000476
 20
107.0444512737878
 30
0.0
 10
213.5689852490391
 20
107.0080165032099
 30
0.0
 10
213.6237981658724
 20
106.9637244885614
 30
0.0
 10
213.6714550047011
 20
106.912040287249
 30
0.0
 10
213.7114356648734
 20
106.8523514584345
 30
0.0
 10
213.7463827525917
 20
106.786304618622
 30
0.0
 10
213.7774289781669
 20
106.7136033252294
 30
0.0
 10
213.8054938643414
 20
106.6343290482659
 30
0.0
 10
213.8254093185251
 20
106.5633675035906
 30
0.0
 10
213.8396149956419
 20
106.5021109802953
 30
0.0
 10
213.8490180252082
 20
106.4515883327148
 30
0.0
 10
213.8568244248626
 20
106.3970741115459
 30
0.0
 10
213.8628051819925
 20
106.3387002013644
 30
0.0
 10
213.8677122521042
 20
106.2765320737049
 30
0.0
 10
213.8715017574623
 20
106.2105310215017
 30
0.0
 10
213.8734253194364
 20
106.1405320863541
 30
0.0
 10
213.8737963929496
 20
106.0925027783249
 30
0.0
 10
213.8739871964029
 20
106.0678064378175
 30
0.0
  0
SPLINE
  5
188
330
1F
100
AcDbEntity
  8
0
  6
Continuous
 62
     7
370
     0
100
AcDbSpline
210
0.0
220
0.0
230
1.0
 70
     8
 71
     3
 72
    31
 73
    27
 74
     0
 42
0.00000001
 43
0.00000001
 12
1.0
 22
0.0
 32
0.0
 13
1.0
 23
0.0
 33
0.0
 40
0.0
 40
0.0
 40
0.0
 40
0.0
 40
0.0631144583947934
 40
0.12361464576949
 40
0.1809737111859576
 40
0.2352614550083221
 40
0.287100701833872
 40
0.3360307363034435
 40
0.3823823485850663
 40
0.4263340836597072
 40
0.46821069479816
 40
0.508249601261805
 40
0.5466283366065848
 40
0.583649539230446
 40
0.6189943150301617
 40
0.6535830186205958
 40
0.6871561361903312
 40
0.7204221919788077
 40
0.7532302188118171
 40
0.7862601560778999
 40
0.8195039834988841
 40
0.8535452747120184
 40
0.8883082803397299
 40
0.9239958607406952
 40
0.961350304754645
 40
1.0
 40
1.0
 40
1.0
 40
1.0
 10
212.5569006913281
 20
106.0678064378175
 30
0.0
 10
212.5571660843165
 20
106.0971693430196
 30
0.0
 10
212.5576858774206
 20
106.1546789092528
 30
0.0
 10
212.560909985186
 20
106.238825735899
 30
0.0
 10
212.5665390160908
 20
106.3187364929384
 30
0.0
 10
212.5749416095935
 20
106.3943417816124
 30
0.0
 10
212.584891854536
 20
106.4658122579147
 30
0.0
 10
212.5978272357347
 20
106.5330459261051
 30
0.0
 10
212.6123814200784
 20
106.5961936357496
 30
0.0
 10
212.6298438295017
 20
106.6551895655906
 30
0.0
 10
212.6490293008472
 20
106.7105409732309
 30
0.0
 10
212.6707958301654
 20
106.7621590625161
 30
0.0
 10
212.6952861283595
 20
106.8099891061223
 30
0.0
 10
212.7212966494953
 20
106.854527128428
 30
0.0
 10
212.7501966407286
 20
106.8950803798871
 30
0.0
 10
212.7802417565377
 20
106.9327869507503
 30
0.0
 10
212.8136154965481
 20
106.966263993936
 30
0.0
 10
212.8489301090586
 20
106.9963728767992
 30
0.0
 10
212.8867056108944
 20
107.0229422112719
 30
0.0
 10
212.9267421321469
 20
107.0458683422054
 30
0.0
 10
212.9688856231737
 20
107.0661104627556
 30
0.0
 10
213.0139392923087
 20
107.0813487258177
 30
0.0
 10
213.0609678340394
 20
107.0937711405801
 30
0.0
 10
213.1103332496921
 20
107.1029092195012
 30
0.0
 10
213.1620899391933
 20
107.1082964254184
 30
0.0
 10
213.1974583611799
 20
107.1088476477844
 30
0.0
 10
213.2154439438655
 20
107.1091279558922
 30
0.0
  0
SPLINE
  5
189
330
1F
100
AcDbEntity
  8
0
  6
Continuous
 62
     7
370
     0
100
AcDbSpline
210
0.0
220
0.0
230
1.0
 70
     8
 71
     3
 72
    15
 73
    11
 74
     0
 42
0.00000001
 43
0.00000001
 12
1.0
 22
0.0
 32
0.0
 13
1.0
 23
0.0
 33
0.0
 40
0.0
 40
0.0
 40
0.0
 40
0.0
 40
0.0974206681772145
 40
0.2008855880393207
 40
0.3111719701726504
 40
0.4297979458253723
 40
0.5577399263645877
 40
0.6947152693641585
 40
0.8421299102060552
 40
1.0
 40
1.0
 40
1.0
 40
1.0
 10
212.7565216147535
 20
105.2261058431681
 30
0.0
 10
212.7402378578349
 20
105.2495954014161
 30
0.0
 10
212.7066600540146
 20
105.298031876034
 30
0.0
 10
212.6673601460051
 20
105.3806205583168
 30
0.0
 10
212.6323039322651
 20
105.4715391018165
 30
0.0
 10
212.6047912318531
 20
105.5725713175784
 30
0.0
 10
212.5832419290841
 20
105.6829131033768
 30
0.0
 10
212.5676779522878
 20
105.8027809732997
 30
0.0
 10
212.5588702736791
 20
105.932123140473
 30
0.0
 10
212.5575720395013
 20
106.0215576816986
 30
0.0
 10
212.5569006913281
 20
106.0678064378175
 30
0.0
  0
SPLINE
  5
18A
330
1F
100
AcDbEntity
  8
0
  6
Continuous
 62
     7
370
     0
100
AcDbSpline
210
0.0
220
0.0
230
1.0
 70
     8
 71
     3
 72
    15
 73
    11
 74
     0
 42
0.00000001
 43
0.00000001
 12
1.0
 22
0.0
 32
0.0
 13
1.0
 23
0.0
 33
0.0
 40
0.0
 40
0.0
 40
0.0
 40
0.0
 40
0.1379032299933934
 40
0.2688733426002937
 40
0.3951781273461133
 40
0.5170892381308875
 40
0.6367430265135471
 40
0.7562218164637977
 40
0.87662835946368
 40
1.0
 40
1.0
 40
1.0
 40
1.0
 10
213.2154439438655
 20
105.0281312778741
 30
0.0
 10
213.1916831619278
 20
105.0288090554352
 30
0.0
 10
213.1453561769638
 20
105.030130535131
 30
0.0
 10
213.0776990313782
 20
105.0391091756933
 30
0.0
 10
213.014199191455
 20
105.0549120046461
 30
0.0
 10
212.9543210724086
 20
105.0761058265707
 30
0.0
 10
212.8987377206693
 20
105.1044537838514
 30
0.0
 10
212.8471837478343
 20
105.1389446093814
 30
0.0
 10
212.7986232139852
 20
105.1787758376755
 30
0.0
 10
212.7706688184994
 20
105.2102017624867
 30
0.0
 10
212.7565216147535
 20
105.2261058431681
 30
0.0
  0
LINE
  5
18B
330
1F
100
AcDbEntity
  8
0
  6
Continuous
 62
     7
370
     0
100
AcDbLine
 10
215.6652248433
 20
105.8974083712
 30
0.0
 11
216.4291350162
 21
105.8974083712
 31
0.0
  0
LINE
  5
18C
330
1F
100
AcDbEntity
  8
0
  6
Continuous
 62
     7
370
     0
100
AcDbLine
 10
215.6652248433
 20
105.6603328003
 30
0.0
 11
215.6652248433
 21
105.8974083712
 31
0.0
  0
LINE
  5
18D
330
1F
100
AcDbEntity
  8
0
  6
Continuous
 62
     7
370
     0
100
AcDbLine
 10
216.4291350162
 20
105.6603328003
 30
0.0
 11
215.6652248433
 21
105.6603328003
 31
0.0
  0
LINE
  5
18E
330
1F
100
AcDbEntity
  8
0
  6
Continuous
 62
     7
370
     0
100
AcDbLine
 10
216.4291350162
 20
105.8974083712
 30
0.0
 11
216.4291350162
 21
105.6603328003
 31
0.0
  0
SPLINE
  5
18F
330
1F
100
AcDbEntity
  8
0
  6
Continuous
 62
     7
370
     0
100
AcDbSpline
210
0.0
220
0.0
230
1.0
 70
     8
 71
     3
 72
    15
 73
    11
 74
     0
 42
0.00000001
 43
0.00000001
 12
1.0
 22
0.0
 32
0.0
 13
1.0
 23
0.0
 33
0.0
 40
0.0
 40
0.0
 40
0.0
 40
0.0
 40
0.1324616222426389
 40
0.26164950103549
 40
0.387546698416366
 40
0.5107816292933473
 40
0.6326753605997105
 40
0.7546603541381371
 40
0.8765227798028643
 40
1.0
 40
1.0
 40
1.0
 40
1.0
 10
219.563800898326
 20
105.7591142881906
 30
0.0
 10
219.5633344926667
 20
105.7363202356036
 30
0.0
 10
219.5624132084037
 20
105.6912954776022
 30
0.0
 10
219.5548630933247
 20
105.6249431732727
 30
0.0
 10
219.5424260730859
 20
105.5610075054225
 30
0.0
 10
219.5257763348283
 20
105.4992991408755
 30
0.0
 10
219.5032803040604
 20
105.4401685354062
 30
0.0
 10
219.4759947243679
 20
105.3834246923638
 30
0.0
 10
219.444519277733
 20
105.3284755089612
 30
0.0
 10
219.4192776029369
 20
105.2946025087704
 30
0.0
 10
219.4065736967827
 20
105.2775545347726
 30
0.0
  0
SPLINE
  5
190
330
1F
100
AcDbEntity
  8
0
  6
Continuous
 62
     7
370
     0
100
AcDbSpline
210
0.0
220
0.0
230
1.0
 70
     8
 71
     3
 72
    23
 73
    19
 74
     0
 42
0.00000001
 43
0.00000001
 12
1.0
 22
0.0
 32
0.0
 13
1.0
 23
0.0
 33
0.0
 40
0.0
 40
0.0
 40
0.0
 40
0.0
 40
0.0619974190757217
 40
0.1220879540822929
 40
0.1813753107870032
 40
0.2395080083953659
 40
0.2978356978967512
 40
0.3568799706531182
 40
0.4172818251154283
 40
0.4796404090798161
 40
0.5425000674783564
 40
0.6049624196481904
 40
0.6669910330782645
 40
0.7302162430101636
 40
0.794172863251256
 40
0.8604581431502615
 40
0.9285781799847829
 40
1.0
 40
1.0
 40
1.0
 40
1.0
 10
218.9608222327214
 20
106.4242429732533
 30
0.0
 10
218.9815674527904
 20
106.4236994320308
 30
0.0
 10
219.0224198223402
 20
106.4226290675413
 30
0.0
 10
219.0826172034184
 20
106.4138346755368
 30
0.0
 10
219.140176026019
 20
106.3989056121024
 30
0.0
 10
219.1955477767321
 20
106.3787983401833
 30
0.0
 10
219.2480023144042
 20
106.3521427164019
 30
0.0
 10
219.2980709657727
 20
106.3198684159997
 30
0.0
 10
219.3455515863693
 20
106.2817094109496
 30
0.0
 10
219.3901757545852
 20
106.2383856829274
 30
0.0
 10
219.4306516498346
 20
106.1902917902677
 30
0.0
 10
219.4668788971237
 20
106.1389962494759
 30
0.0
 10
219.4964673338767
 20
106.0834722649763
 30
0.0
 10
219.5213532399381
 20
106.0251695774922
 30
0.0
 10
219.5401227231457
 20
105.9631311272336
 30
0.0
 10
219.5543694160036
 20
105.8982373665145
 30
0.0
 10
219.5619866497077
 20
105.8296769751784
 30
0.0
 10
219.5631866838783
 20
105.7830033083514
 30
0.0
 10
219.563800898326
 20
105.7591142881906
 30
0.0
  0
SPLINE
  5
191
330
1F
100
AcDbEntity
  8
0
  6
Continuous
 62
     7
370
     0
100
AcDbSpline
210
0.0
220
0.0
230
1.0
 70
     8
 71
     3
 72
    15
 73
    11
 74
     0
 42
0.00000001
 43
0.00000001
 12
1.0
 22
0.0
 32
0.0
 13
1.0
 23
0.0
 33
0.0
 40
0.0
 40
0.0
 40
0.0
 40
0.0
 40
0.1367294018595732
 40
0.2685149167908296
 40
0.3955294046848086
 40
0.519999953565812
 40
0.6404964768412694
 40
0.7612361017625326
 40
0.880106717175953
 40
1.0
 40
1.0
 40
1.0
 40
1.0
 10
218.5945075484975
 20
106.287183658819
 30
0.0
 10
218.6090422097179
 20
106.2980906723223
 30
0.0
 10
218.6375859851977
 20
106.3195103215233
 30
0.0
 10
218.682109158646
 20
106.347556528759
 30
0.0
 10
218.727268966761
 20
106.3711976113133
 30
0.0
 10
218.7728025227989
 20
106.3905576699368
 30
0.0
 10
218.819071519399
 20
106.405639121548
 30
0.0
 10
218.8657967480177
 20
106.4161170177166
 30
0.0
 10
218.9131373002059
 20
106.4231985964845
 30
0.0
 10
218.9448819326175
 20
106.4238938550259
 30
0.0
 10
218.9608222327214
 20
106.4242429732533
 30
0.0
  0
LINE
  5
192
330
1F
100
AcDbEntity
  8
0
  6
Continuous
 62
     7
370
     0
100
AcDbLine
 10
218.6990512898
 20
106.8193689248
 30
0.0
 11
218.5945075485
 21
106.2871836588
 31
0.0
  0
LINE
  5
193
330
1F
100
AcDbEntity
  8
0
  6
Continuous
 62
     7
370
     0
100
AcDbLine
 10
219.4584339779
 20
106.8193689248
 30
0.0
 11
218.6990512898
 21
106.8193689248
 31
0.0
  0
LINE
  5
194
330
1F
100
AcDbEntity
  8
0
  6
Continuous
 62
     7
370
     0
100
AcDbLine
 10
219.4584339779
 20
107.0827862258
 30
0.0
 11
219.4584339779
 21
106.8193689248
 31
0.0
  0
LINE
  5
195
330
1F
100
AcDbEntity
  8
0
  6
Continuous
 62
     7
370
     0
100
AcDbLine
 10
218.4837899642
 20
107.0827862258
 30
0.0
 11
219.4584339779
 21
107.0827862258
 31
0.0
  0
LINE
  5
196
330
1F
100
AcDbEntity
  8
0
  6
Continuous
 62
     7
370
     0
100
AcDbLine
 10
218.2730561234
 20
106.0291170217
 30
0.0
 11
218.4837899642
 21
107.0827862258
 31
0.0
  0
LINE
  5
197
330
1F
100
AcDbEntity
  8
0
  6
Continuous
 62
     7
370
     0
100
AcDbLine
 10
218.5364734244
 20
106.0027752916
 30
0.0
 11
218.2730561234
 21
106.0291170217
 31
0.0
  0
SPLINE
  5
198
330
1F
100
AcDbEntity
  8
0
  6
Continuous
 62
     7
370
     0
100
AcDbSpline
210
0.0
220
0.0
230
1.0
 70
     8
 71
     3
 72
    15
 73
    11
 74
     0
 42
0.00000001
 43
0.00000001
 12
1.0
 22
0.0
 32
0.0
 13
1.0
 23
0.0
 33
0.0
 40
0.0
 40
0.0
 40
0.0
 40
0.0
 40
0.1478596367312524
 40
0.2835613219395479
 40
0.4123693961385312
 40
0.5342363558879448
 40
0.6526916293119828
 40
0.7686630594981232
 40
0.8836524018604038
 40
1.0
 40
1.0
 40
1.0
 40
1.0
 10
218.8879708854095
 20
106.1871674023399
 30
0.0
 10
218.867486116544
 20
106.1865681828109
 30
0.0
 10
218.8282009656568
 20
106.1854190153604
 30
0.0
 10
218.7717522437262
 20
106.1757514816518
 30
0.0
 10
218.7203649284262
 20
106.1601348124718
 30
0.0
 10
218.6746208251446
 20
106.1368600669882
 30
0.0
 10
218.6337507292688
 20
106.1090545604988
 30
0.0
 10
218.5969055865473
 20
106.0775913684939
 30
0.0
 10
218.5637815713574
 20
106.0424917628677
 30
0.0
 10
218.5456117004736
 20
106.0160658338353
 30
0.0
 10
218.5364734243677
 20
106.0027752916294
 30
0.0
  0
SPLINE
  5
199
330
1F
100
AcDbEntity
  8
0
  6
Continuous
 62
     7
370
     0
100
AcDbSpline
210
0.0
220
0.0
230
1.0
 70
     8
 71
     3
 72
    23
 73
    19
 74
     0
 42
0.00000001
 43
0.00000001
 12
1.0
 22
0.0
 32
0.0
 13
1.0
 23
0.0
 33
0.0
 40
0.0
 40
0.0
 40
0.0
 40
0.0
 40
0.0728659334565351
 40
0.1418868719641257
 40
0.2074526264147115
 40
0.2704376800000974
 40
0.3316408722476697
 40
0.3901075774931577
 40
0.4480692869488361
 40
0.5055029519245373
 40
0.5624881528337238
 40
0.6190843288847293
 40
0.6764155306922391
 40
0.7354523604507931
 40
0.7962407694486783
 40
0.8604056780892032
 40
0.9283049272851057
 40
1.0
 40
1.0
 40
1.0
 40
1.0
 10
219.300383597311
 20
105.7434738859428
 30
0.0
 10
219.3000812067211
 20
105.7602234942968
 30
0.0
 10
219.2994923821101
 20
105.7928388664362
 30
0.0
 10
219.2945335182339
 20
105.840332271137
 30
0.0
 10
219.2861673310735
 20
105.8849904444
 30
0.0
 10
219.2753422682375
 20
105.9273055972426
 30
0.0
 10
219.2604212844815
 20
105.966616503287
 30
0.0
 10
219.2427241575763
 20
106.0034931322355
 30
0.0
 10
219.2210444333341
 20
106.0371528534549
 30
0.0
 10
219.1969243095234
 20
106.0686437087661
 30
0.0
 10
219.1693760829744
 20
106.0968739916511
 30
0.0
 10
219.1380275817756
 20
106.120710889919
 30
0.0
 10
219.1041085891197
 20
106.1415729898118
 30
0.0
 10
219.0669359417468
 20
106.1584908513724
 30
0.0
 10
219.0264877505988
 20
106.1710601867874
 30
0.0
 10
218.9831659592393
 20
106.1807311593853
 30
0.0
 10
218.9365210399124
 20
106.1858176949674
 30
0.0
 10
218.9044450054834
 20
106.1867094173644
 30
0.0
 10
218.8879708854095
 20
106.1871674023399
 30
0.0
  0
SPLINE
  5
19A
330
1F
100
AcDbEntity
  8
0
  6
Continuous
 62
     7
370
     0
100
AcDbSpline
210
0.0
220
0.0
230
1.0
 70
     8
 71
     3
 72
    23
 73
    19
 74
     0
 42
0.00000001
 43
0.00000001
 12
1.0
 22
0.0
 32
0.0
 13
1.0
 23
0.0
 33
0.0
 40
0.0
 40
0.0
 40
0.0
 40
0.0
 40
0.065801037609473
 40
0.1286767959489727
 40
0.1886758749524336
 40
0.2475984367338943
 40
0.3048494201188272
 40
0.3617858992828988
 40
0.4195227063685893
 40
0.4786818154207404
 40
0.538769503044019
 40
0.598799056013154
 40
0.6601842815006786
 40
0.7229515306109658
 40
0.7879926891048735
 40
0.8554037684344737
 40
0.9261530612840035
 40
1.0
 40
1.0
 40
1.0
 40
1.0
 10
218.886736116811
 20
105.2652068487875
 30
0.0
 10
218.9023973959034
 20
105.2655852707526
 30
0.0
 10
218.9330237095191
 20
105.2663252913928
 30
0.0
 10
218.977579194303
 20
105.2725840886504
 30
0.0
 10
219.0196654581727
 20
105.2829041202322
 30
0.0
 10
219.0590811247567
 20
105.2973462377922
 30
0.0
 10
219.0962882663277
 20
105.3153067198422
 30
0.0
 10
219.1300525586431
 20
105.3385622723964
 30
0.0
 10
219.1622150170048
 20
105.364703811374
 30
0.0
 10
219.1907059799311
 20
105.3958695429663
 30
0.0
 10
219.2166407609556
 20
105.4297986476582
 30
0.0
 10
219.2390244267489
 20
105.4668337087052
 30
0.0
 10
219.2578683108453
 20
105.506454909717
 30
0.0
 10
219.2737328016129
 20
105.5486546545787
 30
0.0
 10
219.2854475703276
 20
105.5936740157887
 30
0.0
 10
219.2940647289751
 20
105.6412734989301
 30
0.0
 10
219.2995966008386
 20
105.691483424919
 30
0.0
 10
219.3001175451374
 20
105.7258979810331
 30
0.0
 10
219.300383597311
 20
105.7434738859428
 30
0.0
  0
SPLINE
  5
19B
330
1F
100
AcDbEntity
  8
0
  6
Continuous
 62
     7
370
     0
100
AcDbSpline
210
0.0
220
0.0
230
1.0
 70
     8
 71
     3
 72
    23
 73
    19
 74
     0
 42
0.00000001
 43
0.00000001
 12
1.0
 22
0.0
 32
0.0
 13
1.0
 23
0.0
 33
0.0
 40
0.0
 40
0.0
 40
0.0
 40
0.0
 40
0.0773613371189766
 40
0.1504798322806808
 40
0.2199772368520749
 40
0.2866809968624412
 40
0.3496784941856629
 40
0.410679625017485
 40
0.469427113519291
 40
0.5267557014271297
 40
0.5831419808348368
 40
0.6388244277786262
 40
0.6952634704038116
 40
0.7526958048985345
 40
0.8108491833348943
 40
0.8713563036360842
 40
0.9344364309841274
 40
1.0
 40
1.0
 40
1.0
 40
1.0
 10
218.5101316942662
 20
105.6339910702085
 30
0.0
 10
218.5127399390962
 20
105.6191489509882
 30
0.0
 10
218.5178133809367
 20
105.5902787207915
 30
0.0
 10
218.5274813850879
 20
105.5484882062675
 30
0.0
 10
218.5400373704182
 20
105.5096636501774
 30
0.0
 10
218.5541454022705
 20
105.4734688096905
 30
0.0
 10
218.5709151782054
 20
105.4402863999244
 30
0.0
 10
218.5890853693675
 20
105.4095924879871
 30
0.0
 10
218.6105133964037
 20
105.3824766120687
 30
0.0
 10
218.63304208977
 20
105.3575205862843
 30
0.0
 10
218.6577690521629
 20
105.3355299140428
 30
0.0
 10
218.684932880256
 20
105.3169910187054
 30
0.0
 10
218.7137756854379
 20
105.3008169551271
 30
0.0
 10
218.7446487622028
 20
105.2875743504351
 30
0.0
 10
218.7775994271368
 20
105.2778814612206
 30
0.0
 10
218.8122083063351
 20
105.2702160498481
 30
0.0
 10
218.8489210517323
 20
105.2663534852102
 30
0.0
 10
218.8739699073477
 20
105.2655939484982
 30
0.0
 10
218.886736116811
 20
105.2652068487875
 30
0.0
  0
LINE
  5
19C
330
1F
100
AcDbEntity
  8
0
  6
Continuous
 62
     7
370
     0
100
AcDbLine
 10
218.2467143933
 20
105.6076493401
 30
0.0
 11
218.5101316943
 21
105.6339910702
 31
0.0
  0
SPLINE
  5
19D
330
1F
100
AcDbEntity
  8
0
  6
Continuous
 62
     7
370
     0
100
AcDbSpline
210
0.0
220
0.0
230
1.0
 70
     8
 71
     3
 72
    23
 73
    19
 74
     0
 42
0.00000001
 43
0.00000001
 12
1.0
 22
0.0
 32
0.0
 13
1.0
 23
0.0
 33
0.0
 40
0.0
 40
0.0
 40
0.0
 40
0.0
 40
0.0692980234597528
 40
0.135560844101282
 40
0.1996709556470566
 40
0.2617162384956088
 40
0.3226619299471025
 40
0.3829069237782243
 40
0.4430320330728903
 40
0.5035007873501627
 40
0.5637242810171079
 40
0.6239800220534739
 40
0.6836293869955231
 40
0.7438482724857304
 40
0.8051918462295101
 40
0.8676487429597673
 40
0.9327780842312611
 40
1.0
 40
1.0
 40
1.0
 40
1.0
 10
218.8850897586796
 20
105.0281312778741
 30
0.0
 10
218.8629787457776
 20
105.0285797961665
 30
0.0
 10
218.8197251661907
 20
105.0294571879776
 30
0.0
 10
218.7563942298754
 20
105.0370848168092
 30
0.0
 10
218.6961590204717
 20
105.0492481952014
 30
0.0
 10
218.6390006672738
 20
105.0666942451711
 30
0.0
 10
218.5847469675014
 20
105.0887389619808
 30
0.0
 10
218.5340285497661
 20
105.1167433113682
 30
0.0
 10
218.4859652505801
 20
105.1487785428305
 30
0.0
 10
218.4416143023465
 20
105.1858316559436
 30
0.0
 10
218.4012048139379
 20
105.2271601220108
 30
0.0
 10
218.3649970916442
 20
105.2718882799076
 30
0.0
 10
218.3334811245966
 20
105.3200452956569
 30
0.0
 10
218.3066721239305
 20
105.3713430083532
 30
0.0
 10
218.2843280598402
 20
105.4257322220644
 30
0.0
 10
218.2672339673879
 20
105.4835841639409
 30
0.0
 10
218.2536940236262
 20
105.544331217329
 30
0.0
 10
218.249065331098
 20
105.5863219970773
 30
0.0
 10
218.2467143932512
 20
105.607649340107
 30
0.0
  0
SPLINE
  5
19E
330
1F
100
AcDbEntity
  8
0
  6
Continuous
 62
     7
370
     0
100
AcDbSpline
210
0.0
220
0.0
230
1.0
 70
     8
 71
     3
 72
    15
 73
    11
 74
     0
 42
0.00000001
 43
0.00000001
 12
1.0
 22
0.0
 32
0.0
 13
1.0
 23
0.0
 33
0.0
 40
0.0
 40
0.0
 40
0.0
 40
0.0
 40
0.1278926194654207
 40
0.2515785135038573
 40
0.3727928197023036
 40
0.4927776986078534
 40
0.6135900692425711
 40
0.7378086492801457
 40
0.8661799015391679
 40
1.0
 40
1.0
 40
1.0
 40
1.0
 10
219.4065736967827
 20
105.2775545347726
 30
0.0
 10
219.3904337401939
 20
105.2576541838475
 30
0.0
 10
219.3586847127395
 20
105.2185080570042
 30
0.0
 10
219.3037116182709
 20
105.167698727357
 30
0.0
 10
219.2446147623113
 20
105.1245177897591
 30
0.0
 10
219.1810424522927
 20
105.0894364073392
 30
0.0
 10
219.1134214697065
 20
105.0612455458988
 30
0.0
 10
219.0409211093181
 20
105.0424855861658
 30
0.0
 10
218.9644174132572
 20
105.0298875301137
 30
0.0
 10
218.9118961415966
 20
105.0287247502298
 30
0.0
 10
218.8850897586796
 20
105.0281312778741
 30
0.0
  0
LINE
  5
19F
330
1F
100
AcDbEntity
  8
0
  6
Continuous
 62
     7
370
     0
100
AcDbLine
 10
221.3550385452
 20
105.8974083712
 30
0.0
 11
222.1189487182
 21
105.8974083712
 31
0.0
  0
LINE
  5
1A0
330
1F
100
AcDbEntity
  8
0
  6
Continuous
 62
     7
370
     0
100
AcDbLine
 10
221.3550385452
 20
105.6603328003
 30
0.0
 11
221.3550385452
 21
105.8974083712
 31
0.0
  0
LINE
  5
1A1
330
1F
100
AcDbEntity
  8
0
  6
Continuous
 62
     7
370
     0
100
AcDbLine
 10
222.1189487182
 20
105.6603328003
 30
0.0
 11
221.3550385452
 21
105.6603328003
 31
0.0
  0
LINE
  5
1A2
330
1F
100
AcDbEntity
  8
0
  6
Continuous
 62
     7
370
     0
100
AcDbLine
 10
222.1189487182
 20
105.8974083712
 30
0.0
 11
222.1189487182
 21
105.6603328003
 31
0.0
  0
SPLINE
  5
1A3
330
1F
100
AcDbEntity
  8
0
  6
Continuous
 62
     7
370
     0
100
AcDbSpline
210
0.0
220
0.0
230
1.0
 70
     8
 71
     3
 72
    31
 73
    27
 74
     0
 42
0.00000001
 43
0.00000001
 12
1.0
 22
0.0
 32
0.0
 13
1.0
 23
0.0
 33
0.0
 40
0.0
 40
0.0
 40
0.0
 40
0.0
 40
0.0628739462114324
 40
0.1228366299919129
 40
0.1796565674430315
 40
0.2339600122308621
 40
0.2855950186955591
 40
0.3345131060783806
 40
0.3809048259061764
 40
0.4248945919393348
 40
0.4665290347654876
 40
0.5064882940692463
 40
0.5450315536447548
 40
0.5818311798231349
 40
0.6174482799494435
 40
0.652066912769046
 40
0.685879714246511
 40
0.7191745547913925
 40
0.7521816462063932
 40
0.7852401639180917
 40
0.8186564497770835
 40
0.852547740653311
 40
0.8876263422585192
 40
0.9236350780687517
 40
0.9610218444769894
 40
1.0
 40
1.0
 40
1.0
 40
1.0
 10
225.569715361467
 20
106.0678064378175
 30
0.0
 10
225.569444997231
 20
106.0385814544745
 30
0.0
 10
225.5689167874776
 20
105.9814846968868
 30
0.0
 10
225.5657790712013
 20
105.8980125860081
 30
0.0
 10
225.5598108517244
 20
105.8187047167254
 30
0.0
 10
225.5524668486186
 20
105.743379417785
 30
0.0
 10
225.5413569102021
 20
105.672237772283
 30
0.0
 10
225.5293853496119
 20
105.6049775181893
 30
0.0
 10
225.5145794862866
 20
105.5419040762931
 30
0.0
 10
225.4973045198376
 20
105.4829898031301
 30
0.0
 10
225.4778489848976
 20
105.4279231812404
 30
0.0
 10
225.4565129802566
 20
105.3762880477072
 30
0.0
 10
225.4328813064531
 20
105.3281196854677
 30
0.0
 10
225.4062505956217
 20
105.2838879045677
 30
0.0
 10
225.3778393234227
 20
105.2430056021696
 30
0.0
 10
225.3474394074941
 20
105.2053194195669
 30
0.0
 10
225.3144063340287
 20
105.1713717698581
 30
0.0
 10
225.2787734818561
 20
105.1413531974406
 30
0.0
 10
225.2412632115349
 20
105.1143126938863
 30
0.0
 10
225.2011293541695
 20
105.0911602128237
 30
0.0
 10
225.1585475693984
 20
105.0719787844028
 30
0.0
 10
225.1138023625223
 20
105.0555796160646
 30
0.0
 10
225.0664397288652
 20
105.043563267368
 30
0.0
 10
225.0168331657484
 20
105.0343649402094
 30
0.0
 10
224.9647998963702
 20
105.0289482990614
 30
0.0
 10
224.9292946723755
 20
105.0284073757519
 30
0.0
 10
224.9111721089296
 20
105.0281312778741
 30
0.0
  0
SPLINE
  5
1A4
330
1F
100
AcDbEntity
  8
0
  6
Continuous
 62
     7
370
     0
100
AcDbSpline
210
0.0
220
0.0
230
1.0
 70
     8
 71
     3
 72
    27
 73
    23
 74
     0
 42
0.00000001
 43
0.00000001
 12
1.0
 22
0.0
 32
0.0
 13
1.0
 23
0.0
 33
0.0
 40
0.0
 40
0.0
 40
0.0
 40
0.0
 40
0.0567243372181508
 40
0.1114372357370111
 40
0.1643678222229013
 40
0.2164353724620895
 40
0.2676414903219251
 40
0.3173597799690279
 40
0.3674730633322808
 40
0.4182103970528078
 40
0.4714042826470199
 40
0.5279657201290492
 40
0.5880611158232136
 40
0.6521342629937142
 40
0.6863448363353056
 40
0.7232636803169652
 40
0.7626102507715418
 40
0.8047389366452182
 40
0.8494303387909499
 40
0.8967112583864923
 40
0.9468896380534765
 40
1.0
 40
1.0
 40
1.0
 40
1.0
 10
224.9111721089296
 20
107.1091279558922
 30
0.0
 10
224.937559298039
 20
107.1083521912074
 30
0.0
 10
224.9893979894618
 20
107.1068281703674
 30
0.0
 10
225.0650827466397
 20
107.094398532942
 30
0.0
 10
225.1364107522849
 20
107.0731357224345
 30
0.0
 10
225.2033356651117
 20
107.0444512737878
 30
0.0
 10
225.2647134141032
 20
107.0080165032099
 30
0.0
 10
225.3195263309365
 20
106.9637244885614
 30
0.0
 10
225.3671831697652
 20
106.912040287249
 30
0.0
 10
225.4071638299375
 20
106.8523514584345
 30
0.0
 10
225.4421109176558
 20
106.786304618622
 30
0.0
 10
225.473157143231
 20
106.7136033252294
 30
0.0
 10
225.5012220294055
 20
106.6343290482659
 30
0.0
 10
225.5211374835892
 20
106.5633675035906
 30
0.0
 10
225.535343160706
 20
106.5021109802953
 30
0.0
 10
225.5447461902723
 20
106.4515883327148
 30
0.0
 10
225.5525525899266
 20
106.3970741115459
 30
0.0
 10
225.5585333470566
 20
106.3387002013644
 30
0.0
 10
225.5634404171683
 20
106.2765320737049
 30
0.0
 10
225.5672299225264
 20
106.2105310215017
 30
0.0
 10
225.5691534845006
 20
106.1405320863541
 30
0.0
 10
225.5695245580137
 20
106.0925027783249
 30
0.0
 10
225.569715361467
 20
106.0678064378175
 30
0.0
  0
SPLINE
  5
1A5
330
1F
100
AcDbEntity
  8
0
  6
Continuous
 62
     7
370
     0
100
AcDbSpline
210
0.0
220
0.0
230
1.0
 70
     8
 71
     3
 72
    31
 73
    27
 74
     0
 42
0.00000001
 43
0.00000001
 12
1.0
 22
0.0
 32
0.0
 13
1.0
 23
0.0
 33
0.0
 40
0.0
 40
0.0
 40
0.0
 40
0.0
 40
0.0631144583947934
 40
0.1236146457694899
 40
0.1809737111859575
 40
0.235261455008322
 40
0.2871007018338719
 40
0.3360307363034434
 40
0.3823823485850662
 40
0.426334083659707
 40
0.4682106947981599
 40
0.5082496012618049
 40
0.5466283366065846
 40
0.5836495392304459
 40
0.6189943150301614
 40
0.6535830186205956
 40
0.687156136190331
 40
0.7204221919788075
 40
0.7532302188118168
 40
0.7862601560778997
 40
0.8195039834988835
 40
0.8535452747120178
 40
0.8883082803397293
 40
0.9239958607406945
 40
0.9613503047546453
 40
1.0
 40
1.0
 40
1.0
 40
1.0
 10
224.2526288563922
 20
106.0678064378175
 30
0.0
 10
224.2528942493806
 20
106.0971693430196
 30
0.0
 10
224.2534140424848
 20
106.1546789092528
 30
0.0
 10
224.2566381502501
 20
106.238825735899
 30
0.0
 10
224.2622671811549
 20
106.3187364929384
 30
0.0
 10
224.2706697746576
 20
106.3943417816124
 30
0.0
 10
224.2806200196001
 20
106.4658122579147
 30
0.0
 10
224.2935554007988
 20
106.5330459261051
 30
0.0
 10
224.3081095851425
 20
106.5961936357496
 30
0.0
 10
224.3255719945658
 20
106.6551895655906
 30
0.0
 10
224.3447574659114
 20
106.7105409732309
 30
0.0
 10
224.3665239952295
 20
106.7621590625161
 30
0.0
 10
224.3910142934236
 20
106.8099891061223
 30
0.0
 10
224.4170248145595
 20
106.854527128428
 30
0.0
 10
224.4459248057928
 20
106.8950803798871
 30
0.0
 10
224.4759699216019
 20
106.9327869507503
 30
0.0
 10
224.5093436616122
 20
106.966263993936
 30
0.0
 10
224.5446582741227
 20
106.9963728767992
 30
0.0
 10
224.5824337759585
 20
107.0229422112719
 30
0.0
 10
224.622470297211
 20
107.0458683422054
 30
0.0
 10
224.6646137882379
 20
107.0661104627556
 30
0.0
 10
224.7096674573728
 20
107.0813487258177
 30
0.0
 10
224.7566959991035
 20
107.0937711405801
 30
0.0
 10
224.8060614147562
 20
107.1029092195012
 30
0.0
 10
224.8578181042574
 20
107.1082964254184
 30
0.0
 10
224.8931865262441
 20
107.1088476477844
 30
0.0
 10
224.9111721089296
 20
107.1091279558922
 30
0.0
  0
SPLINE
  5
1A6
330
1F
100
AcDbEntity
  8
0
  6
Continuous
 62
     7
370
     0
100
AcDbSpline
210
0.0
220
0.0
230
1.0
 70
     8
 71
     3
 72
    15
 73
    11
 74
     0
 42
0.00000001
 43
0.00000001
 12
1.0
 22
0.0
 32
0.0
 13
1.0
 23
0.0
 33
0.0
 40
0.0
 40
0.0
 40
0.0
 40
0.0
 40
0.0974206681772145
 40
0.2008855880393207
 40
0.3111719701726504
 40
0.4297979458253728
 40
0.5577399263645871
 40
0.6947152693641585
 40
0.8421299102060552
 40
1.0
 40
1.0
 40
1.0
 40
1.0
 10
224.4522497798176
 20
105.2261058431681
 30
0.0
 10
224.435966022899
 20
105.2495954014161
 30
0.0
 10
224.4023882190787
 20
105.298031876034
 30
0.0
 10
224.3630883110692
 20
105.3806205583168
 30
0.0
 10
224.3280320973292
 20
105.4715391018165
 30
0.0
 10
224.3005193969173
 20
105.5725713175784
 30
0.0
 10
224.2789700941482
 20
105.6829131033768
 30
0.0
 10
224.2634061173519
 20
105.8027809732997
 30
0.0
 10
224.2545984387432
 20
105.932123140473
 30
0.0
 10
224.2533002045654
 20
106.0215576816986
 30
0.0
 10
224.2526288563922
 20
106.0678064378175
 30
0.0
  0
SPLINE
  5
1A7
330
1F
100
AcDbEntity
  8
0
  6
Continuous
 62
     7
370
     0
100
AcDbSpline
210
0.0
220
0.0
230
1.0
 70
     8
 71
     3
 72
    15
 73
    11
 74
     0
 42
0.00000001
 43
0.00000001
 12
1.0
 22
0.0
 32
0.0
 13
1.0
 23
0.0
 33
0.0
 40
0.0
 40
0.0
 40
0.0
 40
0.0
 40
0.1379032299933933
 40
0.2688733426002926
 40
0.3951781273461146
 40
0.5170892381308878
 40
0.6367430265135473
 40
0.7562218164637978
 40
0.87662835946368
 40
1.0
 40
1.0
 40
1.0
 40
1.0
 10
224.9111721089296
 20
105.0281312778741
 30
0.0
 10
224.8874113269919
 20
105.0288090554352
 30
0.0
 10
224.8410843420279
 20
105.030130535131
 30
0.0
 10
224.7734271964424
 20
105.0391091756933
 30
0.0
 10
224.7099273565191
 20
105.0549120046461
 30
0.0
 10
224.6500492374727
 20
105.0761058265707
 30
0.0
 10
224.5944658857335
 20
105.1044537838515
 30
0.0
 10
224.5429119128984
 20
105.1389446093814
 30
0.0
 10
224.4943513790493
 20
105.1787758376755
 30
0.0
 10
224.4663969835635
 20
105.2102017624867
 30
0.0
 10
224.4522497798176
 20
105.2261058431681
 30
0.0
  0
CIRCLE
  5
1A8
330
1F
100
AcDbEntity
  8
0
  6
Continuous
 62
     7
370
     0
100
AcDbCircle
 10
216.8607722134
 20
107.6654806202
 30
0.0
 40
25.39999999999998
  0
SPLINE
  5
1A9
330
1F
100
AcDbEntity
  8
0
  6
Continuous
 62
     7
370
     0
100
AcDbSpline
210
0.0
220
0.0
230
1.0
 70
     8
 71
     3
 72
    23
 73
    19
 74
     0
 42
0.00000001
 43
0.00000001
 12
1.0
 22
0.0
 32
0.0
 13
1.0
 23
0.0
 33
0.0
 40
0.0
 40
0.0
 40
0.0
 40
0.0
 40
0.1156291309254413
 40
0.2215410391198766
 40
0.3170478562190415
 40
0.4031508756396164
 40
0.4801812167162793
 40
0.5476493661481896
 40
0.6070358428421807
 40
0.6586524080635068
 40
0.7057228903536447
 40
0.7498040879796465
 40
0.7925868153452744
 40
0.8338739610102599
 40
0.8747683933034318
 40
0.9152226988916382
 40
0.9568807037304797
 40
1.0
 40
1.0
 40
1.0
 40
1.0
 10
225.306298060452
 20
106.0686296168831
 30
0.0
 10
225.3060486088748
 20
106.1073260274995
 30
0.0
 10
225.3055706690928
 20
106.1814668858589
 30
0.0
 10
225.3001690737543
 20
106.2874597910574
 30
0.0
 10
225.2917042884118
 20
106.3833216978174
 30
0.0
 10
225.2801258067927
 20
106.469140981928
 30
0.0
 10
225.2647380068678
 20
106.5448244747911
 30
0.0
 10
225.2460747046309
 20
106.610533296276
 30
0.0
 10
225.2238345894152
 20
106.6661273116461
 30
0.0
 10
225.1973911717874
 20
106.7121649638804
 30
0.0
 10
225.1679543570076
 20
106.7499283282135
 30
0.0
 10
225.1372048133913
 20
106.7826158058985
 30
0.0
 10
225.1043737992478
 20
106.8104154407396
 30
0.0
 10
225.0688796477982
 20
106.8327167179015
 30
0.0
 10
225.0318664023
 20
106.850708558819
 30
0.0
 10
224.9924835924489
 20
106.8630910019059
 30
0.0
 10
224.9511183201431
 20
106.8706983876297
 30
0.0
 10
224.9227298704194
 20
106.8715958957989
 30
0.0
 10
224.9082909821998
 20
106.8720523849788
 30
0.0
  0
SPLINE
  5
1AA
330
1F
100
AcDbEntity
  8
0
  6
Continuous
 62
     7
370
     0
100
AcDbSpline
210
0.0
220
0.0
230
1.0
 70
     8
 71
     3
 72
    23
 73
    19
 74
     0
 42
0.00000001
 43
0.00000001
 12
1.0
 22
0.0
 32
0.0
 13
1.0
 23
0.0
 33
0.0
 40
0.0
 40
0.0
 40
0.0
 40
0.0
 40
0.0407818458722593
 40
0.0808695887215865
 40
0.1202681657882668
 40
0.1601868504553523
 40
0.2004597376386395
 40
0.2422651778979076
 40
0.2864592615494688
 40
0.3329520837492632
 40
0.3844305340495304
 40
0.4433891253601054
 40
0.5116814722136832
 40
0.589020025549008
 40
0.6762451906507723
 40
0.7737051914728237
 40
0.881567767781983
 40
1.0
 40
1.0
 40
1.0
 40
1.0
 10
224.9111721089296
 20
105.2652068487875
 30
0.0
 10
224.9247777765065
 20
105.2657262768047
 30
0.0
 10
224.9517575445306
 20
105.266756292225
 30
0.0
 10
224.9914742491586
 20
105.2736170619094
 30
0.0
 10
225.029312666534
 20
105.2864351606261
 30
0.0
 10
225.065614004774
 20
105.3031948791764
 30
0.0
 10
225.1001908399343
 20
105.3249027388343
 30
0.0
 10
225.1328613300951
 20
105.351645604146
 30
0.0
 10
225.1641471903704
 20
105.3829716389645
 30
0.0
 10
225.1941560700524
 20
105.4198411486146
 30
0.0
 10
225.2214781224014
 20
105.4647587455604
 30
0.0
 10
225.2441437375446
 20
105.5201145055255
 30
0.0
 10
225.2635731226262
 20
105.5856332919645
 30
0.0
 10
225.2793783047078
 20
105.6617870700139
 30
0.0
 10
225.2913320413217
 20
105.7484366430144
 30
0.0
 10
225.3002821675955
 20
105.8456646038979
 30
0.0
 10
225.3055479511678
 20
105.9536005189091
 30
0.0
 10
225.3060403576715
 20
106.0291109507128
 30
0.0
 10
225.306298060452
 20
106.0686296168831
 30
0.0
  0
SPLINE
  5
1AB
330
1F
100
AcDbEntity
  8
0
  6
Continuous
 62
     7
370
     0
100
AcDbSpline
210
0.0
220
0.0
230
1.0
 70
     8
 71
     3
 72
    23
 73
    19
 74
     0
 42
0.00000001
 43
0.00000001
 12
1.0
 22
0.0
 32
0.0
 13
1.0
 23
0.0
 33
0.0
 40
0.0
 40
0.0
 40
0.0
 40
0.0
 40
0.1184055081537694
 40
0.2266543328167019
 40
0.324092341928602
 40
0.4117048030053217
 40
0.4890259050064155
 40
0.5569093973430755
 40
0.6162333444927066
 40
0.6673492812770748
 40
0.7135123932013473
 40
0.7576965045209773
 40
0.7994925114422908
 40
0.8399760647439393
 40
0.8798857418167766
 40
0.919148659385742
 40
0.9592273564930833
 40
1.0
 40
1.0
 40
1.0
 40
1.0
 10
224.5160461574072
 20
106.0686296168831
 30
0.0
 10
224.5163077098401
 20
106.029111128993
 30
0.0
 10
224.5168083790497
 20
105.9534640020448
 30
0.0
 10
224.5220391569832
 20
105.8453890298516
 30
0.0
 10
224.5310437258941
 20
105.7478906526217
 30
0.0
 10
224.5429483541435
 20
105.661103863229
 30
0.0
 10
224.5586672834158
 20
105.5849112653788
 30
0.0
 10
224.5784042582485
 20
105.5195070212666
 30
0.0
 10
224.6006525232586
 20
105.4641061316889
 30
0.0
 10
224.6281843296174
 20
105.4193952480349
 30
0.0
 10
224.6583286166712
 20
105.3829493555027
 30
0.0
 10
224.6894505329406
 20
105.351604709271
 30
0.0
 10
224.7222822695353
 20
105.3249624776865
 30
0.0
 10
224.7566096033418
 20
105.3027482898687
 30
0.0
 10
224.7929651476465
 20
105.2859291663373
 30
0.0
 10
224.8309513606156
 20
105.2737386281494
 30
0.0
 10
224.8705765077248
 20
105.2667231605955
 30
0.0
 10
224.8975630334842
 20
105.2657151699155
 30
0.0
 10
224.9111721089296
 20
105.2652068487875
 30
0.0
  0
SPLINE
  5
1AC
330
1F
100
AcDbEntity
  8
0
  6
Continuous
 62
     7
370
     0
100
AcDbSpline
210
0.0
220
0.0
230
1.0
 70
     8
 71
     3
 72
    15
 73
    11
 74
     0
 42
0.00000001
 43
0.00000001
 12
1.0
 22
0.0
 32
0.0
 13
1.0
 23
0.0
 33
0.0
 40
0.0
 40
0.0
 40
0.0
 40
0.0
 40
0.0838881132795455
 40
0.1771540327539698
 40
0.2825136355617228
 40
0.3993998606601629
 40
0.5294908061912204
 40
0.6728021776758327
 40
0.82953576161967
 40
1.0
 40
1.0
 40
1.0
 40
1.0
 10
224.6349955323967
 20
106.7312887647489
 30
0.0
 10
224.6252051080721
 20
106.7149201633078
 30
0.0
 10
224.6045297932547
 20
106.6803531234441
 30
0.0
 10
224.5813953181539
 20
106.6202741839547
 30
0.0
 10
224.5609592373962
 20
106.5516153918485
 30
0.0
 10
224.5441335674462
 20
106.4733203817415
 30
0.0
 10
224.5319613756146
 20
106.3855234610684
 30
0.0
 10
224.5223519008276
 20
106.2883265893549
 30
0.0
 10
224.5173601363585
 20
106.1815940681396
 30
0.0
 10
224.5164962347566
 20
106.1073233423406
 30
0.0
 10
224.5160461574072
 20
106.0686296168831
 30
0.0
  0
SPLINE
  5
1AD
330
1F
100
AcDbEntity
  8
0
  6
Continuous
 62
     7
370
     0
100
AcDbSpline
210
0.0
220
0.0
230
1.0
 70
     8
 71
     3
 72
    15
 73
    11
 74
     0
 42
0.00000001
 43
0.00000001
 12
1.0
 22
0.0
 32
0.0
 13
1.0
 23
0.0
 33
0.0
 40
0.0
 40
0.0
 40
0.0
 40
0.0
 40
0.1276647678962228
 40
0.2517385630080477
 40
0.3727533493873867
 40
0.4921467589723859
 40
0.6140696213092441
 40
0.737197324412108
 40
0.8656069906011162
 40
1.0
 40
1.0
 40
1.0
 40
1.0
 10
224.9082909821998
 20
106.8720523849788
 30
0.0
 10
224.8946827614794
 20
106.8716952229004
 30
0.0
 10
224.8678490940104
 20
106.8709909450494
 30
0.0
 10
224.8285610906275
 20
106.8642686200946
 30
0.0
 10
224.7913283113646
 20
106.8530273944512
 30
0.0
 10
224.7557241889268
 20
106.8378000628206
 30
0.0
 10
224.7226375612402
 20
106.8173070821219
 30
0.0
 10
224.6907562949327
 20
106.7933800684592
 30
0.0
 10
224.6615735851674
 20
106.7642276729157
 30
0.0
 10
224.6439883403018
 20
106.7424337976941
 30
0.0
 10
224.6349955323967
 20
106.7312887647489
 30
0.0
  0
SPLINE
  5
1AE
330
1F
100
AcDbEntity
  8
0
  6
Continuous
 62
     7
370
     0
100
AcDbSpline
210
0.0
220
0.0
230
1.0
 70
     8
 71
     3
 72
    23
 73
    19
 74
     0
 42
0.00000001
 43
0.00000001
 12
1.0
 22
0.0
 32
0.0
 13
1.0
 23
0.0
 33
0.0
 40
0.0
 40
0.0
 40
0.0
 40
0.0
 40
0.076010519206233
 40
0.1481357362434483
 40
0.217788177833154
 40
0.2867678984972345
 40
0.3540434632439188
 40
0.4186108400234796
 40
0.4836364388553443
 40
0.5502295626461522
 40
0.5869278113138146
 40
0.6291578250269657
 40
0.6772382242876696
 40
0.7300426397437304
 40
0.7888625661169236
 40
0.8537504514610937
 40
0.9241097665384561
 40
0.9999999999999999
 40
0.9999999999999999
 40
0.9999999999999999
 40
0.9999999999999999
 10
222.1452904482726
 20
109.7120201615463
 30
0.0
 10
222.1447585338656
 20
109.728930783709
 30
0.0
 10
222.1437218940279
 20
109.7618876361363
 30
0.0
 10
222.1350202294495
 20
109.8097466999163
 30
0.0
 10
222.1199623203551
 20
109.8542707704904
 30
0.0
 10
222.0995697879561
 20
109.8954500808664
 30
0.0
 10
222.0737474235759
 20
109.932084991884
 30
0.0
 10
222.0429275309302
 20
109.9635824399887
 30
0.0
 10
222.0060074749562
 20
109.9873931239909
 30
0.0
 10
221.9714982815406
 20
110.0022462777355
 30
0.0
 10
221.9404599970362
 20
110.0115383268015
 30
0.0
 10
221.9127283799189
 20
110.0170360497456
 30
0.0
 10
221.8812724548038
 20
110.0218800904093
 30
0.0
 10
221.8459887088443
 20
110.0259983327119
 30
0.0
 10
221.8068637952013
 20
110.0291944681731
 30
0.0
 10
221.7637771631942
 20
110.0317335859894
 30
0.0
 10
221.7168313777036
 20
110.032811633771
 30
0.0
 10
221.6843104227514
 20
110.0329751480814
 30
0.0
 10
221.6674350006501
 20
110.0330599971582
 30
0.0
  0
SPLINE
  5
1AF
330
1F
100
AcDbEntity
  8
0
  6
Continuous
 62
     7
370
     0
100
AcDbSpline
210
0.0
220
0.0
230
1.0
 70
     8
 71
     3
 72
    15
 73
    11
 74
     0
 42
0.00000001
 43
0.00000001
 12
1.0
 22
0.0
 32
0.0
 13
1.0
 23
0.0
 33
0.0
 40
0.0
 40
0.0
 40
0.0
 40
0.0
 40
0.1323768784386572
 40
0.2551949197670689
 40
0.3737221416536693
 40
0.4900113154474169
 40
0.6078124214239345
 40
0.7311098159015433
 40
0.8599973777575841
 40
1.0
 40
1.0
 40
1.0
 40
1.0
 10
221.9464927039128
 20
109.4251422571597
 30
0.0
 10
221.9622269473419
 20
109.4306539638654
 30
0.0
 10
221.9925592760447
 20
109.4412793809862
 30
0.0
 10
222.0332074337684
 20
109.4654107714848
 30
0.0
 10
222.06782784915
 20
109.4943683223106
 30
0.0
 10
222.0963277470682
 20
109.5286633525581
 30
0.0
 10
222.1182285064247
 20
109.5681123295144
 30
0.0
 10
222.1344672873095
 20
109.6118971772055
 30
0.0
 10
222.143358380155
 20
109.66062996727
 30
0.0
 10
222.1446289188971
 20
109.694424444907
 30
0.0
 10
222.1452904482726
 20
109.7120201615463
 30
0.0
  0
SPLINE
  5
1B0
330
1F
100
AcDbEntity
  8
0
  6
Continuous
 62
     7
370
     0
100
AcDbSpline
210
0.0
220
0.0
230
1.0
 70
     8
 71
     3
 72
    15
 73
    11
 74
     0
 42
0.00000001
 43
0.00000001
 12
1.0
 22
0.0
 32
0.0
 13
1.0
 23
0.0
 33
0.0
 40
0.0
 40
0.0
 40
0.0
 40
0.0
 40
0.1669801744060282
 40
0.3208066328848138
 40
0.4631345048703168
 40
0.5942480539785199
 40
0.7123671525397434
 40
0.8194549510427512
 40
0.9157522665813538
 40
1.0
 40
1.0
 40
1.0
 40
1.0
 10
221.6995389842113
 20
109.4008584747224
 30
0.0
 10
221.7133977973346
 20
109.4009133054233
 30
0.0
 10
221.7400237078036
 20
109.4010186475852
 30
0.0
 10
221.7784309492992
 20
109.4024874316707
 30
0.0
 10
221.8138789922156
 20
109.4037405147942
 30
0.0
 10
221.846230718785
 20
109.4068856566078
 30
0.0
 10
221.8756464020752
 20
109.4099661833002
 30
0.0
 10
221.9020083240909
 20
109.4141130524245
 30
0.0
 10
221.9254456069747
 20
109.4187856333698
 30
0.0
 10
221.9397962592584
 20
109.4231198034444
 30
0.0
 10
221.9464927039128
 20
109.4251422571597
 30
0.0
  0
LINE
  5
1B1
330
1F
100
AcDbEntity
  8
0
  6
Continuous
 62
     7
370
     0
100
AcDbLine
 10
221.2760133549
 20
109.4008584747
 30
0.0
 11
221.6995389842
 21
109.4008584747
 31
0.0
  0
LINE
  5
1B2
330
1F
100
AcDbEntity
  8
0
  6
Continuous
 62
     7
370
     0
100
AcDbLine
 10
221.2760133549
 20
110.0330599972
 30
0.0
 11
221.2760133549
 21
109.4008584747
 31
0.0
  0
LINE
  5
1B3
330
1F
100
AcDbEntity
  8
0
  6
Continuous
 62
     7
370
     0
100
AcDbLine
 10
221.6674350007
 20
110.0330599972
 30
0.0
 11
221.2760133549
 21
110.0330599972
 31
0.0
  0
SPLINE
  5
1B4
330
1F
100
AcDbEntity
  8
0
  6
Continuous
 62
     7
370
     0
100
AcDbSpline
210
0.0
220
0.0
230
1.0
 70
     8
 71
     3
 72
    19
 73
    15
 74
     0
 42
0.00000001
 43
0.00000001
 12
1.0
 22
0.0
 32
0.0
 13
1.0
 23
0.0
 33
0.0
 40
0.0
 40
0.0
 40
0.0
 40
0.0
 40
0.0801399024652513
 40
0.1562809906190948
 40
0.229406049012902
 40
0.3017986969723052
 40
0.3727428627695777
 40
0.442667609902629
 40
0.5133209646126967
 40
0.586547692363208
 40
0.6683225082295051
 40
0.7636766255259053
 40
0.8740807567185483
 40
1.0
 40
1.0
 40
1.0
 40
1.0
 10
222.2243156385771
 20
108.8081695474387
 30
0.0
 10
222.2237486883364
 20
108.8268780672113
 30
0.0
 10
222.2226430774919
 20
108.8633615905641
 30
0.0
 10
222.2121338672655
 20
108.9160821302998
 30
0.0
 10
222.1947743718183
 20
108.9649810863962
 30
0.0
 10
222.1703372605061
 20
109.0093812574473
 30
0.0
 10
222.1403638678706
 20
109.0493153886005
 30
0.0
 10
222.1040990893792
 20
109.0831904250052
 30
0.0
 10
222.061814090486
 20
109.1100719416712
 30
0.0
 10
222.0133789120957
 20
109.1311687297093
 30
0.0
 10
221.9567678906723
 20
109.1461787310492
 30
0.0
 10
221.8904181083606
 20
109.1563621077765
 30
0.0
 10
221.8132682796268
 20
109.1629331966851
 30
0.0
 10
221.758137144437
 20
109.1634875369117
 30
0.0
 10
221.7287618410427
 20
109.1637829038089
 30
0.0
  0
SPLINE
  5
1B5
330
1F
100
AcDbEntity
  8
0
  6
Continuous
 62
     7
370
     0
100
AcDbSpline
210
0.0
220
0.0
230
1.0
 70
     8
 71
     3
 72
    11
 73
     7
 74
     0
 42
0.00000001
 43
0.00000001
 12
1.0
 22
0.0
 32
0.0
 13
1.0
 23
0.0
 33
0.0
 40
0.0
 40
0.0
 40
0.0
 40
0.0
 40
0.3293954641291814
 40
0.6051903468527978
 40
0.8278865786947356
 40
1.0
 40
1.0
 40
1.0
 40
1.0
 10
221.7621005932024
 20
108.4525561910685
 30
0.0
 10
221.7814457439286
 20
108.4527784394662
 30
0.0
 10
221.8169881230834
 20
108.4531867710905
 30
0.0
 10
221.8656031538174
 20
108.4544677272688
 30
0.0
 10
221.9048991288681
 20
108.4575966240437
 30
0.0
 10
221.9278459016987
 20
108.4609656470879
 30
0.0
 10
221.9378493237233
 20
108.4624343398566
 30
0.0
  0
LINE
  5
1B6
330
1F
100
AcDbEntity
  8
0
  6
Continuous
 62
     7
370
     0
100
AcDbLine
 10
221.2760133549
 20
108.4525561911
 30
0.0
 11
221.7621005932
 21
108.4525561911
 31
0.0
  0
LINE
  5
1B7
330
1F
100
AcDbEntity
  8
0
  6
Continuous
 62
     7
370
     0
100
AcDbLine
 10
221.2760133549
 20
109.1637829038
 30
0.0
 11
221.2760133549
 21
108.4525561911
 31
0.0
  0
LINE
  5
1B8
330
1F
100
AcDbEntity
  8
0
  6
Continuous
 62
     7
370
     0
100
AcDbLine
 10
221.728761841
 20
109.1637829038
 30
0.0
 11
221.2760133549
 21
109.1637829038
 31
0.0
  0
SPLINE
  5
1B9
330
1F
100
AcDbEntity
  8
0
  6
Continuous
 62
     7
370
     0
100
AcDbSpline
210
0.0
220
0.0
230
1.0
 70
     8
 71
     3
 72
    19
 73
    15
 74
     0
 42
0.00000001
 43
0.00000001
 12
1.0
 22
0.0
 32
0.0
 13
1.0
 23
0.0
 33
0.0
 40
0.0
 40
0.0
 40
0.0
 40
0.0
 40
0.0889709576989538
 40
0.1722707767733128
 40
0.2503120304637083
 40
0.3246551996215513
 40
0.3978444501802943
 40
0.4733008807185318
 40
0.551825888744447
 40
0.6347494834982523
 40
0.7217660118923853
 40
0.8103926655611188
 40
0.903175236799419
 40
1.0
 40
1.0
 40
1.0
 40
1.0
 10
221.9378493237233
 20
108.4624343398566
 30
0.0
 10
221.9521912611826
 20
108.4654488697858
 30
0.0
 10
221.9799609600871
 20
108.4712857791092
 30
0.0
 10
222.0191095725969
 20
108.4843131517773
 30
0.0
 10
222.0550039010028
 20
108.4992367014878
 30
0.0
 10
222.0870174640374
 20
108.5182028752404
 30
0.0
 10
222.116661255326
 20
108.5400600912644
 30
0.0
 10
222.142423916218
 20
108.5673608000703
 30
0.0
 10
222.1661525497991
 20
108.5983790278088
 30
0.0
 10
222.1867113217128
 20
108.6338758610713
 30
0.0
 10
222.2033360740208
 20
108.673144816195
 30
0.0
 10
222.2160420877748
 20
108.7155791601557
 30
0.0
 10
222.2228102361791
 20
108.7610301091835
 30
0.0
 10
222.2238067562559
 20
108.7922346540239
 30
0.0
 10
222.2243156385771
 20
108.8081695474387
 30
0.0
  0
SPLINE
  5
1BA
330
1F
100
AcDbEntity
  8
0
  6
Continuous
 62
     7
370
     0
100
AcDbSpline
210
0.0
220
0.0
230
1.0
 70
     8
 71
     3
 72
    23
 73
    19
 74
     0
 42
0.00000001
 43
0.00000001
 12
1.0
 22
0.0
 32
0.0
 13
1.0
 23
0.0
 33
0.0
 40
0.0
 40
0.0
 40
0.0
 40
0.0
 40
0.1156291309254414
 40
0.2215410391198768
 40
0.3170478562190418
 40
0.4031508756396167
 40
0.4801812167162794
 40
0.5476493661481898
 40
0.6070358428421809
 40
0.658652408063507
 40
0.7057228903536461
 40
0.7498040879796471
 40
0.7925868153452744
 40
0.8338739610102608
 40
0.874768393303433
 40
0.9152226988916382
 40
0.9568807037304802
 40
1.0
 40
1.0
 40
1.0
 40
1.0
 10
220.8808874034007
 20
106.0686296168831
 30
0.0
 10
220.8806379518235
 20
106.1073260274995
 30
0.0
 10
220.8801600120415
 20
106.1814668858589
 30
0.0
 10
220.8747584167031
 20
106.2874597910574
 30
0.0
 10
220.8662936313605
 20
106.3833216978174
 30
0.0
 10
220.8547151497414
 20
106.469140981928
 30
0.0
 10
220.8393273498164
 20
106.5448244747911
 30
0.0
 10
220.8206640475796
 20
106.610533296276
 30
0.0
 10
220.7984239323639
 20
106.6661273116461
 30
0.0
 10
220.7719805147361
 20
106.7121649638804
 30
0.0
 10
220.7425436999563
 20
106.7499283282135
 30
0.0
 10
220.7117941563401
 20
106.7826158058985
 30
0.0
 10
220.6789631421965
 20
106.8104154407396
 30
0.0
 10
220.6434689907469
 20
106.8327167179015
 30
0.0
 10
220.6064557452487
 20
106.850708558819
 30
0.0
 10
220.5670729353976
 20
106.8630910019059
 30
0.0
 10
220.5257076630918
 20
106.8706983876297
 30
0.0
 10
220.4973192133681
 20
106.8715958957989
 30
0.0
 10
220.4828803251485
 20
106.8720523849788
 30
0.0
  0
SPLINE
  5
1BB
330
1F
100
AcDbEntity
  8
0
  6
Continuous
 62
     7
370
     0
100
AcDbSpline
210
0.0
220
0.0
230
1.0
 70
     8
 71
     3
 72
    23
 73
    19
 74
     0
 42
0.00000001
 43
0.00000001
 12
1.0
 22
0.0
 32
0.0
 13
1.0
 23
0.0
 33
0.0
 40
0.0
 40
0.0
 40
0.0
 40
0.0
 40
0.0407818458722597
 40
0.0808695887215869
 40
0.1202681657882672
 40
0.1601868504553523
 40
0.2004597376386391
 40
0.2422651778979082
 40
0.2864592615494684
 40
0.3329520837492634
 40
0.3844305340495302
 40
0.4433891253601058
 40
0.5116814722136833
 40
0.5890200255490083
 40
0.6762451906507722
 40
0.7737051914728237
 40
0.881567767781983
 40
1.0
 40
1.0
 40
1.0
 40
1.0
 10
220.4857614518783
 20
105.2652068487875
 30
0.0
 10
220.4993671194553
 20
105.2657262768047
 30
0.0
 10
220.5263468874793
 20
105.266756292225
 30
0.0
 10
220.5660635921073
 20
105.2736170619094
 30
0.0
 10
220.6039020094828
 20
105.2864351606261
 30
0.0
 10
220.6402033477227
 20
105.3031948791764
 30
0.0
 10
220.674780182883
 20
105.3249027388343
 30
0.0
 10
220.7074506730438
 20
105.351645604146
 30
0.0
 10
220.7387365333192
 20
105.3829716389645
 30
0.0
 10
220.7687454130011
 20
105.4198411486146
 30
0.0
 10
220.7960674653501
 20
105.4647587455604
 30
0.0
 10
220.8187330804933
 20
105.5201145055255
 30
0.0
 10
220.8381624655749
 20
105.5856332919645
 30
0.0
 10
220.8539676476566
 20
105.6617870700139
 30
0.0
 10
220.8659213842704
 20
105.7484366430144
 30
0.0
 10
220.8748715105442
 20
105.8456646038979
 30
0.0
 10
220.8801372941165
 20
105.9536005189091
 30
0.0
 10
220.8806297006202
 20
106.0291109507128
 30
0.0
 10
220.8808874034007
 20
106.0686296168831
 30
0.0
  0
SPLINE
  5
1BC
330
1F
100
AcDbEntity
  8
0
  6
Continuous
 62
     7
370
     0
100
AcDbSpline
210
0.0
220
0.0
230
1.0
 70
     8
 71
     3
 72
    23
 73
    19
 74
     0
 42
0.00000001
 43
0.00000001
 12
1.0
 22
0.0
 32
0.0
 13
1.0
 23
0.0
 33
0.0
 40
0.0
 40
0.0
 40
0.0
 40
0.0
 40
0.1184055081537694
 40
0.2266543328167019
 40
0.3240923419286019
 40
0.4117048030053216
 40
0.4890259050064157
 40
0.5569093973430758
 40
0.6162333444927067
 40
0.6673492812770749
 40
0.7135123932013474
 40
0.757696504520978
 40
0.7994925114422909
 40
0.8399760647439395
 40
0.879885741816776
 40
0.9191486593857414
 40
0.959227356493083
 40
1.0
 40
1.0
 40
1.0
 40
1.0
 10
220.0906355003559
 20
106.0686296168831
 30
0.0
 10
220.0908970527888
 20
106.029111128993
 30
0.0
 10
220.0913977219984
 20
105.9534640020448
 30
0.0
 10
220.0966284999319
 20
105.8453890298516
 30
0.0
 10
220.1056330688428
 20
105.7478906526217
 30
0.0
 10
220.1175376970922
 20
105.661103863229
 30
0.0
 10
220.1332566263646
 20
105.5849112653788
 30
0.0
 10
220.1529936011972
 20
105.5195070212666
 30
0.0
 10
220.1752418662074
 20
105.4641061316889
 30
0.0
 10
220.2027736725661
 20
105.4193952480349
 30
0.0
 10
220.2329179596199
 20
105.3829493555027
 30
0.0
 10
220.2640398758893
 20
105.351604709271
 30
0.0
 10
220.296871612484
 20
105.3249624776865
 30
0.0
 10
220.3311989462905
 20
105.3027482898687
 30
0.0
 10
220.3675544905952
 20
105.2859291663373
 30
0.0
 10
220.4055407035644
 20
105.2737386281494
 30
0.0
 10
220.4451658506735
 20
105.2667231605955
 30
0.0
 10
220.4721523764329
 20
105.2657151699155
 30
0.0
 10
220.4857614518783
 20
105.2652068487875
 30
0.0
  0
SPLINE
  5
1BD
330
1F
100
AcDbEntity
  8
0
  6
Continuous
 62
     7
370
     0
100
AcDbSpline
210
0.0
220
0.0
230
1.0
 70
     8
 71
     3
 72
    15
 73
    11
 74
     0
 42
0.00000001
 43
0.00000001
 12
1.0
 22
0.0
 32
0.0
 13
1.0
 23
0.0
 33
0.0
 40
0.0
 40
0.0
 40
0.0
 40
0.0
 40
0.0838881132795455
 40
0.1771540327539696
 40
0.2825136355617228
 40
0.3993998606601629
 40
0.5294908061912204
 40
0.6728021776758328
 40
0.8295357616196702
 40
1.0
 40
1.0
 40
1.0
 40
1.0
 10
220.2095848753455
 20
106.7312887647489
 30
0.0
 10
220.1997944510208
 20
106.7149201633078
 30
0.0
 10
220.1791191362034
 20
106.6803531234441
 30
0.0
 10
220.1559846611027
 20
106.6202741839547
 30
0.0
 10
220.1355485803449
 20
106.5516153918485
 30
0.0
 10
220.1187229103949
 20
106.4733203817415
 30
0.0
 10
220.1065507185633
 20
106.3855234610684
 30
0.0
 10
220.0969412437763
 20
106.2883265893549
 30
0.0
 10
220.0919494793072
 20
106.1815940681396
 30
0.0
 10
220.0910855777053
 20
106.1073233423406
 30
0.0
 10
220.0906355003559
 20
106.0686296168831
 30
0.0
  0
SPLINE
  5
1BE
330
1F
100
AcDbEntity
  8
0
  6
Continuous
 62
     7
370
     0
100
AcDbSpline
210
0.0
220
0.0
230
1.0
 70
     8
 71
     3
 72
    15
 73
    11
 74
     0
 42
0.00000001
 43
0.00000001
 12
1.0
 22
0.0
 32
0.0
 13
1.0
 23
0.0
 33
0.0
 40
0.0
 40
0.0
 40
0.0
 40
0.0
 40
0.1276647678962251
 40
0.2517385630080496
 40
0.3727533493873896
 40
0.492146758972386
 40
0.614069621309245
 40
0.7371973244121095
 40
0.8656069906011175
 40
1.0
 40
1.0
 40
1.0
 40
1.0
 10
220.4828803251485
 20
106.8720523849788
 30
0.0
 10
220.4692721044281
 20
106.8716952229004
 30
0.0
 10
220.4424384369591
 20
106.8709909450494
 30
0.0
 10
220.4031504335762
 20
106.8642686200946
 30
0.0
 10
220.3659176543133
 20
106.8530273944512
 30
0.0
 10
220.3303135318755
 20
106.8378000628206
 30
0.0
 10
220.2972269041889
 20
106.8173070821219
 30
0.0
 10
220.2653456378814
 20
106.7933800684592
 30
0.0
 10
220.2361629281162
 20
106.7642276729157
 30
0.0
 10
220.2185776832505
 20
106.7424337976941
 30
0.0
 10
220.2095848753455
 20
106.7312887647489
 30
0.0
  0
SPLINE
  5
1BF
330
1F
100
AcDbEntity
  8
0
  6
Continuous
 62
     7
370
     0
100
AcDbSpline
210
0.0
220
0.0
230
1.0
 70
     8
 71
     3
 72
    15
 73
    11
 74
     0
 42
0.00000001
 43
0.00000001
 12
1.0
 22
0.0
 32
0.0
 13
1.0
 23
0.0
 33
0.0
 40
0.0
 40
0.0
 40
0.0
 40
0.0
 40
0.1531481085926319
 40
0.2994334688329067
 40
0.4364263514567512
 40
0.5656705729563586
 40
0.6865083102878727
 40
0.7992685160630042
 40
0.9033947408013441
 40
1.0
 40
1.0
 40
1.0
 40
1.0
 10
219.9387589627395
 20
109.6247631805851
 30
0.0
 10
219.9311062092393
 20
109.6456282559262
 30
0.0
 10
219.9161436311981
 20
109.6864234178401
 30
0.0
 10
219.8938299195016
 20
109.7456953442838
 30
0.0
 10
219.8734444720671
 20
109.8019823984104
 30
0.0
 10
219.8534548668482
 20
109.8544775044871
 30
0.0
 10
219.8354098931701
 20
109.9039432066937
 30
0.0
 10
219.8187773784005
 20
109.9500453866169
 30
0.0
 10
219.8023279616338
 20
109.9924636120383
 30
0.0
 10
219.792456435237
 20
110.0198701563546
 30
0.0
 10
219.7877056041887
 20
110.0330599971582
 30
0.0
  0
LINE
  5
1C0
330
1F
100
AcDbEntity
  8
0
  6
Continuous
 62
     7
370
     0
100
AcDbLine
 10
220.1383798862
 20
109.0847577135
 30
0.0
 11
219.9387589627
 21
109.6247631806
 31
0.0
  0
LINE
  5
1C1
330
1F
100
AcDbEntity
  8
0
  6
Continuous
 62
     7
370
     0
100
AcDbLine
 10
219.4370313222
 20
109.0847577135
 30
0.0
 11
220.1383798862
 21
109.0847577135
 31
0.0
  0
LINE
  5
1C2
330
1F
100
AcDbEntity
  8
0
  6
Continuous
 62
     7
370
     0
100
AcDbLine
 10
219.6473535735
 20
109.6535744479
 30
0.0
 11
219.4370313222
 21
109.0847577135
 31
0.0
  0
SPLINE
  5
1C3
330
1F
100
AcDbEntity
  8
0
  6
Continuous
 62
     7
370
     0
100
AcDbSpline
210
0.0
220
0.0
230
1.0
 70
     8
 71
     3
 72
    11
 73
     7
 74
     0
 42
0.00000001
 43
0.00000001
 12
1.0
 22
0.0
 32
0.0
 13
1.0
 23
0.0
 33
0.0
 40
0.0
 40
0.0
 40
0.0
 40
0.0
 40
0.247294050035337
 40
0.4956077709090489
 40
0.746359172773196
 40
1.0
 40
1.0
 40
1.0
 40
1.0
 10
219.7877056041887
 20
110.0330599971582
 30
0.0
 10
219.7798468126406
 20
110.0005350112825
 30
0.0
 10
219.7640968252848
 20
109.9353509288249
 30
0.0
 10
219.7311201864203
 20
109.8398475034554
 30
0.0
 10
219.6933960568838
 20
109.7452175000179
 30
0.0
 10
219.6627595686232
 20
109.6842385717753
 30
0.0
 10
219.6473535734917
 20
109.6535744478836
 30
0.0
  0
SPLINE
  5
1C4
330
1F
100
AcDbEntity
  8
0
  6
Continuous
 62
     7
370
     0
100
AcDbSpline
210
0.0
220
0.0
230
1.0
 70
     8
 71
     3
 72
    23
 73
    19
 74
     0
 42
0.00000001
 43
0.00000001
 12
1.0
 22
0.0
 32
0.0
 13
1.0
 23
0.0
 33
0.0
 40
0.0
 40
0.0
 40
0.0
 40
0.0
 40
0.1156291309254414
 40
0.2215410391198768
 40
0.3170478562190417
 40
0.4031508756396167
 40
0.4801812167162795
 40
0.5476493661481898
 40
0.6070358428421809
 40
0.6586524080635071
 40
0.7057228903536458
 40
0.7498040879796471
 40
0.7925868153452744
 40
0.8338739610102605
 40
0.8747683933034328
 40
0.9152226988916382
 40
0.95688070373048
 40
1.0
 40
1.0
 40
1.0
 40
1.0
 10
217.7198797912213
 20
106.0686296168831
 30
0.0
 10
217.719630339644
 20
106.1073260274995
 30
0.0
 10
217.719152399862
 20
106.1814668858589
 30
0.0
 10
217.7137508045236
 20
106.2874597910574
 30
0.0
 10
217.705286019181
 20
106.3833216978174
 30
0.0
 10
217.6937075375619
 20
106.469140981928
 30
0.0
 10
217.678319737637
 20
106.5448244747911
 30
0.0
 10
217.6596564354001
 20
106.610533296276
 30
0.0
 10
217.6374163201844
 20
106.6661273116461
 30
0.0
 10
217.6109729025567
 20
106.7121649638804
 30
0.0
 10
217.5815360877769
 20
106.7499283282135
 30
0.0
 10
217.5507865441606
 20
106.7826158058985
 30
0.0
 10
217.517955530017
 20
106.8104154407396
 30
0.0
 10
217.4824613785675
 20
106.8327167179015
 30
0.0
 10
217.4454481330692
 20
106.850708558819
 30
0.0
 10
217.4060653232182
 20
106.8630910019059
 30
0.0
 10
217.3647000509123
 20
106.8706983876297
 30
0.0
 10
217.3363116011886
 20
106.8715958957989
 30
0.0
 10
217.321872712969
 20
106.8720523849788
 30
0.0
  0
SPLINE
  5
1C5
330
1F
100
AcDbEntity
  8
0
  6
Continuous
 62
     7
370
     0
100
AcDbSpline
210
0.0
220
0.0
230
1.0
 70
     8
 71
     3
 72
    23
 73
    19
 74
     0
 42
0.00000001
 43
0.00000001
 12
1.0
 22
0.0
 32
0.0
 13
1.0
 23
0.0
 33
0.0
 40
0.0
 40
0.0
 40
0.0
 40
0.0
 40
0.1184055081537694
 40
0.2266543328167019
 40
0.324092341928602
 40
0.4117048030053217
 40
0.4890259050064157
 40
0.5569093973430758
 40
0.6162333444927071
 40
0.6673492812770747
 40
0.7135123932013474
 40
0.7576965045209781
 40
0.799492511442291
 40
0.8399760647439393
 40
0.8798857418167761
 40
0.9191486593857416
 40
0.959227356493083
 40
1.0
 40
1.0
 40
1.0
 40
1.0
 10
216.9296278881764
 20
106.0686296168831
 30
0.0
 10
216.9298894406093
 20
106.029111128993
 30
0.0
 10
216.9303901098189
 20
105.9534640020448
 30
0.0
 10
216.9356208877524
 20
105.8453890298516
 30
0.0
 10
216.9446254566633
 20
105.7478906526217
 30
0.0
 10
216.9565300849127
 20
105.661103863229
 30
0.0
 10
216.9722490141851
 20
105.5849112653788
 30
0.0
 10
216.9919859890177
 20
105.5195070212666
 30
0.0
 10
217.0142342540279
 20
105.4641061316889
 30
0.0
 10
217.0417660603867
 20
105.4193952480349
 30
0.0
 10
217.0719103474404
 20
105.3829493555027
 30
0.0
 10
217.1030322637098
 20
105.351604709271
 30
0.0
 10
217.1358640003045
 20
105.3249624776865
 30
0.0
 10
217.170191334111
 20
105.3027482898687
 30
0.0
 10
217.2065468784157
 20
105.2859291663373
 30
0.0
 10
217.2445330913849
 20
105.2737386281494
 30
0.0
 10
217.284158238494
 20
105.2667231605955
 30
0.0
 10
217.3111447642535
 20
105.2657151699155
 30
0.0
 10
217.3247538396988
 20
105.2652068487875
 30
0.0
  0
SPLINE
  5
1C6
330
1F
100
AcDbEntity
  8
0
  6
Continuous
 62
     7
370
     0
100
AcDbSpline
210
0.0
220
0.0
230
1.0
 70
     8
 71
     3
 72
    15
 73
    11
 74
     0
 42
0.00000001
 43
0.00000001
 12
1.0
 22
0.0
 32
0.0
 13
1.0
 23
0.0
 33
0.0
 40
0.0
 40
0.0
 40
0.0
 40
0.0
 40
0.0838881132795456
 40
0.1771540327539697
 40
0.2825136355617227
 40
0.3993998606601629
 40
0.5294908061912204
 40
0.6728021776758328
 40
0.82953576161967
 40
1.0
 40
1.0
 40
1.0
 40
1.0
 10
217.048577263166
 20
106.7312887647489
 30
0.0
 10
217.0387868388413
 20
106.7149201633078
 30
0.0
 10
217.0181115240239
 20
106.6803531234441
 30
0.0
 10
216.9949770489232
 20
106.6202741839547
 30
0.0
 10
216.9745409681655
 20
106.5516153918485
 30
0.0
 10
216.9577152982154
 20
106.4733203817415
 30
0.0
 10
216.9455431063838
 20
106.3855234610684
 30
0.0
 10
216.9359336315969
 20
106.2883265893549
 30
0.0
 10
216.9309418671277
 20
106.1815940681396
 30
0.0
 10
216.9300779655258
 20
106.1073233423406
 30
0.0
 10
216.9296278881764
 20
106.0686296168831
 30
0.0
  0
SPLINE
  5
1C7
330
1F
100
AcDbEntity
  8
0
  6
Continuous
 62
     7
370
     0
100
AcDbSpline
210
0.0
220
0.0
230
1.0
 70
     8
 71
     3
 72
    15
 73
    11
 74
     0
 42
0.00000001
 43
0.00000001
 12
1.0
 22
0.0
 32
0.0
 13
1.0
 23
0.0
 33
0.0
 40
0.0
 40
0.0
 40
0.0
 40
0.0
 40
0.1276647678962242
 40
0.2517385630080495
 40
0.3727533493873896
 40
0.4921467589723854
 40
0.6140696213092446
 40
0.7371973244121095
 40
0.8656069906011172
 40
1.0
 40
1.0
 40
1.0
 40
1.0
 10
217.321872712969
 20
106.8720523849788
 30
0.0
 10
217.3082644922486
 20
106.8716952229004
 30
0.0
 10
217.2814308247796
 20
106.8709909450494
 30
0.0
 10
217.2421428213967
 20
106.8642686200946
 30
0.0
 10
217.2049100421338
 20
106.8530273944512
 30
0.0
 10
217.1693059196961
 20
106.8378000628206
 30
0.0
 10
217.1362192920094
 20
106.8173070821219
 30
0.0
 10
217.1043380257019
 20
106.7933800684592
 30
0.0
 10
217.0751553159367
 20
106.7642276729157
 30
0.0
 10
217.0575700710711
 20
106.7424337976941
 30
0.0
 10
217.048577263166
 20
106.7312887647489
 30
0.0
  0
SPLINE
  5
1C8
330
1F
100
AcDbEntity
  8
0
  6
Continuous
 62
     7
370
     0
100
AcDbSpline
210
0.0
220
0.0
230
1.0
 70
     8
 71
     3
 72
    23
 73
    19
 74
     0
 42
0.00000001
 43
0.00000001
 12
1.0
 22
0.0
 32
0.0
 13
1.0
 23
0.0
 33
0.0
 40
0.0
 40
0.0
 40
0.0
 40
0.0
 40
0.0407818458722598
 40
0.0808695887215869
 40
0.1202681657882672
 40
0.1601868504553522
 40
0.2004597376386392
 40
0.2422651778979079
 40
0.2864592615494685
 40
0.3329520837492634
 40
0.3844305340495304
 40
0.4433891253601058
 40
0.5116814722136833
 40
0.5890200255490083
 40
0.6762451906507723
 40
0.7737051914728238
 40
0.881567767781983
 40
1.0
 40
1.0
 40
1.0
 40
1.0
 10
217.3247538396988
 20
105.2652068487875
 30
0.0
 10
217.3383595072758
 20
105.2657262768047
 30
0.0
 10
217.3653392752999
 20
105.266756292225
 30
0.0
 10
217.4050559799278
 20
105.2736170619094
 30
0.0
 10
217.4428943973033
 20
105.2864351606261
 30
0.0
 10
217.4791957355432
 20
105.3031948791764
 30
0.0
 10
217.5137725707035
 20
105.3249027388343
 30
0.0
 10
217.5464430608643
 20
105.351645604146
 30
0.0
 10
217.5777289211397
 20
105.3829716389645
 30
0.0
 10
217.6077378008216
 20
105.4198411486146
 30
0.0
 10
217.6350598531706
 20
105.4647587455604
 30
0.0
 10
217.6577254683139
 20
105.5201145055255
 30
0.0
 10
217.6771548533954
 20
105.5856332919645
 30
0.0
 10
217.6929600354771
 20
105.6617870700139
 30
0.0
 10
217.7049137720909
 20
105.7484366430144
 30
0.0
 10
217.7138638983647
 20
105.8456646038979
 30
0.0
 10
217.719129681937
 20
105.9536005189091
 30
0.0
 10
217.7196220884407
 20
106.0291109507128
 30
0.0
 10
217.7198797912213
 20
106.0686296168831
 30
0.0
  0
SPLINE
  5
1C9
330
1F
100
AcDbEntity
  8
0
  6
Continuous
 62
     7
370
     0
100
AcDbSpline
210
0.0
220
0.0
230
1.0
 70
     8
 71
     3
 72
    23
 73
    19
 74
     0
 42
0.00000001
 43
0.00000001
 12
1.0
 22
0.0
 32
0.0
 13
1.0
 23
0.0
 33
0.0
 40
0.0
 40
0.0
 40
0.0
 40
0.0
 40
0.0603255293380428
 40
0.1181599905079977
 40
0.1741866762963808
 40
0.2295388181457999
 40
0.2834498146386372
 40
0.337826511950592
 40
0.3926321025334832
 40
0.4484655764151909
 40
0.5059654091573053
 40
0.5650585322290048
 40
0.6266544786228438
 40
0.6922320330373639
 40
0.7611310781257618
 40
0.8353098773394203
 40
0.9153255598322017
 40
1.0
 40
1.0
 40
1.0
 40
1.0
 10
216.7452357774659
 20
109.7099622138821
 30
0.0
 10
216.7448533498551
 20
109.7214952912822
 30
0.0
 10
216.7441042865088
 20
109.7440852019067
 30
0.0
 10
216.7401774487083
 20
109.7772409188698
 30
0.0
 10
216.7325427437134
 20
109.8087465136436
 30
0.0
 10
216.7224611345026
 20
109.8387685283433
 30
0.0
 10
216.7089900587933
 20
109.8670870731742
 30
0.0
 10
216.6929869704169
 20
109.8939215855526
 30
0.0
 10
216.6738903456409
 20
109.919123337777
 30
0.0
 10
216.6520162607676
 20
109.9427690982469
 30
0.0
 10
216.6269008361956
 20
109.9642844294441
 30
0.0
 10
216.5982131168323
 20
109.9828474937087
 30
0.0
 10
216.5661793610351
 20
109.9986220936777
 30
0.0
 10
216.5307623347753
 20
110.0111418707273
 30
0.0
 10
216.4920736081569
 20
110.0211556543973
 30
0.0
 10
216.4498929347826
 20
110.0278175016895
 30
0.0
 10
216.4044132158797
 20
110.0326379921859
 30
0.0
 10
216.3728984081221
 20
110.0329167007958
 30
0.0
 10
216.3566952584689
 20
110.0330599971582
 30
0.0
  0
SPLINE
  5
1CA
330
1F
100
AcDbEntity
  8
0
  6
Continuous
 62
     7
370
     0
100
AcDbSpline
210
0.0
220
0.0
230
1.0
 70
     8
 71
     3
 72
    19
 73
    15
 74
     0
 42
0.00000001
 43
0.00000001
 12
1.0
 22
0.0
 32
0.0
 13
1.0
 23
0.0
 33
0.0
 40
0.0
 40
0.0
 40
0.0
 40
0.0
 40
0.1288602680417313
 40
0.2408921848092289
 40
0.3380442015575112
 40
0.4201204852136088
 40
0.494058456868551
 40
0.5660947835833202
 40
0.6368049543510104
 40
0.7091484493607203
 40
0.7819418055941268
 40
0.8542853006038366
 40
0.9261704072165587
 40
1.0
 40
1.0
 40
1.0
 40
1.0
 10
216.2945452390107
 20
109.3745167446209
 30
0.0
 10
216.3221391250585
 20
109.3749484771377
 30
0.0
 10
216.3737233068894
 20
109.375755560584
 30
0.0
 10
216.445855624599
 20
109.3826472049074
 30
0.0
 10
216.5073284087388
 20
109.3935983203993
 30
0.0
 10
216.5593568884941
 20
109.4095718048976
 30
0.0
 10
216.6030690239957
 20
109.4317483057999
 30
0.0
 10
216.6410862987729
 20
109.4587745161607
 30
0.0
 10
216.672679132667
 20
109.4926276581074
 30
0.0
 10
216.6989611069498
 20
109.530823721272
 30
0.0
 10
216.719390624719
 20
109.5728565821647
 30
0.0
 10
216.734127504443
 20
109.6170059399245
 30
0.0
 10
216.7437730485364
 20
109.6629007477635
 30
0.0
 10
216.7447438827319
 20
109.6941361186335
 30
0.0
 10
216.7452357774659
 20
109.7099622138821
 30
0.0
  0
LINE
  5
1CB
330
1F
100
AcDbEntity
  8
0
  6
Continuous
 62
     7
370
     0
100
AcDbLine
 10
215.7442500336
 20
109.3745167446
 30
0.0
 11
216.294545239
 21
109.3745167446
 31
0.0
  0
LINE
  5
1CC
330
1F
100
AcDbEntity
  8
0
  6
Continuous
 62
     7
370
     0
100
AcDbLine
 10
215.7442500336
 20
110.0330599972
 30
0.0
 11
215.7442500336
 21
109.3745167446
 31
0.0
  0
LINE
  5
1CD
330
1F
100
AcDbEntity
  8
0
  6
Continuous
 62
     7
370
     0
100
AcDbLine
 10
216.3566952585
 20
110.0330599972
 30
0.0
 11
215.7442500336
 21
110.0330599972
 31
0.0
  0
SPLINE
  5
1CE
330
1F
100
AcDbEntity
  8
0
  6
Continuous
 62
     7
370
     0
100
AcDbSpline
210
0.0
220
0.0
230
1.0
 70
     8
 71
     3
 72
    23
 73
    19
 74
     0
 42
0.00000001
 43
0.00000001
 12
1.0
 22
0.0
 32
0.0
 13
1.0
 23
0.0
 33
0.0
 40
0.0
 40
0.0
 40
0.0
 40
0.0
 40
0.0718367171319505
 40
0.1395582629178172
 40
0.2049233526537264
 40
0.2678265586039221
 40
0.3285473200936659
 40
0.3887551463289839
 40
0.4480299679797879
 40
0.5086005276974233
 40
0.5693212891871666
 40
0.6285118954019238
 40
0.687493275539241
 40
0.747078295388978
 40
0.8077025413165653
 40
0.8697098126206608
 40
0.933428331305089
 40
1.0
 40
1.0
 40
1.0
 40
1.0
 10
214.7980056976194
 20
105.2652068487875
 30
0.0
 10
214.8129788111042
 20
105.2654604823733
 30
0.0
 10
214.8420673022245
 20
105.2659532201273
 30
0.0
 10
214.8844692146685
 20
105.2715838060061
 30
0.0
 10
214.9244214026168
 20
105.2801272466881
 30
0.0
 10
214.9621069050553
 20
105.2918417042276
 30
0.0
 10
214.9969710333444
 20
105.3078678575784
 30
0.0
 10
215.0295815356216
 20
105.3265989496927
 30
0.0
 10
215.0596048483546
 20
105.349236908351
 30
0.0
 10
215.087032472142
 20
105.3750725334338
 30
0.0
 10
215.111585057672
 20
105.4036515766503
 30
0.0
 10
215.1326174519996
 20
105.4344821198125
 30
0.0
 10
215.1509642579959
 20
105.4666971293061
 30
0.0
 10
215.1659435863161
 20
105.5009918547298
 30
0.0
 10
215.1767760549651
 20
105.537437014787
 30
0.0
 10
215.1851348345176
 20
105.5753750598224
 30
0.0
 10
215.1901774389281
 20
105.6151973000023
 30
0.0
 10
215.1907706174029
 20
105.642345535448
 30
0.0
 10
215.1910737014777
 20
105.6562169049816
 30
0.0
  0
SPLINE
  5
1CF
330
1F
100
AcDbEntity
  8
0
  6
Continuous
 62
     7
370
     0
100
AcDbSpline
210
0.0
220
0.0
230
1.0
 70
     8
 71
     3
 72
    19
 73
    15
 74
     0
 42
0.00000001
 43
0.00000001
 12
1.0
 22
0.0
 32
0.0
 13
1.0
 23
0.0
 33
0.0
 40
0.0
 40
0.0
 40
0.0
 40
0.0
 40
0.0798232712797877
 40
0.1598568116661121
 40
0.2397327021152788
 40
0.3213646023254468
 40
0.4025836963489389
 40
0.483265588546352
 40
0.5660170116609762
 40
0.6530713596602558
 40
0.7418556865073697
 40
0.8285909050739394
 40
0.9142807452008549
 40
1.0
 40
1.0
 40
1.0
 40
1.0
 10
214.4008217984328
 20
105.6644486956383
 30
0.0
 10
214.4012773063727
 20
105.6475463990121
 30
0.0
 10
214.4021895221439
 20
105.6136972820166
 30
0.0
 10
214.4101916178557
 20
105.563424170318
 30
0.0
 10
214.4237695167712
 20
105.5140872358484
 30
0.0
 10
214.4411719579393
 20
105.4656398764838
 30
0.0
 10
214.46571918337
 20
105.4200375124141
 30
0.0
 10
214.4982715650472
 20
105.3793340472379
 30
0.0
 10
214.5391187070172
 20
105.3451130278879
 30
0.0
 10
214.5857683767055
 20
105.3162018120233
 30
0.0
 10
214.6366751603263
 20
105.2934461986483
 30
0.0
 10
214.6897215173967
 20
105.2775620072925
 30
0.0
 10
214.7435383488982
 20
105.267066526506
 30
0.0
 10
214.779847837748
 20
105.2658268122741
 30
0.0
 10
214.7980056976194
 20
105.2652068487875
 30
0.0
  0
SPLINE
  5
1D0
330
1F
100
AcDbEntity
  8
0
  6
Continuous
 62
     7
370
     0
100
AcDbSpline
210
0.0
220
0.0
230
1.0
 70
     8
 71
     3
 72
    23
 73
    19
 74
     0
 42
0.00000001
 43
0.00000001
 12
1.0
 22
0.0
 32
0.0
 13
1.0
 23
0.0
 33
0.0
 40
0.0
 40
0.0
 40
0.0
 40
0.0
 40
0.0709524654154269
 40
0.1390889271416596
 40
0.2035598239190666
 40
0.2664237811295186
 40
0.3275165661984784
 40
0.387860871760897
 40
0.4478987850107175
 40
0.5088188285885848
 40
0.5694824568188304
 40
0.6290357116670979
 40
0.6883784585529112
 40
0.7480679615575833
 40
0.8086301697509071
 40
0.8702311456070246
 40
0.9336825804722019
 40
1.0
 40
1.0
 40
1.0
 40
1.0
 10
214.7901854964956
 20
106.0554587518324
 30
0.0
 10
214.7754870272767
 20
106.0551931603799
 30
0.0
 10
214.7466734504361
 20
106.0546725184267
 30
0.0
 10
214.7048152879281
 20
106.0491324402409
 30
0.0
 10
214.6651884681996
 20
106.0406247175902
 30
0.0
 10
214.6281416296945
 20
106.0281725329584
 30
0.0
 10
214.5932115723465
 20
106.0126122627788
 30
0.0
 10
214.5610371551142
 20
105.9930463365135
 30
0.0
 10
214.5310443886617
 20
105.9703358790148
 30
0.0
 10
214.5041494446581
 20
105.9439392920037
 30
0.0
 10
214.4798832354069
 20
105.9152654218289
 30
0.0
 10
214.4589024987442
 20
105.8845271211075
 30
0.0
 10
214.4403681443154
 20
105.8524374263595
 30
0.0
 10
214.4263028142273
 20
105.8179433576791
 30
0.0
 10
214.414397771464
 20
105.7821600452906
 30
0.0
 10
214.4069552366335
 20
105.7443929738448
 30
0.0
 10
214.4016645243804
 20
105.7050712434682
 30
0.0
 10
214.4011068128252
 20
105.6781874571174
 30
0.0
 10
214.4008217984328
 20
105.6644486956383
 30
0.0
  0
SPLINE
  5
1D1
330
1F
100
AcDbEntity
  8
0
  6
Continuous
 62
     7
370
     0
100
AcDbSpline
210
0.0
220
0.0
230
1.0
 70
     8
 71
     3
 72
    23
 73
    19
 74
     0
 42
0.00000001
 43
0.00000001
 12
1.0
 22
0.0
 32
0.0
 13
1.0
 23
0.0
 33
0.0
 40
0.0
 40
0.0
 40
0.0
 40
0.0
 40
0.0666161804351809
 40
0.130423869924064
 40
0.192670957570017
 40
0.2529685047960664
 40
0.3128803828057838
 40
0.3722002559180859
 40
0.4319271071459045
 40
0.4924217452545996
 40
0.5527712209075772
 40
0.6132624068156188
 40
0.6735564905563713
 40
0.7343197960333017
 40
0.7968580801403247
 40
0.8617690047507046
 40
0.9288631073150262
 40
1.0
 40
1.0
 40
1.0
 40
1.0
 10
215.1910737014777
 20
105.6562169049816
 30
0.0
 10
215.1907609648306
 20
105.6703605531729
 30
0.0
 10
215.1901486762918
 20
105.6980515633733
 30
0.0
 10
215.1852342208173
 20
105.738747819368
 30
0.0
 10
215.1764067345636
 20
105.7773533278987
 30
0.0
 10
215.1650545504905
 20
105.8144513057976
 30
0.0
 10
215.1496690950792
 20
105.8493963544547
 30
0.0
 10
215.1312010099342
 20
105.8826895441319
 30
0.0
 10
215.1085851086265
 20
105.9134533403272
 30
0.0
 10
215.0837849687749
 20
105.942732178816
 30
0.0
 10
215.0557195152805
 20
105.9692362954195
 30
0.0
 10
215.0247264702422
 20
105.992091796568
 30
0.0
 10
214.9917880735181
 20
106.0122770748615
 30
0.0
 10
214.9559079087339
 20
106.0277608874387
 30
0.0
 10
214.9178764645438
 20
106.0401637743814
 30
0.0
 10
214.877513060028
 20
106.0491759005326
 30
0.0
 10
214.8346531216648
 20
106.0546847735568
 30
0.0
 10
214.805294254151
 20
106.0551957773616
 30
0.0
 10
214.7901854964956
 20
106.0554587518324
 30
0.0
  0
SPLINE
  5
1D2
330
1F
100
AcDbEntity
  8
0
  6
Continuous
 62
     7
370
     0
100
AcDbSpline
210
0.0
220
0.0
230
1.0
 70
     8
 71
     3
 72
    19
 73
    15
 74
     0
 42
0.00000001
 43
0.00000001
 12
1.0
 22
0.0
 32
0.0
 13
1.0
 23
0.0
 33
0.0
 40
0.0
 40
0.0
 40
0.0
 40
0.0
 40
0.0768426979287827
 40
0.1498390532852208
 40
0.2183793964454711
 40
0.2849970207005652
 40
0.3476576708142682
 40
0.4098471591145119
 40
0.4699357615076958
 40
0.5304196066566044
 40
0.6487517360264009
 40
0.7637748930771634
 40
0.8787494877784697
 40
0.9999999999999999
 40
0.9999999999999999
 40
0.9999999999999999
 40
0.9999999999999999
 10
214.7984172871523
 20
106.2925343227459
 30
0.0
 10
214.8106433732771
 20
106.2927087403832
 30
0.0
 10
214.8344835717566
 20
106.2930488452255
 30
0.0
 10
214.8689696181196
 20
106.2974874247317
 30
0.0
 10
214.9015588117538
 20
106.3034155654212
 30
0.0
 10
214.9317695799933
 20
106.3123987514937
 30
0.0
 10
214.9599507046128
 20
106.3240795132805
 30
0.0
 10
214.985643831839
 20
106.3384790092018
 30
0.0
 10
215.0096178235107
 20
106.3550281622081
 30
0.0
 10
215.0376467627404
 20
106.3807708499677
 30
0.0
 10
215.0677249164282
 20
106.4169529435309
 30
0.0
 10
215.0935033222796
 20
106.4663482850435
 30
0.0
 10
215.1095673275354
 20
106.5203897219136
 30
0.0
 10
215.1112069298992
 20
106.5580327330129
 30
0.0
 10
215.1120485111732
 20
106.5773542794683
 30
0.0
  0
SPLINE
  5
1D3
330
1F
100
AcDbEntity
  8
0
  6
Continuous
 62
     7
370
     0
100
AcDbSpline
210
0.0
220
0.0
230
1.0
 70
     8
 71
     3
 72
    19
 73
    15
 74
     0
 42
0.00000001
 43
0.00000001
 12
1.0
 22
0.0
 32
0.0
 13
1.0
 23
0.0
 33
0.0
 40
0.0
 40
0.0
 40
0.0
 40
0.0
 40
0.1273939413394725
 40
0.2461816112928119
 40
0.3612680043537856
 40
0.4771402680372256
 40
0.5363265834357716
 40
0.5956719150436505
 40
0.6566189532057533
 40
0.7188356214960805
 40
0.7835815527063729
 40
0.8515878166889452
 40
0.9239265274809916
 40
1.0
 40
1.0
 40
1.0
 40
1.0
 10
214.4798469887373
 20
106.5897019654534
 30
0.0
 10
214.4806288082908
 20
106.5687321015575
 30
0.0
 10
214.4821396305121
 20
106.5282090215099
 30
0.0
 10
214.4985699839924
 20
106.4706489552727
 30
0.0
 10
214.5242622886043
 20
106.4189438739374
 30
0.0
 10
214.5543820069063
 20
106.3814485459651
 30
0.0
 10
214.5832592525555
 20
106.3559010397124
 30
0.0
 10
214.6073612908341
 20
106.3388438775553
 30
0.0
 10
214.6337001577843
 20
106.324362691262
 30
0.0
 10
214.6624666663396
 20
106.3131070000046
 30
0.0
 10
214.6929640903805
 20
106.3031351583656
 30
0.0
 10
214.7262442426384
 20
106.297561623827
 30
0.0
 10
214.7615248929466
 20
106.2930306714591
 30
0.0
 10
214.785915229832
 20
106.292702524897
 30
0.0
 10
214.7984172871523
 20
106.2925343227459
 30
0.0
  0
SPLINE
  5
1D4
330
1F
100
AcDbEntity
  8
0
  6
Continuous
 62
     7
370
     0
100
AcDbSpline
210
0.0
220
0.0
230
1.0
 70
     8
 71
     3
 72
    19
 73
    15
 74
     0
 42
0.00000001
 43
0.00000001
 12
1.0
 22
0.0
 32
0.0
 13
1.0
 23
0.0
 33
0.0
 40
0.0
 40
0.0
 40
0.0
 40
0.0
 40
0.0762358674075228
 40
0.1486180999543649
 40
0.2182394281414515
 40
0.2842516902686069
 40
0.3482575207850553
 40
0.4106562042500674
 40
0.4728623729995139
 40
0.5341947480221281
 40
0.653476101422413
 40
0.7677667895221952
 40
0.8817126094674201
 40
1.0
 40
1.0
 40
1.0
 40
1.0
 10
214.7959477499552
 20
106.8720523849788
 30
0.0
 10
214.7838576284649
 20
106.8718838363383
 30
0.0
 10
214.7602885271323
 20
106.871555258996
 30
0.0
 10
214.7259600365583
 20
106.8670037650152
 30
0.0
 10
214.6934662661654
 20
106.8612871811275
 30
0.0
 10
214.6631069919227
 20
106.8521131217968
 30
0.0
 10
214.6350084075082
 20
106.8401247589634
 30
0.0
 10
214.6088770224191
 20
106.8255346642796
 30
0.0
 10
214.5845188677208
 20
106.8088390640938
 30
0.0
 10
214.5557936916327
 20
106.7831241846942
 30
0.0
 10
214.5257088022748
 20
106.7469412716291
 30
0.0
 10
214.4992048608431
 20
106.6983348323189
 30
0.0
 10
214.4828245674999
 20
106.6453374088636
 30
0.0
 10
214.4808518084852
 20
106.6084768146438
 30
0.0
 10
214.4798469887373
 20
106.5897019654534
 30
0.0
  0
SPLINE
  5
1D5
330
1F
100
AcDbEntity
  8
0
  6
Continuous
 62
     7
370
     0
100
AcDbSpline
210
0.0
220
0.0
230
1.0
 70
     8
 71
     3
 72
    19
 73
    15
 74
     0
 42
0.00000001
 43
0.00000001
 12
1.0
 22
0.0
 32
0.0
 13
1.0
 23
0.0
 33
0.0
 40
0.0
 40
0.0
 40
0.0
 40
0.0
 40
0.1233861213626085
 40
0.2414346864233538
 40
0.3574485461509667
 40
0.4767139204528327
 40
0.5378895868739915
 40
0.5992703938301226
 40
0.6603520522565615
 40
0.7230069362990812
 40
0.7878755372012023
 40
0.855360105861051
 40
0.9253732137563339
 40
0.9999999999999999
 40
0.9999999999999999
 40
0.9999999999999999
 40
0.9999999999999999
 10
215.1120485111732
 20
106.5773542794683
 30
0.0
 10
215.1110345239837
 20
106.5973512526958
 30
0.0
 10
215.1090504136443
 20
106.6364801507216
 30
0.0
 10
215.093025647671
 20
106.692651447543
 30
0.0
 10
215.0660465508965
 20
106.7435258669604
 30
0.0
 10
215.0352266730007
 20
106.7806787349325
 30
0.0
 10
215.0067019031532
 20
106.8075938002795
 30
0.0
 10
214.9822975083646
 20
106.8247270419314
 30
0.0
 10
214.9560626926668
 20
106.8393089463236
 30
0.0
 10
214.9278976067604
 20
106.8512170343585
 30
0.0
 10
214.8977615221523
 20
106.8608210313119
 30
0.0
 10
214.865572803923
 20
106.867121715933
 30
0.0
 10
214.8314667093981
 20
106.8715406075057
 30
0.0
 10
214.8080365260033
 20
106.8718782029826
 30
0.0
 10
214.7959477499552
 20
106.8720523849788
 30
0.0
  0
SPLINE
  5
1D6
330
1F
100
AcDbEntity
  8
0
  6
Continuous
 62
     7
370
     0
100
AcDbSpline
210
0.0
220
0.0
230
1.0
 70
     8
 71
     3
 72
    23
 73
    19
 74
     0
 42
0.00000001
 43
0.00000001
 12
1.0
 22
0.0
 32
0.0
 13
1.0
 23
0.0
 33
0.0
 40
0.0
 40
0.0
 40
0.0
 40
0.0
 40
0.0610549117432832
 40
0.1195453450847438
 40
0.1768063562451035
 40
0.2329564830316851
 40
0.2885834899465033
 40
0.3446666617213001
 40
0.4016615108374461
 40
0.4605400973082778
 40
0.5204770623221882
 40
0.5812128653554004
 40
0.6434307597220102
 40
0.7079608695212424
 40
0.7753707435336737
 40
0.8464136772813298
 40
0.9211518871893691
 40
1.0
 40
1.0
 40
1.0
 40
1.0
 10
214.1098279987179
 20
108.426214460967
 30
0.0
 10
214.1342809188253
 20
108.4268265092682
 30
0.0
 10
214.182159667465
 20
108.4280248981166
 30
0.0
 10
214.2524285254747
 20
108.4380561819336
 30
0.0
 10
214.3191918066678
 20
108.4551340150484
 30
0.0
 10
214.383111254475
 20
108.4778684795239
 30
0.0
 10
214.4430312671185
 20
108.5086015999105
 30
0.0
 10
214.5003532025207
 20
108.5445899157067
 30
0.0
 10
214.5535144573306
 20
108.5885666068098
 30
0.0
 10
214.6038199899324
 20
108.6379656451819
 30
0.0
 10
214.6489406639516
 20
108.6941167250665
 30
0.0
 10
214.6889757634027
 20
108.7556366664634
 30
0.0
 10
214.7214974602061
 20
108.8234481120993
 30
0.0
 10
214.7495755559836
 20
108.8960572686599
 30
0.0
 10
214.770135955944
 20
108.9748364768284
 30
0.0
 10
214.7853313514363
 20
109.058890175352
 30
0.0
 10
214.7944884184633
 20
109.148488738538
 30
0.0
 10
214.7954527048306
 20
109.2099964896722
 30
0.0
 10
214.7959477499552
 20
109.2415733255149
 30
0.0
  0
SPLINE
  5
1D7
330
1F
100
AcDbEntity
  8
0
  6
Continuous
 62
     7
370
     0
100
AcDbSpline
210
0.0
220
0.0
230
1.0
 70
     8
 71
     3
 72
    23
 73
    19
 74
     0
 42
0.00000001
 43
0.00000001
 12
1.0
 22
0.0
 32
0.0
 13
1.0
 23
0.0
 33
0.0
 40
0.0
 40
0.0
 40
0.0
 40
0.0
 40
0.0759644026221998
 40
0.1481252239748712
 40
0.2172006111446031
 40
0.2832999093723612
 40
0.347201868136241
 40
0.4092995407059241
 40
0.4704256161074027
 40
0.5315880640528347
 40
0.5917391729173698
 40
0.6502577442905727
 40
0.7073030399522857
 40
0.7642084640229153
 40
0.8211475320101305
 40
0.8791188121552541
 40
0.9384228183936666
 40
1.0
 40
1.0
 40
1.0
 40
1.0
 10
213.4261777846775
 20
109.2123504686835
 30
0.0
 10
213.4266218266609
 20
109.1826870281285
 30
0.0
 10
213.4274876771907
 20
109.1248454125244
 30
0.0
 10
213.4373934759073
 20
109.0405154128531
 30
0.0
 10
213.452423943363
 20
108.9609457636143
 30
0.0
 10
213.4731418561623
 20
108.885913093674
 30
0.0
 10
213.5009918045347
 20
108.8161594650536
 30
0.0
 10
213.534290023746
 20
108.7510146131614
 30
0.0
 10
213.5741576726606
 20
108.6909115837951
 30
0.0
 10
213.6197151521492
 20
108.6360185088701
 30
0.0
 10
213.669823156888
 20
108.5867066835914
 30
0.0
 10
213.723368645157
 20
108.543635427366
 30
0.0
 10
213.7803636537172
 20
108.5075662969183
 30
0.0
 10
213.8401762915187
 20
108.477783529857
 30
0.0
 10
213.9032361647945
 20
108.4545353644454
 30
0.0
 10
213.9693544085766
 20
108.4382110884257
 30
0.0
 10
214.0385796028142
 20
108.4280015789154
 30
0.0
 10
214.0857826483899
 20
108.4268175886108
 30
0.0
 10
214.1098279987179
 20
108.426214460967
 30
0.0
  0
SPLINE
  5
1D8
330
1F
100
AcDbEntity
  8
0
  6
Continuous
 62
     7
370
     0
100
AcDbSpline
210
0.0
220
0.0
230
1.0
 70
     8
 71
     3
 72
    23
 73
    19
 74
     0
 42
0.00000001
 43
0.00000001
 12
1.0
 22
0.0
 32
0.0
 13
1.0
 23
0.0
 33
0.0
 40
0.0
 40
0.0
 40
0.0
 40
0.0
 40
0.0559431333569187
 40
0.1103820356898407
 40
0.1640478588828499
 40
0.2167594775435861
 40
0.2696011346144475
 40
0.3230085051908687
 40
0.3775814436721363
 40
0.4334493367080539
 40
0.490921858049893
 40
0.5506247708713257
 40
0.6131168723098183
 40
0.6798607463518506
 40
0.7513577440202002
 40
0.8282611012589941
 40
0.9107950320656293
 40
1.0
 40
1.0
 40
1.0
 40
1.0
 10
214.1139438940462
 20
110.0594017272598
 30
0.0
 10
214.0908579742294
 20
110.0589432500016
 30
0.0
 10
214.0453068820356
 20
110.0580386232846
 30
0.0
 10
213.9782502516791
 20
110.0479822927544
 30
0.0
 10
213.9136003894424
 20
110.0329567609058
 30
0.0
 10
213.8512569656443
 20
110.0119502667475
 30
0.0
 10
213.7917531940109
 20
109.9841343671556
 30
0.0
 10
213.7347807905737
 20
109.9500219730527
 30
0.0
 10
213.6798340417682
 20
109.9105419110472
 30
0.0
 10
213.6277793794806
 20
109.8647322583762
 30
0.0
 10
213.5792530482964
 20
109.8121081500816
 30
0.0
 10
213.5382289035688
 20
109.7500659389721
 30
0.0
 10
213.5036526335777
 20
109.6800867029041
 30
0.0
 10
213.4747820850766
 20
109.6023478229891
 30
0.0
 10
213.4527691420603
 20
109.5162472629814
 30
0.0
 10
213.4375554450238
 20
109.4221555540198
 30
0.0
 10
213.4279498271158
 20
109.3199735466083
 30
0.0
 10
213.4267835662615
 20
109.2491419569741
 30
0.0
 10
213.4261777846775
 20
109.2123504686835
 30
0.0
  0
SPLINE
  5
1D9
330
1F
100
AcDbEntity
  8
0
  6
Continuous
 62
     7
370
     0
100
AcDbSpline
210
0.0
220
0.0
230
1.0
 70
     8
 71
     3
 72
    31
 73
    27
 74
     0
 42
0.00000001
 43
0.00000001
 12
1.0
 22
0.0
 32
0.0
 13
1.0
 23
0.0
 33
0.0
 40
0.0
 40
0.0
 40
0.0
 40
0.0
 40
0.0508516157922844
 40
0.0997524678094164
 40
0.1474376477769319
 40
0.1940857839327041
 40
0.239170927084144
 40
0.2833398222454342
 40
0.3265771497238441
 40
0.368936281499902
 40
0.4105718726814497
 40
0.4510505934949118
 40
0.4908768629924158
 40
0.5300443324843861
 40
0.5689366633103304
 40
0.6075778621311337
 40
0.646420096450513
 40
0.6856793513063945
 40
0.7247985849801968
 40
0.7635130084045112
 40
0.802172526378755
 40
0.8407403615726128
 40
0.8796493769005862
 40
0.9190706128663402
 40
0.9590978622172246
 40
1.0
 40
1.0
 40
1.0
 40
1.0
 10
214.7959477499552
 20
109.2415733255149
 30
0.0
 10
214.7957728011989
 20
109.2618878063864
 30
0.0
 10
214.79542961505
 20
109.3017374663752
 30
0.0
 10
214.7908846802327
 20
109.3604763211603
 30
0.0
 10
214.7850222975124
 20
109.4173880612391
 30
0.0
 10
214.7760967286816
 20
109.4723992500971
 30
0.0
 10
214.7637961623734
 20
109.5252820738925
 30
0.0
 10
214.7501692237543
 20
109.5764391306466
 30
0.0
 10
214.7331292135491
 20
109.6254295769734
 30
0.0
 10
214.7137949472028
 20
109.6724455346857
 30
0.0
 10
214.6921602305425
 20
109.7172456327756
 30
0.0
 10
214.6677591475144
 20
109.7594521885801
 30
0.0
 10
214.6408752887606
 20
109.7989011123636
 30
0.0
 10
214.612234012137
 20
109.8363403157488
 30
0.0
 10
214.5802493257015
 20
109.8703207482365
 30
0.0
 10
214.5464613110873
 20
109.9022777590639
 30
0.0
 10
214.5101024747019
 20
109.9315511093615
 30
0.0
 10
214.4715356643955
 20
109.9581484458081
 30
0.0
 10
214.4313080003803
 20
109.9820902403503
 30
0.0
 10
214.3895024117095
 20
110.0025813100529
 30
0.0
 10
214.3467849209062
 20
110.0205801403319
 30
0.0
 10
214.3024404976068
 20
110.0343769991517
 30
0.0
 10
214.2570814528346
 20
110.0455043682839
 30
0.0
 10
214.2105244211674
 20
110.0539566415013
 30
0.0
 10
214.1625965952695
 20
110.0583336219278
 30
0.0
 10
214.1302779216331
 20
110.0590431354135
 30
0.0
 10
214.1139438940462
 20
110.0594017272598
 30
0.0
  0
SPLINE
  5
1DA
330
1F
100
AcDbEntity
  8
0
  6
Continuous
 62
     7
370
     0
100
AcDbSpline
210
0.0
220
0.0
230
1.0
 70
     8
 71
     3
 72
    23
 73
    19
 74
     0
 42
0.00000001
 43
0.00000001
 12
1.0
 22
0.0
 32
0.0
 13
1.0
 23
0.0
 33
0.0
 40
0.0
 40
0.0
 40
0.0
 40
0.0
 40
0.1156291309254414
 40
0.2215410391198768
 40
0.3170478562190417
 40
0.4031508756396167
 40
0.4801812167162795
 40
0.5476493661481898
 40
0.6070358428421809
 40
0.6586524080635072
 40
0.705722890353646
 40
0.749804087979647
 40
0.7925868153452743
 40
0.8338739610102607
 40
0.8747683933034329
 40
0.9152226988916381
 40
0.9568807037304801
 40
1.0
 40
1.0
 40
1.0
 40
1.0
 10
213.6105698953879
 20
106.0686296168831
 30
0.0
 10
213.6103204438107
 20
106.1073260274995
 30
0.0
 10
213.6098425040287
 20
106.1814668858589
 30
0.0
 10
213.6044409086903
 20
106.2874597910574
 30
0.0
 10
213.5959761233477
 20
106.3833216978174
 30
0.0
 10
213.5843976417285
 20
106.469140981928
 30
0.0
 10
213.5690098418036
 20
106.5448244747911
 30
0.0
 10
213.5503465395668
 20
106.610533296276
 30
0.0
 10
213.5281064243511
 20
106.6661273116461
 30
0.0
 10
213.5016630067233
 20
106.7121649638804
 30
0.0
 10
213.4722261919435
 20
106.7499283282135
 30
0.0
 10
213.4414766483273
 20
106.7826158058985
 30
0.0
 10
213.4086456341836
 20
106.8104154407396
 30
0.0
 10
213.3731514827341
 20
106.8327167179015
 30
0.0
 10
213.3361382372359
 20
106.850708558819
 30
0.0
 10
213.2967554273848
 20
106.8630910019059
 30
0.0
 10
213.255390155079
 20
106.8706983876297
 30
0.0
 10
213.2270017053553
 20
106.8715958957989
 30
0.0
 10
213.2125628171356
 20
106.8720523849788
 30
0.0
  0
SPLINE
  5
1DB
330
1F
100
AcDbEntity
  8
0
  6
Continuous
 62
     7
370
     0
100
AcDbSpline
210
0.0
220
0.0
230
1.0
 70
     8
 71
     3
 72
    23
 73
    19
 74
     0
 42
0.00000001
 43
0.00000001
 12
1.0
 22
0.0
 32
0.0
 13
1.0
 23
0.0
 33
0.0
 40
0.0
 40
0.0
 40
0.0
 40
0.0
 40
0.0407818458722597
 40
0.0808695887215869
 40
0.1202681657882671
 40
0.1601868504553522
 40
0.2004597376386391
 40
0.2422651778979079
 40
0.2864592615494684
 40
0.3329520837492633
 40
0.3844305340495303
 40
0.4433891253601058
 40
0.5116814722136833
 40
0.5890200255490083
 40
0.6762451906507723
 40
0.7737051914728237
 40
0.881567767781983
 40
1.0
 40
1.0
 40
1.0
 40
1.0
 10
213.2154439438655
 20
105.2652068487875
 30
0.0
 10
213.2290496114424
 20
105.2657262768047
 30
0.0
 10
213.2560293794665
 20
105.266756292225
 30
0.0
 10
213.2957460840945
 20
105.2736170619094
 30
0.0
 10
213.3335845014699
 20
105.2864351606261
 30
0.0
 10
213.3698858397099
 20
105.3031948791764
 30
0.0
 10
213.4044626748702
 20
105.3249027388343
 30
0.0
 10
213.437133165031
 20
105.351645604146
 30
0.0
 10
213.4684190253063
 20
105.3829716389645
 30
0.0
 10
213.4984279049883
 20
105.4198411486146
 30
0.0
 10
213.5257499573373
 20
105.4647587455604
 30
0.0
 10
213.5484155724805
 20
105.5201145055255
 30
0.0
 10
213.5678449575621
 20
105.5856332919645
 30
0.0
 10
213.5836501396437
 20
105.6617870700139
 30
0.0
 10
213.5956038762576
 20
105.7484366430144
 30
0.0
 10
213.6045540025314
 20
105.8456646038979
 30
0.0
 10
213.6098197861037
 20
105.9536005189091
 30
0.0
 10
213.6103121926074
 20
106.0291109507128
 30
0.0
 10
213.6105698953879
 20
106.0686296168831
 30
0.0
  0
SPLINE
  5
1DC
330
1F
100
AcDbEntity
  8
0
  6
Continuous
 62
     7
370
     0
100
AcDbSpline
210
0.0
220
0.0
230
1.0
 70
     8
 71
     3
 72
    23
 73
    19
 74
     0
 42
0.00000001
 43
0.00000001
 12
1.0
 22
0.0
 32
0.0
 13
1.0
 23
0.0
 33
0.0
 40
0.0
 40
0.0
 40
0.0
 40
0.0
 40
0.1184055081537695
 40
0.226654332816702
 40
0.3240923419286021
 40
0.4117048030053219
 40
0.4890259050064157
 40
0.5569093973430758
 40
0.6162333444927074
 40
0.6673492812770747
 40
0.7135123932013476
 40
0.7576965045209786
 40
0.7994925114422912
 40
0.8399760647439397
 40
0.8798857418167761
 40
0.9191486593857416
 40
0.9592273564930831
 40
1.0
 40
1.0
 40
1.0
 40
1.0
 10
212.8203179923431
 20
106.0686296168831
 30
0.0
 10
212.820579544776
 20
106.029111128993
 30
0.0
 10
212.8210802139856
 20
105.9534640020448
 30
0.0
 10
212.826310991919
 20
105.8453890298516
 30
0.0
 10
212.83531556083
 20
105.7478906526217
 30
0.0
 10
212.8472201890794
 20
105.661103863229
 30
0.0
 10
212.8629391183517
 20
105.5849112653788
 30
0.0
 10
212.8826760931843
 20
105.5195070212666
 30
0.0
 10
212.9049243581945
 20
105.4641061316889
 30
0.0
 10
212.9324561645533
 20
105.4193952480349
 30
0.0
 10
212.962600451607
 20
105.3829493555027
 30
0.0
 10
212.9937223678765
 20
105.351604709271
 30
0.0
 10
213.0265541044712
 20
105.3249624776865
 30
0.0
 10
213.0608814382776
 20
105.3027482898687
 30
0.0
 10
213.0972369825823
 20
105.2859291663373
 30
0.0
 10
213.1352231955515
 20
105.2737386281494
 30
0.0
 10
213.1748483426607
 20
105.2667231605955
 30
0.0
 10
213.2018348684201
 20
105.2657151699155
 30
0.0
 10
213.2154439438655
 20
105.2652068487875
 30
0.0
  0
SPLINE
  5
1DD
330
1F
100
AcDbEntity
  8
0
  6
Continuous
 62
     7
370
     0
100
AcDbSpline
210
0.0
220
0.0
230
1.0
 70
     8
 71
     3
 72
    15
 73
    11
 74
     0
 42
0.00000001
 43
0.00000001
 12
1.0
 22
0.0
 32
0.0
 13
1.0
 23
0.0
 33
0.0
 40
0.0
 40
0.0
 40
0.0
 40
0.0
 40
0.0838881132795455
 40
0.1771540327539698
 40
0.2825136355617228
 40
0.3993998606601629
 40
0.5294908061912204
 40
0.6728021776758327
 40
0.82953576161967
 40
1.0
 40
1.0
 40
1.0
 40
1.0
 10
212.9392673673326
 20
106.7312887647489
 30
0.0
 10
212.929476943008
 20
106.7149201633078
 30
0.0
 10
212.9088016281906
 20
106.6803531234441
 30
0.0
 10
212.8856671530898
 20
106.6202741839547
 30
0.0
 10
212.8652310723321
 20
106.5516153918485
 30
0.0
 10
212.8484054023821
 20
106.4733203817415
 30
0.0
 10
212.8362332105505
 20
106.3855234610684
 30
0.0
 10
212.8266237357635
 20
106.2883265893549
 30
0.0
 10
212.8216319712944
 20
106.1815940681396
 30
0.0
 10
212.8207680696925
 20
106.1073233423406
 30
0.0
 10
212.8203179923431
 20
106.0686296168831
 30
0.0
  0
SPLINE
  5
1DE
330
1F
100
AcDbEntity
  8
0
  6
Continuous
 62
     7
370
     0
100
AcDbSpline
210
0.0
220
0.0
230
1.0
 70
     8
 71
     3
 72
    15
 73
    11
 74
     0
 42
0.00000001
 43
0.00000001
 12
1.0
 22
0.0
 32
0.0
 13
1.0
 23
0.0
 33
0.0
 40
0.0
 40
0.0
 40
0.0
 40
0.0
 40
0.1276647678962251
 40
0.2517385630080496
 40
0.3727533493873896
 40
0.492146758972386
 40
0.614069621309245
 40
0.7371973244121095
 40
0.8656069906011175
 40
1.0
 40
1.0
 40
1.0
 40
1.0
 10
213.2125628171356
 20
106.8720523849788
 30
0.0
 10
213.1989545964153
 20
106.8716952229004
 30
0.0
 10
213.1721209289463
 20
106.8709909450494
 30
0.0
 10
213.1328329255633
 20
106.8642686200946
 30
0.0
 10
213.0956001463004
 20
106.8530273944512
 30
0.0
 10
213.0599960238627
 20
106.8378000628206
 30
0.0
 10
213.0269093961761
 20
106.8173070821219
 30
0.0
 10
212.9950281298686
 20
106.7933800684592
 30
0.0
 10
212.9658454201033
 20
106.7642276729157
 30
0.0
 10
212.9482601752377
 20
106.7424337976941
 30
0.0
 10
212.9392673673326
 20
106.7312887647489
 30
0.0
  0
LINE
  5
1DF
330
1F
100
AcDbEntity
  8
0
  6
Continuous
 62
     7
370
     0
100
AcDbLine
 10
144.4843486105
 20
108.7826509964
 30
0.0
 11
144.4846486105
 21
108.7826509964
 31
0.0
  0
LINE
  5
1E0
330
1F
100
AcDbEntity
  8
0
  6
Continuous
 62
     7
370
     0
100
AcDbLine
 10
144.4846486105
 20
108.7917006264
 30
0.0
 11
144.4843486105
 21
108.7917006417
 31
0.0
  0
SPLINE
  5
1E1
330
1F
100
AcDbEntity
  8
0
  6
Continuous
 62
     7
370
     0
100
AcDbSpline
210
0.0
220
0.0
230
1.0
 70
    24
 71
     3
 72
     8
 73
     4
 74
     0
 42
0.00000001
 43
0.00000001
 12
1.0
 22
0.0
 32
0.0
 13
1.0
 23
0.0
 33
0.0
 40
0.9702264130679029
 40
0.9702264130679029
 40
0.9702264130679029
 40
0.9702264130679029
 40
1.0
 40
1.0
 40
1.0
 40
1.0
 10
144.4846486104603
 20
108.7917006263596
 30
0.0
 10
144.4846486104603
 20
108.7886847135358
 30
0.0
 10
144.4846486104603
 20
108.7856678549693
 30
0.0
 10
144.4846486104603
 20
108.7826509964029
 30
0.0
  0
LINE
  5
1E2
330
1F
100
AcDbEntity
  8
0
  6
Continuous
 62
     7
370
     0
100
AcDbLine
 10
144.4843486105
 20
109.7161360569
 30
0.0
 11
144.4846486105
 21
109.7161360569
 31
0.0
  0
LINE
  5
1E3
330
1F
100
AcDbEntity
  8
0
  6
Continuous
 62
     7
370
     0
100
AcDbLine
 10
144.4843486105
 20
109.3120903929
 30
0.0
 11
144.4846486105
 21
109.3120903846
 31
0.0
  0
LINE
  5
1E4
330
1F
100
AcDbEntity
  8
0
  6
Continuous
 62
     7
370
     0
100
AcDbLine
 10
144.4846486105
 20
110.1393955602
 30
0.0
 11
144.4843486105
 21
110.1393955556
 31
0.0
  0
LINE
  5
1E5
330
1F
100
AcDbEntity
  8
0
  6
Continuous
 62
     7
370
     0
100
AcDbLine
 10
144.4843486105
 20
110.1393955556
 30
0.0
 11
144.4843486105
 21
109.3120903929
 31
0.0
  0
LINE
  5
1E6
330
1F
100
AcDbEntity
  8
0
  6
Continuous
 62
     7
370
     0
100
AcDbLine
 10
144.4843486105
 20
108.2331206507
 30
0.0
 11
144.4846486105
 21
108.2331206507
 31
0.0
  0
LINE
  5
1E7
330
1F
100
AcDbEntity
  8
0
  6
Continuous
 62
     7
370
     0
100
AcDbLine
 10
144.4843486105
 20
105.2334083159
 30
0.0
 11
144.4846486105
 21
105.2334083269
 31
0.0
  0
LINE
  5
1E8
330
1F
100
AcDbEntity
  8
0
  6
Continuous
 62
     7
370
     0
100
AcDbLine
 10
144.4846486105
 20
82.4654806202
 30
0.0
 11
144.2846486105
 21
82.2654806202
 31
0.0
  0
LINE
  5
1E9
330
1F
100
AcDbEntity
  8
0
  6
Continuous
 62
     7
370
     0
100
AcDbLine
 10
144.2846486105
 20
82.2654806202
 30
0.0
 11
132.4050704458
 21
82.2654806202
 31
0.0
  0
LINE
  5
1EA
330
1F
100
AcDbEntity
  8
0
  6
Continuous
 62
     7
370
     0
100
AcDbLine
 10
132.4050704458
 20
82.2654806202
 30
0.0
 11
132.2557159481
 21
82.4591217731
 31
0.0
  0
ARC
  5
1EB
330
1F
100
AcDbEntity
  8
0
  6
Continuous
 62
     7
370
     0
100
AcDbCircle
 10
35.4846486105
 20
107.6654806202
 30
0.0
 40
100.0
100
AcDbArc
 50
345.4003416144
 51
14.5996583856
  0
LINE
  5
1EC
330
1F
100
AcDbEntity
  8
0
  6
Continuous
 62
     7
370
     0
100
AcDbLine
 10
132.2557159481
 20
132.8718394672
 30
0.0
 11
132.4050704458
 21
133.0654806202
 31
0.0
  0
LINE
  5
1ED
330
1F
100
AcDbEntity
  8
0
  6
Continuous
 62
     7
370
     0
100
AcDbLine
 10
132.4050704458
 20
133.0654806202
 30
0.0
 11
144.2846486105
 21
133.0654806202
 31
0.0
  0
LINE
  5
1EE
330
1F
100
AcDbEntity
  8
0
  6
Continuous
 62
     7
370
     0
100
AcDbLine
 10
144.2846486105
 20
133.0654806202
 30
0.0
 11
144.4846486105
 21
132.8654806202
 31
0.0
  0
LINE
  5
1EF
330
1F
100
AcDbEntity
  8
0
  6
Continuous
 62
     7
370
     0
100
AcDbLine
 10
144.4846486105
 20
105.2334083269
 30
0.0
 11
144.4846486105
 21
82.4654806202
 31
0.0
  0
LINE
  5
1F0
330
1F
100
AcDbEntity
  8
0
  6
Continuous
 62
     7
370
     0
100
AcDbLine
 10
144.4846486105
 20
108.2331206507
 30
0.0
 11
144.4846486105
 21
106.8960320277
 31
0.0
  0
LINE
  5
1F1
330
1F
100
AcDbEntity
  8
0
  6
Continuous
 62
     7
370
     0
100
AcDbLine
 10
144.4846486105
 20
109.3120903846
 30
0.0
 11
144.4846486105
 21
108.7917006264
 31
0.0
  0
LINE
  5
1F2
330
1F
100
AcDbEntity
  8
0
  6
Continuous
 62
     7
370
     0
100
AcDbLine
 10
144.4846486105
 20
132.8654806202
 30
0.0
 11
144.4846486105
 21
110.1393955602
 31
0.0
  0
LINE
  5
1F3
330
1F
100
AcDbEntity
  8
0
  6
Continuous
 62
     7
370
     0
100
AcDbLine
 10
144.4843486105
 20
106.8960320151
 30
0.0
 11
144.4843486105
 21
105.2334083159
 31
0.0
  0
LINE
  5
1F4
330
1F
100
AcDbEntity
  8
0
  6
Continuous
 62
     7
370
     0
100
AcDbLine
 10
144.4846486105
 20
106.8960320277
 30
0.0
 11
144.4843486105
 21
106.8960320151
 31
0.0
  0
LINE
  5
1F5
330
1F
100
AcDbEntity
  8
0
  6
Continuous
 62
     7
370
     0
100
AcDbLine
 10
144.4843486105
 20
108.7917006417
 30
0.0
 11
144.4843486105
 21
108.2331206507
 31
0.0
  0
LINE
  5
1F6
330
1F
100
AcDbEntity
  8
0
  6
Continuous
 62
     7
370
     0
100
AcDbLine
 10
132.2557159481
 20
132.8718394672
 30
0.0
 11
132.2557159481
 21
82.4591217731
 31
0.0
  0
LINE
  5
1F7
330
1F
100
AcDbEntity
  8
0
  6
Continuous
 62
     7
370
     0
100
AcDbLine
 10
144.4846486105
 20
108.7826509964
 30
0.0
 11
144.4846486105
 21
108.2331206507
 31
0.0
  0
LINE
  5
1F8
330
1F
100
AcDbEntity
  8
0
  6
Continuous
 62
     7
370
     0
100
AcDbLine
 10
144.4843486105
 20
105.2652068488
 30
0.0
 11
144.4846486105
 21
105.2652068488
 31
0.0
  0
LINE
  5
1F9
330
1F
100
AcDbEntity
  8
0
  6
Continuous
 62
     7
370
     0
100
AcDbLine
 10
144.4843486105
 20
106.0686296169
 30
0.0
 11
144.4846486105
 21
106.0686296169
 31
0.0
  0
LINE
  5
1FA
330
1F
100
AcDbEntity
  8
0
  6
Continuous
 62
     7
370
     0
100
AcDbLine
 10
144.4843486105
 20
106.7312887647
 30
0.0
 11
144.4846486105
 21
106.7312887647
 31
0.0
  0
LINE
  5
1FB
330
1F
100
AcDbEntity
  8
0
  6
Continuous
 62
     7
370
     0
100
AcDbLine
 10
144.4843486105
 20
106.872052385
 30
0.0
 11
144.4846486105
 21
106.872052385
 31
0.0
  0
HATCH
  5
1FC
330
1F
100
AcDbEntity
  8
0
  6
Continuous
 62
     7
370
     0
100
AcDbHatch
 10
0.0
 20
0.0
 30
0.0
210
0.0
220
0.0
230
1.0
  2
ANSI31
 70
     0
 71
     0
 91
        1
 92
        0
 93
       20
 72
     1
 10
144.4846486104603
 20
110.1393955601502
 11
144.4846486104603
 21
132.865480620155
 72
     1
 10
144.4846486104603
 20
132.865480620155
 11
144.2846486104603
 21
133.0654806201551
 72
     1
 10
144.2846486104603
 20
133.0654806201551
 11
132.4050704457687
 21
133.0654806201551
 72
     1
 10
132.4050704457687
 20
133.0654806201551
 11
132.2557159481494
 21
132.8718394671693
 72
     2
 10
35.48464861046033
 20
107.6654806201551
 40
100.0
 50
345.4003416143963
 51
374.5996583856053
 73
     0
 72
     1
 10
132.2557159481494
 20
82.45912177314086
 11
132.4050704457687
 21
82.26548062015506
 72
     1
 10
132.4050704457687
 20
82.26548062015506
 11
144.2846486104603
 21
82.26548062015506
 72
     1
 10
144.2846486104603
 20
82.26548062015506
 11
144.4846486104603
 21
82.46548062015506
 72
     1
 10
144.4846486104603
 20
82.46548062015506
 11
144.4846486104603
 21
105.2334083269449
 72
     1
 10
144.4846486104603
 20
105.2334083269449
 11
144.4843486104603
 21
105.2334083159052
 72
     1
 10
144.4843486104603
 20
105.2334083159052
 11
144.4843486104599
 21
106.8960320151318
 72
     1
 10
144.4843486104599
 20
106.8960320151318
 11
144.4846486104603
 21
106.8960320277259
 72
     1
 10
144.4846486104603
 20
106.8960320277259
 11
144.4846486104603
 21
108.2331206507325
 72
     1
 10
144.4846486104603
 20
108.2331206507325
 11
144.4843486104603
 21
108.2331206507325
 72
     1
 10
144.4843486104603
 20
108.2331206507325
 11
144.4843486104597
 21
108.7917006416601
 72
     1
 10
144.4843486104597
 20
108.7917006416601
 11
144.4846486104603
 21
108.7917006263596
 72
     1
 10
144.4846486104603
 20
108.7917006263596
 11
144.4846486104603
 21
109.3120903846303
 72
     1
 10
144.4846486104603
 20
109.3120903846303
 11
144.4843486104603
 21
109.3120903929109
 72
     1
 10
144.4843486104603
 20
109.3120903929109
 11
144.4843486104603
 21
110.1393955556114
 72
     1
 10
144.4843486104603
 20
110.1393955556114
 11
144.4846486104603
 21
110.1393955601502
 97
        0
 75
     0
 76
     1
 52
0.0
 41
0.5
 77
     0
 78
     1
 53
45.0
 43
0.0
 44
0.0
 45
-1.122532015133644
 46
1.122532015133644
 79
     0
 98
        1
 10
0.0
 20
0.0
  0
DIMENSION
  5
1FD
330
1F
100
AcDbEntity
  8
0
  6
Continuous
 62
     7
370
     0
100
AcDbDimension
  2
_D_1
 10
35.4846486105
 20
107.6654806202
 30
0.0
 11
165.6499724126
 21
90.0585445157
 31
0.0
 70
   164
  1
<>
 71
     1
 42
-1.0
  3
SLDDIMSTYLE1
100
AcDbRadialDimension
 15
134.3851091495
 25
92.8770085839
 35
0.0
 40
0.0
  0
DIMENSION
  5
20E
330
1F
100
AcDbEntity
  8
0
  6
Continuous
 62
     7
370
     0
100
AcDbDimension
  2
_D_2
 10
135.4846486105
 20
143.0654806202
 30
0.0
 11
158.501234691
 21
143.0654806202
 31
0.0
 70
   160
  1
<>
 71
     2
 42
-1.0
  3
SLDDIMSTYLE2
100
AcDbAlignedDimension
 13
144.4846486105
 23
132.8654806202
 33
0.0
 14
135.4846486105
 24
107.6654806202
 34
0.0
100
AcDbRotatedDimension
  0
DIMENSION
  5
221
330
1F
100
AcDbEntity
  8
0
  6
Continuous
 62
     7
370
     0
100
AcDbDimension
  2
_D_3
 10
132.2557159481
 20
155.0654806202
 30
0.0
 11
162.0606041451
 21
155.0654806202
 31
0.0
 70
   160
  1
<> REF
 71
     2
 42
-1.0
  3
SLDDIMSTYLE3
100
AcDbAlignedDimension
 13
144.4846486105
 23
132.8654806202
 33
0.0
 14
132.2557159481
 24
132.8718394672
 34
0.0
100
AcDbRotatedDimension
  0
MTEXT
  5
235
330
1F
100
AcDbEntity
  8
0
  6
Continuous
 62
     7
370
     0
100
AcDbMText
 10
138.1891382292
 20
75.6806739204
 30
0.0
 40
2.1166666667
 41
0.0
 71
     2
 72
     1
  1
SECTION A-A
  7
SLDTEXTSTYLE0
 73
     1
 44
1.0
  0
OLE2FRAME
  5
236
330
1F
100
AcDbEntity
  8
0
100
AcDbOle2Frame
 70
     2
  3
Paintbrush Picture
 10
229.0524258301
 20
33.6996297921
 30
0.0
 11
265.1686469208
 21
28.555479607
 31
0.0
 71
     2
 72
     0
 73
     1
 90
     7296
310
80557333EF78ADA16C40002412788DD94040000000000000000041161DC7B292
310
7040002412788DD94040000000000000000041161DC7B2927040F6DD59E9338E
310
3C4000000000000000007333EF78ADA16C40F6DD59E9338E3C40000000000000
310
00000000000001000000000100000100000001000000000001000000001C0000
310
D0CF11E0A1B11AE1000000000000000000000000000000003E000300FEFF0900
310
0600000000000000000000000100000001000000000000000010000002000000
310
01000000FEFFFFFF0000000000000000FFFFFFFFFFFFFFFFFFFFFFFFFFFFFFFF
310
FFFFFFFFFFFFFFFFFFFFFFFFFFFFFFFFFFFFFFFFFFFFFFFFFFFFFFFFFFFFFFFF
310
FFFFFFFFFFFFFFFFFFFFFFFFFFFFFFFFFFFFFFFFFFFFFFFFFFFFFFFFFFFFFFFF
310
FFFFFFFFFFFFFFFFFFFFFFFFFFFFFFFFFFFFFFFFFFFFFFFFFFFFFFFFFFFFFFFF
310
FFFFFFFFFFFFFFFFFFFFFFFFFFFFFFFFFFFFFFFFFFFFFFFFFFFFFFFFFFFFFFFF
310
FFFFFFFFFFFFFFFFFFFFFFFFFFFFFFFFFFFFFFFFFFFFFFFFFFFFFFFFFFFFFFFF
310
FFFFFFFFFFFFFFFFFFFFFFFFFFFFFFFFFFFFFFFFFFFFFFFFFFFFFFFFFFFFFFFF
310
FFFFFFFFFFFFFFFFFFFFFFFFFFFFFFFFFFFFFFFFFFFFFFFFFFFFFFFFFFFFFFFF
310
FFFFFFFFFFFFFFFFFFFFFFFFFFFFFFFFFFFFFFFFFFFFFFFFFFFFFFFFFFFFFFFF
310
FFFFFFFFFFFFFFFFFFFFFFFFFFFFFFFFFFFFFFFFFFFFFFFFFFFFFFFFFFFFFFFF
310
FFFFFFFFFFFFFFFFFFFFFFFFFFFFFFFFFFFFFFFFFFFFFFFFFFFFFFFFFFFFFFFF
310
FFFFFFFFFFFFFFFFFFFFFFFFFFFFFFFFFFFFFFFFFFFFFFFFFFFFFFFFFFFFFFFF
310
FFFFFFFFFFFFFFFFFFFFFFFFFFFFFFFFFFFFFFFFFFFFFFFFFFFFFFFFFFFFFFFF
310
FFFFFFFFFFFFFFFFFFFFFFFFFFFFFFFFFFFFFFFFFFFFFFFFFFFFFFFFFFFFFFFF
310
FDFFFFFFFEFFFFFFFEFFFFFFFEFFFFFF05000000060000000700000008000000
310
090000000A0000000B0000000C000000FEFFFFFFFFFFFFFFFFFFFFFFFFFFFFFF
310
FFFFFFFFFFFFFFFFFFFFFFFFFFFFFFFFFFFFFFFFFFFFFFFFFFFFFFFFFFFFFFFF
310
FFFFFFFFFFFFFFFFFFFFFFFFFFFFFFFFFFFFFFFFFFFFFFFFFFFFFFFFFFFFFFFF
310
FFFFFFFFFFFFFFFFFFFFFFFFFFFFFFFFFFFFFFFFFFFFFFFFFFFFFFFFFFFFFFFF
310
FFFFFFFFFFFFFFFFFFFFFFFFFFFFFFFFFFFFFFFFFFFFFFFFFFFFFFFFFFFFFFFF
310
FFFFFFFFFFFFFFFFFFFFFFFFFFFFFFFFFFFFFFFFFFFFFFFFFFFFFFFFFFFFFFFF
310
FFFFFFFFFFFFFFFFFFFFFFFFFFFFFFFFFFFFFFFFFFFFFFFFFFFFFFFFFFFFFFFF
310
FFFFFFFFFFFFFFFFFFFFFFFFFFFFFFFFFFFFFFFFFFFFFFFFFFFFFFFFFFFFFFFF
310
FFFFFFFFFFFFFFFFFFFFFFFFFFFFFFFFFFFFFFFFFFFFFFFFFFFFFFFFFFFFFFFF
310
FFFFFFFFFFFFFFFFFFFFFFFFFFFFFFFFFFFFFFFFFFFFFFFFFFFFFFFFFFFFFFFF
310
FFFFFFFFFFFFFFFFFFFFFFFFFFFFFFFFFFFFFFFFFFFFFFFFFFFFFFFFFFFFFFFF
310
FFFFFFFFFFFFFFFFFFFFFFFFFFFFFFFFFFFFFFFFFFFFFFFFFFFFFFFFFFFFFFFF
310
FFFFFFFFFFFFFFFFFFFFFFFFFFFFFFFFFFFFFFFFFFFFFFFFFFFFFFFFFFFFFFFF
310
FFFFFFFFFFFFFFFFFFFFFFFFFFFFFFFFFFFFFFFFFFFFFFFFFFFFFFFFFFFFFFFF
310
FFFFFFFFFFFFFFFFFFFFFFFFFFFFFFFFFFFFFFFFFFFFFFFFFFFFFFFFFFFFFFFF
310
52006F006F007400200045006E00740072007900000000000000000000000000
310
0000000000000000000000000000000000000000000000000000000000000000
310
16000500FFFFFFFFFFFFFFFF020000000A00030000000000C000000000000046
310
0000000000000000000000009013907E1978CE0103000000C000000000000000
310
01004F006C006500000000000000000000000000000000000000000000000000
310
0000000000000000000000000000000000000000000000000000000000000000
310
0A000200FFFFFFFFFFFFFFFFFFFFFFFF00000000000000000000000000000000
310
0000000000000000000000000000000000000000000000001400000000000000
310
010043006F006D0070004F0062006A0000000000000000000000000000000000
310
0000000000000000000000000000000000000000000000000000000000000000
310
120002010100000003000000FFFFFFFF00000000000000000000000000000000
310
0000000000000000000000000000000000000000010000004D00000000000000
310
01004F006C006500310030004E00610074006900760065000000000000000000
310
0000000000000000000000000000000000000000000000000000000000000000
310
1A000200FFFFFFFFFFFFFFFFFFFFFFFF00000000000000000000000000000000
310
000000000000000000000000000000000000000004000000E411000000000000
310
FEFFFFFF02000000FEFFFFFFFFFFFFFFFFFFFFFFFFFFFFFFFFFFFFFFFFFFFFFF
310
FFFFFFFFFFFFFFFFFFFFFFFFFFFFFFFFFFFFFFFFFFFFFFFFFFFFFFFFFFFFFFFF
310
FFFFFFFFFFFFFFFFFFFFFFFFFFFFFFFFFFFFFFFFFFFFFFFFFFFFFFFFFFFFFFFF
310
FFFFFFFFFFFFFFFFFFFFFFFFFFFFFFFFFFFFFFFFFFFFFFFFFFFFFFFFFFFFFFFF
310
FFFFFFFFFFFFFFFFFFFFFFFFFFFFFFFFFFFFFFFFFFFFFFFFFFFFFFFFFFFFFFFF
310
FFFFFFFFFFFFFFFFFFFFFFFFFFFFFFFFFFFFFFFFFFFFFFFFFFFFFFFFFFFFFFFF
310
FFFFFFFFFFFFFFFFFFFFFFFFFFFFFFFFFFFFFFFFFFFFFFFFFFFFFFFFFFFFFFFF
310
FFFFFFFFFFFFFFFFFFFFFFFFFFFFFFFFFFFFFFFFFFFFFFFFFFFFFFFFFFFFFFFF
310
FFFFFFFFFFFFFFFFFFFFFFFFFFFFFFFFFFFFFFFFFFFFFFFFFFFFFFFFFFFFFFFF
310
FFFFFFFFFFFFFFFFFFFFFFFFFFFFFFFFFFFFFFFFFFFFFFFFFFFFFFFFFFFFFFFF
310
FFFFFFFFFFFFFFFFFFFFFFFFFFFFFFFFFFFFFFFFFFFFFFFFFFFFFFFFFFFFFFFF
310
FFFFFFFFFFFFFFFFFFFFFFFFFFFFFFFFFFFFFFFFFFFFFFFFFFFFFFFFFFFFFFFF
310
FFFFFFFFFFFFFFFFFFFFFFFFFFFFFFFFFFFFFFFFFFFFFFFFFFFFFFFFFFFFFFFF
310
FFFFFFFFFFFFFFFFFFFFFFFFFFFFFFFFFFFFFFFFFFFFFFFFFFFFFFFFFFFFFFFF
310
FFFFFFFFFFFFFFFFFFFFFFFFFFFFFFFFFFFFFFFFFFFFFFFFFFFFFFFFFFFFFFFF
310
FFFFFFFFFFFFFFFFFFFFFFFFFFFFFFFFFFFFFFFFFFFFFFFFFFFFFFFFFFFFFFFF
310
0100000200000000000000000000000000000000000000000000000000000000
310
0000000000000000000000000000000000000000000000000000000000000000
310
0100FEFF030A0000FFFFFFFF0A00030000000000C00000000000004607000000
310
5042727573680007000000504272757368000700000050427275736800F439B2
310
7100000000000000000000000000000000000000000000000000000000000000
310
0000000000000000000000000000000000000000000000000000000000000000
310
0000000000000000000000000000000000000000000000000000000000000000
310
0000000000000000000000000000000000000000000000000000000000000000
310
0000000000000000000000000000000000000000000000000000000000000000
310
0000000000000000000000000000000000000000000000000000000000000000
310
0000000000000000000000000000000000000000000000000000000000000000
310
0000000000000000000000000000000000000000000000000000000000000000
310
0000000000000000000000000000000000000000000000000000000000000000
310
0000000000000000000000000000000000000000000000000000000000000000
310
0000000000000000000000000000000000000000000000000000000000000000
310
0000000000000000000000000000000000000000000000000000000000000000
310
E0110000424DDE11000000000000360400002800000096000000170000000100
310
08000000000000000000E7240000E72400000001000000010000000000FF0101
310
01FF020202FF030303FF040404FF050505FF060606FF070707FF080808FF0909
310
09FF0A0A0AFF0B0B0BFF0C0C0CFF0D0D0DFF0E0E0EFF0F0F0FFF101010FF1111
310
11FF121212FF131313FF141414FF151515FF161616FF171717FF181818FF1919
310
19FF1A1A1AFF1B1B1BFF1C1C1CFF1D1D1DFF1E1E1EFF1F1F1FFF202020FF2121
310
21FF222222FF232323FF242424FF252525FF262626FF272727FF282828FF2929
310
29FF2A2A2AFF2B2B2BFF2C2C2CFF2D2D2DFF2E2E2EFF2F2F2FFF303030FF3131
310
31FF323232FF333333FF343434FF353535FF363636FF373737FF383838FF3939
310
39FF3A3A3AFF3B3B3BFF3C3C3CFF3D3D3DFF3E3E3EFF3F3F3FFF404040FF4141
310
41FF424242FF434343FF444444FF454545FF464646FF474747FF484848FF4949
310
49FF4A4A4AFF4B4B4BFF4C4C4CFF4D4D4DFF4E4E4EFF4F4F4FFF505050FF5151
310
51FF525252FF535353FF545454FF555555FF565656FF575757FF585858FF5959
310
59FF5A5A5AFF5B5B5BFF5C5C5CFF5D5D5DFF5E5E5EFF5F5F5FFF606060FF6161
310
61FF626262FF636363FF646464FF656565FF666666FF676767FF686868FF6969
310
69FF6A6A6AFF6B6B6BFF6C6C6CFF6D6D6DFF6E6E6EFF6F6F6FFF707070FF7171
310
71FF727272FF737373FF747474FF757575FF767676FF777777FF787878FF7979
310
79FF7A7A7AFF7B7B7BFF7C7C7CFF7D7D7DFF7E7E7EFF7F7F7FFF808080FF8181
310
81FF828282FF838383FF848484FF858585FF868686FF878787FF888888FF8989
310
89FF8A8A8AFF8B8B8BFF8C8C8CFF8D8D8DFF8E8E8EFF8F8F8FFF909090FF9191
310
91FF929292FF939393FF949494FF959595FF969696FF979797FF989898FF9999
310
99FF9A9A9AFF9B9B9BFF9C9C9CFF9D9D9DFF9E9E9EFF9F9F9FFFA0A0A0FFA1A1
310
A1FFA2A2A2FFA3A3A3FFA4A4A4FFA5A5A5FFA6A6A6FFA7A7A7FFA8A8A8FFA9A9
310
A9FFAAAAAAFFABABABFFACACACFFADADADFFAEAEAEFFAFAFAFFFB0B0B0FFB1B1
310
B1FFB2B2B2FFB3B3B3FFB4B4B4FFB5B5B5FFB6B6B6FFB7B7B7FFB8B8B8FFB9B9
310
B9FFBABABAFFBBBBBBFFBCBCBCFFBDBDBDFFBEBEBEFFBFBFBFFFC0C0C0FFC1C1
310
C1FFC2C2C2FFC3C3C3FFC4C4C4FFC5C5C5FFC6C6C6FFC7C7C7FFC8C8C8FFC9C9
310
C9FFCACACAFFCBCBCBFFCCCCCCFFCDCDCDFFCECECEFFCFCFCFFFD0D0D0FFD1D1
310
D1FFD2D2D2FFD3D3D3FFD4D4D4FFD5D5D5FFD6D6D6FFD7D7D7FFD8D8D8FFD9D9
310
D9FFDADADAFFDBDBDBFFDCDCDCFFDDDDDDFFDEDEDEFFDFDFDFFFE0E0E0FFE1E1
310
E1FFE2E2E2FFE3E3E3FFE4E4E4FFE5E5E5FFE6E6E6FFE7E7E7FFE8E8E8FFE9E9
310
E9FFEAEAEAFFEBEBEBFFECECECFFEDEDEDFFEEEEEEFFEFEFEFFFF0F0F0FFF1F1
310
F1FFF2F2F2FFF3F3F3FFF4F4F4FFF5F5F5FFF6F6F6FFF7F7F7FFF8F8F8FFF9F9
310
F9FFFAFAFAFFFBFBFBFFFCFCFCFFFDFDFDFFFEFEFEFFFFFFFFFFFFFFFFFFFFFF
310
C94E4E4E4F4E4EFFFFFFFFFFC94E4E4E4E4E72FFFFFFFFFFFFFF734E4D4E4E4E
310
C9FFFFFFFFFFAA683516171616265B9BE9FFFFFFFFFF4E4E4E4D4E4EFFFFFFFF
310
FFFFFFFF4E4E4F4E4D4E4E4E4F4E4E4F4D4E4E4E4E4E4D4E4F4E4D4E4E4EAAFF
310
FFFFFFFFFFEA4E4F4F4E4E4E4E4E4D4D4F4F4E4E4E4E4E5B7FAAFFFFFFFFFFFF
310
C9744E1716171616164D8DEAFFFFFFFF0000FFFFFFFFFFFFBA161617161716FF
310
FFFFFFFFB917171616174FFFFFFFFFFFFFFF4E1716161616B9FFFFFFB9341717
310
1716171617171616268CFFFFFFFF161617161617FFFFFFFFFFFFFFB917161717
310
1617167F807F7F7F7F7F7F807F7F807F7F807F7F7F414EFFFFFFFFFFFF8C167F
310
7F807F7F7F7E7F7F807F807F7F807F4E3417258EFFFFEA4E162674AABAEAEBBA
310
AA74341680FFFFFF0000FFFFFFFFFFFFB9171717171617FFFFFFFFFFBB161616
310
16164EFFFFFFFFFFFFFF4E1717171717B9FFFF9C171617171716161616171616
310
171766FFFFFF161717161617FFFFFFFFFFFFFF8E16171717161616FFFFFFFFFF
310
FFFFFFFFFFFFFFFFFFFFFFFFFFAA16D9FFFFFFFFFF3467FFFFFFFFEAFFFFFFFF
310
FFFFFFFFFFFFFFFFFFCA671667EB26278DFFFFFFFFFFFFFFFFFFFF8C2541EAFF
310
0000FFFFFFFFFFFFB9171717171716FFFFFFFFFFBA16171617174EFFFFFFFFFF
310
FFFF4E1717161616BAFF9B1617161616171716171617161616161667FFFF1616
310
16161716FFFFFFFFFFFFFF7F16161617174017FFFFFFFFFFFFFFFFFFFFFFFFFF
310
FFFFFFFFFFFF344E7F7F7F7E7417DAFFFFFFFF80FFFFFFFFFFFFFFFFFFFFFFFF
310
FFFFFF9B163425CAFFFFFFFFFFFFFFFFFFFFFFFFCA2667FF0000FFFFFFFFFFFF
310
BA171717171617FFFFFFFFFFB916171716164EFFFFFFFFFFFFFF4F1716161717
310
B9C91716171616161716161617171616161617168DFF161716161717FFFFFFFF
310
FFFFFF7F17171716164F16FFFFFFFFFFFFFFFFFFFFFFFFFFFFFFFFFFFFFF9B16
310
17161617174EFFFFFFFFFF34FFFFFFFFD9BABABABABADAFFFFFFFFFF7F16AAFF
310
FFFFFFFFFFFFFFFFFFFFFFFFFF9C16BA0000FFFFFFFFFFFFB9161717161717FF
310
FFFFFFFFB917161716174DFFFFFFFFFFFFFF4E1616161616BA4E161617171716
310
419BEAEAAA4E16161617161726E9171717161616FFFFFFFFFFFFFF4F16161717
310
164E16FFFFFFFFFFBAB9B9B9B9B9BABABACAFFFFFFFFFFFFFFFFFFFFFFFFFFFF
310
FFFFBA16FFFFFFFF7F1617161617174DEAFFFFFFEA41FFFFFFFFFFAA4D16174E
310
9BFFFFFFFFFF34730000FFFFFFFFFFFFB9161617171617FFFFFFFFFFBA161616
310
16164EFFFFFFFFFFFFFF4F16161717169B1617161716175BFFFFFFFFFFFF7417
310
16171616168D171717161617FFFFFFFFFFFFEA2616171717167416FFFFFFFFFF
310
16171616171717171717EAFFFFFFFFFFFFFFFFFFFFFFFFFFFFFF6716FFFFFFFF
310
7F4EFFFFFFFFBA2573FFFFFFFFBAFFFFFFFFAA167FB9BB9B269BFFFFFFFF664F
310
0000FFFFFFFFFFFFB9171616161616FFFFFFFFFFBA16161717164EFFFFFFFFFF
310
FFFF4E16161616174E161617171626EAFFFFFFFFFFFFFF4E16161616164E1716
310
16161617FFFFFFFFFFFF671616161716347F16FFFFFFFFFF16B9FFFFFFFFFFFF
310
D9168DFFFFFFFFFFFFFFFFFFFFFFFFFFFFEA1716FFFFFFFF7F4EFFFFFFFFFF7F
310
4EFFFFFFFFFFFFFFFFFF5B66FFFFFFEA347FFFFFFFFF7F4D0000FFFFFFFFFFFF
310
B9171616171617FFFFFFFFFFBA17161716174EFFFFFFFFFFFFFF4D1716161617
310
17161716161673FFFFFFFFFFFFFFFF9B1617161717161616171616174F4E4E4E
310
4E341616171616167E7F16FFFFFFFFFF16BAFFFFFFFFFFFFFF5B41FFFFFFFF34
310
1616171616BAFFFFFF9B1716FFFFFFFF7F4EFFFFFFFFFF4E4EFFFFFFFF734E4E
310
4E4E267EDA9B67164EEAFFFFFFFF744D0000FFFFFFFFFFFFBA171717161617FF
310
FFFFFFFFBA1616171616347F7F7F7F80807F331616161717161717161716B9FF
310
FFFFFFFFFFFFFFE9161616161616171716161716171616161616171616171734
310
EA7F16FFFFFFFFFF16BAFFFFFFFFFFFFFFAA17C9FFFFFF7326BABA5B25FFFFFF
310
FF401716FFFFFFFF7F264F4E4E4E4217AAFFFFFFEA16677F73261616164173CA
310
FFFFFFFFFFFF417F0000FFFFFFFFFFFFBA171616171617FFFFFFFFFFBA161616
310
17171616161616161616161717161616161616161617EAFFFFFFFFFFFFFFFFFF
310
261717161716161617161616161617161617161616174EEAFF8016FFFFFFFFFF
310
17BAFFFFFFFFFFFFFFFF3467FFFFFFC916C9FF3467FFFFFFDA166716FFFFFFFF
310
9C4D4E4E4E4E67AAFFFFFFFF6834FF7F262567AAEAFFFFFFFFFFFFFFFF9B17D9
310
0000FFFFFFFFFFFFB9161616161616FFFFFFFFFFBA1617161717171616161616
310
1716171716161716161617171716FFFFFFFFFFFFFFFFFFFF4E17161716171616
310
1617171616161716171717161616169BFF7F17FFFFFFFFFF17B9FFFFFFFFFFFF
310
FFFF7326FFFFFFFF3473DA16AAFFFFFF7317AA16FFFFFFFFFFFFFFFFFFFFFFFF
310
FFFFEA6725BA4E167FEAFFFFFFFFFFFFFFFFFFFF9C167FFF0000FFFFFFFFFFFF
310
B9161717171716FFFFFFFFFFBA16161716171616171717161617161716161616
310
171617171617EAFFFFFFFFFFFFFFFFFF26161717161616161616161617171616
310
1616161616171616AA8016FFFFFFFFFF16BAFFFFFFFFFFFFFFFFDA179BFFFFFF
310
74348D26FFFFFFFF2566B917FFFFFFFFD8BAB9BAB9BADAFFFFEA41169B7425C9
310
FFFFFFFFFFFFFFFFFFFFAB4F1680FFFF0000FFFFFFFFFFFFBA161717171617FF
310
FFFFFFFFBA17161717161617171617161616161617171616171716171617BBFF
310
FFFFFFFFFFFFFFE9171616161617161617161716FFFFFFFFFFD9671616161617
310
348017FFFFFFFFFF16BAFFFFFFFFFFFFFFFFFF4E5AFFFFFFC916265AFFFFFFAA
310
16AABA16FFFFFFFF7F1617161616179BFFFFEB4127168DFFFFFFFFFFFFFFD99B
310
6734175AC9FFFFFF0000FFFFFFFFFFFFB9161617171617FFFFFFFFFFBB161616
310
1616347F807F7F7F7F8033171716171617171616161672FFFFFFFFFFFFFFFF9C
310
171617171617161716161617FFFFFFFFFFFFFF4117161616174E17FFFFFFFFFF
310
16BAFFFFFFFFFFFFFFFFFF9B16DAFFFFFF34169BFFFFFF5A26FFB917FFFFFFFF
310
7F4EFFFFFFEA5B26FFFFFFEA2616EAFFFFFFFFDA743416331617414E4E4E4ECA
310
0000FFFFFFFFFFFFBA161716161616FFFFFFFFFFBA17171616164EFFFFFFFFFF
310
FFFF4E16161717174E161717171626EBFFFFFFFFFFFFFF4E16161617165B1616
310
16171617FFFFFFFFFFFFFF6716161616161617FFFFFFFFFF16BAFFFFFFFFFFFF
310
FFFFFFEA268CFFFFFF7316EAFFFFEB1774FFB916FFFFFFFF7F4EFFFFFFFF7316
310
FFFFFFFF6826FFFFFFFFEB264D9CEABA257F807F7F6616BA0000FFFFFFFFFFFF
310
BA161716161616FFFFFFFFFFBA16171616164DFFFFFFFFFFFFFF4E1617161617
310
9B1617171717165BEBFFFFFFFFFF671616161617179B171616161616FFFFFFFF
310
FFFFFF3417161617171617FFFFFFFFFF17BAFFFFFFFFFFFFFFFFFFFF6734FFFF
310
FFEBCAFFFFFF8D17C9FFBA17FFFFFFFF7F357F808066174FFFFFFFFF7F16FFFF
310
FFFFD91673B99B415BFFFFFFFFBA16DA00009B7F7F7F807F671617161616167F
310
80807F7E6617161616164EFFFFFFFFFFFFFF4E1616161617B94E171716161616
310
349BC9D9AA4E16171616161634FF161617161717B9B9BAB9BA9B411716171716
310
163416FFFFFFFFFF16B9FFFFFFFFFFFFFFFFFFFFC917CAFFFFFFFFFFFFFF3342
310
FFFFBA17FFFFFFFF9B4E4E4F4E4E66EAFFFFFFFF5B16C9FFFFFFFFAA4E164E73
310
EAFFFFFFFF8D26FF00004E161716161616171617171616171717171617161616
310
17174EFFFFFFFFFFFFFF4E1717171616B9D92616171716171716171717171716
310
16171716AAFF161717171617161617171616161617161716166717FFFFFFFFFF
310
17B9FFFFFFFFFFFFFFFFFFFFFF3467FFFFFFFFFFFFCA168CFFFFBB17FFFFFFFF
310
FFFFFFFFFFFFFFFFFFFFFFEA26265BFFFFFFFFFFFFFFFFFFFFFFFFFFEA3467FF
310
00004D16161616161617161717161617161616171617171616164EFFFFFFFFFF
310
FFFF4D1617161616BAFF9B1616161616161716161616171717161766FFFF1616
310
16171617161617161716171616171717667F16FFFFFFFFFF17BAFFFFFFFFFFFF
310
FFFFFFFFFF8C26EAFFFFFFFFFF6617EAFFFFBA17FFFFFFFFFFFFFFFFFFFFFFFF
310
FFFFEA5A25BA269BFFFFFFFFFFFFFFFFFFFFFFFF6616DAFF00004E1616171616
310
1616161616161716161617171616171616174EFFFFFFFFFFFFFF4D1717171716
310
B9FFFF9C161616161616161716161717171667FFFFFF17161717171716161617
310
1716161616161641E97E16FFFFFFFFFF16B9FFFFFFFFFFFFFFFFFFFFFFEA169B
310
FFFFFFFFEA265BFFFFFFB916FFFFFFFFFFFFFFFFFFFFFFFFFF9B3416AAFF9B17
310
67EAFFFFFFFFFFFFFFFFEA5B169BFFFF00004D17161716161616161717171616
310
161717161716171716174EFFFFFFFFFFFFFF4D1616161616BAFFFFFFBB411616
310
161716161616171634ABFFFFFFFF161716161617171716171617171617267FFF
310
FF7F164E4E4E4E4F17BAFFFFFFFFFFFFFFFFFFFFFFFF66344D4E4E4F4117AAFF
310
FFFFBA174E4E4E4D4E4D4D4E4E4E4E4116174EBBFFFFFFCA342666ABEAFFFFEA
310
AA6725269CFFFFFF0000724F4E4D4D4D4E4D4D4E4E4E4D4E4E4E4E4E4E4E4E4D
310
4E4E74FFFFFFFFFFFFFF734E4E4E4D4ECAFFFFFFFFFFAA663416171717265B9B
310
FFFFFFFFFFFF7F8080807F80807F7F7F7F7F807FBAFFFFFFFF9B4E4E4F4D4D4E
310
4DC9FFFFFFFFFFFFFFFFFFFFFFFFBA4E4E4E4E4D4E4EFFFFFFFFC94E4E4E4F4E
310
4E4E4D4E4E5A807F9CD9FFFFFFFFFFFFFF9B5B2617171716174E8DEAFFFFFFFF
310
0000000000000000000000000000000000000000000000000000000000000000
  1
OLE
  0
ENDSEC
  0
SECTION
  2
OBJECTS
  0
DICTIONARY
  5
C
330
0
100
AcDbDictionary
281
     1
  3
ACAD_GROUP
350
D
  3
ACAD_LAYOUT
350
1A
  3
ACAD_MLINESTYLE
350
17
  3
ACAD_PLOTSETTINGS
350
19
  3
ACAD_PLOTSTYLENAME
350
E
  0
DICTIONARY
  5
D
102
{ACAD_REACTORS
330
C
102
}
330
C
100
AcDbDictionary
281
     1
  0
DICTIONARY
  5
1A
102
{ACAD_REACTORS
330
C
102
}
330
C
100
AcDbDictionary
281
     1
  3
Layout1
350
1E
  3
Layout2
350
26
  3
Model
350
22
  0
DICTIONARY
  5
17
102
{ACAD_REACTORS
330
C
102
}
330
C
100
AcDbDictionary
281
     1
  3
Standard
350
18
  0
DICTIONARY
  5
19
102
{ACAD_REACTORS
330
C
102
}
330
C
100
AcDbDictionary
281
     1
  0
ACDBDICTIONARYWDFLT
  5
E
102
{ACAD_REACTORS
330
C
102
}
330
C
100
AcDbDictionary
281
     1
  3
Normal
350
F
100
AcDbDictionaryWithDefault
340
F
  0
LAYOUT
  5
1E
102
{ACAD_REACTORS
330
1A
102
}
330
1A
100
AcDbPlotSettings
  1

  2
none_device
  4

  6

 40
0.0
 41
0.0
 42
0.0
 43
0.0
 44
0.0
 45
0.0
 46
0.0
 47
0.0
 48
0.0
 49
0.0
140
0.0
141
0.0
142
1.0
143
1.0
 70
   688
 72
     0
 73
     0
 74
     5
  7

 75
    16
147
1.0
148
0.0
149
0.0
100
AcDbLayout
  1
Layout1
 70
     1
 71
     1
 10
0.0
 20
0.0
 11
420.0
 21
297.0
 12
0.0
 22
0.0
 32
0.0
 14
1.0000000000E+20
 24
1.0000000000E+20
 34
1.0000000000E+20
 15
-1.0000000000E+20
 25
-1.0000000000E+20
 35
-1.0000000000E+20
146
0.0
 13
0.0
 23
0.0
 33
0.0
 16
1.0
 26
0.0
 36
0.0
 17
0.0
 27
1.0
 37
0.0
 76
     0
330
1B
  0
LAYOUT
  5
26
102
{ACAD_REACTORS
330
1A
102
}
330
1A
100
AcDbPlotSettings
  1

  2
none_device
  4

  6

 40
0.0
 41
0.0
 42
0.0
 43
0.0
 44
0.0
 45
0.0
 46
0.0
 47
0.0
 48
0.0
 49
0.0
140
0.0
141
0.0
142
1.0
143
1.0
 70
   688
 72
     0
 73
     0
 74
     5
  7

 75
    16
147
1.0
148
0.0
149
0.0
100
AcDbLayout
  1
Layout2
 70
     1
 71
     2
 10
0.0
 20
0.0
 11
0.0
 21
0.0
 12
0.0
 22
0.0
 32
0.0
 14
0.0
 24
0.0
 34
0.0
 15
0.0
 25
0.0
 35
0.0
146
0.0
 13
0.0
 23
0.0
 33
0.0
 16
1.0
 26
0.0
 36
0.0
 17
0.0
 27
1.0
 37
0.0
 76
     0
330
23
  0
LAYOUT
  5
22
102
{ACAD_REACTORS
330
1A
102
}
330
1A
100
AcDbPlotSettings
  1

  2
none_device
  4

  6

 40
0.0
 41
0.0
 42
0.0
 43
0.0
 44
0.0
 45
0.0
 46
0.0
 47
0.0
 48
0.0
 49
0.0
140
0.0
141
0.0
142
1.0
143
1.0
 70
  1712
 72
     0
 73
     0
 74
     0
  7

 75
     0
147
1.0
148
0.0
149
0.0
100
AcDbLayout
  1
Model
 70
     1
 71
     0
 10
0.0
 20
0.0
 11
279.4
 21
215.9
 12
0.0
 22
0.0
 32
0.0
 14
0.0
 24
0.0
 34
0.0
 15
279.4
 25
215.9
 35
0.0
146
0.0
 13
0.0
 23
0.0
 33
0.0
 16
1.0
 26
0.0
 36
0.0
 17
0.0
 27
1.0
 37
0.0
 76
     0
330
1F
331
29
  0
MLINESTYLE
  5
18
102
{ACAD_REACTORS
330
17
102
}
330
17
100
AcDbMlineStyle
  2
Standard
 70
     0
  3

 62
   256
 51
90.0
 52
90.0
 71
     2
 49
0.5
 62
   256
  6
BYLAYER
 49
-0.5
 62
   256
  6
BYLAYER
  0
ACDBPLACEHOLDER
  5
F
102
{ACAD_REACTORS
330
E
102
}
330
E
  0
ENDSEC
  0
EOF
