  0
SECTION
  2
HEADER
  9
$ACADVER
  1
AC1015
  9
$ACADMAINTVER
 70
     6
  9
$DWGCODEPAGE
  3
ANSI_1252
  9
$INSBASE
 10
0.0
 20
0.0
 30
0.0
  9
$EXTMIN
 10
0.0
 20
0.0
 30
0.0
  9
$EXTMAX
 10
11.0
 20
8.5
 30
0.0
  9
$LIMMIN
 10
0.0
 20
0.0
  9
$LIMMAX
 10
11.0
 20
8.5
  9
$ORTHOMODE
 70
     0
  9
$REGENMODE
 70
     1
  9
$FILLMODE
 70
     1
  9
$QTEXTMODE
 70
     0
  9
$MIRRTEXT
 70
     1
  9
$LTSCALE
 40
1.0
  9
$ATTMODE
 70
     1
  9
$TEXTSIZE
 40
0.1111111111
  9
$TRACEWID
 40
0.05
  9
$TEXTSTYLE
  7
Standard
  9
$CLAYER
  8
0
  9
$CELTYPE
  6
ByLayer
  9
$CECOLOR
 62
   256
  9
$CELTSCALE
 40
1.0
  9
$DISPSILH
 70
     0
  9
$DIMSCALE
 40
1.0
  9
$DIMASZ
 40
0.125
  9
$DIMEXO
 40
0.05
  9
$DIMDLI
 40
0.38
  9
$DIMRND
 40
0.0
  9
$DIMDLE
 40
0.0
  9
$DIMEXE
 40
0.07
  9
$DIMTP
 40
0.0
  9
$DIMTM
 40
0.0
  9
$DIMTXT
 40
0.1111111111
  9
$DIMCEN
 40
0.09
  9
$DIMTSZ
 40
0.0
  9
$DIMTOL
 70
     0
  9
$DIMLIM
 70
     0
  9
$DIMTIH
 70
     1
  9
$DIMTOH
 70
     1
  9
$DIMSE1
 70
     0
  9
$DIMSE2
 70
     0
  9
$DIMTAD
 70
     0
  9
$DIMZIN
 70
     1
  9
$DIMBLK
  1

  9
$DIMASO
 70
     1
  9
$DIMSHO
 70
     1
  9
$DIMPOST
  1

  9
$DIMAPOST
  1

  9
$DIMALT
 70
     0
  9
$DIMALTD
 70
     2
  9
$DIMALTF
 40
25.4
  9
$DIMLFAC
 40
1.0
  9
$DIMTOFL
 70
     0
  9
$DIMTVP
 40
0.0
  9
$DIMTIX
 70
     0
  9
$DIMSOXD
 70
     0
  9
$DIMSAH
 70
     0
  9
$DIMBLK1
  1

  9
$DIMBLK2
  1

  9
$DIMSTYLE
  2
Standard
  9
$DIMCLRD
 70
     0
  9
$DIMCLRE
 70
     0
  9
$DIMCLRT
 70
     0
  9
$DIMTFAC
 40
1.0
  9
$DIMGAP
 40
0.1
  9
$DIMJUST
 70
     0
  9
$DIMSD1
 70
     0
  9
$DIMSD2
 70
     0
  9
$DIMTOLJ
 70
     1
  9
$DIMTZIN
 70
     1
  9
$DIMALTZ
 70
     0
  9
$DIMALTTZ
 70
     0
  9
$DIMUPT
 70
     0
  9
$DIMDEC
 70
     2
  9
$DIMTDEC
 70
     2
  9
$DIMALTU
 70
     2
  9
$DIMALTTD
 70
     2
  9
$DIMTXSTY
  7
Standard
  9
$DIMAUNIT
 70
     0
  9
$DIMADEC
 70
     0
  9
$DIMALTRND
 40
0.0
  9
$DIMAZIN
 70
     0
  9
$DIMDSEP
 70
    46
  9
$DIMATFIT
 70
     3
  9
$DIMFRAC
 70
     0
  9
$DIMLDRBLK
  1

  9
$DIMLUNIT
 70
     2
  9
$DIMLWD
 70
    -2
  9
$DIMLWE
 70
    -2
  9
$DIMTMOVE
 70
     0
  9
$LUNITS
 70
     2
  9
$LUPREC
 70
     2
  9
$SKETCHINC
 40
0.1
  9
$FILLETRAD
 40
0.5
  9
$AUNITS
 70
     0
  9
$AUPREC
 70
     0
  9
$MENU
  1
.
  9
$ELEVATION
 40
0.0
  9
$PELEVATION
 40
0.0
  9
$THICKNESS
 40
0.0
  9
$LIMCHECK
 70
     0
  9
$CHAMFERA
 40
0.0
  9
$CHAMFERB
 40
0.0
  9
$CHAMFERC
 40
0.0
  9
$CHAMFERD
 40
0.0
  9
$SKPOLY
 70
     0
  9
$TDCREATE
 40
2458505.685104688
  9
$TDUCREATE
 40
2458505.893438021
  9
$TDUPDATE
 40
2458505.685107986
  9
$TDUUPDATE
 40
2458505.893441319
  9
$TDINDWG
 40
0.0000000116
  9
$TDUSRTIMER
 40
0.0000000116
  9
$USRTIMER
 70
     1
  9
$ANGBASE
 50
0.0
  9
$ANGDIR
 70
     0
  9
$PDMODE
 70
     0
  9
$PDSIZE
 40
-1.0
  9
$PLINEWID
 40
0.0
  9
$SPLFRAME
 70
     0
  9
$SPLINETYPE
 70
     6
  9
$SPLINESEGS
 70
     8
  9
$HANDSEED
  5
414
  9
$SURFTAB1
 70
     6
  9
$SURFTAB2
 70
     6
  9
$SURFTYPE
 70
     6
  9
$SURFU
 70
     6
  9
$SURFV
 70
     6
  9
$UCSBASE
  2

  9
$UCSNAME
  2

  9
$UCSORG
 10
0.0
 20
0.0
 30
0.0
  9
$UCSXDIR
 10
1.0
 20
0.0
 30
0.0
  9
$UCSYDIR
 10
0.0
 20
1.0
 30
0.0
  9
$UCSORTHOREF
  2

  9
$UCSORTHOVIEW
 70
     0
  9
$UCSORGTOP
 10
0.0
 20
0.0
 30
0.0
  9
$UCSORGBOTTOM
 10
0.0
 20
0.0
 30
0.0
  9
$UCSORGLEFT
 10
0.0
 20
0.0
 30
0.0
  9
$UCSORGRIGHT
 10
0.0
 20
0.0
 30
0.0
  9
$UCSORGFRONT
 10
0.0
 20
0.0
 30
0.0
  9
$UCSORGBACK
 10
0.0
 20
0.0
 30
0.0
  9
$PUCSBASE
  2

  9
$PUCSNAME
  2

  9
$PUCSORG
 10
0.0
 20
0.0
 30
0.0
  9
$PUCSXDIR
 10
1.0
 20
0.0
 30
0.0
  9
$PUCSYDIR
 10
0.0
 20
1.0
 30
0.0
  9
$PUCSORTHOREF
  2

  9
$PUCSORTHOVIEW
 70
     0
  9
$PUCSORGTOP
 10
0.0
 20
0.0
 30
0.0
  9
$PUCSORGBOTTOM
 10
0.0
 20
0.0
 30
0.0
  9
$PUCSORGLEFT
 10
0.0
 20
0.0
 30
0.0
  9
$PUCSORGRIGHT
 10
0.0
 20
0.0
 30
0.0
  9
$PUCSORGFRONT
 10
0.0
 20
0.0
 30
0.0
  9
$PUCSORGBACK
 10
0.0
 20
0.0
 30
0.0
  9
$USERI1
 70
     0
  9
$USERI2
 70
     0
  9
$USERI3
 70
     0
  9
$USERI4
 70
     0
  9
$USERI5
 70
     0
  9
$USERR1
 40
0.0
  9
$USERR2
 40
0.0
  9
$USERR3
 40
0.0
  9
$USERR4
 40
0.0
  9
$USERR5
 40
0.0
  9
$WORLDVIEW
 70
     1
  9
$SHADEDGE
 70
     3
  9
$SHADEDIF
 70
    70
  9
$TILEMODE
 70
     1
  9
$MAXACTVP
 70
    64
  9
$PINSBASE
 10
0.0
 20
0.0
 30
0.0
  9
$PLIMCHECK
 70
     0
  9
$PEXTMIN
 10
1.0000000000E+20
 20
1.0000000000E+20
 30
1.0000000000E+20
  9
$PEXTMAX
 10
-1.0000000000E+20
 20
-1.0000000000E+20
 30
-1.0000000000E+20
  9
$PLIMMIN
 10
0.0
 20
0.0
  9
$PLIMMAX
 10
12.0
 20
9.0
  9
$UNITMODE
 70
     0
  9
$VISRETAIN
 70
     1
  9
$PLINEGEN
 70
     0
  9
$PSLTSCALE
 70
     1
  9
$TREEDEPTH
 70
  3020
  9
$CMLSTYLE
  2
Standard
  9
$CMLJUST
 70
     0
  9
$CMLSCALE
 40
1.0
  9
$PROXYGRAPHICS
 70
     1
  9
$MEASUREMENT
 70
     0
  9
$CELWEIGHT
370
    -1
  9
$ENDCAPS
280
     0
  9
$JOINSTYLE
280
     0
  9
$LWDISPLAY
290
     1
  9
$INSUNITS
 70
     1
  9
$HYPERLINKBASE
  1

  9
$STYLESHEET
  1

  9
$XEDIT
290
     1
  9
$CEPSNTYPE
380
     0
  9
$PSTYLEMODE
290
     1
  9
$FINGERPRINTGUID
  2
{EB913F12-CE83-4F85-AE42-F19AF0AF3614}
  9
$VERSIONGUID
  2
{FAEB1C32-E019-11D5-929B-00C0DF256EC4}
  9
$EXTNAMES
290
     1
  9
$PSVPSCALE
 40
0.0
  9
$OLESTARTUP
290
     0
  0
ENDSEC
  0
SECTION
  2
CLASSES
  0
CLASS
  1
ACDBDICTIONARYWDFLT
  2
AcDbDictionaryWithDefault
  3
ObjectDBX Classes
 90
        0
280
     0
281
     0
  0
CLASS
  1
VISUALSTYLE
  2
AcDbVisualStyle
  3
ObjectDBX Classes
 90
     4095
280
     0
281
     0
  0
CLASS
  1
MATERIAL
  2
AcDbMaterial
  3
ObjectDBX Classes
 90
     1153
280
     0
281
     0
  0
CLASS
  1
SCALE
  2
AcDbScale
  3
ObjectDBX Classes
 90
     1153
280
     0
281
     0
  0
CLASS
  1
TABLESTYLE
  2
AcDbTableStyle
  3
ObjectDBX Classes
 90
     4095
280
     0
281
     0
  0
CLASS
  1
MLEADERSTYLE
  2
AcDbMLeaderStyle
  3
ACDB_MLEADERSTYLE_CLASS
 90
     4095
280
     0
281
     0
  0
CLASS
  1
SUN
  2
AcDbSun
  3
SCENEOE
 90
     1153
280
     0
281
     0
  0
CLASS
  1
ACDBPLACEHOLDER
  2
AcDbPlaceHolder
  3
ObjectDBX Classes
 90
        0
280
     0
281
     0
  0
CLASS
  1
LAYOUT
  2
AcDbLayout
  3
ObjectDBX Classes
 90
        0
280
     0
281
     0
  0
ENDSEC
  0
SECTION
  2
TABLES
  0
TABLE
  2
VPORT
  5
8
330
0
100
AcDbSymbolTable
 70
     1
  0
VPORT
  5
29
330
8
100
AcDbSymbolTableRecord
100
AcDbViewportTableRecord
  2
*Active
 70
     0
 10
0.0
 20
0.0
 11
1.0
 21
1.0
 12
5.5
 22
4.25
 13
0.0
 23
0.0
 14
0.5
 24
0.5
 15
0.5
 25
0.5
 16
0.0
 26
0.0
 36
1.0
 17
0.0
 27
0.0
 37
0.0
 40
8.5
 41
1.2941176471
 42
50.0
 43
0.0
 44
0.0
 50
0.0
 51
0.0
 71
     0
 72
  2000
 73
     1
 74
     3
 75
     0
 76
     0
 77
     0
 78
     0
281
     0
 65
     1
110
0.0
120
0.0
130
0.0
111
1.0
121
0.0
131
0.0
112
0.0
122
1.0
132
0.0
 79
     0
146
0.0
  0
ENDTAB
  0
TABLE
  2
LTYPE
  5
5
330
0
100
AcDbSymbolTable
 70
     6
  0
LTYPE
  5
14
330
5
100
AcDbSymbolTableRecord
100
AcDbLinetypeTableRecord
  2
ByBlock
 70
     0
  3

 72
    65
 73
     0
 40
0.0
  0
LTYPE
  5
15
330
5
100
AcDbSymbolTableRecord
100
AcDbLinetypeTableRecord
  2
ByLayer
 70
     0
  3

 72
    65
 73
     0
 40
0.0
  0
LTYPE
  5
16
330
5
100
AcDbSymbolTableRecord
100
AcDbLinetypeTableRecord
  2
Continuous
 70
     0
  3
Solid line
 72
    65
 73
     0
 40
0.0
  0
LTYPE
  5
6E
330
5
100
AcDbSymbolTableRecord
100
AcDbLinetypeTableRecord
  2
HIDDEN
 70
     0
  3
Hidden __ __ __ __ __ __ __ __ __ __ __ __ __ __
 72
    65
 73
     2
 40
0.075
 49
0.05
 74
     0
 49
-0.025
 74
     0
  0
LTYPE
  5
6F
330
5
100
AcDbSymbolTableRecord
100
AcDbLinetypeTableRecord
  2
PHANTOM
 70
     0
  3
Phantom ______  __  __  ______  __  __  ______
 72
    65
 73
     6
 40
0.5
 49
0.25
 74
     0
 49
-0.05
 74
     0
 49
0.05
 74
     0
 49
-0.05
 74
     0
 49
0.05
 74
     0
 49
-0.05
 74
     0
  0
LTYPE
  5
70
330
5
100
AcDbSymbolTableRecord
100
AcDbLinetypeTableRecord
  2
CENTER
 70
     0
  3
Center ____ _ ____ _ ____ _ ____ _ ____ _ ____
 72
    65
 73
     4
 40
0.4
 49
0.25
 74
     0
 49
-0.05
 74
     0
 49
0.05
 74
     0
 49
-0.05
 74
     0
  0
LTYPE
  5
71
330
5
100
AcDbSymbolTableRecord
100
AcDbLinetypeTableRecord
  2
CENTERX2
 70
     0
  3
Center (2x) ________  __  ________  __  _____
 72
    65
 73
     4
 40
0.8
 49
0.5
 74
     0
 49
-0.1
 74
     0
 49
0.1
 74
     0
 49
-0.1
 74
     0
  0
LTYPE
  5
72
330
5
100
AcDbSymbolTableRecord
100
AcDbLinetypeTableRecord
  2
DOT2
 70
     0
  3
Dot (.5x) ........................................
 72
    65
 73
     2
 40
0.025
 49
0.0
 74
     0
 49
-0.025
 74
     0
  0
ENDTAB
  0
TABLE
  2
LAYER
  5
2
330
0
100
AcDbSymbolTable
 70
     2
  0
LAYER
  5
10
330
2
100
AcDbSymbolTableRecord
100
AcDbLayerTableRecord
  2
0
 70
     0
 62
     7
  6
Continuous
370
    -3
390
F
  0
LAYER
  5
73
330
2
100
AcDbSymbolTableRecord
100
AcDbLayerTableRecord
  2
FORMAT
 70
     0
 62
     7
  6
Continuous
370
    -3
390
F
  0
ENDTAB
  0
TABLE
  2
STYLE
  5
3
330
0
100
AcDbSymbolTable
 70
     3
  0
STYLE
  5
11
330
3
100
AcDbSymbolTableRecord
100
AcDbTextStyleTableRecord
  2
Standard
 70
     0
 40
0.0
 41
1.0
 50
0.0
 71
     0
 42
0.1111111111
  3
txt
  4

  0
STYLE
  5
9D
330
3
100
AcDbSymbolTableRecord
100
AcDbTextStyleTableRecord
  2
SLDTEXTSTYLE0
 70
     0
 40
0.0
 41
0.75
 50
0.0
 71
     0
 42
0.1111111111
  3
TXT
  4

  0
STYLE
  5
B0
330
3
100
AcDbSymbolTableRecord
100
AcDbTextStyleTableRecord
  2
SLDTEXTSTYLE1
 70
     0
 40
0.0
 41
0.6
 50
0.0
 71
     0
 42
0.1111111111
  3
TXT
  4

  0
ENDTAB
  0
TABLE
  2
VIEW
  5
6
330
0
100
AcDbSymbolTable
 70
     0
  0
ENDTAB
  0
TABLE
  2
UCS
  5
7
330
0
100
AcDbSymbolTable
 70
     0
  0
ENDTAB
  0
TABLE
  2
APPID
  5
9
330
0
100
AcDbSymbolTable
 70
     1
  0
APPID
  5
12
330
9
100
AcDbSymbolTableRecord
100
AcDbRegAppTableRecord
  2
ACAD
 70
     0
  0
ENDTAB
  0
TABLE
  2
DIMSTYLE
  5
A
330
0
100
AcDbSymbolTable
 70
     7
100
AcDbDimStyleTable
  0
DIMSTYLE
105
27
330
A
100
AcDbSymbolTableRecord
100
AcDbDimStyleTableRecord
  2
Standard
 70
     0
178
     0
340
11
  0
DIMSTYLE
105
DA
102
{ACAD_REACTORS
330
D9
330
186
102
}
330
A
100
AcDbSymbolTableRecord
100
AcDbDimStyleTableRecord
  2
SLDDIMSTYLE0
 70
     0
 41
0.125
 44
0.0
 45
0.000000001
 78
     4
 79
     1
140
0.0833333333
147
0.0208333333
148
0.000000001
170
     1
171
     1
173
     1
178
     0
271
     2
272
     2
274
     1
276
     2
284
    12
340
9D
  0
DIMSTYLE
105
EF
102
{ACAD_REACTORS
330
EE
330
103
330
172
330
28C
330
2A0
102
}
330
A
100
AcDbSymbolTableRecord
100
AcDbDimStyleTableRecord
  2
SLDDIMSTYLE1
 70
     0
 41
0.125
 44
0.0
 45
0.000000001
 78
    12
 79
     3
140
0.0833333333
147
0.0208333333
148
0.000000001
170
     1
171
     1
173
     1
178
     0
271
     2
272
     2
274
     1
276
     2
284
    12
340
9D
  0
DIMSTYLE
105
118
102
{ACAD_REACTORS
330
117
102
}
330
A
100
AcDbSymbolTableRecord
100
AcDbDimStyleTableRecord
  2
SLDDIMSTYLE2
 70
     0
 41
0.125
 44
0.0
 45
0.000000001
 78
     8
 79
     2
140
0.0833333333
147
0.0208333333
148
0.000000001
170
     1
171
     1
173
     1
178
     0
271
     2
272
     2
274
     1
276
     2
284
    12
340
9D
  0
DIMSTYLE
105
12D
330
A
100
AcDbSymbolTableRecord
100
AcDbDimStyleTableRecord
  2
SLDDIMSTYLE3
 70
     0
 41
0.125
 44
0.0
 45
0.000000001
146
0.125
147
0.0
173
     1
178
     0
271
     0
272
     0
276
     2
340
11
  0
DIMSTYLE
105
15E
102
{ACAD_REACTORS
330
15D
330
2CA
102
}
330
A
100
AcDbSymbolTableRecord
100
AcDbDimStyleTableRecord
  2
SLDDIMSTYLE4
 70
     0
 41
0.125
 44
0.0
 45
0.000000001
140
0.0833333333
147
0.0208333333
148
0.000000001
170
     1
171
     1
172
     1
173
     1
178
     0
271
     2
272
     2
274
     1
276
     2
284
    12
289
     0
340
9D
  0
DIMSTYLE
105
2B5
102
{ACAD_REACTORS
330
2B4
330
2DE
102
}
330
A
100
AcDbSymbolTableRecord
100
AcDbDimStyleTableRecord
  2
SLDDIMSTYLE5
 70
     0
 41
0.125
 44
0.0
 45
0.000000001
 78
     8
 79
     2
140
0.0833333333
147
0.0208333333
148
0.000000001
170
     1
171
     1
172
     1
173
     1
178
     0
271
     2
272
     2
274
     1
276
     2
284
    12
289
     0
340
9D
  0
ENDTAB
  0
TABLE
  2
BLOCK_RECORD
  5
1
330
0
100
AcDbSymbolTable
 70
    28
  0
BLOCK_RECORD
  5
1F
330
1
100
AcDbSymbolTableRecord
100
AcDbBlockTableRecord
  2
*Model_Space
340
22
  0
BLOCK_RECORD
  5
1B
330
1
100
AcDbSymbolTableRecord
100
AcDbBlockTableRecord
  2
*Paper_Space
340
1E
  0
BLOCK_RECORD
  5
23
330
1
100
AcDbSymbolTableRecord
100
AcDbBlockTableRecord
  2
*Paper_Space0
340
26
  0
BLOCK_RECORD
  5
74
330
1
100
AcDbSymbolTableRecord
100
AcDbBlockTableRecord
  2
Third Angle Projection Block
340
0
102
{BLKREFS
331
99
102
}
  0
BLOCK_RECORD
  5
9A
330
1
100
AcDbSymbolTableRecord
100
AcDbBlockTableRecord
  2
SW_NOTE_0
340
0
102
{BLKREFS
331
A4
102
}
  0
BLOCK_RECORD
  5
B6
330
1
100
AcDbSymbolTableRecord
100
AcDbBlockTableRecord
  2
SW_NOTE_1
340
0
102
{BLKREFS
331
BB
102
}
  0
BLOCK_RECORD
  5
BC
330
1
100
AcDbSymbolTableRecord
100
AcDbBlockTableRecord
  2
SW_NOTE_2
340
0
102
{BLKREFS
331
C1
102
}
  0
BLOCK_RECORD
  5
C3
330
1
100
AcDbSymbolTableRecord
100
AcDbBlockTableRecord
  2
SW_NOTE_3
340
0
102
{BLKREFS
331
C8
102
}
  0
BLOCK_RECORD
  5
C9
330
1
100
AcDbSymbolTableRecord
100
AcDbBlockTableRecord
  2
SW_NOTE_4
340
0
102
{BLKREFS
331
CE
102
}
  0
BLOCK_RECORD
  5
DB
330
1
100
AcDbSymbolTableRecord
100
AcDbBlockTableRecord
  2
_D
340
0
  0
BLOCK_RECORD
  5
F0
330
1
100
AcDbSymbolTableRecord
100
AcDbBlockTableRecord
  2
_D_1
340
0
  0
BLOCK_RECORD
  5
104
330
1
100
AcDbSymbolTableRecord
100
AcDbBlockTableRecord
  2
_D_2
340
0
  0
BLOCK_RECORD
  5
119
330
1
100
AcDbSymbolTableRecord
100
AcDbBlockTableRecord
  2
_D_3
340
0
  0
BLOCK_RECORD
  5
12F
330
1
100
AcDbSymbolTableRecord
100
AcDbBlockTableRecord
  2
SW_CENTERMARKSYMBOL_0
340
0
102
{BLKREFS
331
136
102
}
  0
BLOCK_RECORD
  5
137
330
1
100
AcDbSymbolTableRecord
100
AcDbBlockTableRecord
  2
SW_CENTERMARKSYMBOL_1
340
0
102
{BLKREFS
331
13E
102
}
  0
BLOCK_RECORD
  5
13F
330
1
100
AcDbSymbolTableRecord
100
AcDbBlockTableRecord
  2
SW_CENTERMARKSYMBOL_2
340
0
102
{BLKREFS
331
146
102
}
  0
BLOCK_RECORD
  5
147
330
1
100
AcDbSymbolTableRecord
100
AcDbBlockTableRecord
  2
SW_CENTERMARKSYMBOL_3
340
0
102
{BLKREFS
331
14E
102
}
  0
BLOCK_RECORD
  5
14F
330
1
100
AcDbSymbolTableRecord
100
AcDbBlockTableRecord
  2
SW_CENTERMARKSYMBOL_4
340
0
102
{BLKREFS
331
156
102
}
  0
BLOCK_RECORD
  5
15F
330
1
100
AcDbSymbolTableRecord
100
AcDbBlockTableRecord
  2
_D_4
340
0
  0
BLOCK_RECORD
  5
173
330
1
100
AcDbSymbolTableRecord
100
AcDbBlockTableRecord
  2
_D_5
340
0
  0
BLOCK_RECORD
  5
187
330
1
100
AcDbSymbolTableRecord
100
AcDbBlockTableRecord
  2
_D_6
340
0
  0
BLOCK_RECORD
  5
28D
330
1
100
AcDbSymbolTableRecord
100
AcDbBlockTableRecord
  2
_D_7
340
0
  0
BLOCK_RECORD
  5
2A1
330
1
100
AcDbSymbolTableRecord
100
AcDbBlockTableRecord
  2
_D_8
340
0
  0
BLOCK_RECORD
  5
2B6
330
1
100
AcDbSymbolTableRecord
100
AcDbBlockTableRecord
  2
_D_9
340
0
  0
BLOCK_RECORD
  5
2CB
330
1
100
AcDbSymbolTableRecord
100
AcDbBlockTableRecord
  2
_D_10
340
0
  0
BLOCK_RECORD
  5
2DF
330
1
100
AcDbSymbolTableRecord
100
AcDbBlockTableRecord
  2
_D_11
340
0
  0
BLOCK_RECORD
  5
2F2
330
1
100
AcDbSymbolTableRecord
100
AcDbBlockTableRecord
  2
SW_NOTE_5
340
0
102
{BLKREFS
331
2F7
102
}
  0
BLOCK_RECORD
  5
2FB
330
1
100
AcDbSymbolTableRecord
100
AcDbBlockTableRecord
  2
SW_CENTERMARKSYMBOL_5
340
0
102
{BLKREFS
331
302
102
}
  0
BLOCK_RECORD
  5
303
330
1
100
AcDbSymbolTableRecord
100
AcDbBlockTableRecord
  2
SW_CENTERMARKSYMBOL_6
340
0
102
{BLKREFS
331
30A
102
}
  0
BLOCK_RECORD
  5
30B
330
1
100
AcDbSymbolTableRecord
100
AcDbBlockTableRecord
  2
SW_CENTERMARKSYMBOL_7
340
0
102
{BLKREFS
331
312
102
}
  0
ENDTAB
  0
ENDSEC
  0
SECTION
  2
BLOCKS
  0
BLOCK
  5
20
330
1F
100
AcDbEntity
  8
0
100
AcDbBlockBegin
  2
*Model_Space
 70
     0
 10
0.0
 20
0.0
 30
0.0
  3
*Model_Space
  1

  0
ENDBLK
  5
21
330
1F
100
AcDbEntity
  8
0
100
AcDbBlockEnd
  0
BLOCK
  5
1C
330
1B
100
AcDbEntity
 67
     1
  8
0
100
AcDbBlockBegin
  2
*Paper_Space
 70
     0
 10
0.0
 20
0.0
 30
0.0
  3
*Paper_Space
  1

  0
ENDBLK
  5
1D
330
1B
100
AcDbEntity
 67
     1
  8
0
100
AcDbBlockEnd
  0
BLOCK
  5
24
330
23
100
AcDbEntity
  8
0
100
AcDbBlockBegin
  2
*Paper_Space0
 70
     0
 10
0.0
 20
0.0
 30
0.0
  3
*Paper_Space0
  1

  0
ENDBLK
  5
25
330
23
100
AcDbEntity
  8
0
100
AcDbBlockEnd
  0
BLOCK
  5
75
330
74
100
AcDbEntity
  8
0
100
AcDbBlockBegin
  2
Third Angle Projection Block
 70
     0
 10
0.0
 20
0.0
 30
0.0
  3
Third Angle Projection Block
  1

  0
CIRCLE
  5
77
330
74
100
AcDbEntity
  8
0
  6
Continuous
 62
     7
370
    35
100
AcDbCircle
 10
3.9951432636
 20
0.7456853688
 30
0.0
 40
0.0696152422706639
  0
CIRCLE
  5
78
330
74
100
AcDbEntity
  8
0
  6
Continuous
 62
     7
370
    35
100
AcDbCircle
 10
3.9951432636
 20
0.7456853688
 30
0.0
 40
0.1535916633280245
  0
LINE
  5
79
330
74
100
AcDbEntity
  8
0
  6
CENTERX2
 62
     7
370
    18
100
AcDbLine
 10
4.3360937897
 20
0.7456853688
 30
0.0
 11
4.7028635231
 21
0.7456853688
 31
0.0
  0
LINE
  5
7A
330
74
100
AcDbEntity
  8
0
  6
Continuous
 62
     7
370
    35
100
AcDbLine
 10
4.3701432636
 20
0.815300611
 30
0.0
 11
4.3701432636
 21
0.6760701265
 31
0.0
  0
LINE
  5
7B
330
74
100
AcDbEntity
  8
0
  6
Continuous
 62
     7
370
    35
100
AcDbLine
 10
4.3701432636
 20
0.6760701265
 30
0.0
 11
4.6701432636
 21
0.5956853688
 31
0.0
  0
LINE
  5
7C
330
74
100
AcDbEntity
  8
0
  6
Continuous
 62
     7
370
    35
100
AcDbLine
 10
4.6701432636
 20
0.5956853688
 30
0.0
 11
4.6701432636
 21
0.8956853688
 31
0.0
  0
LINE
  5
7D
330
74
100
AcDbEntity
  8
0
  6
Continuous
 62
     7
370
    35
100
AcDbLine
 10
4.6701432636
 20
0.8956853688
 30
0.0
 11
4.3701432636
 21
0.815300611
 31
0.0
  0
LINE
  5
7E
330
74
100
AcDbEntity
  8
0
  6
CENTERX2
 62
     7
370
    18
100
AcDbLine
 10
3.8032513961
 20
0.7456853688
 30
0.0
 11
4.187035131
 21
0.7456853688
 31
0.0
  0
LINE
  5
7F
330
74
100
AcDbEntity
  8
0
  6
CENTERX2
 62
     7
370
    18
100
AcDbLine
 10
3.9951432636
 20
0.9375772362
 30
0.0
 11
3.9951432636
 21
0.5537935013
 31
0.0
  0
POINT
  5
80
330
74
100
AcDbEntity
  8
0
  6
Continuous
 62
     7
370
     0
100
AcDbPoint
 10
3.9951432636
 20
0.7456853688
 30
0.0
  0
ENDBLK
  5
76
330
74
100
AcDbEntity
  8
0
100
AcDbBlockEnd
  0
BLOCK
  5
9B
330
9A
100
AcDbEntity
  8
0
100
AcDbBlockBegin
  2
SW_NOTE_0
 70
     0
 10
0.0
 20
0.0
 30
0.0
  3
SW_NOTE_0
  1

  0
MTEXT
  5
9E
330
9A
100
AcDbEntity
  8
0
  6
Continuous
 62
     0
370
     0
100
AcDbMText
 10
0.0
 20
0.1074223116
 30
0.0
 40
0.0833333333
 41
0.0
 71
     1
 72
     1
  1
NOTES/SPECIFICATIONS:
  7
SLDTEXTSTYLE0
 73
     1
 44
1.0
  0
MTEXT
  5
9F
330
9A
100
AcDbEntity
  8
0
  6
Continuous
 62
     0
370
     0
100
AcDbMText
 10
0.3937007786
 20
-0.1147999079
 30
0.0
 40
0.0833333333
 41
0.0
 71
     1
 72
     1
  1
ALLOWS: SI035, SI050, SI100 AND SI254 COMPATIBLE WITH 30.0mm CAGE SYSTEM
  7
SLDTEXTSTYLE0
 73
     1
 44
1.0
  0
MTEXT
  5
A0
330
9A
100
AcDbEntity
  8
0
  6
Continuous
 62
     0
370
     0
100
AcDbMText
 10
0.0
 20
-0.1147999079
 30
0.0
 40
0.0833333333
 41
0.0
 71
     1
 72
     1
  1
1.
  7
SLDTEXTSTYLE0
 73
     1
 44
1.0
  0
MTEXT
  5
A1
330
9A
100
AcDbEntity
  8
0
  6
Continuous
 62
     0
370
     0
100
AcDbMText
 10
0.3937007786
 20
-0.2259110177
 30
0.0
 40
0.0833333333
 41
0.0
 71
     1
 72
     1
  1
SHIPS WITH: (2) #4-40 X 5/16 FLAT HEAD SOCKET CAP SCREWS
  7
SLDTEXTSTYLE0
 73
     1
 44
1.0
  0
MTEXT
  5
A2
330
9A
100
AcDbEntity
  8
0
  6
Continuous
 62
     0
370
     0
100
AcDbMText
 10
0.0
 20
-0.2259110177
 30
0.0
 40
0.0833333333
 41
0.0
 71
     1
 72
     1
  1
2.
  7
SLDTEXTSTYLE0
 73
     1
 44
1.0
  0
MTEXT
  5
A3
330
9A
100
AcDbEntity
  8
0
  6
Continuous
 62
     0
370
     0
100
AcDbMText
 10
1.0187007874
 20
-0.3370221274
 30
0.0
 40
0.0833333333
 41
0.0
 71
     1
 72
     1
  1
(1) 1/16 SHORT ARM HEX KEY
  7
SLDTEXTSTYLE0
 73
     1
 44
1.0
  0
ENDBLK
  5
9C
330
9A
100
AcDbEntity
  8
0
100
AcDbBlockEnd
  0
BLOCK
  5
B7
330
B6
100
AcDbEntity
  8
0
100
AcDbBlockBegin
  2
SW_NOTE_1
 70
     0
 10
0.0
 20
0.0
 30
0.0
  3
SW_NOTE_1
  1

  0
MTEXT
  5
B9
330
B6
100
AcDbEntity
  8
0
  6
Continuous
 62
     0
370
     0
100
AcDbMText
 10
0.78375
 20
0.0773440644
 30
0.0
 40
0.06
 41
0.0
 71
     2
 72
     1
  1
VALUES IN PARENTHESIS ARE CALCULATED
  7
SLDTEXTSTYLE0
 73
     1
 44
1.0
  0
MTEXT
  5
BA
330
B6
100
AcDbEntity
  8
0
  6
Continuous
 62
     0
370
     0
100
AcDbMText
 10
0.7825936818
 20
-0.0220260102
 30
0.0
 40
0.06
 41
0.0
 71
     2
 72
     1
  1
AND MAY CONTAIN ROUNDOFF ERRORS
  7
SLDTEXTSTYLE0
 73
     1
 44
1.0
  0
ENDBLK
  5
B8
330
B6
100
AcDbEntity
  8
0
100
AcDbBlockEnd
  0
BLOCK
  5
BD
330
BC
100
AcDbEntity
  8
0
100
AcDbBlockBegin
  2
SW_NOTE_2
 70
     0
 10
0.0
 20
0.0
 30
0.0
  3
SW_NOTE_2
  1

  0
MTEXT
  5
BF
330
BC
100
AcDbEntity
  8
0
  6
Continuous
 62
     0
370
     0
100
AcDbMText
 10
0.0
 20
0.1074223116
 30
0.0
 40
0.0833333333
 41
0.0
 71
     1
 72
     1
  1
DRAWING
  7
SLDTEXTSTYLE0
 73
     1
 44
1.0
  0
MTEXT
  5
C0
330
BC
100
AcDbEntity
  8
0
  6
Continuous
 62
     0
370
     0
100
AcDbMText
 10
0.0
 20
-0.0036887981
 30
0.0
 40
0.0833333333
 41
0.0
 71
     1
 72
     1
  1
PROJECTION
  7
SLDTEXTSTYLE0
 73
     1
 44
1.0
  0
ENDBLK
  5
BE
330
BC
100
AcDbEntity
  8
0
100
AcDbBlockEnd
  0
BLOCK
  5
C4
330
C3
100
AcDbEntity
  8
0
100
AcDbBlockBegin
  2
SW_NOTE_3
 70
     0
 10
0.0
 20
0.0
 30
0.0
  3
SW_NOTE_3
  1

  0
MTEXT
  5
C6
330
C3
100
AcDbEntity
  8
0
  6
Continuous
 62
     0
370
     0
100
AcDbMText
 10
0.986328125
 20
0.1611334675
 30
0.0
 40
0.125
 41
0.0
 71
     2
 72
     1
  1
FOR INFORMATION ONLY
  7
SLDTEXTSTYLE0
 73
     1
 44
1.0
  0
MTEXT
  5
C7
330
C3
100
AcDbEntity
  8
0
  6
Continuous
 62
     0
370
     0
100
AcDbMText
 10
0.999088459
 20
-0.0055331972
 30
0.0
 40
0.125
 41
0.0
 71
     2
 72
     1
  1
NOT FOR MANUFACTURING PURPOSES
  7
SLDTEXTSTYLE0
 73
     1
 44
1.0
  0
ENDBLK
  5
C5
330
C3
100
AcDbEntity
  8
0
100
AcDbBlockEnd
  0
BLOCK
  5
CA
330
C9
100
AcDbEntity
  8
0
100
AcDbBlockBegin
  2
SW_NOTE_4
 70
     0
 10
0.0
 20
0.0
 30
0.0
  3
SW_NOTE_4
  1

  0
MTEXT
  5
CC
330
C9
100
AcDbEntity
  8
0
  6
Continuous
 62
     0
370
     0
100
AcDbMText
 10
1.1341145833
 20
0.1074223116
 30
0.0
 40
0.0833333333
 41
0.0
 71
     2
 72
     1
  1
SM1 THREADED SHEARING INTERFEROMETER
  7
SLDTEXTSTYLE0
 73
     1
 44
1.0
  0
MTEXT
  5
CD
330
C9
100
AcDbEntity
  8
0
  6
Continuous
 62
     0
370
     0
100
AcDbMText
 10
1.1358025419
 20
-0.0036887981
 30
0.0
 40
0.0833333333
 41
0.0
 71
     2
 72
     1
  1
CAGE SYSTEM MOUNT ACCESSORY
  7
SLDTEXTSTYLE0
 73
     1
 44
1.0
  0
ENDBLK
  5
CB
330
C9
100
AcDbEntity
  8
0
100
AcDbBlockEnd
  0
BLOCK
  5
DC
330
DB
100
AcDbEntity
  8
0
100
AcDbBlockBegin
  2
_D
 70
     0
 10
0.0
 20
0.0
 30
0.0
  3
_D
  1

  0
SOLID
  5
DE
330
DB
100
AcDbEntity
  8
0
  6
Continuous
 62
     7
370
    18
100
AcDbTrace
 10
2.0901684489
 20
5.0079868256
 30
0.0
 11
2.2151684489
 21
4.9879868256
 31
0.0
 12
2.2151684489
 22
5.0279868256
 32
0.0
 13
2.2151684489
 23
5.0279868256
 33
0.0
  0
SOLID
  5
DF
330
DB
100
AcDbEntity
  8
0
  6
Continuous
 62
     7
370
    18
100
AcDbTrace
 10
3.9901684489
 20
5.0079868256
 30
0.0
 11
3.8651684489
 21
5.0279868256
 31
0.0
 12
3.8651684489
 22
4.9879868256
 32
0.0
 13
3.8651684489
 23
4.9879868256
 33
0.0
  0
LINE
  5
E0
330
DB
100
AcDbEntity
  8
0
  6
Continuous
 62
     7
370
    18
100
AcDbLine
 10
2.8282857158
 20
5.0079868165
 30
0.0
 11
2.8029384932
 21
5.0079868165
 31
0.0
  0
LINE
  5
E1
330
DB
100
AcDbEntity
  8
0
  6
Continuous
 62
     7
370
    18
100
AcDbLine
 10
2.8029384932
 20
5.0079868165
 30
0.0
 11
2.8029384932
 21
4.8755794119
 31
0.0
  0
LINE
  5
E2
330
DB
100
AcDbEntity
  8
0
  6
Continuous
 62
     7
370
    18
100
AcDbLine
 10
2.8029384932
 20
4.8755794119
 30
0.0
 11
2.8282857158
 21
4.8755794119
 31
0.0
  0
LINE
  5
E3
330
DB
100
AcDbEntity
  8
0
  6
Continuous
 62
     7
370
    18
100
AcDbLine
 10
3.2520511637
 20
5.0079868165
 30
0.0
 11
3.2773983863
 21
5.0079868165
 31
0.0
  0
LINE
  5
E4
330
DB
100
AcDbEntity
  8
0
  6
Continuous
 62
     7
370
    18
100
AcDbLine
 10
3.2773983863
 20
5.0079868165
 30
0.0
 11
3.2773983863
 21
4.8755794119
 31
0.0
  0
LINE
  5
E5
330
DB
100
AcDbEntity
  8
0
  6
Continuous
 62
     7
370
    18
100
AcDbLine
 10
3.2773983863
 20
4.8755794119
 30
0.0
 11
3.2520511637
 21
4.8755794119
 31
0.0
  0
LINE
  5
E6
330
DB
100
AcDbEntity
  8
0
  6
Continuous
 62
     7
370
    18
100
AcDbLine
 10
2.0901684489
 20
4.6642860382
 30
0.0
 11
2.0901684489
 21
5.0779868256
 31
0.0
  0
LINE
  5
E7
330
DB
100
AcDbEntity
  8
0
  6
Continuous
 62
     7
370
    18
100
AcDbLine
 10
3.9901684489
 20
4.6642860382
 30
0.0
 11
3.9901684489
 21
5.0779868256
 31
0.0
  0
LINE
  5
E8
330
DB
100
AcDbEntity
  8
0
  6
Continuous
 62
     7
370
    18
100
AcDbLine
 10
2.0901684489
 20
5.0079868256
 30
0.0
 11
2.699258405
 21
5.0079868256
 31
0.0
  0
LINE
  5
E9
330
DB
100
AcDbEntity
  8
0
  6
Continuous
 62
     7
370
    18
100
AcDbLine
 10
3.9901684489
 20
5.0079868256
 30
0.0
 11
3.3810784928
 21
5.0079868256
 31
0.0
  0
MTEXT
  5
EA
330
DB
100
AcDbEntity
  8
0
  6
Continuous
 62
     7
370
    18
100
AcDbMText
 10
2.7786715184
 20
5.132307275
 30
0.0
 40
0.0833333333
 41
0.0
 71
     1
 72
     1
  1

  7
SLDTEXTSTYLE0
 73
     1
 44
1.0
  0
MTEXT
  5
EB
330
DB
100
AcDbEntity
  8
0
  6
Continuous
 62
     7
370
    18
100
AcDbMText
 10
2.8874678096
 20
5.132307275
 30
0.0
 40
0.0833333333
 41
0.0
 71
     1
 72
     1
  1
1.90in
  7
SLDTEXTSTYLE0
 73
     1
 44
1.0
  0
MTEXT
  5
EC
330
DB
100
AcDbEntity
  8
0
  6
Continuous
 62
     7
370
    18
100
AcDbMText
 10
2.8282857158
 20
4.9830017189
 30
0.0
 40
0.0833333333
 41
0.0
 71
     1
 72
     1
  1
48.3mm
  7
SLDTEXTSTYLE0
 73
     1
 44
1.0
  0
MTEXT
  5
ED
330
DB
100
AcDbEntity
  8
0
  6
Continuous
 62
     7
370
    18
100
AcDbMText
 10
3.3652456089
 20
5.132307275
 30
0.0
 40
0.0833333333
 41
0.0
 71
     1
 72
     1
  1

  7
SLDTEXTSTYLE0
 73
     1
 44
1.0
  0
ENDBLK
  5
DD
330
DB
100
AcDbEntity
  8
0
100
AcDbBlockEnd
  0
BLOCK
  5
F1
330
F0
100
AcDbEntity
  8
0
100
AcDbBlockBegin
  2
_D_1
 70
     0
 10
0.0
 20
0.0
 30
0.0
  3
_D_1
  1

  0
SOLID
  5
F3
330
F0
100
AcDbEntity
  8
0
  6
Continuous
 62
     7
370
    18
100
AcDbTrace
 10
1.5305682366
 20
4.1458372193
 30
0.0
 11
1.5105682366
 21
4.0208372193
 31
0.0
 12
1.5505682366
 22
4.0208372193
 32
0.0
 13
1.5505682366
 23
4.0208372193
 33
0.0
  0
SOLID
  5
F4
330
F0
100
AcDbEntity
  8
0
  6
Continuous
 62
     7
370
    18
100
AcDbTrace
 10
1.5305682366
 20
2.9647348571
 30
0.0
 11
1.5505682366
 21
3.0897348571
 31
0.0
 12
1.5105682366
 22
3.0897348571
 32
0.0
 13
1.5105682366
 23
3.0897348571
 33
0.0
  0
LINE
  5
F5
330
F0
100
AcDbEntity
  8
0
  6
Continuous
 62
     7
370
    18
100
AcDbLine
 10
1.3186855034
 20
3.5552860291
 30
0.0
 11
1.2933382808
 21
3.5552860291
 31
0.0
  0
LINE
  5
F6
330
F0
100
AcDbEntity
  8
0
  6
Continuous
 62
     7
370
    18
100
AcDbLine
 10
1.2933382808
 20
3.5552860291
 30
0.0
 11
1.2933382808
 21
3.4228786245
 31
0.0
  0
LINE
  5
F7
330
F0
100
AcDbEntity
  8
0
  6
Continuous
 62
     7
370
    18
100
AcDbLine
 10
1.2933382808
 20
3.4228786245
 30
0.0
 11
1.3186855034
 21
3.4228786245
 31
0.0
  0
LINE
  5
F8
330
F0
100
AcDbEntity
  8
0
  6
Continuous
 62
     7
370
    18
100
AcDbLine
 10
1.7424509514
 20
3.5552860291
 30
0.0
 11
1.767798174
 21
3.5552860291
 31
0.0
  0
LINE
  5
F9
330
F0
100
AcDbEntity
  8
0
  6
Continuous
 62
     7
370
    18
100
AcDbLine
 10
1.767798174
 20
3.5552860291
 30
0.0
 11
1.767798174
 21
3.4228786245
 31
0.0
  0
LINE
  5
FA
330
F0
100
AcDbEntity
  8
0
  6
Continuous
 62
     7
370
    18
100
AcDbLine
 10
1.767798174
 20
3.4228786245
 30
0.0
 11
1.7424509514
 21
3.4228786245
 31
0.0
  0
LINE
  5
FB
330
F0
100
AcDbEntity
  8
0
  6
Continuous
 62
     7
370
    18
100
AcDbLine
 10
2.3496172678
 20
4.1458372193
 30
0.0
 11
1.4605682366
 21
4.1458372193
 31
0.0
  0
LINE
  5
FC
330
F0
100
AcDbEntity
  8
0
  6
Continuous
 62
     7
370
    18
100
AcDbLine
 10
2.3496172678
 20
2.9647348571
 30
0.0
 11
1.4605682366
 21
2.9647348571
 31
0.0
  0
LINE
  5
FD
330
F0
100
AcDbEntity
  8
0
  6
Continuous
 62
     7
370
    18
100
AcDbLine
 10
1.5305682366
 20
4.1458372193
 30
0.0
 11
1.5305682366
 21
3.7045915851
 31
0.0
  0
LINE
  5
FE
330
F0
100
AcDbEntity
  8
0
  6
Continuous
 62
     7
370
    18
100
AcDbLine
 10
1.5305682366
 20
2.9647348571
 30
0.0
 11
1.5305682366
 21
3.4059804913
 31
0.0
  0
MTEXT
  5
FF
330
F0
100
AcDbEntity
  8
0
  6
Continuous
 62
     7
370
    18
100
AcDbMText
 10
1.2690713061
 20
3.6796064876
 30
0.0
 40
0.0833333333
 41
0.0
 71
     1
 72
     1
  1

  7
SLDTEXTSTYLE0
 73
     1
 44
1.0
  0
MTEXT
  5
100
330
F0
100
AcDbEntity
  8
0
  6
Continuous
 62
     7
370
    18
100
AcDbMText
 10
1.3778675972
 20
3.6796064876
 30
0.0
 40
0.0833333333
 41
0.0
 71
     1
 72
     1
  1
1.18in
  7
SLDTEXTSTYLE0
 73
     1
 44
1.0
  0
MTEXT
  5
101
330
F0
100
AcDbEntity
  8
0
  6
Continuous
 62
     7
370
    18
100
AcDbMText
 10
1.3186855034
 20
3.5303009315
 30
0.0
 40
0.0833333333
 41
0.0
 71
     1
 72
     1
  1
30.0mm
  7
SLDTEXTSTYLE0
 73
     1
 44
1.0
  0
MTEXT
  5
102
330
F0
100
AcDbEntity
  8
0
  6
Continuous
 62
     7
370
    18
100
AcDbMText
 10
1.8556453966
 20
3.6796064876
 30
0.0
 40
0.0833333333
 41
0.0
 71
     1
 72
     1
  1

  7
SLDTEXTSTYLE0
 73
     1
 44
1.0
  0
ENDBLK
  5
F2
330
F0
100
AcDbEntity
  8
0
100
AcDbBlockEnd
  0
BLOCK
  5
105
330
104
100
AcDbEntity
  8
0
100
AcDbBlockBegin
  2
_D_2
 70
     0
 10
0.0
 20
0.0
 30
0.0
  3
_D_2
  1

  0
SOLID
  5
107
330
104
100
AcDbEntity
  8
0
  6
Continuous
 62
     7
370
    18
100
AcDbTrace
 10
2.4496172678
 20
2.4653056508
 30
0.0
 11
2.5746172678
 21
2.4453056508
 31
0.0
 12
2.5746172678
 22
2.4853056508
 32
0.0
 13
2.5746172678
 23
2.4853056508
 33
0.0
  0
SOLID
  5
108
330
104
100
AcDbEntity
  8
0
  6
Continuous
 62
     7
370
    18
100
AcDbTrace
 10
3.63071963
 20
2.4653056508
 30
0.0
 11
3.50571963
 21
2.4853056508
 31
0.0
 12
3.50571963
 22
2.4453056508
 32
0.0
 13
3.50571963
 23
2.4453056508
 33
0.0
  0
LINE
  5
109
330
104
100
AcDbEntity
  8
0
  6
Continuous
 62
     7
370
    18
100
AcDbLine
 10
2.8282857158
 20
2.4653056417
 30
0.0
 11
2.8029384932
 21
2.4653056417
 31
0.0
  0
LINE
  5
10A
330
104
100
AcDbEntity
  8
0
  6
Continuous
 62
     7
370
    18
100
AcDbLine
 10
2.8029384932
 20
2.4653056417
 30
0.0
 11
2.8029384932
 21
2.3328982371
 31
0.0
  0
LINE
  5
10B
330
104
100
AcDbEntity
  8
0
  6
Continuous
 62
     7
370
    18
100
AcDbLine
 10
2.8029384932
 20
2.3328982371
 30
0.0
 11
2.8282857158
 21
2.3328982371
 31
0.0
  0
LINE
  5
10C
330
104
100
AcDbEntity
  8
0
  6
Continuous
 62
     7
370
    18
100
AcDbLine
 10
3.2520511637
 20
2.4653056417
 30
0.0
 11
3.2773983863
 21
2.4653056417
 31
0.0
  0
LINE
  5
10D
330
104
100
AcDbEntity
  8
0
  6
Continuous
 62
     7
370
    18
100
AcDbLine
 10
3.2773983863
 20
2.4653056417
 30
0.0
 11
3.2773983863
 21
2.3328982371
 31
0.0
  0
LINE
  5
10E
330
104
100
AcDbEntity
  8
0
  6
Continuous
 62
     7
370
    18
100
AcDbLine
 10
3.2773983863
 20
2.3328982371
 30
0.0
 11
3.2520511637
 21
2.3328982371
 31
0.0
  0
LINE
  5
10F
330
104
100
AcDbEntity
  8
0
  6
Continuous
 62
     7
370
    18
100
AcDbLine
 10
2.4496172678
 20
2.8647348571
 30
0.0
 11
2.4496172678
 21
2.3953056508
 31
0.0
  0
LINE
  5
110
330
104
100
AcDbEntity
  8
0
  6
Continuous
 62
     7
370
    18
100
AcDbLine
 10
3.63071963
 20
2.8647348571
 30
0.0
 11
3.63071963
 21
2.3953056508
 31
0.0
  0
LINE
  5
111
330
104
100
AcDbEntity
  8
0
  6
Continuous
 62
     7
370
    18
100
AcDbLine
 10
2.4496172678
 20
2.4653056508
 30
0.0
 11
2.699258405
 21
2.4653056508
 31
0.0
  0
LINE
  5
112
330
104
100
AcDbEntity
  8
0
  6
Continuous
 62
     7
370
    18
100
AcDbLine
 10
3.63071963
 20
2.4653056508
 30
0.0
 11
3.3810784928
 21
2.4653056508
 31
0.0
  0
MTEXT
  5
113
330
104
100
AcDbEntity
  8
0
  6
Continuous
 62
     7
370
    18
100
AcDbMText
 10
2.7786715184
 20
2.5896261002
 30
0.0
 40
0.0833333333
 41
0.0
 71
     1
 72
     1
  1

  7
SLDTEXTSTYLE0
 73
     1
 44
1.0
  0
MTEXT
  5
114
330
104
100
AcDbEntity
  8
0
  6
Continuous
 62
     7
370
    18
100
AcDbMText
 10
2.8874678096
 20
2.5896261002
 30
0.0
 40
0.0833333333
 41
0.0
 71
     1
 72
     1
  1
1.18in
  7
SLDTEXTSTYLE0
 73
     1
 44
1.0
  0
MTEXT
  5
115
330
104
100
AcDbEntity
  8
0
  6
Continuous
 62
     7
370
    18
100
AcDbMText
 10
2.8282857158
 20
2.4403205442
 30
0.0
 40
0.0833333333
 41
0.0
 71
     1
 72
     1
  1
30.0mm
  7
SLDTEXTSTYLE0
 73
     1
 44
1.0
  0
MTEXT
  5
116
330
104
100
AcDbEntity
  8
0
  6
Continuous
 62
     7
370
    18
100
AcDbMText
 10
3.3652456089
 20
2.5896261002
 30
0.0
 40
0.0833333333
 41
0.0
 71
     1
 72
     1
  1

  7
SLDTEXTSTYLE0
 73
     1
 44
1.0
  0
ENDBLK
  5
106
330
104
100
AcDbEntity
  8
0
100
AcDbBlockEnd
  0
BLOCK
  5
11A
330
119
100
AcDbEntity
  8
0
100
AcDbBlockBegin
  2
_D_3
 70
     0
 10
0.0
 20
0.0
 30
0.0
  3
_D_3
  1

  0
SOLID
  5
11C
330
119
100
AcDbEntity
  8
0
  6
Continuous
 62
     7
370
    18
100
AcDbTrace
 10
4.343203109
 20
2.7142860382
 30
0.0
 11
4.363203109
 21
2.8392860382
 31
0.0
 12
4.323203109
 22
2.8392860382
 32
0.0
 13
4.323203109
 23
2.8392860382
 33
0.0
  0
SOLID
  5
11D
330
119
100
AcDbEntity
  8
0
  6
Continuous
 62
     7
370
    18
100
AcDbTrace
 10
4.343203109
 20
3.5552860382
 30
0.0
 11
4.323203109
 21
3.4302860382
 31
0.0
 12
4.363203109
 22
3.4302860382
 32
0.0
 13
4.363203109
 23
3.4302860382
 33
0.0
  0
LINE
  5
11E
330
119
100
AcDbEntity
  8
0
  6
Continuous
 62
     7
370
    18
100
AcDbLine
 10
4.1313203759
 20
3.1347860291
 30
0.0
 11
4.1059731533
 21
3.1347860291
 31
0.0
  0
LINE
  5
11F
330
119
100
AcDbEntity
  8
0
  6
Continuous
 62
     7
370
    18
100
AcDbLine
 10
4.1059731533
 20
3.1347860291
 30
0.0
 11
4.1059731533
 21
3.0023786245
 31
0.0
  0
LINE
  5
120
330
119
100
AcDbEntity
  8
0
  6
Continuous
 62
     7
370
    18
100
AcDbLine
 10
4.1059731533
 20
3.0023786245
 30
0.0
 11
4.1313203759
 21
3.0023786245
 31
0.0
  0
LINE
  5
121
330
119
100
AcDbEntity
  8
0
  6
Continuous
 62
     7
370
    18
100
AcDbLine
 10
4.5550858238
 20
3.1347860291
 30
0.0
 11
4.5804330464
 21
3.1347860291
 31
0.0
  0
LINE
  5
122
330
119
100
AcDbEntity
  8
0
  6
Continuous
 62
     7
370
    18
100
AcDbLine
 10
4.5804330464
 20
3.1347860291
 30
0.0
 11
4.5804330464
 21
3.0023786245
 31
0.0
  0
LINE
  5
123
330
119
100
AcDbEntity
  8
0
  6
Continuous
 62
     7
370
    18
100
AcDbLine
 10
4.5804330464
 20
3.0023786245
 30
0.0
 11
4.5550858238
 21
3.0023786245
 31
0.0
  0
LINE
  5
124
330
119
100
AcDbEntity
  8
0
  6
Continuous
 62
     7
370
    18
100
AcDbLine
 10
4.0401684489
 20
2.7142860382
 30
0.0
 11
4.413203109
 21
2.7142860382
 31
0.0
  0
LINE
  5
125
330
119
100
AcDbEntity
  8
0
  6
Continuous
 62
     7
370
    18
100
AcDbLine
 10
3.1401684489
 20
3.5552860382
 30
0.0
 11
4.413203109
 21
3.5552860382
 31
0.0
  0
LINE
  5
126
330
119
100
AcDbEntity
  8
0
  6
Continuous
 62
     7
370
    18
100
AcDbLine
 10
4.343203109
 20
2.7142860382
 30
0.0
 11
4.343203109
 21
2.9854804913
 31
0.0
  0
LINE
  5
127
330
119
100
AcDbEntity
  8
0
  6
Continuous
 62
     7
370
    18
100
AcDbLine
 10
4.343203109
 20
3.5552860382
 30
0.0
 11
4.343203109
 21
3.2840915851
 31
0.0
  0
MTEXT
  5
128
330
119
100
AcDbEntity
  8
0
  6
Continuous
 62
     7
370
    18
100
AcDbMText
 10
4.0817061785
 20
3.2591064876
 30
0.0
 40
0.0833333333
 41
0.0
 71
     1
 72
     1
  1

  7
SLDTEXTSTYLE0
 73
     1
 44
1.0
  0
MTEXT
  5
129
330
119
100
AcDbEntity
  8
0
  6
Continuous
 62
     7
370
    18
100
AcDbMText
 10
4.1905024697
 20
3.2591064876
 30
0.0
 40
0.0833333333
 41
0.0
 71
     1
 72
     1
  1
0.84in
  7
SLDTEXTSTYLE0
 73
     1
 44
1.0
  0
MTEXT
  5
12A
330
119
100
AcDbEntity
  8
0
  6
Continuous
 62
     7
370
    18
100
AcDbMText
 10
4.1313203759
 20
3.1098009315
 30
0.0
 40
0.0833333333
 41
0.0
 71
     1
 72
     1
  1
21.4mm
  7
SLDTEXTSTYLE0
 73
     1
 44
1.0
  0
MTEXT
  5
12B
330
119
100
AcDbEntity
  8
0
  6
Continuous
 62
     7
370
    18
100
AcDbMText
 10
4.668280269
 20
3.2591064876
 30
0.0
 40
0.0833333333
 41
0.0
 71
     1
 72
     1
  1

  7
SLDTEXTSTYLE0
 73
     1
 44
1.0
  0
ENDBLK
  5
11B
330
119
100
AcDbEntity
  8
0
100
AcDbBlockEnd
  0
BLOCK
  5
130
330
12F
100
AcDbEntity
  8
0
100
AcDbBlockBegin
  2
SW_CENTERMARKSYMBOL_0
 70
     0
 10
0.0
 20
0.0
 30
0.0
  3
SW_CENTERMARKSYMBOL_0
  1

  0
LINE
  5
132
330
12F
100
AcDbEntity
  8
0
  6
Continuous
 62
     0
370
     0
100
AcDbLine
 10
0.0
 20
0.0
 30
0.0
 11
0.0
 21
0.05
 31
0.0
  0
LINE
  5
133
330
12F
100
AcDbEntity
  8
0
  6
Continuous
 62
     0
370
     0
100
AcDbLine
 10
0.0
 20
0.0
 30
0.0
 11
-0.05
 21
0.0
 31
0.0
  0
LINE
  5
134
330
12F
100
AcDbEntity
  8
0
  6
Continuous
 62
     0
370
     0
100
AcDbLine
 10
0.0
 20
0.0
 30
0.0
 11
0.0
 21
-0.05
 31
0.0
  0
LINE
  5
135
330
12F
100
AcDbEntity
  8
0
  6
Continuous
 62
     0
370
     0
100
AcDbLine
 10
0.0
 20
0.0
 30
0.0
 11
0.05
 21
0.0
 31
0.0
  0
ENDBLK
  5
131
330
12F
100
AcDbEntity
  8
0
100
AcDbBlockEnd
  0
BLOCK
  5
138
330
137
100
AcDbEntity
  8
0
100
AcDbBlockBegin
  2
SW_CENTERMARKSYMBOL_1
 70
     0
 10
0.0
 20
0.0
 30
0.0
  3
SW_CENTERMARKSYMBOL_1
  1

  0
LINE
  5
13A
330
137
100
AcDbEntity
  8
0
  6
Continuous
 62
     0
370
     0
100
AcDbLine
 10
0.0
 20
0.0
 30
0.0
 11
0.0
 21
0.05
 31
0.0
  0
LINE
  5
13B
330
137
100
AcDbEntity
  8
0
  6
Continuous
 62
     0
370
     0
100
AcDbLine
 10
0.0
 20
0.0
 30
0.0
 11
-0.05
 21
0.0
 31
0.0
  0
LINE
  5
13C
330
137
100
AcDbEntity
  8
0
  6
Continuous
 62
     0
370
     0
100
AcDbLine
 10
0.0
 20
0.0
 30
0.0
 11
0.0
 21
-0.05
 31
0.0
  0
LINE
  5
13D
330
137
100
AcDbEntity
  8
0
  6
Continuous
 62
     0
370
     0
100
AcDbLine
 10
0.0
 20
0.0
 30
0.0
 11
0.05
 21
0.0
 31
0.0
  0
ENDBLK
  5
139
330
137
100
AcDbEntity
  8
0
100
AcDbBlockEnd
  0
BLOCK
  5
140
330
13F
100
AcDbEntity
  8
0
100
AcDbBlockBegin
  2
SW_CENTERMARKSYMBOL_2
 70
     0
 10
0.0
 20
0.0
 30
0.0
  3
SW_CENTERMARKSYMBOL_2
  1

  0
LINE
  5
142
330
13F
100
AcDbEntity
  8
0
  6
Continuous
 62
     0
370
     0
100
AcDbLine
 10
0.0
 20
0.0
 30
0.0
 11
0.0
 21
0.05
 31
0.0
  0
LINE
  5
143
330
13F
100
AcDbEntity
  8
0
  6
Continuous
 62
     0
370
     0
100
AcDbLine
 10
0.0
 20
0.0
 30
0.0
 11
-0.05
 21
0.0
 31
0.0
  0
LINE
  5
144
330
13F
100
AcDbEntity
  8
0
  6
Continuous
 62
     0
370
     0
100
AcDbLine
 10
0.0
 20
0.0
 30
0.0
 11
0.0
 21
-0.05
 31
0.0
  0
LINE
  5
145
330
13F
100
AcDbEntity
  8
0
  6
Continuous
 62
     0
370
     0
100
AcDbLine
 10
0.0
 20
0.0
 30
0.0
 11
0.05
 21
0.0
 31
0.0
  0
ENDBLK
  5
141
330
13F
100
AcDbEntity
  8
0
100
AcDbBlockEnd
  0
BLOCK
  5
148
330
147
100
AcDbEntity
  8
0
100
AcDbBlockBegin
  2
SW_CENTERMARKSYMBOL_3
 70
     0
 10
0.0
 20
0.0
 30
0.0
  3
SW_CENTERMARKSYMBOL_3
  1

  0
LINE
  5
14A
330
147
100
AcDbEntity
  8
0
  6
Continuous
 62
     0
370
     0
100
AcDbLine
 10
0.0
 20
0.0
 30
0.0
 11
0.0
 21
0.05
 31
0.0
  0
LINE
  5
14B
330
147
100
AcDbEntity
  8
0
  6
Continuous
 62
     0
370
     0
100
AcDbLine
 10
0.0
 20
0.0
 30
0.0
 11
-0.05
 21
0.0
 31
0.0
  0
LINE
  5
14C
330
147
100
AcDbEntity
  8
0
  6
Continuous
 62
     0
370
     0
100
AcDbLine
 10
0.0
 20
0.0
 30
0.0
 11
0.0
 21
-0.05
 31
0.0
  0
LINE
  5
14D
330
147
100
AcDbEntity
  8
0
  6
Continuous
 62
     0
370
     0
100
AcDbLine
 10
0.0
 20
0.0
 30
0.0
 11
0.05
 21
0.0
 31
0.0
  0
ENDBLK
  5
149
330
147
100
AcDbEntity
  8
0
100
AcDbBlockEnd
  0
BLOCK
  5
150
330
14F
100
AcDbEntity
  8
0
100
AcDbBlockBegin
  2
SW_CENTERMARKSYMBOL_4
 70
     0
 10
0.0
 20
0.0
 30
0.0
  3
SW_CENTERMARKSYMBOL_4
  1

  0
LINE
  5
152
330
14F
100
AcDbEntity
  8
0
  6
Continuous
 62
     0
370
     0
100
AcDbLine
 10
0.0
 20
0.0
 30
0.0
 11
0.0
 21
0.05
 31
0.0
  0
LINE
  5
153
330
14F
100
AcDbEntity
  8
0
  6
Continuous
 62
     0
370
     0
100
AcDbLine
 10
0.0
 20
0.0
 30
0.0
 11
-0.05
 21
0.0
 31
0.0
  0
LINE
  5
154
330
14F
100
AcDbEntity
  8
0
  6
Continuous
 62
     0
370
     0
100
AcDbLine
 10
0.0
 20
0.0
 30
0.0
 11
0.0
 21
-0.05
 31
0.0
  0
LINE
  5
155
330
14F
100
AcDbEntity
  8
0
  6
Continuous
 62
     0
370
     0
100
AcDbLine
 10
0.0
 20
0.0
 30
0.0
 11
0.05
 21
0.0
 31
0.0
  0
ENDBLK
  5
151
330
14F
100
AcDbEntity
  8
0
100
AcDbBlockEnd
  0
BLOCK
  5
160
330
15F
100
AcDbEntity
  8
0
100
AcDbBlockBegin
  2
_D_4
 70
     0
 10
0.0
 20
0.0
 30
0.0
  3
_D_4
  1

  0
SOLID
  5
162
330
15F
100
AcDbEntity
  8
0
  6
Continuous
 62
     7
370
    18
100
AcDbTrace
 10
6.3175847166
 20
2.3205842666
 30
0.0
 11
6.1925847166
 21
2.3405842666
 31
0.0
 12
6.1925847166
 22
2.3005842666
 32
0.0
 13
6.1925847166
 23
2.3005842666
 33
0.0
  0
SOLID
  5
163
330
15F
100
AcDbEntity
  8
0
  6
Continuous
 62
     7
370
    18
100
AcDbTrace
 10
6.5175847166
 20
2.3205842666
 30
0.0
 11
6.6425847166
 21
2.3005842666
 31
0.0
 12
6.6425847166
 22
2.3405842666
 32
0.0
 13
6.6425847166
 23
2.3405842666
 33
0.0
  0
LINE
  5
164
330
15F
100
AcDbEntity
  8
0
  6
Continuous
 62
     7
370
    18
100
AcDbLine
 10
5.5065677913
 20
2.3205842574
 30
0.0
 11
5.4812205687
 21
2.3205842574
 31
0.0
  0
LINE
  5
165
330
15F
100
AcDbEntity
  8
0
  6
Continuous
 62
     7
370
    18
100
AcDbLine
 10
5.4812205687
 20
2.3205842574
 30
0.0
 11
5.4812205687
 21
2.1881768528
 31
0.0
  0
LINE
  5
166
330
15F
100
AcDbEntity
  8
0
  6
Continuous
 62
     7
370
    18
100
AcDbLine
 10
5.4812205687
 20
2.1881768528
 30
0.0
 11
5.5065677913
 21
2.1881768528
 31
0.0
  0
LINE
  5
167
330
15F
100
AcDbEntity
  8
0
  6
Continuous
 62
     7
370
    18
100
AcDbLine
 10
5.8687591405
 20
2.3205842574
 30
0.0
 11
5.8941063631
 21
2.3205842574
 31
0.0
  0
LINE
  5
168
330
15F
100
AcDbEntity
  8
0
  6
Continuous
 62
     7
370
    18
100
AcDbLine
 10
5.8941063631
 20
2.3205842574
 30
0.0
 11
5.8941063631
 21
2.1881768528
 31
0.0
  0
LINE
  5
169
330
15F
100
AcDbEntity
  8
0
  6
Continuous
 62
     7
370
    18
100
AcDbLine
 10
5.8941063631
 20
2.1881768528
 30
0.0
 11
5.8687591405
 21
2.1881768528
 31
0.0
  0
LINE
  5
16A
330
15F
100
AcDbEntity
  8
0
  6
Continuous
 62
     7
370
    18
100
AcDbLine
 10
6.3175847166
 20
2.6642860382
 30
0.0
 11
6.3175847166
 21
2.2505842666
 31
0.0
  0
LINE
  5
16B
330
15F
100
AcDbEntity
  8
0
  6
Continuous
 62
     7
370
    18
100
AcDbLine
 10
6.5175847166
 20
2.6642860382
 30
0.0
 11
6.5175847166
 21
2.2505842666
 31
0.0
  0
LINE
  5
16C
330
15F
100
AcDbEntity
  8
0
  6
Continuous
 62
     7
370
    18
100
AcDbLine
 10
6.3175847166
 20
2.3205842666
 30
0.0
 11
5.997786433
 21
2.3205842666
 31
0.0
  0
LINE
  5
16D
330
15F
100
AcDbEntity
  8
0
  6
Continuous
 62
     7
370
    18
100
AcDbLine
 10
6.5175847166
 20
2.3205842666
 30
0.0
 11
6.7675847166
 21
2.3205842666
 31
0.0
  0
MTEXT
  5
16E
330
15F
100
AcDbEntity
  8
0
  6
Continuous
 62
     7
370
    18
100
AcDbMText
 10
5.4569535939
 20
2.4449047159
 30
0.0
 40
0.0833333333
 41
0.0
 71
     1
 72
     1
  1

  7
SLDTEXTSTYLE0
 73
     1
 44
1.0
  0
MTEXT
  5
16F
330
15F
100
AcDbEntity
  8
0
  6
Continuous
 62
     7
370
    18
100
AcDbMText
 10
5.5349628357
 20
2.4449047159
 30
0.0
 40
0.0833333333
 41
0.0
 71
     1
 72
     1
  1
0.20in
  7
SLDTEXTSTYLE0
 73
     1
 44
1.0
  0
MTEXT
  5
170
330
15F
100
AcDbEntity
  8
0
  6
Continuous
 62
     7
370
    18
100
AcDbMText
 10
5.5065677913
 20
2.2955991599
 30
0.0
 40
0.0833333333
 41
0.0
 71
     1
 72
     1
  1
5.1mm
  7
SLDTEXTSTYLE0
 73
     1
 44
1.0
  0
MTEXT
  5
171
330
15F
100
AcDbEntity
  8
0
  6
Continuous
 62
     7
370
    18
100
AcDbMText
 10
5.9819535491
 20
2.4449047159
 30
0.0
 40
0.0833333333
 41
0.0
 71
     1
 72
     1
  1

  7
SLDTEXTSTYLE0
 73
     1
 44
1.0
  0
ENDBLK
  5
161
330
15F
100
AcDbEntity
  8
0
100
AcDbBlockEnd
  0
BLOCK
  5
174
330
173
100
AcDbEntity
  8
0
100
AcDbBlockBegin
  2
_D_5
 70
     0
 10
0.0
 20
0.0
 30
0.0
  3
_D_5
  1

  0
SOLID
  5
176
330
173
100
AcDbEntity
  8
0
  6
Continuous
 62
     7
370
    18
100
AcDbTrace
 10
6.3175847166
 20
4.9381701372
 30
0.0
 11
6.4425847166
 21
4.9181701372
 31
0.0
 12
6.4425847166
 22
4.9581701372
 32
0.0
 13
6.4425847166
 23
4.9581701372
 33
0.0
  0
SOLID
  5
177
330
173
100
AcDbEntity
  8
0
  6
Continuous
 62
     7
370
    18
100
AcDbTrace
 10
8.5675847166
 20
4.9381701372
 30
0.0
 11
8.4425847166
 21
4.9581701372
 31
0.0
 12
8.4425847166
 22
4.9181701372
 32
0.0
 13
8.4425847166
 23
4.9181701372
 33
0.0
  0
LINE
  5
178
330
173
100
AcDbEntity
  8
0
  6
Continuous
 62
     7
370
    18
100
AcDbLine
 10
7.2307019834
 20
4.9381701281
 30
0.0
 11
7.2053547608
 21
4.9381701281
 31
0.0
  0
LINE
  5
179
330
173
100
AcDbEntity
  8
0
  6
Continuous
 62
     7
370
    18
100
AcDbLine
 10
7.2053547608
 20
4.9381701281
 30
0.0
 11
7.2053547608
 21
4.8057627235
 31
0.0
  0
LINE
  5
17A
330
173
100
AcDbEntity
  8
0
  6
Continuous
 62
     7
370
    18
100
AcDbLine
 10
7.2053547608
 20
4.8057627235
 30
0.0
 11
7.2307019834
 21
4.8057627235
 31
0.0
  0
LINE
  5
17B
330
173
100
AcDbEntity
  8
0
  6
Continuous
 62
     7
370
    18
100
AcDbLine
 10
7.6544674314
 20
4.9381701281
 30
0.0
 11
7.679814654
 21
4.9381701281
 31
0.0
  0
LINE
  5
17C
330
173
100
AcDbEntity
  8
0
  6
Continuous
 62
     7
370
    18
100
AcDbLine
 10
7.679814654
 20
4.9381701281
 30
0.0
 11
7.679814654
 21
4.8057627235
 31
0.0
  0
LINE
  5
17D
330
173
100
AcDbEntity
  8
0
  6
Continuous
 62
     7
370
    18
100
AcDbLine
 10
7.679814654
 20
4.8057627235
 30
0.0
 11
7.6544674314
 21
4.8057627235
 31
0.0
  0
LINE
  5
17E
330
173
100
AcDbEntity
  8
0
  6
Continuous
 62
     7
370
    18
100
AcDbLine
 10
6.3175847166
 20
4.6642860382
 30
0.0
 11
6.3175847166
 21
5.0081701372
 31
0.0
  0
LINE
  5
17F
330
173
100
AcDbEntity
  8
0
  6
Continuous
 62
     7
370
    18
100
AcDbLine
 10
8.5675847166
 20
4.6642860382
 30
0.0
 11
8.5675847166
 21
5.0081701372
 31
0.0
  0
LINE
  5
180
330
173
100
AcDbEntity
  8
0
  6
Continuous
 62
     7
370
    18
100
AcDbLine
 10
6.3175847166
 20
4.9381701372
 30
0.0
 11
7.1016746727
 21
4.9381701372
 31
0.0
  0
LINE
  5
181
330
173
100
AcDbEntity
  8
0
  6
Continuous
 62
     7
370
    18
100
AcDbLine
 10
8.5675847166
 20
4.9381701372
 30
0.0
 11
7.7834947605
 21
4.9381701372
 31
0.0
  0
MTEXT
  5
182
330
173
100
AcDbEntity
  8
0
  6
Continuous
 62
     7
370
    18
100
AcDbMText
 10
7.1810877861
 20
5.0624905866
 30
0.0
 40
0.0833333333
 41
0.0
 71
     1
 72
     1
  1

  7
SLDTEXTSTYLE0
 73
     1
 44
1.0
  0
MTEXT
  5
183
330
173
100
AcDbEntity
  8
0
  6
Continuous
 62
     7
370
    18
100
AcDbMText
 10
7.2898840773
 20
5.0624905866
 30
0.0
 40
0.0833333333
 41
0.0
 71
     1
 72
     1
  1
2.25in
  7
SLDTEXTSTYLE0
 73
     1
 44
1.0
  0
MTEXT
  5
184
330
173
100
AcDbEntity
  8
0
  6
Continuous
 62
     7
370
    18
100
AcDbMText
 10
7.2307019834
 20
4.9131850305
 30
0.0
 40
0.0833333333
 41
0.0
 71
     1
 72
     1
  1
57.2mm
  7
SLDTEXTSTYLE0
 73
     1
 44
1.0
  0
MTEXT
  5
185
330
173
100
AcDbEntity
  8
0
  6
Continuous
 62
     7
370
    18
100
AcDbMText
 10
7.7676618766
 20
5.0624905866
 30
0.0
 40
0.0833333333
 41
0.0
 71
     1
 72
     1
  1

  7
SLDTEXTSTYLE0
 73
     1
 44
1.0
  0
ENDBLK
  5
175
330
173
100
AcDbEntity
  8
0
100
AcDbBlockEnd
  0
BLOCK
  5
188
330
187
100
AcDbEntity
  8
0
100
AcDbBlockBegin
  2
_D_6
 70
     0
 10
0.0
 20
0.0
 30
0.0
  3
_D_6
  1

  0
SOLID
  5
18A
330
187
100
AcDbEntity
  8
0
  6
Continuous
 62
     7
370
    18
100
AcDbTrace
 10
5.9238839292
 20
2.7142860382
 30
0.0
 11
5.9438839292
 21
2.8392860382
 31
0.0
 12
5.9038839292
 22
2.8392860382
 32
0.0
 13
5.9038839292
 23
2.8392860382
 33
0.0
  0
SOLID
  5
18B
330
187
100
AcDbEntity
  8
0
  6
Continuous
 62
     7
370
    18
100
AcDbTrace
 10
5.9238839292
 20
4.6142860382
 30
0.0
 11
5.9038839292
 21
4.4892860382
 31
0.0
 12
5.9438839292
 22
4.4892860382
 32
0.0
 13
5.9438839292
 23
4.4892860382
 33
0.0
  0
LINE
  5
18C
330
187
100
AcDbEntity
  8
0
  6
Continuous
 62
     7
370
    18
100
AcDbLine
 10
5.712001196
 20
3.6642860291
 30
0.0
 11
5.6866539734
 21
3.6642860291
 31
0.0
  0
LINE
  5
18D
330
187
100
AcDbEntity
  8
0
  6
Continuous
 62
     7
370
    18
100
AcDbLine
 10
5.6866539734
 20
3.6642860291
 30
0.0
 11
5.6866539734
 21
3.5318786245
 31
0.0
  0
LINE
  5
18E
330
187
100
AcDbEntity
  8
0
  6
Continuous
 62
     7
370
    18
100
AcDbLine
 10
5.6866539734
 20
3.5318786245
 30
0.0
 11
5.712001196
 21
3.5318786245
 31
0.0
  0
LINE
  5
18F
330
187
100
AcDbEntity
  8
0
  6
Continuous
 62
     7
370
    18
100
AcDbLine
 10
6.135766644
 20
3.6642860291
 30
0.0
 11
6.1611138666
 21
3.6642860291
 31
0.0
  0
LINE
  5
190
330
187
100
AcDbEntity
  8
0
  6
Continuous
 62
     7
370
    18
100
AcDbLine
 10
6.1611138666
 20
3.6642860291
 30
0.0
 11
6.1611138666
 21
3.5318786245
 31
0.0
  0
LINE
  5
191
330
187
100
AcDbEntity
  8
0
  6
Continuous
 62
     7
370
    18
100
AcDbLine
 10
6.1611138666
 20
3.5318786245
 30
0.0
 11
6.135766644
 21
3.5318786245
 31
0.0
  0
LINE
  5
192
330
187
100
AcDbEntity
  8
0
  6
Continuous
 62
     7
370
    18
100
AcDbLine
 10
6.2675847166
 20
2.7142860382
 30
0.0
 11
5.8538839292
 21
2.7142860382
 31
0.0
  0
LINE
  5
193
330
187
100
AcDbEntity
  8
0
  6
Continuous
 62
     7
370
    18
100
AcDbLine
 10
6.2675847166
 20
4.6142860382
 30
0.0
 11
5.8538839292
 21
4.6142860382
 31
0.0
  0
LINE
  5
194
330
187
100
AcDbEntity
  8
0
  6
Continuous
 62
     7
370
    18
100
AcDbLine
 10
5.9238839292
 20
2.7142860382
 30
0.0
 11
5.9238839292
 21
3.5149804913
 31
0.0
  0
LINE
  5
195
330
187
100
AcDbEntity
  8
0
  6
Continuous
 62
     7
370
    18
100
AcDbLine
 10
5.9238839292
 20
4.6142860382
 30
0.0
 11
5.9238839292
 21
3.8135915851
 31
0.0
  0
MTEXT
  5
196
330
187
100
AcDbEntity
  8
0
  6
Continuous
 62
     7
370
    18
100
AcDbMText
 10
5.6623869987
 20
3.7886064876
 30
0.0
 40
0.0833333333
 41
0.0
 71
     1
 72
     1
  1

  7
SLDTEXTSTYLE0
 73
     1
 44
1.0
  0
MTEXT
  5
197
330
187
100
AcDbEntity
  8
0
  6
Continuous
 62
     7
370
    18
100
AcDbMText
 10
5.7711832899
 20
3.7886064876
 30
0.0
 40
0.0833333333
 41
0.0
 71
     1
 72
     1
  1
1.90in
  7
SLDTEXTSTYLE0
 73
     1
 44
1.0
  0
MTEXT
  5
198
330
187
100
AcDbEntity
  8
0
  6
Continuous
 62
     7
370
    18
100
AcDbMText
 10
5.712001196
 20
3.6393009315
 30
0.0
 40
0.0833333333
 41
0.0
 71
     1
 72
     1
  1
48.3mm
  7
SLDTEXTSTYLE0
 73
     1
 44
1.0
  0
MTEXT
  5
199
330
187
100
AcDbEntity
  8
0
  6
Continuous
 62
     7
370
    18
100
AcDbMText
 10
6.2489610892
 20
3.7886064876
 30
0.0
 40
0.0833333333
 41
0.0
 71
     1
 72
     1
  1

  7
SLDTEXTSTYLE0
 73
     1
 44
1.0
  0
ENDBLK
  5
189
330
187
100
AcDbEntity
  8
0
100
AcDbBlockEnd
  0
BLOCK
  5
28E
330
28D
100
AcDbEntity
  8
0
100
AcDbBlockBegin
  2
_D_7
 70
     0
 10
0.0
 20
0.0
 30
0.0
  3
_D_7
  1

  0
SOLID
  5
290
330
28D
100
AcDbEntity
  8
0
  6
Continuous
 62
     7
370
    18
100
AcDbTrace
 10
1.2240247481
 20
7.6018647492
 30
0.0
 11
1.2040247481
 21
7.4768647492
 31
0.0
 12
1.2440247481
 22
7.4768647492
 32
0.0
 13
1.2440247481
 23
7.4768647492
 33
0.0
  0
SOLID
  5
291
330
28D
100
AcDbEntity
  8
0
  6
Continuous
 62
     7
370
    18
100
AcDbTrace
 10
1.2240247481
 20
5.3518647492
 30
0.0
 11
1.2440247481
 21
5.4768647492
 31
0.0
 12
1.2040247481
 22
5.4768647492
 32
0.0
 13
1.2040247481
 23
5.4768647492
 33
0.0
  0
LINE
  5
292
330
28D
100
AcDbEntity
  8
0
  6
Continuous
 62
     7
370
    18
100
AcDbLine
 10
1.012142015
 20
6.47686474
 30
0.0
 11
0.9867947924
 21
6.47686474
 31
0.0
  0
LINE
  5
293
330
28D
100
AcDbEntity
  8
0
  6
Continuous
 62
     7
370
    18
100
AcDbLine
 10
0.9867947924
 20
6.47686474
 30
0.0
 11
0.9867947924
 21
6.3444573355
 31
0.0
  0
LINE
  5
294
330
28D
100
AcDbEntity
  8
0
  6
Continuous
 62
     7
370
    18
100
AcDbLine
 10
0.9867947924
 20
6.3444573355
 30
0.0
 11
1.012142015
 21
6.3444573355
 31
0.0
  0
LINE
  5
295
330
28D
100
AcDbEntity
  8
0
  6
Continuous
 62
     7
370
    18
100
AcDbLine
 10
1.4359074629
 20
6.47686474
 30
0.0
 11
1.4612546855
 21
6.47686474
 31
0.0
  0
LINE
  5
296
330
28D
100
AcDbEntity
  8
0
  6
Continuous
 62
     7
370
    18
100
AcDbLine
 10
1.4612546855
 20
6.47686474
 30
0.0
 11
1.4612546855
 21
6.3444573355
 31
0.0
  0
LINE
  5
297
330
28D
100
AcDbEntity
  8
0
  6
Continuous
 62
     7
370
    18
100
AcDbLine
 10
1.4612546855
 20
6.3444573355
 30
0.0
 11
1.4359074629
 21
6.3444573355
 31
0.0
  0
LINE
  5
298
330
28D
100
AcDbEntity
  8
0
  6
Continuous
 62
     7
370
    18
100
AcDbLine
 10
2.0401684489
 20
7.6018647492
 30
0.0
 11
1.1540247481
 21
7.6018647492
 31
0.0
  0
LINE
  5
299
330
28D
100
AcDbEntity
  8
0
  6
Continuous
 62
     7
370
    18
100
AcDbLine
 10
2.0401684489
 20
5.3518647492
 30
0.0
 11
1.1540247481
 21
5.3518647492
 31
0.0
  0
LINE
  5
29A
330
28D
100
AcDbEntity
  8
0
  6
Continuous
 62
     7
370
    18
100
AcDbLine
 10
1.2240247481
 20
7.6018647492
 30
0.0
 11
1.2240247481
 21
6.6261702961
 31
0.0
  0
LINE
  5
29B
330
28D
100
AcDbEntity
  8
0
  6
Continuous
 62
     7
370
    18
100
AcDbLine
 10
1.2240247481
 20
5.3518647492
 30
0.0
 11
1.2240247481
 21
6.3275592023
 31
0.0
  0
MTEXT
  5
29C
330
28D
100
AcDbEntity
  8
0
  6
Continuous
 62
     7
370
    18
100
AcDbMText
 10
0.9625278176
 20
6.6011851986
 30
0.0
 40
0.0833333333
 41
0.0
 71
     1
 72
     1
  1

  7
SLDTEXTSTYLE0
 73
     1
 44
1.0
  0
MTEXT
  5
29D
330
28D
100
AcDbEntity
  8
0
  6
Continuous
 62
     7
370
    18
100
AcDbMText
 10
1.0713241088
 20
6.6011851986
 30
0.0
 40
0.0833333333
 41
0.0
 71
     1
 72
     1
  1
2.25in
  7
SLDTEXTSTYLE0
 73
     1
 44
1.0
  0
MTEXT
  5
29E
330
28D
100
AcDbEntity
  8
0
  6
Continuous
 62
     7
370
    18
100
AcDbMText
 10
1.012142015
 20
6.4518796425
 30
0.0
 40
0.0833333333
 41
0.0
 71
     1
 72
     1
  1
57.2mm
  7
SLDTEXTSTYLE0
 73
     1
 44
1.0
  0
MTEXT
  5
29F
330
28D
100
AcDbEntity
  8
0
  6
Continuous
 62
     7
370
    18
100
AcDbMText
 10
1.5491019081
 20
6.6011851986
 30
0.0
 40
0.0833333333
 41
0.0
 71
     1
 72
     1
  1

  7
SLDTEXTSTYLE0
 73
     1
 44
1.0
  0
ENDBLK
  5
28F
330
28D
100
AcDbEntity
  8
0
100
AcDbBlockEnd
  0
BLOCK
  5
2A2
330
2A1
100
AcDbEntity
  8
0
100
AcDbBlockBegin
  2
_D_8
 70
     0
 10
0.0
 20
0.0
 30
0.0
  3
_D_8
  1

  0
SOLID
  5
2A4
330
2A1
100
AcDbEntity
  8
0
  6
Continuous
 62
     7
370
    18
100
AcDbTrace
 10
1.6790283239
 20
7.6018647492
 30
0.0
 11
1.6590283239
 21
7.4768647492
 31
0.0
 12
1.6990283239
 22
7.4768647492
 32
0.0
 13
1.6990283239
 23
7.4768647492
 33
0.0
  0
SOLID
  5
2A5
330
2A1
100
AcDbEntity
  8
0
  6
Continuous
 62
     7
370
    18
100
AcDbTrace
 10
1.6790283239
 20
6.3518647492
 30
0.0
 11
1.6990283239
 21
6.4768647492
 31
0.0
 12
1.6590283239
 22
6.4768647492
 32
0.0
 13
1.6590283239
 23
6.4768647492
 33
0.0
  0
LINE
  5
2A6
330
2A1
100
AcDbEntity
  8
0
  6
Continuous
 62
     7
370
    18
100
AcDbLine
 10
1.4671455908
 20
6.97686474
 30
0.0
 11
1.4417983682
 21
6.97686474
 31
0.0
  0
LINE
  5
2A7
330
2A1
100
AcDbEntity
  8
0
  6
Continuous
 62
     7
370
    18
100
AcDbLine
 10
1.4417983682
 20
6.97686474
 30
0.0
 11
1.4417983682
 21
6.8444573355
 31
0.0
  0
LINE
  5
2A8
330
2A1
100
AcDbEntity
  8
0
  6
Continuous
 62
     7
370
    18
100
AcDbLine
 10
1.4417983682
 20
6.8444573355
 30
0.0
 11
1.4671455908
 21
6.8444573355
 31
0.0
  0
LINE
  5
2A9
330
2A1
100
AcDbEntity
  8
0
  6
Continuous
 62
     7
370
    18
100
AcDbLine
 10
1.8909110387
 20
6.97686474
 30
0.0
 11
1.9162582613
 21
6.97686474
 31
0.0
  0
LINE
  5
2AA
330
2A1
100
AcDbEntity
  8
0
  6
Continuous
 62
     7
370
    18
100
AcDbLine
 10
1.9162582613
 20
6.97686474
 30
0.0
 11
1.9162582613
 21
6.8444573355
 31
0.0
  0
LINE
  5
2AB
330
2A1
100
AcDbEntity
  8
0
  6
Continuous
 62
     7
370
    18
100
AcDbLine
 10
1.9162582613
 20
6.8444573355
 30
0.0
 11
1.8909110387
 21
6.8444573355
 31
0.0
  0
LINE
  5
2AC
330
2A1
100
AcDbEntity
  8
0
  6
Continuous
 62
     7
370
    18
100
AcDbLine
 10
2.0401684489
 20
7.6018647492
 30
0.0
 11
1.6090283239
 21
7.6018647492
 31
0.0
  0
LINE
  5
2AD
330
2A1
100
AcDbEntity
  8
0
  6
Continuous
 62
     7
370
    18
100
AcDbLine
 10
2.9401684489
 20
6.3518647492
 30
0.0
 11
1.6090283239
 21
6.3518647492
 31
0.0
  0
LINE
  5
2AE
330
2A1
100
AcDbEntity
  8
0
  6
Continuous
 62
     7
370
    18
100
AcDbLine
 10
1.6790283239
 20
7.6018647492
 30
0.0
 11
1.6790283239
 21
7.1261702961
 31
0.0
  0
LINE
  5
2AF
330
2A1
100
AcDbEntity
  8
0
  6
Continuous
 62
     7
370
    18
100
AcDbLine
 10
1.6790283239
 20
6.3518647492
 30
0.0
 11
1.6790283239
 21
6.8275592023
 31
0.0
  0
MTEXT
  5
2B0
330
2A1
100
AcDbEntity
  8
0
  6
Continuous
 62
     7
370
    18
100
AcDbMText
 10
1.4175313934
 20
7.1011851986
 30
0.0
 40
0.0833333333
 41
0.0
 71
     1
 72
     1
  1

  7
SLDTEXTSTYLE0
 73
     1
 44
1.0
  0
MTEXT
  5
2B1
330
2A1
100
AcDbEntity
  8
0
  6
Continuous
 62
     7
370
    18
100
AcDbMText
 10
1.5263276846
 20
7.1011851986
 30
0.0
 40
0.0833333333
 41
0.0
 71
     1
 72
     1
  1
1.25in
  7
SLDTEXTSTYLE0
 73
     1
 44
1.0
  0
MTEXT
  5
2B2
330
2A1
100
AcDbEntity
  8
0
  6
Continuous
 62
     7
370
    18
100
AcDbMText
 10
1.4671455908
 20
6.9518796425
 30
0.0
 40
0.0833333333
 41
0.0
 71
     1
 72
     1
  1
31.8mm
  7
SLDTEXTSTYLE0
 73
     1
 44
1.0
  0
MTEXT
  5
2B3
330
2A1
100
AcDbEntity
  8
0
  6
Continuous
 62
     7
370
    18
100
AcDbMText
 10
2.0041054839
 20
7.1011851986
 30
0.0
 40
0.0833333333
 41
0.0
 71
     1
 72
     1
  1

  7
SLDTEXTSTYLE0
 73
     1
 44
1.0
  0
ENDBLK
  5
2A3
330
2A1
100
AcDbEntity
  8
0
100
AcDbBlockEnd
  0
BLOCK
  5
2B7
330
2B6
100
AcDbEntity
  8
0
100
AcDbBlockBegin
  2
_D_9
 70
     0
 10
0.0
 20
0.0
 30
0.0
  3
_D_9
  1

  0
SOLID
  5
2B9
330
2B6
100
AcDbEntity
  8
0
  6
Continuous
 62
     7
370
    18
100
AcDbTrace
 10
1.8975004194
 20
7.6018647492
 30
0.0
 11
1.9175004194
 21
7.7268647492
 31
0.0
 12
1.8775004194
 22
7.7268647492
 32
0.0
 13
1.8775004194
 23
7.7268647492
 33
0.0
  0
SOLID
  5
2BA
330
2B6
100
AcDbEntity
  8
0
  6
Continuous
 62
     7
370
    18
100
AcDbTrace
 10
1.8975004194
 20
7.4328647492
 30
0.0
 11
1.8775004194
 21
7.3078647492
 31
0.0
 12
1.9175004194
 22
7.3078647492
 32
0.0
 13
1.9175004194
 23
7.3078647492
 33
0.0
  0
LINE
  5
2BB
330
2B6
100
AcDbEntity
  8
0
  6
Continuous
 62
     7
370
    18
100
AcDbLine
 10
1.2224555509
 20
7.8993542617
 30
0.0
 11
1.1971083283
 21
7.8993542617
 31
0.0
  0
LINE
  5
2BC
330
2B6
100
AcDbEntity
  8
0
  6
Continuous
 62
     7
370
    18
100
AcDbLine
 10
1.1971083283
 20
7.8993542617
 30
0.0
 11
1.1971083283
 21
7.7669468571
 31
0.0
  0
LINE
  5
2BD
330
2B6
100
AcDbEntity
  8
0
  6
Continuous
 62
     7
370
    18
100
AcDbLine
 10
1.1971083283
 20
7.7669468571
 30
0.0
 11
1.2224555509
 21
7.7669468571
 31
0.0
  0
LINE
  5
2BE
330
2B6
100
AcDbEntity
  8
0
  6
Continuous
 62
     7
370
    18
100
AcDbLine
 10
1.5846469001
 20
7.8993542617
 30
0.0
 11
1.6099941227
 21
7.8993542617
 31
0.0
  0
LINE
  5
2BF
330
2B6
100
AcDbEntity
  8
0
  6
Continuous
 62
     7
370
    18
100
AcDbLine
 10
1.6099941227
 20
7.8993542617
 30
0.0
 11
1.6099941227
 21
7.7669468571
 31
0.0
  0
LINE
  5
2C0
330
2B6
100
AcDbEntity
  8
0
  6
Continuous
 62
     7
370
    18
100
AcDbLine
 10
1.6099941227
 20
7.7669468571
 30
0.0
 11
1.5846469001
 21
7.7669468571
 31
0.0
  0
LINE
  5
2C1
330
2B6
100
AcDbEntity
  8
0
  6
Continuous
 62
     7
370
    18
100
AcDbLine
 10
2.0401684489
 20
7.6018647492
 30
0.0
 11
1.8275004194
 21
7.6018647492
 31
0.0
  0
LINE
  5
2C2
330
2B6
100
AcDbEntity
  8
0
  6
Continuous
 62
     7
370
    18
100
AcDbLine
 10
2.1901684489
 20
7.4328647492
 30
0.0
 11
1.8275004194
 21
7.4328647492
 31
0.0
  0
LINE
  5
2C3
330
2B6
100
AcDbEntity
  8
0
  6
Continuous
 62
     7
370
    18
100
AcDbLine
 10
1.7475004194
 20
7.8993542709
 30
0.0
 11
1.8975004194
 21
7.8993542709
 31
0.0
  0
LINE
  5
2C4
330
2B6
100
AcDbEntity
  8
0
  6
Continuous
 62
     7
370
    18
100
AcDbLine
 10
1.8975004194
 20
7.8993542709
 30
0.0
 11
1.8975004194
 21
7.6018647492
 31
0.0
  0
LINE
  5
2C5
330
2B6
100
AcDbEntity
  8
0
  6
Continuous
 62
     7
370
    18
100
AcDbLine
 10
1.8975004194
 20
7.4328647492
 30
0.0
 11
1.8975004194
 21
7.1828647492
 31
0.0
  0
MTEXT
  5
2C6
330
2B6
100
AcDbEntity
  8
0
  6
Continuous
 62
     7
370
    18
100
AcDbMText
 10
1.1728413535
 20
8.0236747202
 30
0.0
 40
0.0833333333
 41
0.0
 71
     1
 72
     1
  1

  7
SLDTEXTSTYLE0
 73
     1
 44
1.0
  0
MTEXT
  5
2C7
330
2B6
100
AcDbEntity
  8
0
  6
Continuous
 62
     7
370
    18
100
AcDbMText
 10
1.2508505953
 20
8.0236747202
 30
0.0
 40
0.0833333333
 41
0.0
 71
     1
 72
     1
  1
0.17in
  7
SLDTEXTSTYLE0
 73
     1
 44
1.0
  0
MTEXT
  5
2C8
330
2B6
100
AcDbEntity
  8
0
  6
Continuous
 62
     7
370
    18
100
AcDbMText
 10
1.2224555509
 20
7.8743691642
 30
0.0
 40
0.0833333333
 41
0.0
 71
     1
 72
     1
  1
4.3mm
  7
SLDTEXTSTYLE0
 73
     1
 44
1.0
  0
MTEXT
  5
2C9
330
2B6
100
AcDbEntity
  8
0
  6
Continuous
 62
     7
370
    18
100
AcDbMText
 10
1.6978413087
 20
8.0236747202
 30
0.0
 40
0.0833333333
 41
0.0
 71
     1
 72
     1
  1

  7
SLDTEXTSTYLE0
 73
     1
 44
1.0
  0
ENDBLK
  5
2B8
330
2B6
100
AcDbEntity
  8
0
100
AcDbBlockEnd
  0
BLOCK
  5
2CC
330
2CB
100
AcDbEntity
  8
0
100
AcDbBlockBegin
  2
_D_10
 70
     0
 10
0.0
 20
0.0
 30
0.0
  3
_D_10
  1

  0
SOLID
  5
2CE
330
2CB
100
AcDbEntity
  8
0
  6
Continuous
 62
     7
370
    18
100
AcDbTrace
 10
2.0901684489
 20
8.2317869933
 30
0.0
 11
1.9651684489
 21
8.2517869933
 31
0.0
 12
1.9651684489
 22
8.2117869933
 32
0.0
 13
1.9651684489
 23
8.2117869933
 33
0.0
  0
SOLID
  5
2CF
330
2CB
100
AcDbEntity
  8
0
  6
Continuous
 62
     7
370
    18
100
AcDbTrace
 10
2.2901684489
 20
8.2317869933
 30
0.0
 11
2.4151684489
 21
8.2117869933
 31
0.0
 12
2.4151684489
 22
8.2517869933
 32
0.0
 13
2.4151684489
 23
8.2517869933
 33
0.0
  0
LINE
  5
2D0
330
2CB
100
AcDbEntity
  8
0
  6
Continuous
 62
     7
370
    18
100
AcDbLine
 10
2.6610816043
 20
8.2317869841
 30
0.0
 11
2.6357343817
 21
8.2317869841
 31
0.0
  0
LINE
  5
2D1
330
2CB
100
AcDbEntity
  8
0
  6
Continuous
 62
     7
370
    18
100
AcDbLine
 10
2.6357343817
 20
8.2317869841
 30
0.0
 11
2.6357343817
 21
8.0993795795
 31
0.0
  0
LINE
  5
2D2
330
2CB
100
AcDbEntity
  8
0
  6
Continuous
 62
     7
370
    18
100
AcDbLine
 10
2.6357343817
 20
8.0993795795
 30
0.0
 11
2.6610816043
 21
8.0993795795
 31
0.0
  0
LINE
  5
2D3
330
2CB
100
AcDbEntity
  8
0
  6
Continuous
 62
     7
370
    18
100
AcDbLine
 10
3.0232729536
 20
8.2317869841
 30
0.0
 11
3.0486201762
 21
8.2317869841
 31
0.0
  0
LINE
  5
2D4
330
2CB
100
AcDbEntity
  8
0
  6
Continuous
 62
     7
370
    18
100
AcDbLine
 10
3.0486201762
 20
8.2317869841
 30
0.0
 11
3.0486201762
 21
8.0993795795
 31
0.0
  0
LINE
  5
2D5
330
2CB
100
AcDbEntity
  8
0
  6
Continuous
 62
     7
370
    18
100
AcDbLine
 10
3.0486201762
 20
8.0993795795
 30
0.0
 11
3.0232729536
 21
8.0993795795
 31
0.0
  0
LINE
  5
2D6
330
2CB
100
AcDbEntity
  8
0
  6
Continuous
 62
     7
370
    18
100
AcDbLine
 10
2.0901684489
 20
7.6518647492
 30
0.0
 11
2.0901684489
 21
8.3017869933
 31
0.0
  0
LINE
  5
2D7
330
2CB
100
AcDbEntity
  8
0
  6
Continuous
 62
     7
370
    18
100
AcDbLine
 10
2.2901684489
 20
7.5328647492
 30
0.0
 11
2.2901684489
 21
8.3017869933
 31
0.0
  0
LINE
  5
2D8
330
2CB
100
AcDbEntity
  8
0
  6
Continuous
 62
     7
370
    18
100
AcDbLine
 10
2.0901684489
 20
8.2317869933
 30
0.0
 11
1.8401684489
 21
8.2317869933
 31
0.0
  0
LINE
  5
2D9
330
2CB
100
AcDbEntity
  8
0
  6
Continuous
 62
     7
370
    18
100
AcDbLine
 10
2.2901684489
 20
8.2317869933
 30
0.0
 11
2.5320542935
 21
8.2317869933
 31
0.0
  0
MTEXT
  5
2DA
330
2CB
100
AcDbEntity
  8
0
  6
Continuous
 62
     7
370
    18
100
AcDbMText
 10
2.6114674069
 20
8.3561074427
 30
0.0
 40
0.0833333333
 41
0.0
 71
     1
 72
     1
  1

  7
SLDTEXTSTYLE0
 73
     1
 44
1.0
  0
MTEXT
  5
2DB
330
2CB
100
AcDbEntity
  8
0
  6
Continuous
 62
     7
370
    18
100
AcDbMText
 10
2.6894766488
 20
8.3561074427
 30
0.0
 40
0.0833333333
 41
0.0
 71
     1
 72
     1
  1
0.20in
  7
SLDTEXTSTYLE0
 73
     1
 44
1.0
  0
MTEXT
  5
2DC
330
2CB
100
AcDbEntity
  8
0
  6
Continuous
 62
     7
370
    18
100
AcDbMText
 10
2.6610816043
 20
8.2068018866
 30
0.0
 40
0.0833333333
 41
0.0
 71
     1
 72
     1
  1
5.1mm
  7
SLDTEXTSTYLE0
 73
     1
 44
1.0
  0
MTEXT
  5
2DD
330
2CB
100
AcDbEntity
  8
0
  6
Continuous
 62
     7
370
    18
100
AcDbMText
 10
3.1364673621
 20
8.3561074427
 30
0.0
 40
0.0833333333
 41
0.0
 71
     1
 72
     1
  1

  7
SLDTEXTSTYLE0
 73
     1
 44
1.0
  0
ENDBLK
  5
2CD
330
2CB
100
AcDbEntity
  8
0
100
AcDbBlockEnd
  0
BLOCK
  5
2E0
330
2DF
100
AcDbEntity
  8
0
100
AcDbBlockBegin
  2
_D_11
 70
     0
 10
0.0
 20
0.0
 30
0.0
  3
_D_11
  1

  0
SOLID
  5
2E2
330
2DF
100
AcDbEntity
  8
0
  6
Continuous
 62
     7
370
    18
100
AcDbTrace
 10
3.0401684489
 20
7.9955665209
 30
0.0
 11
2.9151684489
 21
8.0155665209
 31
0.0
 12
2.9151684489
 22
7.9755665209
 32
0.0
 13
2.9151684489
 23
7.9755665209
 33
0.0
  0
SOLID
  5
2E3
330
2DF
100
AcDbEntity
  8
0
  6
Continuous
 62
     7
370
    18
100
AcDbTrace
 10
3.9901684489
 20
7.9955665209
 30
0.0
 11
4.1151684489
 21
7.9755665209
 31
0.0
 12
4.1151684489
 22
8.0155665209
 32
0.0
 13
4.1151684489
 23
8.0155665209
 33
0.0
  0
LINE
  5
2E4
330
2DF
100
AcDbEntity
  8
0
  6
Continuous
 62
     7
370
    18
100
AcDbLine
 10
3.3032857158
 20
7.9955665117
 30
0.0
 11
3.2779384932
 21
7.9955665117
 31
0.0
  0
LINE
  5
2E5
330
2DF
100
AcDbEntity
  8
0
  6
Continuous
 62
     7
370
    18
100
AcDbLine
 10
3.2779384932
 20
7.9955665117
 30
0.0
 11
3.2779384932
 21
7.8631591071
 31
0.0
  0
LINE
  5
2E6
330
2DF
100
AcDbEntity
  8
0
  6
Continuous
 62
     7
370
    18
100
AcDbLine
 10
3.2779384932
 20
7.8631591071
 30
0.0
 11
3.3032857158
 21
7.8631591071
 31
0.0
  0
LINE
  5
2E7
330
2DF
100
AcDbEntity
  8
0
  6
Continuous
 62
     7
370
    18
100
AcDbLine
 10
3.7270511637
 20
7.9955665117
 30
0.0
 11
3.7523983863
 21
7.9955665117
 31
0.0
  0
LINE
  5
2E8
330
2DF
100
AcDbEntity
  8
0
  6
Continuous
 62
     7
370
    18
100
AcDbLine
 10
3.7523983863
 20
7.9955665117
 30
0.0
 11
3.7523983863
 21
7.8631591071
 31
0.0
  0
LINE
  5
2E9
330
2DF
100
AcDbEntity
  8
0
  6
Continuous
 62
     7
370
    18
100
AcDbLine
 10
3.7523983863
 20
7.8631591071
 30
0.0
 11
3.7270511637
 21
7.8631591071
 31
0.0
  0
LINE
  5
2EA
330
2DF
100
AcDbEntity
  8
0
  6
Continuous
 62
     7
370
    18
100
AcDbLine
 10
3.0401684489
 20
6.4518647492
 30
0.0
 11
3.0401684489
 21
8.0655665209
 31
0.0
  0
LINE
  5
2EB
330
2DF
100
AcDbEntity
  8
0
  6
Continuous
 62
     7
370
    18
100
AcDbLine
 10
3.9901684489
 20
7.6518647492
 30
0.0
 11
3.9901684489
 21
8.0655665209
 31
0.0
  0
LINE
  5
2EC
330
2DF
100
AcDbEntity
  8
0
  6
Continuous
 62
     7
370
    18
100
AcDbLine
 10
3.0401684489
 20
7.9955665209
 30
0.0
 11
2.7901684489
 21
7.9955665209
 31
0.0
  0
LINE
  5
2ED
330
2DF
100
AcDbEntity
  8
0
  6
Continuous
 62
     7
370
    18
100
AcDbLine
 10
3.9901684489
 20
7.9955665209
 30
0.0
 11
4.2401684489
 21
7.9955665209
 31
0.0
  0
MTEXT
  5
2EE
330
2DF
100
AcDbEntity
  8
0
  6
Continuous
 62
     7
370
    18
100
AcDbMText
 10
3.2536715184
 20
8.1198869702
 30
0.0
 40
0.0833333333
 41
0.0
 71
     1
 72
     1
  1

  7
SLDTEXTSTYLE0
 73
     1
 44
1.0
  0
MTEXT
  5
2EF
330
2DF
100
AcDbEntity
  8
0
  6
Continuous
 62
     7
370
    18
100
AcDbMText
 10
3.3624678096
 20
8.1198869702
 30
0.0
 40
0.0833333333
 41
0.0
 71
     1
 72
     1
  1
0.95in
  7
SLDTEXTSTYLE0
 73
     1
 44
1.0
  0
MTEXT
  5
2F0
330
2DF
100
AcDbEntity
  8
0
  6
Continuous
 62
     7
370
    18
100
AcDbMText
 10
3.3032857158
 20
7.9705814142
 30
0.0
 40
0.0833333333
 41
0.0
 71
     1
 72
     1
  1
24.1mm
  7
SLDTEXTSTYLE0
 73
     1
 44
1.0
  0
MTEXT
  5
2F1
330
2DF
100
AcDbEntity
  8
0
  6
Continuous
 62
     7
370
    18
100
AcDbMText
 10
3.8402456089
 20
8.1198869702
 30
0.0
 40
0.0833333333
 41
0.0
 71
     1
 72
     1
  1

  7
SLDTEXTSTYLE0
 73
     1
 44
1.0
  0
ENDBLK
  5
2E1
330
2DF
100
AcDbEntity
  8
0
100
AcDbBlockEnd
  0
BLOCK
  5
2F3
330
2F2
100
AcDbEntity
  8
0
100
AcDbBlockBegin
  2
SW_NOTE_5
 70
     0
 10
0.0
 20
0.0
 30
0.0
  3
SW_NOTE_5
  1

  0
MTEXT
  5
2F5
330
2F2
100
AcDbEntity
  8
0
  6
Continuous
 62
     0
370
     0
100
AcDbMText
 10
0.021568215
 20
0.0420387739
 30
0.0
 40
0.0833333333
 41
0.0
 71
     1
 72
     1
  1
COUNTERSINK HOLE
  7
SLDTEXTSTYLE0
 73
     1
 44
1.0
  0
MTEXT
  5
2F6
330
2F2
100
AcDbEntity
  8
0
  6
Continuous
 62
     0
370
     0
100
AcDbMText
 10
0.021568215
 20
-0.0690723359
 30
0.0
 40
0.0833333333
 41
0.0
 71
     1
 72
     1
  1
FOR #4-40 SCREW
  7
SLDTEXTSTYLE0
 73
     1
 44
1.0
  0
ENDBLK
  5
2F4
330
2F2
100
AcDbEntity
  8
0
100
AcDbBlockEnd
  0
BLOCK
  5
2FC
330
2FB
100
AcDbEntity
  8
0
100
AcDbBlockBegin
  2
SW_CENTERMARKSYMBOL_5
 70
     0
 10
0.0
 20
0.0
 30
0.0
  3
SW_CENTERMARKSYMBOL_5
  1

  0
LINE
  5
2FE
330
2FB
100
AcDbEntity
  8
0
  6
Continuous
 62
     0
370
     0
100
AcDbLine
 10
0.0
 20
0.0
 30
0.0
 11
0.0
 21
0.05
 31
0.0
  0
LINE
  5
2FF
330
2FB
100
AcDbEntity
  8
0
  6
Continuous
 62
     0
370
     0
100
AcDbLine
 10
0.0
 20
0.0
 30
0.0
 11
-0.05
 21
0.0
 31
0.0
  0
LINE
  5
300
330
2FB
100
AcDbEntity
  8
0
  6
Continuous
 62
     0
370
     0
100
AcDbLine
 10
0.0
 20
0.0
 30
0.0
 11
0.0
 21
-0.05
 31
0.0
  0
LINE
  5
301
330
2FB
100
AcDbEntity
  8
0
  6
Continuous
 62
     0
370
     0
100
AcDbLine
 10
0.0
 20
0.0
 30
0.0
 11
0.05
 21
0.0
 31
0.0
  0
ENDBLK
  5
2FD
330
2FB
100
AcDbEntity
  8
0
100
AcDbBlockEnd
  0
BLOCK
  5
304
330
303
100
AcDbEntity
  8
0
100
AcDbBlockBegin
  2
SW_CENTERMARKSYMBOL_6
 70
     0
 10
0.0
 20
0.0
 30
0.0
  3
SW_CENTERMARKSYMBOL_6
  1

  0
LINE
  5
306
330
303
100
AcDbEntity
  8
0
  6
Continuous
 62
     0
370
     0
100
AcDbLine
 10
0.0
 20
0.0
 30
0.0
 11
0.0
 21
0.05
 31
0.0
  0
LINE
  5
307
330
303
100
AcDbEntity
  8
0
  6
Continuous
 62
     0
370
     0
100
AcDbLine
 10
0.0
 20
0.0
 30
0.0
 11
-0.05
 21
0.0
 31
0.0
  0
LINE
  5
308
330
303
100
AcDbEntity
  8
0
  6
Continuous
 62
     0
370
     0
100
AcDbLine
 10
0.0
 20
0.0
 30
0.0
 11
0.0
 21
-0.05
 31
0.0
  0
LINE
  5
309
330
303
100
AcDbEntity
  8
0
  6
Continuous
 62
     0
370
     0
100
AcDbLine
 10
0.0
 20
0.0
 30
0.0
 11
0.05
 21
0.0
 31
0.0
  0
ENDBLK
  5
305
330
303
100
AcDbEntity
  8
0
100
AcDbBlockEnd
  0
BLOCK
  5
30C
330
30B
100
AcDbEntity
  8
0
100
AcDbBlockBegin
  2
SW_CENTERMARKSYMBOL_7
 70
     0
 10
0.0
 20
0.0
 30
0.0
  3
SW_CENTERMARKSYMBOL_7
  1

  0
LINE
  5
30E
330
30B
100
AcDbEntity
  8
0
  6
Continuous
 62
     0
370
     0
100
AcDbLine
 10
0.0
 20
0.0
 30
0.0
 11
0.0
 21
0.05
 31
0.0
  0
LINE
  5
30F
330
30B
100
AcDbEntity
  8
0
  6
Continuous
 62
     0
370
     0
100
AcDbLine
 10
0.0
 20
0.0
 30
0.0
 11
-0.05
 21
0.0
 31
0.0
  0
LINE
  5
310
330
30B
100
AcDbEntity
  8
0
  6
Continuous
 62
     0
370
     0
100
AcDbLine
 10
0.0
 20
0.0
 30
0.0
 11
0.0
 21
-0.05
 31
0.0
  0
LINE
  5
311
330
30B
100
AcDbEntity
  8
0
  6
Continuous
 62
     0
370
     0
100
AcDbLine
 10
0.0
 20
0.0
 30
0.0
 11
0.05
 21
0.0
 31
0.0
  0
ENDBLK
  5
30D
330
30B
100
AcDbEntity
  8
0
100
AcDbBlockEnd
  0
ENDSEC
  0
SECTION
  2
ENTITIES
  0
LINE
  5
81
330
1F
100
AcDbEntity
  8
0
  6
Continuous
 62
     7
370
    18
100
AcDbLine
 10
0.0621791378
 20
8.4506055117
 30
0.0
 11
10.9444569626
 21
8.4506055117
 31
0.0
  0
LINE
  5
82
330
1F
100
AcDbEntity
  8
0
  6
Continuous
 62
     7
370
    18
100
AcDbLine
 10
0.0621791378
 20
8.4506055117
 30
0.0
 11
0.0621791378
 21
0.035557648
 31
0.0
  0
LINE
  5
83
330
1F
100
AcDbEntity
  8
0
  6
Continuous
 62
     7
370
    18
100
AcDbLine
 10
10.9444569626
 20
0.035557648
 30
0.0
 11
0.0621791378
 21
0.035557648
 31
0.0
  0
LINE
  5
84
330
1F
100
AcDbEntity
  8
0
  6
Continuous
 62
     7
370
    18
100
AcDbLine
 10
10.9444569626
 20
0.035557648
 30
0.0
 11
10.9444569626
 21
8.4506055117
 31
0.0
  0
LINE
  5
85
330
1F
100
AcDbEntity
  8
0
  6
Continuous
 62
     7
370
    18
100
AcDbLine
 10
8.4938096065
 20
0.4840901186
 30
0.0
 11
6.7571952625
 21
0.4840901186
 31
0.0
  0
LINE
  5
86
330
1F
100
AcDbEntity
  8
0
  6
Continuous
 62
     7
370
    18
100
AcDbLine
 10
6.7571952625
 20
0.4840901186
 30
0.0
 11
6.7571952625
 21
1.030163002
 31
0.0
  0
LINE
  5
87
330
1F
100
AcDbEntity
  8
0
  6
Continuous
 62
     7
370
    18
100
AcDbLine
 10
6.7571952625
 20
0.035557648
 30
0.0
 11
6.7571952625
 21
1.030163002
 31
0.0
  0
LINE
  5
88
330
1F
100
AcDbEntity
  8
0
  6
Continuous
 62
     7
370
    18
100
AcDbLine
 10
8.4938096065
 20
0.6756085809
 30
0.0
 11
10.9444569626
 21
0.6756085809
 31
0.0
  0
LINE
  5
89
330
1F
100
AcDbEntity
  8
0
  6
Continuous
 62
     7
370
    18
100
AcDbLine
 10
8.4938096065
 20
1.3873799542
 30
0.0
 11
8.4938096065
 21
0.035557648
 31
0.0
  0
LINE
  5
8A
330
1F
100
AcDbEntity
  8
0
  6
Continuous
 62
     7
370
    18
100
AcDbLine
 10
8.4938096065
 20
1.030163002
 30
0.0
 11
6.7571952625
 21
1.030163002
 31
0.0
  0
LINE
  5
8B
330
1F
100
AcDbEntity
  8
0
  6
Continuous
 62
     7
370
    18
100
AcDbLine
 10
8.4938096065
 20
0.3598787426
 30
0.0
 11
10.9444569626
 21
0.3598787426
 31
0.0
  0
LINE
  5
8C
330
1F
100
AcDbEntity
  8
0
  6
Continuous
 62
     7
370
    18
100
AcDbLine
 10
8.4938096065
 20
0.6662079686
 30
0.0
 11
6.7571952625
 21
0.6662079686
 31
0.0
  0
LINE
  5
8D
330
1F
100
AcDbEntity
  8
0
  6
Continuous
 62
     7
370
    18
100
AcDbLine
 10
8.4938096065
 20
0.8459606517
 30
0.0
 11
6.7571952625
 21
0.8459606517
 31
0.0
  0
LINE
  5
8E
330
1F
100
AcDbEntity
  8
0
  6
Continuous
 62
     7
370
    18
100
AcDbLine
 10
7.3281027587
 20
1.030163002
 30
0.0
 11
7.3281027587
 21
0.4840901186
 31
0.0
  0
LINE
  5
8F
330
1F
100
AcDbEntity
  8
0
  6
Continuous
 62
     7
370
    18
100
AcDbLine
 10
7.8037240401
 20
1.030163002
 30
0.0
 11
7.8037240401
 21
0.4840901186
 31
0.0
  0
LINE
  5
90
330
1F
100
AcDbEntity
  8
0
  6
Continuous
 62
     7
370
    18
100
AcDbLine
 10
9.990119718
 20
0.3598787426
 30
0.0
 11
9.990119718
 21
0.035557648
 31
0.0
  0
LINE
  5
91
330
1F
100
AcDbEntity
  8
0
  6
Continuous
 62
     7
370
    18
100
AcDbLine
 10
6.7571952625
 20
0.4840901186
 30
0.0
 11
6.7571952625
 21
0.297745443
 31
0.0
  0
LINE
  5
92
330
1F
100
AcDbEntity
  8
0
  6
Continuous
 62
     7
370
    18
100
AcDbLine
 10
6.7571952625
 20
0.297745443
 30
0.0
 11
8.4938096065
 21
0.297745443
 31
0.0
  0
LINE
  5
93
330
1F
100
AcDbEntity
  8
0
  6
Continuous
 62
     7
370
    18
100
AcDbLine
 10
6.7571952625
 20
0.297745443
 30
0.0
 11
6.7571952625
 21
1.3873799542
 31
0.0
  0
LINE
  5
94
330
1F
100
AcDbEntity
  8
0
  6
Continuous
 62
     7
370
    18
100
AcDbLine
 10
6.7571952625
 20
1.3873799542
 30
0.0
 11
8.4938096065
 21
1.3873799542
 31
0.0
  0
LINE
  5
95
330
1F
100
AcDbEntity
  8
0
  6
Continuous
 62
     7
370
    18
100
AcDbLine
 10
10.6365495992
 20
0.6756085809
 30
0.0
 11
10.6365495992
 21
0.3598787426
 31
0.0
  0
LINE
  5
96
330
1F
100
AcDbEntity
  8
0
  6
Continuous
 62
     7
370
    18
100
AcDbLine
 10
8.4938096065
 20
1.3873799542
 30
0.0
 11
10.9444569626
 21
1.3873799542
 31
0.0
  0
LINE
  5
97
330
1F
100
AcDbEntity
  8
0
  6
Continuous
 62
     7
370
    18
100
AcDbLine
 10
10.9444569626
 20
1.3873799542
 30
0.0
 11
10.9444569626
 21
1.9698084888
 31
0.0
  0
LINE
  5
98
330
1F
100
AcDbEntity
  8
0
  6
Continuous
 62
     7
370
    18
100
AcDbLine
 10
8.4938096065
 20
0.9800288797
 30
0.0
 11
10.9444569626
 21
0.9800288797
 31
0.0
  0
INSERT
  5
99
330
1F
100
AcDbEntity
  8
0
  6
Continuous
 62
     7
100
AcDbBlockReference
  2
Third Angle Projection Block
 10
4.6348905679
 20
0.6108753523
 30
0.0
 41
0.8
 42
0.8
 43
0.8
  0
INSERT
  5
A4
330
1F
100
AcDbEntity
  8
0
  6
Continuous
 62
     7
370
     0
100
AcDbBlockReference
  2
SW_NOTE_0
 10
0.3080404784
 20
1.1609956014
 30
0.0
  0
MTEXT
  5
A5
330
1F
100
AcDbEntity
  8
0
  6
Continuous
 62
     7
370
     0
100
AcDbMText
 10
10.7943805235
 20
0.5227176726
 30
0.0
 40
0.125
 41
0.0
 71
     2
 72
     1
  1
B
  7
SLDTEXTSTYLE0
 73
     1
 44
1.0
  0
MTEXT
  5
A6
330
1F
100
AcDbEntity
  8
0
  6
Continuous
 62
     7
370
     0
100
AcDbMText
 10
9.2434203467
 20
0.2019943461
 30
0.0
 40
0.125
 41
0.0
 71
     2
 72
     1
  1
SICPSM1
  7
SLDTEXTSTYLE0
 73
     1
 44
1.0
  0
MTEXT
  5
A7
330
1F
100
AcDbEntity
  8
0
  6
Continuous
 62
     7
370
     0
100
AcDbMText
 10
8.5204715199
 20
0.6623747189
 30
0.0
 40
0.0833333333
 41
0.0
 71
     1
 72
     1
  1
MATERIAL
  7
SLDTEXTSTYLE0
 73
     1
 44
1.0
  0
MTEXT
  5
A8
330
1F
100
AcDbEntity
  8
0
  6
Continuous
 62
     7
370
     0
100
AcDbMText
 10
6.8594860853
 20
0.7895493672
 30
0.0
 40
0.0729166667
 41
0.0
 71
     1
 72
     1
  1
DRAWN
  7
SLDTEXTSTYLE0
 73
     1
 44
1.0
  0
MTEXT
  5
A9
330
1F
100
AcDbEntity
  8
0
  6
Continuous
 62
     7
370
     0
100
AcDbMText
 10
6.7872445848
 20
0.613335314
 30
0.0
 40
0.0729166667
 41
0.0
 71
     1
 72
     1
  1
APPROVAL
  7
SLDTEXTSTYLE0
 73
     1
 44
1.0
  0
MTEXT
  5
AA
330
1F
100
AcDbEntity
  8
0
  6
Continuous
 62
     7
370
     0
100
AcDbMText
 10
10.6936137314
 20
0.6373332609
 30
0.0
 40
0.0833333333
 41
0.0
 71
     1
 72
     1
  1
REV
  7
SLDTEXTSTYLE0
 73
     1
 44
1.0
  0
MTEXT
  5
AB
330
1F
100
AcDbEntity
  8
0
  6
Continuous
 62
     7
370
     0
100
AcDbMText
 10
7.4919633718
 20
0.7999100272
 30
0.0
 40
0.0833333333
 41
0.0
 71
     1
 72
     1
  1
DT
  7
SLDTEXTSTYLE0
 73
     1
 44
1.0
  0
MTEXT
  5
AC
330
1F
100
AcDbEntity
  8
0
  6
Continuous
 62
     7
370
     0
100
AcDbMText
 10
7.4919633718
 20
0.623695974
 30
0.0
 40
0.0833333333
 41
0.0
 71
     1
 72
     1
  1
BW
  7
SLDTEXTSTYLE0
 73
     1
 44
1.0
  0
MTEXT
  5
AD
330
1F
100
AcDbEntity
  8
0
  6
Continuous
 62
     7
370
     0
100
AcDbMText
 10
7.8687497515
 20
0.7999100272
 30
0.0
 40
0.0833333333
 41
0.0
 71
     1
 72
     1
  1
21/JAN/19
  7
SLDTEXTSTYLE0
 73
     1
 44
1.0
  0
MTEXT
  5
AE
330
1F
100
AcDbEntity
  8
0
  6
Continuous
 62
     7
370
     0
100
AcDbMText
 10
8.0163191884
 20
0.9772495896
 30
0.0
 40
0.0833333333
 41
0.0
 71
     1
 72
     1
  1
DATE
  7
SLDTEXTSTYLE0
 73
     1
 44
1.0
  0
MTEXT
  5
AF
330
1F
100
AcDbEntity
  8
0
  6
Continuous
 62
     7
370
     0
100
AcDbMText
 10
7.8687497515
 20
0.623695974
 30
0.0
 40
0.0833333333
 41
0.0
 71
     1
 72
     1
  1
21/JAN/19
  7
SLDTEXTSTYLE0
 73
     1
 44
1.0
  0
MTEXT
  5
B1
330
1F
100
AcDbEntity
  8
0
  6
Continuous
 62
     7
370
     0
100
AcDbMText
 10
9.0316104912
 20
1.0943207896
 30
0.0
 40
0.0833333333
 41
0.0
 71
     1
 72
     1
  1
w w w . t h o r  l a b s . c o m
  7
SLDTEXTSTYLE1
 73
     1
 44
1.0
  0
MTEXT
  5
B2
330
1F
100
AcDbEntity
  8
0
  6
Continuous
 62
     7
370
     0
100
AcDbMText
 10
8.5315119501
 20
0.328719653
 30
0.0
 40
0.0833333333
 41
0.0
 71
     1
 72
     1
  1
ITEM #
  7
SLDTEXTSTYLE0
 73
     1
 44
1.0
  0
MTEXT
  5
B3
330
1F
100
AcDbEntity
  8
0
  6
Continuous
 62
     7
370
     0
100
AcDbMText
 10
10.0209370115
 20
0.328719653
 30
0.0
 40
0.0833333333
 41
0.0
 71
     1
 72
     1
  1
APPROX WEIGHT
  7
SLDTEXTSTYLE0
 73
     1
 44
1.0
  0
MTEXT
  5
B4
330
1F
100
AcDbEntity
  8
0
  6
Continuous
 62
     7
370
     0
100
AcDbMText
 10
9.5778321492
 20
0.5423937234
 30
0.0
 40
0.1041666667
 41
0.0
 71
     2
 72
     1
  1
BLACK ANODIZED ALUMINUM
  7
SLDTEXTSTYLE0
 73
     1
 44
1.0
  0
MTEXT
  5
B5
330
1F
100
AcDbEntity
  8
0
  6
Continuous
 62
     7
370
     0
100
AcDbMText
 10
10.4790491378
 20
0.2019943461
 30
0.0
 40
0.125
 41
0.0
 71
     2
 72
     1
  1
0.05 kg
  7
SLDTEXTSTYLE0
 73
     1
 44
1.0
  0
INSERT
  5
BB
330
1F
100
AcDbEntity
  8
0
  6
Continuous
 62
     7
370
     0
100
AcDbBlockReference
  2
SW_NOTE_1
 10
6.8835832285
 20
0.1754273811
 30
0.0
  0
INSERT
  5
C1
330
1F
100
AcDbEntity
  8
0
  6
Continuous
 62
     7
370
     0
100
AcDbBlockReference
  2
SW_NOTE_2
 10
6.8719828753
 20
1.2001390658
 30
0.0
  0
MTEXT
  5
C2
330
1F
100
AcDbEntity
  8
0
  6
Continuous
 62
     7
370
     0
100
AcDbMText
 10
7.3987149145
 20
0.9772495896
 30
0.0
 40
0.0833333333
 41
0.0
 71
     1
 72
     1
  1
NAME
  7
SLDTEXTSTYLE0
 73
     1
 44
1.0
  0
INSERT
  5
C8
330
1F
100
AcDbEntity
  8
0
  6
Continuous
 62
     7
370
     0
100
AcDbBlockReference
  2
SW_NOTE_3
 10
2.3078923918
 20
0.3219551564
 30
0.0
  0
INSERT
  5
CE
330
1F
100
AcDbEntity
  8
0
  6
Continuous
 62
     7
370
     0
100
AcDbBlockReference
  2
SW_NOTE_4
 10
8.5776752151
 20
0.8035988253
 30
0.0
  0
MTEXT
  5
CF
330
1F
100
AcDbEntity
  8
0
  6
Continuous
 62
     7
370
     0
100
AcDbMText
 10
7.0281258754
 20
0.4200025137
 30
0.0
 40
0.0625
 41
0.0
 71
     1
 72
     1
  1
COPYRIGHT © 2019 BY THORLABS
  7
SLDTEXTSTYLE0
 73
     1
 44
1.0
  0
LINE
  5
D0
330
1F
100
AcDbEntity
  8
0
  6
Continuous
 62
     7
370
    18
100
AcDbLine
 10
3.9901684411
 20
2.7142860672
 30
0.0
 11
2.0901684567
 21
2.7142860672
 31
0.0
  0
LINE
  5
D1
330
1F
100
AcDbEntity
  8
0
  6
Continuous
 62
     7
370
    18
100
AcDbLine
 10
2.0901684567
 20
4.6142860516
 30
0.0
 11
2.0901684567
 21
2.7142860672
 31
0.0
  0
CIRCLE
  5
D2
330
1F
100
AcDbEntity
  8
0
  6
Continuous
 62
     7
370
    18
100
AcDbCircle
 10
3.0401684489
 20
3.5552860382
 30
0.0
 40
0.5174999999999996
  0
CIRCLE
  5
D3
330
1F
100
AcDbEntity
  8
0
  6
Continuous
 62
     7
370
    18
100
AcDbCircle
 10
3.63071963
 20
2.9647348571
 30
0.0
 40
0.0559999999999996
  0
CIRCLE
  5
D4
330
1F
100
AcDbEntity
  8
0
  6
Continuous
 62
     7
370
    18
100
AcDbCircle
 10
3.63071963
 20
4.1458372193
 30
0.0
 40
0.0559999999999996
  0
CIRCLE
  5
D5
330
1F
100
AcDbEntity
  8
0
  6
Continuous
 62
     7
370
    18
100
AcDbCircle
 10
2.4496172678
 20
2.9647348571
 30
0.0
 40
0.0559999999999992
  0
LINE
  5
D6
330
1F
100
AcDbEntity
  8
0
  6
Continuous
 62
     7
370
    18
100
AcDbLine
 10
3.9901684411
 20
2.7142860672
 30
0.0
 11
3.9901684411
 21
4.6142860516
 31
0.0
  0
LINE
  5
D7
330
1F
100
AcDbEntity
  8
0
  6
Continuous
 62
     7
370
    18
100
AcDbLine
 10
3.9901684411
 20
4.6142860516
 30
0.0
 11
2.0901684567
 21
4.6142860516
 31
0.0
  0
CIRCLE
  5
D8
330
1F
100
AcDbEntity
  8
0
  6
Continuous
 62
     7
370
    18
100
AcDbCircle
 10
2.4496172678
 20
4.1458372193
 30
0.0
 40
0.0559999999999992
  0
DIMENSION
  5
D9
330
1F
100
AcDbEntity
  8
0
  6
Continuous
 62
     7
370
    18
100
AcDbDimension
  2
_D
 10
3.9901684489
 20
5.0079868256
 30
0.0
 11
3.0401684489
 21
5.0079868256
 31
0.0
 70
   160
  1
<>
 71
     2
 42
-1.0
  3
SLDDIMSTYLE0
100
AcDbAlignedDimension
 13
2.0901684489
 23
4.6142860382
 33
0.0
 14
3.9901684489
 24
4.6142860382
 34
0.0
100
AcDbRotatedDimension
  0
DIMENSION
  5
EE
330
1F
100
AcDbEntity
  8
0
  6
Continuous
 62
     7
370
    18
100
AcDbDimension
  2
_D_1
 10
1.5305682366
 20
2.9647348571
 30
0.0
 11
1.5305682366
 21
3.5552860382
 31
0.0
 70
   160
  1
<>
 71
     2
 42
-1.0
  3
SLDDIMSTYLE1
100
AcDbAlignedDimension
 13
2.3996172678
 23
4.1458372193
 33
0.0
 14
2.3996172678
 24
2.9647348571
 34
0.0
 50
90.0
100
AcDbRotatedDimension
  0
DIMENSION
  5
103
330
1F
100
AcDbEntity
  8
0
  6
Continuous
 62
     7
370
    18
100
AcDbDimension
  2
_D_2
 10
3.63071963
 20
2.4653056508
 30
0.0
 11
3.0401684489
 21
2.4653056508
 31
0.0
 70
   160
  1
<>
 71
     2
 42
-1.0
  3
SLDDIMSTYLE1
100
AcDbAlignedDimension
 13
2.4496172678
 23
2.9147348571
 33
0.0
 14
3.63071963
 24
2.9147348571
 34
0.0
100
AcDbRotatedDimension
  0
DIMENSION
  5
117
330
1F
100
AcDbEntity
  8
0
  6
Continuous
 62
     7
370
    18
100
AcDbDimension
  2
_D_3
 10
4.343203109
 20
3.5552860382
 30
0.0
 11
4.343203109
 21
3.1347860382
 31
0.0
 70
   160
  1
<>
 71
     2
 42
-1.0
  3
SLDDIMSTYLE2
100
AcDbAlignedDimension
 13
3.9901684489
 23
2.7142860382
 33
0.0
 14
3.0901684489
 24
3.5552860382
 34
0.0
 50
90.0
100
AcDbRotatedDimension
  0
MTEXT
  5
12C
330
1F
100
AcDbEntity
  8
0
  6
Continuous
 62
     7
370
     0
100
AcDbMText
 10
4.128594496
 20
4.0123735329
 30
0.0
 40
0.0833333333
 41
0.0
 71
     1
 72
     1
  1
1.035-40 THREAD
  7
SLDTEXTSTYLE0
 73
     1
 44
1.0
  0
LEADER
  5
12E
330
1F
100
AcDbEntity
  8
0
  6
Continuous
 62
     7
370
     0
100
AcDbLeader
  3
SLDDIMSTYLE3
 76
     3
 10
3.499157286
 20
3.7943163657
 30
0.0
 10
3.857266197
 20
3.9772988903
 30
0.0
 10
4.107266197
 20
3.9772988903
 30
0.0
  0
INSERT
  5
136
330
1F
100
AcDbEntity
  8
0
  6
Continuous
 62
     7
370
     0
100
AcDbBlockReference
  2
SW_CENTERMARKSYMBOL_0
 10
3.0401684489
 20
3.5552860382
 30
0.0
  0
INSERT
  5
13E
330
1F
100
AcDbEntity
  8
0
  6
Continuous
 62
     7
370
     0
100
AcDbBlockReference
  2
SW_CENTERMARKSYMBOL_1
 10
2.4496172678
 20
4.1458372193
 30
0.0
  0
INSERT
  5
146
330
1F
100
AcDbEntity
  8
0
  6
Continuous
 62
     7
370
     0
100
AcDbBlockReference
  2
SW_CENTERMARKSYMBOL_2
 10
3.63071963
 20
4.1458372193
 30
0.0
  0
INSERT
  5
14E
330
1F
100
AcDbEntity
  8
0
  6
Continuous
 62
     7
370
     0
100
AcDbBlockReference
  2
SW_CENTERMARKSYMBOL_3
 10
3.63071963
 20
2.9647348571
 30
0.0
  0
INSERT
  5
156
330
1F
100
AcDbEntity
  8
0
  6
Continuous
 62
     7
370
     0
100
AcDbBlockReference
  2
SW_CENTERMARKSYMBOL_4
 10
2.4496172678
 20
2.9647348571
 30
0.0
  0
LINE
  5
157
330
1F
100
AcDbEntity
  8
0
  6
Continuous
 62
     7
370
    18
100
AcDbLine
 10
6.5175847011
 20
2.7142860672
 30
0.0
 11
6.5175847011
 21
4.4142860687
 31
0.0
  0
LINE
  5
158
330
1F
100
AcDbEntity
  8
0
  6
Continuous
 62
     7
370
    18
100
AcDbLine
 10
6.5175847011
 20
2.7142860672
 30
0.0
 11
6.3175847181
 21
2.7142860672
 31
0.0
  0
LINE
  5
159
330
1F
100
AcDbEntity
  8
0
  6
Continuous
 62
     7
370
    18
100
AcDbLine
 10
6.3175847181
 20
2.7142860672
 30
0.0
 11
6.3175847181
 21
4.6142860516
 31
0.0
  0
LINE
  5
15A
330
1F
100
AcDbEntity
  8
0
  6
Continuous
 62
     7
370
    18
100
AcDbLine
 10
6.3175847181
 20
4.6142860516
 30
0.0
 11
8.5675847459
 21
4.6142860516
 31
0.0
  0
LINE
  5
15B
330
1F
100
AcDbEntity
  8
0
  6
Continuous
 62
     7
370
    18
100
AcDbLine
 10
8.5675847459
 20
4.4142860687
 30
0.0
 11
8.5675847459
 21
4.6142860516
 31
0.0
  0
LINE
  5
15C
330
1F
100
AcDbEntity
  8
0
  6
Continuous
 62
     7
370
    18
100
AcDbLine
 10
6.5175847011
 20
4.4142860687
 30
0.0
 11
8.5675847459
 21
4.4142860687
 31
0.0
  0
DIMENSION
  5
15D
330
1F
100
AcDbEntity
  8
0
  6
Continuous
 62
     7
370
    18
100
AcDbDimension
  2
_D_4
 10
6.5175847166
 20
2.3205842666
 30
0.0
 11
5.6876634567
 21
2.3205842666
 31
0.0
 70
   160
  1
<>
 71
     2
 42
-1.0
  3
SLDDIMSTYLE4
100
AcDbAlignedDimension
 13
6.3175847166
 23
2.7142860382
 33
0.0
 14
6.5175847166
 24
2.7142860382
 34
0.0
100
AcDbRotatedDimension
  0
DIMENSION
  5
172
330
1F
100
AcDbEntity
  8
0
  6
Continuous
 62
     7
370
    18
100
AcDbDimension
  2
_D_5
 10
8.5675847166
 20
4.9381701372
 30
0.0
 11
7.4425847166
 21
4.9381701372
 31
0.0
 70
   160
  1
<>
 71
     2
 42
-1.0
  3
SLDDIMSTYLE1
100
AcDbAlignedDimension
 13
6.3175847166
 23
4.6142860382
 33
0.0
 14
8.5675847166
 24
4.6142860382
 34
0.0
100
AcDbRotatedDimension
  0
DIMENSION
  5
186
330
1F
100
AcDbEntity
  8
0
  6
Continuous
 62
     7
370
    18
100
AcDbDimension
  2
_D_6
 10
5.9238839292
 20
4.6142860382
 30
0.0
 11
5.9238839292
 21
3.6642860382
 31
0.0
 70
   160
  1
<>
 71
     2
 42
-1.0
  3
SLDDIMSTYLE0
100
AcDbAlignedDimension
 13
6.3175847166
 23
2.7142860382
 33
0.0
 14
6.3175847166
 24
4.6142860382
 34
0.0
 50
90.0
100
AcDbRotatedDimension
  0
LINE
  5
19A
330
1F
100
AcDbEntity
  8
0
  6
Continuous
 62
     7
370
    18
100
AcDbLine
 10
3.7408013951
 20
6.6002191822
 30
0.0
 11
3.7787760364
 21
6.6002191822
 31
0.0
  0
LINE
  5
19B
330
1F
100
AcDbEntity
  8
0
  6
Continuous
 62
     7
370
    18
100
AcDbLine
 10
3.7408013951
 20
6.6521179118
 30
0.0
 11
3.7408013951
 21
6.6002191822
 31
0.0
  0
LINE
  5
19C
330
1F
100
AcDbEntity
  8
0
  6
Continuous
 62
     7
370
    18
100
AcDbLine
 10
3.7294089734
 20
6.6521179118
 30
0.0
 11
3.7408013951
 21
6.6521179118
 31
0.0
  0
LINE
  5
19D
330
1F
100
AcDbEntity
  8
0
  6
Continuous
 62
     7
370
    18
100
AcDbLine
 10
3.7294089734
 20
6.6002191822
 30
0.0
 11
3.7294089734
 21
6.6521179118
 31
0.0
  0
LINE
  5
19E
330
1F
100
AcDbEntity
  8
0
  6
Continuous
 62
     7
370
    18
100
AcDbLine
 10
3.7015608884
 20
6.6002191822
 30
0.0
 11
3.7294089734
 21
6.6002191822
 31
0.0
  0
LINE
  5
19F
330
1F
100
AcDbEntity
  8
0
  6
Continuous
 62
     7
370
    18
100
AcDbLine
 10
3.7015608884
 20
6.6521179118
 30
0.0
 11
3.7015608884
 21
6.6002191822
 31
0.0
  0
LINE
  5
1A0
330
1F
100
AcDbEntity
  8
0
  6
Continuous
 62
     7
370
    18
100
AcDbLine
 10
3.6901684667
 20
6.6521179118
 30
0.0
 11
3.7015608884
 21
6.6521179118
 31
0.0
  0
LINE
  5
1A1
330
1F
100
AcDbEntity
  8
0
  6
Continuous
 62
     7
370
    18
100
AcDbLine
 10
3.6901684667
 20
6.5875609501
 30
0.0
 11
3.6901684667
 21
6.6521179118
 31
0.0
  0
LINE
  5
1A2
330
1F
100
AcDbEntity
  8
0
  6
Continuous
 62
     7
370
    18
100
AcDbLine
 10
3.7901684582
 20
6.5875609501
 30
0.0
 11
3.6901684667
 21
6.5875609501
 31
0.0
  0
LINE
  5
1A3
330
1F
100
AcDbEntity
  8
0
  6
Continuous
 62
     7
370
    18
100
AcDbLine
 10
3.7901684582
 20
6.6521179118
 30
0.0
 11
3.7901684582
 21
6.5875609501
 31
0.0
  0
LINE
  5
1A4
330
1F
100
AcDbEntity
  8
0
  6
Continuous
 62
     7
370
    18
100
AcDbLine
 10
3.7787760364
 20
6.6521179118
 30
0.0
 11
3.7901684582
 21
6.6521179118
 31
0.0
  0
LINE
  5
1A5
330
1F
100
AcDbEntity
  8
0
  6
Continuous
 62
     7
370
    18
100
AcDbLine
 10
3.7787760364
 20
6.6002191822
 30
0.0
 11
3.7787760364
 21
6.6521179118
 31
0.0
  0
LINE
  5
1A6
330
1F
100
AcDbEntity
  8
0
  6
Continuous
 62
     7
370
    18
100
AcDbLine
 10
3.7901684582
 20
6.3964217131
 30
0.0
 11
3.6901684667
 21
6.4330712364
 31
0.0
  0
LINE
  5
1A7
330
1F
100
AcDbEntity
  8
0
  6
Continuous
 62
     7
370
    18
100
AcDbLine
 10
3.7901684582
 20
6.4099106373
 30
0.0
 11
3.7901684582
 21
6.3964217131
 31
0.0
  0
LINE
  5
1A8
330
1F
100
AcDbEntity
  8
0
  6
Continuous
 62
     7
370
    18
100
AcDbLine
 10
3.7623203732
 20
6.4197800991
 30
0.0
 11
3.7901684582
 21
6.4099106373
 31
0.0
  0
LINE
  5
1A9
330
1F
100
AcDbEntity
  8
0
  6
Continuous
 62
     7
370
    18
100
AcDbLine
 10
3.7623203732
 20
6.4642025657
 30
0.0
 11
3.7623203732
 21
6.4197800991
 31
0.0
  0
LINE
  5
1AA
330
1F
100
AcDbEntity
  8
0
  6
Continuous
 62
     7
370
    18
100
AcDbLine
 10
3.7901684582
 20
6.4740720276
 30
0.0
 11
3.7623203732
 21
6.4642025657
 31
0.0
  0
LINE
  5
1AB
330
1F
100
AcDbEntity
  8
0
  6
Continuous
 62
     7
370
    18
100
AcDbLine
 10
3.7901684582
 20
6.4875609517
 30
0.0
 11
3.7901684582
 21
6.4740720276
 31
0.0
  0
LINE
  5
1AC
330
1F
100
AcDbEntity
  8
0
  6
Continuous
 62
     7
370
    18
100
AcDbLine
 10
3.6901684667
 20
6.4509114262
 30
0.0
 11
3.7901684582
 21
6.4875609517
 31
0.0
  0
LINE
  5
1AD
330
1F
100
AcDbEntity
  8
0
  6
Continuous
 62
     7
370
    18
100
AcDbLine
 10
3.6901684667
 20
6.4330712364
 30
0.0
 11
3.6901684667
 21
6.4509114262
 31
0.0
  0
LINE
  5
1AE
330
1F
100
AcDbEntity
  8
0
  6
Continuous
 62
     7
370
    18
100
AcDbLine
 10
3.6901684667
 20
6.2508520989
 30
0.0
 11
3.6901684667
 21
6.2776321512
 31
0.0
  0
LINE
  5
1AF
330
1F
100
AcDbEntity
  8
0
  6
Continuous
 62
     7
370
    18
100
AcDbLine
 10
3.7901684582
 20
6.2508520989
 30
0.0
 11
3.6901684667
 21
6.2508520989
 31
0.0
  0
LINE
  5
1B0
330
1F
100
AcDbEntity
  8
0
  6
Continuous
 62
     7
370
    18
100
AcDbLine
 10
3.7901684582
 20
6.2635103127
 30
0.0
 11
3.7901684582
 21
6.2508520989
 31
0.0
  0
LINE
  5
1B1
330
1F
100
AcDbEntity
  8
0
  6
Continuous
 62
     7
370
    18
100
AcDbLine
 10
3.7534596089
 20
6.2635103127
 30
0.0
 11
3.7901684582
 21
6.2635103127
 31
0.0
  0
LINE
  5
1B2
330
1F
100
AcDbEntity
  8
0
  6
Continuous
 62
     7
370
    18
100
AcDbLine
 10
3.7534596089
 20
6.2767618963
 30
0.0
 11
3.7534596089
 21
6.2635103127
 31
0.0
  0
SPLINE
  5
1B3
330
1F
100
AcDbEntity
  8
0
  6
Continuous
 62
     7
370
    18
100
AcDbSpline
210
0.0
220
0.0
230
1.0
 70
     8
 71
     3
 72
    11
 73
     7
 74
     0
 42
0.000000001
 43
0.00000001
 40
0.0
 40
0.0
 40
0.0
 40
0.0
 40
0.2797082242097719
 40
0.5594454941458058
 40
0.7797050138884379
 40
1.0
 40
1.0
 40
1.0
 40
1.0
 10
3.743016549546617
 20
6.306647194372641
 30
0.0
 10
3.745015421868089
 20
6.304339270442396
 30
0.0
 10
3.749013374079826
 20
6.299723182920285
 30
0.0
 10
3.752038987442144
 20
6.291657796784792
 30
0.0
 10
3.753298775172966
 20
6.283933384958192
 30
0.0
 10
3.753405994785458
 20
6.279152520796729
 30
0.0
 10
3.753459608907504
 20
6.276761896276821
 30
0.0
  0
SPLINE
  5
1B4
330
1F
100
AcDbEntity
  8
0
  6
Continuous
 62
     7
370
    18
100
AcDbSpline
210
0.0
220
0.0
230
1.0
 70
     8
 71
     3
 72
    11
 73
     7
 74
     0
 42
0.000000001
 43
0.00000001
 40
0.0
 40
0.0
 40
0.0
 40
0.0
 40
0.2799954573233411
 40
0.5598658646871195
 40
0.7799253437225341
 40
1.0
 40
1.0
 40
1.0
 40
1.0
 10
3.720666861065459
 20
6.315409051488253
 30
0.0
 10
3.72296879597417
 20
6.315293469116827
 30
0.0
 10
3.727571637714674
 20
6.315062355994707
 30
0.0
 10
3.7337160685624
 20
6.313061159936399
 30
0.0
 10
3.738961662409749
 20
6.310261809684851
 30
0.0
 10
3.741664889429004
 20
6.307852093841631
 30
0.0
 10
3.743016549546617
 20
6.306647194372641
 30
0.0
  0
SPLINE
  5
1B5
330
1F
100
AcDbEntity
  8
0
  6
Continuous
 62
     7
370
    18
100
AcDbSpline
210
0.0
220
0.0
230
1.0
 70
     8
 71
     3
 72
    11
 73
     7
 74
     0
 42
0.000000001
 43
0.00000001
 40
0.0
 40
0.0
 40
0.0
 40
0.0
 40
0.2798426279100862
 40
0.5594441600994633
 40
0.7796356367938078
 40
1.0
 40
1.0
 40
1.0
 40
1.0
 10
3.696477773833192
 20
6.303601292892488
 30
0.0
 10
3.698124507429519
 20
6.305660561262766
 30
0.0
 10
3.701416555894703
 20
6.309777323860493
 30
0.0
 10
3.707882217306071
 20
6.313532898030074
 30
0.0
 10
3.714470906135118
 20
6.315196478338091
 30
0.0
 10
3.718601002499991
 20
6.315338175236249
 30
0.0
 10
3.720666861065459
 20
6.315409051488253
 30
0.0
  0
SPLINE
  5
1B6
330
1F
100
AcDbEntity
  8
0
  6
Continuous
 62
     7
370
    18
100
AcDbSpline
210
0.0
220
0.0
230
1.0
 70
     8
 71
     3
 72
    11
 73
     7
 74
     0
 42
0.000000001
 43
0.00000001
 40
0.0
 40
0.0
 40
0.0
 40
0.0
 40
0.280144187517355
 40
0.5601317556144455
 40
0.7800976290732418
 40
1.0
 40
1.0
 40
1.0
 40
1.0
 10
3.690168466718846
 20
6.277632151223562
 30
0.0
 10
3.690217197745481
 20
6.28016661040054
 30
0.0
 10
3.690314632554835
 20
6.285234111821557
 30
0.0
 10
3.691401014950766
 20
6.292227285708385
 30
0.0
 10
3.693394799283282
 20
6.29847365299085
 30
0.0
 10
3.695450214561382
 20
6.301892244102713
 30
0.0
 10
3.696477773833192
 20
6.303601292892488
 30
0.0
  0
SPLINE
  5
1B7
330
1F
100
AcDbEntity
  8
0
  6
Continuous
 62
     7
370
    18
100
AcDbSpline
210
0.0
220
0.0
230
1.0
 70
     8
 71
     3
 72
    11
 73
     7
 74
     0
 42
0.000000001
 43
0.00000001
 40
0.0
 40
0.0
 40
0.0
 40
0.0
 40
0.2798971837035992
 40
0.559478276808735
 40
0.7796246163697733
 40
1.0
 40
1.0
 40
1.0
 40
1.0
 10
3.695587737448302
 20
6.147074384438024
 30
0.0
 10
3.697052142261259
 20
6.149017178927605
 30
0.0
 10
3.699979298120646
 20
6.152900573890143
 30
0.0
 10
3.705823215200916
 20
6.156574602338343
 30
0.0
 10
3.711881817103761
 20
6.158234741700481
 30
0.0
 10
3.715694075975108
 20
6.158376251414794
 30
0.0
 10
3.717601196480278
 20
6.158447043060102
 30
0.0
  0
SPLINE
  5
1B8
330
1F
100
AcDbEntity
  8
0
  6
Continuous
 62
     7
370
    18
100
AcDbSpline
210
0.0
220
0.0
230
1.0
 70
     8
 71
     3
 72
    11
 73
     7
 74
     0
 42
0.000000001
 43
0.00000001
 40
0.0
 40
0.0
 40
0.0
 40
0.0
 40
0.2801409306050643
 40
0.5601852292015029
 40
0.7801234780499144
 40
0.9999999999999999
 40
0.9999999999999999
 40
0.9999999999999999
 40
0.9999999999999999
 10
3.690168466718846
 20
6.121481053427702
 30
0.0
 10
3.690207423638186
 20
6.123957981937788
 30
0.0
 10
3.690285324039039
 20
6.128910984564505
 30
0.0
 10
3.691081189751105
 20
6.135770617017494
 30
0.0
 10
3.692715654174634
 20
6.141975143536988
 30
0.0
 10
3.694630465936753
 20
6.145374796515265
 30
0.0
 10
3.695587737448302
 20
6.147074384438024
 30
0.0
  0
LINE
  5
1B9
330
1F
100
AcDbEntity
  8
0
  6
Continuous
 62
     7
370
    18
100
AcDbLine
 10
3.6901684667
 20
6.0938900722
 30
0.0
 11
3.6901684667
 21
6.1214810534
 31
0.0
  0
LINE
  5
1BA
330
1F
100
AcDbEntity
  8
0
  6
Continuous
 62
     7
370
    18
100
AcDbLine
 10
3.7901684582
 20
6.0938900722
 30
0.0
 11
3.6901684667
 21
6.0938900722
 31
0.0
  0
LINE
  5
1BB
330
1F
100
AcDbEntity
  8
0
  6
Continuous
 62
     7
370
    18
100
AcDbLine
 10
3.7901684582
 20
6.1065482859
 30
0.0
 11
3.7901684582
 21
6.0938900722
 31
0.0
  0
LINE
  5
1BC
330
1F
100
AcDbEntity
  8
0
  6
Continuous
 62
     7
370
    18
100
AcDbLine
 10
3.7509279515
 20
6.1065482859
 30
0.0
 11
3.7901684582
 21
6.1065482859
 31
0.0
  0
LINE
  5
1BD
330
1F
100
AcDbEntity
  8
0
  6
Continuous
 62
     7
370
    18
100
AcDbLine
 10
3.7509279515
 20
6.127434368
 30
0.0
 11
3.7509279515
 21
6.1065482859
 31
0.0
  0
LINE
  5
1BE
330
1F
100
AcDbEntity
  8
0
  6
Continuous
 62
     7
370
    18
100
AcDbLine
 10
3.7901684582
 20
6.1609391009
 30
0.0
 11
3.7509279515
 21
6.127434368
 31
0.0
  0
LINE
  5
1BF
330
1F
100
AcDbEntity
  8
0
  6
Continuous
 62
     7
370
    18
100
AcDbLine
 10
3.7901684582
 20
6.1761685533
 30
0.0
 11
3.7901684582
 21
6.1609391009
 31
0.0
  0
LINE
  5
1C0
330
1F
100
AcDbEntity
  8
0
  6
Continuous
 62
     7
370
    18
100
AcDbLine
 10
3.7469327243
 20
6.1384707605
 30
0.0
 11
3.7901684582
 21
6.1761685533
 31
0.0
  0
SPLINE
  5
1C1
330
1F
100
AcDbEntity
  8
0
  6
Continuous
 62
     7
370
    18
100
AcDbSpline
210
0.0
220
0.0
230
1.0
 70
     8
 71
     3
 72
    11
 73
     7
 74
     0
 42
0.000000001
 43
0.00000001
 40
0.0
 40
0.0
 40
0.0
 40
0.0
 40
0.2800761652508293
 40
0.559396044997965
 40
0.7796036138991697
 40
1.0
 40
1.0
 40
1.0
 40
1.0
 10
3.717601196480278
 20
6.158447043060102
 30
0.0
 10
3.721159494527232
 20
6.158215042403494
 30
0.0
 10
3.728266482201844
 20
6.157751667558201
 30
0.0
 10
3.73712850029584
 20
6.152807351110498
 30
0.0
 10
3.743373743310243
 20
6.14605018165529
 30
0.0
 10
3.745746058429128
 20
6.140997955911347
 30
0.0
 10
3.746932724306632
 20
6.138470760494489
 30
0.0
  0
LINE
  5
1C2
330
1F
100
AcDbEntity
  8
0
  6
Continuous
 62
     7
370
    18
100
AcDbLine
 10
3.7408013951
 20
5.9268014524
 30
0.0
 11
3.7787760364
 21
5.9268014524
 31
0.0
  0
LINE
  5
1C3
330
1F
100
AcDbEntity
  8
0
  6
Continuous
 62
     7
370
    18
100
AcDbLine
 10
3.7408013951
 20
5.9787002095
 30
0.0
 11
3.7408013951
 21
5.9268014524
 31
0.0
  0
LINE
  5
1C4
330
1F
100
AcDbEntity
  8
0
  6
Continuous
 62
     7
370
    18
100
AcDbLine
 10
3.7294089734
 20
5.9787002095
 30
0.0
 11
3.7408013951
 21
5.9787002095
 31
0.0
  0
LINE
  5
1C5
330
1F
100
AcDbEntity
  8
0
  6
Continuous
 62
     7
370
    18
100
AcDbLine
 10
3.7294089734
 20
5.9268014524
 30
0.0
 11
3.7294089734
 21
5.9787002095
 31
0.0
  0
LINE
  5
1C6
330
1F
100
AcDbEntity
  8
0
  6
Continuous
 62
     7
370
    18
100
AcDbLine
 10
3.7015608884
 20
5.9268014524
 30
0.0
 11
3.7294089734
 21
5.9268014524
 31
0.0
  0
LINE
  5
1C7
330
1F
100
AcDbEntity
  8
0
  6
Continuous
 62
     7
370
    18
100
AcDbLine
 10
3.7015608884
 20
5.9787002095
 30
0.0
 11
3.7015608884
 21
5.9268014524
 31
0.0
  0
LINE
  5
1C8
330
1F
100
AcDbEntity
  8
0
  6
Continuous
 62
     7
370
    18
100
AcDbLine
 10
3.6901684667
 20
5.9787002095
 30
0.0
 11
3.7015608884
 21
5.9787002095
 31
0.0
  0
LINE
  5
1C9
330
1F
100
AcDbEntity
  8
0
  6
Continuous
 62
     7
370
    18
100
AcDbLine
 10
3.6901684667
 20
5.9141432386
 30
0.0
 11
3.6901684667
 21
5.9787002095
 31
0.0
  0
LINE
  5
1CA
330
1F
100
AcDbEntity
  8
0
  6
Continuous
 62
     7
370
    18
100
AcDbLine
 10
3.7901684582
 20
5.9141432386
 30
0.0
 11
3.6901684667
 21
5.9141432386
 31
0.0
  0
LINE
  5
1CB
330
1F
100
AcDbEntity
  8
0
  6
Continuous
 62
     7
370
    18
100
AcDbLine
 10
3.7901684582
 20
5.9787002095
 30
0.0
 11
3.7901684582
 21
5.9141432386
 31
0.0
  0
LINE
  5
1CC
330
1F
100
AcDbEntity
  8
0
  6
Continuous
 62
     7
370
    18
100
AcDbLine
 10
3.7787760364
 20
5.9787002095
 30
0.0
 11
3.7901684582
 21
5.9787002095
 31
0.0
  0
LINE
  5
1CD
330
1F
100
AcDbEntity
  8
0
  6
Continuous
 62
     7
370
    18
100
AcDbLine
 10
3.7787760364
 20
5.9268014524
 30
0.0
 11
3.7787760364
 21
5.9787002095
 31
0.0
  0
SPLINE
  5
1CE
330
1F
100
AcDbEntity
  8
0
  6
Continuous
 62
     7
370
    18
100
AcDbSpline
210
0.0
220
0.0
230
1.0
 70
     8
 71
     3
 72
    11
 73
     7
 74
     0
 42
0.000000001
 43
0.00000001
 40
0.0
 40
0.0
 40
0.0
 40
0.0
 40
0.2801547885870038
 40
0.5582154259703914
 40
0.7788732807410873
 40
1.0
 40
1.0
 40
1.0
 40
1.0
 10
3.715346442527388
 20
5.726801432800359
 30
0.0
 10
3.717573513413281
 20
5.726951721406512
 30
0.0
 10
3.722011007876629
 20
5.727251175214621
 30
0.0
 10
3.727072280351502
 20
5.731346883213862
 30
0.0
 10
3.729468906613098
 20
5.736508356713582
 30
0.0
 10
3.730364796727454
 20
5.739846020027048
 30
0.0
 10
3.730813217187221
 20
5.741516622809228
 30
0.0
  0
SPLINE
  5
1CF
330
1F
100
AcDbEntity
  8
0
  6
Continuous
 62
     7
370
    18
100
AcDbSpline
210
0.0
220
0.0
230
1.0
 70
     8
 71
     3
 72
    12
 73
     8
 74
     0
 42
0.000000001
 43
0.00000001
 40
0.0
 40
0.0
 40
0.0
 40
0.0
 40
0.2506523606856261
 40
0.5007677583922644
 40
0.7498335239077777
 40
0.8748825261120525
 40
1.0
 40
1.0
 40
1.0
 40
1.0
 10
3.699029231025208
 20
5.750792742317371
 30
0.0
 10
3.69914304865436
 20
5.74809422634574
 30
0.0
 10
3.699370440085507
 20
5.742702975330181
 30
0.0
 10
3.702055200612825
 20
5.734985346739921
 30
0.0
 10
3.70639058501151
 20
5.729567984668194
 30
0.0
 10
3.711300327759968
 20
5.727115979174703
 30
0.0
 10
3.713997491529651
 20
5.726906300721783
 30
0.0
 10
3.715346442527388
 20
5.726801432800359
 30
0.0
  0
SPLINE
  5
1D0
330
1F
100
AcDbEntity
  8
0
  6
Continuous
 62
     7
370
    18
100
AcDbSpline
210
0.0
220
0.0
230
1.0
 70
     8
 71
     3
 72
    11
 73
     7
 74
     0
 42
0.000000001
 43
0.00000001
 40
0.0
 40
0.0
 40
0.0
 40
0.0
 40
0.2796704024520278
 40
0.5597311629745194
 40
0.7798815967500811
 40
0.9999999999999999
 40
0.9999999999999999
 40
0.9999999999999999
 40
0.9999999999999999
 10
3.710421579419827
 20
5.785345763157926
 30
0.0
 10
3.708440992905719
 20
5.782502718242019
 30
0.0
 10
3.704477055416468
 20
5.77681266014786
 30
0.0
 10
3.701288090357841
 20
5.767644414455804
 30
0.0
 10
3.699336984277232
 20
5.75895056633783
 30
0.0
 10
3.699131810466934
 20
5.753511885098852
 30
0.0
 10
3.699029231025208
 20
5.750792742317371
 30
0.0
  0
LINE
  5
1D1
330
1F
100
AcDbEntity
  8
0
  6
Continuous
 62
     7
370
    18
100
AcDbLine
 10
3.7104215794
 20
5.7862951255
 30
0.0
 11
3.7104215794
 21
5.7853457632
 31
0.0
  0
LINE
  5
1D2
330
1F
100
AcDbEntity
  8
0
  6
Continuous
 62
     7
370
    18
100
AcDbLine
 10
3.6946383751
 20
5.7862951255
 30
0.0
 11
3.7104215794
 21
5.7862951255
 31
0.0
  0
SPLINE
  5
1D3
330
1F
100
AcDbEntity
  8
0
  6
Continuous
 62
     7
370
    18
100
AcDbSpline
210
0.0
220
0.0
230
1.0
 70
     8
 71
     3
 72
    10
 73
     6
 74
     0
 42
0.000000001
 43
0.00000001
 40
0.0
 40
0.0
 40
0.0
 40
0.0
 40
0.2801304643393971
 40
0.5602005814859469
 40
1.0
 40
1.0
 40
1.0
 40
1.0
 10
3.687636809298102
 20
5.750911394280027
 30
0.0
 10
3.68771953992223
 20
5.754301134110788
 30
0.0
 10
3.687884983348213
 20
5.761079883536548
 30
0.0
 10
3.689870979369735
 20
5.773070640196331
 30
0.0
 10
3.692830360946179
 20
5.781279796850919
 30
0.0
 10
3.694638375082083
 20
5.786295125524144
 30
0.0
  0
SPLINE
  5
1D4
330
1F
100
AcDbEntity
  8
0
  6
Continuous
 62
     7
370
    18
100
AcDbSpline
210
0.0
220
0.0
230
1.0
 70
     8
 71
     3
 72
    12
 73
     8
 74
     0
 42
0.000000001
 43
0.00000001
 40
0.0
 40
0.0
 40
0.0
 40
0.0
 40
0.1862801594156064
 40
0.3725755498263513
 40
0.5593777930826952
 40
0.779531925945708
 40
1.0
 40
1.0
 40
1.0
 40
1.0
 10
3.71665183411406
 20
5.712877426984996
 30
0.0
 10
3.713314241516918
 20
5.713205366946611
 30
0.0
 10
3.706638783427998
 20
5.713861273683498
 30
0.0
 10
3.698278344405419
 20
5.719915950487643
 30
0.0
 10
3.692098094456134
 20
5.72851661488521
 30
0.0
 10
3.688212936347911
 20
5.739161506259382
 30
0.0
 10
3.687828942845876
 20
5.746992904995238
 30
0.0
 10
3.687636809298102
 20
5.750911394280027
 30
0.0
  0
SPLINE
  5
1D5
330
1F
100
AcDbEntity
  8
0
  6
Continuous
 62
     7
370
    18
100
AcDbSpline
210
0.0
220
0.0
230
1.0
 70
     8
 71
     3
 72
    12
 73
     8
 74
     0
 42
0.000000001
 43
0.00000001
 40
0.0
 40
0.0
 40
0.0
 40
0.0
 40
0.1871716273839054
 40
0.3741721437820383
 40
0.5607640366485289
 40
0.7800800578477415
 40
1.0
 40
1.0
 40
1.0
 40
1.0
 10
3.744420793324673
 20
5.739261868856338
 30
0.0
 10
3.743793015186322
 20
5.736715552328129
 30
0.0
 10
3.742538032819981
 20
5.731625247096381
 30
0.0
 10
3.73921228688476
 20
5.724439537937592
 30
0.0
 10
3.733874995204328
 20
5.717944412580055
 30
0.0
 10
3.725935826060739
 20
5.713519652976622
 30
0.0
 10
3.719749333438283
 20
5.713091698452105
 30
0.0
 10
3.71665183411406
 20
5.712877426984996
 30
0.0
  0
SPLINE
  5
1D6
330
1F
100
AcDbEntity
  8
0
  6
Continuous
 62
     7
370
    18
100
AcDbSpline
210
0.0
220
0.0
230
1.0
 70
     8
 71
     3
 72
     9
 73
     5
 74
     0
 42
0.000000001
 43
0.00000001
 40
0.0
 40
0.0
 40
0.0
 40
0.0
 40
0.5599106602141501
 40
1.0
 40
1.0
 40
1.0
 40
1.0
 10
3.748910501459182
 20
5.762877422714111
 30
0.0
 10
3.748035120831755
 20
5.758476978964036
 30
0.0
 10
3.746471691717741
 20
5.750617789877704
 30
0.0
 10
3.745047545078774
 20
5.742732222845415
 30
0.0
 10
3.744420793324673
 20
5.739261868856338
 30
0.0
  0
SPLINE
  5
1D7
330
1F
100
AcDbEntity
  8
0
  6
Continuous
 62
     7
370
    18
100
AcDbSpline
210
0.0
220
0.0
230
1.0
 70
     8
 71
     3
 72
    11
 73
     7
 74
     0
 42
0.000000001
 43
0.00000001
 40
0.0
 40
0.0
 40
0.0
 40
0.0
 40
0.2803821226197423
 40
0.5578135908107199
 40
0.7788278336451152
 40
1.0
 40
1.0
 40
1.0
 40
1.0
 10
3.763823542515792
 20
5.776168569173653
 30
0.0
 10
3.76174244113122
 20
5.776069803634098
 30
0.0
 10
3.75760213922708
 20
5.775873311932868
 30
0.0
 10
3.752759932194452
 20
5.772232309059641
 30
0.0
 10
3.750313553273068
 20
5.767515311521181
 30
0.0
 10
3.749378296737069
 20
5.764423753691941
 30
0.0
 10
3.748910501459182
 20
5.762877422714111
 30
0.0
  0
SPLINE
  5
1D8
330
1F
100
AcDbEntity
  8
0
  6
Continuous
 62
     7
370
    18
100
AcDbSpline
210
0.0
220
0.0
230
1.0
 70
     8
 71
     3
 72
    13
 73
     9
 74
     0
 42
0.000000001
 43
0.00000001
 40
0.0
 40
0.0
 40
0.0
 40
0.0
 40
0.2503387437526789
 40
0.5000280702394783
 40
0.625156659688493
 40
0.7501842303737498
 40
0.8750435457467578
 40
1.0
 40
1.0
 40
1.0
 40
1.0
 10
3.781307693870717
 20
5.750041157666407
 30
0.0
 10
3.781198096997339
 20
5.752975142503544
 30
0.0
 10
3.780979187561757
 20
5.758835500969173
 30
0.0
 10
3.77876595521709
 20
5.765966299931544
 30
0.0
 10
3.775538592764446
 20
5.770896848698176
 30
0.0
 10
3.772289584159407
 20
5.773922630378317
 30
0.0
 10
3.768229372497137
 20
5.775851236951335
 30
0.0
 10
3.765292533165133
 20
5.776062764349297
 30
0.0
 10
3.763823542515792
 20
5.776168569173653
 30
0.0
  0
SPLINE
  5
1D9
330
1F
100
AcDbEntity
  8
0
  6
Continuous
 62
     7
370
    18
100
AcDbSpline
210
0.0
220
0.0
230
1.0
 70
     8
 71
     3
 72
    11
 73
     7
 74
     0
 42
0.000000001
 43
0.00000001
 40
0.0
 40
0.0
 40
0.0
 40
0.0
 40
0.2798885925747798
 40
0.5598817751823378
 40
0.7799943998746627
 40
1.0
 40
1.0
 40
1.0
 40
1.0
 10
3.768649480099483
 20
5.713826789351214
 30
0.0
 10
3.770754639083677
 20
5.716810513685997
 30
0.0
 10
3.774965743717377
 20
5.722779077327145
 30
0.0
 10
3.778544691785859
 20
5.73234880245665
 30
0.0
 10
3.780834216293473
 20
5.741454938065752
 30
0.0
 10
3.781149893599629
 20
5.747179548488442
 30
0.0
 10
3.781307693870717
 20
5.750041157666407
 30
0.0
  0
LINE
  5
1DA
330
1F
100
AcDbEntity
  8
0
  6
Continuous
 62
     7
370
    18
100
AcDbLine
 10
3.7686494801
 20
5.712877427
 30
0.0
 11
3.7686494801
 21
5.7138267894
 31
0.0
  0
LINE
  5
1DB
330
1F
100
AcDbEntity
  8
0
  6
Continuous
 62
     7
370
    18
100
AcDbLine
 10
3.7849073656
 20
5.712877427
 30
0.0
 11
3.7686494801
 21
5.712877427
 31
0.0
  0
SPLINE
  5
1DC
330
1F
100
AcDbEntity
  8
0
  6
Continuous
 62
     7
370
    18
100
AcDbSpline
210
0.0
220
0.0
230
1.0
 70
     8
 71
     3
 72
    10
 73
     6
 74
     0
 42
0.000000001
 43
0.00000001
 40
0.0
 40
0.0
 40
0.0
 40
0.0
 40
0.2801049339317011
 40
0.5601159950835166
 40
1.0
 40
1.0
 40
1.0
 40
1.0
 10
3.792700115597822
 20
5.749942305475023
 30
0.0
 10
3.792607710075265
 20
5.746380257232198
 30
0.0
 10
3.792422929998413
 20
5.739257354511203
 30
0.0
 10
3.790255098065633
 20
5.726659797491156
 30
0.0
 10
3.78693566740997
 20
5.718104840108036
 30
0.0
 10
3.784907365620335
 20
5.712877426984996
 30
0.0
  0
SPLINE
  5
1DD
330
1F
100
AcDbEntity
  8
0
  6
Continuous
 62
     7
370
    18
100
AcDbSpline
210
0.0
220
0.0
230
1.0
 70
     8
 71
     3
 72
    10
 73
     6
 74
     0
 42
0.000000001
 43
0.00000001
 40
0.0
 40
0.0
 40
0.0
 40
0.0
 40
0.2800148570997851
 40
0.5600972982615157
 40
1.0
 40
1.0
 40
1.0
 40
1.0
 10
3.783443795860951
 20
5.779728641380729
 30
0.0
 10
3.785138780707018
 20
5.777285122682818
 30
0.0
 10
3.788529159498733
 20
5.772397495522148
 30
0.0
 10
3.79213388540594
 20
5.762276271513137
 30
0.0
 10
3.792485365359369
 20
5.754620124117918
 30
0.0
 10
3.792700115597822
 20
5.749942305475023
 30
0.0
  0
SPLINE
  5
1DE
330
1F
100
AcDbEntity
  8
0
  6
Continuous
 62
     7
370
    18
100
AcDbSpline
210
0.0
220
0.0
230
1.0
 70
     8
 71
     3
 72
    11
 73
     7
 74
     0
 42
0.000000001
 43
0.00000001
 40
0.0
 40
0.0
 40
0.0
 40
0.0
 40
0.279830116533039
 40
0.5597985707152984
 40
0.7799530603697387
 40
1.0
 40
1.0
 40
1.0
 40
1.0
 10
3.761924744450869
 20
5.790092574989017
 30
0.0
 10
3.764226618326294
 20
5.789909468000852
 30
0.0
 10
3.768831504038364
 20
5.789543163503208
 30
0.0
 10
3.774808365505866
 20
5.787014852014072
 30
0.0
 10
3.779781476779951
 20
5.783748102098554
 30
0.0
 10
3.782223221689677
 20
5.781068243372288
 30
0.0
 10
3.783443795860951
 20
5.779728641380729
 30
0.0
  0
SPLINE
  5
1DF
330
1F
100
AcDbEntity
  8
0
  6
Continuous
 62
     7
370
    18
100
AcDbSpline
210
0.0
220
0.0
230
1.0
 70
     8
 71
     3
 72
    12
 73
     8
 74
     0
 42
0.000000001
 43
0.00000001
 40
0.0
 40
0.0
 40
0.0
 40
0.0
 40
0.1871138684095242
 40
0.3740753909175606
 40
0.5606410715133532
 40
0.7798718774096958
 40
1.0
 40
1.0
 40
1.0
 40
1.0
 10
3.735916058238765
 20
5.767426456829948
 30
0.0
 10
3.736589631574061
 20
5.769682921663567
 30
0.0
 10
3.737936229829201
 20
5.774194014143792
 30
0.0
 10
3.74127109062521
 20
5.780454200180449
 30
0.0
 10
3.746240622005623
 20
5.786151719230841
 30
0.0
 10
3.753607514201058
 20
5.78963848482139
 30
0.0
 10
3.759148562148196
 20
5.789941005650508
 30
0.0
 10
3.761924744450869
 20
5.790092574989017
 30
0.0
  0
SPLINE
  5
1E0
330
1F
100
AcDbEntity
  8
0
  6
Continuous
 62
     7
370
    18
100
AcDbSpline
210
0.0
220
0.0
230
1.0
 70
     8
 71
     3
 72
     9
 73
     5
 74
     0
 42
0.000000001
 43
0.00000001
 40
0.0
 40
0.0
 40
0.0
 40
0.0
 40
0.5600406124817374
 40
1.0
 40
1.0
 40
1.0
 40
1.0
 10
3.730813217187221
 20
5.741516622809228
 30
0.0
 10
3.731674274745358
 20
5.746371654901178
 30
0.0
 10
3.73321176602536
 20
5.75504072636447
 30
0.0
 10
3.735089799695508
 20
5.763642170664107
 30
0.0
 10
3.735916058238765
 20
5.767426456829948
 30
0.0
  0
SPLINE
  5
1E1
330
1F
100
AcDbEntity
  8
0
  6
Continuous
 62
     7
370
    18
100
AcDbSpline
210
0.0
220
0.0
230
1.0
 70
     8
 71
     3
 72
     9
 73
     5
 74
     0
 42
0.000000001
 43
0.00000001
 40
0.0
 40
0.0
 40
0.0
 40
0.0
 40
0.5600947110466171
 40
1.0
 40
1.0
 40
1.0
 40
1.0
 10
2.388628302221891
 20
6.507020998804021
 30
0.0
 10
2.389019171456123
 20
6.504193171056835
 30
0.0
 10
2.389717034204196
 20
6.499144332545399
 30
0.0
 10
2.390030524887316
 20
6.494057729535425
 30
0.0
 10
2.390168431096858
 20
6.491820105968531
 30
0.0
  0
SPLINE
  5
1E2
330
1F
100
AcDbEntity
  8
0
  6
Continuous
 62
     7
370
    18
100
AcDbSpline
210
0.0
220
0.0
230
1.0
 70
     8
 71
     3
 72
     9
 73
     5
 74
     0
 42
0.000000001
 43
0.00000001
 40
0.0
 40
0.0
 40
0.0
 40
0.0
 40
0.5594099107240925
 40
1.0
 40
1.0
 40
1.0
 40
1.0
 10
2.384922885027187
 20
6.519900461269371
 30
0.0
 10
2.385920807800506
 20
6.517583661110762
 30
0.0
 10
2.387704692487189
 20
6.513442153936513
 30
0.0
 10
2.388345825410133
 20
6.508984844962716
 30
0.0
 10
2.388628302221891
 20
6.507020998804021
 30
0.0
  0
SPLINE
  5
1E3
330
1F
100
AcDbEntity
  8
0
  6
Continuous
 62
     7
370
    18
100
AcDbSpline
210
0.0
220
0.0
230
1.0
 70
     8
 71
     3
 72
    11
 73
     7
 74
     0
 42
0.000000001
 43
0.00000001
 40
0.0
 40
0.0
 40
0.0
 40
0.0
 40
0.2799541572029354
 40
0.5597747430508685
 40
0.7799026619405095
 40
1.0
 40
1.0
 40
1.0
 40
1.0
 10
2.35807021523152
 20
6.534721891717608
 30
0.0
 10
2.361076414601982
 20
6.534521290829614
 30
0.0
 10
2.367087379029064
 20
6.534120184764056
 30
0.0
 10
2.374819037836867
 20
6.530589793378412
 30
0.0
 10
2.380927521623783
 20
6.52576311706649
 30
0.0
 10
2.383591158903748
 20
6.521854589364727
 30
0.0
 10
2.384922885027187
 20
6.519900461269371
 30
0.0
  0
SPLINE
  5
1E4
330
1F
100
AcDbEntity
  8
0
  6
Continuous
 62
     7
370
    18
100
AcDbSpline
210
0.0
220
0.0
230
1.0
 70
     8
 71
     3
 72
    12
 73
     8
 74
     0
 42
0.000000001
 43
0.00000001
 40
0.0
 40
0.0
 40
0.0
 40
0.0
 40
0.1870572541213955
 40
0.3739235363790065
 40
0.5604422535747726
 40
0.7800170534580764
 40
1.0
 40
1.0
 40
1.0
 40
1.0
 10
2.330123791404326
 20
6.510547784937286
 30
0.0
 10
2.330792695324018
 20
6.512977665727155
 30
0.0
 10
2.332129820261107
 20
6.517834946575175
 30
0.0
 10
2.335708640428416
 20
6.524572364680329
 30
0.0
 10
2.341343246041559
 20
6.530376725249475
 30
0.0
 10
2.349160843428721
 20
6.534137876705393
 30
0.0
 10
2.355098586821148
 20
6.534527099577287
 30
0.0
 10
2.35807021523152
 20
6.534721891717608
 30
0.0
  0
SPLINE
  5
1E5
330
1F
100
AcDbEntity
  8
0
  6
Continuous
 62
     7
370
    18
100
AcDbSpline
210
0.0
220
0.0
230
1.0
 70
     8
 71
     3
 72
     9
 73
     5
 74
     0
 42
0.000000001
 43
0.00000001
 40
0.0
 40
0.0
 40
0.0
 40
0.0
 40
0.5592296776609743
 40
0.9999999999999999
 40
0.9999999999999999
 40
0.9999999999999999
 40
0.9999999999999999
 10
2.322980913919456
 20
6.52275760493007
 30
0.0
 10
2.324719748967762
 20
6.520711956355699
 30
0.0
 10
2.327829088685889
 20
6.517053980650747
 30
0.0
 10
2.329421780236276
 20
6.512538204879561
 30
0.0
 10
2.330123791404326
 20
6.510547784937286
 30
0.0
  0
SPLINE
  5
1E6
330
1F
100
AcDbEntity
  8
0
  6
Continuous
 62
     7
370
    18
100
AcDbSpline
210
0.0
220
0.0
230
1.0
 70
     8
 71
     3
 72
    10
 73
     6
 74
     0
 42
0.000000001
 43
0.00000001
 40
0.0
 40
0.0
 40
0.0
 40
0.0
 40
0.280395785514385
 40
0.5606593978527942
 40
1.0
 40
1.0
 40
1.0
 40
1.0
 10
2.306753241382914
 20
6.52900760439621
 30
0.0
 10
2.30841325343407
 20
6.528913408338966
 30
0.0
 10
2.311732495038656
 20
6.528725060626685
 30
0.0
 10
2.317506125034468
 20
6.527009515274041
 30
0.0
 10
2.320905494097184
 20
6.524369447723607
 30
0.0
 10
2.322980913919456
 20
6.52275760493007
 30
0.0
  0
SPLINE
  5
1E7
330
1F
100
AcDbEntity
  8
0
  6
Continuous
 62
     7
370
    18
100
AcDbSpline
210
0.0
220
0.0
230
1.0
 70
     8
 71
     3
 72
    13
 73
     9
 74
     0
 42
0.000000001
 43
0.00000001
 40
0.0
 40
0.0
 40
0.0
 40
0.0
 40
0.1869562980862365
 40
0.3736789761771042
 40
0.5600643727410446
 40
0.7067257445504636
 40
0.85329761396289
 40
1.0
 40
1.0
 40
1.0
 40
1.0
 10
2.2801684551593
 20
6.496351355810646
 30
0.0
 10
2.280278283858747
 20
6.4992992371266
 30
0.0
 10
2.280497804016049
 20
6.505191316095389
 30
0.0
 10
2.282926522975024
 20
6.513789197566915
 30
0.0
 10
2.287470668461026
 20
6.520781225619871
 30
0.0
 10
2.293353568162525
 20
6.525631717776284
 30
0.0
 10
2.299794699407283
 20
6.528543718260537
 30
0.0
 10
2.304433039320107
 20
6.528852929814571
 30
0.0
 10
2.306753241382914
 20
6.52900760439621
 30
0.0
  0
LINE
  5
1E8
330
1F
100
AcDbEntity
  8
0
  6
Continuous
 62
     7
370
    18
100
AcDbLine
 10
2.2801684552
 20
6.4332933193
 30
0.0
 11
2.2801684552
 21
6.4963513558
 31
0.0
  0
LINE
  5
1E9
330
1F
100
AcDbEntity
  8
0
  6
Continuous
 62
     7
370
    18
100
AcDbLine
 10
2.3901684311
 20
6.4332933193
 30
0.0
 11
2.2801684552
 21
6.4332933193
 31
0.0
  0
LINE
  5
1EA
330
1F
100
AcDbEntity
  8
0
  6
Continuous
 62
     7
370
    18
100
AcDbLine
 10
2.3901684311
 20
6.491820106
 30
0.0
 11
2.3901684311
 21
6.4332933193
 31
0.0
  0
LINE
  5
1EB
330
1F
100
AcDbEntity
  8
0
  6
Continuous
 62
     7
370
    18
100
AcDbLine
 10
2.3630255847
 20
6.2975790275
 30
0.0
 11
2.3901684311
 21
6.2975790275
 31
0.0
  0
LINE
  5
1EC
330
1F
100
AcDbEntity
  8
0
  6
Continuous
 62
     7
370
    18
100
AcDbLine
 10
2.3630255847
 20
6.2447218881
 30
0.0
 11
2.3630255847
 21
6.2975790275
 31
0.0
  0
LINE
  5
1ED
330
1F
100
AcDbEntity
  8
0
  6
Continuous
 62
     7
370
    18
100
AcDbLine
 10
2.2801684552
 20
6.2447218881
 30
0.0
 11
2.3630255847
 21
6.2447218881
 31
0.0
  0
LINE
  5
1EE
330
1F
100
AcDbEntity
  8
0
  6
Continuous
 62
     7
370
    18
100
AcDbLine
 10
2.2801684552
 20
6.2104361825
 30
0.0
 11
2.2801684552
 21
6.2447218881
 31
0.0
  0
LINE
  5
1EF
330
1F
100
AcDbEntity
  8
0
  6
Continuous
 62
     7
370
    18
100
AcDbLine
 10
2.3901684311
 20
6.2104361825
 30
0.0
 11
2.2801684552
 21
6.2104361825
 31
0.0
  0
LINE
  5
1F0
330
1F
100
AcDbEntity
  8
0
  6
Continuous
 62
     7
370
    18
100
AcDbLine
 10
2.3901684311
 20
6.2975790275
 30
0.0
 11
2.3901684311
 21
6.2104361825
 31
0.0
  0
SPLINE
  5
1F1
330
1F
100
AcDbEntity
  8
0
  6
Continuous
 62
     7
370
    18
100
AcDbSpline
210
0.0
220
0.0
230
1.0
 70
     8
 71
     3
 72
    14
 73
    10
 74
     0
 42
0.000000001
 43
0.00000001
 40
0.0
 40
0.0
 40
0.0
 40
0.0
 40
0.1401677816012409
 40
0.2802471067902693
 40
0.4201821942845365
 40
0.5600542731420447
 40
0.7065553875682993
 40
0.8532073376519266
 40
1.0
 40
1.0
 40
1.0
 40
1.0
 10
2.278739864995829
 20
6.014543332114718
 30
0.0
 10
2.278889265555533
 20
6.018784340384342
 30
0.0
 10
2.279187972391952
 20
6.027263680528405
 30
0.0
 10
2.282174978498338
 20
6.039713805010556
 30
0.0
 10
2.287856492432604
 20
6.051211569850905
 30
0.0
 10
2.296691694761816
 20
6.060846296048246
 30
0.0
 10
2.308078009676501
 20
6.06763414739233
 30
0.0
 10
2.321018024483303
 20
6.07130799734512
 30
0.0
 10
2.329899612532629
 20
6.071679095309754
 30
0.0
 10
2.334342536002362
 20
6.071864733266333
 30
0.0
  0
SPLINE
  5
1F2
330
1F
100
AcDbEntity
  8
0
  6
Continuous
 62
     7
370
    18
100
AcDbSpline
210
0.0
220
0.0
230
1.0
 70
     8
 71
     3
 72
    14
 73
    10
 74
     0
 42
0.000000001
 43
0.00000001
 40
0.0
 40
0.0
 40
0.0
 40
0.0
 40
0.1401507314334555
 40
0.2801987903554332
 40
0.4201272826881888
 40
0.5600096611495333
 40
0.706536237058794
 40
0.853207375468413
 40
1.0
 40
1.0
 40
1.0
 40
1.0
 10
2.335235432354214
 20
5.957579023504604
 30
0.0
 10
2.330981479949366
 20
5.957743956091046
 30
0.0
 10
2.322476691527096
 20
5.958073700436569
 30
0.0
 10
2.310029852668703
 20
5.961316789496306
 30
0.0
 10
2.298710711266321
 20
5.967441769006524
 30
0.0
 10
2.2893409844
 20
5.976600363247369
 30
0.0
 10
2.282804886515345
 20
5.988168361416454
 30
0.0
 10
2.279277719781297
 20
6.001178919263838
 30
0.0
 10
2.278919199396924
 20
6.010087298554442
 30
0.0
 10
2.278739864995829
 20
6.014543332114718
 30
0.0
  0
SPLINE
  5
1F3
330
1F
100
AcDbEntity
  8
0
  6
Continuous
 62
     7
370
    18
100
AcDbSpline
210
0.0
220
0.0
230
1.0
 70
     8
 71
     3
 72
    14
 73
    10
 74
     0
 42
0.000000001
 43
0.00000001
 40
0.0
 40
0.0
 40
0.0
 40
0.0
 40
0.1401914578916854
 40
0.2802823736060516
 40
0.4201312105899352
 40
0.5599913637615913
 40
0.7065519370230239
 40
0.853196868289349
 40
1.0
 40
1.0
 40
1.0
 40
1.0
 10
2.391597021260329
 20
6.015882603310009
 30
0.0
 10
2.391461495597509
 20
6.011568257532964
 30
0.0
 10
2.391190541467843
 20
6.002942660131148
 30
0.0
 10
2.388413662445422
 20
5.990226138644831
 30
0.0
 10
2.382678758275498
 20
5.978462585969697
 30
0.0
 10
2.373469846504168
 20
5.968876688914635
 30
0.0
 10
2.36197118012762
 20
5.961874303330429
 30
0.0
 10
2.348791461182974
 20
5.958121038549617
 30
0.0
 10
2.339755732377554
 20
5.957759760109075
 30
0.0
 10
2.335235432354214
 20
5.957579023504604
 30
0.0
  0
SPLINE
  5
1F4
330
1F
100
AcDbEntity
  8
0
  6
Continuous
 62
     7
370
    18
100
AcDbSpline
210
0.0
220
0.0
230
1.0
 70
     8
 71
     3
 72
    14
 73
    10
 74
     0
 42
0.000000001
 43
0.00000001
 40
0.0
 40
0.0
 40
0.0
 40
0.0
 40
0.1401968030939351
 40
0.2802699630606943
 40
0.4201505835226563
 40
0.5600005290341687
 40
0.7065204509260932
 40
0.8531713184375993
 40
1.0
 40
1.0
 40
1.0
 40
1.0
 10
2.334342536002362
 20
6.071864733266333
 30
0.0
 10
2.338602354998696
 20
6.071726245603881
 30
0.0
 10
2.347118236148626
 20
6.07144939241477
 30
0.0
 10
2.359662753879426
 20
6.068585244333669
 30
0.0
 10
2.371165504067281
 20
6.062747806889653
 30
0.0
 10
2.380724187124246
 20
6.053761185348297
 30
0.0
 10
2.387494947087239
 20
6.042298145249737
 30
0.0
 10
2.39108592542894
 20
6.02926904000415
 30
0.0
 10
2.391426587182896
 20
6.020346550867334
 30
0.0
 10
2.391597021260329
 20
6.015882603310009
 30
0.0
  0
LINE
  5
1F5
330
1F
100
AcDbEntity
  8
0
  6
Continuous
 62
     7
370
    18
100
AcDbLine
 10
2.3901684311
 20
5.7490076096
 30
0.0
 11
2.3058827114
 21
5.7490076096
 31
0.0
  0
LINE
  5
1F6
330
1F
100
AcDbEntity
  8
0
  6
Continuous
 62
     7
370
    18
100
AcDbLine
 10
2.3901684311
 20
5.7832933335
 30
0.0
 11
2.3901684311
 21
5.7490076096
 31
0.0
  0
LINE
  5
1F7
330
1F
100
AcDbEntity
  8
0
  6
Continuous
 62
     7
370
    18
100
AcDbLine
 10
2.3058827114
 20
5.7832933335
 30
0.0
 11
2.3901684311
 21
5.7832933335
 31
0.0
  0
LINE
  5
1F8
330
1F
100
AcDbEntity
  8
0
  6
Continuous
 62
     7
370
    18
100
AcDbLine
 10
2.3058827114
 20
5.8175790575
 30
0.0
 11
2.3058827114
 21
5.7832933335
 31
0.0
  0
LINE
  5
1F9
330
1F
100
AcDbEntity
  8
0
  6
Continuous
 62
     7
370
    18
100
AcDbLine
 10
2.2801684552
 20
5.8175790575
 30
0.0
 11
2.3058827114
 21
5.8175790575
 31
0.0
  0
LINE
  5
1FA
330
1F
100
AcDbEntity
  8
0
  6
Continuous
 62
     7
370
    18
100
AcDbLine
 10
2.2801684552
 20
5.7147218857
 30
0.0
 11
2.2801684552
 21
5.8175790575
 31
0.0
  0
LINE
  5
1FB
330
1F
100
AcDbEntity
  8
0
  6
Continuous
 62
     7
370
    18
100
AcDbLine
 10
2.3058827114
 20
5.7147218857
 30
0.0
 11
2.2801684552
 21
5.7147218857
 31
0.0
  0
LINE
  5
1FC
330
1F
100
AcDbEntity
  8
0
  6
Continuous
 62
     7
370
    18
100
AcDbLine
 10
2.3058827114
 20
5.7490076096
 30
0.0
 11
2.3058827114
 21
5.7147218857
 31
0.0
  0
CIRCLE
  5
1FD
330
1F
100
AcDbEntity
  8
0
  6
Continuous
 62
     7
370
    18
100
AcDbCircle
 10
3.0401684489
 20
6.3518647492
 30
0.0
 40
0.5175000000000001
  0
CIRCLE
  5
1FE
330
1F
100
AcDbEntity
  8
0
  6
Continuous
 62
     7
370
    18
100
AcDbCircle
 10
2.2901684489
 20
7.4328647492
 30
0.0
 40
0.1274999999999995
  0
CIRCLE
  5
1FF
330
1F
100
AcDbEntity
  8
0
  6
Continuous
 62
     7
370
    18
100
AcDbCircle
 10
3.7901684489
 20
7.4328647492
 30
0.0
 40
0.1274999999999995
  0
LINE
  5
200
330
1F
100
AcDbEntity
  8
0
  6
Continuous
 62
     7
370
    18
100
AcDbLine
 10
3.9901684411
 20
5.3518647508
 30
0.0
 11
3.9901684411
 21
7.6018647786
 31
0.0
  0
LINE
  5
201
330
1F
100
AcDbEntity
  8
0
  6
Continuous
 62
     7
370
    18
100
AcDbLine
 10
3.9901684411
 20
5.3518647508
 30
0.0
 11
2.0901684567
 21
5.3518647508
 31
0.0
  0
LINE
  5
202
330
1F
100
AcDbEntity
  8
0
  6
Continuous
 62
     7
370
    18
100
AcDbLine
 10
2.0901684567
 20
5.3518647508
 30
0.0
 11
2.0901684567
 21
7.6018647786
 31
0.0
  0
LINE
  5
203
330
1F
100
AcDbEntity
  8
0
  6
Continuous
 62
     7
370
    18
100
AcDbLine
 10
2.3458827227
 20
5.8675790532
 30
0.0
 11
2.3901684311
 21
5.8675790532
 31
0.0
  0
LINE
  5
204
330
1F
100
AcDbEntity
  8
0
  6
Continuous
 62
     7
370
    18
100
AcDbLine
 10
2.3458827227
 20
5.9047218841
 30
0.0
 11
2.3458827227
 21
5.8675790532
 31
0.0
  0
LINE
  5
205
330
1F
100
AcDbEntity
  8
0
  6
Continuous
 62
     7
370
    18
100
AcDbLine
 10
2.3901684311
 20
5.9047218841
 30
0.0
 11
2.3458827227
 21
5.9047218841
 31
0.0
  0
LINE
  5
206
330
1F
100
AcDbEntity
  8
0
  6
Continuous
 62
     7
370
    18
100
AcDbLine
 10
2.3901684311
 20
5.939007608
 30
0.0
 11
2.3901684311
 21
5.9047218841
 31
0.0
  0
LINE
  5
207
330
1F
100
AcDbEntity
  8
0
  6
Continuous
 62
     7
370
    18
100
AcDbLine
 10
2.2801684552
 20
5.939007608
 30
0.0
 11
2.3901684311
 21
5.939007608
 31
0.0
  0
LINE
  5
208
330
1F
100
AcDbEntity
  8
0
  6
Continuous
 62
     7
370
    18
100
AcDbLine
 10
2.2801684552
 20
5.9047218841
 30
0.0
 11
2.2801684552
 21
5.939007608
 31
0.0
  0
LINE
  5
209
330
1F
100
AcDbEntity
  8
0
  6
Continuous
 62
     7
370
    18
100
AcDbLine
 10
2.3187398762
 20
5.9047218841
 30
0.0
 11
2.2801684552
 21
5.9047218841
 31
0.0
  0
LINE
  5
20A
330
1F
100
AcDbEntity
  8
0
  6
Continuous
 62
     7
370
    18
100
AcDbLine
 10
2.3187398762
 20
5.8675790532
 30
0.0
 11
2.3187398762
 21
5.9047218841
 31
0.0
  0
LINE
  5
20B
330
1F
100
AcDbEntity
  8
0
  6
Continuous
 62
     7
370
    18
100
AcDbLine
 10
2.2801684552
 20
5.8675790532
 30
0.0
 11
2.3187398762
 21
5.8675790532
 31
0.0
  0
LINE
  5
20C
330
1F
100
AcDbEntity
  8
0
  6
Continuous
 62
     7
370
    18
100
AcDbLine
 10
2.2801684552
 20
5.8332933293
 30
0.0
 11
2.2801684552
 21
5.8675790532
 31
0.0
  0
LINE
  5
20D
330
1F
100
AcDbEntity
  8
0
  6
Continuous
 62
     7
370
    18
100
AcDbLine
 10
2.3901684311
 20
5.8332933293
 30
0.0
 11
2.2801684552
 21
5.8332933293
 31
0.0
  0
LINE
  5
20E
330
1F
100
AcDbEntity
  8
0
  6
Continuous
 62
     7
370
    18
100
AcDbLine
 10
2.3901684311
 20
5.8675790532
 30
0.0
 11
2.3901684311
 21
5.8332933293
 31
0.0
  0
LINE
  5
20F
330
1F
100
AcDbEntity
  8
0
  6
Continuous
 62
     7
370
    18
100
AcDbLine
 10
2.3458827227
 20
6.1277352878
 30
0.0
 11
2.3458827227
 21
6.1247219093
 31
0.0
  0
SPLINE
  5
210
330
1F
100
AcDbEntity
  8
0
  6
Continuous
 62
     7
370
    18
100
AcDbSpline
210
0.0
220
0.0
230
1.0
 70
     8
 71
     3
 72
     9
 73
     5
 74
     0
 42
0.000000001
 43
0.00000001
 40
0.0
 40
0.0
 40
0.0
 40
0.0
 40
0.5595439894530722
 40
1.0
 40
1.0
 40
1.0
 40
1.0
 10
2.348405066884138
 20
6.136083494739053
 30
0.0
 10
2.347583352496138
 20
6.134625490027353
 30
0.0
 10
2.346114809533495
 20
6.132019788350302
 30
0.0
 10
2.345953689136444
 20
6.129045382694029
 30
0.0
 10
2.345882722689141
 20
6.127735287844919
 30
0.0
  0
SPLINE
  5
211
330
1F
100
AcDbEntity
  8
0
  6
Continuous
 62
     7
370
    18
100
AcDbSpline
210
0.0
220
0.0
230
1.0
 70
     8
 71
     3
 72
     9
 73
     5
 74
     0
 42
0.000000001
 43
0.00000001
 40
0.0
 40
0.0
 40
0.0
 40
0.0
 40
0.5607007414043873
 40
1.0
 40
1.0
 40
1.0
 40
1.0
 10
2.356820263004408
 20
6.142244230236378
 30
0.0
 10
2.35508398788755
 20
6.141310646998137
 30
0.0
 10
2.351987371477681
 20
6.139645617563892
 30
0.0
 10
2.349498448779952
 20
6.13717071680676
 30
0.0
 10
2.348405066884138
 20
6.136083494739053
 30
0.0
  0
LINE
  5
212
330
1F
100
AcDbEntity
  8
0
  6
Continuous
 62
     7
370
    18
100
AcDbLine
 10
2.3901684311
 20
6.1603245747
 30
0.0
 11
2.356820263
 21
6.1422442302
 31
0.0
  0
LINE
  5
213
330
1F
100
AcDbEntity
  8
0
  6
Continuous
 62
     7
370
    18
100
AcDbLine
 10
2.3901684311
 20
6.1990076078
 30
0.0
 11
2.3901684311
 21
6.1603245747
 31
0.0
  0
LINE
  5
214
330
1F
100
AcDbEntity
  8
0
  6
Continuous
 62
     7
370
    18
100
AcDbLine
 10
2.3588068401
 20
6.1820209991
 30
0.0
 11
2.3901684311
 21
6.1990076078
 31
0.0
  0
SPLINE
  5
215
330
1F
100
AcDbEntity
  8
0
  6
Continuous
 62
     7
370
    18
100
AcDbSpline
210
0.0
220
0.0
230
1.0
 70
     8
 71
     3
 72
     9
 73
     5
 74
     0
 42
0.000000001
 43
0.00000001
 40
0.0
 40
0.0
 40
0.0
 40
0.0
 40
0.5597545250451248
 40
1.0
 40
1.0
 40
1.0
 40
1.0
 10
2.345994334733122
 20
6.171909384208655
 30
0.0
 10
2.348187665068326
 20
6.174050606236315
 30
0.0
 10
2.35210604399528
 20
6.177875893807661
 30
0.0
 10
2.356758581480413
 20
6.180753948507019
 30
0.0
 10
2.3588068400553
 20
6.182020999065084
 30
0.0
  0
SPLINE
  5
216
330
1F
100
AcDbEntity
  8
0
  6
Continuous
 62
     7
370
    18
100
AcDbSpline
210
0.0
220
0.0
230
1.0
 70
     8
 71
     3
 72
     9
 73
     5
 74
     0
 42
0.000000001
 43
0.00000001
 40
0.0
 40
0.0
 40
0.0
 40
0.0
 40
0.5601689564851613
 40
1.0
 40
1.0
 40
1.0
 40
1.0
 10
2.341864909103266
 20
6.163137058880639
 30
0.0
 10
2.342460416030034
 20
6.164859629184486
 30
0.0
 10
2.343523500515302
 20
6.167934719804742
 30
0.0
 10
2.345239558957679
 20
6.17069522731138
 30
0.0
 10
2.345994334733122
 20
6.171909384208655
 30
0.0
  0
SPLINE
  5
217
330
1F
100
AcDbEntity
  8
0
  6
Continuous
 62
     7
370
    18
100
AcDbSpline
210
0.0
220
0.0
230
1.0
 70
     8
 71
     3
 72
     9
 73
     5
 74
     0
 42
0.000000001
 43
0.00000001
 40
0.0
 40
0.0
 40
0.0
 40
0.0
 40
0.5596444366374573
 40
1.0
 40
1.0
 40
1.0
 40
1.0
 10
2.337489892977159
 20
6.175391540649153
 30
0.0
 10
2.338544212263647
 20
6.173188216125146
 30
0.0
 10
2.340428121434302
 20
6.16925120830417
 30
0.0
 10
2.3414256443415
 20
6.165006319348239
 30
0.0
 10
2.341864909103266
 20
6.163137058880639
 30
0.0
  0
SPLINE
  5
218
330
1F
100
AcDbEntity
  8
0
  6
Continuous
 62
     7
370
    18
100
AcDbSpline
210
0.0
220
0.0
230
1.0
 70
     8
 71
     3
 72
    11
 73
     7
 74
     0
 42
0.000000001
 43
0.00000001
 40
0.0
 40
0.0
 40
0.0
 40
0.0
 40
0.2800120119361934
 40
0.5596291350657675
 40
0.7798016058758482
 40
0.9999999999999999
 40
0.9999999999999999
 40
0.9999999999999999
 40
0.9999999999999999
 10
2.310838080861167
 20
6.190436176852232
 30
0.0
 10
2.313846577768893
 20
6.190253416476589
 30
0.0
 10
2.319859328831525
 20
6.189888153464341
 30
0.0
 10
2.327601212860234
 20
6.1863099040814
 30
0.0
 10
2.3335340302177
 20
6.181274853556704
 30
0.0
 10
2.336171220309511
 20
6.177352721913052
 30
0.0
 10
2.337489892977159
 20
6.175391540649153
 30
0.0
  0
SPLINE
  5
219
330
1F
100
AcDbEntity
  8
0
  6
Continuous
 62
     7
370
    18
100
AcDbSpline
210
0.0
220
0.0
230
1.0
 70
     8
 71
     3
 72
    14
 73
    10
 74
     0
 42
0.000000001
 43
0.00000001
 40
0.0
 40
0.0
 40
0.0
 40
0.0
 40
0.1669983855220716
 40
0.3339061374811346
 40
0.5001722006524251
 40
0.6250161832731405
 40
0.7499346007290566
 40
0.874918271735515
 40
0.9999999999999999
 40
0.9999999999999999
 40
0.9999999999999999
 40
0.9999999999999999
 10
2.2801684551593
 20
6.147512069381851
 30
0.0
 10
2.280222952342405
 20
6.150878778265583
 30
0.0
 10
2.28033191713184
 20
6.157610368848786
 30
0.0
 10
2.281471616068033
 20
6.167631504987216
 30
0.0
 10
2.284337141799951
 20
6.176596799631112
 30
0.0
 10
2.289751938941278
 20
6.183183305275914
 30
0.0
 10
2.296002891169419
 20
6.187563024473822
 30
0.0
 10
2.303261088138767
 20
6.190068168941025
 30
0.0
 10
2.308311756453483
 20
6.190313475484768
 30
0.0
 10
2.310838080861167
 20
6.190436176852232
 30
0.0
  0
LINE
  5
21A
330
1F
100
AcDbEntity
  8
0
  6
Continuous
 62
     7
370
    18
100
AcDbLine
 10
2.2801684552
 20
6.0904361854
 30
0.0
 11
2.2801684552
 21
6.1475120694
 31
0.0
  0
LINE
  5
21B
330
1F
100
AcDbEntity
  8
0
  6
Continuous
 62
     7
370
    18
100
AcDbLine
 10
2.3901684311
 20
6.0904361854
 30
0.0
 11
2.2801684552
 21
6.0904361854
 31
0.0
  0
LINE
  5
21C
330
1F
100
AcDbEntity
  8
0
  6
Continuous
 62
     7
370
    18
100
AcDbLine
 10
2.3901684311
 20
6.1247219093
 30
0.0
 11
2.3901684311
 21
6.0904361854
 31
0.0
  0
LINE
  5
21D
330
1F
100
AcDbEntity
  8
0
  6
Continuous
 62
     7
370
    18
100
AcDbLine
 10
2.3458827227
 20
6.1247219093
 30
0.0
 11
2.3901684311
 21
6.1247219093
 31
0.0
  0
LINE
  5
21E
330
1F
100
AcDbEntity
  8
0
  6
Continuous
 62
     7
370
    18
100
AcDbLine
 10
2.2801684552
 20
6.3808602846
 30
0.0
 11
2.3901684311
 21
6.4218647492
 31
0.0
  0
LINE
  5
21F
330
1F
100
AcDbEntity
  8
0
  6
Continuous
 62
     7
370
    18
100
AcDbLine
 10
2.2801684552
 20
6.3421772514
 30
0.0
 11
2.2801684552
 21
6.3808602846
 31
0.0
  0
LINE
  5
220
330
1F
100
AcDbEntity
  8
0
  6
Continuous
 62
     7
370
    18
100
AcDbLine
 10
2.3901684311
 20
6.301864743
 30
0.0
 11
2.2801684552
 21
6.3421772514
 31
0.0
  0
LINE
  5
221
330
1F
100
AcDbEntity
  8
0
  6
Continuous
 62
     7
370
    18
100
AcDbLine
 10
2.3901684311
 20
6.336686179
 30
0.0
 11
2.3901684311
 21
6.301864743
 31
0.0
  0
LINE
  5
222
330
1F
100
AcDbEntity
  8
0
  6
Continuous
 62
     7
370
    18
100
AcDbLine
 10
2.3715970523
 20
6.3422442132
 30
0.0
 11
2.3901684311
 21
6.336686179
 31
0.0
  0
LINE
  5
223
330
1F
100
AcDbEntity
  8
0
  6
Continuous
 62
     7
370
    18
100
AcDbLine
 10
2.3715970523
 20
6.3805477873
 30
0.0
 11
2.3715970523
 21
6.3422442132
 31
0.0
  0
LINE
  5
224
330
1F
100
AcDbEntity
  8
0
  6
Continuous
 62
     7
370
    18
100
AcDbLine
 10
2.3901684311
 20
6.3861058215
 30
0.0
 11
2.3715970523
 21
6.3805477873
 31
0.0
  0
LINE
  5
225
330
1F
100
AcDbEntity
  8
0
  6
Continuous
 62
     7
370
    18
100
AcDbLine
 10
2.3901684311
 20
6.4218647492
 30
0.0
 11
2.3901684311
 21
6.3861058215
 31
0.0
  0
SPLINE
  5
226
330
1F
100
AcDbEntity
  8
0
  6
Continuous
 62
     7
370
    18
100
AcDbSpline
210
0.0
220
0.0
230
1.0
 70
     8
 71
     3
 72
    14
 73
    10
 74
     0
 42
0.000000001
 43
0.00000001
 40
0.0
 40
0.0
 40
0.0
 40
0.0
 40
0.1669123412548514
 40
0.3338043605974381
 40
0.5005334744596158
 40
0.625502966386819
 40
0.7502309495588926
 40
0.8750947837793946
 40
1.0
 40
1.0
 40
1.0
 40
1.0
 10
2.316105920006639
 20
6.5971995703868
 30
0.0
 10
2.316941796066683
 20
6.600955530534972
 30
0.0
 10
2.318613446417182
 20
6.608466993535639
 30
0.0
 10
2.321739135739172
 20
6.619575349159199
 30
0.0
 10
2.325546559728059
 20
6.629485465357718
 30
0.0
 10
2.330836077688958
 20
6.637601864256622
 30
0.0
 10
2.337398801426326
 20
6.643380234286752
 30
0.0
 10
2.345452117459506
 20
6.646981630827182
 30
0.0
 10
2.351229956197385
 20
6.647379877769914
 30
0.0
 10
2.354119354205537
 20
6.647579034232267
 30
0.0
  0
SPLINE
  5
227
330
1F
100
AcDbEntity
  8
0
  6
Continuous
 62
     7
370
    18
100
AcDbSpline
210
0.0
220
0.0
230
1.0
 70
     8
 71
     3
 72
     9
 73
     5
 74
     0
 42
0.000000001
 43
0.00000001
 40
0.0
 40
0.0
 40
0.0
 40
0.0
 40
0.5583599189294907
 40
1.0
 40
1.0
 40
1.0
 40
1.0
 10
2.312065740012477
 20
6.585793316319487
 30
0.0
 10
2.313096722281786
 20
6.587820732720703
 30
0.0
 10
2.314943169769073
 20
6.591451753380468
 30
0.0
 10
2.315749716599197
 20
6.595438751995312
 30
0.0
 10
2.316105920006639
 20
6.5971995703868
 30
0.0
  0
SPLINE
  5
228
330
1F
100
AcDbEntity
  8
0
  6
Continuous
 62
     7
370
    18
100
AcDbSpline
210
0.0
220
0.0
230
1.0
 70
     8
 71
     3
 72
     9
 73
     5
 74
     0
 42
0.000000001
 43
0.00000001
 40
0.0
 40
0.0
 40
0.0
 40
0.0
 40
0.5581115524581767
 40
1.0
 40
1.0
 40
1.0
 40
1.0
 10
2.307355961086911
 20
6.583293320199655
 30
0.0
 10
2.308390493373524
 20
6.583478081301592
 30
0.0
 10
2.310244123319107
 20
6.583809128206322
 30
0.0
 10
2.311507478120566
 20
6.58518523196563
 30
0.0
 10
2.312065740012477
 20
6.585793316319487
 30
0.0
  0
SPLINE
  5
229
330
1F
100
AcDbEntity
  8
0
  6
Continuous
 62
     7
370
    18
100
AcDbSpline
210
0.0
220
0.0
230
1.0
 70
     8
 71
     3
 72
    11
 73
     7
 74
     0
 42
0.000000001
 43
0.00000001
 40
0.0
 40
0.0
 40
0.0
 40
0.0
 40
0.280795089343527
 40
0.5600524584078196
 40
0.7799903256920829
 40
1.0
 40
1.0
 40
1.0
 40
1.0
 10
2.298739907286967
 20
6.594029929502762
 30
0.0
 10
2.298801959386643
 20
6.592576219615487
 30
0.0
 10
2.298925723769609
 20
6.589676760803428
 30
0.0
 10
2.300875800263647
 20
6.586009553384289
 30
0.0
 10
2.303931307809063
 20
6.583663939994169
 30
0.0
 10
2.306214285787173
 20
6.583416873572992
 30
0.0
 10
2.307355961086911
 20
6.583293320199655
 30
0.0
  0
SPLINE
  5
22A
330
1F
100
AcDbEntity
  8
0
  6
Continuous
 62
     7
370
    18
100
AcDbSpline
210
0.0
220
0.0
230
1.0
 70
     8
 71
     3
 72
    11
 73
     7
 74
     0
 42
0.000000001
 43
0.00000001
 40
0.0
 40
0.0
 40
0.0
 40
0.0
 40
0.2807330701778694
 40
0.5595392569978757
 40
0.7793659620718044
 40
1.0
 40
1.0
 40
1.0
 40
1.0
 10
2.31302558892422
 20
6.609007603979387
 30
0.0
 10
2.310910088118659
 20
6.608586123417034
 30
0.0
 10
2.30669360678936
 20
6.607746055232159
 30
0.0
 10
2.301517794570882
 20
6.604246400137465
 30
0.0
 10
2.299023091377258
 20
6.599111215034827
 30
0.0
 10
2.298834417259092
 20
6.595725759778759
 30
0.0
 10
2.298739907286967
 20
6.594029929502762
 30
0.0
  0
LINE
  5
22B
330
1F
100
AcDbEntity
  8
0
  6
Continuous
 62
     7
370
    18
100
AcDbLine
 10
2.3111282575
 20
6.6432933187
 30
0.0
 11
2.3130255889
 21
6.609007604
 31
0.0
  0
SPLINE
  5
22C
330
1F
100
AcDbEntity
  8
0
  6
Continuous
 62
     7
370
    18
100
AcDbSpline
210
0.0
220
0.0
230
1.0
 70
     8
 71
     3
 72
    13
 73
     9
 74
     0
 42
0.000000001
 43
0.00000001
 40
0.0
 40
0.0
 40
0.0
 40
0.0
 40
0.186985413526598
 40
0.373797784379499
 40
0.5601092585959616
 40
0.7065490593165542
 40
0.853189497591476
 40
1.0
 40
1.0
 40
1.0
 40
1.0
 10
2.278739864995829
 20
6.598293324418326
 30
0.0
 10
2.278856006932416
 20
6.602159540526028
 30
0.0
 10
2.279088183323884
 20
6.609888394813295
 30
0.0
 10
2.281498525186151
 20
6.621272652858446
 30
0.0
 10
2.286300369084118
 20
6.631122923420937
 30
0.0
 10
2.293766286852474
 20
6.637903242568616
 30
0.0
 10
2.302132068830707
 20
6.641787646822084
 30
0.0
 10
2.308128369600714
 20
6.642791234231256
 30
0.0
 10
2.311128257509021
 20
6.643293318741218
 30
0.0
  0
SPLINE
  5
22D
330
1F
100
AcDbEntity
  8
0
  6
Continuous
 62
     7
370
    18
100
AcDbSpline
210
0.0
220
0.0
230
1.0
 70
     8
 71
     3
 72
    14
 73
    10
 74
     0
 42
0.000000001
 43
0.00000001
 40
0.0
 40
0.0
 40
0.0
 40
0.0
 40
0.1249329787545917
 40
0.2499053955307571
 40
0.3747469323734717
 40
0.4996950077373903
 40
0.6662603981903544
 40
0.833076804519824
 40
1.0
 40
1.0
 40
1.0
 40
1.0
 10
2.310614856773204
 20
6.551864749098524
 30
0.0
 10
2.307975492773784
 20
6.552083044833068
 30
0.0
 10
2.302695931597865
 20
6.552519705212321
 30
0.0
 10
2.295431123957303
 20
6.555956006328031
 30
0.0
 10
2.289241195223715
 20
6.56096400530722
 30
0.0
 10
2.284141285527637
 20
6.568209683136449
 30
0.0
 10
2.280618944251716
 20
6.577295238956224
 30
0.0
 10
2.278977710184301
 20
6.587753016576214
 30
0.0
 10
2.27881916363576
 20
6.594779139070675
 30
0.0
 10
2.278739864995829
 20
6.598293324418326
 30
0.0
  0
SPLINE
  5
22E
330
1F
100
AcDbEntity
  8
0
  6
Continuous
 62
     7
370
    18
100
AcDbSpline
210
0.0
220
0.0
230
1.0
 70
     8
 71
     3
 72
    11
 73
     7
 74
     0
 42
0.000000001
 43
0.00000001
 40
0.0
 40
0.0
 40
0.0
 40
0.0
 40
0.2799924354720532
 40
0.5597498651963225
 40
0.7798316966430815
 40
1.0
 40
1.0
 40
1.0
 40
1.0
 10
2.331641627203491
 20
6.561485283794619
 30
0.0
 10
2.330089717187986
 20
6.559871541671649
 30
0.0
 10
2.326987199719932
 20
6.556645411886137
 30
0.0
 10
2.321424351513805
 20
6.553689168848503
 30
0.0
 10
2.315879224203399
 20
6.55209917430034
 30
0.0
 10
2.312369875679977
 20
6.551942901063953
 30
0.0
 10
2.310614856773204
 20
6.551864749098524
 30
0.0
  0
SPLINE
  5
22F
330
1F
100
AcDbEntity
  8
0
  6
Continuous
 62
     7
370
    18
100
AcDbSpline
210
0.0
220
0.0
230
1.0
 70
     8
 71
     3
 72
    11
 73
     7
 74
     0
 42
0.000000001
 43
0.00000001
 40
0.0
 40
0.0
 40
0.0
 40
0.0
 40
0.2801027902339348
 40
0.56015580269109
 40
0.7801749373617258
 40
0.9999999999999999
 40
0.9999999999999999
 40
0.9999999999999999
 40
0.9999999999999999
 10
2.344878287625793
 20
6.593382605314039
 30
0.0
 10
2.34412101397925
 20
6.590218141774243
 30
0.0
 10
2.342606601263184
 20
6.583889777059488
 30
0.0
 10
2.339659878165536
 20
6.575318406257019
 30
0.0
 10
2.336212079210421
 20
6.567656744352145
 30
0.0
 10
2.333164663002959
 20
6.563541832107537
 30
0.0
 10
2.331641627203491
 20
6.561485283794619
 30
0.0
  0
SPLINE
  5
230
330
1F
100
AcDbEntity
  8
0
  6
Continuous
 62
     7
370
    18
100
AcDbSpline
210
0.0
220
0.0
230
1.0
 70
     8
 71
     3
 72
    10
 73
     6
 74
     0
 42
0.000000001
 43
0.00000001
 40
0.0
 40
0.0
 40
0.0
 40
0.0
 40
0.2789770749960421
 40
0.5593536582279289
 40
1.0
 40
1.0
 40
1.0
 40
1.0
 10
2.351239880802793
 20
6.610168319737367
 30
0.0
 10
2.350265462277025
 20
6.608782604751727
 30
0.0
 10
2.348311736986011
 20
6.606004223243172
 30
0.0
 10
2.34652496717233
 20
6.600180647689205
 30
0.0
 10
2.345502908883327
 20
6.595961250191286
 30
0.0
 10
2.344878287625793
 20
6.593382605314039
 30
0.0
  0
SPLINE
  5
231
330
1F
100
AcDbEntity
  8
0
  6
Continuous
 62
     7
370
    18
100
AcDbSpline
210
0.0
220
0.0
230
1.0
 70
     8
 71
     3
 72
     9
 73
     5
 74
     0
 42
0.000000001
 43
0.00000001
 40
0.0
 40
0.0
 40
0.0
 40
0.0
 40
0.5590593642855481
 40
1.0
 40
1.0
 40
1.0
 40
1.0
 10
2.358873792615192
 20
6.613293319470436
 30
0.0
 10
2.357278770312181
 20
6.613106008377891
 30
0.0
 10
2.35442572391871
 20
6.6127709615036
 30
0.0
 10
2.352214777099004
 20
6.610964751239467
 30
0.0
 10
2.351239880802793
 20
6.610168319737367
 30
0.0
  0
SPLINE
  5
232
330
1F
100
AcDbEntity
  8
0
  6
Continuous
 62
     7
370
    18
100
AcDbSpline
210
0.0
220
0.0
230
1.0
 70
     8
 71
     3
 72
    11
 73
     7
 74
     0
 42
0.000000001
 43
0.00000001
 40
0.0
 40
0.0
 40
0.0
 40
0.0
 40
0.2807159735168985
 40
0.5599863842917975
 40
0.7802609606519015
 40
1.0
 40
1.0
 40
1.0
 40
1.0
 10
2.370168462138206
 20
6.599454031009745
 30
0.0
 10
2.370067831186901
 20
6.601331748901427
 30
0.0
 10
2.369867087489053
 20
6.60507751527058
 30
0.0
 10
2.367198443919986
 20
6.609721454039769
 30
0.0
 10
2.363281975937626
 20
6.612747324077517
 30
0.0
 10
2.360341994313386
 20
6.613111468738637
 30
0.0
 10
2.358873792615192
 20
6.613293319470436
 30
0.0
  0
SPLINE
  5
233
330
1F
100
AcDbEntity
  8
0
  6
Continuous
 62
     7
370
    18
100
AcDbSpline
210
0.0
220
0.0
230
1.0
 70
     8
 71
     3
 72
    10
 73
     6
 74
     0
 42
0.000000001
 43
0.00000001
 40
0.0
 40
0.0
 40
0.0
 40
0.0
 40
0.2803965028090109
 40
0.5605821865540287
 40
1.0
 40
1.0
 40
1.0
 40
1.0
 10
2.363538985389154
 20
6.585770995744002
 30
0.0
 10
2.364673317169668
 20
6.586722619649196
 30
0.0
 10
2.366941127871399
 20
6.588625151971128
 30
0.0
 10
2.369641762987989
 20
6.593308511708549
 30
0.0
 10
2.369968775569195
 20
6.597124090542699
 30
0.0
 10
2.370168462138206
 20
6.599454031009745
 30
0.0
  0
SPLINE
  5
234
330
1F
100
AcDbEntity
  8
0
  6
Continuous
 62
     7
370
    18
100
AcDbSpline
210
0.0
220
0.0
230
1.0
 70
     8
 71
     3
 72
     9
 73
     5
 74
     0
 42
0.000000001
 43
0.00000001
 40
0.0
 40
0.0
 40
0.0
 40
0.0
 40
0.5603792885874517
 40
1.0
 40
1.0
 40
1.0
 40
1.0
 10
2.351597010010539
 20
6.581864748369306
 30
0.0
 10
2.353963484870504
 20
6.582199323450251
 30
0.0
 10
2.358186472600707
 20
6.582796374568591
 30
0.0
 10
2.361904474673069
 20
6.584862627958689
 30
0.0
 10
2.363538985389154
 20
6.585770995744002
 30
0.0
  0
LINE
  5
235
330
1F
100
AcDbEntity
  8
0
  6
Continuous
 62
     7
370
    18
100
AcDbLine
 10
2.3536059535
 20
6.5475790336
 30
0.0
 11
2.35159701
 21
6.5818647484
 31
0.0
  0
SPLINE
  5
236
330
1F
100
AcDbEntity
  8
0
  6
Continuous
 62
     7
370
    18
100
AcDbSpline
210
0.0
220
0.0
230
1.0
 70
     8
 71
     3
 72
    14
 73
    10
 74
     0
 42
0.000000001
 43
0.00000001
 40
0.0
 40
0.0
 40
0.0
 40
0.0
 40
0.1402396057893645
 40
0.280438320379708
 40
0.4205104305056813
 40
0.5601894226677426
 40
0.706740794850387
 40
0.8533009890954886
 40
1.0
 40
1.0
 40
1.0
 40
1.0
 10
2.391597021260329
 20
6.598784395412099
 30
0.0
 10
2.39153380252288
 20
6.595428280718859
 30
0.0
 10
2.391407383481361
 20
6.588717029911524
 30
0.0
 10
2.390040380496843
 20
6.578726417636408
 30
0.0
 10
2.387327441505193
 20
6.568997197256538
 30
0.0
 10
2.381976506829826
 20
6.560079904170538
 30
0.0
 10
2.373722053629753
 20
6.553578375688361
 30
0.0
 10
2.364080596374607
 20
6.549045572916699
 30
0.0
 10
2.35709860276607
 20
6.548068034285869
 30
0.0
 10
2.353605953469719
 20
6.547579033607475
 30
0.0
  0
SPLINE
  5
237
330
1F
100
AcDbEntity
  8
0
  6
Continuous
 62
     7
370
    18
100
AcDbSpline
210
0.0
220
0.0
230
1.0
 70
     8
 71
     3
 72
    14
 73
    10
 74
     0
 42
0.000000001
 43
0.00000001
 40
0.0
 40
0.0
 40
0.0
 40
0.0
 40
0.1398591826696385
 40
0.2797217669909577
 40
0.4196104850617755
 40
0.5595266180253112
 40
0.7062278650036127
 40
0.8530792695292692
 40
1.0
 40
1.0
 40
1.0
 40
1.0
 10
2.354119354205537
 20
6.647579034232267
 30
0.0
 10
2.357351186371319
 20
6.647326821328078
 30
0.0
 10
2.363814929307427
 20
6.646822389385383
 30
0.0
 10
2.37276011649086
 20
6.642707640363659
 30
0.0
 10
2.380328700326983
 20
6.636546160110472
 30
0.0
 10
2.385996294168366
 20
6.628375821815235
 30
0.0
 10
2.389577411016359
 20
6.618977928967147
 30
0.0
 10
2.391317619329713
 20
6.608934406424304
 30
0.0
 10
2.391503872632435
 20
6.602168264653137
 30
0.0
 10
2.391597021260329
 20
6.598784395412099
 30
0.0
  0
LINE
  5
238
330
1F
100
AcDbEntity
  8
0
  6
Continuous
 62
     7
370
    18
100
AcDbLine
 10
3.7294089734
 20
5.8736369032
 30
0.0
 11
3.6901684667
 21
5.8736369032
 31
0.0
  0
LINE
  5
239
330
1F
100
AcDbEntity
  8
0
  6
Continuous
 62
     7
370
    18
100
AcDbLine
 10
3.7294089734
 20
5.8242698402
 30
0.0
 11
3.7294089734
 21
5.8736369032
 31
0.0
  0
LINE
  5
23A
330
1F
100
AcDbEntity
  8
0
  6
Continuous
 62
     7
370
    18
100
AcDbLine
 10
3.6901684667
 20
5.8242698402
 30
0.0
 11
3.7294089734
 21
5.8242698402
 31
0.0
  0
LINE
  5
23B
330
1F
100
AcDbEntity
  8
0
  6
Continuous
 62
     7
370
    18
100
AcDbLine
 10
3.6901684667
 20
5.8116115531
 30
0.0
 11
3.6901684667
 21
5.8242698402
 31
0.0
  0
LINE
  5
23C
330
1F
100
AcDbEntity
  8
0
  6
Continuous
 62
     7
370
    18
100
AcDbLine
 10
3.7901684582
 20
5.8116115531
 30
0.0
 11
3.6901684667
 21
5.8116115531
 31
0.0
  0
LINE
  5
23D
330
1F
100
AcDbEntity
  8
0
  6
Continuous
 62
     7
370
    18
100
AcDbLine
 10
3.7901684582
 20
5.8242698402
 30
0.0
 11
3.7901684582
 21
5.8116115531
 31
0.0
  0
LINE
  5
23E
330
1F
100
AcDbEntity
  8
0
  6
Continuous
 62
     7
370
    18
100
AcDbLine
 10
3.7408013951
 20
5.8242698402
 30
0.0
 11
3.7901684582
 21
5.8242698402
 31
0.0
  0
LINE
  5
23F
330
1F
100
AcDbEntity
  8
0
  6
Continuous
 62
     7
370
    18
100
AcDbLine
 10
3.7408013951
 20
5.8736369032
 30
0.0
 11
3.7408013951
 21
5.8242698402
 31
0.0
  0
LINE
  5
240
330
1F
100
AcDbEntity
  8
0
  6
Continuous
 62
     7
370
    18
100
AcDbLine
 10
3.7901684582
 20
5.8736369032
 30
0.0
 11
3.7408013951
 21
5.8736369032
 31
0.0
  0
LINE
  5
241
330
1F
100
AcDbEntity
  8
0
  6
Continuous
 62
     7
370
    18
100
AcDbLine
 10
3.7901684582
 20
5.886295117
 30
0.0
 11
3.7901684582
 21
5.8736369032
 31
0.0
  0
LINE
  5
242
330
1F
100
AcDbEntity
  8
0
  6
Continuous
 62
     7
370
    18
100
AcDbLine
 10
3.6901684667
 20
5.886295117
 30
0.0
 11
3.7901684582
 21
5.886295117
 31
0.0
  0
LINE
  5
243
330
1F
100
AcDbEntity
  8
0
  6
Continuous
 62
     7
370
    18
100
AcDbLine
 10
3.6901684667
 20
5.8736369032
 30
0.0
 11
3.6901684667
 21
5.886295117
 31
0.0
  0
LINE
  5
244
330
1F
100
AcDbEntity
  8
0
  6
Continuous
 62
     7
370
    18
100
AcDbLine
 10
3.7901684582
 20
5.9875609372
 30
0.0
 11
3.6901684667
 21
6.0242104604
 31
0.0
  0
LINE
  5
245
330
1F
100
AcDbEntity
  8
0
  6
Continuous
 62
     7
370
    18
100
AcDbLine
 10
3.7901684582
 20
6.0010498613
 30
0.0
 11
3.7901684582
 21
5.9875609372
 31
0.0
  0
LINE
  5
246
330
1F
100
AcDbEntity
  8
0
  6
Continuous
 62
     7
370
    18
100
AcDbLine
 10
3.7623203732
 20
6.0109193506
 30
0.0
 11
3.7901684582
 21
6.0010498613
 31
0.0
  0
LINE
  5
247
330
1F
100
AcDbEntity
  8
0
  6
Continuous
 62
     7
370
    18
100
AcDbLine
 10
3.7623203732
 20
6.0553418241
 30
0.0
 11
3.7623203732
 21
6.0109193506
 31
0.0
  0
LINE
  5
248
330
1F
100
AcDbEntity
  8
0
  6
Continuous
 62
     7
370
    18
100
AcDbLine
 10
3.7901684582
 20
6.0652112768
 30
0.0
 11
3.7623203732
 21
6.0553418241
 31
0.0
  0
LINE
  5
249
330
1F
100
AcDbEntity
  8
0
  6
Continuous
 62
     7
370
    18
100
AcDbLine
 10
3.7901684582
 20
6.078700201
 30
0.0
 11
3.7901684582
 21
6.0652112768
 31
0.0
  0
LINE
  5
24A
330
1F
100
AcDbEntity
  8
0
  6
Continuous
 62
     7
370
    18
100
AcDbLine
 10
3.6901684667
 20
6.0420506777
 30
0.0
 11
3.7901684582
 21
6.078700201
 31
0.0
  0
LINE
  5
24B
330
1F
100
AcDbEntity
  8
0
  6
Continuous
 62
     7
370
    18
100
AcDbLine
 10
3.6901684667
 20
6.0242104604
 30
0.0
 11
3.6901684667
 21
6.0420506777
 31
0.0
  0
LINE
  5
24C
330
1F
100
AcDbEntity
  8
0
  6
Continuous
 62
     7
370
    18
100
AcDbLine
 10
3.7521937435
 20
6.1850292993
 30
0.0
 11
3.7408013951
 21
6.1850292993
 31
0.0
  0
LINE
  5
24D
330
1F
100
AcDbEntity
  8
0
  6
Continuous
 62
     7
370
    18
100
AcDbLine
 10
3.7521937435
 20
6.2268014634
 30
0.0
 11
3.7521937435
 21
6.1850292993
 31
0.0
  0
LINE
  5
24E
330
1F
100
AcDbEntity
  8
0
  6
Continuous
 62
     7
370
    18
100
AcDbLine
 10
3.7408013951
 20
6.2268014634
 30
0.0
 11
3.7521937435
 21
6.2268014634
 31
0.0
  0
LINE
  5
24F
330
1F
100
AcDbEntity
  8
0
  6
Continuous
 62
     7
370
    18
100
AcDbLine
 10
3.7408013951
 20
6.1850292993
 30
0.0
 11
3.7408013951
 21
6.2268014634
 31
0.0
  0
LINE
  5
250
330
1F
100
AcDbEntity
  8
0
  6
Continuous
 62
     7
370
    18
100
AcDbLine
 10
3.6901684667
 20
6.345788803
 30
0.0
 11
3.7787760364
 21
6.345788803
 31
0.0
  0
LINE
  5
251
330
1F
100
AcDbEntity
  8
0
  6
Continuous
 62
     7
370
    18
100
AcDbLine
 10
3.6901684667
 20
6.3331305709
 30
0.0
 11
3.6901684667
 21
6.345788803
 31
0.0
  0
LINE
  5
252
330
1F
100
AcDbEntity
  8
0
  6
Continuous
 62
     7
370
    18
100
AcDbLine
 10
3.7901684582
 20
6.3331305709
 30
0.0
 11
3.6901684667
 21
6.3331305709
 31
0.0
  0
LINE
  5
253
330
1F
100
AcDbEntity
  8
0
  6
Continuous
 62
     7
370
    18
100
AcDbLine
 10
3.7901684582
 20
6.3951558844
 30
0.0
 11
3.7901684582
 21
6.3331305709
 31
0.0
  0
LINE
  5
254
330
1F
100
AcDbEntity
  8
0
  6
Continuous
 62
     7
370
    18
100
AcDbLine
 10
3.7787760364
 20
6.3951558844
 30
0.0
 11
3.7901684582
 21
6.3951558844
 31
0.0
  0
LINE
  5
255
330
1F
100
AcDbEntity
  8
0
  6
Continuous
 62
     7
370
    18
100
AcDbLine
 10
3.7787760364
 20
6.345788803
 30
0.0
 11
3.7787760364
 21
6.3951558844
 31
0.0
  0
LINE
  5
256
330
1F
100
AcDbEntity
  8
0
  6
Continuous
 62
     7
370
    18
100
AcDbLine
 10
3.7015608884
 20
6.4888267747
 30
0.0
 11
3.6901684667
 21
6.4888267747
 31
0.0
  0
LINE
  5
257
330
1F
100
AcDbEntity
  8
0
  6
Continuous
 62
     7
370
    18
100
AcDbLine
 10
3.7015608884
 20
6.5242698125
 30
0.0
 11
3.7015608884
 21
6.4888267747
 31
0.0
  0
LINE
  5
258
330
1F
100
AcDbEntity
  8
0
  6
Continuous
 62
     7
370
    18
100
AcDbLine
 10
3.7901684582
 20
6.5242698125
 30
0.0
 11
3.7015608884
 21
6.5242698125
 31
0.0
  0
LINE
  5
259
330
1F
100
AcDbEntity
  8
0
  6
Continuous
 62
     7
370
    18
100
AcDbLine
 10
3.7901684582
 20
6.53692804
 30
0.0
 11
3.7901684582
 21
6.5242698125
 31
0.0
  0
LINE
  5
25A
330
1F
100
AcDbEntity
  8
0
  6
Continuous
 62
     7
370
    18
100
AcDbLine
 10
3.7015608884
 20
6.53692804
 30
0.0
 11
3.7901684582
 21
6.53692804
 31
0.0
  0
LINE
  5
25B
330
1F
100
AcDbEntity
  8
0
  6
Continuous
 62
     7
370
    18
100
AcDbLine
 10
3.7015608884
 20
6.5723710789
 30
0.0
 11
3.7015608884
 21
6.53692804
 31
0.0
  0
LINE
  5
25C
330
1F
100
AcDbEntity
  8
0
  6
Continuous
 62
     7
370
    18
100
AcDbLine
 10
3.6901684667
 20
6.5723710789
 30
0.0
 11
3.7015608884
 21
6.5723710789
 31
0.0
  0
LINE
  5
25D
330
1F
100
AcDbEntity
  8
0
  6
Continuous
 62
     7
370
    18
100
AcDbLine
 10
3.6901684667
 20
6.4888267747
 30
0.0
 11
3.6901684667
 21
6.5723710789
 31
0.0
  0
LINE
  5
25E
330
1F
100
AcDbEntity
  8
0
  6
Continuous
 62
     7
370
    18
100
AcDbLine
 10
3.9901684411
 20
7.6018647786
 30
0.0
 11
2.0901684567
 21
7.6018647786
 31
0.0
  0
CIRCLE
  5
25F
330
1F
100
AcDbEntity
  8
0
  6
Continuous
 62
     7
370
    18
100
AcDbCircle
 10
3.7901684489
 20
7.4328647492
 30
0.0
 40
0.0642499999999995
  0
CIRCLE
  5
260
330
1F
100
AcDbEntity
  8
0
  6
Continuous
 62
     7
370
    18
100
AcDbCircle
 10
2.2901684489
 20
7.4328647492
 30
0.0
 40
0.0642499999999995
  0
LINE
  5
261
330
1F
100
AcDbEntity
  8
0
  6
Continuous
 62
     7
370
    18
100
AcDbLine
 10
2.3215970566
 20
6.4675790352
 30
0.0
 11
2.3215970566
 21
6.4814406422
 31
0.0
  0
SPLINE
  5
262
330
1F
100
AcDbEntity
  8
0
  6
Continuous
 62
     7
370
    18
100
AcDbSpline
210
0.0
220
0.0
230
1.0
 70
     8
 71
     3
 72
    12
 73
     8
 74
     0
 42
0.000000001
 43
0.00000001
 40
0.0
 40
0.0
 40
0.0
 40
0.0
 40
0.2506875573542496
 40
0.5006367943047751
 40
0.6258630054574127
 40
0.7510083832776983
 40
1.0
 40
1.0
 40
1.0
 40
1.0
 10
2.321597056572561
 20
6.481440642201107
 30
0.0
 10
2.321550793992285
 20
6.482995493102695
 30
0.0
 10
2.321458405083436
 20
6.486100615587466
 30
0.0
 10
2.320548621696834
 20
6.489994127748651
 30
0.0
 10
2.318677229731787
 20
6.492540644226944
 30
0.0
 10
2.316048420976838
 20
6.494339380273012
 30
0.0
 10
2.313683966040188
 20
6.494569046761834
 30
0.0
 10
2.312110399496567
 20
6.494721891926019
 30
0.0
  0
SPLINE
  5
263
330
1F
100
AcDbEntity
  8
0
  6
Continuous
 62
     7
370
    18
100
AcDbSpline
210
0.0
220
0.0
230
1.0
 70
     8
 71
     3
 72
    12
 73
     8
 74
     0
 42
0.000000001
 43
0.00000001
 40
0.0
 40
0.0
 40
0.0
 40
0.0
 40
0.2486683568255497
 40
0.373880227584085
 40
0.499141790388461
 40
0.7492322094566672
 40
1.0
 40
1.0
 40
1.0
 40
1.0
 10
2.312110399496567
 20
6.494721891926019
 30
0.0
 10
2.310583550879533
 20
6.49455225019241
 30
0.0
 10
2.308287888835073
 20
6.49429718882964
 30
0.0
 10
2.305817940174736
 20
6.492436357741551
 30
0.0
 10
2.30407805698472
 20
6.489924535409918
 30
0.0
 10
2.303156687068081
 20
6.486167418096795
 30
0.0
 10
2.303069338030199
 20
6.483151522172087
 30
0.0
 10
2.303025604444894
 20
6.481641534828295
 30
0.0
  0
LINE
  5
264
330
1F
100
AcDbEntity
  8
0
  6
Continuous
 62
     7
370
    18
100
AcDbLine
 10
2.3030256044
 20
6.4816415348
 30
0.0
 11
2.3030256044
 21
6.4675790352
 31
0.0
  0
LINE
  5
265
330
1F
100
AcDbEntity
  8
0
  6
Continuous
 62
     7
370
    18
100
AcDbLine
 10
2.3030256044
 20
6.4675790352
 30
0.0
 11
2.3215970566
 21
6.4675790352
 31
0.0
  0
LINE
  5
266
330
1F
100
AcDbEntity
  8
0
  6
Continuous
 62
     7
370
    18
100
AcDbLine
 10
2.3644541748
 20
6.4675790352
 30
0.0
 11
2.3644541748
 21
6.4846772491
 31
0.0
  0
SPLINE
  5
267
330
1F
100
AcDbEntity
  8
0
  6
Continuous
 62
     7
370
    18
100
AcDbSpline
210
0.0
220
0.0
230
1.0
 70
     8
 71
     3
 72
    12
 73
     8
 74
     0
 42
0.000000001
 43
0.00000001
 40
0.0
 40
0.0
 40
0.0
 40
0.0
 40
0.2507689161151405
 40
0.5006537677329547
 40
0.6258735852339943
 40
0.7511901060713633
 40
1.0
 40
1.0
 40
1.0
 40
1.0
 10
2.364454174816807
 20
6.484677249108423
 30
0.0
 10
2.364398427130658
 20
6.486496794802261
 30
0.0
 10
2.364287128292089
 20
6.490129471536262
 30
0.0
 10
2.363141528790935
 20
6.494663478459674
 30
0.0
 10
2.360969361173755
 20
6.497631238643979
 30
0.0
 10
2.358019015407169
 20
6.499901220535618
 30
0.0
 10
2.355247918882693
 20
6.500222507519114
 30
0.0
 10
2.353405022457558
 20
6.500436176955778
 30
0.0
  0
SPLINE
  5
268
330
1F
100
AcDbEntity
  8
0
  6
Continuous
 62
     7
370
    18
100
AcDbSpline
210
0.0
220
0.0
230
1.0
 70
     8
 71
     3
 72
    12
 73
     8
 74
     0
 42
0.000000001
 43
0.00000001
 40
0.0
 40
0.0
 40
0.0
 40
0.0
 40
0.2483230054438184
 40
0.3736985262063835
 40
0.4988826779343464
 40
0.7490936787313727
 40
1.0
 40
1.0
 40
1.0
 40
1.0
 10
2.353405022457558
 20
6.500436176955778
 30
0.0
 10
2.351599508280036
 20
6.500193662843345
 30
0.0
 10
2.348882410095843
 20
6.499828706055558
 30
0.0
 10
2.346133704996074
 20
6.49742288847651
 30
0.0
 10
2.344173523914522
 20
6.494407946081473
 30
0.0
 10
2.343180682995949
 20
6.489953311969789
 30
0.0
 10
2.343077352586808
 20
6.486392940769639
 30
0.0
 10
2.343025615694684
 20
6.484610285090331
 30
0.0
  0
LINE
  5
269
330
1F
100
AcDbEntity
  8
0
  6
Continuous
 62
     7
370
    18
100
AcDbLine
 10
2.3430256157
 20
6.4846102851
 30
0.0
 11
2.3430256157
 21
6.4675790352
 31
0.0
  0
LINE
  5
26A
330
1F
100
AcDbEntity
  8
0
  6
Continuous
 62
     7
370
    18
100
AcDbLine
 10
2.3430256157
 20
6.4675790352
 30
0.0
 11
2.3644541748
 21
6.4675790352
 31
0.0
  0
LINE
  5
26B
330
1F
100
AcDbEntity
  8
0
  6
Continuous
 62
     7
370
    18
100
AcDbLine
 10
3.7509279515
 20
6.4600490848
 30
0.0
 11
3.7006708521
 21
6.4419913313
 31
0.0
  0
LINE
  5
26C
330
1F
100
AcDbEntity
  8
0
  6
Continuous
 62
     7
370
    18
100
AcDbLine
 10
3.7509279515
 20
6.4238742427
 30
0.0
 11
3.7509279515
 21
6.4600490848
 31
0.0
  0
LINE
  5
26D
330
1F
100
AcDbEntity
  8
0
  6
Continuous
 62
     7
370
    18
100
AcDbLine
 10
3.7006708521
 20
6.4419913313
 30
0.0
 11
3.7509279515
 21
6.4238742427
 31
0.0
  0
LINE
  5
26E
330
1F
100
AcDbEntity
  8
0
  6
Continuous
 62
     7
370
    18
100
AcDbLine
 10
2.3473113129
 20
6.3732709956
 30
0.0
 11
2.3082934436
 21
6.3611504647
 31
0.0
  0
LINE
  5
26F
330
1F
100
AcDbEntity
  8
0
  6
Continuous
 62
     7
370
    18
100
AcDbLine
 10
2.3082934436
 20
6.3611504647
 30
0.0
 11
2.3473113129
 21
6.3494986752
 31
0.0
  0
LINE
  5
270
330
1F
100
AcDbEntity
  8
0
  6
Continuous
 62
     7
370
    18
100
AcDbLine
 10
2.3473113129
 20
6.3494986752
 30
0.0
 11
2.3473113129
 21
6.3732709956
 31
0.0
  0
LINE
  5
271
330
1F
100
AcDbEntity
  8
0
  6
Continuous
 62
     7
370
    18
100
AcDbLine
 10
3.7420671872
 20
6.2635103127
 30
0.0
 11
3.7420671872
 21
6.2746456124
 31
0.0
  0
LINE
  5
272
330
1F
100
AcDbEntity
  8
0
  6
Continuous
 62
     7
370
    18
100
AcDbLine
 10
3.7015608884
 20
6.2635103127
 30
0.0
 11
3.7420671872
 21
6.2635103127
 31
0.0
  0
LINE
  5
273
330
1F
100
AcDbEntity
  8
0
  6
Continuous
 62
     7
370
    18
100
AcDbLine
 10
3.7015608884
 20
6.2765641186
 30
0.0
 11
3.7015608884
 21
6.2635103127
 31
0.0
  0
SPLINE
  5
274
330
1F
100
AcDbEntity
  8
0
  6
Continuous
 62
     7
370
    18
100
AcDbSpline
210
0.0
220
0.0
230
1.0
 70
     8
 71
     3
 72
    10
 73
     6
 74
     0
 42
0.000000001
 43
0.00000001
 40
0.0
 40
0.0
 40
0.0
 40
0.0
 40
0.2796975136053004
 40
0.5597314320378003
 40
1.0
 40
1.0
 40
1.0
 40
1.0
 10
3.705516516083537
 20
6.29422630285984
 30
0.0
 10
3.704682862316898
 20
6.292723088136221
 30
0.0
 10
3.703014552110597
 20
6.289714850704772
 30
0.0
 10
3.701724749346343
 20
6.283663108693435
 30
0.0
 10
3.70162304991697
 20
6.279257156792705
 30
0.0
 10
3.701560888445952
 20
6.276564118561566
 30
0.0
  0
SPLINE
  5
275
330
1F
100
AcDbEntity
  8
0
  6
Continuous
 62
     7
370
    18
100
AcDbSpline
210
0.0
220
0.0
230
1.0
 70
     8
 71
     3
 72
    11
 73
     7
 74
     0
 42
0.000000001
 43
0.00000001
 40
0.0
 40
0.0
 40
0.0
 40
0.0
 40
0.2802691074356065
 40
0.5601474562620412
 40
0.7800846208208754
 40
1.0
 40
1.0
 40
1.0
 40
1.0
 10
3.720963564304585
 20
6.301485009006647
 30
0.0
 10
3.719298160294234
 20
6.301405391267455
 30
0.0
 10
3.715969674223892
 20
6.30124626679423
 30
0.0
 10
3.71151702076928
 20
6.299759303589243
 30
0.0
 10
3.707922970973797
 20
6.297337388818929
 30
0.0
 10
3.706318641226768
 20
6.295263297270431
 30
0.0
 10
3.705516516083537
 20
6.29422630285984
 30
0.0
  0
SPLINE
  5
276
330
1F
100
AcDbEntity
  8
0
  6
Continuous
 62
     7
370
    18
100
AcDbSpline
210
0.0
220
0.0
230
1.0
 70
     8
 71
     3
 72
    10
 73
     6
 74
     0
 42
0.000000001
 43
0.00000001
 40
0.0
 40
0.0
 40
0.0
 40
0.0
 40
0.2803252256388842
 40
0.560315763000774
 40
1.0
 40
1.0
 40
1.0
 40
1.0
 10
3.735935858010037
 20
6.295749235266794
 30
0.0
 10
3.734776359504293
 20
6.296765573345955
 30
0.0
 10
3.73245874685112
 20
6.298797036069275
 30
0.0
 10
3.727357021486539
 20
6.301082873274424
 30
0.0
 10
3.723388268227433
 20
6.301332499955645
 30
0.0
 10
3.720963564304585
 20
6.301485009006647
 30
0.0
  0
SPLINE
  5
277
330
1F
100
AcDbEntity
  8
0
  6
Continuous
 62
     7
370
    18
100
AcDbSpline
210
0.0
220
0.0
230
1.0
 70
     8
 71
     3
 72
    11
 73
     7
 74
     0
 42
0.000000001
 43
0.00000001
 40
0.0
 40
0.0
 40
0.0
 40
0.0
 40
0.2802902993472893
 40
0.5604159886845752
 40
0.7803355944791357
 40
1.0
 40
1.0
 40
1.0
 40
1.0
 10
3.742067187180399
 20
6.27464561239098
 30
0.0
 10
3.742020044427311
 20
6.276752638103218
 30
0.0
 10
3.74192578660732
 20
6.280965452105192
 30
0.0
 10
3.741031039743004
 20
6.286774828796163
 30
0.0
 10
3.739157427230179
 20
6.291940254074436
 30
0.0
 10
3.737009298718446
 20
6.294480066364919
 30
0.0
 10
3.735935858010037
 20
6.295749235266794
 30
0.0
  0
LINE
  5
278
330
1F
100
AcDbEntity
  8
0
  6
Continuous
 62
     7
370
    18
100
AcDbLine
 10
2.3244541636
 20
6.1247219093
 30
0.0
 11
2.3244541636
 21
6.1392531448
 31
0.0
  0
SPLINE
  5
279
330
1F
100
AcDbEntity
  8
0
  6
Continuous
 62
     7
370
    18
100
AcDbSpline
210
0.0
220
0.0
230
1.0
 70
     8
 71
     3
 72
     9
 73
     5
 74
     0
 42
0.000000001
 43
0.00000001
 40
0.0
 40
0.0
 40
0.0
 40
0.0
 40
0.5598133387499685
 40
1.0
 40
1.0
 40
1.0
 40
1.0
 10
2.324454163567017
 20
6.139253144789652
 30
0.0
 10
2.324274504627931
 20
6.140970721246618
 30
0.0
 10
2.323953578121452
 20
6.144038844740781
 30
0.0
 10
2.323309213926952
 20
6.147054950014845
 30
0.0
 10
2.323025573403546
 20
6.148382599325415
 30
0.0
  0
SPLINE
  5
27A
330
1F
100
AcDbEntity
  8
0
  6
Continuous
 62
     7
370
    18
100
AcDbSpline
210
0.0
220
0.0
230
1.0
 70
     8
 71
     3
 72
    11
 73
     7
 74
     0
 42
0.000000001
 43
0.00000001
 40
0.0
 40
0.0
 40
0.0
 40
0.0
 40
0.2797329359634513
 40
0.5592735377538506
 40
0.7796611688773872
 40
1.0
 40
1.0
 40
1.0
 40
1.0
 10
2.323025573403546
 20
6.148382599325415
 30
0.0
 10
2.322668690733511
 20
6.149579784106853
 30
0.0
 10
2.321955170772958
 20
6.1519733305291
 30
0.0
 10
2.319394542632871
 20
6.154435467175174
 30
0.0
 10
2.316534227839021
 20
6.155926279905668
 30
0.0
 10
2.314581965370707
 20
6.156075734100619
 30
0.0
 10
2.313605942219929
 20
6.156150452923841
 30
0.0
  0
SPLINE
  5
27B
330
1F
100
AcDbEntity
  8
0
  6
Continuous
 62
     7
370
    18
100
AcDbSpline
210
0.0
220
0.0
230
1.0
 70
     8
 71
     3
 72
    12
 73
     8
 74
     0
 42
0.000000001
 43
0.00000001
 40
0.0
 40
0.0
 40
0.0
 40
0.0
 40
0.2486054736381972
 40
0.3739150072289321
 40
0.4989510745420314
 40
0.7491425848298751
 40
1.0
 40
1.0
 40
1.0
 40
1.0
 10
2.313605942219929
 20
6.156150452923841
 30
0.0
 10
2.311729662417955
 20
6.155946771723834
 30
0.0
 10
2.308907644199887
 20
6.15564042506035
 30
0.0
 10
2.305973345557848
 20
6.153226418252955
 30
0.0
 10
2.304042699059773
 20
6.150023029224335
 30
0.0
 10
2.30316546015425
 20
6.14539204083046
 30
0.0
 10
2.303072264301116
 20
6.141702866492644
 30
0.0
 10
2.303025604444894
 20
6.139855827827406
 30
0.0
  0
LINE
  5
27C
330
1F
100
AcDbEntity
  8
0
  6
Continuous
 62
     7
370
    18
100
AcDbLine
 10
2.3030256044
 20
6.1398558278
 30
0.0
 11
2.3030256044
 21
6.1247219093
 31
0.0
  0
LINE
  5
27D
330
1F
100
AcDbEntity
  8
0
  6
Continuous
 62
     7
370
    18
100
AcDbLine
 10
2.3030256044
 20
6.1247219093
 30
0.0
 11
2.3244541636
 21
6.1247219093
 31
0.0
  0
SPLINE
  5
27E
330
1F
100
AcDbEntity
  8
0
  6
Continuous
 62
     7
370
    18
100
AcDbSpline
210
0.0
220
0.0
230
1.0
 70
     8
 71
     3
 72
    10
 73
     6
 74
     0
 42
0.000000001
 43
0.00000001
 40
0.0
 40
0.0
 40
0.0
 40
0.0
 40
0.2811710789919762
 40
0.5619148805576925
 40
1.0
 40
1.0
 40
1.0
 40
1.0
 10
3.718392307341298
 20
6.144522963912253
 30
0.0
 10
3.716953019025287
 20
6.144444868071969
 30
0.0
 10
3.714076629586236
 20
6.144288795068578
 30
0.0
 10
3.709026867692069
 20
6.14270321881266
 30
0.0
 10
3.706575439646253
 20
6.139827680948085
 30
0.0
 10
3.705081434442971
 20
6.13807520506398
 30
0.0
  0
SPLINE
  5
27F
330
1F
100
AcDbEntity
  8
0
  6
Continuous
 62
     7
370
    18
100
AcDbSpline
210
0.0
220
0.0
230
1.0
 70
     8
 71
     3
 72
    10
 73
     6
 74
     0
 42
0.000000001
 43
0.00000001
 40
0.0
 40
0.0
 40
0.0
 40
0.0
 40
0.2796446781210926
 40
0.5597213531620207
 40
1.0
 40
1.0
 40
1.0
 40
1.0
 10
3.705081434442971
 20
6.13807520506398
 30
0.0
 10
3.704319234514346
 20
6.136712833639575
 30
0.0
 10
3.702793657205683
 20
6.133985986190519
 30
0.0
 10
3.701748317697793
 20
6.128467032468832
 30
0.0
 10
3.701631988465082
 20
6.124474861351779
 30
0.0
 10
3.701560888445952
 20
6.12203486036341
 30
0.0
  0
LINE
  5
280
330
1F
100
AcDbEntity
  8
0
  6
Continuous
 62
     7
370
    18
100
AcDbLine
 10
3.7015608884
 20
6.1220348604
 30
0.0
 11
3.7015608884
 21
6.1065482859
 31
0.0
  0
LINE
  5
281
330
1F
100
AcDbEntity
  8
0
  6
Continuous
 62
     7
370
    18
100
AcDbLine
 10
3.7015608884
 20
6.1065482859
 30
0.0
 11
3.7395355298
 21
6.1065482859
 31
0.0
  0
LINE
  5
282
330
1F
100
AcDbEntity
  8
0
  6
Continuous
 62
     7
370
    18
100
AcDbLine
 10
3.7395355298
 20
6.1065482859
 30
0.0
 11
3.7395355298
 21
6.1198591955
 31
0.0
  0
SPLINE
  5
283
330
1F
100
AcDbEntity
  8
0
  6
Continuous
 62
     7
370
    18
100
AcDbSpline
210
0.0
220
0.0
230
1.0
 70
     8
 71
     3
 72
    11
 73
     7
 74
     0
 42
0.000000001
 43
0.00000001
 40
0.0
 40
0.0
 40
0.0
 40
0.0
 40
0.2802254205075784
 40
0.5603270645487232
 40
0.7802135602311426
 40
1.0
 40
1.0
 40
1.0
 40
1.0
 10
3.739535529759655
 20
6.119859195496876
 30
0.0
 10
3.73949102024762
 20
6.121726716599745
 30
0.0
 10
3.739402020883545
 20
6.125460933915423
 30
0.0
 10
3.738626458307357
 20
6.130613001163705
 30
0.0
 10
3.737022210133402
 20
6.13520510434309
 30
0.0
 10
3.735190222545237
 20
6.13751423541638
 30
0.0
 10
3.734274437202912
 20
6.138668538209744
 30
0.0
  0
SPLINE
  5
284
330
1F
100
AcDbEntity
  8
0
  6
Continuous
 62
     7
370
    18
100
AcDbSpline
210
0.0
220
0.0
230
1.0
 70
     8
 71
     3
 72
    10
 73
     6
 74
     0
 42
0.000000001
 43
0.00000001
 40
0.0
 40
0.0
 40
0.0
 40
0.0
 40
0.2801117863663304
 40
0.5598975400447632
 40
1.0
 40
1.0
 40
1.0
 40
1.0
 10
3.734274437202912
 20
6.138668538209744
 30
0.0
 10
3.733064054602493
 20
6.139766746305948
 30
0.0
 10
3.730644698211682
 20
6.141961884252473
 30
0.0
 10
3.725166228618627
 20
6.144242912183075
 30
0.0
 10
3.720962344743816
 20
6.144416711803738
 30
0.0
 10
3.718392307341298
 20
6.144522963912253
 30
0.0
  0
SPLINE
  5
285
330
1F
100
AcDbEntity
  8
0
  6
Continuous
 62
     7
370
    18
100
AcDbSpline
210
0.0
220
0.0
230
1.0
 70
     8
 71
     3
 72
    13
 73
     9
 74
     0
 42
0.000000001
 43
0.00000001
 40
0.0
 40
0.0
 40
0.0
 40
0.0
 40
0.1870836546121833
 40
0.373998562844677
 40
0.5601744773658819
 40
0.7067220589954081
 40
0.8532436755491665
 40
1.0
 40
1.0
 40
1.0
 40
1.0
 10
2.335235432354214
 20
5.991864747432996
 30
0.0
 10
2.337948628472017
 20
5.991935536480274
 30
0.0
 10
2.343372573449345
 20
5.992077050724276
 30
0.0
 10
2.351385201277766
 20
5.99364868967501
 30
0.0
 10
2.358301686762812
 20
5.997052747115055
 30
0.0
 10
2.362966350088452
 20
6.002373454943673
 30
0.0
 10
2.365511115915465
 20
6.008364502335785
 30
0.0
 10
2.365758815881267
 20
6.012631375555169
 30
0.0
 10
2.365882764980278
 20
6.014766519536437
 30
0.0
  0
SPLINE
  5
286
330
1F
100
AcDbEntity
  8
0
  6
Continuous
 62
     7
370
    18
100
AcDbSpline
210
0.0
220
0.0
230
1.0
 70
     8
 71
     3
 72
    14
 73
    10
 74
     0
 42
0.000000001
 43
0.00000001
 40
0.0
 40
0.0
 40
0.0
 40
0.0
 40
0.1250729679772193
 40
0.2499874354758927
 40
0.3748374689407598
 40
0.4995861615198885
 40
0.6661755311212598
 40
0.8330607903037437
 40
1.0
 40
1.0
 40
1.0
 40
1.0
 10
2.365882764980278
 20
6.014766519536437
 30
0.0
 10
2.365788164361122
 20
6.016648992451969
 30
0.0
 10
2.365599083006774
 20
6.020411552692745
 30
0.0
 10
2.363793532911228
 20
6.025836826609725
 30
0.0
 10
2.36051029252238
 20
6.030507784632015
 30
0.0
 10
2.355420959861975
 20
6.034331432431137
 30
0.0
 10
2.348740351593329
 20
6.036361589799236
 30
0.0
 10
2.34129208671828
 20
6.037435163780802
 30
0.0
 10
2.336272421125634
 20
6.037531080095936
 30
0.0
 10
2.333762182706653
 20
6.037579046004184
 30
0.0
  0
SPLINE
  5
287
330
1F
100
AcDbEntity
  8
0
  6
Continuous
 62
     7
370
    18
100
AcDbSpline
210
0.0
220
0.0
230
1.0
 70
     8
 71
     3
 72
    13
 73
     9
 74
     0
 42
0.000000001
 43
0.00000001
 40
0.0
 40
0.0
 40
0.0
 40
0.0
 40
0.187049473307606
 40
0.3738917215646153
 40
0.5600400028610039
 40
0.7065995975597784
 40
0.8531795066375579
 40
1.0
 40
1.0
 40
1.0
 40
1.0
 10
2.333762182706653
 20
6.037579046004184
 30
0.0
 10
2.331116172648535
 20
6.037503654174563
 30
0.0
 10
2.325827083946959
 20
6.037352954039081
 30
0.0
 10
2.318036888261828
 20
6.035605069464474
 30
0.0
 10
2.311475450617698
 20
6.031934029590552
 30
0.0
 10
2.307130544705959
 20
6.026587733096921
 30
0.0
 10
2.304792597627237
 20
6.020697439890692
 30
0.0
 10
2.304567057261319
 20
6.016536317193165
 30
0.0
 10
2.304454194608365
 20
6.01445404981278
 30
0.0
  0
SPLINE
  5
288
330
1F
100
AcDbEntity
  8
0
  6
Continuous
 62
     7
370
    18
100
AcDbSpline
210
0.0
220
0.0
230
1.0
 70
     8
 71
     3
 72
    12
 73
     8
 74
     0
 42
0.000000001
 43
0.00000001
 40
0.0
 40
0.0
 40
0.0
 40
0.0
 40
0.1865713483813873
 40
0.3727596346540469
 40
0.5589964032433249
 40
0.7792949190634102
 40
1.0
 40
1.0
 40
1.0
 40
1.0
 10
2.304454194608365
 20
6.01445404981278
 30
0.0
 10
2.304675154484724
 20
6.011744268634882
 30
0.0
 10
2.305116620569945
 20
6.006330269911983
 30
0.0
 10
2.309574783056624
 20
5.999233717817166
 30
0.0
 10
2.316759212225772
 20
5.994273549982084
 30
0.0
 10
2.325708455015268
 20
5.992165970763839
 30
0.0
 10
2.332057822062018
 20
5.991965216902198
 30
0.0
 10
2.335235432354214
 20
5.991864747432996
 30
0.0
  0
LINE
  5
289
330
1F
100
AcDbEntity
  8
0
  6
Continuous
 62
     7
370
    18
100
AcDbLine
 10
3.7509279515
 20
6.0511883088
 30
0.0
 11
3.7006708521
 21
6.0331305874
 31
0.0
  0
LINE
  5
28A
330
1F
100
AcDbEntity
  8
0
  6
Continuous
 62
     7
370
    18
100
AcDbLine
 10
3.7006708521
 20
6.0331305874
 30
0.0
 11
3.7509279515
 21
6.0150134667
 31
0.0
  0
LINE
  5
28B
330
1F
100
AcDbEntity
  8
0
  6
Continuous
 62
     7
370
    18
100
AcDbLine
 10
3.7509279515
 20
6.0150134667
 30
0.0
 11
3.7509279515
 21
6.0511883088
 31
0.0
  0
DIMENSION
  5
28C
330
1F
100
AcDbEntity
  8
0
  6
Continuous
 62
     7
370
    18
100
AcDbDimension
  2
_D_7
 10
1.2240247481
 20
5.3518647492
 30
0.0
 11
1.2240247481
 21
6.4768647492
 31
0.0
 70
   160
  1
<>
 71
     2
 42
-1.0
  3
SLDDIMSTYLE1
100
AcDbAlignedDimension
 13
2.0901684489
 23
7.6018647492
 33
0.0
 14
2.0901684489
 24
5.3518647492
 34
0.0
 50
90.0
100
AcDbRotatedDimension
  0
DIMENSION
  5
2A0
330
1F
100
AcDbEntity
  8
0
  6
Continuous
 62
     7
370
    18
100
AcDbDimension
  2
_D_8
 10
1.6790283239
 20
6.3518647492
 30
0.0
 11
1.6790283239
 21
6.9768647492
 31
0.0
 70
   160
  1
<>
 71
     2
 42
-1.0
  3
SLDDIMSTYLE1
100
AcDbAlignedDimension
 13
2.0901684489
 23
7.6018647492
 33
0.0
 14
2.9901684489
 24
6.3518647492
 34
0.0
 50
90.0
100
AcDbRotatedDimension
  0
DIMENSION
  5
2B4
330
1F
100
AcDbEntity
  8
0
  6
Continuous
 62
     7
370
    18
100
AcDbDimension
  2
_D_9
 10
1.8975004194
 20
7.4328647492
 30
0.0
 11
1.8975004194
 21
7.8993542709
 31
0.0
 70
   160
  1
<>
 71
     2
 42
-1.0
  3
SLDDIMSTYLE5
100
AcDbAlignedDimension
 13
2.0901684489
 23
7.6018647492
 33
0.0
 14
2.2401684489
 24
7.4328647492
 34
0.0
 50
90.0
100
AcDbRotatedDimension
  0
DIMENSION
  5
2CA
330
1F
100
AcDbEntity
  8
0
  6
Continuous
 62
     7
370
    18
100
AcDbDimension
  2
_D_10
 10
2.2901684489
 20
8.2317869933
 30
0.0
 11
2.8421772698
 21
8.2317869933
 31
0.0
 70
   160
  1
<>
 71
     2
 42
-1.0
  3
SLDDIMSTYLE4
100
AcDbAlignedDimension
 13
2.0901684489
 23
7.6018647492
 33
0.0
 14
2.2901684489
 24
7.4828647492
 34
0.0
100
AcDbRotatedDimension
  0
DIMENSION
  5
2DE
330
1F
100
AcDbEntity
  8
0
  6
Continuous
 62
     7
370
    18
100
AcDbDimension
  2
_D_11
 10
3.9901684489
 20
7.9955665209
 30
0.0
 11
3.5151684489
 21
7.9955665209
 31
0.0
 70
   160
  1
<>
 71
     2
 42
-1.0
  3
SLDDIMSTYLE5
100
AcDbAlignedDimension
 13
3.0401684489
 23
6.4018647492
 33
0.0
 14
3.9901684489
 24
7.6018647492
 34
0.0
100
AcDbRotatedDimension
  0
INSERT
  5
2F7
102
{ACAD_REACTORS
330
2F8
102
}
330
1F
100
AcDbEntity
  8
0
  6
Continuous
 62
     7
370
     0
100
AcDbBlockReference
  2
SW_NOTE_5
 10
4.5255253181
 20
7.6034903532
 30
0.0
  0
LEADER
  5
2F8
330
1F
100
AcDbEntity
  8
0
  6
Continuous
 62
     7
370
     0
100
AcDbLeader
  3
SLDDIMSTYLE3
 73
     2
 76
     3
 10
3.8882821658
 20
7.3514402531
 30
0.0
 10
4.2755253181
 20
7.6034903532
 30
0.0
 10
4.5255253181
 20
7.6034903532
 30
0.0
340
2F7
  0
MTEXT
  5
2F9
330
1F
100
AcDbEntity
  8
0
  6
Continuous
 62
     7
370
     0
100
AcDbMText
 10
4.4058693652
 20
7.0597500247
 30
0.0
 40
0.0833333333
 41
0.0
 71
     1
 72
     1
  1
1.035-40 THREAD
  7
SLDTEXTSTYLE0
 73
     1
 44
1.0
  0
LEADER
  5
2FA
330
1F
100
AcDbEntity
  8
0
  6
Continuous
 62
     7
370
     0
100
AcDbLeader
  3
SLDDIMSTYLE3
 76
     3
 10
3.4228736714
 20
6.7002079172
 30
0.0
 10
4.1335474513
 20
7.0202299274
 30
0.0
 10
4.3835474513
 20
7.0202299274
 30
0.0
  0
INSERT
  5
302
330
1F
100
AcDbEntity
  8
0
  6
Continuous
 62
     7
370
     0
100
AcDbBlockReference
  2
SW_CENTERMARKSYMBOL_5
 10
3.0401684489
 20
6.3518647492
 30
0.0
  0
INSERT
  5
30A
330
1F
100
AcDbEntity
  8
0
  6
Continuous
 62
     7
370
     0
100
AcDbBlockReference
  2
SW_CENTERMARKSYMBOL_6
 10
2.2901684489
 20
7.4328647492
 30
0.0
  0
INSERT
  5
312
330
1F
100
AcDbEntity
  8
0
  6
Continuous
 62
     7
370
     0
100
AcDbBlockReference
  2
SW_CENTERMARKSYMBOL_7
 10
3.7901684489
 20
7.4328647492
 30
0.0
  0
LINE
  5
313
330
1F
100
AcDbEntity
  8
0
  6
Continuous
 62
     7
370
    18
100
AcDbLine
 10
9.2253223279
 20
6.4787182532
 30
0.0
 11
10.6748912293
 21
7.3155365678
 31
0.0
  0
LINE
  5
314
330
1F
100
AcDbEntity
  8
0
  6
Continuous
 62
     7
370
    18
100
AcDbLine
 10
9.2253223279
 20
5.090598873
 30
0.0
 11
9.2253223279
 21
6.4787182532
 31
0.0
  0
LINE
  5
315
330
1F
100
AcDbEntity
  8
0
  6
Continuous
 62
     7
370
    18
100
AcDbLine
 10
9.2253223279
 20
5.090598873
 30
0.0
 11
9.0839009716
 21
5.0089580618
 31
0.0
  0
LINE
  5
316
330
1F
100
AcDbEntity
  8
0
  6
Continuous
 62
     7
370
    18
100
AcDbLine
 10
9.0839009716
 20
5.0089580618
 30
0.0
 11
9.0839009716
 21
6.5603856044
 31
0.0
  0
LINE
  5
317
330
1F
100
AcDbEntity
  8
0
  6
Continuous
 62
     7
370
    18
100
AcDbLine
 10
9.0839009716
 20
6.5603856044
 30
0.0
 11
10.6748912293
 21
7.4788447302
 31
0.0
  0
LINE
  5
318
330
1F
100
AcDbEntity
  8
0
  6
Continuous
 62
     7
370
    18
100
AcDbLine
 10
10.6748912293
 20
7.3155365678
 30
0.0
 11
10.6748912293
 21
7.4788447302
 31
0.0
  0
LINE
  5
319
330
1F
100
AcDbEntity
  8
0
  6
Continuous
 62
     7
370
    18
100
AcDbLine
 10
9.7902916953
 20
7.171761603
 30
0.0
 11
9.8171438516
 21
7.1562601832
 31
0.0
  0
LINE
  5
31A
330
1F
100
AcDbEntity
  8
0
  6
Continuous
 62
     7
370
    18
100
AcDbLine
 10
9.8269896422
 20
7.1929468768
 30
0.0
 11
9.7902916953
 21
7.171761603
 31
0.0
  0
LINE
  5
31B
330
1F
100
AcDbEntity
  8
0
  6
Continuous
 62
     7
370
    18
100
AcDbLine
 10
9.8189339953
 20
7.1975973028
 30
0.0
 11
9.8269896422
 21
7.1929468768
 31
0.0
  0
LINE
  5
31C
330
1F
100
AcDbEntity
  8
0
  6
Continuous
 62
     7
370
    18
100
AcDbLine
 10
9.7822360484
 20
7.176412029
 30
0.0
 11
9.8189339953
 21
7.1975973028
 31
0.0
  0
LINE
  5
31D
330
1F
100
AcDbEntity
  8
0
  6
Continuous
 62
     7
370
    18
100
AcDbLine
 10
9.7625444672
 20
7.1877797369
 30
0.0
 11
9.7822360484
 21
7.176412029
 31
0.0
  0
LINE
  5
31E
330
1F
100
AcDbEntity
  8
0
  6
Continuous
 62
     7
370
    18
100
AcDbLine
 10
9.7992424141
 20
7.2089650107
 30
0.0
 11
9.7625444672
 21
7.1877797369
 31
0.0
  0
LINE
  5
31F
330
1F
100
AcDbEntity
  8
0
  6
Continuous
 62
     7
370
    18
100
AcDbLine
 10
9.7911867672
 20
7.2136154366
 30
0.0
 11
9.7992424141
 21
7.2089650107
 31
0.0
  0
LINE
  5
320
330
1F
100
AcDbEntity
  8
0
  6
Continuous
 62
     7
370
    18
100
AcDbLine
 10
9.7455381016
 20
7.1872630229
 30
0.0
 11
9.7911867672
 21
7.2136154366
 31
0.0
  0
LINE
  5
321
330
1F
100
AcDbEntity
  8
0
  6
Continuous
 62
     7
370
    18
100
AcDbLine
 10
9.8162487797
 20
7.1464426173
 30
0.0
 11
9.7455381016
 21
7.1872630229
 31
0.0
  0
LINE
  5
322
330
1F
100
AcDbEntity
  8
0
  6
Continuous
 62
     7
370
    18
100
AcDbLine
 10
9.8618974453
 20
7.172795031
 30
0.0
 11
9.8162487797
 21
7.1464426173
 31
0.0
  0
LINE
  5
323
330
1F
100
AcDbEntity
  8
0
  6
Continuous
 62
     7
370
    18
100
AcDbLine
 10
9.8538417984
 20
7.177445457
 30
0.0
 11
9.8618974453
 21
7.172795031
 31
0.0
  0
LINE
  5
324
330
1F
100
AcDbEntity
  8
0
  6
Continuous
 62
     7
370
    18
100
AcDbLine
 10
9.8171438516
 20
7.1562601832
 30
0.0
 11
9.8538417984
 21
7.177445457
 31
0.0
  0
LINE
  5
325
330
1F
100
AcDbEntity
  8
0
  6
Continuous
 62
     7
370
    18
100
AcDbLine
 10
9.6810929266
 20
7.0684188041
 30
0.0
 11
9.6362973763
 21
7.1241996946
 31
0.0
  0
LINE
  5
326
330
1F
100
AcDbEntity
  8
0
  6
Continuous
 62
     7
370
    18
100
AcDbLine
 10
9.6906310362
 20
7.0739250376
 30
0.0
 11
9.6810929266
 21
7.0684188041
 31
0.0
  0
LINE
  5
327
330
1F
100
AcDbEntity
  8
0
  6
Continuous
 62
     7
370
    18
100
AcDbLine
 10
9.6779182185
 20
7.0893214999
 30
0.0
 11
9.6906310362
 21
7.0739250376
 31
0.0
  0
LINE
  5
328
330
1F
100
AcDbEntity
  8
0
  6
Continuous
 62
     7
370
    18
100
AcDbLine
 10
9.7093296471
 20
7.1074549317
 30
0.0
 11
9.6779182185
 21
7.0893214999
 31
0.0
  0
LINE
  5
329
330
1F
100
AcDbEntity
  8
0
  6
Continuous
 62
     7
370
    18
100
AcDbLine
 10
9.7359999919
 20
7.1001159782
 30
0.0
 11
9.7093296471
 21
7.1074549317
 31
0.0
  0
LINE
  5
32A
330
1F
100
AcDbEntity
  8
0
  6
Continuous
 62
     7
370
    18
100
AcDbLine
 10
9.7455381016
 20
7.1056222117
 30
0.0
 11
9.7359999919
 21
7.1001159782
 31
0.0
  0
LINE
  5
32B
330
1F
100
AcDbEntity
  8
0
  6
Continuous
 62
     7
370
    18
100
AcDbLine
 10
9.6489122956
 20
7.1314821324
 30
0.0
 11
9.7455381016
 21
7.1056222117
 31
0.0
  0
LINE
  5
32C
330
1F
100
AcDbEntity
  8
0
  6
Continuous
 62
     7
370
    18
100
AcDbLine
 10
9.6362973763
 20
7.1241996946
 30
0.0
 11
9.6489122956
 21
7.1314821324
 31
0.0
  0
LINE
  5
32D
330
1F
100
AcDbEntity
  8
0
  6
Continuous
 62
     7
370
    18
100
AcDbLine
 10
9.5074489828
 20
7.0498171003
 30
0.0
 11
9.5263853472
 21
7.0607488307
 31
0.0
  0
LINE
  5
32E
330
1F
100
AcDbEntity
  8
0
  6
Continuous
 62
     7
370
    18
100
AcDbLine
 10
9.578159661
 20
7.0089966947
 30
0.0
 11
9.5074489828
 21
7.0498171003
 31
0.0
  0
LINE
  5
32F
330
1F
100
AcDbEntity
  8
0
  6
Continuous
 62
     7
370
    18
100
AcDbLine
 10
9.5871103797
 20
7.0141638346
 30
0.0
 11
9.578159661
 21
7.0089966947
 31
0.0
  0
LINE
  5
330
330
1F
100
AcDbEntity
  8
0
  6
Continuous
 62
     7
370
    18
100
AcDbLine
 10
9.5611532953
 20
7.0291485405
 30
0.0
 11
9.5871103797
 21
7.0141638346
 31
0.0
  0
LINE
  5
331
330
1F
100
AcDbEntity
  8
0
  6
Continuous
 62
     7
370
    18
100
AcDbLine
 10
9.570523579
 20
7.0345578901
 30
0.0
 11
9.5611532953
 21
7.0291485405
 31
0.0
  0
SPLINE
  5
332
330
1F
100
AcDbEntity
  8
0
  6
Continuous
 62
     7
370
    18
100
AcDbSpline
210
0.0
220
0.0
230
1.0
 70
     8
 71
     3
 72
    10
 73
     6
 74
     0
 42
0.000000001
 43
0.00000001
 40
0.0
 40
0.0
 40
0.0
 40
0.0
 40
0.2799377899913699
 40
0.5599057812773875
 40
0.9999999999999999
 40
0.9999999999999999
 40
0.9999999999999999
 40
0.9999999999999999
 10
9.584271323597305
 20
7.051020075035795
 30
0.0
 10
9.584049910370883
 20
7.049263678044351
 30
0.0
 10
9.583607060030708
 20
7.045750694571281
 30
0.0
 10
9.579091672823328
 20
7.03991946625295
 30
0.0
 10
9.573773803260305
 20
7.036591752616046
 30
0.0
 10
9.57052357901846
 20
7.034557890106933
 30
0.0
  0
SPLINE
  5
333
330
1F
100
AcDbEntity
  8
0
  6
Continuous
 62
     7
370
    18
100
AcDbSpline
210
0.0
220
0.0
230
1.0
 70
     8
 71
     3
 72
     9
 73
     5
 74
     0
 42
0.000000001
 43
0.00000001
 40
0.0
 40
0.0
 40
0.0
 40
0.0
 40
0.5595636550795926
 40
1.0
 40
1.0
 40
1.0
 40
1.0
 10
9.574663286439963
 20
7.063719936189841
 30
0.0
 10
9.577656316002246
 20
7.06163434850922
 30
0.0
 10
9.583005179415931
 20
7.057907180631738
 30
0.0
 10
9.583884179856206
 20
7.053125917217891
 30
0.0
 10
9.584271323597305
 20
7.051020075035795
 30
0.0
  0
SPLINE
  5
334
330
1F
100
AcDbEntity
  8
0
  6
Continuous
 62
     7
370
    18
100
AcDbSpline
210
0.0
220
0.0
230
1.0
 70
     8
 71
     3
 72
    10
 73
     6
 74
     0
 42
0.000000001
 43
0.00000001
 40
0.0
 40
0.0
 40
0.0
 40
0.0
 40
0.2803618315785763
 40
0.5604834067835603
 40
1.0
 40
1.0
 40
1.0
 40
1.0
 10
9.549209679996935
 20
7.068774044951717
 30
0.0
 10
9.551825389325035
 20
7.068940074100865
 30
0.0
 10
9.557054566446308
 20
7.069271990120301
 30
0.0
 10
9.566393657660543
 20
7.067898004783433
 30
0.0
 10
9.571527692135748
 20
7.06530413403404
 30
0.0
 10
9.574663286439963
 20
7.063719936189841
 30
0.0
  0
SPLINE
  5
335
330
1F
100
AcDbEntity
  8
0
  6
Continuous
 62
     7
370
    18
100
AcDbSpline
210
0.0
220
0.0
230
1.0
 70
     8
 71
     3
 72
     9
 73
     5
 74
     0
 42
0.000000001
 43
0.00000001
 40
0.0
 40
0.0
 40
0.0
 40
0.0
 40
0.5606706477033274
 40
1.0
 40
1.0
 40
1.0
 40
1.0
 10
9.526385347186483
 20
7.060748830719599
 30
0.0
 10
9.530080562652834
 20
7.062813347459653
 30
0.0
 10
9.536671268767892
 20
7.066495574714655
 30
0.0
 10
9.545382555874651
 20
7.068078582963203
 30
0.0
 10
9.549209679996935
 20
7.068774044951717
 30
0.0
  0
SPLINE
  5
336
330
1F
100
AcDbEntity
  8
0
  6
Continuous
 62
     7
370
    18
100
AcDbSpline
210
0.0
220
0.0
230
1.0
 70
     8
 71
     3
 72
    10
 73
     6
 74
     0
 42
0.000000001
 43
0.00000001
 40
0.0
 40
0.0
 40
0.0
 40
0.0
 40
0.2804980870506839
 40
0.5606801047159926
 40
1.0
 40
1.0
 40
1.0
 40
1.0
 10
9.437899101051846
 20
7.005242444556812
 30
0.0
 10
9.440303294268636
 20
7.005435252759293
 30
0.0
 10
9.445108971621805
 20
7.005820651905125
 30
0.0
 10
9.453813182117281
 20
7.004731011988047
 30
0.0
 10
9.45858996876008
 20
7.002351637335151
 30
0.0
 10
9.461506621752852
 20
7.000898817537817
 30
0.0
  0
SPLINE
  5
337
330
1F
100
AcDbEntity
  8
0
  6
Continuous
 62
     7
370
    18
100
AcDbSpline
210
0.0
220
0.0
230
1.0
 70
     8
 71
     3
 72
     9
 73
     5
 74
     0
 42
0.000000001
 43
0.00000001
 40
0.0
 40
0.0
 40
0.0
 40
0.0
 40
0.5610471553078933
 40
1.0
 40
1.0
 40
1.0
 40
1.0
 10
9.415969840116313
 20
6.997007315264296
 30
0.0
 10
9.41951518494651
 20
6.999060820083902
 30
0.0
 10
9.425834341539064
 20
7.00272094882741
 30
0.0
 10
9.434218743819713
 20
7.004473261794928
 30
0.0
 10
9.437899101051846
 20
7.005242444556812
 30
0.0
  0
LINE
  5
338
330
1F
100
AcDbEntity
  8
0
  6
Continuous
 62
     7
370
    18
100
AcDbLine
 10
9.3964600703
 20
6.9857445649
 30
0.0
 11
9.4159698401
 21
6.9970073153
 31
0.0
  0
LINE
  5
339
330
1F
100
AcDbEntity
  8
0
  6
Continuous
 62
     7
370
    18
100
AcDbLine
 10
9.4671707485
 20
6.9449241593
 30
0.0
 11
9.3964600703
 21
6.9857445649
 31
0.0
  0
LINE
  5
33A
330
1F
100
AcDbEntity
  8
0
  6
Continuous
 62
     7
370
    18
100
AcDbLine
 10
9.4761214672
 20
6.9500912993
 30
0.0
 11
9.4671707485
 21
6.9449241593
 31
0.0
  0
LINE
  5
33B
330
1F
100
AcDbEntity
  8
0
  6
Continuous
 62
     7
370
    18
100
AcDbLine
 10
9.4483742391
 20
6.9661094331
 30
0.0
 11
9.4761214672
 21
6.9500912993
 31
0.0
  0
LINE
  5
33C
330
1F
100
AcDbEntity
  8
0
  6
Continuous
 62
     7
370
    18
100
AcDbLine
 10
9.463142925
 20
6.974635214
 30
0.0
 11
9.4483742391
 21
6.9661094331
 31
0.0
  0
LINE
  5
33D
330
1F
100
AcDbEntity
  8
0
  6
Continuous
 62
     7
370
    18
100
AcDbLine
 10
9.5145815868
 20
6.9722938537
 30
0.0
 11
9.463142925
 21
6.974635214
 31
0.0
  0
LINE
  5
33E
330
1F
100
AcDbEntity
  8
0
  6
Continuous
 62
     7
370
    18
100
AcDbLine
 10
9.5253504203
 20
6.978510569
 30
0.0
 11
9.5145815868
 21
6.9722938537
 31
0.0
  0
LINE
  5
33F
330
1F
100
AcDbEntity
  8
0
  6
Continuous
 62
     7
370
    18
100
AcDbLine
 10
9.4681217623
 20
6.9807711927
 30
0.0
 11
9.5253504203
 21
6.978510569
 31
0.0
  0
SPLINE
  5
340
330
1F
100
AcDbEntity
  8
0
  6
Continuous
 62
     7
370
    18
100
AcDbSpline
210
0.0
220
0.0
230
1.0
 70
     8
 71
     3
 72
    11
 73
     7
 74
     0
 42
0.000000001
 43
0.00000001
 40
0.0
 40
0.0
 40
0.0
 40
0.0
 40
0.280076564996985
 40
0.5593967990984192
 40
0.7796037237126843
 40
0.9999999999999999
 40
0.9999999999999999
 40
0.9999999999999999
 40
0.9999999999999999
 10
9.461506621752852
 20
7.000898817537817
 30
0.0
 10
9.463858678508299
 20
6.999351603602555
 30
0.0
 10
9.468556440423185
 20
6.996261353895604
 30
0.0
 10
9.471326670369445
 20
6.990625551782845
 30
0.0
 10
9.470964683022494
 20
6.985317917873146
 30
0.0
 10
9.469069674023334
 20
6.982287201918834
 30
0.0
 10
9.46812176232843
 20
6.98077119270817
 30
0.0
  0
LINE
  5
341
330
1F
100
AcDbEntity
  8
0
  6
Continuous
 62
     7
370
    18
100
AcDbLine
 10
9.3141134579
 20
6.8968697578
 30
0.0
 11
9.3409656141
 21
6.881368338
 31
0.0
  0
LINE
  5
342
330
1F
100
AcDbEntity
  8
0
  6
Continuous
 62
     7
370
    18
100
AcDbLine
 10
9.3508114047
 20
6.9180550316
 30
0.0
 11
9.3141134579
 21
6.8968697578
 31
0.0
  0
LINE
  5
343
330
1F
100
AcDbEntity
  8
0
  6
Continuous
 62
     7
370
    18
100
AcDbLine
 10
9.3427557578
 20
6.9227054575
 30
0.0
 11
9.3508114047
 21
6.9180550316
 31
0.0
  0
LINE
  5
344
330
1F
100
AcDbEntity
  8
0
  6
Continuous
 62
     7
370
    18
100
AcDbLine
 10
9.306057811
 20
6.9015201838
 30
0.0
 11
9.3427557578
 21
6.9227054575
 31
0.0
  0
LINE
  5
345
330
1F
100
AcDbEntity
  8
0
  6
Continuous
 62
     7
370
    18
100
AcDbLine
 10
9.2863662297
 20
6.9128878916
 30
0.0
 11
9.306057811
 21
6.9015201838
 31
0.0
  0
LINE
  5
346
330
1F
100
AcDbEntity
  8
0
  6
Continuous
 62
     7
370
    18
100
AcDbLine
 10
9.3230641766
 20
6.9340731654
 30
0.0
 11
9.2863662297
 21
6.9128878916
 31
0.0
  0
LINE
  5
347
330
1F
100
AcDbEntity
  8
0
  6
Continuous
 62
     7
370
    18
100
AcDbLine
 10
9.3150085297
 20
6.9387235914
 30
0.0
 11
9.3230641766
 21
6.9340731654
 31
0.0
  0
LINE
  5
348
330
1F
100
AcDbEntity
  8
0
  6
Continuous
 62
     7
370
    18
100
AcDbLine
 10
9.2693598641
 20
6.9123711776
 30
0.0
 11
9.3150085297
 21
6.9387235914
 31
0.0
  0
LINE
  5
349
330
1F
100
AcDbEntity
  8
0
  6
Continuous
 62
     7
370
    18
100
AcDbLine
 10
9.3400705422
 20
6.8715507721
 30
0.0
 11
9.2693598641
 21
6.9123711776
 31
0.0
  0
LINE
  5
34A
330
1F
100
AcDbEntity
  8
0
  6
Continuous
 62
     7
370
    18
100
AcDbLine
 10
9.3857192078
 20
6.8979031858
 30
0.0
 11
9.3400705422
 21
6.8715507721
 31
0.0
  0
LINE
  5
34B
330
1F
100
AcDbEntity
  8
0
  6
Continuous
 62
     7
370
    18
100
AcDbLine
 10
9.377663561
 20
6.9025536117
 30
0.0
 11
9.3857192078
 21
6.8979031858
 31
0.0
  0
LINE
  5
34C
330
1F
100
AcDbEntity
  8
0
  6
Continuous
 62
     7
370
    18
100
AcDbLine
 10
9.3409656141
 20
6.881368338
 30
0.0
 11
9.377663561
 21
6.9025536117
 31
0.0
  0
SPLINE
  5
34D
330
1F
100
AcDbEntity
  8
0
  6
Continuous
 62
     7
370
    18
100
AcDbSpline
210
0.0
220
0.0
230
1.0
 70
     8
 71
     3
 72
    11
 73
     7
 74
     0
 42
0.000000001
 43
0.00000001
 40
0.0
 40
0.0
 40
0.0
 40
0.0
 40
0.2801545988346705
 40
0.5582159285805305
 40
0.7788723627359478
 40
1.0
 40
1.0
 40
1.0
 40
1.0
 10
9.15469276562804
 20
6.825619742105945
 30
0.0
 10
9.156373797787436
 20
6.824771975073535
 30
0.0
 10
9.159723301710391
 20
6.823082775384557
 30
0.0
 10
9.16619828773237
 20
6.822688693749797
 30
0.0
 10
9.17154267366244
 20
6.823817300362862
 30
0.0
 10
9.174536250676711
 20
6.824814041196886
 30
0.0
 10
9.176034635645657
 20
6.825312943171518
 30
0.0
  0
SPLINE
  5
34E
330
1F
100
AcDbEntity
  8
0
  6
Continuous
 62
     7
370
    18
100
AcDbSpline
210
0.0
220
0.0
230
1.0
 70
     8
 71
     3
 72
    12
 73
     8
 74
     0
 42
0.000000001
 43
0.00000001
 40
0.0
 40
0.0
 40
0.0
 40
0.0
 40
0.2506534365188056
 40
0.5007672760969828
 40
0.7498327700894438
 40
0.8748826283052297
 40
1.0
 40
1.0
 40
1.0
 40
1.0
 10
9.16011913886974
 20
6.842073853378638
 30
0.0
 10
9.158291482980614
 20
6.840925836908781
 30
0.0
 10
9.154640105708664
 20
6.838632275374143
 30
0.0
 10
9.151081281100256
 20
6.834385996122326
 30
0.0
 10
9.150316226974464
 20
6.830404880022537
 30
0.0
 10
9.152054151340291
 20
6.827399788824101
 30
0.0
 10
9.153813069303737
 20
6.826213197755115
 30
0.0
 10
9.15469276562804
 20
6.825619742105945
 30
0.0
  0
SPLINE
  5
34F
330
1F
100
AcDbEntity
  8
0
  6
Continuous
 62
     7
370
    18
100
AcDbSpline
210
0.0
220
0.0
230
1.0
 70
     8
 71
     3
 72
    10
 73
     6
 74
     0
 42
0.000000001
 43
0.00000001
 40
0.0
 40
0.0
 40
0.0
 40
0.0
 40
0.2799683602675676
 40
0.5603278218886152
 40
1.0
 40
1.0
 40
1.0
 40
1.0
 10
9.192607450829716
 20
6.851528104752693
 30
0.0
 10
9.189203818549998
 20
6.851170708260075
 30
0.0
 10
9.182391799291887
 20
6.850455416010383
 30
0.0
 10
9.171070934081502
 20
6.847424790715613
 30
0.0
 10
9.164271233207016
 20
6.844102525042633
 30
0.0
 10
9.16011913886974
 20
6.842073853378638
 30
0.0
  0
LINE
  5
350
330
1F
100
AcDbEntity
  8
0
  6
Continuous
 62
     7
370
    18
100
AcDbLine
 10
9.1932787547
 20
6.8519156402
 30
0.0
 11
9.1926074508
 21
6.8515281048
 31
0.0
  0
LINE
  5
351
330
1F
100
AcDbEntity
  8
0
  6
Continuous
 62
     7
370
    18
100
AcDbLine
 10
9.1821183273
 20
6.8583584179
 30
0.0
 11
9.1932787547
 21
6.8519156402
 31
0.0
  0
SPLINE
  5
352
330
1F
100
AcDbEntity
  8
0
  6
Continuous
 62
     7
370
    18
100
AcDbSpline
210
0.0
220
0.0
230
1.0
 70
     8
 71
     3
 72
     9
 73
     5
 74
     0
 42
0.000000001
 43
0.00000001
 40
0.0
 40
0.0
 40
0.0
 40
0.0
 40
0.5597813844076193
 40
1.0
 40
1.0
 40
1.0
 40
1.0
 10
9.152147404983738
 20
6.846772721269073
 30
0.0
 10
9.157200787350602
 20
6.849411683293754
 30
0.0
 10
9.16622820860401
 20
6.854125955861916
 30
0.0
 10
9.177261338241038
 20
6.857064719438529
 30
0.0
 10
9.1821183272955
 20
6.858358417871778
 30
0.0
  0
SPLINE
  5
353
330
1F
100
AcDbEntity
  8
0
  6
Continuous
 62
     7
370
    18
100
AcDbSpline
210
0.0
220
0.0
230
1.0
 70
     8
 71
     3
 72
    12
 73
     8
 74
     0
 42
0.000000001
 43
0.00000001
 40
0.0
 40
0.0
 40
0.0
 40
0.0
 40
0.1862804311978547
 40
0.3725754159368307
 40
0.5593777976147308
 40
0.7795316266979977
 40
1.0
 40
1.0
 40
1.0
 40
1.0
 10
9.145770017874934
 20
6.819403026855713
 30
0.0
 10
9.143641870084682
 20
6.820899316305564
 30
0.0
 10
9.139385408238262
 20
6.82389201210595
 30
0.0
 10
9.137754924319239
 20
6.829776326332074
 30
0.0
 10
9.139466526486045
 20
6.835809948001921
 30
0.0
 10
9.14424630913437
 20
6.841741197668197
 30
0.0
 10
9.149512453264146
 20
6.845094748742597
 30
0.0
 10
9.152147404983738
 20
6.846772721269073
 30
0.0
  0
SPLINE
  5
354
330
1F
100
AcDbEntity
  8
0
  6
Continuous
 62
     7
370
    18
100
AcDbSpline
210
0.0
220
0.0
230
1.0
 70
     8
 71
     3
 72
    11
 73
     7
 74
     0
 42
0.000000001
 43
0.00000001
 40
0.0
 40
0.0
 40
0.0
 40
0.0
 40
0.2808016397658296
 40
0.56011420049867
 40
0.7797547617390572
 40
1.0
 40
1.0
 40
1.0
 40
1.0
 10
9.184062311523842
 20
6.818837870923874
 30
0.0
 10
9.180669574409904
 20
6.817682506593933
 30
0.0
 10
9.173902091721201
 20
6.81537790478146
 30
0.0
 10
9.1628070900132
 20
6.814233114738706
 30
0.0
 10
9.152792080493628
 20
6.815874560184493
 30
0.0
 10
9.148112849473613
 20
6.818225793945513
 30
0.0
 10
9.145770017874934
 20
6.819403026855713
 30
0.0
  0
SPLINE
  5
355
330
1F
100
AcDbEntity
  8
0
  6
Continuous
 62
     7
370
    18
100
AcDbSpline
210
0.0
220
0.0
230
1.0
 70
     8
 71
     3
 72
     9
 73
     5
 74
     0
 42
0.000000001
 43
0.00000001
 40
0.0
 40
0.0
 40
0.0
 40
0.0
 40
0.5599121862697116
 40
1.0
 40
1.0
 40
1.0
 40
1.0
 10
9.203935704246668
 20
6.826645096439425
 30
0.0
 10
9.2002051255634
 20
6.825206153889297
 30
0.0
 10
9.193542333120678
 20
6.82263621062781
 30
0.0
 10
9.18695938622921
 20
6.81999863556626
 30
0.0
 10
9.184062311523842
 20
6.818837870923874
 30
0.0
  0
SPLINE
  5
356
330
1F
100
AcDbEntity
  8
0
  6
Continuous
 62
     7
370
    18
100
AcDbSpline
210
0.0
220
0.0
230
1.0
 70
     8
 71
     3
 72
    10
 73
     6
 74
     0
 42
0.000000001
 43
0.00000001
 40
0.0
 40
0.0
 40
0.0
 40
0.0
 40
0.2809491858230851
 40
0.5589423234076244
 40
1.0
 40
1.0
 40
1.0
 40
1.0
 10
9.223879024459722
 20
6.825983056633556
 30
0.0
 10
9.222339396434748
 20
6.82679313886258
 30
0.0
 10
9.21927633980783
 20
6.828404779921142
 30
0.0
 10
9.211558721575434
 20
6.829017354587288
 30
0.0
 10
9.20683387311484
 20
6.827546997145522
 30
0.0
 10
9.203935704246668
 20
6.826645096439425
 30
0.0
  0
SPLINE
  5
357
330
1F
100
AcDbEntity
  8
0
  6
Continuous
 62
     7
370
    18
100
AcDbSpline
210
0.0
220
0.0
230
1.0
 70
     8
 71
     3
 72
    12
 73
     8
 74
     0
 42
0.000000001
 43
0.00000001
 40
0.0
 40
0.0
 40
0.0
 40
0.0
 40
0.2508039399214921
 40
0.5009567597859983
 40
0.7497192853368689
 40
0.8748101218978315
 40
1.0
 40
1.0
 40
1.0
 40
1.0
 10
9.217767361813786
 20
6.808180644780618
 30
0.0
 10
9.21976459915172
 20
6.809425130607074
 30
0.0
 10
9.223753888736436
 20
6.811910871410889
 30
0.0
 10
9.227914847178708
 20
6.816445582631967
 30
0.0
 10
9.228774783487822
 20
6.820807888930422
 30
0.0
 10
9.22676977140645
 20
6.824054784666204
 30
0.0
 10
9.224842860948806
 20
6.825340129764736
 30
0.0
 10
9.223879024459722
 20
6.825983056633556
 30
0.0
  0
SPLINE
  5
358
330
1F
100
AcDbEntity
  8
0
  6
Continuous
 62
     7
370
    18
100
AcDbSpline
210
0.0
220
0.0
230
1.0
 70
     8
 71
     3
 72
    11
 73
     7
 74
     0
 42
0.000000001
 43
0.00000001
 40
0.0
 40
0.0
 40
0.0
 40
0.0
 40
0.2798893872035133
 40
0.5598819319073146
 40
0.7799938016788255
 40
1.0
 40
1.0
 40
1.0
 40
1.0
 10
9.183209196143059
 20
6.798564920283182
 30
0.0
 10
9.186807593100447
 20
6.798923555283503
 30
0.0
 10
9.194005713259275
 20
6.799640957464542
 30
0.0
 10
9.203303223824284
 20
6.802086425372906
 30
0.0
 10
9.211361157875269
 20
6.804869000953666
 30
0.0
 10
9.21563230233197
 20
6.807076940212204
 30
0.0
 10
9.217767361813786
 20
6.808180644780618
 30
0.0
  0
LINE
  5
359
330
1F
100
AcDbEntity
  8
0
  6
Continuous
 62
     7
370
    18
100
AcDbLine
 10
9.1825378922
 20
6.7981773848
 30
0.0
 11
9.1832091961
 21
6.7985649203
 31
0.0
  0
LINE
  5
35A
330
1F
100
AcDbEntity
  8
0
  6
Continuous
 62
     7
370
    18
100
AcDbLine
 10
9.1940339716
 20
6.7915408394
 30
0.0
 11
9.1825378922
 21
6.7981773848
 31
0.0
  0
SPLINE
  5
35B
330
1F
100
AcDbEntity
  8
0
  6
Continuous
 62
     7
370
    18
100
AcDbSpline
210
0.0
220
0.0
230
1.0
 70
     8
 71
     3
 72
     9
 73
     5
 74
     0
 42
0.000000001
 43
0.00000001
 40
0.0
 40
0.0
 40
0.0
 40
0.0
 40
0.5596558807308939
 40
1.0
 40
1.0
 40
1.0
 40
1.0
 10
9.225753081197835
 20
6.803489850546352
 30
0.0
 10
9.220433171018788
 20
6.800716878460454
 30
0.0
 10
9.210927490184885
 20
6.795762097886583
 30
0.0
 10
9.199198682930762
 20
6.792831368754513
 30
0.0
 10
9.194033971630368
 20
6.791540839416035
 30
0.0
  0
SPLINE
  5
35C
330
1F
100
AcDbEntity
  8
0
  6
Continuous
 62
     7
370
    18
100
AcDbSpline
210
0.0
220
0.0
230
1.0
 70
     8
 71
     3
 72
    10
 73
     6
 74
     0
 42
0.000000001
 43
0.00000001
 40
0.0
 40
0.0
 40
0.0
 40
0.0
 40
0.2800149936948657
 40
0.5600975172113148
 40
1.0
 40
1.0
 40
1.0
 40
1.0
 10
9.240270028169189
 20
6.81942724782422
 30
0.0
 10
9.23974073167137
 20
6.817737890140302
 30
0.0
 10
9.238682011027933
 20
6.814358767358486
 30
0.0
 10
9.234074201612085
 20
6.808755748548201
 30
0.0
 10
9.228908974820476
 20
6.805487011156245
 30
0.0
 10
9.225753081197835
 20
6.803489850546352
 30
0.0
  0
SPLINE
  5
35D
330
1F
100
AcDbEntity
  8
0
  6
Continuous
 62
     7
370
    18
100
AcDbSpline
210
0.0
220
0.0
230
1.0
 70
     8
 71
     3
 72
    10
 73
     6
 74
     0
 42
0.000000001
 43
0.00000001
 40
0.0
 40
0.0
 40
0.0
 40
0.0
 40
0.2804108168174378
 40
0.5609644809611124
 40
1.0
 40
1.0
 40
1.0
 40
1.0
 10
9.23238220727146
 20
6.832441981568862
 30
0.0
 10
9.233870194711354
 20
6.831427401998481
 30
0.0
 10
9.236846927604082
 20
6.829397726008975
 30
0.0
 10
9.240148481582295
 20
6.824959235682784
 30
0.0
 10
9.24022397074545
 20
6.821523473768778
 30
0.0
 10
9.240270028169189
 20
6.81942724782422
 30
0.0
  0
SPLINE
  5
35E
330
1F
100
AcDbEntity
  8
0
  6
Continuous
 62
     7
370
    18
100
AcDbSpline
210
0.0
220
0.0
230
1.0
 70
     8
 71
     3
 72
    11
 73
     7
 74
     0
 42
0.000000001
 43
0.00000001
 40
0.0
 40
0.0
 40
0.0
 40
0.0
 40
0.2806564817211227
 40
0.5600018564798677
 40
0.7795506485822081
 40
1.0
 40
1.0
 40
1.0
 40
1.0
 10
9.19796389658119
 20
6.833806429461446
 30
0.0
 10
9.201095467626637
 20
6.834744242325186
 30
0.0
 10
9.207343980357912
 20
6.836615486992351
 30
0.0
 10
9.217380953402904
 20
6.837454411112972
 30
0.0
 10
9.226178024900989
 20
6.835655124778563
 30
0.0
 10
9.230311326557805
 20
6.833514489742518
 30
0.0
 10
9.23238220727146
 20
6.832441981568862
 30
0.0
  0
SPLINE
  5
35F
330
1F
100
AcDbEntity
  8
0
  6
Continuous
 62
     7
370
    18
100
AcDbSpline
210
0.0
220
0.0
230
1.0
 70
     8
 71
     3
 72
     9
 73
     5
 74
     0
 42
0.000000001
 43
0.00000001
 40
0.0
 40
0.0
 40
0.0
 40
0.0
 40
0.5600414057645279
 40
1.0
 40
1.0
 40
1.0
 40
1.0
 10
9.176034635645657
 20
6.825312943171518
 30
0.0
 10
9.180076526420772
 20
6.826943298454618
 30
0.0
 10
9.1872936548929
 20
6.829854431928535
 30
0.0
 10
9.19470375802434
 20
6.832598953575707
 30
0.0
 10
9.19796389658119
 20
6.833806429461446
 30
0.0
  0
SPLINE
  5
360
330
1F
100
AcDbEntity
  8
0
  6
Continuous
 62
     7
370
    18
100
AcDbSpline
210
0.0
220
0.0
230
1.0
 70
     8
 71
     3
 72
     9
 73
     5
 74
     0
 42
0.000000001
 43
0.00000001
 40
0.0
 40
0.0
 40
0.0
 40
0.0
 40
0.5600947397898974
 40
1.0
 40
1.0
 40
1.0
 40
1.0
 10
8.768259868715175
 20
7.68568026742803
 30
0.0
 10
8.766536686329696
 20
7.68436637816685
 30
0.0
 10
8.763460095419157
 20
7.68202054420727
 30
0.0
 10
8.760085005025672
 20
7.679816197765602
 30
0.0
 10
8.758600285007894
 20
7.678846494170587
 30
0.0
  0
SPLINE
  5
361
330
1F
100
AcDbEntity
  8
0
  6
Continuous
 62
     7
370
    18
100
AcDbSpline
210
0.0
220
0.0
230
1.0
 70
     8
 71
     3
 72
     9
 73
     5
 74
     0
 42
0.000000001
 43
0.00000001
 40
0.0
 40
0.0
 40
0.0
 40
0.0
 40
0.5594095015484375
 40
1.0
 40
1.0
 40
1.0
 40
1.0
 10
8.774746942087221
 20
7.69245025880174
 30
0.0
 10
8.77381433924673
 20
7.691097182726232
 30
0.0
 10
8.772147219117539
 20
7.688678424961548
 30
0.0
 10
8.76944877677286
 20
7.686597224553286
 30
0.0
 10
8.768259868715175
 20
7.685680267428032
 30
0.0
  0
SPLINE
  5
362
330
1F
100
AcDbEntity
  8
0
  6
Continuous
 62
     7
370
    18
100
AcDbSpline
210
0.0
220
0.0
230
1.0
 70
     8
 71
     3
 72
    11
 73
     7
 74
     0
 42
0.000000001
 43
0.00000001
 40
0.0
 40
0.0
 40
0.0
 40
0.0
 40
0.2799546052748814
 40
0.5597742619781269
 40
0.7799023302054164
 40
0.9999999999999999
 40
0.9999999999999999
 40
0.9999999999999999
 40
0.9999999999999999
 10
8.76623956362607
 20
7.709461798363939
 30
0.0
 10
8.76822342794941
 20
7.708152768391407
 30
0.0
 10
8.77219020029942
 20
7.705535339447663
 30
0.0
 10
8.77516091760214
 20
7.70093812104019
 30
0.0
 10
8.776067302950691
 20
7.696474349139089
 30
0.0
 10
8.77518704211381
 20
7.693791560496953
 30
0.0
 10
8.774746942087221
 20
7.69245025880174
 30
0.0
  0
SPLINE
  5
363
330
1F
100
AcDbEntity
  8
0
  6
Continuous
 62
     7
370
    18
100
AcDbSpline
210
0.0
220
0.0
230
1.0
 70
     8
 71
     3
 72
    11
 73
     7
 74
     0
 42
0.000000001
 43
0.00000001
 40
0.0
 40
0.0
 40
0.0
 40
0.0
 40
0.2805851754914534
 40
0.5596552229190884
 40
0.7796225874770013
 40
1.0
 40
1.0
 40
1.0
 40
1.0
 10
8.729384779383423
 20
7.711001675271283
 30
0.0
 10
8.732705804251609
 20
7.712058261741419
 30
0.0
 10
8.73932992083107
 20
7.714165729234817
 30
0.0
 10
8.750153879755471
 20
7.714762787605126
 30
0.0
 10
8.759522562386806
 20
7.712859536190315
 30
0.0
 10
8.763999173676536
 20
7.710595080524565
 30
0.0
 10
8.76623956362607
 20
7.709461798363939
 30
0.0
  0
SPLINE
  5
364
330
1F
100
AcDbEntity
  8
0
  6
Continuous
 62
     7
370
    18
100
AcDbSpline
210
0.0
220
0.0
230
1.0
 70
     8
 71
     3
 72
     9
 73
     5
 74
     0
 42
0.000000001
 43
0.00000001
 40
0.0
 40
0.0
 40
0.0
 40
0.0
 40
0.5592293120448399
 40
1.0
 40
1.0
 40
1.0
 40
1.0
 10
8.732967664189882
 20
7.718901517156889
 30
0.0
 10
8.732750707695551
 20
7.717356678351366
 30
0.0
 10
8.732362751467834
 20
7.714594235875178
 30
0.0
 10
8.730295821518949
 20
7.712100736643184
 30
0.0
 10
8.729384779383423
 20
7.711001675271283
 30
0.0
  0
SPLINE
  5
365
330
1F
100
AcDbEntity
  8
0
  6
Continuous
 62
     7
370
    18
100
AcDbSpline
210
0.0
220
0.0
230
1.0
 70
     8
 71
     3
 72
     9
 73
     5
 74
     0
 42
0.000000001
 43
0.00000001
 40
0.0
 40
0.0
 40
0.0
 40
0.0
 40
0.5593952492117514
 40
0.9999999999999999
 40
0.9999999999999999
 40
0.9999999999999999
 40
0.9999999999999999
 10
8.725912380011525
 20
7.728076996717218
 30
0.0
 10
8.728075657313425
 20
7.726569777993832
 30
0.0
 10
8.731942828700648
 20
7.723875406303137
 30
0.0
 10
8.732654221252055
 20
7.72042276660892
 30
0.0
 10
8.732967664189882
 20
7.718901517156889
 30
0.0
  0
SPLINE
  5
366
330
1F
100
AcDbEntity
  8
0
  6
Continuous
 62
     7
370
    18
100
AcDbSpline
210
0.0
220
0.0
230
1.0
 70
     8
 71
     3
 72
    11
 73
     7
 74
     0
 42
0.000000001
 43
0.00000001
 40
0.0
 40
0.0
 40
0.0
 40
0.0
 40
0.2808785058217844
 40
0.5601389092924498
 40
0.7800784769866577
 40
1.0
 40
1.0
 40
1.0
 40
1.0
 10
8.684022616679625
 20
7.725598614949184
 30
0.0
 10
8.687325112783345
 20
7.72731726791121
 30
0.0
 10
8.693911079765998
 20
7.730744672912475
 30
0.0
 10
8.706079818731615
 20
7.732843475861403
 30
0.0
 10
8.71772305044258
 20
7.731884289470987
 30
0.0
 10
8.723182678146387
 20
7.729346059592707
 30
0.0
 10
8.725912380011525
 20
7.728076996717218
 30
0.0
  0
LINE
  5
367
330
1F
100
AcDbEntity
  8
0
  6
Continuous
 62
     7
370
    18
100
AcDbLine
 10
8.639433852
 20
7.699858069
 30
0.0
 11
8.6840226167
 21
7.7255986149
 31
0.0
  0
LINE
  5
368
330
1F
100
AcDbEntity
  8
0
  6
Continuous
 62
     7
370
    18
100
AcDbLine
 10
8.7172155979
 20
7.6549556229
 30
0.0
 11
8.639433852
 21
7.699858069
 31
0.0
  0
LINE
  5
369
330
1F
100
AcDbEntity
  8
0
  6
Continuous
 62
     7
370
    18
100
AcDbLine
 10
8.758600285
 20
7.6788464942
 30
0.0
 11
8.7172155979
 21
7.6549556229
 31
0.0
  0
LINE
  5
36A
330
1F
100
AcDbEntity
  8
0
  6
Continuous
 62
     7
370
    18
100
AcDbLine
 10
8.6020582079
 20
7.6106363254
 30
0.0
 11
8.6212511062
 21
7.599556501
 31
0.0
  0
LINE
  5
36B
330
1F
100
AcDbEntity
  8
0
  6
Continuous
 62
     7
370
    18
100
AcDbLine
 10
8.5646825637
 20
7.5890598253
 30
0.0
 11
8.6020582079
 21
7.6106363254
 31
0.0
  0
LINE
  5
36C
330
1F
100
AcDbEntity
  8
0
  6
Continuous
 62
     7
370
    18
100
AcDbLine
 10
8.5060937161
 20
7.622882447
 30
0.0
 11
8.5646825637
 21
7.5890598253
 31
0.0
  0
LINE
  5
36D
330
1F
100
AcDbEntity
  8
0
  6
Continuous
 62
     7
370
    18
100
AcDbLine
 10
8.4818500551
 20
7.6088868794
 30
0.0
 11
8.5060937161
 21
7.622882447
 31
0.0
  0
LINE
  5
36E
330
1F
100
AcDbEntity
  8
0
  6
Continuous
 62
     7
370
    18
100
AcDbLine
 10
8.559631801
 20
7.5639844333
 30
0.0
 11
8.4818500551
 21
7.6088868794
 31
0.0
  0
LINE
  5
36F
330
1F
100
AcDbEntity
  8
0
  6
Continuous
 62
     7
370
    18
100
AcDbLine
 10
8.6212511062
 20
7.599556501
 30
0.0
 11
8.559631801
 21
7.5639844333
 31
0.0
  0
SPLINE
  5
370
330
1F
100
AcDbEntity
  8
0
  6
Continuous
 62
     7
370
    18
100
AcDbSpline
210
0.0
220
0.0
230
1.0
 70
     8
 71
     3
 72
    13
 73
     9
 74
     0
 42
0.000000001
 43
0.00000001
 40
0.0
 40
0.0
 40
0.0
 40
0.0
 40
0.186912529354279
 40
0.3734422999271055
 40
0.5596471957828737
 40
0.7062839973810214
 40
0.8530716788394601
 40
1.0
 40
1.0
 40
1.0
 40
1.0
 10
8.342322734851331
 20
7.529505769251232
 30
0.0
 10
8.346507031265384
 20
7.531708263995626
 30
0.0
 10
8.354867055506876
 20
7.536108743223878
 30
0.0
 10
8.370394925607446
 20
7.540414210699441
 30
0.0
 10
8.386391121199416
 20
7.541287333665743
 30
0.0
 10
8.400608016128977
 20
7.539199690022347
 30
0.0
 10
8.412356807354353
 20
7.535419730890485
 30
0.0
 10
8.418899316051753
 20
7.531945378151849
 30
0.0
 10
8.422172136771481
 20
7.53020736997233
 30
0.0
  0
SPLINE
  5
371
330
1F
100
AcDbEntity
  8
0
  6
Continuous
 62
     7
370
    18
100
AcDbSpline
210
0.0
220
0.0
230
1.0
 70
     8
 71
     3
 72
    13
 73
     9
 74
     0
 42
0.000000001
 43
0.00000001
 40
0.0
 40
0.0
 40
0.0
 40
0.0
 40
0.1868614119767312
 40
0.3733061237798677
 40
0.5595475860266645
 40
0.706227864801596
 40
0.8530531502858045
 40
0.9999999999999999
 40
0.9999999999999999
 40
0.9999999999999999
 40
0.9999999999999999
 10
8.34199127854765
 20
7.483191009961112
 30
0.0
 10
8.338182901933251
 20
7.485625772722714
 30
0.0
 10
8.330574641368509
 20
7.490489868735061
 30
0.0
 10
8.323559086614218
 20
7.499627769264515
 30
0.0
 10
8.322599333392544
 20
7.508904969008445
 30
0.0
 10
8.326549770285917
 20
7.51707935569827
 30
0.0
 10
8.33325236661901
 20
7.523830971635259
 30
0.0
 10
8.339298444809113
 20
7.527613648283041
 30
0.0
 10
8.342322734851331
 20
7.529505769251232
 30
0.0
  0
SPLINE
  5
372
330
1F
100
AcDbEntity
  8
0
  6
Continuous
 62
     7
370
    18
100
AcDbSpline
210
0.0
220
0.0
230
1.0
 70
     8
 71
     3
 72
    13
 73
     9
 74
     0
 42
0.000000001
 43
0.00000001
 40
0.0
 40
0.0
 40
0.0
 40
0.0
 40
0.1869678752886155
 40
0.3734159818563762
 40
0.5595516834843847
 40
0.7062585039356641
 40
0.8530501096903297
 40
1.0
 40
1.0
 40
1.0
 40
1.0
 10
8.423071803881474
 20
7.483983727658975
 30
0.0
 10
8.418841717695008
 20
7.481731341071259
 30
0.0
 10
8.41039330491705
 20
7.47723282950678
 30
0.0
 10
8.394719457989297
 20
7.472645622865647
 30
0.0
 10
8.378396430997562
 20
7.471984702861379
 30
0.0
 10
8.363936316249491
 20
7.474034370290286
 30
0.0
 10
8.351959388345794
 20
7.477877698482443
 30
0.0
 10
8.34531517523981
 20
7.481419270001782
 30
0.0
 10
8.34199127854765
 20
7.483191009961112
 30
0.0
  0
SPLINE
  5
373
330
1F
100
AcDbEntity
  8
0
  6
Continuous
 62
     7
370
    18
100
AcDbSpline
210
0.0
220
0.0
230
1.0
 70
     8
 71
     3
 72
    13
 73
     9
 74
     0
 42
0.000000001
 43
0.00000001
 40
0.0
 40
0.0
 40
0.0
 40
0.0
 40
0.1869559700276215
 40
0.3733847352312594
 40
0.5595751486462712
 40
0.7062367055897861
 40
0.853029534973575
 40
1.0
 40
1.0
 40
1.0
 40
1.0
 10
8.422172136771481
 20
7.53020736997233
 30
0.0
 10
8.426026033851683
 20
7.527792501900088
 30
0.0
 10
8.43372296024931
 20
7.522969575541335
 30
0.0
 10
8.441273108643566
 20
7.513963200701998
 30
0.0
 10
8.4425288073127
 20
7.504672740128547
 30
0.0
 10
8.438848079776161
 20
7.49644231331114
 30
0.0
 10
8.432176472690703
 20
7.489656459386306
 30
0.0
 10
8.42610791668235
 20
7.485875400357254
 30
0.0
 10
8.423071803881474
 20
7.483983727658975
 30
0.0
  0
LINE
  5
374
330
1F
100
AcDbEntity
  8
0
  6
Continuous
 62
     7
370
    18
100
AcDbLine
 10
8.2333525291
 20
7.3756274189
 30
0.0
 11
8.173753529
 21
7.4100331893
 31
0.0
  0
LINE
  5
375
330
1F
100
AcDbEntity
  8
0
  6
Continuous
 62
     7
370
    18
100
AcDbLine
 10
8.2575961902
 20
7.3896229865
 30
0.0
 11
8.2333525291
 21
7.3756274189
 31
0.0
  0
LINE
  5
376
330
1F
100
AcDbEntity
  8
0
  6
Continuous
 62
     7
370
    18
100
AcDbLine
 10
8.19799719
 20
7.4240287569
 30
0.0
 11
8.2575961902
 21
7.3896229865
 31
0.0
  0
LINE
  5
377
330
1F
100
AcDbEntity
  8
0
  6
Continuous
 62
     7
370
    18
100
AcDbLine
 10
8.2222408511
 20
7.4380243246
 30
0.0
 11
8.19799719
 21
7.4240287569
 31
0.0
  0
LINE
  5
378
330
1F
100
AcDbEntity
  8
0
  6
Continuous
 62
     7
370
    18
100
AcDbLine
 10
8.2040581053
 20
7.4485210003
 30
0.0
 11
8.2222408511
 21
7.4380243246
 31
0.0
  0
LINE
  5
379
330
1F
100
AcDbEntity
  8
0
  6
Continuous
 62
     7
370
    18
100
AcDbLine
 10
8.1313271221
 20
7.4065342974
 30
0.0
 11
8.2040581053
 21
7.4485210003
 31
0.0
  0
LINE
  5
37A
330
1F
100
AcDbEntity
  8
0
  6
Continuous
 62
     7
370
    18
100
AcDbLine
 10
8.1495098679
 20
7.3960376217
 30
0.0
 11
8.1313271221
 21
7.4065342974
 31
0.0
  0
LINE
  5
37B
330
1F
100
AcDbEntity
  8
0
  6
Continuous
 62
     7
370
    18
100
AcDbLine
 10
8.173753529
 20
7.4100331893
 30
0.0
 11
8.1495098679
 21
7.3960376217
 31
0.0
  0
LWPOLYLINE
  5
37C
330
1F
100
AcDbEntity
  8
0
  6
Continuous
 62
     7
370
    18
100
AcDbPolyline
 90
      102
 70
   128
 43
0.0
 10
8.7533285514
 20
7.1451379145
 10
8.7767859992
 20
7.1324134863
 10
8.8015683982
 20
7.1205555546
 10
8.8275798699
 20
7.1096099955
 10
8.8547197812
 20
7.0996191551
 10
8.8828831328
 20
7.0906216862
 10
8.9119609664
 20
7.0826523982
 10
8.9418407854
 20
7.0757421227
 10
8.9724069906
 20
7.0699175942
 10
9.0035413273
 20
7.0652013467
 10
9.0351233428
 20
7.0616116265
 10
9.0670308524
 20
7.0591623214
 10
9.0991404121
 20
7.0578629073
 10
9.1313277964
 20
7.0577184115
 10
9.1634684784
 20
7.058729393
 10
9.1954381121
 20
7.0608919404
 10
9.2271130132
 20
7.0641976873
 10
9.2583706377
 20
7.0686338444
 10
9.2890900559
 20
7.0741832491
 10
9.3191524204
 20
7.0808244317
 10
9.3484414256
 20
7.088531699
 10
9.3768437581
 20
7.0972752328
 10
9.4042495349
 20
7.1070212063
 10
9.4305527282
 20
7.1177319141
 10
9.4556515761
 20
7.1293659186
 10
9.4794489761
 20
7.14187821
 10
9.5018528607
 20
7.1552203808
 10
9.5227765536
 20
7.1693408126
 10
9.542139105
 20
7.1841848764
 10
9.559865605
 20
7.1996951432
 10
9.5758874733
 20
7.2158116069
 10
9.5901427243
 20
7.2324719159
 10
9.6025762073
 20
7.2496116149
 10
9.6131398194
 20
7.2671643936
 10
9.6217926923
 20
7.2850623438
 10
9.6285013495
 20
7.3032362217
 10
9.6332398365
 20
7.3216157161
 10
9.6359898212
 20
7.3401297204
 10
9.6367406643
 20
7.3587066075
 10
9.6354894609
 20
7.3772745069
 10
9.6322410518
 20
7.3957615832
 10
9.6270080044
 20
7.4140963134
 10
9.6198105643
 20
7.4322077639
 10
9.610676577
 20
7.4500258652
 10
9.5996413802
 20
7.4674816824
 10
9.5867476669
 20
7.4845076824
 10
9.5720453203
 20
7.5010379948
 10
9.5555912211
 20
7.5170086672
 10
9.5374490268
 20
7.532357912
 10
9.5176889262
 20
7.5470263461
 10
9.4963873671
 20
7.5609572201
 10
9.4736267613
 20
7.5740966381
 10
9.449495165
 20
7.5863937664
 10
9.4240859388
 20
7.5978010297
 10
9.397497386
 20
7.6082742955
 10
9.3698323724
 20
7.6177730448
 10
9.3411979288
 20
7.6262605288
 10
9.3117048362
 20
7.6337039111
 10
9.2814671976
 20
7.6400743946
 10
9.2506019966
 20
7.6453473332
 10
9.2192286447
 20
7.6495023269
 10
9.1874685192
 20
7.6525233009
 10
9.155444494
 20
7.6543985676
 10
9.1232804637
 20
7.6551208719
 10
9.0911008647
 20
7.6546874194
 10
9.0590301937
 20
7.6530998871
 10
9.0271925258
 20
7.6503644167
 10
8.9957110348
 20
7.6464915914
 10
8.9647075165
 20
7.6414963942
 10
8.9343019175
 20
7.6353981507
 10
8.9046118711
 20
7.6282204538
 10
8.8757522423
 20
7.6199910725
 10
8.8478346834
 20
7.6107418449
 10
8.8209672021
 20
7.6005085542
 10
8.7952537434
 20
7.5893307912
 10
8.7707937877
 20
7.5772518004
 10
8.7476819658
 20
7.5643183132
 10
8.7260076929
 20
7.5505803665
 10
8.7058548225
 20
7.53609111
 10
8.6873013221
 20
7.5209065997
 10
8.6704189716
 20
7.5050855816
 10
8.6552730857
 20
7.488689264
 10
8.6419222606
 20
7.4717810812
 10
8.6304181483
 20
7.4544264476
 10
8.6208052559
 20
7.436692505
 10
8.6131207738
 20
7.4186478624
 10
8.6073944317
 20
7.4003623312
 10
8.6036483838
 20
7.3819066545
 10
8.6018971228
 20
7.3633522337
 10
8.6021474241
 20
7.3447708523
 10
8.6043983191
 20
7.3262343981
 10
8.6086410997
 20
7.3078145848
 10
8.6148593513
 20
7.2895826754
 10
8.6230290168
 20
7.2716092054
 10
8.6331184893
 20
7.2539637107
 10
8.6450887346
 20
7.2367144584
 10
8.6588934421
 20
7.2199281824
 10
8.6744792041
 20
7.2036698255
 10
8.6917857223
 20
7.1880022882
 10
8.7107460412
 20
7.1729861852
 10
8.731286807
 20
7.1586796108
 10
8.7533285514
 20
7.1451379145
  0
LWPOLYLINE
  5
37D
330
1F
100
AcDbEntity
  8
0
  6
Continuous
 62
     7
370
    18
100
AcDbPolyline
 90
       51
 70
   128
 43
0.0
 10
9.2631525407
 20
8.0517591226
 10
9.2751630059
 20
8.0456464254
 10
9.2884058747
 20
8.0404509258
 10
9.3026722992
 20
8.0362545601
 10
9.3177372892
 20
8.0331235073
 10
9.333363261
 20
8.0311071461
 10
9.3493037835
 20
8.0302372757
 10
9.3653074652
 20
8.0305276144
 10
9.3811219185
 20
8.0319735835
 10
9.3964977401
 20
8.0345523792
 10
9.411192444
 20
8.0382233322
 10
9.4249742859
 20
8.0429285496
 10
9.4376259181
 20
8.0485938271
 10
9.4489478166
 20
8.05512982
 10
9.4587614285
 20
8.0624334518
 10
9.4669119871
 20
8.0703895398
 10
9.4732709533
 20
8.0788726118
 10
9.4777380424
 20
8.0877488846
 10
9.4802428057
 20
8.0968783742
 10
9.4807457417
 20
8.106117103
 10
9.4792389187
 20
8.1153193708
 10
9.4757461002
 20
8.1243400523
 10
9.47032237
 20
8.1330368859
 10
9.4630532637
 20
8.1412727174
 10
9.4540534193
 20
8.1489176629
 10
9.4434647699
 20
8.1558511569
 10
9.4314543046
 20
8.1619638541
 10
9.4182114358
 20
8.1671593537
 10
9.4039450113
 20
8.1713557195
 10
9.3888800213
 20
8.1744867722
 10
9.3732540495
 20
8.1765031334
 10
9.357313527
 20
8.1773730038
 10
9.3413098453
 20
8.1770826651
 10
9.325495392
 20
8.175636696
 10
9.3101195704
 20
8.1730579003
 10
9.2954248665
 20
8.1693869473
 10
9.2816430246
 20
8.16468173
 10
9.2689913924
 20
8.1590164524
 10
9.2576694939
 20
8.1524804595
 10
9.247855882
 20
8.1451768277
 10
9.2397053234
 20
8.1372207397
 10
9.2333463572
 20
8.1287376677
 10
9.2288792681
 20
8.1198613949
 10
9.2263745048
 20
8.1107319053
 10
9.2258715688
 20
8.1014931765
 10
9.2273783918
 20
8.0922909087
 10
9.2308712103
 20
8.0832702273
 10
9.2362949405
 20
8.0745733936
 10
9.2435640468
 20
8.0663375621
 10
9.2525638912
 20
8.0586926167
 10
9.2631525407
 20
8.0517591226
  0
LWPOLYLINE
  5
37E
330
1F
100
AcDbEntity
  8
0
  6
Continuous
 62
     7
370
    18
100
AcDbPolyline
 90
       51
 70
   128
 43
0.0
 10
10.3238127124
 20
7.4394530388
 10
10.3358231777
 20
7.4333403415
 10
10.3490660465
 20
7.428144842
 10
10.363332471
 20
7.4239484762
 10
10.378397461
 20
7.4208174234
 10
10.3940234327
 20
7.4188010622
 10
10.4099639553
 20
7.4179311918
 10
10.425967637
 20
7.4182215306
 10
10.4417820903
 20
7.4196674997
 10
10.4571579119
 20
7.4222462953
 10
10.4718526157
 20
7.4259172484
 10
10.4856344577
 20
7.4306224657
 10
10.4982860899
 20
7.4362877432
 10
10.5096079884
 20
7.4428237362
 10
10.5194216003
 20
7.4501273679
 10
10.5275721589
 20
7.4580834559
 10
10.5339311251
 20
7.4665665279
 10
10.5383982142
 20
7.4754428008
 10
10.5409029775
 20
7.4845722904
 10
10.5414059135
 20
7.4938110192
 10
10.5398990905
 20
7.5030132869
 10
10.536406272
 20
7.5120339684
 10
10.5309825418
 20
7.520730802
 10
10.5237134355
 20
7.5289666336
 10
10.5147135911
 20
7.536611579
 10
10.5041249416
 20
7.543545073
 10
10.4921144764
 20
7.5496577703
 10
10.4788716075
 20
7.5548532698
 10
10.4646051831
 20
7.5590496356
 10
10.4495401931
 20
7.5621806884
 10
10.4339142213
 20
7.5641970496
 10
10.4179736988
 20
7.56506692
 10
10.4019700171
 20
7.5647765812
 10
10.3861555638
 20
7.5633306121
 10
10.3707797422
 20
7.5607518165
 10
10.3560850383
 20
7.5570808634
 10
10.3423031964
 20
7.5523756461
 10
10.3296515642
 20
7.5467103686
 10
10.3183296657
 20
7.5401743757
 10
10.3085160538
 20
7.5328707439
 10
10.3003654952
 20
7.5249146559
 10
10.294006529
 20
7.5164315839
 10
10.2895394399
 20
7.507555311
 10
10.2870346765
 20
7.4984258214
 10
10.2865317406
 20
7.4891870926
 10
10.2880385636
 20
7.4799848249
 10
10.2915313821
 20
7.4709641434
 10
10.2969551123
 20
7.4622673098
 10
10.3042242186
 20
7.4540314782
 10
10.313224063
 20
7.4463865328
 10
10.3238127124
 20
7.4394530388
  0
LINE
  5
37F
330
1F
100
AcDbEntity
  8
0
  6
Continuous
 62
     7
370
    18
100
AcDbLine
 10
9.0839009716
 20
6.5603856044
 30
0.0
 11
7.7403980874
 21
7.3359733106
 31
0.0
  0
LINE
  5
380
330
1F
100
AcDbEntity
  8
0
  6
Continuous
 62
     7
370
    18
100
AcDbLine
 10
7.7403980874
 20
7.3359733106
 30
0.0
 11
9.331388345
 21
8.2544324364
 31
0.0
  0
LINE
  5
381
330
1F
100
AcDbEntity
  8
0
  6
Continuous
 62
     7
370
    18
100
AcDbLine
 10
10.6748912293
 20
7.4788447302
 30
0.0
 11
9.331388345
 21
8.2544324364
 31
0.0
  0
LINE
  5
382
330
1F
100
AcDbEntity
  8
0
  6
Continuous
 62
     7
370
    18
100
AcDbLine
 10
8.2858804614
 20
7.4421063651
 30
0.0
 11
8.3171951903
 21
7.4240287569
 31
0.0
  0
LINE
  5
383
330
1F
100
AcDbEntity
  8
0
  6
Continuous
 62
     7
370
    18
100
AcDbLine
 10
8.3121444276
 20
7.4572682301
 30
0.0
 11
8.2858804614
 21
7.4421063651
 31
0.0
  0
LINE
  5
384
330
1F
100
AcDbEntity
  8
0
  6
Continuous
 62
     7
370
    18
100
AcDbLine
 10
8.3434591565
 20
7.4391906219
 30
0.0
 11
8.3121444276
 21
7.4572682301
 31
0.0
  0
LINE
  5
385
330
1F
100
AcDbEntity
  8
0
  6
Continuous
 62
     7
370
    18
100
AcDbLine
 10
8.3677028175
 20
7.4531861895
 30
0.0
 11
8.3434591565
 21
7.4391906219
 31
0.0
  0
LINE
  5
386
330
1F
100
AcDbEntity
  8
0
  6
Continuous
 62
     7
370
    18
100
AcDbLine
 10
8.2899210716
 20
7.4980886357
 30
0.0
 11
8.3677028175
 21
7.4531861895
 31
0.0
  0
LINE
  5
387
330
1F
100
AcDbEntity
  8
0
  6
Continuous
 62
     7
370
    18
100
AcDbLine
 10
8.2656774105
 20
7.484093068
 30
0.0
 11
8.2899210716
 21
7.4980886357
 31
0.0
  0
LINE
  5
388
330
1F
100
AcDbEntity
  8
0
  6
Continuous
 62
     7
370
    18
100
AcDbLine
 10
8.2929515292
 20
7.4683480544
 30
0.0
 11
8.2656774105
 21
7.484093068
 31
0.0
  0
LINE
  5
389
330
1F
100
AcDbEntity
  8
0
  6
Continuous
 62
     7
370
    18
100
AcDbLine
 10
8.2666875631
 20
7.4531861895
 30
0.0
 11
8.2929515292
 21
7.4683480544
 31
0.0
  0
LINE
  5
38A
330
1F
100
AcDbEntity
  8
0
  6
Continuous
 62
     7
370
    18
100
AcDbLine
 10
8.2394134444
 20
7.4689312031
 30
0.0
 11
8.2666875631
 21
7.4531861895
 31
0.0
  0
LINE
  5
38B
330
1F
100
AcDbEntity
  8
0
  6
Continuous
 62
     7
370
    18
100
AcDbLine
 10
8.2151697833
 20
7.4549356355
 30
0.0
 11
8.2394134444
 21
7.4689312031
 31
0.0
  0
LINE
  5
38C
330
1F
100
AcDbEntity
  8
0
  6
Continuous
 62
     7
370
    18
100
AcDbLine
 10
8.2929515292
 20
7.4100331893
 30
0.0
 11
8.2151697833
 21
7.4549356355
 31
0.0
  0
LINE
  5
38D
330
1F
100
AcDbEntity
  8
0
  6
Continuous
 62
     7
370
    18
100
AcDbLine
 10
8.3171951903
 20
7.4240287569
 30
0.0
 11
8.2929515292
 21
7.4100331893
 31
0.0
  0
LINE
  5
38E
330
1F
100
AcDbEntity
  8
0
  6
Continuous
 62
     7
370
    18
100
AcDbLine
 10
8.46983871
 20
7.5483032016
 30
0.0
 11
8.4677079194
 21
7.5470731224
 31
0.0
  0
SPLINE
  5
38F
330
1F
100
AcDbEntity
  8
0
  6
Continuous
 62
     7
370
    18
100
AcDbSpline
210
0.0
220
0.0
230
1.0
 70
     8
 71
     3
 72
     9
 73
     5
 74
     0
 42
0.000000001
 43
0.00000001
 40
0.0
 40
0.0
 40
0.0
 40
0.0
 40
0.5595454497439499
 40
1.0
 40
1.0
 40
1.0
 40
1.0
 10
8.47752533948624
 20
7.550681354651633
 30
0.0
 10
8.47591333501806
 20
7.550421611530764
 30
0.0
 10
8.473032417178555
 20
7.549957407736438
 30
0.0
 10
8.470815264814776
 20
7.548809015947123
 30
0.0
 10
8.46983870996754
 20
7.548303201558043
 30
0.0
  0
SPLINE
  5
390
330
1F
100
AcDbEntity
  8
0
  6
Continuous
 62
     7
370
    18
100
AcDbSpline
210
0.0
220
0.0
230
1.0
 70
     8
 71
     3
 72
     9
 73
     5
 74
     0
 42
0.000000001
 43
0.00000001
 40
0.0
 40
0.0
 40
0.0
 40
0.0
 40
0.5607004648622771
 40
1.0
 40
1.0
 40
1.0
 40
1.0
 10
8.487832052167375
 20
7.549761073186298
 30
0.0
 10
8.485944183974286
 20
7.550088737665865
 30
0.0
 10
8.482577202294411
 20
7.550673121842626
 30
0.0
 10
8.47906725687663
 20
7.550678841853511
 30
0.0
 10
8.47752533948624
 20
7.550681354651633
 30
0.0
  0
LINE
  5
391
330
1F
100
AcDbEntity
  8
0
  6
Continuous
 62
     7
370
    18
100
AcDbLine
 10
8.5241975438
 20
7.543528672
 30
0.0
 11
8.4878320522
 21
7.5497610732
 31
0.0
  0
LINE
  5
392
330
1F
100
AcDbEntity
  8
0
  6
Continuous
 62
     7
370
    18
100
AcDbLine
 10
8.5515505806
 20
7.559319244
 30
0.0
 11
8.5241975438
 21
7.543528672
 31
0.0
  0
LINE
  5
393
330
1F
100
AcDbEntity
  8
0
  6
Continuous
 62
     7
370
    18
100
AcDbLine
 10
8.5173632305
 20
7.5651871774
 30
0.0
 11
8.5515505806
 21
7.559319244
 31
0.0
  0
SPLINE
  5
394
330
1F
100
AcDbEntity
  8
0
  6
Continuous
 62
     7
370
    18
100
AcDbSpline
210
0.0
220
0.0
230
1.0
 70
     8
 71
     3
 72
     9
 73
     5
 74
     0
 42
0.000000001
 43
0.00000001
 40
0.0
 40
0.0
 40
0.0
 40
0.0
 40
0.5597522619867005
 40
1.0
 40
1.0
 40
1.0
 40
1.0
 10
8.501153438848657
 20
7.566289692771637
 30
0.0
 10
8.504218417080503
 20
7.566268426236952
 30
0.0
 10
8.509694014840425
 20
7.566230433474566
 30
0.0
 10
8.515018942919932
 20
7.565506074675547
 30
0.0
 10
8.517363230462019
 20
7.56518717735277
 30
0.0
  0
SPLINE
  5
395
330
1F
100
AcDbEntity
  8
0
  6
Continuous
 62
     7
370
    18
100
AcDbSpline
210
0.0
220
0.0
230
1.0
 70
     8
 71
     3
 72
     9
 73
     5
 74
     0
 42
0.000000001
 43
0.00000001
 40
0.0
 40
0.0
 40
0.0
 40
0.0
 40
0.5601696408922426
 40
1.0
 40
1.0
 40
1.0
 40
1.0
 10
8.49203049868067
 20
7.564394459654905
 30
0.0
 10
8.493669640406932
 20
7.564854518263534
 30
0.0
 10
8.496595792784008
 20
7.565675802701395
 30
0.0
 10
8.499761197677591
 20
7.566102165478342
 30
0.0
 10
8.501153438848657
 20
7.566289692771637
 30
0.0
  0
SPLINE
  5
396
330
1F
100
AcDbEntity
  8
0
  6
Continuous
 62
     7
370
    18
100
AcDbSpline
210
0.0
220
0.0
230
1.0
 70
     8
 71
     3
 72
     9
 73
     5
 74
     0
 42
0.000000001
 43
0.00000001
 40
0.0
 40
0.0
 40
0.0
 40
0.0
 40
0.5596449196502052
 40
1.0
 40
1.0
 40
1.0
 40
1.0
 10
8.497602121309216
 20
7.571182674423968
 30
0.0
 10
8.496789644120076
 20
7.569852894367363
 30
0.0
 10
8.495337871468143
 20
7.567476780496027
 30
0.0
 10
8.493041651020425
 20
7.565336807594086
 30
0.0
 10
8.49203049868067
 20
7.564394459654905
 30
0.0
  0
SPLINE
  5
397
330
1F
100
AcDbEntity
  8
0
  6
Continuous
 62
     7
370
    18
100
AcDbSpline
210
0.0
220
0.0
230
1.0
 70
     8
 71
     3
 72
    11
 73
     7
 74
     0
 42
0.000000001
 43
0.00000001
 40
0.0
 40
0.0
 40
0.0
 40
0.0
 40
0.2800118945603627
 40
0.5596299346707282
 40
0.7798011822510891
 40
1.0
 40
1.0
 40
1.0
 40
1.0
 10
8.48939463188473
 20
7.588203325683843
 30
0.0
 10
8.491392722979125
 20
7.58690064173032
 30
0.0
 10
8.495386094726346
 20
7.584297106130695
 30
0.0
 10
8.498330264927214
 20
7.579676191043522
 30
0.0
 10
8.498965012534445
 20
7.575199061570184
 30
0.0
 10
8.498056437345292
 20
7.5725215260167
 30
0.0
 10
8.497602121309216
 20
7.571182674423968
 30
0.0
  0
SPLINE
  5
398
330
1F
100
AcDbEntity
  8
0
  6
Continuous
 62
     7
370
    18
100
AcDbSpline
210
0.0
220
0.0
230
1.0
 70
     8
 71
     3
 72
    14
 73
    10
 74
     0
 42
0.000000001
 43
0.00000001
 40
0.0
 40
0.0
 40
0.0
 40
0.0
 40
0.1669984493988534
 40
0.3339061467909927
 40
0.5001722084098945
 40
0.6250159338038301
 40
0.7499346931766516
 40
0.8749185222881821
 40
1.0
 40
1.0
 40
1.0
 40
1.0
 10
8.437355992206783
 20
7.583201003659394
 30
0.0
 10
8.43977515609145
 20
7.58455305977134
 30
0.0
 10
8.444612169213986
 20
7.587256437247059
 30
0.0
 10
8.452504048859364
 20
7.590881897892264
 30
0.0
 10
8.460869711156162
 20
7.593371828951772
 30
0.0
 10
8.469355915817607
 20
7.593850144488376
 30
0.0
 10
8.476872934660118
 20
7.593086267407301
 30
0.0
 10
8.483776670243042
 20
7.591146061193109
 30
0.0
 10
8.487521490562884
 20
7.589184492846105
 30
0.0
 10
8.48939463188473
 20
7.588203325683843
 30
0.0
  0
LINE
  5
399
330
1F
100
AcDbEntity
  8
0
  6
Continuous
 62
     7
370
    18
100
AcDbLine
 10
8.3969972413
 20
7.5599023927
 30
0.0
 11
8.4373559922
 21
7.5832010037
 31
0.0
  0
LINE
  5
39A
330
1F
100
AcDbEntity
  8
0
  6
Continuous
 62
     7
370
    18
100
AcDbLine
 10
8.4747789873
 20
7.5149999466
 30
0.0
 11
8.3969972413
 21
7.5599023927
 31
0.0
  0
LINE
  5
39B
330
1F
100
AcDbEntity
  8
0
  6
Continuous
 62
     7
370
    18
100
AcDbLine
 10
8.4990226483
 20
7.5289955142
 30
0.0
 11
8.4747789873
 21
7.5149999466
 31
0.0
  0
LINE
  5
39C
330
1F
100
AcDbEntity
  8
0
  6
Continuous
 62
     7
370
    18
100
AcDbLine
 10
8.4677079194
 20
7.5470731224
 30
0.0
 11
8.4990226483
 21
7.5289955142
 31
0.0
  0
LINE
  5
39D
330
1F
100
AcDbEntity
  8
0
  6
Continuous
 62
     7
370
    18
100
AcDbLine
 10
8.6023580969
 20
7.6784546912
 30
0.0
 11
8.7091343776
 21
7.6502904337
 31
0.0
  0
LINE
  5
39E
330
1F
100
AcDbEntity
  8
0
  6
Continuous
 62
     7
370
    18
100
AcDbLine
 10
8.57500506
 20
7.6626641191
 30
0.0
 11
8.6023580969
 21
7.6784546912
 31
0.0
  0
LINE
  5
39F
330
1F
100
AcDbEntity
  8
0
  6
Continuous
 62
     7
370
    18
100
AcDbLine
 10
8.6242815638
 20
7.6013059469
 30
0.0
 11
8.57500506
 21
7.6626641191
 31
0.0
  0
LINE
  5
3A0
330
1F
100
AcDbEntity
  8
0
  6
Continuous
 62
     7
370
    18
100
AcDbLine
 10
8.6489040321
 20
7.6155201953
 30
0.0
 11
8.6242815638
 21
7.6013059469
 31
0.0
  0
LINE
  5
3A1
330
1F
100
AcDbEntity
  8
0
  6
Continuous
 62
     7
370
    18
100
AcDbLine
 10
8.6397021738
 20
7.6253699405
 30
0.0
 11
8.6489040321
 21
7.6155201953
 31
0.0
  0
LINE
  5
3A2
330
1F
100
AcDbEntity
  8
0
  6
Continuous
 62
     7
370
    18
100
AcDbLine
 10
8.6667868889
 20
7.6410056137
 30
0.0
 11
8.6397021738
 21
7.6253699405
 31
0.0
  0
LINE
  5
3A3
330
1F
100
AcDbEntity
  8
0
  6
Continuous
 62
     7
370
    18
100
AcDbLine
 10
8.6838489967
 20
7.635693494
 30
0.0
 11
8.6667868889
 21
7.6410056137
 31
0.0
  0
LINE
  5
3A4
330
1F
100
AcDbEntity
  8
0
  6
Continuous
 62
     7
370
    18
100
AcDbLine
 10
8.7091343776
 20
7.6502904337
 30
0.0
 11
8.6838489967
 21
7.635693494
 31
0.0
  0
SPLINE
  5
3A5
330
1F
100
AcDbEntity
  8
0
  6
Continuous
 62
     7
370
    18
100
AcDbSpline
210
0.0
220
0.0
230
1.0
 70
     8
 71
     3
 72
    13
 73
     9
 74
     0
 42
0.000000001
 43
0.00000001
 40
0.0
 40
0.0
 40
0.0
 40
0.0
 40
0.2503991015293894
 40
0.5004028094424148
 40
0.6254052317152542
 40
0.7501661270074113
 40
0.8750624844174422
 40
1.0
 40
1.0
 40
1.0
 40
1.0
 10
8.7807447228205
 20
7.752095431792715
 30
0.0
 10
8.78562477301143
 20
7.753866209319219
 30
0.0
 10
8.7953771675322
 20
7.757404968219501
 30
0.0
 10
8.808360812171298
 20
7.761179779845931
 30
0.0
 10
8.819728282189576
 20
7.762576899805723
 30
0.0
 10
8.828455977042298
 20
7.762254190390184
 30
0.0
 10
8.83669677787411
 20
7.760437576333747
 30
0.0
 10
8.841063960481446
 20
7.758241520909255
 30
0.0
 10
8.843247911514668
 20
7.757143312305548
 30
0.0
  0
SPLINE
  5
3A6
330
1F
100
AcDbEntity
  8
0
  6
Continuous
 62
     7
370
    18
100
AcDbSpline
210
0.0
220
0.0
230
1.0
 70
     8
 71
     3
 72
     9
 73
     5
 74
     0
 42
0.000000001
 43
0.00000001
 40
0.0
 40
0.0
 40
0.0
 40
0.0
 40
0.55835877350017
 40
1.0
 40
1.0
 40
1.0
 40
1.0
 10
8.769822448432528
 20
7.74908857155944
 30
0.0
 10
8.771985047328856
 20
7.749495330810844
 30
0.0
 10
8.77585818230759
 20
7.750223821649904
 30
0.0
 10
8.779247749991343
 20
7.751522071247937
 30
0.0
 10
8.7807447228205
 20
7.752095431792716
 30
0.0
  0
SPLINE
  5
3A7
330
1F
100
AcDbEntity
  8
0
  6
Continuous
 62
     7
370
    18
100
AcDbSpline
210
0.0
220
0.0
230
1.0
 70
     8
 71
     3
 72
     9
 73
     5
 74
     0
 42
0.000000001
 43
0.00000001
 40
0.0
 40
0.0
 40
0.0
 40
0.0
 40
0.5581060668461884
 40
1.0
 40
1.0
 40
1.0
 40
1.0
 10
8.764724334809241
 20
7.749990629629423
 30
0.0
 10
8.76558650341692
 20
7.749643755370887
 30
0.0
 10
8.767131314804743
 20
7.749022235055767
 30
0.0
 10
8.76899770286971
 20
7.749068241563006
 30
0.0
 10
8.769822448432528
 20
7.74908857155944
 30
0.0
  0
SPLINE
  5
3A8
330
1F
100
AcDbEntity
  8
0
  6
Continuous
 62
     7
370
    18
100
AcDbSpline
210
0.0
220
0.0
230
1.0
 70
     8
 71
     3
 72
    11
 73
     7
 74
     0
 42
0.000000001
 43
0.00000001
 40
0.0
 40
0.0
 40
0.0
 40
0.0
 40
0.2807954587775419
 40
0.5600539481733688
 40
0.7799920071015806
 40
1.0
 40
1.0
 40
1.0
 40
1.0
 10
8.766223779992561
 20
7.757890471515028
 30
0.0
 10
8.765239732576322
 20
7.757271728720648
 30
0.0
 10
8.763277024051572
 20
7.75603762989866
 30
0.0
 10
8.762062857380629
 20
7.753744624376329
 30
0.0
 10
8.762564825885098
 20
7.751539869510356
 30
0.0
 10
8.764004422221625
 20
7.750507097646319
 30
0.0
 10
8.764724334809241
 20
7.749990629629423
 30
0.0
  0
SPLINE
  5
3A9
330
1F
100
AcDbEntity
  8
0
  6
Continuous
 62
     7
370
    18
100
AcDbSpline
210
0.0
220
0.0
230
1.0
 70
     8
 71
     3
 72
    11
 73
     7
 74
     0
 42
0.000000001
 43
0.00000001
 40
0.0
 40
0.0
 40
0.0
 40
0.0
 40
0.2807318136568545
 40
0.5595399185376055
 40
0.7793658109866073
 40
1.0
 40
1.0
 40
1.0
 40
1.0
 10
8.786916123522373
 20
7.758172934143003
 30
0.0
 10
8.785122213026263
 20
7.758864432828301
 30
0.0
 10
8.78154668476752
 20
7.76024269171888
 30
0.0
 10
8.775412198493314
 20
7.760926941718362
 30
0.0
 10
8.770017069190759
 20
7.759849042635953
 30
0.0
 10
8.767489755698772
 20
7.758544126780532
 30
0.0
 10
8.766223779992561
 20
7.757890471515029
 30
0.0
  0
LINE
  5
3AA
330
1F
100
AcDbEntity
  8
0
  6
Continuous
 62
     7
370
    18
100
AcDbLine
 10
8.8098181757
 20
7.7729429961
 30
0.0
 11
8.7869161235
 21
7.7581729341
 31
0.0
  0
SPLINE
  5
3AB
330
1F
100
AcDbEntity
  8
0
  6
Continuous
 62
     7
370
    18
100
AcDbSpline
210
0.0
220
0.0
230
1.0
 70
     8
 71
     3
 72
    12
 73
     8
 74
     0
 42
0.000000001
 43
0.00000001
 40
0.0
 40
0.0
 40
0.0
 40
0.0
 40
0.1873015432933837
 40
0.3744298511052473
 40
0.5610565058971346
 40
0.7799854302259226
 40
1.0
 40
1.0
 40
1.0
 40
1.0
 10
8.755096318368977
 20
7.767794886889485
 30
0.0
 10
8.75791162327705
 20
7.769325691823735
 30
0.0
 10
8.763539629213412
 20
7.77238588584843
 30
0.0
 10
8.773303430019059
 20
7.776049022522788
 30
0.0
 10
8.785063942831608
 20
7.778396079690981
 30
0.0
 10
8.798499675498173
 20
7.777414551630053
 30
0.0
 10
8.806039126516362
 20
7.774435970251004
 30
0.0
 10
8.809818175743393
 20
7.772942996076759
 30
0.0
  0
SPLINE
  5
3AC
330
1F
100
AcDbEntity
  8
0
  6
Continuous
 62
     7
370
    18
100
AcDbSpline
210
0.0
220
0.0
230
1.0
 70
     8
 71
     3
 72
    13
 73
     9
 74
     0
 42
0.000000001
 43
0.00000001
 40
0.0
 40
0.0
 40
0.0
 40
0.0
 40
0.1250432323494953
 40
0.2501258263083136
 40
0.3750764956317994
 40
0.500134346496396
 40
0.749575694080792
 40
1.0
 40
1.0
 40
1.0
 40
1.0
 10
8.744805389321353
 20
7.735831051439997
 30
0.0
 10
8.743093455077075
 20
7.736997566061071
 30
0.0
 10
8.739669047699001
 20
7.739330962503364
 30
0.0
 10
8.736961463362707
 20
7.743699160374155
 30
0.0
 10
8.736127243132461
 20
7.748270341776112
 30
0.0
 10
8.737938370929225
 20
7.754309620800214
 30
0.0
 10
8.744227804946348
 20
7.761171194626164
 30
0.0
 10
8.751468734264922
 20
7.765584096891788
 30
0.0
 10
8.755096318368977
 20
7.767794886889485
 30
0.0
  0
SPLINE
  5
3AD
330
1F
100
AcDbEntity
  8
0
  6
Continuous
 62
     7
370
    18
100
AcDbSpline
210
0.0
220
0.0
230
1.0
 70
     8
 71
     3
 72
    10
 73
     6
 74
     0
 42
0.000000001
 43
0.00000001
 40
0.0
 40
0.0
 40
0.0
 40
0.0
 40
0.2805374891881195
 40
0.5608387519697138
 40
1.0
 40
1.0
 40
1.0
 40
1.0
 10
8.7664763181287
 20
7.731174973927259
 30
0.0
 10
8.764243231394255
 20
7.731153377758627
 30
0.0
 10
8.759778938294566
 20
7.731110203606405
 30
0.0
 10
8.751973497890507
 20
7.732407161907872
 30
0.0
 10
8.74752236753039
 20
7.734533270699209
 30
0.0
 10
8.744805389321353
 20
7.735831051439997
 30
0.0
  0
SPLINE
  5
3AE
330
1F
100
AcDbEntity
  8
0
  6
Continuous
 62
     7
370
    18
100
AcDbSpline
210
0.0
220
0.0
230
1.0
 70
     8
 71
     3
 72
     9
 73
     5
 74
     0
 42
0.000000001
 43
0.00000001
 40
0.0
 40
0.0
 40
0.0
 40
0.0
 40
0.5607096747149329
 40
1.0
 40
1.0
 40
1.0
 40
1.0
 10
8.798390825083146
 20
7.738792353184889
 30
0.0
 10
8.792824872713098
 20
7.736788483687748
 30
0.0
 10
8.782898251823458
 20
7.733214674303844
 30
0.0
 10
8.771488508141964
 20
7.73179751729198
 30
0.0
 10
8.7664763181287
 20
7.731174973927259
 30
0.0
  0
SPLINE
  5
3AF
330
1F
100
AcDbEntity
  8
0
  6
Continuous
 62
     7
370
    18
100
AcDbSpline
210
0.0
220
0.0
230
1.0
 70
     8
 71
     3
 72
    10
 73
     6
 74
     0
 42
0.000000001
 43
0.00000001
 40
0.0
 40
0.0
 40
0.0
 40
0.0
 40
0.2789774828623235
 40
0.5593536207879989
 40
1.0
 40
1.0
 40
1.0
 40
1.0
 10
8.814758453031594
 20
7.743047515999859
 30
0.0
 10
8.813089583014921
 20
7.742879624453349
 30
0.0
 10
8.809743476093056
 20
7.742542999635185
 30
0.0
 10
8.804362144987945
 20
7.740895160819493
 30
0.0
 10
8.800655877115988
 20
7.739589994038734
 30
0.0
 10
8.798390825083146
 20
7.738792353184889
 30
0.0
  0
SPLINE
  5
3B0
330
1F
100
AcDbEntity
  8
0
  6
Continuous
 62
     7
370
    18
100
AcDbSpline
210
0.0
220
0.0
230
1.0
 70
     8
 71
     3
 72
     9
 73
     5
 74
     0
 42
0.000000001
 43
0.00000001
 40
0.0
 40
0.0
 40
0.0
 40
0.0
 40
0.559060690544796
 40
1.0
 40
1.0
 40
1.0
 40
1.0
 10
8.822366164382753
 20
7.741206953069188
 30
0.0
 10
8.821105859325172
 20
7.741781589259805
 30
0.0
 10
8.818851533312099
 20
7.742809449383644
 30
0.0
 10
8.816010969345493
 20
7.742974665652402
 30
0.0
 10
8.814758453031594
 20
7.743047515999859
 30
0.0
  0
SPLINE
  5
3B1
330
1F
100
AcDbEntity
  8
0
  6
Continuous
 62
     7
370
    18
100
AcDbSpline
210
0.0
220
0.0
230
1.0
 70
     8
 71
     3
 72
    11
 73
     7
 74
     0
 42
0.000000001
 43
0.00000001
 40
0.0
 40
0.0
 40
0.0
 40
0.0
 40
0.2807162403596145
 40
0.5599866463508455
 40
0.7802623121998644
 40
1.0
 40
1.0
 40
1.0
 40
1.0
 10
8.820566830162768
 20
7.730947181485344
 30
0.0
 10
8.821823423995484
 20
7.731754749368815
 30
0.0
 10
8.82433013955033
 20
7.733365725741918
 30
0.0
 10
8.825726887344867
 20
7.736350755831504
 30
0.0
 10
8.825097115038167
 20
7.739184638932785
 30
0.0
 10
8.823275738971978
 20
7.740533398039456
 30
0.0
 10
8.822366164382753
 20
7.741206953069188
 30
0.0
  0
SPLINE
  5
3B2
330
1F
100
AcDbEntity
  8
0
  6
Continuous
 62
     7
370
    18
100
AcDbSpline
210
0.0
220
0.0
230
1.0
 70
     8
 71
     3
 72
    10
 73
     6
 74
     0
 42
0.000000001
 43
0.00000001
 40
0.0
 40
0.0
 40
0.0
 40
0.0
 40
0.2803949580400177
 40
0.5605816891340801
 40
0.9999999999999999
 40
0.9999999999999999
 40
0.9999999999999999
 40
0.9999999999999999
 10
8.806203723669917
 20
7.728067885019541
 30
0.0
 10
8.80767870767689
 20
7.727993308729255
 30
0.0
 10
8.810627580337995
 20
7.727844211530541
 30
0.0
 10
8.81584885887572
 20
7.728653545564945
 30
0.0
 10
8.8187781147166
 20
7.730077599678018
 30
0.0
 10
8.820566830162768
 20
7.730947181485344
 30
0.0
  0
SPLINE
  5
3B3
330
1F
100
AcDbEntity
  8
0
  6
Continuous
 62
     7
370
    18
100
AcDbSpline
210
0.0
220
0.0
230
1.0
 70
     8
 71
     3
 72
     9
 73
     5
 74
     0
 42
0.000000001
 43
0.00000001
 40
0.0
 40
0.0
 40
0.0
 40
0.0
 40
0.5603812392076915
 40
0.9999999999999999
 40
0.9999999999999999
 40
0.9999999999999999
 40
0.9999999999999999
 10
8.79499734387879
 20
7.731348096183114
 30
0.0
 10
8.796907278077404
 20
7.730518661520375
 30
0.0
 10
8.800315554559521
 20
7.729038535840381
 30
0.0
 10
8.804405643735043
 20
7.728364294265266
 30
0.0
 10
8.806203723669917
 20
7.728067885019541
 30
0.0
  0
LINE
  5
3B4
330
1F
100
AcDbEntity
  8
0
  6
Continuous
 62
     7
370
    18
100
AcDbLine
 10
8.7721742098
 20
7.7165324758
 30
0.0
 11
8.7949973439
 21
7.7313480962
 31
0.0
  0
SPLINE
  5
3B5
330
1F
100
AcDbEntity
  8
0
  6
Continuous
 62
     7
370
    18
100
AcDbSpline
210
0.0
220
0.0
230
1.0
 70
     8
 71
     3
 72
    12
 73
     8
 74
     0
 42
0.000000001
 43
0.00000001
 40
0.0
 40
0.0
 40
0.0
 40
0.0
 40
0.1873286610431033
 40
0.3744512558585185
 40
0.5606481636238682
 40
0.7801329073323264
 40
1.0
 40
1.0
 40
1.0
 40
1.0
 10
8.835245609325794
 20
7.721926600785517
 30
0.0
 10
8.83199875347407
 20
7.720149535216525
 30
0.0
 10
8.825508613393533
 20
7.716597358895259
 30
0.0
 10
8.814367442484617
 20
7.712211305645324
 30
0.0
 10
8.800541888136983
 20
7.709707980851675
 30
0.0
 10
8.785139614582684
 20
7.711273863473631
 30
0.0
 10
8.776498518069008
 20
7.714778588328219
 30
0.0
 10
8.772174209825314
 20
7.716532475760975
 30
0.0
  0
SPLINE
  5
3B6
330
1F
100
AcDbEntity
  8
0
  6
Continuous
 62
     7
370
    18
100
AcDbSpline
210
0.0
220
0.0
230
1.0
 70
     8
 71
     3
 72
    12
 73
     8
 74
     0
 42
0.000000001
 43
0.00000001
 40
0.0
 40
0.0
 40
0.0
 40
0.0
 40
0.1864031444591916
 40
0.3728771223738512
 40
0.5593591973529151
 40
0.7793763378407597
 40
1.0
 40
1.0
 40
1.0
 40
1.0
 10
8.843247911514668
 20
7.757143312305548
 30
0.0
 10
8.84597801531883
 20
7.755200682225873
 30
0.0
 10
8.851439260370416
 20
7.751314683864376
 30
0.0
 10
8.854265163691775
 20
7.743807550839087
 30
0.0
 10
8.852435444075393
 20
7.73588842865292
 30
0.0
 10
8.845619212150874
 20
7.728360131587348
 30
0.0
 10
8.838706648542114
 20
7.724073078029731
 30
0.0
 10
8.835245609325794
 20
7.721926600785517
 30
0.0
  0
LINE
  5
3B7
330
1F
100
AcDbEntity
  8
0
  6
Continuous
 62
     7
370
    18
100
AcDbLine
 10
9.2684647922
 20
6.879818196
 30
0.0
 11
9.2407175641
 21
6.8958363298
 31
0.0
  0
LINE
  5
3B8
330
1F
100
AcDbEntity
  8
0
  6
Continuous
 62
     7
370
    18
100
AcDbLine
 10
9.2335569891
 20
6.8596663502
 30
0.0
 11
9.2684647922
 21
6.879818196
 31
0.0
  0
LINE
  5
3B9
330
1F
100
AcDbEntity
  8
0
  6
Continuous
 62
     7
370
    18
100
AcDbLine
 10
9.205809761
 20
6.875684484
 30
0.0
 11
9.2335569891
 21
6.8596663502
 31
0.0
  0
LINE
  5
3BA
330
1F
100
AcDbEntity
  8
0
  6
Continuous
 62
     7
370
    18
100
AcDbLine
 10
9.1968590422
 20
6.8705173441
 30
0.0
 11
9.205809761
 21
6.875684484
 31
0.0
  0
LINE
  5
3BB
330
1F
100
AcDbEntity
  8
0
  6
Continuous
 62
     7
370
    18
100
AcDbLine
 10
9.2675697204
 20
6.8296969385
 30
0.0
 11
9.1968590422
 21
6.8705173441
 31
0.0
  0
LINE
  5
3BC
330
1F
100
AcDbEntity
  8
0
  6
Continuous
 62
     7
370
    18
100
AcDbLine
 10
9.2765204391
 20
6.8348640784
 30
0.0
 11
9.2675697204
 21
6.8296969385
 31
0.0
  0
LINE
  5
3BD
330
1F
100
AcDbEntity
  8
0
  6
Continuous
 62
     7
370
    18
100
AcDbLine
 10
9.241612636
 20
6.8550159242
 30
0.0
 11
9.2765204391
 21
6.8348640784
 31
0.0
  0
LINE
  5
3BE
330
1F
100
AcDbEntity
  8
0
  6
Continuous
 62
     7
370
    18
100
AcDbLine
 10
9.2765204391
 20
6.87516777
 30
0.0
 11
9.241612636
 21
6.8550159242
 31
0.0
  0
LINE
  5
3BF
330
1F
100
AcDbEntity
  8
0
  6
Continuous
 62
     7
370
    18
100
AcDbLine
 10
9.3114282422
 20
6.8550159242
 30
0.0
 11
9.2765204391
 21
6.87516777
 31
0.0
  0
LINE
  5
3C0
330
1F
100
AcDbEntity
  8
0
  6
Continuous
 62
     7
370
    18
100
AcDbLine
 10
9.320378961
 20
6.8601830642
 30
0.0
 11
9.3114282422
 21
6.8550159242
 31
0.0
  0
LINE
  5
3C1
330
1F
100
AcDbEntity
  8
0
  6
Continuous
 62
     7
370
    18
100
AcDbLine
 10
9.2496682829
 20
6.9010034698
 30
0.0
 11
9.320378961
 21
6.8601830642
 31
0.0
  0
LINE
  5
3C2
330
1F
100
AcDbEntity
  8
0
  6
Continuous
 62
     7
370
    18
100
AcDbLine
 10
9.2407175641
 20
6.8958363298
 30
0.0
 11
9.2496682829
 21
6.9010034698
 31
0.0
  0
LINE
  5
3C3
330
1F
100
AcDbEntity
  8
0
  6
Continuous
 62
     7
370
    18
100
AcDbLine
 10
9.391984711
 20
6.9015201838
 30
0.0
 11
9.3471891607
 21
6.9573010742
 31
0.0
  0
LINE
  5
3C4
330
1F
100
AcDbEntity
  8
0
  6
Continuous
 62
     7
370
    18
100
AcDbLine
 10
9.4015228206
 20
6.9070264173
 30
0.0
 11
9.391984711
 21
6.9015201838
 31
0.0
  0
LINE
  5
3C5
330
1F
100
AcDbEntity
  8
0
  6
Continuous
 62
     7
370
    18
100
AcDbLine
 10
9.3888100029
 20
6.9224228796
 30
0.0
 11
9.4015228206
 21
6.9070264173
 31
0.0
  0
LINE
  5
3C6
330
1F
100
AcDbEntity
  8
0
  6
Continuous
 62
     7
370
    18
100
AcDbLine
 10
9.4202214315
 20
6.9405563113
 30
0.0
 11
9.3888100029
 21
6.9224228796
 31
0.0
  0
LINE
  5
3C7
330
1F
100
AcDbEntity
  8
0
  6
Continuous
 62
     7
370
    18
100
AcDbLine
 10
9.4468917763
 20
6.9332173579
 30
0.0
 11
9.4202214315
 21
6.9405563113
 31
0.0
  0
LINE
  5
3C8
330
1F
100
AcDbEntity
  8
0
  6
Continuous
 62
     7
370
    18
100
AcDbLine
 10
9.456429886
 20
6.9387235914
 30
0.0
 11
9.4468917763
 21
6.9332173579
 31
0.0
  0
LINE
  5
3C9
330
1F
100
AcDbEntity
  8
0
  6
Continuous
 62
     7
370
    18
100
AcDbLine
 10
9.35980408
 20
6.9645835121
 30
0.0
 11
9.456429886
 21
6.9387235914
 31
0.0
  0
LINE
  5
3CA
330
1F
100
AcDbEntity
  8
0
  6
Continuous
 62
     7
370
    18
100
AcDbLine
 10
9.3471891607
 20
6.9573010742
 30
0.0
 11
9.35980408
 21
6.9645835121
 31
0.0
  0
LINE
  5
3CB
330
1F
100
AcDbEntity
  8
0
  6
Continuous
 62
     7
370
    18
100
AcDbLine
 10
9.5047637672
 20
6.9976289868
 30
0.0
 11
9.4967081203
 21
7.0022794127
 31
0.0
  0
LINE
  5
3CC
330
1F
100
AcDbEntity
  8
0
  6
Continuous
 62
     7
370
    18
100
AcDbLine
 10
9.5343011391
 20
7.0146805486
 30
0.0
 11
9.5047637672
 21
6.9976289868
 31
0.0
  0
LINE
  5
3CD
330
1F
100
AcDbEntity
  8
0
  6
Continuous
 62
     7
370
    18
100
AcDbLine
 10
9.5262454922
 20
7.0193309746
 30
0.0
 11
9.5343011391
 21
7.0146805486
 31
0.0
  0
LINE
  5
3CE
330
1F
100
AcDbEntity
  8
0
  6
Continuous
 62
     7
370
    18
100
AcDbLine
 10
9.4967081203
 20
7.0022794127
 30
0.0
 11
9.5262454922
 21
7.0193309746
 31
0.0
  0
LINE
  5
3CF
330
1F
100
AcDbEntity
  8
0
  6
Continuous
 62
     7
370
    18
100
AcDbLine
 10
9.5745793735
 20
7.0885706499
 30
0.0
 11
9.6372344047
 21
7.0524006702
 31
0.0
  0
LINE
  5
3D0
330
1F
100
AcDbEntity
  8
0
  6
Continuous
 62
     7
370
    18
100
AcDbLine
 10
9.5656286547
 20
7.0834035099
 30
0.0
 11
9.5745793735
 21
7.0885706499
 31
0.0
  0
LINE
  5
3D1
330
1F
100
AcDbEntity
  8
0
  6
Continuous
 62
     7
370
    18
100
AcDbLine
 10
9.6363393328
 20
7.0425831043
 30
0.0
 11
9.5656286547
 21
7.0834035099
 31
0.0
  0
LINE
  5
3D2
330
1F
100
AcDbEntity
  8
0
  6
Continuous
 62
     7
370
    18
100
AcDbLine
 10
9.6801978547
 20
7.0679020901
 30
0.0
 11
9.6363393328
 21
7.0425831043
 31
0.0
  0
LINE
  5
3D3
330
1F
100
AcDbEntity
  8
0
  6
Continuous
 62
     7
370
    18
100
AcDbLine
 10
9.6721422078
 20
7.072552516
 30
0.0
 11
9.6801978547
 21
7.0679020901
 31
0.0
  0
LINE
  5
3D4
330
1F
100
AcDbEntity
  8
0
  6
Continuous
 62
     7
370
    18
100
AcDbLine
 10
9.6372344047
 20
7.0524006702
 30
0.0
 11
9.6721422078
 21
7.072552516
 31
0.0
  0
LINE
  5
3D5
330
1F
100
AcDbEntity
  8
0
  6
Continuous
 62
     7
370
    18
100
AcDbLine
 10
9.6837781422
 20
7.1423089053
 30
0.0
 11
9.6757224953
 21
7.1469593313
 31
0.0
  0
LINE
  5
3D6
330
1F
100
AcDbEntity
  8
0
  6
Continuous
 62
     7
370
    18
100
AcDbLine
 10
9.7088401547
 20
7.1567768972
 30
0.0
 11
9.6837781422
 21
7.1423089053
 31
0.0
  0
LINE
  5
3D7
330
1F
100
AcDbEntity
  8
0
  6
Continuous
 62
     7
370
    18
100
AcDbLine
 10
9.7714951859
 20
7.1206069176
 30
0.0
 11
9.7088401547
 21
7.1567768972
 31
0.0
  0
LINE
  5
3D8
330
1F
100
AcDbEntity
  8
0
  6
Continuous
 62
     7
370
    18
100
AcDbLine
 10
9.7804459047
 20
7.1257740575
 30
0.0
 11
9.7714951859
 21
7.1206069176
 31
0.0
  0
LINE
  5
3D9
330
1F
100
AcDbEntity
  8
0
  6
Continuous
 62
     7
370
    18
100
AcDbLine
 10
9.7177908734
 20
7.1619440371
 30
0.0
 11
9.7804459047
 21
7.1257740575
 31
0.0
  0
LINE
  5
3DA
330
1F
100
AcDbEntity
  8
0
  6
Continuous
 62
     7
370
    18
100
AcDbLine
 10
9.7428528859
 20
7.176412029
 30
0.0
 11
9.7177908734
 21
7.1619440371
 31
0.0
  0
LINE
  5
3DB
330
1F
100
AcDbEntity
  8
0
  6
Continuous
 62
     7
370
    18
100
AcDbLine
 10
9.7347972391
 20
7.181062455
 30
0.0
 11
9.7428528859
 21
7.176412029
 31
0.0
  0
LINE
  5
3DC
330
1F
100
AcDbEntity
  8
0
  6
Continuous
 62
     7
370
    18
100
AcDbLine
 10
9.6757224953
 20
7.1469593313
 30
0.0
 11
9.7347972391
 21
7.181062455
 31
0.0
  0
LINE
  5
3DD
330
1F
100
AcDbEntity
  8
0
  6
Continuous
 62
     7
370
    18
100
AcDbLine
 10
9.0839009716
 20
5.0089580618
 30
0.0
 11
7.7403980874
 21
5.784545768
 31
0.0
  0
LINE
  5
3DE
330
1F
100
AcDbEntity
  8
0
  6
Continuous
 62
     7
370
    18
100
AcDbLine
 10
7.7403980874
 20
7.3359733106
 30
0.0
 11
7.7403980874
 21
5.784545768
 31
0.0
  0
LWPOLYLINE
  5
3DF
330
1F
100
AcDbEntity
  8
0
  6
Continuous
 62
     7
370
    18
100
AcDbPolyline
 90
      102
 70
   128
 43
0.0
 10
8.7780772888
 20
5.8722171388
 10
8.7773694371
 20
5.8988961668
 10
8.7752486205
 20
5.926289247
 10
8.771723044
 20
5.9542904009
 10
8.7668063476
 20
5.9827912975
 10
8.7605175527
 20
6.0116816724
 10
8.7528809897
 20
6.0408497542
 10
8.7439262028
 20
6.0701826974
 10
8.7336878365
 20
6.0995670185
 10
8.7222055009
 20
6.1288890352
 10
8.7095236189
 20
6.1580353065
 10
8.6956912544
 20
6.1868930709
 10
8.6807619221
 20
6.2153506835
 10
8.6647933806
 20
6.2432980473
 10
8.6478474091
 20
6.2706270393
 10
8.6299895683
 20
6.2972319289
 10
8.6112889467
 20
6.3230097871
 10
8.5918178934
 20
6.3478608843
 10
8.571651738
 20
6.3716890764
 10
8.5508684997
 20
6.3944021769
 10
8.5295485846
 20
6.415912313
 10
8.5077744753
 20
6.4361362663
 10
8.4856304117
 20
6.4549957942
 10
8.4632020649
 20
6.472417933
 10
8.4405762057
 20
6.4883352796
 10
8.4178403692
 20
6.502686253
 10
8.3950825159
 20
6.5154153321
 10
8.3723906917
 20
6.5264732705
 10
8.3498526866
 20
6.5358172872
 10
8.3275556959
 20
6.5434112321
 10
8.3055859824
 20
6.5492257255
 10
8.2840285425
 20
6.5532382725
 10
8.2629667778
 20
6.5554333492
 10
8.2424821722
 20
6.5558024632
 10
8.2226539766
 20
6.5543441867
 10
8.2035589025
 20
6.5510641612
 10
8.1852708251
 20
6.5459750767
 10
8.1678604972
 20
6.5390966219
 10
8.1513952762
 20
6.530455408
 10
8.1359388627
 20
6.5200848663
 10
8.1215510547
 20
6.5080251185
 10
8.1082875156
 20
6.4943228212
 10
8.0961995597
 20
6.4790309862
 10
8.0853339529
 20
6.4622087744
 10
8.075732732
 20
6.4439212677
 10
8.0674330423
 20
6.4242392171
 10
8.0604669938
 20
6.4032387684
 10
8.0548615367
 20
6.3810011684
 10
8.0506383574
 20
6.3576124501
 10
8.0478137946
 20
6.3331630997
 10
8.046398776
 20
6.3077477072
 10
8.046398776
 20
6.2814645996
 10
8.0478137946
 20
6.2544154614
 10
8.0506383574
 20
6.2267049402
 10
8.0548615367
 20
6.1984402428
 10
8.0604669938
 20
6.1697307198
 10
8.0674330423
 20
6.1406874427
 10
8.075732732
 20
6.1114227744
 10
8.0853339529
 20
6.0820499341
 10
8.0961995597
 20
6.0526825596
 10
8.1082875156
 20
6.0234342677
 10
8.1215510547
 20
5.9944182143
 10
8.1359388627
 20
5.9657466568
 10
8.1513952762
 20
5.93753052
 10
8.1678604972
 20
5.9098789666
 10
8.1852708251
 20
5.8828989751
 10
8.2035589025
 20
5.8566949258
 10
8.2226539766
 20
5.8313681971
 10
8.2424821722
 20
5.8070167732
 10
8.2629667778
 20
5.7837348651
 10
8.2840285425
 20
5.7616125458
 10
8.3055859824
 20
5.7407354025
 10
8.3275556959
 20
5.7211842046
 10
8.3498526866
 20
5.703034592
 10
8.3723906917
 20
5.6863567819
 10
8.3950825159
 20
5.6712152977
 10
8.4178403692
 20
5.6576687187
 10
8.4405762057
 20
5.6457694541
 10
8.4632020649
 20
5.6355635398
 10
8.4856304117
 20
5.6270904604
 10
8.5077744753
 20
5.6203829967
 10
8.5295485846
 20
5.6154670986
 10
8.5508684997
 20
5.6123617847
 10
8.571651738
 20
5.6110790689
 10
8.5918178934
 20
5.6116239137
 10
8.6112889467
 20
5.6139942112
 10
8.6299895683
 20
5.6181807913
 10
8.6478474091
 20
5.6241674568
 10
8.6647933806
 20
5.6319310466
 10
8.6807619221
 20
5.6414415247
 10
8.6956912544
 20
5.6526620971
 10
8.7095236189
 20
5.6655493534
 10
8.7222055009
 20
5.6800534355
 10
8.7336878365
 20
5.6961182297
 10
8.7439262028
 20
5.7136815847
 10
8.7528809897
 20
5.732675551
 10
8.7605175527
 20
5.7530266448
 10
8.7668063476
 20
5.7746561317
 10
8.771723044
 20
5.7974803314
 10
8.7752486205
 20
5.8214109414
 10
8.7773694371
 20
5.8463553789
 10
8.7780772888
 20
5.8722171388
  0
LWPOLYLINE
  5
3E0
330
1F
100
AcDbEntity
  8
0
  6
Continuous
 62
     7
370
    18
100
AcDbPolyline
 90
       34
 70
   128
 43
0.0
 10
8.0341647644
 20
5.819459557
 10
8.0334491774
 20
5.8285264131
 10
8.0313282793
 20
5.8380917686
 10
8.0278787251
 20
5.8478099067
 10
8.0232251905
 20
5.8573295885
 10
8.0175358665
 20
5.866306748
 10
8.01101638
 20
5.8744169272
 10
8.0039023623
 20
5.8813670032
 10
7.9964509324
 20
5.8869057819
 10
7.9889314046
 20
5.8908330777
 10
7.9816155541
 20
5.8930069476
 10
7.9747677948
 20
5.8933488226
 10
7.9686356226
 20
5.8918463462
 10
7.9634406702
 20
5.8885538219
 10
7.9593706966
 20
5.8835902501
 10
7.9565728014
 20
5.8771350272
 10
7.9551481077
 20
5.8694214618
 10
7.9551481077
 20
5.8607283423
 10
7.9565728014
 20
5.8513698606
 10
7.9593706966
 20
5.8416842566
 10
7.9634406702
 20
5.8320215933
 10
7.9686356226
 20
5.8227311046
 10
7.9747677948
 20
5.8141485729
 10
7.9816155541
 20
5.8065841932
 10
7.9889314046
 20
5.800311362
 10
7.9964509324
 20
5.7955567957
 10
8.0039023623
 20
5.7924923368
 10
8.01101638
 20
5.7912287427
 10
8.0175358665
 20
5.791811683
 10
8.0232251905
 20
5.7942200888
 10
8.0278787251
 20
5.798366914
 10
8.0313282793
 20
5.8041022815
 10
8.0334491774
 20
5.8112189002
 10
8.0341647644
 20
5.819459557
  0
LWPOLYLINE
  5
3E1
330
1F
100
AcDbEntity
  8
0
  6
Continuous
 62
     7
370
    18
100
AcDbPolyline
 90
       34
 70
   128
 43
0.0
 10
8.869330254
 20
5.3373287823
 10
8.868614667
 20
5.3463956384
 10
8.8664937689
 20
5.3559609939
 10
8.8630442146
 20
5.365679132
 10
8.8583906801
 20
5.3751988138
 10
8.852701356
 20
5.3841759733
 10
8.8461818696
 20
5.3922861525
 10
8.8390678518
 20
5.3992362285
 10
8.831616422
 20
5.4047750072
 10
8.8240968942
 20
5.408702303
 10
8.8167810437
 20
5.4108761729
 10
8.8099332844
 20
5.4112180479
 10
8.8038011122
 20
5.4097155715
 10
8.7986061598
 20
5.4064230472
 10
8.7945361862
 20
5.4014594754
 10
8.791738291
 20
5.3950042525
 10
8.7903135973
 20
5.3872906871
 10
8.7903135973
 20
5.3785975676
 10
8.791738291
 20
5.3692390859
 10
8.7945361862
 20
5.3595534819
 10
8.7986061598
 20
5.3498908186
 10
8.8038011122
 20
5.3406003299
 10
8.8099332844
 20
5.3320177982
 10
8.8167810437
 20
5.3244534185
 10
8.8240968942
 20
5.3181805873
 10
8.831616422
 20
5.313426021
 10
8.8390678518
 20
5.3103615621
 10
8.8461818696
 20
5.309097968
 10
8.852701356
 20
5.3096809083
 10
8.8583906801
 20
5.3120893141
 10
8.8630442146
 20
5.3162361393
 10
8.8664937689
 20
5.3219715068
 10
8.868614667
 20
5.3290881255
 10
8.869330254
 20
5.3373287823
  0
LWPOLYLINE
  5
3E2
330
1F
100
AcDbEntity
  8
0
  6
Continuous
 62
     7
370
    18
100
AcDbPolyline
 90
       34
 70
   128
 43
0.0
 10
8.869330254
 20
6.3017470641
 10
8.868614667
 20
6.3108139201
 10
8.8664937689
 20
6.3203792757
 10
8.8630442146
 20
6.3300974137
 10
8.8583906801
 20
6.3396170956
 10
8.852701356
 20
6.3485942551
 10
8.8461818696
 20
6.3567044343
 10
8.8390678518
 20
6.3636545102
 10
8.831616422
 20
6.369193289
 10
8.8240968942
 20
6.3731205847
 10
8.8167810437
 20
6.3752944547
 10
8.8099332844
 20
6.3756363296
 10
8.8038011122
 20
6.3741338532
 10
8.7986061598
 20
6.3708413289
 10
8.7945361862
 20
6.3658777571
 10
8.791738291
 20
6.3594225343
 10
8.7903135973
 20
6.3517089689
 10
8.7903135973
 20
6.3430158493
 10
8.791738291
 20
6.3336573676
 10
8.7945361862
 20
6.3239717637
 10
8.7986061598
 20
6.3143091004
 10
8.8038011122
 20
6.3050186117
 10
8.8099332844
 20
6.29643608
 10
8.8167810437
 20
6.2888717003
 10
8.8240968942
 20
6.2825988691
 10
8.831616422
 20
6.2778443028
 10
8.8390678518
 20
6.2747798438
 10
8.8461818696
 20
6.2735162497
 10
8.852701356
 20
6.2740991901
 10
8.8583906801
 20
6.2765075958
 10
8.8630442146
 20
6.280654421
 10
8.8664937689
 20
6.2863897886
 10
8.868614667
 20
6.2935064073
 10
8.869330254
 20
6.3017470641
  0
LWPOLYLINE
  5
3E3
330
1F
100
AcDbEntity
  8
0
  6
Continuous
 62
     7
370
    18
100
AcDbPolyline
 90
       34
 70
   128
 43
0.0
 10
8.0341647644
 20
6.7838778388
 10
8.0334491774
 20
6.7929446948
 10
8.0313282793
 20
6.8025100504
 10
8.0278787251
 20
6.8122281884
 10
8.0232251905
 20
6.8217478703
 10
8.0175358665
 20
6.8307250298
 10
8.01101638
 20
6.838835209
 10
8.0039023623
 20
6.8457852849
 10
7.9964509324
 20
6.8513240637
 10
7.9889314046
 20
6.8552513594
 10
7.9816155541
 20
6.8574252294
 10
7.9747677948
 20
6.8577671043
 10
7.9686356226
 20
6.8562646279
 10
7.9634406702
 20
6.8529721036
 10
7.9593706966
 20
6.8480085318
 10
7.9565728014
 20
6.841553309
 10
7.9551481077
 20
6.8338397436
 10
7.9551481077
 20
6.825146624
 10
7.9565728014
 20
6.8157881423
 10
7.9593706966
 20
6.8061025384
 10
7.9634406702
 20
6.7964398751
 10
7.9686356226
 20
6.7871493864
 10
7.9747677948
 20
6.7785668547
 10
7.9816155541
 20
6.771002475
 10
7.9889314046
 20
6.7647296438
 10
7.9964509324
 20
6.7599750775
 10
8.0039023623
 20
6.7569106185
 10
8.01101638
 20
6.7556470244
 10
8.0175358665
 20
6.7562299648
 10
8.0232251905
 20
6.7586383705
 10
8.0278787251
 20
6.7627851957
 10
8.0313282793
 20
6.7685205633
 10
8.0334491774
 20
6.775637182
 10
8.0341647644
 20
6.7838778388
  0
LINE
  5
3E4
330
1F
100
AcDbEntity
  8
0
  6
Continuous
 62
     7
370
    18
100
AcDbLine
 10
9.4092288301
 20
6.9435112695
 30
0.0
 11
9.3609229198
 21
6.9566551817
 31
0.0
  0
LINE
  5
3E5
330
1F
100
AcDbEntity
  8
0
  6
Continuous
 62
     7
370
    18
100
AcDbLine
 10
9.3609229198
 20
6.9566551817
 30
0.0
 11
9.3836493541
 21
6.9287445524
 31
0.0
  0
LINE
  5
3E6
330
1F
100
AcDbEntity
  8
0
  6
Continuous
 62
     7
370
    18
100
AcDbLine
 10
9.3836493541
 20
6.9287445524
 30
0.0
 11
9.4092288301
 21
6.9435112695
 31
0.0
  0
LWPOLYLINE
  5
3E7
330
1F
100
AcDbEntity
  8
0
  6
Continuous
 62
     7
370
    18
100
AcDbPolyline
 90
       43
 70
   128
 43
0.0
 10
9.617051196
 20
7.2747294322
 10
9.610676577
 20
7.2867177028
 10
9.5996413802
 20
7.30417352
 10
9.5867476669
 20
7.32119952
 10
9.5720453203
 20
7.3377298324
 10
9.5555912211
 20
7.3537005048
 10
9.5374490268
 20
7.3690497496
 10
9.5176889262
 20
7.3837181837
 10
9.4963873671
 20
7.3976490577
 10
9.4736267613
 20
7.4107884757
 10
9.449495165
 20
7.423085604
 10
9.4240859388
 20
7.4344928673
 10
9.397497386
 20
7.4449661331
 10
9.3698323724
 20
7.4544648825
 10
9.3411979288
 20
7.4629523665
 10
9.3117048362
 20
7.4703957487
 10
9.2814671976
 20
7.4767662322
 10
9.2506019966
 20
7.4820391708
 10
9.2192286447
 20
7.4861941646
 10
9.1874685192
 20
7.4892151385
 10
9.155444494
 20
7.4910904052
 10
9.1232804637
 20
7.4918127095
 10
9.0911008647
 20
7.491379257
 10
9.0590301937
 20
7.4897917247
 10
9.0271925258
 20
7.4870562543
 10
8.9957110348
 20
7.483183429
 10
8.9647075165
 20
7.4781882318
 10
8.9343019175
 20
7.4720899883
 10
8.9046118711
 20
7.4649122914
 10
8.8757522423
 20
7.4566829102
 10
8.8478346834
 20
7.4474336825
 10
8.8209672021
 20
7.4372003918
 10
8.7952537434
 20
7.4260226288
 10
8.7707937877
 20
7.413943638
 10
8.7476819658
 20
7.4010101508
 10
8.7260076929
 20
7.3872722042
 10
8.7058548225
 20
7.3727829477
 10
8.6873013221
 20
7.3575984374
 10
8.6704189716
 20
7.3417774192
 10
8.6552730857
 20
7.3253811016
 10
8.6419222606
 20
7.3084729188
 10
8.6304181483
 20
7.2911182853
 10
8.6214614254
 20
7.2747294322
  0
SPLINE
  5
3E8
330
1F
100
AcDbEntity
  8
0
  6
Continuous
 62
     7
370
    18
100
AcDbSpline
210
0.0
220
0.0
230
1.0
 70
     8
 71
     3
 72
     9
 73
     5
 74
     0
 42
0.000000001
 43
0.00000001
 40
0.0
 40
0.0
 40
0.0
 40
0.0
 40
0.5601790456233671
 40
1.0
 40
1.0
 40
1.0
 40
1.0
 10
9.45222025105056
 20
6.994892017347984
 30
0.0
 10
9.449936320557937
 20
6.996019055048678
 30
0.0
 10
9.44585917681172
 20
6.99803097911028
 30
0.0
 10
9.440573493001104
 20
6.99779664228487
 30
0.0
 10
9.438248738502987
 20
6.997693576038673
 30
0.0
  0
SPLINE
  5
3E9
330
1F
100
AcDbEntity
  8
0
  6
Continuous
 62
     7
370
    18
100
AcDbSpline
210
0.0
220
0.0
230
1.0
 70
     8
 71
     3
 72
     9
 73
     5
 74
     0
 42
0.000000001
 43
0.00000001
 40
0.0
 40
0.0
 40
0.0
 40
0.0
 40
0.5579932700304533
 40
1.0
 40
1.0
 40
1.0
 40
1.0
 10
9.438248738502987
 20
6.997693576038673
 30
0.0
 10
9.435337340888202
 20
6.997037943729703
 30
0.0
 10
9.430119719509674
 20
6.99586296126274
 30
0.0
 10
9.426165064891713
 20
6.993588346650367
 30
0.0
 10
9.424417080935868
 20
6.992582951683612
 30
0.0
  0
LINE
  5
3EA
330
1F
100
AcDbEntity
  8
0
  6
Continuous
 62
     7
370
    18
100
AcDbLine
 10
9.4244170809
 20
6.9925829517
 30
0.0
 11
9.413466436
 21
6.9862612789
 31
0.0
  0
LINE
  5
3EB
330
1F
100
AcDbEntity
  8
0
  6
Continuous
 62
     7
370
    18
100
AcDbLine
 10
9.413466436
 20
6.9862612789
 30
0.0
 11
9.4403185922
 21
6.9707598591
 31
0.0
  0
LINE
  5
3EC
330
1F
100
AcDbEntity
  8
0
  6
Continuous
 62
     7
370
    18
100
AcDbLine
 10
9.4403185922
 20
6.9707598591
 30
0.0
 11
9.4497308324
 21
6.9761934297
 31
0.0
  0
SPLINE
  5
3ED
330
1F
100
AcDbEntity
  8
0
  6
Continuous
 62
     7
370
    18
100
AcDbSpline
210
0.0
220
0.0
230
1.0
 70
     8
 71
     3
 72
     9
 73
     5
 74
     0
 42
0.000000001
 43
0.00000001
 40
0.0
 40
0.0
 40
0.0
 40
0.0
 40
0.5618385510165606
 40
1.0
 40
1.0
 40
1.0
 40
1.0
 10
9.44973083239844
 20
6.976193429660271
 30
0.0
 10
9.45243080230719
 20
6.977755630267142
 30
0.0
 10
9.457236399758388
 20
6.980536145424108
 30
0.0
 10
9.458678865625325
 20
6.984348599024415
 30
0.0
 10
9.45931089855969
 20
6.986019069218107
 30
0.0
  0
SPLINE
  5
3EE
330
1F
100
AcDbEntity
  8
0
  6
Continuous
 62
     7
370
    18
100
AcDbSpline
210
0.0
220
0.0
230
1.0
 70
     8
 71
     3
 72
     9
 73
     5
 74
     0
 42
0.000000001
 43
0.00000001
 40
0.0
 40
0.0
 40
0.0
 40
0.0
 40
0.5575800219878864
 40
1.0
 40
1.0
 40
1.0
 40
1.0
 10
9.45931089855969
 20
6.986019069218107
 30
0.0
 10
9.458880176430121
 20
6.987920232552139
 30
0.0
 10
9.458107691562326
 20
6.991329901584497
 30
0.0
 10
9.454026050569055
 20
6.99379944292321
 30
0.0
 10
9.45222025105056
 20
6.994892017347984
 30
0.0
  0
LWPOLYLINE
  5
3EF
330
1F
100
AcDbEntity
  8
0
  6
Continuous
 62
     7
370
    18
100
AcDbPolyline
 90
       43
 70
   128
 43
0.0
 10
8.7317423203
 20
5.693159966
 10
8.7130730943
 20
5.69271988
 10
8.6922898559
 20
5.6940025959
 10
8.6709699408
 20
5.6971079098
 10
8.6491958315
 20
5.7020238079
 10
8.6270517679
 20
5.7087312716
 10
8.6046234211
 20
5.7172043509
 10
8.5819975619
 20
5.7274102653
 10
8.5592617254
 20
5.7393095299
 10
8.5365038722
 20
5.7528561089
 10
8.5138120479
 20
5.7679975931
 10
8.4912740429
 20
5.7846754031
 10
8.4689770522
 20
5.8028250158
 10
8.4470073386
 20
5.8223762137
 10
8.4254498987
 20
5.843253357
 10
8.404388134
 20
5.8653756762
 10
8.3839035284
 20
5.8886575844
 10
8.3640753329
 20
5.9130090083
 10
8.3449802588
 20
5.9383357369
 10
8.3266921813
 20
5.9645397862
 10
8.3092818535
 20
5.9915197778
 10
8.2928166324
 20
6.0191713312
 10
8.277360219
 20
6.047387468
 10
8.2629724109
 20
6.0760590255
 10
8.2497088719
 20
6.1050750789
 10
8.237620916
 20
6.1343233708
 10
8.2267553091
 20
6.1636907452
 10
8.2171540882
 20
6.1930635855
 10
8.2088543985
 20
6.2223282539
 10
8.20188835
 20
6.251371531
 10
8.1962828929
 20
6.280081054
 10
8.1920597136
 20
6.3083457514
 10
8.1892351508
 20
6.3360562726
 10
8.1878201322
 20
6.3631054108
 10
8.1878201322
 20
6.3893885183
 10
8.1892351508
 20
6.4148039109
 10
8.1920597136
 20
6.4392532612
 10
8.1962828929
 20
6.4626419796
 10
8.20188835
 20
6.4848795796
 10
8.2088543985
 20
6.5058800283
 10
8.2171540882
 20
6.5255620789
 10
8.2267553091
 20
6.5438495855
 10
8.2339780949
 20
6.5554063206
  0
SPLINE
  5
3F0
330
1F
100
AcDbEntity
  8
0
  6
Continuous
 62
     7
370
    18
100
AcDbSpline
210
0.0
220
0.0
230
1.0
 70
     8
 71
     3
 72
     9
 73
     5
 74
     0
 42
0.000000001
 43
0.00000001
 40
0.0
 40
0.0
 40
0.0
 40
0.0
 40
0.5604402388959567
 40
1.0
 40
1.0
 40
1.0
 40
1.0
 10
9.565027278286532
 20
7.057914977404234
 30
0.0
 10
9.562406124967552
 20
7.05921208222082
 30
0.0
 10
9.557729170785707
 20
7.061526521346644
 30
0.0
 10
9.551645891374763
 20
7.061339623729984
 30
0.0
 10
9.54897192653016
 20
7.061257471058255
 30
0.0
  0
SPLINE
  5
3F1
330
1F
100
AcDbEntity
  8
0
  6
Continuous
 62
     7
370
    18
100
AcDbSpline
210
0.0
220
0.0
230
1.0
 70
     8
 71
     3
 72
     9
 73
     5
 74
     0
 42
0.000000001
 43
0.00000001
 40
0.0
 40
0.0
 40
0.0
 40
0.0
 40
0.5582064658408739
 40
1.0
 40
1.0
 40
1.0
 40
1.0
 10
9.54897192653016
 20
7.061257471058255
 30
0.0
 10
9.545745565920809
 20
7.060551798053763
 30
0.0
 10
9.539965696272597
 20
7.059287618851845
 30
0.0
 10
9.535610066317604
 20
7.056773256404719
 30
0.0
 10
9.533685777166298
 20
7.055662427333046
 30
0.0
  0
LINE
  5
3F2
330
1F
100
AcDbEntity
  8
0
  6
Continuous
 62
     7
370
    18
100
AcDbLine
 10
9.5336857772
 20
7.0556624273
 30
0.0
 11
9.5244553485
 21
7.0503338143
 31
0.0
  0
LINE
  5
3F3
330
1F
100
AcDbEntity
  8
0
  6
Continuous
 62
     7
370
    18
100
AcDbLine
 10
9.5244553485
 20
7.0503338143
 30
0.0
 11
9.5530976485
 21
7.0337989664
 31
0.0
  0
LINE
  5
3F4
330
1F
100
AcDbEntity
  8
0
  6
Continuous
 62
     7
370
    18
100
AcDbLine
 10
9.5530976485
 20
7.0337989664
 30
0.0
 11
9.5609714839
 21
7.0383444349
 31
0.0
  0
SPLINE
  5
3F5
330
1F
100
AcDbEntity
  8
0
  6
Continuous
 62
     7
370
    18
100
AcDbSpline
210
0.0
220
0.0
230
1.0
 70
     8
 71
     3
 72
    10
 73
     6
 74
     0
 42
0.000000001
 43
0.00000001
 40
0.0
 40
0.0
 40
0.0
 40
0.0
 40
0.5599429577517271
 40
0.7800996493814821
 40
1.0
 40
1.0
 40
1.0
 40
1.0
 10
9.5609714838533
 20
7.038344434850256
 30
0.0
 10
9.563874508445366
 20
7.040121387983818
 30
0.0
 10
9.567918935533992
 20
7.042596998217451
 30
0.0
 10
9.571142157004155
 20
7.046592994489478
 30
0.0
 10
9.571419776823427
 20
7.048505942535285
 30
0.0
 10
9.571558505873837
 20
7.049461859395151
 30
0.0
  0
SPLINE
  5
3F6
330
1F
100
AcDbEntity
  8
0
  6
Continuous
 62
     7
370
    18
100
AcDbSpline
210
0.0
220
0.0
230
1.0
 70
     8
 71
     3
 72
     9
 73
     5
 74
     0
 42
0.000000001
 43
0.00000001
 40
0.0
 40
0.0
 40
0.0
 40
0.0
 40
0.558457259633491
 40
1.0
 40
1.0
 40
1.0
 40
1.0
 10
9.571558505873837
 20
7.049461859395151
 30
0.0
 10
9.571153212297585
 20
7.051257963354731
 30
0.0
 10
9.570427474438041
 20
7.054474152111517
 30
0.0
 10
9.566681351620943
 20
7.056861056915909
 30
0.0
 10
9.565027278286532
 20
7.057914977404234
 30
0.0
  0
LINE
  5
3F7
330
1F
100
AcDbEntity
  8
0
  6
Continuous
 62
     7
370
    18
100
AcDbLine
 10
9.6983370457
 20
7.1104098898
 30
0.0
 11
9.6500311354
 21
7.1235538021
 31
0.0
  0
LINE
  5
3F8
330
1F
100
AcDbEntity
  8
0
  6
Continuous
 62
     7
370
    18
100
AcDbLine
 10
9.6500311354
 20
7.1235538021
 30
0.0
 11
9.6727575697
 21
7.0956431727
 31
0.0
  0
LINE
  5
3F9
330
1F
100
AcDbEntity
  8
0
  6
Continuous
 62
     7
370
    18
100
AcDbLine
 10
9.6727575697
 20
7.0956431727
 30
0.0
 11
9.6983370457
 21
7.1104098898
 31
0.0
  0
LWPOLYLINE
  5
3FA
330
1F
100
AcDbEntity
  8
0
  6
Continuous
 62
     7
370
    18
100
AcDbPolyline
 90
       21
 70
   128
 43
0.0
 10
10.4777837204
 20
7.4277776068
 10
10.4782026511
 20
7.4312546475
 10
10.4774278029
 20
7.4378891611
 10
10.474613331
 20
7.4443371851
 10
10.4698496948
 20
7.4503914745
 10
10.4632900016
 20
7.4558574397
 10
10.4551450852
 20
7.4605593998
 10
10.44567673
 20
7.4643462301
 10
10.4351892568
 20
7.4670962187
 10
10.4240197414
 20
7.4687209788
 10
10.4125271814
 20
7.4691682891
 10
10.4010809571
 20
7.4684237728
 10
10.3900489595
 20
7.4665113593
 10
10.3797857661
 20
7.4634925151
 10
10.3706212445
 20
7.4594642683
 10
10.3628499498
 20
7.45455609
 10
10.3567216579
 20
7.4489257333
 10
10.3524333371
 20
7.4427541623
 10
10.3501228175
 20
7.4362397365
 10
10.3498643613
 20
7.4295918349
 10
10.3501539337
 20
7.4277776068
  0
SPLINE
  5
3FB
330
1F
100
AcDbEntity
  8
0
  6
Continuous
 62
     7
370
    18
100
AcDbSpline
210
0.0
220
0.0
230
1.0
 70
     8
 71
     3
 72
    12
 73
     8
 74
     0
 42
0.000000001
 43
0.00000001
 40
0.0
 40
0.0
 40
0.0
 40
0.0
 40
0.1874661867188398
 40
0.3747630564679415
 40
0.5613191243355437
 40
0.7803156052409577
 40
1.0
 40
1.0
 40
1.0
 40
1.0
 10
8.366234939616902
 20
7.497186577592358
 30
0.0
 10
8.368202700221742
 20
7.496108124585798
 30
0.0
 10
8.37213644417618
 20
7.493952192617109
 30
0.0
 10
8.378925767736282
 20
7.491320095527252
 30
0.0
 10
8.387185781574775
 20
7.489699103237657
 30
0.0
 10
8.396685737504745
 20
7.490445590266152
 30
0.0
 10
8.401625914471516
 20
7.492830495797688
 30
0.0
 10
8.404099876404103
 20
7.49402481849858
 30
0.0
  0
SPLINE
  5
3FC
330
1F
100
AcDbEntity
  8
0
  6
Continuous
 62
     7
370
    18
100
AcDbSpline
210
0.0
220
0.0
230
1.0
 70
     8
 71
     3
 72
    12
 73
     8
 74
     0
 42
0.000000001
 43
0.00000001
 40
0.0
 40
0.0
 40
0.0
 40
0.0
 40
0.2489328747838983
 40
0.3740805611039778
 40
0.4991260833737002
 40
0.7491264093280245
 40
1.0
 40
1.0
 40
1.0
 40
1.0
 10
8.404099876404103
 20
7.49402481849858
 30
0.0
 10
8.406531415832148
 20
7.49572606789553
 30
0.0
 10
8.41018537931278
 20
7.498282597761428
 30
0.0
 10
8.411425529112604
 20
7.502652450771624
 30
0.0
 10
8.410337336682469
 20
7.506996211032058
 30
0.0
 10
8.405208334200955
 20
7.511718931829122
 30
0.0
 10
8.400084489997905
 20
7.514870283488401
 30
0.0
 10
8.397518101231004
 20
7.516448706480674
 30
0.0
  0
SPLINE
  5
3FD
330
1F
100
AcDbEntity
  8
0
  6
Continuous
 62
     7
370
    18
100
AcDbSpline
210
0.0
220
0.0
230
1.0
 70
     8
 71
     3
 72
    12
 73
     8
 74
     0
 42
0.000000001
 43
0.00000001
 40
0.0
 40
0.0
 40
0.0
 40
0.0
 40
0.1874136991406023
 40
0.3746201373854583
 40
0.5611324352198199
 40
0.7802198633462377
 40
1.0
 40
1.0
 40
1.0
 40
1.0
 10
8.397518101231004
 20
7.516448706480674
 30
0.0
 10
8.395594508785083
 20
7.517497920528772
 30
0.0
 10
8.391749451195004
 20
7.519595188298669
 30
0.0
 10
8.38499426342389
 20
7.522063560544009
 30
0.0
 10
8.376797641685908
 20
7.523399627764374
 30
0.0
 10
8.367635149011113
 20
7.522477873428953
 30
0.0
 10
8.362842468671944
 20
7.520142284465519
 30
0.0
 10
8.360442346119237
 20
7.518972646737091
 30
0.0
  0
SPLINE
  5
3FE
330
1F
100
AcDbEntity
  8
0
  6
Continuous
 62
     7
370
    18
100
AcDbSpline
210
0.0
220
0.0
230
1.0
 70
     8
 71
     3
 72
    12
 73
     8
 74
     0
 42
0.000000001
 43
0.00000001
 40
0.0
 40
0.0
 40
0.0
 40
0.0
 40
0.1865713499357268
 40
0.3727595003583642
 40
0.5589971455058815
 40
0.7792949439402165
 40
1.0
 40
1.0
 40
1.0
 40
1.0
 10
8.360442346119237
 20
7.518972646737091
 30
0.0
 10
8.358682508149352
 20
7.517776298586217
 30
0.0
 10
8.355166446746612
 20
7.515386059467896
 30
0.0
 10
8.353300784376064
 20
7.510669388423042
 30
0.0
 10
8.354873576290718
 20
7.50571191424422
 30
0.0
 10
8.35971137471501
 20
7.501198486871169
 30
0.0
 10
8.364059079642407
 20
7.498524703747666
 30
0.0
 10
8.366234939616902
 20
7.497186577592358
 30
0.0
  0
LINE
  5
3FF
330
1F
100
AcDbEntity
  8
0
  6
Continuous
 62
     7
370
    18
100
AcDbLine
 10
8.4525556313
 20
7.5558203521
 30
0.0
 11
8.4628307767
 21
7.5617520673
 31
0.0
  0
SPLINE
  5
400
330
1F
100
AcDbEntity
  8
0
  6
Continuous
 62
     7
370
    18
100
AcDbSpline
210
0.0
220
0.0
230
1.0
 70
     8
 71
     3
 72
     9
 73
     5
 74
     0
 42
0.000000001
 43
0.00000001
 40
0.0
 40
0.0
 40
0.0
 40
0.0
 40
0.5598127168888936
 40
1.0
 40
1.0
 40
1.0
 40
1.0
 10
8.462830776689707
 20
7.561752067328694
 30
0.0
 10
8.463918248607941
 20
7.562526525878966
 30
0.0
 10
8.465860812407271
 20
7.5639099502402
 30
0.0
 10
8.467537898346883
 20
7.565404165690342
 30
0.0
 10
8.468276130250185
 20
7.566061900329722
 30
0.0
  0
SPLINE
  5
401
330
1F
100
AcDbEntity
  8
0
  6
Continuous
 62
     7
370
    18
100
AcDbSpline
210
0.0
220
0.0
230
1.0
 70
     8
 71
     3
 72
    11
 73
     7
 74
     0
 42
0.000000001
 43
0.00000001
 40
0.0
 40
0.0
 40
0.0
 40
0.0
 40
0.2797326981239928
 40
0.559271880249898
 40
0.7796589455822264
 40
1.0
 40
1.0
 40
1.0
 40
1.0
 10
8.468276130250185
 20
7.566061900329722
 30
0.0
 10
8.468870308788462
 20
7.566696277606659
 30
0.0
 10
8.470058254818852
 20
7.567964593305325
 30
0.0
 10
8.469988615969555
 20
7.570014899145787
 30
0.0
 10
8.469020240459761
 20
7.571791049137754
 30
0.0
 10
8.467745463372436
 20
7.572648984595157
 30
0.0
 10
8.467108141370545
 20
7.573077907540699
 30
0.0
  0
SPLINE
  5
402
330
1F
100
AcDbEntity
  8
0
  6
Continuous
 62
     7
370
    18
100
AcDbSpline
210
0.0
220
0.0
230
1.0
 70
     8
 71
     3
 72
    12
 73
     8
 74
     0
 42
0.000000001
 43
0.00000001
 40
0.0
 40
0.0
 40
0.0
 40
0.0
 40
0.2486070575637212
 40
0.3739144541623649
 40
0.4989522973721425
 40
0.7491421589243081
 40
1.0
 40
1.0
 40
1.0
 40
1.0
 10
8.467108141370545
 20
7.573077907540699
 30
0.0
 10
8.465637376547761
 20
7.573760683788561
 30
0.0
 10
8.463425290409493
 20
7.574787605190298
 30
0.0
 10
8.459643456167846
 20
7.574999926914271
 30
0.0
 10
8.456013128732929
 20
7.574480463204554
 30
0.0
 10
8.452118276029056
 20
7.572948090004521
 30
0.0
 10
8.44944371163947
 20
7.571480224261169
 30
0.0
 10
8.448104646626158
 20
7.57074531293549
 30
0.0
  0
LINE
  5
403
330
1F
100
AcDbEntity
  8
0
  6
Continuous
 62
     7
370
    18
100
AcDbLine
 10
8.4481046466
 20
7.5707453129
 30
0.0
 11
8.4374033431
 21
7.5645675819
 31
0.0
  0
LINE
  5
404
330
1F
100
AcDbEntity
  8
0
  6
Continuous
 62
     7
370
    18
100
AcDbLine
 10
8.4374033431
 20
7.5645675819
 30
0.0
 11
8.4525556313
 21
7.5558203521
 31
0.0
  0
LINE
  5
405
330
1F
100
AcDbEntity
  8
0
  6
Continuous
 62
     7
370
    18
100
AcDbLine
 10
8.6444688311
 20
7.6479487273
 30
0.0
 11
8.6083085267
 21
7.658928323
 31
0.0
  0
LINE
  5
406
330
1F
100
AcDbEntity
  8
0
  6
Continuous
 62
     7
370
    18
100
AcDbLine
 10
8.6083085267
 20
7.658928323
 30
0.0
 11
8.6276592614
 21
7.6382447693
 31
0.0
  0
LINE
  5
407
330
1F
100
AcDbEntity
  8
0
  6
Continuous
 62
     7
370
    18
100
AcDbLine
 10
8.6276592614
 20
7.6382447693
 30
0.0
 11
8.6444688311
 21
7.6479487273
 31
0.0
  0
LINE
  5
408
330
1F
100
AcDbEntity
  8
0
  6
Continuous
 62
     7
370
    18
100
AcDbLine
 10
8.6929719369
 20
7.6969423258
 30
0.0
 11
8.7027735733
 21
7.70260069
 31
0.0
  0
SPLINE
  5
409
330
1F
100
AcDbEntity
  8
0
  6
Continuous
 62
     7
370
    18
100
AcDbSpline
210
0.0
220
0.0
230
1.0
 70
     8
 71
     3
 72
    12
 73
     8
 74
     0
 42
0.000000001
 43
0.00000001
 40
0.0
 40
0.0
 40
0.0
 40
0.0
 40
0.2506876382313176
 40
0.5006372011129827
 40
0.6258636652327215
 40
0.7510088047311867
 40
0.9999999999999999
 40
0.9999999999999999
 40
0.9999999999999999
 40
0.9999999999999999
 10
8.702773573287875
 20
7.702600690013464
 30
0.0
 10
8.703840320000777
 20
7.703254263493917
 30
0.0
 10
8.70597067270748
 20
7.70455948620168
 30
0.0
 10
8.708080469071717
 20
7.706520220083611
 30
0.0
 10
8.7085578500765
 20
7.708323626928174
 30
0.0
 10
8.707970911145125
 20
7.710130966713901
 30
0.0
 10
8.706461390771237
 20
7.711189895038172
 30
0.0
 10
8.705456790984343
 20
7.711894621643588
 30
0.0
  0
SPLINE
  5
40A
330
1F
100
AcDbEntity
  8
0
  6
Continuous
 62
     7
370
    18
100
AcDbSpline
210
0.0
220
0.0
230
1.0
 70
     8
 71
     3
 72
    12
 73
     8
 74
     0
 42
0.000000001
 43
0.00000001
 40
0.0
 40
0.0
 40
0.0
 40
0.0
 40
0.2486674076866404
 40
0.3738797320284393
 40
0.4991410985382005
 40
0.7492319003066114
 40
1.0
 40
1.0
 40
1.0
 40
1.0
 10
8.705456790984343
 20
7.711894621643588
 30
0.0
 10
8.704257195296254
 20
7.712448634042135
 30
0.0
 10
8.702453563213638
 20
7.713281610140752
 30
0.0
 10
8.699391246335269
 20
7.713530262411832
 30
0.0
 10
8.696384838166571
 20
7.713215140958742
 30
0.0
 10
8.693076642492795
 20
7.712057589769573
 30
0.0
 10
8.690882298555069
 20
7.710862153948003
 30
0.0
 10
8.689783642910275
 20
7.710263627759478
 30
0.0
  0
LINE
  5
40B
330
1F
100
AcDbEntity
  8
0
  6
Continuous
 62
     7
370
    18
100
AcDbLine
 10
8.6897836429
 20
7.7102636278
 30
0.0
 11
8.6798399538
 21
7.7045232582
 31
0.0
  0
LINE
  5
40C
330
1F
100
AcDbEntity
  8
0
  6
Continuous
 62
     7
370
    18
100
AcDbLine
 10
8.6798399538
 20
7.7045232582
 30
0.0
 11
8.6929719369
 21
7.6969423258
 31
0.0
  0
LINE
  5
40D
330
1F
100
AcDbEntity
  8
0
  6
Continuous
 62
     7
370
    18
100
AcDbLine
 10
8.7232765132
 20
7.6794478662
 30
0.0
 11
8.7353667765
 21
7.6864274266
 31
0.0
  0
SPLINE
  5
40E
330
1F
100
AcDbEntity
  8
0
  6
Continuous
 62
     7
370
    18
100
AcDbSpline
210
0.0
220
0.0
230
1.0
 70
     8
 71
     3
 72
    12
 73
     8
 74
     0
 42
0.000000001
 43
0.00000001
 40
0.0
 40
0.0
 40
0.0
 40
0.0
 40
0.250769100634417
 40
0.5006544206427188
 40
0.6258741638105717
 40
0.7511902121444937
 40
1.0
 40
1.0
 40
1.0
 40
1.0
 10
8.735366776483193
 20
7.686427426637512
 30
0.0
 10
8.736613980000588
 20
7.687192923923108
 30
0.0
 10
8.739103991540466
 20
7.688721220667222
 30
0.0
 10
8.741499928145037
 20
7.691039668103269
 30
0.0
 10
8.742062510028289
 20
7.693137802246129
 30
0.0
 10
8.741581433189692
 20
7.695268757753777
 30
0.0
 10
8.73984915964093
 20
7.696531078143064
 30
0.0
 10
8.738697123153514
 20
7.697370575547099
 30
0.0
  0
SPLINE
  5
40F
330
1F
100
AcDbEntity
  8
0
  6
Continuous
 62
     7
370
    18
100
AcDbSpline
210
0.0
220
0.0
230
1.0
 70
     8
 71
     3
 72
    12
 73
     8
 74
     0
 42
0.000000001
 43
0.00000001
 40
0.0
 40
0.0
 40
0.0
 40
0.0
 40
0.2483248396152008
 40
0.3737003749082233
 40
0.4988835088019197
 40
0.7490941742493087
 40
1.0
 40
1.0
 40
1.0
 40
1.0
 10
8.738697123153514
 20
7.697370575547099
 30
0.0
 10
8.737248938158132
 20
7.698008606187334
 30
0.0
 10
8.735069585997673
 20
7.698968769052346
 30
0.0
 10
8.731424771782637
 20
7.699108748858065
 30
0.0
 10
8.72790684076421
 20
7.698678162487605
 30
0.0
 10
8.724054886590435
 20
7.697265066025148
 30
0.0
 10
8.721464251735785
 20
7.695853888756893
 30
0.0
 10
8.720167137414384
 20
7.695147321314011
 30
0.0
  0
LINE
  5
410
330
1F
100
AcDbEntity
  8
0
  6
Continuous
 62
     7
370
    18
100
AcDbLine
 10
8.7201671374
 20
7.6951473213
 30
0.0
 11
8.708124225
 21
7.688195096
 31
0.0
  0
LINE
  5
411
330
1F
100
AcDbEntity
  8
0
  6
Continuous
 62
     7
370
    18
100
AcDbLine
 10
8.708124225
 20
7.688195096
 30
0.0
 11
8.7232765132
 21
7.6794478662
 31
0.0
  0
LWPOLYLINE
  5
412
330
1F
100
AcDbEntity
  8
0
  6
Continuous
 62
     7
370
    18
100
AcDbPolyline
 90
       21
 70
   128
 43
0.0
 10
9.4171235486
 20
8.0400836907
 10
9.4175424793
 20
8.0435607313
 10
9.4167676311
 20
8.050195245
 10
9.4139531592
 20
8.056643269
 10
9.4091895231
 20
8.0626975584
 10
9.4026298298
 20
8.0681635235
 10
9.3944849135
 20
8.0728654837
 10
9.3850165583
 20
8.076652314
 10
9.374529085
 20
8.0794023026
 10
9.3633595696
 20
8.0810270626
 10
9.3518670096
 20
8.081474373
 10
9.3404207853
 20
8.0807298567
 10
9.3293887877
 20
8.0788174432
 10
9.3191255943
 20
8.0757985989
 10
9.3099610727
 20
8.0717703521
 10
9.302189778
 20
8.0668621739
 10
9.2960614861
 20
8.0612318172
 10
9.2917731653
 20
8.0550602462
 10
9.2894626458
 20
8.0485458204
 10
9.2892041895
 20
8.0418979187
 10
9.2894937619
 20
8.0400836907
  0
OLE2FRAME
  5
413
330
1F
100
AcDbEntity
  8
0
100
AcDbOle2Frame
 70
     2
  3
Paintbrush Picture
 10
9.0178120406
 20
1.3267570784
 30
0.0
 11
10.4397105087
 21
1.1242314806
 31
0.0
 71
     2
 72
     0
 73
     1
 90
     7296
310
8055C64EE7A81E092240C05F59A1653AF53F0000000000000000FD155DBC21E1
310
2440C05F59A1653AF53F0000000000000000FD155DBC21E12440A1732426DAFC
310
F13F0000000000000000C64EE7A81E092240A1732426DAFCF13F000000000000
310
00000000000001000000000100000100000001000000000001000000001C0000
310
D0CF11E0A1B11AE1000000000000000000000000000000003E000300FEFF0900
310
0600000000000000000000000100000001000000000000000010000002000000
310
01000000FEFFFFFF0000000000000000FFFFFFFFFFFFFFFFFFFFFFFFFFFFFFFF
310
FFFFFFFFFFFFFFFFFFFFFFFFFFFFFFFFFFFFFFFFFFFFFFFFFFFFFFFFFFFFFFFF
310
FFFFFFFFFFFFFFFFFFFFFFFFFFFFFFFFFFFFFFFFFFFFFFFFFFFFFFFFFFFFFFFF
310
FFFFFFFFFFFFFFFFFFFFFFFFFFFFFFFFFFFFFFFFFFFFFFFFFFFFFFFFFFFFFFFF
310
FFFFFFFFFFFFFFFFFFFFFFFFFFFFFFFFFFFFFFFFFFFFFFFFFFFFFFFFFFFFFFFF
310
FFFFFFFFFFFFFFFFFFFFFFFFFFFFFFFFFFFFFFFFFFFFFFFFFFFFFFFFFFFFFFFF
310
FFFFFFFFFFFFFFFFFFFFFFFFFFFFFFFFFFFFFFFFFFFFFFFFFFFFFFFFFFFFFFFF
310
FFFFFFFFFFFFFFFFFFFFFFFFFFFFFFFFFFFFFFFFFFFFFFFFFFFFFFFFFFFFFFFF
310
FFFFFFFFFFFFFFFFFFFFFFFFFFFFFFFFFFFFFFFFFFFFFFFFFFFFFFFFFFFFFFFF
310
FFFFFFFFFFFFFFFFFFFFFFFFFFFFFFFFFFFFFFFFFFFFFFFFFFFFFFFFFFFFFFFF
310
FFFFFFFFFFFFFFFFFFFFFFFFFFFFFFFFFFFFFFFFFFFFFFFFFFFFFFFFFFFFFFFF
310
FFFFFFFFFFFFFFFFFFFFFFFFFFFFFFFFFFFFFFFFFFFFFFFFFFFFFFFFFFFFFFFF
310
FFFFFFFFFFFFFFFFFFFFFFFFFFFFFFFFFFFFFFFFFFFFFFFFFFFFFFFFFFFFFFFF
310
FFFFFFFFFFFFFFFFFFFFFFFFFFFFFFFFFFFFFFFFFFFFFFFFFFFFFFFFFFFFFFFF
310
FDFFFFFFFEFFFFFFFEFFFFFFFEFFFFFF05000000060000000700000008000000
310
090000000A0000000B0000000C000000FEFFFFFFFFFFFFFFFFFFFFFFFFFFFFFF
310
FFFFFFFFFFFFFFFFFFFFFFFFFFFFFFFFFFFFFFFFFFFFFFFFFFFFFFFFFFFFFFFF
310
FFFFFFFFFFFFFFFFFFFFFFFFFFFFFFFFFFFFFFFFFFFFFFFFFFFFFFFFFFFFFFFF
310
FFFFFFFFFFFFFFFFFFFFFFFFFFFFFFFFFFFFFFFFFFFFFFFFFFFFFFFFFFFFFFFF
310
FFFFFFFFFFFFFFFFFFFFFFFFFFFFFFFFFFFFFFFFFFFFFFFFFFFFFFFFFFFFFFFF
310
FFFFFFFFFFFFFFFFFFFFFFFFFFFFFFFFFFFFFFFFFFFFFFFFFFFFFFFFFFFFFFFF
310
FFFFFFFFFFFFFFFFFFFFFFFFFFFFFFFFFFFFFFFFFFFFFFFFFFFFFFFFFFFFFFFF
310
FFFFFFFFFFFFFFFFFFFFFFFFFFFFFFFFFFFFFFFFFFFFFFFFFFFFFFFFFFFFFFFF
310
FFFFFFFFFFFFFFFFFFFFFFFFFFFFFFFFFFFFFFFFFFFFFFFFFFFFFFFFFFFFFFFF
310
FFFFFFFFFFFFFFFFFFFFFFFFFFFFFFFFFFFFFFFFFFFFFFFFFFFFFFFFFFFFFFFF
310
FFFFFFFFFFFFFFFFFFFFFFFFFFFFFFFFFFFFFFFFFFFFFFFFFFFFFFFFFFFFFFFF
310
FFFFFFFFFFFFFFFFFFFFFFFFFFFFFFFFFFFFFFFFFFFFFFFFFFFFFFFFFFFFFFFF
310
FFFFFFFFFFFFFFFFFFFFFFFFFFFFFFFFFFFFFFFFFFFFFFFFFFFFFFFFFFFFFFFF
310
FFFFFFFFFFFFFFFFFFFFFFFFFFFFFFFFFFFFFFFFFFFFFFFFFFFFFFFFFFFFFFFF
310
FFFFFFFFFFFFFFFFFFFFFFFFFFFFFFFFFFFFFFFFFFFFFFFFFFFFFFFFFFFFFFFF
310
52006F006F007400200045006E00740072007900000000000000000000000000
310
0000000000000000000000000000000000000000000000000000000000000000
310
16000500FFFFFFFFFFFFFFFF020000000A00030000000000C000000000000046
310
00000000000000000000000020A550FBCFB1D40103000000C000000000000000
310
01004F006C006500000000000000000000000000000000000000000000000000
310
0000000000000000000000000000000000000000000000000000000000000000
310
0A000200FFFFFFFFFFFFFFFFFFFFFFFF00000000000000000000000000000000
310
0000000000000000000000000000000000000000000000001400000000000000
310
010043006F006D0070004F0062006A0000000000000000000000000000000000
310
0000000000000000000000000000000000000000000000000000000000000000
310
120002010100000003000000FFFFFFFF00000000000000000000000000000000
310
0000000000000000000000000000000000000000010000004D00000000000000
310
01004F006C006500310030004E00610074006900760065000000000000000000
310
0000000000000000000000000000000000000000000000000000000000000000
310
1A000200FFFFFFFFFFFFFFFFFFFFFFFF00000000000000000000000000000000
310
000000000000000000000000000000000000000004000000E411000000000000
310
FEFFFFFF02000000FEFFFFFFFFFFFFFFFFFFFFFFFFFFFFFFFFFFFFFFFFFFFFFF
310
FFFFFFFFFFFFFFFFFFFFFFFFFFFFFFFFFFFFFFFFFFFFFFFFFFFFFFFFFFFFFFFF
310
FFFFFFFFFFFFFFFFFFFFFFFFFFFFFFFFFFFFFFFFFFFFFFFFFFFFFFFFFFFFFFFF
310
FFFFFFFFFFFFFFFFFFFFFFFFFFFFFFFFFFFFFFFFFFFFFFFFFFFFFFFFFFFFFFFF
310
FFFFFFFFFFFFFFFFFFFFFFFFFFFFFFFFFFFFFFFFFFFFFFFFFFFFFFFFFFFFFFFF
310
FFFFFFFFFFFFFFFFFFFFFFFFFFFFFFFFFFFFFFFFFFFFFFFFFFFFFFFFFFFFFFFF
310
FFFFFFFFFFFFFFFFFFFFFFFFFFFFFFFFFFFFFFFFFFFFFFFFFFFFFFFFFFFFFFFF
310
FFFFFFFFFFFFFFFFFFFFFFFFFFFFFFFFFFFFFFFFFFFFFFFFFFFFFFFFFFFFFFFF
310
FFFFFFFFFFFFFFFFFFFFFFFFFFFFFFFFFFFFFFFFFFFFFFFFFFFFFFFFFFFFFFFF
310
FFFFFFFFFFFFFFFFFFFFFFFFFFFFFFFFFFFFFFFFFFFFFFFFFFFFFFFFFFFFFFFF
310
FFFFFFFFFFFFFFFFFFFFFFFFFFFFFFFFFFFFFFFFFFFFFFFFFFFFFFFFFFFFFFFF
310
FFFFFFFFFFFFFFFFFFFFFFFFFFFFFFFFFFFFFFFFFFFFFFFFFFFFFFFFFFFFFFFF
310
FFFFFFFFFFFFFFFFFFFFFFFFFFFFFFFFFFFFFFFFFFFFFFFFFFFFFFFFFFFFFFFF
310
FFFFFFFFFFFFFFFFFFFFFFFFFFFFFFFFFFFFFFFFFFFFFFFFFFFFFFFFFFFFFFFF
310
FFFFFFFFFFFFFFFFFFFFFFFFFFFFFFFFFFFFFFFFFFFFFFFFFFFFFFFFFFFFFFFF
310
FFFFFFFFFFFFFFFFFFFFFFFFFFFFFFFFFFFFFFFFFFFFFFFFFFFFFFFFFFFFFFFF
310
0100000200000000000000000000000000000000000000000000000000000000
310
0000000000000000000000000000000000000000000000000000000000000000
310
0100FEFF030A0000FFFFFFFF0A00030000000000C00000000000004607000000
310
5042727573680007000000504272757368000700000050427275736800F439B2
310
7100000000000000000000000000000000000000000000000000000000000000
310
0000000000000000000000000000000000000000000000000000000000000000
310
0000000000000000000000000000000000000000000000000000000000000000
310
0000000000000000000000000000000000000000000000000000000000000000
310
0000000000000000000000000000000000000000000000000000000000000000
310
0000000000000000000000000000000000000000000000000000000000000000
310
0000000000000000000000000000000000000000000000000000000000000000
310
0000000000000000000000000000000000000000000000000000000000000000
310
0000000000000000000000000000000000000000000000000000000000000000
310
0000000000000000000000000000000000000000000000000000000000000000
310
0000000000000000000000000000000000000000000000000000000000000000
310
0000000000000000000000000000000000000000000000000000000000000000
310
E0110000424DDE11000000000000360400002800000096000000170000000100
310
08000000000000000000E7240000E72400000001000000010000000000FF0101
310
01FF020202FF030303FF040404FF050505FF060606FF070707FF080808FF0909
310
09FF0A0A0AFF0B0B0BFF0C0C0CFF0D0D0DFF0E0E0EFF0F0F0FFF101010FF1111
310
11FF121212FF131313FF141414FF151515FF161616FF171717FF181818FF1919
310
19FF1A1A1AFF1B1B1BFF1C1C1CFF1D1D1DFF1E1E1EFF1F1F1FFF202020FF2121
310
21FF222222FF232323FF242424FF252525FF262626FF272727FF282828FF2929
310
29FF2A2A2AFF2B2B2BFF2C2C2CFF2D2D2DFF2E2E2EFF2F2F2FFF303030FF3131
310
31FF323232FF333333FF343434FF353535FF363636FF373737FF383838FF3939
310
39FF3A3A3AFF3B3B3BFF3C3C3CFF3D3D3DFF3E3E3EFF3F3F3FFF404040FF4141
310
41FF424242FF434343FF444444FF454545FF464646FF474747FF484848FF4949
310
49FF4A4A4AFF4B4B4BFF4C4C4CFF4D4D4DFF4E4E4EFF4F4F4FFF505050FF5151
310
51FF525252FF535353FF545454FF555555FF565656FF575757FF585858FF5959
310
59FF5A5A5AFF5B5B5BFF5C5C5CFF5D5D5DFF5E5E5EFF5F5F5FFF606060FF6161
310
61FF626262FF636363FF646464FF656565FF666666FF676767FF686868FF6969
310
69FF6A6A6AFF6B6B6BFF6C6C6CFF6D6D6DFF6E6E6EFF6F6F6FFF707070FF7171
310
71FF727272FF737373FF747474FF757575FF767676FF777777FF787878FF7979
310
79FF7A7A7AFF7B7B7BFF7C7C7CFF7D7D7DFF7E7E7EFF7F7F7FFF808080FF8181
310
81FF828282FF838383FF848484FF858585FF868686FF878787FF888888FF8989
310
89FF8A8A8AFF8B8B8BFF8C8C8CFF8D8D8DFF8E8E8EFF8F8F8FFF909090FF9191
310
91FF929292FF939393FF949494FF959595FF969696FF979797FF989898FF9999
310
99FF9A9A9AFF9B9B9BFF9C9C9CFF9D9D9DFF9E9E9EFF9F9F9FFFA0A0A0FFA1A1
310
A1FFA2A2A2FFA3A3A3FFA4A4A4FFA5A5A5FFA6A6A6FFA7A7A7FFA8A8A8FFA9A9
310
A9FFAAAAAAFFABABABFFACACACFFADADADFFAEAEAEFFAFAFAFFFB0B0B0FFB1B1
310
B1FFB2B2B2FFB3B3B3FFB4B4B4FFB5B5B5FFB6B6B6FFB7B7B7FFB8B8B8FFB9B9
310
B9FFBABABAFFBBBBBBFFBCBCBCFFBDBDBDFFBEBEBEFFBFBFBFFFC0C0C0FFC1C1
310
C1FFC2C2C2FFC3C3C3FFC4C4C4FFC5C5C5FFC6C6C6FFC7C7C7FFC8C8C8FFC9C9
310
C9FFCACACAFFCBCBCBFFCCCCCCFFCDCDCDFFCECECEFFCFCFCFFFD0D0D0FFD1D1
310
D1FFD2D2D2FFD3D3D3FFD4D4D4FFD5D5D5FFD6D6D6FFD7D7D7FFD8D8D8FFD9D9
310
D9FFDADADAFFDBDBDBFFDCDCDCFFDDDDDDFFDEDEDEFFDFDFDFFFE0E0E0FFE1E1
310
E1FFE2E2E2FFE3E3E3FFE4E4E4FFE5E5E5FFE6E6E6FFE7E7E7FFE8E8E8FFE9E9
310
E9FFEAEAEAFFEBEBEBFFECECECFFEDEDEDFFEEEEEEFFEFEFEFFFF0F0F0FFF1F1
310
F1FFF2F2F2FFF3F3F3FFF4F4F4FFF5F5F5FFF6F6F6FFF7F7F7FFF8F8F8FFF9F9
310
F9FFFAFAFAFFFBFBFBFFFCFCFCFFFDFDFDFFFEFEFEFFFFFFFFFFFFFFFFFFFFFF
310
C94E4E4E4F4E4EFFFFFFFFFFC94E4E4E4E4E72FFFFFFFFFFFFFF734E4D4E4E4E
310
C9FFFFFFFFFFAA683516171616265B9BE9FFFFFFFFFF4E4E4E4D4E4EFFFFFFFF
310
FFFFFFFF4E4E4F4E4D4E4E4E4F4E4E4F4D4E4E4E4E4E4D4E4F4E4D4E4E4EAAFF
310
FFFFFFFFFFEA4E4F4F4E4E4E4E4E4D4D4F4F4E4E4E4E4E5B7FAAFFFFFFFFFFFF
310
C9744E1716171616164D8DEAFFFFFFFF0000FFFFFFFFFFFFBA161617161716FF
310
FFFFFFFFB917171616174FFFFFFFFFFFFFFF4E1716161616B9FFFFFFB9341717
310
1716171617171616268CFFFFFFFF161617161617FFFFFFFFFFFFFFB917161717
310
1617167F807F7F7F7F7F7F807F7F807F7F807F7F7F414EFFFFFFFFFFFF8C167F
310
7F807F7F7F7E7F7F807F807F7F807F4E3417258EFFFFEA4E162674AABAEAEBBA
310
AA74341680FFFFFF0000FFFFFFFFFFFFB9171717171617FFFFFFFFFFBB161616
310
16164EFFFFFFFFFFFFFF4E1717171717B9FFFF9C171617171716161616171616
310
171766FFFFFF161717161617FFFFFFFFFFFFFF8E16171717161616FFFFFFFFFF
310
FFFFFFFFFFFFFFFFFFFFFFFFFFAA16D9FFFFFFFFFF3467FFFFFFFFEAFFFFFFFF
310
FFFFFFFFFFFFFFFFFFCA671667EB26278DFFFFFFFFFFFFFFFFFFFF8C2541EAFF
310
0000FFFFFFFFFFFFB9171717171716FFFFFFFFFFBA16171617174EFFFFFFFFFF
310
FFFF4E1717161616BAFF9B1617161616171716171617161616161667FFFF1616
310
16161716FFFFFFFFFFFFFF7F16161617174017FFFFFFFFFFFFFFFFFFFFFFFFFF
310
FFFFFFFFFFFF344E7F7F7F7E7417DAFFFFFFFF80FFFFFFFFFFFFFFFFFFFFFFFF
310
FFFFFF9B163425CAFFFFFFFFFFFFFFFFFFFFFFFFCA2667FF0000FFFFFFFFFFFF
310
BA171717171617FFFFFFFFFFB916171716164EFFFFFFFFFFFFFF4F1716161717
310
B9C91716171616161716161617171616161617168DFF161716161717FFFFFFFF
310
FFFFFF7F17171716164F16FFFFFFFFFFFFFFFFFFFFFFFFFFFFFFFFFFFFFF9B16
310
17161617174EFFFFFFFFFF34FFFFFFFFD9BABABABABADAFFFFFFFFFF7F16AAFF
310
FFFFFFFFFFFFFFFFFFFFFFFFFF9C16BA0000FFFFFFFFFFFFB9161717161717FF
310
FFFFFFFFB917161716174DFFFFFFFFFFFFFF4E1616161616BA4E161617171716
310
419BEAEAAA4E16161617161726E9171717161616FFFFFFFFFFFFFF4F16161717
310
164E16FFFFFFFFFFBAB9B9B9B9B9BABABACAFFFFFFFFFFFFFFFFFFFFFFFFFFFF
310
FFFFBA16FFFFFFFF7F1617161617174DEAFFFFFFEA41FFFFFFFFFFAA4D16174E
310
9BFFFFFFFFFF34730000FFFFFFFFFFFFB9161617171617FFFFFFFFFFBA161616
310
16164EFFFFFFFFFFFFFF4F16161717169B1617161716175BFFFFFFFFFFFF7417
310
16171616168D171717161617FFFFFFFFFFFFEA2616171717167416FFFFFFFFFF
310
16171616171717171717EAFFFFFFFFFFFFFFFFFFFFFFFFFFFFFF6716FFFFFFFF
310
7F4EFFFFFFFFBA2573FFFFFFFFBAFFFFFFFFAA167FB9BB9B269BFFFFFFFF664F
310
0000FFFFFFFFFFFFB9171616161616FFFFFFFFFFBA16161717164EFFFFFFFFFF
310
FFFF4E16161616174E161617171626EAFFFFFFFFFFFFFF4E16161616164E1716
310
16161617FFFFFFFFFFFF671616161716347F16FFFFFFFFFF16B9FFFFFFFFFFFF
310
D9168DFFFFFFFFFFFFFFFFFFFFFFFFFFFFEA1716FFFFFFFF7F4EFFFFFFFFFF7F
310
4EFFFFFFFFFFFFFFFFFF5B66FFFFFFEA347FFFFFFFFF7F4D0000FFFFFFFFFFFF
310
B9171616171617FFFFFFFFFFBA17161716174EFFFFFFFFFFFFFF4D1716161617
310
17161716161673FFFFFFFFFFFFFFFF9B1617161717161616171616174F4E4E4E
310
4E341616171616167E7F16FFFFFFFFFF16BAFFFFFFFFFFFFFF5B41FFFFFFFF34
310
1616171616BAFFFFFF9B1716FFFFFFFF7F4EFFFFFFFFFF4E4EFFFFFFFF734E4E
310
4E4E267EDA9B67164EEAFFFFFFFF744D0000FFFFFFFFFFFFBA171717161617FF
310
FFFFFFFFBA1616171616347F7F7F7F80807F331616161717161717161716B9FF
310
FFFFFFFFFFFFFFE9161616161616171716161716171616161616171616171734
310
EA7F16FFFFFFFFFF16BAFFFFFFFFFFFFFFAA17C9FFFFFF7326BABA5B25FFFFFF
310
FF401716FFFFFFFF7F264F4E4E4E4217AAFFFFFFEA16677F73261616164173CA
310
FFFFFFFFFFFF417F0000FFFFFFFFFFFFBA171616171617FFFFFFFFFFBA161616
310
17171616161616161616161717161616161616161617EAFFFFFFFFFFFFFFFFFF
310
261717161716161617161616161617161617161616174EEAFF8016FFFFFFFFFF
310
17BAFFFFFFFFFFFFFFFF3467FFFFFFC916C9FF3467FFFFFFDA166716FFFFFFFF
310
9C4D4E4E4E4E67AAFFFFFFFF6834FF7F262567AAEAFFFFFFFFFFFFFFFF9B17D9
310
0000FFFFFFFFFFFFB9161616161616FFFFFFFFFFBA1617161717171616161616
310
1716171716161716161617171716FFFFFFFFFFFFFFFFFFFF4E17161716171616
310
1617171616161716171717161616169BFF7F17FFFFFFFFFF17B9FFFFFFFFFFFF
310
FFFF7326FFFFFFFF3473DA16AAFFFFFF7317AA16FFFFFFFFFFFFFFFFFFFFFFFF
310
FFFFEA6725BA4E167FEAFFFFFFFFFFFFFFFFFFFF9C167FFF0000FFFFFFFFFFFF
310
B9161717171716FFFFFFFFFFBA16161716171616171717161617161716161616
310
171617171617EAFFFFFFFFFFFFFFFFFF26161717161616161616161617171616
310
1616161616171616AA8016FFFFFFFFFF16BAFFFFFFFFFFFFFFFFDA179BFFFFFF
310
74348D26FFFFFFFF2566B917FFFFFFFFD8BAB9BAB9BADAFFFFEA41169B7425C9
310
FFFFFFFFFFFFFFFFFFFFAB4F1680FFFF0000FFFFFFFFFFFFBA161717171617FF
310
FFFFFFFFBA17161717161617171617161616161617171616171716171617BBFF
310
FFFFFFFFFFFFFFE9171616161617161617161716FFFFFFFFFFD9671616161617
310
348017FFFFFFFFFF16BAFFFFFFFFFFFFFFFFFF4E5AFFFFFFC916265AFFFFFFAA
310
16AABA16FFFFFFFF7F1617161616179BFFFFEB4127168DFFFFFFFFFFFFFFD99B
310
6734175AC9FFFFFF0000FFFFFFFFFFFFB9161617171617FFFFFFFFFFBB161616
310
1616347F807F7F7F7F8033171716171617171616161672FFFFFFFFFFFFFFFF9C
310
171617171617161716161617FFFFFFFFFFFFFF4117161616174E17FFFFFFFFFF
310
16BAFFFFFFFFFFFFFFFFFF9B16DAFFFFFF34169BFFFFFF5A26FFB917FFFFFFFF
310
7F4EFFFFFFEA5B26FFFFFFEA2616EAFFFFFFFFDA743416331617414E4E4E4ECA
310
0000FFFFFFFFFFFFBA161716161616FFFFFFFFFFBA17171616164EFFFFFFFFFF
310
FFFF4E16161717174E161717171626EBFFFFFFFFFFFFFF4E16161617165B1616
310
16171617FFFFFFFFFFFFFF6716161616161617FFFFFFFFFF16BAFFFFFFFFFFFF
310
FFFFFFEA268CFFFFFF7316EAFFFFEB1774FFB916FFFFFFFF7F4EFFFFFFFF7316
310
FFFFFFFF6826FFFFFFFFEB264D9CEABA257F807F7F6616BA0000FFFFFFFFFFFF
310
BA161716161616FFFFFFFFFFBA16171616164DFFFFFFFFFFFFFF4E1617161617
310
9B1617171717165BEBFFFFFFFFFF671616161617179B171616161616FFFFFFFF
310
FFFFFF3417161617171617FFFFFFFFFF17BAFFFFFFFFFFFFFFFFFFFF6734FFFF
310
FFEBCAFFFFFF8D17C9FFBA17FFFFFFFF7F357F808066174FFFFFFFFF7F16FFFF
310
FFFFD91673B99B415BFFFFFFFFBA16DA00009B7F7F7F807F671617161616167F
310
80807F7E6617161616164EFFFFFFFFFFFFFF4E1616161617B94E171716161616
310
349BC9D9AA4E16171616161634FF161617161717B9B9BAB9BA9B411716171716
310
163416FFFFFFFFFF16B9FFFFFFFFFFFFFFFFFFFFC917CAFFFFFFFFFFFFFF3342
310
FFFFBA17FFFFFFFF9B4E4E4F4E4E66EAFFFFFFFF5B16C9FFFFFFFFAA4E164E73
310
EAFFFFFFFF8D26FF00004E161716161616171617171616171717171617161616
310
17174EFFFFFFFFFFFFFF4E1717171616B9D92616171716171716171717171716
310
16171716AAFF161717171617161617171616161617161716166717FFFFFFFFFF
310
17B9FFFFFFFFFFFFFFFFFFFFFF3467FFFFFFFFFFFFCA168CFFFFBB17FFFFFFFF
310
FFFFFFFFFFFFFFFFFFFFFFEA26265BFFFFFFFFFFFFFFFFFFFFFFFFFFEA3467FF
310
00004D16161616161617161717161617161616171617171616164EFFFFFFFFFF
310
FFFF4D1617161616BAFF9B1616161616161716161616171717161766FFFF1616
310
16171617161617161716171616171717667F16FFFFFFFFFF17BAFFFFFFFFFFFF
310
FFFFFFFFFF8C26EAFFFFFFFFFF6617EAFFFFBA17FFFFFFFFFFFFFFFFFFFFFFFF
310
FFFFEA5A25BA269BFFFFFFFFFFFFFFFFFFFFFFFF6616DAFF00004E1616171616
310
1616161616161716161617171616171616174EFFFFFFFFFFFFFF4D1717171716
310
B9FFFF9C161616161616161716161717171667FFFFFF17161717171716161617
310
1716161616161641E97E16FFFFFFFFFF16B9FFFFFFFFFFFFFFFFFFFFFFEA169B
310
FFFFFFFFEA265BFFFFFFB916FFFFFFFFFFFFFFFFFFFFFFFFFF9B3416AAFF9B17
310
67EAFFFFFFFFFFFFFFFFEA5B169BFFFF00004D17161716161616161717171616
310
161717161716171716174EFFFFFFFFFFFFFF4D1616161616BAFFFFFFBB411616
310
161716161616171634ABFFFFFFFF161716161617171716171617171617267FFF
310
FF7F164E4E4E4E4F17BAFFFFFFFFFFFFFFFFFFFFFFFF66344D4E4E4F4117AAFF
310
FFFFBA174E4E4E4D4E4D4D4E4E4E4E4116174EBBFFFFFFCA342666ABEAFFFFEA
310
AA6725269CFFFFFF0000724F4E4D4D4D4E4D4D4E4E4E4D4E4E4E4E4E4E4E4E4D
310
4E4E74FFFFFFFFFFFFFF734E4E4E4D4ECAFFFFFFFFFFAA663416171717265B9B
310
FFFFFFFFFFFF7F8080807F80807F7F7F7F7F807FBAFFFFFFFF9B4E4E4F4D4D4E
310
4DC9FFFFFFFFFFFFFFFFFFFFFFFFBA4E4E4E4E4D4E4EFFFFFFFFC94E4E4E4F4E
310
4E4E4D4E4E5A807F9CD9FFFFFFFFFFFFFF9B5B2617171716174E8DEAFFFFFFFF
310
0000000000000000000000000000000000000000000000000000000000000000
  1
OLE
  0
ENDSEC
  0
SECTION
  2
OBJECTS
  0
DICTIONARY
  5
C
330
0
100
AcDbDictionary
281
     1
  3
ACAD_GROUP
350
D
  3
ACAD_LAYOUT
350
1A
  3
ACAD_MLINESTYLE
350
17
  3
ACAD_PLOTSETTINGS
350
19
  3
ACAD_PLOTSTYLENAME
350
E
  3
ACAD_SCALELIST
350
47
  0
DICTIONARY
  5
D
102
{ACAD_REACTORS
330
C
102
}
330
C
100
AcDbDictionary
281
     1
  0
DICTIONARY
  5
1A
102
{ACAD_REACTORS
330
C
102
}
330
C
100
AcDbDictionary
281
     1
  3
Layout1
350
1E
  3
Layout2
350
26
  3
Model
350
22
  0
DICTIONARY
  5
17
102
{ACAD_REACTORS
330
C
102
}
330
C
100
AcDbDictionary
281
     1
  3
Standard
350
18
  0
DICTIONARY
  5
19
102
{ACAD_REACTORS
330
C
102
}
330
C
100
AcDbDictionary
281
     1
  0
ACDBDICTIONARYWDFLT
  5
E
102
{ACAD_REACTORS
330
C
102
}
330
C
100
AcDbDictionary
281
     1
  3
Normal
350
F
100
AcDbDictionaryWithDefault
340
F
  0
DICTIONARY
  5
47
102
{ACAD_REACTORS
330
C
102
}
330
C
100
AcDbDictionary
281
     1
  3
A0
350
48
  3
A1
350
49
  3
A2
350
4A
  3
A3
350
4B
  3
A4
350
4C
  3
A5
350
4D
  3
A6
350
4E
  3
A7
350
4F
  3
A8
350
50
  3
A9
350
51
  3
B0
350
52
  3
B1
350
53
  3
B2
350
54
  3
B3
350
55
  3
B4
350
56
  3
B5
350
57
  3
B6
350
58
  3
B7
350
59
  3
B8
350
5A
  3
B9
350
5B
  3
C0
350
5C
  3
C1
350
5D
  3
C2
350
5E
  3
C3
350
5F
  3
C4
350
60
  3
C5
350
61
  3
C6
350
62
  3
C7
350
63
  3
C8
350
64
  3
C9
350
65
  3
D0
350
66
  3
D1
350
67
  3
D2
350
68
  0
LAYOUT
  5
1E
102
{ACAD_REACTORS
330
1A
102
}
330
1A
100
AcDbPlotSettings
  1

  2
none_device
  4

  6

 40
0.0
 41
0.0
 42
0.0
 43
0.0
 44
0.0
 45
0.0
 46
0.0
 47
0.0
 48
0.0
 49
0.0
140
0.0
141
0.0
142
1.0
143
1.0
 70
   688
 72
     0
 73
     0
 74
     5
  7

 75
    16
147
1.0
148
0.0
149
0.0
100
AcDbLayout
  1
Layout1
 70
     1
 71
     1
 10
0.0
 20
0.0
 11
12.0
 21
9.0
 12
0.0
 22
0.0
 32
0.0
 14
1.0000000000E+20
 24
1.0000000000E+20
 34
1.0000000000E+20
 15
-1.0000000000E+20
 25
-1.0000000000E+20
 35
-1.0000000000E+20
146
0.0
 13
0.0
 23
0.0
 33
0.0
 16
1.0
 26
0.0
 36
0.0
 17
0.0
 27
1.0
 37
0.0
 76
     0
330
1B
  0
LAYOUT
  5
26
102
{ACAD_REACTORS
330
1A
102
}
330
1A
100
AcDbPlotSettings
  1

  2
none_device
  4

  6

 40
0.0
 41
0.0
 42
0.0
 43
0.0
 44
0.0
 45
0.0
 46
0.0
 47
0.0
 48
0.0
 49
0.0
140
0.0
141
0.0
142
1.0
143
1.0
 70
   688
 72
     0
 73
     0
 74
     5
  7

 75
    16
147
1.0
148
0.0
149
0.0
100
AcDbLayout
  1
Layout2
 70
     1
 71
     2
 10
0.0
 20
0.0
 11
0.0
 21
0.0
 12
0.0
 22
0.0
 32
0.0
 14
0.0
 24
0.0
 34
0.0
 15
0.0
 25
0.0
 35
0.0
146
0.0
 13
0.0
 23
0.0
 33
0.0
 16
1.0
 26
0.0
 36
0.0
 17
0.0
 27
1.0
 37
0.0
 76
     0
330
23
  0
LAYOUT
  5
22
102
{ACAD_REACTORS
330
1A
102
}
330
1A
100
AcDbPlotSettings
  1

  2
none_device
  4
Letter_(8.50_x_11.00_Inches)
  6

 40
6.35
 41
6.35
 42
6.35000508
 43
6.35000508
 44
215.9
 45
279.4
 46
0.0
 47
0.0
 48
0.0
 49
0.0
140
0.0
141
0.0
142
1.0
143
1.0
 70
  1712
 72
     0
 73
     0
 74
     0
  7

 75
     0
147
1.0
148
0.0
149
0.0
100
AcDbLayout
  1
Model
 70
     1
 71
     0
 10
0.0
 20
0.0
 11
11.0
 21
8.5
 12
0.0
 22
0.0
 32
0.0
 14
0.0
 24
0.0
 34
0.0
 15
11.0
 25
8.5
 35
0.0
146
0.0
 13
0.0
 23
0.0
 33
0.0
 16
1.0
 26
0.0
 36
0.0
 17
0.0
 27
1.0
 37
0.0
 76
     0
330
1F
331
29
  0
MLINESTYLE
  5
18
102
{ACAD_REACTORS
330
17
102
}
330
17
100
AcDbMlineStyle
  2
Standard
 70
     0
  3

 62
   256
 51
90.0
 52
90.0
 71
     2
 49
0.5
 62
   256
  6
BYLAYER
 49
-0.5
 62
   256
  6
BYLAYER
  0
ACDBPLACEHOLDER
  5
F
102
{ACAD_REACTORS
330
E
102
}
330
E
  0
SCALE
  5
48
102
{ACAD_REACTORS
330
47
102
}
330
47
100
AcDbScale
 70
     0
300
1:1
140
1.0
141
1.0
290
     1
  0
SCALE
  5
49
102
{ACAD_REACTORS
330
47
102
}
330
47
100
AcDbScale
 70
     0
300
1:2
140
1.0
141
2.0
290
     0
  0
SCALE
  5
4A
102
{ACAD_REACTORS
330
47
102
}
330
47
100
AcDbScale
 70
     0
300
1:4
140
1.0
141
4.0
290
     0
  0
SCALE
  5
4B
102
{ACAD_REACTORS
330
47
102
}
330
47
100
AcDbScale
 70
     0
300
1:5
140
1.0
141
5.0
290
     0
  0
SCALE
  5
4C
102
{ACAD_REACTORS
330
47
102
}
330
47
100
AcDbScale
 70
     0
300
1:8
140
1.0
141
8.0
290
     0
  0
SCALE
  5
4D
102
{ACAD_REACTORS
330
47
102
}
330
47
100
AcDbScale
 70
     0
300
1:10
140
1.0
141
10.0
290
     0
  0
SCALE
  5
4E
102
{ACAD_REACTORS
330
47
102
}
330
47
100
AcDbScale
 70
     0
300
1:16
140
1.0
141
16.0
290
     0
  0
SCALE
  5
4F
102
{ACAD_REACTORS
330
47
102
}
330
47
100
AcDbScale
 70
     0
300
1:20
140
1.0
141
20.0
290
     0
  0
SCALE
  5
50
102
{ACAD_REACTORS
330
47
102
}
330
47
100
AcDbScale
 70
     0
300
1:30
140
1.0
141
30.0
290
     0
  0
SCALE
  5
51
102
{ACAD_REACTORS
330
47
102
}
330
47
100
AcDbScale
 70
     0
300
1:40
140
1.0
141
40.0
290
     0
  0
SCALE
  5
52
102
{ACAD_REACTORS
330
47
102
}
330
47
100
AcDbScale
 70
     0
300
1:50
140
1.0
141
50.0
290
     0
  0
SCALE
  5
53
102
{ACAD_REACTORS
330
47
102
}
330
47
100
AcDbScale
 70
     0
300
1:100
140
1.0
141
100.0
290
     0
  0
SCALE
  5
54
102
{ACAD_REACTORS
330
47
102
}
330
47
100
AcDbScale
 70
     0
300
2:1
140
2.0
141
1.0
290
     0
  0
SCALE
  5
55
102
{ACAD_REACTORS
330
47
102
}
330
47
100
AcDbScale
 70
     0
300
4:1
140
4.0
141
1.0
290
     0
  0
SCALE
  5
56
102
{ACAD_REACTORS
330
47
102
}
330
47
100
AcDbScale
 70
     0
300
8:1
140
8.0
141
1.0
290
     0
  0
SCALE
  5
57
102
{ACAD_REACTORS
330
47
102
}
330
47
100
AcDbScale
 70
     0
300
10:1
140
10.0
141
1.0
290
     0
  0
SCALE
  5
58
102
{ACAD_REACTORS
330
47
102
}
330
47
100
AcDbScale
 70
     0
300
100:1
140
100.0
141
1.0
290
     0
  0
SCALE
  5
59
102
{ACAD_REACTORS
330
47
102
}
330
47
100
AcDbScale
 70
     0
300
1/128" = 1'-0"
140
0.0078125
141
12.0
290
     0
  0
SCALE
  5
5A
102
{ACAD_REACTORS
330
47
102
}
330
47
100
AcDbScale
 70
     0
300
1/64" = 1'-0"
140
0.015625
141
12.0
290
     0
  0
SCALE
  5
5B
102
{ACAD_REACTORS
330
47
102
}
330
47
100
AcDbScale
 70
     0
300
1/32" = 1'-0"
140
0.03125
141
12.0
290
     0
  0
SCALE
  5
5C
102
{ACAD_REACTORS
330
47
102
}
330
47
100
AcDbScale
 70
     0
300
1/16" = 1'-0"
140
0.0625
141
12.0
290
     0
  0
SCALE
  5
5D
102
{ACAD_REACTORS
330
47
102
}
330
47
100
AcDbScale
 70
     0
300
3/32" = 1'-0"
140
0.09375
141
12.0
290
     0
  0
SCALE
  5
5E
102
{ACAD_REACTORS
330
47
102
}
330
47
100
AcDbScale
 70
     0
300
1/8" = 1'-0"
140
0.125
141
12.0
290
     0
  0
SCALE
  5
5F
102
{ACAD_REACTORS
330
47
102
}
330
47
100
AcDbScale
 70
     0
300
3/16" = 1'-0"
140
0.1875
141
12.0
290
     0
  0
SCALE
  5
60
102
{ACAD_REACTORS
330
47
102
}
330
47
100
AcDbScale
 70
     0
300
1/4" = 1'-0"
140
0.25
141
12.0
290
     0
  0
SCALE
  5
61
102
{ACAD_REACTORS
330
47
102
}
330
47
100
AcDbScale
 70
     0
300
3/8" = 1'-0"
140
0.375
141
12.0
290
     0
  0
SCALE
  5
62
102
{ACAD_REACTORS
330
47
102
}
330
47
100
AcDbScale
 70
     0
300
1/2" = 1'-0"
140
0.5
141
12.0
290
     0
  0
SCALE
  5
63
102
{ACAD_REACTORS
330
47
102
}
330
47
100
AcDbScale
 70
     0
300
3/4" = 1'-0"
140
0.75
141
12.0
290
     0
  0
SCALE
  5
64
102
{ACAD_REACTORS
330
47
102
}
330
47
100
AcDbScale
 70
     0
300
1" = 1'-0"
140
1.0
141
12.0
290
     0
  0
SCALE
  5
65
102
{ACAD_REACTORS
330
47
102
}
330
47
100
AcDbScale
 70
     0
300
1-1/2" = 1'-0"
140
1.5
141
12.0
290
     0
  0
SCALE
  5
66
102
{ACAD_REACTORS
330
47
102
}
330
47
100
AcDbScale
 70
     0
300
3" = 1'-0"
140
3.0
141
12.0
290
     0
  0
SCALE
  5
67
102
{ACAD_REACTORS
330
47
102
}
330
47
100
AcDbScale
 70
     0
300
6" = 1'-0"
140
6.0
141
12.0
290
     0
  0
SCALE
  5
68
102
{ACAD_REACTORS
330
47
102
}
330
47
100
AcDbScale
 70
     0
300
1'-0" = 1'-0"
140
12.0
141
12.0
290
     0
  0
ENDSEC
  0
EOF
