  0
SECTION
  2
HEADER
  9
$ACADVER
  1
AC1015
  9
$ACADMAINTVER
 70
     6
  9
$DWGCODEPAGE
  3
ANSI_1252
  9
$INSBASE
 10
0.0
 20
0.0
 30
0.0
  9
$EXTMIN
 10
0.0
 20
0.0
 30
0.0
  9
$EXTMAX
 10
11.0
 20
8.5
 30
0.0
  9
$LIMMIN
 10
0.0
 20
0.0
  9
$LIMMAX
 10
0.0
 20
0.0
  9
$ORTHOMODE
 70
     0
  9
$REGENMODE
 70
     1
  9
$FILLMODE
 70
     1
  9
$QTEXTMODE
 70
     0
  9
$MIRRTEXT
 70
     1
  9
$LTSCALE
 40
1.0
  9
$ATTMODE
 70
     1
  9
$TEXTSIZE
 40
0.09
  9
$TRACEWID
 40
0.05
  9
$TEXTSTYLE
  7
Standard
  9
$CLAYER
  8
0
  9
$CELTYPE
  6
ByLayer
  9
$CECOLOR
 62
   256
  9
$CELTSCALE
 40
1.0
  9
$DISPSILH
 70
     0
  9
$DIMSCALE
 40
1.0
  9
$DIMASZ
 40
0.16
  9
$DIMEXO
 40
0.05
  9
$DIMDLI
 40
0.38
  9
$DIMRND
 40
0.0
  9
$DIMDLE
 40
0.0
  9
$DIMEXE
 40
0.125
  9
$DIMTP
 40
0.0
  9
$DIMTM
 40
0.0
  9
$DIMTXT
 40
0.09
  9
$DIMCEN
 40
0.09
  9
$DIMTSZ
 40
0.0
  9
$DIMTOL
 70
     0
  9
$DIMLIM
 70
     0
  9
$DIMTIH
 70
     1
  9
$DIMTOH
 70
     1
  9
$DIMSE1
 70
     0
  9
$DIMSE2
 70
     0
  9
$DIMTAD
 70
     0
  9
$DIMZIN
 70
     1
  9
$DIMBLK
  1

  9
$DIMASO
 70
     1
  9
$DIMSHO
 70
     1
  9
$DIMPOST
  1

  9
$DIMAPOST
  1

  9
$DIMALT
 70
     0
  9
$DIMALTD
 70
     2
  9
$DIMALTF
 40
25.4
  9
$DIMLFAC
 40
1.0
  9
$DIMTOFL
 70
     0
  9
$DIMTVP
 40
0.0
  9
$DIMTIX
 70
     0
  9
$DIMSOXD
 70
     0
  9
$DIMSAH
 70
     0
  9
$DIMBLK1
  1

  9
$DIMBLK2
  1

  9
$DIMSTYLE
  2
Standard
  9
$DIMCLRD
 70
     0
  9
$DIMCLRE
 70
     0
  9
$DIMCLRT
 70
     0
  9
$DIMTFAC
 40
1.0
  9
$DIMGAP
 40
0.1
  9
$DIMJUST
 70
     0
  9
$DIMSD1
 70
     0
  9
$DIMSD2
 70
     0
  9
$DIMTOLJ
 70
     1
  9
$DIMTZIN
 70
     1
  9
$DIMALTZ
 70
     0
  9
$DIMALTTZ
 70
     0
  9
$DIMUPT
 70
     0
  9
$DIMDEC
 70
     4
  9
$DIMTDEC
 70
     4
  9
$DIMALTU
 70
     2
  9
$DIMALTTD
 70
     2
  9
$DIMTXSTY
  7
Standard
  9
$DIMAUNIT
 70
     0
  9
$DIMADEC
 70
     0
  9
$DIMALTRND
 40
0.0
  9
$DIMAZIN
 70
     0
  9
$DIMDSEP
 70
    46
  9
$DIMATFIT
 70
     3
  9
$DIMFRAC
 70
     0
  9
$DIMLDRBLK
  1

  9
$DIMLUNIT
 70
     2
  9
$DIMLWD
 70
    -2
  9
$DIMLWE
 70
    -2
  9
$DIMTMOVE
 70
     0
  9
$LUNITS
 70
     2
  9
$LUPREC
 70
     3
  9
$SKETCHINC
 40
0.1
  9
$FILLETRAD
 40
0.5
  9
$AUNITS
 70
     0
  9
$AUPREC
 70
     0
  9
$MENU
  1
.
  9
$ELEVATION
 40
0.0
  9
$PELEVATION
 40
0.0
  9
$THICKNESS
 40
0.0
  9
$LIMCHECK
 70
     0
  9
$CHAMFERA
 40
0.5
  9
$CHAMFERB
 40
0.5
  9
$CHAMFERC
 40
1.0
  9
$CHAMFERD
 40
0.0
  9
$SKPOLY
 70
     0
  9
$TDCREATE
 40
2454805.305886701
  9
$TDUCREATE
 40
2454805.514220035
  9
$TDUPDATE
 40
2454805.305886713
  9
$TDUUPDATE
 40
2454805.514220046
  9
$TDINDWG
 40
0.0000000116
  9
$TDUSRTIMER
 40
0.0000000116
  9
$USRTIMER
 70
     1
  9
$ANGBASE
 50
0.0
  9
$ANGDIR
 70
     0
  9
$PDMODE
 70
     0
  9
$PDSIZE
 40
-1.0
  9
$PLINEWID
 40
0.0
  9
$SPLFRAME
 70
     0
  9
$SPLINETYPE
 70
     6
  9
$SPLINESEGS
 70
     8
  9
$HANDSEED
  5
476
  9
$SURFTAB1
 70
     6
  9
$SURFTAB2
 70
     6
  9
$SURFTYPE
 70
     6
  9
$SURFU
 70
     6
  9
$SURFV
 70
     6
  9
$UCSBASE
  2

  9
$UCSNAME
  2

  9
$UCSORG
 10
0.0
 20
0.0
 30
0.0
  9
$UCSXDIR
 10
1.0
 20
0.0
 30
0.0
  9
$UCSYDIR
 10
0.0
 20
1.0
 30
0.0
  9
$UCSORTHOREF
  2

  9
$UCSORTHOVIEW
 70
     0
  9
$UCSORGTOP
 10
0.0
 20
0.0
 30
0.0
  9
$UCSORGBOTTOM
 10
0.0
 20
0.0
 30
0.0
  9
$UCSORGLEFT
 10
0.0
 20
0.0
 30
0.0
  9
$UCSORGRIGHT
 10
0.0
 20
0.0
 30
0.0
  9
$UCSORGFRONT
 10
0.0
 20
0.0
 30
0.0
  9
$UCSORGBACK
 10
0.0
 20
0.0
 30
0.0
  9
$PUCSBASE
  2

  9
$PUCSNAME
  2

  9
$PUCSORG
 10
0.0
 20
0.0
 30
0.0
  9
$PUCSXDIR
 10
1.0
 20
0.0
 30
0.0
  9
$PUCSYDIR
 10
0.0
 20
1.0
 30
0.0
  9
$PUCSORTHOREF
  2

  9
$PUCSORTHOVIEW
 70
     0
  9
$PUCSORGTOP
 10
0.0
 20
0.0
 30
0.0
  9
$PUCSORGBOTTOM
 10
0.0
 20
0.0
 30
0.0
  9
$PUCSORGLEFT
 10
0.0
 20
0.0
 30
0.0
  9
$PUCSORGRIGHT
 10
0.0
 20
0.0
 30
0.0
  9
$PUCSORGFRONT
 10
0.0
 20
0.0
 30
0.0
  9
$PUCSORGBACK
 10
0.0
 20
0.0
 30
0.0
  9
$USERI1
 70
     0
  9
$USERI2
 70
     0
  9
$USERI3
 70
     0
  9
$USERI4
 70
     0
  9
$USERI5
 70
     0
  9
$USERR1
 40
0.0
  9
$USERR2
 40
0.0
  9
$USERR3
 40
0.0
  9
$USERR4
 40
0.0
  9
$USERR5
 40
0.0
  9
$WORLDVIEW
 70
     1
  9
$SHADEDGE
 70
     3
  9
$SHADEDIF
 70
    70
  9
$TILEMODE
 70
     1
  9
$MAXACTVP
 70
    64
  9
$PINSBASE
 10
0.0
 20
0.0
 30
0.0
  9
$PLIMCHECK
 70
     0
  9
$PEXTMIN
 10
1.0000000000E+20
 20
1.0000000000E+20
 30
1.0000000000E+20
  9
$PEXTMAX
 10
-1.0000000000E+20
 20
-1.0000000000E+20
 30
-1.0000000000E+20
  9
$PLIMMIN
 10
0.0
 20
0.0
  9
$PLIMMAX
 10
12.0
 20
9.0
  9
$UNITMODE
 70
     0
  9
$VISRETAIN
 70
     1
  9
$PLINEGEN
 70
     0
  9
$PSLTSCALE
 70
     1
  9
$TREEDEPTH
 70
  3020
  9
$CMLSTYLE
  2
Standard
  9
$CMLJUST
 70
     0
  9
$CMLSCALE
 40
1.0
  9
$PROXYGRAPHICS
 70
     1
  9
$MEASUREMENT
 70
     0
  9
$CELWEIGHT
370
    -1
  9
$ENDCAPS
280
     0
  9
$JOINSTYLE
280
     0
  9
$LWDISPLAY
290
     1
  9
$INSUNITS
 70
     1
  9
$HYPERLINKBASE
  1

  9
$STYLESHEET
  1

  9
$XEDIT
290
     1
  9
$CEPSNTYPE
380
     0
  9
$PSTYLEMODE
290
     1
  9
$FINGERPRINTGUID
  2
{479C9175-5A19-47E7-8618-1F5DADAAEDD8}
  9
$VERSIONGUID
  2
{FAEB1C32-E019-11D5-929B-00C0DF256EC4}
  9
$EXTNAMES
290
     1
  9
$PSVPSCALE
 40
0.0
  9
$OLESTARTUP
290
     0
  0
ENDSEC
  0
SECTION
  2
CLASSES
  0
CLASS
  1
ACDBDICTIONARYWDFLT
  2
AcDbDictionaryWithDefault
  3
ObjectDBX Classes
 90
        0
280
     0
281
     0
  0
CLASS
  1
ACDBPLACEHOLDER
  2
AcDbPlaceHolder
  3
ObjectDBX Classes
 90
        0
280
     0
281
     0
  0
CLASS
  1
LAYOUT
  2
AcDbLayout
  3
ObjectDBX Classes
 90
        0
280
     0
281
     0
  0
ENDSEC
  0
SECTION
  2
TABLES
  0
TABLE
  2
VPORT
  5
8
330
0
100
AcDbSymbolTable
 70
     1
  0
VPORT
  5
29
330
8
100
AcDbSymbolTableRecord
100
AcDbViewportTableRecord
  2
*Active
 70
     0
 10
0.0
 20
0.0
 11
1.0
 21
1.0
 12
5.5
 22
4.25
 13
0.0
 23
0.0
 14
0.5
 24
0.5
 15
0.5
 25
0.5
 16
0.0
 26
0.0
 36
1.0
 17
0.0
 27
0.0
 37
0.0
 40
8.5
 41
1.2941176471
 42
50.0
 43
0.0
 44
0.0
 50
0.0
 51
0.0
 71
     0
 72
  2000
 73
     1
 74
     3
 75
     0
 76
     0
 77
     0
 78
     0
281
     0
 65
     1
110
0.0
120
0.0
130
0.0
111
1.0
121
0.0
131
0.0
112
0.0
122
1.0
132
0.0
 79
     0
146
0.0
  0
ENDTAB
  0
TABLE
  2
LTYPE
  5
5
330
0
100
AcDbSymbolTable
 70
     6
  0
LTYPE
  5
14
330
5
100
AcDbSymbolTableRecord
100
AcDbLinetypeTableRecord
  2
ByBlock
 70
     0
  3

 72
    65
 73
     0
 40
0.0
  0
LTYPE
  5
15
330
5
100
AcDbSymbolTableRecord
100
AcDbLinetypeTableRecord
  2
ByLayer
 70
     0
  3

 72
    65
 73
     0
 40
0.0
  0
LTYPE
  5
16
330
5
100
AcDbSymbolTableRecord
100
AcDbLinetypeTableRecord
  2
Continuous
 70
     0
  3
Solid line
 72
    65
 73
     0
 40
0.0
  0
LTYPE
  5
2A
330
5
100
AcDbSymbolTableRecord
100
AcDbLinetypeTableRecord
  2
HIDDEN
 70
     0
  3
Hidden __ __ __ __ __ __ __ __ __ __ __ __ __ __
 72
    65
 73
     2
 40
0.075
 49
0.05
 74
     0
 49
-0.025
 74
     0
  0
LTYPE
  5
2B
330
5
100
AcDbSymbolTableRecord
100
AcDbLinetypeTableRecord
  2
PHANTOM
 70
     0
  3
Phantom ______  __  __  ______  __  __  ______
 72
    65
 73
     6
 40
0.5
 49
0.25
 74
     0
 49
-0.05
 74
     0
 49
0.05
 74
     0
 49
-0.05
 74
     0
 49
0.05
 74
     0
 49
-0.05
 74
     0
  0
LTYPE
  5
2C
330
5
100
AcDbSymbolTableRecord
100
AcDbLinetypeTableRecord
  2
CENTER
 70
     0
  3
Center ____ _ ____ _ ____ _ ____ _ ____ _ ____
 72
    65
 73
     4
 40
0.4
 49
0.25
 74
     0
 49
-0.05
 74
     0
 49
0.05
 74
     0
 49
-0.05
 74
     0
  0
LTYPE
  5
2D
330
5
100
AcDbSymbolTableRecord
100
AcDbLinetypeTableRecord
  2
CENTERX2
 70
     0
  3
Center (2x) ________  __  ________  __  _____
 72
    65
 73
     4
 40
0.8
 49
0.5
 74
     0
 49
-0.1
 74
     0
 49
0.1
 74
     0
 49
-0.1
 74
     0
  0
LTYPE
  5
2E
330
5
100
AcDbSymbolTableRecord
100
AcDbLinetypeTableRecord
  2
DOT2
 70
     0
  3
Dot (.5x) ........................................
 72
    65
 73
     2
 40
0.025
 49
0.0
 74
     0
 49
-0.025
 74
     0
  0
ENDTAB
  0
TABLE
  2
LAYER
  5
2
330
0
100
AcDbSymbolTable
 70
     2
  0
LAYER
  5
10
330
2
100
AcDbSymbolTableRecord
100
AcDbLayerTableRecord
  2
0
 70
     0
 62
     7
  6
Continuous
370
    -3
390
F
  0
LAYER
  5
2F
330
2
100
AcDbSymbolTableRecord
100
AcDbLayerTableRecord
  2
FORMAT
 70
     0
 62
     7
  6
Continuous
370
    -3
390
F
  0
ENDTAB
  0
TABLE
  2
STYLE
  5
3
330
0
100
AcDbSymbolTable
 70
    18
  0
STYLE
  5
11
330
3
100
AcDbSymbolTableRecord
100
AcDbTextStyleTableRecord
  2
Standard
 70
     0
 40
0.0
 41
1.0
 50
0.0
 71
     0
 42
0.2
  3
txt
  4

  0
STYLE
  5
4D
330
3
100
AcDbSymbolTableRecord
100
AcDbTextStyleTableRecord
  2
SLDTEXTSTYLE0
 70
     0
 40
0.0
 41
0.75
 50
0.0
 71
     0
 42
0.2
  3
TXT
  4

  0
STYLE
  5
56
330
3
100
AcDbSymbolTableRecord
100
AcDbTextStyleTableRecord
  2
SLDTEXTSTYLE1
 70
     0
 40
0.0
 41
0.6428571429
 50
0.0
 71
     0
 42
0.2
  3
TXT
  4

  0
STYLE
  5
58
330
3
100
AcDbSymbolTableRecord
100
AcDbTextStyleTableRecord
  2
SLDTEXTSTYLE2
 70
     0
 40
0.0
 41
0.7211538462
 50
0.0
 71
     0
 42
0.2
  3
TXT
  4

  0
STYLE
  5
63
330
3
100
AcDbSymbolTableRecord
100
AcDbTextStyleTableRecord
  2
SLDTEXTSTYLE3
 70
     0
 40
0.0
 41
0.6375
 50
0.0
 71
     0
 42
0.2
  3
TXT
  4

  0
STYLE
  5
69
330
3
100
AcDbSymbolTableRecord
100
AcDbTextStyleTableRecord
  2
SLDTEXTSTYLE4
 70
     0
 40
0.0
 41
0.7016129032
 50
0.0
 71
     0
 42
0.2
  3
TXT
  4

  0
STYLE
  5
6B
330
3
100
AcDbSymbolTableRecord
100
AcDbTextStyleTableRecord
  2
SLDTEXTSTYLE5
 70
     0
 40
0.0
 41
0.6853448276
 50
0.0
 71
     0
 42
0.2
  3
TXT
  4

  0
STYLE
  5
6D
330
3
100
AcDbSymbolTableRecord
100
AcDbTextStyleTableRecord
  2
SLDTEXTSTYLE6
 70
     0
 40
0.0
 41
0.689516129
 50
0.0
 71
     0
 42
0.2
  3
TXT
  4

  0
STYLE
  5
6F
330
3
100
AcDbSymbolTableRecord
100
AcDbTextStyleTableRecord
  2
SLDTEXTSTYLE7
 70
     0
 40
0.0
 41
0.6666666667
 50
0.0
 71
     0
 42
0.2
  3
TXT
  4

  0
STYLE
  5
71
330
3
100
AcDbSymbolTableRecord
100
AcDbTextStyleTableRecord
  2
SLDTEXTSTYLE8
 70
     0
 40
0.0
 41
0.7010869565
 50
0.0
 71
     0
 42
0.2
  3
TXT
  4

  0
STYLE
  5
73
330
3
100
AcDbSymbolTableRecord
100
AcDbTextStyleTableRecord
  2
SLDTEXTSTYLE9
 70
     0
 40
0.0
 41
0.7083333333
 50
0.0
 71
     0
 42
0.2
  3
TXT
  4

  0
STYLE
  5
82
330
3
100
AcDbSymbolTableRecord
100
AcDbTextStyleTableRecord
  2
SLDTEXTSTYLE10
 70
     0
 40
0.0
 41
0.65625
 50
0.0
 71
     0
 42
0.2
  3
TXT
  4

  0
STYLE
  5
8B
330
3
100
AcDbSymbolTableRecord
100
AcDbTextStyleTableRecord
  2
SLDTEXTSTYLE11
 70
     0
 40
0.0
 41
0.69375
 50
0.0
 71
     0
 42
0.2
  3
TXT
  4

  0
STYLE
  5
8D
330
3
100
AcDbSymbolTableRecord
100
AcDbTextStyleTableRecord
  2
SLDTEXTSTYLE12
 70
     0
 40
0.0
 41
0.6988636364
 50
0.0
 71
     0
 42
0.2
  3
TXT
  4

  0
STYLE
  5
8F
330
3
100
AcDbSymbolTableRecord
100
AcDbTextStyleTableRecord
  2
SLDTEXTSTYLE13
 70
     0
 40
0.0
 41
0.7115384615
 50
0.0
 71
     0
 42
0.2
  3
TXT
  4

  0
STYLE
  5
92
330
3
100
AcDbSymbolTableRecord
100
AcDbTextStyleTableRecord
  2
SLDTEXTSTYLE14
 70
     0
 40
0.0
 41
0.6796875
 50
0.0
 71
     0
 42
0.2
  3
TXT
  4

  0
STYLE
  5
A2
330
3
100
AcDbSymbolTableRecord
100
AcDbTextStyleTableRecord
  2
SLDTEXTSTYLE15
 70
     0
 40
0.0
 41
0.6995192308
 50
0.0
 71
     0
 42
0.2
  3
TXT
  4

  0
STYLE
  5
442
330
3
100
AcDbSymbolTableRecord
100
AcDbTextStyleTableRecord
  2
SLDTEXTSTYLE16
 70
     0
 40
0.0
 41
0.7058823529
 50
0.0
 71
     0
 42
0.2
  3
TXT
  4

  0
ENDTAB
  0
TABLE
  2
VIEW
  5
6
330
0
100
AcDbSymbolTable
 70
     0
  0
ENDTAB
  0
TABLE
  2
UCS
  5
7
330
0
100
AcDbSymbolTable
 70
     0
  0
ENDTAB
  0
TABLE
  2
APPID
  5
9
330
0
100
AcDbSymbolTable
 70
     1
  0
APPID
  5
12
330
9
100
AcDbSymbolTableRecord
100
AcDbRegAppTableRecord
  2
ACAD
 70
     0
  0
ENDTAB
  0
TABLE
  2
DIMSTYLE
  5
A
330
0
100
AcDbSymbolTable
 70
     5
100
AcDbDimStyleTable
  0
DIMSTYLE
105
27
330
A
100
AcDbSymbolTableRecord
100
AcDbDimStyleTableRecord
  2
Standard
 70
     0
340
11
  0
DIMSTYLE
105
D5
102
{ACAD_REACTORS
330
D4
102
}
330
A
100
AcDbSymbolTableRecord
100
AcDbDimStyleTableRecord
  2
SLDDIMSTYLE0
 70
     0
 41
0.16
 44
0.0
 78
     4
140
0.09
147
0.0225
170
     1
171
     1
172
     1
173
     1
271
     3
272
     3
274
     1
284
    12
340
4D
  0
DIMSTYLE
105
3BF
102
{ACAD_REACTORS
330
3BE
330
3D1
330
3E3
330
3F5
330
407
330
42C
102
}
330
A
100
AcDbSymbolTableRecord
100
AcDbDimStyleTableRecord
  2
SLDDIMSTYLE1
 70
     0
 41
0.16
 44
0.0
 78
    12
140
0.09
147
0.0225
170
     1
171
     1
173
     1
271
     3
272
     3
274
     1
284
    12
340
4D
  0
DIMSTYLE
105
41A
102
{ACAD_REACTORS
330
419
102
}
330
A
100
AcDbSymbolTableRecord
100
AcDbDimStyleTableRecord
  2
SLDDIMSTYLE2
 70
     0
 41
0.16
 44
0.0
140
0.09
147
0.0225
170
     1
171
     1
173
     1
271
     3
272
     3
274
     1
284
    12
340
4D
  0
DIMSTYLE
105
446
330
A
100
AcDbSymbolTableRecord
100
AcDbDimStyleTableRecord
  2
SLDDIMSTYLE3
 70
     0
 41
0.16
 44
0.0
140
0.16
147
0.04
173
     1
271
     0
272
     0
340
11
  0
ENDTAB
  0
TABLE
  2
BLOCK_RECORD
  5
1
330
0
100
AcDbSymbolTable
 70
    21
  0
BLOCK_RECORD
  5
1F
330
1
100
AcDbSymbolTableRecord
100
AcDbBlockTableRecord
  2
*Model_Space
340
22
  0
BLOCK_RECORD
  5
1B
330
1
100
AcDbSymbolTableRecord
100
AcDbBlockTableRecord
  2
*Paper_Space
340
1E
  0
BLOCK_RECORD
  5
23
330
1
100
AcDbSymbolTableRecord
100
AcDbBlockTableRecord
  2
*Paper_Space0
340
26
  0
BLOCK_RECORD
  5
66
330
1
100
AcDbSymbolTableRecord
100
AcDbBlockTableRecord
  2
SW_NOTE_0
340
0
102
{BLKREFS
331
75
102
}
1001
ACAD
1000
DesignCenter Data
1002
{
1070
     1
1070
     0
1002
}
  0
BLOCK_RECORD
  5
7F
330
1
100
AcDbSymbolTableRecord
100
AcDbBlockTableRecord
  2
SW_NOTE_1
340
0
102
{BLKREFS
331
85
102
}
1001
ACAD
1000
DesignCenter Data
1002
{
1070
     1
1070
     0
1002
}
  0
BLOCK_RECORD
  5
87
330
1
100
AcDbSymbolTableRecord
100
AcDbBlockTableRecord
  2
SW_NOTE_2
340
0
102
{BLKREFS
331
96
102
}
1001
ACAD
1000
DesignCenter Data
1002
{
1070
     1
1070
     0
1002
}
  0
BLOCK_RECORD
  5
97
330
1
100
AcDbSymbolTableRecord
100
AcDbBlockTableRecord
  2
SW_NOTE_3
340
0
102
{BLKREFS
331
9C
102
}
1001
ACAD
1000
DesignCenter Data
1002
{
1070
     1
1070
     0
1002
}
  0
BLOCK_RECORD
  5
9E
330
1
100
AcDbSymbolTableRecord
100
AcDbBlockTableRecord
  2
SW_NOTE_4
340
0
102
{BLKREFS
331
A4
102
}
1001
ACAD
1000
DesignCenter Data
1002
{
1070
     1
1070
     0
1002
}
  0
BLOCK_RECORD
  5
A5
330
1
100
AcDbSymbolTableRecord
100
AcDbBlockTableRecord
  2
SW_TABLEANNOTATION_0
340
0
102
{BLKREFS
331
C1
102
}
1001
ACAD
1000
DesignCenter Data
1002
{
1070
     1
1070
     0
1002
}
  0
BLOCK_RECORD
  5
D6
330
1
100
AcDbSymbolTableRecord
100
AcDbBlockTableRecord
  2
*D7
340
0
  0
BLOCK_RECORD
  5
3C0
330
1
100
AcDbSymbolTableRecord
100
AcDbBlockTableRecord
  2
*D8
340
0
  0
BLOCK_RECORD
  5
3D2
330
1
100
AcDbSymbolTableRecord
100
AcDbBlockTableRecord
  2
*D9
340
0
  0
BLOCK_RECORD
  5
3E4
330
1
100
AcDbSymbolTableRecord
100
AcDbBlockTableRecord
  2
*D10
340
0
  0
BLOCK_RECORD
  5
3F6
330
1
100
AcDbSymbolTableRecord
100
AcDbBlockTableRecord
  2
*D11
340
0
  0
BLOCK_RECORD
  5
408
330
1
100
AcDbSymbolTableRecord
100
AcDbBlockTableRecord
  2
*D12
340
0
  0
BLOCK_RECORD
  5
41B
330
1
100
AcDbSymbolTableRecord
100
AcDbBlockTableRecord
  2
*D13
340
0
  0
BLOCK_RECORD
  5
42D
330
1
100
AcDbSymbolTableRecord
100
AcDbBlockTableRecord
  2
*D14
340
0
  0
BLOCK_RECORD
  5
43F
330
1
100
AcDbSymbolTableRecord
100
AcDbBlockTableRecord
  2
SW_NOTE_5
340
0
102
{BLKREFS
331
445
102
}
1001
ACAD
1000
DesignCenter Data
1002
{
1070
     1
1070
     0
1002
}
  0
BLOCK_RECORD
  5
449
330
1
100
AcDbSymbolTableRecord
100
AcDbBlockTableRecord
  2
SW_NOTE_6
340
0
102
{BLKREFS
331
44E
102
}
1001
ACAD
1000
DesignCenter Data
1002
{
1070
     1
1070
     0
1002
}
  0
BLOCK_RECORD
  5
450
330
1
100
AcDbSymbolTableRecord
100
AcDbBlockTableRecord
  2
SW_NOTE_7
340
0
102
{BLKREFS
331
455
102
}
1001
ACAD
1000
DesignCenter Data
1002
{
1070
     1
1070
     0
1002
}
  0
BLOCK_RECORD
  5
457
330
1
100
AcDbSymbolTableRecord
100
AcDbBlockTableRecord
  2
SW_NOTE_8
340
0
102
{BLKREFS
331
45C
102
}
1001
ACAD
1000
DesignCenter Data
1002
{
1070
     1
1070
     0
1002
}
  0
BLOCK_RECORD
  5
45E
330
1
100
AcDbSymbolTableRecord
100
AcDbBlockTableRecord
  2
SW_NOTE_9
340
0
102
{BLKREFS
331
463
102
}
1001
ACAD
1000
DesignCenter Data
1002
{
1070
     1
1070
     0
1002
}
  0
BLOCK_RECORD
  5
465
330
1
100
AcDbSymbolTableRecord
100
AcDbBlockTableRecord
  2
SW_NOTE_10
340
0
102
{BLKREFS
331
46A
102
}
1001
ACAD
1000
DesignCenter Data
1002
{
1070
     1
1070
     0
1002
}
  0
ENDTAB
  0
ENDSEC
  0
SECTION
  2
BLOCKS
  0
BLOCK
  5
20
330
1F
100
AcDbEntity
  8
0
100
AcDbBlockBegin
  2
*Model_Space
 70
     0
 71
     0
 10
0.0
 20
0.0
 30
0.0
  3
*Model_Space
  1

  0
ENDBLK
  5
21
330
1F
100
AcDbEntity
  8
0
100
AcDbBlockEnd
  0
BLOCK
  5
1C
330
1B
100
AcDbEntity
 67
     1
  8
0
100
AcDbBlockBegin
  2
*Paper_Space
 70
     0
 71
     0
 10
0.0
 20
0.0
 30
0.0
  3
*Paper_Space
  1

  0
ENDBLK
  5
1D
330
1B
100
AcDbEntity
 67
     1
  8
0
100
AcDbBlockEnd
  0
BLOCK
  5
24
330
23
100
AcDbEntity
  8
0
100
AcDbBlockBegin
  2
*Paper_Space0
 70
     0
 71
     0
 10
0.0
 20
0.0
 30
0.0
  3
*Paper_Space0
  1

  0
ENDBLK
  5
25
330
23
100
AcDbEntity
  8
0
100
AcDbBlockEnd
  0
BLOCK
  5
67
330
66
100
AcDbEntity
  8
0
100
AcDbBlockBegin
  2
SW_NOTE_0
 70
     0
 71
     0
 10
0.0
 20
0.0
 30
0.0
  3
SW_NOTE_0
  1

  0
MTEXT
  5
6A
330
66
100
AcDbEntity
  8
0
  6
Continuous
 62
     0
370
     0
100
AcDbMText
 10
0.0
 20
0.076640625
 30
0.0
 40
0.06
 41
0.0
 71
     1
 72
     1
  1
THE INFORMATION CONTAINED IN THIS
  7
SLDTEXTSTYLE4
 73
     1
 44
1.0
  0
MTEXT
  5
6C
330
66
100
AcDbEntity
  8
0
  6
Continuous
 62
     0
370
     0
100
AcDbMText
 10
0.0
 20
-0.0227294496
 30
0.0
 40
0.06
 41
0.0
 71
     1
 72
     1
  1
DRAWING IS THE SOLE PROPERTY OF
  7
SLDTEXTSTYLE5
 73
     1
 44
1.0
  0
MTEXT
  5
6E
330
66
100
AcDbEntity
  8
0
  6
Continuous
 62
     0
370
     0
100
AcDbMText
 10
0.0
 20
-0.1220995241
 30
0.0
 40
0.06
 41
0.0
 71
     1
 72
     1
  1
THORLABS, INC.  ANY REPRODUCTION 
  7
SLDTEXTSTYLE6
 73
     1
 44
1.0
  0
MTEXT
  5
70
330
66
100
AcDbEntity
  8
0
  6
Continuous
 62
     0
370
     0
100
AcDbMText
 10
0.0
 20
-0.2214695987
 30
0.0
 40
0.06
 41
0.0
 71
     1
 72
     1
  1
IN PART OR AS A WHOLE WITHOUT
  7
SLDTEXTSTYLE7
 73
     1
 44
1.0
  0
MTEXT
  5
72
330
66
100
AcDbEntity
  8
0
  6
Continuous
 62
     0
370
     0
100
AcDbMText
 10
0.0
 20
-0.3208396733
 30
0.0
 40
0.06
 41
0.0
 71
     1
 72
     1
  1
THE WRITTEN PERMISSION OF
  7
SLDTEXTSTYLE8
 73
     1
 44
1.0
  0
MTEXT
  5
74
330
66
100
AcDbEntity
  8
0
  6
Continuous
 62
     0
370
     0
100
AcDbMText
 10
0.0
 20
-0.4202097478
 30
0.0
 40
0.06
 41
0.0
 71
     1
 72
     1
  1
THORLABS, INC. IS PROHIBITED.
  7
SLDTEXTSTYLE9
 73
     1
 44
1.0
  0
ENDBLK
  5
68
330
66
100
AcDbEntity
  8
0
100
AcDbBlockEnd
  0
BLOCK
  5
80
330
7F
100
AcDbEntity
  8
0
100
AcDbBlockBegin
  2
SW_NOTE_1
 70
     0
 71
     0
 10
0.0
 20
0.0
 30
0.0
  3
SW_NOTE_1
  1

  0
MTEXT
  5
83
330
7F
100
AcDbEntity
  8
0
  6
Continuous
 62
     0
370
     0
100
AcDbMText
 10
0.0
 20
0.1149609375
 30
0.0
 40
0.09
 41
0.0
 71
     1
 72
     1
  1
PO BOX 366
  7
SLDTEXTSTYLE10
 73
     1
 44
1.0
  0
MTEXT
  5
84
330
7F
100
AcDbEntity
  8
0
  6
Continuous
 62
     0
370
     0
100
AcDbMText
 10
0.0
 20
-0.0144091455
 30
0.0
 40
0.09
 41
0.0
 71
     1
 72
     1
  1
NEWTON NJ
  7
SLDTEXTSTYLE0
 73
     1
 44
1.0
  0
ENDBLK
  5
81
330
7F
100
AcDbEntity
  8
0
100
AcDbBlockEnd
  0
BLOCK
  5
88
330
87
100
AcDbEntity
  8
0
100
AcDbBlockBegin
  2
SW_NOTE_2
 70
     0
 71
     0
 10
0.0
 20
0.0
 30
0.0
  3
SW_NOTE_2
  1

  0
LINE
  5
8A
330
87
100
AcDbEntity
  8
0
  6
Continuous
 62
     0
370
     0
100
AcDbLine
 10
1.0817708433
 20
-0.6526041506
 30
0.0
 11
1.4039930543
 21
-0.6526041506
 31
0.0
  0
MTEXT
  5
8C
330
87
100
AcDbEntity
  8
0
  6
Continuous
 62
     0
370
     0
100
AcDbMText
 10
0.0
 20
0.1197509766
 30
0.0
 40
0.09375
 41
0.0
 71
     1
 72
     1
  1
DESIGN WAVELENGTH:  486.1, 587.6 & 656.3nm
  7
SLDTEXTSTYLE11
 73
     1
 44
1.0
  0
MTEXT
  5
8E
330
87
100
AcDbEntity
  8
0
  6
Continuous
 62
     0
370
     0
100
AcDbMText
 10
0.0
 20
-0.0052490219
 30
0.0
 40
0.09375
 41
0.0
 71
     1
 72
     1
  1
COATING:  BBAR 400-700nm
  7
SLDTEXTSTYLE12
 73
     1
 44
1.0
  0
MTEXT
  5
90
330
87
100
AcDbEntity
  8
0
  6
Continuous
 62
     0
370
     0
100
AcDbMText
 10
0.0
 20
-0.1302490204
 30
0.0
 40
0.09375
 41
0.0
 71
     1
 72
     1
  1
COATING RANGE: R(AVG)<0.5% FROM 400-700nm
  7
SLDTEXTSTYLE13
 73
     1
 44
1.0
  0
MTEXT
  5
91
330
87
100
AcDbEntity
  8
0
  6
Continuous
 62
     0
370
     0
100
AcDbMText
 10
0.0
 20
-0.2552490189
 30
0.0
 40
0.09375
 41
0.0
 71
     1
 72
     1
  1
MAGNIFICATION: 1:1.5
  7
SLDTEXTSTYLE0
 73
     1
 44
1.0
  0
MTEXT
  5
93
330
87
100
AcDbEntity
  8
0
  6
Continuous
 62
     0
370
     0
100
AcDbMText
 10
0.0
 20
-0.6091552547
 30
0.0
 40
0.09375
 41
0.0
 71
     1
 72
     1
  1
Dimensions are in 
  7
SLDTEXTSTYLE14
 73
     1
 44
1.0
  0
MTEXT
  5
94
330
87
100
AcDbEntity
  8
0
  6
Continuous
 62
     0
370
     0
100
AcDbMText
 10
1.0817708433
 20
-0.5052490159
 30
0.0
 40
0.09375
 41
0.0
 71
     1
 72
     1
  1
[mm]
  7
SLDTEXTSTYLE0
 73
     1
 44
1.0
  0
MTEXT
  5
95
330
87
100
AcDbEntity
  8
0
  6
Continuous
 62
     0
370
     0
100
AcDbMText
 10
1.1922743109
 20
-0.6854573399
 30
0.0
 40
0.09375
 41
0.0
 71
     1
 72
     1
  1
in
  7
SLDTEXTSTYLE0
 73
     1
 44
1.0
  0
ENDBLK
  5
89
330
87
100
AcDbEntity
  8
0
100
AcDbBlockEnd
  0
BLOCK
  5
98
330
97
100
AcDbEntity
  8
0
100
AcDbBlockBegin
  2
SW_NOTE_3
 70
     0
 71
     0
 10
0.0
 20
0.0
 30
0.0
  3
SW_NOTE_3
  1

  0
MTEXT
  5
9A
330
97
100
AcDbEntity
  8
0
  6
Continuous
 62
     0
370
     0
100
AcDbMText
 10
0.0
 20
0.1463623047
 30
0.0
 40
0.1145833333
 41
0.0
 71
     1
 72
     1
  1
Matched Achromatic Pair 
  7
SLDTEXTSTYLE12
 73
     1
 44
1.0
  0
MTEXT
  5
9B
330
97
100
AcDbEntity
  8
0
  6
Continuous
 62
     0
370
     0
100
AcDbMText
 10
0.0
 20
-0.0064154712
 30
0.0
 40
0.1145833333
 41
0.0
 71
     1
 72
     1
  1
F1=50mm, F2=75mm
  7
SLDTEXTSTYLE0
 73
     1
 44
1.0
  0
ENDBLK
  5
99
330
97
100
AcDbEntity
  8
0
100
AcDbBlockEnd
  0
BLOCK
  5
9F
330
9E
100
AcDbEntity
  8
0
100
AcDbBlockBegin
  2
SW_NOTE_4
 70
     0
 71
     0
 10
0.0
 20
0.0
 30
0.0
  3
SW_NOTE_4
  1

  0
MTEXT
  5
A1
330
9E
100
AcDbEntity
  8
0
  6
Continuous
 62
     0
370
     0
100
AcDbMText
 10
0.0
 20
0.1149609375
 30
0.0
 40
0.09
 41
0.0
 71
     1
 72
     1
  1
NOTE:
  7
SLDTEXTSTYLE0
 73
     1
 44
1.0
  0
MTEXT
  5
A3
330
9E
100
AcDbEntity
  8
0
  6
Continuous
 62
     0
370
     0
100
AcDbMText
 10
0.0
 20
-0.0144091455
 30
0.0
 40
0.09
 41
0.0
 71
     1
 72
     1
  1
FOR INFORMATION ONLY.  NOT INTENDED FOR MANUFACTURING.
  7
SLDTEXTSTYLE15
 73
     1
 44
1.0
  0
ENDBLK
  5
A0
330
9E
100
AcDbEntity
  8
0
100
AcDbBlockEnd
  0
BLOCK
  5
A6
330
A5
100
AcDbEntity
  8
0
100
AcDbBlockBegin
  2
SW_TABLEANNOTATION_0
 70
     0
 71
     0
 10
0.0
 20
0.0
 30
0.0
  3
SW_TABLEANNOTATION_0
  1

  0
LINE
  5
A8
330
A5
100
AcDbEntity
  8
0
  6
Continuous
 62
     0
370
     0
100
AcDbLine
 10
0.0
 20
0.0
 30
0.0
 11
0.0
 21
-0.7787253843
 31
0.0
  0
LINE
  5
A9
330
A5
100
AcDbEntity
  8
0
  6
Continuous
 62
     0
370
     0
100
AcDbLine
 10
0.0
 20
-0.7787253843
 30
0.0
 11
3.4645866928
 21
-0.7787253843
 31
0.0
  0
LINE
  5
AA
330
A5
100
AcDbEntity
  8
0
  6
Continuous
 62
     0
370
     0
100
AcDbLine
 10
3.4645866928
 20
-0.7787253843
 30
0.0
 11
3.4645866928
 21
0.0
 31
0.0
  0
LINE
  5
AB
330
A5
100
AcDbEntity
  8
0
  6
Continuous
 62
     0
370
     0
100
AcDbLine
 10
3.4645866928
 20
0.0
 30
0.0
 11
0.0
 21
0.0
 31
0.0
  0
LINE
  5
AC
330
A5
100
AcDbEntity
  8
0
  6
Continuous
 62
     0
370
     0
100
AcDbLine
 10
1.1548622309
 20
0.0
 30
0.0
 11
1.1548622309
 21
-0.7787253843
 31
0.0
  0
LINE
  5
AD
330
A5
100
AcDbEntity
  8
0
  6
Continuous
 62
     0
370
     0
100
AcDbLine
 10
2.3097244619
 20
0.0
 30
0.0
 11
2.3097244619
 21
-0.7787253843
 31
0.0
  0
LINE
  5
AE
330
A5
100
AcDbEntity
  8
0
  6
Continuous
 62
     0
370
     0
100
AcDbLine
 10
0.0
 20
-0.1557450769
 30
0.0
 11
3.4645866928
 21
-0.1557450769
 31
0.0
  0
LINE
  5
AF
330
A5
100
AcDbEntity
  8
0
  6
Continuous
 62
     0
370
     0
100
AcDbLine
 10
0.0
 20
-0.3114901537
 30
0.0
 11
3.4645866928
 21
-0.3114901537
 31
0.0
  0
LINE
  5
B0
330
A5
100
AcDbEntity
  8
0
  6
Continuous
 62
     0
370
     0
100
AcDbLine
 10
0.0
 20
-0.4672352306
 30
0.0
 11
3.4645866928
 21
-0.4672352306
 31
0.0
  0
LINE
  5
B1
330
A5
100
AcDbEntity
  8
0
  6
Continuous
 62
     0
370
     0
100
AcDbLine
 10
0.0
 20
-0.6229803075
 30
0.0
 11
3.4645866928
 21
-0.6229803075
 31
0.0
  0
MTEXT
  5
B2
330
A5
100
AcDbEntity
  8
0
  6
Continuous
 62
     0
370
     0
100
AcDbMText
 10
0.4355561111
 20
-0.0320134969
 30
0.0
 40
0.09
 41
0.0
 71
     1
 72
     1
  1
PART
  7
SLDTEXTSTYLE0
 73
     1
 44
1.0
  0
MTEXT
  5
B3
330
A5
100
AcDbEntity
  8
0
  6
Continuous
 62
     0
370
     0
100
AcDbMText
 10
1.4606683143
 20
-0.0320134969
 30
0.0
 40
0.09
 41
0.0
 71
     1
 72
     1
  1
PART NO.
  7
SLDTEXTSTYLE0
 73
     1
 44
1.0
  0
MTEXT
  5
B4
330
A5
100
AcDbEntity
  8
0
  6
Continuous
 62
     0
370
     0
100
AcDbMText
 10
2.6078430823
 20
-0.0320134969
 30
0.0
 40
0.09
 41
0.0
 71
     1
 72
     1
  1
MATERIAL
  7
SLDTEXTSTYLE0
 73
     1
 44
1.0
  0
MTEXT
  5
B5
330
A5
100
AcDbEntity
  8
0
  6
Continuous
 62
     0
370
     0
100
AcDbMText
 10
0.5330561156
 20
-0.1877585737
 30
0.0
 40
0.09
 41
0.0
 71
     1
 72
     1
  1
A
  7
SLDTEXTSTYLE0
 73
     1
 44
1.0
  0
MTEXT
  5
B6
330
A5
100
AcDbEntity
  8
0
  6
Continuous
 62
     0
370
     0
100
AcDbMText
 10
1.3221683642
 20
-0.1877585737
 30
0.0
 40
0.09
 41
0.0
 71
     1
 72
     1
  1
AC254-050-A1
  7
SLDTEXTSTYLE0
 73
     1
 44
1.0
  0
MTEXT
  5
B7
330
A5
100
AcDbEntity
  8
0
  6
Continuous
 62
     0
370
     0
100
AcDbMText
 10
2.5674055878
 20
-0.1877585737
 30
0.0
 40
0.09
 41
0.0
 71
     1
 72
     1
  1
BAF10-SF10
  7
SLDTEXTSTYLE0
 73
     1
 44
1.0
  0
MTEXT
  5
B8
330
A5
100
AcDbEntity
  8
0
  6
Continuous
 62
     0
370
     0
100
AcDbMText
 10
0.5429936162
 20
-0.3435036506
 30
0.0
 40
0.09
 41
0.0
 71
     1
 72
     1
  1
B
  7
SLDTEXTSTYLE0
 73
     1
 44
1.0
  0
MTEXT
  5
B9
330
A5
100
AcDbEntity
  8
0
  6
Continuous
 62
     0
370
     0
100
AcDbMText
 10
1.3221683642
 20
-0.3435036506
 30
0.0
 40
0.09
 41
0.0
 71
     1
 72
     1
  1
AC254-075-A1
  7
SLDTEXTSTYLE0
 73
     1
 44
1.0
  0
MTEXT
  5
BA
330
A5
100
AcDbEntity
  8
0
  6
Continuous
 62
     0
370
     0
100
AcDbMText
 10
2.6719055723
 20
-0.3435036506
 30
0.0
 40
0.09
 41
0.0
 71
     1
 72
     1
  1
BK7-SF5
  7
SLDTEXTSTYLE0
 73
     1
 44
1.0
  0
MTEXT
  5
BB
330
A5
100
AcDbEntity
  8
0
  6
Continuous
 62
     0
370
     0
100
AcDbMText
 10
0.5286811132
 20
-0.4992487275
 30
0.0
 40
0.09
 41
0.0
 71
     1
 72
     1
  1
C
  7
SLDTEXTSTYLE0
 73
     1
 44
1.0
  0
MTEXT
  5
BC
330
A5
100
AcDbEntity
  8
0
  6
Continuous
 62
     0
370
     0
100
AcDbMText
 10
1.3650433389
 20
-0.4992487275
 30
0.0
 40
0.09
 41
0.0
 71
     1
 72
     1
  1
LENS MOUNT
  7
SLDTEXTSTYLE0
 73
     1
 44
1.0
  0
MTEXT
  5
BD
330
A5
100
AcDbEntity
  8
0
  6
Continuous
 62
     0
370
     0
100
AcDbMText
 10
2.3399055926
 20
-0.4992487275
 30
0.0
 40
0.09
 41
0.0
 71
     1
 72
     1
  1
6061-T6 ALUMINUM
  7
SLDTEXTSTYLE0
 73
     1
 44
1.0
  0
MTEXT
  5
BE
330
A5
100
AcDbEntity
  8
0
  6
Continuous
 62
     0
370
     0
100
AcDbMText
 10
0.532806116
 20
-0.6549938043
 30
0.0
 40
0.09
 41
0.0
 71
     1
 72
     1
  1
D
  7
SLDTEXTSTYLE0
 73
     1
 44
1.0
  0
MTEXT
  5
BF
330
A5
100
AcDbEntity
  8
0
  6
Continuous
 62
     0
370
     0
100
AcDbMText
 10
1.541168336
 20
-0.6549938043
 30
0.0
 40
0.09
 41
0.0
 71
     1
 72
     1
  1
SM1RR
  7
SLDTEXTSTYLE0
 73
     1
 44
1.0
  0
MTEXT
  5
C0
330
A5
100
AcDbEntity
  8
0
  6
Continuous
 62
     0
370
     0
100
AcDbMText
 10
2.3399055926
 20
-0.6549938043
 30
0.0
 40
0.09
 41
0.0
 71
     1
 72
     1
  1
6061-T6 ALUMINUM
  7
SLDTEXTSTYLE0
 73
     1
 44
1.0
  0
ENDBLK
  5
A7
330
A5
100
AcDbEntity
  8
0
100
AcDbBlockEnd
  0
BLOCK
  5
D7
330
D6
100
AcDbEntity
  8
0
100
AcDbBlockBegin
  2
*D7
 70
     1
 71
     0
 10
0.0
 20
0.0
 30
0.0
  3
*D7
  1

  0
SOLID
  5
D9
330
D6
100
AcDbEntity
  8
0
  6
Continuous
 62
     7
370
     0
100
AcDbTrace
 10
1.8632456208
 20
4.8511418738
 30
0.0
 11
1.7682011442
 21
4.9824527548
 31
0.0
 12
1.7315134293
 22
4.9456015462
 32
0.0
 13
1.7315134293
 23
4.9456015462
 33
0.0
  0
LINE
  5
DA
330
D6
100
AcDbEntity
  8
0
  6
Continuous
 62
     7
370
     0
100
AcDbLine
 10
0.8730506377
 20
5.3001683767
 30
0.0
 11
0.8730506377
 21
5.1788221121
 31
0.0
  0
LINE
  5
DB
330
D6
100
AcDbEntity
  8
0
  6
Continuous
 62
     7
370
     0
100
AcDbLine
 10
0.8730506377
 20
5.1788221121
 30
0.0
 11
0.8913140618
 21
5.1788221121
 31
0.0
  0
LINE
  5
DC
330
D6
100
AcDbEntity
  8
0
  6
Continuous
 62
     7
370
     0
100
AcDbLine
 10
0.8730506377
 20
5.3001683767
 30
0.0
 11
0.8913140618
 21
5.3001683767
 31
0.0
  0
LINE
  5
DD
330
D6
100
AcDbEntity
  8
0
  6
Continuous
 62
     7
370
     0
100
AcDbLine
 10
1.1787992758
 20
5.3001683767
 30
0.0
 11
1.1787992758
 21
5.1788221121
 31
0.0
  0
LINE
  5
DE
330
D6
100
AcDbEntity
  8
0
  6
Continuous
 62
     7
370
     0
100
AcDbLine
 10
1.1787992758
 20
5.1788221121
 30
0.0
 11
1.1605358517
 21
5.1788221121
 31
0.0
  0
LINE
  5
DF
330
D6
100
AcDbEntity
  8
0
  6
Continuous
 62
     7
370
     0
100
AcDbLine
 10
1.1787992758
 20
5.3001683767
 30
0.0
 11
1.1605358517
 21
5.3001683767
 31
0.0
  0
LINE
  5
E0
330
D6
100
AcDbEntity
  8
0
  6
Continuous
 62
     7
370
     0
100
AcDbLine
 10
1.8632456208
 20
4.8511418738
 30
0.0
 11
1.5448598595
 21
5.1681150888
 31
0.0
  0
LINE
  5
E1
330
D6
100
AcDbEntity
  8
0
  6
Continuous
 62
     7
370
     0
100
AcDbLine
 10
1.5448598595
 20
5.1681150888
 30
0.0
 11
1.2948598595
 21
5.1681150888
 31
0.0
  0
MTEXT
  5
E2
330
D6
100
AcDbEntity
  8
0
  6
Continuous
 62
     7
370
     0
100
AcDbMText
 10
0.8120828167
 20
5.140315715
 30
0.0
 40
0.09
 41
0.0
 71
     1
 72
     1
  1
%%c
  7
SLDTEXTSTYLE0
 73
     1
 44
1.0
  0
MTEXT
  5
E3
330
D6
100
AcDbEntity
  8
0
  6
Continuous
 62
     7
370
     0
100
AcDbMText
 10
0.9405670968
 20
5.1403157219
 30
0.0
 40
0.09
 41
0.0
 71
     1
 72
     1
  1
1.200
  7
SLDTEXTSTYLE0
 73
     1
 44
1.0
  0
MTEXT
  5
E4
330
D6
100
AcDbEntity
  8
0
  6
Continuous
 62
     7
370
     0
100
AcDbMText
 10
0.9095774859
 20
5.2830760332
 30
0.0
 40
0.09
 41
0.0
 71
     1
 72
     1
  1
30.5
  7
SLDTEXTSTYLE0
 73
     1
 44
1.0
  0
ENDBLK
  5
D8
330
D6
100
AcDbEntity
  8
0
100
AcDbBlockEnd
  0
BLOCK
  5
3C1
330
3C0
100
AcDbEntity
  8
0
100
AcDbBlockBegin
  2
*D8
 70
     1
 71
     0
 10
0.0
 20
0.0
 30
0.0
  3
*D8
  1

  0
SOLID
  5
3C3
330
3C0
100
AcDbEntity
  8
0
  6
Continuous
 62
     7
370
     0
100
AcDbTrace
 10
9.5693607719
 20
3.1794180271
 30
0.0
 11
9.4093607719
 21
3.2054180271
 31
0.0
 12
9.4093607719
 22
3.1534180271
 32
0.0
 13
9.4093607719
 23
3.1534180271
 33
0.0
  0
SOLID
  5
3C4
330
3C0
100
AcDbEntity
  8
0
  6
Continuous
 62
     7
370
     0
100
AcDbTrace
 10
8.0841639216
 20
3.1794180271
 30
0.0
 11
8.2441639216
 21
3.1534180271
 31
0.0
 12
8.2441639216
 22
3.2054180271
 32
0.0
 13
8.2441639216
 23
3.2054180271
 33
0.0
  0
LINE
  5
3C5
330
3C0
100
AcDbEntity
  8
0
  6
Continuous
 62
     7
370
     0
100
AcDbLine
 10
8.7445326235
 20
3.3114713151
 30
0.0
 11
8.7445326235
 21
3.1901250505
 31
0.0
  0
LINE
  5
3C6
330
3C0
100
AcDbEntity
  8
0
  6
Continuous
 62
     7
370
     0
100
AcDbLine
 10
8.7445326235
 20
3.1901250505
 30
0.0
 11
8.7627960476
 21
3.1901250505
 31
0.0
  0
LINE
  5
3C7
330
3C0
100
AcDbEntity
  8
0
  6
Continuous
 62
     7
370
     0
100
AcDbLine
 10
8.7445326235
 20
3.3114713151
 30
0.0
 11
8.7627960476
 21
3.3114713151
 31
0.0
  0
LINE
  5
3C8
330
3C0
100
AcDbEntity
  8
0
  6
Continuous
 62
     7
370
     0
100
AcDbLine
 10
9.0502812616
 20
3.3114713151
 30
0.0
 11
9.0502812616
 21
3.1901250505
 31
0.0
  0
LINE
  5
3C9
330
3C0
100
AcDbEntity
  8
0
  6
Continuous
 62
     7
370
     0
100
AcDbLine
 10
9.0502812616
 20
3.1901250505
 30
0.0
 11
9.0320178375
 21
3.1901250505
 31
0.0
  0
LINE
  5
3CA
330
3C0
100
AcDbEntity
  8
0
  6
Continuous
 62
     7
370
     0
100
AcDbLine
 10
9.0502812616
 20
3.3114713151
 30
0.0
 11
9.0320178375
 21
3.3114713151
 31
0.0
  0
LINE
  5
3CB
330
3C0
100
AcDbEntity
  8
0
  6
Continuous
 62
     7
370
     0
100
AcDbLine
 10
9.5693607719
 20
4.3778220859
 30
0.0
 11
9.5693607719
 21
3.0544180271
 31
0.0
  0
LINE
  5
3CC
330
3C0
100
AcDbEntity
  8
0
  6
Continuous
 62
     7
370
     0
100
AcDbLine
 10
8.0841639216
 20
3.7878220859
 30
0.0
 11
8.0841639216
 21
3.0544180271
 31
0.0
  0
LINE
  5
3CD
330
3C0
100
AcDbEntity
  8
0
  6
Continuous
 62
     7
370
     0
100
AcDbLine
 10
9.5693607719
 20
3.1794180271
 30
0.0
 11
9.167571534
 21
3.1794180271
 31
0.0
  0
LINE
  5
3CE
330
3C0
100
AcDbEntity
  8
0
  6
Continuous
 62
     7
370
     0
100
AcDbLine
 10
8.0841639216
 20
3.1794180271
 30
0.0
 11
8.6272423511
 21
3.1794180271
 31
0.0
  0
MTEXT
  5
3CF
330
3C0
100
AcDbEntity
  8
0
  6
Continuous
 62
     7
370
     0
100
AcDbMText
 10
8.7478069425
 20
3.1516186602
 30
0.0
 40
0.09
 41
0.0
 71
     1
 72
     1
  1
1.485
  7
SLDTEXTSTYLE0
 73
     1
 44
1.0
  0
MTEXT
  5
3D0
330
3C0
100
AcDbEntity
  8
0
  6
Continuous
 62
     7
370
     0
100
AcDbMText
 10
8.7810594717
 20
3.2943789715
 30
0.0
 40
0.09
 41
0.0
 71
     1
 72
     1
  1
37.7
  7
SLDTEXTSTYLE0
 73
     1
 44
1.0
  0
ENDBLK
  5
3C2
330
3C0
100
AcDbEntity
  8
0
100
AcDbBlockEnd
  0
BLOCK
  5
3D3
330
3D2
100
AcDbEntity
  8
0
100
AcDbBlockBegin
  2
*D9
 70
     1
 71
     0
 10
0.0
 20
0.0
 30
0.0
  3
*D9
  1

  0
SOLID
  5
3D5
330
3D2
100
AcDbEntity
  8
0
  6
Continuous
 62
     7
370
     0
100
AcDbTrace
 10
4.0106599845
 20
3.1141299044
 30
0.0
 11
4.1706599845
 21
3.0881299044
 31
0.0
 12
4.1706599845
 22
3.1401299044
 32
0.0
 13
4.1706599845
 23
3.1401299044
 33
0.0
  0
SOLID
  5
3D6
330
3D2
100
AcDbEntity
  8
0
  6
Continuous
 62
     7
370
     0
100
AcDbTrace
 10
6.5991639216
 20
3.1141299044
 30
0.0
 11
6.4391639216
 21
3.1401299044
 31
0.0
 12
6.4391639216
 22
3.0881299044
 32
0.0
 13
6.4391639216
 23
3.0881299044
 33
0.0
  0
LINE
  5
3D7
330
3D2
100
AcDbEntity
  8
0
  6
Continuous
 62
     7
370
     0
100
AcDbLine
 10
5.1077069253
 20
3.2461831923
 30
0.0
 11
5.1077069253
 21
3.1248369278
 31
0.0
  0
LINE
  5
3D8
330
3D2
100
AcDbEntity
  8
0
  6
Continuous
 62
     7
370
     0
100
AcDbLine
 10
5.1077069253
 20
3.1248369278
 30
0.0
 11
5.1259703494
 21
3.1248369278
 31
0.0
  0
LINE
  5
3D9
330
3D2
100
AcDbEntity
  8
0
  6
Continuous
 62
     7
370
     0
100
AcDbLine
 10
5.1077069253
 20
3.2461831923
 30
0.0
 11
5.1259703494
 21
3.2461831923
 31
0.0
  0
LINE
  5
3DA
330
3D2
100
AcDbEntity
  8
0
  6
Continuous
 62
     7
370
     0
100
AcDbLine
 10
5.4134555635
 20
3.2461831923
 30
0.0
 11
5.4134555635
 21
3.1248369278
 31
0.0
  0
LINE
  5
3DB
330
3D2
100
AcDbEntity
  8
0
  6
Continuous
 62
     7
370
     0
100
AcDbLine
 10
5.4134555635
 20
3.1248369278
 30
0.0
 11
5.3951921393
 21
3.1248369278
 31
0.0
  0
LINE
  5
3DC
330
3D2
100
AcDbEntity
  8
0
  6
Continuous
 62
     7
370
     0
100
AcDbLine
 10
5.4134555635
 20
3.2461831923
 30
0.0
 11
5.3951921393
 21
3.2461831923
 31
0.0
  0
LINE
  5
3DD
330
3D2
100
AcDbEntity
  8
0
  6
Continuous
 62
     7
370
     0
100
AcDbLine
 10
4.0106599845
 20
4.3778220859
 30
0.0
 11
4.0106599845
 21
2.9891299044
 31
0.0
  0
LINE
  5
3DE
330
3D2
100
AcDbEntity
  8
0
  6
Continuous
 62
     7
370
     0
100
AcDbLine
 10
6.5991639216
 20
3.7878220859
 30
0.0
 11
6.5991639216
 21
2.9891299044
 31
0.0
  0
LINE
  5
3DF
330
3D2
100
AcDbEntity
  8
0
  6
Continuous
 62
     7
370
     0
100
AcDbLine
 10
4.0106599845
 20
3.1141299044
 30
0.0
 11
4.9904166529
 21
3.1141299044
 31
0.0
  0
LINE
  5
3E0
330
3D2
100
AcDbEntity
  8
0
  6
Continuous
 62
     7
370
     0
100
AcDbLine
 10
6.5991639216
 20
3.1141299044
 30
0.0
 11
5.5307458358
 21
3.1141299044
 31
0.0
  0
MTEXT
  5
3E1
330
3D2
100
AcDbEntity
  8
0
  6
Continuous
 62
     7
370
     0
100
AcDbMText
 10
5.1109812444
 20
3.0863305375
 30
0.0
 40
0.09
 41
0.0
 71
     1
 72
     1
  1
2.589
  7
SLDTEXTSTYLE0
 73
     1
 44
1.0
  0
MTEXT
  5
3E2
330
3D2
100
AcDbEntity
  8
0
  6
Continuous
 62
     7
370
     0
100
AcDbMText
 10
5.1442337736
 20
3.2290908488
 30
0.0
 40
0.09
 41
0.0
 71
     1
 72
     1
  1
65.7
  7
SLDTEXTSTYLE0
 73
     1
 44
1.0
  0
ENDBLK
  5
3D4
330
3D2
100
AcDbEntity
  8
0
100
AcDbBlockEnd
  0
BLOCK
  5
3E5
330
3E4
100
AcDbEntity
  8
0
100
AcDbBlockBegin
  2
*D10
 70
     1
 71
     0
 10
0.0
 20
0.0
 30
0.0
  3
*D10
  1

  0
SOLID
  5
3E7
330
3E4
100
AcDbEntity
  8
0
  6
Continuous
 62
     7
370
     0
100
AcDbTrace
 10
4.0106599845
 20
5.2415645789
 30
0.0
 11
4.1706599845
 21
5.2155645789
 31
0.0
 12
4.1706599845
 22
5.2675645789
 32
0.0
 13
4.1706599845
 23
5.2675645789
 33
0.0
  0
SOLID
  5
3E8
330
3E4
100
AcDbEntity
  8
0
  6
Continuous
 62
     7
370
     0
100
AcDbTrace
 10
6.7986805006
 20
5.2415645789
 30
0.0
 11
6.6386805006
 21
5.2675645789
 31
0.0
 12
6.6386805006
 22
5.2155645789
 32
0.0
 13
6.6386805006
 23
5.2155645789
 33
0.0
  0
LINE
  5
3E9
330
3E4
100
AcDbEntity
  8
0
  6
Continuous
 62
     7
370
     0
100
AcDbLine
 10
5.1077069253
 20
5.3736178669
 30
0.0
 11
5.1077069253
 21
5.2522716023
 31
0.0
  0
LINE
  5
3EA
330
3E4
100
AcDbEntity
  8
0
  6
Continuous
 62
     7
370
     0
100
AcDbLine
 10
5.1077069253
 20
5.2522716023
 30
0.0
 11
5.1259703494
 21
5.2522716023
 31
0.0
  0
LINE
  5
3EB
330
3E4
100
AcDbEntity
  8
0
  6
Continuous
 62
     7
370
     0
100
AcDbLine
 10
5.1077069253
 20
5.3736178669
 30
0.0
 11
5.1259703494
 21
5.3736178669
 31
0.0
  0
LINE
  5
3EC
330
3E4
100
AcDbEntity
  8
0
  6
Continuous
 62
     7
370
     0
100
AcDbLine
 10
5.4134555635
 20
5.3736178669
 30
0.0
 11
5.4134555635
 21
5.2522716023
 31
0.0
  0
LINE
  5
3ED
330
3E4
100
AcDbEntity
  8
0
  6
Continuous
 62
     7
370
     0
100
AcDbLine
 10
5.4134555635
 20
5.2522716023
 30
0.0
 11
5.3951921393
 21
5.2522716023
 31
0.0
  0
LINE
  5
3EE
330
3E4
100
AcDbEntity
  8
0
  6
Continuous
 62
     7
370
     0
100
AcDbLine
 10
5.4134555635
 20
5.3736178669
 30
0.0
 11
5.3951921393
 21
5.3736178669
 31
0.0
  0
LINE
  5
3EF
330
3E4
100
AcDbEntity
  8
0
  6
Continuous
 62
     7
370
     0
100
AcDbLine
 10
4.0106599845
 20
4.4778220859
 30
0.0
 11
4.0106599845
 21
5.3665645789
 31
0.0
  0
LINE
  5
3F0
330
3E4
100
AcDbEntity
  8
0
  6
Continuous
 62
     7
370
     0
100
AcDbLine
 10
6.7986805006
 20
4.4778220859
 30
0.0
 11
6.7986805006
 21
5.3665645789
 31
0.0
  0
LINE
  5
3F1
330
3E4
100
AcDbEntity
  8
0
  6
Continuous
 62
     7
370
     0
100
AcDbLine
 10
4.0106599845
 20
5.2415645789
 30
0.0
 11
4.9904166529
 21
5.2415645789
 31
0.0
  0
LINE
  5
3F2
330
3E4
100
AcDbEntity
  8
0
  6
Continuous
 62
     7
370
     0
100
AcDbLine
 10
6.7986805006
 20
5.2415645789
 30
0.0
 11
5.5307458358
 21
5.2415645789
 31
0.0
  0
MTEXT
  5
3F3
330
3E4
100
AcDbEntity
  8
0
  6
Continuous
 62
     7
370
     0
100
AcDbMText
 10
5.1109812444
 20
5.213765212
 30
0.0
 40
0.09
 41
0.0
 71
     1
 72
     1
  1
2.788
  7
SLDTEXTSTYLE0
 73
     1
 44
1.0
  0
MTEXT
  5
3F4
330
3E4
100
AcDbEntity
  8
0
  6
Continuous
 62
     7
370
     0
100
AcDbMText
 10
5.1442337736
 20
5.3565255233
 30
0.0
 40
0.09
 41
0.0
 71
     1
 72
     1
  1
70.8
  7
SLDTEXTSTYLE0
 73
     1
 44
1.0
  0
ENDBLK
  5
3E6
330
3E4
100
AcDbEntity
  8
0
100
AcDbBlockEnd
  0
BLOCK
  5
3F7
330
3F6
100
AcDbEntity
  8
0
100
AcDbBlockBegin
  2
*D11
 70
     1
 71
     0
 10
0.0
 20
0.0
 30
0.0
  3
*D11
  1

  0
SOLID
  5
3F9
330
3F6
100
AcDbEntity
  8
0
  6
Continuous
 62
     7
370
     0
100
AcDbTrace
 10
9.5693607719
 20
5.2231085564
 30
0.0
 11
9.4093607719
 21
5.2491085564
 31
0.0
 12
9.4093607719
 22
5.1971085564
 32
0.0
 13
9.4093607719
 23
5.1971085564
 33
0.0
  0
SOLID
  5
3FA
330
3F6
100
AcDbEntity
  8
0
  6
Continuous
 62
     7
370
     0
100
AcDbTrace
 10
7.8651142111
 20
5.2231085564
 30
0.0
 11
8.0251142111
 21
5.1971085564
 31
0.0
 12
8.0251142111
 22
5.2491085564
 32
0.0
 13
8.0251142111
 23
5.2491085564
 33
0.0
  0
LINE
  5
3FB
330
3F6
100
AcDbEntity
  8
0
  6
Continuous
 62
     7
370
     0
100
AcDbLine
 10
8.7445326235
 20
5.3551618443
 30
0.0
 11
8.7445326235
 21
5.2338155797
 31
0.0
  0
LINE
  5
3FC
330
3F6
100
AcDbEntity
  8
0
  6
Continuous
 62
     7
370
     0
100
AcDbLine
 10
8.7445326235
 20
5.2338155797
 30
0.0
 11
8.7627960476
 21
5.2338155797
 31
0.0
  0
LINE
  5
3FD
330
3F6
100
AcDbEntity
  8
0
  6
Continuous
 62
     7
370
     0
100
AcDbLine
 10
8.7445326235
 20
5.3551618443
 30
0.0
 11
8.7627960476
 21
5.3551618443
 31
0.0
  0
LINE
  5
3FE
330
3F6
100
AcDbEntity
  8
0
  6
Continuous
 62
     7
370
     0
100
AcDbLine
 10
9.0502812616
 20
5.3551618443
 30
0.0
 11
9.0502812616
 21
5.2338155797
 31
0.0
  0
LINE
  5
3FF
330
3F6
100
AcDbEntity
  8
0
  6
Continuous
 62
     7
370
     0
100
AcDbLine
 10
9.0502812616
 20
5.2338155797
 30
0.0
 11
9.0320178375
 21
5.2338155797
 31
0.0
  0
LINE
  5
400
330
3F6
100
AcDbEntity
  8
0
  6
Continuous
 62
     7
370
     0
100
AcDbLine
 10
9.0502812616
 20
5.3551618443
 30
0.0
 11
9.0320178375
 21
5.3551618443
 31
0.0
  0
LINE
  5
401
330
3F6
100
AcDbEntity
  8
0
  6
Continuous
 62
     7
370
     0
100
AcDbLine
 10
9.5693607719
 20
4.4778220859
 30
0.0
 11
9.5693607719
 21
5.3481085564
 31
0.0
  0
LINE
  5
402
330
3F6
100
AcDbEntity
  8
0
  6
Continuous
 62
     7
370
     0
100
AcDbLine
 10
7.8651142111
 20
4.4778220859
 30
0.0
 11
7.8651142111
 21
5.3481085564
 31
0.0
  0
LINE
  5
403
330
3F6
100
AcDbEntity
  8
0
  6
Continuous
 62
     7
370
     0
100
AcDbLine
 10
9.5693607719
 20
5.2231085564
 30
0.0
 11
9.167571534
 21
5.2231085564
 31
0.0
  0
LINE
  5
404
330
3F6
100
AcDbEntity
  8
0
  6
Continuous
 62
     7
370
     0
100
AcDbLine
 10
7.8651142111
 20
5.2231085564
 30
0.0
 11
8.6272423511
 21
5.2231085564
 31
0.0
  0
MTEXT
  5
405
330
3F6
100
AcDbEntity
  8
0
  6
Continuous
 62
     7
370
     0
100
AcDbMText
 10
8.7478069425
 20
5.1953091895
 30
0.0
 40
0.09
 41
0.0
 71
     1
 72
     1
  1
1.704
  7
SLDTEXTSTYLE0
 73
     1
 44
1.0
  0
MTEXT
  5
406
330
3F6
100
AcDbEntity
  8
0
  6
Continuous
 62
     7
370
     0
100
AcDbMText
 10
8.7810594717
 20
5.3380695008
 30
0.0
 40
0.09
 41
0.0
 71
     1
 72
     1
  1
43.3
  7
SLDTEXTSTYLE0
 73
     1
 44
1.0
  0
ENDBLK
  5
3F8
330
3F6
100
AcDbEntity
  8
0
100
AcDbBlockEnd
  0
BLOCK
  5
409
330
408
100
AcDbEntity
  8
0
100
AcDbBlockBegin
  2
*D12
 70
     1
 71
     0
 10
0.0
 20
0.0
 30
0.0
  3
*D12
  1

  0
SOLID
  5
40B
330
408
100
AcDbEntity
  8
0
  6
Continuous
 62
     7
370
     0
100
AcDbTrace
 10
6.5991639216
 20
2.877909432
 30
0.0
 11
6.7591639216
 21
2.851909432
 31
0.0
 12
6.7591639216
 22
2.903909432
 32
0.0
 13
6.7591639216
 23
2.903909432
 33
0.0
  0
SOLID
  5
40C
330
408
100
AcDbEntity
  8
0
  6
Continuous
 62
     7
370
     0
100
AcDbTrace
 10
8.0841639216
 20
2.877909432
 30
0.0
 11
7.9241639216
 21
2.903909432
 31
0.0
 12
7.9241639216
 22
2.851909432
 32
0.0
 13
7.9241639216
 23
2.851909432
 33
0.0
  0
LINE
  5
40D
330
408
100
AcDbEntity
  8
0
  6
Continuous
 62
     7
370
     0
100
AcDbLine
 10
7.1887896025
 20
3.0099627199
 30
0.0
 11
7.1887896025
 21
2.8886164553
 31
0.0
  0
LINE
  5
40E
330
408
100
AcDbEntity
  8
0
  6
Continuous
 62
     7
370
     0
100
AcDbLine
 10
7.1887896025
 20
2.8886164553
 30
0.0
 11
7.2070530266
 21
2.8886164553
 31
0.0
  0
LINE
  5
40F
330
408
100
AcDbEntity
  8
0
  6
Continuous
 62
     7
370
     0
100
AcDbLine
 10
7.1887896025
 20
3.0099627199
 30
0.0
 11
7.2070530266
 21
3.0099627199
 31
0.0
  0
LINE
  5
410
330
408
100
AcDbEntity
  8
0
  6
Continuous
 62
     7
370
     0
100
AcDbLine
 10
7.4945382406
 20
3.0099627199
 30
0.0
 11
7.4945382406
 21
2.8886164553
 31
0.0
  0
LINE
  5
411
330
408
100
AcDbEntity
  8
0
  6
Continuous
 62
     7
370
     0
100
AcDbLine
 10
7.4945382406
 20
2.8886164553
 30
0.0
 11
7.4762748165
 21
2.8886164553
 31
0.0
  0
LINE
  5
412
330
408
100
AcDbEntity
  8
0
  6
Continuous
 62
     7
370
     0
100
AcDbLine
 10
7.4945382406
 20
3.0099627199
 30
0.0
 11
7.4762748165
 21
3.0099627199
 31
0.0
  0
LINE
  5
413
330
408
100
AcDbEntity
  8
0
  6
Continuous
 62
     7
370
     0
100
AcDbLine
 10
6.5991639216
 20
3.7878220859
 30
0.0
 11
6.5991639216
 21
2.752909432
 31
0.0
  0
LINE
  5
414
330
408
100
AcDbEntity
  8
0
  6
Continuous
 62
     7
370
     0
100
AcDbLine
 10
8.0841639216
 20
3.7878220859
 30
0.0
 11
8.0841639216
 21
2.752909432
 31
0.0
  0
LINE
  5
415
330
408
100
AcDbEntity
  8
0
  6
Continuous
 62
     7
370
     0
100
AcDbLine
 10
6.5991639216
 20
2.877909432
 30
0.0
 11
7.0714993301
 21
2.877909432
 31
0.0
  0
LINE
  5
416
330
408
100
AcDbEntity
  8
0
  6
Continuous
 62
     7
370
     0
100
AcDbLine
 10
8.0841639216
 20
2.877909432
 30
0.0
 11
7.611828513
 21
2.877909432
 31
0.0
  0
MTEXT
  5
417
330
408
100
AcDbEntity
  8
0
  6
Continuous
 62
     7
370
     0
100
AcDbMText
 10
7.1920639216
 20
2.8501100651
 30
0.0
 40
0.09
 41
0.0
 71
     1
 72
     1
  1
1.485
  7
SLDTEXTSTYLE0
 73
     1
 44
1.0
  0
MTEXT
  5
418
330
408
100
AcDbEntity
  8
0
  6
Continuous
 62
     7
370
     0
100
AcDbMText
 10
7.2253164507
 20
2.9928703763
 30
0.0
 40
0.09
 41
0.0
 71
     1
 72
     1
  1
37.7
  7
SLDTEXTSTYLE0
 73
     1
 44
1.0
  0
ENDBLK
  5
40A
330
408
100
AcDbEntity
  8
0
100
AcDbBlockEnd
  0
BLOCK
  5
41C
330
41B
100
AcDbEntity
  8
0
100
AcDbBlockBegin
  2
*D13
 70
     1
 71
     0
 10
0.0
 20
0.0
 30
0.0
  3
*D13
  1

  0
SOLID
  5
41E
330
41B
100
AcDbEntity
  8
0
  6
Continuous
 62
     7
370
     0
100
AcDbTrace
 10
7.1726962486
 20
3.4942628121
 30
0.0
 11
7.0126962486
 21
3.5202628121
 31
0.0
 12
7.0126962486
 22
3.4682628121
 32
0.0
 13
7.0126962486
 23
3.4682628121
 33
0.0
  0
SOLID
  5
41F
330
41B
100
AcDbEntity
  8
0
  6
Continuous
 62
     7
370
     0
100
AcDbTrace
 10
7.4123583055
 20
3.4942628121
 30
0.0
 11
7.5723583055
 21
3.4682628121
 31
0.0
 12
7.5723583055
 22
3.5202628121
 32
0.0
 13
7.5723583055
 23
3.5202628121
 33
0.0
  0
LINE
  5
420
330
41B
100
AcDbEntity
  8
0
  6
Continuous
 62
     7
370
     0
100
AcDbLine
 10
7.6450768797
 20
3.6263161
 30
0.0
 11
7.6450768797
 21
3.5049698355
 31
0.0
  0
LINE
  5
421
330
41B
100
AcDbEntity
  8
0
  6
Continuous
 62
     7
370
     0
100
AcDbLine
 10
7.6450768797
 20
3.5049698355
 30
0.0
 11
7.6633403038
 21
3.5049698355
 31
0.0
  0
LINE
  5
422
330
41B
100
AcDbEntity
  8
0
  6
Continuous
 62
     7
370
     0
100
AcDbLine
 10
7.6450768797
 20
3.6263161
 30
0.0
 11
7.6633403038
 21
3.6263161
 31
0.0
  0
LINE
  5
423
330
41B
100
AcDbEntity
  8
0
  6
Continuous
 62
     7
370
     0
100
AcDbLine
 10
7.8843204595
 20
3.6263161
 30
0.0
 11
7.8843204595
 21
3.5049698355
 31
0.0
  0
LINE
  5
424
330
41B
100
AcDbEntity
  8
0
  6
Continuous
 62
     7
370
     0
100
AcDbLine
 10
7.8843204595
 20
3.5049698355
 30
0.0
 11
7.8660570353
 21
3.5049698355
 31
0.0
  0
LINE
  5
425
330
41B
100
AcDbEntity
  8
0
  6
Continuous
 62
     7
370
     0
100
AcDbLine
 10
7.8843204595
 20
3.6263161
 30
0.0
 11
7.8660570353
 21
3.6263161
 31
0.0
  0
LINE
  5
426
330
41B
100
AcDbEntity
  8
0
  6
Continuous
 62
     7
370
     0
100
AcDbLine
 10
7.1726962486
 20
4.3778220859
 30
0.0
 11
7.1726962486
 21
3.3692628121
 31
0.0
  0
LINE
  5
427
330
41B
100
AcDbEntity
  8
0
  6
Continuous
 62
     7
370
     0
100
AcDbLine
 10
7.4123583055
 20
4.3778220859
 30
0.0
 11
7.4123583055
 21
3.3692628121
 31
0.0
  0
LINE
  5
428
330
41B
100
AcDbEntity
  8
0
  6
Continuous
 62
     7
370
     0
100
AcDbLine
 10
7.1726962486
 20
3.4942628121
 30
0.0
 11
6.8226962486
 21
3.4942628121
 31
0.0
  0
LINE
  5
429
330
41B
100
AcDbEntity
  8
0
  6
Continuous
 62
     7
370
     0
100
AcDbLine
 10
7.4123583055
 20
3.4942628121
 30
0.0
 11
7.5277866073
 21
3.4942628121
 31
0.0
  0
MTEXT
  5
42A
330
41B
100
AcDbEntity
  8
0
  6
Continuous
 62
     7
370
     0
100
AcDbMText
 10
7.6150986696
 20
3.4664634452
 30
0.0
 40
0.09
 41
0.0
 71
     1
 72
     1
  1
0.240
  7
SLDTEXTSTYLE0
 73
     1
 44
1.0
  0
MTEXT
  5
42B
330
41B
100
AcDbEntity
  8
0
  6
Continuous
 62
     7
370
     0
100
AcDbMText
 10
7.6816037279
 20
3.6092237565
 30
0.0
 40
0.09
 41
0.0
 71
     1
 72
     1
  1
6.1
  7
SLDTEXTSTYLE0
 73
     1
 44
1.0
  0
ENDBLK
  5
41D
330
41B
100
AcDbEntity
  8
0
100
AcDbBlockEnd
  0
BLOCK
  5
42E
330
42D
100
AcDbEntity
  8
0
100
AcDbBlockBegin
  2
*D14
 70
     1
 71
     0
 10
0.0
 20
0.0
 30
0.0
  3
*D14
  1

  0
SOLID
  5
430
330
42D
100
AcDbEntity
  8
0
  6
Continuous
 62
     7
370
     0
100
AcDbTrace
 10
6.7986805006
 20
5.5052937949
 30
0.0
 11
6.9586805006
 21
5.4792937949
 31
0.0
 12
6.9586805006
 22
5.5312937949
 32
0.0
 13
6.9586805006
 23
5.5312937949
 33
0.0
  0
SOLID
  5
431
330
42D
100
AcDbEntity
  8
0
  6
Continuous
 62
     7
370
     0
100
AcDbTrace
 10
7.8651142111
 20
5.5052937949
 30
0.0
 11
7.7051142111
 21
5.5312937949
 31
0.0
 12
7.7051142111
 22
5.4792937949
 32
0.0
 13
7.7051142111
 23
5.4792937949
 33
0.0
  0
LINE
  5
432
330
42D
100
AcDbEntity
  8
0
  6
Continuous
 62
     7
370
     0
100
AcDbLine
 10
7.1887896025
 20
5.6373470829
 30
0.0
 11
7.1887896025
 21
5.5160008183
 31
0.0
  0
LINE
  5
433
330
42D
100
AcDbEntity
  8
0
  6
Continuous
 62
     7
370
     0
100
AcDbLine
 10
7.1887896025
 20
5.5160008183
 30
0.0
 11
7.2070530266
 21
5.5160008183
 31
0.0
  0
LINE
  5
434
330
42D
100
AcDbEntity
  8
0
  6
Continuous
 62
     7
370
     0
100
AcDbLine
 10
7.1887896025
 20
5.6373470829
 30
0.0
 11
7.2070530266
 21
5.6373470829
 31
0.0
  0
LINE
  5
435
330
42D
100
AcDbEntity
  8
0
  6
Continuous
 62
     7
370
     0
100
AcDbLine
 10
7.4945382406
 20
5.6373470829
 30
0.0
 11
7.4945382406
 21
5.5160008183
 31
0.0
  0
LINE
  5
436
330
42D
100
AcDbEntity
  8
0
  6
Continuous
 62
     7
370
     0
100
AcDbLine
 10
7.4945382406
 20
5.5160008183
 30
0.0
 11
7.4762748165
 21
5.5160008183
 31
0.0
  0
LINE
  5
437
330
42D
100
AcDbEntity
  8
0
  6
Continuous
 62
     7
370
     0
100
AcDbLine
 10
7.4945382406
 20
5.6373470829
 30
0.0
 11
7.4762748165
 21
5.6373470829
 31
0.0
  0
LINE
  5
438
330
42D
100
AcDbEntity
  8
0
  6
Continuous
 62
     7
370
     0
100
AcDbLine
 10
6.7986805006
 20
4.4778220859
 30
0.0
 11
6.7986805006
 21
5.6302937949
 31
0.0
  0
LINE
  5
439
330
42D
100
AcDbEntity
  8
0
  6
Continuous
 62
     7
370
     0
100
AcDbLine
 10
7.8651142111
 20
4.4778220859
 30
0.0
 11
7.8651142111
 21
5.6302937949
 31
0.0
  0
LINE
  5
43A
330
42D
100
AcDbEntity
  8
0
  6
Continuous
 62
     7
370
     0
100
AcDbLine
 10
6.7986805006
 20
5.5052937949
 30
0.0
 11
7.0714993301
 21
5.5052937949
 31
0.0
  0
LINE
  5
43B
330
42D
100
AcDbEntity
  8
0
  6
Continuous
 62
     7
370
     0
100
AcDbLine
 10
7.8651142111
 20
5.5052937949
 30
0.0
 11
7.611828513
 21
5.5052937949
 31
0.0
  0
MTEXT
  5
43C
330
42D
100
AcDbEntity
  8
0
  6
Continuous
 62
     7
370
     0
100
AcDbMText
 10
7.1920639216
 20
5.477494428
 30
0.0
 40
0.09
 41
0.0
 71
     1
 72
     1
  1
1.066
  7
SLDTEXTSTYLE0
 73
     1
 44
1.0
  0
MTEXT
  5
43D
330
42D
100
AcDbEntity
  8
0
  6
Continuous
 62
     7
370
     0
100
AcDbMText
 10
7.2253164507
 20
5.6202547393
 30
0.0
 40
0.09
 41
0.0
 71
     1
 72
     1
  1
27.1
  7
SLDTEXTSTYLE0
 73
     1
 44
1.0
  0
ENDBLK
  5
42F
330
42D
100
AcDbEntity
  8
0
100
AcDbBlockEnd
  0
BLOCK
  5
440
330
43F
100
AcDbEntity
  8
0
100
AcDbBlockBegin
  2
SW_NOTE_5
 70
     0
 71
     0
 10
0.0
 20
0.0
 30
0.0
  3
SW_NOTE_5
  1

  0
MTEXT
  5
443
330
43F
100
AcDbEntity
  8
0
  6
Continuous
 62
     0
370
     0
100
AcDbMText
 10
-1.3081356263
 20
0.1665976261
 30
0.0
 40
0.09
 41
0.0
 71
     1
 72
     1
  1
INTERNAL SM1 THREAD
  7
SLDTEXTSTYLE16
 73
     1
 44
1.0
  0
MTEXT
  5
444
330
43F
100
AcDbEntity
  8
0
  6
Continuous
 62
     0
370
     0
100
AcDbMText
 10
-0.9441981022
 20
0.0372275431
 30
0.0
 40
0.09
 41
0.0
 71
     1
 72
     1
  1
(1.035-40)
  7
SLDTEXTSTYLE0
 73
     1
 44
1.0
  0
ENDBLK
  5
441
330
43F
100
AcDbEntity
  8
0
100
AcDbBlockEnd
  0
BLOCK
  5
44A
330
449
100
AcDbEntity
  8
0
100
AcDbBlockBegin
  2
SW_NOTE_6
 70
     0
 71
     0
 10
0.0
 20
0.0
 30
0.0
  3
SW_NOTE_6
  1

  0
CIRCLE
  5
44C
330
449
100
AcDbEntity
  8
0
  6
Continuous
 62
     0
370
     0
100
AcDbCircle
 10
0.128332409
 20
0.0087805564
 30
0.0
 40
0.1286324429531546
  0
MTEXT
  5
44D
330
449
100
AcDbEntity
  8
0
  6
Continuous
 62
     0
370
     0
100
AcDbMText
 10
0.0839574092
 20
0.055074547
 30
0.0
 40
0.09
 41
0.0
 71
     1
 72
     1
  1
A
  7
SLDTEXTSTYLE0
 73
     1
 44
1.0
  0
ENDBLK
  5
44B
330
449
100
AcDbEntity
  8
0
100
AcDbBlockEnd
  0
BLOCK
  5
451
330
450
100
AcDbEntity
  8
0
100
AcDbBlockBegin
  2
SW_NOTE_7
 70
     0
 71
     0
 10
0.0
 20
0.0
 30
0.0
  3
SW_NOTE_7
  1

  0
CIRCLE
  5
453
330
450
100
AcDbEntity
  8
0
  6
Continuous
 62
     0
370
     0
100
AcDbCircle
 10
-0.127797499
 20
0.0146323146
 30
0.0
 40
0.1286324429531546
  0
MTEXT
  5
454
330
450
100
AcDbEntity
  8
0
  6
Continuous
 62
     0
370
     0
100
AcDbMText
 10
-0.1622349983
 20
0.0609263052
 30
0.0
 40
0.09
 41
0.0
 71
     1
 72
     1
  1
B
  7
SLDTEXTSTYLE0
 73
     1
 44
1.0
  0
ENDBLK
  5
452
330
450
100
AcDbEntity
  8
0
100
AcDbBlockEnd
  0
BLOCK
  5
458
330
457
100
AcDbEntity
  8
0
100
AcDbBlockBegin
  2
SW_NOTE_8
 70
     0
 71
     0
 10
0.0
 20
0.0
 30
0.0
  3
SW_NOTE_8
  1

  0
CIRCLE
  5
45A
330
457
100
AcDbEntity
  8
0
  6
Continuous
 62
     0
370
     0
100
AcDbCircle
 10
0.1203485912
 20
-0.0454149974
 30
0.0
 40
0.1286324429531546
  0
MTEXT
  5
45B
330
457
100
AcDbEntity
  8
0
  6
Continuous
 62
     0
370
     0
100
AcDbMText
 10
0.0715985889
 20
0.0008789932
 30
0.0
 40
0.09
 41
0.0
 71
     1
 72
     1
  1
C
  7
SLDTEXTSTYLE0
 73
     1
 44
1.0
  0
ENDBLK
  5
459
330
457
100
AcDbEntity
  8
0
100
AcDbBlockEnd
  0
BLOCK
  5
45F
330
45E
100
AcDbEntity
  8
0
100
AcDbBlockBegin
  2
SW_NOTE_9
 70
     0
 71
     0
 10
0.0
 20
0.0
 30
0.0
  3
SW_NOTE_9
  1

  0
CIRCLE
  5
461
330
45E
100
AcDbEntity
  8
0
  6
Continuous
 62
     0
370
     0
100
AcDbCircle
 10
0.1284077456
 20
0.0075997528
 30
0.0
 40
0.1286324429531548
  0
MTEXT
  5
462
330
45E
100
AcDbEntity
  8
0
  6
Continuous
 62
     0
370
     0
100
AcDbMText
 10
0.0837827461
 20
0.0538937434
 30
0.0
 40
0.09
 41
0.0
 71
     1
 72
     1
  1
D
  7
SLDTEXTSTYLE0
 73
     1
 44
1.0
  0
ENDBLK
  5
460
330
45E
100
AcDbEntity
  8
0
100
AcDbBlockEnd
  0
BLOCK
  5
466
330
465
100
AcDbEntity
  8
0
100
AcDbBlockBegin
  2
SW_NOTE_10
 70
     0
 71
     0
 10
0.0
 20
0.0
 30
0.0
  3
SW_NOTE_10
  1

  0
CIRCLE
  5
468
330
465
100
AcDbEntity
  8
0
  6
Continuous
 62
     0
370
     0
100
AcDbCircle
 10
-0.1276308551
 20
-0.0160209304
 30
0.0
 40
0.1286324429531548
  0
MTEXT
  5
469
330
465
100
AcDbEntity
  8
0
  6
Continuous
 62
     0
370
     0
100
AcDbMText
 10
-0.1722558546
 20
0.0302730602
 30
0.0
 40
0.09
 41
0.0
 71
     1
 72
     1
  1
D
  7
SLDTEXTSTYLE0
 73
     1
 44
1.0
  0
ENDBLK
  5
467
330
465
100
AcDbEntity
  8
0
100
AcDbBlockEnd
  0
ENDSEC
  0
SECTION
  2
ENTITIES
  0
LINE
  5
30
330
1F
100
AcDbEntity
  8
0
  6
Continuous
 62
     7
370
     0
100
AcDbLine
 10
0.329927
 20
8.1920731707
 30
0.0
 11
10.629927
 21
8.1920731707
 31
0.0
  0
LINE
  5
31
330
1F
100
AcDbEntity
  8
0
  6
Continuous
 62
     7
370
     0
100
AcDbLine
 10
0.329927
 20
8.1920731707
 30
0.0
 11
0.329927
 21
0.3920731707
 31
0.0
  0
LINE
  5
32
330
1F
100
AcDbEntity
  8
0
  6
Continuous
 62
     7
370
     0
100
AcDbLine
 10
10.629927
 20
0.3920731707
 30
0.0
 11
0.329927
 21
0.3920731707
 31
0.0
  0
LINE
  5
33
330
1F
100
AcDbEntity
  8
0
  6
Continuous
 62
     7
370
     0
100
AcDbLine
 10
10.629927
 20
0.3920731707
 30
0.0
 11
10.629927
 21
8.1920731707
 31
0.0
  0
LINE
  5
34
330
1F
100
AcDbEntity
  8
0
  6
Continuous
 62
     7
370
     0
100
AcDbLine
 10
7.8832069922
 20
1.2010186622
 30
0.0
 11
6.3491817542
 21
1.2010186622
 31
0.0
  0
LINE
  5
35
330
1F
100
AcDbEntity
  8
0
  6
Continuous
 62
     7
370
     0
100
AcDbLine
 10
6.3491817542
 20
0.3920731707
 30
0.0
 11
6.3491817542
 21
1.6988536355
 31
0.0
  0
LINE
  5
36
330
1F
100
AcDbEntity
  8
0
  6
Continuous
 62
     7
370
     0
100
AcDbLine
 10
7.8832069922
 20
1.270166923
 30
0.0
 11
10.629927
 21
1.270166923
 31
0.0
  0
LINE
  5
37
330
1F
100
AcDbEntity
  8
0
  6
Continuous
 62
     7
370
     0
100
AcDbLine
 10
7.8832069922
 20
1.9437769943
 30
0.0
 11
7.8832069922
 21
0.3920731707
 31
0.0
  0
LINE
  5
38
330
1F
100
AcDbEntity
  8
0
  6
Continuous
 62
     7
370
     0
100
AcDbLine
 10
7.8832069922
 20
1.323339557
 30
0.0
 11
6.3491817542
 21
1.323339557
 31
0.0
  0
LINE
  5
39
330
1F
100
AcDbEntity
  8
0
  6
Continuous
 62
     7
370
     0
100
AcDbLine
 10
7.8832069922
 20
1.6988536355
 30
0.0
 11
6.3491817542
 21
1.6988536355
 31
0.0
  0
LINE
  5
3A
330
1F
100
AcDbEntity
  8
0
  6
Continuous
 62
     7
370
     0
100
AcDbLine
 10
7.8832069922
 20
0.7890359178
 30
0.0
 11
10.629927
 21
0.7890359178
 31
0.0
  0
LINE
  5
3B
330
1F
100
AcDbEntity
  8
0
  6
Continuous
 62
     7
370
     0
100
AcDbLine
 10
7.8832069922
 20
1.4456604517
 30
0.0
 11
6.3491817542
 21
1.4456604517
 31
0.0
  0
LINE
  5
3C
330
1F
100
AcDbEntity
  8
0
  6
Continuous
 62
     7
370
     0
100
AcDbLine
 10
7.8832069922
 20
1.5679813464
 30
0.0
 11
6.3491817542
 21
1.5679813464
 31
0.0
  0
LINE
  5
3D
330
1F
100
AcDbEntity
  8
0
  6
Continuous
 62
     7
370
     0
100
AcDbLine
 10
6.9294188505
 20
1.6988536355
 30
0.0
 11
6.9294188505
 21
1.2010186622
 31
0.0
  0
LINE
  5
3E
330
1F
100
AcDbEntity
  8
0
  6
Continuous
 62
     7
370
     0
100
AcDbLine
 10
7.2989435727
 20
1.6988536355
 30
0.0
 11
7.2989435727
 21
1.2010186622
 31
0.0
  0
LINE
  5
3F
330
1F
100
AcDbEntity
  8
0
  6
Continuous
 62
     7
370
     0
100
AcDbLine
 10
8.9000563418
 20
0.7890359178
 30
0.0
 11
8.9000563418
 21
0.3920731707
 31
0.0
  0
LINE
  5
40
330
1F
100
AcDbEntity
  8
0
  6
Continuous
 62
     7
370
     0
100
AcDbLine
 10
9.3113942988
 20
0.96139916
 30
0.0
 11
9.3113942988
 21
0.7890359178
 31
0.0
  0
LINE
  5
41
330
1F
100
AcDbEntity
  8
0
  6
Continuous
 62
     7
370
     0
100
AcDbLine
 10
10.0324602448
 20
1.270166923
 30
0.0
 11
10.0324602448
 21
0.96139916
 31
0.0
  0
LINE
  5
42
330
1F
100
AcDbEntity
  8
0
  6
Continuous
 62
     7
370
     0
100
AcDbLine
 10
6.3491817542
 20
1.0381709011
 30
0.0
 11
7.8832069922
 21
1.0381709011
 31
0.0
  0
LINE
  5
43
330
1F
100
AcDbEntity
  8
0
  6
Continuous
 62
     7
370
     0
100
AcDbLine
 10
7.8832069922
 20
1.9437769943
 30
0.0
 11
10.629927
 21
1.9437769943
 31
0.0
  0
LINE
  5
44
330
1F
100
AcDbEntity
  8
0
  6
Continuous
 62
     7
370
     0
100
AcDbLine
 10
10.315241862
 20
1.2693980507
 30
0.0
 11
10.315241862
 21
0.96139916
 31
0.0
  0
LINE
  5
45
330
1F
100
AcDbEntity
  8
0
  6
Continuous
 62
     7
370
     0
100
AcDbLine
 10
7.8832069922
 20
0.96139916
 30
0.0
 11
10.629927
 21
0.96139916
 31
0.0
  0
LINE
  5
46
330
1F
100
AcDbEntity
  8
0
  6
Continuous
 62
     7
370
     0
100
AcDbLine
 10
10.629927
 20
1.9437769943
 30
0.0
 11
10.629927
 21
1.9698084888
 31
0.0
  0
LINE
  5
47
330
1F
100
AcDbEntity
  8
0
  6
Continuous
 62
     7
370
     0
100
AcDbLine
 10
7.8832069922
 20
1.6268095213
 30
0.0
 11
10.629927
 21
1.6268095213
 31
0.0
  0
LINE
  5
48
330
1F
100
AcDbEntity
  8
0
  6
Continuous
 62
     7
370
     0
100
AcDbLine
 10
6.692177
 20
0.3920731707
 30
0.0
 11
6.692177
 21
0.3072739649
 31
0.0
  0
LINE
  5
49
330
1F
100
AcDbEntity
  8
0
  6
Continuous
 62
     7
370
     0
100
AcDbLine
 10
2.754677
 20
0.3920731707
 30
0.0
 11
2.754677
 21
0.3072739649
 31
0.0
  0
LINE
  5
4A
330
1F
100
AcDbEntity
  8
0
  6
Continuous
 62
     7
370
     0
100
AcDbLine
 10
2.754677
 20
0.3920731707
 30
0.0
 11
2.7672319738
 21
0.3575
 31
0.0
  0
LINE
  5
4B
330
1F
100
AcDbEntity
  8
0
  6
Continuous
 62
     7
370
     0
100
AcDbLine
 10
2.7672319738
 20
0.3575
 30
0.0
 11
2.7414258825
 21
0.3575
 31
0.0
  0
LINE
  5
4C
330
1F
100
AcDbEntity
  8
0
  6
Continuous
 62
     7
370
     0
100
AcDbLine
 10
2.7414258825
 20
0.3575
 30
0.0
 11
2.754677
 21
0.3920731707
 31
0.0
  0
MTEXT
  5
4E
330
1F
100
AcDbEntity
  8
0
  6
Continuous
 62
     7
370
     0
100
AcDbMText
 10
10.4043270877
 20
1.1203120088
 30
0.0
 40
0.1041666667
 41
0.0
 71
     1
 72
     1
  1
C
  7
SLDTEXTSTYLE0
 73
     1
 44
1.0
  0
MTEXT
  5
4F
330
1F
100
AcDbEntity
  8
0
  6
Continuous
 62
     7
370
     0
100
AcDbMText
 10
1.7387909509
 20
0.3094873007
 30
0.0
 40
0.09375
 41
0.0
 71
     1
 72
     1
  1
5
  7
SLDTEXTSTYLE0
 73
     1
 44
1.0
  0
MTEXT
  5
50
330
1F
100
AcDbEntity
  8
0
  6
Continuous
 62
     7
370
     0
100
AcDbMText
 10
3.723800327
 20
0.3126246278
 30
0.0
 40
0.09375
 41
0.0
 71
     1
 72
     1
  1
4
  7
SLDTEXTSTYLE0
 73
     1
 44
1.0
  0
MTEXT
  5
51
330
1F
100
AcDbEntity
  8
0
  6
Continuous
 62
     7
370
     0
100
AcDbMText
 10
5.6324457277
 20
0.3105200602
 30
0.0
 40
0.09375
 41
0.0
 71
     1
 72
     1
  1
3
  7
SLDTEXTSTYLE0
 73
     1
 44
1.0
  0
MTEXT
  5
52
330
1F
100
AcDbEntity
  8
0
  6
Continuous
 62
     7
370
     0
100
AcDbMText
 10
7.6059721724
 20
0.3113400111
 30
0.0
 40
0.09375
 41
0.0
 71
     1
 72
     1
  1
2
  7
SLDTEXTSTYLE0
 73
     1
 44
1.0
  0
MTEXT
  5
53
330
1F
100
AcDbEntity
  8
0
  6
Continuous
 62
     7
370
     0
100
AcDbMText
 10
9.6619921328
 20
0.300272888
 30
0.0
 40
0.09375
 41
0.0
 71
     1
 72
     1
  1
1
  7
SLDTEXTSTYLE0
 73
     1
 44
1.0
  0
MTEXT
  5
54
330
1F
100
AcDbEntity
  8
0
  6
Continuous
 62
     7
370
     0
100
AcDbMText
 10
9.1096122266
 20
0.6032387684
 30
0.0
 40
0.125
 41
0.0
 71
     1
 72
     1
  1
MAP105075-A1
  7
SLDTEXTSTYLE0
 73
     1
 44
1.0
  0
MTEXT
  5
55
330
1F
100
AcDbEntity
  8
0
  6
Continuous
 62
     7
370
     0
100
AcDbMText
 10
7.9301743649
 20
1.2499730493
 30
0.0
 40
0.0833333333
 41
0.0
 71
     1
 72
     1
  1
MATERIAL:
  7
SLDTEXTSTYLE0
 73
     1
 44
1.0
  0
MTEXT
  5
57
330
1F
100
AcDbEntity
  8
0
  6
Continuous
 62
     7
370
     0
100
AcDbMText
 10
8.9438302275
 20
0.7457341193
 30
0.0
 40
0.0833333333
 41
0.0
 71
     1
 72
     1
  1
PART  NO.
  7
SLDTEXTSTYLE1
 73
     1
 44
1.0
  0
MTEXT
  5
59
330
1F
100
AcDbEntity
  8
0
  6
Continuous
 62
     7
370
     0
100
AcDbMText
 10
6.3927073562
 20
1.1440291591
 30
0.0
 40
0.06
 41
0.0
 71
     1
 72
     1
  1
PROPRIETARY AND CONFIDENTIAL
  7
SLDTEXTSTYLE2
 73
     1
 44
1.0
  0
MTEXT
  5
5A
330
1F
100
AcDbEntity
  8
0
  6
Continuous
 62
     7
370
     0
100
AcDbMText
 10
6.4985660702
 20
1.5406501707
 30
0.0
 40
0.065
 41
0.0
 71
     1
 72
     1
  1
DRAWN
  7
SLDTEXTSTYLE0
 73
     1
 44
1.0
  0
MTEXT
  5
5B
330
1F
100
AcDbEntity
  8
0
  6
Continuous
 62
     7
370
     0
100
AcDbMText
 10
6.4369653776
 20
1.4183941661
 30
0.0
 40
0.065
 41
0.0
 71
     1
 72
     1
  1
ENG APPR.
  7
SLDTEXTSTYLE0
 73
     1
 44
1.0
  0
MTEXT
  5
5C
330
1F
100
AcDbEntity
  8
0
  6
Continuous
 62
     7
370
     0
100
AcDbMText
 10
6.4273055419
 20
1.298296273
 30
0.0
 40
0.065
 41
0.0
 71
     1
 72
     1
  1
MFG APPR.
  7
SLDTEXTSTYLE0
 73
     1
 44
1.0
  0
MTEXT
  5
5D
330
1F
100
AcDbEntity
  8
0
  6
Continuous
 62
     7
370
     0
100
AcDbMText
 10
6.9752663896
 20
1.6608078346
 30
0.0
 40
0.065
 41
0.0
 71
     1
 72
     1
  1
NAME
  7
SLDTEXTSTYLE0
 73
     1
 44
1.0
  0
MTEXT
  5
5E
330
1F
100
AcDbEntity
  8
0
  6
Continuous
 62
     7
370
     0
100
AcDbMText
 10
7.9386050459
 20
1.5661804433
 30
0.0
 40
0.1
 41
0.0
 71
     1
 72
     1
  1
TITLE:
  7
SLDTEXTSTYLE0
 73
     1
 44
1.0
  0
MTEXT
  5
5F
330
1F
100
AcDbEntity
  8
0
  6
Continuous
 62
     7
370
     0
100
AcDbMText
 10
10.0657693915
 20
1.2262994671
 30
0.0
 40
0.0833333333
 41
0.0
 71
     1
 72
     1
  1
SIZE
  7
SLDTEXTSTYLE0
 73
     1
 44
1.0
  0
MTEXT
  5
60
330
1F
100
AcDbEntity
  8
0
  6
Continuous
 62
     7
370
     0
100
AcDbMText
 10
10.1162261111
 20
1.1164461388
 30
0.0
 40
0.1041666667
 41
0.0
 71
     1
 72
     1
  1
A
  7
SLDTEXTSTYLE0
 73
     1
 44
1.0
  0
MTEXT
  5
61
330
1F
100
AcDbEntity
  8
0
  6
Continuous
 62
     7
370
     0
100
AcDbMText
 10
10.335100974
 20
1.2278993505
 30
0.0
 40
0.0833333333
 41
0.0
 71
     1
 72
     1
  1
REV.
  7
SLDTEXTSTYLE0
 73
     1
 44
1.0
  0
MTEXT
  5
62
330
1F
100
AcDbEntity
  8
0
  6
Continuous
 62
     7
370
     0
100
AcDbMText
 10
8.3227727705
 20
0.9309786574
 30
0.0
 40
0.0833333333
 41
0.0
 71
     1
 72
     1
  1
SCALE: 1:1
  7
SLDTEXTSTYLE0
 73
     1
 44
1.0
  0
MTEXT
  5
64
330
1F
100
AcDbEntity
  8
0
  6
Continuous
 62
     7
370
     0
100
AcDbMText
 10
9.6378279873
 20
0.926579063
 30
0.0
 40
0.0833333333
 41
0.0
 71
     1
 72
     1
  1
SHEET 1 OF 1
  7
SLDTEXTSTYLE3
 73
     1
 44
1.0
  0
MTEXT
  5
65
330
1F
100
AcDbEntity
  8
0
  6
Continuous
 62
     7
370
     0
100
AcDbMText
 10
7.9972001427
 20
0.6032387684
 30
0.0
 40
0.125
 41
0.0
 71
     1
 72
     1
  1
13297-E01
  7
SLDTEXTSTYLE0
 73
     1
 44
1.0
  0
INSERT
  5
75
330
1F
100
AcDbEntity
  8
0
  6
Continuous
 62
     7
370
     0
100
AcDbBlockReference
  2
SW_NOTE_0
 10
6.3891646717
 20
0.9312082413
 30
0.0
  0
MTEXT
  5
76
330
1F
100
AcDbEntity
  8
0
  6
Continuous
 62
     7
370
     0
100
AcDbMText
 10
7.9076399399
 20
0.7468305835
 30
0.0
 40
0.0833333333
 41
0.0
 71
     1
 72
     1
  1
DWG.  NO.
  7
SLDTEXTSTYLE1
 73
     1
 44
1.0
  0
MTEXT
  5
77
330
1F
100
AcDbEntity
  8
0
  6
Continuous
 62
     7
370
     0
100
AcDbMText
 10
7.0592138229
 20
1.5434434118
 30
0.0
 40
0.065
 41
0.0
 71
     1
 72
     1
  1
AP
  7
SLDTEXTSTYLE0
 73
     1
 44
1.0
  0
MTEXT
  5
78
330
1F
100
AcDbEntity
  8
0
  6
Continuous
 62
     7
370
     0
100
AcDbMText
 10
7.0628716471
 20
1.4267005168
 30
0.0
 40
0.065
 41
0.0
 71
     1
 72
     1
  1
DJ
  7
SLDTEXTSTYLE0
 73
     1
 44
1.0
  0
MTEXT
  5
79
330
1F
100
AcDbEntity
  8
0
  6
Continuous
 62
     7
370
     0
100
AcDbMText
 10
7.0636219211
 20
1.3041261123
 30
0.0
 40
0.065
 41
0.0
 71
     1
 72
     1
  1
DD
  7
SLDTEXTSTYLE0
 73
     1
 44
1.0
  0
MTEXT
  5
7A
330
1F
100
AcDbEntity
  8
0
  6
Continuous
 62
     7
370
     0
100
AcDbMText
 10
7.3775562039
 20
1.5451308061
 30
0.0
 40
0.065
 41
0.0
 71
     1
 72
     1
  1
10/26/2007
  7
SLDTEXTSTYLE0
 73
     1
 44
1.0
  0
MTEXT
  5
7B
330
1F
100
AcDbEntity
  8
0
  6
Continuous
 62
     7
370
     0
100
AcDbMText
 10
7.4731545031
 20
1.6582684693
 30
0.0
 40
0.065
 41
0.0
 71
     1
 72
     1
  1
DATE
  7
SLDTEXTSTYLE0
 73
     1
 44
1.0
  0
MTEXT
  5
7C
330
1F
100
AcDbEntity
  8
0
  6
Continuous
 62
     7
370
     0
100
AcDbMText
 10
7.3821011998
 20
1.4184142209
 30
0.0
 40
0.065
 41
0.0
 71
     1
 72
     1
  1
01/10/2008
  7
SLDTEXTSTYLE0
 73
     1
 44
1.0
  0
MTEXT
  5
7D
330
1F
100
AcDbEntity
  8
0
  6
Continuous
 62
     7
370
     0
100
AcDbMText
 10
7.3821011998
 20
1.2979456571
 30
0.0
 40
0.065
 41
0.0
 71
     1
 72
     1
  1
01/11/2008
  7
SLDTEXTSTYLE0
 73
     1
 44
1.0
  0
MTEXT
  5
7E
330
1F
100
AcDbEntity
  8
0
  6
Continuous
 62
     7
370
     0
100
AcDbMText
 10
7.9182509893
 20
1.8945248266
 30
0.0
 40
0.1875
 41
0.0
 71
     1
 72
     1
  1
THORLABS INC.
  7
SLDTEXTSTYLE0
 73
     1
 44
1.0
  0
INSERT
  5
85
330
1F
100
AcDbEntity
  8
0
  6
Continuous
 62
     7
370
     0
100
AcDbBlockReference
  2
SW_NOTE_1
 10
9.7899715108
 20
1.7882142597
 30
0.0
  0
MTEXT
  5
86
330
1F
100
AcDbEntity
  8
0
  6
Continuous
 62
     7
370
     0
100
AcDbMText
 10
0.7257045785
 20
2.1039704868
 30
0.0
 40
0.09
 41
0.0
 71
     1
 72
     1
  1
SPECIFICATIONS:
  7
SLDTEXTSTYLE0
 73
     1
 44
1.0
  0
INSERT
  5
96
330
1F
100
AcDbEntity
  8
0
  6
Continuous
 62
     7
370
     0
100
AcDbBlockReference
  2
SW_NOTE_2
 10
0.7066965232
 20
1.7976517907
 30
0.0
  0
INSERT
  5
9C
330
1F
100
AcDbEntity
  8
0
  6
Continuous
 62
     7
370
     0
100
AcDbBlockReference
  2
SW_NOTE_3
 10
8.3761943141
 20
1.4724817837
 30
0.0
  0
MTEXT
  5
9D
330
1F
100
AcDbEntity
  8
0
  6
Continuous
 62
     7
370
     0
100
AcDbMText
 10
8.5021403846
 20
1.1403464748
 30
0.0
 40
0.1041666667
 41
0.0
 71
     1
 72
     1
  1
SEE TABLE
  7
SLDTEXTSTYLE0
 73
     1
 44
1.0
  0
INSERT
  5
A4
330
1F
100
AcDbEntity
  8
0
  6
Continuous
 62
     7
370
     0
100
AcDbBlockReference
  2
SW_NOTE_4
 10
0.4001107216
 20
0.5376622624
 30
0.0
  0
INSERT
  5
C1
330
1F
100
AcDbEntity
  8
0
  6
Continuous
 62
     7
370
     0
100
AcDbBlockReference
  2
SW_TABLEANNOTATION_0
 10
0.3174104478
 20
8.1967910448
 30
0.0
  0
ARC
  5
C2
330
1F
100
AcDbEntity
  8
0
  6
Continuous
 62
     7
370
     0
100
AcDbCircle
 10
2.2884518733
 20
4.4278220859
 30
0.0
 40
0.4500000000000019
100
AcDbArc
 50
114.3139898506
 51
292.404042103
  0
LINE
  5
C3
330
1F
100
AcDbEntity
  8
0
  6
Continuous
 62
     7
370
     0
100
AcDbLine
 10
2.4798611205
 20
3.9657159942
 30
0.0
 11
2.4599629003
 21
4.0117884853
 31
0.0
  0
ARC
  5
C4
330
1F
100
AcDbEntity
  8
0
  6
Continuous
 62
     7
370
     0
100
AcDbCircle
 10
2.2884518733
 20
4.4278220859
 30
0.0
 40
0.5001794919243133
100
AcDbArc
 50
114.2181764538
 51
292.4998554998
  0
LINE
  5
C5
330
1F
100
AcDbEntity
  8
0
  6
Continuous
 62
     7
370
     0
100
AcDbLine
 10
2.0832720502
 20
4.883980803
 30
0.0
 11
2.1031702704
 21
4.8379083485
 31
0.0
  0
SPLINE
  5
C6
330
1F
100
AcDbEntity
  8
0
  6
Continuous
 62
     7
370
     0
100
AcDbSpline
210
0.0
220
0.0
230
1.0
 70
    24
 71
     1
 72
     4
 73
     2
 74
     0
 42
0.00000001
 43
0.00000001
 40
0.0
 40
0.0
 40
1.0
 40
1.0
 10
2.479861120461738
 20
3.965715994178578
 30
0.0
 10
2.48205548511225
 20
3.960635116206648
 30
0.0
  0
SPLINE
  5
C7
330
1F
100
AcDbEntity
  8
0
  6
Continuous
 62
     7
370
     0
100
AcDbSpline
210
0.0
220
0.0
230
1.0
 70
    24
 71
     1
 72
     4
 73
     2
 74
     0
 42
0.00000001
 43
0.00000001
 40
0.0
 40
0.0
 40
1.0
 40
1.0
 10
2.080982371676415
 20
4.889282338394692
 30
0.0
 10
2.083272050225853
 20
4.883980802971815
 30
0.0
  0
ARC
  5
C8
330
1F
100
AcDbEntity
  8
0
  6
Continuous
 62
     7
370
     0
100
AcDbCircle
 10
2.2884518733
 20
4.4278220859
 30
0.0
 40
0.5001794919243139
100
AcDbArc
 50
294.2181764538
 51
112.4998554998
  0
SPLINE
  5
C9
330
1F
100
AcDbEntity
  8
0
  6
Continuous
 62
     7
370
     0
100
AcDbSpline
210
0.0
220
0.0
230
1.0
 70
    24
 71
     1
 72
     4
 73
     2
 74
     0
 42
0.00000001
 43
0.00000001
 40
0.0
 40
0.0
 40
1.0
 40
1.0
 10
2.495853615715068
 20
3.966518728238659
 30
0.0
 10
2.493631696382869
 20
3.971663368807333
 30
0.0
  0
SPLINE
  5
CA
330
1F
100
AcDbEntity
  8
0
  6
Continuous
 62
     7
370
     0
100
AcDbSpline
210
0.0
220
0.0
230
1.0
 70
    24
 71
     1
 72
     4
 73
     2
 74
     0
 42
0.00000001
 43
0.00000001
 40
0.0
 40
0.0
 40
1.0
 40
1.0
 10
2.097042626146985
 20
4.88992817760057
 30
0.0
 10
2.094885734396916
 20
4.894922266575095
 30
0.0
  0
LINE
  5
CB
330
1F
100
AcDbEntity
  8
0
  6
Continuous
 62
     7
370
     0
100
AcDbLine
 10
2.4936316964
 20
3.9716633688
 30
0.0
 11
2.4737334762
 21
4.0177358232
 31
0.0
  0
LINE
  5
CC
330
1F
100
AcDbEntity
  8
0
  6
Continuous
 62
     7
370
     0
100
AcDbLine
 10
2.0970426261
 20
4.8899281776
 30
0.0
 11
2.1169408463
 21
4.8438556865
 31
0.0
  0
ARC
  5
CD
330
1F
100
AcDbEntity
  8
0
  6
Continuous
 62
     7
370
     0
100
AcDbCircle
 10
2.2884518733
 20
4.4278220859
 30
0.0
 40
0.4500000000000024
100
AcDbArc
 50
294.3139898506
 51
112.404042103
  0
ARC
  5
CE
330
1F
100
AcDbEntity
  8
0
  6
Continuous
 62
     7
370
     0
100
AcDbCircle
 10
2.2884518733
 20
4.4278220859
 30
0.0
 40
0.450000000000001
100
AcDbArc
 50
112.404042103
 51
114.3139898506
  0
ARC
  5
CF
330
1F
100
AcDbEntity
  8
0
  6
Continuous
 62
     7
370
     0
100
AcDbCircle
 10
2.2884518733
 20
4.4278220859
 30
0.0
 40
0.4500000000000019
100
AcDbArc
 50
292.404042103
 51
294.3139898506
  0
CIRCLE
  5
D0
330
1F
100
AcDbEntity
  8
0
  6
Continuous
 62
     7
370
     0
100
AcDbCircle
 10
2.2884518733
 20
4.4278220859
 30
0.0
 40
0.5900000000000002
  0
CIRCLE
  5
D1
330
1F
100
AcDbEntity
  8
0
  6
Continuous
 62
     7
370
     0
100
AcDbCircle
 10
2.2884518733
 20
4.4278220859
 30
0.0
 40
0.6
  0
CIRCLE
  5
D2
330
1F
100
AcDbEntity
  8
0
  6
Continuous
 62
     7
370
     0
100
AcDbCircle
 10
2.2884518733
 20
4.4278220859
 30
0.0
 40
0.515999999999999
  0
CIRCLE
  5
D3
330
1F
100
AcDbEntity
  8
0
  6
Continuous
 62
     7
370
     0
100
AcDbCircle
 10
2.2884518733
 20
4.4278220859
 30
0.0
 40
0.5059999999999996
  0
DIMENSION
  5
D4
330
1F
100
AcDbEntity
  8
0
  6
Continuous
 62
     7
370
     0
100
AcDbDimension
  2
*D7
 10
2.7136581258
 20
4.004502298
 30
0.0
 11
1.0185832058
 21
5.1681150888
 31
0.0
 70
   163
  1
<>
 71
     1
 42
-1.0
  3
SLDDIMSTYLE0
100
AcDbDiametricDimension
 15
1.8632456208
 25
4.8511418738
 35
0.0
 40
0.0
  0
LINE
  5
E5
330
1F
100
AcDbEntity
  8
0
  6
PHANTOM
 62
     7
370
     0
100
AcDbLine
 10
2.2884518733
 20
5.3570858896
 30
0.0
 11
2.2884518733
 21
3.5215030675
 31
0.0
  0
LINE
  5
E6
330
1F
100
AcDbEntity
  8
0
  6
Continuous
 62
     7
370
     0
100
AcDbLine
 10
2.2884518733
 20
5.3570858896
 30
0.0
 11
1.8884518733
 21
5.3570858896
 31
0.0
  0
SOLID
  5
E7
330
1F
100
AcDbEntity
  8
0
  6
Continuous
 62
     7
370
     0
100
AcDbTrace
 10
1.8884518733
 20
5.3570858896
 30
0.0
 11
2.0634518733
 21
5.3195858896
 31
0.0
 12
2.0634518733
 22
5.3945858896
 32
0.0
 13
2.0634518733
 23
5.3945858896
 33
0.0
  0
LINE
  5
E8
330
1F
100
AcDbEntity
  8
0
  6
Continuous
 62
     7
370
     0
100
AcDbLine
 10
2.2884518733
 20
3.5215030675
 30
0.0
 11
1.8884518733
 21
3.5215030675
 31
0.0
  0
SOLID
  5
E9
330
1F
100
AcDbEntity
  8
0
  6
Continuous
 62
     7
370
     0
100
AcDbTrace
 10
1.8884518733
 20
3.5215030675
 30
0.0
 11
2.0634518733
 21
3.4840030675
 31
0.0
 12
2.0634518733
 22
3.5590030675
 32
0.0
 13
2.0634518733
 23
3.5590030675
 33
0.0
  0
MTEXT
  5
EA
330
1F
100
AcDbEntity
  8
0
  6
Continuous
 62
     7
100
AcDbMText
 10
1.7277191885
 20
5.456261376
 30
0.0
 40
0.125
 41
0.0
 71
     1
 72
     1
  1
A
  7
SLDTEXTSTYLE0
 73
     1
 44
1.0
  0
MTEXT
  5
EB
330
1F
100
AcDbEntity
  8
0
  6
Continuous
 62
     7
100
AcDbMText
 10
1.7277191885
 20
3.6206785539
 30
0.0
 40
0.125
 41
0.0
 71
     1
 72
     1
  1
A
  7
SLDTEXTSTYLE0
 73
     1
 44
1.0
  0
LINE
  5
EC
330
1F
100
AcDbEntity
  8
0
  6
Continuous
 62
     7
370
     0
100
AcDbLine
 10
4.1773929035
 20
6.9486651748
 30
0.0
 11
4.1773929035
 21
6.9405010937
 31
0.0
  0
LINE
  5
ED
330
1F
100
AcDbEntity
  8
0
  6
Continuous
 62
     7
370
     0
100
AcDbLine
 10
4.5945180988
 20
6.2179407714
 30
0.0
 11
4.6015880174
 21
6.2138580674
 31
0.0
  0
LINE
  5
EE
330
1F
100
AcDbEntity
  8
0
  6
Continuous
 62
     7
370
     0
100
AcDbLine
 10
4.4813515339
 20
7.3270934467
 30
0.0
 11
4.3016813525
 21
7.2233720587
 31
0.0
  0
LINE
  5
EF
330
1F
100
AcDbEntity
  8
0
  6
Continuous
 62
     7
370
     0
100
AcDbLine
 10
5.3375927869
 20
7.8213910006
 30
0.0
 11
4.4936382984
 21
7.3341864448
 31
0.0
  0
LINE
  5
F0
330
1F
100
AcDbEntity
  8
0
  6
Continuous
 62
     7
370
     0
100
AcDbLine
 10
4.901632592
 20
6.1841134238
 30
0.0
 11
5.9375440265
 21
6.7821323657
 31
0.0
  0
LINE
  5
F1
330
1F
100
AcDbEntity
  8
0
  6
Continuous
 62
     7
370
     0
100
AcDbLine
 10
4.4936382984
 20
7.3341864448
 30
0.0
 11
4.4810752612
 21
7.3269339578
 31
0.0
  0
LINE
  5
F2
330
1F
100
AcDbEntity
  8
0
  6
Continuous
 62
     7
370
     0
100
AcDbLine
 10
6.0618324754
 20
7.0568392496
 30
0.0
 11
6.0618324754
 21
7.0650033307
 31
0.0
  0
LINE
  5
F3
330
1F
100
AcDbEntity
  8
0
  6
Continuous
 62
     7
370
     0
100
AcDbLine
 10
5.6447072801
 20
7.787563653
 30
0.0
 11
5.6376373615
 21
7.791646357
 31
0.0
  0
LWPOLYLINE
  5
F4
330
1F
100
AcDbEntity
  8
0
  6
Continuous
 62
     7
370
     0
100
AcDbPolyline
 90
      131
 70
   128
 43
0.0
 10
5.0069889176
 20
6.388791871
 10
5.0095528899
 20
6.4104049011
 10
5.0111476877
 20
6.4326935015
 10
5.011769586
 20
6.4556056162
 10
5.0114171326
 20
6.4790877328
 10
5.0100911505
 20
6.5030850079
 10
5.0077947367
 20
6.5275413945
 10
5.0045332545
 20
6.5523997738
 10
5.0003143212
 20
6.5776020878
 10
4.9951477904
 20
6.6030894754
 10
4.9890457288
 20
6.6288024095
 10
4.982022388
 20
6.6546808365
 10
4.9740941714
 20
6.680664316
 10
4.9652795955
 20
6.7066921624
 10
4.9555992474
 20
6.7327035866
 10
4.945075736
 20
6.7586378375
 10
4.9337336392
 20
6.7844343446
 10
4.9215994472
 20
6.810032859
 10
4.9087015
 20
6.835373594
 10
4.8950699212
 20
6.8603973653
 10
4.880736548
 20
6.8850457287
 10
4.8657348568
 20
6.9092611167
 10
4.8500998847
 20
6.9329869733
 10
4.8338681478
 20
6.9561678855
 10
4.8170775561
 20
6.9787497133
 10
4.7997673249
 20
7.0006797158
 10
4.7819778829
 20
7.0219066745
 10
4.7637507783
 20
7.0423810127
 10
4.7451285813
 20
7.0620549118
 10
4.7261547849
 20
7.0808824224
 10
4.7068737033
 20
7.098819572
 10
4.6873303683
 20
7.1158244676
 10
4.6675704244
 20
7.1318573934
 10
4.6476400217
 20
7.1468809038
 10
4.6275857087
 20
7.1608599107
 10
4.607454323
 20
7.1737617655
 10
4.5872928826
 20
7.1855563353
 10
4.5671484754
 20
7.1962160733
 10
4.5470681496
 20
7.2057160832
 10
4.5270988037
 20
7.2140341773
 10
4.5072870771
 20
7.2211509284
 10
4.4876792409
 20
7.2270497148
 10
4.4683210901
 20
7.2317167598
 10
4.4492578367
 20
7.2351411632
 10
4.4305340038
 20
7.2373149271
 10
4.4121933216
 20
7.2382329747
 10
4.3942786258
 20
7.2378931618
 10
4.3768317569
 20
7.2362962821
 10
4.3598934629
 20
7.2334460651
 10
4.343503304
 20
7.2293491676
 10
4.3276995601
 20
7.2240151582
 10
4.3125191416
 20
7.2174564946
 10
4.2979975032
 20
7.209688495
 10
4.2841685607
 20
7.2007293018
 10
4.2710646123
 20
7.1905998397
 10
4.2587162628
 20
7.1793237665
 10
4.2471523525
 20
7.1669274179
 10
4.2363998893
 20
7.1534397463
 10
4.2264839862
 20
7.1388922528
 10
4.2174278021
 20
7.1233189135
 10
4.2092524883
 20
7.1067561009
 10
4.2019771385
 20
7.0892424981
 10
4.1956187447
 20
7.070819009
 10
4.1901921572
 20
7.0515286625
 10
4.18571005
 20
7.031416512
 10
4.1821828913
 20
7.0105295304
 10
4.1796189189
 20
6.9889165003
 10
4.1780241212
 20
6.9666278999
 10
4.1774022228
 20
6.9437157852
 10
4.1777546763
 20
6.9202336686
 10
4.1790806584
 20
6.8962363935
 10
4.1813770722
 20
6.8717800068
 10
4.1846385544
 20
6.8469216276
 10
4.1888574877
 20
6.8217193135
 10
4.1940240184
 20
6.796231926
 10
4.2001260801
 20
6.7705189919
 10
4.2071494209
 20
6.7446405649
 10
4.2150776375
 20
6.7186570854
 10
4.2238922133
 20
6.692629239
 10
4.2335725614
 20
6.6666178148
 10
4.2440960729
 20
6.6406835639
 10
4.2554381697
 20
6.6148870568
 10
4.2675723616
 20
6.5892885424
 10
4.2804703089
 20
6.5639478074
 10
4.2941018877
 20
6.5389240361
 10
4.3084352608
 20
6.5142756727
 10
4.3234369521
 20
6.4900602847
 10
4.3390719242
 20
6.4663344281
 10
4.3553036611
 20
6.4431535159
 10
4.3720942528
 20
6.4205716881
 10
4.389404484
 20
6.3986416855
 10
4.407193926
 20
6.3774147269
 10
4.4254210306
 20
6.3569403887
 10
4.4440432276
 20
6.3372664896
 10
4.463017024
 20
6.318438979
 10
4.4822981056
 20
6.3005018294
 10
4.5018414405
 20
6.2834969338
 10
4.5216013845
 20
6.267464008
 10
4.5415317872
 20
6.2524404976
 10
4.5615861002
 20
6.2384614907
 10
4.5817174858
 20
6.2255596359
 10
4.6018789262
 20
6.2137650661
 10
4.6220233334
 20
6.2031053281
 10
4.6421036593
 20
6.1936053182
 10
4.6620730052
 20
6.1852872241
 10
4.6818847318
 20
6.178170473
 10
4.701492568
 20
6.1722716866
 10
4.7208507187
 20
6.1676046416
 10
4.7399139722
 20
6.1641802382
 10
4.7586378051
 20
6.1620064743
 10
4.7769784873
 20
6.1610884267
 10
4.7948931831
 20
6.1614282396
 10
4.812340052
 20
6.1630251193
 10
4.829278346
 20
6.1658753363
 10
4.8456685049
 20
6.1699722338
 10
4.8614722488
 20
6.1753062432
 10
4.8766526672
 20
6.1818649068
 10
4.8911743057
 20
6.1896329064
 10
4.9050032482
 20
6.1985920996
 10
4.9181071966
 20
6.2087215617
 10
4.930455546
 20
6.2199976349
 10
4.9420194564
 20
6.2323939834
 10
4.9527719196
 20
6.245881655
 10
4.9626878227
 20
6.2604291486
 10
4.9717440068
 20
6.2760024879
 10
4.9799193206
 20
6.2925653005
 10
4.9871946704
 20
6.3100789033
 10
4.9935530642
 20
6.3285023924
 10
4.9989796517
 20
6.3477927389
 10
5.0034617589
 20
6.3679048894
 10
5.0069889176
 20
6.388791871
  0
LWPOLYLINE
  5
F5
330
1F
100
AcDbEntity
  8
0
  6
Continuous
 62
     7
370
     0
100
AcDbPolyline
 90
       31
 70
   128
 43
0.0
 10
5.021049867
 20
6.3876049483
 10
5.0174939976
 20
6.3665231726
 10
5.0129816897
 20
6.3462170127
 10
5.0075233218
 20
6.3267331734
 10
5.0011314483
 20
6.3081164682
 10
4.9938207707
 20
6.2904097161
 10
4.9856081038
 20
6.2736536432
 10
4.976512337
 20
6.2578867891
 10
4.9665543908
 20
6.2431454179
 10
4.9557571689
 20
6.2294634353
 10
4.9441455051
 20
6.2168723103
 10
4.9317461068
 20
6.2054010029
 10
4.9185874929
 20
6.1950758975
 10
4.9046999286
 20
6.1859207421
 10
4.8901153558
 20
6.1779565939
 10
4.8748673195
 20
6.1712017707
 10
4.8589908907
 20
6.1656718088
 10
4.8425225856
 20
6.1613794273
 10
4.8255002818
 20
6.1583344987
 10
4.8079631313
 20
6.1565440267
 10
4.78995147
 20
6.1560121292
 10
4.7715067253
 20
6.1567400296
 10
4.7526713207
 20
6.1587260538
 10
4.7334885783
 20
6.1619656339
 10
4.714002619
 20
6.1664513187
 10
4.6942582611
 20
6.172172791
 10
4.6743009172
 20
6.1791168911
 10
4.65417649
 20
6.1872676476
 10
4.6339312662
 20
6.1966063133
 10
4.6136118105
 20
6.2071114091
 10
4.6015880174
 20
6.2138580674
  0
LWPOLYLINE
  5
F6
330
1F
100
AcDbEntity
  8
0
  6
Continuous
 62
     7
370
     0
100
AcDbPolyline
 90
       71
 70
   128
 43
0.0
 10
4.1773929035
 20
6.9486651748
 10
4.1776070311
 20
6.9641050706
 10
4.1787408801
 20
6.9869101206
 10
4.1808474495
 20
7.0090638765
 10
4.1839218944
 20
7.030515384
 10
4.1879571434
 20
7.051215304
 10
4.1929439152
 20
7.071116026
 10
4.1988707401
 20
7.0901717776
 10
4.2057239863
 20
7.10833873
 10
4.213487891
 20
7.1255750988
 10
4.2221445971
 20
7.1418412395
 10
4.2316741938
 20
7.1570997397
 10
4.2420547627
 20
7.1713155043
 10
4.2532624283
 20
7.1844558365
 10
4.2652714124
 20
7.1964905132
 10
4.2780540942
 20
7.2073918543
 10
4.2915810729
 20
7.2171347862
 10
4.3058212361
 20
7.2256969
 10
4.320741831
 20
7.2330585025
 10
4.3363085397
 20
7.2392026618
 10
4.3524855583
 20
7.2441152461
 10
4.3692356792
 20
7.2477849563
 10
4.3865203764
 20
7.250203352
 10
4.4042998948
 20
7.2513648708
 10
4.4225333407
 20
7.2512668411
 10
4.4411787767
 20
7.2499094885
 10
4.4601933178
 20
7.2472959348
 10
4.4795332297
 20
7.2434321914
 10
4.4991540302
 20
7.238327145
 10
4.5190105908
 20
7.2319925372
 10
4.5390572406
 20
7.2244429381
 10
4.5592478719
 20
7.2156957118
 10
4.5795360454
 20
7.2057709772
 10
4.5998750978
 20
7.1946915616
 10
4.6202182486
 20
7.182482948
 10
4.6405187078
 20
7.1691732166
 10
4.6607297838
 20
7.1547929802
 10
4.6808049904
 20
7.1393753138
 10
4.700698154
 20
7.1229556785
 10
4.7203635198
 20
7.10557184
 10
4.7397558567
 20
7.0872637817
 10
4.7588305617
 20
7.0680736127
 10
4.7775437624
 20
7.048045471
 10
4.7958524179
 20
7.0272254221
 10
4.8137144177
 20
7.0056613525
 10
4.8310886785
 20
6.9834028606
 10
4.847935239
 20
6.9605011413
 10
4.8642153517
 20
6.9370088696
 10
4.8798915716
 20
6.9129800782
 10
4.8949278431
 20
6.8884700343
 10
4.9092895821
 20
6.8635351117
 10
4.9229437563
 20
6.8382326615
 10
4.9358589606
 20
6.8126208802
 10
4.9480054896
 20
6.7867586757
 10
4.9593554059
 20
6.7607055319
 10
4.9698826044
 20
6.7345213718
 10
4.9795628721
 20
6.7082664199
 10
4.9883739441
 20
6.6820010633
 10
4.9962955547
 20
6.6557857134
 10
5.0033094839
 20
6.6296806661
 10
5.0093995995
 20
6.603745964
 10
5.014551894
 20
6.5780412577
 10
5.0187545169
 20
6.5526256688
 10
5.0219978021
 20
6.527557654
 10
5.0242742899
 20
6.5028948706
 10
5.0255787443
 20
6.4786940437
 10
5.0259081651
 20
6.4550108361
 10
5.0252617945
 20
6.4318997197
 10
5.0236411193
 20
6.4094138511
 10
5.021049867
 20
6.3876049483
 10
5.021049867
 20
6.3876049483
  0
LINE
  5
F7
330
1F
100
AcDbEntity
  8
0
  6
Continuous
 62
     7
370
     0
100
AcDbLine
 10
5.6841447236
 20
7.6584449146
 30
0.0
 11
5.6966338824
 21
7.6656547524
 31
0.0
  0
ARC
  5
F8
330
1F
100
AcDbEntity
  8
0
  6
Continuous
 62
     7
370
     0
100
AcDbCircle
 10
5.107320434
 20
7.032799608
 30
0.0
 40
0.8509749178160274
100
AcDbArc
 50
43.5948621575
 51
47.3249675047
  0
LINE
  5
F9
330
1F
100
AcDbEntity
  8
0
  6
Continuous
 62
     7
370
     0
100
AcDbLine
 10
5.7361143046
 20
7.6268031174
 30
0.0
 11
5.7236251458
 21
7.6195932795
 31
0.0
  0
ARC
  5
FA
330
1F
100
AcDbEntity
  8
0
  6
Continuous
 62
     7
370
     0
100
AcDbCircle
 10
5.1198095927
 20
7.0400094459
 30
0.0
 40
0.8509749178149654
100
AcDbArc
 50
43.5948621575
 51
47.3249675047
  0
SPLINE
  5
FB
330
1F
100
AcDbEntity
  8
0
  6
Continuous
 62
     7
370
     0
100
AcDbSpline
210
0.0
220
0.0
230
1.0
 70
    24
 71
     1
 72
     4
 73
     2
 74
     0
 42
0.00000001
 43
0.00000001
 40
0.0
 40
0.0
 40
1.0
 40
1.0
 10
5.657254877780165
 20
7.681333212953525
 30
0.0
 10
5.663086113676569
 20
7.679828254995322
 30
0.0
  0
SPLINE
  5
FC
330
1F
100
AcDbEntity
  8
0
  6
Continuous
 62
     7
370
     0
100
AcDbSpline
210
0.0
220
0.0
230
1.0
 70
    24
 71
     1
 72
     4
 73
     2
 74
     0
 42
0.00000001
 43
0.00000001
 40
0.0
 40
0.0
 40
1.0
 40
1.0
 10
5.652001180279042
 20
7.684424841292723
 30
0.0
 10
5.657254877780165
 20
7.681333212953525
 30
0.0
  0
SPLINE
  5
FD
330
1F
100
AcDbEntity
  8
0
  6
Continuous
 62
     7
370
     0
100
AcDbSpline
210
0.0
220
0.0
230
1.0
 70
     8
 71
     3
 72
    13
 73
     9
 74
     0
 42
0.00000001
 43
0.00000001
 40
0.0
 40
0.0
 40
0.0
 40
0.0
 40
0.2498441747939706
 40
0.381794705922973
 40
0.4998701509661452
 40
0.6229414449722315
 40
0.7501704474544091
 40
1.0
 40
1.0
 40
1.0
 40
1.0
 10
5.6521919539618
 20
7.695445897207422
 30
0.0
 10
5.65117169158336
 20
7.694773486524878
 30
0.0
 10
5.649612596699272
 20
7.693745954708241
 30
0.0
 10
5.648427410967606
 20
7.6919221633683
 30
0.0
 10
5.648131940024561
 20
7.690389874586839
 30
0.0
 10
5.648470603157393
 20
7.688818499541592
 30
0.0
 10
5.649521752621943
 20
7.686720496589384
 30
0.0
 10
5.651013070447863
 20
7.685339713546056
 30
0.0
 10
5.652001180279042
 20
7.684424841292723
 30
0.0
  0
ARC
  5
FE
330
1F
100
AcDbEntity
  8
0
  6
Continuous
 62
     7
370
     0
100
AcDbCircle
 10
5.6590081806
 20
7.6835559754
 30
0.0
 40
0.0137051518341464
100
AcDbArc
 50
48.1478466441
 51
119.8246842947
  0
SPLINE
  5
FF
330
1F
100
AcDbEntity
  8
0
  6
Continuous
 62
     7
370
     0
100
AcDbSpline
210
0.0
220
0.0
230
1.0
 70
     8
 71
     3
 72
    13
 73
     9
 74
     0
 42
0.00000001
 43
0.00000001
 40
0.0
 40
0.0
 40
0.0
 40
0.0
 40
0.2497059556549134
 40
0.3754902122108013
 40
0.4999844705107294
 40
0.7494478519748368
 40
0.8746685414676576
 40
1.0
 40
1.0
 40
1.0
 40
1.0
 10
5.669519908611309
 20
7.68323911732211
 30
0.0
 10
5.670221633464946
 20
7.683980012531543
 30
0.0
 10
5.671276837829273
 20
7.685094118515464
 30
0.0
 10
5.67177599327419
 20
7.686930615281101
 30
0.0
 10
5.671741105063926
 20
7.68884499722465
 30
0.0
 10
5.670908719187119
 20
7.690788541986518
 30
0.0
 10
5.66951103075076
 20
7.692565989485142
 30
0.0
 10
5.668605413992813
 20
7.693364890680584
 30
0.0
 10
5.668152405427373
 20
7.69376451787531
 30
0.0
  0
SPLINE
  5
100
330
1F
100
AcDbEntity
  8
0
  6
Continuous
 62
     7
370
     0
100
AcDbSpline
210
0.0
220
0.0
230
1.0
 70
    24
 71
     1
 72
     4
 73
     2
 74
     0
 42
0.00000001
 43
0.00000001
 40
0.0
 40
0.0
 40
1.0
 40
1.0
 10
5.685928469667556
 20
7.671019251683234
 30
0.0
 10
5.669519908611309
 20
7.68323911732211
 30
0.0
  0
SPLINE
  5
101
330
1F
100
AcDbEntity
  8
0
  6
Continuous
 62
     7
370
     0
100
AcDbSpline
210
0.0
220
0.0
230
1.0
 70
     8
 71
     3
 72
    12
 73
     8
 74
     0
 42
0.00000001
 43
0.00000001
 40
0.0
 40
0.0
 40
0.0
 40
0.0
 40
0.2504168115017486
 40
0.4997978941598389
 40
0.6250016503732536
 40
0.750154820913109
 40
1.0
 40
1.0
 40
1.0
 40
1.0
 10
5.678992793344755
 20
7.700274867646534
 30
0.0
 10
5.681457570522793
 20
7.698085732255431
 30
0.0
 10
5.686376930512123
 20
7.69371651578014
 30
0.0
 10
5.690276732544599
 20
7.687088613312162
 30
0.0
 10
5.690882761430561
 20
7.681718309589868
 30
0.0
 10
5.690177923327013
 20
7.67645754540422
 30
0.0
 10
5.687627623874616
 20
7.673193766431661
 30
0.0
 10
5.685928469667556
 20
7.671019251683234
 30
0.0
  0
ARC
  5
102
330
1F
100
AcDbEntity
  8
0
  6
Continuous
 62
     7
370
     0
100
AcDbCircle
 10
5.6527718198
 20
7.6721415866
 30
0.0
 40
0.0384580414944263
100
AcDbArc
 50
47.0149660054
 51
116.3929482811
  0
SPLINE
  5
103
330
1F
100
AcDbEntity
  8
0
  6
Continuous
 62
     7
370
     0
100
AcDbSpline
210
0.0
220
0.0
230
1.0
 70
     8
 71
     3
 72
    13
 73
     9
 74
     0
 42
0.00000001
 43
0.00000001
 40
0.0
 40
0.0
 40
0.0
 40
0.0
 40
0.2498089441007584
 40
0.3754926332067754
 40
0.5002625661609414
 40
0.6265425410111327
 40
0.7507234029546002
 40
1.0
 40
1.0
 40
1.0
 40
1.0
 10
5.636568604389125
 20
7.681693278908371
 30
0.0
 10
5.634364748650255
 20
7.683726816495142
 30
0.0
 10
5.631052090660467
 20
7.686783465991541
 30
0.0
 10
5.628734721139895
 20
7.691408810372057
 30
0.0
 10
5.628014650909748
 20
7.694930120266864
 30
0.0
 10
5.628353224244927
 20
7.698345245389727
 30
0.0
 10
5.630153944693063
 20
7.702653037842516
 30
0.0
 10
5.633465712118603
 20
7.705014664637368
 30
0.0
 10
5.635676261390478
 20
7.706591010956719
 30
0.0
  0
SPLINE
  5
104
330
1F
100
AcDbEntity
  8
0
  6
Continuous
 62
     7
370
     0
100
AcDbSpline
210
0.0
220
0.0
230
1.0
 70
     8
 71
     3
 72
     9
 73
     5
 74
     0
 42
0.00000001
 43
0.00000001
 40
0.0
 40
0.0
 40
0.0
 40
0.0
 40
0.5003482590474724
 40
1.0
 40
1.0
 40
1.0
 40
1.0
 10
5.649314446770177
 20
7.675048803669819
 30
0.0
 10
5.646960215623049
 20
7.675918728574754
 30
0.0
 10
5.642255030575319
 20
7.67765736739123
 30
0.0
 10
5.638463199424853
 20
7.680348599900038
 30
0.0
 10
5.636568604389125
 20
7.681693278908372
 30
0.0
  0
SPLINE
  5
105
330
1F
100
AcDbEntity
  8
0
  6
Continuous
 62
     7
370
     0
100
AcDbSpline
210
0.0
220
0.0
230
1.0
 70
    24
 71
     1
 72
     4
 73
     2
 74
     0
 42
0.00000001
 43
0.00000001
 40
0.0
 40
0.0
 40
1.0
 40
1.0
 10
5.639170896714926
 20
7.671274549354304
 30
0.0
 10
5.649314446770177
 20
7.675048803669819
 30
0.0
  0
ARC
  5
106
330
1F
100
AcDbEntity
  8
0
  6
Continuous
 62
     7
370
     0
100
AcDbCircle
 10
5.166228653
 20
7.1091609329
 30
0.0
 40
0.7346060738122964
100
AcDbArc
 50
49.9239460478
 51
52.3455328097
  0
LINE
  5
107
330
1F
100
AcDbEntity
  8
0
  6
Continuous
 62
     7
370
     0
100
AcDbLine
 10
5.601774266
 20
7.6831214195
 30
0.0
 11
5.6149980812
 21
7.6907553655
 31
0.0
  0
ARC
  5
108
330
1F
100
AcDbEntity
  8
0
  6
Continuous
 62
     7
370
     0
100
AcDbCircle
 10
5.1454957256
 20
7.0921403026
 30
0.0
 40
0.7466249305873116
100
AcDbArc
 50
48.7590317688
 51
52.3293617244
  0
SPLINE
  5
109
330
1F
100
AcDbEntity
  8
0
  6
Continuous
 62
     7
370
     0
100
AcDbSpline
210
0.0
220
0.0
230
1.0
 70
    24
 71
     1
 72
     4
 73
     2
 74
     0
 42
0.00000001
 43
0.00000001
 40
0.0
 40
0.0
 40
1.0
 40
1.0
 10
5.674527966018107
 20
7.667565091506765
 30
0.0
 10
5.637691256239064
 20
7.653560240476193
 30
0.0
  0
SPLINE
  5
10A
330
1F
100
AcDbEntity
  8
0
  6
Continuous
 62
     7
370
     0
100
AcDbSpline
210
0.0
220
0.0
230
1.0
 70
    24
 71
     1
 72
     4
 73
     2
 74
     0
 42
0.00000001
 43
0.00000001
 40
0.0
 40
0.0
 40
1.0
 40
1.0
 10
5.663086113676569
 20
7.679828254995322
 30
0.0
 10
5.674527966018107
 20
7.667565091506765
 30
0.0
  0
LINE
  5
10B
330
1F
100
AcDbEntity
  8
0
  6
Continuous
 62
     7
370
     0
100
AcDbLine
 10
5.5586177501
 20
7.7561016643
 30
0.0
 11
5.5793258773
 21
7.7680562117
 31
0.0
  0
ARC
  5
10C
330
1F
100
AcDbEntity
  8
0
  6
Continuous
 62
     7
370
     0
100
AcDbCircle
 10
5.5497474333
 20
7.7686216216
 30
0.0
 40
0.0153437887217392
100
AcDbArc
 50
245.607801355
 51
305.3173496516
  0
SPLINE
  5
10D
330
1F
100
AcDbEntity
  8
0
  6
Continuous
 62
     7
370
     0
100
AcDbSpline
210
0.0
220
0.0
230
1.0
 70
     8
 71
     3
 72
    11
 73
     7
 74
     0
 42
0.00000001
 43
0.00000001
 40
0.0
 40
0.0
 40
0.0
 40
0.0
 40
0.250062033365931
 40
0.4999138376967025
 40
0.7498401673007721
 40
1.0
 40
1.0
 40
1.0
 40
1.0
 10
5.541911304713518
 20
7.759199592431061
 30
0.0
 10
5.541647433431979
 20
7.758803343871578
 30
0.0
 10
5.541119912707472
 20
7.75801117988176
 30
0.0
 10
5.541181347889826
 20
7.756747917336541
 30
0.0
 10
5.541921322964325
 20
7.755563720927618
 30
0.0
 10
5.542914119031096
 20
7.754952949395881
 30
0.0
 10
5.543410748845494
 20
7.754647421037541
 30
0.0
  0
SPLINE
  5
10E
330
1F
100
AcDbEntity
  8
0
  6
Continuous
 62
     7
370
     0
100
AcDbSpline
210
0.0
220
0.0
230
1.0
 70
    24
 71
     1
 72
     4
 73
     2
 74
     0
 42
0.00000001
 43
0.00000001
 40
0.0
 40
0.0
 40
1.0
 40
1.0
 10
5.545229106789668
 20
7.761467800455763
 30
0.0
 10
5.541911304713518
 20
7.759199592431061
 30
0.0
  0
LINE
  5
10F
330
1F
100
AcDbEntity
  8
0
  6
Continuous
 62
     7
370
     0
100
AcDbLine
 10
5.5675787318
 20
7.7743699644
 30
0.0
 11
5.5452291068
 21
7.7614678005
 31
0.0
  0
ARC
  5
110
330
1F
100
AcDbEntity
  8
0
  6
Continuous
 62
     7
370
     0
100
AcDbCircle
 10
5.3315708635
 20
7.3219460505
 30
0.0
 40
0.510281404424872
100
AcDbArc
 50
62.4511097318
 51
64.383849258
  0
LINE
  5
111
330
1F
100
AcDbEntity
  8
0
  6
Continuous
 62
     7
370
     0
100
AcDbLine
 10
5.5311907947
 20
7.7699520346
 30
0.0
 11
5.5521858971
 21
7.7820722492
 31
0.0
  0
ARC
  5
112
330
1F
100
AcDbEntity
  8
0
  6
Continuous
 62
     7
370
     0
100
AcDbCircle
 10
5.5220744948
 20
7.7829547089
 30
0.0
 40
0.0158800649632045
100
AcDbArc
 50
248.837979032
 51
305.0346663528
  0
ARC
  5
113
330
1F
100
AcDbEntity
  8
0
  6
Continuous
 62
     7
370
     0
100
AcDbCircle
 10
5.5171474687
 20
7.7708574524
 30
0.0
 40
0.0028290871919506
100
AcDbArc
 50
172.2700463174
 51
253.4519155292
  0
SPLINE
  5
114
330
1F
100
AcDbEntity
  8
0
  6
Continuous
 62
     7
370
     0
100
AcDbSpline
210
0.0
220
0.0
230
1.0
 70
     8
 71
     3
 72
     9
 73
     5
 74
     0
 42
0.00000001
 43
0.00000001
 40
0.0
 40
0.0
 40
0.0
 40
0.0
 40
0.5015771373281234
 40
1.0
 40
1.0
 40
1.0
 40
1.0
 10
5.5173126732486
 20
7.774110275340524
 30
0.0
 10
5.516593420611197
 20
7.773680208298771
 30
0.0
 10
5.515159438509788
 20
7.772822778783454
 30
0.0
 10
5.514615300289224
 20
7.771765132010533
 30
0.0
 10
5.514344089359642
 20
7.771237976678278
 30
0.0
  0
LINE
  5
115
330
1F
100
AcDbEntity
  8
0
  6
Continuous
 62
     7
370
     0
100
AcDbLine
 10
5.5404887867
 20
7.7874895609
 30
0.0
 11
5.5173126732
 21
7.7741102753
 31
0.0
  0
ARC
  5
116
330
1F
100
AcDbEntity
  8
0
  6
Continuous
 62
     7
370
     0
100
AcDbCircle
 10
5.3528342293
 20
7.3678433665
 30
0.0
 40
0.4596924639441152
100
AcDbArc
 50
65.9070832783
 51
67.9791469988
  0
LINE
  5
117
330
1F
100
AcDbEntity
  8
0
  6
Continuous
 62
     7
370
     0
100
AcDbLine
 10
5.499468717
 20
7.7791496842
 30
0.0
 11
5.5251931699
 21
7.7940000947
 31
0.0
  0
SPLINE
  5
118
330
1F
100
AcDbEntity
  8
0
  6
Continuous
 62
     7
370
     0
100
AcDbSpline
210
0.0
220
0.0
230
1.0
 70
     8
 71
     3
 72
    13
 73
     9
 74
     0
 42
0.00000001
 43
0.00000001
 40
0.0
 40
0.0
 40
0.0
 40
0.0
 40
0.249355101100399
 40
0.3758643206382836
 40
0.4994912623309938
 40
0.6184449072803435
 40
0.749784392502018
 40
1.0
 40
1.0
 40
1.0
 40
1.0
 10
5.497313249809098
 20
7.763894151137285
 30
0.0
 10
5.495425159339374
 20
7.764878570104834
 30
0.0
 10
5.492579154430813
 20
7.766362429728432
 30
0.0
 10
5.490928464359429
 20
7.769018095013494
 30
0.0
 10
5.490809641413873
 20
7.771132563551628
 30
0.0
 10
5.491865385223341
 20
7.773300754410823
 30
0.0
 10
5.494521720002522
 20
7.776072206625962
 30
0.0
 10
5.4975094367453
 20
7.777930835436051
 30
0.0
 10
5.499468717001522
 20
7.779149684157252
 30
0.0
  0
ARC
  5
119
330
1F
100
AcDbEntity
  8
0
  6
Continuous
 62
     7
370
     0
100
AcDbCircle
 10
5.5124915768
 20
7.8001428095
 30
0.0
 40
0.0392981785939692
100
AcDbArc
 50
247.2795759573
 51
279.051599192
  0
SPLINE
  5
11A
330
1F
100
AcDbEntity
  8
0
  6
Continuous
 62
     7
370
     0
100
AcDbSpline
210
0.0
220
0.0
230
1.0
 70
     8
 71
     3
 72
    12
 73
     8
 74
     0
 42
0.00000001
 43
0.00000001
 40
0.0
 40
0.0
 40
0.0
 40
0.0
 40
0.2503533688407791
 40
0.499996194321626
 40
0.7494886161542262
 40
0.8747044873187718
 40
1.0
 40
1.0
 40
1.0
 40
1.0
 10
5.524178527312612
 20
7.750987723209447
 30
0.0
 10
5.522954547008944
 20
7.75167188094674
 30
0.0
 10
5.52051006025571
 20
7.753038254670992
 30
0.0
 10
5.517946928211983
 20
7.755566045426929
 30
0.0
 10
5.517527896574883
 20
7.757990967221229
 30
0.0
 10
5.517948877330293
 20
7.759915667076789
 30
0.0
 10
5.518432320613435
 20
7.760861128017097
 30
0.0
 10
5.518674119102125
 20
7.761334008775717
 30
0.0
  0
ARC
  5
11B
330
1F
100
AcDbEntity
  8
0
  6
Continuous
 62
     7
370
     0
100
AcDbCircle
 10
5.5411387477
 20
7.786185002
 30
0.0
 40
0.0390704173441762
100
AcDbArc
 50
244.2723640174
 51
276.4893705235
  0
LINE
  5
11C
330
1F
100
AcDbEntity
  8
0
  6
Continuous
 62
     7
370
     0
100
AcDbLine
 10
5.5392409893
 20
7.743720236
 30
0.0
 11
5.5455544427
 21
7.7473649151
 31
0.0
  0
ARC
  5
11D
330
1F
100
AcDbEntity
  8
0
  6
Continuous
 62
     7
370
     0
100
AcDbCircle
 10
5.2646923176
 20
7.2503893171
 30
0.0
 40
0.5645815872654206
100
AcDbArc
 50
59.2201163535
 51
60.9031740876
  0
LINE
  5
11E
330
1F
100
AcDbEntity
  8
0
  6
Continuous
 62
     7
370
     0
100
AcDbLine
 10
5.594752766
 20
7.7591937819
 30
0.0
 11
5.5536120078
 21
7.7354437278
 31
0.0
  0
ARC
  5
11F
330
1F
100
AcDbEntity
  8
0
  6
Continuous
 62
     7
370
     0
100
AcDbCircle
 10
5.3063652162
 20
7.2750537694
 30
0.0
 40
0.5635236734777216
100
AcDbArc
 50
59.2190231248
 51
61.0280166487
  0
SPLINE
  5
120
330
1F
100
AcDbEntity
  8
0
  6
Continuous
 62
     7
370
     0
100
AcDbSpline
210
0.0
220
0.0
230
1.0
 70
    24
 71
     1
 72
     4
 73
     2
 74
     0
 42
0.00000001
 43
0.00000001
 40
0.0
 40
0.0
 40
1.0
 40
1.0
 10
5.2813713924303
 20
6.995276030607772
 30
0.0
 10
5.28676888000457
 20
6.985780666143171
 30
0.0
  0
SPLINE
  5
121
330
1F
100
AcDbEntity
  8
0
  6
Continuous
 62
     7
370
     0
100
AcDbSpline
210
0.0
220
0.0
230
1.0
 70
    24
 71
     1
 72
     4
 73
     2
 74
     0
 42
0.00000001
 43
0.00000001
 40
0.0
 40
0.0
 40
1.0
 40
1.0
 10
5.27547324257701
 20
7.002583385233557
 30
0.0
 10
5.2813713924303
 20
6.995276030607772
 30
0.0
  0
ARC
  5
122
330
1F
100
AcDbEntity
  8
0
  6
Continuous
 62
     7
370
     0
100
AcDbCircle
 10
5.265004703
 20
6.9899589931
 30
0.0
 40
0.016400170687761
100
AcDbArc
 50
50.3334189821
 51
119.3433673012
  0
ARC
  5
123
330
1F
100
AcDbEntity
  8
0
  6
Continuous
 62
     7
370
     0
100
AcDbCircle
 10
5.267825966
 20
6.9882243789
 30
0.0
 40
0.019361762629047
100
AcDbArc
 50
124.1110169483
 51
204.4450765322
  0
SPLINE
  5
124
330
1F
100
AcDbEntity
  8
0
  6
Continuous
 62
     7
370
     0
100
AcDbSpline
210
0.0
220
0.0
230
1.0
 70
     8
 71
     3
 72
     9
 73
     5
 74
     0
 42
0.00000001
 43
0.00000001
 40
0.0
 40
0.0
 40
0.0
 40
0.0
 40
0.4993318956962354
 40
1.0
 40
1.0
 40
1.0
 40
1.0
 10
5.242722136852627
 20
6.986056025544634
 30
0.0
 10
5.244101056804427
 20
6.985349946979065
 30
0.0
 10
5.246862586688026
 20
6.983935900386701
 30
0.0
 10
5.249086420553945
 20
6.981454458312133
 30
0.0
 10
5.250199823239879
 20
6.980212079412721
 30
0.0
  0
SPLINE
  5
125
330
1F
100
AcDbEntity
  8
0
  6
Continuous
 62
     7
370
     0
100
AcDbSpline
210
0.0
220
0.0
230
1.0
 70
     8
 71
     3
 72
     9
 73
     5
 74
     0
 42
0.00000001
 43
0.00000001
 40
0.0
 40
0.0
 40
0.0
 40
0.0
 40
0.5001300021535758
 40
1.0
 40
1.0
 40
1.0
 40
1.0
 10
5.232400992031657
 20
6.985306435425098
 30
0.0
 10
5.23402871790871
 20
6.98603973696448
 30
0.0
 10
5.237283323451355
 20
6.987505958819249
 30
0.0
 10
5.240909513327199
 20
6.9865392528536
 30
0.0
 10
5.242722136852627
 20
6.986056025544634
 30
0.0
  0
SPLINE
  5
126
330
1F
100
AcDbEntity
  8
0
  6
Continuous
 62
     7
370
     0
100
AcDbSpline
210
0.0
220
0.0
230
1.0
 70
     8
 71
     3
 72
    13
 73
     9
 74
     0
 42
0.00000001
 43
0.00000001
 40
0.0
 40
0.0
 40
0.0
 40
0.0
 40
0.250232978722579
 40
0.4994066255425478
 40
0.6257013607153773
 40
0.7496002874224829
 40
0.8740371171768141
 40
0.9999999999999999
 40
0.9999999999999999
 40
0.9999999999999999
 40
0.9999999999999999
 10
5.228839684760768
 20
6.956094323166162
 30
0.0
 10
5.227738460619825
 20
6.95873791949955
 30
0.0
 10
5.225540674240902
 20
6.964013920811985
 30
0.0
 10
5.224753349595576
 20
6.971316591392519
 30
0.0
 10
5.225724540973246
 20
6.976693758817571
 30
0.0
 10
5.227235100048054
 20
6.980300657891471
 30
0.0
 10
5.229455285210128
 20
6.983318496821351
 30
0.0
 10
5.231415108397826
 20
6.984641102364738
 30
0.0
 10
5.232400992031657
 20
6.985306435425098
 30
0.0
  0
ARC
  5
127
330
1F
100
AcDbEntity
  8
0
  6
Continuous
 62
     7
370
     0
100
AcDbCircle
 10
4.3211137521
 20
6.5383405912
 30
0.0
 40
0.9992419874460527
100
AcDbArc
 50
22.1175279062
 51
24.712838395
  0
LINE
  5
128
330
1F
100
AcDbEntity
  8
0
  6
Continuous
 62
     7
370
     0
100
AcDbLine
 10
5.3033935546
 20
6.9472192069
 30
0.0
 11
5.2468250121
 21
6.9145628825
 31
0.0
  0
ARC
  5
129
330
1F
100
AcDbEntity
  8
0
  6
Continuous
 62
     7
370
     0
100
AcDbCircle
 10
4.3786495137
 20
6.5714065142
 30
0.0
 40
0.9981917257019897
100
AcDbArc
 50
22.1166501411
 51
24.5271767015
  0
SPLINE
  5
12A
330
1F
100
AcDbEntity
  8
0
  6
Continuous
 62
     7
370
     0
100
AcDbSpline
210
0.0
220
0.0
230
1.0
 70
    24
 71
     1
 72
     4
 73
     2
 74
     0
 42
0.00000001
 43
0.00000001
 40
0.0
 40
0.0
 40
1.0
 40
1.0
 10
5.141225512705184
 20
7.110081736635282
 30
0.0
 10
5.180673957789428
 20
7.166833294167796
 30
0.0
  0
ARC
  5
12B
330
1F
100
AcDbEntity
  8
0
  6
Continuous
 62
     7
370
     0
100
AcDbCircle
 10
4.2965362905
 20
6.5282722874
 30
0.0
 40
1.025671544515595
100
AcDbArc
 50
32.9938073968
 51
34.558496182
  0
SPLINE
  5
12C
330
1F
100
AcDbEntity
  8
0
  6
Continuous
 62
     7
370
     0
100
AcDbSpline
210
0.0
220
0.0
230
1.0
 70
    24
 71
     1
 72
     4
 73
     2
 74
     0
 42
0.00000001
 43
0.00000001
 40
0.0
 40
0.0
 40
1.0
 40
1.0
 10
5.22895736451347
 20
7.094681562531574
 30
0.0
 10
5.156797198746019
 20
7.086800072807978
 30
0.0
  0
ARC
  5
12D
330
1F
100
AcDbEntity
  8
0
  6
Continuous
 62
     7
370
     0
100
AcDbCircle
 10
4.3452727585
 20
6.5558461854
 30
0.0
 40
1.035008235017524
100
AcDbArc
 50
31.373161128
 51
32.773174845
  0
SPLINE
  5
12E
330
1F
100
AcDbEntity
  8
0
  6
Continuous
 62
     7
370
     0
100
AcDbSpline
210
0.0
220
0.0
230
1.0
 70
    24
 71
     1
 72
     4
 73
     2
 74
     0
 42
0.00000001
 43
0.00000001
 40
0.0
 40
0.0
 40
1.0
 40
1.0
 10
5.203788758264264
 20
7.113983726478695
 30
0.0
 10
5.215528519566873
 20
7.116111262735665
 30
0.0
  0
ARC
  5
12F
330
1F
100
AcDbEntity
  8
0
  6
Continuous
 62
     7
370
     0
100
AcDbCircle
 10
4.3435235056
 20
6.5553949125
 30
0.0
 40
1.025708422483103
100
AcDbArc
 50
32.9965345088
 51
34.545837974
  0
SPLINE
  5
130
330
1F
100
AcDbEntity
  8
0
  6
Continuous
 62
     7
370
     0
100
AcDbSpline
210
0.0
220
0.0
230
1.0
 70
    24
 71
     1
 72
     4
 73
     2
 74
     0
 42
0.00000001
 43
0.00000001
 40
0.0
 40
0.0
 40
1.0
 40
1.0
 10
5.195638364592673
 20
7.145855168253322
 30
0.0
 10
5.18837162022656
 20
7.137038644740564
 30
0.0
  0
ARC
  5
131
330
1F
100
AcDbEntity
  8
0
  6
Continuous
 62
     7
370
     0
100
AcDbCircle
 10
4.3651274779
 20
6.5692500324
 30
0.0
 40
1.011049858108292
100
AcDbArc
 50
34.7713830007
 51
36.2317124317
  0
LINE
  5
132
330
1F
100
AcDbEntity
  8
0
  6
Continuous
 62
     7
370
     0
100
AcDbLine
 10
5.0521101275
 20
7.295160512
 30
0.0
 11
5.0616606607
 21
7.3006739174
 31
0.0
  0
ARC
  5
133
330
1F
100
AcDbEntity
  8
0
  6
Continuous
 62
     7
370
     0
100
AcDbCircle
 10
4.5086217462
 20
6.7030133887
 30
0.0
 40
0.8037523475287258
100
AcDbArc
 50
47.4534600313
 51
48.1333051703
  0
LINE
  5
134
330
1F
100
AcDbEntity
  8
0
  6
Continuous
 62
     7
370
     0
100
AcDbLine
 10
5.0318220756
 20
7.2939335117
 30
0.0
 11
5.0450458907
 21
7.3015674577
 31
0.0
  0
ARC
  5
135
330
1F
100
AcDbEntity
  8
0
  6
Continuous
 62
     7
370
     0
100
AcDbCircle
 10
4.4953979311
 20
6.6953794427
 30
0.0
 40
0.8037523475345442
100
AcDbArc
 50
47.4534600313
 51
48.1333051703
  0
LINE
  5
136
330
1F
100
AcDbEntity
  8
0
  6
Continuous
 62
     7
370
     0
100
AcDbLine
 10
5.0043574618
 20
7.2675934848
 30
0.0
 11
5.0388863124
 21
7.287526566
 31
0.0
  0
ARC
  5
137
330
1F
100
AcDbEntity
  8
0
  6
Continuous
 62
     7
370
     0
100
AcDbCircle
 10
4.4472731189
 20
6.6606840093
 30
0.0
 40
0.8238216291262698
100
AcDbArc
 50
46.1804346184
 51
47.4510681124
  0
SPLINE
  5
138
330
1F
100
AcDbEntity
  8
0
  6
Continuous
 62
     7
370
     0
100
AcDbSpline
210
0.0
220
0.0
230
1.0
 70
    24
 71
     1
 72
     4
 73
     2
 74
     0
 42
0.00000001
 43
0.00000001
 40
0.0
 40
0.0
 40
1.0
 40
1.0
 10
5.079163593818945
 20
7.248106519658561
 30
0.0
 10
5.01767864748667
 20
7.255090948634431
 30
0.0
  0
LINE
  5
139
330
1F
100
AcDbEntity
  8
0
  6
Continuous
 62
     7
370
     0
100
AcDbLine
 10
5.0923070559
 20
7.2556940788
 30
0.0
 11
5.0791635938
 21
7.2481065197
 31
0.0
  0
ARC
  5
13A
330
1F
100
AcDbEntity
  8
0
  6
Continuous
 62
     7
370
     0
100
AcDbCircle
 10
4.4683414369
 20
6.6606443058
 30
0.0
 40
0.8622165192622847
100
AcDbArc
 50
43.6411612867
 51
46.1712124705
  0
LINE
  5
13B
330
1F
100
AcDbEntity
  8
0
  6
Continuous
 62
     7
370
     0
100
AcDbLine
 10
5.0749818464
 20
7.2881713812
 30
0.0
 11
5.0654313132
 21
7.2826579758
 31
0.0
  0
ARC
  5
13C
330
1F
100
AcDbEntity
  8
0
  6
Continuous
 62
     7
370
     0
100
AcDbCircle
 10
4.5045763177
 20
6.6937644419
 30
0.0
 40
0.8238216291475803
100
AcDbArc
 50
46.1804346184
 51
47.4510681124
  0
ARC
  5
13D
330
1F
100
AcDbEntity
  8
0
  6
Continuous
 62
     7
370
     0
100
AcDbCircle
 10
4.9508726953
 20
7.3306331064
 30
0.0
 40
0.0462319366559641
100
AcDbArc
 50
57.2302419975
 51
127.1651946714
  0
SPLINE
  5
13E
330
1F
100
AcDbEntity
  8
0
  6
Continuous
 62
     7
370
     0
100
AcDbSpline
210
0.0
220
0.0
230
1.0
 70
    24
 71
     1
 72
     4
 73
     2
 74
     0
 42
0.00000001
 43
0.00000001
 40
0.0
 40
0.0
 40
1.0
 40
1.0
 10
4.911463755503966
 20
7.358946140145052
 30
0.0
 10
4.922943282502019
 20
7.36747520011205
 30
0.0
  0
SPLINE
  5
13F
330
1F
100
AcDbEntity
  8
0
  6
Continuous
 62
     7
370
     0
100
AcDbSpline
210
0.0
220
0.0
230
1.0
 70
     8
 71
     3
 72
    12
 73
     8
 74
     0
 42
0.00000001
 43
0.00000001
 40
0.0
 40
0.0
 40
0.0
 40
0.0
 40
0.25033094942998
 40
0.4997648043321521
 40
0.6249322238031069
 40
0.7501904501281049
 40
1.0
 40
1.0
 40
1.0
 40
1.0
 10
4.917435130303803
 20
7.336285710697493
 30
0.0
 10
4.915107391112667
 20
7.337935279428653
 30
0.0
 10
4.910460254495947
 20
7.341228505440207
 30
0.0
 10
4.907108925618271
 20
7.346270571867154
 30
0.0
 10
4.906735172633007
 20
7.350388200985749
 30
0.0
 10
4.907480751479499
 20
7.354470078661277
 30
0.0
 10
4.909871455061975
 20
7.357156728275212
 30
0.0
 10
4.911463755503966
 20
7.358946140145052
 30
0.0
  0
ARC
  5
140
330
1F
100
AcDbEntity
  8
0
  6
Continuous
 62
     7
370
     0
100
AcDbCircle
 10
4.9437263903
 20
7.3732925714
 30
0.0
 40
0.0453953532053299
100
AcDbArc
 50
234.6083817519
 51
305.3426035266
  0
ARC
  5
141
330
1F
100
AcDbEntity
  8
0
  6
Continuous
 62
     7
370
     0
100
AcDbCircle
 10
4.9550375085
 20
7.3683334324
 30
0.0
 40
0.0353829700417143
100
AcDbArc
 50
294.991039503
 51
331.0193183279
  0
ARC
  5
142
330
1F
100
AcDbEntity
  8
0
  6
Continuous
 62
     7
370
     0
100
AcDbCircle
 10
4.9693454464
 20
7.353957877
 30
0.0
 40
0.0168730805441128
100
AcDbArc
 50
350.5580008205
 51
67.1544214581
  0
ARC
  5
143
330
1F
100
AcDbEntity
  8
0
  6
Continuous
 62
     7
370
     0
100
AcDbCircle
 10
4.8281716717
 20
7.5840949884
 30
0.0
 40
0.1944125039546778
100
AcDbArc
 50
275.7564261941
 51
294.5913786767
  0
ARC
  5
144
330
1F
100
AcDbEntity
  8
0
  6
Continuous
 62
     7
370
     0
100
AcDbCircle
 10
4.6951542235
 20
6.9694307179
 30
0.0
 40
0.4873455476644736
100
AcDbArc
 50
63.9630006421
 51
65.9559173725
  0
ARC
  5
145
330
1F
100
AcDbEntity
  8
0
  6
Continuous
 62
     7
370
     0
100
AcDbCircle
 10
4.8201505289
 20
7.5585920885
 30
0.0
 40
0.1617945374117135
100
AcDbArc
 50
289.2444828378
 51
297.0454315228
  0
ARC
  5
146
330
1F
100
AcDbEntity
  8
0
  6
Continuous
 62
     7
370
     0
100
AcDbCircle
 10
4.8139731608
 20
7.5784860152
 30
0.0
 40
0.1826143041380098
100
AcDbArc
 50
281.017837104
 51
289.017057949
  0
ARC
  5
147
330
1F
100
AcDbEntity
  8
0
  6
Continuous
 62
     7
370
     0
100
AcDbCircle
 10
4.8141817951
 20
7.5821858399
 30
0.0
 40
0.1862082924277204
100
AcDbArc
 50
274.0543957132
 51
280.7372532638
  0
LINE
  5
148
330
1F
100
AcDbEntity
  8
0
  6
Continuous
 62
     7
370
     0
100
AcDbLine
 10
4.816775211
 20
7.3903403762
 30
0.0
 11
4.8273473757
 21
7.396443557
 31
0.0
  0
ARC
  5
149
330
1F
100
AcDbEntity
  8
0
  6
Continuous
 62
     7
370
     0
100
AcDbCircle
 10
4.6431924419
 20
6.9460262995
 30
0.0
 40
0.4770177947889195
100
AcDbArc
 50
62.69188318
 51
68.6606141438
  0
LINE
  5
14A
330
1F
100
AcDbEntity
  8
0
  6
Continuous
 62
     7
370
     0
100
AcDbLine
 10
4.8752603038
 20
7.3775154798
 30
0.0
 11
4.8620364887
 21
7.3698815339
 31
0.0
  0
ARC
  5
14B
330
1F
100
AcDbEntity
  8
0
  6
Continuous
 62
     7
370
     0
100
AcDbCircle
 10
4.6491744299
 20
6.9386061504
 30
0.0
 40
0.4937167425093514
100
AcDbArc
 50
62.7466247772
 51
66.2938654723
  0
ARC
  5
14C
330
1F
100
AcDbEntity
  8
0
  6
Continuous
 62
     7
370
     0
100
AcDbCircle
 10
4.7888686556
 20
7.3658984855
 30
0.0
 40
0.0793626177110381
100
AcDbArc
 50
86.2902800743
 51
125.5347831549
  0
SPLINE
  5
14D
330
1F
100
AcDbEntity
  8
0
  6
Continuous
 62
     7
370
     0
100
AcDbSpline
210
0.0
220
0.0
230
1.0
 70
    24
 71
     1
 72
     4
 73
     2
 74
     0
 42
0.00000001
 43
0.00000001
 40
0.0
 40
0.0
 40
1.0
 40
1.0
 10
4.73113053994815
 20
7.422817213085131
 30
0.0
 10
4.74274333374684
 20
7.430480834294469
 30
0.0
  0
SPLINE
  5
14E
330
1F
100
AcDbEntity
  8
0
  6
Continuous
 62
     7
370
     0
100
AcDbSpline
210
0.0
220
0.0
230
1.0
 70
     8
 71
     3
 72
    12
 73
     8
 74
     0
 42
0.00000001
 43
0.00000001
 40
0.0
 40
0.0
 40
0.0
 40
0.0
 40
0.2503309494299772
 40
0.4997648043321508
 40
0.6249322238031046
 40
0.7501904501281056
 40
1.0
 40
1.0
 40
1.0
 40
1.0
 10
4.735567867653638
 20
7.411648149771724
 30
0.0
 10
4.733391706862641
 20
7.412012103062594
 30
0.0
 10
4.729047183844674
 20
7.412738705368906
 30
0.0
 10
4.72611110868169
 20
7.414702959368181
 30
0.0
 10
4.726011166327411
 20
7.416888037320035
 30
0.0
 10
4.726996999365517
 20
7.419328965306263
 30
0.0
 10
4.729478058942284
 20
7.421422703201146
 30
0.0
 10
4.73113053994815
 20
7.422817213085131
 30
0.0
  0
ARC
  5
14F
330
1F
100
AcDbEntity
  8
0
  6
Continuous
 62
     7
370
     0
100
AcDbCircle
 10
4.7441597661
 20
7.4881473734
 30
0.0
 40
0.0769802048332734
100
AcDbArc
 50
263.5917634472
 51
303.7813500519
  0
ARC
  5
150
330
1F
100
AcDbEntity
  8
0
  6
Continuous
 62
     7
370
     0
100
AcDbCircle
 10
4.7656533562
 20
7.468097031
 30
0.0
 40
0.0488281857694079
100
AcDbArc
 50
295.8753448646
 51
320.1424007717
  0
SPLINE
  5
151
330
1F
100
AcDbEntity
  8
0
  6
Continuous
 62
     7
370
     0
100
AcDbSpline
210
0.0
220
0.0
230
1.0
 70
     8
 71
     3
 72
    13
 73
     9
 74
     0
 42
0.00000001
 43
0.00000001
 40
0.0
 40
0.0
 40
0.0
 40
0.0
 40
0.1642852522936178
 40
0.3377332377150317
 40
0.5003699049563881
 40
0.7497971218191617
 40
0.8748630895912792
 40
1.0
 40
1.0
 40
1.0
 40
1.0
 10
4.79400354383264
 20
7.445094811276849
 30
0.0
 10
4.795109033154095
 20
7.444910674988695
 30
0.0
 10
4.797381668601171
 20
7.444532132521182
 30
0.0
 10
4.800265075992679
 20
7.443652602528624
 30
0.0
 10
4.802894097154531
 20
7.442239296126423
 30
0.0
 10
4.803939272483099
 20
7.440390648208083
 30
0.0
 10
4.803868837813988
 20
7.43841294597404
 30
0.0
 10
4.803380196712983
 20
7.437340375955896
 30
0.0
 10
4.803135806887721
 20
7.436803938888333
 30
0.0
  0
LINE
  5
152
330
1F
100
AcDbEntity
  8
0
  6
Continuous
 62
     7
370
     0
100
AcDbLine
 10
4.6838887918
 20
7.4312310812
 30
0.0
 11
4.7045969189
 21
7.4431856285
 31
0.0
  0
ARC
  5
153
330
1F
100
AcDbEntity
  8
0
  6
Continuous
 62
     7
370
     0
100
AcDbCircle
 10
4.655531317
 20
7.4768322729
 30
0.0
 40
0.0536993022383597
100
AcDbArc
 50
285.4340131954
 51
301.8757534349
  0
SPLINE
  5
154
330
1F
100
AcDbEntity
  8
0
  6
Continuous
 62
     7
370
     0
100
AcDbSpline
210
0.0
220
0.0
230
1.0
 70
     8
 71
     3
 72
    11
 73
     7
 74
     0
 42
0.00000001
 43
0.00000001
 40
0.0
 40
0.0
 40
0.0
 40
0.0
 40
0.2500620333659082
 40
0.4999138376966748
 40
0.7498401673007529
 40
0.9999999999999999
 40
0.9999999999999999
 40
0.9999999999999999
 40
0.9999999999999999
 10
4.669213989242742
 20
7.426082248894466
 30
0.0
 10
4.668909092738712
 20
7.42584643985107
 30
0.0
 10
4.668299556059439
 20
7.42537502001072
 30
0.0
 10
4.668144727849558
 20
7.424963383508467
 30
0.0
 10
4.668619518268709
 20
7.424832036582862
 30
0.0
 10
4.669421198849077
 20
7.424990318847336
 30
0.0
 10
4.669822226301906
 20
7.425069496932605
 30
0.0
  0
SPLINE
  5
155
330
1F
100
AcDbEntity
  8
0
  6
Continuous
 62
     7
370
     0
100
AcDbSpline
210
0.0
220
0.0
230
1.0
 70
    24
 71
     1
 72
     4
 73
     2
 74
     0
 42
0.00000001
 43
0.00000001
 40
0.0
 40
0.0
 40
1.0
 40
1.0
 10
4.672591287654181
 20
7.428118171965714
 30
0.0
 10
4.669213989242742
 20
7.426082248894466
 30
0.0
  0
LINE
  5
156
330
1F
100
AcDbEntity
  8
0
  6
Continuous
 62
     7
370
     0
100
AcDbLine
 10
4.6949409127
 20
7.4410203359
 30
0.0
 11
4.6725912877
 21
7.428118172
 31
0.0
  0
ARC
  5
157
330
1F
100
AcDbEntity
  8
0
  6
Continuous
 62
     7
370
     0
100
AcDbCircle
 10
4.7462097585
 20
7.2343026803
 30
0.0
 40
0.212980477212647
100
AcDbArc
 50
103.9290905981
 51
107.3898402006
  0
LINE
  5
158
330
1F
100
AcDbEntity
  8
0
  6
Continuous
 62
     7
370
     0
100
AcDbLine
 10
4.6615608445
 20
7.4254283167
 30
0.0
 11
4.6825559468
 21
7.4375485313
 31
0.0
  0
ARC
  5
159
330
1F
100
AcDbEntity
  8
0
  6
Continuous
 62
     7
370
     0
100
AcDbCircle
 10
4.6202838287
 20
7.4936872775
 30
0.0
 40
0.0797689022960139
100
AcDbArc
 50
290.3812469059
 51
301.1618588433
  0
SPLINE
  5
15A
330
1F
100
AcDbEntity
  8
0
  6
Continuous
 62
     7
370
     0
100
AcDbSpline
210
0.0
220
0.0
230
1.0
 70
     8
 71
     3
 72
    10
 73
     6
 74
     0
 42
0.00000001
 43
0.00000001
 40
0.0
 40
0.0
 40
0.0
 40
0.0
 40
0.498822657303318
 40
0.7491700015752341
 40
1.0
 40
1.0
 40
1.0
 40
1.0
 10
4.646956008027962
 20
7.419000866017059
 30
0.0
 10
4.646804464574804
 20
7.418818367725028
 30
0.0
 10
4.646576865031401
 20
7.41854427783812
 30
0.0
 10
4.647209205231975
 20
7.418638012646852
 30
0.0
 10
4.647779262504764
 20
7.418820762465574
 30
0.0
 10
4.648064565635322
 20
7.418912225372686
 30
0.0
  0
SPLINE
  5
15B
330
1F
100
AcDbEntity
  8
0
  6
Continuous
 62
     7
370
     0
100
AcDbSpline
210
0.0
220
0.0
230
1.0
 70
     8
 71
     3
 72
     9
 73
     5
 74
     0
 42
0.00000001
 43
0.00000001
 40
0.0
 40
0.0
 40
0.0
 40
0.0
 40
0.5015771373280992
 40
1.0
 40
1.0
 40
1.0
 40
1.0
 10
4.650172757335316
 20
7.421046761513367
 30
0.0
 10
4.649450228990826
 20
7.420627401996646
 30
0.0
 10
4.648009716075227
 20
7.419791320194845
 30
0.0
 10
4.647306504669745
 20
7.419263796091016
 30
0.0
 10
4.646956008027962
 20
7.419000866017059
 30
0.0
  0
LINE
  5
15C
330
1F
100
AcDbEntity
  8
0
  6
Continuous
 62
     7
370
     0
100
AcDbLine
 10
4.6733488708
 20
7.434426047
 30
0.0
 11
4.6501727573
 21
7.4210467615
 31
0.0
  0
ARC
  5
15D
330
1F
100
AcDbEntity
  8
0
  6
Continuous
 62
     7
370
     0
100
AcDbCircle
 10
4.7434108148
 20
7.2426828771
 30
0.0
 40
0.2041423993739024
100
AcDbArc
 50
110.0720371679
 51
113.6319742921
  0
LINE
  5
15E
330
1F
100
AcDbEntity
  8
0
  6
Continuous
 62
     7
370
     0
100
AcDbLine
 10
4.6358537677
 20
7.4148553147
 30
0.0
 11
4.6615782206
 21
7.4297057253
 31
0.0
  0
SPLINE
  5
15F
330
1F
100
AcDbEntity
  8
0
  6
Continuous
 62
     7
370
     0
100
AcDbSpline
210
0.0
220
0.0
230
1.0
 70
     8
 71
     3
 72
    13
 73
     9
 74
     0
 42
0.00000001
 43
0.00000001
 40
0.0
 40
0.0
 40
0.0
 40
0.0
 40
0.2493551011003424
 40
0.3758643206409603
 40
0.4994912623308241
 40
0.6184449072873217
 40
0.7497843925020744
 40
0.9999999999999999
 40
0.9999999999999999
 40
0.9999999999999999
 40
0.9999999999999999
 10
4.630461061845865
 20
7.409878843283517
 30
0.0
 10
4.629031420525505
 20
7.409366570554115
 30
0.0
 10
4.626876456936367
 20
7.408594398496795
 30
0.0
 10
4.626065043648254
 20
7.408596020129603
 30
0.0
 10
4.626463333005638
 20
7.409093565919543
 30
0.0
 10
4.627894497767062
 20
7.410099779278251
 30
0.0
 10
4.630852181974643
 20
7.4119445175864
 30
0.0
 10
4.63387286736251
 20
7.4137024805299
 30
0.0
 10
4.635853767745759
 20
7.414855314745109
 30
0.0
  0
ARC
  5
160
330
1F
100
AcDbEntity
  8
0
  6
Continuous
 62
     7
370
     0
100
AcDbCircle
 10
4.5525600575
 20
7.6159202505
 30
0.0
 40
0.2202762537724219
100
AcDbArc
 50
290.7108141003
 51
295.8994432814
  0
SPLINE
  5
161
330
1F
100
AcDbEntity
  8
0
  6
Continuous
 62
     7
370
     0
100
AcDbSpline
210
0.0
220
0.0
230
1.0
 70
     8
 71
     3
 72
    12
 73
     8
 74
     0
 42
0.00000001
 43
0.00000001
 40
0.0
 40
0.0
 40
0.0
 40
0.0
 40
0.25035336884079
 40
0.4999961943216259
 40
0.7494886161542216
 40
0.8747044873187642
 40
1.0
 40
1.0
 40
1.0
 40
1.0
 10
4.651825088302791
 20
7.416534431431822
 30
0.0
 10
4.650841763571512
 20
7.416295675285967
 30
0.0
 10
4.648877904943611
 20
7.415818840622825
 30
0.0
 10
4.647040473701148
 20
7.415648313962892
 30
0.0
 10
4.647118664763594
 20
7.416260343834325
 30
0.0
 10
4.647858373101126
 20
7.417035594226747
 30
0.0
 10
4.648469522068559
 20
7.417523878346643
 30
0.0
 10
4.64877519369922
 20
7.417768098023199
 30
0.0
  0
ARC
  5
162
330
1F
100
AcDbEntity
  8
0
  6
Continuous
 62
     7
370
     0
100
AcDbCircle
 10
4.6166445206
 20
7.5447837361
 30
0.0
 40
0.1329870538616221
100
AcDbArc
 50
285.3396983627
 51
293.9580039058
  0
LINE
  5
163
330
1F
100
AcDbEntity
  8
0
  6
Continuous
 62
     7
370
     0
100
AcDbLine
 10
4.6643327122
 20
7.4196097238
 30
0.0
 11
4.6706461656
 21
7.4232544029
 31
0.0
  0
ARC
  5
164
330
1F
100
AcDbEntity
  8
0
  6
Continuous
 62
     7
370
     0
100
AcDbCircle
 10
4.7081115529
 20
7.1967190776
 30
0.0
 40
0.2271493496852308
100
AcDbArc
 50
98.0239065639
 51
101.1122360052
  0
LINE
  5
165
330
1F
100
AcDbEntity
  8
0
  6
Continuous
 62
     7
370
     0
100
AcDbLine
 10
4.7175453792
 20
7.4453946695
 30
0.0
 11
4.676404621
 21
7.4216446154
 31
0.0
  0
ARC
  5
166
330
1F
100
AcDbEntity
  8
0
  6
Continuous
 62
     7
370
     0
100
AcDbCircle
 10
4.7492025098
 20
7.220780308
 30
0.0
 40
0.226834268441935
100
AcDbArc
 50
98.0224218835
 51
101.3407757076
  0
ARC
  5
167
330
1F
100
AcDbEntity
  8
0
  6
Continuous
 62
     7
370
     0
100
AcDbCircle
 10
5.1288558326
 20
6.7998706663
 30
0.0
 40
0.0318028602146081
100
AcDbArc
 50
26.9772201892
 51
82.5355144483
  0
LINE
  5
168
330
1F
100
AcDbEntity
  8
0
  6
Continuous
 62
     7
370
     0
100
AcDbLine
 10
5.1704219418
 20
6.8219315414
 30
0.0
 11
5.1571981267
 21
6.8142975954
 31
0.0
  0
ARC
  5
169
330
1F
100
AcDbEntity
  8
0
  6
Continuous
 62
     7
370
     0
100
AcDbCircle
 10
5.1213065006
 20
6.7905823603
 30
0.0
 40
0.0582674670468878
100
AcDbArc
 50
32.549091271
 51
55.953478801
  0
LINE
  5
16A
330
1F
100
AcDbEntity
  8
0
  6
Continuous
 62
     7
370
     0
100
AcDbLine
 10
5.1917517913
 20
6.8606967493
 30
0.0
 11
5.1539284659
 21
6.8388618083
 31
0.0
  0
ARC
  5
16B
330
1F
100
AcDbEntity
  8
0
  6
Continuous
 62
     7
370
     0
100
AcDbCircle
 10
4.2799826623
 20
6.511115014
 30
0.0
 40
0.9764887783067467
100
AcDbArc
 50
20.9773414966
 51
22.2909429178
  0
LINE
  5
16C
330
1F
100
AcDbEntity
  8
0
  6
Continuous
 62
     7
370
     0
100
AcDbLine
 10
5.1261949323
 20
6.8484264436
 30
0.0
 11
5.1834981312
 21
6.8815068762
 31
0.0
  0
ARC
  5
16D
330
1F
100
AcDbEntity
  8
0
  6
Continuous
 62
     7
370
     0
100
AcDbCircle
 10
4.2211040533
 20
6.4774015059
 30
0.0
 40
0.9781865893902391
100
AcDbArc
 50
21.2167253284
 51
22.2902515685
  0
LINE
  5
16E
330
1F
100
AcDbEntity
  8
0
  6
Continuous
 62
     7
370
     0
100
AcDbLine
 10
5.1229878679
 20
6.9019334337
 30
0.0
 11
5.1391503086
 21
6.9112638121
 31
0.0
  0
ARC
  5
16F
330
1F
100
AcDbEntity
  8
0
  6
Continuous
 62
     7
370
     0
100
AcDbCircle
 10
4.207520653
 20
6.4740943038
 30
0.0
 40
1.010508061605064
100
AcDbArc
 50
23.823214969
 51
25.0488057538
  0
LINE
  5
170
330
1F
100
AcDbEntity
  8
0
  6
Continuous
 62
     7
370
     0
100
AcDbLine
 10
5.1480919126
 20
6.8915850407
 30
0.0
 11
5.1319294718
 21
6.8822546623
 31
0.0
  0
ARC
  5
171
330
1F
100
AcDbEntity
  8
0
  6
Continuous
 62
     7
370
     0
100
AcDbCircle
 10
4.2236830937
 20
6.4834246822
 30
0.0
 40
1.010508061619136
100
AcDbArc
 50
23.823214969
 51
25.0488057537
  0
ARC
  5
172
330
1F
100
AcDbEntity
  8
0
  6
Continuous
 62
     7
370
     0
100
AcDbCircle
 10
5.0831773574
 20
6.8951372911
 30
0.0
 40
0.0375513904838482
100
AcDbArc
 50
33.7437983896
 51
83.9695864599
  0
LINE
  5
173
330
1F
100
AcDbEntity
  8
0
  6
Continuous
 62
     7
370
     0
100
AcDbLine
 10
5.1276262705
 20
6.9236302922
 30
0.0
 11
5.1144024554
 21
6.9159963462
 31
0.0
  0
ARC
  5
174
330
1F
100
AcDbEntity
  8
0
  6
Continuous
 62
     7
370
     0
100
AcDbCircle
 10
5.0748441677
 20
6.8815031175
 30
0.0
 40
0.0675325790417854
100
AcDbArc
 50
38.5945467686
 51
60.0964131766
  0
LINE
  5
175
330
1F
100
AcDbEntity
  8
0
  6
Continuous
 62
     7
370
     0
100
AcDbLine
 10
5.1463353206
 20
6.9618797241
 30
0.0
 11
5.1085119952
 21
6.9400447831
 31
0.0
  0
ARC
  5
176
330
1F
100
AcDbEntity
  8
0
  6
Continuous
 62
     7
370
     0
100
AcDbCircle
 10
4.2265712157
 20
6.4871010336
 30
0.0
 40
1.035075269585622
100
AcDbArc
 50
27.3026087974
 51
28.5661611669
  0
LINE
  5
177
330
1F
100
AcDbEntity
  8
0
  6
Continuous
 62
     7
370
     0
100
AcDbLine
 10
5.0783389545
 20
6.9489658948
 30
0.0
 11
5.1356421534
 21
6.9820463274
 31
0.0
  0
ARC
  5
178
330
1F
100
AcDbEntity
  8
0
  6
Continuous
 62
     7
370
     0
100
AcDbCircle
 10
4.1688638978
 20
6.4538040641
 30
0.0
 40
1.035533735557579
100
AcDbArc
 50
27.5324756271
 51
28.5659917446
  0
SPLINE
  5
179
330
1F
100
AcDbEntity
  8
0
  6
Continuous
 62
     7
370
     0
100
AcDbSpline
210
0.0
220
0.0
230
1.0
 70
    24
 71
     1
 72
     4
 73
     2
 74
     0
 42
0.00000001
 43
0.00000001
 40
0.0
 40
0.0
 40
1.0
 40
1.0
 10
5.064637963008445
 20
7.042981596429316
 30
0.0
 10
5.069767518239491
 20
7.040235596978489
 30
0.0
  0
SPLINE
  5
17A
330
1F
100
AcDbEntity
  8
0
  6
Continuous
 62
     7
370
     0
100
AcDbSpline
210
0.0
220
0.0
230
1.0
 70
    24
 71
     1
 72
     4
 73
     2
 74
     0
 42
0.00000001
 43
0.00000001
 40
0.0
 40
0.0
 40
1.0
 40
1.0
 10
5.060254743340528
 20
7.047662069467574
 30
0.0
 10
5.064637963008445
 20
7.042981596429316
 30
0.0
  0
SPLINE
  5
17B
330
1F
100
AcDbEntity
  8
0
  6
Continuous
 62
     7
370
     0
100
AcDbSpline
210
0.0
220
0.0
230
1.0
 70
     8
 71
     3
 72
    13
 73
     9
 74
     0
 42
0.00000001
 43
0.00000001
 40
0.0
 40
0.0
 40
0.0
 40
0.0
 40
0.2498441747938856
 40
0.3817947059245351
 40
0.4998701509662566
 40
0.6229414449815266
 40
0.7501704474545106
 40
1.0
 40
1.0
 40
1.0
 40
1.0
 10
5.061963125699083
 20
7.061594278330217
 30
0.0
 10
5.060931441874403
 20
7.060899165616906
 30
0.0
 10
5.059354893520713
 20
7.05983694211627
 30
0.0
 10
5.058013159130261
 20
7.057704331993683
 30
0.0
 10
5.05753004850996
 20
7.055804437968381
 30
0.0
 10
5.057624181568404
 20
7.053758657971142
 30
0.0
 10
5.058299314387597
 20
7.050938497338168
 30
0.0
 10
5.059475459231528
 20
7.048967802498687
 30
0.0
 10
5.060254743340528
 20
7.047662069467574
 30
0.0
  0
ARC
  5
17C
330
1F
100
AcDbEntity
  8
0
  6
Continuous
 62
     7
370
     0
100
AcDbCircle
 10
5.0669791716
 20
7.0523536763
 30
0.0
 40
0.0105142495087674
100
AcDbArc
 50
26.2613592995
 51
118.4942930037
  0
ARC
  5
17D
330
1F
100
AcDbEntity
  8
0
  6
Continuous
 62
     7
370
     0
100
AcDbCircle
 10
5.0686975197
 20
7.0504294726
 30
0.0
 40
0.0101342790739716
100
AcDbArc
 50
317.4001915325
 51
40.4607470374
  0
SPLINE
  5
17E
330
1F
100
AcDbEntity
  8
0
  6
Continuous
 62
     7
370
     0
100
AcDbSpline
210
0.0
220
0.0
230
1.0
 70
    24
 71
     1
 72
     4
 73
     2
 74
     0
 42
0.00000001
 43
0.00000001
 40
0.0
 40
0.0
 40
1.0
 40
1.0
 10
5.089342036417837
 20
7.026064621004098
 30
0.0
 10
5.076157355911217
 20
7.043569847552437
 30
0.0
  0
ARC
  5
17F
330
1F
100
AcDbEntity
  8
0
  6
Continuous
 62
     7
370
     0
100
AcDbCircle
 10
5.0668610008
 20
7.0436468378
 30
0.0
 40
0.0285399949271144
100
AcDbArc
 50
321.9713554458
 51
44.3077849722
  0
ARC
  5
180
330
1F
100
AcDbEntity
  8
0
  6
Continuous
 62
     7
370
     0
100
AcDbCircle
 10
5.0599808199
 20
7.0508032683
 30
0.0
 40
0.0301459463274988
100
AcDbArc
 50
25.0815746035
 51
112.9997031787
  0
SPLINE
  5
181
330
1F
100
AcDbEntity
  8
0
  6
Continuous
 62
     7
370
     0
100
AcDbSpline
210
0.0
220
0.0
230
1.0
 70
     8
 71
     3
 72
    13
 73
     9
 74
     0
 42
0.00000001
 43
0.00000001
 40
0.0
 40
0.0
 40
0.0
 40
0.0
 40
0.2498089441006731
 40
0.375492633192313
 40
0.5002625661610259
 40
0.6265425410043304
 40
0.7507234029546844
 40
1.0
 40
1.0
 40
1.0
 40
1.0
 10
5.045686685450689
 20
7.046565869000218
 30
0.0
 10
5.043938361108235
 20
7.04949181872569
 30
0.0
 10
5.041310421130403
 20
7.053889870088347
 30
0.0
 10
5.039793185989199
 20
7.060177421420619
 30
0.0
 10
5.039595802509454
 20
7.064809723023024
 30
0.0
 10
5.040357162754098
 20
7.06914475640443
 30
0.0
 10
5.042583195790768
 20
7.074395708894997
 30
0.0
 10
5.045952829771834
 20
7.0768887536117
 30
0.0
 10
5.048202003999998
 20
7.078552819192109
 30
0.0
  0
SPLINE
  5
182
330
1F
100
AcDbEntity
  8
0
  6
Continuous
 62
     7
370
     0
100
AcDbSpline
210
0.0
220
0.0
230
1.0
 70
     8
 71
     3
 72
     9
 73
     5
 74
     0
 42
0.00000001
 43
0.00000001
 40
0.0
 40
0.0
 40
0.0
 40
0.0
 40
0.5003482590474494
 40
1.0
 40
1.0
 40
1.0
 40
1.0
 10
5.056453515249065
 20
7.036261691256
 30
0.0
 10
5.054418648613059
 20
7.037703651643155
 30
0.0
 10
5.050351748010907
 20
7.040585565112584
 30
0.0
 10
5.047240984069636
 20
7.044573360228159
 30
0.0
 10
5.045686685450689
 20
7.046565869000218
 30
0.0
  0
SPLINE
  5
183
330
1F
100
AcDbEntity
  8
0
  6
Continuous
 62
     7
370
     0
100
AcDbSpline
210
0.0
220
0.0
230
1.0
 70
    24
 71
     1
 72
     4
 73
     2
 74
     0
 42
0.00000001
 43
0.00000001
 40
0.0
 40
0.0
 40
1.0
 40
1.0
 10
5.046608516204784
 20
7.033020840571758
 30
0.0
 10
5.056453515249065
 20
7.036261691256
 30
0.0
  0
ARC
  5
184
330
1F
100
AcDbEntity
  8
0
  6
Continuous
 62
     7
370
     0
100
AcDbCircle
 10
4.1952399581
 20
6.4702076806
 30
0.0
 40
1.020581733498433
100
AcDbArc
 50
33.4674453081
 51
35.4123400444
  0
LINE
  5
185
330
1F
100
AcDbEntity
  8
0
  6
Continuous
 62
     7
370
     0
100
AcDbLine
 10
5.0137933323
 20
7.0539566749
 30
0.0
 11
5.0270171474
 21
7.0615906209
 31
0.0
  0
ARC
  5
186
330
1F
100
AcDbEntity
  8
0
  6
Continuous
 62
     7
370
     0
100
AcDbCircle
 10
4.1791484942
 20
6.4605949476
 30
0.0
 40
1.024065498516108
100
AcDbArc
 50
32.5175426497
 51
35.4096007149
  0
SPLINE
  5
187
330
1F
100
AcDbEntity
  8
0
  6
Continuous
 62
     7
370
     0
100
AcDbSpline
210
0.0
220
0.0
230
1.0
 70
    24
 71
     1
 72
     4
 73
     2
 74
     0
 42
0.00000001
 43
0.00000001
 40
0.0
 40
0.0
 40
1.0
 40
1.0
 10
5.078415834399579
 20
7.023349218989144
 30
0.0
 10
5.042668067363724
 20
7.011089354460184
 30
0.0
  0
SPLINE
  5
188
330
1F
100
AcDbEntity
  8
0
  6
Continuous
 62
     7
370
     0
100
AcDbSpline
210
0.0
220
0.0
230
1.0
 70
    24
 71
     1
 72
     4
 73
     2
 74
     0
 42
0.00000001
 43
0.00000001
 40
0.0
 40
0.0
 40
1.0
 40
1.0
 10
5.069767518239491
 20
7.040235596978489
 30
0.0
 10
5.078415834399579
 20
7.023349218989144
 30
0.0
  0
SPLINE
  5
189
330
1F
100
AcDbEntity
  8
0
  6
Continuous
 62
     7
370
     0
100
AcDbSpline
210
0.0
220
0.0
230
1.0
 70
     8
 71
     3
 72
    13
 73
     9
 74
     0
 42
0.00000001
 43
0.00000001
 40
0.0
 40
0.0
 40
0.0
 40
0.0
 40
0.2502499937362753
 40
0.3875326882972208
 40
0.500055398927164
 40
0.6148522551650856
 40
0.7498927631185763
 40
1.0
 40
1.0
 40
1.0
 40
1.0
 10
4.919321198051623
 20
7.215338062991011
 30
0.0
 10
4.918645983596255
 20
7.214910926782447
 30
0.0
 10
4.917600358502886
 20
7.214249471248712
 30
0.0
 10
4.91664017434154
 20
7.213116166558022
 30
0.0
 10
4.916272209258209
 20
7.212127422053042
 30
0.0
 10
4.916479055359017
 20
7.211035589057295
 30
0.0
 10
4.917285950825995
 20
7.209584276290228
 30
0.0
 10
4.918276206548429
 20
7.208594921226618
 30
0.0
 10
4.918919258794912
 20
7.207952453849949
 30
0.0
  0
ARC
  5
18A
330
1F
100
AcDbEntity
  8
0
  6
Continuous
 62
     7
370
     0
100
AcDbCircle
 10
4.8432511116
 20
7.074992248
 30
0.0
 40
0.1596358538932607
100
AcDbArc
 50
52.8179958666
 51
61.5414695715
  0
ARC
  5
18B
330
1F
100
AcDbEntity
  8
0
  6
Continuous
 62
     7
370
     0
100
AcDbCircle
 10
4.9628862396
 20
7.2302379346
 30
0.0
 40
0.0363834635625705
100
AcDbArc
 50
230.4660200467
 51
255.0680421867
  0
SPLINE
  5
18C
330
1F
100
AcDbEntity
  8
0
  6
Continuous
 62
     7
370
     0
100
AcDbSpline
210
0.0
220
0.0
230
1.0
 70
     8
 71
     3
 72
     9
 73
     5
 74
     0
 42
0.00000001
 43
0.00000001
 40
0.0
 40
0.0
 40
0.0
 40
0.0
 40
0.5005138828869147
 40
1.0
 40
1.0
 40
1.0
 40
1.0
 10
4.96327504125319
 20
7.19660549519523
 30
0.0
 10
4.961848063547102
 20
7.19592342465427
 30
0.0
 10
4.958997038321072
 20
7.1945606841504
 30
0.0
 10
4.95533859159463
 20
7.194909046938012
 30
0.0
 10
4.953511248244574
 20
7.195083049314142
 30
0.0
  0
SPLINE
  5
18D
330
1F
100
AcDbEntity
  8
0
  6
Continuous
 62
     7
370
     0
100
AcDbSpline
210
0.0
220
0.0
230
1.0
 70
     8
 71
     3
 72
    13
 73
     9
 74
     0
 42
0.00000001
 43
0.00000001
 40
0.0
 40
0.0
 40
0.0
 40
0.0
 40
0.2503342404082662
 40
0.4997600710237616
 40
0.6241777149146929
 40
0.7517673256869262
 40
0.8742692938045604
 40
1.0
 40
1.0
 40
1.0
 40
1.0
 10
4.960112080003555
 20
7.217025843071613
 30
0.0
 10
4.961687042856982
 20
7.215378529877062
 30
0.0
 10
4.964831253358134
 20
7.212089881237688
 30
0.0
 10
4.967315158350931
 20
7.2072888696222
 30
0.0
 10
4.967663775596998
 20
7.203440772764163
 30
0.0
 10
4.967186124159044
 20
7.200693857953297
 30
0.0
 10
4.965712376652729
 20
7.198286120015156
 30
0.0
 10
4.964094500903498
 20
7.197170540214268
 30
0.0
 10
4.96327504125319
 20
7.19660549519523
 30
0.0
  0
ARC
  5
18E
330
1F
100
AcDbEntity
  8
0
  6
Continuous
 62
     7
370
     0
100
AcDbCircle
 10
4.9300695956
 20
7.1867647488
 30
0.0
 40
0.0426413495775203
100
AcDbArc
 50
45.2077052513
 51
63.4517294664
  0
SPLINE
  5
18F
330
1F
100
AcDbEntity
  8
0
  6
Continuous
 62
     7
370
     0
100
AcDbSpline
210
0.0
220
0.0
230
1.0
 70
    24
 71
     1
 72
     4
 73
     2
 74
     0
 42
0.00000001
 43
0.00000001
 40
0.0
 40
0.0
 40
1.0
 40
1.0
 10
4.938976433619539
 20
7.227971656131145
 30
0.0
 10
4.949128215852241
 20
7.224909914797418
 30
0.0
  0
SPLINE
  5
190
330
1F
100
AcDbEntity
  8
0
  6
Continuous
 62
     7
370
     0
100
AcDbSpline
210
0.0
220
0.0
230
1.0
 70
     8
 71
     3
 72
     9
 73
     5
 74
     0
 42
0.00000001
 43
0.00000001
 40
0.0
 40
0.0
 40
0.0
 40
0.0
 40
0.4998712278477462
 40
1.0
 40
1.0
 40
1.0
 40
1.0
 10
4.942547419364683
 20
7.232470851633968
 30
0.0
 10
4.942144315796516
 20
7.231618182821967
 30
0.0
 10
4.941337900972634
 20
7.22991240588483
 30
0.0
 10
4.939763724543962
 20
7.228618683779294
 30
0.0
 10
4.938976433619539
 20
7.227971656131145
 30
0.0
  0
ARC
  5
191
330
1F
100
AcDbEntity
  8
0
  6
Continuous
 62
     7
370
     0
100
AcDbCircle
 10
4.4047609442
 20
6.6458618387
 30
0.0
 40
0.7958168300596346
100
AcDbArc
 50
47.4862864998
 51
48.8656848256
  0
SPLINE
  5
192
330
1F
100
AcDbEntity
  8
0
  6
Continuous
 62
     7
370
     0
100
AcDbSpline
210
0.0
220
0.0
230
1.0
 70
     8
 71
     3
 72
     9
 73
     5
 74
     0
 42
0.00000001
 43
0.00000001
 40
0.0
 40
0.0
 40
0.0
 40
0.0
 40
0.5000538352470589
 40
1.0
 40
1.0
 40
1.0
 40
1.0
 10
4.921469146718246
 20
7.238542503994783
 30
0.0
 10
4.922976538770796
 20
7.239435987363192
 30
0.0
 10
4.925990998307552
 20
7.241222761717134
 30
0.0
 10
4.927510588391738
 20
7.243905576764332
 30
0.0
 10
4.928270301626324
 20
7.245246839857922
 30
0.0
  0
LINE
  5
193
330
1F
100
AcDbEntity
  8
0
  6
Continuous
 62
     7
370
     0
100
AcDbLine
 10
4.903378233
 20
7.2280988418
 30
0.0
 11
4.9214691467
 21
7.238542504
 31
0.0
  0
ARC
  5
194
330
1F
100
AcDbEntity
  8
0
  6
Continuous
 62
     7
370
     0
100
AcDbCircle
 10
4.9083060848
 20
7.2174339588
 30
0.0
 40
0.0117483383147263
100
AcDbArc
 50
114.7999295793
 51
176.9684965338
  0
ARC
  5
195
330
1F
100
AcDbEntity
  8
0
  6
Continuous
 62
     7
370
     0
100
AcDbCircle
 10
4.9285049492
 20
7.2270842097
 30
0.0
 40
0.0331827563659462
100
AcDbArc
 50
195.7891088114
 51
236.6286774349
  0
SPLINE
  5
196
330
1F
100
AcDbEntity
  8
0
  6
Continuous
 62
     7
370
     0
100
AcDbSpline
210
0.0
220
0.0
230
1.0
 70
     8
 71
     3
 72
     9
 73
     5
 74
     0
 42
0.00000001
 43
0.00000001
 40
0.0
 40
0.0
 40
0.0
 40
0.0
 40
0.4987757766930729
 40
1.0
 40
1.0
 40
1.0
 40
1.0
 10
4.926574980599565
 20
7.188080021487262
 30
0.0
 10
4.923518131607191
 20
7.189648441337026
 30
0.0
 10
4.917389427818402
 20
7.192792980272261
 30
0.0
 10
4.91263525520582
 20
7.197175761270754
 30
0.0
 10
4.910252348730611
 20
7.199372517272648
 30
0.0
  0
ARC
  5
197
330
1F
100
AcDbEntity
  8
0
  6
Continuous
 62
     7
370
     0
100
AcDbCircle
 10
4.9355831612
 20
7.2115876521
 30
0.0
 40
0.0251745112195081
100
AcDbArc
 50
249.0330473219
 51
291.9466597734
  0
SPLINE
  5
198
330
1F
100
AcDbEntity
  8
0
  6
Continuous
 62
     7
370
     0
100
AcDbSpline
210
0.0
220
0.0
230
1.0
 70
    24
 71
     1
 72
     4
 73
     2
 74
     0
 42
0.00000001
 43
0.00000001
 40
0.0
 40
0.0
 40
1.0
 40
1.0
 10
4.931227275925736
 20
7.204111338125109
 30
0.0
 10
4.944991965061584
 20
7.188237482387016
 30
0.0
  0
SPLINE
  5
199
330
1F
100
AcDbEntity
  8
0
  6
Continuous
 62
     7
370
     0
100
AcDbSpline
210
0.0
220
0.0
230
1.0
 70
     8
 71
     3
 72
     9
 73
     5
 74
     0
 42
0.00000001
 43
0.00000001
 40
0.0
 40
0.0
 40
0.0
 40
0.0
 40
0.4983624828367054
 40
0.9999999999999999
 40
0.9999999999999999
 40
0.9999999999999999
 40
0.9999999999999999
 10
4.925278540305526
 20
7.203924727487943
 30
0.0
 10
4.926320363975083
 20
7.203775632269431
 30
0.0
 10
4.928410857753079
 20
7.203476462039634
 30
0.0
 10
4.930286422355366
 20
7.203899251213597
 30
0.0
 10
4.931227275925736
 20
7.204111338125109
 30
0.0
  0
SPLINE
  5
19A
330
1F
100
AcDbEntity
  8
0
  6
Continuous
 62
     7
370
     0
100
AcDbSpline
210
0.0
220
0.0
230
1.0
 70
     8
 71
     3
 72
     9
 73
     5
 74
     0
 42
0.00000001
 43
0.00000001
 40
0.0
 40
0.0
 40
0.0
 40
0.0
 40
0.5014167496225583
 40
1.0
 40
1.0
 40
1.0
 40
1.0
 10
4.918919258794912
 20
7.207952453849949
 30
0.0
 10
4.919829868344515
 20
7.207122387762039
 30
0.0
 10
4.921645941601518
 20
7.205466946278412
 30
0.0
 10
4.924069963558985
 20
7.204437828416538
 30
0.0
 10
4.925278540305526
 20
7.203924727487943
 30
0.0
  0
ARC
  5
19B
330
1F
100
AcDbEntity
  8
0
  6
Continuous
 62
     7
370
     0
100
AcDbCircle
 10
4.8425355383
 20
7.2917761103
 30
0.0
 40
0.0170527733666865
100
AcDbArc
 50
238.9596759764
 51
305.183404574
  0
SPLINE
  5
19C
330
1F
100
AcDbEntity
  8
0
  6
Continuous
 62
     7
370
     0
100
AcDbSpline
210
0.0
220
0.0
230
1.0
 70
     8
 71
     3
 72
    12
 73
     8
 74
     0
 42
0.00000001
 43
0.00000001
 40
0.0
 40
0.0
 40
0.0
 40
0.0
 40
0.2500161658405398
 40
0.379486110736993
 40
0.50036099480641
 40
0.7497424986444083
 40
1.0
 40
1.0
 40
1.0
 40
1.0
 10
4.832140131815719
 20
7.284733726141126
 30
0.0
 10
4.831631064274871
 20
7.284147074625003
 30
0.0
 10
4.830858377994648
 20
7.283256627795441
 30
0.0
 10
4.830488284065395
 20
7.281910594794544
 30
0.0
 10
4.830563549077691
 20
7.280531664405499
 30
0.0
 10
4.831536567622466
 20
7.278828681082512
 30
0.0
 10
4.833006280682496
 20
7.277720351710276
 30
0.0
 10
4.833742425607712
 20
7.277165215428899
 30
0.0
  0
SPLINE
  5
19D
330
1F
100
AcDbEntity
  8
0
  6
Continuous
 62
     7
370
     0
100
AcDbSpline
210
0.0
220
0.0
230
1.0
 70
    24
 71
     1
 72
     4
 73
     2
 74
     0
 42
0.00000001
 43
0.00000001
 40
0.0
 40
0.0
 40
1.0
 40
1.0
 10
4.813807137521372
 20
7.293954331403206
 30
0.0
 10
4.832140131815719
 20
7.284733726141126
 30
0.0
  0
SPLINE
  5
19E
330
1F
100
AcDbEntity
  8
0
  6
Continuous
 62
     7
370
     0
100
AcDbSpline
210
0.0
220
0.0
230
1.0
 70
     8
 71
     3
 72
    12
 73
     8
 74
     0
 42
0.00000001
 43
0.00000001
 40
0.0
 40
0.0
 40
0.0
 40
0.0
 40
0.2504615608201433
 40
0.5001568997103621
 40
0.6235742345127094
 40
0.7505262250099971
 40
1.0
 40
1.0
 40
1.0
 40
1.0
 10
4.822688309027626
 20
7.270827282111726
 30
0.0
 10
4.820363321409466
 20
7.272531201935646
 30
0.0
 10
4.815720458867379
 20
7.275933828884453
 30
0.0
 10
4.811497447880096
 20
7.280826636684681
 30
0.0
 10
4.810274743357404
 20
7.285016971927451
 30
0.0
 10
4.810436104000758
 20
7.289223046810796
 30
0.0
 10
4.812463496244109
 20
7.29206851530735
 30
0.0
 10
4.813807137521372
 20
7.293954331403206
 30
0.0
  0
ARC
  5
19F
330
1F
100
AcDbEntity
  8
0
  6
Continuous
 62
     7
370
     0
100
AcDbCircle
 10
4.8565679158
 20
7.3181266449
 30
0.0
 40
0.0581812467988364
100
AcDbArc
 50
234.3867168068
 51
249.6933293917
  0
SPLINE
  5
1A0
330
1F
100
AcDbEntity
  8
0
  6
Continuous
 62
     7
370
     0
100
AcDbSpline
210
0.0
220
0.0
230
1.0
 70
     8
 71
     3
 72
     9
 73
     5
 74
     0
 42
0.00000001
 43
0.00000001
 40
0.0
 40
0.0
 40
0.0
 40
0.0
 40
0.498612069731338
 40
1.0
 40
1.0
 40
1.0
 40
1.0
 10
4.8554617917186
 20
7.261481059840275
 30
0.0
 10
4.852249134260544
 20
7.261314944649534
 30
0.0
 10
4.845805933918871
 20
7.260981789475752
 30
0.0
 10
4.839525398732407
 20
7.262699971861817
 30
0.0
 10
4.836376414194287
 20
7.263561447772189
 30
0.0
  0
SPLINE
  5
1A1
330
1F
100
AcDbEntity
  8
0
  6
Continuous
 62
     7
370
     0
100
AcDbSpline
210
0.0
220
0.0
230
1.0
 70
     8
 71
     3
 72
     9
 73
     5
 74
     0
 42
0.00000001
 43
0.00000001
 40
0.0
 40
0.0
 40
0.0
 40
0.0
 40
0.500561584830624
 40
1.0
 40
1.0
 40
1.0
 40
1.0
 10
4.868086317855577
 20
7.26589738259627
 30
0.0
 10
4.86622495175232
 20
7.264888801284499
 30
0.0
 10
4.862506396114679
 20
7.262873901734999
 30
0.0
 10
4.857808234239665
 20
7.2619449926977
 30
0.0
 10
4.8554617917186
 20
7.261481059840275
 30
0.0
  0
SPLINE
  5
1A2
330
1F
100
AcDbEntity
  8
0
  6
Continuous
 62
     7
370
     0
100
AcDbSpline
210
0.0
220
0.0
230
1.0
 70
     8
 71
     3
 72
    14
 73
    10
 74
     0
 42
0.00000001
 43
0.00000001
 40
0.0
 40
0.0
 40
0.0
 40
0.0
 40
0.2500577725992931
 40
0.3796673456305619
 40
0.4999755349867335
 40
0.6255852466896197
 40
0.7499501153976014
 40
0.8610382006669521
 40
0.9999999999999999
 40
0.9999999999999999
 40
0.9999999999999999
 40
0.9999999999999999
 10
4.864224428822949
 20
7.296166239190533
 30
0.0
 10
4.867260692802689
 20
7.29393880568086
 30
0.0
 10
4.87187070861559
 20
7.290556852145103
 30
0.0
 10
4.876018947375169
 20
7.285166657878992
 30
0.0
 10
4.877622472467352
 20
7.280803756592642
 30
0.0
 10
4.877579542867345
 20
7.276465195374396
 30
0.0
 10
4.876099555060793
 20
7.272428019594107
 30
0.0
 10
4.872806074125298
 20
7.268832625044183
 30
0.0
 10
4.869772297610783
 20
7.266945902702182
 30
0.0
 10
4.868086317855577
 20
7.26589738259627
 30
0.0
  0
ARC
  5
1A3
330
1F
100
AcDbEntity
  8
0
  6
Continuous
 62
     7
370
     0
100
AcDbCircle
 10
4.8395419354
 20
7.2622363509
 30
0.0
 40
0.0419578693121008
100
AcDbArc
 50
53.9657673091
 51
108.4014168118
  0
SPLINE
  5
1A4
330
1F
100
AcDbEntity
  8
0
  6
Continuous
 62
     7
370
     0
100
AcDbSpline
210
0.0
220
0.0
230
1.0
 70
    24
 71
     1
 72
     4
 73
     2
 74
     0
 42
0.00000001
 43
0.00000001
 40
0.0
 40
0.0
 40
1.0
 40
1.0
 10
4.8409584502314
 20
7.290738937384357
 30
0.0
 10
4.826296989892366
 20
7.302048839120629
 30
0.0
  0
ARC
  5
1A5
330
1F
100
AcDbEntity
  8
0
  6
Continuous
 62
     7
370
     0
100
AcDbCircle
 10
4.845861076
 20
7.2759775533
 30
0.0
 40
0.0155542341766778
100
AcDbArc
 50
56.4829853269
 51
108.3726209394
  0
SPLINE
  5
1A6
330
1F
100
AcDbEntity
  8
0
  6
Continuous
 62
     7
370
     0
100
AcDbSpline
210
0.0
220
0.0
230
1.0
 70
     8
 71
     3
 72
    13
 73
     9
 74
     0
 42
0.00000001
 43
0.00000001
 40
0.0
 40
0.0
 40
0.0
 40
0.0
 40
0.2503406525416226
 40
0.4995871881509908
 40
0.6259062530577104
 40
0.7464326647500753
 40
0.8687151858281547
 40
1.0
 40
1.0
 40
1.0
 40
1.0
 10
4.852361271464447
 20
7.277838676969496
 30
0.0
 10
4.8534888547331
 20
7.278555764913796
 30
0.0
 10
4.85573909315372
 20
7.279986806760627
 30
0.0
 10
4.857425874457625
 20
7.282414843449218
 30
0.0
 10
4.857629545401708
 20
7.284527869331801
 30
0.0
 10
4.857182054334038
 20
7.286108247925133
 30
0.0
 10
4.856128241594464
 20
7.287625302458697
 30
0.0
 10
4.855022423334431
 20
7.288495113074882
 30
0.0
 10
4.85444988450709
 20
7.288945458640874
 30
0.0
  0
ARC
  5
1A7
330
1F
100
AcDbEntity
  8
0
  6
Continuous
 62
     7
370
     0
100
AcDbCircle
 10
4.7379118498
 20
7.3757715358
 30
0.0
 40
0.0515820587662841
100
AcDbArc
 50
247.3235030508
 51
298.5026681751
  0
SPLINE
  5
1A8
330
1F
100
AcDbEntity
  8
0
  6
Continuous
 62
     7
370
     0
100
AcDbSpline
210
0.0
220
0.0
230
1.0
 70
     8
 71
     3
 72
    18
 73
    14
 74
     0
 42
0.00000001
 43
0.00000001
 40
0.0
 40
0.0
 40
0.0
 40
0.0
 40
0.0900867710028946
 40
0.1689724618958841
 40
0.2502162937108189
 40
0.3750514675975968
 40
0.4359827376664738
 40
0.5001070381600597
 40
0.623763737281659
 40
0.7500568082095529
 40
0.8321708937194566
 40
0.9167822886129041
 40
1.0
 40
1.0
 40
1.0
 40
1.0
 10
4.760090789052665
 20
7.352994824656781
 30
0.0
 10
4.761150731678625
 20
7.352548976930484
 30
0.0
 10
4.763138827300025
 20
7.351712716654924
 30
0.0
 10
4.765827640997558
 20
7.350300957576747
 30
0.0
 10
4.76857418040932
 20
7.348524486269708
 30
0.0
 10
4.770588678147034
 20
7.346588716143399
 30
0.0
 10
4.771617663569331
 20
7.344551067149538
 30
0.0
 10
4.772120016936737
 20
7.342424447632127
 30
0.0
 10
4.771727834638752
 20
7.339621587232588
 30
0.0
 10
4.770195216749093
 20
7.33667240836435
 30
0.0
 10
4.767916532033775
 20
7.33421121915376
 30
0.0
 10
4.765470679010686
 20
7.332236822203189
 30
0.0
 10
4.76350264004324
 20
7.33103660918823
 30
0.0
 10
4.76252679203677
 20
7.330441486074633
 30
0.0
  0
ARC
  5
1A9
330
1F
100
AcDbEntity
  8
0
  6
Continuous
 62
     7
370
     0
100
AcDbCircle
 10
4.7405058606
 20
7.3055843117
 30
0.0
 40
0.0512964536634851
100
AcDbArc
 50
67.5548461319
 51
106.9768710987
  0
SPLINE
  5
1AA
330
1F
100
AcDbEntity
  8
0
  6
Continuous
 62
     7
370
     0
100
AcDbSpline
210
0.0
220
0.0
230
1.0
 70
    24
 71
     1
 72
     4
 73
     2
 74
     0
 42
0.00000001
 43
0.00000001
 40
0.0
 40
0.0
 40
1.0
 40
1.0
 10
4.739941481866206
 20
7.348079203924059
 30
0.0
 10
4.725528032556256
 20
7.354645404503268
 30
0.0
  0
SPLINE
  5
1AB
330
1F
100
AcDbEntity
  8
0
  6
Continuous
 62
     7
370
     0
100
AcDbSpline
210
0.0
220
0.0
230
1.0
 70
    24
 71
     1
 72
     4
 73
     2
 74
     0
 42
0.00000001
 43
0.00000001
 40
0.0
 40
0.0
 40
1.0
 40
1.0
 10
4.745105822620813
 20
7.348528357748701
 30
0.0
 10
4.739941481866206
 20
7.348079203924059
 30
0.0
  0
ARC
  5
1AC
330
1F
100
AcDbEntity
  8
0
  6
Continuous
 62
     7
370
     0
100
AcDbCircle
 10
4.7446945107
 20
7.331724588
 30
0.0
 40
0.0168088029533359
100
AcDbArc
 50
69.9370467456
 51
88.5978304298
  0
SPLINE
  5
1AD
330
1F
100
AcDbEntity
  8
0
  6
Continuous
 62
     7
370
     0
100
AcDbSpline
210
0.0
220
0.0
230
1.0
 70
     8
 71
     3
 72
    10
 73
     6
 74
     0
 42
0.00000001
 43
0.00000001
 40
0.0
 40
0.0
 40
0.0
 40
0.0
 40
0.2550650714683472
 40
0.5011546383381803
 40
1.0
 40
1.0
 40
1.0
 40
1.0
 10
4.753580866882366
 20
7.343672336632592
 30
0.0
 10
4.75359869412903
 20
7.344062262151229
 30
0.0
 10
4.75363372129799
 20
7.344828392069163
 30
0.0
 10
4.752906350337813
 20
7.346267312552443
 30
0.0
 10
4.751441648255323
 20
7.347013611283354
 30
0.0
 10
4.75046081112166
 20
7.347513369914705
 30
0.0
  0
SPLINE
  5
1AE
330
1F
100
AcDbEntity
  8
0
  6
Continuous
 62
     7
370
     0
100
AcDbSpline
210
0.0
220
0.0
230
1.0
 70
     8
 71
     3
 72
     9
 73
     5
 74
     0
 42
0.00000001
 43
0.00000001
 40
0.0
 40
0.0
 40
0.0
 40
0.0
 40
0.5011160372996679
 40
0.9999999999999999
 40
0.9999999999999999
 40
0.9999999999999999
 40
0.9999999999999999
 10
4.750061794887394
 20
7.339676569403619
 30
0.0
 10
4.750923633802
 20
7.340302503186314
 30
0.0
 10
4.752643472822218
 20
7.341551582713022
 30
0.0
 10
4.753268867504845
 20
7.342966471371747
 30
0.0
 10
4.753580866882366
 20
7.343672336632592
 30
0.0
  0
ARC
  5
1AF
330
1F
100
AcDbEntity
  8
0
  6
Continuous
 62
     7
370
     0
100
AcDbCircle
 10
4.5818109517
 20
6.9433803035
 30
0.0
 40
0.430533479083463
100
AcDbArc
 50
66.9959502755
 51
71.4283573398
  0
LINE
  5
1B0
330
1F
100
AcDbEntity
  8
0
  6
Continuous
 62
     7
370
     0
100
AcDbLine
 10
4.7171753543
 20
7.3504803659
 30
0.0
 11
4.7189316422
 21
7.3514942494
 31
0.0
  0
SPLINE
  5
1B1
330
1F
100
AcDbEntity
  8
0
  6
Continuous
 62
     7
370
     0
100
AcDbSpline
210
0.0
220
0.0
230
1.0
 70
     8
 71
     3
 72
    13
 73
     9
 74
     0
 42
0.00000001
 43
0.00000001
 40
0.0
 40
0.0
 40
0.0
 40
0.0
 40
0.2501213163499032
 40
0.3752087323567221
 40
0.5002154264236799
 40
0.6251773972836281
 40
0.7501819867111047
 40
1.0
 40
1.0
 40
1.0
 40
1.0
 10
4.718025543583072
 20
7.328176960371267
 30
0.0
 10
4.714936868349089
 20
7.329518672562521
 30
0.0
 10
4.710303525073448
 20
7.331531384384985
 30
0.0
 10
4.706497223275814
 20
7.335045338519443
 30
0.0
 10
4.705348543604461
 20
7.338074142556883
 30
0.0
 10
4.706081992905754
 20
7.341315104962509
 30
0.0
 10
4.709433838408568
 20
7.345650359454607
 30
0.0
 10
4.714079221772017
 20
7.348548658983529
 30
0.0
 10
4.717175354274198
 20
7.350480365942994
 30
0.0
  0
LINE
  5
1B2
330
1F
100
AcDbEntity
  8
0
  6
Continuous
 62
     7
370
     0
100
AcDbLine
 10
4.6651230048
 20
7.3493087816
 30
0.0
 11
4.6457923584
 21
7.3381494369
 31
0.0
  0
SPLINE
  5
1B3
330
1F
100
AcDbEntity
  8
0
  6
Continuous
 62
     7
370
     0
100
AcDbSpline
210
0.0
220
0.0
230
1.0
 70
     8
 71
     3
 72
    11
 73
     7
 74
     0
 42
0.00000001
 43
0.00000001
 40
0.0
 40
0.0
 40
0.0
 40
0.0
 40
0.4989693492838161
 40
0.7492892892638036
 40
0.8746232027899107
 40
0.9999999999999999
 40
0.9999999999999999
 40
0.9999999999999999
 40
0.9999999999999999
 10
4.672055340908945
 20
7.343707418420812
 30
0.0
 10
4.670087485804511
 20
7.344374479703008
 30
0.0
 10
4.6671324089953
 20
7.345376188274385
 30
0.0
 10
4.665591650051673
 20
7.347226623888576
 30
0.0
 10
4.665137181647935
 20
7.348379000740746
 30
0.0
 10
4.665127730943214
 20
7.348998819279291
 30
0.0
 10
4.665123004782588
 20
7.34930878155807
 30
0.0
  0
ARC
  5
1B4
330
1F
100
AcDbEntity
  8
0
  6
Continuous
 62
     7
370
     0
100
AcDbCircle
 10
4.6823036359
 20
7.393319916
 30
0.0
 40
0.0506599196909729
100
AcDbArc
 50
258.3287496357
 51
302.8815287491
  0
SPLINE
  5
1B5
330
1F
100
AcDbEntity
  8
0
  6
Continuous
 62
     7
370
     0
100
AcDbSpline
210
0.0
220
0.0
230
1.0
 70
     8
 71
     3
 72
    13
 73
     9
 74
     0
 42
0.00000001
 43
0.00000001
 40
0.0
 40
0.0
 40
0.0
 40
0.0
 40
0.1251834461242814
 40
0.2502299178031388
 40
0.3715684377533919
 40
0.5002574982632043
 40
0.7499110761102642
 40
1.0
 40
1.0
 40
1.0
 40
1.0
 10
4.714765258702732
 20
7.368278683128521
 30
0.0
 10
4.715961328500107
 20
7.367897322189082
 30
0.0
 10
4.718352159367528
 20
7.367135017591441
 30
0.0
 10
4.720648509172575
 20
7.365357083402665
 30
0.0
 10
4.721533240947338
 20
7.36311885584433
 30
0.0
 10
4.720636286435719
 20
7.359791707631205
 30
0.0
 10
4.717165432673087
 20
7.355429573088208
 30
0.0
 10
4.712261298885113
 20
7.352328073083759
 30
0.0
 10
4.709807095895806
 20
7.350775972160062
 30
0.0
  0
SPLINE
  5
1B6
330
1F
100
AcDbEntity
  8
0
  6
Continuous
 62
     7
370
     0
100
AcDbSpline
210
0.0
220
0.0
230
1.0
 70
    24
 71
     1
 72
     4
 73
     2
 74
     0
 42
0.00000001
 43
0.00000001
 40
0.0
 40
0.0
 40
1.0
 40
1.0
 10
4.705751178477527
 20
7.369206004774554
 30
0.0
 10
4.714765258702732
 20
7.368278683128521
 30
0.0
  0
SPLINE
  5
1B7
330
1F
100
AcDbEntity
  8
0
  6
Continuous
 62
     7
370
     0
100
AcDbSpline
210
0.0
220
0.0
230
1.0
 70
    24
 71
     1
 72
     4
 73
     2
 74
     0
 42
0.00000001
 43
0.00000001
 40
0.0
 40
0.0
 40
1.0
 40
1.0
 10
4.695394031930976
 20
7.367657859504842
 30
0.0
 10
4.705751178477527
 20
7.369206004774554
 30
0.0
  0
LINE
  5
1B8
330
1F
100
AcDbEntity
  8
0
  6
Continuous
 62
     7
370
     0
100
AcDbLine
 10
4.7012827621
 20
7.3710573511
 30
0.0
 11
4.6953940319
 21
7.3676578595
 31
0.0
  0
ARC
  5
1B9
330
1F
100
AcDbEntity
  8
0
  6
Continuous
 62
     7
370
     0
100
AcDbCircle
 10
4.6246128785
 20
7.0404359828
 30
0.0
 40
0.3393946968486807
100
AcDbArc
 50
76.9440852399
 51
79.2957067905
  0
LINE
  5
1BA
330
1F
100
AcDbEntity
  8
0
  6
Continuous
 62
     7
370
     0
100
AcDbLine
 10
4.6310835893
 20
7.3412685078
 30
0.0
 11
4.6876521318
 21
7.3739248323
 31
0.0
  0
ARC
  5
1BB
330
1F
100
AcDbEntity
  8
0
  6
Continuous
 62
     7
370
     0
100
AcDbCircle
 10
4.5678892466
 20
7.0070185791
 30
0.0
 40
0.3401713389587675
100
AcDbArc
 50
76.7611247503
 51
79.2938493811
  0
SPLINE
  5
1BC
330
1F
100
AcDbEntity
  8
0
  6
Continuous
 62
     7
370
     0
100
AcDbSpline
210
0.0
220
0.0
230
1.0
 70
     8
 71
     3
 72
    13
 73
     9
 74
     0
 42
0.00000001
 43
0.00000001
 40
0.0
 40
0.0
 40
0.0
 40
0.0
 40
0.2502499937362295
 40
0.3875326883007662
 40
0.5000553989273497
 40
0.614852255170872
 40
0.7498927631186203
 40
1.0
 40
1.0
 40
1.0
 40
1.0
 10
4.553486603373244
 20
7.358351423224011
 30
0.0
 10
4.552807762969878
 20
7.357952241732881
 30
0.0
 10
4.551756522797936
 20
7.357334076377237
 30
0.0
 10
4.55074052362767
 20
7.356633810718918
 30
0.0
 10
4.550298208085707
 20
7.356225207464689
 30
0.0
 10
4.550390365012393
 20
7.356037243741054
 30
0.0
 10
4.551018255644719
 20
7.35601408668056
 30
0.0
 10
4.551867861528845
 20
7.356182617757785
 30
0.0
 10
4.552419578585403
 20
7.356292058466237
 30
0.0
  0
ARC
  5
1BD
330
1F
100
AcDbEntity
  8
0
  6
Continuous
 62
     7
370
     0
100
AcDbCircle
 10
4.6172252407
 20
7.1680766593
 30
0.0
 40
0.2006666381548999
100
AcDbArc
 50
103.0823782862
 51
108.519926649
  0
ARC
  5
1BE
330
1F
100
AcDbEntity
  8
0
  6
Continuous
 62
     7
370
     0
100
AcDbCircle
 10
4.5477141171
 20
7.4717449058
 30
0.0
 40
0.1108588283226497
100
AcDbArc
 50
282.5506342752
 51
289.4524089407
  0
SPLINE
  5
1BF
330
1F
100
AcDbEntity
  8
0
  6
Continuous
 62
     7
370
     0
100
AcDbSpline
210
0.0
220
0.0
230
1.0
 70
     8
 71
     3
 72
     9
 73
     5
 74
     0
 42
0.00000001
 43
0.00000001
 40
0.0
 40
0.0
 40
0.0
 40
0.0
 40
0.5005138828869351
 40
1.0
 40
1.0
 40
1.0
 40
1.0
 10
4.5941738925743
 20
7.371643442091056
 30
0.0
 10
4.592753847016986
 20
7.370861964677601
 30
0.0
 10
4.589916671853886
 20
7.369300614552909
 30
0.0
 10
4.586392844533645
 20
7.367909110246197
 30
0.0
 10
4.584632741708082
 20
7.367214073163091
 30
0.0
  0
SPLINE
  5
1C0
330
1F
100
AcDbEntity
  8
0
  6
Continuous
 62
     7
370
     0
100
AcDbSpline
210
0.0
220
0.0
230
1.0
 70
     8
 71
     3
 72
    13
 73
     9
 74
     0
 42
0.00000001
 43
0.00000001
 40
0.0
 40
0.0
 40
0.0
 40
0.0
 40
0.2503342404082224
 40
0.4997600710236825
 40
0.6241777149124893
 40
0.7517673256870796
 40
0.8742692938074766
 40
0.9999999999999999
 40
0.9999999999999999
 40
0.9999999999999999
 40
0.9999999999999999
 10
4.592412564246679
 20
7.376151743089596
 30
0.0
 10
4.593803825313225
 20
7.376355141490937
 30
0.0
 10
4.596581298855381
 20
7.37676120020402
 30
0.0
 10
4.598679398971132
 20
7.376412968354231
 30
0.0
 10
4.59879451358765
 20
7.375440101124539
 30
0.0
 10
4.598181358282317
 20
7.374440999506553
 30
0.0
 10
4.59662542482247
 20
7.373131354707425
 30
0.0
 10
4.594998125365222
 20
7.372143695093786
 30
0.0
 10
4.5941738925743
 20
7.371643442091056
 30
0.0
  0
ARC
  5
1C1
330
1F
100
AcDbEntity
  8
0
  6
Continuous
 62
     7
370
     0
100
AcDbCircle
 10
4.6044541109
 20
7.3094216846
 30
0.0
 40
0.0678078133604953
100
AcDbArc
 50
100.2290351938
 51
108.8145478466
  0
SPLINE
  5
1C2
330
1F
100
AcDbEntity
  8
0
  6
Continuous
 62
     7
370
     0
100
AcDbSpline
210
0.0
220
0.0
230
1.0
 70
    24
 71
     1
 72
     4
 73
     2
 74
     0
 42
0.00000001
 43
0.00000001
 40
0.0
 40
0.0
 40
1.0
 40
1.0
 10
4.573267253189619
 20
7.370021229828384
 30
0.0
 10
4.582585681110225
 20
7.373606350447958
 30
0.0
  0
SPLINE
  5
1C3
330
1F
100
AcDbEntity
  8
0
  6
Continuous
 62
     7
370
     0
100
AcDbSpline
210
0.0
220
0.0
230
1.0
 70
     8
 71
     3
 72
     9
 73
     5
 74
     0
 42
0.00000001
 43
0.00000001
 40
0.0
 40
0.0
 40
0.0
 40
0.0
 40
0.4998712278477594
 40
1.0
 40
1.0
 40
1.0
 40
1.0
 10
4.577080681222801
 20
7.372689966626983
 30
0.0
 10
4.576615569286014
 20
7.372303165105323
 30
0.0
 10
4.575685105776863
 20
7.371529362773621
 30
0.0
 10
4.574073342418858
 20
7.370524027116288
 30
0.0
 10
4.573267253189619
 20
7.370021229828384
 30
0.0
  0
ARC
  5
1C4
330
1F
100
AcDbEntity
  8
0
  6
Continuous
 62
     7
370
     0
100
AcDbCircle
 10
4.6276256664
 20
7.1651940291
 30
0.0
 40
0.2135634791618696
100
AcDbArc
 50
103.690337129
 51
107.0059792854
  0
SPLINE
  5
1C5
330
1F
100
AcDbEntity
  8
0
  6
Continuous
 62
     7
370
     0
100
AcDbSpline
210
0.0
220
0.0
230
1.0
 70
     8
 71
     3
 72
     9
 73
     5
 74
     0
 42
0.00000001
 43
0.00000001
 40
0.0
 40
0.0
 40
0.0
 40
0.0
 40
0.5000538352470664
 40
1.0
 40
1.0
 40
1.0
 40
1.0
 10
4.558022874610526
 20
7.364863670622547
 30
0.0
 10
4.559532790406928
 20
7.365739466569925
 30
0.0
 10
4.56255229688798
 20
7.36749086989022
 30
0.0
 10
4.564293784836151
 20
7.368776524550977
 30
0.0
 10
4.565164435056802
 20
7.36941928266782
 30
0.0
  0
LINE
  5
1C6
330
1F
100
AcDbEntity
  8
0
  6
Continuous
 62
     7
370
     0
100
AcDbLine
 10
4.5399319609
 20
7.3544200084
 30
0.0
 11
4.5580228746
 21
7.3648636706
 31
0.0
  0
ARC
  5
1C7
330
1F
100
AcDbEntity
  8
0
  6
Continuous
 62
     7
370
     0
100
AcDbCircle
 10
4.5489940401
 20
7.3336953901
 30
0.0
 40
0.0226192635902122
100
AcDbArc
 50
113.6179105216
 51
137.156301794
  0
ARC
  5
1C8
330
1F
100
AcDbEntity
  8
0
  6
Continuous
 62
     7
370
     0
100
AcDbCircle
 10
4.5362834256
 20
7.3638736368
 30
0.0
 40
0.0152958708647827
100
AcDbArc
 50
255.3285005124
 51
297.8978831227
  0
SPLINE
  5
1C9
330
1F
100
AcDbEntity
  8
0
  6
Continuous
 62
     7
370
     0
100
AcDbSpline
210
0.0
220
0.0
230
1.0
 70
     8
 71
     3
 72
     9
 73
     5
 74
     0
 42
0.00000001
 43
0.00000001
 40
0.0
 40
0.0
 40
0.0
 40
0.0
 40
0.49877577669307
 40
1.0
 40
1.0
 40
1.0
 40
1.0
 10
4.558211674470194
 20
7.354120465684562
 30
0.0
 10
4.555377320422247
 20
7.353292616850517
 30
0.0
 10
4.549694698730513
 20
7.35163285534499
 30
0.0
 10
4.545528513239504
 20
7.350781917895121
 30
0.0
 10
4.54344032015262
 20
7.350355407432728
 30
0.0
  0
ARC
  5
1CA
330
1F
100
AcDbEntity
  8
0
  6
Continuous
 62
     7
370
     0
100
AcDbCircle
 10
4.5223727645
 20
7.4625129479
 30
0.0
 40
0.1141637318168659
100
AcDbArc
 50
288.2959611595
 51
298.0214438957
  0
SPLINE
  5
1CB
330
1F
100
AcDbEntity
  8
0
  6
Continuous
 62
     7
370
     0
100
AcDbSpline
210
0.0
220
0.0
230
1.0
 70
    24
 71
     1
 72
     4
 73
     2
 74
     0
 42
0.00000001
 43
0.00000001
 40
0.0
 40
0.0
 40
1.0
 40
1.0
 10
4.563813422159066
 20
7.360499952062859
 30
0.0
 10
4.576007112675227
 20
7.361732422172254
 30
0.0
  0
SPLINE
  5
1CC
330
1F
100
AcDbEntity
  8
0
  6
Continuous
 62
     7
370
     0
100
AcDbSpline
210
0.0
220
0.0
230
1.0
 70
     8
 71
     3
 72
     9
 73
     5
 74
     0
 42
0.00000001
 43
0.00000001
 40
0.0
 40
0.0
 40
0.0
 40
0.0
 40
0.4983624828367396
 40
1.0
 40
1.0
 40
1.0
 40
1.0
 10
4.558122995935014
 20
7.357938010711551
 30
0.0
 10
4.55910449343019
 20
7.358338487394732
 30
0.0
 10
4.561073938420489
 20
7.359142072529999
 30
0.0
 10
4.562898269330756
 20
7.360046338384667
 30
0.0
 10
4.563813422159066
 20
7.360499952062859
 30
0.0
  0
SPLINE
  5
1CD
330
1F
100
AcDbEntity
  8
0
  6
Continuous
 62
     7
370
     0
100
AcDbSpline
210
0.0
220
0.0
230
1.0
 70
     8
 71
     3
 72
     9
 73
     5
 74
     0
 42
0.00000001
 43
0.00000001
 40
0.0
 40
0.0
 40
0.0
 40
0.0
 40
0.5014167496225341
 40
1.0
 40
1.0
 40
1.0
 40
1.0
 10
4.552419578585403
 20
7.356292058466237
 30
0.0
 10
4.553210844819099
 20
7.356464872965335
 30
0.0
 10
4.554788905851746
 20
7.356809525391141
 30
0.0
 10
4.557013733923479
 20
7.357562560179248
 30
0.0
 10
4.558122995935014
 20
7.357938010711551
 30
0.0
  0
LINE
  5
1CE
330
1F
100
AcDbEntity
  8
0
  6
Continuous
 62
     7
370
     0
100
AcDbLine
 10
4.4907120634
 20
7.3303840827
 30
0.0
 11
4.500997253
 21
7.3363215963
 31
0.0
  0
ARC
  5
1CF
330
1F
100
AcDbEntity
  8
0
  6
Continuous
 62
     7
370
     0
100
AcDbCircle
 10
4.5686415782
 20
7.1400913757
 30
0.0
 40
0.2056315239361817
100
AcDbArc
 50
108.7275709048
 51
112.2702989711
  0
LINE
  5
1D0
330
1F
100
AcDbEntity
  8
0
  6
Continuous
 62
     7
370
     0
100
AcDbLine
 10
4.5129049105
 20
7.3407734347
 30
0.0
 11
4.502619721
 21
7.3348359212
 31
0.0
  0
ARC
  5
1D1
330
1F
100
AcDbEntity
  8
0
  6
Continuous
 62
     7
370
     0
100
AcDbCircle
 10
4.5789267677
 20
7.1460288892
 30
0.0
 40
0.2056315239372083
100
AcDbArc
 50
108.7275709048
 51
112.2702989711
  0
LINE
  5
1D2
330
1F
100
AcDbEntity
  8
0
  6
Continuous
 62
     7
370
     0
100
AcDbLine
 10
4.9189022272
 20
7.018661304
 30
0.0
 11
4.9416765755
 21
7.0318086554
 31
0.0
  0
ARC
  5
1D3
330
1F
100
AcDbEntity
  8
0
  6
Continuous
 62
     7
370
     0
100
AcDbCircle
 10
4.1209338725
 20
6.4308441101
 30
0.0
 40
0.9911016842783545
100
AcDbArc
 50
36.3769291507
 51
38.1505285259
  0
LINE
  5
1D4
330
1F
100
AcDbEntity
  8
0
  6
Continuous
 62
     7
370
     0
100
AcDbLine
 10
4.8885723774
 20
7.0362912517
 30
0.0
 11
4.9003268798
 21
7.0430769815
 31
0.0
  0
ARC
  5
1D5
330
1F
100
AcDbEntity
  8
0
  6
Continuous
 62
     7
370
     0
100
AcDbCircle
 10
4.1091793701
 20
6.4240583804
 30
0.0
 40
0.9911016842872273
100
AcDbArc
 50
36.3769291507
 51
38.1505285259
  0
LINE
  5
1D6
330
1F
100
AcDbEntity
  8
0
  6
Continuous
 62
     7
370
     0
100
AcDbLine
 10
4.8983318481
 20
7.0067862769
 30
0.0
 11
4.9071477248
 21
7.0118755743
 31
0.0
  0
ARC
  5
1D7
330
1F
100
AcDbEntity
  8
0
  6
Continuous
 62
     7
370
     0
100
AcDbCircle
 10
4.1019027298
 20
6.4201297103
 30
0.0
 40
0.9891740330656684
100
AcDbArc
 50
36.3756811499
 51
38.4475461432
  0
LINE
  5
1D8
330
1F
100
AcDbEntity
  8
0
  6
Continuous
 62
     7
370
     0
100
AcDbLine
 10
4.8633779947
 20
7.0275621047
 30
0.0
 11
4.8766018098
 21
7.0351960507
 31
0.0
  0
ARC
  5
1D9
330
1F
100
AcDbEntity
  8
0
  6
Continuous
 62
     7
370
     0
100
AcDbCircle
 10
4.0820189682
 20
6.407381063
 30
0.0
 40
0.9975702746266625
100
AcDbArc
 50
34.9670794021
 51
38.4397682182
  0
LINE
  5
1DA
330
1F
100
AcDbEntity
  8
0
  6
Continuous
 62
     7
370
     0
100
AcDbLine
 10
4.9560778662
 20
7.0117505773
 30
0.0
 11
4.8995093237
 21
6.9790942528
 31
0.0
  0
ARC
  5
1DB
330
1F
100
AcDbEntity
  8
0
  6
Continuous
 62
     7
370
     0
100
AcDbCircle
 10
4.1290841538
 20
6.4331849254
 30
0.0
 40
1.009285298532951
100
AcDbArc
 50
34.97667546
 51
36.3784754311
  0
LINE
  5
1DC
330
1F
100
AcDbEntity
  8
0
  6
Continuous
 62
     7
370
     0
100
AcDbLine
 10
4.8002612472
 20
7.1481898447
 30
0.0
 11
4.8127504059
 21
7.1553996825
 31
0.0
  0
ARC
  5
1DD
330
1F
100
AcDbEntity
  8
0
  6
Continuous
 62
     7
370
     0
100
AcDbCircle
 10
4.2234369575
 20
6.5225445381
 30
0.0
 40
0.8509749178171425
100
AcDbArc
 50
43.5948621576
 51
47.3249675047
  0
LINE
  5
1DE
330
1F
100
AcDbEntity
  8
0
  6
Continuous
 62
     7
370
     0
100
AcDbLine
 10
4.8522308281
 20
7.1165480475
 30
0.0
 11
4.8397416693
 21
7.1093382096
 31
0.0
  0
ARC
  5
1DF
330
1F
100
AcDbEntity
  8
0
  6
Continuous
 62
     7
370
     0
100
AcDbCircle
 10
4.2359261162
 20
6.529754376
 30
0.0
 40
0.850974917816952
100
AcDbArc
 50
43.5948621576
 51
47.3249675047
  0
ARC
  5
1E0
330
1F
100
AcDbEntity
  8
0
  6
Continuous
 62
     7
370
     0
100
AcDbCircle
 10
4.755840642
 20
7.3007873861
 30
0.0
 40
0.1328146124295092
100
AcDbArc
 50
265.9641681006
 51
292.9031456364
  0
ARC
  5
1E1
330
1F
100
AcDbEntity
  8
0
  6
Continuous
 62
     7
370
     0
100
AcDbCircle
 10
4.3080831058
 20
6.602678138
 30
0.0
 40
0.7622017294198358
100
AcDbArc
 50
49.0601056453
 51
50.5391965167
  0
ARC
  5
1E2
330
1F
100
AcDbEntity
  8
0
  6
Continuous
 62
     7
370
     0
100
AcDbCircle
 10
4.7431179473
 20
7.2922355437
 30
0.0
 40
0.1125090771335724
100
AcDbArc
 50
285.0348668149
 51
296.0350687932
  0
ARC
  5
1E3
330
1F
100
AcDbEntity
  8
0
  6
Continuous
 62
     7
370
     0
100
AcDbCircle
 10
4.7413963053
 20
7.3015787391
 30
0.0
 40
0.1219814169142052
100
AcDbArc
 50
272.9988808417
 51
284.6774246178
  0
ARC
  5
1E4
330
1F
100
AcDbEntity
  8
0
  6
Continuous
 62
     7
370
     0
100
AcDbCircle
 10
4.7421394029
 20
7.3055385005
 30
0.0
 40
0.1259004579126445
100
AcDbArc
 50
262.7672461245
 51
272.5668887945
  0
LINE
  5
1E5
330
1F
100
AcDbEntity
  8
0
  6
Continuous
 62
     7
370
     0
100
AcDbLine
 10
4.7157163241
 20
7.1745366655
 30
0.0
 11
4.7262884888
 21
7.1806398462
 31
0.0
  0
ARC
  5
1E6
330
1F
100
AcDbEntity
  8
0
  6
Continuous
 62
     7
370
     0
100
AcDbCircle
 10
4.2589650656
 20
6.5785211433
 30
0.0
 40
0.7509035988409065
100
AcDbArc
 50
48.1253008026
 51
52.5355664278
  0
LINE
  5
1E7
330
1F
100
AcDbEntity
  8
0
  6
Continuous
 62
     7
370
     0
100
AcDbLine
 10
4.7734198981
 20
7.1452826973
 30
0.0
 11
4.760196083
 21
7.1376487513
 31
0.0
  0
ARC
  5
1E8
330
1F
100
AcDbEntity
  8
0
  6
Continuous
 62
     7
370
     0
100
AcDbCircle
 10
4.260481514
 20
6.5725354996
 30
0.0
 40
0.7688596349687435
100
AcDbArc
 50
48.1531526911
 51
50.7932900498
  0
LINE
  5
1E9
330
1F
100
AcDbEntity
  8
0
  6
Continuous
 62
     7
370
     0
100
AcDbLine
 10
4.6747342737
 20
7.2458465944
 30
0.0
 11
4.6954424008
 21
7.2578011418
 31
0.0
  0
ARC
  5
1EA
330
1F
100
AcDbEntity
  8
0
  6
Continuous
 62
     7
370
     0
100
AcDbCircle
 10
4.6658639568
 20
7.2583665518
 30
0.0
 40
0.0153437887217826
100
AcDbArc
 50
245.607801355
 51
305.3173496515
  0
SPLINE
  5
1EB
330
1F
100
AcDbEntity
  8
0
  6
Continuous
 62
     7
370
     0
100
AcDbSpline
210
0.0
220
0.0
230
1.0
 70
     8
 71
     3
 72
    11
 73
     7
 74
     0
 42
0.00000001
 43
0.00000001
 40
0.0
 40
0.0
 40
0.0
 40
0.0
 40
0.2500620333659347
 40
0.4999138376966932
 40
0.7498401673007613
 40
0.9999999999999999
 40
0.9999999999999999
 40
0.9999999999999999
 40
0.9999999999999999
 10
4.658027828230333
 20
7.24894452254187
 30
0.0
 10
4.657763956948792
 20
7.248548273982386
 30
0.0
 10
4.657236436224285
 20
7.247756109992568
 30
0.0
 10
4.657297871406641
 20
7.24649284744735
 30
0.0
 10
4.65803784648114
 20
7.245308651038427
 30
0.0
 10
4.65903064254791
 20
7.244697879506688
 30
0.0
 10
4.659527272362308
 20
7.244392351148349
 30
0.0
  0
SPLINE
  5
1EC
330
1F
100
AcDbEntity
  8
0
  6
Continuous
 62
     7
370
     0
100
AcDbSpline
210
0.0
220
0.0
230
1.0
 70
    24
 71
     1
 72
     4
 73
     2
 74
     0
 42
0.00000001
 43
0.00000001
 40
0.0
 40
0.0
 40
1.0
 40
1.0
 10
4.661345630306482
 20
7.251212730566571
 30
0.0
 10
4.658027828230333
 20
7.24894452254187
 30
0.0
  0
LINE
  5
1ED
330
1F
100
AcDbEntity
  8
0
  6
Continuous
 62
     7
370
     0
100
AcDbLine
 10
4.6836952554
 20
7.2641148945
 30
0.0
 11
4.6613456303
 21
7.2512127306
 31
0.0
  0
ARC
  5
1EE
330
1F
100
AcDbEntity
  8
0
  6
Continuous
 62
     7
370
     0
100
AcDbCircle
 10
4.447687387
 20
6.8116909807
 30
0.0
 40
0.5102814044197268
100
AcDbArc
 50
62.4511097318
 51
64.383849258
  0
LINE
  5
1EF
330
1F
100
AcDbEntity
  8
0
  6
Continuous
 62
     7
370
     0
100
AcDbLine
 10
4.6473073183
 20
7.2596969647
 30
0.0
 11
4.6683024206
 21
7.2718171793
 31
0.0
  0
ARC
  5
1F0
330
1F
100
AcDbEntity
  8
0
  6
Continuous
 62
     7
370
     0
100
AcDbCircle
 10
4.6381910184
 20
7.272699639
 30
0.0
 40
0.0158800649632851
100
AcDbArc
 50
248.8379790321
 51
305.0346663527
  0
ARC
  5
1F1
330
1F
100
AcDbEntity
  8
0
  6
Continuous
 62
     7
370
     0
100
AcDbCircle
 10
4.6332639922
 20
7.2606023826
 30
0.0
 40
0.0028290871919539
100
AcDbArc
 50
172.2700463175
 51
253.4519155292
  0
SPLINE
  5
1F2
330
1F
100
AcDbEntity
  8
0
  6
Continuous
 62
     7
370
     0
100
AcDbSpline
210
0.0
220
0.0
230
1.0
 70
     8
 71
     3
 72
     9
 73
     5
 74
     0
 42
0.00000001
 43
0.00000001
 40
0.0
 40
0.0
 40
0.0
 40
0.0
 40
0.5015771373281175
 40
1.0
 40
1.0
 40
1.0
 40
1.0
 10
4.633429196765415
 20
7.263855205451332
 30
0.0
 10
4.632709944128011
 20
7.263425138409579
 30
0.0
 10
4.631275962026602
 20
7.262567708894263
 30
0.0
 10
4.630731823806038
 20
7.26151006212134
 30
0.0
 10
4.630460612876456
 20
7.260982906789085
 30
0.0
  0
LINE
  5
1F3
330
1F
100
AcDbEntity
  8
0
  6
Continuous
 62
     7
370
     0
100
AcDbLine
 10
4.6566053103
 20
7.277234491
 30
0.0
 11
4.6334291968
 21
7.2638552055
 31
0.0
  0
ARC
  5
1F4
330
1F
100
AcDbEntity
  8
0
  6
Continuous
 62
     7
370
     0
100
AcDbCircle
 10
4.4689507528
 20
6.8575882966
 30
0.0
 40
0.4596924639431173
100
AcDbArc
 50
65.9070832783
 51
67.9791469988
  0
LINE
  5
1F5
330
1F
100
AcDbEntity
  8
0
  6
Continuous
 62
     7
370
     0
100
AcDbLine
 10
4.6155852405
 20
7.2688946143
 30
0.0
 11
4.6413096934
 21
7.2837450248
 31
0.0
  0
SPLINE
  5
1F6
330
1F
100
AcDbEntity
  8
0
  6
Continuous
 62
     7
370
     0
100
AcDbSpline
210
0.0
220
0.0
230
1.0
 70
     8
 71
     3
 72
    13
 73
     9
 74
     0
 42
0.00000001
 43
0.00000001
 40
0.0
 40
0.0
 40
0.0
 40
0.0
 40
0.2493551011003718
 40
0.3758643206449999
 40
0.4994912623305223
 40
0.6184449072905646
 40
0.7497843925020456
 40
1.0
 40
1.0
 40
1.0
 40
1.0
 10
4.613429773325912
 20
7.253639081248092
 30
0.0
 10
4.611541682856171
 20
7.254623500215638
 30
0.0
 10
4.608695677947533
 20
7.256107359839256
 30
0.0
 10
4.60704498787631
 20
7.258763025124358
 30
0.0
 10
4.606926164930716
 20
7.260877493662534
 30
0.0
 10
4.607981908740082
 20
7.263045684521704
 30
0.0
 10
4.610638243519481
 20
7.265817136736811
 30
0.0
 10
4.61362596026214
 20
7.267675765546855
 30
0.0
 10
4.615585240518335
 20
7.268894614268061
 30
0.0
  0
ARC
  5
1F7
330
1F
100
AcDbEntity
  8
0
  6
Continuous
 62
     7
370
     0
100
AcDbCircle
 10
4.6286081003
 20
7.2898877396
 30
0.0
 40
0.0392981785933116
100
AcDbArc
 50
247.279575957
 51
279.0515991923
  0
SPLINE
  5
1F8
330
1F
100
AcDbEntity
  8
0
  6
Continuous
 62
     7
370
     0
100
AcDbSpline
210
0.0
220
0.0
230
1.0
 70
     8
 71
     3
 72
    12
 73
     8
 74
     0
 42
0.00000001
 43
0.00000001
 40
0.0
 40
0.0
 40
0.0
 40
0.0
 40
0.2503533688407845
 40
0.4999961943216242
 40
0.7494886161542237
 40
0.8747044873187656
 40
1.0
 40
1.0
 40
1.0
 40
1.0
 10
4.640295050829427
 20
7.240732653320254
 30
0.0
 10
4.639071070525758
 20
7.241416811057547
 30
0.0
 10
4.636626583772524
 20
7.2427831847818
 30
0.0
 10
4.634063451728797
 20
7.245310975537738
 30
0.0
 10
4.633644420091698
 20
7.247735897332038
 30
0.0
 10
4.634065400847107
 20
7.249660597187596
 30
0.0
 10
4.634548844130249
 20
7.250606058127905
 30
0.0
 10
4.634790642618938
 20
7.251078938886526
 30
0.0
  0
ARC
  5
1F9
330
1F
100
AcDbEntity
  8
0
  6
Continuous
 62
     7
370
     0
100
AcDbCircle
 10
4.6572552712
 20
7.2759299321
 30
0.0
 40
0.0390704173436349
100
AcDbArc
 50
244.2723640172
 51
276.4893705238
  0
LINE
  5
1FA
330
1F
100
AcDbEntity
  8
0
  6
Continuous
 62
     7
370
     0
100
AcDbLine
 10
4.6553575128
 20
7.2334651661
 30
0.0
 11
4.6616709662
 21
7.2371098452
 31
0.0
  0
ARC
  5
1FB
330
1F
100
AcDbEntity
  8
0
  6
Continuous
 62
     7
370
     0
100
AcDbCircle
 10
4.3808088411
 20
6.7401342473
 30
0.0
 40
0.564581587269762
100
AcDbArc
 50
59.2201163535
 51
60.9031740876
  0
LINE
  5
1FC
330
1F
100
AcDbEntity
  8
0
  6
Continuous
 62
     7
370
     0
100
AcDbLine
 10
4.7108692895
 20
7.248938712
 30
0.0
 11
4.6697285313
 21
7.2251886579
 31
0.0
  0
ARC
  5
1FD
330
1F
100
AcDbEntity
  8
0
  6
Continuous
 62
     7
370
     0
100
AcDbCircle
 10
4.4224817397
 20
6.7647986995
 30
0.0
 40
0.5635236734727586
100
AcDbArc
 50
59.2190231248
 51
61.0280166487
  0
LWPOLYLINE
  5
1FE
330
1F
100
AcDbEntity
  8
0
  6
Continuous
 62
     7
370
     0
100
AcDbPolyline
 90
       67
 70
   128
 43
0.0
 10
5.9375440265
 20
6.7821323657
 10
5.9476443061
 20
6.7883696382
 10
5.9611712848
 20
6.7981125701
 10
5.9739539665
 20
6.8090139112
 10
5.9859629507
 20
6.8210485879
 10
5.9971706162
 20
6.8341889201
 10
6.0075511851
 20
6.8484046847
 10
6.0170807818
 20
6.8636631849
 10
6.0257374879
 20
6.8799293257
 10
6.0335013926
 20
6.8971656944
 10
6.0403546388
 20
6.9153326468
 10
6.0462814638
 20
6.9343883985
 10
6.0512682356
 20
6.9542891204
 10
6.0553034845
 20
6.9749890404
 10
6.0583779294
 20
6.9964405479
 10
6.0604844989
 20
7.0185943039
 10
6.0616183478
 20
7.0413993538
 10
6.0617768683
 20
7.0648032455
 10
6.0609596957
 20
7.0887521492
 10
6.0591687096
 20
7.1131909816
 10
6.0564080293
 20
7.1380635327
 10
6.0526840044
 20
7.1633125948
 10
6.0480052004
 20
7.1888800942
 10
6.0423823785
 20
7.2147072249
 10
6.0358284716
 20
7.2407345836
 10
6.0283585538
 20
7.2669023066
 10
6.019989806
 20
7.2931502073
 10
6.0107414769
 20
7.3194179147
 10
6.0006348377
 20
7.3456450122
 10
5.989693134
 20
7.3717711766
 10
5.9779415323
 20
7.3977363169
 10
5.9654070614
 20
7.4234807125
 10
5.9521185511
 20
7.4489451504
 10
5.9381065654
 20
7.4740710617
 10
5.9234033323
 20
7.4988006558
 10
5.9080426697
 20
7.523077054
 10
5.8920599076
 20
7.5468444198
 10
5.875491807
 20
7.5700480874
 10
5.8583764748
 20
7.5926346876
 10
5.8407532771
 20
7.6145522707
 10
5.8226627476
 20
7.6357504254
 10
5.8041464953
 20
7.6561803952
 10
5.785247108
 20
7.6757951907
 10
5.7660080549
 20
7.6945496971
 10
5.7464735865
 20
7.7124007785
 10
5.7266886328
 20
7.7293073768
 10
5.7066986996
 20
7.7452306063
 10
5.6865497646
 20
7.7601338431
 10
5.6662881708
 20
7.7739828092
 10
5.6459605207
 20
7.7867456516
 10
5.6256135685
 20
7.7983930154
 10
5.6052941128
 20
7.8088981111
 10
5.5850488889
 20
7.8182367768
 10
5.5649244617
 20
7.8263875333
 10
5.5449671179
 20
7.8333316335
 10
5.52522276
 20
7.8390531057
 10
5.5057368006
 20
7.8435387905
 10
5.4865540582
 20
7.8467783706
 10
5.4677186537
 20
7.8487643948
 10
5.449273909
 20
7.8494922953
 10
5.4312622477
 20
7.8489603978
 10
5.4137250971
 20
7.8471699257
 10
5.3967027934
 20
7.8441249972
 10
5.3802344883
 20
7.8398326156
 10
5.3643580594
 20
7.8343026537
 10
5.3491100231
 20
7.8275478305
 10
5.3375927869
 20
7.8213910006
  0
LINE
  5
1FF
330
1F
100
AcDbEntity
  8
0
  6
Continuous
 62
     7
370
     0
100
AcDbLine
 10
4.5960223004
 20
7.2808679745
 30
0.0
 11
4.6167304275
 21
7.2928225219
 31
0.0
  0
ARC
  5
200
330
1F
100
AcDbEntity
  8
0
  6
Continuous
 62
     7
370
     0
100
AcDbCircle
 10
4.5851567984
 20
7.2964993782
 30
0.0
 40
0.0190368041952618
100
AcDbArc
 50
257.2749561894
 51
304.8034437408
  0
SPLINE
  5
201
330
1F
100
AcDbEntity
  8
0
  6
Continuous
 62
     7
370
     0
100
AcDbSpline
210
0.0
220
0.0
230
1.0
 70
     8
 71
     3
 72
    11
 73
     7
 74
     0
 42
0.00000001
 43
0.00000001
 40
0.0
 40
0.0
 40
0.0
 40
0.0
 40
0.2500620333659175
 40
0.4999138376966858
 40
0.7498401673007645
 40
1.0
 40
1.0
 40
1.0
 40
1.0
 10
4.579587524727595
 20
7.281363742368992
 30
0.0
 10
4.57931783367474
 20
7.281018255563791
 30
0.0
 10
4.578778678300329
 20
7.280327572406748
 30
0.0
 10
4.578809756824644
 20
7.279333620111926
 30
0.0
 10
4.579512978548864
 20
7.278482167900791
 30
0.0
 10
4.580479850560376
 20
7.278114212707447
 30
0.0
 10
4.580963512294841
 20
7.277930149206902
 30
0.0
  0
SPLINE
  5
202
330
1F
100
AcDbEntity
  8
0
  6
Continuous
 62
     7
370
     0
100
AcDbSpline
210
0.0
220
0.0
230
1.0
 70
    24
 71
     1
 72
     4
 73
     2
 74
     0
 42
0.00000001
 43
0.00000001
 40
0.0
 40
0.0
 40
1.0
 40
1.0
 10
4.58291378827492
 20
7.283558448200872
 30
0.0
 10
4.579587524727595
 20
7.281363742368992
 30
0.0
  0
LINE
  5
203
330
1F
100
AcDbEntity
  8
0
  6
Continuous
 62
     7
370
     0
100
AcDbLine
 10
4.6052634133
 20
7.2964606121
 30
0.0
 11
4.5829137883
 21
7.2835584482
 31
0.0
  0
ARC
  5
204
330
1F
100
AcDbEntity
  8
0
  6
Continuous
 62
     7
370
     0
100
AcDbCircle
 10
4.4979609857
 20
6.9395480476
 30
0.0
 40
0.3726934258451462
100
AcDbArc
 50
73.2670856582
 51
75.6502298087
  0
LINE
  5
205
330
1F
100
AcDbEntity
  8
0
  6
Continuous
 62
     7
370
     0
100
AcDbLine
 10
4.5693344675
 20
7.2884935256
 30
0.0
 11
4.5903295698
 21
7.3006137402
 31
0.0
  0
ARC
  5
206
330
1F
100
AcDbEntity
  8
0
  6
Continuous
 62
     7
370
     0
100
AcDbCircle
 10
4.5578583286
 20
7.305234041
 30
0.0
 40
0.0202964682030232
100
AcDbArc
 50
261.0739392834
 51
304.4318379633
  0
SPLINE
  5
207
330
1F
100
AcDbEntity
  8
0
  6
Continuous
 62
     7
370
     0
100
AcDbSpline
210
0.0
220
0.0
230
1.0
 70
     8
 71
     3
 72
    10
 73
     6
 74
     0
 42
0.00000001
 43
0.00000001
 40
0.0
 40
0.0
 40
0.0
 40
0.0
 40
0.4988226573033018
 40
0.7491700015752105
 40
1.0
 40
1.0
 40
1.0
 40
1.0
 10
4.552863595586394
 20
7.287314376718212
 30
0.0
 10
4.55281256881266
 20
7.286855434288531
 30
0.0
 10
4.552735932902884
 20
7.286166159461629
 30
0.0
 10
4.553641277691146
 20
7.28550264650484
 30
0.0
 10
4.5543529533668
 20
7.285289867362475
 30
0.0
 10
4.554709133890929
 20
7.28518337533381
 30
0.0
  0
SPLINE
  5
208
330
1F
100
AcDbEntity
  8
0
  6
Continuous
 62
     7
370
     0
100
AcDbSpline
210
0.0
220
0.0
230
1.0
 70
     8
 71
     3
 72
     9
 73
     5
 74
     0
 42
0.00000001
 43
0.00000001
 40
0.0
 40
0.0
 40
0.0
 40
0.0
 40
0.5015771373280923
 40
1.0
 40
1.0
 40
1.0
 40
1.0
 10
4.555875287391621
 20
7.289921839704737
 30
0.0
 10
4.555155454733526
 20
7.289495209591302
 30
0.0
 10
4.553720316238318
 20
7.288644632318764
 30
0.0
 10
4.553148567986696
 20
7.287756861827742
 30
0.0
 10
4.552863595586395
 20
7.287314376718212
 30
0.0
  0
LINE
  5
209
330
1F
100
AcDbEntity
  8
0
  6
Continuous
 62
     7
370
     0
100
AcDbLine
 10
4.5790514009
 20
7.3033011252
 30
0.0
 11
4.5558752874
 21
7.2899218397
 31
0.0
  0
ARC
  5
20A
330
1F
100
AcDbEntity
  8
0
  6
Continuous
 62
     7
370
     0
100
AcDbCircle
 10
4.5070273852
 20
6.9775150696
 30
0.0
 40
0.3336525331244448
100
AcDbArc
 50
77.5337004865
 51
80.0993098544
  0
LINE
  5
20B
330
1F
100
AcDbEntity
  8
0
  6
Continuous
 62
     7
370
     0
100
AcDbLine
 10
4.5386714713
 20
7.2913481902
 30
0.0
 11
4.5643959242
 21
7.3061986007
 31
0.0
  0
SPLINE
  5
20C
330
1F
100
AcDbEntity
  8
0
  6
Continuous
 62
     7
370
     0
100
AcDbSpline
210
0.0
220
0.0
230
1.0
 70
     8
 71
     3
 72
    13
 73
     9
 74
     0
 42
0.00000001
 43
0.00000001
 40
0.0
 40
0.0
 40
0.0
 40
0.0
 40
0.2493551011004406
 40
0.3758643206397025
 40
0.4994912623305272
 40
0.6184449072810027
 40
0.7497843925019791
 40
1.0
 40
1.0
 40
1.0
 40
1.0
 10
4.535926192628593
 20
7.27940052165429
 30
0.0
 10
4.534119381191392
 20
7.279904476406109
 30
0.0
 10
4.531395891876874
 20
7.280664110396311
 30
0.0
 10
4.529898710984988
 20
7.282465375223821
 30
0.0
 10
4.529875477113973
 20
7.284058787295685
 30
0.0
 10
4.531001270775412
 20
7.28585218077295
 30
0.0
 10
4.53371416358633
 20
7.288324542916548
 30
0.0
 10
4.536708107443391
 20
7.290150661166507
 30
0.0
 10
4.538671471306971
 20
7.291348190162964
 30
0.0
  0
ARC
  5
20D
330
1F
100
AcDbEntity
  8
0
  6
Continuous
 62
     7
370
     0
100
AcDbCircle
 10
4.5446370585
 20
7.3255711354
 30
0.0
 40
0.046985154697694
100
AcDbArc
 50
259.3157714148
 51
284.9706673604
  0
SPLINE
  5
20E
330
1F
100
AcDbEntity
  8
0
  6
Continuous
 62
     7
370
     0
100
AcDbSpline
210
0.0
220
0.0
230
1.0
 70
     8
 71
     3
 72
    12
 73
     8
 74
     0
 42
0.00000001
 43
0.00000001
 40
0.0
 40
0.0
 40
0.0
 40
0.0
 40
0.2503533688407862
 40
0.4999961943216238
 40
0.7494886161542222
 40
0.8747044873187682
 40
1.0
 40
1.0
 40
1.0
 40
1.0
 10
4.561904015420397
 20
7.27272898274599
 30
0.0
 10
4.560715173963124
 20
7.273120711933317
 30
0.0
 10
4.558340865172951
 20
7.273903058517171
 30
0.0
 10
4.555888342603835
 20
7.275573857838804
 30
0.0
 10
4.555547064896491
 20
7.277422118838548
 30
0.0
 10
4.556018580526027
 20
7.278980874610647
 30
0.0
 10
4.556522457004102
 20
7.279780701011073
 30
0.0
 10
4.556774475338277
 20
7.280180741349995
 30
0.0
  0
ARC
  5
20F
330
1F
100
AcDbEntity
  8
0
  6
Continuous
 62
     7
370
     0
100
AcDbCircle
 10
4.5731782766
 20
7.316994712
 30
0.0
 40
0.0456789201684897
100
AcDbArc
 50
255.7108560527
 51
282.3353132257
  0
LINE
  5
210
330
1F
100
AcDbEntity
  8
0
  6
Continuous
 62
     7
370
     0
100
AcDbLine
 10
4.5766233265
 20
7.2687256521
 30
0.0
 11
4.5829367799
 21
7.2723703312
 31
0.0
  0
ARC
  5
211
330
1F
100
AcDbEntity
  8
0
  6
Continuous
 62
     7
370
     0
100
AcDbCircle
 10
4.4433497472
 20
6.8735097383
 30
0.0
 40
0.4170820847749464
100
AcDbArc
 50
69.3054588512
 51
71.3650120111
  0
LINE
  5
212
330
1F
100
AcDbEntity
  8
0
  6
Continuous
 62
     7
370
     0
100
AcDbLine
 10
4.6318813573
 20
7.2874307835
 30
0.0
 11
4.5907405991
 21
7.2636807293
 31
0.0
  0
ARC
  5
213
330
1F
100
AcDbEntity
  8
0
  6
Continuous
 62
     7
370
     0
100
AcDbCircle
 10
4.484793572
 20
6.8980932854
 30
0.0
 40
0.4161952714472787
100
AcDbArc
 50
69.3039400656
 51
71.5179768769
  0
SPLINE
  5
214
330
1F
100
AcDbEntity
  8
0
  6
Continuous
 62
     7
370
     0
100
AcDbSpline
210
0.0
220
0.0
230
1.0
 70
    24
 71
     1
 72
     4
 73
     2
 74
     0
 42
0.00000001
 43
0.00000001
 40
0.0
 40
0.0
 40
1.0
 40
1.0
 10
4.7212093629582
 20
7.211084480777914
 30
0.0
 10
4.727113320870669
 20
7.210035893688866
 30
0.0
  0
SPLINE
  5
215
330
1F
100
AcDbEntity
  8
0
  6
Continuous
 62
     7
370
     0
100
AcDbSpline
210
0.0
220
0.0
230
1.0
 70
    24
 71
     1
 72
     4
 73
     2
 74
     0
 42
0.00000001
 43
0.00000001
 40
0.0
 40
0.0
 40
1.0
 40
1.0
 10
4.715868814482075
 20
7.213595011024698
 30
0.0
 10
4.721209362958201
 20
7.211084480777914
 30
0.0
  0
SPLINE
  5
216
330
1F
100
AcDbEntity
  8
0
  6
Continuous
 62
     7
370
     0
100
AcDbSpline
210
0.0
220
0.0
230
1.0
 70
     8
 71
     3
 72
    13
 73
     9
 74
     0
 42
0.00000001
 43
0.00000001
 40
0.0
 40
0.0
 40
0.0
 40
0.0
 40
0.2498441747939066
 40
0.3817947059276561
 40
0.4998701509664882
 40
0.6229414449835321
 40
0.7501704474544878
 40
1.0
 40
1.0
 40
1.0
 40
1.0
 10
4.715917812114259
 20
7.223560157145465
 30
0.0
 10
4.71489856256965
 20
7.222895933695787
 30
0.0
 10
4.713341015428631
 20
7.221880913046016
 30
0.0
 10
4.712169872555618
 20
7.220168628238143
 30
0.0
 10
4.711891407351977
 20
7.218769219224658
 30
0.0
 10
4.712252550166636
 20
7.21736959980019
 30
0.0
 10
4.713338768357627
 20
7.21553348075538
 30
0.0
 10
4.714860532009388
 20
7.214367536487533
 30
0.0
 10
4.715868814482075
 20
7.213595011024698
 30
0.0
  0
ARC
  5
217
330
1F
100
AcDbEntity
  8
0
  6
Continuous
 62
     7
370
     0
100
AcDbCircle
 10
4.7234800869
 20
7.2106950961
 30
0.0
 40
0.0149230624849565
100
AcDbArc
 50
55.092663352
 51
120.4476474865
  0
SPLINE
  5
218
330
1F
100
AcDbEntity
  8
0
  6
Continuous
 62
     7
370
     0
100
AcDbSpline
210
0.0
220
0.0
230
1.0
 70
     8
 71
     3
 72
    13
 73
     9
 74
     0
 42
0.00000001
 43
0.00000001
 40
0.0
 40
0.0
 40
0.0
 40
0.0
 40
0.2497059556552102
 40
0.3754902122181001
 40
0.4999844705101363
 40
0.7494478519745453
 40
0.8746685414674992
 40
0.9999999999999999
 40
0.9999999999999999
 40
0.9999999999999999
 40
0.9999999999999999
 10
4.733551749007956
 20
7.213475001637952
 30
0.0
 10
4.734248336368131
 20
7.214184635784655
 30
0.0
 10
4.735295815331994
 20
7.21525173358632
 30
0.0
 10
4.735771631640772
 20
7.216943529925608
 30
0.0
 10
4.735707932943546
 20
7.218676562237667
 30
0.0
 10
4.734840220769787
 20
7.220391627979835
 30
0.0
 10
4.733405885801079
 20
7.221923872154577
 30
0.0
 10
4.732481979836845
 20
7.222596645197476
 30
0.0
 10
4.732019822625436
 20
7.222933180435318
 30
0.0
  0
SPLINE
  5
219
330
1F
100
AcDbEntity
  8
0
  6
Continuous
 62
     7
370
     0
100
AcDbSpline
210
0.0
220
0.0
230
1.0
 70
    24
 71
     1
 72
     4
 73
     2
 74
     0
 42
0.00000001
 43
0.00000001
 40
0.0
 40
0.0
 40
1.0
 40
1.0
 10
4.750322895044716
 20
7.203225555605986
 30
0.0
 10
4.733551749007956
 20
7.213475001637952
 30
0.0
  0
SPLINE
  5
21A
330
1F
100
AcDbEntity
  8
0
  6
Continuous
 62
     7
370
     0
100
AcDbSpline
210
0.0
220
0.0
230
1.0
 70
     8
 71
     3
 72
    12
 73
     8
 74
     0
 42
0.00000001
 43
0.00000001
 40
0.0
 40
0.0
 40
0.0
 40
0.0
 40
0.2504168115017478
 40
0.4997978941598374
 40
0.6250016503732574
 40
0.7501548209131108
 40
1.0
 40
1.0
 40
1.0
 40
1.0
 10
4.742856743665209
 20
7.229419411530853
 30
0.0
 10
4.745372621999676
 20
7.227573178848073
 30
0.0
 10
4.750393972946476
 20
7.223888349537095
 30
0.0
 10
4.754436380805393
 20
7.218076263607569
 30
0.0
 10
4.755138800650381
 20
7.213224305661824
 30
0.0
 10
4.754518386515739
 20
7.208399186262497
 30
0.0
 10
4.752000472341697
 20
7.205294244195218
 30
0.0
 10
4.750322895044716
 20
7.203225555605986
 30
0.0
  0
ARC
  5
21B
330
1F
100
AcDbEntity
  8
0
  6
Continuous
 62
     7
370
     0
100
AcDbCircle
 10
4.7184313883
 20
7.1958039439
 30
0.0
 40
0.0415523482657117
100
AcDbArc
 50
53.9974470593
 51
117.5990537974
  0
SPLINE
  5
21C
330
1F
100
AcDbEntity
  8
0
  6
Continuous
 62
     7
370
     0
100
AcDbSpline
210
0.0
220
0.0
230
1.0
 70
     8
 71
     3
 72
    13
 73
     9
 74
     0
 42
0.00000001
 43
0.00000001
 40
0.0
 40
0.0
 40
0.0
 40
0.0
 40
0.2498089441006962
 40
0.3754926331932181
 40
0.5002625661611183
 40
0.6265425410031691
 40
0.7507234029546592
 40
1.0
 40
1.0
 40
1.0
 40
1.0
 10
4.700353903415154
 20
7.21026891813873
 30
0.0
 10
4.698108761589043
 20
7.211979870688486
 30
0.0
 10
4.694734045686802
 20
7.214551636405241
 30
0.0
 10
4.692350627342836
 20
7.218581638103539
 30
0.0
 10
4.691589129500377
 20
7.221706409707215
 30
0.0
 10
4.691895645471233
 20
7.224794337392998
 30
0.0
 10
4.693665330133246
 20
7.22876759135984
 30
0.0
 10
4.696973086371766
 20
7.231082763186101
 30
0.0
 10
4.699180958243462
 20
7.232628101592183
 30
0.0
  0
SPLINE
  5
21D
330
1F
100
AcDbEntity
  8
0
  6
Continuous
 62
     7
370
     0
100
AcDbSpline
210
0.0
220
0.0
230
1.0
 70
     8
 71
     3
 72
     9
 73
     5
 74
     0
 42
0.00000001
 43
0.00000001
 40
0.0
 40
0.0
 40
0.0
 40
0.0
 40
0.5003482590474733
 40
1.0
 40
1.0
 40
1.0
 40
1.0
 10
4.713293954606034
 20
7.204959965556836
 30
0.0
 10
4.710907115470017
 20
7.205619997200939
 30
0.0
 10
4.706136759837001
 20
7.206939141681148
 30
0.0
 10
4.702280626933655
 20
7.209159508161346
 30
0.0
 10
4.700353903415154
 20
7.21026891813873
 30
0.0
  0
SPLINE
  5
21E
330
1F
100
AcDbEntity
  8
0
  6
Continuous
 62
     7
370
     0
100
AcDbSpline
210
0.0
220
0.0
230
1.0
 70
    24
 71
     1
 72
     4
 73
     2
 74
     0
 42
0.00000001
 43
0.00000001
 40
0.0
 40
0.0
 40
1.0
 40
1.0
 10
4.703119829353305
 20
7.200989907004177
 30
0.0
 10
4.713293954606034
 20
7.204959965556836
 30
0.0
  0
ARC
  5
21F
330
1F
100
AcDbEntity
  8
0
  6
Continuous
 62
     7
370
     0
100
AcDbCircle
 10
4.346179395
 20
6.6862166301
 30
0.0
 40
0.6264167944474339
100
AcDbArc
 50
55.2628131271
 51
57.9557876178
  0
LINE
  5
220
330
1F
100
AcDbEntity
  8
0
  6
Continuous
 62
     7
370
     0
100
AcDbLine
 10
4.6653157335
 20
7.2095579459
 30
0.0
 11
4.6785395486
 21
7.2171918918
 31
0.0
  0
ARC
  5
221
330
1F
100
AcDbEntity
  8
0
  6
Continuous
 62
     7
370
     0
100
AcDbCircle
 10
4.32623033
 20
6.668290279
 30
0.0
 40
0.6387093220002376
100
AcDbArc
 50
53.9722510851
 51
57.9342846389
  0
SPLINE
  5
222
330
1F
100
AcDbEntity
  8
0
  6
Continuous
 62
     7
370
     0
100
AcDbSpline
210
0.0
220
0.0
230
1.0
 70
    24
 71
     1
 72
     4
 73
     2
 74
     0
 42
0.00000001
 43
0.00000001
 40
0.0
 40
0.0
 40
1.0
 40
1.0
 10
4.738866394520904
 20
7.199493284148224
 30
0.0
 10
4.701904461778494
 20
7.18483509288776
 30
0.0
  0
SPLINE
  5
223
330
1F
100
AcDbEntity
  8
0
  6
Continuous
 62
     7
370
     0
100
AcDbSpline
210
0.0
220
0.0
230
1.0
 70
    24
 71
     1
 72
     4
 73
     2
 74
     0
 42
0.00000001
 43
0.00000001
 40
0.0
 40
0.0
 40
1.0
 40
1.0
 10
4.727113320870669
 20
7.210035893688866
 30
0.0
 10
4.738866394520904
 20
7.199493284148224
 30
0.0
  0
LINE
  5
224
330
1F
100
AcDbEntity
  8
0
  6
Continuous
 62
     7
370
     0
100
AcDbLine
 10
4.7811601809
 20
7.1371630338
 30
0.0
 11
4.7936493396
 21
7.1443728717
 31
0.0
  0
ARC
  5
225
330
1F
100
AcDbEntity
  8
0
  6
Continuous
 62
     7
370
     0
100
AcDbCircle
 10
4.2043358912
 20
6.5115177273
 30
0.0
 40
0.8509749178169388
100
AcDbArc
 50
43.5948621575
 51
47.3249675047
  0
LINE
  5
226
330
1F
100
AcDbEntity
  8
0
  6
Continuous
 62
     7
370
     0
100
AcDbLine
 10
4.8331297618
 20
7.1055212366
 30
0.0
 11
4.8206406031
 21
7.0983113987
 31
0.0
  0
ARC
  5
227
330
1F
100
AcDbEntity
  8
0
  6
Continuous
 62
     7
370
     0
100
AcDbCircle
 10
4.2168250499
 20
6.5187275651
 30
0.0
 40
0.8509749178166924
100
AcDbArc
 50
43.5948621575
 51
47.3249675047
  0
ARC
  5
228
330
1F
100
AcDbEntity
  8
0
  6
Continuous
 62
     7
370
     0
100
AcDbCircle
 10
4.9129677169
 20
7.2000323601
 30
0.0
 40
0.1212513393279193
100
AcDbArc
 50
246.5232460159
 51
255.0171912606
  0
ARC
  5
229
330
1F
100
AcDbEntity
  8
0
  6
Continuous
 62
     7
370
     0
100
AcDbCircle
 10
4.8452261323
 20
7.0524252779
 30
0.0
 40
0.0412584456240239
100
AcDbArc
 50
61.8927177221
 51
108.8951381887
  0
SPLINE
  5
22A
330
1F
100
AcDbEntity
  8
0
  6
Continuous
 62
     7
370
     0
100
AcDbSpline
210
0.0
220
0.0
230
1.0
 70
     8
 71
     3
 72
    13
 73
     9
 74
     0
 42
0.00000001
 43
0.00000001
 40
0.0
 40
0.0
 40
0.0
 40
0.0
 40
0.2505513334130838
 40
0.4997574289385316
 40
0.6245242525046927
 40
0.7498907040620985
 40
0.8749266421754508
 40
1.0
 40
1.0
 40
1.0
 40
1.0
 10
4.836186493452051
 20
7.059022293393008
 30
0.0
 10
4.833884386450895
 20
7.061773380100123
 30
0.0
 10
4.829292532716305
 20
7.067260782624813
 30
0.0
 10
4.825313190945198
 20
7.074929836041231
 30
0.0
 10
4.824830381034531
 20
7.081013657973898
 30
0.0
 10
4.825844406562885
 20
7.085229526191513
 30
0.0
 10
4.828139738588257
 20
7.088908901495771
 30
0.0
 10
4.83062319929078
 20
7.090609831063764
 30
0.0
 10
4.831865115421586
 20
7.091460423088718
 30
0.0
  0
ARC
  5
22B
330
1F
100
AcDbEntity
  8
0
  6
Continuous
 62
     7
370
     0
100
AcDbCircle
 10
4.863565566
 20
7.0755668346
 30
0.0
 40
0.031989614895261
100
AcDbArc
 50
211.1435993885
 51
289.3813383712
  0
SPLINE
  5
22C
330
1F
100
AcDbEntity
  8
0
  6
Continuous
 62
     7
370
     0
100
AcDbSpline
210
0.0
220
0.0
230
1.0
 70
    24
 71
     1
 72
     4
 73
     2
 74
     0
 42
0.00000001
 43
0.00000001
 40
0.0
 40
0.0
 40
1.0
 40
1.0
 10
4.861833573707946
 20
7.062419359742906
 30
0.0
 10
4.874181444515763
 20
7.045390045782908
 30
0.0
  0
ARC
  5
22D
330
1F
100
AcDbEntity
  8
0
  6
Continuous
 62
     7
370
     0
100
AcDbCircle
 10
4.8564799045
 20
7.0735994128
 30
0.0
 40
0.0123957799682284
100
AcDbArc
 50
219.000920246
 51
295.5878502549
  0
SPLINE
  5
22E
330
1F
100
AcDbEntity
  8
0
  6
Continuous
 62
     7
370
     0
100
AcDbSpline
210
0.0
220
0.0
230
1.0
 70
     8
 71
     3
 72
    14
 73
    10
 74
     0
 42
0.00000001
 43
0.00000001
 40
0.0
 40
0.0
 40
0.0
 40
0.0
 40
0.125198870282787
 40
0.2501891755465088
 40
0.372882974399748
 40
0.500452989462097
 40
0.7495671084742838
 40
0.8747153475526122
 40
1.0
 40
1.0
 40
1.0
 40
1.0
 10
4.846687438905525
 20
7.076427107388702
 30
0.0
 10
4.846281044982518
 20
7.076153345043662
 30
0.0
 10
4.845468934135872
 20
7.07560627640601
 30
0.0
 10
4.844658091099819
 20
7.07445030410266
 30
0.0
 10
4.8442097736717
 20
7.073107138825942
 30
0.0
 10
4.844079661328401
 20
7.071167742147773
 30
0.0
 10
4.844619619594432
 20
7.069093782294892
 30
0.0
 10
4.845750525673176
 20
7.067155522141156
 30
0.0
 10
4.846481175517088
 20
7.066250898967363
 30
0.0
 10
4.846846699435282
 20
7.065798341001697
 30
0.0
  0
SPLINE
  5
22F
330
1F
100
AcDbEntity
  8
0
  6
Continuous
 62
     7
370
     0
100
AcDbSpline
210
0.0
220
0.0
230
1.0
 70
     8
 71
     3
 72
    12
 73
     8
 74
     0
 42
0.00000001
 43
0.00000001
 40
0.0
 40
0.0
 40
0.0
 40
0.0
 40
0.5004335295769915
 40
0.7500508073441586
 40
0.8749738419200968
 40
0.9374517669915617
 40
1.0
 40
1.0
 40
1.0
 40
1.0
 10
4.86919505693934
 20
7.07218532193024
 30
0.0
 10
4.865421703058251
 20
7.073615724005972
 30
0.0
 10
4.859766192470664
 20
7.075759613590341
 30
0.0
 10
4.852926712792304
 20
7.077380745220689
 30
0.0
 10
4.849597778273879
 20
7.077349195688345
 30
0.0
 10
4.847825619757977
 20
7.076987567394224
 30
0.0
 10
4.847066974729961
 20
7.076613997415714
 30
0.0
 10
4.846687438905525
 20
7.076427107388702
 30
0.0
  0
ARC
  5
230
330
1F
100
AcDbEntity
  8
0
  6
Continuous
 62
     7
370
     0
100
AcDbCircle
 10
4.8991689537
 20
7.1273567278
 30
0.0
 40
0.0627878851056755
100
AcDbArc
 50
241.4853504505
 51
284.4771020503
  0
ARC
  5
231
330
1F
100
AcDbEntity
  8
0
  6
Continuous
 62
     7
370
     0
100
AcDbCircle
 10
4.1863343032
 20
6.4785338699
 30
0.0
 40
0.9362346757355239
100
AcDbArc
 50
38.9084812281
 51
42.8996012152
  0
LINE
  5
232
330
1F
100
AcDbEntity
  8
0
  6
Continuous
 62
     7
370
     0
100
AcDbLine
 10
4.8589469871
 20
7.1082096325
 30
0.0
 11
4.8721708022
 21
7.1158435785
 31
0.0
  0
ARC
  5
233
330
1F
100
AcDbEntity
  8
0
  6
Continuous
 62
     7
370
     0
100
AcDbCircle
 10
4.1852119345
 20
6.4817561212
 30
0.0
 40
0.9199798492009569
100
AcDbArc
 50
40.8010892372
 51
42.9173485907
  0
LINE
  5
234
330
1F
100
AcDbEntity
  8
0
  6
Continuous
 62
     7
370
     0
100
AcDbLine
 10
4.5141327132
 20
7.3459313047
 30
0.0
 11
4.5277238566
 21
7.3537773048
 31
0.0
  0
ARC
  5
235
330
1F
100
AcDbEntity
  8
0
  6
Continuous
 62
     7
370
     0
100
AcDbCircle
 10
3.0553557518
 20
9.8707094571
 30
0.0
 40
2.915910653969771
100
AcDbArc
 50
299.6773487429
 51
300.018643921
  0
LINE
  5
236
330
1F
100
AcDbEntity
  8
0
  6
Continuous
 62
     7
370
     0
100
AcDbLine
 10
4.4873425194
 20
7.3304362881
 30
0.0
 11
4.4943447132
 21
7.3344785685
 31
0.0
  0
ARC
  5
237
330
1F
100
AcDbEntity
  8
0
  6
Continuous
 62
     7
370
     0
100
AcDbCircle
 10
4.5821760682
 20
7.1534424171
 30
0.0
 40
0.2007989849874937
100
AcDbArc
 50
114.8295201691
 51
118.1824644392
  0
LINE
  5
238
330
1F
100
AcDbEntity
  8
0
  6
Continuous
 62
     7
370
     0
100
AcDbLine
 10
4.5389973697
 20
7.3594298483
 30
0.0
 11
4.4978566115
 21
7.3356797941
 31
0.0
  0
ARC
  5
239
330
1F
100
AcDbEntity
  8
0
  6
Continuous
 62
     7
370
     0
100
AcDbCircle
 10
4.6232964028
 20
7.1772343595
 30
0.0
 40
0.2007523925178956
100
AcDbArc
 50
114.8292501963
 51
118.4291556311
  0
LINE
  5
23A
330
1F
100
AcDbEntity
  8
0
  6
Continuous
 62
     7
370
     0
100
AcDbLine
 10
4.5061398477
 20
7.339290353
 30
0.0
 11
4.5472806059
 21
7.3630404072
 31
0.0
  0
ARC
  5
23B
330
1F
100
AcDbEntity
  8
0
  6
Continuous
 62
     7
370
     0
100
AcDbCircle
 10
4.5840693625
 20
7.148997646
 30
0.0
 40
0.2056315239377896
100
AcDbArc
 50
108.7275709048
 51
112.2702989711
  0
LINE
  5
23C
330
1F
100
AcDbEntity
  8
0
  6
Continuous
 62
     7
370
     0
100
AcDbLine
 10
4.5591882635
 20
7.3674922457
 30
0.0
 11
4.5180475053
 21
7.3437421915
 31
0.0
  0
ARC
  5
23D
330
1F
100
AcDbEntity
  8
0
  6
Continuous
 62
     7
370
     0
100
AcDbCircle
 10
4.6252101207
 20
7.1727477001
 30
0.0
 40
0.2056315239362565
100
AcDbArc
 50
108.7275709048
 51
112.2702989711
  0
LINE
  5
23E
330
1F
100
AcDbEntity
  8
0
  6
Continuous
 62
     7
370
     0
100
AcDbLine
 10
4.6161441705
 20
7.3673150085
 30
0.0
 11
4.6367145496
 21
7.3791900356
 31
0.0
  0
ARC
  5
23F
330
1F
100
AcDbEntity
  8
0
  6
Continuous
 62
     7
370
     0
100
AcDbCircle
 10
4.6126546284
 20
7.1051810177
 30
0.0
 40
0.2621572162813371
100
AcDbArc
 50
89.2373204718
 51
91.0868598108
  0
ARC
  5
240
330
1F
100
AcDbEntity
  8
0
  6
Continuous
 62
     7
370
     0
100
AcDbCircle
 10
4.6125146087
 20
7.2889338242
 30
0.0
 40
0.0785061270362898
100
AcDbArc
 50
93.5291982185
 51
121.7981153576
  0
SPLINE
  5
241
330
1F
100
AcDbEntity
  8
0
  6
Continuous
 62
     7
370
     0
100
AcDbSpline
210
0.0
220
0.0
230
1.0
 70
     8
 71
     3
 72
    13
 73
     9
 74
     0
 42
0.00000001
 43
0.00000001
 40
0.0
 40
0.0
 40
0.0
 40
0.0
 40
0.2500373757115829
 40
0.3803456645221172
 40
0.5001717612000982
 40
0.6231396697125346
 40
0.7503495306897282
 40
1.0
 40
1.0
 40
1.0
 40
1.0
 10
4.570084307924176
 20
7.346474307878303
 30
0.0
 10
4.56802756421225
 20
7.346474005183119
 30
0.0
 10
4.564898937735356
 20
7.346473544736753
 30
0.0
 10
4.562588707328508
 20
7.347243673603929
 30
0.0
 10
4.561976533202111
 20
7.34824783416662
 30
0.0
 10
4.562698657478507
 20
7.349693550058806
 30
0.0
 10
4.565302852239415
 20
7.352113569398704
 30
0.0
 10
4.568818566174079
 20
7.354245003697351
 30
0.0
 10
4.571147544745743
 20
7.355656968635543
 30
0.0
  0
ARC
  5
242
330
1F
100
AcDbEntity
  8
0
  6
Continuous
 62
     7
370
     0
100
AcDbCircle
 10
4.5766761872
 20
7.0768033625
 30
0.0
 40
0.2697514997680875
100
AcDbArc
 50
85.8611967686
 51
91.4002682603
  0
LINE
  5
243
330
1F
100
AcDbEntity
  8
0
  6
Continuous
 62
     7
370
     0
100
AcDbLine
 10
4.6527134882
 20
7.3785077107
 30
0.0
 11
4.5961449457
 21
7.3458513863
 31
0.0
  0
ARC
  5
244
330
1F
100
AcDbEntity
  8
0
  6
Continuous
 62
     7
370
     0
100
AcDbCircle
 10
4.6329874374
 20
7.1038876843
 30
0.0
 40
0.2753275794176365
100
AcDbArc
 50
85.8914808889
 51
89.2243627705
  0
LINE
  5
245
330
1F
100
AcDbEntity
  8
0
  6
Continuous
 62
     7
370
     0
100
AcDbLine
 10
4.7994186775
 20
7.3123952455
 30
0.0
 11
4.818955946
 21
7.3236738705
 31
0.0
  0
ARC
  5
246
330
1F
100
AcDbEntity
  8
0
  6
Continuous
 62
     7
370
     0
100
AcDbCircle
 10
4.7894823705
 20
7.3258683965
 30
0.0
 40
0.0167408481069757
100
AcDbArc
 50
245.0456954951
 51
306.4083837215
  0
SPLINE
  5
247
330
1F
100
AcDbEntity
  8
0
  6
Continuous
 62
     7
370
     0
100
AcDbSpline
210
0.0
220
0.0
230
1.0
 70
     8
 71
     3
 72
    13
 73
     9
 74
     0
 42
0.00000001
 43
0.00000001
 40
0.0
 40
0.0
 40
0.0
 40
0.0
 40
0.2859863846270568
 40
0.4003931588149613
 40
0.5002671077714004
 40
0.6204346281996915
 40
0.7504392972669146
 40
1.0
 40
1.0
 40
1.0
 40
1.0
 10
4.783364196236859
 20
7.318008885421999
 30
0.0
 10
4.782391670535917
 20
7.317394718912512
 30
0.0
 10
4.781030092998104
 20
7.316534859555598
 30
0.0
 10
4.779899055705548
 20
7.315256537078202
 30
0.0
 10
4.77947098078914
 20
7.314337196553192
 30
0.0
 10
4.779552479863701
 20
7.313349711307816
 30
0.0
 10
4.780331614675057
 20
7.312014504259975
 30
0.0
 10
4.781591272074854
 20
7.311215642156216
 30
0.0
 10
4.782419485102836
 20
7.31069039775087
 30
0.0
  0
LINE
  5
248
330
1F
100
AcDbEntity
  8
0
  6
Continuous
 62
     7
370
     0
100
AcDbLine
 10
4.8057367793
 20
7.3309243027
 30
0.0
 11
4.7833641962
 21
7.3180088854
 31
0.0
  0
ARC
  5
249
330
1F
100
AcDbEntity
  8
0
  6
Continuous
 62
     7
370
     0
100
AcDbCircle
 10
4.5635640329
 20
6.874568551
 30
0.0
 40
0.5166316010159338
100
AcDbArc
 50
62.0466017669
 51
63.9634703357
  0
LINE
  5
24A
330
1F
100
AcDbEntity
  8
0
  6
Continuous
 62
     7
370
     0
100
AcDbLine
 10
4.7643135167
 20
7.3237467664
 30
0.0
 11
4.7903364237
 21
7.3387694708
 31
0.0
  0
SPLINE
  5
24B
330
1F
100
AcDbEntity
  8
0
  6
Continuous
 62
     7
370
     0
100
AcDbSpline
210
0.0
220
0.0
230
1.0
 70
     8
 71
     3
 72
    13
 73
     9
 74
     0
 42
0.00000001
 43
0.00000001
 40
0.0
 40
0.0
 40
0.0
 40
0.0
 40
0.2494533077504
 40
0.3744959777605883
 40
0.4995513164957764
 40
0.6197807958384685
 40
0.7498057006249722
 40
1.0
 40
1.0
 40
1.0
 40
1.0
 10
4.762725939264665
 20
7.307350682412009
 30
0.0
 10
4.760837936853795
 20
7.308504816367353
 30
0.0
 10
4.758003541450306
 20
7.310237479397443
 30
0.0
 10
4.756287900769005
 20
7.313173876741863
 30
0.0
 10
4.756009823711697
 20
7.315462902720767
 30
0.0
 10
4.756936425119279
 20
7.317772749818859
 30
0.0
 10
4.759421070341249
 20
7.320667829954671
 30
0.0
 10
4.762371835262154
 20
7.322524818665381
 30
0.0
 10
4.764313516676258
 20
7.32374676638485
 30
0.0
  0
ARC
  5
24C
330
1F
100
AcDbEntity
  8
0
  6
Continuous
 62
     7
370
     0
100
AcDbCircle
 10
4.7804346379
 20
7.3414314684
 30
0.0
 40
0.0384070043345678
100
AcDbArc
 50
242.543184999
 51
274.4019747984
  0
LINE
  5
24D
330
1F
100
AcDbEntity
  8
0
  6
Continuous
 62
     7
370
     0
100
AcDbLine
 10
4.7623874035
 20
7.291017546
 30
0.0
 11
4.7833825058
 21
7.3031377606
 31
0.0
  0
ARC
  5
24E
330
1F
100
AcDbEntity
  8
0
  6
Continuous
 62
     7
370
     0
100
AcDbCircle
 10
4.4798478816
 20
6.7924197685
 30
0.0
 40
0.573086664606139
100
AcDbArc
 50
58.6723377906
 51
60.4611497817
  0
LINE
  5
24F
330
1F
100
AcDbEntity
  8
0
  6
Continuous
 62
     7
370
     0
100
AcDbLine
 10
4.8343822798
 20
7.3146112542
 30
0.0
 11
4.7778137373
 21
7.2819549297
 31
0.0
  0
ARC
  5
250
330
1F
100
AcDbEntity
  8
0
  6
Continuous
 62
     7
370
     0
100
AcDbCircle
 10
4.5364164241
 20
6.825076093
 30
0.0
 40
0.5730866645990113
100
AcDbArc
 50
58.6723377906
 51
60.4611497817
  0
ARC
  5
251
330
1F
100
AcDbEntity
  8
0
  6
Continuous
 62
     7
370
     0
100
AcDbCircle
 10
4.3828123397
 20
6.6441358301
 30
0.0
 40
0.7666035473156779
100
AcDbArc
 50
49.3081068388
 51
49.8694149915
  0
LINE
  5
252
330
1F
100
AcDbEntity
  8
0
  6
Continuous
 62
     7
370
     0
100
AcDbLine
 10
4.8943855537
 20
7.232180757
 30
0.0
 11
4.8826310513
 21
7.2253950272
 31
0.0
  0
ARC
  5
253
330
1F
100
AcDbEntity
  8
0
  6
Continuous
 62
     7
370
     0
100
AcDbCircle
 10
4.3945668421
 20
6.6509215599
 30
0.0
 40
0.766603547305446
100
AcDbArc
 50
49.3081068388
 51
49.8694149915
  0
LINE
  5
254
330
1F
100
AcDbEntity
  8
0
  6
Continuous
 62
     7
370
     0
100
AcDbLine
 10
4.902947136
 20
7.2452929488
 30
0.0
 11
4.8886672523
 21
7.2370493474
 31
0.0
  0
SPLINE
  5
255
330
1F
100
AcDbEntity
  8
0
  6
Continuous
 62
     7
370
     0
100
AcDbSpline
210
0.0
220
0.0
230
1.0
 70
     8
 71
     3
 72
    13
 73
     9
 74
     0
 42
0.00000001
 43
0.00000001
 40
0.0
 40
0.0
 40
0.0
 40
0.0
 40
0.2500945475838056
 40
0.3790132877211709
 40
0.4995783988418092
 40
0.6244157670479447
 40
0.7495373859022942
 40
0.9999999999999999
 40
0.9999999999999999
 40
0.9999999999999999
 40
0.9999999999999999
 10
4.905000871612888
 20
7.265782594758599
 30
0.0
 10
4.907010601599982
 20
7.264091874695343
 30
0.0
 10
4.910056307222912
 20
7.261529622235299
 30
0.0
 10
4.912450370965998
 20
7.257463067325562
 30
0.0
 10
4.912641080034207
 20
7.25430264310602
 30
0.0
 10
4.911331904215918
 20
7.251483570959392
 30
0.0
 10
4.90807074172583
 20
7.248396538792583
 30
0.0
 10
4.904996937355109
 20
7.246534602319666
 30
0.0
 10
4.902947135978027
 20
7.245292948822591
 30
0.0
  0
SPLINE
  5
256
330
1F
100
AcDbEntity
  8
0
  6
Continuous
 62
     7
370
     0
100
AcDbSpline
210
0.0
220
0.0
230
1.0
 70
    24
 71
     1
 72
     4
 73
     2
 74
     0
 42
0.00000001
 43
0.00000001
 40
0.0
 40
0.0
 40
1.0
 40
1.0
 10
4.893032365877101
 20
7.273484771315951
 30
0.0
 10
4.905000871612888
 20
7.265782594758599
 30
0.0
  0
SPLINE
  5
257
330
1F
100
AcDbEntity
  8
0
  6
Continuous
 62
     7
370
     0
100
AcDbSpline
210
0.0
220
0.0
230
1.0
 70
    24
 71
     1
 72
     4
 73
     2
 74
     0
 42
0.00000001
 43
0.00000001
 40
0.0
 40
0.0
 40
1.0
 40
1.0
 10
4.883464890384768
 20
7.266371369200267
 30
0.0
 10
4.893032365877101
 20
7.273484771315951
 30
0.0
  0
SPLINE
  5
258
330
1F
100
AcDbEntity
  8
0
  6
Continuous
 62
     7
370
     0
100
AcDbSpline
210
0.0
220
0.0
230
1.0
 70
    24
 71
     1
 72
     4
 73
     2
 74
     0
 42
0.00000001
 43
0.00000001
 40
0.0
 40
0.0
 40
1.0
 40
1.0
 10
4.88941347664828
 20
7.263058122150751
 30
0.0
 10
4.883464890384768
 20
7.266371369200267
 30
0.0
  0
SPLINE
  5
259
330
1F
100
AcDbEntity
  8
0
  6
Continuous
 62
     7
370
     0
100
AcDbSpline
210
0.0
220
0.0
230
1.0
 70
     8
 71
     3
 72
    10
 73
     6
 74
     0
 42
0.00000001
 43
0.00000001
 40
0.0
 40
0.0
 40
0.0
 40
0.0
 40
0.2505976234532594
 40
0.5007350246834804
 40
0.9999999999999999
 40
0.9999999999999999
 40
0.9999999999999999
 40
0.9999999999999999
 10
4.890869295249871
 20
7.260124299325501
 30
0.0
 10
4.890926908805544
 20
7.260376738215316
 30
0.0
 10
4.891042030109668
 20
7.260881152391242
 30
0.0
 10
4.89065354169313
 20
7.261948933119258
 30
0.0
 10
4.88990930209217
 20
7.262614625943692
 30
0.0
 10
4.88941347664828
 20
7.263058122150751
 30
0.0
  0
SPLINE
  5
25A
330
1F
100
AcDbEntity
  8
0
  6
Continuous
 62
     7
370
     0
100
AcDbSpline
210
0.0
220
0.0
230
1.0
 70
     8
 71
     3
 72
     9
 73
     5
 74
     0
 42
0.00000001
 43
0.00000001
 40
0.0
 40
0.0
 40
0.0
 40
0.0
 40
0.5017738075813313
 40
1.0
 40
1.0
 40
1.0
 40
1.0
 10
4.887944412918613
 20
7.257737871598693
 30
0.0
 10
4.888536440574034
 20
7.258073792031071
 30
0.0
 10
4.889716310161637
 20
7.258743257888598
 30
0.0
 10
4.890485876929371
 20
7.25966504222523
 30
0.0
 10
4.890869295249871
 20
7.260124299325501
 30
0.0
  0
LINE
  5
25B
330
1F
100
AcDbEntity
  8
0
  6
Continuous
 62
     7
370
     0
100
AcDbLine
 10
4.8735726972
 20
7.2494412567
 30
0.0
 11
4.8879444129
 21
7.2577378716
 31
0.0
  0
ARC
  5
25C
330
1F
100
AcDbEntity
  8
0
  6
Continuous
 62
     7
370
     0
100
AcDbCircle
 10
4.423515324
 20
6.6862745367
 30
0.0
 40
0.720908034060119
100
AcDbArc
 50
51.3697330991
 51
52.2469078874
  0
LINE
  5
25D
330
1F
100
AcDbEntity
  8
0
  6
Continuous
 62
     7
370
     0
100
AcDbLine
 10
4.8531439391
 20
7.2494794536
 30
0.0
 11
4.8648984414
 21
7.2562651834
 31
0.0
  0
ARC
  5
25E
330
1F
100
AcDbEntity
  8
0
  6
Continuous
 62
     7
370
     0
100
AcDbCircle
 10
4.4117608217
 20
6.679488807
 30
0.0
 40
0.7209080340372173
100
AcDbArc
 50
51.3697330991
 51
52.2469078874
  0
LINE
  5
25F
330
1F
100
AcDbEntity
  8
0
  6
Continuous
 62
     7
370
     0
100
AcDbLine
 10
4.8463904105
 20
7.2337492566
 30
0.0
 11
4.8618181948
 21
7.2426555269
 31
0.0
  0
SPLINE
  5
260
330
1F
100
AcDbEntity
  8
0
  6
Continuous
 62
     7
370
     0
100
AcDbSpline
210
0.0
220
0.0
230
1.0
 70
    24
 71
     1
 72
     4
 73
     2
 74
     0
 42
0.00000001
 43
0.00000001
 40
0.0
 40
0.0
 40
1.0
 40
1.0
 10
4.869462874927359
 20
7.225962896369777
 30
0.0
 10
4.846390410517716
 20
7.233749256624682
 30
0.0
  0
LINE
  5
261
330
1F
100
AcDbEntity
  8
0
  6
Continuous
 62
     7
370
     0
100
AcDbLine
 10
4.8769127499
 20
7.2302636177
 30
0.0
 11
4.8694628749
 21
7.2259628964
 31
0.0
  0
LINE
  5
262
330
1F
100
AcDbEntity
  8
0
  6
Continuous
 62
     7
370
     0
100
AcDbLine
 10
4.9822743355
 20
7.119902005
 30
0.0
 11
5.0255846259
 21
7.1449045034
 31
0.0
  0
SPLINE
  5
263
330
1F
100
AcDbEntity
  8
0
  6
Continuous
 62
     7
370
     0
100
AcDbSpline
210
0.0
220
0.0
230
1.0
 70
    24
 71
     1
 72
     4
 73
     2
 74
     0
 42
0.00000001
 43
0.00000001
 40
0.0
 40
0.0
 40
1.0
 40
1.0
 10
5.016122199830042
 20
7.156130795993051
 30
0.0
 10
4.982274335514568
 20
7.119902005002983
 30
0.0
  0
ARC
  5
264
330
1F
100
AcDbEntity
  8
0
  6
Continuous
 62
     7
370
     0
100
AcDbCircle
 10
4.3073320812
 20
6.5492871306
 30
0.0
 40
0.9330823471327307
100
AcDbArc
 50
40.5690917763
 51
41.668286478
  0
SPLINE
  5
265
330
1F
100
AcDbEntity
  8
0
  6
Continuous
 62
     7
370
     0
100
AcDbSpline
210
0.0
220
0.0
230
1.0
 70
    24
 71
     1
 72
     4
 73
     2
 74
     0
 42
0.00000001
 43
0.00000001
 40
0.0
 40
0.0
 40
1.0
 40
1.0
 10
4.951302073536929
 20
7.155382204932708
 30
0.0
 10
5.004350450949832
 20
7.1696161229315
 30
0.0
  0
LINE
  5
266
330
1F
100
AcDbEntity
  8
0
  6
Continuous
 62
     7
370
     0
100
AcDbLine
 10
4.9946123639
 20
7.1803847034
 30
0.0
 11
4.9513020735
 21
7.1553822049
 31
0.0
  0
ARC
  5
267
330
1F
100
AcDbEntity
  8
0
  6
Continuous
 62
     7
370
     0
100
AcDbCircle
 10
4.3353698344
 20
6.5746853005
 30
0.0
 40
0.8952499534991369
100
AcDbArc
 50
42.5762010301
 51
43.8415824865
  0
LINE
  5
268
330
1F
100
AcDbEntity
  8
0
  6
Continuous
 62
     7
370
     0
100
AcDbLine
 10
4.9245072271
 20
7.1621389055
 30
0.0
 11
4.9810757696
 21
7.19479523
 31
0.0
  0
ARC
  5
269
330
1F
100
AcDbEntity
  8
0
  6
Continuous
 62
     7
370
     0
100
AcDbCircle
 10
4.273730015
 20
6.5372509392
 30
0.0
 40
0.9022172411014491
100
AcDbArc
 50
41.8291209391
 51
43.8373587837
  0
SPLINE
  5
26A
330
1F
100
AcDbEntity
  8
0
  6
Continuous
 62
     7
370
     0
100
AcDbSpline
210
0.0
220
0.0
230
1.0
 70
    24
 71
     1
 72
     4
 73
     2
 74
     0
 42
0.00000001
 43
0.00000001
 40
0.0
 40
0.0
 40
1.0
 40
1.0
 10
4.987987836228369
 20
7.150118477427899
 30
0.0
 10
4.946005584401897
 20
7.138949791558342
 30
0.0
  0
SPLINE
  5
26B
330
1F
100
AcDbEntity
  8
0
  6
Continuous
 62
     7
370
     0
100
AcDbSpline
210
0.0
220
0.0
230
1.0
 70
    24
 71
     1
 72
     4
 73
     2
 74
     0
 42
0.00000001
 43
0.00000001
 40
0.0
 40
0.0
 40
1.0
 40
1.0
 10
4.961217600937709
 20
7.121525768952053
 30
0.0
 10
4.987987836228369
 20
7.150118477427899
 30
0.0
  0
ARC
  5
26C
330
1F
100
AcDbEntity
  8
0
  6
Continuous
 62
     7
370
     0
100
AcDbCircle
 10
4.2299566256
 20
6.4989488584
 30
0.0
 40
0.9603877464826605
100
AcDbArc
 50
38.4773232776
 51
40.4102241065
  0
LINE
  5
26D
330
1F
100
AcDbEntity
  8
0
  6
Continuous
 62
     7
370
     0
100
AcDbLine
 10
5.0383690146
 20
7.1291630914
 30
0.0
 11
4.9818004721
 21
7.0965067669
 31
0.0
  0
ARC
  5
26E
330
1F
100
AcDbEntity
  8
0
  6
Continuous
 62
     7
370
     0
100
AcDbCircle
 10
4.2821721608
 20
6.5280798966
 30
0.0
 40
0.9659889692455016
100
AcDbArc
 50
38.4803674607
 51
39.6831918734
  0
LINE
  5
26F
330
1F
100
AcDbEntity
  8
0
  6
Continuous
 62
     7
370
     0
100
AcDbLine
 10
5.0951355395
 20
7.0150304615
 30
0.0
 11
5.1112979802
 21
7.0243608399
 31
0.0
  0
ARC
  5
270
330
1F
100
AcDbEntity
  8
0
  6
Continuous
 62
     7
370
     0
100
AcDbCircle
 10
4.2072270687
 20
6.4760462344
 30
0.0
 40
1.038694107790476
100
AcDbArc
 50
30.05555554
 51
31.25887235
  0
LINE
  5
271
330
1F
100
AcDbEntity
  8
0
  6
Continuous
 62
     7
370
     0
100
AcDbLine
 10
5.1224209978
 20
7.0055956364
 30
0.0
 11
5.1062585571
 21
6.996265258
 31
0.0
  0
ARC
  5
272
330
1F
100
AcDbEntity
  8
0
  6
Continuous
 62
     7
370
     0
100
AcDbCircle
 10
4.2233895094
 20
6.4853766128
 30
0.0
 40
1.038694107772985
100
AcDbArc
 50
30.05555554
 51
31.25887235
  0
LINE
  5
273
330
1F
100
AcDbEntity
  8
0
  6
Continuous
 62
     7
370
     0
100
AcDbLine
 10
5.1479661853
 20
6.9163531094
 30
0.0
 11
5.1641286261
 21
6.9256834879
 31
0.0
  0
ARC
  5
274
330
1F
100
AcDbEntity
  8
0
  6
Continuous
 62
     7
370
     0
100
AcDbCircle
 10
4.2324989704
 20
6.4885139796
 30
0.0
 40
1.010508061629096
100
AcDbArc
 50
23.823214969
 51
25.0488057537
  0
LINE
  5
275
330
1F
100
AcDbEntity
  8
0
  6
Continuous
 62
     7
370
     0
100
AcDbLine
 10
5.17307023
 20
6.9060047165
 30
0.0
 11
5.1569077893
 21
6.896674338
 31
0.0
  0
ARC
  5
276
330
1F
100
AcDbEntity
  8
0
  6
Continuous
 62
     7
370
     0
100
AcDbCircle
 10
4.2486614112
 20
6.497844358
 30
0.0
 40
1.010508061609054
100
AcDbArc
 50
23.823214969
 51
25.0488057537
  0
LINE
  5
277
330
1F
100
AcDbEntity
  8
0
  6
Continuous
 62
     7
370
     0
100
AcDbLine
 10
4.7313091207
 20
7.4364787441
 30
0.0
 11
4.7508463893
 21
7.4477573692
 31
0.0
  0
ARC
  5
278
330
1F
100
AcDbEntity
  8
0
  6
Continuous
 62
     7
370
     0
100
AcDbCircle
 10
4.7114976443
 20
7.4663543147
 30
0.0
 40
0.0358475147601756
100
AcDbArc
 50
275.7678849872
 51
303.5496708538
  0
SPLINE
  5
279
330
1F
100
AcDbEntity
  8
0
  6
Continuous
 62
     7
370
     0
100
AcDbSpline
210
0.0
220
0.0
230
1.0
 70
     8
 71
     3
 72
    13
 73
     9
 74
     0
 42
0.00000001
 43
0.00000001
 40
0.0
 40
0.0
 40
0.0
 40
0.0
 40
0.285986384627652
 40
0.4003931588155229
 40
0.5002671077718222
 40
0.6204346281932608
 40
0.750439297266796
 40
1.0
 40
1.0
 40
1.0
 40
1.0
 10
4.716757584856923
 20
7.434526094811948
 30
0.0
 10
4.71577929567538
 20
7.433939309259382
 30
0.0
 10
4.714409649018449
 20
7.43311778441216
 30
0.0
 10
4.713210852906319
 20
7.432163389502856
 30
0.0
 10
4.712710324995488
 20
7.431591740345866
 30
0.0
 10
4.712681279007673
 20
7.431138103747414
 30
0.0
 10
4.713271755721564
 20
7.430721310453087
 30
0.0
 10
4.714374938394194
 20
7.430701387835694
 30
0.0
 10
4.715100270743966
 20
7.430688288899999
 30
0.0
  0
LINE
  5
27A
330
1F
100
AcDbEntity
  8
0
  6
Continuous
 62
     7
370
     0
100
AcDbLine
 10
4.7391301679
 20
7.4474415121
 30
0.0
 11
4.7167575849
 21
7.4345260948
 31
0.0
  0
ARC
  5
27B
330
1F
100
AcDbEntity
  8
0
  6
Continuous
 62
     7
370
     0
100
AcDbCircle
 10
4.7512796536
 20
7.2037023596
 30
0.0
 40
0.2440417678237894
100
AcDbArc
 50
92.8536185974
 51
96.014080906
  0
LINE
  5
27C
330
1F
100
AcDbEntity
  8
0
  6
Continuous
 62
     7
370
     0
100
AcDbLine
 10
4.6996877897
 20
7.4313782602
 30
0.0
 11
4.7257106967
 21
7.4464009647
 31
0.0
  0
SPLINE
  5
27D
330
1F
100
AcDbEntity
  8
0
  6
Continuous
 62
     7
370
     0
100
AcDbSpline
210
0.0
220
0.0
230
1.0
 70
     8
 71
     3
 72
    13
 73
     9
 74
     0
 42
0.00000001
 43
0.00000001
 40
0.0
 40
0.0
 40
0.0
 40
0.0
 40
0.2494610831737903
 40
0.3766049575082828
 40
0.4996281366120727
 40
0.6186892926542022
 40
0.7498727238261695
 40
0.9999999999999999
 40
0.9999999999999999
 40
0.9999999999999999
 40
0.9999999999999999
 10
4.696327417232144
 20
7.42321918790173
 30
0.0
 10
4.694676231044715
 20
7.423194577771109
 30
0.0
 10
4.692183477882404
 20
7.423157424492212
 30
0.0
 10
4.690885442960144
 20
7.423985737358174
 30
0.0
 10
4.690904013484418
 20
7.424960132493251
 30
0.0
 10
4.692033725961362
 20
7.426304596366891
 30
0.0
 10
4.694739851007324
 20
7.42842264299614
 30
0.0
 10
4.697727796058271
 20
7.430207471472113
 30
0.0
 10
4.699687789686965
 20
7.431378260218752
 30
0.0
  0
ARC
  5
27E
330
1F
100
AcDbEntity
  8
0
  6
Continuous
 62
     7
370
     0
100
AcDbCircle
 10
4.6892422884
 20
7.5042800323
 30
0.0
 40
0.0813698933829939
100
AcDbArc
 50
274.9952467953
 51
290.3570116204
  0
LINE
  5
27F
330
1F
100
AcDbEntity
  8
0
  6
Continuous
 62
     7
370
     0
100
AcDbLine
 10
4.7106494462
 20
7.4240095974
 30
0.0
 11
4.7175483289
 21
7.4279922376
 31
0.0
  0
ARC
  5
280
330
1F
100
AcDbEntity
  8
0
  6
Continuous
 62
     7
370
     0
100
AcDbCircle
 10
4.7107602958
 20
7.15439345
 30
0.0
 40
0.2696161701743877
100
AcDbArc
 50
87.2687111297
 51
90.023556523
  0
LINE
  5
281
330
1F
100
AcDbEntity
  8
0
  6
Continuous
 62
     7
370
     0
100
AcDbLine
 10
4.7647487852
 20
7.4474533908
 30
0.0
 11
4.723608027
 21
7.4237033366
 31
0.0
  0
ARC
  5
282
330
1F
100
AcDbEntity
  8
0
  6
Continuous
 62
     7
370
     0
100
AcDbCircle
 10
4.7519169556
 20
7.178655803
 30
0.0
 40
0.2691036956886112
100
AcDbArc
 50
87.2668952892
 51
90.2279385008
  0
ARC
  5
283
330
1F
100
AcDbEntity
  8
0
  6
Continuous
 62
     7
370
     0
100
AcDbCircle
 10
4.8303457574
 20
7.3712418286
 30
0.0
 40
0.064005086077641
100
AcDbArc
 50
77.149309567
 51
126.3701820277
  0
SPLINE
  5
284
330
1F
100
AcDbEntity
  8
0
  6
Continuous
 62
     7
370
     0
100
AcDbSpline
210
0.0
220
0.0
230
1.0
 70
    24
 71
     1
 72
     4
 73
     2
 74
     0
 42
0.00000001
 43
0.00000001
 40
0.0
 40
0.0
 40
1.0
 40
1.0
 10
4.780846346065237
 20
7.414858468294108
 30
0.0
 10
4.792390746389978
 20
7.422778884932893
 30
0.0
  0
SPLINE
  5
285
330
1F
100
AcDbEntity
  8
0
  6
Continuous
 62
     7
370
     0
100
AcDbSpline
210
0.0
220
0.0
230
1.0
 70
     8
 71
     3
 72
    12
 73
     8
 74
     0
 42
0.00000001
 43
0.00000001
 40
0.0
 40
0.0
 40
0.0
 40
0.0
 40
0.2503309494299822
 40
0.4997648043321493
 40
0.6249322238031058
 40
0.7501904501281081
 40
1.0
 40
1.0
 40
1.0
 40
1.0
 10
4.786130115080336
 20
7.400264471246212
 30
0.0
 10
4.783864508976113
 20
7.401012887108545
 30
0.0
 10
4.77934141587097
 20
7.402507036784604
 30
0.0
 10
4.776177485151481
 20
7.40538833221964
 30
0.0
 10
4.775931047663425
 20
7.408148375362007
 30
0.0
 10
4.776790457455871
 20
7.411077012129039
 30
0.0
 10
4.779224908279663
 20
7.413346741395008
 30
0.0
 10
4.780846346065236
 20
7.414858468294108
 30
0.0
  0
ARC
  5
286
330
1F
100
AcDbEntity
  8
0
  6
Continuous
 62
     7
370
     0
100
AcDbCircle
 10
4.8028322335
 20
7.4606607991
 30
0.0
 40
0.0626632043476746
100
AcDbArc
 50
254.5416453098
 51
304.4864500311
  0
ARC
  5
287
330
1F
100
AcDbEntity
  8
0
  6
Continuous
 62
     7
370
     0
100
AcDbCircle
 10
4.8203629814
 20
7.4469250775
 30
0.0
 40
0.0419493673055256
100
AcDbArc
 50
295.3339600096
 51
324.1220557354
  0
SPLINE
  5
288
330
1F
100
AcDbEntity
  8
0
  6
Continuous
 62
     7
370
     0
100
AcDbSpline
210
0.0
220
0.0
230
1.0
 70
     8
 71
     3
 72
    13
 73
     9
 74
     0
 42
0.00000001
 43
0.00000001
 40
0.0
 40
0.0
 40
0.0
 40
0.0
 40
0.1642852523034523
 40
0.3377332377155535
 40
0.5003699049563153
 40
0.7497971218191204
 40
0.8748630895912604
 40
1.0
 40
1.0
 40
1.0
 40
1.0
 10
4.844581201602498
 20
7.43364377703049
 30
0.0
 10
4.845730048417011
 20
7.433268358216265
 30
0.0
 10
4.848091817041187
 20
7.432496582236073
 30
0.0
 10
4.851101383187329
 20
7.431040315796503
 30
0.0
 10
4.853869389778539
 20
7.428974554728598
 30
0.0
 10
4.85502409682334
 20
7.426592790455523
 30
0.0
 10
4.855036788066107
 20
7.424200353311162
 30
0.0
 10
4.854581093790827
 20
7.422960375411964
 30
0.0
 10
4.854353182049308
 20
7.42234021067042
 30
0.0
  0
LINE
  5
289
330
1F
100
AcDbEntity
  8
0
  6
Continuous
 62
     7
370
     0
100
AcDbLine
 10
4.8965593056
 20
7.3841674148
 30
0.0
 11
4.9090484644
 21
7.3913772527
 31
0.0
  0
ARC
  5
28A
330
1F
100
AcDbEntity
  8
0
  6
Continuous
 62
     7
370
     0
100
AcDbCircle
 10
4.6378910017
 20
6.8951023108
 30
0.0
 40
0.5532575959006463
100
AcDbArc
 50
59.3349135652
 51
62.1254745739
  0
LINE
  5
28B
330
1F
100
AcDbEntity
  8
0
  6
Continuous
 62
     7
370
     0
100
AcDbLine
 10
4.9325519724
 20
7.3782039809
 30
0.0
 11
4.9200628137
 21
7.370994143
 31
0.0
  0
ARC
  5
28C
330
1F
100
AcDbEntity
  8
0
  6
Continuous
 62
     7
370
     0
100
AcDbCircle
 10
4.6503801605
 20
6.9023121487
 30
0.0
 40
0.5532575959017776
100
AcDbArc
 50
59.3349135652
 51
62.1254745739
  0
ARC
  5
28D
330
1F
100
AcDbEntity
  8
0
  6
Continuous
 62
     7
370
     0
100
AcDbCircle
 10
5.0012003645
 20
7.2980874237
 30
0.0
 40
0.0423538459521263
100
AcDbArc
 50
50.343226859
 51
127.1724736696
  0
SPLINE
  5
28E
330
1F
100
AcDbEntity
  8
0
  6
Continuous
 62
     7
370
     0
100
AcDbSpline
210
0.0
220
0.0
230
1.0
 70
    24
 71
     1
 72
     4
 73
     2
 74
     0
 42
0.00000001
 43
0.00000001
 40
0.0
 40
0.0
 40
1.0
 40
1.0
 10
4.96411239788867
 20
7.323086571129184
 30
0.0
 10
4.975609477340797
 20
7.331835827507983
 30
0.0
  0
SPLINE
  5
28F
330
1F
100
AcDbEntity
  8
0
  6
Continuous
 62
     7
370
     0
100
AcDbSpline
210
0.0
220
0.0
230
1.0
 70
     8
 71
     3
 72
    12
 73
     8
 74
     0
 42
0.00000001
 43
0.00000001
 40
0.0
 40
0.0
 40
0.0
 40
0.0
 40
0.2503309494299794
 40
0.499764804332149
 40
0.6249322238031044
 40
0.7501904501281057
 40
1.0
 40
1.0
 40
1.0
 40
1.0
 10
4.969776205846272
 20
7.297529437990321
 30
0.0
 10
4.967489218465689
 20
7.299500774788254
 30
0.0
 10
4.962923439430496
 20
7.303436383834341
 30
0.0
 10
4.959653102768553
 20
7.30925479818209
 30
0.0
 10
4.959326068166682
 20
7.313861397923535
 30
0.0
 10
4.960108861308393
 20
7.318359358051719
 30
0.0
 10
4.962511889069913
 20
7.321196755445745
 30
0.0
 10
4.96411239788867
 20
7.323086571129184
 30
0.0
  0
ARC
  5
290
330
1F
100
AcDbEntity
  8
0
  6
Continuous
 62
     7
370
     0
100
AcDbCircle
 10
4.9977351144
 20
7.3281825505
 30
0.0
 40
0.0414887198236588
100
AcDbArc
 50
227.6318480781
 51
305.499838009
  0
ARC
  5
291
330
1F
100
AcDbEntity
  8
0
  6
Continuous
 62
     7
370
     0
100
AcDbCircle
 10
5.0070346256
 20
7.3259125174
 30
0.0
 40
0.0348066377083823
100
AcDbArc
 50
295.151017052
 51
332.5977384232
  0
ARC
  5
292
330
1F
100
AcDbEntity
  8
0
  6
Continuous
 62
     7
370
     0
100
AcDbCircle
 10
5.0182814739
 20
7.3133878406
 30
0.0
 40
0.0199626361543762
100
AcDbArc
 50
349.9181678199
 51
60.108469046
  0
ARC
  5
293
330
1F
100
AcDbEntity
  8
0
  6
Continuous
 62
     7
370
     0
100
AcDbCircle
 10
4.367976073
 20
6.5753757204
 30
0.0
 40
0.9789851545747328
100
AcDbArc
 50
38.124146698
 51
38.2498834119
  0
ARC
  5
294
330
1F
100
AcDbEntity
  8
0
  6
Continuous
 62
     7
370
     0
100
AcDbCircle
 10
5.1452882667
 20
7.1884611931
 30
0.0
 40
0.0110113749158104
100
AcDbArc
 50
188.3384903231
 51
219.4943070976
  0
SPLINE
  5
295
330
1F
100
AcDbEntity
  8
0
  6
Continuous
 62
     7
370
     0
100
AcDbSpline
210
0.0
220
0.0
230
1.0
 70
    24
 71
     1
 72
     4
 73
     2
 74
     0
 42
0.00000001
 43
0.00000001
 40
0.0
 40
0.0
 40
1.0
 40
1.0
 10
5.135980186634913
 20
7.192780079701463
 30
0.0
 10
5.134393297531338
 20
7.186864313441937
 30
0.0
  0
SPLINE
  5
296
330
1F
100
AcDbEntity
  8
0
  6
Continuous
 62
     7
370
     0
100
AcDbSpline
210
0.0
220
0.0
230
1.0
 70
    24
 71
     1
 72
     4
 73
     2
 74
     0
 42
0.00000001
 43
0.00000001
 40
0.0
 40
0.0
 40
1.0
 40
1.0
 10
5.145018960533259
 20
7.212611833994555
 30
0.0
 10
5.135980186634912
 20
7.192780079701463
 30
0.0
  0
ARC
  5
297
330
1F
100
AcDbEntity
  8
0
  6
Continuous
 62
     7
370
     0
100
AcDbCircle
 10
4.4174818799
 20
6.6103996808
 30
0.0
 40
0.9444414651654082
100
AcDbArc
 50
39.6159461611
 51
41.2691182757
  0
SPLINE
  5
298
330
1F
100
AcDbEntity
  8
0
  6
Continuous
 62
     7
370
     0
100
AcDbSpline
210
0.0
220
0.0
230
1.0
 70
    24
 71
     1
 72
     4
 73
     2
 74
     0
 42
0.00000001
 43
0.00000001
 40
0.0
 40
0.0
 40
1.0
 40
1.0
 10
5.119029350914758
 20
7.215020529924712
 30
0.0
 10
5.12734274462361
 20
7.233350107308086
 30
0.0
  0
SPLINE
  5
299
330
1F
100
AcDbEntity
  8
0
  6
Continuous
 62
     7
370
     0
100
AcDbSpline
210
0.0
220
0.0
230
1.0
 70
     8
 71
     3
 72
     9
 73
     5
 74
     0
 42
0.00000001
 43
0.00000001
 40
0.0
 40
0.0
 40
0.0
 40
0.0
 40
0.4997943743867926
 40
0.9999999999999999
 40
0.9999999999999999
 40
0.9999999999999999
 40
0.9999999999999999
 10
5.117053463458848
 20
7.205782504038682
 30
0.0
 10
5.117180578519971
 20
7.207396224497022
 30
0.0
 10
5.117434913237679
 20
7.210624993248812
 30
0.0
 10
5.118497725994715
 20
7.213554949383394
 30
0.0
 10
5.119029350914758
 20
7.215020529924712
 30
0.0
  0
SPLINE
  5
29A
330
1F
100
AcDbEntity
  8
0
  6
Continuous
 62
     7
370
     0
100
AcDbSpline
210
0.0
220
0.0
230
1.0
 70
    24
 71
     1
 72
     4
 73
     2
 74
     0
 42
0.00000001
 43
0.00000001
 40
0.0
 40
0.0
 40
1.0
 40
1.0
 10
5.118907824566067
 20
7.199803202301659
 30
0.0
 10
5.117053463458848
 20
7.205782504038682
 30
0.0
  0
SPLINE
  5
29B
330
1F
100
AcDbEntity
  8
0
  6
Continuous
 62
     7
370
     0
100
AcDbSpline
210
0.0
220
0.0
230
1.0
 70
    24
 71
     1
 72
     4
 73
     2
 74
     0
 42
0.00000001
 43
0.00000001
 40
0.0
 40
0.0
 40
1.0
 40
1.0
 10
5.111094682495686
 20
7.205134601135522
 30
0.0
 10
5.118907824566067
 20
7.199803202301659
 30
0.0
  0
ARC
  5
29C
330
1F
100
AcDbEntity
  8
0
  6
Continuous
 62
     7
370
     0
100
AcDbCircle
 10
5.1006725949
 20
7.1855640264
 30
0.0
 40
0.0221726702043448
100
AcDbArc
 50
61.9629731737
 51
117.3100622942
  0
SPLINE
  5
29D
330
1F
100
AcDbEntity
  8
0
  6
Continuous
 62
     7
370
     0
100
AcDbSpline
210
0.0
220
0.0
230
1.0
 70
     8
 71
     3
 72
    14
 73
    10
 74
     0
 42
0.00000001
 43
0.00000001
 40
0.0
 40
0.0
 40
0.0
 40
0.0
 40
0.2503552942231896
 40
0.3755117362839691
 40
0.500366825890756
 40
0.6248775190324869
 40
0.7504411376315897
 40
0.874783001659005
 40
1.0
 40
1.0
 40
1.0
 40
1.0
 10
5.094208427216715
 20
7.172932864644694
 30
0.0
 10
5.091991881782032
 20
7.175737404501999
 30
0.0
 10
5.088667251371029
 20
7.179943976743905
 30
0.0
 10
5.085024365898853
 20
7.185856196493475
 30
0.0
 10
5.083199548175082
 20
7.190517186223197
 30
0.0
 10
5.082982375933663
 20
7.195144041833944
 30
0.0
 10
5.084200261598848
 20
7.199329570088991
 30
0.0
 10
5.086775096476071
 20
7.202821053175176
 30
0.0
 10
5.089255232772256
 20
7.204448619916385
 30
0.0
 10
5.090499649498385
 20
7.205265257001519
 30
0.0
  0
ARC
  5
29E
330
1F
100
AcDbEntity
  8
0
  6
Continuous
 62
     7
370
     0
100
AcDbCircle
 10
4.331134935
 20
6.5534123048
 30
0.0
 40
0.982897186202153
100
AcDbArc
 50
36.6971924642
 51
39.0722942574
  0
LINE
  5
29F
330
1F
100
AcDbEntity
  8
0
  6
Continuous
 62
     7
370
     0
100
AcDbLine
 10
5.1757952845
 20
7.1734340882
 30
0.0
 11
5.119226742
 21
7.1407777638
 31
0.0
  0
ARC
  5
2A0
330
1F
100
AcDbEntity
  8
0
  6
Continuous
 62
     7
370
     0
100
AcDbCircle
 10
4.3826387036
 20
6.5822056278
 30
0.0
 40
0.9892666243741366
100
AcDbArc
 50
36.7012893294
 51
38.1219379636
  0
LINE
  5
2A1
330
1F
100
AcDbEntity
  8
0
  6
Continuous
 62
     7
370
     0
100
AcDbLine
 10
5.1381191302
 20
7.1797693042
 30
0.0
 11
5.1608934785
 21
7.1929166557
 31
0.0
  0
SPLINE
  5
2A2
330
1F
100
AcDbEntity
  8
0
  6
Continuous
 62
     7
370
     0
100
AcDbSpline
210
0.0
220
0.0
230
1.0
 70
    24
 71
     1
 72
     4
 73
     2
 74
     0
 42
0.00000001
 43
0.00000001
 40
0.0
 40
0.0
 40
1.0
 40
1.0
 10
5.241090534664576
 20
7.072433830333512
 30
0.0
 10
5.247354902101971
 20
7.063285879684233
 30
0.0
  0
SPLINE
  5
2A3
330
1F
100
AcDbEntity
  8
0
  6
Continuous
 62
     7
370
     0
100
AcDbSpline
210
0.0
220
0.0
230
1.0
 70
    24
 71
     1
 72
     4
 73
     2
 74
     0
 42
0.00000001
 43
0.00000001
 40
0.0
 40
0.0
 40
1.0
 40
1.0
 10
5.23446858190064
 20
7.079426323169767
 30
0.0
 10
5.241090534664576
 20
7.072433830333512
 30
0.0
  0
ARC
  5
2A4
330
1F
100
AcDbEntity
  8
0
  6
Continuous
 62
     7
370
     0
100
AcDbCircle
 10
5.2237817863
 20
7.0646842325
 30
0.0
 40
0.0182081530269936
100
AcDbArc
 50
54.0609966696
 51
118.3243475904
  0
ARC
  5
2A5
330
1F
100
AcDbEntity
  8
0
  6
Continuous
 62
     7
370
     0
100
AcDbCircle
 10
5.2248717951
 20
7.0661192064
 30
0.0
 40
0.017539024140389
100
AcDbArc
 50
123.6908180763
 51
210.2423445276
  0
SPLINE
  5
2A6
330
1F
100
AcDbEntity
  8
0
  6
Continuous
 62
     7
370
     0
100
AcDbSpline
210
0.0
220
0.0
230
1.0
 70
     8
 71
     3
 72
     9
 73
     5
 74
     0
 42
0.00000001
 43
0.00000001
 40
0.0
 40
0.0
 40
0.0
 40
0.0
 40
0.4993318956962407
 40
1.0
 40
1.0
 40
1.0
 40
1.0
 10
5.201558258037999
 20
7.062826574620654
 30
0.0
 10
5.203037633292214
 20
7.062166283447082
 30
0.0
 10
5.206000342598322
 20
7.060843934165447
 30
0.0
 10
5.208478865511917
 20
7.058472718819416
 30
0.0
 10
5.209719782880539
 20
7.057285526927223
 30
0.0
  0
SPLINE
  5
2A7
330
1F
100
AcDbEntity
  8
0
  6
Continuous
 62
     7
370
     0
100
AcDbSpline
210
0.0
220
0.0
230
1.0
 70
     8
 71
     3
 72
     9
 73
     5
 74
     0
 42
0.00000001
 43
0.00000001
 40
0.0
 40
0.0
 40
0.0
 40
0.0
 40
0.5001300021535878
 40
1.0
 40
1.0
 40
1.0
 40
1.0
 10
5.190890547401179
 20
7.061915424984102
 30
0.0
 10
5.192531878914822
 20
7.062655324460975
 30
0.0
 10
5.195813688657442
 20
7.06413473876063
 30
0.0
 10
5.199643733520534
 20
7.063262553743359
 30
0.0
 10
5.201558258037999
 20
7.062826574620654
 30
0.0
  0
SPLINE
  5
2A8
330
1F
100
AcDbEntity
  8
0
  6
Continuous
 62
     7
370
     0
100
AcDbSpline
210
0.0
220
0.0
230
1.0
 70
     8
 71
     3
 72
    13
 73
     9
 74
     0
 42
0.00000001
 43
0.00000001
 40
0.0
 40
0.0
 40
0.0
 40
0.0
 40
0.2502329787228078
 40
0.4994066255429889
 40
0.6257013607047694
 40
0.7496002874179402
 40
0.8740371171718916
 40
0.9999999999999999
 40
0.9999999999999999
 40
0.9999999999999999
 40
0.9999999999999999
 10
5.189165884519402
 20
7.033498723228747
 30
0.0
 10
5.187839342561443
 20
7.036051827239377
 30
0.0
 10
5.185191874404979
 20
7.041147226994902
 30
0.0
 10
5.183881511308199
 20
7.04822016799957
 30
0.0
 10
5.184530425361756
 20
7.053450783482632
 30
0.0
 10
5.185858894868813
 20
7.056973045548728
 30
0.0
 10
5.187963880055434
 20
7.059936534054192
 30
0.0
 10
5.189911035992647
 20
7.061253120043671
 30
0.0
 10
5.190890547401179
 20
7.061915424984102
 30
0.0
  0
ARC
  5
2A9
330
1F
100
AcDbEntity
  8
0
  6
Continuous
 62
     7
370
     0
100
AcDbCircle
 10
4.2878353074
 20
6.5225205494
 30
0.0
 40
1.036096280994403
100
AcDbArc
 50
27.0161806958
 51
29.549568001
  0
LINE
  5
2AA
330
1F
100
AcDbEntity
  8
0
  6
Continuous
 62
     7
370
     0
100
AcDbLine
 10
5.2674395214
 20
7.0258154322
 30
0.0
 11
5.2108709789
 21
6.9931591077
 31
0.0
  0
ARC
  5
2AB
330
1F
100
AcDbEntity
  8
0
  6
Continuous
 62
     7
370
     0
100
AcDbCircle
 10
4.3446353361
 20
6.5552990997
 30
0.0
 40
1.035834534761986
100
AcDbArc
 50
27.0159739579
 51
29.3677341795
  0
LINE
  5
2AC
330
1F
100
AcDbEntity
  8
0
  6
Continuous
 62
     7
370
     0
100
AcDbLine
 10
5.4799057769
 20
7.7911230444
 30
0.0
 11
5.500613904
 21
7.8030775918
 31
0.0
  0
ARC
  5
2AD
330
1F
100
AcDbEntity
  8
0
  6
Continuous
 62
     7
370
     0
100
AcDbCircle
 10
5.4690402749
 20
7.8067544481
 30
0.0
 40
0.019036804195332
100
AcDbArc
 50
257.2749561895
 51
304.8034437407
  0
SPLINE
  5
2AE
330
1F
100
AcDbEntity
  8
0
  6
Continuous
 62
     7
370
     0
100
AcDbSpline
210
0.0
220
0.0
230
1.0
 70
     8
 71
     3
 72
    11
 73
     7
 74
     0
 42
0.00000001
 43
0.00000001
 40
0.0
 40
0.0
 40
0.0
 40
0.0
 40
0.2500620333659162
 40
0.4999138376966951
 40
0.7498401673007554
 40
1.0
 40
1.0
 40
1.0
 40
1.0
 10
5.463471001210781
 20
7.791618812258185
 30
0.0
 10
5.463201310157926
 20
7.791273325452983
 30
0.0
 10
5.462662154783515
 20
7.79058264229594
 30
0.0
 10
5.462693233307832
 20
7.789588690001117
 30
0.0
 10
5.46339645503205
 20
7.788737237789984
 30
0.0
 10
5.464363327043562
 20
7.788369282596639
 30
0.0
 10
5.464846988778027
 20
7.788185219096093
 30
0.0
  0
SPLINE
  5
2AF
330
1F
100
AcDbEntity
  8
0
  6
Continuous
 62
     7
370
     0
100
AcDbSpline
210
0.0
220
0.0
230
1.0
 70
    24
 71
     1
 72
     4
 73
     2
 74
     0
 42
0.00000001
 43
0.00000001
 40
0.0
 40
0.0
 40
1.0
 40
1.0
 10
5.466797264758105
 20
7.793813518090065
 30
0.0
 10
5.463471001210781
 20
7.791618812258185
 30
0.0
  0
LINE
  5
2B0
330
1F
100
AcDbEntity
  8
0
  6
Continuous
 62
     7
370
     0
100
AcDbLine
 10
5.4891468898
 20
7.806715682
 30
0.0
 11
5.4667972648
 21
7.7938135181
 31
0.0
  0
ARC
  5
2B1
330
1F
100
AcDbEntity
  8
0
  6
Continuous
 62
     7
370
     0
100
AcDbCircle
 10
5.3818444622
 20
7.4498031175
 30
0.0
 40
0.3726934258466097
100
AcDbArc
 50
73.2670856582
 51
75.6502298087
  0
LINE
  5
2B2
330
1F
100
AcDbEntity
  8
0
  6
Continuous
 62
     7
370
     0
100
AcDbLine
 10
5.453217944
 20
7.7987485955
 30
0.0
 11
5.4742130463
 21
7.81086881
 31
0.0
  0
ARC
  5
2B3
330
1F
100
AcDbEntity
  8
0
  6
Continuous
 62
     7
370
     0
100
AcDbCircle
 10
5.4417418051
 20
7.8154891109
 30
0.0
 40
0.0202964682030563
100
AcDbArc
 50
261.0739392834
 51
304.4318379633
  0
SPLINE
  5
2B4
330
1F
100
AcDbEntity
  8
0
  6
Continuous
 62
     7
370
     0
100
AcDbSpline
210
0.0
220
0.0
230
1.0
 70
     8
 71
     3
 72
    10
 73
     6
 74
     0
 42
0.00000001
 43
0.00000001
 40
0.0
 40
0.0
 40
0.0
 40
0.0
 40
0.4988226573032885
 40
0.7491700015752235
 40
1.0
 40
1.0
 40
1.0
 40
1.0
 10
5.43674707206958
 20
7.797569446607404
 30
0.0
 10
5.436696045295846
 20
7.797110504177724
 30
0.0
 10
5.436619409386069
 20
7.796421229350822
 30
0.0
 10
5.437524754174332
 20
7.795757716394032
 30
0.0
 10
5.438236429849987
 20
7.795544937251666
 30
0.0
 10
5.438592610374115
 20
7.795438445223002
 30
0.0
  0
SPLINE
  5
2B5
330
1F
100
AcDbEntity
  8
0
  6
Continuous
 62
     7
370
     0
100
AcDbSpline
210
0.0
220
0.0
230
1.0
 70
     8
 71
     3
 72
     9
 73
     5
 74
     0
 42
0.00000001
 43
0.00000001
 40
0.0
 40
0.0
 40
0.0
 40
0.0
 40
0.5015771373281355
 40
1.0
 40
1.0
 40
1.0
 40
1.0
 10
5.439758763874806
 20
7.80017690959393
 30
0.0
 10
5.439038931216711
 20
7.799750279480494
 30
0.0
 10
5.437603792721505
 20
7.798899702207957
 30
0.0
 10
5.437032044469881
 20
7.798011931716935
 30
0.0
 10
5.43674707206958
 20
7.797569446607404
 30
0.0
  0
LINE
  5
2B6
330
1F
100
AcDbEntity
  8
0
  6
Continuous
 62
     7
370
     0
100
AcDbLine
 10
5.4629348774
 20
7.8135561951
 30
0.0
 11
5.4397587639
 21
7.8001769096
 31
0.0
  0
ARC
  5
2B7
330
1F
100
AcDbEntity
  8
0
  6
Continuous
 62
     7
370
     0
100
AcDbCircle
 10
5.3909108617
 20
7.4877701395
 30
0.0
 40
0.3336525331252663
100
AcDbArc
 50
77.5337004865
 51
80.0993098544
  0
LINE
  5
2B8
330
1F
100
AcDbEntity
  8
0
  6
Continuous
 62
     7
370
     0
100
AcDbLine
 10
5.4225549478
 20
7.8016032601
 30
0.0
 11
5.4482794007
 21
7.8164536706
 31
0.0
  0
SPLINE
  5
2B9
330
1F
100
AcDbEntity
  8
0
  6
Continuous
 62
     7
370
     0
100
AcDbSpline
210
0.0
220
0.0
230
1.0
 70
     8
 71
     3
 72
    13
 73
     9
 74
     0
 42
0.00000001
 43
0.00000001
 40
0.0
 40
0.0
 40
0.0
 40
0.0
 40
0.2493551011004627
 40
0.3758643206441828
 40
0.4994912623302323
 40
0.6184449072852232
 40
0.7497843925019594
 40
1.0
 40
1.0
 40
1.0
 40
1.0
 10
5.419809669111778
 20
7.789655591543482
 30
0.0
 10
5.418002857674564
 20
7.790159546295298
 30
0.0
 10
5.41527936835999
 20
7.790919180285501
 30
0.0
 10
5.413782187468232
 20
7.792720445113051
 30
0.0
 10
5.413758953597172
 20
7.794313857184917
 30
0.0
 10
5.414884747258565
 20
7.796107250662161
 30
0.0
 10
5.417597640069577
 20
7.798579612805761
 30
0.0
 10
5.420591583926588
 20
7.800405731055699
 30
0.0
 10
5.422554947790157
 20
7.801603260052156
 30
0.0
  0
ARC
  5
2BA
330
1F
100
AcDbEntity
  8
0
  6
Continuous
 62
     7
370
     0
100
AcDbCircle
 10
5.428520535
 20
7.8358262053
 30
0.0
 40
0.046985154697289
100
AcDbArc
 50
259.3157714147
 51
284.9706673605
  0
SPLINE
  5
2BB
330
1F
100
AcDbEntity
  8
0
  6
Continuous
 62
     7
370
     0
100
AcDbSpline
210
0.0
220
0.0
230
1.0
 70
     8
 71
     3
 72
    12
 73
     8
 74
     0
 42
0.00000001
 43
0.00000001
 40
0.0
 40
0.0
 40
0.0
 40
0.0
 40
0.2503533688407818
 40
0.499996194321618
 40
0.7494886161542197
 40
0.8747044873187592
 40
1.0
 40
1.0
 40
1.0
 40
1.0
 10
5.445787491903582
 20
7.782984052635181
 30
0.0
 10
5.444598650446309
 20
7.78337578182251
 30
0.0
 10
5.442224341656138
 20
7.784158128406363
 30
0.0
 10
5.439771819087022
 20
7.785828927727997
 30
0.0
 10
5.439430541379674
 20
7.78767718872774
 30
0.0
 10
5.439902057009213
 20
7.78923594449984
 30
0.0
 10
5.440405933487289
 20
7.790035770900266
 30
0.0
 10
5.440657951821462
 20
7.790435811239187
 30
0.0
  0
ARC
  5
2BC
330
1F
100
AcDbEntity
  8
0
  6
Continuous
 62
     7
370
     0
100
AcDbCircle
 10
5.4570617531
 20
7.8272497818
 30
0.0
 40
0.0456789201684549
100
AcDbArc
 50
255.7108560527
 51
282.3353132257
  0
LINE
  5
2BD
330
1F
100
AcDbEntity
  8
0
  6
Continuous
 62
     7
370
     0
100
AcDbLine
 10
5.460506803
 20
7.778980722
 30
0.0
 11
5.4668202564
 21
7.7826254011
 31
0.0
  0
ARC
  5
2BE
330
1F
100
AcDbEntity
  8
0
  6
Continuous
 62
     7
370
     0
100
AcDbCircle
 10
5.3272332237
 20
7.3837648082
 30
0.0
 40
0.4170820847755432
100
AcDbArc
 50
69.3054588512
 51
71.3650120111
  0
LINE
  5
2BF
330
1F
100
AcDbEntity
  8
0
  6
Continuous
 62
     7
370
     0
100
AcDbLine
 10
5.5157648337
 20
7.7976858534
 30
0.0
 11
5.4746240756
 21
7.7739357992
 31
0.0
  0
ARC
  5
2C0
330
1F
100
AcDbEntity
  8
0
  6
Continuous
 62
     7
370
     0
100
AcDbCircle
 10
5.3686770485
 20
7.4083483553
 30
0.0
 40
0.4161952714565613
100
AcDbArc
 50
69.3039400656
 51
71.5179768768
  0
ARC
  5
2C1
330
1F
100
AcDbEntity
  8
0
  6
Continuous
 62
     7
370
     0
100
AcDbCircle
 10
5.6018171427
 20
7.7011944259
 30
0.0
 40
0.0458387841031424
100
AcDbArc
 50
56.5852908991
 51
127.1698226477
  0
SPLINE
  5
2C2
330
1F
100
AcDbEntity
  8
0
  6
Continuous
 62
     7
370
     0
100
AcDbSpline
210
0.0
220
0.0
230
1.0
 70
    24
 71
     1
 72
     4
 73
     2
 74
     0
 42
0.00000001
 43
0.00000001
 40
0.0
 40
0.0
 40
1.0
 40
1.0
 10
5.562642200116776
 20
7.729171367621341
 30
0.0
 10
5.574122288906122
 20
7.737720980579509
 30
0.0
  0
SPLINE
  5
2C3
330
1F
100
AcDbEntity
  8
0
  6
Continuous
 62
     7
370
     0
100
AcDbSpline
210
0.0
220
0.0
230
1.0
 70
     8
 71
     3
 72
    12
 73
     8
 74
     0
 42
0.00000001
 43
0.00000001
 40
0.0
 40
0.0
 40
0.0
 40
0.0
 40
0.2503309494299774
 40
0.499764804332147
 40
0.6249322238031009
 40
0.7501904501281047
 40
1.0
 40
1.0
 40
1.0
 40
1.0
 10
5.568599466478402
 20
7.706239995158857
 30
0.0
 10
5.566273871692476
 20
7.707919709127994
 30
0.0
 10
5.561631016201409
 20
7.711273117586001
 30
0.0
 10
5.558283342434754
 20
7.716387789036742
 30
0.0
 10
5.557911515338424
 20
7.720551115567856
 30
0.0
 10
5.558658510406617
 20
7.72467186002156
 30
0.0
 10
5.561049625555646
 20
7.727372582609862
 30
0.0
 10
5.562642200116776
 20
7.729171367621343
 30
0.0
  0
ARC
  5
2C4
330
1F
100
AcDbEntity
  8
0
  6
Continuous
 62
     7
370
     0
100
AcDbCircle
 10
5.5950782263
 20
7.742627432
 30
0.0
 40
0.0450018920145788
100
AcDbArc
 50
233.9570071569
 51
305.3583527154
  0
ARC
  5
2C5
330
1F
100
AcDbEntity
  8
0
  6
Continuous
 62
     7
370
     0
100
AcDbCircle
 10
5.6062027899
 20
7.7379167358
 30
0.0
 40
0.0352976859508813
100
AcDbArc
 50
295.0001215236
 51
331.1882705904
  0
ARC
  5
2C6
330
1F
100
AcDbEntity
  8
0
  6
Continuous
 62
     7
370
     0
100
AcDbCircle
 10
5.6202139868
 20
7.7237308484
 30
0.0
 40
0.0171512130714582
100
AcDbArc
 50
350.5187377194
 51
66.473343132
  0
LINE
  5
2C7
330
1F
100
AcDbEntity
  8
0
  6
Continuous
 62
     7
370
     0
100
AcDbLine
 10
5.6650436573
 20
7.6474181037
 30
0.0
 11
5.6775328161
 21
7.6546279416
 31
0.0
  0
ARC
  5
2C8
330
1F
100
AcDbEntity
  8
0
  6
Continuous
 62
     7
370
     0
100
AcDbCircle
 10
5.0882193677
 20
7.0217727972
 30
0.0
 40
0.850974917816261
100
AcDbArc
 50
43.5948621575
 51
47.3249675047
  0
LINE
  5
2C9
330
1F
100
AcDbEntity
  8
0
  6
Continuous
 62
     7
370
     0
100
AcDbLine
 10
5.7170132383
 20
7.6157763065
 30
0.0
 11
5.7045240795
 21
7.6085664686
 31
0.0
  0
ARC
  5
2CA
330
1F
100
AcDbEntity
  8
0
  6
Continuous
 62
     7
370
     0
100
AcDbCircle
 10
5.1007085264
 20
7.028982635
 30
0.0
 40
0.8509749178163815
100
AcDbArc
 50
43.5948621575
 51
47.3249675047
  0
ARC
  5
2CB
330
1F
100
AcDbEntity
  8
0
  6
Continuous
 62
     7
370
     0
100
AcDbCircle
 10
5.720566906
 20
7.5199489437
 30
0.0
 40
0.0485701133574092
100
AcDbArc
 50
48.1965427435
 51
89.8109582045
  0
LINE
  5
2CC
330
1F
100
AcDbEntity
  8
0
  6
Continuous
 62
     7
370
     0
100
AcDbLine
 10
5.7661664635
 20
7.56378879
 30
0.0
 11
5.7529426484
 21
7.556154844
 31
0.0
  0
ARC
  5
2CD
330
1F
100
AcDbEntity
  8
0
  6
Continuous
 62
     7
370
     0
100
AcDbCircle
 10
5.7154076331
 20
7.4997102788
 30
0.0
 40
0.081746648011268
100
AcDbArc
 50
51.6160236454
 51
70.3997068989
  0
LINE
  5
2CE
330
1F
100
AcDbEntity
  8
0
  6
Continuous
 62
     7
370
     0
100
AcDbLine
 10
5.7806533939
 20
7.5985551185
 30
0.0
 11
5.7428300685
 21
7.5767201775
 31
0.0
  0
ARC
  5
2CF
330
1F
100
AcDbEntity
  8
0
  6
Continuous
 62
     7
370
     0
100
AcDbCircle
 10
5.0749098556
 20
6.9931160228
 30
0.0
 40
0.9298550641949994
100
AcDbArc
 50
40.6254380549
 51
41.9826013683
  0
LINE
  5
2D0
330
1F
100
AcDbEntity
  8
0
  6
Continuous
 62
     7
370
     0
100
AcDbLine
 10
5.7088125419
 20
7.5820202079
 30
0.0
 11
5.7661157408
 21
7.6151006405
 31
0.0
  0
ARC
  5
2D1
330
1F
100
AcDbEntity
  8
0
  6
Continuous
 62
     7
370
     0
100
AcDbCircle
 10
5.0192016716
 20
6.9614503039
 30
0.0
 40
0.9277231042624564
100
AcDbArc
 50
40.8714334481
 51
41.9835455954
  0
LINE
  5
2D2
330
1F
100
AcDbEntity
  8
0
  6
Continuous
 62
     7
370
     0
100
AcDbLine
 10
5.8027857037
 20
7.5289163739
 30
0.0
 11
5.8255600519
 21
7.5420637253
 31
0.0
  0
ARC
  5
2D3
330
1F
100
AcDbEntity
  8
0
  6
Continuous
 62
     7
370
     0
100
AcDbCircle
 10
5.0048173489
 20
6.94109918
 30
0.0
 40
0.9911016842836495
100
AcDbArc
 50
36.3769291507
 51
38.1505285259
  0
LINE
  5
2D4
330
1F
100
AcDbEntity
  8
0
  6
Continuous
 62
     7
370
     0
100
AcDbLine
 10
5.7724558539
 20
7.5465463216
 30
0.0
 11
5.7842103563
 21
7.5533320513
 31
0.0
  0
ARC
  5
2D5
330
1F
100
AcDbEntity
  8
0
  6
Continuous
 62
     7
370
     0
100
AcDbCircle
 10
4.9930628466
 20
6.9343134503
 30
0.0
 40
0.9911016842788414
100
AcDbArc
 50
36.3769291507
 51
38.1505285259
  0
LINE
  5
2D6
330
1F
100
AcDbEntity
  8
0
  6
Continuous
 62
     7
370
     0
100
AcDbLine
 10
5.7822153246
 20
7.5170413468
 30
0.0
 11
5.7910312013
 21
7.5221306442
 31
0.0
  0
ARC
  5
2D7
330
1F
100
AcDbEntity
  8
0
  6
Continuous
 62
     7
370
     0
100
AcDbCircle
 10
4.9857862063
 20
6.9303847802
 30
0.0
 40
0.9891740330636833
100
AcDbArc
 50
36.3756811499
 51
38.4475461432
  0
LINE
  5
2D8
330
1F
100
AcDbEntity
  8
0
  6
Continuous
 62
     7
370
     0
100
AcDbLine
 10
5.7472614711
 20
7.5378171746
 30
0.0
 11
5.7604852863
 21
7.5454511206
 31
0.0
  0
ARC
  5
2D9
330
1F
100
AcDbEntity
  8
0
  6
Continuous
 62
     7
370
     0
100
AcDbCircle
 10
4.9659024446
 20
6.9176361329
 30
0.0
 40
0.9975702746260273
100
AcDbArc
 50
34.9670794021
 51
38.4397682182
  0
LINE
  5
2DA
330
1F
100
AcDbEntity
  8
0
  6
Continuous
 62
     7
370
     0
100
AcDbLine
 10
5.8399613427
 20
7.5220056471
 30
0.0
 11
5.7833928002
 21
7.4893493227
 31
0.0
  0
ARC
  5
2DB
330
1F
100
AcDbEntity
  8
0
  6
Continuous
 62
     7
370
     0
100
AcDbCircle
 10
5.0129676303
 20
6.9434399953
 30
0.0
 40
1.009285298531704
100
AcDbArc
 50
34.97667546
 51
36.3784754311
  0
LWPOLYLINE
  5
2DC
330
1F
100
AcDbEntity
  8
0
  6
Continuous
 62
     7
370
     0
100
AcDbPolyline
 90
      123
 70
   128
 43
0.0
 10
4.9552637939
 20
6.4277821988
 10
4.9519474769
 20
6.4083403066
 10
4.9476835012
 20
6.3896709438
 10
4.9424831741
 20
6.3718236181
 10
4.9363602861
 20
6.3548456574
 10
4.9293310738
 20
6.3387820842
 10
4.9214141775
 20
6.3236754963
 10
4.9126305914
 20
6.3095659535
 10
4.9030036079
 20
6.2964908718
 10
4.8925587562
 20
6.2844849241
 10
4.881323734
 20
6.2735799478
 10
4.8693283346
 20
6.2638048612
 10
4.8566043677
 20
6.2551855858
 10
4.8431855749
 20
6.2477449786
 10
4.8291075405
 20
6.2415027706
 10
4.8144075969
 20
6.2364755151
 10
4.7991247257
 20
6.2326765434
 10
4.7832994543
 20
6.2301159298
 10
4.7669737484
 20
6.2288004645
 10
4.750190901
 20
6.2287336359
 10
4.7329954172
 20
6.2299156212
 10
4.7154328961
 20
6.232343286
 10
4.6975499106
 20
6.2360101926
 10
4.6793938831
 20
6.240906617
 10
4.66101296
 20
6.2470195748
 10
4.6424558843
 20
6.2543328554
 10
4.6237718661
 20
6.2628270654
 10
4.6050104519
 20
6.2724796797
 10
4.5862213937
 20
6.2832651013
 10
4.5674545166
 20
6.2951547292
 10
4.5487595872
 20
6.3081170341
 10
4.5301861809
 20
6.3221176425
 10
4.511783551
 20
6.3371194272
 10
4.4936004982
 20
6.3530826062
 10
4.4756852405
 20
6.369964848
 10
4.4580852859
 20
6.3877213839
 10
4.4408473065
 20
6.4063051268
 10
4.4240170142
 20
6.425666796
 10
4.4076390399
 20
6.4457550477
 10
4.3917568151
 20
6.4665166116
 10
4.3764124566
 20
6.4878964317
 10
4.3616466548
 20
6.5098378126
 10
4.3474985661
 20
6.5322825696
 10
4.3340057086
 20
6.5551711834
 10
4.3212038629
 20
6.5784429574
 10
4.3091269772
 20
6.602036179
 10
4.2978070773
 20
6.6258882833
 10
4.2872741815
 20
6.6499360189
 10
4.2775562211
 20
6.6741156153
 10
4.2686789664
 20
6.6983629527
 10
4.2606659584
 20
6.7226137315
 10
4.253538446
 20
6.746803643
 10
4.2473153302
 20
6.7708685399
 10
4.2420131135
 20
6.7947446064
 10
4.2376458565
 20
6.8183685275
 10
4.2342251403
 20
6.8416776567
 10
4.2317600361
 20
6.8646101825
 10
4.2302570809
 20
6.887105292
 10
4.2297202602
 20
6.9091033321
 10
4.2301509976
 20
6.9305459679
 10
4.2315481508
 20
6.9513763376
 10
4.233908015
 20
6.9715392026
 10
4.237224332
 20
6.9909810948
 10
4.2414883077
 20
7.0096504576
 10
4.2466886347
 20
7.0274977833
 10
4.2528115228
 20
7.044475744
 10
4.2598407351
 20
7.0605393172
 10
4.2677576314
 20
7.0756459051
 10
4.2765412175
 20
7.0897554479
 10
4.2861682009
 20
7.1028305296
 10
4.2966130527
 20
7.1148364773
 10
4.3078480749
 20
7.1257414536
 10
4.3198434743
 20
7.1355165402
 10
4.3325674412
 20
7.1441358156
 10
4.3459862339
 20
7.1515764228
 10
4.3600642683
 20
7.1578186308
 10
4.374764212
 20
7.1628458863
 10
4.3900470832
 20
7.1666448579
 10
4.4058723546
 20
7.1692054716
 10
4.4221980604
 20
7.1705209369
 10
4.4389809078
 20
7.1705877655
 10
4.4561763917
 20
7.1694057802
 10
4.4737389127
 20
7.1669781154
 10
4.4916218983
 20
7.1633112088
 10
4.5097779258
 20
7.1584147844
 10
4.5281588489
 20
7.1523018266
 10
4.5467159246
 20
7.144988546
 10
4.5653999428
 20
7.136494336
 10
4.584161357
 20
7.1268417217
 10
4.6029504152
 20
7.1160563001
 10
4.6217172922
 20
7.1041666722
 10
4.6404122217
 20
7.0912043673
 10
4.658985628
 20
7.0772037589
 10
4.6773882578
 20
7.0622019742
 10
4.6955713107
 20
7.0462387952
 10
4.7134865684
 20
7.0293565534
 10
4.731086523
 20
7.0116000175
 10
4.7483245024
 20
6.9930162746
 10
4.7651547947
 20
6.9736546054
 10
4.781532769
 20
6.9535663537
 10
4.7974149938
 20
6.9328047898
 10
4.8127593523
 20
6.9114249697
 10
4.827525154
 20
6.8894835888
 10
4.8416732428
 20
6.8670388318
 10
4.8551661003
 20
6.844150218
 10
4.867967946
 20
6.820878444
 10
4.8800448317
 20
6.7972852224
 10
4.8913647316
 20
6.773433118
 10
4.9018976274
 20
6.7493853825
 10
4.9116155878
 20
6.7252057861
 10
4.9204928424
 20
6.7009584487
 10
4.9285058505
 20
6.6767076699
 10
4.9356333628
 20
6.6525177584
 10
4.9418564787
 20
6.6284528615
 10
4.9471586953
 20
6.604576795
 10
4.9515259524
 20
6.5809528739
 10
4.9549466685
 20
6.5576437447
 10
4.9574117728
 20
6.5347112189
 10
4.958914728
 20
6.5122161094
 10
4.9594515487
 20
6.4902180693
 10
4.9590208113
 20
6.4687754335
 10
4.957623658
 20
6.4479450638
 10
4.9552637939
 20
6.4277821988
  0
LWPOLYLINE
  5
2DD
330
1F
100
AcDbEntity
  8
0
  6
Continuous
 62
     7
370
     0
100
AcDbPolyline
 90
       78
 70
   128
 43
0.0
 10
4.4718852264
 20
7.1672903567
 10
4.4653499715
 20
7.1679022913
 10
4.4484833076
 20
7.1686476491
 10
4.4320435275
 20
7.1681477613
 10
4.4160749498
 20
7.1664039754
 10
4.4006206231
 20
7.1634209925
 10
4.3857222094
 20
7.1592068541
 10
4.3714198723
 20
7.1537729208
 10
4.3577521683
 20
7.1471338416
 10
4.3447559431
 20
7.1393075141
 10
4.3324662323
 20
7.1303150369
 10
4.3209161667
 20
7.1201806519
 10
4.3101368834
 20
7.1089316799
 10
4.3001574412
 20
7.0965984459
 10
4.2910047431
 20
7.0832141982
 10
4.2827034631
 20
7.0688150183
 10
4.27527598
 20
7.053439724
 10
4.2687423169
 20
7.0371297643
 10
4.2631200875
 20
7.0199291079
 10
4.2584244483
 20
7.0018841248
 10
4.2546680579
 20
6.983043461
 10
4.2518610429
 20
6.9634579078
 10
4.2500109704
 20
6.9431802641
 10
4.2491228281
 20
6.9222651951
 10
4.24919901
 20
6.900769084
 10
4.2502393109
 20
6.8787498805
 10
4.2522409263
 20
6.8562669446
 10
4.2551984602
 20
6.8333808861
 10
4.2591039396
 20
6.810153402
 10
4.263946836
 20
6.7866471094
 10
4.2697140939
 20
6.7629253771
 10
4.2763901657
 20
6.7390521547
 10
4.2839570538
 20
6.7150918001
 10
4.2923943594
 20
6.6911089064
 10
4.301679337
 20
6.667168127
 10
4.3117869558
 20
6.6433340022
 10
4.3226899675
 20
6.6196707845
 10
4.3343589796
 20
6.5962422657
 10
4.3467625344
 20
6.573111605
 10
4.3598671942
 20
6.5503411586
 10
4.373637631
 20
6.5279923116
 10
4.3880367223
 20
6.5061253124
 10
4.4030256507
 20
6.4847991108
 10
4.4185640085
 20
6.4640711983
 10
4.4346099072
 20
6.4439974537
 10
4.4511200899
 20
6.4246319923
 10
4.4680500481
 20
6.40602702
 10
4.4853541414
 20
6.3882326924
 10
4.5029857213
 20
6.37129698
 10
4.520897256
 20
6.3552655384
 10
4.5390404592
 20
6.3401815856
 10
4.5573664201
 20
6.3260857852
 10
4.5758257351
 20
6.3130161369
 10
4.5943686411
 20
6.3010078744
 10
4.6129451499
 20
6.2900933697
 10
4.6315051822
 20
6.2803020463
 10
4.6499987037
 20
6.2716603001
 10
4.6683758591
 20
6.2641914275
 10
4.6865871067
 20
6.2579155634
 10
4.7045833523
 20
6.2528496264
 10
4.7223160812
 20
6.2490072733
 10
4.7397374891
 20
6.2463988625
 10
4.7568006109
 20
6.2450314257
 10
4.7734594475
 20
6.2449086493
 10
4.7896690896
 20
6.2460308644
 10
4.8053858389
 20
6.2483950456
 10
4.8205673258
 20
6.2519948195
 10
4.8351726237
 20
6.2568204818
 10
4.8491623593
 20
6.2628590232
 10
4.8624988188
 20
6.2700941651
 10
4.8751460493
 20
6.2785064027
 10
4.8870699562
 20
6.288073058
 10
4.8982383949
 20
6.2987683412
 10
4.908621257
 20
6.3105634196
 10
4.9181905523
 20
6.3234264958
 10
4.9269204836
 20
6.3373228931
 10
4.9347875167
 20
6.3522151494
 10
4.9381828134
 20
6.3595517244
  0
SPLINE
  5
2DE
330
1F
100
AcDbEntity
  8
0
  6
Continuous
 62
     7
370
     0
100
AcDbSpline
210
0.0
220
0.0
230
1.0
 70
     8
 71
     3
 72
     9
 73
     5
 74
     0
 42
0.00000001
 43
0.00000001
 40
0.0
 40
0.0
 40
0.0
 40
0.0
 40
0.4999994377870624
 40
1.0
 40
1.0
 40
1.0
 40
1.0
 10
4.927402418408041
 20
7.220003252201426
 30
0.0
 10
4.928771818729143
 20
7.21920610481081
 30
0.0
 10
4.931510622450928
 20
7.217611808236909
 30
0.0
 10
4.934136946149262
 20
7.215882581617983
 30
0.0
 10
4.935450109474981
 20
7.215017967336326
 30
0.0
  0
ARC
  5
2DF
330
1F
100
AcDbEntity
  8
0
  6
Continuous
 62
     7
370
     0
100
AcDbCircle
 10
4.957131371
 20
7.2454125945
 30
0.0
 40
0.0373351102737843
100
AcDbArc
 50
234.4987697632
 51
248.0945428276
  0
ARC
  5
2E0
330
1F
100
AcDbEntity
  8
0
  6
Continuous
 62
     7
370
     0
100
AcDbCircle
 10
4.9447897914
 20
7.2150534404
 30
0.0
 40
0.0045652072520261
100
AcDbArc
 50
249.6541397636
 51
296.2454644826
  0
SPLINE
  5
2E1
330
1F
100
AcDbEntity
  8
0
  6
Continuous
 62
     7
370
     0
100
AcDbSpline
210
0.0
220
0.0
230
1.0
 70
     8
 71
     3
 72
    13
 73
     9
 74
     0
 42
0.00000001
 43
0.00000001
 40
0.0
 40
0.0
 40
0.0
 40
0.0
 40
0.1250915069581896
 40
0.2499455687839076
 40
0.3709820856993915
 40
0.5001127109820147
 40
0.7496528854788963
 40
1.0
 40
1.0
 40
1.0
 40
1.0
 10
4.946808606822987
 20
7.210958870621913
 30
0.0
 10
4.94707665771443
 20
7.211141700289438
 30
0.0
 10
4.947612250690756
 20
7.211507012582421
 30
0.0
 10
4.948038919108126
 20
7.212297663755026
 30
0.0
 10
4.948155647250993
 20
7.213188243133765
 30
0.0
 10
4.947926517206732
 20
7.214426798460669
 30
0.0
 10
4.947033599329992
 20
7.21595133566259
 30
0.0
 10
4.945989849715438
 20
7.217005706304485
 30
0.0
 10
4.945467132474918
 20
7.217533742631139
 30
0.0
  0
ARC
  5
2E2
330
1F
100
AcDbEntity
  8
0
  6
Continuous
 62
     7
370
     0
100
AcDbCircle
 10
4.9350837794
 20
7.2089455982
 30
0.0
 40
0.0134748004586054
100
AcDbArc
 50
39.5943901671
 51
114.6810154812
  0
LINE
  5
2E3
330
1F
100
AcDbEntity
  8
0
  6
Continuous
 62
     7
370
     0
100
AcDbLine
 10
4.9294571605
 20
7.2211894296
 30
0.0
 11
4.9274024184
 21
7.2200032522
 31
0.0
  0
SPLINE
  5
2E4
330
1F
100
AcDbEntity
  8
0
  6
Continuous
 62
     7
370
     0
100
AcDbSpline
210
0.0
220
0.0
230
1.0
 70
    24
 71
     1
 72
     4
 73
     2
 74
     0
 42
0.00000001
 43
0.00000001
 40
0.0
 40
0.0
 40
1.0
 40
1.0
 10
5.163695694591377
 20
7.106632340638417
 30
0.0
 10
5.188423638330088
 20
7.111178186546433
 30
0.0
  0
ARC
  5
2E5
330
1F
100
AcDbEntity
  8
0
  6
Continuous
 62
     7
370
     0
100
AcDbCircle
 10
4.3309727603
 20
6.5481529187
 30
0.0
 40
1.025777490699913
100
AcDbArc
 50
33.2899775518
 51
34.2514921151
  0
SPLINE
  5
2E6
330
1F
100
AcDbEntity
  8
0
  6
Continuous
 62
     7
370
     0
100
AcDbSpline
210
0.0
220
0.0
230
1.0
 70
    24
 71
     1
 72
     4
 73
     2
 74
     0
 42
0.00000001
 43
0.00000001
 40
0.0
 40
0.0
 40
1.0
 40
1.0
 10
5.178854884171447
 20
7.125487626202523
 30
0.0
 10
5.163695694591377
 20
7.106632340638417
 30
0.0
  0
ARC
  5
2E7
330
1F
100
AcDbEntity
  8
0
  6
Continuous
 62
     7
370
     0
100
AcDbCircle
 10
4.3079176633
 20
6.5341412717
 30
0.0
 40
1.037494438427117
100
AcDbArc
 50
28.3936651154
 51
28.9500971636
  0
SPLINE
  5
2E8
330
1F
100
AcDbEntity
  8
0
  6
Continuous
 62
     7
370
     0
100
AcDbSpline
210
0.0
220
0.0
230
1.0
 70
     8
 71
     3
 72
    13
 73
     9
 74
     0
 42
0.00000001
 43
0.00000001
 40
0.0
 40
0.0
 40
0.0
 40
0.0
 40
0.2505627277008785
 40
0.5000471093107469
 40
0.6243230553559651
 40
0.7497534526002824
 40
0.8747558534753499
 40
1.0
 40
1.0
 40
1.0
 40
1.0
 10
5.215768487167505
 20
7.036338037223395
 30
0.0
 10
5.215195626617932
 20
7.037314337235024
 30
0.0
 10
5.214052370937088
 20
7.039262735558732
 30
0.0
 10
5.212204388561807
 20
7.041460148136741
 30
0.0
 10
5.210329513780902
 20
7.042519442757814
 30
0.0
 10
5.208844707119611
 20
7.042775845402456
 30
0.0
 10
5.207418063639212
 20
7.042583800604992
 30
0.0
 10
5.20659037676737
 20
7.042161614993262
 30
0.0
 10
5.20617613354631
 20
7.041950318265432
 30
0.0
  0
SPLINE
  5
2E9
330
1F
100
AcDbEntity
  8
0
  6
Continuous
 62
     7
370
     0
100
AcDbSpline
210
0.0
220
0.0
230
1.0
 70
     8
 71
     3
 72
    13
 73
     9
 74
     0
 42
0.00000001
 43
0.00000001
 40
0.0
 40
0.0
 40
0.0
 40
0.0
 40
0.1251815832451166
 40
0.2501778431338071
 40
0.3742188627213184
 40
0.499876926969771
 40
0.749475985693718
 40
1.0
 40
1.0
 40
1.0
 40
1.0
 10
5.20617613354631
 20
7.041950318265432
 30
0.0
 10
5.205797925827067
 20
7.041702275666935
 30
0.0
 10
5.205042070301008
 20
7.041206557681202
 30
0.0
 10
5.204227444968069
 20
7.040052899072241
 30
0.0
 10
5.203745591749738
 20
7.038649848737663
 30
0.0
 10
5.203740193980399
 20
7.036530956886861
 30
0.0
 10
5.20462368505894
 20
7.033876176335241
 30
0.0
 10
5.205638767462877
 20
7.031928214022668
 30
0.0
 10
5.206147247339931
 20
7.030952431531158
 30
0.0
  0
ARC
  5
2EA
330
1F
100
AcDbEntity
  8
0
  6
Continuous
 62
     7
370
     0
100
AcDbCircle
 10
4.2983586236
 20
6.528623232
 30
0.0
 40
1.037504125356322
100
AcDbArc
 50
28.3936668623
 51
28.9581595756
  0
LINE
  5
2EB
330
1F
100
AcDbEntity
  8
0
  6
Continuous
 62
     7
370
     0
100
AcDbLine
 10
5.2110521856
 20
7.0219844303
 30
0.0
 11
5.2206027187
 21
7.0274978357
 31
0.0
  0
ARC
  5
2EC
330
1F
100
AcDbEntity
  8
0
  6
Continuous
 62
     7
370
     0
100
AcDbCircle
 10
4.3298242477
 20
6.5467919397
 30
0.0
 40
1.037646044716038
100
AcDbArc
 50
28.393695398
 51
29.0799831704
  0
SPLINE
  5
2ED
330
1F
100
AcDbEntity
  8
0
  6
Continuous
 62
     7
370
     0
100
AcDbSpline
210
0.0
220
0.0
230
1.0
 70
     8
 71
     3
 72
    13
 73
     9
 74
     0
 42
0.00000001
 43
0.00000001
 40
0.0
 40
0.0
 40
0.0
 40
0.0
 40
0.2504598900563214
 40
0.4998947466957851
 40
0.6257393024757527
 40
0.7498233176509337
 40
0.8747960687619063
 40
1.0
 40
1.0
 40
1.0
 40
1.0
 10
5.236666785809284
 20
7.051119140213935
 30
0.0
 10
5.235992348062946
 20
7.052259134407353
 30
0.0
 10
5.234646232777613
 20
7.054534457248169
 30
0.0
 10
5.232437359847532
 20
7.057064987314413
 30
0.0
 10
5.230248017013223
 20
7.058310016573913
 30
0.0
 10
5.228512716530112
 20
7.058686463096626
 30
0.0
 10
5.226823049892402
 20
7.05854724899458
 30
0.0
 10
5.225847862597586
 20
7.058064624378896
 30
0.0
 10
5.225359818380763
 20
7.057823089082207
 30
0.0
  0
SPLINE
  5
2EE
330
1F
100
AcDbEntity
  8
0
  6
Continuous
 62
     7
370
     0
100
AcDbSpline
210
0.0
220
0.0
230
1.0
 70
     8
 71
     3
 72
    13
 73
     9
 74
     0
 42
0.00000001
 43
0.00000001
 40
0.0
 40
0.0
 40
0.0
 40
0.0
 40
0.1295610237616969
 40
0.249677438941317
 40
0.3752077547211172
 40
0.4998009282122739
 40
0.7495742841113678
 40
0.9999999999999999
 40
0.9999999999999999
 40
0.9999999999999999
 40
0.9999999999999999
 10
5.225359818380763
 20
7.057823089082207
 30
0.0
 10
5.224903476380202
 20
7.05750907387058
 30
0.0
 10
5.224024058337081
 20
7.056903934210897
 30
0.0
 10
5.223130812169753
 20
7.055471410903099
 30
0.0
 10
5.222679331594692
 20
7.053779489767327
 30
0.0
 10
5.222768221025925
 20
7.051269761080067
 30
0.0
 10
5.223858931302157
 20
7.048162094641286
 30
0.0
 10
5.225066187613812
 20
7.045865008032094
 30
0.0
 10
5.225670603021914
 20
7.044714966796493
 30
0.0
  0
ARC
  5
2EF
330
1F
100
AcDbEntity
  8
0
  6
Continuous
 62
     7
370
     0
100
AcDbCircle
 10
4.3188070705
 20
6.5404317744
 30
0.0
 40
1.037643004497591
100
AcDbArc
 50
28.3936947277
 51
29.0772960509
  0
LINE
  5
2F0
330
1F
100
AcDbEntity
  8
0
  6
Continuous
 62
     7
370
     0
100
AcDbLine
 10
5.2316225647
 20
7.0338594574
 30
0.0
 11
5.2426424106
 21
7.040221079
 31
0.0
  0
ARC
  5
2F1
330
1F
100
AcDbEntity
  8
0
  6
Continuous
 62
     7
370
     0
100
AcDbCircle
 10
4.3380697962
 20
6.5486804574
 30
0.0
 40
1.004011438537045
100
AcDbArc
 50
23.5288766441
 51
24.097612064
  0
SPLINE
  5
2F2
330
1F
100
AcDbEntity
  8
0
  6
Continuous
 62
     7
370
     0
100
AcDbSpline
210
0.0
220
0.0
230
1.0
 70
     8
 71
     3
 72
    13
 73
     9
 74
     0
 42
0.00000001
 43
0.00000001
 40
0.0
 40
0.0
 40
0.0
 40
0.0
 40
0.2505627277008118
 40
0.5000471093106462
 40
0.6243230553582791
 40
0.7497534526003526
 40
0.8747558534753787
 40
1.0
 40
1.0
 40
1.0
 40
1.0
 10
5.254582837196143
 20
6.958610712878575
 30
0.0
 10
5.254100278166015
 20
6.95961964508377
 30
0.0
 10
5.25313723689367
 20
6.961633167355527
 30
0.0
 10
5.251513372941143
 20
6.963914774022741
 30
0.0
 10
5.249785112069474
 20
6.965030127797585
 30
0.0
 10
5.248376403006327
 20
6.965315938447438
 30
0.0
 10
5.246992872259384
 20
6.965140657567573
 30
0.0
 10
5.246168981080101
 20
6.964719952029395
 30
0.0
 10
5.245756637538697
 20
6.964509396053238
 30
0.0
  0
SPLINE
  5
2F3
330
1F
100
AcDbEntity
  8
0
  6
Continuous
 62
     7
370
     0
100
AcDbSpline
210
0.0
220
0.0
230
1.0
 70
     8
 71
     3
 72
    13
 73
     9
 74
     0
 42
0.00000001
 43
0.00000001
 40
0.0
 40
0.0
 40
0.0
 40
0.0
 40
0.1251815832449021
 40
0.2501778431333772
 40
0.3742188627028659
 40
0.4998769269706986
 40
0.7494759856942136
 40
1.0
 40
1.0
 40
1.0
 40
1.0
 10
5.245756637538697
 20
6.964509396053238
 30
0.0
 10
5.245376402835299
 20
6.964260562838996
 30
0.0
 10
5.244616496341747
 20
6.963763264792225
 30
0.0
 10
5.243755216969611
 20
6.962591469751737
 30
0.0
 10
5.243196485282637
 20
6.96115872656464
 30
0.0
 10
5.243046232191835
 20
6.958984475126397
 30
0.0
 10
5.243712423999283
 20
6.956248078211097
 30
0.0
 10
5.244552464581212
 20
6.954236792304438
 30
0.0
 10
5.244973261681193
 20
6.953229289458786
 30
0.0
  0
ARC
  5
2F4
330
1F
100
AcDbEntity
  8
0
  6
Continuous
 62
     7
370
     0
100
AcDbCircle
 10
4.3284781262
 20
6.5431489772
 30
0.0
 40
1.004056370822155
100
AcDbArc
 50
23.5288851906
 51
24.1058458866
  0
LINE
  5
2F5
330
1F
100
AcDbEntity
  8
0
  6
Continuous
 62
     7
370
     0
100
AcDbLine
 10
5.2490561779
 20
6.9439796729
 30
0.0
 11
5.258606711
 21
6.9494930783
 31
0.0
  0
ARC
  5
2F6
330
1F
100
AcDbEntity
  8
0
  6
Continuous
 62
     7
370
     0
100
AcDbCircle
 10
4.3594505679
 20
6.561113898
 30
0.0
 40
1.004731267870435
100
AcDbArc
 50
23.5290283288
 51
24.2302240109
  0
SPLINE
  5
2F7
330
1F
100
AcDbEntity
  8
0
  6
Continuous
 62
     7
370
     0
100
AcDbSpline
210
0.0
220
0.0
230
1.0
 70
     8
 71
     3
 72
    13
 73
     9
 74
     0
 42
0.00000001
 43
0.00000001
 40
0.0
 40
0.0
 40
0.0
 40
0.0
 40
0.2504598900567965
 40
0.4998947466967364
 40
0.6257393024633304
 40
0.7498233176504384
 40
0.8747960687616584
 40
1.0
 40
1.0
 40
1.0
 40
1.0
 10
5.275668780235297
 20
6.973459757783164
 30
0.0
 10
5.27509963097148
 20
6.974638651220036
 30
0.0
 10
5.273963661747012
 20
6.976991613348517
 30
0.0
 10
5.272014877536777
 20
6.979622610093796
 30
0.0
 10
5.269996414710846
 20
6.980934990529535
 30
0.0
 10
5.268354784272043
 20
6.98134881597166
 30
0.0
 10
5.266721872411838
 20
6.981232430293364
 30
0.0
 10
5.265752134276715
 20
6.980752005751444
 30
0.0
 10
5.265266817157434
 20
6.980511571508144
 30
0.0
  0
SPLINE
  5
2F8
330
1F
100
AcDbEntity
  8
0
  6
Continuous
 62
     7
370
     0
100
AcDbSpline
210
0.0
220
0.0
230
1.0
 70
     8
 71
     3
 72
    13
 73
     9
 74
     0
 42
0.00000001
 43
0.00000001
 40
0.0
 40
0.0
 40
0.0
 40
0.0
 40
0.1295610237636907
 40
0.2496774389592464
 40
0.375207754728173
 40
0.4998009282118206
 40
0.7495742841111513
 40
1.0
 40
1.0
 40
1.0
 40
1.0
 10
5.265266817157434
 20
6.980511571508144
 30
0.0
 10
5.264807044925471
 20
6.980196171138973
 30
0.0
 10
5.263921016473038
 20
6.979588362137981
 30
0.0
 10
5.262965535719096
 20
6.978130819542472
 30
0.0
 10
5.262416762291507
 20
6.976400110185597
 30
0.0
 10
5.262331177098438
 20
6.973821714712455
 30
0.0
 10
5.263166402313614
 20
6.970615517591744
 30
0.0
 10
5.264167513035756
 20
6.968242315280164
 30
0.0
 10
5.264668721221489
 20
6.967054166558291
 30
0.0
  0
ARC
  5
2F9
330
1F
100
AcDbEntity
  8
0
  6
Continuous
 62
     7
370
     0
100
AcDbCircle
 10
4.3484442719
 20
6.5547582419
 30
0.0
 40
1.004716463024897
100
AcDbArc
 50
23.5290248909
 51
24.227481263
  0
LINE
  5
2FA
330
1F
100
AcDbEntity
  8
0
  6
Continuous
 62
     7
370
     0
100
AcDbLine
 10
5.269626557
 20
6.9558547
 30
0.0
 11
5.2806464029
 21
6.9622163216
 31
0.0
  0
ARC
  5
2FB
330
1F
100
AcDbEntity
  8
0
  6
Continuous
 62
     7
370
     0
100
AcDbCircle
 10
4.3596210629
 20
6.5711146269
 30
0.0
 40
0.9755919973095827
100
AcDbArc
 50
38.1237209191
 51
38.7314544707
  0
SPLINE
  5
2FC
330
1F
100
AcDbEntity
  8
0
  6
Continuous
 62
     7
370
     0
100
AcDbSpline
210
0.0
220
0.0
230
1.0
 70
    24
 71
     1
 72
     4
 73
     2
 74
     0
 42
0.00000001
 43
0.00000001
 40
0.0
 40
0.0
 40
1.0
 40
1.0
 10
5.120667737779303
 20
7.181514253283746
 30
0.0
 10
5.115858476850702
 20
7.186135609034204
 30
0.0
  0
ARC
  5
2FD
330
1F
100
AcDbEntity
  8
0
  6
Continuous
 62
     7
370
     0
100
AcDbCircle
 10
5.1107073769
 20
7.1812724127
 30
0.0
 40
0.0070841025673688
100
AcDbArc
 50
43.3532421875
 51
116.6734274321
  0
SPLINE
  5
2FE
330
1F
100
AcDbEntity
  8
0
  6
Continuous
 62
     7
370
     0
100
AcDbSpline
210
0.0
220
0.0
230
1.0
 70
     8
 71
     3
 72
    12
 73
     8
 74
     0
 42
0.00000001
 43
0.00000001
 40
0.0
 40
0.0
 40
0.0
 40
0.0
 40
0.1254669244529521
 40
0.2506002708976628
 40
0.3754476425672622
 40
0.5006747216457291
 40
1.0
 40
1.0
 40
1.0
 40
1.0
 10
5.10752729050087
 20
7.187602622796303
 30
0.0
 10
5.107072310882566
 20
7.187299317550464
 30
0.0
 10
5.106163561296992
 20
7.186693513454255
 30
0.0
 10
5.10525364050314
 20
7.185367068891566
 30
0.0
 10
5.104892185204356
 20
7.183752016280711
 30
0.0
 10
5.105623336702418
 20
7.180233604937825
 30
0.0
 10
5.107710796452755
 20
7.177595775609245
 30
0.0
 10
5.109379706046139
 20
7.175486849354993
 30
0.0
  0
ARC
  5
2FF
330
1F
100
AcDbEntity
  8
0
  6
Continuous
 62
     7
370
     0
100
AcDbCircle
 10
4.3487426835
 20
6.5648648512
 30
0.0
 40
0.9754116591096176
100
AcDbArc
 50
38.1236826887
 51
38.7566996152
  0
LINE
  5
300
330
1F
100
AcDbEntity
  8
0
  6
Continuous
 62
     7
370
     0
100
AcDbLine
 10
5.1160794383
 20
7.1670460609
 30
0.0
 11
5.1270992843
 21
7.1734076826
 31
0.0
  0
SPLINE
  5
301
330
1F
100
AcDbEntity
  8
0
  6
Continuous
 62
     7
370
     0
100
AcDbSpline
210
0.0
220
0.0
230
1.0
 70
    24
 71
     1
 72
     4
 73
     2
 74
     0
 42
0.00000001
 43
0.00000001
 40
0.0
 40
0.0
 40
1.0
 40
1.0
 10
5.034426517515099
 20
7.264759288205449
 30
0.0
 10
5.066461152874242
 20
7.26102040408843
 30
0.0
  0
ARC
  5
302
330
1F
100
AcDbEntity
  8
0
  6
Continuous
 62
     7
370
     0
100
AcDbCircle
 10
4.4634229255
 20
6.6614710607
 30
0.0
 40
0.8503614048361543
100
AcDbArc
 50
44.8337769573
 51
46.1801377274
  0
LINE
  5
303
330
1F
100
AcDbEntity
  8
0
  6
Continuous
 62
     7
370
     0
100
AcDbLine
 10
5.0522074981
 20
7.2750240298
 30
0.0
 11
5.0344265175
 21
7.2647592882
 31
0.0
  0
SPLINE
  5
304
330
1F
100
AcDbEntity
  8
0
  6
Continuous
 62
     7
370
     0
100
AcDbSpline
210
0.0
220
0.0
230
1.0
 70
     8
 71
     3
 72
    16
 73
    12
 74
     0
 42
0.00000001
 43
0.00000001
 40
0.0
 40
0.0
 40
0.0
 40
0.0
 40
0.1814043439034985
 40
0.3425102031039921
 40
0.5005166786405706
 40
0.6281012479231065
 40
0.7515435373907754
 40
0.8128968252548794
 40
0.8750099158366536
 40
0.937768755098586
 40
1.0
 40
1.0
 40
1.0
 40
1.0
 10
5.007018211268369
 20
7.307403363929402
 30
0.0
 10
5.008329912157111
 20
7.308183231031904
 30
0.0
 10
5.010806539387461
 20
7.309655700951447
 30
0.0
 10
5.014218982058824
 20
7.311973147680673
 30
0.0
 10
5.016968825432338
 20
7.314247295151144
 30
0.0
 10
5.019058687868665
 20
7.316591897892251
 30
0.0
 10
5.019861031975339
 20
7.318723915429438
 30
0.0
 10
5.019838589230019
 20
7.320514086596051
 30
0.0
 10
5.019372202638676
 20
7.321871459310914
 30
0.0
 10
5.018513860138974
 20
7.323178934445123
 30
0.0
 10
5.017658538218772
 20
7.323937305757208
 30
0.0
 10
5.017232682453958
 20
7.324314890836573
 30
0.0
  0
SPLINE
  5
305
330
1F
100
AcDbEntity
  8
0
  6
Continuous
 62
     7
370
     0
100
AcDbSpline
210
0.0
220
0.0
230
1.0
 70
     8
 71
     3
 72
    13
 73
     9
 74
     0
 42
0.00000001
 43
0.00000001
 40
0.0
 40
0.0
 40
0.0
 40
0.0
 40
0.1246091732983818
 40
0.1867338934544127
 40
0.2497493975585231
 40
0.3745255218344969
 40
0.4996502570872321
 40
1.0
 40
1.0
 40
1.0
 40
1.0
 10
5.017232682453958
 20
7.324314890836573
 30
0.0
 10
5.016253660950113
 20
7.324988929020704
 30
0.0
 10
5.014786541858082
 20
7.325999013359827
 30
0.0
 10
5.012332428038156
 20
7.326754425792246
 30
0.0
 10
5.009800094155546
 20
7.327178260986154
 30
0.0
 10
5.006638945899309
 20
7.327003963890818
 30
0.0
 10
4.999810636295381
 20
7.325320916055264
 30
0.0
 10
4.995251217790958
 20
7.322672016060082
 30
0.0
 10
4.991603900504391
 20
7.320553022435467
 30
0.0
  0
SPLINE
  5
306
330
1F
100
AcDbEntity
  8
0
  6
Continuous
 62
     7
370
     0
100
AcDbSpline
210
0.0
220
0.0
230
1.0
 70
     8
 71
     3
 72
    17
 73
    13
 74
     0
 42
0.00000001
 43
0.00000001
 40
0.0
 40
0.0
 40
0.0
 40
0.0
 40
0.1817241832880468
 40
0.3427751466391479
 40
0.5004247573759514
 40
0.5684883448940571
 40
0.6255188445358272
 40
0.7501316822623719
 40
0.8123103604825023
 40
0.8750483850463212
 40
0.9374912846493955
 40
1.0
 40
1.0
 40
1.0
 40
1.0
 10
4.991603900504391
 20
7.320553022435467
 30
0.0
 10
4.990258121670734
 20
7.319754916620567
 30
0.0
 10
4.987719661853752
 20
7.318249498724134
 30
0.0
 10
4.984218070072159
 20
7.315898383138855
 30
0.0
 10
4.981753565689805
 20
7.313914949206408
 30
0.0
 10
4.980206966429852
 20
7.312322793355611
 30
0.0
 10
4.979039493641114
 20
7.310822438802346
 30
0.0
 10
4.978419054581786
 20
7.309133594631763
 30
0.0
 10
4.978528693446836
 20
7.307304131224239
 30
0.0
 10
4.979072246050866
 20
7.305930779879928
 30
0.0
 10
4.980002320938492
 20
7.304616178994535
 30
0.0
 10
4.980883585084118
 20
7.303845666830719
 30
0.0
 10
4.981324449251003
 20
7.303460207822925
 30
0.0
  0
SPLINE
  5
307
330
1F
100
AcDbEntity
  8
0
  6
Continuous
 62
     7
370
     0
100
AcDbSpline
210
0.0
220
0.0
230
1.0
 70
     8
 71
     3
 72
    13
 73
     9
 74
     0
 42
0.00000001
 43
0.00000001
 40
0.0
 40
0.0
 40
0.0
 40
0.0
 40
0.1245513980942166
 40
0.1859899457716029
 40
0.2495609023917137
 40
0.3742835246961735
 40
0.4994689293691558
 40
1.0
 40
1.0
 40
1.0
 40
1.0
 10
4.981324449251003
 20
7.303460207822925
 30
0.0
 10
4.982304323601532
 20
7.302769949825234
 30
0.0
 10
4.983767549065933
 20
7.301739202282266
 30
0.0
 10
4.98624409096672
 20
7.300951720356666
 30
0.0
 10
4.988803458589035
 20
7.300553385351739
 30
0.0
 10
4.99196997022319
 20
7.300782898986019
 30
0.0
 10
4.998642801521851
 20
7.302721160669176
 30
0.0
 10
5.003295980909218
 20
7.305322481960592
 30
0.0
 10
5.007018211268369
 20
7.307403363929402
 30
0.0
  0
ARC
  5
308
330
1F
100
AcDbEntity
  8
0
  6
Continuous
 62
     7
370
     0
100
AcDbCircle
 10
4.7330119408
 20
7.3503447878
 30
0.0
 40
0.0174855538838298
100
AcDbArc
 50
249.6027753242
 51
277.800810237
  0
SPLINE
  5
309
330
1F
100
AcDbEntity
  8
0
  6
Continuous
 62
     7
370
     0
100
AcDbSpline
210
0.0
220
0.0
230
1.0
 70
     8
 71
     3
 72
     9
 73
     5
 74
     0
 42
0.00000001
 43
0.00000001
 40
0.0
 40
0.0
 40
0.0
 40
0.0
 40
0.4990303792096861
 40
0.9999999999999999
 40
0.9999999999999999
 40
0.9999999999999999
 40
0.9999999999999999
 10
4.735385247772932
 20
7.333021046577651
 30
0.0
 10
4.736584330783191
 20
7.333243428635631
 30
0.0
 10
4.738987156463181
 20
7.333689056932516
 30
0.0
 10
4.740958736795814
 20
7.334579669241156
 30
0.0
 10
4.74194643864741
 20
7.335025838951686
 30
0.0
  0
ARC
  5
30A
330
1F
100
AcDbEntity
  8
0
  6
Continuous
 62
     7
370
     0
100
AcDbCircle
 10
4.5684829317
 20
6.9256595265
 30
0.0
 40
0.4446013563247019
100
AcDbArc
 50
67.0358466371
 51
69.1498102922
  0
SPLINE
  5
30B
330
1F
100
AcDbEntity
  8
0
  6
Continuous
 62
     7
370
     0
100
AcDbSpline
210
0.0
220
0.0
230
1.0
 70
     8
 71
     3
 72
    14
 73
    10
 74
     0
 42
0.00000001
 43
0.00000001
 40
0.0
 40
0.0
 40
0.0
 40
0.0
 40
0.2498680581560369
 40
0.3817391960257743
 40
0.4998759012704113
 40
0.6215720652078559
 40
0.7497806842473668
 40
0.8748255772342786
 40
1.0
 40
1.0
 40
1.0
 40
1.0
 10
4.726727985371265
 20
7.341145830728177
 30
0.0
 10
4.725907333492049
 20
7.34051969427019
 30
0.0
 10
4.724653571843199
 20
7.339563106101864
 30
0.0
 10
4.72365517649164
 20
7.338203622375419
 30
0.0
 10
4.723373832712089
 20
7.337180845232109
 30
0.0
 10
4.723646220906026
 20
7.336219315394927
 30
0.0
 10
4.724391274162466
 20
7.335343460853466
 30
0.0
 10
4.725497348939823
 20
7.334572296408637
 30
0.0
 10
4.726444125864359
 20
7.334161234949236
 30
0.0
 10
4.726917759383259
 20
7.333955597823472
 30
0.0
  0
SPLINE
  5
30C
330
1F
100
AcDbEntity
  8
0
  6
Continuous
 62
     7
370
     0
100
AcDbSpline
210
0.0
220
0.0
230
1.0
 70
     8
 71
     3
 72
    16
 73
    12
 74
     0
 42
0.00000001
 43
0.00000001
 40
0.0
 40
0.0
 40
0.0
 40
0.0
 40
0.1814043439004772
 40
0.3425102031037979
 40
0.5005166786405482
 40
0.6281012479202616
 40
0.7515435373869491
 40
0.8128968252553567
 40
0.8750099158369986
 40
0.9377687550998571
 40
0.9999999999999999
 40
0.9999999999999999
 40
0.9999999999999999
 40
0.9999999999999999
 10
4.9548352359762
 20
7.347273453079945
 30
0.0
 10
4.956146610765227
 20
7.348051180341781
 30
0.0
 10
4.958622622285554
 20
7.349519610020381
 30
0.0
 10
4.962030065971733
 20
7.351804201038935
 30
0.0
 10
4.964770080014556
 20
7.354013340255205
 30
0.0
 10
4.96684377677213
 20
7.356249995702728
 30
0.0
 10
4.967622753086532
 20
7.358223198062456
 30
0.0
 10
4.967575562952525
 20
7.359840974417598
 30
0.0
 10
4.967087200539376
 20
7.361042271612598
 30
0.0
 10
4.966204905383062
 20
7.362176099736349
 30
0.0
 10
4.96533336889892
 20
7.362813205933131
 30
0.0
 10
4.964899440073707
 20
7.363130414390305
 30
0.0
  0
SPLINE
  5
30D
330
1F
100
AcDbEntity
  8
0
  6
Continuous
 62
     7
370
     0
100
AcDbSpline
210
0.0
220
0.0
230
1.0
 70
     8
 71
     3
 72
    13
 73
     9
 74
     0
 42
0.00000001
 43
0.00000001
 40
0.0
 40
0.0
 40
0.0
 40
0.0
 40
0.1246091732983871
 40
0.1867338934547206
 40
0.2497493975585075
 40
0.3745255218344856
 40
0.4996502570872196
 40
1.0
 40
1.0
 40
1.0
 40
1.0
 10
4.964899440073707
 20
7.363130414390305
 30
0.0
 10
4.963904658024956
 20
7.363683981309877
 30
0.0
 10
4.962413920865039
 20
7.364513532645808
 30
0.0
 10
4.959933298181602
 20
7.365055995601382
 30
0.0
 10
4.9573783157326
 20
7.365294378724103
 30
0.0
 10
4.954197859613184
 20
7.364956928135785
 30
0.0
 10
4.947343610462614
 20
7.363049831765073
 30
0.0
 10
4.942784463219324
 20
7.360402473478119
 30
0.0
 10
4.939137362928721
 20
7.358284713146539
 30
0.0
  0
SPLINE
  5
30E
330
1F
100
AcDbEntity
  8
0
  6
Continuous
 62
     7
370
     0
100
AcDbSpline
210
0.0
220
0.0
230
1.0
 70
     8
 71
     3
 72
    17
 73
    13
 74
     0
 42
0.00000001
 43
0.00000001
 40
0.0
 40
0.0
 40
0.0
 40
0.0
 40
0.1817241832855314
 40
0.3427751466518886
 40
0.500424757376019
 40
0.568488344903955
 40
0.6255188445358296
 40
0.7501316822623796
 40
0.812310360481273
 40
0.875048385046318
 40
0.9374912846493934
 40
1.0
 40
1.0
 40
1.0
 40
1.0
 10
4.939137362928721
 20
7.358284713146539
 30
0.0
 10
4.937791823089842
 20
7.357488717705446
 30
0.0
 10
4.935253814073876
 20
7.355987280477216
 30
0.0
 10
4.931755948701305
 20
7.353668960930139
 30
0.0
 10
4.929297814532847
 20
7.351741251302931
 30
0.0
 10
4.927759244042021
 20
7.350218462222966
 30
0.0
 10
4.926601325183304
 20
7.348799972096782
 30
0.0
 10
4.925996436976638
 20
7.347242682068289
 30
0.0
 10
4.926128774210024
 20
7.345599418114909
 30
0.0
 10
4.926692953512394
 20
7.344391409219758
 30
0.0
 10
4.927646106334607
 20
7.343257555846754
 30
0.0
 10
4.928543758422048
 20
7.342611218801713
 30
0.0
 10
4.928992820875851
 20
7.342287880056682
 30
0.0
  0
SPLINE
  5
30F
330
1F
100
AcDbEntity
  8
0
  6
Continuous
 62
     7
370
     0
100
AcDbSpline
210
0.0
220
0.0
230
1.0
 70
     8
 71
     3
 72
    13
 73
     9
 74
     0
 42
0.00000001
 43
0.00000001
 40
0.0
 40
0.0
 40
0.0
 40
0.0
 40
0.1245513980942205
 40
0.1859899457675472
 40
0.2495609023916893
 40
0.3742835246961512
 40
0.4994689293691404
 40
1.0
 40
1.0
 40
1.0
 40
1.0
 10
4.928992820875851
 20
7.342287880056682
 30
0.0
 10
4.929989078563905
 20
7.341719063040245
 30
0.0
 10
4.931476768916696
 20
7.340869660723952
 30
0.0
 10
4.933983368840515
 20
7.34029475235911
 30
0.0
 10
4.936568520469012
 20
7.340075700858744
 30
0.0
 10
4.93975748186179
 20
7.340457226638667
 30
0.0
 10
4.946457531281546
 20
7.342576954509977
 30
0.0
 10
4.95111198568777
 20
7.345186217937078
 30
0.0
 10
4.9548352359762
 20
7.347273453079945
 30
0.0
  0
SPLINE
  5
310
330
1F
100
AcDbEntity
  8
0
  6
Continuous
 62
     7
370
     0
100
AcDbSpline
210
0.0
220
0.0
230
1.0
 70
     8
 71
     3
 72
    13
 73
     9
 74
     0
 42
0.00000001
 43
0.00000001
 40
0.0
 40
0.0
 40
0.0
 40
0.0
 40
0.2503907102768301
 40
0.499949567815627
 40
0.6253606354991381
 40
0.7501944146347975
 40
0.8700210567435027
 40
1.0
 40
1.0
 40
1.0
 40
1.0
 10
4.681439409517925
 20
7.358817419994469
 30
0.0
 10
4.680326882494359
 20
7.358145083731383
 30
0.0
 10
4.678105524505481
 20
7.356802644853421
 30
0.0
 10
4.676163209240535
 20
7.354984671013961
 30
0.0
 10
4.675601889005876
 20
7.353591244722434
 30
0.0
 10
4.675794669607916
 20
7.352654789054974
 30
0.0
 10
4.676615024332409
 20
7.351861819125913
 30
0.0
 10
4.677636904885071
 20
7.351531070189647
 30
0.0
 10
4.678168610187718
 20
7.351358974769299
 30
0.0
  0
ARC
  5
311
330
1F
100
AcDbEntity
  8
0
  6
Continuous
 62
     7
370
     0
100
AcDbCircle
 10
4.6806036842
 20
7.3752964272
 30
0.0
 40
0.0240609894965102
100
AcDbArc
 50
264.1914801724
 51
305.7224719183
  0
SPLINE
  5
312
330
1F
100
AcDbEntity
  8
0
  6
Continuous
 62
     7
370
     0
100
AcDbSpline
210
0.0
220
0.0
230
1.0
 70
     8
 71
     3
 72
    13
 73
     9
 74
     0
 42
0.00000001
 43
0.00000001
 40
0.0
 40
0.0
 40
0.0
 40
0.0
 40
0.2504308113691529
 40
0.5001650640267862
 40
0.6247953729367122
 40
0.7514764919566795
 40
0.8754581573948743
 40
1.0
 40
1.0
 40
1.0
 40
1.0
 10
4.694651925653164
 20
7.355762402359
 30
0.0
 10
4.695740665150884
 20
7.356420146469079
 30
0.0
 10
4.697915115880843
 20
7.357733805212317
 30
0.0
 10
4.699986257993986
 20
7.359523088668682
 30
0.0
 10
4.70070889241882
 20
7.360944132098993
 30
0.0
 10
4.700704512780496
 20
7.361937512728206
 30
0.0
 10
4.700051439825566
 20
7.362794453588227
 30
0.0
 10
4.699051912463107
 20
7.363119217099232
 30
0.0
 10
4.698551022304125
 20
7.363281964866596
 30
0.0
  0
ARC
  5
313
330
1F
100
AcDbEntity
  8
0
  6
Continuous
 62
     7
370
     0
100
AcDbCircle
 10
4.6958261092
 20
7.3387011683
 30
0.0
 40
0.0247313709444899
100
AcDbArc
 50
83.6742833462
 51
125.5715143018
  0
SPLINE
  5
314
330
1F
100
AcDbEntity
  8
0
  6
Continuous
 62
     7
370
     0
100
AcDbSpline
210
0.0
220
0.0
230
1.0
 70
     8
 71
     3
 72
    16
 73
    12
 74
     0
 42
0.00000001
 43
0.00000001
 40
0.0
 40
0.0
 40
0.0
 40
0.0
 40
0.181404343901437
 40
0.3425102031039604
 40
0.5005166786405815
 40
0.6281012479222887
 40
0.7515435373922528
 40
0.8128968252563047
 40
0.8750099158377234
 40
0.9377687550985596
 40
0.9999999999999999
 40
0.9999999999999999
 40
0.9999999999999999
 40
0.9999999999999999
 10
4.823351989515658
 20
7.41438486057924
 30
0.0
 10
4.82466365835604
 20
7.415156552060126
 30
0.0
 10
4.827140225075789
 20
7.416613585558704
 30
0.0
 10
4.830552201098801
 20
7.418805507770597
 30
0.0
 10
4.833301316160903
 20
7.420831340631792
 30
0.0
 10
4.835390462908546
 20
7.422763734310614
 30
0.0
 10
4.836193068614192
 20
7.424289621485062
 30
0.0
 10
4.836172866009391
 20
7.425422316001296
 30
0.0
 10
4.835709864110039
 20
7.426184784199893
 30
0.0
 10
4.834856860159275
 20
7.426830765608837
 30
0.0
 10
4.834006887637571
 20
7.427127586640188
 30
0.0
 10
4.833583695281856
 20
7.427275370701761
 30
0.0
  0
ARC
  5
315
330
1F
100
AcDbEntity
  8
0
  6
Continuous
 62
     7
370
     0
100
AcDbCircle
 10
4.8295971774
 20
7.3948494325
 30
0.0
 40
0.0326700748858274
100
AcDbArc
 50
82.9910993431
 51
131.2892109705
  0
SPLINE
  5
316
330
1F
100
AcDbEntity
  8
0
  6
Continuous
 62
     7
370
     0
100
AcDbSpline
210
0.0
220
0.0
230
1.0
 70
     8
 71
     3
 72
    17
 73
    13
 74
     0
 42
0.00000001
 43
0.00000001
 40
0.0
 40
0.0
 40
0.0
 40
0.0
 40
0.1817241832747933
 40
0.3427751466467311
 40
0.5004247573761144
 40
0.5684883449032944
 40
0.6255188445359312
 40
0.7501316822624949
 40
0.8123103604828158
 40
0.8750483850463037
 40
0.9374912846493881
 40
1.0
 40
1.0
 40
1.0
 40
1.0
 10
4.808039495599643
 20
7.419397347832812
 30
0.0
 10
4.806693487077689
 20
7.418607240749301
 30
0.0
 10
4.804154594013562
 20
7.417116910367636
 30
0.0
 10
4.800649471802346
 20
7.414890107813561
 30
0.0
 10
4.798179090921272
 20
7.413117926316285
 30
0.0
 10
4.796625489577373
 20
7.411788818935221
 30
0.0
 10
4.795450001866181
 20
7.41059896691755
 30
0.0
 10
4.794817309008074
 20
7.409409246826213
 30
0.0
 10
4.794911779964202
 20
7.408286770505947
 30
0.0
 10
4.795443352972678
 20
7.407541580100004
 30
0.0
 10
4.7963620066276
 20
7.406914078427149
 30
0.0
 10
4.797237110707177
 20
7.406616024463576
 30
0.0
 10
4.797674893218693
 20
7.406466918984825
 30
0.0
  0
ARC
  5
317
330
1F
100
AcDbEntity
  8
0
  6
Continuous
 62
     7
370
     0
100
AcDbCircle
 10
4.8018087127
 20
7.4386544583
 30
0.0
 40
0.0324519052308785
100
AcDbArc
 50
262.6816109106
 51
311.5943487384
  0
ARC
  5
318
330
1F
100
AcDbEntity
  8
0
  6
Continuous
 62
     7
370
     0
100
AcDbCircle
 10
4.6008856943
 20
7.0958423562
 30
0.0
 40
0.2647101147018691
100
AcDbArc
 50
89.2415523001
 51
90.0144626619
  0
ARC
  5
319
330
1F
100
AcDbEntity
  8
0
  6
Continuous
 62
     7
370
     0
100
AcDbCircle
 10
4.6007920616
 20
7.3331275418
 30
0.0
 40
0.0274249337678275
100
AcDbArc
 50
89.9439798478
 51
120.0403925577
  0
SPLINE
  5
31A
330
1F
100
AcDbEntity
  8
0
  6
Continuous
 62
     7
370
     0
100
AcDbSpline
210
0.0
220
0.0
230
1.0
 70
     8
 71
     3
 72
    13
 73
     9
 74
     0
 42
0.00000001
 43
0.00000001
 40
0.0
 40
0.0
 40
0.0
 40
0.0
 40
0.2485126094932285
 40
0.3782641238666113
 40
0.4992248968151564
 40
0.5972187856540174
 40
0.7114003712347362
 40
1.0
 40
1.0
 40
1.0
 40
1.0
 10
4.587062854242495
 20
7.356868558171644
 30
0.0
 10
4.586189175044941
 20
7.356315564475544
 30
0.0
 10
4.58485933710683
 20
7.355473845914926
 30
0.0
 10
4.584074306685272
 20
7.354533997613545
 30
0.0
 10
4.583961780960274
 20
7.353999869189201
 30
0.0
 10
4.584378454137348
 20
7.353674826782695
 30
0.0
 10
4.585476574424826
 20
7.353385715003253
 30
0.0
 10
4.586803934334355
 20
7.353360155441187
 30
0.0
 10
4.587755010411104
 20
7.353341841577827
 30
0.0
  0
ARC
  5
31B
330
1F
100
AcDbEntity
  8
0
  6
Continuous
 62
     7
370
     0
100
AcDbCircle
 10
4.5883990661
 20
7.0889346091
 30
0.0
 40
0.2644080168758782
100
AcDbArc
 50
89.2412340823
 51
90.139563497
  0
LINE
  5
31C
330
1F
100
AcDbEntity
  8
0
  6
Continuous
 62
     7
370
     0
100
AcDbLine
 10
4.5919005094
 20
7.3533194409
 30
0.0
 11
4.6043896682
 21
7.3605292788
 31
0.0
  0
SPLINE
  5
31D
330
1F
100
AcDbEntity
  8
0
  6
Continuous
 62
     7
370
     0
100
AcDbSpline
210
0.0
220
0.0
230
1.0
 70
     8
 71
     3
 72
    16
 73
    12
 74
     0
 42
0.00000001
 43
0.00000001
 40
0.0
 40
0.0
 40
0.0
 40
0.0
 40
0.1814043438908214
 40
0.3425102030971474
 40
0.5005166786405856
 40
0.6281012479226487
 40
0.7515435373924283
 40
0.8128968252564124
 40
0.8750099158377872
 40
0.9377687550988717
 40
1.0
 40
1.0
 40
1.0
 40
1.0
 10
4.772491962584823
 20
7.427109768116844
 30
0.0
 10
4.773804187971923
 20
7.427878869215996
 30
0.0
 10
4.776281805509655
 20
7.429331011805435
 30
0.0
 10
4.779702332495878
 20
7.431483165478834
 30
0.0
 10
4.782468409328594
 20
7.433430349986591
 30
0.0
 10
4.784585829863066
 20
7.435232241978222
 30
0.0
 10
4.78543032163982
 20
7.436566384841549
 30
0.0
 10
4.785456016464634
 20
7.437491317074376
 30
0.0
 10
4.785034865341077
 20
7.438065951903597
 30
0.0
 10
4.784228769471563
 20
7.438503256403626
 30
0.0
 10
4.783411911122601
 20
7.438654662148005
 30
0.0
 10
4.783005205964312
 20
7.438730045471578
 30
0.0
  0
ARC
  5
31E
330
1F
100
AcDbEntity
  8
0
  6
Continuous
 62
     7
370
     0
100
AcDbCircle
 10
4.7835824733
 20
7.3978218577
 30
0.0
 40
0.0409122605506748
100
AcDbArc
 50
90.8084637165
 51
129.1271626322
  0
SPLINE
  5
31F
330
1F
100
AcDbEntity
  8
0
  6
Continuous
 62
     7
370
     0
100
AcDbSpline
210
0.0
220
0.0
230
1.0
 70
     8
 71
     3
 72
    17
 73
    13
 74
     0
 42
0.00000001
 43
0.00000001
 40
0.0
 40
0.0
 40
0.0
 40
0.0
 40
0.1817241832781214
 40
0.3427751466458163
 40
0.500424757376132
 40
0.5684883448975451
 40
0.6255188445359197
 40
0.7501316822624892
 40
0.8123103604828471
 40
0.875048385046295
 40
0.937491284649382
 40
1.0
 40
1.0
 40
1.0
 40
1.0
 10
4.757765051352389
 20
7.429559434628379
 30
0.0
 10
4.756418436530149
 20
7.428771831858134
 30
0.0
 10
4.753878399839148
 20
7.427286225208541
 30
0.0
 10
4.75036386405758
 20
7.425098348192705
 30
0.0
 10
4.747877515252878
 20
7.423392329291154
 30
0.0
 10
4.746304105508251
 20
7.422145642870968
 30
0.0
 10
4.745105295213147
 20
7.421053109384951
 30
0.0
 10
4.744435261085514
 20
7.420019898542702
 30
0.0
 10
4.74447735799215
 20
7.419119362380607
 30
0.0
 10
4.744962750853452
 20
7.418571538904052
 30
0.0
 10
4.74583128968607
 20
7.41816011593634
 30
0.0
 10
4.746672335021757
 20
7.418010835197628
 30
0.0
 10
4.74709307919145
 20
7.417936155512961
 30
0.0
  0
ARC
  5
320
330
1F
100
AcDbEntity
  8
0
  6
Continuous
 62
     7
370
     0
100
AcDbCircle
 10
4.7468278278
 20
7.4584181692
 30
0.0
 40
0.0404828826877146
100
AcDbArc
 50
270.3754152518
 51
309.3421719757
  0
SPLINE
  5
321
330
1F
100
AcDbEntity
  8
0
  6
Continuous
 62
     7
370
     0
100
AcDbSpline
210
0.0
220
0.0
230
1.0
 70
     8
 71
     3
 72
     9
 73
     5
 74
     0
 42
0.00000001
 43
0.00000001
 40
0.0
 40
0.0
 40
0.0
 40
0.0
 40
0.4999994377870683
 40
1.0
 40
1.0
 40
1.0
 40
1.0
 10
4.561567823729662
 20
7.363016612434427
 30
0.0
 10
4.562785568613296
 20
7.363405540316837
 30
0.0
 10
4.565221061119094
 20
7.364183396956298
 30
0.0
 10
4.567562115992593
 20
7.364854445146301
 30
0.0
 10
4.568732644745514
 20
7.365189969618576
 30
0.0
  0
ARC
  5
322
330
1F
100
AcDbEntity
  8
0
  6
Continuous
 62
     7
370
     0
100
AcDbCircle
 10
4.5370861149
 20
7.4810777299
 30
0.0
 40
0.1201310777411921
100
AcDbArc
 50
285.2738817585
 51
288.7843251864
  0
ARC
  5
323
330
1F
100
AcDbEntity
  8
0
  6
Continuous
 62
     7
370
     0
100
AcDbCircle
 10
4.5681315582
 20
7.3888151661
 30
0.0
 40
0.0227880270798227
100
AcDbArc
 50
289.5820906923
 51
299.1451362541
  0
SPLINE
  5
324
330
1F
100
AcDbEntity
  8
0
  6
Continuous
 62
     7
370
     0
100
AcDbSpline
210
0.0
220
0.0
230
1.0
 70
     8
 71
     3
 72
    13
 73
     9
 74
     0
 42
0.00000001
 43
0.00000001
 40
0.0
 40
0.0
 40
0.0
 40
0.0
 40
0.1250915069581799
 40
0.2499455687838574
 40
0.3709820857044802
 40
0.5001127109820919
 40
0.749652885478935
 40
1.0
 40
1.0
 40
1.0
 40
1.0
 10
4.579229864448942
 20
7.368912357869498
 30
0.0
 10
4.579500037814261
 20
7.369074752832969
 30
0.0
 10
4.580039871709517
 20
7.369399234506421
 30
0.0
 10
4.580507875507125
 20
7.369793656549263
 30
0.0
 10
4.580687713451468
 20
7.3700844422347
 30
0.0
 10
4.58056502849427
 20
7.370322866233272
 30
0.0
 10
4.579833612384684
 20
7.370356027187428
 30
0.0
 10
4.578926534223486
 20
7.370193713497212
 30
0.0
 10
4.578472263020176
 20
7.37011242564516
 30
0.0
  0
ARC
  5
325
330
1F
100
AcDbEntity
  8
0
  6
Continuous
 62
     7
370
     0
100
AcDbCircle
 10
4.590216664
 20
7.3189892335
 30
0.0
 40
0.0524548542060777
100
AcDbArc
 50
102.9379326402
 51
120.4635570082
  0
LINE
  5
326
330
1F
100
AcDbEntity
  8
0
  6
Continuous
 62
     7
370
     0
100
AcDbLine
 10
4.5636225658
 20
7.3642027898
 30
0.0
 11
4.5615678237
 21
7.3630166124
 31
0.0
  0
ARC
  5
327
330
1F
100
AcDbEntity
  8
0
  6
Continuous
 62
     7
370
     0
100
AcDbCircle
 10
5.1574496884
 20
7.0245950468
 30
0.0
 40
0.9052850682584512
100
AcDbArc
 50
2.5583031221
 51
57.4363203452
  0
SPLINE
  5
328
330
1F
100
AcDbEntity
  8
0
  6
Continuous
 62
     7
370
     0
100
AcDbSpline
210
0.0
220
0.0
230
1.0
 70
     8
 71
     3
 72
    16
 73
    12
 74
     0
 42
0.00000001
 43
0.00000001
 40
0.0
 40
0.0
 40
0.0
 40
0.0
 40
0.1814043439007308
 40
0.3425102031001911
 40
0.500516678640491
 40
0.6281012479194635
 40
0.7515435373926324
 40
0.8128968252609796
 40
0.875009915841159
 40
0.9377687551003523
 40
0.9999999999999999
 40
0.9999999999999999
 40
0.9999999999999999
 40
0.9999999999999999
 10
5.605990656321613
 20
7.717123262375462
 30
0.0
 10
5.607302050199046
 20
7.717901190518035
 30
0.0
 10
5.609778097760233
 20
7.719369999480271
 30
0.0
 10
5.613185833830457
 20
7.721657674818321
 30
0.0
 10
5.615926420981203
 20
7.723872916208331
 30
0.0
 10
5.618001055715775
 20
7.726119703263963
 30
0.0
 10
5.618781375587938
 20
7.728107808466683
 30
0.0
 10
5.618735589694765
 20
7.72974175737497
 30
0.0
 10
5.618248461007258
 20
7.730957693021906
 30
0.0
 10
5.617367494896682
 20
7.732107803967192
 30
0.0
 10
5.616496841622513
 20
7.73275627736466
 30
0.0
 10
5.616063352538222
 20
7.733079145431197
 30
0.0
  0
SPLINE
  5
329
330
1F
100
AcDbEntity
  8
0
  6
Continuous
 62
     7
370
     0
100
AcDbSpline
210
0.0
220
0.0
230
1.0
 70
     8
 71
     3
 72
    13
 73
     9
 74
     0
 42
0.00000001
 43
0.00000001
 40
0.0
 40
0.0
 40
0.0
 40
0.0
 40
0.1246091732983487
 40
0.1867338934510172
 40
0.2497493975587143
 40
0.3745255218346587
 40
0.4996502570873572
 40
1.0
 40
1.0
 40
1.0
 40
1.0
 10
5.616063352538222
 20
7.733079145431197
 30
0.0
 10
5.615069417433226
 20
7.733644002566275
 30
0.0
 10
5.613579949466455
 20
7.734490472928647
 30
0.0
 10
5.611100705565258
 20
7.735052882910785
 30
0.0
 10
5.608546885540043
 20
7.735308634139849
 30
0.0
 10
5.60536739796698
 20
7.73498645877037
 30
0.0
 10
5.598514428495895
 20
7.733100334659222
 30
0.0
 10
5.593955264317649
 20
7.730452831373746
 30
0.0
 10
5.590308150479891
 20
7.728334955050262
 30
0.0
  0
SPLINE
  5
32A
330
1F
100
AcDbEntity
  8
0
  6
Continuous
 62
     7
370
     0
100
AcDbSpline
210
0.0
220
0.0
230
1.0
 70
     8
 71
     3
 72
    17
 73
    13
 74
     0
 42
0.00000001
 43
0.00000001
 40
0.0
 40
0.0
 40
0.0
 40
0.0
 40
0.1817241832850732
 40
0.3427751466563626
 40
0.5004247573760762
 40
0.5684883449078856
 40
0.6255188445358812
 40
0.7501316822624482
 40
0.8123103604800533
 40
0.8750483850463098
 40
0.9374912846493877
 40
1.0
 40
1.0
 40
1.0
 40
1.0
 10
5.590308150479891
 20
7.728334955050262
 30
0.0
 10
5.588962599055042
 20
7.727538762105224
 30
0.0
 10
5.586424568185132
 20
7.726036952337426
 30
0.0
 10
5.582926521680901
 20
7.723715563410194
 30
0.0
 10
5.580468076365193
 20
7.721782638261695
 30
0.0
 10
5.578929109876912
 20
7.720253356061122
 30
0.0
 10
5.577770716783792
 20
7.718827202382125
 30
0.0
 10
5.577165049150127
 20
7.717257595748111
 30
0.0
 10
5.577296222909426
 20
7.715596894000329
 30
0.0
 10
5.577859327800457
 20
7.714373397113549
 30
0.0
 10
5.578811259713055
 20
7.713222608810026
 30
0.0
 10
5.579708026300191
 20
7.712564633379404
 30
0.0
 10
5.58015664577063
 20
7.712235472376437
 30
0.0
  0
SPLINE
  5
32B
330
1F
100
AcDbEntity
  8
0
  6
Continuous
 62
     7
370
     0
100
AcDbSpline
210
0.0
220
0.0
230
1.0
 70
     8
 71
     3
 72
    13
 73
     9
 74
     0
 42
0.00000001
 43
0.00000001
 40
0.0
 40
0.0
 40
0.0
 40
0.0
 40
0.1245513980942351
 40
0.1859899457725741
 40
0.2495609023916256
 40
0.3742835246961057
 40
0.4994689293691034
 40
1.0
 40
1.0
 40
1.0
 40
1.0
 10
5.58015664577063
 20
7.712235472376437
 30
0.0
 10
5.581152006238752
 20
7.711655270600398
 30
0.0
 10
5.5826383567922
 20
7.710788867665432
 30
0.0
 10
5.585143265251002
 20
7.710194020911148
 30
0.0
 10
5.587726952343011
 20
7.709958150268728
 30
0.0
 10
5.590914620461763
 20
7.710325410973162
 30
0.0
 10
5.597613089350233
 20
7.712428106659446
 30
0.0
 10
5.602267467240667
 20
7.71503662402868
 30
0.0
 10
5.605990656321613
 20
7.717123262375462
 30
0.0
  0
ARC
  5
32C
330
1F
100
AcDbEntity
  8
0
  6
Continuous
 62
     7
370
     0
100
AcDbCircle
 10
4.856710917
 20
6.5009588553
 30
0.0
 40
0.1981420505249901
100
AcDbArc
 50
266.1251510083
 51
284.929730978
  0
SPLINE
  5
32D
330
1F
100
AcDbEntity
  8
0
  6
Continuous
 62
     7
370
     0
100
AcDbSpline
210
0.0
220
0.0
230
1.0
 70
    24
 71
     1
 72
     4
 73
     2
 74
     0
 42
0.00000001
 43
0.00000001
 40
0.0
 40
0.0
 40
1.0
 40
1.0
 10
4.847329250442097
 20
6.299335733375919
 30
0.0
 10
4.843321005686279
 20
6.303269749746342
 30
0.0
  0
ARC
  5
32E
330
1F
100
AcDbEntity
  8
0
  6
Continuous
 62
     7
370
     0
100
AcDbCircle
 10
4.8427276158
 20
6.5094686183
 30
0.0
 40
0.1610212544072765
100
AcDbArc
 50
265.1989771087
 51
310.3082489688
  0
LINE
  5
32F
330
1F
100
AcDbEntity
  8
0
  6
Continuous
 62
     7
370
     0
100
AcDbLine
 10
4.8433210057
 20
6.3032697497
 30
0.0
 11
4.82925084
 21
6.3490123287
 31
0.0
  0
LINE
  5
330
330
1F
100
AcDbEntity
  8
0
  6
Continuous
 62
     7
370
     0
100
AcDbLine
 10
4.82925084
 20
6.3490123287
 30
0.0
 11
4.8469285095
 21
6.3592174301
 31
0.0
  0
ARC
  5
331
330
1F
100
AcDbEntity
  8
0
  6
Continuous
 62
     7
370
     0
100
AcDbCircle
 10
4.8589082363
 20
6.5740716397
 30
0.0
 40
0.2151879301156732
100
AcDbArc
 50
264.207788001
 51
266.8086368492
  0
LINE
  5
332
330
1F
100
AcDbEntity
  8
0
  6
Continuous
 62
     7
370
     0
100
AcDbLine
 10
4.8195135715
 20
6.349777264
 30
0.0
 11
4.837191241
 21
6.3599823654
 31
0.0
  0
LWPOLYLINE
  5
333
330
1F
100
AcDbEntity
  8
0
  6
Continuous
 62
     7
370
     0
100
AcDbPolyline
 90
       53
 70
   128
 43
0.0
 10
4.4997312259
 20
7.161267252
 10
4.4927904449
 20
7.1586890863
 10
4.4796269654
 20
7.1526948305
 10
4.4671367982
 20
7.1454895376
 10
4.4553584127
 20
7.1370953998
 10
4.4443280858
 20
7.1275382708
 10
4.4340797906
 20
7.1168475863
 10
4.4246450917
 20
7.1050562732
 10
4.4160530476
 20
7.0922006484
 10
4.4083301215
 20
7.0783203069
 10
4.4015000999
 20
7.0634579997
 10
4.3955840189
 20
7.0476595023
 10
4.3906001
 20
7.0309734735
 10
4.3865636934
 20
7.0134513059
 10
4.3834872312
 20
6.9951469672
 10
4.3813801888
 20
6.9761168341
 10
4.3802490557
 20
6.9564195191
 10
4.380097316
 20
6.9361156891
 10
4.3809254369
 20
6.9152678794
 10
4.3827308678
 20
6.8939403006
 10
4.385508048
 20
6.8721986411
 10
4.389248424
 20
6.8501098644
 10
4.3939404755
 20
6.8277420034
 10
4.3995697511
 20
6.8051639504
 10
4.4061189127
 20
6.7824452451
 10
4.4135677893
 20
6.7596558604
 10
4.4218934384
 20
6.7368659871
 10
4.4310702173
 20
6.7141458171
 10
4.4410698618
 20
6.6915653281
 10
4.4518615733
 20
6.6691940671
 10
4.4634121137
 20
6.647100937
 10
4.4756859076
 20
6.625353984
 10
4.4886451521
 20
6.6040201881
 10
4.5022499332
 20
6.5831652566
 10
4.5164583484
 20
6.5628534222
 10
4.5312266364
 20
6.5431472448
 10
4.5465093112
 20
6.5241074187
 10
4.5622593026
 20
6.505792586
 10
4.5784281012
 20
6.488259156
 10
4.5949659075
 20
6.4715611309
 10
4.6118217856
 20
6.4557499403
 10
4.6289438198
 20
6.4408742822
 10
4.6462792749
 20
6.4269799731
 10
4.6637747581
 20
6.414109807
 10
4.6813763839
 20
6.4023034238
 10
4.6990299398
 20
6.3915971867
 10
4.7166810533
 20
6.3820240705
 10
4.7342753596
 20
6.3736135603
 10
4.7517586687
 20
6.3663915602
 10
4.7690771326
 20
6.3603803136
 10
4.7861774109
 20
6.355598335
 10
4.8030068352
 20
6.3520603529
 10
4.8195135715
 20
6.349777264
  0
LWPOLYLINE
  5
334
330
1F
100
AcDbEntity
  8
0
  6
Continuous
 62
     7
370
     0
100
AcDbPolyline
 90
       54
 70
   128
 43
0.0
 10
4.5015204576
 20
7.1607849928
 10
4.4994863238
 20
7.1588359641
 10
4.489412841
 20
7.1480765749
 10
4.4801453471
 20
7.136236259
 10
4.471711987
 20
7.1233509751
 10
4.4641383726
 20
7.1094598554
 10
4.4574475048
 20
7.0946050867
 10
4.4516597035
 20
7.0788317826
 10
4.446792546
 20
7.0621878459
 10
4.4428608137
 20
7.0447238238
 10
4.4398764473
 20
7.026492754
 10
4.43784851
 20
7.0075500037
 10
4.4367831608
 20
6.9879531012
 10
4.4366836349
 20
6.9677615618
 10
4.4375502348
 20
6.9470367066
 10
4.4393803285
 20
6.9258414761
 10
4.442168358
 20
6.9042402397
 10
4.4459058564
 20
6.8822985996
 10
4.4505814728
 20
6.8600831918
 10
4.4561810076
 20
6.8376614838
 10
4.4626874552
 20
6.8151015695
 10
4.4700810558
 20
6.7924719628
 10
4.4783393551
 20
6.7698413889
 10
4.4874372731
 20
6.7472785762
 10
4.4973471796
 20
6.7248520472
 10
4.5080389786
 20
6.7026299106
 10
4.5194801994
 20
6.6806796541
 10
4.5316360955
 20
6.6590679401
 10
4.5444697497
 20
6.6378604026
 10
4.5579421867
 20
6.6171214482
 10
4.5720124912
 20
6.5969140604
 10
4.5866379321
 20
6.5772996084
 10
4.6017740923
 20
6.5583376607
 10
4.617375004
 20
6.5400858039
 10
4.6333932875
 20
6.5225994685
 10
4.649780296
 20
6.5059317599
 10
4.6664862626
 20
6.4901332974
 10
4.6834604519
 20
6.4752520602
 10
4.7006513137
 20
6.4613332424
 10
4.7180066401
 20
6.4484191149
 10
4.7354737234
 20
6.4365488974
 10
4.7529995167
 20
6.4257586394
 10
4.7705307947
 20
6.4160811106
 10
4.7880143156
 20
6.4075457013
 10
4.8053969824
 20
6.4001783333
 10
4.8226260046
 20
6.394001381
 10
4.8396490581
 20
6.3890336037
 10
4.8564144446
 20
6.3852900882
 10
4.8728712481
 20
6.3827822036
 10
4.8889694898
 20
6.3815175662
 10
4.9046602799
 20
6.3815000166
 10
4.919895966
 20
6.3827296083
 10
4.9346302778
 20
6.3852026068
 10
4.9473693321
 20
6.3884684076
  0
LWPOLYLINE
  5
335
330
1F
100
AcDbEntity
  8
0
  6
Continuous
 62
     7
370
     0
100
AcDbPolyline
 90
       51
 70
   128
 43
0.0
 10
4.4133320081
 20
7.1659712045
 10
4.4105320492
 20
7.1631293154
 10
4.4000882758
 20
7.1513146839
 10
4.3904735823
 20
7.138410502
 10
4.3817147048
 20
7.1244526532
 10
4.3738359998
 20
7.1094799508
 10
4.3668593759
 20
7.0935340305
 10
4.3608042335
 20
7.0766592339
 10
4.3556874105
 20
7.0589024859
 10
4.3515231355
 20
7.0403131636
 10
4.3483229884
 20
7.0209429595
 10
4.346095868
 20
7.0008457375
 10
4.3448479675
 20
6.9800773832
 10
4.3445827569
 20
6.9586956483
 10
4.3453009736
 20
6.9367599903
 10
4.3470006207
 20
6.9143314071
 10
4.3496769716
 20
6.8914722671
 10
4.3533225841
 20
6.868246136
 10
4.3579273207
 20
6.8447176003
 10
4.3634783767
 20
6.820952087
 10
4.3699603159
 20
6.7970156825
 10
4.3773551137
 20
6.7729749479
 10
4.3856422068
 20
6.748896735
 10
4.3947985508
 20
6.7248479994
 10
4.4047986842
 20
6.7008956148
 10
4.415614799
 20
6.6771061872
 10
4.4272168181
 20
6.6535458691
 10
4.4395724792
 20
6.6302801761
 10
4.4526474241
 20
6.6073738047
 10
4.4664052945
 20
6.5848904518
 10
4.4808078331
 20
6.5628926383
 10
4.4958149899
 20
6.5414415348
 10
4.5113850336
 20
6.5205967917
 10
4.5274746676
 20
6.5004163732
 10
4.5440391506
 20
6.4809563963
 10
4.5610324207
 20
6.4622709743
 10
4.5784072236
 20
6.4444120671
 10
4.5961152443
 20
6.4274293359
 10
4.614107241
 20
6.4113700056
 10
4.6323331822
 20
6.3962787334
 10
4.650742386
 20
6.3821974845
 10
4.6692836609
 20
6.3691654154
 10
4.6879054479
 20
6.3572187653
 10
4.7065559644
 20
6.3463907547
 10
4.7251833478
 20
6.336711494
 10
4.7437357997
 20
6.3282078987
 10
4.7621617303
 20
6.3209036153
 10
4.7804099015
 20
6.3148189553
 10
4.7984295695
 20
6.3099708386
 10
4.816170626
 20
6.3063727467
 10
4.8335837372
 20
6.3040346851
  0
SPLINE
  5
336
330
1F
100
AcDbEntity
  8
0
  6
Continuous
 62
     7
370
     0
100
AcDbSpline
210
0.0
220
0.0
230
1.0
 70
    24
 71
     1
 72
     4
 73
     2
 74
     0
 42
0.00000001
 43
0.00000001
 40
0.0
 40
0.0
 40
1.0
 40
1.0
 10
4.833583737239471
 20
6.304034685083715
 30
0.0
 10
4.837591978600717
 20
6.300100662896177
 30
0.0
  0
LINE
  5
337
330
1F
100
AcDbEntity
  8
0
  6
Continuous
 62
     7
370
     0
100
AcDbLine
 10
4.8335837372
 20
6.3040346851
 30
0.0
 11
4.8195135715
 21
6.349777264
 31
0.0
  0
LINE
  5
338
330
1F
100
AcDbEntity
  8
0
  6
Continuous
 62
     7
370
     0
100
AcDbLine
 10
4.8388593719
 20
6.3545592161
 30
0.0
 11
4.837191241
 21
6.3599823654
 31
0.0
  0
ARC
  5
339
330
1F
100
AcDbEntity
  8
0
  6
Continuous
 62
     7
370
     0
100
AcDbCircle
 10
5.0566012594
 20
6.3549109835
 30
0.0
 40
1.12955998576573
100
AcDbArc
 50
119.5764798636
 51
119.8936061367
  0
ARC
  5
33A
330
1F
100
AcDbEntity
  8
0
  6
Continuous
 62
     7
370
     0
100
AcDbCircle
 10
5.6787620843
 20
5.2358950811
 30
0.0
 40
2.409750435823316
100
AcDbArc
 50
119.4399034099
 51
119.7952534775
  0
LINE
  5
33B
330
1F
100
AcDbEntity
  8
0
  6
Continuous
 62
     7
370
     0
100
AcDbLine
 10
7.8651142111
 20
4.4278220859
 30
0.0
 11
9.5693607719
 21
4.4278220859
 31
0.0
  0
LINE
  5
33C
330
1F
100
AcDbEntity
  8
0
  6
Continuous
 62
     7
370
     0
100
AcDbLine
 10
7.8651142111
 20
4.4278220859
 30
0.0
 11
6.7986805006
 21
4.4278220859
 31
0.0
  0
LINE
  5
33D
330
1F
100
AcDbEntity
  8
0
  6
Continuous
 62
     7
370
     0
100
AcDbLine
 10
6.7986805006
 20
4.4278220859
 30
0.0
 11
4.0106599845
 21
4.4278220859
 31
0.0
  0
LINE
  5
33E
330
1F
100
AcDbEntity
  8
0
  6
Continuous
 62
     7
370
     0
100
AcDbLine
 10
4.0106599845
 20
4.4278220859
 30
0.0
 11
6.8133948026
 21
4.7602025161
 31
0.0
  0
LINE
  5
33F
330
1F
100
AcDbEntity
  8
0
  6
Continuous
 62
     7
370
     0
100
AcDbLine
 10
4.0106599845
 20
4.4278220859
 30
0.0
 11
6.8117344831
 21
4.1147205915
 31
0.0
  0
LINE
  5
340
330
1F
100
AcDbEntity
  8
0
  6
Continuous
 62
     7
370
     0
100
AcDbLine
 10
7.8608360451
 20
4.1147205915
 30
0.0
 11
9.5693607719
 21
4.4278220859
 31
0.0
  0
LINE
  5
341
330
1F
100
AcDbEntity
  8
0
  6
Continuous
 62
     7
370
     0
100
AcDbLine
 10
7.8602928624
 20
4.7602025161
 30
0.0
 11
9.5693607719
 21
4.4278220859
 31
0.0
  0
LINE
  5
342
330
1F
100
AcDbEntity
  8
0
  6
Continuous
 62
     7
370
     0
100
AcDbLine
 10
7.8725942222
 20
3.9103220859
 30
0.0
 11
7.9252737141
 21
3.9103220859
 31
0.0
  0
LINE
  5
343
330
1F
100
AcDbEntity
  8
0
  6
Continuous
 62
     7
370
     0
100
AcDbLine
 10
7.9252737141
 20
4.9453220859
 30
0.0
 11
7.8725942222
 21
4.9453220859
 31
0.0
  0
LINE
  5
344
330
1F
100
AcDbEntity
  8
0
  6
Continuous
 62
     7
370
     0
100
AcDbLine
 10
7.8552737141
 20
4.9353220859
 30
0.0
 11
7.8725942222
 21
4.9453220859
 31
0.0
  0
LINE
  5
345
330
1F
100
AcDbEntity
  8
0
  6
Continuous
 62
     7
370
     0
100
AcDbLine
 10
7.8725942222
 20
3.9103220859
 30
0.0
 11
7.8552737141
 21
3.9203220859
 31
0.0
  0
LINE
  5
346
330
1F
100
AcDbEntity
  8
0
  6
Continuous
 62
     7
370
     0
100
AcDbLine
 10
7.9352737141
 20
4.8766744299
 30
0.0
 11
7.9102737141
 21
4.8766744299
 31
0.0
  0
LINE
  5
347
330
1F
100
AcDbEntity
  8
0
  6
Continuous
 62
     7
370
     0
100
AcDbLine
 10
7.9102737141
 20
4.8753546124
 30
0.0
 11
7.9102737141
 21
4.8766744299
 31
0.0
  0
LINE
  5
348
330
1F
100
AcDbEntity
  8
0
  6
Continuous
 62
     7
370
     0
100
AcDbLine
 10
7.9352737141
 20
4.8753546124
 30
0.0
 11
7.9102737141
 21
4.8753546124
 31
0.0
  0
LINE
  5
349
330
1F
100
AcDbEntity
  8
0
  6
Continuous
 62
     7
370
     0
100
AcDbLine
 10
7.9352737141
 20
3.9778220859
 30
0.0
 11
7.9352737141
 21
4.8753546124
 31
0.0
  0
LINE
  5
34A
330
1F
100
AcDbEntity
  8
0
  6
Continuous
 62
     7
370
     0
100
AcDbLine
 10
7.8552737141
 20
3.9778220859
 30
0.0
 11
7.9352737141
 21
3.9778220859
 31
0.0
  0
LINE
  5
34B
330
1F
100
AcDbEntity
  8
0
  6
Continuous
 62
     7
370
     0
100
AcDbLine
 10
7.9352737141
 20
4.8778220859
 30
0.0
 11
7.8552737141
 21
4.8778220859
 31
0.0
  0
LINE
  5
34C
330
1F
100
AcDbEntity
  8
0
  6
Continuous
 62
     7
370
     0
100
AcDbLine
 10
7.9352737141
 20
4.8766744299
 30
0.0
 11
7.9352737141
 21
4.8778220859
 31
0.0
  0
LINE
  5
34D
330
1F
100
AcDbEntity
  8
0
  6
Continuous
 62
     7
370
     0
100
AcDbLine
 10
7.9352737141
 20
3.927642594
 30
0.0
 11
7.9252737141
 21
3.9103220859
 31
0.0
  0
LINE
  5
34E
330
1F
100
AcDbEntity
  8
0
  6
Continuous
 62
     7
370
     0
100
AcDbLine
 10
7.9252737141
 20
4.9453220859
 30
0.0
 11
7.9352737141
 21
4.9280015778
 31
0.0
  0
LINE
  5
34F
330
1F
100
AcDbEntity
  8
0
  6
Continuous
 62
     7
370
     0
100
AcDbLine
 10
7.9352737141
 20
4.9280015778
 30
0.0
 11
7.9352737141
 21
4.8778220859
 31
0.0
  0
LINE
  5
350
330
1F
100
AcDbEntity
  8
0
  6
Continuous
 62
     7
370
     0
100
AcDbLine
 10
7.8552737141
 20
4.9353220859
 30
0.0
 11
7.8552737141
 21
4.8778220859
 31
0.0
  0
LINE
  5
351
330
1F
100
AcDbEntity
  8
0
  6
Continuous
 62
     7
370
     0
100
AcDbLine
 10
7.9352737141
 20
3.9778220859
 30
0.0
 11
7.9352737141
 21
3.927642594
 31
0.0
  0
LINE
  5
352
330
1F
100
AcDbEntity
  8
0
  6
Continuous
 62
     7
370
     0
100
AcDbLine
 10
7.8552737141
 20
3.9778220859
 30
0.0
 11
7.8552737141
 21
3.9203220859
 31
0.0
  0
LINE
  5
353
330
1F
100
AcDbEntity
  8
0
  6
Continuous
 62
     7
370
     0
100
AcDbLine
 10
7.9352737141
 20
4.8766744299
 30
0.0
 11
7.9352737141
 21
4.8753546124
 31
0.0
  0
LINE
  5
354
330
1F
100
AcDbEntity
  8
0
  6
Continuous
 62
     7
370
     0
100
AcDbLine
 10
6.8084281507
 20
4.9453220859
 30
0.0
 11
6.7557486587
 21
4.9453220859
 31
0.0
  0
LINE
  5
355
330
1F
100
AcDbEntity
  8
0
  6
Continuous
 62
     7
370
     0
100
AcDbLine
 10
6.7557486587
 20
3.9103220859
 30
0.0
 11
6.8084281507
 21
3.9103220859
 31
0.0
  0
LINE
  5
356
330
1F
100
AcDbEntity
  8
0
  6
Continuous
 62
     7
370
     0
100
AcDbLine
 10
6.8257486587
 20
3.9203220859
 30
0.0
 11
6.8084281507
 21
3.9103220859
 31
0.0
  0
LINE
  5
357
330
1F
100
AcDbEntity
  8
0
  6
Continuous
 62
     7
370
     0
100
AcDbLine
 10
6.8084281507
 20
4.9453220859
 30
0.0
 11
6.8257486587
 21
4.9353220859
 31
0.0
  0
LINE
  5
358
330
1F
100
AcDbEntity
  8
0
  6
Continuous
 62
     7
370
     0
100
AcDbLine
 10
6.7457486587
 20
4.8379083326
 30
0.0
 11
6.7707486587
 21
4.8379083326
 31
0.0
  0
LINE
  5
359
330
1F
100
AcDbEntity
  8
0
  6
Continuous
 62
     7
370
     0
100
AcDbLine
 10
6.7707486587
 20
4.8438557023
 30
0.0
 11
6.7707486587
 21
4.8379083326
 31
0.0
  0
LINE
  5
35A
330
1F
100
AcDbEntity
  8
0
  6
Continuous
 62
     7
370
     0
100
AcDbLine
 10
6.7457486587
 20
4.8438557023
 30
0.0
 11
6.7707486587
 21
4.8438557023
 31
0.0
  0
LINE
  5
35B
330
1F
100
AcDbEntity
  8
0
  6
Continuous
 62
     7
370
     0
100
AcDbLine
 10
6.7457486587
 20
4.8778220859
 30
0.0
 11
6.7457486587
 21
4.8438557023
 31
0.0
  0
LINE
  5
35C
330
1F
100
AcDbEntity
  8
0
  6
Continuous
 62
     7
370
     0
100
AcDbLine
 10
6.8257486587
 20
4.8778220859
 30
0.0
 11
6.7457486587
 21
4.8778220859
 31
0.0
  0
LINE
  5
35D
330
1F
100
AcDbEntity
  8
0
  6
Continuous
 62
     7
370
     0
100
AcDbLine
 10
6.7457486587
 20
3.9778220859
 30
0.0
 11
6.8257486587
 21
3.9778220859
 31
0.0
  0
LINE
  5
35E
330
1F
100
AcDbEntity
  8
0
  6
Continuous
 62
     7
370
     0
100
AcDbLine
 10
6.7457486587
 20
4.8379083326
 30
0.0
 11
6.7457486587
 21
3.9778220859
 31
0.0
  0
LINE
  5
35F
330
1F
100
AcDbEntity
  8
0
  6
Continuous
 62
     7
370
     0
100
AcDbLine
 10
6.7557486587
 20
3.9103220859
 30
0.0
 11
6.7457486587
 21
3.927642594
 31
0.0
  0
LINE
  5
360
330
1F
100
AcDbEntity
  8
0
  6
Continuous
 62
     7
370
     0
100
AcDbLine
 10
6.7457486587
 20
3.927642594
 30
0.0
 11
6.7457486587
 21
3.9778220859
 31
0.0
  0
LINE
  5
361
330
1F
100
AcDbEntity
  8
0
  6
Continuous
 62
     7
370
     0
100
AcDbLine
 10
6.8257486587
 20
3.9203220859
 30
0.0
 11
6.8257486587
 21
3.9778220859
 31
0.0
  0
LINE
  5
362
330
1F
100
AcDbEntity
  8
0
  6
Continuous
 62
     7
370
     0
100
AcDbLine
 10
6.7457486587
 20
4.9280015778
 30
0.0
 11
6.7557486587
 21
4.9453220859
 31
0.0
  0
LINE
  5
363
330
1F
100
AcDbEntity
  8
0
  6
Continuous
 62
     7
370
     0
100
AcDbLine
 10
6.7457486587
 20
4.8778220859
 30
0.0
 11
6.7457486587
 21
4.9280015778
 31
0.0
  0
LINE
  5
364
330
1F
100
AcDbEntity
  8
0
  6
Continuous
 62
     7
370
     0
100
AcDbLine
 10
6.8257486587
 20
4.8778220859
 30
0.0
 11
6.8257486587
 21
4.9353220859
 31
0.0
  0
LINE
  5
365
330
1F
100
AcDbEntity
  8
0
  6
Continuous
 62
     7
370
     0
100
AcDbLine
 10
6.7457486587
 20
4.8438557023
 30
0.0
 11
6.7457486587
 21
4.8379083326
 31
0.0
  0
LINE
  5
366
330
1F
100
AcDbEntity
  8
0
  6
Continuous
 62
     7
370
     0
100
AcDbLine
 10
6.7541639216
 20
3.8278220859
 30
0.0
 11
6.8439148487
 21
3.8278220859
 31
0.0
  0
LINE
  5
367
330
1F
100
AcDbEntity
  8
0
  6
Continuous
 62
     7
370
     0
100
AcDbLine
 10
6.9203635784
 20
3.8278220859
 30
0.0
 11
8.0741639216
 21
3.8278220859
 31
0.0
  0
LINE
  5
368
330
1F
100
AcDbEntity
  8
0
  6
Continuous
 62
     7
370
     0
100
AcDbLine
 10
8.0741639216
 20
5.0278220859
 30
0.0
 11
8.0041639216
 21
5.0278220859
 31
0.0
  0
LINE
  5
369
330
1F
100
AcDbEntity
  8
0
  6
Continuous
 62
     7
370
     0
100
AcDbLine
 10
7.9459821034
 20
5.0278220859
 30
0.0
 11
7.0692288566
 21
5.0278220859
 31
0.0
  0
LINE
  5
36A
330
1F
100
AcDbEntity
  8
0
  6
Continuous
 62
     7
370
     0
100
AcDbLine
 10
7.051566519
 20
5.0278220859
 30
0.0
 11
6.9220859995
 21
5.0278220859
 31
0.0
  0
LINE
  5
36B
330
1F
100
AcDbEntity
  8
0
  6
Continuous
 62
     7
370
     0
100
AcDbLine
 10
6.8420859995
 20
5.0278220859
 30
0.0
 11
6.7541639216
 21
5.0278220859
 31
0.0
  0
LINE
  5
36C
330
1F
100
AcDbEntity
  8
0
  6
Continuous
 62
     7
370
     0
100
AcDbLine
 10
6.6959821034
 20
5.0278220859
 30
0.0
 11
6.6091639216
 21
5.0278220859
 31
0.0
  0
LINE
  5
36D
330
1F
100
AcDbEntity
  8
0
  6
Continuous
 62
     7
370
     0
100
AcDbLine
 10
6.6091639216
 20
3.8278220859
 30
0.0
 11
6.6741639216
 21
3.8278220859
 31
0.0
  0
LINE
  5
36E
330
1F
100
AcDbEntity
  8
0
  6
Continuous
 62
     7
370
     0
100
AcDbLine
 10
8.0841639216
 20
3.8378220859
 30
0.0
 11
8.0741639216
 21
3.8278220859
 31
0.0
  0
LINE
  5
36F
330
1F
100
AcDbEntity
  8
0
  6
Continuous
 62
     7
370
     0
100
AcDbLine
 10
8.0741639216
 20
5.0278220859
 30
0.0
 11
8.0841639216
 21
5.0178220859
 31
0.0
  0
LINE
  5
370
330
1F
100
AcDbEntity
  8
0
  6
Continuous
 62
     7
370
     0
100
AcDbLine
 10
6.5991639216
 20
5.0178220859
 30
0.0
 11
6.6091639216
 21
5.0278220859
 31
0.0
  0
LINE
  5
371
330
1F
100
AcDbEntity
  8
0
  6
Continuous
 62
     7
370
     0
100
AcDbLine
 10
6.6091639216
 20
3.8278220859
 30
0.0
 11
6.5991639216
 21
3.8378220859
 31
0.0
  0
LINE
  5
372
330
1F
100
AcDbEntity
  8
0
  6
Continuous
 62
     7
370
     0
100
AcDbLine
 10
7.4941639216
 20
3.9028220859
 30
0.0
 11
7.5141639216
 21
3.9028220859
 31
0.0
  0
LINE
  5
373
330
1F
100
AcDbEntity
  8
0
  6
Continuous
 62
     7
370
     0
100
AcDbLine
 10
7.5141639216
 20
4.9528220859
 30
0.0
 11
7.4941639216
 21
4.9528220859
 31
0.0
  0
LINE
  5
374
330
1F
100
AcDbEntity
  8
0
  6
Continuous
 62
     7
370
     0
100
AcDbLine
 10
7.0941639216
 20
4.9528220859
 30
0.0
 11
7.1141639216
 21
4.9528220859
 31
0.0
  0
LINE
  5
375
330
1F
100
AcDbEntity
  8
0
  6
Continuous
 62
     7
370
     0
100
AcDbLine
 10
7.1141639216
 20
3.9028220859
 30
0.0
 11
7.0941639216
 21
3.9028220859
 31
0.0
  0
LINE
  5
376
330
1F
100
AcDbEntity
  8
0
  6
Continuous
 62
     7
370
     0
100
AcDbLine
 10
8.0841639216
 20
4.9438220859
 30
0.0
 11
8.0668434135
 21
4.9338220859
 31
0.0
  0
LINE
  5
377
330
1F
100
AcDbEntity
  8
0
  6
Continuous
 62
     7
370
     0
100
AcDbLine
 10
8.0668434135
 20
3.9218220859
 30
0.0
 11
8.0841639216
 21
3.9118220859
 31
0.0
  0
LINE
  5
378
330
1F
100
AcDbEntity
  8
0
  6
Continuous
 62
     7
370
     0
100
AcDbLine
 10
8.0668434135
 20
3.9218220859
 30
0.0
 11
8.0668434135
 21
4.9338220859
 31
0.0
  0
LINE
  5
379
330
1F
100
AcDbEntity
  8
0
  6
Continuous
 62
     7
370
     0
100
AcDbLine
 10
8.0841639216
 20
4.9438220859
 30
0.0
 11
8.0841639216
 21
3.9118220859
 31
0.0
  0
LINE
  5
37A
330
1F
100
AcDbEntity
  8
0
  6
Continuous
 62
     7
370
     0
100
AcDbLine
 10
6.5991639216
 20
3.9118220859
 30
0.0
 11
6.6164844296
 21
3.9218220859
 31
0.0
  0
LINE
  5
37B
330
1F
100
AcDbEntity
  8
0
  6
Continuous
 62
     7
370
     0
100
AcDbLine
 10
6.6164844296
 20
4.9338220859
 30
0.0
 11
6.5991639216
 21
4.9438220859
 31
0.0
  0
LINE
  5
37C
330
1F
100
AcDbEntity
  8
0
  6
Continuous
 62
     7
370
     0
100
AcDbLine
 10
6.6164844296
 20
4.9338220859
 30
0.0
 11
6.6164844296
 21
3.9218220859
 31
0.0
  0
LINE
  5
37D
330
1F
100
AcDbEntity
  8
0
  6
Continuous
 62
     7
370
     0
100
AcDbLine
 10
6.5991639216
 20
3.9118220859
 30
0.0
 11
6.5991639216
 21
4.9438220859
 31
0.0
  0
LINE
  5
37E
330
1F
100
AcDbEntity
  8
0
  6
Continuous
 62
     7
370
     0
100
AcDbLine
 10
7.7831639216
 20
3.9218220859
 30
0.0
 11
7.7831639216
 21
3.9278220859
 31
0.0
  0
LINE
  5
37F
330
1F
100
AcDbEntity
  8
0
  6
Continuous
 62
     7
370
     0
100
AcDbLine
 10
7.7831639216
 20
4.9278220859
 30
0.0
 11
7.7831639216
 21
4.9338220859
 31
0.0
  0
LINE
  5
380
330
1F
100
AcDbEntity
  8
0
  6
Continuous
 62
     7
370
     0
100
AcDbLine
 10
7.7831639216
 20
4.9338220859
 30
0.0
 11
8.0668434135
 21
4.9338220859
 31
0.0
  0
LINE
  5
381
330
1F
100
AcDbEntity
  8
0
  6
Continuous
 62
     7
370
     0
100
AcDbLine
 10
8.0668434135
 20
3.9218220859
 30
0.0
 11
7.7831639216
 21
3.9218220859
 31
0.0
  0
LINE
  5
382
330
1F
100
AcDbEntity
  8
0
  6
Continuous
 62
     7
370
     0
100
AcDbLine
 10
7.782009221
 20
4.9318220859
 30
0.0
 11
7.782009221
 21
4.9278220859
 31
0.0
  0
LINE
  5
383
330
1F
100
AcDbEntity
  8
0
  6
Continuous
 62
     7
370
     0
100
AcDbLine
 10
7.782009221
 20
3.9278220859
 30
0.0
 11
7.782009221
 21
3.9238220859
 31
0.0
  0
LINE
  5
384
330
1F
100
AcDbEntity
  8
0
  6
Continuous
 62
     7
370
     0
100
AcDbLine
 10
7.782009221
 20
4.9318220859
 30
0.0
 11
7.7831639216
 21
4.9338220859
 31
0.0
  0
LINE
  5
385
330
1F
100
AcDbEntity
  8
0
  6
Continuous
 62
     7
370
     0
100
AcDbLine
 10
7.7831639216
 20
3.9218220859
 30
0.0
 11
7.782009221
 21
3.9238220859
 31
0.0
  0
LINE
  5
386
330
1F
100
AcDbEntity
  8
0
  6
Continuous
 62
     7
370
     0
100
AcDbLine
 10
6.9001639216
 20
4.9338220859
 30
0.0
 11
6.9001639216
 21
4.9278220859
 31
0.0
  0
LINE
  5
387
330
1F
100
AcDbEntity
  8
0
  6
Continuous
 62
     7
370
     0
100
AcDbLine
 10
6.9001639216
 20
3.9278220859
 30
0.0
 11
6.9001639216
 21
3.9218220859
 31
0.0
  0
LINE
  5
388
330
1F
100
AcDbEntity
  8
0
  6
Continuous
 62
     7
370
     0
100
AcDbLine
 10
6.9001639216
 20
3.9218220859
 30
0.0
 11
6.6164844296
 21
3.9218220859
 31
0.0
  0
LINE
  5
389
330
1F
100
AcDbEntity
  8
0
  6
Continuous
 62
     7
370
     0
100
AcDbLine
 10
6.6164844296
 20
4.9338220859
 30
0.0
 11
6.9001639216
 21
4.9338220859
 31
0.0
  0
LINE
  5
38A
330
1F
100
AcDbEntity
  8
0
  6
Continuous
 62
     7
370
     0
100
AcDbLine
 10
6.9013186221
 20
3.9238220859
 30
0.0
 11
6.9013186221
 21
3.9278220859
 31
0.0
  0
LINE
  5
38B
330
1F
100
AcDbEntity
  8
0
  6
Continuous
 62
     7
370
     0
100
AcDbLine
 10
6.9013186221
 20
4.9278220859
 30
0.0
 11
6.9013186221
 21
4.9318220859
 31
0.0
  0
LINE
  5
38C
330
1F
100
AcDbEntity
  8
0
  6
Continuous
 62
     7
370
     0
100
AcDbLine
 10
6.9013186221
 20
3.9238220859
 30
0.0
 11
6.9001639216
 21
3.9218220859
 31
0.0
  0
LINE
  5
38D
330
1F
100
AcDbEntity
  8
0
  6
Continuous
 62
     7
370
     0
100
AcDbLine
 10
6.9001639216
 20
4.9338220859
 30
0.0
 11
6.9013186221
 21
4.9318220859
 31
0.0
  0
LINE
  5
38E
330
1F
100
AcDbEntity
  8
0
  6
Continuous
 62
     7
370
     0
100
AcDbLine
 10
7.5141639216
 20
3.9238220859
 30
0.0
 11
7.782009221
 21
3.9238220859
 31
0.0
  0
LINE
  5
38F
330
1F
100
AcDbEntity
  8
0
  6
Continuous
 62
     7
370
     0
100
AcDbLine
 10
7.782009221
 20
4.9318220859
 30
0.0
 11
7.5141639216
 21
4.9318220859
 31
0.0
  0
LINE
  5
390
330
1F
100
AcDbEntity
  8
0
  6
Continuous
 62
     7
370
     0
100
AcDbLine
 10
7.5141639216
 20
3.9238220859
 30
0.0
 11
7.5141639216
 21
3.9278220859
 31
0.0
  0
LINE
  5
391
330
1F
100
AcDbEntity
  8
0
  6
Continuous
 62
     7
370
     0
100
AcDbLine
 10
7.5141639216
 20
4.9278220859
 30
0.0
 11
7.5141639216
 21
4.9318220859
 31
0.0
  0
LINE
  5
392
330
1F
100
AcDbEntity
  8
0
  6
Continuous
 62
     7
370
     0
100
AcDbLine
 10
7.0941639216
 20
4.9318220859
 30
0.0
 11
6.9013186221
 21
4.9318220859
 31
0.0
  0
LINE
  5
393
330
1F
100
AcDbEntity
  8
0
  6
Continuous
 62
     7
370
     0
100
AcDbLine
 10
6.9013186221
 20
3.9238220859
 30
0.0
 11
7.0941639216
 21
3.9238220859
 31
0.0
  0
LINE
  5
394
330
1F
100
AcDbEntity
  8
0
  6
Continuous
 62
     7
370
     0
100
AcDbLine
 10
7.0941639216
 20
4.9318220859
 30
0.0
 11
7.0941639216
 21
4.9278220859
 31
0.0
  0
LINE
  5
395
330
1F
100
AcDbEntity
  8
0
  6
Continuous
 62
     7
370
     0
100
AcDbLine
 10
7.0941639216
 20
3.9278220859
 30
0.0
 11
7.0941639216
 21
3.9238220859
 31
0.0
  0
LINE
  5
396
330
1F
100
AcDbEntity
  8
0
  6
Continuous
 62
     7
370
     0
100
AcDbLine
 10
7.4941639216
 20
4.8788220859
 30
0.0
 11
7.1141639216
 21
4.8788220859
 31
0.0
  0
LINE
  5
397
330
1F
100
AcDbEntity
  8
0
  6
Continuous
 62
     7
370
     0
100
AcDbLine
 10
7.1141639216
 20
3.9768220859
 30
0.0
 11
7.4941639216
 21
3.9768220859
 31
0.0
  0
LINE
  5
398
330
1F
100
AcDbEntity
  8
0
  6
Continuous
 62
     7
370
     0
100
AcDbLine
 10
6.7541639216
 20
5.0278220859
 30
0.0
 11
6.6959821034
 21
5.0278220859
 31
0.0
  0
LINE
  5
399
330
1F
100
AcDbEntity
  8
0
  6
Continuous
 62
     7
370
     0
100
AcDbLine
 10
6.9220859995
 20
5.0278220859
 30
0.0
 11
6.8420859995
 21
5.0278220859
 31
0.0
  0
LINE
  5
39A
330
1F
100
AcDbEntity
  8
0
  6
Continuous
 62
     7
370
     0
100
AcDbLine
 10
7.0692288566
 20
5.0278220859
 30
0.0
 11
7.051566519
 21
5.0278220859
 31
0.0
  0
LINE
  5
39B
330
1F
100
AcDbEntity
  8
0
  6
Continuous
 62
     7
370
     0
100
AcDbLine
 10
8.0041639216
 20
5.0278220859
 30
0.0
 11
7.9459821034
 21
5.0278220859
 31
0.0
  0
LINE
  5
39C
330
1F
100
AcDbEntity
  8
0
  6
Continuous
 62
     7
370
     0
100
AcDbLine
 10
7.0941639216
 20
4.9318220859
 30
0.0
 11
7.0941639216
 21
4.9528220859
 31
0.0
  0
LINE
  5
39D
330
1F
100
AcDbEntity
  8
0
  6
Continuous
 62
     7
370
     0
100
AcDbLine
 10
7.1141639216
 20
4.8788220859
 30
0.0
 11
7.1141639216
 21
4.9528220859
 31
0.0
  0
LINE
  5
39E
330
1F
100
AcDbEntity
  8
0
  6
Continuous
 62
     7
370
     0
100
AcDbLine
 10
7.4941639216
 20
4.8788220859
 30
0.0
 11
7.4941639216
 21
4.9528220859
 31
0.0
  0
LINE
  5
39F
330
1F
100
AcDbEntity
  8
0
  6
Continuous
 62
     7
370
     0
100
AcDbLine
 10
7.5141639216
 20
4.9528220859
 30
0.0
 11
7.5141639216
 21
4.9318220859
 31
0.0
  0
LINE
  5
3A0
330
1F
100
AcDbEntity
  8
0
  6
Continuous
 62
     7
370
     0
100
AcDbLine
 10
6.5991639216
 20
4.9438220859
 30
0.0
 11
6.5991639216
 21
5.0178220859
 31
0.0
  0
LINE
  5
3A1
330
1F
100
AcDbEntity
  8
0
  6
Continuous
 62
     7
370
     0
100
AcDbLine
 10
8.0841639216
 20
5.0178220859
 30
0.0
 11
8.0841639216
 21
4.9438220859
 31
0.0
  0
LINE
  5
3A2
330
1F
100
AcDbEntity
  8
0
  6
Continuous
 62
     7
370
     0
100
AcDbLine
 10
6.8439148487
 20
3.8278220859
 30
0.0
 11
6.9203635784
 21
3.8278220859
 31
0.0
  0
LINE
  5
3A3
330
1F
100
AcDbEntity
  8
0
  6
Continuous
 62
     7
370
     0
100
AcDbLine
 10
6.7354104773
 20
3.8278220859
 30
0.0
 11
6.7541639216
 21
3.8278220859
 31
0.0
  0
LINE
  5
3A4
330
1F
100
AcDbEntity
  8
0
  6
Continuous
 62
     7
370
     0
100
AcDbLine
 10
6.7199284802
 20
3.8278220859
 30
0.0
 11
6.7354104773
 21
3.8278220859
 31
0.0
  0
LINE
  5
3A5
330
1F
100
AcDbEntity
  8
0
  6
Continuous
 62
     7
370
     0
100
AcDbLine
 10
6.7039706855
 20
3.8278220859
 30
0.0
 11
6.7199284802
 21
3.8278220859
 31
0.0
  0
LINE
  5
3A6
330
1F
100
AcDbEntity
  8
0
  6
Continuous
 62
     7
370
     0
100
AcDbLine
 10
6.6911030575
 20
3.8278220859
 30
0.0
 11
6.7039706855
 21
3.8278220859
 31
0.0
  0
LINE
  5
3A7
330
1F
100
AcDbEntity
  8
0
  6
Continuous
 62
     7
370
     0
100
AcDbLine
 10
6.6741639216
 20
3.8278220859
 30
0.0
 11
6.6911030575
 21
3.8278220859
 31
0.0
  0
LINE
  5
3A8
330
1F
100
AcDbEntity
  8
0
  6
Continuous
 62
     7
370
     0
100
AcDbLine
 10
7.0941639216
 20
3.9028220859
 30
0.0
 11
7.0941639216
 21
3.9238220859
 31
0.0
  0
LINE
  5
3A9
330
1F
100
AcDbEntity
  8
0
  6
Continuous
 62
     7
370
     0
100
AcDbLine
 10
7.1141639216
 20
3.9028220859
 30
0.0
 11
7.1141639216
 21
3.9768220859
 31
0.0
  0
LINE
  5
3AA
330
1F
100
AcDbEntity
  8
0
  6
Continuous
 62
     7
370
     0
100
AcDbLine
 10
7.4941639216
 20
3.9028220859
 30
0.0
 11
7.4941639216
 21
3.9768220859
 31
0.0
  0
LINE
  5
3AB
330
1F
100
AcDbEntity
  8
0
  6
Continuous
 62
     7
370
     0
100
AcDbLine
 10
7.5141639216
 20
3.9238220859
 30
0.0
 11
7.5141639216
 21
3.9028220859
 31
0.0
  0
LINE
  5
3AC
330
1F
100
AcDbEntity
  8
0
  6
Continuous
 62
     7
370
     0
100
AcDbLine
 10
6.5991639216
 20
3.8378220859
 30
0.0
 11
6.5991639216
 21
3.9118220859
 31
0.0
  0
LINE
  5
3AD
330
1F
100
AcDbEntity
  8
0
  6
Continuous
 62
     7
370
     0
100
AcDbLine
 10
8.0841639216
 20
3.9118220859
 30
0.0
 11
8.0841639216
 21
3.8378220859
 31
0.0
  0
ARC
  5
3AE
330
1F
100
AcDbEntity
  8
0
  6
Continuous
 62
     7
370
     0
100
AcDbCircle
 10
8.2321450675
 20
4.4278220859
 30
0.0
 40
1.335039370078742
100
AcDbArc
 50
158.0053021447
 51
201.9946978553
  0
LINE
  5
3AF
330
1F
100
AcDbEntity
  8
0
  6
Continuous
 62
     7
370
     0
100
AcDbLine
 10
6.8320607694
 20
3.9278220859
 30
0.0
 11
6.9942718431
 21
3.9278220859
 31
0.0
  0
ARC
  5
3B0
330
1F
100
AcDbEntity
  8
0
  6
Continuous
 62
     7
370
     0
100
AcDbCircle
 10
10.5600978234
 20
4.4278220859
 30
0.0
 40
3.761417322834653
100
AcDbArc
 50
172.3611411862
 51
187.6388588138
  0
LINE
  5
3B1
330
1F
100
AcDbEntity
  8
0
  6
Continuous
 62
     7
370
     0
100
AcDbLine
 10
6.9942718431
 20
4.9278220859
 30
0.0
 11
6.8320607694
 21
4.9278220859
 31
0.0
  0
ARC
  5
3B2
330
1F
100
AcDbEntity
  8
0
  6
Continuous
 62
     7
370
     0
100
AcDbCircle
 10
5.3404127841
 20
4.4278220859
 30
0.0
 40
1.832283464566929
100
AcDbArc
 50
344.16407335
 51
15.83592665
  0
LINE
  5
3B3
330
1F
100
AcDbEntity
  8
0
  6
Continuous
 62
     7
370
     0
100
AcDbLine
 10
6.9942718431
 20
3.9278220859
 30
0.0
 11
7.1031557303
 21
3.9278220859
 31
0.0
  0
ARC
  5
3B4
330
1F
100
AcDbEntity
  8
0
  6
Continuous
 62
     7
370
     0
100
AcDbCircle
 10
8.2321450675
 20
4.4278220859
 30
0.0
 40
1.335039370078741
100
AcDbArc
 50
158.0053021447
 51
201.9946978553
  0
LINE
  5
3B5
330
1F
100
AcDbEntity
  8
0
  6
Continuous
 62
     7
370
     0
100
AcDbLine
 10
7.1031557303
 20
4.9278220859
 30
0.0
 11
6.9942718431
 21
4.9278220859
 31
0.0
  0
ARC
  5
3B6
330
1F
100
AcDbEntity
  8
0
  6
Continuous
 62
     7
370
     0
100
AcDbCircle
 10
6.8895236599
 20
4.4278220859
 30
0.0
 40
0.8771653543307087
100
AcDbArc
 50
325.2485222972
 51
34.7514777028
  0
LINE
  5
3B7
330
1F
100
AcDbEntity
  8
0
  6
Continuous
 62
     7
370
     0
100
AcDbLine
 10
7.5113197892
 20
3.9278220859
 30
0.0
 11
7.6102309922
 21
3.9278220859
 31
0.0
  0
ARC
  5
3B8
330
1F
100
AcDbEntity
  8
0
  6
Continuous
 62
     7
370
     0
100
AcDbCircle
 10
8.7249567307
 20
4.4278220859
 30
0.0
 40
1.312598425196853
100
AcDbArc
 50
157.609082359
 51
202.390917641
  0
LINE
  5
3B9
330
1F
100
AcDbEntity
  8
0
  6
Continuous
 62
     7
370
     0
100
AcDbLine
 10
7.6102309922
 20
4.9278220859
 30
0.0
 11
7.5113197892
 21
4.9278220859
 31
0.0
  0
ARC
  5
3BA
330
1F
100
AcDbEntity
  8
0
  6
Continuous
 62
     7
370
     0
100
AcDbCircle
 10
-3.5943346078
 20
4.4278220859
 30
0.0
 40
11.45944881889772
100
AcDbArc
 50
357.4992700088
 51
2.5007299912
  0
LINE
  5
3BB
330
1F
100
AcDbEntity
  8
0
  6
Continuous
 62
     7
370
     0
100
AcDbLine
 10
7.6102309922
 20
3.9278220859
 30
0.0
 11
7.8542009855
 21
3.9278220859
 31
0.0
  0
ARC
  5
3BC
330
1F
100
AcDbEntity
  8
0
  6
Continuous
 62
     7
370
     0
100
AcDbCircle
 10
6.8895236599
 20
4.4278220859
 30
0.0
 40
0.8771653543307087
100
AcDbArc
 50
325.2485222972
 51
34.7514777028
  0
LINE
  5
3BD
330
1F
100
AcDbEntity
  8
0
  6
Continuous
 62
     7
370
     0
100
AcDbLine
 10
7.8542009855
 20
4.9278220859
 30
0.0
 11
7.6102309922
 21
4.9278220859
 31
0.0
  0
DIMENSION
  5
3BE
330
1F
100
AcDbEntity
  8
0
  6
Continuous
 62
     7
370
     0
100
AcDbDimension
  2
*D8
 10
8.0841639216
 20
3.1794180271
 30
0.0
 11
8.8974069425
 21
3.1794180271
 31
0.0
 70
   160
 71
     1
 42
-1.0
  3
SLDDIMSTYLE1
100
AcDbAlignedDimension
 13
9.5693607719
 23
4.4278220859
 33
0.0
 14
8.0841639216
 24
3.8378220859
 34
0.0
100
AcDbRotatedDimension
  0
DIMENSION
  5
3D1
330
1F
100
AcDbEntity
  8
0
  6
Continuous
 62
     7
370
     0
100
AcDbDimension
  2
*D9
 10
6.5991639216
 20
3.1141299044
 30
0.0
 11
5.2605812444
 21
3.1141299044
 31
0.0
 70
   160
 71
     1
 42
-1.0
  3
SLDDIMSTYLE1
100
AcDbAlignedDimension
 13
4.0106599845
 23
4.4278220859
 33
0.0
 14
6.5991639216
 24
3.8378220859
 34
0.0
100
AcDbRotatedDimension
  0
DIMENSION
  5
3E3
330
1F
100
AcDbEntity
  8
0
  6
Continuous
 62
     7
370
     0
100
AcDbDimension
  2
*D10
 10
6.7986805006
 20
5.2415645789
 30
0.0
 11
5.2605812444
 21
5.2415645789
 31
0.0
 70
   160
 71
     1
 42
-1.0
  3
SLDDIMSTYLE1
100
AcDbAlignedDimension
 13
4.0106599845
 23
4.4278220859
 33
0.0
 14
6.7986805006
 24
4.4278220859
 34
0.0
 50
0.0
100
AcDbRotatedDimension
  0
DIMENSION
  5
3F5
330
1F
100
AcDbEntity
  8
0
  6
Continuous
 62
     7
370
     0
100
AcDbDimension
  2
*D11
 10
7.8651142111
 20
5.2231085564
 30
0.0
 11
8.8974069425
 21
5.2231085564
 31
0.0
 70
   160
 71
     1
 42
-1.0
  3
SLDDIMSTYLE1
100
AcDbAlignedDimension
 13
9.5693607719
 23
4.4278220859
 33
0.0
 14
7.8651142111
 24
4.4278220859
 34
0.0
100
AcDbRotatedDimension
  0
DIMENSION
  5
407
330
1F
100
AcDbEntity
  8
0
  6
Continuous
 62
     7
370
     0
100
AcDbDimension
  2
*D12
 10
8.0841639216
 20
2.877909432
 30
0.0
 11
7.3416639216
 21
2.877909432
 31
0.0
 70
   160
 71
     1
 42
-1.0
  3
SLDDIMSTYLE1
100
AcDbAlignedDimension
 13
6.5991639216
 23
3.8378220859
 33
0.0
 14
8.0841639216
 24
3.8378220859
 34
0.0
100
AcDbRotatedDimension
  0
DIMENSION
  5
419
330
1F
100
AcDbEntity
  8
0
  6
Continuous
 62
     7
370
     0
100
AcDbDimension
  2
*D13
 10
7.4123583055
 20
3.4942628121
 30
0.0
 11
7.7646986696
 21
3.4942628121
 31
0.0
 70
   160
 71
     1
 42
-1.0
  3
SLDDIMSTYLE2
100
AcDbAlignedDimension
 13
7.1726962486
 23
4.4278220859
 33
0.0
 14
7.4123583055
 24
4.4278220859
 34
0.0
100
AcDbRotatedDimension
  0
DIMENSION
  5
42C
330
1F
100
AcDbEntity
  8
0
  6
Continuous
 62
     7
370
     0
100
AcDbDimension
  2
*D14
 10
7.8651142111
 20
5.5052937949
 30
0.0
 11
7.3416639216
 21
5.5052937949
 31
0.0
 70
   160
 71
     1
 42
-1.0
  3
SLDDIMSTYLE1
100
AcDbAlignedDimension
 13
6.7986805006
 23
4.4278220859
 33
0.0
 14
7.8651142111
 24
4.4278220859
 34
0.0
100
AcDbRotatedDimension
  0
MTEXT
  5
43E
330
1F
100
AcDbEntity
  8
0
  6
Continuous
 62
     7
370
     0
100
AcDbMText
 10
6.8851872123
 20
3.3202257565
 30
0.0
 40
0.09
 41
0.0
 71
     1
 72
     1
  1
SECTION A-A
  7
SLDTEXTSTYLE0
 73
     1
 44
1.0
  0
INSERT
  5
445
102
{ACAD_REACTORS
330
447
330
448
102
}
330
1F
100
AcDbEntity
  8
0
  6
Continuous
 62
     7
370
     0
100
AcDbBlockReference
  2
SW_NOTE_5
 10
5.7507792028
 20
3.5456212062
 30
0.0
  0
LEADER
  5
447
330
1F
100
AcDbEntity
  8
0
  6
Continuous
 62
     7
370
     0
100
AcDbLeader
  3
SLDDIMSTYLE3
 73
     2
 76
     3
 10
6.6164844296
 20
3.9218220859
 30
0.0
 10
6.0007792028
 20
3.5456212062
 30
0.0
 10
5.7507792028
 20
3.5456212062
 30
0.0
340
445
  0
LEADER
  5
448
330
1F
100
AcDbEntity
  8
0
  6
Continuous
 62
     7
370
     0
100
AcDbLeader
  3
SLDDIMSTYLE3
 73
     2
 76
     3
 10
7.9533626074
 20
3.9218220859
 30
0.0
 10
6.0007792028
 20
3.5456212062
 30
0.0
 10
5.7507792028
 20
3.5456212062
 30
0.0
340
445
  0
INSERT
  5
44E
330
1F
100
AcDbEntity
  8
0
  6
Continuous
 62
     7
370
     0
100
AcDbBlockReference
  2
SW_NOTE_6
 10
8.6390014431
 20
4.9050936881
 30
0.0
  0
LEADER
  5
44F
330
1F
100
AcDbEntity
  8
0
  6
Continuous
 62
     7
370
     0
100
AcDbLeader
  3
SLDDIMSTYLE3
 76
     2
 10
7.66465054
 20
4.838428197
 30
0.0
 10
8.6390014431
 20
4.9050936881
 30
0.0
  0
INSERT
  5
455
102
{ACAD_REACTORS
330
456
102
}
330
1F
100
AcDbEntity
  8
0
  6
Continuous
 62
     7
370
     0
100
AcDbBlockReference
  2
SW_NOTE_7
 10
6.074123569
 20
4.8992419299
 30
0.0
  0
LEADER
  5
456
330
1F
100
AcDbEntity
  8
0
  6
Continuous
 62
     7
370
     0
100
AcDbLeader
  3
SLDDIMSTYLE3
 73
     2
 76
     2
 10
6.9497385771
 20
4.7989874305
 30
0.0
 10
6.074123569
 20
4.8992419299
 30
0.0
340
455
  0
INSERT
  5
45C
330
1F
100
AcDbEntity
  8
0
  6
Continuous
 62
     7
370
     0
100
AcDbBlockReference
  2
SW_NOTE_8
 10
8.8601798135
 20
3.5818923547
 30
0.0
  0
LEADER
  5
45D
330
1F
100
AcDbEntity
  8
0
  6
Continuous
 62
     7
370
     0
100
AcDbLeader
  3
SLDDIMSTYLE3
 76
     2
 10
8.0841639216
 20
3.8747313433
 30
0.0
 10
8.8601798135
 20
3.5818923547
 30
0.0
  0
INSERT
  5
463
330
1F
100
AcDbEntity
  8
0
  6
Continuous
 62
     7
370
     0
100
AcDbBlockReference
  2
SW_NOTE_9
 10
8.9753805812
 20
4.0393803282
 30
0.0
  0
LEADER
  5
464
330
1F
100
AcDbEntity
  8
0
  6
Continuous
 62
     7
370
     0
100
AcDbLeader
  3
SLDDIMSTYLE3
 76
     2
 10
7.9352737141
 20
3.9778220859
 30
0.0
 10
8.9753805812
 20
4.0393803282
 30
0.0
  0
INSERT
  5
46A
102
{ACAD_REACTORS
330
46B
102
}
330
1F
100
AcDbEntity
  8
0
  6
Continuous
 62
     7
370
     0
100
AcDbBlockReference
  2
SW_NOTE_10
 10
6.0841436956
 20
3.8947737741
 30
0.0
  0
LEADER
  5
46B
330
1F
100
AcDbEntity
  8
0
  6
Continuous
 62
     7
370
     0
100
AcDbLeader
  3
SLDDIMSTYLE3
 73
     2
 76
     2
 10
6.7457486587
 20
3.9778220859
 30
0.0
 10
6.0841436956
 20
3.8947737741
 30
0.0
340
46A
  0
HATCH
  5
46C
330
1F
100
AcDbEntity
  8
0
  6
Continuous
 62
     7
370
     0
100
AcDbHatch
 10
0.0
 20
0.0
 30
0.0
210
0.0
220
0.0
230
1.0
  2
ANSI35
 70
     0
 71
     0
 91
        1
 92
        0
 93
        4
 72
     1
 10
7.103155730298157
 20
4.927822085889574
 11
6.994271843131466
 21
4.927822085889574
 72
     2
 10
8.232145067520879
 20
4.427822085889574
 40
1.33503937007874
 50
158.0053021446881
 51
201.9946978553128
 73
     1
 72
     1
 10
6.994271843131466
 20
3.927822085889574
 11
7.103155730298157
 21
3.927822085889574
 72
     2
 10
5.34041278405631
 20
4.427822085889574
 40
1.832283464566929
 50
344.1640733499593
 51
375.8359266500422
 73
     1
 97
        0
 75
     0
 76
     1
 52
0.0
 41
1.0
 77
     0
 78
     2
 53
45.0
 43
0.0
 44
0.0
 45
-0.1767766952966369
 46
0.1767766952966369
 79
     0
 53
45.0
 43
0.176776695
 44
0.0
 45
-0.1767766952966369
 46
0.1767766952966369
 79
     4
 49
0.3125
 49
-0.0625
 49
0.0
 49
-0.0625
 98
        1
 10
0.0
 20
0.0
  0
HATCH
  5
46D
330
1F
100
AcDbEntity
  8
0
  6
Continuous
 62
     7
370
     0
100
AcDbHatch
 10
0.0
 20
0.0
 30
0.0
210
0.0
220
0.0
230
1.0
  2
ANSI35
 70
     0
 71
     0
 91
        1
 92
        0
 93
        4
 72
     1
 10
7.61023099218
 20
4.927822085889574
 11
7.511319789218212
 21
4.927822085889574
 72
     2
 10
8.724956730741196
 20
4.427822085889574
 40
1.312598425196854
 50
157.609082358962
 51
202.3909176410389
 73
     1
 72
     1
 10
7.511319789218212
 20
3.927822085889574
 11
7.61023099218
 21
3.927822085889574
 72
     2
 10
6.88952365987505
 20
4.427822085889574
 40
0.8771653543307086
 50
325.2485222972108
 51
394.7514777027908
 73
     1
 97
        0
 75
     0
 76
     1
 52
0.0
 41
1.0
 77
     0
 78
     2
 53
45.0
 43
0.0
 44
0.0
 45
-0.1767766952966369
 46
0.1767766952966369
 79
     0
 53
45.0
 43
0.176776695
 44
0.0
 45
-0.1767766952966369
 46
0.1767766952966369
 79
     4
 49
0.3125
 49
-0.0625
 49
0.0
 49
-0.0625
 98
        1
 10
0.0
 20
0.0
  0
HATCH
  5
46E
330
1F
100
AcDbEntity
  8
0
  6
Continuous
 62
     7
370
     0
100
AcDbHatch
 10
0.0
 20
0.0
 30
0.0
210
0.0
220
0.0
230
1.0
  2
ANSI35
 70
     0
 71
     0
 91
        1
 92
        0
 93
        4
 72
     1
 10
7.854200985540511
 20
4.927822085889569
 11
7.61023099218
 21
4.927822085889574
 72
     2
 10
6.88952365987505
 20
4.427822085889574
 40
0.8771653543307086
 50
325.2485222972109
 51
394.7514777027908
 73
     0
 72
     1
 10
7.61023099218
 20
3.927822085889574
 11
7.854200985540511
 21
3.927822085889578
 72
     2
 10
-3.594334607841565
 20
4.427822085889574
 40
11.45944881889772
 50
357.4992700087739
 51
362.5007299912277
 73
     1
 97
        0
 75
     0
 76
     1
 52
0.0
 41
1.0
 77
     0
 78
     2
 53
45.0
 43
0.0
 44
0.0
 45
-0.1767766952966369
 46
0.1767766952966369
 79
     0
 53
45.0
 43
0.176776695
 44
0.0
 45
-0.1767766952966369
 46
0.1767766952966369
 79
     4
 49
0.3125
 49
-0.0625
 49
0.0
 49
-0.0625
 98
        1
 10
0.0
 20
0.0
  0
HATCH
  5
46F
330
1F
100
AcDbEntity
  8
0
  6
Continuous
 62
     7
370
     0
100
AcDbHatch
 10
0.0
 20
0.0
 30
0.0
210
0.0
220
0.0
230
1.0
  2
ANSI31
 70
     0
 71
     0
 91
        1
 92
        0
 93
        6
 72
     1
 10
7.872594222157403
 20
4.945322085889575
 11
7.855273714081715
 21
4.935322085889574
 72
     1
 10
7.855273714081715
 20
4.935322085889574
 11
7.855273714081715
 21
4.877822085889574
 72
     1
 10
7.855273714081715
 20
4.877822085889574
 11
7.935273714081714
 21
4.877822085889574
 72
     1
 10
7.935273714081714
 20
4.877822085889574
 11
7.935273714081714
 21
4.928001577813885
 72
     1
 10
7.935273714081714
 20
4.928001577813885
 11
7.92527371408171
 21
4.945322085889582
 72
     1
 10
7.92527371408171
 20
4.945322085889582
 11
7.872594222157403
 21
4.945322085889575
 97
        0
 75
     0
 76
     1
 52
0.0
 41
1.0
 77
     0
 78
     1
 53
45.0
 43
0.0
 44
0.0
 45
-0.0883883476483184
 46
0.0883883476483184
 79
     0
 98
        1
 10
0.0
 20
0.0
  0
HATCH
  5
470
330
1F
100
AcDbEntity
  8
0
  6
Continuous
 62
     7
370
     0
100
AcDbHatch
 10
0.0
 20
0.0
 30
0.0
210
0.0
220
0.0
230
1.0
  2
ANSI31
 70
     0
 71
     0
 91
        1
 92
        0
 93
        6
 72
     1
 10
7.935273714081715
 20
3.927642593965263
 11
7.935273714081715
 21
3.977822085889574
 72
     1
 10
7.935273714081715
 20
3.977822085889574
 11
7.855273714081715
 21
3.977822085889574
 72
     1
 10
7.855273714081715
 20
3.977822085889574
 11
7.855273714081715
 21
3.920322085889574
 72
     1
 10
7.855273714081715
 20
3.920322085889574
 11
7.872594222157403
 21
3.910322085889574
 72
     1
 10
7.872594222157403
 20
3.910322085889574
 11
7.925273714081715
 21
3.910322085889574
 72
     1
 10
7.925273714081715
 20
3.910322085889574
 11
7.935273714081715
 21
3.927642593965263
 97
        0
 75
     0
 76
     1
 52
0.0
 41
1.0
 77
     0
 78
     1
 53
45.0
 43
0.0
 44
0.0
 45
-0.0883883476483184
 46
0.0883883476483184
 79
     0
 98
        1
 10
0.0
 20
0.0
  0
HATCH
  5
471
330
1F
100
AcDbEntity
  8
0
  6
Continuous
 62
     7
370
     0
100
AcDbHatch
 10
0.0
 20
0.0
 30
0.0
210
0.0
220
0.0
230
1.0
  2
ANSI31
 70
     0
 71
     0
 91
        1
 92
        0
 93
        6
 72
     1
 10
6.808428150662002
 20
3.910322085889574
 11
6.825748658737691
 21
3.920322085889574
 72
     1
 10
6.825748658737691
 20
3.920322085889574
 11
6.825748658737691
 21
3.977822085889574
 72
     1
 10
6.825748658737691
 20
3.977822085889574
 11
6.745748658737691
 21
3.977822085889574
 72
     1
 10
6.745748658737691
 20
3.977822085889574
 11
6.745748658737691
 21
3.927642593965262
 72
     1
 10
6.745748658737691
 20
3.927642593965262
 11
6.755748658737695
 21
3.910322085889566
 72
     1
 10
6.755748658737695
 20
3.910322085889566
 11
6.808428150662002
 21
3.910322085889574
 97
        0
 75
     0
 76
     1
 52
0.0
 41
1.0
 77
     0
 78
     1
 53
45.0
 43
0.0
 44
0.0
 45
-0.0883883476483184
 46
0.0883883476483184
 79
     0
 98
        1
 10
0.0
 20
0.0
  0
HATCH
  5
472
330
1F
100
AcDbEntity
  8
0
  6
Continuous
 62
     7
370
     0
100
AcDbHatch
 10
0.0
 20
0.0
 30
0.0
210
0.0
220
0.0
230
1.0
  2
ANSI31
 70
     0
 71
     0
 91
        1
 92
        0
 93
        6
 72
     1
 10
6.745748658737691
 20
4.928001577813885
 11
6.745748658737691
 21
4.877822085889574
 72
     1
 10
6.745748658737691
 20
4.877822085889574
 11
6.825748658737691
 21
4.877822085889574
 72
     1
 10
6.825748658737691
 20
4.877822085889574
 11
6.825748658737691
 21
4.935322085889574
 72
     1
 10
6.825748658737691
 20
4.935322085889574
 11
6.808428150662002
 21
4.945322085889575
 72
     1
 10
6.808428150662002
 20
4.945322085889575
 11
6.75574865873769
 21
4.945322085889575
 72
     1
 10
6.75574865873769
 20
4.945322085889575
 11
6.745748658737691
 21
4.928001577813885
 97
        0
 75
     0
 76
     1
 52
0.0
 41
1.0
 77
     0
 78
     1
 53
45.0
 43
0.0
 44
0.0
 45
-0.0883883476483184
 46
0.0883883476483184
 79
     0
 98
        1
 10
0.0
 20
0.0
  0
HATCH
  5
473
330
1F
100
AcDbEntity
  8
0
  6
Continuous
 62
     7
370
     0
100
AcDbHatch
 10
0.0
 20
0.0
 30
0.0
210
0.0
220
0.0
230
1.0
  2
ANSI31
 70
     0
 71
     0
 91
        1
 92
        0
 93
       28
 72
     1
 10
7.782009221012472
 20
4.931822085889574
 11
7.78316392155085
 21
4.933822085889574
 72
     1
 10
7.78316392155085
 20
4.933822085889574
 11
8.06684341347516
 21
4.933822085889574
 72
     1
 10
8.06684341347516
 20
4.933822085889574
 11
8.08416392155085
 21
4.943822085889574
 72
     1
 10
8.08416392155085
 20
4.943822085889574
 11
8.08416392155085
 21
5.017822085889574
 72
     1
 10
8.08416392155085
 20
5.017822085889574
 11
8.07416392155085
 21
5.027822085889574
 72
     1
 10
8.07416392155085
 20
5.027822085889574
 11
8.00416392155085
 21
5.027822085889574
 72
     1
 10
8.00416392155085
 20
5.027822085889574
 11
7.945982103369032
 21
5.027822085889574
 72
     1
 10
7.945982103369032
 20
5.027822085889574
 11
7.069228856615786
 21
5.027822085889574
 72
     1
 10
7.069228856615786
 20
5.027822085889574
 11
7.051566518953448
 21
5.027822085889574
 72
     1
 10
7.051566518953448
 20
5.027822085889574
 11
6.922085999472928
 21
5.027822085889574
 72
     1
 10
6.922085999472928
 20
5.027822085889574
 11
6.842085999472929
 21
5.027822085889574
 72
     1
 10
6.842085999472929
 20
5.027822085889574
 11
6.754163921550851
 21
5.027822085889574
 72
     1
 10
6.754163921550851
 20
5.027822085889574
 11
6.695982103369032
 21
5.027822085889574
 72
     1
 10
6.695982103369032
 20
5.027822085889574
 11
6.60916392155085
 21
5.027822085889574
 72
     1
 10
6.60916392155085
 20
5.027822085889574
 11
6.59916392155085
 21
5.017822085889574
 72
     1
 10
6.59916392155085
 20
5.017822085889574
 11
6.59916392155085
 21
4.943822085889574
 72
     1
 10
6.59916392155085
 20
4.943822085889574
 11
6.616484429626539
 21
4.933822085889574
 72
     1
 10
6.616484429626539
 20
4.933822085889574
 11
6.900163921550851
 21
4.933822085889574
 72
     1
 10
6.900163921550851
 20
4.933822085889574
 11
6.90131862208923
 21
4.931822085889574
 72
     1
 10
6.90131862208923
 20
4.931822085889574
 11
7.09416392155085
 21
4.931822085889574
 72
     1
 10
7.09416392155085
 20
4.931822085889574
 11
7.09416392155085
 21
4.952822085889574
 72
     1
 10
7.09416392155085
 20
4.952822085889574
 11
7.11416392155085
 21
4.952822085889574
 72
     1
 10
7.11416392155085
 20
4.952822085889574
 11
7.11416392155085
 21
4.878822085889574
 72
     1
 10
7.11416392155085
 20
4.878822085889574
 11
7.49416392155085
 21
4.878822085889574
 72
     1
 10
7.49416392155085
 20
4.878822085889574
 11
7.49416392155085
 21
4.952822085889574
 72
     1
 10
7.49416392155085
 20
4.952822085889574
 11
7.514163921550851
 21
4.952822085889574
 72
     1
 10
7.514163921550851
 20
4.952822085889574
 11
7.514163921550851
 21
4.931822085889574
 72
     1
 10
7.514163921550851
 20
4.931822085889574
 11
7.782009221012472
 21
4.931822085889574
 97
        0
 75
     0
 76
     1
 52
0.0
 41
1.0
 77
     0
 78
     1
 53
45.0
 43
0.0
 44
0.0
 45
-0.0883883476483184
 46
0.0883883476483184
 79
     0
 98
        1
 10
0.0
 20
0.0
  0
HATCH
  5
474
330
1F
100
AcDbEntity
  8
0
  6
Continuous
 62
     7
370
     0
100
AcDbHatch
 10
0.0
 20
0.0
 30
0.0
210
0.0
220
0.0
230
1.0
  2
ANSI31
 70
     0
 71
     0
 91
        1
 92
        0
 93
       28
 72
     1
 10
8.08416392155085
 20
3.911822085889574
 11
8.06684341347516
 21
3.921822085889574
 72
     1
 10
8.06684341347516
 20
3.921822085889574
 11
7.78316392155085
 21
3.921822085889574
 72
     1
 10
7.78316392155085
 20
3.921822085889574
 11
7.782009221012472
 21
3.923822085889574
 72
     1
 10
7.782009221012472
 20
3.923822085889574
 11
7.514163921550851
 21
3.923822085889574
 72
     1
 10
7.514163921550851
 20
3.923822085889574
 11
7.514163921550851
 21
3.902822085889574
 72
     1
 10
7.514163921550851
 20
3.902822085889574
 11
7.49416392155085
 21
3.902822085889574
 72
     1
 10
7.49416392155085
 20
3.902822085889574
 11
7.49416392155085
 21
3.976822085889574
 72
     1
 10
7.49416392155085
 20
3.976822085889574
 11
7.11416392155085
 21
3.976822085889574
 72
     1
 10
7.11416392155085
 20
3.976822085889574
 11
7.11416392155085
 21
3.902822085889574
 72
     1
 10
7.11416392155085
 20
3.902822085889574
 11
7.09416392155085
 21
3.902822085889574
 72
     1
 10
7.09416392155085
 20
3.902822085889574
 11
7.09416392155085
 21
3.923822085889574
 72
     1
 10
7.09416392155085
 20
3.923822085889574
 11
6.90131862208923
 21
3.923822085889574
 72
     1
 10
6.90131862208923
 20
3.923822085889574
 11
6.900163921550851
 21
3.921822085889574
 72
     1
 10
6.900163921550851
 20
3.921822085889574
 11
6.616484429626539
 21
3.921822085889575
 72
     1
 10
6.616484429626539
 20
3.921822085889575
 11
6.59916392155085
 21
3.911822085889574
 72
     1
 10
6.59916392155085
 20
3.911822085889574
 11
6.59916392155085
 21
3.837822085889574
 72
     1
 10
6.59916392155085
 20
3.837822085889574
 11
6.60916392155085
 21
3.827822085889574
 72
     1
 10
6.60916392155085
 20
3.827822085889574
 11
6.674163921550851
 21
3.827822085889574
 72
     1
 10
6.674163921550851
 20
3.827822085889574
 11
6.691103057455758
 21
3.827822085889574
 72
     1
 10
6.691103057455758
 20
3.827822085889574
 11
6.703970685507269
 21
3.827822085889574
 72
     1
 10
6.703970685507269
 20
3.827822085889574
 11
6.71992848023931
 21
3.827822085889574
 72
     1
 10
6.71992848023931
 20
3.827822085889574
 11
6.735410477347504
 21
3.827822085889574
 72
     1
 10
6.735410477347504
 20
3.827822085889574
 11
6.754163921550851
 21
3.827822085889574
 72
     1
 10
6.754163921550851
 20
3.827822085889574
 11
6.843914848692773
 21
3.827822085889574
 72
     1
 10
6.843914848692773
 20
3.827822085889574
 11
6.920363578447285
 21
3.827822085889574
 72
     1
 10
6.920363578447285
 20
3.827822085889574
 11
8.07416392155085
 21
3.827822085889574
 72
     1
 10
8.07416392155085
 20
3.827822085889574
 11
8.08416392155085
 21
3.837822085889574
 72
     1
 10
8.08416392155085
 20
3.837822085889574
 11
8.08416392155085
 21
3.911822085889574
 97
        0
 75
     0
 76
     1
 52
0.0
 41
1.0
 77
     0
 78
     1
 53
45.0
 43
0.0
 44
0.0
 45
-0.0883883476483184
 46
0.0883883476483184
 79
     0
 98
        1
 10
0.0
 20
0.0
  0
HATCH
  5
475
330
1F
100
AcDbEntity
  8
0
  6
Continuous
 62
     7
370
     0
100
AcDbHatch
 10
0.0
 20
0.0
 30
0.0
210
0.0
220
0.0
230
1.0
  2
ANSI35
 70
     0
 71
     0
 91
        1
 92
        0
 93
        4
 72
     1
 10
6.994271843131464
 20
4.927822085889572
 11
6.832060769356167
 21
4.927822085889574
 72
     2
 10
10.56009782342639
 20
4.42782208588957
 40
3.761417322834654
 50
172.3611411862246
 51
187.638858813776
 73
     1
 72
     1
 10
6.832060769356167
 20
3.927822085889574
 11
6.994271843131464
 21
3.927822085889577
 72
     2
 10
8.232145067520879
 20
4.427822085889574
 40
1.33503937007874
 50
158.0053021446882
 51
201.9946978553126
 73
     0
 97
        0
 75
     0
 76
     1
 52
0.0
 41
1.0
 77
     0
 78
     2
 53
45.0
 43
0.0
 44
0.0
 45
-0.1767766952966369
 46
0.1767766952966369
 79
     0
 53
45.0
 43
0.176776695
 44
0.0
 45
-0.1767766952966369
 46
0.1767766952966369
 79
     4
 49
0.3125
 49
-0.0625
 49
0.0
 49
-0.0625
 98
        1
 10
0.0
 20
0.0
  0
ENDSEC
  0
SECTION
  2
OBJECTS
  0
DICTIONARY
  5
C
330
0
100
AcDbDictionary
281
     1
  3
ACAD_GROUP
350
D
  3
ACAD_LAYOUT
350
1A
  3
ACAD_MLINESTYLE
350
17
  3
ACAD_PLOTSETTINGS
350
19
  3
ACAD_PLOTSTYLENAME
350
E
  0
DICTIONARY
  5
D
102
{ACAD_REACTORS
330
C
102
}
330
C
100
AcDbDictionary
281
     1
  0
DICTIONARY
  5
1A
102
{ACAD_REACTORS
330
C
102
}
330
C
100
AcDbDictionary
281
     1
  3
Layout1
350
1E
  3
Layout2
350
26
  3
Model
350
22
  0
DICTIONARY
  5
17
102
{ACAD_REACTORS
330
C
102
}
330
C
100
AcDbDictionary
281
     1
  3
Standard
350
18
  0
DICTIONARY
  5
19
102
{ACAD_REACTORS
330
C
102
}
330
C
100
AcDbDictionary
281
     1
  0
ACDBDICTIONARYWDFLT
  5
E
102
{ACAD_REACTORS
330
C
102
}
330
C
100
AcDbDictionary
281
     1
  3
Normal
350
F
100
AcDbDictionaryWithDefault
340
F
  0
LAYOUT
  5
1E
102
{ACAD_REACTORS
330
1A
102
}
330
1A
100
AcDbPlotSettings
  1

  2
none_device
  4

  6

 40
0.0
 41
0.0
 42
0.0
 43
0.0
 44
0.0
 45
0.0
 46
0.0
 47
0.0
 48
0.0
 49
0.0
140
0.0
141
0.0
142
1.0
143
1.0
 70
   688
 72
     0
 73
     0
 74
     5
  7

 75
    16
147
1.0
148
0.0
149
0.0
100
AcDbLayout
  1
Layout1
 70
     1
 71
     1
 10
0.0
 20
0.0
 11
12.0
 21
9.0
 12
0.0
 22
0.0
 32
0.0
 14
1.0000000000E+20
 24
1.0000000000E+20
 34
1.0000000000E+20
 15
-1.0000000000E+20
 25
-1.0000000000E+20
 35
-1.0000000000E+20
146
0.0
 13
0.0
 23
0.0
 33
0.0
 16
1.0
 26
0.0
 36
0.0
 17
0.0
 27
1.0
 37
0.0
 76
     0
330
1B
  0
LAYOUT
  5
26
102
{ACAD_REACTORS
330
1A
102
}
330
1A
100
AcDbPlotSettings
  1

  2
none_device
  4

  6

 40
0.0
 41
0.0
 42
0.0
 43
0.0
 44
0.0
 45
0.0
 46
0.0
 47
0.0
 48
0.0
 49
0.0
140
0.0
141
0.0
142
1.0
143
1.0
 70
   688
 72
     0
 73
     0
 74
     5
  7

 75
    16
147
1.0
148
0.0
149
0.0
100
AcDbLayout
  1
Layout2
 70
     1
 71
     2
 10
0.0
 20
0.0
 11
0.0
 21
0.0
 12
0.0
 22
0.0
 32
0.0
 14
0.0
 24
0.0
 34
0.0
 15
0.0
 25
0.0
 35
0.0
146
0.0
 13
0.0
 23
0.0
 33
0.0
 16
1.0
 26
0.0
 36
0.0
 17
0.0
 27
1.0
 37
0.0
 76
     0
330
23
  0
LAYOUT
  5
22
102
{ACAD_REACTORS
330
1A
102
}
330
1A
100
AcDbPlotSettings
  1

  2
none_device
  4

  6

 40
0.0
 41
0.0
 42
0.0
 43
0.0
 44
0.0
 45
0.0
 46
0.0
 47
0.0
 48
0.0
 49
0.0
140
0.0
141
0.0
142
1.0
143
1.0
 70
  1712
 72
     0
 73
     0
 74
     0
  7

 75
     0
147
1.0
148
0.0
149
0.0
100
AcDbLayout
  1
Model
 70
     1
 71
     0
 10
0.0
 20
0.0
 11
0.0
 21
0.0
 12
0.0
 22
0.0
 32
0.0
 14
0.0
 24
0.0
 34
0.0
 15
11.0
 25
8.5
 35
0.0
146
0.0
 13
0.0
 23
0.0
 33
0.0
 16
1.0
 26
0.0
 36
0.0
 17
0.0
 27
1.0
 37
0.0
 76
     0
330
1F
  0
MLINESTYLE
  5
18
102
{ACAD_REACTORS
330
17
102
}
330
17
100
AcDbMlineStyle
  2
Standard
 70
     0
  3

 62
   256
 51
90.0
 52
90.0
 71
     2
 49
0.5
 62
   256
  6
BYLAYER
 49
-0.5
 62
   256
  6
BYLAYER
  0
ACDBPLACEHOLDER
  5
F
102
{ACAD_REACTORS
330
E
102
}
330
E
  0
ENDSEC
  0
EOF
