  0
SECTION
  2
HEADER
  9
$ACADVER
  1
AC1012
  9
$DWGCODEPAGE
  3
ansi_1252
  9
$INSBASE
 10
0.0
 20
0.0
 30
0.0
  9
$EXTMIN
 10
0.0
 20
0.0
 30
0.0
  9
$EXTMAX
 10
11.0
 20
8.5
 30
0.0
  9
$LIMMIN
 10
0.0
 20
0.0
  9
$LIMMAX
 10
0.0
 20
0.0
  9
$ORTHOMODE
 70
         0
  9
$REGENMODE
 70
         1
  9
$FILLMODE
 70
         1
  9
$QTEXTMODE
 70
         0
  9
$MIRRTEXT
 70
         1
  9
$DRAGMODE
 70
         2
  9
$LTSCALE
 40
1.0
  9
$OSMODE
 70
         0
  9
$ATTMODE
 70
         1
  9
$TEXTSIZE
 40
0.1111111111
  9
$TRACEWID
 40
0.05
  9
$TEXTSTYLE
  7
STANDARD
  9
$CLAYER
  8
0
  9
$CELTYPE
  6
CONTINUOUS
  9
$CECOLOR
 62
       256
  9
$CELTSCALE
 40
1.0
  9
$DELOBJ
 70
         1
  9
$DISPSILH
 70
         0
  9
$DIMSCALE
 40
1.0
  9
$DIMASZ
 40
39.3700787402
  9
$DIMEXO
 40
0.0
  9
$DIMDLI
 40
0.38
  9
$DIMRND
 40
0.0
  9
$DIMDLE
 40
39.3700787402
  9
$DIMEXE
 40
0.18
  9
$DIMTP
 40
0.0
  9
$DIMTM
 40
0.0
  9
$DIMTXT
 40
0.1111111111
  9
$DIMCEN
 40
0.09
  9
$DIMTSZ
 40
0.0
  9
$DIMTOL
 70
         0
  9
$DIMLIM
 70
         0
  9
$DIMTIH
 70
         1
  9
$DIMTOH
 70
         1
  9
$DIMSE1
 70
         0
  9
$DIMSE2
 70
         0
  9
$DIMTAD
 70
         0
  9
$DIMZIN
 70
         1
  9
$DIMBLK
  1

  9
$DIMASO
 70
         1
  9
$DIMSHO
 70
         1
  9
$DIMPOST
  1

  9
$DIMAPOST
  1

  9
$DIMALT
 70
         0
  9
$DIMALTD
 70
         2
  9
$DIMALTF
 40
25.4
  9
$DIMLFAC
 40
1.0
  9
$DIMTOFL
 70
         0
  9
$DIMTVP
 40
0.0
  9
$DIMTIX
 70
         0
  9
$DIMSOXD
 70
         0
  9
$DIMSAH
 70
         0
  9
$DIMBLK1
  1

  9
$DIMBLK2
  1

  9
$DIMSTYLE
  2
STANDARD
  9
$DIMCLRD
 70
         0
  9
$DIMCLRE
 70
         0
  9
$DIMCLRT
 70
         0
  9
$DIMTFAC
 40
1.0
  9
$DIMGAP
 40
0.0
  9
$DIMJUST
 70
         0
  9
$DIMSD1
 70
         0
  9
$DIMSD2
 70
         0
  9
$DIMTOLJ
 70
         1
  9
$DIMTZIN
 70
         1
  9
$DIMALTZ
 70
         0
  9
$DIMALTTZ
 70
         0
  9
$DIMFIT
 70
         3
  9
$DIMUPT
 70
         0
  9
$DIMUNIT
 70
         2
  9
$DIMDEC
 70
         4
  9
$DIMTDEC
 70
         4
  9
$DIMALTU
 70
         2
  9
$DIMALTTD
 70
         2
  9
$DIMTXSTY
  7
STANDARD
  9
$DIMAUNIT
 70
         0
  9
$LUNITS
 70
         2
  9
$LUPREC
 70
         2
  9
$SKETCHINC
 40
0.1
  9
$FILLETRAD
 40
0.0
  9
$AUNITS
 70
         0
  9
$AUPREC
 70
         2
  9
$MENU
  1
acad
  9
$ELEVATION
 40
0.0
  9
$PELEVATION
 40
0.0
  9
$THICKNESS
 40
0.0
  9
$LIMCHECK
 70
         0
  9
$BLIPMODE
 70
         1
  9
$CHAMFERA
 40
0.0
  9
$CHAMFERB
 40
0.0
  9
$CHAMFERC
 40
0.0
  9
$CHAMFERD
 40
0.0
  9
$SKPOLY
 70
         0
  9
$TDCREATE
 40
0.000000000
  9
$TDUPDATE
 40
0.000000000
  9
$TDINDWG
 40
0.0000000000
  9
$TDUSRTIMER
 40
0.0000000000
  9
$USRTIMER
 70
         1
  9
$ANGBASE
 50
0.0
  9
$ANGDIR
 70
         0
  9
$PDMODE
 70
         0
  9
$PDSIZE
 40
-1.0
  9
$PLINEWID
 40
0.0
  9
$COORDS
 70
         0
  9
$SPLFRAME
 70
         0
  9
$SPLINETYPE
 70
         6
  9
$SPLINESEGS
 70
         8
  9
$ATTDIA
 70
         0
  9
$ATTREQ
 70
         1
  9
$HANDLING
 70
         1
  9
$HANDSEED
  5
687
  9
$SURFTAB1
 70
         6
  9
$SURFTAB2
 70
         6
  9
$SURFTYPE
 70
         6
  9
$SURFU
 70
         6
  9
$SURFV
 70
         6
  9
$UCSNAME
  2

  9
$UCSORG
 10
0.0
 20
0.0
 30
0.0
  9
$UCSXDIR
 10
1.0
 20
0.0
 30
0.0
  9
$UCSYDIR
 10
0.0
 20
1.0
 30
0.0
  9
$PUCSNAME
  2

  9
$PUCSORG
 10
0.0
 20
0.0
 30
0.0
  9
$PUCSXDIR
 10
1.0
 20
0.0
 30
0.0
  9
$PUCSYDIR
 10
0.0
 20
1.0
 30
0.0
  9
$USERI1
 70
         0
  9
$USERI2
 70
         0
  9
$USERI3
 70
         0
  9
$USERI4
 70
         0
  9
$USERI5
 70
         0
  9
$USERR1
 40
0.0
  9
$USERR2
 40
0.0
  9
$USERR3
 40
0.0
  9
$USERR4
 40
0.0
  9
$USERR5
 40
0.0
  9
$WORLDVIEW
 70
         1
  9
$SHADEDGE
 70
         3
  9
$SHADEDIF
 70
        70
  9
$TILEMODE
 70
         1
  9
$MAXACTVP
 70
        16
  9
$PINSBASE
 10
0.0
 20
0.0
 30
0.0
  9
$PLIMCHECK
 70
         0
  9
$PEXTMIN
 10
1.0000000000E+20
 20
1.0000000000E+20
 30
1.0000000000E+20
  9
$PEXTMAX
 10
-1.0000000000E+20
 20
-1.0000000000E+20
 30
-1.0000000000E+20
  9
$PLIMMIN
 10
0.0
 20
0.0
  9
$PLIMMAX
 10
12.0
 20
9.0
  9
$UNITMODE
 70
         0
  9
$VISRETAIN
 70
         0
  9
$PLINEGEN
 70
         1
  9
$PSLTSCALE
 70
         1
  9
$TREEDEPTH
 70
      3020
  9
$PICKSTYLE
 70
         1
  9
$CMLSTYLE
  2
STANDARD
  9
$CMLJUST
 70
         0
  9
$CMLSCALE
 40
1.0
  9
$SAVEIMAGES
 70
         0
  0
ENDSEC
  0
SECTION
  2
CLASSES
  0
CLASS
  1
LWPOLYLINE
  2
AcDbPolyline
  3
"AutoCAD"
 90
    32768
280
         0
281
         1
  0
CLASS
  1
IMAGE
  2
AcDbRasterImage
  3
ISM
 90
    32895
280
         0
281
         1
  0
CLASS
  1
OLE2FRAME
  2
AcDbOle2Frame
  3
""
 90
    32768
280
         0
281
         1
  0
CLASS
  1
HATCH
  2
AcDbHatch
  3
"ACAD_SEDONA"
 90
    32768
280
         0
281
         1
  0
CLASS
  1
DICTIONARYVAR
  2
AcDbDictionaryVar
  3
"AutoCAD"
 90
    32768
280
         0
281
         0
  0
CLASS
  1
RASTERVARIABLES
  2
AcDbRasterVariables
  3
ISM
 90
    32768
280
         0
281
         0
  0
CLASS
  1
IMAGEDEF
  2
AcDbRasterImageDef
  3
ISM
 90
    32768
280
         0
281
         0
  0
CLASS
  1
IMAGEDEF_REACTOR
  2
AcDbRasterImageDefReactor
  3
ISM
 90
    32769
280
         0
281
         0
  0
CLASS
  1
IDBUFFER
  2
AcDbIdBuffer
  3
"Acad"
 90
    32768
280
         0
281
         0
  0
CLASS
  1
SPATIAL_FILTER
  2
AcDbSpatialFilter
  3
"Acad"
 90
    32768
280
         0
281
         0
  0
CLASS
  1
XRECORD
  2
AcDbXrecord
  3
"<Built In>"
 90
    32768
280
         0
281
         0
  0
CLASS
  1
SORTENTSTABLE
  2
AcDbSortentsTable
  3
"AutoCAD"
 90
    32768
280
         0
281
         0
  0
CLASS
  1
LAYER_INDEX
  2
AcDbLayerIndex
  3
"Acad"
 90
    32768
280
         0
281
         0
  0
CLASS
  1
SPATIAL_INDEX
  2
AcDbSpatialIndex
  3
"Acad"
 90
    32768
280
         0
281
         0
  0
CLASS
  1
OBJECT_PTR
  2
CAseDLPNTableRecord
  3
"ASE-LPNTableRecord"
 90
    32769
280
         0
281
         0
  0
CLASS
  1
LAYOUT
  2
AcDbLayout
  3
"AutoCAD 2000"
 90
    32768
280
         0
281
         0
  0
CLASS
  1
PLOTSETTINGS
  2
AcDbPlotSettings
  3
"AutoCAD 2000"
 90
    32768
280
         0
281
         0
  0
CLASS
  1
ACDBDICTIONARYWDFLT
  2
AcDbDictionaryWithDefault
  3
"AutoCAD 2000"
 90
    32768
280
         0
281
         0
  0
CLASS
  1
ACDBPLACEHOLDER
  2
AcDbPlaceHolder
  3
"AutoCAD 2000"
 90
    32768
280
         0
281
         0
  0
CLASS
  1
VBA_PROJECT
  2
AcDbVbaProject
  3
"acadvba"
 90
    32768
280
         0
281
         0
  0
CLASS
  1
WIPEOUT
  2
AcDbWipeout
  3
WipeOut|AutoCAD Express Tool|expresstools@autodesk.com
 90
    32895
280
         0
281
         1
  0
CLASS
  1
WIPEOUTVARIABLES
  2
AcDbWipeoutVariables
  3
WipeOut|AutoCAD Express Tool|expresstools@autodesk.com
 90
    32768
280
         0
281
         0
  0
CLASS
  1
RTEXT
  2
RText
  3
RText|AutoCAD Express Tool|expresstools@autodesk.com
 90
    32768
280
         0
281
         1
  0
CLASS
  1
ARCALIGNEDTEXT
  2
AcDbArcAlignedText
  3
ATEXT|AutoCAD Express Tool|expresstools@autodesk.com
 90
    32768
280
         0
281
         1
  0
ENDSEC
  0
SECTION
  2
TABLES
  0
TABLE
  2
VPORT
  5
7
100
AcDbSymbolTable
 70
         1
  0
VPORT
  5
15
100
AcDbSymbolTableRecord
100
AcDbViewportTableRecord
  2
*ACTIVE
 70
         0
 10
0.0
 20
0.0
 11
1.0
 21
1.0
 12
5.5
 22
4.25
 13
0.0
 23
0.0
 14
1.0
 24
1.0
 15
0.0
 25
0.0
 16
0.0
 26
0.0
 36
1.0
 17
0.0
 27
0.0
 37
0.0
 40
8.5
 41
0.7727272727
 42
50.0
 43
0.0
 44
0.0
 50
0.0
 51
0.0
 71
         0
 72
      2000
 73
         1
 74
         1
 75
         0
 76
         0
 77
         0
 78
         0
  0
ENDTAB
  0
TABLE
  2
LTYPE
  5
4
100
AcDbSymbolTable
 70
         8
  0
LTYPE
  5
11
100
AcDbSymbolTableRecord
100
AcDbLinetypeTableRecord
  2
BYBLOCK
 70
        64
  3

 72
        65
 73
         0
 40
0.0
  0
LTYPE
  5
12
100
AcDbSymbolTableRecord
100
AcDbLinetypeTableRecord
  2
BYLAYER
 70
        64
  3

 72
        65
 73
         0
 40
0.0
  0
LTYPE
  5
13
100
AcDbSymbolTableRecord
100
AcDbLinetypeTableRecord
  2
CONTINUOUS
 70
        64
  3
Solid line
 72
        65
 73
         0
 40
0.0
  0
LTYPE
  5
1D
100
AcDbSymbolTableRecord
100
AcDbLinetypeTableRecord
  2
HIDDEN
 70
        64
  3
Hidden __ __ __ __ __ __ __ __ __ __ __ __ __ __
 72
        65
 73
         2
 40
0.075
 49
0.05
 74
         0
 49
-0.025
 74
         0
  0
LTYPE
  5
1E
100
AcDbSymbolTableRecord
100
AcDbLinetypeTableRecord
  2
PHANTOM
 70
        64
  3
Phantom ______  __  __  ______  __  __  ______
 72
        65
 73
         6
 40
0.5
 49
0.25
 74
         0
 49
-0.05
 74
         0
 49
0.05
 74
         0
 49
-0.05
 74
         0
 49
0.05
 74
         0
 49
-0.05
 74
         0
  0
LTYPE
  5
1F
100
AcDbSymbolTableRecord
100
AcDbLinetypeTableRecord
  2
CENTER
 70
        64
  3
Center ____ _ ____ _ ____ _ ____ _ ____ _ ____
 72
        65
 73
         4
 40
0.4
 49
0.25
 74
         0
 49
-0.05
 74
         0
 49
0.05
 74
         0
 49
-0.05
 74
         0
  0
LTYPE
  5
20
100
AcDbSymbolTableRecord
100
AcDbLinetypeTableRecord
  2
CENTERX2
 70
        64
  3
Center (2x) ________  __  ________  __  _____
 72
        65
 73
         4
 40
0.8
 49
0.5
 74
         0
 49
-0.1
 74
         0
 49
0.1
 74
         0
 49
-0.1
 74
         0
  0
LTYPE
  5
21
100
AcDbSymbolTableRecord
100
AcDbLinetypeTableRecord
  2
DOT2
 70
        64
  3
Dot (.5x) ........................................
 72
        65
 73
         2
 40
0.025
 49
0.0
 74
         0
 49
-0.025
 74
         0
  0
ENDTAB
  0
TABLE
  2
LAYER
  5
2
100
AcDbSymbolTable
 70
         3
  0
LAYER
  5
14
100
AcDbSymbolTableRecord
100
AcDbLayerTableRecord
  2
0
 70
         0
 62
         7
  6
CONTINUOUS
  0
LAYER
  5
23
100
AcDbSymbolTableRecord
100
AcDbLayerTableRecord
  2
DEFPOINTS
 70
         0
 62
         7
  6
CONTINUOUS
  0
LAYER
  5
24
100
AcDbSymbolTableRecord
100
AcDbLayerTableRecord
  2
FORMAT
 70
         0
 62
         7
  6
CONTINUOUS
  0
ENDTAB
  0
TABLE
  2
STYLE
  5
3
100
AcDbSymbolTable
 70
         2
  0
STYLE
  5
17
100
AcDbSymbolTableRecord
100
AcDbTextStyleTableRecord
  2
STANDARD
 70
         0
 40
0.0
 41
1.0
 50
0.0
 71
         0
 42
0.0
  3
txt
  4

  0
STYLE
  5
45
100
AcDbSymbolTableRecord
100
AcDbTextStyleTableRecord
  2
SLDTEXTSTYLE0
 70
         0
 40
0.0
 41
0.75
 50
0.0
 71
         0
 42
0.0
  3
TXT
  4

  0
ENDTAB
  0
TABLE
  2
VIEW
  5
5
100
AcDbSymbolTable
 70
         0
  0
ENDTAB
  0
TABLE
  2
UCS
  5
6
100
AcDbSymbolTable
 70
         0
  0
ENDTAB
  0
TABLE
  2
APPID
  5
8
100
AcDbSymbolTable
 70
         1
  0
APPID
  5
16
100
AcDbSymbolTableRecord
100
AcDbRegAppTableRecord
  2
ACAD
 70
         0
  0
ENDTAB
  0
TABLE
  2
DIMSTYLE
  5
9
100
AcDbSymbolTable
 70
         5
  0
DIMSTYLE
105
18
100
AcDbSymbolTableRecord
100
AcDbDimStyleTableRecord
  2
STANDARD
 70
         0
  3

  4

  5

  6

  7

 40
1.0
 41
0.18
 42
0.0625
 43
0.38
 44
0.18
 45
0.0
 46
0.0
 47
0.0
 48
0.0
 71
         0
 72
         0
 73
         1
 74
         1
 75
         0
 76
         0
 77
         0
 78
         0
140
0.18
141
0.09
142
0.0
143
25.4
144
1.0
145
0.0
146
1.0
147
0.09
170
         0
171
         2
172
         0
173
         0
174
         0
175
         0
176
         0
177
         0
178
         0
270
         2
271
         4
272
         4
273
         2
274
         2
275
         0
280
         0
281
         0
282
         0
283
         1
284
         0
285
         0
286
         0
287
         3
288
         0
340
17
  0
DIMSTYLE
105
ED
100
AcDbSymbolTableRecord
100
AcDbDimStyleTableRecord
  2
SLDDIMSTYLE0
 70
         0
  3

  4

  5

  6

  7

 40
1.0
 41
0.125
 42
0.0625
 43
0.38
 44
0.07
 45
0.0
 46
0.0
 47
0.0
 48
0.0
 71
         0
 72
         0
 73
         1
 74
         1
 75
         0
 76
         0
 77
         0
 78
         8
140
0.1111111111
141
0.09
142
0.0
143
25.4
144
1.0
145
0.0
146
1.0
147
0.0277777778
170
         0
171
         2
172
         0
173
         1
174
         0
175
         0
176
         7
177
         7
178
         7
270
         2
271
         2
272
         4
273
         2
274
         2
275
         0
280
         0
281
         0
282
         0
283
         1
284
        12
285
         0
286
         0
287
         3
288
         0
340
45
  0
DIMSTYLE
105
FC
100
AcDbSymbolTableRecord
100
AcDbDimStyleTableRecord
  2
SLDDIMSTYLE1
 70
         0
  3

  4

  5

  6

  7

 40
1.0
 41
0.125
 42
0.0625
 43
0.38
 44
0.07
 45
0.0
 46
0.0
 47
0.0
 48
0.0
 71
         0
 72
         0
 73
         1
 74
         1
 75
         0
 76
         0
 77
         0
 78
        12
140
0.1111111111
141
0.09
142
0.0
143
25.4
144
1.0
145
0.0
146
1.0
147
0.0277777778
170
         0
171
         2
172
         0
173
         1
174
         0
175
         0
176
         7
177
         7
178
         7
270
         2
271
         2
272
         4
273
         2
274
         2
275
         0
280
         0
281
         0
282
         0
283
         1
284
        12
285
         0
286
         0
287
         3
288
         0
340
45
  0
DIMSTYLE
105
102
100
AcDbSymbolTableRecord
100
AcDbDimStyleTableRecord
  2
SLDDIMSTYLE2
 70
         0
  3

  4

  5

  6

  7

 40
1.0
 41
0.125
 42
0.0625
 43
0.38
 44
0.0
 45
0.0
 46
0.0
 47
0.0
 48
0.0
 71
         0
 72
         0
 73
         1
 74
         1
 75
         0
 76
         0
 77
         0
 78
         0
140
0.125
141
0.09
142
0.0
143
25.4
144
1.0
145
0.0
146
1.0
147
0.03125
170
         0
171
         2
172
         0
173
         1
174
         0
175
         0
176
         0
177
         0
178
         0
270
         2
271
         0
272
         0
273
         2
274
         2
275
         0
280
         0
281
         0
282
         0
283
         1
284
         0
285
         0
286
         0
287
         3
288
         0
340
17
  0
DIMSTYLE
105
148
100
AcDbSymbolTableRecord
100
AcDbDimStyleTableRecord
  2
SLDDIMSTYLE3
 70
         0
  3

  4

  5

  6

  7

 40
1.0
 41
0.125
 42
0.0625
 43
0.38
 44
0.07
 45
0.0
 46
0.0
 47
0.0
 48
0.0
 71
         0
 72
         0
 73
         1
 74
         1
 75
         0
 76
         0
 77
         0
 78
         0
140
0.1111111111
141
0.09
142
0.0
143
25.4
144
1.0
145
0.0
146
1.0
147
0.0277777778
170
         0
171
         2
172
         0
173
         1
174
         0
175
         0
176
         7
177
         7
178
         7
270
         2
271
         2
272
         4
273
         2
274
         2
275
         0
280
         0
281
         0
282
         0
283
         1
284
        12
285
         0
286
         0
287
         3
288
         0
340
45
  0
ENDTAB
  0
TABLE
  2
BLOCK_RECORD
  5
1
100
AcDbSymbolTable
 70
        30
  0
BLOCK_RECORD
  5
A
100
AcDbSymbolTableRecord
100
AcDbBlockTableRecord
  2
*MODEL_SPACE
  0
BLOCK_RECORD
  5
B
100
AcDbSymbolTableRecord
100
AcDbBlockTableRecord
  2
*PAPER_SPACE
  0
BLOCK_RECORD
  5
51
100
AcDbSymbolTableRecord
100
AcDbBlockTableRecord
  2
NOTE11
  0
BLOCK_RECORD
  5
6B
100
AcDbSymbolTableRecord
100
AcDbBlockTableRecord
  2
NOTE16
  0
BLOCK_RECORD
  5
73
100
AcDbSymbolTableRecord
100
AcDbBlockTableRecord
  2
NOTE21
  0
BLOCK_RECORD
  5
79
100
AcDbSymbolTableRecord
100
AcDbBlockTableRecord
  2
NOTE22
  0
BLOCK_RECORD
  5
7D
100
AcDbSymbolTableRecord
100
AcDbBlockTableRecord
  2
NOTE23
  0
BLOCK_RECORD
  5
81
100
AcDbSymbolTableRecord
100
AcDbBlockTableRecord
  2
NOTE24
  0
BLOCK_RECORD
  5
85
100
AcDbSymbolTableRecord
100
AcDbBlockTableRecord
  2
NOTE25
  0
BLOCK_RECORD
  5
89
100
AcDbSymbolTableRecord
100
AcDbBlockTableRecord
  2
NOTE26
  0
BLOCK_RECORD
  5
8D
100
AcDbSymbolTableRecord
100
AcDbBlockTableRecord
  2
NOTE27
  0
BLOCK_RECORD
  5
91
100
AcDbSymbolTableRecord
100
AcDbBlockTableRecord
  2
NOTE28
  0
BLOCK_RECORD
  5
95
100
AcDbSymbolTableRecord
100
AcDbBlockTableRecord
  2
NOTE29
  0
BLOCK_RECORD
  5
99
100
AcDbSymbolTableRecord
100
AcDbBlockTableRecord
  2
NOTE30
  0
BLOCK_RECORD
  5
9D
100
AcDbSymbolTableRecord
100
AcDbBlockTableRecord
  2
NOTE31
  0
BLOCK_RECORD
  5
A1
100
AcDbSymbolTableRecord
100
AcDbBlockTableRecord
  2
NOTE32
  0
BLOCK_RECORD
  5
AA
100
AcDbSymbolTableRecord
100
AcDbBlockTableRecord
  2
NOTE34
  0
BLOCK_RECORD
  5
BE
100
AcDbSymbolTableRecord
100
AcDbBlockTableRecord
  2
NOTE45
  0
BLOCK_RECORD
  5
C4
100
AcDbSymbolTableRecord
100
AcDbBlockTableRecord
  2
NOTE46
  0
BLOCK_RECORD
  5
E3
100
AcDbSymbolTableRecord
100
AcDbBlockTableRecord
  2
*D17
  0
BLOCK_RECORD
  5
F2
100
AcDbSymbolTableRecord
100
AcDbBlockTableRecord
  2
*D18
  0
BLOCK_RECORD
  5
103
100
AcDbSymbolTableRecord
100
AcDbBlockTableRecord
  2
NOTE48
  0
BLOCK_RECORD
  5
10A
100
AcDbSymbolTableRecord
100
AcDbBlockTableRecord
  2
SW_CENTERMARK0
  0
BLOCK_RECORD
  5
13D
100
AcDbSymbolTableRecord
100
AcDbBlockTableRecord
  2
*D21
  0
BLOCK_RECORD
  5
14D
100
AcDbSymbolTableRecord
100
AcDbBlockTableRecord
  2
*D22
  0
BLOCK_RECORD
  5
15D
100
AcDbSymbolTableRecord
100
AcDbBlockTableRecord
  2
*D23
  0
BLOCK_RECORD
  5
16B
100
AcDbSymbolTableRecord
100
AcDbBlockTableRecord
  2
*D24
  0
BLOCK_RECORD
  5
17A
100
AcDbSymbolTableRecord
100
AcDbBlockTableRecord
  2
NOTE49
  0
BLOCK_RECORD
  5
181
100
AcDbSymbolTableRecord
100
AcDbBlockTableRecord
  2
NOTE50
  0
BLOCK_RECORD
  5
1CA
100
AcDbSymbolTableRecord
100
AcDbBlockTableRecord
  2
*D27
  0
BLOCK_RECORD
  5
1D8
100
AcDbSymbolTableRecord
100
AcDbBlockTableRecord
  2
*D28
  0
BLOCK_RECORD
  5
1E7
100
AcDbSymbolTableRecord
100
AcDbBlockTableRecord
  2
NOTE51
  0
ENDTAB
  0
ENDSEC
  0
SECTION
  2
BLOCKS
  0
BLOCK
  5
D
100
AcDbEntity
  8
0
100
AcDbBlockBegin
  2
*MODEL_SPACE
 70
         0
 10
0.0
 20
0.0
 30
0.0
  3
*MODEL_SPACE
  1

  0
ENDBLK
  5
E
100
AcDbEntity
  8
0
100
AcDbBlockEnd
  0
BLOCK
  5
F
100
AcDbEntity
 67
         1
  8
0
100
AcDbBlockBegin
  2
*PAPER_SPACE
 70
         0
 10
0.0
 20
0.0
 30
0.0
  3
*PAPER_SPACE
  1

  0
ENDBLK
  5
10
100
AcDbEntity
 67
         1
  8
0
100
AcDbBlockEnd
  0
BLOCK
  5
52
100
AcDbEntity
  8
0
 62
         0
100
AcDbBlockBegin
  2
NOTE11
 70
         0
 10
0.0
 20
0.0
 30
0.0
  3
NOTE11
  1

  0
MTEXT
  5
53
100
AcDbEntity
  8
0
 62
         7
100
AcDbMText
 10
0.0
 20
0.1018700787
 30
0.0
 40
0.0625
 41
0.0
 71
         1
 72
         1
  1
DIMENSIONS ARE IN INCHES
  7
SLDTEXTSTYLE0
  0
MTEXT
  5
54
100
AcDbEntity
  8
0
 62
         7
100
AcDbMText
 10
0.0
 20
0.0185367464
 30
0.0
 40
0.0625
 41
0.0
 71
         1
 72
         1
  1
LINEAR TOLERANCES: 
  7
SLDTEXTSTYLE0
  0
MTEXT
  5
55
100
AcDbEntity
  8
0
 62
         7
100
AcDbMText
 10
0.0
 20
-0.0647965859
 30
0.0
 40
0.0625
 41
0.0
 71
         1
 72
         1
  1
    TWO PLACE DECIMAL: 
  7
SLDTEXTSTYLE0
  0
MTEXT
  5
56
100
AcDbEntity
  8
0
 62
         7
100
AcDbMText
 10
0.9860966619
 20
-0.0647965859
 30
0.0
 40
0.0625
 41
0.0
 71
         1
 72
         1
  1
%%p
  7
SLDTEXTSTYLE0
  0
MTEXT
  5
57
100
AcDbEntity
  8
0
 62
         7
100
AcDbMText
 10
1.0456799669
 20
-0.0647965859
 30
0.0
 40
0.0625
 41
0.0
 71
         1
 72
         1
  1
0.010
  7
SLDTEXTSTYLE0
  0
MTEXT
  5
58
100
AcDbEntity
  8
0
 62
         7
100
AcDbMText
 10
0.0
 20
-0.1481299182
 30
0.0
 40
0.0625
 41
0.0
 71
         1
 72
         1
  1
    THREE PLACE DECIMAL: 
  7
SLDTEXTSTYLE0
  0
MTEXT
  5
59
100
AcDbEntity
  8
0
 62
         7
100
AcDbMText
 10
1.0267939917
 20
-0.1481299182
 30
0.0
 40
0.0625
 41
0.0
 71
         1
 72
         1
  1
%%p
  7
SLDTEXTSTYLE0
  0
MTEXT
  5
5A
100
AcDbEntity
  8
0
 62
         7
100
AcDbMText
 10
1.0863772967
 20
-0.1481299182
 30
0.0
 40
0.0625
 41
0.0
 71
         1
 72
         1
  1
0.005
  7
SLDTEXTSTYLE0
  0
MTEXT
  5
5B
100
AcDbEntity
  8
0
 62
         7
100
AcDbMText
 10
0.0
 20
-0.2314632506
 30
0.0
 40
0.0625
 41
0.0
 71
         1
 72
         1
  1
ANGULAR: 
  7
SLDTEXTSTYLE0
  0
MTEXT
  5
5C
100
AcDbEntity
  8
0
 62
         7
100
AcDbMText
 10
0.4373119015
 20
-0.2314632506
 30
0.0
 40
0.0625
 41
0.0
 71
         1
 72
         1
  1
%%p
  7
SLDTEXTSTYLE0
  0
MTEXT
  5
5D
100
AcDbEntity
  8
0
 62
         7
100
AcDbMText
 10
0.4968952432
 20
-0.2314632506
 30
0.0
 40
0.0625
 41
0.0
 71
         1
 72
         1
  1
30'     
  7
SLDTEXTSTYLE0
  0
MTEXT
  5
5E
100
AcDbEntity
  8
0
 62
         7
100
AcDbMText
 10
0.0
 20
-0.3147965829
 30
0.0
 40
0.0625
 41
0.0
 71
         1
 72
         1
  1
SURFACE FINISH: 32 MICROINCHES
  7
SLDTEXTSTYLE0
  0
MTEXT
  5
5F
100
AcDbEntity
  8
0
 62
         7
100
AcDbMText
 10
0.0
 20
-0.3981299152
 30
0.0
 40
0.0625
 41
0.0
 71
         1
 72
         1
  1
PARALLELISM: 0.002
  7
SLDTEXTSTYLE0
  0
MTEXT
  5
60
100
AcDbEntity
  8
0
 62
         7
100
AcDbMText
 10
0.0
 20
-0.4814632475
 30
0.0
 40
0.0625
 41
0.0
 71
         1
 72
         1
  1
FLATNESS: 0.002
  7
SLDTEXTSTYLE0
  0
MTEXT
  5
61
100
AcDbEntity
  8
0
 62
         7
100
AcDbMText
 10
0.0
 20
-0.5647965799
 30
0.0
 40
0.0625
 41
0.0
 71
         1
 72
         1
  1
STRAIGHTNESS: 0.002
  7
SLDTEXTSTYLE0
  0
MTEXT
  5
62
100
AcDbEntity
  8
0
 62
         7
100
AcDbMText
 10
0.0
 20
-0.6481299122
 30
0.0
 40
0.0625
 41
0.0
 71
         1
 72
         1
  1
CONCENTRICITY: 0.002
  7
SLDTEXTSTYLE0
  0
MTEXT
  5
63
100
AcDbEntity
  8
0
 62
         7
100
AcDbMText
 10
0.0
 20
-0.7314632445
 30
0.0
 40
0.0625
 41
0.0
 71
         1
 72
         1
  1
PERPENDICULARITY: 0.002
  7
SLDTEXTSTYLE0
  0
MTEXT
  5
64
100
AcDbEntity
  8
0
 62
         7
100
AcDbMText
 10
0.0
 20
-0.8147965768
 30
0.0
 40
0.0625
 41
0.0
 71
         1
 72
         1
  1
THREAD: CLASS 2 FIT
  7
SLDTEXTSTYLE0
  0
ENDBLK
  5
65
100
AcDbEntity
  8
0
100
AcDbBlockEnd
  0
BLOCK
  5
6C
100
AcDbEntity
  8
0
 62
         0
100
AcDbBlockBegin
  2
NOTE16
 70
         0
 10
0.0
 20
0.0
 30
0.0
  3
NOTE16
  1

  0
ENDBLK
  5
6D
100
AcDbEntity
  8
0
100
AcDbBlockEnd
  0
BLOCK
  5
74
100
AcDbEntity
  8
0
 62
         0
100
AcDbBlockBegin
  2
NOTE21
 70
         0
 10
0.0
 20
0.0
 30
0.0
  3
NOTE21
  1

  0
MTEXT
  5
75
100
AcDbEntity
  8
0
 62
         7
100
AcDbMText
 10
0.0
 20
0.1227034121
 30
0.0
 40
0.0833333333
 41
0.0
 71
         1
 72
         1
  1
SCALE: 
  7
SLDTEXTSTYLE0
  0
MTEXT
  5
76
100
AcDbEntity
  8
0
 62
         7
100
AcDbMText
 10
0.3914930674
 20
0.1227034121
 30
0.0
 40
0.0833333333
 41
0.0
 71
         1
 72
         1
  1
1:1
  7
SLDTEXTSTYLE0
  0
ENDBLK
  5
77
100
AcDbEntity
  8
0
100
AcDbBlockEnd
  0
BLOCK
  5
7A
100
AcDbEntity
  8
0
 62
         0
100
AcDbBlockBegin
  2
NOTE22
 70
         0
 10
0.0
 20
0.0
 30
0.0
  3
NOTE22
  1

  0
ENDBLK
  5
7B
100
AcDbEntity
  8
0
100
AcDbBlockEnd
  0
BLOCK
  5
7E
100
AcDbEntity
  8
0
 62
         0
100
AcDbBlockBegin
  2
NOTE23
 70
         0
 10
0.0
 20
0.0
 30
0.0
  3
NOTE23
  1

  0
ENDBLK
  5
7F
100
AcDbEntity
  8
0
100
AcDbBlockEnd
  0
BLOCK
  5
82
100
AcDbEntity
  8
0
 62
         0
100
AcDbBlockBegin
  2
NOTE24
 70
         0
 10
0.0
 20
0.0
 30
0.0
  3
NOTE24
  1

  0
ENDBLK
  5
83
100
AcDbEntity
  8
0
100
AcDbBlockEnd
  0
BLOCK
  5
86
100
AcDbEntity
  8
0
 62
         0
100
AcDbBlockBegin
  2
NOTE25
 70
         0
 10
0.0
 20
0.0
 30
0.0
  3
NOTE25
  1

  0
ENDBLK
  5
87
100
AcDbEntity
  8
0
100
AcDbBlockEnd
  0
BLOCK
  5
8A
100
AcDbEntity
  8
0
 62
         0
100
AcDbBlockBegin
  2
NOTE26
 70
         0
 10
0.0
 20
0.0
 30
0.0
  3
NOTE26
  1

  0
ENDBLK
  5
8B
100
AcDbEntity
  8
0
100
AcDbBlockEnd
  0
BLOCK
  5
8E
100
AcDbEntity
  8
0
 62
         0
100
AcDbBlockBegin
  2
NOTE27
 70
         0
 10
0.0
 20
0.0
 30
0.0
  3
NOTE27
  1

  0
ENDBLK
  5
8F
100
AcDbEntity
  8
0
100
AcDbBlockEnd
  0
BLOCK
  5
92
100
AcDbEntity
  8
0
 62
         0
100
AcDbBlockBegin
  2
NOTE28
 70
         0
 10
0.0
 20
0.0
 30
0.0
  3
NOTE28
  1

  0
ENDBLK
  5
93
100
AcDbEntity
  8
0
100
AcDbBlockEnd
  0
BLOCK
  5
96
100
AcDbEntity
  8
0
 62
         0
100
AcDbBlockBegin
  2
NOTE29
 70
         0
 10
0.0
 20
0.0
 30
0.0
  3
NOTE29
  1

  0
ENDBLK
  5
97
100
AcDbEntity
  8
0
100
AcDbBlockEnd
  0
BLOCK
  5
9A
100
AcDbEntity
  8
0
 62
         0
100
AcDbBlockBegin
  2
NOTE30
 70
         0
 10
0.0
 20
0.0
 30
0.0
  3
NOTE30
  1

  0
ENDBLK
  5
9B
100
AcDbEntity
  8
0
100
AcDbBlockEnd
  0
BLOCK
  5
9E
100
AcDbEntity
  8
0
 62
         0
100
AcDbBlockBegin
  2
NOTE31
 70
         0
 10
0.0
 20
0.0
 30
0.0
  3
NOTE31
  1

  0
ENDBLK
  5
9F
100
AcDbEntity
  8
0
100
AcDbBlockEnd
  0
BLOCK
  5
A2
100
AcDbEntity
  8
0
 62
         0
100
AcDbBlockBegin
  2
NOTE32
 70
         0
 10
0.0
 20
0.0
 30
0.0
  3
NOTE32
  1

  0
MTEXT
  5
A3
100
AcDbEntity
  8
0
 62
         7
100
AcDbMText
 10
0.0
 20
0.1227034121
 30
0.0
 40
0.0833333333
 41
0.0
 71
         1
 72
         1
  1
SHEET 
  7
SLDTEXTSTYLE0
  0
MTEXT
  5
A4
100
AcDbEntity
  8
0
 62
         7
100
AcDbMText
 10
0.3211612733
 20
0.1227034121
 30
0.0
 40
0.0833333333
 41
0.0
 71
         1
 72
         1
  1
1
  7
SLDTEXTSTYLE0
  0
MTEXT
  5
A5
100
AcDbEntity
  8
0
 62
         7
100
AcDbMText
 10
0.3776041512
 20
0.1227034121
 30
0.0
 40
0.0833333333
 41
0.0
 71
         1
 72
         1
  1
 OF 
  7
SLDTEXTSTYLE0
  0
MTEXT
  5
A6
100
AcDbEntity
  8
0
 62
         7
100
AcDbMText
 10
0.5861689652
 20
0.1227034121
 30
0.0
 40
0.0833333333
 41
0.0
 71
         1
 72
         1
  1
1
  7
SLDTEXTSTYLE0
  0
ENDBLK
  5
A7
100
AcDbEntity
  8
0
100
AcDbBlockEnd
  0
BLOCK
  5
AB
100
AcDbEntity
  8
0
 62
         0
100
AcDbBlockBegin
  2
NOTE34
 70
         0
 10
0.0
 20
0.0
 30
0.0
  3
NOTE34
  1

  0
MTEXT
  5
AC
100
AcDbEntity
  8
0
 62
         7
100
AcDbMText
 10
0.0
 20
0.0993700787
 30
0.0
 40
0.06
 41
0.0
 71
         1
 72
         1
  1
THE INFORMATION CONTAINED IN THIS
  7
SLDTEXTSTYLE0
  0
MTEXT
  5
AD
100
AcDbEntity
  8
0
 62
         7
100
AcDbMText
 10
0.0
 20
0.0000000042
 30
0.0
 40
0.06
 41
0.0
 71
         1
 72
         1
  1
DRAWING IS THE SOLE PROPERTY OF
  7
SLDTEXTSTYLE0
  0
MTEXT
  5
AE
100
AcDbEntity
  8
0
 62
         7
100
AcDbMText
 10
0.0
 20
-0.0993700704
 30
0.0
 40
0.06
 41
0.0
 71
         1
 72
         1
  1
THORLABS, INC.  ANY REPRODUCTION 
  7
SLDTEXTSTYLE0
  0
MTEXT
  5
AF
100
AcDbEntity
  8
0
 62
         7
100
AcDbMText
 10
0.0
 20
-0.198740145
 30
0.0
 40
0.06
 41
0.0
 71
         1
 72
         1
  1
IN PART OR AS A WHOLE WITHOUT
  7
SLDTEXTSTYLE0
  0
MTEXT
  5
B0
100
AcDbEntity
  8
0
 62
         7
100
AcDbMText
 10
0.0
 20
-0.2981102195
 30
0.0
 40
0.06
 41
0.0
 71
         1
 72
         1
  1
THE WRITTEN PERMISSION OF
  7
SLDTEXTSTYLE0
  0
MTEXT
  5
B1
100
AcDbEntity
  8
0
 62
         7
100
AcDbMText
 10
0.0
 20
-0.3974802941
 30
0.0
 40
0.06
 41
0.0
 71
         1
 72
         1
  1
THORLABS, INC. IS PROHIBITED.
  7
SLDTEXTSTYLE0
  0
ENDBLK
  5
B2
100
AcDbEntity
  8
0
100
AcDbBlockEnd
  0
BLOCK
  5
BF
100
AcDbEntity
  8
0
 62
         0
100
AcDbBlockBegin
  2
NOTE45
 70
         0
 10
0.0
 20
0.0
 30
0.0
  3
NOTE45
  1

  0
MTEXT
  5
C0
100
AcDbEntity
  8
0
 62
         7
100
AcDbMText
 10
0.0
 20
0.1227034121
 30
0.0
 40
0.0833333333
 41
0.0
 71
         1
 72
         1
  1
PO BOX 366
  7
SLDTEXTSTYLE0
  0
MTEXT
  5
C1
100
AcDbEntity
  8
0
 62
         7
100
AcDbMText
 10
0.0
 20
0.0115923023
 30
0.0
 40
0.0833333333
 41
0.0
 71
         1
 72
         1
  1
NEWTON NJ
  7
SLDTEXTSTYLE0
  0
ENDBLK
  5
C2
100
AcDbEntity
  8
0
100
AcDbBlockEnd
  0
BLOCK
  5
C5
100
AcDbEntity
  8
0
 62
         0
100
AcDbBlockBegin
  2
NOTE46
 70
         0
 10
0.0
 20
0.0
 30
0.0
  3
NOTE46
  1

  0
MTEXT
  5
C6
100
AcDbEntity
  8
0
 62
         7
100
AcDbMText
 10
0.0
 20
0.1539534121
 30
0.0
 40
0.1145833333
 41
0.0
 71
         1
 72
         1
  1
PIEZOELECTRIC ACTUATOR
  7
SLDTEXTSTYLE0
  0
MTEXT
  5
C7
100
AcDbEntity
  8
0
 62
         7
100
AcDbMText
 10
0.0
 20
0.0011756361
 30
0.0
 40
0.1145833333
 41
0.0
 71
         1
 72
         1
  1
WITH FEEDBACK, 20
  7
SLDTEXTSTYLE0
  0
MTEXT
  5
C8
100
AcDbEntity
  8
0
 62
         7
100
AcDbMText
 10
1.4134066722
 20
-0.0215288395
 30
0.0
 40
0.1145833333
 41
0.0
 71
         1
 72
         1
  1
m
  7
SLDTEXTSTYLE0
  0
MTEXT
  5
C9
100
AcDbEntity
  8
0
 62
         7
100
AcDbMText
 10
1.5388116768
 20
0.0011756361
 30
0.0
 40
0.1145833333
 41
0.0
 71
         1
 72
         1
  1
m TRAVEL
  7
SLDTEXTSTYLE0
  0
ENDBLK
  5
CA
100
AcDbEntity
  8
0
100
AcDbBlockEnd
  0
BLOCK
  5
E4
100
AcDbEntity
  8
0
 62
         7
100
AcDbBlockBegin
  2
*D17
 70
         1
 10
0.0
 20
0.0
 30
0.0
  3
*D17
  1

  0
MTEXT
  5
E5
100
AcDbEntity
  8
0
 62
         7
100
AcDbMText
 10
8.3241343836
 20
2.5224855148
 30
0.0
 40
0.0833333333
 41
0.0
 71
         1
 72
         1
  1
0.71
  7
SLDTEXTSTYLE0
  0
MTEXT
  5
E6
100
AcDbEntity
  8
0
 62
         7
100
AcDbMText
 10
8.2406903391
 20
2.3900858243
 30
0.0
 40
0.0833333333
 41
0.0
 71
         1
 72
         1
  1
(18mm)
  7
SLDTEXTSTYLE0
  0
LINE
  5
E7
100
AcDbEntity
  8
0
 62
         7
100
AcDbLine
 10
8.0775159701
 20
2.664734246
 30
0.0
 11
8.0775159701
 21
2.3297821073
 31
0.0
  0
LINE
  5
E8
100
AcDbEntity
  8
0
 62
         7
100
AcDbLine
 10
8.7861773874
 20
2.664734246
 30
0.0
 11
8.7861773874
 21
2.3297821073
 31
0.0
  0
LINE
  5
E9
100
AcDbEntity
  8
0
 62
         7
100
AcDbLine
 10
8.0775159701
 20
2.3997821073
 30
0.0
 11
8.1625653391
 21
2.3997821073
 31
0.0
  0
LINE
  5
EA
100
AcDbEntity
  8
0
 62
         7
100
AcDbLine
 10
8.7861773874
 20
2.3997821073
 30
0.0
 11
8.7011280184
 21
2.3997821073
 31
0.0
  0
SOLID
  5
EB
100
AcDbEntity
  8
0
 62
         7
100
AcDbTrace
 10
8.0775159701
 20
2.3997821073
 30
0.0
 11
8.2025159701
 21
2.3797821073
 31
0.0
 12
8.2025159701
 22
2.4197821073
 32
0.0
 13
8.2025159701
 23
2.4197821073
 33
0.0
  0
SOLID
  5
EC
100
AcDbEntity
  8
0
 62
         7
100
AcDbTrace
 10
8.7861773874
 20
2.3997821073
 30
0.0
 11
8.6611773874
 21
2.4197821073
 31
0.0
 12
8.6611773874
 22
2.3797821073
 32
0.0
 13
8.6611773874
 23
2.3797821073
 33
0.0
  0
POINT
  5
EE
100
AcDbEntity
  8
DEFPOINTS
 62
         7
100
AcDbPoint
 10
8.0775159701
 20
2.714734246
 30
0.0
  0
POINT
  5
EF
100
AcDbEntity
  8
DEFPOINTS
 62
         7
100
AcDbPoint
 10
8.7861773874
 20
2.714734246
 30
0.0
  0
ENDBLK
  5
F0
100
AcDbEntity
  8
0
 62
         7
100
AcDbBlockEnd
  0
BLOCK
  5
F3
100
AcDbEntity
  8
0
 62
         7
100
AcDbBlockBegin
  2
*D18
 70
         1
 10
0.0
 20
0.0
 30
0.0
  3
*D18
  1

  0
MTEXT
  5
F4
100
AcDbEntity
  8
0
 62
         7
100
AcDbMText
 10
7.5706088524
 20
3.7724770236
 30
0.0
 40
0.0833333333
 41
0.0
 71
         1
 72
         1
  1
1.87
  7
SLDTEXTSTYLE0
  0
MTEXT
  5
F5
100
AcDbEntity
  8
0
 62
         7
100
AcDbMText
 10
7.4871648079
 20
3.6400773331
 30
0.0
 40
0.0833333333
 41
0.0
 71
         1
 72
         1
  1
(48mm)
  7
SLDTEXTSTYLE0
  0
LINE
  5
F6
100
AcDbEntity
  8
0
 62
         7
100
AcDbLine
 10
8.0275159701
 20
2.714734246
 30
0.0
 11
7.6083211476
 21
2.714734246
 31
0.0
  0
LINE
  5
F7
100
AcDbEntity
  8
0
 62
         7
100
AcDbLine
 10
8.2440514031
 20
4.5848129862
 30
0.0
 11
7.6083211476
 21
4.5848129862
 31
0.0
  0
LINE
  5
F8
100
AcDbEntity
  8
0
 62
         7
100
AcDbLine
 10
7.6783211476
 20
2.714734246
 30
0.0
 11
7.6783211476
 21
3.5173739256
 31
0.0
  0
LINE
  5
F9
100
AcDbEntity
  8
0
 62
         7
100
AcDbLine
 10
7.6783211476
 20
4.5848129862
 30
0.0
 11
7.6783211476
 21
3.7821733066
 31
0.0
  0
SOLID
  5
FA
100
AcDbEntity
  8
0
 62
         7
100
AcDbTrace
 10
7.6783211476
 20
2.714734246
 30
0.0
 11
7.6983211476
 21
2.839734246
 31
0.0
 12
7.6583211476
 22
2.839734246
 32
0.0
 13
7.6583211476
 23
2.839734246
 33
0.0
  0
SOLID
  5
FB
100
AcDbEntity
  8
0
 62
         7
100
AcDbTrace
 10
7.6783211476
 20
4.5848129862
 30
0.0
 11
7.6583211476
 21
4.4598129862
 31
0.0
 12
7.6983211476
 22
4.4598129862
 32
0.0
 13
7.6983211476
 23
4.4598129862
 33
0.0
  0
POINT
  5
FD
100
AcDbEntity
  8
DEFPOINTS
 62
         7
100
AcDbPoint
 10
8.0775159701
 20
2.714734246
 30
0.0
  0
POINT
  5
FE
100
AcDbEntity
  8
DEFPOINTS
 62
         7
100
AcDbPoint
 10
8.2940514031
 20
4.5848129862
 30
0.0
  0
ENDBLK
  5
FF
100
AcDbEntity
  8
0
 62
         7
100
AcDbBlockEnd
  0
BLOCK
  5
104
100
AcDbEntity
  8
0
 62
         0
100
AcDbBlockBegin
  2
NOTE48
 70
         0
 10
0.0
 20
0.0
 30
0.0
  3
NOTE48
  1

  0
MTEXT
  5
105
100
AcDbEntity
  8
0
 62
         7
100
AcDbMText
 10
0.0196866061
 20
0.1782768833
 30
0.0
 40
0.0833333333
 41
0.0
 71
         1
 72
         1
  1
#6-32 UNC TAPPED
  7
SLDTEXTSTYLE0
  0
MTEXT
  5
106
100
AcDbEntity
  8
0
 62
         7
100
AcDbMText
 10
0.0196866061
 20
0.0671657736
 30
0.0
 40
0.0833333333
 41
0.0
 71
         1
 72
         1
  1
0.30(7.5mm) DEEP
  7
SLDTEXTSTYLE0
  0
MTEXT
  5
107
100
AcDbEntity
  8
0
 62
         7
100
AcDbMText
 10
0.0196866061
 20
-0.0439453362
 30
0.0
 40
0.0833333333
 41
0.0
 71
         1
 72
         1
  1
2 PLACES
  7
SLDTEXTSTYLE0
  0
ENDBLK
  5
108
100
AcDbEntity
  8
0
100
AcDbBlockEnd
  0
BLOCK
  5
10B
100
AcDbEntity
  8
0
 62
         0
100
AcDbBlockBegin
  2
SW_CENTERMARK0
 70
         0
 10
0.0
 20
0.0
 30
0.0
  3
SW_CENTERMARK0
  1

  0
LINE
  5
10C
100
AcDbEntity
  8
0
  6
CONTINUOUS
 62
         7
100
AcDbLine
 10
8.4318466787
 20
3.0887499941
 30
0.0
 11
8.4318466787
 21
3.1387499941
 31
0.0
  0
LINE
  5
10D
100
AcDbEntity
  8
0
  6
CONTINUOUS
 62
         7
100
AcDbLine
 10
8.4318466787
 20
3.0887499941
 30
0.0
 11
8.3818466787
 21
3.0887499941
 31
0.0
  0
LINE
  5
10E
100
AcDbEntity
  8
0
  6
CONTINUOUS
 62
         7
100
AcDbLine
 10
8.4318466787
 20
3.0887499941
 30
0.0
 11
8.4318466787
 21
3.0387499941
 31
0.0
  0
LINE
  5
10F
100
AcDbEntity
  8
0
  6
CONTINUOUS
 62
         7
100
AcDbLine
 10
8.4318466787
 20
3.0887499941
 30
0.0
 11
8.4818466787
 21
3.0887499941
 31
0.0
  0
ENDBLK
  5
110
100
AcDbEntity
  8
0
100
AcDbBlockEnd
  0
BLOCK
  5
13E
100
AcDbEntity
  8
0
 62
         7
100
AcDbBlockBegin
  2
*D21
 70
         1
 10
0.0
 20
0.0
 30
0.0
  3
*D21
  1

  0
MTEXT
  5
13F
100
AcDbEntity
  8
0
 62
         7
100
AcDbMText
 10
4.8342371618
 20
3.2114534015
 30
0.0
 40
0.0833333333
 41
0.0
 71
         1
 72
         1
  1
%%c
  7
SLDTEXTSTYLE0
  0
MTEXT
  5
140
100
AcDbEntity
  8
0
 62
         7
100
AcDbMText
 10
4.9599991198
 20
3.2114534015
 30
0.0
 40
0.0833333333
 41
0.0
 71
         1
 72
         1
  1
0.50
  7
SLDTEXTSTYLE0
  0
MTEXT
  5
141
100
AcDbEntity
  8
0
 62
         7
100
AcDbMText
 10
4.8136740963
 20
3.0790537111
 30
0.0
 40
0.0833333333
 41
0.0
 71
         1
 72
         1
  1
(13mm)
  7
SLDTEXTSTYLE0
  0
LINE
  5
142
100
AcDbEntity
  8
0
 62
         7
100
AcDbLine
 10
4.6710861913
 20
3.3367814901
 30
0.0
 11
5.0748304359
 21
3.3367814901
 31
0.0
  0
LINE
  5
143
100
AcDbEntity
  8
0
 62
         7
100
AcDbLine
 10
4.6710861913
 20
2.840718498
 30
0.0
 11
5.0748304359
 21
2.840718498
 31
0.0
  0
LINE
  5
144
100
AcDbEntity
  8
0
 62
         7
100
AcDbLine
 10
5.0048304359
 20
3.3367814901
 30
0.0
 11
5.0048304359
 21
3.5867814901
 31
0.0
  0
LINE
  5
145
100
AcDbEntity
  8
0
 62
         7
100
AcDbLine
 10
5.0048304359
 20
2.840718498
 30
0.0
 11
5.0048304359
 21
2.590718498
 31
0.0
  0
SOLID
  5
146
100
AcDbEntity
  8
0
 62
         7
100
AcDbTrace
 10
5.0048304359
 20
3.3367814901
 30
0.0
 11
5.0248304359
 21
3.4617814901
 31
0.0
 12
4.9848304359
 22
3.4617814901
 32
0.0
 13
4.9848304359
 23
3.4617814901
 33
0.0
  0
SOLID
  5
147
100
AcDbEntity
  8
0
 62
         7
100
AcDbTrace
 10
5.0048304359
 20
2.840718498
 30
0.0
 11
4.9848304359
 21
2.715718498
 31
0.0
 12
5.0248304359
 22
2.715718498
 32
0.0
 13
5.0248304359
 23
2.715718498
 33
0.0
  0
POINT
  5
149
100
AcDbEntity
  8
DEFPOINTS
 62
         7
100
AcDbPoint
 10
4.6210861913
 20
3.3367814901
 30
0.0
  0
POINT
  5
14A
100
AcDbEntity
  8
DEFPOINTS
 62
         7
100
AcDbPoint
 10
4.6210861913
 20
2.840718498
 30
0.0
  0
ENDBLK
  5
14B
100
AcDbEntity
  8
0
 62
         7
100
AcDbBlockEnd
  0
BLOCK
  5
14E
100
AcDbEntity
  8
0
 62
         7
100
AcDbBlockBegin
  2
*D22
 70
         1
 10
0.0
 20
0.0
 30
0.0
  3
*D22
  1

  0
MTEXT
  5
14F
100
AcDbEntity
  8
0
 62
         7
100
AcDbMText
 10
1.4057128367
 20
2.7770884673
 30
0.0
 40
0.0833333333
 41
0.0
 71
         1
 72
         1
  1
%%c
  7
SLDTEXTSTYLE0
  0
MTEXT
  5
150
100
AcDbEntity
  8
0
 62
         7
100
AcDbMText
 10
1.5314747947
 20
2.7770884673
 30
0.0
 40
0.0833333333
 41
0.0
 71
         1
 72
         1
  1
0.20
  7
SLDTEXTSTYLE0
  0
MTEXT
  5
151
100
AcDbEntity
  8
0
 62
         7
100
AcDbMText
 10
1.3697977963
 20
2.6446887768
 30
0.0
 40
0.0833333333
 41
0.0
 71
         1
 72
         1
  1
(5.1mm)
  7
SLDTEXTSTYLE0
  0
LINE
  5
152
100
AcDbEntity
  8
0
 62
         7
100
AcDbLine
 10
2.3269917031
 20
2.9883562933
 30
0.0
 11
1.8659394253
 21
2.9883562933
 31
0.0
  0
LINE
  5
153
100
AcDbEntity
  8
0
 62
         7
100
AcDbLine
 10
2.3269917031
 20
3.1891436948
 30
0.0
 11
1.8659394253
 21
3.1891436948
 31
0.0
  0
LINE
  5
154
100
AcDbEntity
  8
0
 62
         7
100
AcDbLine
 10
1.8609394253
 20
2.6543850598
 30
0.0
 11
1.9359394253
 21
2.6543850598
 31
0.0
  0
LINE
  5
155
100
AcDbEntity
  8
0
 62
         7
100
AcDbLine
 10
1.9359394253
 20
2.6543850598
 30
0.0
 11
1.9359394253
 21
2.9883562933
 31
0.0
  0
LINE
  5
156
100
AcDbEntity
  8
0
 62
         7
100
AcDbLine
 10
1.9359394253
 20
3.1891436948
 30
0.0
 11
1.9359394253
 21
3.4391436948
 31
0.0
  0
SOLID
  5
157
100
AcDbEntity
  8
0
 62
         7
100
AcDbTrace
 10
1.9359394253
 20
2.9883562933
 30
0.0
 11
1.9159394253
 21
2.8633562933
 31
0.0
 12
1.9559394253
 22
2.8633562933
 32
0.0
 13
1.9559394253
 23
2.8633562933
 33
0.0
  0
SOLID
  5
158
100
AcDbEntity
  8
0
 62
         7
100
AcDbTrace
 10
1.9359394253
 20
3.1891436948
 30
0.0
 11
1.9559394253
 21
3.3141436948
 31
0.0
 12
1.9159394253
 22
3.3141436948
 32
0.0
 13
1.9159394253
 23
3.3141436948
 33
0.0
  0
POINT
  5
159
100
AcDbEntity
  8
DEFPOINTS
 62
         7
100
AcDbPoint
 10
2.3769917031
 20
2.9883562933
 30
0.0
  0
POINT
  5
15A
100
AcDbEntity
  8
DEFPOINTS
 62
         7
100
AcDbPoint
 10
2.3769917031
 20
3.1891436948
 30
0.0
  0
ENDBLK
  5
15B
100
AcDbEntity
  8
0
 62
         7
100
AcDbBlockEnd
  0
BLOCK
  5
15E
100
AcDbEntity
  8
0
 62
         7
100
AcDbBlockBegin
  2
*D23
 70
         1
 10
0.0
 20
0.0
 30
0.0
  3
*D23
  1

  0
MTEXT
  5
15F
100
AcDbEntity
  8
0
 62
         7
100
AcDbMText
 10
3.3913266521
 20
2.5243174513
 30
0.0
 40
0.0833333333
 41
0.0
 71
         1
 72
         1
  1
2.24
  7
SLDTEXTSTYLE0
  0
MTEXT
  5
160
100
AcDbEntity
  8
0
 62
         7
100
AcDbMText
 10
3.3078826076
 20
2.3919177608
 30
0.0
 40
0.0833333333
 41
0.0
 71
         1
 72
         1
  1
(57mm)
  7
SLDTEXTSTYLE0
  0
LINE
  5
161
100
AcDbEntity
  8
0
 62
         7
100
AcDbLine
 10
2.3769917031
 20
2.822214561
 30
0.0
 11
2.3769917031
 21
2.3316140438
 31
0.0
  0
LINE
  5
162
100
AcDbEntity
  8
0
 62
         7
100
AcDbLine
 10
4.6210861913
 20
2.790718498
 30
0.0
 11
4.6210861913
 21
2.3316140438
 31
0.0
  0
LINE
  5
163
100
AcDbEntity
  8
0
 62
         7
100
AcDbLine
 10
2.3769917031
 20
2.4016140438
 30
0.0
 11
3.2297576076
 21
2.4016140438
 31
0.0
  0
LINE
  5
164
100
AcDbEntity
  8
0
 62
         7
100
AcDbLine
 10
4.6210861913
 20
2.4016140438
 30
0.0
 11
3.7683202869
 21
2.4016140438
 31
0.0
  0
SOLID
  5
165
100
AcDbEntity
  8
0
 62
         7
100
AcDbTrace
 10
2.3769917031
 20
2.4016140438
 30
0.0
 11
2.5019917031
 21
2.3816140438
 31
0.0
 12
2.5019917031
 22
2.4216140438
 32
0.0
 13
2.5019917031
 23
2.4216140438
 33
0.0
  0
SOLID
  5
166
100
AcDbEntity
  8
0
 62
         7
100
AcDbTrace
 10
4.6210861913
 20
2.4016140438
 30
0.0
 11
4.4960861913
 21
2.4216140438
 31
0.0
 12
4.4960861913
 22
2.3816140438
 32
0.0
 13
4.4960861913
 23
2.3816140438
 33
0.0
  0
POINT
  5
167
100
AcDbEntity
  8
DEFPOINTS
 62
         7
100
AcDbPoint
 10
2.3769917031
 20
2.872214561
 30
0.0
  0
POINT
  5
168
100
AcDbEntity
  8
DEFPOINTS
 62
         7
100
AcDbPoint
 10
4.6210861913
 20
2.840718498
 30
0.0
  0
ENDBLK
  5
169
100
AcDbEntity
  8
0
 62
         7
100
AcDbBlockEnd
  0
BLOCK
  5
16C
100
AcDbEntity
  8
0
 62
         7
100
AcDbBlockBegin
  2
*D24
 70
         1
 10
0.0
 20
0.0
 30
0.0
  3
*D24
  1

  0
MTEXT
  5
16D
100
AcDbEntity
  8
0
 62
         7
100
AcDbMText
 10
3.332271534
 20
2.018861484
 30
0.0
 40
0.0833333333
 41
0.0
 71
         1
 72
         1
  1
2.36
  7
SLDTEXTSTYLE0
  0
MTEXT
  5
16E
100
AcDbEntity
  8
0
 62
         7
100
AcDbMText
 10
3.2488274894
 20
1.8864617935
 30
0.0
 40
0.0833333333
 41
0.0
 71
         1
 72
         1
  1
(60mm)
  7
SLDTEXTSTYLE0
  0
LINE
  5
16F
100
AcDbEntity
  8
0
 62
         7
100
AcDbLine
 10
2.2588814669
 20
2.822214561
 30
0.0
 11
2.2588814669
 21
1.8261580765
 31
0.0
  0
LINE
  5
170
100
AcDbEntity
  8
0
 62
         7
100
AcDbLine
 10
4.6210861913
 20
2.790718498
 30
0.0
 11
4.6210861913
 21
1.8261580765
 31
0.0
  0
LINE
  5
171
100
AcDbEntity
  8
0
 62
         7
100
AcDbLine
 10
2.2588814669
 20
1.8961580765
 30
0.0
 11
3.1707024894
 21
1.8961580765
 31
0.0
  0
LINE
  5
172
100
AcDbEntity
  8
0
 62
         7
100
AcDbLine
 10
4.6210861913
 20
1.8961580765
 30
0.0
 11
3.7092651688
 21
1.8961580765
 31
0.0
  0
SOLID
  5
173
100
AcDbEntity
  8
0
 62
         7
100
AcDbTrace
 10
2.2588814669
 20
1.8961580765
 30
0.0
 11
2.3838814669
 21
1.8761580765
 31
0.0
 12
2.3838814669
 22
1.9161580765
 32
0.0
 13
2.3838814669
 23
1.9161580765
 33
0.0
  0
SOLID
  5
174
100
AcDbEntity
  8
0
 62
         7
100
AcDbTrace
 10
4.6210861913
 20
1.8961580765
 30
0.0
 11
4.4960861913
 21
1.9161580765
 31
0.0
 12
4.4960861913
 22
1.8761580765
 32
0.0
 13
4.4960861913
 23
1.8761580765
 33
0.0
  0
POINT
  5
175
100
AcDbEntity
  8
DEFPOINTS
 62
         7
100
AcDbPoint
 10
2.2588814669
 20
2.872214561
 30
0.0
  0
POINT
  5
176
100
AcDbEntity
  8
DEFPOINTS
 62
         7
100
AcDbPoint
 10
4.6210861913
 20
2.840718498
 30
0.0
  0
ENDBLK
  5
177
100
AcDbEntity
  8
0
 62
         7
100
AcDbBlockEnd
  0
BLOCK
  5
17B
100
AcDbEntity
  8
0
 62
         0
100
AcDbBlockBegin
  2
NOTE49
 70
         0
 10
0.0
 20
0.0
 30
0.0
  3
NOTE49
  1

  0
MTEXT
  5
17C
100
AcDbEntity
  8
0
 62
         7
100
AcDbMText
 10
0.0196840165
 20
0.122716862
 30
0.0
 40
0.0833333333
 41
0.0
 71
         1
 72
         1
  1
LEMO CONNECTOR
  7
SLDTEXTSTYLE0
  0
MTEXT
  5
17D
100
AcDbEntity
  8
0
 62
         7
100
AcDbMText
 10
0.0196840165
 20
0.0116057522
 30
0.0
 40
0.0833333333
 41
0.0
 71
         1
 72
         1
  1
FOR POSITION FEEDBACK
  7
SLDTEXTSTYLE0
  0
ENDBLK
  5
17E
100
AcDbEntity
  8
0
100
AcDbBlockEnd
  0
BLOCK
  5
182
100
AcDbEntity
  8
0
 62
         0
100
AcDbBlockBegin
  2
NOTE50
 70
         0
 10
0.0
 20
0.0
 30
0.0
  3
NOTE50
  1

  0
MTEXT
  5
183
100
AcDbEntity
  8
0
 62
         7
100
AcDbMText
 10
-0.9226453542
 20
0.1227217422
 30
0.0
 40
0.0833333333
 41
0.0
 71
         1
 72
         1
  1
SMC PIEZO INPUT
  7
SLDTEXTSTYLE0
  0
MTEXT
  5
184
100
AcDbEntity
  8
0
 62
         7
100
AcDbMText
 10
-0.3194045862
 20
0.0116106324
 30
0.0
 40
0.0833333333
 41
0.0
 71
         1
 72
         1
  1
0-75V
  7
SLDTEXTSTYLE0
  0
ENDBLK
  5
185
100
AcDbEntity
  8
0
100
AcDbBlockEnd
  0
BLOCK
  5
1CB
100
AcDbEntity
  8
0
 62
         7
100
AcDbBlockBegin
  2
*D27
 70
         1
 10
0.0
 20
0.0
 30
0.0
  3
*D27
  1

  0
MTEXT
  5
1CC
100
AcDbEntity
  8
0
 62
         7
100
AcDbMText
 10
4.8169318588
 20
6.2788733031
 30
0.0
 40
0.0833333333
 41
0.0
 71
         1
 72
         1
  1
0.31
  7
SLDTEXTSTYLE0
  0
MTEXT
  5
1CD
100
AcDbEntity
  8
0
 62
         7
100
AcDbMText
 10
4.7642805037
 20
6.1464736126
 30
0.0
 40
0.0833333333
 41
0.0
 71
         1
 72
         1
  1
(8mm)
  7
SLDTEXTSTYLE0
  0
LINE
  5
1CE
100
AcDbEntity
  8
0
 62
         7
100
AcDbLine
 10
4.3061255614
 20
6.3829753839
 30
0.0
 11
4.3061255614
 21
6.0861698956
 31
0.0
  0
LINE
  5
1CF
100
AcDbEntity
  8
0
 62
         7
100
AcDbLine
 10
4.6210861913
 20
6.4892745965
 30
0.0
 11
4.6210861913
 21
6.0861698956
 31
0.0
  0
LINE
  5
1D0
100
AcDbEntity
  8
0
 62
         7
100
AcDbLine
 10
4.3061255614
 20
6.1561698956
 30
0.0
 11
4.6210861913
 21
6.1561698956
 31
0.0
  0
LINE
  5
1D1
100
AcDbEntity
  8
0
 62
         7
100
AcDbLine
 10
4.6210861913
 20
6.1561698956
 30
0.0
 11
4.6861555037
 21
6.1561698956
 31
0.0
  0
SOLID
  5
1D2
100
AcDbEntity
  8
0
 62
         7
100
AcDbTrace
 10
4.3061255614
 20
6.1561698956
 30
0.0
 11
4.4311255614
 21
6.1361698956
 31
0.0
 12
4.4311255614
 22
6.1761698956
 32
0.0
 13
4.4311255614
 23
6.1761698956
 33
0.0
  0
SOLID
  5
1D3
100
AcDbEntity
  8
0
 62
         7
100
AcDbTrace
 10
4.6210861913
 20
6.1561698956
 30
0.0
 11
4.4960861913
 21
6.1761698956
 31
0.0
 12
4.4960861913
 22
6.1361698956
 32
0.0
 13
4.4960861913
 23
6.1361698956
 33
0.0
  0
POINT
  5
1D4
100
AcDbEntity
  8
DEFPOINTS
 62
         7
100
AcDbPoint
 10
4.3061255614
 20
6.4329753839
 30
0.0
  0
POINT
  5
1D5
100
AcDbEntity
  8
DEFPOINTS
 62
         7
100
AcDbPoint
 10
4.6210861913
 20
6.5392745965
 30
0.0
  0
ENDBLK
  5
1D6
100
AcDbEntity
  8
0
 62
         7
100
AcDbBlockEnd
  0
BLOCK
  5
1D9
100
AcDbEntity
  8
0
 62
         7
100
AcDbBlockBegin
  2
*D28
 70
         1
 10
0.0
 20
0.0
 30
0.0
  3
*D28
  1

  0
MTEXT
  5
1DA
100
AcDbEntity
  8
0
 62
         7
100
AcDbMText
 10
3.5684920064
 20
6.2788733031
 30
0.0
 40
0.0833333333
 41
0.0
 71
         1
 72
         1
  1
1.26
  7
SLDTEXTSTYLE0
  0
MTEXT
  5
1DB
100
AcDbEntity
  8
0
 62
         7
100
AcDbMText
 10
3.4850479619
 20
6.1464736126
 30
0.0
 40
0.0833333333
 41
0.0
 71
         1
 72
         1
  1
(32mm)
  7
SLDTEXTSTYLE0
  0
LINE
  5
1DC
100
AcDbEntity
  8
0
 62
         7
100
AcDbLine
 10
3.0462830417
 20
6.3829753839
 30
0.0
 11
3.0462830417
 21
6.0861698956
 31
0.0
  0
LINE
  5
1DD
100
AcDbEntity
  8
0
 62
         7
100
AcDbLine
 10
4.3061255614
 20
6.3829753839
 30
0.0
 11
4.3061255614
 21
6.0861698956
 31
0.0
  0
LINE
  5
1DE
100
AcDbEntity
  8
0
 62
         7
100
AcDbLine
 10
3.0462830417
 20
6.1561698956
 30
0.0
 11
3.4069229619
 21
6.1561698956
 31
0.0
  0
LINE
  5
1DF
100
AcDbEntity
  8
0
 62
         7
100
AcDbLine
 10
4.3061255614
 20
6.1561698956
 30
0.0
 11
3.9454856412
 21
6.1561698956
 31
0.0
  0
SOLID
  5
1E0
100
AcDbEntity
  8
0
 62
         7
100
AcDbTrace
 10
3.0462830417
 20
6.1561698956
 30
0.0
 11
3.1712830417
 21
6.1361698956
 31
0.0
 12
3.1712830417
 22
6.1761698956
 32
0.0
 13
3.1712830417
 23
6.1761698956
 33
0.0
  0
SOLID
  5
1E1
100
AcDbEntity
  8
0
 62
         7
100
AcDbTrace
 10
4.3061255614
 20
6.1561698956
 30
0.0
 11
4.1811255614
 21
6.1761698956
 31
0.0
 12
4.1811255614
 22
6.1361698956
 32
0.0
 13
4.1811255614
 23
6.1361698956
 33
0.0
  0
POINT
  5
1E2
100
AcDbEntity
  8
DEFPOINTS
 62
         7
100
AcDbPoint
 10
3.0462830417
 20
6.4329753839
 30
0.0
  0
POINT
  5
1E3
100
AcDbEntity
  8
DEFPOINTS
 62
         7
100
AcDbPoint
 10
4.3061255614
 20
6.4329753839
 30
0.0
  0
ENDBLK
  5
1E4
100
AcDbEntity
  8
0
 62
         7
100
AcDbBlockEnd
  0
BLOCK
  5
1E8
100
AcDbEntity
  8
0
 62
         0
100
AcDbBlockBegin
  2
NOTE51
 70
         0
 10
0.0
 20
0.0
 30
0.0
  3
NOTE51
  1

  0
MTEXT
  5
1E9
100
AcDbEntity
  8
0
 62
         7
100
AcDbMText
 10
-0.8495003223
 20
0.2338439726
 30
0.0
 40
0.0833333333
 41
0.0
 71
         1
 72
         1
  1
REMOVABLE TIP
  7
SLDTEXTSTYLE0
  0
MTEXT
  5
1EA
100
AcDbEntity
  8
0
 62
         7
100
AcDbMText
 10
-0.808296705
 20
0.1227328629
 30
0.0
 40
0.0833333333
 41
0.0
 71
         1
 72
         1
  1
PART# PAA001
  7
SLDTEXTSTYLE0
  0
MTEXT
  5
1EB
100
AcDbEntity
  8
0
 62
         7
100
AcDbMText
 10
-0.6093769829
 20
0.0116217531
 30
0.0
 40
0.0833333333
 41
0.0
 71
         1
 72
         1
  1
PAA-SERIES
  7
SLDTEXTSTYLE0
  0
MTEXT
  5
1EC
100
AcDbEntity
  8
0
 62
         7
100
AcDbMText
 10
-0.7039757434
 20
-0.0994893567
 30
0.0
 40
0.0833333333
 41
0.0
 71
         1
 72
         1
  1
COMPATIBLE
  7
SLDTEXTSTYLE0
  0
ENDBLK
  5
1ED
100
AcDbEntity
  8
0
100
AcDbBlockEnd
  0
ENDSEC
  0
SECTION
  2
ENTITIES
  0
LINE
  5
25
100
AcDbEntity
  8
0
  6
CONTINUOUS
 62
         7
100
AcDbLine
 10
0.329927
 20
8.1920731707
 30
0.0
 11
10.629927
 21
8.1920731707
 31
0.0
  0
LINE
  5
26
100
AcDbEntity
  8
0
  6
CONTINUOUS
 62
         7
100
AcDbLine
 10
0.329927
 20
8.1920731707
 30
0.0
 11
0.329927
 21
0.3920731707
 31
0.0
  0
LINE
  5
27
100
AcDbEntity
  8
0
  6
CONTINUOUS
 62
         7
100
AcDbLine
 10
10.629927
 20
0.3920731707
 30
0.0
 11
0.329927
 21
0.3920731707
 31
0.0
  0
LINE
  5
28
100
AcDbEntity
  8
0
  6
CONTINUOUS
 62
         7
100
AcDbLine
 10
10.629927
 20
0.3920731707
 30
0.0
 11
10.629927
 21
8.1920731707
 31
0.0
  0
LINE
  5
29
100
AcDbEntity
  8
0
  6
CONTINUOUS
 62
         7
100
AcDbLine
 10
7.8832069922
 20
1.2010186622
 30
0.0
 11
6.3491817542
 21
1.2010186622
 31
0.0
  0
LINE
  5
2A
100
AcDbEntity
  8
0
  6
CONTINUOUS
 62
         7
100
AcDbLine
 10
6.3491817542
 20
0.3920731707
 30
0.0
 11
6.3491817542
 21
1.6988536355
 31
0.0
  0
LINE
  5
2B
100
AcDbEntity
  8
0
  6
CONTINUOUS
 62
         7
100
AcDbLine
 10
7.8832069922
 20
1.270166923
 30
0.0
 11
10.629927
 21
1.270166923
 31
0.0
  0
LINE
  5
2C
100
AcDbEntity
  8
0
  6
CONTINUOUS
 62
         7
100
AcDbLine
 10
7.8832069922
 20
1.9437769943
 30
0.0
 11
7.8832069922
 21
0.3920731707
 31
0.0
  0
LINE
  5
2D
100
AcDbEntity
  8
0
  6
CONTINUOUS
 62
         7
100
AcDbLine
 10
7.8832069922
 20
1.323339557
 30
0.0
 11
6.3491817542
 21
1.323339557
 31
0.0
  0
LINE
  5
2E
100
AcDbEntity
  8
0
  6
CONTINUOUS
 62
         7
100
AcDbLine
 10
7.8832069922
 20
1.6988536355
 30
0.0
 11
4.9283800522
 21
1.6988536355
 31
0.0
  0
LINE
  5
2F
100
AcDbEntity
  8
0
  6
CONTINUOUS
 62
         7
100
AcDbLine
 10
7.8832069922
 20
0.7890359178
 30
0.0
 11
10.629927
 21
0.7890359178
 31
0.0
  0
LINE
  5
30
100
AcDbEntity
  8
0
  6
CONTINUOUS
 62
         7
100
AcDbLine
 10
7.8832069922
 20
1.4456604517
 30
0.0
 11
6.3491817542
 21
1.4456604517
 31
0.0
  0
LINE
  5
31
100
AcDbEntity
  8
0
  6
CONTINUOUS
 62
         7
100
AcDbLine
 10
7.8832069922
 20
1.5679813464
 30
0.0
 11
6.3491817542
 21
1.5679813464
 31
0.0
  0
LINE
  5
32
100
AcDbEntity
  8
0
  6
CONTINUOUS
 62
         7
100
AcDbLine
 10
6.9294188505
 20
1.6988536355
 30
0.0
 11
6.9294188505
 21
1.2010186622
 31
0.0
  0
LINE
  5
33
100
AcDbEntity
  8
0
  6
CONTINUOUS
 62
         7
100
AcDbLine
 10
7.2989435727
 20
1.6988536355
 30
0.0
 11
7.2989435727
 21
1.2010186622
 31
0.0
  0
LINE
  5
34
100
AcDbEntity
  8
0
  6
CONTINUOUS
 62
         7
100
AcDbLine
 10
8.9000563418
 20
0.7890359178
 30
0.0
 11
8.9000563418
 21
0.3920731707
 31
0.0
  0
LINE
  5
35
100
AcDbEntity
  8
0
  6
CONTINUOUS
 62
         7
100
AcDbLine
 10
9.3113942988
 20
0.96139916
 30
0.0
 11
9.3113942988
 21
0.7890359178
 31
0.0
  0
LINE
  5
36
100
AcDbEntity
  8
0
  6
CONTINUOUS
 62
         7
100
AcDbLine
 10
10.0324602448
 20
1.270166923
 30
0.0
 11
10.0324602448
 21
0.96139916
 31
0.0
  0
LINE
  5
37
100
AcDbEntity
  8
0
  6
CONTINUOUS
 62
         7
100
AcDbLine
 10
4.9283800522
 20
1.6988536355
 30
0.0
 11
4.9283800522
 21
0.3920731707
 31
0.0
  0
LINE
  5
38
100
AcDbEntity
  8
0
  6
CONTINUOUS
 62
         7
100
AcDbLine
 10
4.9283800522
 20
1.540040151
 30
0.0
 11
6.3491817542
 21
1.540040151
 31
0.0
  0
LINE
  5
39
100
AcDbEntity
  8
0
  6
CONTINUOUS
 62
         7
100
AcDbLine
 10
4.9283800522
 20
1.4356947803
 30
0.0
 11
6.3491817542
 21
1.4356947803
 31
0.0
  0
LINE
  5
3A
100
AcDbEntity
  8
0
  6
CONTINUOUS
 62
         7
100
AcDbLine
 10
6.3491817542
 20
1.0381709011
 30
0.0
 11
7.8832069922
 21
1.0381709011
 31
0.0
  0
LINE
  5
3B
100
AcDbEntity
  8
0
  6
CONTINUOUS
 62
         7
100
AcDbLine
 10
7.8832069922
 20
1.9437769943
 30
0.0
 11
10.629927
 21
1.9437769943
 31
0.0
  0
LINE
  5
3C
100
AcDbEntity
  8
0
  6
CONTINUOUS
 62
         7
100
AcDbLine
 10
10.315241862
 20
1.2693980507
 30
0.0
 11
10.315241862
 21
0.96139916
 31
0.0
  0
LINE
  5
3D
100
AcDbEntity
  8
0
  6
CONTINUOUS
 62
         7
100
AcDbLine
 10
7.8832069922
 20
0.96139916
 30
0.0
 11
10.629927
 21
0.96139916
 31
0.0
  0
LINE
  5
3E
100
AcDbEntity
  8
0
  6
CONTINUOUS
 62
         7
100
AcDbLine
 10
10.629927
 20
1.9437769943
 30
0.0
 11
10.629927
 21
1.9698084888
 31
0.0
  0
LINE
  5
3F
100
AcDbEntity
  8
0
  6
CONTINUOUS
 62
         7
100
AcDbLine
 10
7.8832069922
 20
1.6268095213
 30
0.0
 11
10.629927
 21
1.6268095213
 31
0.0
  0
LINE
  5
40
100
AcDbEntity
  8
0
  6
CONTINUOUS
 62
         7
100
AcDbLine
 10
6.692177
 20
0.3920731707
 30
0.0
 11
6.692177
 21
0.3072739649
 31
0.0
  0
LINE
  5
41
100
AcDbEntity
  8
0
  6
CONTINUOUS
 62
         7
100
AcDbLine
 10
2.754677
 20
0.3920731707
 30
0.0
 11
2.754677
 21
0.3072739649
 31
0.0
  0
LINE
  5
42
100
AcDbEntity
  8
0
  6
CONTINUOUS
 62
         7
100
AcDbLine
 10
2.754677
 20
0.3920731707
 30
0.0
 11
2.7672319738
 21
0.3575
 31
0.0
  0
LINE
  5
43
100
AcDbEntity
  8
0
  6
CONTINUOUS
 62
         7
100
AcDbLine
 10
2.7672319738
 20
0.3575
 30
0.0
 11
2.7414258825
 21
0.3575
 31
0.0
  0
LINE
  5
44
100
AcDbEntity
  8
0
  6
CONTINUOUS
 62
         7
100
AcDbLine
 10
2.7414258825
 20
0.3575
 30
0.0
 11
2.754677
 21
0.3920731707
 31
0.0
  0
MTEXT
  5
46
100
AcDbEntity
  8
0
 62
         7
100
AcDbMText
 10
10.4087758717
 20
1.1307921136
 30
0.0
 40
0.1041666667
 41
0.0
 71
         1
 72
         1
  1
A
  7
SLDTEXTSTYLE0
  0
MTEXT
  5
47
100
AcDbEntity
  8
0
 62
         7
100
AcDbMText
 10
1.7387909509
 20
0.3228564029
 30
0.0
 40
0.09375
 41
0.0
 71
         1
 72
         1
  1
5
  7
SLDTEXTSTYLE0
  0
MTEXT
  5
48
100
AcDbEntity
  8
0
 62
         7
100
AcDbMText
 10
3.723800327
 20
0.32599373
 30
0.0
 40
0.09375
 41
0.0
 71
         1
 72
         1
  1
4
  7
SLDTEXTSTYLE0
  0
MTEXT
  5
49
100
AcDbEntity
  8
0
 62
         7
100
AcDbMText
 10
5.6324457277
 20
0.3238891623
 30
0.0
 40
0.09375
 41
0.0
 71
         1
 72
         1
  1
3
  7
SLDTEXTSTYLE0
  0
MTEXT
  5
4A
100
AcDbEntity
  8
0
 62
         7
100
AcDbMText
 10
7.6059721724
 20
0.3247091132
 30
0.0
 40
0.09375
 41
0.0
 71
         1
 72
         1
  1
2
  7
SLDTEXTSTYLE0
  0
MTEXT
  5
4B
100
AcDbEntity
  8
0
 62
         7
100
AcDbMText
 10
9.6619921328
 20
0.3136419902
 30
0.0
 40
0.09375
 41
0.0
 71
         1
 72
         1
  1
1
  7
SLDTEXTSTYLE0
  0
MTEXT
  5
4C
100
AcDbEntity
  8
0
 62
         7
100
AcDbMText
 10
9.0730789735
 20
0.608503423
 30
0.0
 40
0.125
 41
0.0
 71
         1
 72
         1
  1
PAZ005
  7
SLDTEXTSTYLE0
  0
MTEXT
  5
4D
100
AcDbEntity
  8
0
 62
         7
100
AcDbMText
 10
7.9301743649
 20
1.2662311489
 30
0.0
 40
0.0833333333
 41
0.0
 71
         1
 72
         1
  1
MATERIAL:
  7
SLDTEXTSTYLE0
  0
MTEXT
  5
4E
100
AcDbEntity
  8
0
 62
         7
100
AcDbMText
 10
8.9438302275
 20
0.7619922188
 30
0.0
 40
0.0833333333
 41
0.0
 71
         1
 72
         1
  1
PART  NO.
  7
SLDTEXTSTYLE0
  0
MTEXT
  5
4F
100
AcDbEntity
  8
0
 62
         7
100
AcDbMText
 10
4.9872272808
 20
1.678787395
 30
0.0
 40
0.1
 41
0.0
 71
         1
 72
         1
  1
TOLERANCES
  7
SLDTEXTSTYLE0
  0
MTEXT
  5
50
100
AcDbEntity
  8
0
 62
         7
100
AcDbMText
 10
6.3927073562
 20
1.1667586129
 30
0.0
 40
0.06
 41
0.0
 71
         1
 72
         1
  1
PROPRIETARY AND CONFIDENTIAL
  7
SLDTEXTSTYLE0
  0
INSERT
  5
66
100
AcDbEntity
  8
0
100
AcDbBlockReference
  2
NOTE11
 10
4.9730262909
 20
1.3359640064
 30
0.0
  0
MTEXT
  5
67
100
AcDbEntity
  8
0
 62
         7
100
AcDbMText
 10
6.4985660702
 20
1.5619929057
 30
0.0
 40
0.065
 41
0.0
 71
         1
 72
         1
  1
DRAWN
  7
SLDTEXTSTYLE0
  0
MTEXT
  5
68
100
AcDbEntity
  8
0
 62
         7
100
AcDbMText
 10
6.4369653776
 20
1.4397369011
 30
0.0
 40
0.065
 41
0.0
 71
         1
 72
         1
  1
ENG APPR.
  7
SLDTEXTSTYLE0
  0
MTEXT
  5
69
100
AcDbEntity
  8
0
 62
         7
100
AcDbMText
 10
6.4273055419
 20
1.3196390079
 30
0.0
 40
0.065
 41
0.0
 71
         1
 72
         1
  1
MFG APPR.
  7
SLDTEXTSTYLE0
  0
MTEXT
  5
6A
100
AcDbEntity
  8
0
 62
         7
100
AcDbMText
 10
6.9752663896
 20
1.6821505696
 30
0.0
 40
0.065
 41
0.0
 71
         1
 72
         1
  1
NAME
  7
SLDTEXTSTYLE0
  0
INSERT
  5
6E
100
AcDbEntity
  8
0
100
AcDbBlockReference
  2
NOTE16
 10
0.0
 20
0.0
 30
0.0
  0
MTEXT
  5
6F
100
AcDbEntity
  8
0
 62
         7
100
AcDbMText
 10
7.9386050459
 20
1.577816147
 30
0.0
 40
0.1
 41
0.0
 71
         1
 72
         1
  1
TITLE:
  7
SLDTEXTSTYLE0
  0
MTEXT
  5
70
100
AcDbEntity
  8
0
 62
         7
100
AcDbMText
 10
10.0657693915
 20
1.2425575667
 30
0.0
 40
0.0833333333
 41
0.0
 71
         1
 72
         1
  1
SIZE
  7
SLDTEXTSTYLE0
  0
MTEXT
  5
71
100
AcDbEntity
  8
0
 62
         7
100
AcDbMText
 10
10.1162261111
 20
1.1269262436
 30
0.0
 40
0.1041666667
 41
0.0
 71
         1
 72
         1
  1
A
  7
SLDTEXTSTYLE0
  0
MTEXT
  5
72
100
AcDbEntity
  8
0
 62
         7
100
AcDbMText
 10
10.335100974
 20
1.24415745
 30
0.0
 40
0.0833333333
 41
0.0
 71
         1
 72
         1
  1
REV.
  7
SLDTEXTSTYLE0
  0
INSERT
  5
78
100
AcDbEntity
  8
0
100
AcDbBlockReference
  2
NOTE21
 10
8.3227727705
 20
0.8245333449
 30
0.0
  0
INSERT
  5
7C
100
AcDbEntity
  8
0
100
AcDbBlockReference
  2
NOTE22
 10
0.0
 20
0.0
 30
0.0
  0
INSERT
  5
80
100
AcDbEntity
  8
0
100
AcDbBlockReference
  2
NOTE23
 10
0.0
 20
0.0
 30
0.0
  0
INSERT
  5
84
100
AcDbEntity
  8
0
100
AcDbBlockReference
  2
NOTE24
 10
0.0
 20
0.0
 30
0.0
  0
INSERT
  5
88
100
AcDbEntity
  8
0
100
AcDbBlockReference
  2
NOTE25
 10
0.0
 20
0.0
 30
0.0
  0
INSERT
  5
8C
100
AcDbEntity
  8
0
100
AcDbBlockReference
  2
NOTE26
 10
0.0
 20
0.0
 30
0.0
  0
INSERT
  5
90
100
AcDbEntity
  8
0
100
AcDbBlockReference
  2
NOTE27
 10
0.0
 20
0.0
 30
0.0
  0
INSERT
  5
94
100
AcDbEntity
  8
0
100
AcDbBlockReference
  2
NOTE28
 10
0.0
 20
0.0
 30
0.0
  0
INSERT
  5
98
100
AcDbEntity
  8
0
100
AcDbBlockReference
  2
NOTE29
 10
0.0
 20
0.0
 30
0.0
  0
INSERT
  5
9C
100
AcDbEntity
  8
0
100
AcDbBlockReference
  2
NOTE30
 10
0.0
 20
0.0
 30
0.0
  0
INSERT
  5
A0
100
AcDbEntity
  8
0
100
AcDbBlockReference
  2
NOTE31
 10
0.0
 20
0.0
 30
0.0
  0
INSERT
  5
A8
100
AcDbEntity
  8
0
100
AcDbBlockReference
  2
NOTE32
 10
9.6378279873
 20
0.8201337505
 30
0.0
  0
MTEXT
  5
A9
100
AcDbEntity
  8
0
 62
         7
100
AcDbMText
 10
7.9975907849
 20
0.6079408784
 30
0.0
 40
0.125
 41
0.0
 71
         1
 72
         1
  1
12769-E01
  7
SLDTEXTSTYLE0
  0
INSERT
  5
B3
100
AcDbEntity
  8
0
100
AcDbBlockReference
  2
NOTE34
 10
6.3891646717
 20
0.9312082413
 30
0.0
  0
MTEXT
  5
B4
100
AcDbEntity
  8
0
 62
         7
100
AcDbMText
 10
4.9869424832
 20
1.5430724242
 30
0.0
 40
0.0625
 41
0.0
 71
         1
 72
         1
  1
UNLESS OTHERWISE SPECIFIED:
  7
SLDTEXTSTYLE0
  0
MTEXT
  5
B5
100
AcDbEntity
  8
0
 62
         7
100
AcDbMText
 10
7.9076399399
 20
0.763088683
 30
0.0
 40
0.0833333333
 41
0.0
 71
         1
 72
         1
  1
DWG.  NO.
  7
SLDTEXTSTYLE0
  0
MTEXT
  5
B6
100
AcDbEntity
  8
0
 62
         7
100
AcDbMText
 10
7.0592138229
 20
1.5647861468
 30
0.0
 40
0.065
 41
0.0
 71
         1
 72
         1
  1
JPS
  7
SLDTEXTSTYLE0
  0
MTEXT
  5
B7
100
AcDbEntity
  8
0
 62
         7
100
AcDbMText
 10
7.0628716471
 20
1.4480432518
 30
0.0
 40
0.065
 41
0.0
 71
         1
 72
         1
  1
JMM
  7
SLDTEXTSTYLE0
  0
MTEXT
  5
B8
100
AcDbEntity
  8
0
 62
         7
100
AcDbMText
 10
7.0636219211
 20
1.3254688473
 30
0.0
 40
0.065
 41
0.0
 71
         1
 72
         1
  1
JMM
  7
SLDTEXTSTYLE0
  0
MTEXT
  5
B9
100
AcDbEntity
  8
0
 62
         7
100
AcDbMText
 10
7.3775562039
 20
1.5664735411
 30
0.0
 40
0.065
 41
0.0
 71
         1
 72
         1
  1
11/02/05
  7
SLDTEXTSTYLE0
  0
MTEXT
  5
BA
100
AcDbEntity
  8
0
 62
         7
100
AcDbMText
 10
7.4731545031
 20
1.6796112043
 30
0.0
 40
0.065
 41
0.0
 71
         1
 72
         1
  1
DATE
  7
SLDTEXTSTYLE0
  0
MTEXT
  5
BB
100
AcDbEntity
  8
0
 62
         7
100
AcDbMText
 10
7.3821011998
 20
1.4397569559
 30
0.0
 40
0.065
 41
0.0
 71
         1
 72
         1
  1
11/02/05
  7
SLDTEXTSTYLE0
  0
MTEXT
  5
BC
100
AcDbEntity
  8
0
 62
         7
100
AcDbMText
 10
7.3821011998
 20
1.3192883921
 30
0.0
 40
0.065
 41
0.0
 71
         1
 72
         1
  1
11/02/05
  7
SLDTEXTSTYLE0
  0
MTEXT
  5
BD
100
AcDbEntity
  8
0
 62
         7
100
AcDbMText
 10
7.9182509893
 20
1.8945249685
 30
0.0
 40
0.1875
 41
0.0
 71
         1
 72
         1
  1
THORLABS INC.
  7
SLDTEXTSTYLE0
  0
INSERT
  5
C3
100
AcDbEntity
  8
0
100
AcDbBlockReference
  2
NOTE45
 10
9.7899715108
 20
1.8064732284
 30
0.0
  0
INSERT
  5
CB
100
AcDbEntity
  8
0
100
AcDbBlockReference
  2
NOTE46
 10
8.2843056597
 20
1.4433767471
 30
0.0
  0
MTEXT
  5
CC
100
AcDbEntity
  8
0
 62
         7
100
AcDbMText
 10
8.3691642187
 20
1.1419615018
 30
0.0
 40
0.1041666667
 41
0.0
 71
         1
 72
         1
  1
STAINLESS STEEL
  7
SLDTEXTSTYLE0
  0
LINE
  5
CD
100
AcDbEntity
  8
0
  6
CONTINUOUS
 62
         7
100
AcDbLine
 10
8.234996285
 20
4.1911121988
 30
0.0
 11
8.234996277
 21
4.1517420932
 31
0.0
  0
LINE
  5
CE
100
AcDbEntity
  8
0
  6
CONTINUOUS
 62
         7
100
AcDbLine
 10
8.6286970739
 20
4.1517420932
 30
0.0
 11
8.6286970724
 21
4.1911121988
 31
0.0
  0
LINE
  5
CF
100
AcDbEntity
  8
0
  6
CONTINUOUS
 62
         7
100
AcDbLine
 10
8.2940514031
 20
4.5848129862
 30
0.0
 11
8.2940514048
 21
4.1911121784
 31
0.0
  0
LINE
  5
D0
100
AcDbEntity
  8
0
  6
CONTINUOUS
 62
         7
100
AcDbLine
 10
8.5696419553
 20
4.1911121784
 30
0.0
 11
8.5696419543
 21
4.5848129862
 31
0.0
  0
LINE
  5
D1
100
AcDbEntity
  8
0
  6
CONTINUOUS
 62
         7
100
AcDbLine
 10
8.7861773781
 20
3.5218208584
 30
0.0
 11
8.7861773781
 21
4.1517420932
 31
0.0
  0
LINE
  5
D2
100
AcDbEntity
  8
0
  6
CONTINUOUS
 62
         7
100
AcDbLine
 10
8.0775159546
 20
3.5218208584
 30
0.0
 11
8.7861773781
 21
3.5218208584
 31
0.0
  0
LINE
  5
D3
100
AcDbEntity
  8
0
  6
CONTINUOUS
 62
         7
100
AcDbLine
 10
8.0775159546
 20
3.5218208584
 30
0.0
 11
8.0775159546
 21
4.1517420932
 31
0.0
  0
LINE
  5
D4
100
AcDbEntity
  8
0
  6
CONTINUOUS
 62
         7
100
AcDbLine
 10
8.0775159546
 20
4.1517420932
 30
0.0
 11
8.7861773781
 21
4.1517420932
 31
0.0
  0
LINE
  5
D5
100
AcDbEntity
  8
0
  6
CONTINUOUS
 62
         7
100
AcDbLine
 10
8.5566458037
 20
4.1911121988
 30
0.0
 11
8.6286970724
 21
4.1911121988
 31
0.0
  0
LINE
  5
D6
100
AcDbEntity
  8
0
  6
CONTINUOUS
 62
         7
100
AcDbLine
 10
8.234996285
 20
4.1911121988
 30
0.0
 11
8.5566458037
 21
4.1911121988
 31
0.0
  0
LINE
  5
D7
100
AcDbEntity
  8
0
  6
CONTINUOUS
 62
         7
100
AcDbLine
 10
8.5192060662
 20
4.5848129862
 30
0.0
 11
8.5696419543
 21
4.5848129862
 31
0.0
  0
LINE
  5
D8
100
AcDbEntity
  8
0
  6
CONTINUOUS
 62
         7
100
AcDbLine
 10
8.2940514031
 20
4.5848129862
 30
0.0
 11
8.5192060662
 21
4.5848129862
 31
0.0
  0
LINE
  5
D9
100
AcDbEntity
  8
0
  6
CONTINUOUS
 62
         7
100
AcDbLine
 10
8.0775159546
 20
3.5218208584
 30
0.0
 11
8.0775159546
 21
2.7147342403
 31
0.0
  0
LINE
  5
DA
100
AcDbEntity
  8
0
  6
CONTINUOUS
 62
         7
100
AcDbLine
 10
8.0775159546
 20
2.7147342403
 30
0.0
 11
8.7861773781
 21
2.7147342403
 31
0.0
  0
LINE
  5
DB
100
AcDbEntity
  8
0
  6
CONTINUOUS
 62
       144
100
AcDbLine
 10
8.7861773781
 20
3.5218208584
 30
0.0
 11
8.0775159546
 21
3.5218208584
 31
0.0
  0
LINE
  5
DC
100
AcDbEntity
  8
0
  6
CONTINUOUS
 62
         7
100
AcDbLine
 10
8.7861773781
 20
2.7147342403
 30
0.0
 11
8.7861773781
 21
3.5218208584
 31
0.0
  0
ARC
  5
DD
100
AcDbEntity
  8
0
  6
CONTINUOUS
 62
         7
100
AcDbCircle
 10
8.4318466787
 20
3.0887499941
 30
0.0
 40
0.2519685039
100
AcDbArc
 50
58.1378896897
 51
31.2186383224
  0
ARC
  5
DE
100
AcDbEntity
  8
0
  6
CONTINUOUS
 62
         7
100
AcDbCircle
 10
8.6110129819
 20
3.2659153484
 30
0.0
 40
0.0590551181
100
AcDbArc
 50
307.9484511642
 51
141.4080768479
  0
ARC
  5
DF
100
AcDbEntity
  8
0
  6
CONTINUOUS
 62
       144
100
AcDbCircle
 10
8.4365712535
 20
3.0935331352
 30
0.0
 40
0.2452439103
100
AcDbArc
 50
30.8493747152
 51
58.4615166956
  0
CIRCLE
  5
E0
100
AcDbEntity
  8
0
  6
CONTINUOUS
 62
       144
100
AcDbCircle
 10
8.4318466787
 20
3.0887499941
 30
0.0
 40
0.25
  0
CIRCLE
  5
E1
100
AcDbEntity
  8
0
  6
CONTINUOUS
 62
         7
100
AcDbCircle
 10
8.4318466787
 20
3.0887499941
 30
0.0
 40
0.2480314961
  0
CIRCLE
  5
E2
100
AcDbEntity
  8
0
  6
CONTINUOUS
 62
         7
100
AcDbCircle
 10
8.4318466787
 20
3.0887499941
 30
0.0
 40
0.05325
  0
DIMENSION
  5
F1
100
AcDbEntity
  8
0
 62
         7
100
AcDbDimension
  2
*D17
 10
8.7861773874
 20
2.3997821073
 30
0.0
 11
8.4318466787
 21
2.3997821073
 31
0.0
 70
       160
  1
<>\P(18mm)
  3
SLDDIMSTYLE0
100
AcDbAlignedDimension
 13
8.0775159701
 23
2.714734246
 33
0.0
 14
8.7861773874
 24
2.714734246
 34
0.0
100
AcDbRotatedDimension
  0
DIMENSION
  5
100
100
AcDbEntity
  8
0
 62
         7
100
AcDbDimension
  2
*D18
 10
7.6783211476
 20
4.5848129862
 30
0.0
 11
7.6783211476
 21
3.6497736161
 31
0.0
 70
       160
  1
<>\P(48mm)
  3
SLDDIMSTYLE1
100
AcDbAlignedDimension
 13
8.0775159701
 23
2.714734246
 33
0.0
 14
8.2940514031
 24
4.5848129862
 34
0.0
 50
90.0
100
AcDbRotatedDimension
  0
LEADER
  5
101
100
AcDbEntity
  8
0
 62
         7
100
AcDbLeader
  3
SLDDIMSTYLE2
 73
         2
 74
         0
 75
         0
 40
0.0
 76
         3
 10
8.457628153
 20
3.1353426768
 30
0.0
 10
8.9155246707
 20
3.9067280804
 30
0.0
 10
9.1655246707
 20
3.9067280804
 30
0.0
 77
       256
340
109
  0
INSERT
  5
109
100
AcDbEntity
  8
0
100
AcDbBlockReference
  2
NOTE48
 10
9.1655246707
 20
3.9067280804
 30
0.0
  0
INSERT
  5
111
100
AcDbEntity
  8
0
100
AcDbBlockReference
  2
SW_CENTERMARK0
 10
0.0
 20
0.0
 30
0.0
  0
LINE
  5
112
100
AcDbEntity
  8
0
  6
CONTINUOUS
 62
         7
100
AcDbLine
 10
3.6762043015
 20
4.1911121988
 30
0.0
 11
3.6762042933
 21
4.1517420932
 31
0.0
  0
LINE
  5
113
100
AcDbEntity
  8
0
  6
CONTINUOUS
 62
         7
100
AcDbLine
 10
4.0699050719
 20
4.1517420932
 30
0.0
 11
4.0699050889
 21
4.1911121988
 31
0.0
  0
LINE
  5
114
100
AcDbEntity
  8
0
  6
CONTINUOUS
 62
         7
100
AcDbLine
 10
3.7352594196
 20
4.5848129862
 30
0.0
 11
3.7352593845
 21
4.1911121784
 31
0.0
  0
LINE
  5
115
100
AcDbEntity
  8
0
  6
CONTINUOUS
 62
         7
100
AcDbLine
 10
4.0108499808
 20
4.1911121784
 30
0.0
 11
4.0108499708
 21
4.5848129862
 31
0.0
  0
LINE
  5
116
100
AcDbEntity
  8
0
  6
CONTINUOUS
 62
         7
100
AcDbLine
 10
3.3888027613
 20
4.4273326712
 30
0.0
 11
3.3888026934
 21
4.1911121784
 31
0.0
  0
LINE
  5
117
100
AcDbEntity
  8
0
  6
CONTINUOUS
 62
         7
100
AcDbLine
 10
3.5699051146
 20
4.1911121784
 30
0.0
 11
3.5699050889
 21
4.4273326712
 31
0.0
  0
LINE
  5
118
100
AcDbEntity
  8
0
  6
CONTINUOUS
 62
         7
100
AcDbLine
 10
2.9006137504
 20
3.3367814901
 30
0.0
 11
2.6053381598
 21
3.3367814901
 31
0.0
  0
LINE
  5
119
100
AcDbEntity
  8
0
  6
CONTINUOUS
 62
         7
100
AcDbLine
 10
2.6053381598
 20
2.840718498
 30
0.0
 11
2.9006137504
 21
2.840718498
 31
0.0
  0
LINE
  5
11A
100
AcDbEntity
  8
0
  6
CONTINUOUS
 62
         7
100
AcDbLine
 10
2.3769917019
 20
2.9883562994
 30
0.0
 11
2.6053382107
 21
2.9883562994
 31
0.0
  0
LINE
  5
11B
100
AcDbEntity
  8
0
  6
CONTINUOUS
 62
         7
100
AcDbLine
 10
2.6053382107
 20
3.1891436899
 30
0.0
 11
2.3769917019
 21
3.1891436899
 31
0.0
  0
LINE
  5
11C
100
AcDbEntity
  8
0
  6
CONTINUOUS
 62
         7
100
AcDbLine
 10
3.0462830769
 20
3.3387499962
 30
0.0
 11
2.9675428842
 21
3.3387499941
 31
0.0
  0
LINE
  5
11D
100
AcDbEntity
  8
0
  6
CONTINUOUS
 62
         7
100
AcDbLine
 10
2.9675428842
 20
2.8387499941
 30
0.0
 11
3.0462830769
 21
2.8387499977
 31
0.0
  0
LINE
  5
11E
100
AcDbEntity
  8
0
  6
CONTINUOUS
 62
         7
100
AcDbLine
 10
2.900613813
 20
2.8722145444
 30
0.0
 11
2.9675429065
 21
2.8722145444
 31
0.0
  0
LINE
  5
11F
100
AcDbEntity
  8
0
  6
CONTINUOUS
 62
         7
100
AcDbLine
 10
2.9675429065
 20
3.3052854265
 30
0.0
 11
2.900613813
 21
3.3052854265
 31
0.0
  0
LINE
  5
120
100
AcDbEntity
  8
0
  6
CONTINUOUS
 62
         7
100
AcDbLine
 10
2.2588814669
 20
2.872214561
 30
0.0
 11
2.3769917031
 21
2.872214561
 31
0.0
  0
LINE
  5
121
100
AcDbEntity
  8
0
  6
CONTINUOUS
 62
         7
100
AcDbLine
 10
2.3769917031
 20
3.3052854271
 30
0.0
 11
2.2588814669
 21
3.3052854271
 31
0.0
  0
LINE
  5
122
100
AcDbEntity
  8
0
  6
CONTINUOUS
 62
         7
100
AcDbLine
 10
4.6210861913
 20
3.3367814901
 30
0.0
 11
4.3061255464
 21
3.336781491
 31
0.0
  0
LINE
  5
123
100
AcDbEntity
  8
0
  6
CONTINUOUS
 62
         7
100
AcDbLine
 10
4.3061255464
 20
2.8407184983
 30
0.0
 11
4.6210861913
 21
2.840718498
 31
0.0
  0
LINE
  5
124
100
AcDbEntity
  8
0
  6
CONTINUOUS
 62
         7
100
AcDbLine
 10
3.0462830769
 20
4.1517420932
 30
0.0
 11
4.3061255464
 21
4.1517420932
 31
0.0
  0
LINE
  5
125
100
AcDbEntity
  8
0
  6
CONTINUOUS
 62
         7
100
AcDbLine
 10
3.0462830769
 20
3.5218208584
 30
0.0
 11
3.0462830769
 21
4.1517420932
 31
0.0
  0
LINE
  5
126
100
AcDbEntity
  8
0
  6
CONTINUOUS
 62
         7
100
AcDbLine
 10
3.0462830769
 20
3.5218208584
 30
0.0
 11
4.3061255464
 21
3.5218208584
 31
0.0
  0
LINE
  5
127
100
AcDbEntity
  8
0
  6
CONTINUOUS
 62
         7
100
AcDbLine
 10
4.3061255464
 20
3.5218208584
 30
0.0
 11
4.3061255464
 21
4.1517420932
 31
0.0
  0
LINE
  5
128
100
AcDbEntity
  8
0
  6
CONTINUOUS
 62
         7
100
AcDbLine
 10
3.6762043015
 20
4.1911121988
 30
0.0
 11
4.0699050889
 21
4.1911121988
 31
0.0
  0
LINE
  5
129
100
AcDbEntity
  8
0
  6
CONTINUOUS
 62
         7
100
AcDbLine
 10
3.7352594196
 20
4.5848129862
 30
0.0
 11
4.0108499708
 21
4.5848129862
 31
0.0
  0
LINE
  5
12A
100
AcDbEntity
  8
0
  6
CONTINUOUS
 62
         7
100
AcDbLine
 10
3.3336846768
 20
4.1911121784
 30
0.0
 11
3.4064090167
 21
4.1911121784
 31
0.0
  0
LINE
  5
12B
100
AcDbEntity
  8
0
  6
CONTINUOUS
 62
         7
100
AcDbLine
 10
3.5520782806
 20
4.1911121784
 30
0.0
 11
3.6250231312
 21
4.1911121784
 31
0.0
  0
LINE
  5
12C
100
AcDbEntity
  8
0
  6
CONTINUOUS
 62
         7
100
AcDbLine
 10
3.4064090167
 20
4.1911121784
 30
0.0
 11
3.5520782806
 21
4.1911121784
 31
0.0
  0
LINE
  5
12D
100
AcDbEntity
  8
0
  6
CONTINUOUS
 62
         7
100
AcDbLine
 10
3.4064090167
 20
4.1517420932
 30
0.0
 11
3.4064090167
 21
4.1911121784
 31
0.0
  0
LINE
  5
12E
100
AcDbEntity
  8
0
  6
CONTINUOUS
 62
         7
100
AcDbLine
 10
3.5520782806
 20
4.1517420932
 30
0.0
 11
3.5520782806
 21
4.1911121784
 31
0.0
  0
LINE
  5
12F
100
AcDbEntity
  8
0
  6
CONTINUOUS
 62
         7
100
AcDbLine
 10
3.6250231312
 20
4.1517420932
 30
0.0
 11
3.6250231312
 21
4.1911121784
 31
0.0
  0
LINE
  5
130
100
AcDbEntity
  8
0
  6
CONTINUOUS
 62
         7
100
AcDbLine
 10
3.3336846768
 20
4.1517420932
 30
0.0
 11
3.3336846768
 21
4.1911121784
 31
0.0
  0
LINE
  5
131
100
AcDbEntity
  8
0
  6
CONTINUOUS
 62
         7
100
AcDbLine
 10
3.3888027613
 20
4.4273326712
 30
0.0
 11
3.5699050889
 21
4.4273326712
 31
0.0
  0
LINE
  5
132
100
AcDbEntity
  8
0
  6
CONTINUOUS
 62
         7
100
AcDbLine
 10
2.9006137504
 20
3.3367814901
 30
0.0
 11
2.9006137504
 21
2.840718498
 31
0.0
  0
LINE
  5
133
100
AcDbEntity
  8
0
  6
CONTINUOUS
 62
         7
100
AcDbLine
 10
2.6053381598
 20
3.3367814901
 30
0.0
 11
2.6053381598
 21
2.840718498
 31
0.0
  0
LINE
  5
134
100
AcDbEntity
  8
0
  6
CONTINUOUS
 62
         7
100
AcDbLine
 10
3.0462830769
 20
2.7147342403
 30
0.0
 11
4.3061255464
 21
2.7147342403
 31
0.0
  0
LINE
  5
135
100
AcDbEntity
  8
0
  6
CONTINUOUS
 62
         7
100
AcDbLine
 10
3.0462830769
 20
3.5218208584
 30
0.0
 11
3.0462830769
 21
2.7147342403
 31
0.0
  0
LINE
  5
136
100
AcDbEntity
  8
0
  6
CONTINUOUS
 62
       144
100
AcDbLine
 10
3.0462830769
 20
3.5218208584
 30
0.0
 11
4.3061255464
 21
3.5218208584
 31
0.0
  0
LINE
  5
137
100
AcDbEntity
  8
0
  6
CONTINUOUS
 62
         7
100
AcDbLine
 10
4.3061255464
 20
3.5218208584
 30
0.0
 11
4.3061255464
 21
2.7147342403
 31
0.0
  0
LINE
  5
138
100
AcDbEntity
  8
0
  6
CONTINUOUS
 62
         7
100
AcDbLine
 10
2.9675428842
 20
2.9549455593
 30
0.0
 11
2.9675428842
 21
2.8387499941
 31
0.0
  0
LINE
  5
139
100
AcDbEntity
  8
0
  6
CONTINUOUS
 62
         7
100
AcDbLine
 10
2.9675428842
 20
3.3387499941
 30
0.0
 11
2.9675428842
 21
2.9549455593
 31
0.0
  0
LINE
  5
13A
100
AcDbEntity
  8
0
  6
CONTINUOUS
 62
         7
100
AcDbLine
 10
2.2588814669
 20
3.3052854271
 30
0.0
 11
2.2588814669
 21
2.872214561
 31
0.0
  0
LINE
  5
13B
100
AcDbEntity
  8
0
  6
CONTINUOUS
 62
         7
100
AcDbLine
 10
2.3769917031
 20
3.3052854271
 30
0.0
 11
2.3769917031
 21
2.872214561
 31
0.0
  0
LINE
  5
13C
100
AcDbEntity
  8
0
  6
CONTINUOUS
 62
         7
100
AcDbLine
 10
4.6210861913
 20
3.3367814901
 30
0.0
 11
4.6210861913
 21
2.840718498
 31
0.0
  0
DIMENSION
  5
14C
100
AcDbEntity
  8
0
 62
         7
100
AcDbDimension
  2
*D21
 10
5.0048304359
 20
2.840718498
 30
0.0
 11
5.0048304359
 21
3.0887499941
 31
0.0
 70
       160
  1
%%c<>\P(13mm)
  3
SLDDIMSTYLE3
100
AcDbAlignedDimension
 13
4.6210861913
 23
3.3367814901
 33
0.0
 14
4.6210861913
 24
2.840718498
 34
0.0
 50
90.0
100
AcDbRotatedDimension
  0
DIMENSION
  5
15C
100
AcDbEntity
  8
0
 62
         7
100
AcDbDimension
  2
*D22
 10
1.9359394253
 20
3.1891436948
 30
0.0
 11
1.9359394253
 21
2.6543850598
 31
0.0
 70
       160
  1
%%c<>\P(5.1mm)
  3
SLDDIMSTYLE3
100
AcDbAlignedDimension
 13
2.3769917031
 23
2.9883562933
 33
0.0
 14
2.3769917031
 24
3.1891436948
 34
0.0
 50
90.0
100
AcDbRotatedDimension
  0
DIMENSION
  5
16A
100
AcDbEntity
  8
0
 62
         7
100
AcDbDimension
  2
*D23
 10
4.6210861913
 20
2.4016140438
 30
0.0
 11
3.4990389472
 21
2.4016140438
 31
0.0
 70
       160
  1
<>\P(57mm)
  3
SLDDIMSTYLE1
100
AcDbAlignedDimension
 13
2.3769917031
 23
2.872214561
 33
0.0
 14
4.6210861913
 24
2.840718498
 34
0.0
100
AcDbRotatedDimension
  0
DIMENSION
  5
178
100
AcDbEntity
  8
0
 62
         7
100
AcDbDimension
  2
*D24
 10
4.6210861913
 20
1.8961580765
 30
0.0
 11
3.4399838291
 21
1.8961580765
 31
0.0
 70
       160
  1
<>\P(60mm)
  3
SLDDIMSTYLE1
100
AcDbAlignedDimension
 13
2.2588814669
 23
2.872214561
 33
0.0
 14
4.6210861913
 24
2.840718498
 34
0.0
100
AcDbRotatedDimension
  0
LEADER
  5
179
100
AcDbEntity
  8
0
 62
         7
100
AcDbLeader
  3
SLDDIMSTYLE2
 73
         2
 74
         0
 75
         0
 40
0.0
 76
         3
 10
4.0108499708
 20
4.5848129862
 30
0.0
 10
4.4198630089
 20
4.907534856
 30
0.0
 10
4.6698630089
 20
4.907534856
 30
0.0
 77
       256
340
17F
  0
INSERT
  5
17F
100
AcDbEntity
  8
0
100
AcDbBlockReference
  2
NOTE49
 10
4.6698630089
 20
4.907534856
 30
0.0
  0
LEADER
  5
180
100
AcDbEntity
  8
0
 62
         7
100
AcDbLeader
  3
SLDDIMSTYLE2
 73
         2
 74
         1
 75
         0
 40
0.0
 76
         3
 10
3.3985663222
 20
4.4273326712
 30
0.0
 10
2.9540699468
 20
4.8958034625
 30
0.0
 10
2.7040699468
 20
4.8958034625
 30
0.0
 77
       256
340
186
  0
INSERT
  5
186
100
AcDbEntity
  8
0
100
AcDbBlockReference
  2
NOTE50
 10
2.7040699468
 20
4.8958034625
 30
0.0
  0
LINE
  5
187
100
AcDbEntity
  8
0
  6
CONTINUOUS
 62
         7
100
AcDbLine
 10
2.9006137504
 20
7.0353375886
 30
0.0
 11
2.6053381598
 21
7.0353375886
 31
0.0
  0
LINE
  5
188
100
AcDbEntity
  8
0
  6
CONTINUOUS
 62
         7
100
AcDbLine
 10
2.6053381598
 20
6.5392745965
 30
0.0
 11
2.9006137504
 21
6.5392745965
 31
0.0
  0
LINE
  5
189
100
AcDbEntity
  8
0
  6
CONTINUOUS
 62
         7
100
AcDbLine
 10
2.3769917019
 20
6.686912394
 30
0.0
 11
2.6053382107
 21
6.686912394
 31
0.0
  0
LINE
  5
18A
100
AcDbEntity
  8
0
  6
CONTINUOUS
 62
         7
100
AcDbLine
 10
2.6053382107
 20
6.8876997937
 30
0.0
 11
2.3769917019
 21
6.8876997937
 31
0.0
  0
LINE
  5
18B
100
AcDbEntity
  8
0
  6
CONTINUOUS
 62
         7
100
AcDbLine
 10
3.0462830769
 20
7.0373060954
 30
0.0
 11
2.9675428842
 21
7.0373060925
 31
0.0
  0
LINE
  5
18C
100
AcDbEntity
  8
0
  6
CONTINUOUS
 62
         7
100
AcDbLine
 10
2.9675428842
 20
6.5373060925
 30
0.0
 11
3.0462830769
 21
6.5373061015
 31
0.0
  0
LINE
  5
18D
100
AcDbEntity
  8
0
  6
CONTINUOUS
 62
         7
100
AcDbLine
 10
2.900613813
 20
6.5707706665
 30
0.0
 11
2.9675429065
 21
6.5707706665
 31
0.0
  0
LINE
  5
18E
100
AcDbEntity
  8
0
  6
CONTINUOUS
 62
         7
100
AcDbLine
 10
2.9675429065
 20
7.0038415303
 30
0.0
 11
2.900613813
 21
7.0038415303
 31
0.0
  0
LINE
  5
18F
100
AcDbEntity
  8
0
  6
CONTINUOUS
 62
         7
100
AcDbLine
 10
2.2588814669
 20
6.5707706595
 30
0.0
 11
2.3769917031
 21
6.5707706595
 31
0.0
  0
LINE
  5
190
100
AcDbEntity
  8
0
  6
CONTINUOUS
 62
         7
100
AcDbLine
 10
2.3769917031
 20
7.0038415256
 30
0.0
 11
2.2588814669
 21
7.0038415256
 31
0.0
  0
LINE
  5
191
100
AcDbEntity
  8
0
  6
CONTINUOUS
 62
         7
100
AcDbLine
 10
4.6210861913
 20
7.0353375886
 30
0.0
 11
4.3061255464
 21
7.0353375948
 31
0.0
  0
LINE
  5
192
100
AcDbEntity
  8
0
  6
CONTINUOUS
 62
         7
100
AcDbLine
 10
4.3061255464
 20
6.5392746021
 30
0.0
 11
4.6210861913
 21
6.5392745965
 31
0.0
  0
LINE
  5
193
100
AcDbEntity
  8
0
  6
CONTINUOUS
 62
         7
100
AcDbLine
 10
4.3061255464
 20
7.1416367918
 30
0.0
 11
3.0462830769
 21
7.1416367918
 31
0.0
  0
LINE
  5
194
100
AcDbEntity
  8
0
  6
CONTINUOUS
 62
         7
100
AcDbLine
 10
3.0462830769
 20
6.4329753684
 30
0.0
 11
4.3061255464
 21
6.4329753684
 31
0.0
  0
LINE
  5
195
100
AcDbEntity
  8
0
  6
CONTINUOUS
 62
         7
100
AcDbLine
 10
3.0462830769
 20
7.1416367918
 30
0.0
 11
3.0462830769
 21
6.4329753684
 31
0.0
  0
LINE
  5
196
100
AcDbEntity
  8
0
  6
CONTINUOUS
 62
         7
100
AcDbLine
 10
4.3061255464
 20
6.4329753684
 30
0.0
 11
4.3061255464
 21
7.1416367918
 31
0.0
  0
CIRCLE
  5
197
100
AcDbEntity
  8
0
  6
CONTINUOUS
 62
         7
100
AcDbCircle
 10
3.1643932779
 20
6.7873060925
 30
0.0
 40
0.0984251969
  0
CIRCLE
  5
198
100
AcDbEntity
  8
0
  6
CONTINUOUS
 62
         7
100
AcDbCircle
 10
4.1880153252
 20
6.7873060925
 30
0.0
 40
0.0984251969
  0
ARC
  5
199
100
AcDbEntity
  8
0
  6
CONTINUOUS
 62
       144
100
AcDbCircle
 10
4.0699050889
 20
6.9644714469
 30
0.0
 40
0.1181102362
100
AcDbArc
 50
294.1374734202
 51
313.2426616318
  0
ARC
  5
19A
100
AcDbEntity
  8
0
  6
CONTINUOUS
 62
       144
100
AcDbCircle
 10
3.2825035141
 20
6.9644714469
 30
0.0
 40
0.1181102362
100
AcDbArc
 50
226.7573383682
 51
245.8625265799
  0
ARC
  5
19B
100
AcDbEntity
  8
0
  6
CONTINUOUS
 62
       144
100
AcDbCircle
 10
3.2825035141
 20
6.6101407382
 30
0.0
 40
0.1181102362
100
AcDbArc
 50
114.1374734201
 51
133.2426616318
  0
ARC
  5
19C
100
AcDbEntity
  8
0
  6
CONTINUOUS
 62
       144
100
AcDbCircle
 10
4.0699050889
 20
6.6101407382
 30
0.0
 40
0.1181102362
100
AcDbArc
 50
46.7573383682
 51
65.8625265799
  0
CIRCLE
  5
19D
100
AcDbEntity
  8
0
  6
CONTINUOUS
 62
         7
100
AcDbCircle
 10
3.8730546952
 20
6.7873060925
 30
0.0
 40
0.1377952756
  0
CIRCLE
  5
19E
100
AcDbEntity
  8
0
  6
CONTINUOUS
 62
         7
100
AcDbCircle
 10
3.8730546952
 20
6.7873060925
 30
0.0
 40
0.1968503937
  0
CIRCLE
  5
19F
100
AcDbEntity
  8
0
  6
CONTINUOUS
 62
         7
100
AcDbCircle
 10
3.4793539078
 20
6.7873060925
 30
0.0
 40
0.0905511811
  0
LINE
  5
1A0
100
AcDbEntity
  8
0
  6
CONTINUOUS
 62
         7
100
AcDbLine
 10
3.3336846768
 20
6.7874334225
 30
0.0
 11
3.4064090167
 21
6.6612164984
 31
0.0
  0
LINE
  5
1A1
100
AcDbEntity
  8
0
  6
CONTINUOUS
 62
         7
100
AcDbLine
 10
3.4066295275
 20
6.9135230129
 30
0.0
 11
3.3336846768
 21
6.7874334225
 31
0.0
  0
LINE
  5
1A2
100
AcDbEntity
  8
0
  6
CONTINUOUS
 62
         7
100
AcDbLine
 10
3.5522987914
 20
6.9133956893
 30
0.0
 11
3.4066295275
 21
6.9135230129
 31
0.0
  0
LINE
  5
1A3
100
AcDbEntity
  8
0
  6
CONTINUOUS
 62
         7
100
AcDbLine
 10
3.6250231312
 20
6.7871787623
 30
0.0
 11
3.5522987914
 21
6.9133956893
 31
0.0
  0
LINE
  5
1A4
100
AcDbEntity
  8
0
  6
CONTINUOUS
 62
         7
100
AcDbLine
 10
3.5520782806
 20
6.6610891657
 30
0.0
 11
3.6250231312
 21
6.7871787623
 31
0.0
  0
LINE
  5
1A5
100
AcDbEntity
  8
0
  6
CONTINUOUS
 62
         7
100
AcDbLine
 10
3.4064090167
 20
6.6612164984
 30
0.0
 11
3.5520782806
 21
6.6610891657
 31
0.0
  0
LINE
  5
1A6
100
AcDbEntity
  8
0
  6
CONTINUOUS
 62
         7
100
AcDbLine
 10
2.9006137504
 20
7.0330401191
 30
0.0
 11
2.9006137504
 21
6.5392745965
 31
0.0
  0
LINE
  5
1A7
100
AcDbEntity
  8
0
  6
CONTINUOUS
 62
         7
100
AcDbLine
 10
2.9006137504
 20
7.0353375886
 30
0.0
 11
2.9006137504
 21
7.0330401191
 31
0.0
  0
LINE
  5
1A8
100
AcDbEntity
  8
0
  6
CONTINUOUS
 62
         7
100
AcDbLine
 10
2.6053381598
 20
7.0330401191
 30
0.0
 11
2.6053381598
 21
6.5392745965
 31
0.0
  0
LINE
  5
1A9
100
AcDbEntity
  8
0
  6
CONTINUOUS
 62
         7
100
AcDbLine
 10
2.6053381598
 20
7.0353375886
 30
0.0
 11
2.6053381598
 21
7.0330401191
 31
0.0
  0
CIRCLE
  5
1AA
100
AcDbEntity
  8
0
  6
CONTINUOUS
 62
         7
100
AcDbCircle
 10
4.1880153252
 20
6.7873060925
 30
0.0
 40
0.0787401575
  0
LINE
  5
1AB
100
AcDbEntity
  8
0
  6
CONTINUOUS
 62
         7
100
AcDbLine
 10
4.1880559537
 20
6.8337895906
 30
0.0
 11
4.1477797356
 21
6.8105830292
 31
0.0
  0
LINE
  5
1AC
100
AcDbEntity
  8
0
  6
CONTINUOUS
 62
         7
100
AcDbLine
 10
4.1477797356
 20
6.8105830292
 30
0.0
 11
4.1477391094
 21
6.7640995313
 31
0.0
  0
LINE
  5
1AD
100
AcDbEntity
  8
0
  6
CONTINUOUS
 62
         7
100
AcDbLine
 10
4.1879747013
 20
6.7408225925
 30
0.0
 11
4.1477391094
 21
6.7640995313
 31
0.0
  0
LINE
  5
1AE
100
AcDbEntity
  8
0
  6
CONTINUOUS
 62
         7
100
AcDbLine
 10
4.2282508827
 20
6.764029155
 30
0.0
 11
4.1879747013
 21
6.7408225925
 31
0.0
  0
LINE
  5
1AF
100
AcDbEntity
  8
0
  6
CONTINUOUS
 62
         7
100
AcDbLine
 10
4.2282508827
 20
6.764029155
 30
0.0
 11
4.2282915456
 21
6.8105126541
 31
0.0
  0
LINE
  5
1B0
100
AcDbEntity
  8
0
  6
CONTINUOUS
 62
         7
100
AcDbLine
 10
4.1880559537
 20
6.8337895906
 30
0.0
 11
4.2282915456
 21
6.8105126541
 31
0.0
  0
CIRCLE
  5
1B1
100
AcDbEntity
  8
0
  6
CONTINUOUS
 62
       144
100
AcDbCircle
 10
4.1880153252
 20
6.7873060925
 30
0.0
 40
0.0885826772
  0
ARC
  5
1B2
100
AcDbEntity
  8
0
  6
CONTINUOUS
 62
         7
100
AcDbCircle
 10
4.1880153252
 20
6.7873060925
 30
0.0
 40
0.0402559055
100
AcDbArc
 50
59.9499174927
 51
119.9499174927
  0
ARC
  5
1B3
100
AcDbEntity
  8
0
  6
CONTINUOUS
 62
         7
100
AcDbCircle
 10
4.1880153252
 20
6.7873060925
 30
0.0
 40
0.0402559055
100
AcDbArc
 50
119.9499174927
 51
179.9499174927
  0
ARC
  5
1B4
100
AcDbEntity
  8
0
  6
CONTINUOUS
 62
         7
100
AcDbCircle
 10
4.1880153252
 20
6.7873060925
 30
0.0
 40
0.0402559055
100
AcDbArc
 50
299.9499174927
 51
359.9499174927
  0
ARC
  5
1B5
100
AcDbEntity
  8
0
  6
CONTINUOUS
 62
         7
100
AcDbCircle
 10
4.1880153252
 20
6.7873060925
 30
0.0
 40
0.0402559055
100
AcDbArc
 50
239.9499174927
 51
299.9499174927
  0
ARC
  5
1B6
100
AcDbEntity
  8
0
  6
CONTINUOUS
 62
         7
100
AcDbCircle
 10
4.1880153252
 20
6.7873060925
 30
0.0
 40
0.0402559055
100
AcDbArc
 50
179.9499174927
 51
239.9499174927
  0
ARC
  5
1B7
100
AcDbEntity
  8
0
  6
CONTINUOUS
 62
         7
100
AcDbCircle
 10
4.1880153252
 20
6.7873060925
 30
0.0
 40
0.0402559055
100
AcDbArc
 50
359.9499174927
 51
59.9499174927
  0
LINE
  5
1B8
100
AcDbEntity
  8
0
  6
CONTINUOUS
 62
         7
100
AcDbLine
 10
2.9675428842
 20
7.0373060925
 30
0.0
 11
2.9675428842
 21
6.5373060925
 31
0.0
  0
LINE
  5
1B9
100
AcDbEntity
  8
0
  6
CONTINUOUS
 62
         7
100
AcDbLine
 10
2.2588814669
 20
7.0038415256
 30
0.0
 11
2.2588814669
 21
6.5707706595
 31
0.0
  0
LINE
  5
1BA
100
AcDbEntity
  8
0
  6
CONTINUOUS
 62
         7
100
AcDbLine
 10
2.3769917031
 20
7.0038415256
 30
0.0
 11
2.3769917031
 21
6.5707706595
 31
0.0
  0
LINE
  5
1BB
100
AcDbEntity
  8
0
  6
CONTINUOUS
 62
         7
100
AcDbLine
 10
4.6210861913
 20
7.0353375886
 30
0.0
 11
4.6210861913
 21
6.5392745965
 31
0.0
  0
CIRCLE
  5
1BC
100
AcDbEntity
  8
0
  6
CONTINUOUS
 62
         7
100
AcDbCircle
 10
3.1643932779
 20
6.7873060925
 30
0.0
 40
0.0787401575
  0
LINE
  5
1BD
100
AcDbEntity
  8
0
  6
CONTINUOUS
 62
         7
100
AcDbLine
 10
3.1644338853
 20
6.8337895906
 30
0.0
 11
3.1241576306
 21
6.8105830292
 31
0.0
  0
LINE
  5
1BE
100
AcDbEntity
  8
0
  6
CONTINUOUS
 62
         7
100
AcDbLine
 10
3.1241576306
 20
6.8105830292
 30
0.0
 11
3.1241170044
 21
6.7640995313
 31
0.0
  0
LINE
  5
1BF
100
AcDbEntity
  8
0
  6
CONTINUOUS
 62
         7
100
AcDbLine
 10
3.1643526329
 20
6.7408225925
 30
0.0
 11
3.1241170044
 21
6.7640995313
 31
0.0
  0
LINE
  5
1C0
100
AcDbEntity
  8
0
  6
CONTINUOUS
 62
         7
100
AcDbLine
 10
3.2046288877
 20
6.764029155
 30
0.0
 11
3.1643526329
 21
6.7408225925
 31
0.0
  0
LINE
  5
1C1
100
AcDbEntity
  8
0
  6
CONTINUOUS
 62
         7
100
AcDbLine
 10
3.2046288877
 20
6.764029155
 30
0.0
 11
3.2046695139
 21
6.8105126541
 31
0.0
  0
LINE
  5
1C2
100
AcDbEntity
  8
0
  6
CONTINUOUS
 62
         7
100
AcDbLine
 10
3.1644338853
 20
6.8337895906
 30
0.0
 11
3.2046695139
 21
6.8105126541
 31
0.0
  0
CIRCLE
  5
1C3
100
AcDbEntity
  8
0
  6
CONTINUOUS
 62
       144
100
AcDbCircle
 10
3.1643932779
 20
6.7873060925
 30
0.0
 40
0.0885826772
  0
ARC
  5
1C4
100
AcDbEntity
  8
0
  6
CONTINUOUS
 62
         7
100
AcDbCircle
 10
3.1643932779
 20
6.7873060925
 30
0.0
 40
0.0402559055
100
AcDbArc
 50
119.9499174927
 51
179.9499174927
  0
ARC
  5
1C5
100
AcDbEntity
  8
0
  6
CONTINUOUS
 62
         7
100
AcDbCircle
 10
3.1643932779
 20
6.7873060925
 30
0.0
 40
0.0402559055
100
AcDbArc
 50
299.9499174927
 51
359.9499174927
  0
ARC
  5
1C6
100
AcDbEntity
  8
0
  6
CONTINUOUS
 62
         7
100
AcDbCircle
 10
3.1643932779
 20
6.7873060925
 30
0.0
 40
0.0402559055
100
AcDbArc
 50
179.9499174925
 51
239.9499174927
  0
ARC
  5
1C7
100
AcDbEntity
  8
0
  6
CONTINUOUS
 62
         7
100
AcDbCircle
 10
3.1643932779
 20
6.7873060925
 30
0.0
 40
0.0402559055
100
AcDbArc
 50
359.9499174927
 51
59.9499174927
  0
ARC
  5
1C8
100
AcDbEntity
  8
0
  6
CONTINUOUS
 62
       144
100
AcDbCircle
 10
3.1643932779
 20
6.7873060925
 30
0.0
 40
0.0402559055
100
AcDbArc
 50
59.9499174927
 51
119.9499174927
  0
ARC
  5
1C9
100
AcDbEntity
  8
0
  6
CONTINUOUS
 62
       144
100
AcDbCircle
 10
3.1643932779
 20
6.7873060925
 30
0.0
 40
0.0402559055
100
AcDbArc
 50
239.9499174927
 51
299.9499174927
  0
DIMENSION
  5
1D7
100
AcDbEntity
  8
0
 62
         7
100
AcDbDimension
  2
*D27
 10
4.6210861913
 20
6.1561698956
 30
0.0
 11
4.9246441539
 21
6.1561698956
 31
0.0
 70
       160
  1
<>\P(8mm)
  3
SLDDIMSTYLE0
100
AcDbAlignedDimension
 13
4.3061255614
 23
6.4329753839
 33
0.0
 14
4.6210861913
 24
6.5392745965
 34
0.0
100
AcDbRotatedDimension
  0
DIMENSION
  5
1E5
100
AcDbEntity
  8
0
 62
         7
100
AcDbDimension
  2
*D28
 10
4.3061255614
 20
6.1561698956
 30
0.0
 11
3.6762043015
 21
6.1561698956
 31
0.0
 70
       160
  1
<>\P(32mm)
  3
SLDDIMSTYLE1
100
AcDbAlignedDimension
 13
3.0462830417
 23
6.4329753839
 33
0.0
 14
4.3061255614
 24
6.4329753839
 34
0.0
100
AcDbRotatedDimension
  0
LEADER
  5
1E6
100
AcDbEntity
  8
0
 62
         7
100
AcDbLeader
  3
SLDDIMSTYLE2
 73
         2
 74
         1
 75
         0
 40
0.0
 76
         3
 10
2.2588814669
 20
7.0038415256
 30
0.0
 10
1.9622436328
 20
7.2917764136
 30
0.0
 10
1.7122436328
 20
7.2917764136
 30
0.0
 77
       256
340
1EE
  0
INSERT
  5
1EE
100
AcDbEntity
  8
0
100
AcDbBlockReference
  2
NOTE51
 10
1.7122436328
 20
7.2917764136
 30
0.0
  0
LINE
  5
1EF
100
AcDbEntity
  8
0
  6
CONTINUOUS
 62
         7
100
AcDbLine
 10
9.260104383
 20
7.6056294582
 30
0.0
 11
9.2601043799
 21
7.2841567205
 31
0.0
  0
LINE
  5
1F0
100
AcDbEntity
  8
0
  6
CONTINUOUS
 62
         7
100
AcDbLine
 10
9.5356949311
 20
7.2841567205
 30
0.0
 11
9.5356949083
 21
7.605629447
 31
0.0
  0
LINE
  5
1F1
100
AcDbEntity
  8
0
  6
CONTINUOUS
 62
         7
100
AcDbLine
 10
9.5947500492
 20
7.2520094444
 30
0.0
 11
9.594750049
 21
7.2841567048
 31
0.0
  0
LINE
  5
1F2
100
AcDbEntity
  8
0
  6
CONTINUOUS
 62
         7
100
AcDbLine
 10
9.0289599826
 20
7.3163301363
 30
0.0
 11
9.0289599779
 21
7.1234464622
 31
0.0
  0
LINE
  5
1F3
100
AcDbEntity
  8
0
  6
CONTINUOUS
 62
         7
100
AcDbLine
 10
9.2100623401
 20
7.1234464622
 30
0.0
 11
9.2100623312
 21
7.3163301269
 31
0.0
  0
LINE
  5
1F4
100
AcDbEntity
  8
0
  6
CONTINUOUS
 62
         7
100
AcDbLine
 10
8.5862743995
 20
6.201886048
 30
0.0
 11
8.3774830605
 21
6.0813533776
 31
0.0
  0
LINE
  5
1F5
100
AcDbEntity
  8
0
  6
CONTINUOUS
 62
         7
100
AcDbLine
 10
8.6254943964
 20
5.6517385883
 30
0.0
 11
8.8342857387
 21
5.772271258
 31
0.0
  0
LINE
  5
1F6
100
AcDbEntity
  8
0
  6
CONTINUOUS
 62
         7
100
AcDbLine
 10
8.4861518686
 20
5.7417706632
 30
0.0
 11
8.5656783363
 21
5.7875014707
 31
0.0
  0
LINE
  5
1F7
100
AcDbEntity
  8
0
  6
CONTINUOUS
 62
         7
100
AcDbLine
 10
8.4651379067
 20
5.9616614737
 30
0.0
 11
8.3857663221
 21
5.9156623726
 31
0.0
  0
LINE
  5
1F8
100
AcDbEntity
  8
0
  6
CONTINUOUS
 62
         7
100
AcDbLine
 10
9.6833025921
 20
7.3925953808
 30
0.0
 11
9.6763367989
 21
7.3966179568
 31
0.0
  0
LINE
  5
1F9
100
AcDbEntity
  8
0
  6
CONTINUOUS
 62
         7
100
AcDbLine
 10
9.5649237062
 20
7.3966408476
 30
0.0
 11
9.5579628631
 21
7.3926211255
 31
0.0
  0
LINE
  5
1FA
100
AcDbEntity
  8
0
  6
CONTINUOUS
 62
         7
100
AcDbLine
 10
8.7040124637
 20
6.2721277603
 30
0.0
 11
8.6326162831
 21
6.2309116226
 31
0.0
  0
LINE
  5
1FB
100
AcDbEntity
  8
0
  6
CONTINUOUS
 62
         7
100
AcDbLine
 10
8.882595967
 20
5.7978871802
 30
0.0
 11
8.9539921476
 21
5.839103318
 31
0.0
  0
LINE
  5
1FC
100
AcDbEntity
  8
0
  6
CONTINUOUS
 62
         7
100
AcDbLine
 10
8.3647657753
 20
5.5375906741
 30
0.0
 11
8.4482822866
 21
5.5858037441
 31
0.0
  0
LINE
  5
1FD
100
AcDbEntity
  8
0
  6
CONTINUOUS
 62
         7
100
AcDbLine
 10
8.2317644508
 20
5.960864275
 30
0.0
 11
8.1482479369
 21
5.9126512202
 31
0.0
  0
LINE
  5
1FE
100
AcDbEntity
  8
0
  6
CONTINUOUS
 62
         7
100
AcDbLine
 10
9.9546766424
 20
6.4190591661
 30
0.0
 11
10.0508434685
 21
6.4745750865
 31
0.0
  0
LINE
  5
1FF
100
AcDbEntity
  8
0
  6
CONTINUOUS
 62
         7
100
AcDbLine
 10
8.9594925012
 20
6.9747487094
 30
0.0
 11
8.9525267079
 21
6.9787712854
 31
0.0
  0
LINE
  5
200
100
AcDbEntity
  8
0
  6
CONTINUOUS
 62
         7
100
AcDbLine
 10
8.8411136262
 20
6.9787941825
 30
0.0
 11
8.8341527721
 21
6.9747744541
 31
0.0
  0
LINE
  5
201
100
AcDbEntity
  8
0
  6
CONTINUOUS
 62
         7
100
AcDbLine
 10
9.0638334955
 20
6.7698786558
 30
0.0
 11
9.9546766489
 21
7.2841514617
 31
0.0
  0
LINE
  5
202
100
AcDbEntity
  8
0
  6
CONTINUOUS
 62
         7
100
AcDbLine
 10
8.5627341974
 20
7.0591571232
 30
0.0
 11
9.0638334955
 21
6.7698786558
 31
0.0
  0
LINE
  5
203
100
AcDbEntity
  8
0
  6
CONTINUOUS
 62
         7
100
AcDbLine
 10
9.2601043895
 20
7.4617403658
 30
0.0
 11
9.0955396912
 21
7.3667391877
 31
0.0
  0
LINE
  5
204
100
AcDbEntity
  8
0
  6
CONTINUOUS
 62
         7
100
AcDbLine
 10
9.0321905615
 20
7.3301685135
 30
0.0
 11
8.5627341974
 21
7.0591571232
 31
0.0
  0
LINE
  5
205
100
AcDbEntity
  8
0
  6
CONTINUOUS
 62
         7
100
AcDbLine
 10
9.9546766489
 20
7.2841514617
 30
0.0
 11
9.5356949212
 21
7.5260244647
 31
0.0
  0
POLYLINE
  5
206
100
AcDbEntity
  8
0
  6
CONTINUOUS
 62
         7
100
AcDb2dPolyline
 66
         1
 10
0.0
 20
0.0
 30
0.0
 70
       128
  0
VERTEX
  5
207
100
AcDbEntity
  8
0
100
AcDbVertex
100
AcDb2dVertex
 10
8.8272032217
 20
7.0029085161
 30
0.0
  0
VERTEX
  5
208
100
AcDbEntity
  8
0
100
AcDbVertex
100
AcDb2dVertex
 10
8.8201998212
 20
6.9984103083
 30
0.0
  0
VERTEX
  5
209
100
AcDbEntity
  8
0
100
AcDbVertex
100
AcDb2dVertex
 10
8.8140643124
 20
6.9935078261
 30
0.0
  0
VERTEX
  5
20A
100
AcDbEntity
  8
0
100
AcDbVertex
100
AcDb2dVertex
 10
8.808866199
 20
6.9882566168
 30
0.0
  0
VERTEX
  5
20B
100
AcDbEntity
  8
0
100
AcDbVertex
100
AcDb2dVertex
 10
8.8046644063
 20
6.9827161792
 30
0.0
  0
VERTEX
  5
20C
100
AcDbEntity
  8
0
100
AcDbVertex
100
AcDb2dVertex
 10
8.8015065557
 20
6.9769493049
 30
0.0
  0
VERTEX
  5
20D
100
AcDbEntity
  8
0
100
AcDbVertex
100
AcDb2dVertex
 10
8.7994285108
 20
6.9710213824
 30
0.0
  0
VERTEX
  5
20E
100
AcDbEntity
  8
0
100
AcDbVertex
100
AcDb2dVertex
 10
8.7984536672
 20
6.9649994895
 30
0.0
  0
VERTEX
  5
20F
100
AcDbEntity
  8
0
100
AcDbVertex
100
AcDb2dVertex
 10
8.7985930569
 20
6.9589518547
 30
0.0
  0
VERTEX
  5
210
100
AcDbEntity
  8
0
100
AcDbVertex
100
AcDb2dVertex
 10
8.7998452476
 20
6.9529470769
 30
0.0
  0
VERTEX
  5
211
100
AcDbEntity
  8
0
100
AcDbVertex
100
AcDb2dVertex
 10
8.8021960667
 20
6.9470532068
 30
0.0
  0
VERTEX
  5
212
100
AcDbEntity
  8
0
100
AcDbVertex
100
AcDb2dVertex
 10
8.8056186395
 20
6.9413368875
 30
0.0
  0
VERTEX
  5
213
100
AcDbEntity
  8
0
100
AcDbVertex
100
AcDb2dVertex
 10
8.8100744045
 20
6.9358630067
 30
0.0
  0
VERTEX
  5
214
100
AcDbEntity
  8
0
100
AcDbVertex
100
AcDb2dVertex
 10
8.815512813
 20
6.9306935539
 30
0.0
  0
VERTEX
  5
215
100
AcDbEntity
  8
0
100
AcDbVertex
100
AcDb2dVertex
 10
8.8218722382
 20
6.9258870955
 30
0.0
  0
VERTEX
  5
216
100
AcDbEntity
  8
0
100
AcDbVertex
100
AcDb2dVertex
 10
8.8290805815
 20
6.9214980648
 30
0.0
  0
VERTEX
  5
217
100
AcDbEntity
  8
0
100
AcDbVertex
100
AcDb2dVertex
 10
8.8370563196
 20
6.9175762786
 30
0.0
  0
VERTEX
  5
218
100
AcDbEntity
  8
0
100
AcDbVertex
100
AcDb2dVertex
 10
8.8457089365
 20
6.9141660876
 30
0.0
  0
VERTEX
  5
219
100
AcDbEntity
  8
0
100
AcDbVertex
100
AcDb2dVertex
 10
8.8549403904
 20
6.9113061295
 30
0.0
  0
VERTEX
  5
21A
100
AcDbEntity
  8
0
100
AcDbVertex
100
AcDb2dVertex
 10
8.8646461568
 20
6.9090288459
 30
0.0
  0
VERTEX
  5
21B
100
AcDbEntity
  8
0
100
AcDbVertex
100
AcDb2dVertex
 10
8.8747162357
 20
6.9073600208
 30
0.0
  0
VERTEX
  5
21C
100
AcDbEntity
  8
0
100
AcDbVertex
100
AcDb2dVertex
 10
8.8850365388
 20
6.9063185786
 30
0.0
  0
VERTEX
  5
21D
100
AcDbEntity
  8
0
100
AcDbVertex
100
AcDb2dVertex
 10
8.8954901648
 20
6.9059163266
 30
0.0
  0
VERTEX
  5
21E
100
AcDbEntity
  8
0
100
AcDbVertex
100
AcDb2dVertex
 10
8.9059586631
 20
6.9061578241
 30
0.0
  0
VERTEX
  5
21F
100
AcDbEntity
  8
0
100
AcDbVertex
100
AcDb2dVertex
 10
8.9163232916
 20
6.9070402555
 30
0.0
  0
VERTEX
  5
220
100
AcDbEntity
  8
0
100
AcDbVertex
100
AcDb2dVertex
 10
8.9264667827
 20
6.9085537274
 30
0.0
  0
VERTEX
  5
221
100
AcDbEntity
  8
0
100
AcDbVertex
100
AcDb2dVertex
 10
8.9362741438
 20
6.910681046
 30
0.0
  0
VERTEX
  5
222
100
AcDbEntity
  8
0
100
AcDbVertex
100
AcDb2dVertex
 10
8.9456342521
 20
6.913398114
 30
0.0
  0
VERTEX
  5
223
100
AcDbEntity
  8
0
100
AcDbVertex
100
AcDb2dVertex
 10
8.954440995
 20
6.91667411
 30
0.0
  0
VERTEX
  5
224
100
AcDbEntity
  8
0
100
AcDbVertex
100
AcDb2dVertex
 10
8.9625947029
 20
6.9204719786
 30
0.0
  0
VERTEX
  5
225
100
AcDbEntity
  8
0
100
AcDbVertex
100
AcDb2dVertex
 10
8.9700029656
 20
6.9247486777
 30
0.0
  0
VERTEX
  5
226
100
AcDbEntity
  8
0
100
AcDbVertex
100
AcDb2dVertex
 10
8.9765817799
 20
6.929455713
 30
0.0
  0
VERTEX
  5
227
100
AcDbEntity
  8
0
100
AcDbVertex
100
AcDb2dVertex
 10
8.9822565862
 20
6.9345397375
 30
0.0
  0
VERTEX
  5
228
100
AcDbEntity
  8
0
100
AcDbVertex
100
AcDb2dVertex
 10
8.9869631961
 20
6.939943213
 30
0.0
  0
VERTEX
  5
229
100
AcDbEntity
  8
0
100
AcDbVertex
100
AcDb2dVertex
 10
8.9906482193
 20
6.9456048821
 30
0.0
  0
VERTEX
  5
22A
100
AcDbEntity
  8
0
100
AcDbVertex
100
AcDb2dVertex
 10
8.9932699135
 20
6.9514605948
 30
0.0
  0
VERTEX
  5
22B
100
AcDbEntity
  8
0
100
AcDbVertex
100
AcDb2dVertex
 10
8.9947985988
 20
6.9574440273
 30
0.0
  0
VERTEX
  5
22C
100
AcDbEntity
  8
0
100
AcDbVertex
100
AcDb2dVertex
 10
8.9952168264
 20
6.9634873029
 30
0.0
  0
VERTEX
  5
22D
100
AcDbEntity
  8
0
100
AcDbVertex
100
AcDb2dVertex
 10
8.9945200299
 20
6.9695220528
 30
0.0
  0
VERTEX
  5
22E
100
AcDbEntity
  8
0
100
AcDbVertex
100
AcDb2dVertex
 10
8.9927160037
 20
6.9754798369
 30
0.0
  0
VERTEX
  5
22F
100
AcDbEntity
  8
0
100
AcDbVertex
100
AcDb2dVertex
 10
8.9898252007
 20
6.9812931697
 30
0.0
  0
VERTEX
  5
230
100
AcDbEntity
  8
0
100
AcDbVertex
100
AcDb2dVertex
 10
8.9858804024
 20
6.9868961894
 30
0.0
  0
VERTEX
  5
231
100
AcDbEntity
  8
0
100
AcDbVertex
100
AcDb2dVertex
 10
8.9809263766
 20
6.9922254542
 30
0.0
  0
VERTEX
  5
232
100
AcDbEntity
  8
0
100
AcDbVertex
100
AcDb2dVertex
 10
8.9750191124
 20
6.9972205036
 30
0.0
  0
VERTEX
  5
233
100
AcDbEntity
  8
0
100
AcDbVertex
100
AcDb2dVertex
 10
8.9682255396
 20
7.0018247393
 30
0.0
  0
VERTEX
  5
234
100
AcDbEntity
  8
0
100
AcDbVertex
100
AcDb2dVertex
 10
8.9606226917
 20
7.0059860273
 30
0.0
  0
VERTEX
  5
235
100
AcDbEntity
  8
0
100
AcDbVertex
100
AcDb2dVertex
 10
8.9522967593
 20
7.0096572454
 30
0.0
  0
VERTEX
  5
236
100
AcDbEntity
  8
0
100
AcDbVertex
100
AcDb2dVertex
 10
8.9433420343
 20
7.0127967718
 30
0.0
  0
VERTEX
  5
237
100
AcDbEntity
  8
0
100
AcDbVertex
100
AcDb2dVertex
 10
8.9338599672
 20
7.0153690301
 30
0.0
  0
VERTEX
  5
238
100
AcDbEntity
  8
0
100
AcDbVertex
100
AcDb2dVertex
 10
8.9239580424
 20
7.0173448992
 30
0.0
  0
VERTEX
  5
239
100
AcDbEntity
  8
0
100
AcDbVertex
100
AcDb2dVertex
 10
8.9137483502
 20
7.0187019384
 30
0.0
  0
VERTEX
  5
23A
100
AcDbEntity
  8
0
100
AcDbVertex
100
AcDb2dVertex
 10
8.9033466429
 20
7.0194248126
 30
0.0
  0
VERTEX
  5
23B
100
AcDbEntity
  8
0
100
AcDbVertex
100
AcDb2dVertex
 10
8.8928706971
 20
7.0195052806
 30
0.0
  0
VERTEX
  5
23C
100
AcDbEntity
  8
0
100
AcDbVertex
100
AcDb2dVertex
 10
8.8824393423
 20
7.0189425154
 30
0.0
  0
VERTEX
  5
23D
100
AcDbEntity
  8
0
100
AcDbVertex
100
AcDb2dVertex
 10
8.8721707667
 20
7.0177428856
 30
0.0
  0
VERTEX
  5
23E
100
AcDbEntity
  8
0
100
AcDbVertex
100
AcDb2dVertex
 10
8.8621811651
 20
7.0159198973
 30
0.0
  0
VERTEX
  5
23F
100
AcDbEntity
  8
0
100
AcDbVertex
100
AcDb2dVertex
 10
8.8525838057
 20
7.013494254
 30
0.0
  0
VERTEX
  5
240
100
AcDbEntity
  8
0
100
AcDbVertex
100
AcDb2dVertex
 10
8.8434875625
 20
7.0104935068
 30
0.0
  0
VERTEX
  5
241
100
AcDbEntity
  8
0
100
AcDbVertex
100
AcDb2dVertex
 10
8.8349951903
 20
7.0069514931
 30
0.0
  0
VERTEX
  5
242
100
AcDbEntity
  8
0
100
AcDbVertex
100
AcDb2dVertex
 10
8.8272032217
 20
7.0029085161
 30
0.0
  0
SEQEND
  5
243
100
AcDbEntity
  8
0
  0
POLYLINE
  5
244
100
AcDbEntity
  8
0
  6
CONTINUOUS
 62
         7
100
AcDb2dPolyline
 66
         1
 10
0.0
 20
0.0
 30
0.0
 70
       128
  0
VERTEX
  5
245
100
AcDbEntity
  8
0
100
AcDbVertex
100
AcDb2dVertex
 10
9.5510133276
 20
7.4207551961
 30
0.0
  0
VERTEX
  5
246
100
AcDbEntity
  8
0
100
AcDbVertex
100
AcDb2dVertex
 10
9.5440099012
 20
7.4162569734
 30
0.0
  0
VERTEX
  5
247
100
AcDbEntity
  8
0
100
AcDbVertex
100
AcDb2dVertex
 10
9.5378743665
 20
7.4113544762
 30
0.0
  0
VERTEX
  5
248
100
AcDbEntity
  8
0
100
AcDbVertex
100
AcDb2dVertex
 10
9.5356949212
 20
7.4093081906
 30
0.0
  0
SEQEND
  5
249
100
AcDbEntity
  8
0
  0
POLYLINE
  5
24A
100
AcDbEntity
  8
0
  6
CONTINUOUS
 62
         7
100
AcDb2dPolyline
 66
         1
 10
0.0
 20
0.0
 30
0.0
 70
       128
  0
VERTEX
  5
24B
100
AcDbEntity
  8
0
100
AcDbVertex
100
AcDb2dVertex
 10
9.5789096684
 20
7.3291097149
 30
0.0
  0
VERTEX
  5
24C
100
AcDbEntity
  8
0
100
AcDbVertex
100
AcDb2dVertex
 10
9.5884562368
 20
7.3268755109
 30
0.0
  0
VERTEX
  5
24D
100
AcDbEntity
  8
0
100
AcDbVertex
100
AcDb2dVertex
 10
9.5985263416
 20
7.3252067009
 30
0.0
  0
VERTEX
  5
24E
100
AcDbEntity
  8
0
100
AcDbVertex
100
AcDb2dVertex
 10
9.6088466706
 20
7.3241652736
 30
0.0
  0
VERTEX
  5
24F
100
AcDbEntity
  8
0
100
AcDbVertex
100
AcDb2dVertex
 10
9.6193002707
 20
7.3237630066
 30
0.0
  0
VERTEX
  5
250
100
AcDbEntity
  8
0
100
AcDbVertex
100
AcDb2dVertex
 10
9.6297687172
 20
7.3240044742
 30
0.0
  0
VERTEX
  5
251
100
AcDbEntity
  8
0
100
AcDbVertex
100
AcDb2dVertex
 10
9.6401334234
 20
7.3248869505
 30
0.0
  0
VERTEX
  5
252
100
AcDbEntity
  8
0
100
AcDbVertex
100
AcDb2dVertex
 10
9.6502768886
 20
7.3264004074
 30
0.0
  0
VERTEX
  5
253
100
AcDbEntity
  8
0
100
AcDbVertex
100
AcDb2dVertex
 10
9.6600842497
 20
7.328527726
 30
0.0
  0
VERTEX
  5
254
100
AcDbEntity
  8
0
100
AcDbVertex
100
AcDb2dVertex
 10
9.669444332
 20
7.3312447791
 30
0.0
  0
VERTEX
  5
255
100
AcDbEntity
  8
0
100
AcDbVertex
100
AcDb2dVertex
 10
9.6782511268
 20
7.334520805
 30
0.0
  0
VERTEX
  5
256
100
AcDbEntity
  8
0
100
AcDbVertex
100
AcDb2dVertex
 10
9.6864048347
 20
7.3383186736
 30
0.0
  0
VERTEX
  5
257
100
AcDbEntity
  8
0
100
AcDbVertex
100
AcDb2dVertex
 10
9.6938130456
 20
7.3425953427
 30
0.0
  0
VERTEX
  5
258
100
AcDbEntity
  8
0
100
AcDbVertex
100
AcDb2dVertex
 10
9.7003918599
 20
7.3473023781
 30
0.0
  0
VERTEX
  5
259
100
AcDbEntity
  8
0
100
AcDbVertex
100
AcDb2dVertex
 10
9.7060667181
 20
7.3523864325
 30
0.0
  0
VERTEX
  5
25A
100
AcDbEntity
  8
0
100
AcDbVertex
100
AcDb2dVertex
 10
9.710773302
 20
7.357789893
 30
0.0
  0
VERTEX
  5
25B
100
AcDbEntity
  8
0
100
AcDbVertex
100
AcDb2dVertex
 10
9.7144583252
 20
7.3634515621
 30
0.0
  0
VERTEX
  5
25C
100
AcDbEntity
  8
0
100
AcDbVertex
100
AcDb2dVertex
 10
9.7170799935
 20
7.3693072599
 30
0.0
  0
VERTEX
  5
25D
100
AcDbEntity
  8
0
100
AcDbVertex
100
AcDb2dVertex
 10
9.7186086529
 20
7.3752906774
 30
0.0
  0
VERTEX
  5
25E
100
AcDbEntity
  8
0
100
AcDbVertex
100
AcDb2dVertex
 10
9.7190269323
 20
7.381333983
 30
0.0
  0
VERTEX
  5
25F
100
AcDbEntity
  8
0
100
AcDbVertex
100
AcDb2dVertex
 10
9.7183301099
 20
7.3873687178
 30
0.0
  0
VERTEX
  5
260
100
AcDbEntity
  8
0
100
AcDbVertex
100
AcDb2dVertex
 10
9.7165261096
 20
7.393326517
 30
0.0
  0
VERTEX
  5
261
100
AcDbEntity
  8
0
100
AcDbVertex
100
AcDb2dVertex
 10
9.7136353325
 20
7.3991398647
 30
0.0
  0
VERTEX
  5
262
100
AcDbEntity
  8
0
100
AcDbVertex
100
AcDb2dVertex
 10
9.7096905342
 20
7.4047428844
 30
0.0
  0
VERTEX
  5
263
100
AcDbEntity
  8
0
100
AcDbVertex
100
AcDb2dVertex
 10
9.7047364306
 20
7.4100721043
 30
0.0
  0
VERTEX
  5
264
100
AcDbEntity
  8
0
100
AcDbVertex
100
AcDb2dVertex
 10
9.6988291665
 20
7.4150671537
 30
0.0
  0
VERTEX
  5
265
100
AcDbEntity
  8
0
100
AcDbVertex
100
AcDb2dVertex
 10
9.6920356196
 20
7.4196714044
 30
0.0
  0
VERTEX
  5
266
100
AcDbEntity
  8
0
100
AcDbVertex
100
AcDb2dVertex
 10
9.6844328236
 20
7.4238327223
 30
0.0
  0
VERTEX
  5
267
100
AcDbEntity
  8
0
100
AcDbVertex
100
AcDb2dVertex
 10
9.6761068912
 20
7.4275039404
 30
0.0
  0
VERTEX
  5
268
100
AcDbEntity
  8
0
100
AcDbVertex
100
AcDb2dVertex
 10
9.6671521402
 20
7.4306434518
 30
0.0
  0
VERTEX
  5
269
100
AcDbEntity
  8
0
100
AcDbVertex
100
AcDb2dVertex
 10
9.6576700732
 20
7.4332157101
 30
0.0
  0
VERTEX
  5
26A
100
AcDbEntity
  8
0
100
AcDbVertex
100
AcDb2dVertex
 10
9.6477680965
 20
7.4351915493
 30
0.0
  0
VERTEX
  5
26B
100
AcDbEntity
  8
0
100
AcDbVertex
100
AcDb2dVertex
 10
9.6375584301
 20
7.4365486034
 30
0.0
  0
VERTEX
  5
26C
100
AcDbEntity
  8
0
100
AcDbVertex
100
AcDb2dVertex
 10
9.6271567229
 20
7.4372714777
 30
0.0
  0
VERTEX
  5
26D
100
AcDbEntity
  8
0
100
AcDbVertex
100
AcDb2dVertex
 10
9.6166808289
 20
7.4373519756
 30
0.0
  0
VERTEX
  5
26E
100
AcDbEntity
  8
0
100
AcDbVertex
100
AcDb2dVertex
 10
9.6062494742
 20
7.4367892104
 30
0.0
  0
VERTEX
  5
26F
100
AcDbEntity
  8
0
100
AcDbVertex
100
AcDb2dVertex
 10
9.5959808467
 20
7.4355895506
 30
0.0
  0
VERTEX
  5
270
100
AcDbEntity
  8
0
100
AcDbVertex
100
AcDb2dVertex
 10
9.585991271
 20
7.4337665773
 30
0.0
  0
VERTEX
  5
271
100
AcDbEntity
  8
0
100
AcDbVertex
100
AcDb2dVertex
 10
9.5763939376
 20
7.431340949
 30
0.0
  0
VERTEX
  5
272
100
AcDbEntity
  8
0
100
AcDbVertex
100
AcDb2dVertex
 10
9.5672976166
 20
7.4283401569
 30
0.0
  0
VERTEX
  5
273
100
AcDbEntity
  8
0
100
AcDbVertex
100
AcDb2dVertex
 10
9.5588053222
 20
7.4247981881
 30
0.0
  0
VERTEX
  5
274
100
AcDbEntity
  8
0
100
AcDbVertex
100
AcDb2dVertex
 10
9.5510133276
 20
7.4207551961
 30
0.0
  0
VERTEX
  5
275
100
AcDbEntity
  8
0
100
AcDbVertex
100
AcDb2dVertex
 10
9.5510133276
 20
7.4207551961
 30
0.0
  0
SEQEND
  5
276
100
AcDbEntity
  8
0
  0
LINE
  5
277
100
AcDbEntity
  8
0
  6
CONTINUOUS
 62
         7
100
AcDbLine
 10
9.0638334955
 20
6.2555222594
 30
0.0
 11
9.0638334955
 21
6.7698786558
 31
0.0
  0
LINE
  5
278
100
AcDbEntity
  8
0
  6
CONTINUOUS
 62
         7
100
AcDbLine
 10
8.5627341974
 20
6.5448007267
 30
0.0
 11
9.0638334955
 21
6.2555222594
 31
0.0
  0
LINE
  5
279
100
AcDbEntity
  8
0
  6
CONTINUOUS
 62
         7
100
AcDbLine
 10
8.5627341974
 20
6.5448007267
 30
0.0
 11
8.5627341974
 21
7.0591571232
 31
0.0
  0
LINE
  5
27A
100
AcDbEntity
  8
0
  6
CONTINUOUS
 62
         7
100
AcDbLine
 10
9.9546766489
 20
6.7697950652
 30
0.0
 11
9.9546766489
 21
7.2841514617
 31
0.0
  0
LINE
  5
27B
100
AcDbEntity
  8
0
  6
CONTINUOUS
 62
         7
100
AcDbLine
 10
9.0638334955
 20
6.2555222594
 30
0.0
 11
9.9546766489
 21
6.7697950652
 31
0.0
  0
POLYLINE
  5
27C
100
AcDbEntity
  8
0
  6
CONTINUOUS
 62
         7
100
AcDb2dPolyline
 66
         1
 10
0.0
 20
0.0
 30
0.0
 70
       128
  0
VERTEX
  5
27D
100
AcDbEntity
  8
0
100
AcDbVertex
100
AcDb2dVertex
 10
9.4114793227
 20
7.6847897415
 30
0.0
  0
VERTEX
  5
27E
100
AcDbEntity
  8
0
100
AcDbVertex
100
AcDb2dVertex
 10
9.3991329225
 20
7.6851737952
 30
0.0
  0
VERTEX
  5
27F
100
AcDbEntity
  8
0
100
AcDbVertex
100
AcDb2dVertex
 10
9.3867765534
 20
7.6849173752
 30
0.0
  0
VERTEX
  5
280
100
AcDbEntity
  8
0
100
AcDbVertex
100
AcDb2dVertex
 10
9.3745098073
 20
7.6840226183
 30
0.0
  0
VERTEX
  5
281
100
AcDbEntity
  8
0
100
AcDbVertex
100
AcDb2dVertex
 10
9.3624313167
 20
7.682496645
 30
0.0
  0
VERTEX
  5
282
100
AcDbEntity
  8
0
100
AcDbVertex
100
AcDb2dVertex
 10
9.3506384374
 20
7.6803518034
 30
0.0
  0
VERTEX
  5
283
100
AcDbEntity
  8
0
100
AcDbVertex
100
AcDb2dVertex
 10
9.339226062
 20
7.6776053358
 30
0.0
  0
VERTEX
  5
284
100
AcDbEntity
  8
0
100
AcDbVertex
100
AcDb2dVertex
 10
9.3282860627
 20
7.6742793415
 30
0.0
  0
VERTEX
  5
285
100
AcDbEntity
  8
0
100
AcDbVertex
100
AcDb2dVertex
 10
9.317906591
 20
7.670400642
 30
0.0
  0
VERTEX
  5
286
100
AcDbEntity
  8
0
100
AcDbVertex
100
AcDb2dVertex
 10
9.3081711901
 20
7.6660004551
 30
0.0
  0
VERTEX
  5
287
100
AcDbEntity
  8
0
100
AcDbVertex
100
AcDb2dVertex
 10
9.2991581724
 20
7.6611141563
 30
0.0
  0
VERTEX
  5
288
100
AcDbEntity
  8
0
100
AcDbVertex
100
AcDb2dVertex
 10
9.2909402046
 20
7.6557811581
 30
0.0
  0
VERTEX
  5
289
100
AcDbEntity
  8
0
100
AcDbVertex
100
AcDb2dVertex
 10
9.2835834003
 20
7.6500443569
 30
0.0
  0
VERTEX
  5
28A
100
AcDbEntity
  8
0
100
AcDbVertex
100
AcDb2dVertex
 10
9.2771470028
 20
7.6439499567
 30
0.0
  0
VERTEX
  5
28B
100
AcDbEntity
  8
0
100
AcDbVertex
100
AcDb2dVertex
 10
9.271682827
 20
7.637547013
 30
0.0
  0
VERTEX
  5
28C
100
AcDbEntity
  8
0
100
AcDbVertex
100
AcDb2dVertex
 10
9.2672348968
 20
7.630887103
 30
0.0
  0
VERTEX
  5
28D
100
AcDbEntity
  8
0
100
AcDbVertex
100
AcDb2dVertex
 10
9.2638390304
 20
7.6240238471
 30
0.0
  0
VERTEX
  5
28E
100
AcDbEntity
  8
0
100
AcDbVertex
100
AcDb2dVertex
 10
9.2615224769
 20
7.6170124598
 30
0.0
  0
VERTEX
  5
28F
100
AcDbEntity
  8
0
100
AcDbVertex
100
AcDb2dVertex
 10
9.2603039622
 20
7.6099094239
 30
0.0
  0
VERTEX
  5
290
100
AcDbEntity
  8
0
100
AcDbVertex
100
AcDb2dVertex
 10
9.2601932995
 20
7.602771937
 30
0.0
  0
VERTEX
  5
291
100
AcDbEntity
  8
0
100
AcDbVertex
100
AcDb2dVertex
 10
9.2611913574
 20
7.5956574511
 30
0.0
  0
VERTEX
  5
292
100
AcDbEntity
  8
0
100
AcDbVertex
100
AcDb2dVertex
 10
9.2632901374
 20
7.5886232685
 30
0.0
  0
VERTEX
  5
293
100
AcDbEntity
  8
0
100
AcDbVertex
100
AcDb2dVertex
 10
9.2664726866
 20
7.5817259938
 30
0.0
  0
VERTEX
  5
294
100
AcDbEntity
  8
0
100
AcDbVertex
100
AcDb2dVertex
 10
9.2707134572
 20
7.5750212062
 30
0.0
  0
VERTEX
  5
295
100
AcDbEntity
  8
0
100
AcDbVertex
100
AcDb2dVertex
 10
9.2759781819
 20
7.5685628133
 30
0.0
  0
VERTEX
  5
296
100
AcDbEntity
  8
0
100
AcDbVertex
100
AcDb2dVertex
 10
9.2822246354
 20
7.5624029106
 30
0.0
  0
VERTEX
  5
297
100
AcDbEntity
  8
0
100
AcDbVertex
100
AcDb2dVertex
 10
9.2894023447
 20
7.556590991
 30
0.0
  0
VERTEX
  5
298
100
AcDbEntity
  8
0
100
AcDbVertex
100
AcDb2dVertex
 10
9.2974536578
 20
7.5511739268
 30
0.0
  0
VERTEX
  5
299
100
AcDbEntity
  8
0
100
AcDbVertex
100
AcDb2dVertex
 10
9.3063137268
 20
7.5461953204
 30
0.0
  0
VERTEX
  5
29A
100
AcDbEntity
  8
0
100
AcDbVertex
100
AcDb2dVertex
 10
9.3159111282
 20
7.5416952062
 30
0.0
  0
VERTEX
  5
29B
100
AcDbEntity
  8
0
100
AcDbVertex
100
AcDb2dVertex
 10
9.3261686898
 20
7.5377098729
 30
0.0
  0
VERTEX
  5
29C
100
AcDbEntity
  8
0
100
AcDbVertex
100
AcDb2dVertex
 10
9.3370037887
 20
7.5342713918
 30
0.0
  0
VERTEX
  5
29D
100
AcDbEntity
  8
0
100
AcDbVertex
100
AcDb2dVertex
 10
9.3483291791
 20
7.5314074384
 30
0.0
  0
VERTEX
  5
29E
100
AcDbEntity
  8
0
100
AcDbVertex
100
AcDb2dVertex
 10
9.3600536793
 20
7.5291410753
 30
0.0
  0
VERTEX
  5
29F
100
AcDbEntity
  8
0
100
AcDbVertex
100
AcDb2dVertex
 10
9.3720829152
 20
7.5274905628
 30
0.0
  0
VERTEX
  5
2A0
100
AcDbEntity
  8
0
100
AcDbVertex
100
AcDb2dVertex
 10
9.384319975
 20
7.52646916
 30
0.0
  0
VERTEX
  5
2A1
100
AcDbEntity
  8
0
100
AcDbVertex
100
AcDb2dVertex
 10
9.3966663687
 20
7.52608511
 30
0.0
  0
VERTEX
  5
2A2
100
AcDbEntity
  8
0
100
AcDbVertex
100
AcDb2dVertex
 10
9.4090227378
 20
7.52634153
 30
0.0
  0
VERTEX
  5
2A3
100
AcDbEntity
  8
0
100
AcDbVertex
100
AcDb2dVertex
 10
9.4212895358
 20
7.5272363169
 30
0.0
  0
VERTEX
  5
2A4
100
AcDbEntity
  8
0
100
AcDbVertex
100
AcDb2dVertex
 10
9.4333679745
 20
7.5287622602
 30
0.0
  0
VERTEX
  5
2A5
100
AcDbEntity
  8
0
100
AcDbVertex
100
AcDb2dVertex
 10
9.4451609057
 20
7.5309071318
 30
0.0
  0
VERTEX
  5
2A6
100
AcDbEntity
  8
0
100
AcDbVertex
100
AcDb2dVertex
 10
9.4565732811
 20
7.5336535993
 30
0.0
  0
VERTEX
  5
2A7
100
AcDbEntity
  8
0
100
AcDbVertex
100
AcDb2dVertex
 10
9.4675132286
 20
7.5369795637
 30
0.0
  0
VERTEX
  5
2A8
100
AcDbEntity
  8
0
100
AcDbVertex
100
AcDb2dVertex
 10
9.4778927002
 20
7.5408582632
 30
0.0
  0
VERTEX
  5
2A9
100
AcDbEntity
  8
0
100
AcDbVertex
100
AcDb2dVertex
 10
9.487628153
 20
7.54525848
 30
0.0
  0
VERTEX
  5
2AA
100
AcDbEntity
  8
0
100
AcDbVertex
100
AcDb2dVertex
 10
9.4966411188
 20
7.5501447489
 30
0.0
  0
VERTEX
  5
2AB
100
AcDbEntity
  8
0
100
AcDbVertex
100
AcDb2dVertex
 10
9.5048590867
 20
7.5554777471
 30
0.0
  0
VERTEX
  5
2AC
100
AcDbEntity
  8
0
100
AcDbVertex
100
AcDb2dVertex
 10
9.5122158909
 20
7.5612145483
 30
0.0
  0
VERTEX
  5
2AD
100
AcDbEntity
  8
0
100
AcDbVertex
100
AcDb2dVertex
 10
9.5186522884
 20
7.5673089485
 30
0.0
  0
VERTEX
  5
2AE
100
AcDbEntity
  8
0
100
AcDbVertex
100
AcDb2dVertex
 10
9.5241164643
 20
7.5737118922
 30
0.0
  0
VERTEX
  5
2AF
100
AcDbEntity
  8
0
100
AcDbVertex
100
AcDb2dVertex
 10
9.5285643944
 20
7.5803718022
 30
0.0
  0
VERTEX
  5
2B0
100
AcDbEntity
  8
0
100
AcDbVertex
100
AcDb2dVertex
 10
9.5319603192
 20
7.5872350843
 30
0.0
  0
VERTEX
  5
2B1
100
AcDbEntity
  8
0
100
AcDbVertex
100
AcDb2dVertex
 10
9.5342768143
 20
7.5942464454
 30
0.0
  0
VERTEX
  5
2B2
100
AcDbEntity
  8
0
100
AcDbVertex
100
AcDb2dVertex
 10
9.5354953291
 20
7.6013494813
 30
0.0
  0
VERTEX
  5
2B3
100
AcDbEntity
  8
0
100
AcDbVertex
100
AcDb2dVertex
 10
9.5356059918
 20
7.6084869682
 30
0.0
  0
VERTEX
  5
2B4
100
AcDbEntity
  8
0
100
AcDbVertex
100
AcDb2dVertex
 10
9.5346079339
 20
7.6156014541
 30
0.0
  0
VERTEX
  5
2B5
100
AcDbEntity
  8
0
100
AcDbVertex
100
AcDb2dVertex
 10
9.5325091538
 20
7.6226356367
 30
0.0
  0
VERTEX
  5
2B6
100
AcDbEntity
  8
0
100
AcDbVertex
100
AcDb2dVertex
 10
9.5293266079
 20
7.6295329095
 30
0.0
  0
VERTEX
  5
2B7
100
AcDbEntity
  8
0
100
AcDbVertex
100
AcDb2dVertex
 10
9.5250858859
 20
7.6362377289
 30
0.0
  0
VERTEX
  5
2B8
100
AcDbEntity
  8
0
100
AcDbVertex
100
AcDb2dVertex
 10
9.519821111
 20
7.642696091
 30
0.0
  0
VERTEX
  5
2B9
100
AcDbEntity
  8
0
100
AcDbVertex
100
AcDb2dVertex
 10
9.5135747094
 20
7.6488560236
 30
0.0
  0
VERTEX
  5
2BA
100
AcDbEntity
  8
0
100
AcDbVertex
100
AcDb2dVertex
 10
9.5063969485
 20
7.654667913
 30
0.0
  0
VERTEX
  5
2BB
100
AcDbEntity
  8
0
100
AcDbVertex
100
AcDb2dVertex
 10
9.4983456351
 20
7.6600849775
 30
0.0
  0
VERTEX
  5
2BC
100
AcDbEntity
  8
0
100
AcDbVertex
100
AcDb2dVertex
 10
9.4894856182
 20
7.6650636137
 30
0.0
  0
VERTEX
  5
2BD
100
AcDbEntity
  8
0
100
AcDbVertex
100
AcDb2dVertex
 10
9.4798881646
 20
7.6695636981
 30
0.0
  0
VERTEX
  5
2BE
100
AcDbEntity
  8
0
100
AcDbVertex
100
AcDb2dVertex
 10
9.4696306047
 20
7.6735490304
 30
0.0
  0
VERTEX
  5
2BF
100
AcDbEntity
  8
0
100
AcDbVertex
100
AcDb2dVertex
 10
9.4587955042
 20
7.6769875124
 30
0.0
  0
VERTEX
  5
2C0
100
AcDbEntity
  8
0
100
AcDbVertex
100
AcDb2dVertex
 10
9.4474701121
 20
7.6798514668
 30
0.0
  0
VERTEX
  5
2C1
100
AcDbEntity
  8
0
100
AcDbVertex
100
AcDb2dVertex
 10
9.4357456151
 20
7.682117828
 30
0.0
  0
VERTEX
  5
2C2
100
AcDbEntity
  8
0
100
AcDbVertex
100
AcDb2dVertex
 10
9.4237164311
 20
7.6837683705
 30
0.0
  0
VERTEX
  5
2C3
100
AcDbEntity
  8
0
100
AcDbVertex
100
AcDb2dVertex
 10
9.4114793227
 20
7.6847897415
 30
0.0
  0
SEQEND
  5
2C4
100
AcDbEntity
  8
0
  0
POLYLINE
  5
2C5
100
AcDbEntity
  8
0
  6
CONTINUOUS
 62
         7
100
AcDb2dPolyline
 66
         1
 10
0.0
 20
0.0
 30
0.0
 70
       128
  0
VERTEX
  5
2C6
100
AcDbEntity
  8
0
100
AcDbVertex
100
AcDb2dVertex
 10
9.260104383
 20
7.2841567048
 30
0.0
  0
VERTEX
  5
2C7
100
AcDbEntity
  8
0
100
AcDbVertex
100
AcDb2dVertex
 10
9.2601932995
 20
7.2812991836
 30
0.0
  0
VERTEX
  5
2C8
100
AcDbEntity
  8
0
100
AcDbVertex
100
AcDb2dVertex
 10
9.2611913574
 20
7.2741846977
 30
0.0
  0
VERTEX
  5
2C9
100
AcDbEntity
  8
0
100
AcDbVertex
100
AcDb2dVertex
 10
9.2632901374
 20
7.2671505151
 30
0.0
  0
VERTEX
  5
2CA
100
AcDbEntity
  8
0
100
AcDbVertex
100
AcDb2dVertex
 10
9.2664726866
 20
7.2602532404
 30
0.0
  0
VERTEX
  5
2CB
100
AcDbEntity
  8
0
100
AcDbVertex
100
AcDb2dVertex
 10
9.2707134572
 20
7.2535484528
 30
0.0
  0
VERTEX
  5
2CC
100
AcDbEntity
  8
0
100
AcDbVertex
100
AcDb2dVertex
 10
9.2759781819
 20
7.2470900599
 30
0.0
  0
VERTEX
  5
2CD
100
AcDbEntity
  8
0
100
AcDbVertex
100
AcDb2dVertex
 10
9.2822246354
 20
7.2409301572
 30
0.0
  0
VERTEX
  5
2CE
100
AcDbEntity
  8
0
100
AcDbVertex
100
AcDb2dVertex
 10
9.2894023447
 20
7.2351182376
 30
0.0
  0
VERTEX
  5
2CF
100
AcDbEntity
  8
0
100
AcDbVertex
100
AcDb2dVertex
 10
9.2974536578
 20
7.2297011734
 30
0.0
  0
VERTEX
  5
2D0
100
AcDbEntity
  8
0
100
AcDbVertex
100
AcDb2dVertex
 10
9.3063137268
 20
7.224722567
 30
0.0
  0
VERTEX
  5
2D1
100
AcDbEntity
  8
0
100
AcDbVertex
100
AcDb2dVertex
 10
9.3159111282
 20
7.2202224528
 30
0.0
  0
VERTEX
  5
2D2
100
AcDbEntity
  8
0
100
AcDbVertex
100
AcDb2dVertex
 10
9.3261686898
 20
7.2162371195
 30
0.0
  0
VERTEX
  5
2D3
100
AcDbEntity
  8
0
100
AcDbVertex
100
AcDb2dVertex
 10
9.3370037887
 20
7.2127986384
 30
0.0
  0
VERTEX
  5
2D4
100
AcDbEntity
  8
0
100
AcDbVertex
100
AcDb2dVertex
 10
9.3483291791
 20
7.209934685
 30
0.0
  0
VERTEX
  5
2D5
100
AcDbEntity
  8
0
100
AcDbVertex
100
AcDb2dVertex
 10
9.3600536793
 20
7.2076683219
 30
0.0
  0
VERTEX
  5
2D6
100
AcDbEntity
  8
0
100
AcDbVertex
100
AcDb2dVertex
 10
9.3720829152
 20
7.2060178094
 30
0.0
  0
VERTEX
  5
2D7
100
AcDbEntity
  8
0
100
AcDbVertex
100
AcDb2dVertex
 10
9.384319975
 20
7.2049964066
 30
0.0
  0
VERTEX
  5
2D8
100
AcDbEntity
  8
0
100
AcDbVertex
100
AcDb2dVertex
 10
9.3966663687
 20
7.2046123566
 30
0.0
  0
VERTEX
  5
2D9
100
AcDbEntity
  8
0
100
AcDbVertex
100
AcDb2dVertex
 10
9.4090227378
 20
7.2048687766
 30
0.0
  0
VERTEX
  5
2DA
100
AcDbEntity
  8
0
100
AcDbVertex
100
AcDb2dVertex
 10
9.4212895358
 20
7.2057635635
 30
0.0
  0
VERTEX
  5
2DB
100
AcDbEntity
  8
0
100
AcDbVertex
100
AcDb2dVertex
 10
9.4333679745
 20
7.2072895068
 30
0.0
  0
VERTEX
  5
2DC
100
AcDbEntity
  8
0
100
AcDbVertex
100
AcDb2dVertex
 10
9.4451609057
 20
7.2094343784
 30
0.0
  0
VERTEX
  5
2DD
100
AcDbEntity
  8
0
100
AcDbVertex
100
AcDb2dVertex
 10
9.4565732811
 20
7.2121808459
 30
0.0
  0
VERTEX
  5
2DE
100
AcDbEntity
  8
0
100
AcDbVertex
100
AcDb2dVertex
 10
9.4675132286
 20
7.2155068103
 30
0.0
  0
VERTEX
  5
2DF
100
AcDbEntity
  8
0
100
AcDbVertex
100
AcDb2dVertex
 10
9.4778927002
 20
7.2193855098
 30
0.0
  0
VERTEX
  5
2E0
100
AcDbEntity
  8
0
100
AcDbVertex
100
AcDb2dVertex
 10
9.487628153
 20
7.2237857266
 30
0.0
  0
VERTEX
  5
2E1
100
AcDbEntity
  8
0
100
AcDbVertex
100
AcDb2dVertex
 10
9.4966411188
 20
7.2286719955
 30
0.0
  0
VERTEX
  5
2E2
100
AcDbEntity
  8
0
100
AcDbVertex
100
AcDb2dVertex
 10
9.5048590867
 20
7.2340049937
 30
0.0
  0
VERTEX
  5
2E3
100
AcDbEntity
  8
0
100
AcDbVertex
100
AcDb2dVertex
 10
9.5122158909
 20
7.2397417949
 30
0.0
  0
VERTEX
  5
2E4
100
AcDbEntity
  8
0
100
AcDbVertex
100
AcDb2dVertex
 10
9.5186522884
 20
7.2458361951
 30
0.0
  0
VERTEX
  5
2E5
100
AcDbEntity
  8
0
100
AcDbVertex
100
AcDb2dVertex
 10
9.5241164643
 20
7.2522391388
 30
0.0
  0
VERTEX
  5
2E6
100
AcDbEntity
  8
0
100
AcDbVertex
100
AcDb2dVertex
 10
9.5285643944
 20
7.2588990488
 30
0.0
  0
VERTEX
  5
2E7
100
AcDbEntity
  8
0
100
AcDbVertex
100
AcDb2dVertex
 10
9.5319603192
 20
7.2657623309
 30
0.0
  0
VERTEX
  5
2E8
100
AcDbEntity
  8
0
100
AcDbVertex
100
AcDb2dVertex
 10
9.5342768143
 20
7.272773692
 30
0.0
  0
VERTEX
  5
2E9
100
AcDbEntity
  8
0
100
AcDbVertex
100
AcDb2dVertex
 10
9.5354953291
 20
7.2798767279
 30
0.0
  0
VERTEX
  5
2EA
100
AcDbEntity
  8
0
100
AcDbVertex
100
AcDb2dVertex
 10
9.5356949083
 20
7.2841566936
 30
0.0
  0
SEQEND
  5
2EB
100
AcDbEntity
  8
0
  0
POLYLINE
  5
2EC
100
AcDbEntity
  8
0
  6
CONTINUOUS
 62
         7
100
AcDb2dPolyline
 66
         1
 10
0.0
 20
0.0
 30
0.0
 70
       128
  0
VERTEX
  5
2ED
100
AcDbEntity
  8
0
100
AcDbVertex
100
AcDb2dVertex
 10
9.2601044024
 20
7.3653114195
 30
0.0
  0
VERTEX
  5
2EE
100
AcDbEntity
  8
0
100
AcDbVertex
100
AcDb2dVertex
 10
9.256840407
 20
7.3634205694
 30
0.0
  0
VERTEX
  5
2EF
100
AcDbEntity
  8
0
100
AcDbVertex
100
AcDb2dVertex
 10
9.2469741268
 20
7.3571135473
 30
0.0
  0
VERTEX
  5
2F0
100
AcDbEntity
  8
0
100
AcDbVertex
100
AcDb2dVertex
 10
9.2379518597
 20
7.350398494
 30
0.0
  0
VERTEX
  5
2F1
100
AcDbEntity
  8
0
100
AcDbVertex
100
AcDb2dVertex
 10
9.2298240463
 20
7.3433129849
 30
0.0
  0
VERTEX
  5
2F2
100
AcDbEntity
  8
0
100
AcDbVertex
100
AcDb2dVertex
 10
9.2226362664
 20
7.3358966832
 30
0.0
  0
VERTEX
  5
2F3
100
AcDbEntity
  8
0
100
AcDbVertex
100
AcDb2dVertex
 10
9.2164285769
 20
7.3281910035
 30
0.0
  0
VERTEX
  5
2F4
100
AcDbEntity
  8
0
100
AcDbVertex
100
AcDb2dVertex
 10
9.2112357201
 20
7.3202390518
 30
0.0
  0
VERTEX
  5
2F5
100
AcDbEntity
  8
0
100
AcDbVertex
100
AcDb2dVertex
 10
9.2100128367
 20
7.3180579332
 30
0.0
  0
SEQEND
  5
2F6
100
AcDbEntity
  8
0
  0
POLYLINE
  5
2F7
100
AcDbEntity
  8
0
  6
CONTINUOUS
 62
         7
100
AcDb2dPolyline
 66
         1
 10
0.0
 20
0.0
 30
0.0
 70
       128
  0
VERTEX
  5
2F8
100
AcDbEntity
  8
0
100
AcDbVertex
100
AcDb2dVertex
 10
9.2100623507
 20
7.250164217
 30
0.0
  0
VERTEX
  5
2F9
100
AcDbEntity
  8
0
100
AcDbVertex
100
AcDb2dVertex
 10
9.2129897949
 20
7.2451805334
 30
0.0
  0
VERTEX
  5
2FA
100
AcDbEntity
  8
0
100
AcDbVertex
100
AcDb2dVertex
 10
9.2185523246
 20
7.2373123649
 30
0.0
  0
VERTEX
  5
2FB
100
AcDbEntity
  8
0
100
AcDbVertex
100
AcDb2dVertex
 10
9.2251178351
 20
7.2297061711
 30
0.0
  0
VERTEX
  5
2FC
100
AcDbEntity
  8
0
100
AcDbVertex
100
AcDb2dVertex
 10
9.2326495895
 20
7.2224044732
 30
0.0
  0
VERTEX
  5
2FD
100
AcDbEntity
  8
0
100
AcDbVertex
100
AcDb2dVertex
 10
9.2411055222
 20
7.2154481389
 30
0.0
  0
VERTEX
  5
2FE
100
AcDbEntity
  8
0
100
AcDbVertex
100
AcDb2dVertex
 10
9.2504383043
 20
7.2088760453
 30
0.0
  0
VERTEX
  5
2FF
100
AcDbEntity
  8
0
100
AcDbVertex
100
AcDb2dVertex
 10
9.2605957084
 20
7.2027249284
 30
0.0
  0
VERTEX
  5
300
100
AcDbEntity
  8
0
100
AcDbVertex
100
AcDb2dVertex
 10
9.2715210428
 20
7.1970292518
 30
0.0
  0
VERTEX
  5
301
100
AcDbEntity
  8
0
100
AcDbVertex
100
AcDb2dVertex
 10
9.2831531102
 20
7.1918208115
 30
0.0
  0
VERTEX
  5
302
100
AcDbEntity
  8
0
100
AcDbVertex
100
AcDb2dVertex
 10
9.2954268469
 20
7.1871287266
 30
0.0
  0
VERTEX
  5
303
100
AcDbEntity
  8
0
100
AcDbVertex
100
AcDb2dVertex
 10
9.3082736923
 20
7.1829792853
 30
0.0
  0
VERTEX
  5
304
100
AcDbEntity
  8
0
100
AcDbVertex
100
AcDb2dVertex
 10
9.3216217608
 20
7.1793956662
 30
0.0
  0
VERTEX
  5
305
100
AcDbEntity
  8
0
100
AcDbVertex
100
AcDb2dVertex
 10
9.3353963988
 20
7.1763979162
 30
0.0
  0
VERTEX
  5
306
100
AcDbEntity
  8
0
100
AcDbVertex
100
AcDb2dVertex
 10
9.3495205775
 20
7.1740027838
 30
0.0
  0
VERTEX
  5
307
100
AcDbEntity
  8
0
100
AcDbVertex
100
AcDb2dVertex
 10
9.3639153364
 20
7.1722237021
 30
0.0
  0
VERTEX
  5
308
100
AcDbEntity
  8
0
100
AcDbVertex
100
AcDb2dVertex
 10
9.3785001397
 20
7.1710705832
 30
0.0
  0
VERTEX
  5
309
100
AcDbEntity
  8
0
100
AcDbVertex
100
AcDb2dVertex
 10
9.393193402
 20
7.1705498742
 30
0.0
  0
VERTEX
  5
30A
100
AcDbEntity
  8
0
100
AcDbVertex
100
AcDb2dVertex
 10
9.4079129931
 20
7.1706645051
 30
0.0
  0
VERTEX
  5
30B
100
AcDbEntity
  8
0
100
AcDbVertex
100
AcDb2dVertex
 10
9.4225766274
 20
7.1714138434
 30
0.0
  0
VERTEX
  5
30C
100
AcDbEntity
  8
0
100
AcDbVertex
100
AcDb2dVertex
 10
9.4371022136
 20
7.1727936722
 30
0.0
  0
VERTEX
  5
30D
100
AcDbEntity
  8
0
100
AcDbVertex
100
AcDb2dVertex
 10
9.4514085874
 20
7.1747963056
 30
0.0
  0
VERTEX
  5
30E
100
AcDbEntity
  8
0
100
AcDbVertex
100
AcDb2dVertex
 10
9.4654156736
 20
7.1774104958
 30
0.0
  0
VERTEX
  5
30F
100
AcDbEntity
  8
0
100
AcDbVertex
100
AcDb2dVertex
 10
9.4790452115
 20
7.1806216721
 30
0.0
  0
VERTEX
  5
310
100
AcDbEntity
  8
0
100
AcDbVertex
100
AcDb2dVertex
 10
9.4922209888
 20
7.1844118663
 30
0.0
  0
VERTEX
  5
311
100
AcDbEntity
  8
0
100
AcDbVertex
100
AcDb2dVertex
 10
9.5048692695
 20
7.1887598846
 30
0.0
  0
VERTEX
  5
312
100
AcDbEntity
  8
0
100
AcDbVertex
100
AcDb2dVertex
 10
9.5169192988
 20
7.1936413752
 30
0.0
  0
VERTEX
  5
313
100
AcDbEntity
  8
0
100
AcDbVertex
100
AcDb2dVertex
 10
9.5283037184
 20
7.1990290676
 30
0.0
  0
VERTEX
  5
314
100
AcDbEntity
  8
0
100
AcDbVertex
100
AcDb2dVertex
 10
9.5389588908
 20
7.2048928253
 30
0.0
  0
VERTEX
  5
315
100
AcDbEntity
  8
0
100
AcDbVertex
100
AcDb2dVertex
 10
9.5488252098
 20
7.2111998847
 30
0.0
  0
VERTEX
  5
316
100
AcDbEntity
  8
0
100
AcDbVertex
100
AcDb2dVertex
 10
9.5578474899
 20
7.2179149306
 30
0.0
  0
VERTEX
  5
317
100
AcDbEntity
  8
0
100
AcDbVertex
100
AcDb2dVertex
 10
9.5659752385
 20
7.2250004173
 30
0.0
  0
VERTEX
  5
318
100
AcDbEntity
  8
0
100
AcDbVertex
100
AcDb2dVertex
 10
9.5731630832
 20
7.2324167414
 30
0.0
  0
VERTEX
  5
319
100
AcDbEntity
  8
0
100
AcDbVertex
100
AcDb2dVertex
 10
9.5793707727
 20
7.2401224211
 30
0.0
  0
VERTEX
  5
31A
100
AcDbEntity
  8
0
100
AcDbVertex
100
AcDb2dVertex
 10
9.5845635776
 20
7.2480743429
 30
0.0
  0
VERTEX
  5
31B
100
AcDbEntity
  8
0
100
AcDbVertex
100
AcDb2dVertex
 10
9.5887124987
 20
7.2562280614
 30
0.0
  0
VERTEX
  5
31C
100
AcDbEntity
  8
0
100
AcDbVertex
100
AcDb2dVertex
 10
9.5917943055
 20
7.2645379564
 30
0.0
  0
VERTEX
  5
31D
100
AcDbEntity
  8
0
100
AcDbVertex
100
AcDb2dVertex
 10
9.5937918344
 20
7.2729575991
 30
0.0
  0
VERTEX
  5
31E
100
AcDbEntity
  8
0
100
AcDbVertex
100
AcDb2dVertex
 10
9.5946937811
 20
7.2814398426
 30
0.0
  0
VERTEX
  5
31F
100
AcDbEntity
  8
0
100
AcDbVertex
100
AcDb2dVertex
 10
9.5944952001
 20
7.2899372817
 30
0.0
  0
VERTEX
  5
320
100
AcDbEntity
  8
0
100
AcDbVertex
100
AcDb2dVertex
 10
9.5931971868
 20
7.2984024063
 30
0.0
  0
VERTEX
  5
321
100
AcDbEntity
  8
0
100
AcDbVertex
100
AcDb2dVertex
 10
9.5908069944
 20
7.3067878637
 30
0.0
  0
VERTEX
  5
322
100
AcDbEntity
  8
0
100
AcDbVertex
100
AcDb2dVertex
 10
9.5873379556
 20
7.3150467426
 30
0.0
  0
VERTEX
  5
323
100
AcDbEntity
  8
0
100
AcDbVertex
100
AcDb2dVertex
 10
9.5828095223
 20
7.32313288
 30
0.0
  0
VERTEX
  5
324
100
AcDbEntity
  8
0
100
AcDbVertex
100
AcDb2dVertex
 10
9.5772469925
 20
7.3310010485
 30
0.0
  0
VERTEX
  5
325
100
AcDbEntity
  8
0
100
AcDbVertex
100
AcDb2dVertex
 10
9.5706814853
 20
7.3386072404
 30
0.0
  0
VERTEX
  5
326
100
AcDbEntity
  8
0
100
AcDbVertex
100
AcDb2dVertex
 10
9.5631497293
 20
7.3459089393
 30
0.0
  0
VERTEX
  5
327
100
AcDbEntity
  8
0
100
AcDbVertex
100
AcDb2dVertex
 10
9.5546937958
 20
7.352865274
 30
0.0
  0
VERTEX
  5
328
100
AcDbEntity
  8
0
100
AcDbVertex
100
AcDb2dVertex
 10
9.5453610145
 20
7.3594373671
 30
0.0
  0
VERTEX
  5
329
100
AcDbEntity
  8
0
100
AcDbVertex
100
AcDb2dVertex
 10
9.5356949313
 20
7.3653114061
 30
0.0
  0
SEQEND
  5
32A
100
AcDbEntity
  8
0
  0
POLYLINE
  5
32B
100
AcDbEntity
  8
0
  6
CONTINUOUS
 62
       144
100
AcDb2dPolyline
 66
         1
 10
0.0
 20
0.0
 30
0.0
 70
       128
  0
VERTEX
  5
32C
100
AcDbEntity
  8
0
100
AcDbVertex
100
AcDb2dVertex
 10
9.2100623507
 20
7.2180169357
 30
0.0
  0
VERTEX
  5
32D
100
AcDbEntity
  8
0
100
AcDbVertex
100
AcDb2dVertex
 10
9.2129897949
 20
7.2130332521
 30
0.0
  0
VERTEX
  5
32E
100
AcDbEntity
  8
0
100
AcDbVertex
100
AcDb2dVertex
 10
9.2185523246
 20
7.2051650836
 30
0.0
  0
VERTEX
  5
32F
100
AcDbEntity
  8
0
100
AcDbVertex
100
AcDb2dVertex
 10
9.2251178351
 20
7.1975588898
 30
0.0
  0
VERTEX
  5
330
100
AcDbEntity
  8
0
100
AcDbVertex
100
AcDb2dVertex
 10
9.2326495895
 20
7.1902571918
 30
0.0
  0
VERTEX
  5
331
100
AcDbEntity
  8
0
100
AcDbVertex
100
AcDb2dVertex
 10
9.2411055222
 20
7.1833008575
 30
0.0
  0
VERTEX
  5
332
100
AcDbEntity
  8
0
100
AcDbVertex
100
AcDb2dVertex
 10
9.2504383043
 20
7.176728764
 30
0.0
  0
VERTEX
  5
333
100
AcDbEntity
  8
0
100
AcDbVertex
100
AcDb2dVertex
 10
9.2605957084
 20
7.1705776471
 30
0.0
  0
VERTEX
  5
334
100
AcDbEntity
  8
0
100
AcDbVertex
100
AcDb2dVertex
 10
9.2715210428
 20
7.1648819704
 30
0.0
  0
VERTEX
  5
335
100
AcDbEntity
  8
0
100
AcDbVertex
100
AcDb2dVertex
 10
9.2831531102
 20
7.1596735302
 30
0.0
  0
VERTEX
  5
336
100
AcDbEntity
  8
0
100
AcDbVertex
100
AcDb2dVertex
 10
9.2954268469
 20
7.1549814453
 30
0.0
  0
VERTEX
  5
337
100
AcDbEntity
  8
0
100
AcDbVertex
100
AcDb2dVertex
 10
9.3082736923
 20
7.1508320039
 30
0.0
  0
VERTEX
  5
338
100
AcDbEntity
  8
0
100
AcDbVertex
100
AcDb2dVertex
 10
9.3216217608
 20
7.1472483848
 30
0.0
  0
VERTEX
  5
339
100
AcDbEntity
  8
0
100
AcDbVertex
100
AcDb2dVertex
 10
9.3353963988
 20
7.1442506349
 30
0.0
  0
VERTEX
  5
33A
100
AcDbEntity
  8
0
100
AcDbVertex
100
AcDb2dVertex
 10
9.3495205775
 20
7.1418555025
 30
0.0
  0
VERTEX
  5
33B
100
AcDbEntity
  8
0
100
AcDbVertex
100
AcDb2dVertex
 10
9.3639153364
 20
7.1400764207
 30
0.0
  0
VERTEX
  5
33C
100
AcDbEntity
  8
0
100
AcDbVertex
100
AcDb2dVertex
 10
9.3785001397
 20
7.1389233018
 30
0.0
  0
VERTEX
  5
33D
100
AcDbEntity
  8
0
100
AcDbVertex
100
AcDb2dVertex
 10
9.393193402
 20
7.1384025929
 30
0.0
  0
VERTEX
  5
33E
100
AcDbEntity
  8
0
100
AcDbVertex
100
AcDb2dVertex
 10
9.4079129931
 20
7.1385172238
 30
0.0
  0
VERTEX
  5
33F
100
AcDbEntity
  8
0
100
AcDbVertex
100
AcDb2dVertex
 10
9.4225766274
 20
7.1392665621
 30
0.0
  0
VERTEX
  5
340
100
AcDbEntity
  8
0
100
AcDbVertex
100
AcDb2dVertex
 10
9.4371022136
 20
7.1406463908
 30
0.0
  0
VERTEX
  5
341
100
AcDbEntity
  8
0
100
AcDbVertex
100
AcDb2dVertex
 10
9.4514085874
 20
7.1426490243
 30
0.0
  0
VERTEX
  5
342
100
AcDbEntity
  8
0
100
AcDbVertex
100
AcDb2dVertex
 10
9.4654156736
 20
7.1452632145
 30
0.0
  0
VERTEX
  5
343
100
AcDbEntity
  8
0
100
AcDbVertex
100
AcDb2dVertex
 10
9.4790452115
 20
7.1484743908
 30
0.0
  0
VERTEX
  5
344
100
AcDbEntity
  8
0
100
AcDbVertex
100
AcDb2dVertex
 10
9.4922209888
 20
7.152264585
 30
0.0
  0
VERTEX
  5
345
100
AcDbEntity
  8
0
100
AcDbVertex
100
AcDb2dVertex
 10
9.5048692695
 20
7.1566126032
 30
0.0
  0
VERTEX
  5
346
100
AcDbEntity
  8
0
100
AcDbVertex
100
AcDb2dVertex
 10
9.5169192988
 20
7.1614940938
 30
0.0
  0
VERTEX
  5
347
100
AcDbEntity
  8
0
100
AcDbVertex
100
AcDb2dVertex
 10
9.5283037184
 20
7.1668817863
 30
0.0
  0
VERTEX
  5
348
100
AcDbEntity
  8
0
100
AcDbVertex
100
AcDb2dVertex
 10
9.5389588908
 20
7.172745544
 30
0.0
  0
VERTEX
  5
349
100
AcDbEntity
  8
0
100
AcDbVertex
100
AcDb2dVertex
 10
9.5488252098
 20
7.1790526034
 30
0.0
  0
VERTEX
  5
34A
100
AcDbEntity
  8
0
100
AcDbVertex
100
AcDb2dVertex
 10
9.5578474899
 20
7.1857676492
 30
0.0
  0
VERTEX
  5
34B
100
AcDbEntity
  8
0
100
AcDbVertex
100
AcDb2dVertex
 10
9.5659752385
 20
7.192853136
 30
0.0
  0
VERTEX
  5
34C
100
AcDbEntity
  8
0
100
AcDbVertex
100
AcDb2dVertex
 10
9.5731630832
 20
7.2002694601
 30
0.0
  0
VERTEX
  5
34D
100
AcDbEntity
  8
0
100
AcDbVertex
100
AcDb2dVertex
 10
9.5793707727
 20
7.2079751397
 30
0.0
  0
VERTEX
  5
34E
100
AcDbEntity
  8
0
100
AcDbVertex
100
AcDb2dVertex
 10
9.5845635776
 20
7.2159270615
 30
0.0
  0
VERTEX
  5
34F
100
AcDbEntity
  8
0
100
AcDbVertex
100
AcDb2dVertex
 10
9.5887124987
 20
7.2240807801
 30
0.0
  0
VERTEX
  5
350
100
AcDbEntity
  8
0
100
AcDbVertex
100
AcDb2dVertex
 10
9.5917943055
 20
7.232390675
 30
0.0
  0
VERTEX
  5
351
100
AcDbEntity
  8
0
100
AcDbVertex
100
AcDb2dVertex
 10
9.5937918344
 20
7.2408103178
 30
0.0
  0
VERTEX
  5
352
100
AcDbEntity
  8
0
100
AcDbVertex
100
AcDb2dVertex
 10
9.5946937811
 20
7.2492925613
 30
0.0
  0
VERTEX
  5
353
100
AcDbEntity
  8
0
100
AcDbVertex
100
AcDb2dVertex
 10
9.594750049
 20
7.2520094235
 30
0.0
  0
SEQEND
  5
354
100
AcDbEntity
  8
0
  0
POLYLINE
  5
355
100
AcDbEntity
  8
0
  6
CONTINUOUS
 62
         7
100
AcDb2dPolyline
 66
         1
 10
0.0
 20
0.0
 30
0.0
 70
       128
  0
VERTEX
  5
356
100
AcDbEntity
  8
0
100
AcDbVertex
100
AcDb2dVertex
 10
9.0554258129
 20
7.2793990704
 30
0.0
  0
VERTEX
  5
357
100
AcDbEntity
  8
0
100
AcDbVertex
100
AcDb2dVertex
 10
9.0628523792
 20
7.2755534004
 30
0.0
  0
VERTEX
  5
358
100
AcDbEntity
  8
0
100
AcDbVertex
100
AcDb2dVertex
 10
9.070966743
 20
7.272202725
 30
0.0
  0
VERTEX
  5
359
100
AcDbEntity
  8
0
100
AcDbVertex
100
AcDb2dVertex
 10
9.0796702707
 20
7.2693876398
 30
0.0
  0
VERTEX
  5
35A
100
AcDbEntity
  8
0
100
AcDbVertex
100
AcDb2dVertex
 10
9.0888574673
 20
7.267142404
 30
0.0
  0
VERTEX
  5
35B
100
AcDbEntity
  8
0
100
AcDbVertex
100
AcDb2dVertex
 10
9.0984167659
 20
7.2654942451
 30
0.0
  0
VERTEX
  5
35C
100
AcDbEntity
  8
0
100
AcDbVertex
100
AcDb2dVertex
 10
9.1082321157
 20
7.2644631603
 30
0.0
  0
VERTEX
  5
35D
100
AcDbEntity
  8
0
100
AcDbVertex
100
AcDb2dVertex
 10
9.1181843599
 20
7.2640616604
 30
0.0
  0
VERTEX
  5
35E
100
AcDbEntity
  8
0
100
AcDbVertex
100
AcDb2dVertex
 10
9.1281527144
 20
7.264294634
 30
0.0
  0
VERTEX
  5
35F
100
AcDbEntity
  8
0
100
AcDbVertex
100
AcDb2dVertex
 10
9.1380161815
 20
7.2651592506
 30
0.0
  0
VERTEX
  5
360
100
AcDbEntity
  8
0
100
AcDbVertex
100
AcDb2dVertex
 10
9.1476550174
 20
7.2666450104
 30
0.0
  0
VERTEX
  5
361
100
AcDbEntity
  8
0
100
AcDbVertex
100
AcDb2dVertex
 10
9.1569522399
 20
7.268733893
 30
0.0
  0
VERTEX
  5
362
100
AcDbEntity
  8
0
100
AcDbVertex
100
AcDb2dVertex
 10
9.165794937
 20
7.2714004987
 30
0.0
  0
VERTEX
  5
363
100
AcDbEntity
  8
0
100
AcDbVertex
100
AcDb2dVertex
 10
9.174075849
 20
7.2746125132
 30
0.0
  0
VERTEX
  5
364
100
AcDbEntity
  8
0
100
AcDbVertex
100
AcDb2dVertex
 10
9.1816943793
 20
7.2783309017
 30
0.0
  0
VERTEX
  5
365
100
AcDbEntity
  8
0
100
AcDbVertex
100
AcDb2dVertex
 10
9.1885581372
 20
7.2825105751
 30
0.0
  0
VERTEX
  5
366
100
AcDbEntity
  8
0
100
AcDbVertex
100
AcDb2dVertex
 10
9.1945837417
 20
7.2871007645
 30
0.0
  0
VERTEX
  5
367
100
AcDbEntity
  8
0
100
AcDbVertex
100
AcDb2dVertex
 10
9.1996980528
 20
7.2920457464
 30
0.0
  0
VERTEX
  5
368
100
AcDbEntity
  8
0
100
AcDbVertex
100
AcDb2dVertex
 10
9.2038390467
 20
7.2972855357
 30
0.0
  0
VERTEX
  5
369
100
AcDbEntity
  8
0
100
AcDbVertex
100
AcDb2dVertex
 10
9.2069563605
 20
7.3027564688
 30
0.0
  0
VERTEX
  5
36A
100
AcDbEntity
  8
0
100
AcDbVertex
100
AcDb2dVertex
 10
9.2090122055
 20
7.3083921733
 30
0.0
  0
VERTEX
  5
36B
100
AcDbEntity
  8
0
100
AcDbVertex
100
AcDb2dVertex
 10
9.2099817081
 20
7.3141242692
 30
0.0
  0
VERTEX
  5
36C
100
AcDbEntity
  8
0
100
AcDbVertex
100
AcDb2dVertex
 10
9.2098529646
 20
7.3198831154
 30
0.0
  0
VERTEX
  5
36D
100
AcDbEntity
  8
0
100
AcDbVertex
100
AcDb2dVertex
 10
9.208627576
 20
7.3255988183
 30
0.0
  0
VERTEX
  5
36E
100
AcDbEntity
  8
0
100
AcDbVertex
100
AcDb2dVertex
 10
9.206320434
 20
7.3312020139
 30
0.0
  0
VERTEX
  5
36F
100
AcDbEntity
  8
0
100
AcDbVertex
100
AcDb2dVertex
 10
9.2029595981
 20
7.3366247167
 30
0.0
  0
VERTEX
  5
370
100
AcDbEntity
  8
0
100
AcDbVertex
100
AcDb2dVertex
 10
9.1985857688
 20
7.3418010437
 30
0.0
  0
VERTEX
  5
371
100
AcDbEntity
  8
0
100
AcDbVertex
100
AcDb2dVertex
 10
9.1932520639
 20
7.3466681806
 30
0.0
  0
VERTEX
  5
372
100
AcDbEntity
  8
0
100
AcDbVertex
100
AcDb2dVertex
 10
9.1870233096
 20
7.3511670913
 30
0.0
  0
VERTEX
  5
373
100
AcDbEntity
  8
0
100
AcDbVertex
100
AcDb2dVertex
 10
9.1799750156
 20
7.3552431093
 30
0.0
  0
VERTEX
  5
374
100
AcDbEntity
  8
0
100
AcDbVertex
100
AcDb2dVertex
 10
9.1721927617
 20
7.3588467704
 30
0.0
  0
VERTEX
  5
375
100
AcDbEntity
  8
0
100
AcDbVertex
100
AcDb2dVertex
 10
9.1637710016
 20
7.3619343242
 30
0.0
  0
VERTEX
  5
376
100
AcDbEntity
  8
0
100
AcDbVertex
100
AcDb2dVertex
 10
9.1548120302
 20
7.3644683299
 30
0.0
  0
VERTEX
  5
377
100
AcDbEntity
  8
0
100
AcDbVertex
100
AcDb2dVertex
 10
9.1454245544
 20
7.3664180025
 30
0.0
  0
VERTEX
  5
378
100
AcDbEntity
  8
0
100
AcDbVertex
100
AcDb2dVertex
 10
9.1357224988
 20
7.3677596627
 30
0.0
  0
VERTEX
  5
379
100
AcDbEntity
  8
0
100
AcDbVertex
100
AcDb2dVertex
 10
9.1258236577
 20
7.3684770365
 30
0.0
  0
VERTEX
  5
37A
100
AcDbEntity
  8
0
100
AcDbVertex
100
AcDb2dVertex
 10
9.1158482348
 20
7.368561439
 30
0.0
  0
VERTEX
  5
37B
100
AcDbEntity
  8
0
100
AcDbVertex
100
AcDb2dVertex
 10
9.1059172346
 20
7.3680118057
 30
0.0
  0
VERTEX
  5
37C
100
AcDbEntity
  8
0
100
AcDbVertex
100
AcDb2dVertex
 10
9.0961512723
 20
7.3668348402
 30
0.0
  0
VERTEX
  5
37D
100
AcDbEntity
  8
0
100
AcDbVertex
100
AcDb2dVertex
 10
9.0866688536
 20
7.3650448098
 30
0.0
  0
VERTEX
  5
37E
100
AcDbEntity
  8
0
100
AcDbVertex
100
AcDb2dVertex
 10
9.0775850975
 20
7.3626634455
 30
0.0
  0
VERTEX
  5
37F
100
AcDbEntity
  8
0
100
AcDbVertex
100
AcDb2dVertex
 10
9.0690102581
 20
7.3597196564
 30
0.0
  0
VERTEX
  5
380
100
AcDbEntity
  8
0
100
AcDbVertex
100
AcDb2dVertex
 10
9.0610484032
 20
7.3562491565
 30
0.0
  0
VERTEX
  5
381
100
AcDbEntity
  8
0
100
AcDbVertex
100
AcDb2dVertex
 10
9.0537962401
 20
7.3522941236
 30
0.0
  0
VERTEX
  5
382
100
AcDbEntity
  8
0
100
AcDbVertex
100
AcDb2dVertex
 10
9.047341778
 20
7.3479025355
 30
0.0
  0
VERTEX
  5
383
100
AcDbEntity
  8
0
100
AcDbVertex
100
AcDb2dVertex
 10
9.041763368
 20
7.3431277057
 30
0.0
  0
VERTEX
  5
384
100
AcDbEntity
  8
0
100
AcDbVertex
100
AcDb2dVertex
 10
9.0371286666
 20
7.3380275652
 30
0.0
  0
VERTEX
  5
385
100
AcDbEntity
  8
0
100
AcDbVertex
100
AcDb2dVertex
 10
9.0334940032
 20
7.3326640693
 30
0.0
  0
VERTEX
  5
386
100
AcDbEntity
  8
0
100
AcDbVertex
100
AcDb2dVertex
 10
9.0309034635
 20
7.3271022901
 30
0.0
  0
VERTEX
  5
387
100
AcDbEntity
  8
0
100
AcDbVertex
100
AcDb2dVertex
 10
9.0293884903
 20
7.3214097491
 30
0.0
  0
VERTEX
  5
388
100
AcDbEntity
  8
0
100
AcDbVertex
100
AcDb2dVertex
 10
9.0289675047
 20
7.3156555578
 30
0.0
  0
VERTEX
  5
389
100
AcDbEntity
  8
0
100
AcDbVertex
100
AcDb2dVertex
 10
9.0296456176
 20
7.3099095666
 30
0.0
  0
VERTEX
  5
38A
100
AcDbEntity
  8
0
100
AcDbVertex
100
AcDb2dVertex
 10
9.0314145096
 20
7.3042414766
 30
0.0
  0
VERTEX
  5
38B
100
AcDbEntity
  8
0
100
AcDbVertex
100
AcDb2dVertex
 10
9.0342528591
 20
7.2987201728
 30
0.0
  0
VERTEX
  5
38C
100
AcDbEntity
  8
0
100
AcDbVertex
100
AcDb2dVertex
 10
9.0381260423
 20
7.2934125807
 30
0.0
  0
VERTEX
  5
38D
100
AcDbEntity
  8
0
100
AcDbVertex
100
AcDb2dVertex
 10
9.0429872108
 20
7.2883832234
 30
0.0
  0
VERTEX
  5
38E
100
AcDbEntity
  8
0
100
AcDbVertex
100
AcDb2dVertex
 10
9.0487772154
 20
7.2836930683
 30
0.0
  0
VERTEX
  5
38F
100
AcDbEntity
  8
0
100
AcDbVertex
100
AcDb2dVertex
 10
9.0554258129
 20
7.2793990704
 30
0.0
  0
SEQEND
  5
390
100
AcDbEntity
  8
0
  0
POLYLINE
  5
391
100
AcDbEntity
  8
0
  6
CONTINUOUS
 62
         7
100
AcDb2dPolyline
 66
         1
 10
0.0
 20
0.0
 30
0.0
 70
       128
  0
VERTEX
  5
392
100
AcDbEntity
  8
0
100
AcDbVertex
100
AcDb2dVertex
 10
9.0554258129
 20
7.0865153824
 30
0.0
  0
VERTEX
  5
393
100
AcDbEntity
  8
0
100
AcDbVertex
100
AcDb2dVertex
 10
9.0628523792
 20
7.0826697124
 30
0.0
  0
VERTEX
  5
394
100
AcDbEntity
  8
0
100
AcDbVertex
100
AcDb2dVertex
 10
9.070966743
 20
7.079319037
 30
0.0
  0
VERTEX
  5
395
100
AcDbEntity
  8
0
100
AcDbVertex
100
AcDb2dVertex
 10
9.0796702707
 20
7.0765039518
 30
0.0
  0
VERTEX
  5
396
100
AcDbEntity
  8
0
100
AcDbVertex
100
AcDb2dVertex
 10
9.0888574673
 20
7.0742587161
 30
0.0
  0
VERTEX
  5
397
100
AcDbEntity
  8
0
100
AcDbVertex
100
AcDb2dVertex
 10
9.0984167659
 20
7.0726105572
 30
0.0
  0
VERTEX
  5
398
100
AcDbEntity
  8
0
100
AcDbVertex
100
AcDb2dVertex
 10
9.1082321157
 20
7.0715794723
 30
0.0
  0
VERTEX
  5
399
100
AcDbEntity
  8
0
100
AcDbVertex
100
AcDb2dVertex
 10
9.1181843599
 20
7.0711779724
 30
0.0
  0
VERTEX
  5
39A
100
AcDbEntity
  8
0
100
AcDbVertex
100
AcDb2dVertex
 10
9.1281527144
 20
7.071410946
 30
0.0
  0
VERTEX
  5
39B
100
AcDbEntity
  8
0
100
AcDbVertex
100
AcDb2dVertex
 10
9.1380161815
 20
7.0722755626
 30
0.0
  0
VERTEX
  5
39C
100
AcDbEntity
  8
0
100
AcDbVertex
100
AcDb2dVertex
 10
9.1476550174
 20
7.0737613225
 30
0.0
  0
VERTEX
  5
39D
100
AcDbEntity
  8
0
100
AcDbVertex
100
AcDb2dVertex
 10
9.1569522399
 20
7.075850205
 30
0.0
  0
VERTEX
  5
39E
100
AcDbEntity
  8
0
100
AcDbVertex
100
AcDb2dVertex
 10
9.165794937
 20
7.0785168108
 30
0.0
  0
VERTEX
  5
39F
100
AcDbEntity
  8
0
100
AcDbVertex
100
AcDb2dVertex
 10
9.174075849
 20
7.0817288252
 30
0.0
  0
VERTEX
  5
3A0
100
AcDbEntity
  8
0
100
AcDbVertex
100
AcDb2dVertex
 10
9.1816943793
 20
7.0854472137
 30
0.0
  0
VERTEX
  5
3A1
100
AcDbEntity
  8
0
100
AcDbVertex
100
AcDb2dVertex
 10
9.1885581372
 20
7.0896268872
 30
0.0
  0
VERTEX
  5
3A2
100
AcDbEntity
  8
0
100
AcDbVertex
100
AcDb2dVertex
 10
9.1945837417
 20
7.0942170765
 30
0.0
  0
VERTEX
  5
3A3
100
AcDbEntity
  8
0
100
AcDbVertex
100
AcDb2dVertex
 10
9.1996980528
 20
7.0991620584
 30
0.0
  0
VERTEX
  5
3A4
100
AcDbEntity
  8
0
100
AcDbVertex
100
AcDb2dVertex
 10
9.2038390467
 20
7.1044018477
 30
0.0
  0
VERTEX
  5
3A5
100
AcDbEntity
  8
0
100
AcDbVertex
100
AcDb2dVertex
 10
9.2069563605
 20
7.1098727809
 30
0.0
  0
VERTEX
  5
3A6
100
AcDbEntity
  8
0
100
AcDbVertex
100
AcDb2dVertex
 10
9.2090122055
 20
7.1155084854
 30
0.0
  0
VERTEX
  5
3A7
100
AcDbEntity
  8
0
100
AcDbVertex
100
AcDb2dVertex
 10
9.2099817081
 20
7.1212405812
 30
0.0
  0
VERTEX
  5
3A8
100
AcDbEntity
  8
0
100
AcDbVertex
100
AcDb2dVertex
 10
9.2100623312
 20
7.1234464389
 30
0.0
  0
SEQEND
  5
3A9
100
AcDbEntity
  8
0
  0
POLYLINE
  5
3AA
100
AcDbEntity
  8
0
  6
CONTINUOUS
 62
         7
100
AcDb2dPolyline
 66
         1
 10
0.0
 20
0.0
 30
0.0
 70
       128
  0
VERTEX
  5
3AB
100
AcDbEntity
  8
0
100
AcDbVertex
100
AcDb2dVertex
 10
9.0289599826
 20
7.1234464483
 30
0.0
  0
VERTEX
  5
3AC
100
AcDbEntity
  8
0
100
AcDbVertex
100
AcDb2dVertex
 10
9.0289675047
 20
7.1227718698
 30
0.0
  0
VERTEX
  5
3AD
100
AcDbEntity
  8
0
100
AcDbVertex
100
AcDb2dVertex
 10
9.0296456176
 20
7.1170258787
 30
0.0
  0
VERTEX
  5
3AE
100
AcDbEntity
  8
0
100
AcDbVertex
100
AcDb2dVertex
 10
9.0314145096
 20
7.1113577886
 30
0.0
  0
VERTEX
  5
3AF
100
AcDbEntity
  8
0
100
AcDbVertex
100
AcDb2dVertex
 10
9.0342528591
 20
7.1058364849
 30
0.0
  0
VERTEX
  5
3B0
100
AcDbEntity
  8
0
100
AcDbVertex
100
AcDb2dVertex
 10
9.0381260423
 20
7.1005288928
 30
0.0
  0
VERTEX
  5
3B1
100
AcDbEntity
  8
0
100
AcDbVertex
100
AcDb2dVertex
 10
9.0429872108
 20
7.0954995354
 30
0.0
  0
VERTEX
  5
3B2
100
AcDbEntity
  8
0
100
AcDbVertex
100
AcDb2dVertex
 10
9.0487772154
 20
7.0908093804
 30
0.0
  0
VERTEX
  5
3B3
100
AcDbEntity
  8
0
100
AcDbVertex
100
AcDb2dVertex
 10
9.0554258129
 20
7.0865153824
 30
0.0
  0
SEQEND
  5
3B4
100
AcDbEntity
  8
0
  0
LINE
  5
3B5
100
AcDbEntity
  8
0
  6
CONTINUOUS
 62
         7
100
AcDbLine
 10
9.016417422
 20
7.0640356513
 30
0.0
 11
9.1570901388
 21
7.0421997614
 31
0.0
  0
LINE
  5
3B6
100
AcDbEntity
  8
0
  6
CONTINUOUS
 62
         7
100
AcDbLine
 10
8.9788384162
 20
7.1452823174
 30
0.0
 11
9.016417422
 21
7.0640356513
 31
0.0
  0
LINE
  5
3B7
100
AcDbEntity
  8
0
  6
CONTINUOUS
 62
         7
100
AcDbLine
 10
9.0289599859
 20
7.1741663465
 30
0.0
 11
8.9788384162
 21
7.1452823174
 31
0.0
  0
LINE
  5
3B8
100
AcDbEntity
  8
0
  6
CONTINUOUS
 62
         7
100
AcDbLine
 10
9.2226048907
 20
7.1828572367
 30
0.0
 11
9.2100623245
 21
7.1848041484
 31
0.0
  0
LINE
  5
3B9
100
AcDbEntity
  8
0
  6
CONTINUOUS
 62
         7
100
AcDbLine
 10
9.2601839009
 20
7.101610568
 30
0.0
 11
9.2226048907
 21
7.1828572367
 31
0.0
  0
LINE
  5
3BA
100
AcDbEntity
  8
0
  6
CONTINUOUS
 62
         7
100
AcDbLine
 10
9.1570901388
 20
7.0421997614
 30
0.0
 11
9.2601839009
 21
7.101610568
 31
0.0
  0
LINE
  5
3BB
100
AcDbEntity
  8
0
  6
CONTINUOUS
 62
         7
100
AcDbLine
 10
9.016417422
 20
7.0318883699
 30
0.0
 11
9.016417422
 21
7.0640356513
 31
0.0
  0
LINE
  5
3BC
100
AcDbEntity
  8
0
  6
CONTINUOUS
 62
         7
100
AcDbLine
 10
9.1570901388
 20
7.0100524801
 30
0.0
 11
9.1570901388
 21
7.0421997614
 31
0.0
  0
LINE
  5
3BD
100
AcDbEntity
  8
0
  6
CONTINUOUS
 62
       144
100
AcDbLine
 10
9.016417422
 20
7.0318883699
 30
0.0
 11
9.1570901388
 21
7.0100524801
 31
0.0
  0
LINE
  5
3BE
100
AcDbEntity
  8
0
  6
CONTINUOUS
 62
         7
100
AcDbLine
 10
9.2601839009
 20
7.0694632867
 30
0.0
 11
9.2601839009
 21
7.101610568
 31
0.0
  0
LINE
  5
3BF
100
AcDbEntity
  8
0
  6
CONTINUOUS
 62
       144
100
AcDbLine
 10
9.1570901388
 20
7.0100524801
 30
0.0
 11
9.2601839009
 21
7.0694632867
 31
0.0
  0
LINE
  5
3C0
100
AcDbEntity
  8
0
  6
CONTINUOUS
 62
         7
100
AcDbLine
 10
8.9788384162
 20
7.113135036
 30
0.0
 11
8.9788384162
 21
7.1452823174
 31
0.0
  0
LINE
  5
3C1
100
AcDbEntity
  8
0
  6
CONTINUOUS
 62
       144
100
AcDbLine
 10
8.9788384162
 20
7.113135036
 30
0.0
 11
9.016417422
 21
7.0318883699
 31
0.0
  0
POLYLINE
  5
3C2
100
AcDbEntity
  8
0
  6
CONTINUOUS
 62
         7
100
AcDb2dPolyline
 66
         1
 10
0.0
 20
0.0
 30
0.0
 70
       128
  0
VERTEX
  5
3C3
100
AcDbEntity
  8
0
100
AcDbVertex
100
AcDb2dVertex
 10
8.3277285321
 20
5.9943575401
 30
0.0
  0
VERTEX
  5
3C4
100
AcDbEntity
  8
0
100
AcDbVertex
100
AcDb2dVertex
 10
8.3297073028
 20
6.0065558649
 30
0.0
  0
VERTEX
  5
3C5
100
AcDbEntity
  8
0
100
AcDbVertex
100
AcDb2dVertex
 10
8.3324532908
 20
6.0181288783
 30
0.0
  0
VERTEX
  5
3C6
100
AcDbEntity
  8
0
100
AcDbVertex
100
AcDb2dVertex
 10
8.3359542197
 20
6.029024896
 30
0.0
  0
VERTEX
  5
3C7
100
AcDbEntity
  8
0
100
AcDbVertex
100
AcDb2dVertex
 10
8.3401944815
 20
6.0391952351
 30
0.0
  0
VERTEX
  5
3C8
100
AcDbEntity
  8
0
100
AcDbVertex
100
AcDb2dVertex
 10
8.3451551106
 20
6.048594483
 30
0.0
  0
VERTEX
  5
3C9
100
AcDbEntity
  8
0
100
AcDbVertex
100
AcDb2dVertex
 10
8.3508139654
 20
6.0571806475
 30
0.0
  0
VERTEX
  5
3CA
100
AcDbEntity
  8
0
100
AcDbVertex
100
AcDb2dVertex
 10
8.3571457801
 20
6.0649153962
 30
0.0
  0
VERTEX
  5
3CB
100
AcDbEntity
  8
0
100
AcDbVertex
100
AcDb2dVertex
 10
8.3641222555
 20
6.0717641839
 30
0.0
  0
VERTEX
  5
3CC
100
AcDbEntity
  8
0
100
AcDbVertex
100
AcDb2dVertex
 10
8.3717122402
 20
6.0776964243
 30
0.0
  0
VERTEX
  5
3CD
100
AcDbEntity
  8
0
100
AcDbVertex
100
AcDb2dVertex
 10
8.3798818478
 20
6.0826856029
 30
0.0
  0
VERTEX
  5
3CE
100
AcDbEntity
  8
0
100
AcDbVertex
100
AcDb2dVertex
 10
8.3885945796
 20
6.0867094525
 30
0.0
  0
VERTEX
  5
3CF
100
AcDbEntity
  8
0
100
AcDbVertex
100
AcDb2dVertex
 10
8.3978115193
 20
6.0897500058
 30
0.0
  0
VERTEX
  5
3D0
100
AcDbEntity
  8
0
100
AcDbVertex
100
AcDb2dVertex
 10
8.4074915143
 20
6.0917936626
 30
0.0
  0
VERTEX
  5
3D1
100
AcDbEntity
  8
0
100
AcDbVertex
100
AcDb2dVertex
 10
8.4175913184
 20
6.0928313173
 30
0.0
  0
VERTEX
  5
3D2
100
AcDbEntity
  8
0
100
AcDbVertex
100
AcDb2dVertex
 10
8.4280658253
 20
6.0928583288
 30
0.0
  0
VERTEX
  5
3D3
100
AcDbEntity
  8
0
100
AcDbVertex
100
AcDb2dVertex
 10
8.4388682627
 20
6.0918745655
 30
0.0
  0
VERTEX
  5
3D4
100
AcDbEntity
  8
0
100
AcDbVertex
100
AcDb2dVertex
 10
8.4499503742
 20
6.0898844425
 30
0.0
  0
VERTEX
  5
3D5
100
AcDbEntity
  8
0
100
AcDbVertex
100
AcDb2dVertex
 10
8.4612626715
 20
6.086896825
 30
0.0
  0
VERTEX
  5
3D6
100
AcDbEntity
  8
0
100
AcDbVertex
100
AcDb2dVertex
 10
8.4727546264
 20
6.0829250704
 30
0.0
  0
VERTEX
  5
3D7
100
AcDbEntity
  8
0
100
AcDbVertex
100
AcDb2dVertex
 10
8.4843749149
 20
6.077986914
 30
0.0
  0
VERTEX
  5
3D8
100
AcDbEntity
  8
0
100
AcDbVertex
100
AcDb2dVertex
 10
8.496071638
 20
6.0721044125
 30
0.0
  0
VERTEX
  5
3D9
100
AcDbEntity
  8
0
100
AcDbVertex
100
AcDb2dVertex
 10
8.5077925559
 20
6.0653038349
 30
0.0
  0
VERTEX
  5
3DA
100
AcDbEntity
  8
0
100
AcDbVertex
100
AcDb2dVertex
 10
8.519485319
 20
6.0576155589
 30
0.0
  0
VERTEX
  5
3DB
100
AcDbEntity
  8
0
100
AcDbVertex
100
AcDb2dVertex
 10
8.531097703
 20
6.0490739211
 30
0.0
  0
VERTEX
  5
3DC
100
AcDbEntity
  8
0
100
AcDbVertex
100
AcDb2dVertex
 10
8.5425778482
 20
6.0397170665
 30
0.0
  0
VERTEX
  5
3DD
100
AcDbEntity
  8
0
100
AcDbVertex
100
AcDb2dVertex
 10
8.5538744792
 20
6.0295867847
 30
0.0
  0
VERTEX
  5
3DE
100
AcDbEntity
  8
0
100
AcDbVertex
100
AcDb2dVertex
 10
8.5649371454
 20
6.0187283229
 30
0.0
  0
VERTEX
  5
3DF
100
AcDbEntity
  8
0
100
AcDbVertex
100
AcDb2dVertex
 10
8.5757164301
 20
6.0071901857
 30
0.0
  0
VERTEX
  5
3E0
100
AcDbEntity
  8
0
100
AcDbVertex
100
AcDb2dVertex
 10
8.5861641998
 20
5.9950238945
 30
0.0
  0
VERTEX
  5
3E1
100
AcDbEntity
  8
0
100
AcDbVertex
100
AcDb2dVertex
 10
8.5962337861
 20
5.9822837851
 30
0.0
  0
VERTEX
  5
3E2
100
AcDbEntity
  8
0
100
AcDbVertex
100
AcDb2dVertex
 10
8.6058802187
 20
5.9690267683
 30
0.0
  0
VERTEX
  5
3E3
100
AcDbEntity
  8
0
100
AcDbVertex
100
AcDb2dVertex
 10
8.6150604198
 20
5.9553120452
 30
0.0
  0
VERTEX
  5
3E4
100
AcDbEntity
  8
0
100
AcDbVertex
100
AcDb2dVertex
 10
8.6237333732
 20
5.9412008683
 30
0.0
  0
VERTEX
  5
3E5
100
AcDbEntity
  8
0
100
AcDbVertex
100
AcDb2dVertex
 10
8.6318603569
 20
5.926756264
 30
0.0
  0
VERTEX
  5
3E6
100
AcDbEntity
  8
0
100
AcDbVertex
100
AcDb2dVertex
 10
8.6394050732
 20
5.912042756
 30
0.0
  0
VERTEX
  5
3E7
100
AcDbEntity
  8
0
100
AcDbVertex
100
AcDb2dVertex
 10
8.6463338041
 20
5.8971260359
 30
0.0
  0
VERTEX
  5
3E8
100
AcDbEntity
  8
0
100
AcDbVertex
100
AcDb2dVertex
 10
8.6526156446
 20
5.8820727384
 30
0.0
  0
VERTEX
  5
3E9
100
AcDbEntity
  8
0
100
AcDbVertex
100
AcDb2dVertex
 10
8.6582225029
 20
5.8669501127
 30
0.0
  0
VERTEX
  5
3EA
100
AcDbEntity
  8
0
100
AcDbVertex
100
AcDb2dVertex
 10
8.6631293465
 20
5.8518256623
 30
0.0
  0
VERTEX
  5
3EB
100
AcDbEntity
  8
0
100
AcDbVertex
100
AcDb2dVertex
 10
8.6673142672
 20
5.8367669736
 30
0.0
  0
VERTEX
  5
3EC
100
AcDbEntity
  8
0
100
AcDbVertex
100
AcDb2dVertex
 10
8.6707585846
 20
5.8218412665
 30
0.0
  0
VERTEX
  5
3ED
100
AcDbEntity
  8
0
100
AcDbVertex
100
AcDb2dVertex
 10
8.6734468852
 20
5.8071152222
 30
0.0
  0
VERTEX
  5
3EE
100
AcDbEntity
  8
0
100
AcDbVertex
100
AcDb2dVertex
 10
8.6753671906
 20
5.7926546167
 30
0.0
  0
VERTEX
  5
3EF
100
AcDbEntity
  8
0
100
AcDbVertex
100
AcDb2dVertex
 10
8.6765109061
 20
5.7785240361
 30
0.0
  0
VERTEX
  5
3F0
100
AcDbEntity
  8
0
100
AcDbVertex
100
AcDb2dVertex
 10
8.6768729241
 20
5.7647865624
 30
0.0
  0
VERTEX
  5
3F1
100
AcDbEntity
  8
0
100
AcDbVertex
100
AcDb2dVertex
 10
8.6764516371
 20
5.7515035864
 30
0.0
  0
VERTEX
  5
3F2
100
AcDbEntity
  8
0
100
AcDbVertex
100
AcDb2dVertex
 10
8.6752489248
 20
5.7387344409
 30
0.0
  0
VERTEX
  5
3F3
100
AcDbEntity
  8
0
100
AcDbVertex
100
AcDb2dVertex
 10
8.6732701671
 20
5.7265360786
 30
0.0
  0
VERTEX
  5
3F4
100
AcDbEntity
  8
0
100
AcDbVertex
100
AcDb2dVertex
 10
8.6705241791
 20
5.7149630802
 30
0.0
  0
VERTEX
  5
3F5
100
AcDbEntity
  8
0
100
AcDbVertex
100
AcDb2dVertex
 10
8.6670232372
 20
5.70406707
 30
0.0
  0
VERTEX
  5
3F6
100
AcDbEntity
  8
0
100
AcDbVertex
100
AcDb2dVertex
 10
8.6627829884
 20
5.6938967384
 30
0.0
  0
VERTEX
  5
3F7
100
AcDbEntity
  8
0
100
AcDbVertex
100
AcDb2dVertex
 10
8.6578223593
 20
5.6844974755
 30
0.0
  0
VERTEX
  5
3F8
100
AcDbEntity
  8
0
100
AcDbVertex
100
AcDb2dVertex
 10
8.6521634915
 20
5.6759113185
 30
0.0
  0
VERTEX
  5
3F9
100
AcDbEntity
  8
0
100
AcDbVertex
100
AcDb2dVertex
 10
8.6458316898
 20
5.6681765622
 30
0.0
  0
VERTEX
  5
3FA
100
AcDbEntity
  8
0
100
AcDbVertex
100
AcDb2dVertex
 10
8.6388552145
 20
5.6613277597
 30
0.0
  0
VERTEX
  5
3FB
100
AcDbEntity
  8
0
100
AcDbVertex
100
AcDb2dVertex
 10
8.6312652168
 20
5.6553955492
 30
0.0
  0
VERTEX
  5
3FC
100
AcDbEntity
  8
0
100
AcDbVertex
100
AcDb2dVertex
 10
8.6230956221
 20
5.6504063631
 30
0.0
  0
VERTEX
  5
3FD
100
AcDbEntity
  8
0
100
AcDbVertex
100
AcDb2dVertex
 10
8.6143828839
 20
5.6463825097
 30
0.0
  0
VERTEX
  5
3FE
100
AcDbEntity
  8
0
100
AcDbVertex
100
AcDb2dVertex
 10
8.6051659442
 20
5.6433419564
 30
0.0
  0
VERTEX
  5
3FF
100
AcDbEntity
  8
0
100
AcDbVertex
100
AcDb2dVertex
 10
8.5954859557
 20
5.6412982809
 30
0.0
  0
VERTEX
  5
400
100
AcDbEntity
  8
0
100
AcDbVertex
100
AcDb2dVertex
 10
8.5853861515
 20
5.6402606262
 30
0.0
  0
VERTEX
  5
401
100
AcDbEntity
  8
0
100
AcDbVertex
100
AcDb2dVertex
 10
8.5749116382
 20
5.6402336409
 30
0.0
  0
VERTEX
  5
402
100
AcDbEntity
  8
0
100
AcDbVertex
100
AcDb2dVertex
 10
8.5641092072
 20
5.641217378
 30
0.0
  0
VERTEX
  5
403
100
AcDbEntity
  8
0
100
AcDbVertex
100
AcDb2dVertex
 10
8.5530270893
 20
5.6432075272
 30
0.0
  0
VERTEX
  5
404
100
AcDbEntity
  8
0
100
AcDbVertex
100
AcDb2dVertex
 10
8.5417147952
 20
5.6461951466
 30
0.0
  0
VERTEX
  5
405
100
AcDbEntity
  8
0
100
AcDbVertex
100
AcDb2dVertex
 10
8.5302228403
 20
5.6501668825
 30
0.0
  0
VERTEX
  5
406
100
AcDbEntity
  8
0
100
AcDbVertex
100
AcDb2dVertex
 10
8.5186025502
 20
5.655105051
 30
0.0
  0
VERTEX
  5
407
100
AcDbEntity
  8
0
100
AcDbVertex
100
AcDb2dVertex
 10
8.5069058275
 20
5.6609875336
 30
0.0
  0
VERTEX
  5
408
100
AcDbEntity
  8
0
100
AcDbVertex
100
AcDb2dVertex
 10
8.4951849098
 20
5.6677881261
 30
0.0
  0
VERTEX
  5
409
100
AcDbEntity
  8
0
100
AcDbVertex
100
AcDb2dVertex
 10
8.4925214726
 20
5.6694597347
 30
0.0
  0
SEQEND
  5
40A
100
AcDbEntity
  8
0
  0
POLYLINE
  5
40B
100
AcDbEntity
  8
0
  6
CONTINUOUS
 62
         7
100
AcDb2dPolyline
 66
         1
 10
0.0
 20
0.0
 30
0.0
 70
       128
  0
VERTEX
  5
40C
100
AcDbEntity
  8
0
100
AcDbVertex
100
AcDb2dVertex
 10
8.3263319122
 20
5.9573396697
 30
0.0
  0
VERTEX
  5
40D
100
AcDbEntity
  8
0
100
AcDbVertex
100
AcDb2dVertex
 10
8.3261045458
 20
5.9683053961
 30
0.0
  0
VERTEX
  5
40E
100
AcDbEntity
  8
0
100
AcDbVertex
100
AcDb2dVertex
 10
8.3265258199
 20
5.9815883646
 30
0.0
  0
VERTEX
  5
40F
100
AcDbEntity
  8
0
100
AcDbVertex
100
AcDb2dVertex
 10
8.3277285321
 20
5.9943575401
 30
0.0
  0
SEQEND
  5
410
100
AcDbEntity
  8
0
  0
POLYLINE
  5
411
100
AcDbEntity
  8
0
  6
CONTINUOUS
 62
         7
100
AcDb2dPolyline
 66
         1
 10
0.0
 20
0.0
 30
0.0
 70
       128
  0
VERTEX
  5
412
100
AcDbEntity
  8
0
100
AcDbVertex
100
AcDb2dVertex
 10
8.5374852671
 20
5.7714048226
 30
0.0
  0
VERTEX
  5
413
100
AcDbEntity
  8
0
100
AcDbVertex
100
AcDb2dVertex
 10
8.5406169055
 20
5.7717371902
 30
0.0
  0
VERTEX
  5
414
100
AcDbEntity
  8
0
100
AcDbVertex
100
AcDb2dVertex
 10
8.5468400961
 20
5.7731732545
 30
0.0
  0
VERTEX
  5
415
100
AcDbEntity
  8
0
100
AcDbVertex
100
AcDb2dVertex
 10
8.5525825523
 20
5.7755990712
 30
0.0
  0
VERTEX
  5
416
100
AcDbEntity
  8
0
100
AcDbVertex
100
AcDb2dVertex
 10
8.5577834011
 20
5.7789889445
 30
0.0
  0
VERTEX
  5
417
100
AcDbEntity
  8
0
100
AcDbVertex
100
AcDb2dVertex
 10
8.5623875152
 20
5.7833069458
 30
0.0
  0
VERTEX
  5
418
100
AcDbEntity
  8
0
100
AcDbVertex
100
AcDb2dVertex
 10
8.5663460807
 20
5.7885073041
 30
0.0
  0
VERTEX
  5
419
100
AcDbEntity
  8
0
100
AcDbVertex
100
AcDb2dVertex
 10
8.5696171477
 20
5.794534897
 30
0.0
  0
VERTEX
  5
41A
100
AcDbEntity
  8
0
100
AcDbVertex
100
AcDb2dVertex
 10
8.5721660326
 20
5.8013258265
 30
0.0
  0
VERTEX
  5
41B
100
AcDbEntity
  8
0
100
AcDbVertex
100
AcDb2dVertex
 10
8.5739657193
 20
5.8088081156
 30
0.0
  0
VERTEX
  5
41C
100
AcDbEntity
  8
0
100
AcDbVertex
100
AcDb2dVertex
 10
8.5749971388
 20
5.8169024155
 30
0.0
  0
VERTEX
  5
41D
100
AcDbEntity
  8
0
100
AcDbVertex
100
AcDb2dVertex
 10
8.5752493431
 20
5.8255229522
 30
0.0
  0
VERTEX
  5
41E
100
AcDbEntity
  8
0
100
AcDbVertex
100
AcDb2dVertex
 10
8.574719675
 20
5.8345783576
 30
0.0
  0
VERTEX
  5
41F
100
AcDbEntity
  8
0
100
AcDbVertex
100
AcDb2dVertex
 10
8.5734137346
 20
5.8439726314
 30
0.0
  0
VERTEX
  5
420
100
AcDbEntity
  8
0
100
AcDbVertex
100
AcDb2dVertex
 10
8.5713453733
 20
5.8536061773
 30
0.0
  0
VERTEX
  5
421
100
AcDbEntity
  8
0
100
AcDbVertex
100
AcDb2dVertex
 10
8.5685365125
 20
5.8633768814
 30
0.0
  0
VERTEX
  5
422
100
AcDbEntity
  8
0
100
AcDbVertex
100
AcDb2dVertex
 10
8.5650169291
 20
5.8731811932
 30
0.0
  0
VERTEX
  5
423
100
AcDbEntity
  8
0
100
AcDbVertex
100
AcDb2dVertex
 10
8.5608239322
 20
5.8829151664
 30
0.0
  0
VERTEX
  5
424
100
AcDbEntity
  8
0
100
AcDbVertex
100
AcDb2dVertex
 10
8.5560019669
 20
5.8924756149
 30
0.0
  0
VERTEX
  5
425
100
AcDbEntity
  8
0
100
AcDbVertex
100
AcDb2dVertex
 10
8.5506021482
 20
5.9017612059
 30
0.0
  0
VERTEX
  5
426
100
AcDbEntity
  8
0
100
AcDbVertex
100
AcDb2dVertex
 10
8.5446817132
 20
5.9106735094
 30
0.0
  0
VERTEX
  5
427
100
AcDbEntity
  8
0
100
AcDbVertex
100
AcDb2dVertex
 10
8.5383034244
 20
5.9191180609
 30
0.0
  0
VERTEX
  5
428
100
AcDbEntity
  8
0
100
AcDbVertex
100
AcDb2dVertex
 10
8.5315348897
 20
5.9270053233
 30
0.0
  0
VERTEX
  5
429
100
AcDbEntity
  8
0
100
AcDbVertex
100
AcDb2dVertex
 10
8.5244478586
 20
5.9342516919
 30
0.0
  0
VERTEX
  5
42A
100
AcDbEntity
  8
0
100
AcDbVertex
100
AcDb2dVertex
 10
8.5171174529
 20
5.9407803873
 30
0.0
  0
VERTEX
  5
42B
100
AcDbEntity
  8
0
100
AcDbVertex
100
AcDb2dVertex
 10
8.5096213813
 20
5.9465221635
 30
0.0
  0
VERTEX
  5
42C
100
AcDbEntity
  8
0
100
AcDbVertex
100
AcDb2dVertex
 10
8.5020391005
 20
5.9514161663
 30
0.0
  0
VERTEX
  5
42D
100
AcDbEntity
  8
0
100
AcDbVertex
100
AcDb2dVertex
 10
8.4944509862
 20
5.955410532
 30
0.0
  0
VERTEX
  5
42E
100
AcDbEntity
  8
0
100
AcDbVertex
100
AcDb2dVertex
 10
8.4869374738
 20
5.9584629129
 30
0.0
  0
VERTEX
  5
42F
100
AcDbEntity
  8
0
100
AcDbVertex
100
AcDb2dVertex
 10
8.4795782089
 20
5.960540953
 30
0.0
  0
VERTEX
  5
430
100
AcDbEntity
  8
0
100
AcDbVertex
100
AcDb2dVertex
 10
8.4724512001
 20
5.9616226125
 30
0.0
  0
VERTEX
  5
431
100
AcDbEntity
  8
0
100
AcDbVertex
100
AcDb2dVertex
 10
8.4656319977
 20
5.9616964471
 30
0.0
  0
VERTEX
  5
432
100
AcDbEntity
  8
0
100
AcDbVertex
100
AcDb2dVertex
 10
8.4591928843
 20
5.9607616562
 30
0.0
  0
VERTEX
  5
433
100
AcDbEntity
  8
0
100
AcDbVertex
100
AcDb2dVertex
 10
8.4532021159
 20
5.9588281617
 30
0.0
  0
VERTEX
  5
434
100
AcDbEntity
  8
0
100
AcDbVertex
100
AcDb2dVertex
 10
8.4477232006
 20
5.9559164556
 30
0.0
  0
VERTEX
  5
435
100
AcDbEntity
  8
0
100
AcDbVertex
100
AcDb2dVertex
 10
8.4428142115
 20
5.9520573981
 30
0.0
  0
VERTEX
  5
436
100
AcDbEntity
  8
0
100
AcDbVertex
100
AcDb2dVertex
 10
8.4385271872
 20
5.9472918893
 30
0.0
  0
VERTEX
  5
437
100
AcDbEntity
  8
0
100
AcDbVertex
100
AcDb2dVertex
 10
8.4370997272
 20
5.9452965133
 30
0.0
  0
SEQEND
  5
438
100
AcDbEntity
  8
0
  0
POLYLINE
  5
439
100
AcDbEntity
  8
0
  6
CONTINUOUS
 62
         7
100
AcDb2dPolyline
 66
         1
 10
0.0
 20
0.0
 30
0.0
 70
       128
  0
VERTEX
  5
43A
100
AcDbEntity
  8
0
100
AcDbVertex
100
AcDb2dVertex
 10
8.5862744412
 20
6.2018860761
 30
0.0
  0
VERTEX
  5
43B
100
AcDbEntity
  8
0
100
AcDbVertex
100
AcDb2dVertex
 10
8.5886732285
 20
6.2032183013
 30
0.0
  0
VERTEX
  5
43C
100
AcDbEntity
  8
0
100
AcDbVertex
100
AcDb2dVertex
 10
8.5973859603
 20
6.207242151
 30
0.0
  0
VERTEX
  5
43D
100
AcDbEntity
  8
0
100
AcDbVertex
100
AcDb2dVertex
 10
8.6066029
 20
6.2102827042
 30
0.0
  0
VERTEX
  5
43E
100
AcDbEntity
  8
0
100
AcDbVertex
100
AcDb2dVertex
 10
8.6162828949
 20
6.2123263611
 30
0.0
  0
VERTEX
  5
43F
100
AcDbEntity
  8
0
100
AcDbVertex
100
AcDb2dVertex
 10
8.6263826991
 20
6.2133640158
 30
0.0
  0
VERTEX
  5
440
100
AcDbEntity
  8
0
100
AcDbVertex
100
AcDb2dVertex
 10
8.636857206
 20
6.2133910273
 30
0.0
  0
VERTEX
  5
441
100
AcDbEntity
  8
0
100
AcDbVertex
100
AcDb2dVertex
 10
8.6476596434
 20
6.2124072639
 30
0.0
  0
VERTEX
  5
442
100
AcDbEntity
  8
0
100
AcDbVertex
100
AcDb2dVertex
 10
8.6587417548
 20
6.210417141
 30
0.0
  0
VERTEX
  5
443
100
AcDbEntity
  8
0
100
AcDbVertex
100
AcDb2dVertex
 10
8.6700540522
 20
6.2074295234
 30
0.0
  0
VERTEX
  5
444
100
AcDbEntity
  8
0
100
AcDbVertex
100
AcDb2dVertex
 10
8.6815460071
 20
6.2034577688
 30
0.0
  0
VERTEX
  5
445
100
AcDbEntity
  8
0
100
AcDbVertex
100
AcDb2dVertex
 10
8.6931662956
 20
6.1985196125
 30
0.0
  0
VERTEX
  5
446
100
AcDbEntity
  8
0
100
AcDbVertex
100
AcDb2dVertex
 10
8.7048630187
 20
6.192637111
 30
0.0
  0
VERTEX
  5
447
100
AcDbEntity
  8
0
100
AcDbVertex
100
AcDb2dVertex
 10
8.7165839365
 20
6.1858365333
 30
0.0
  0
VERTEX
  5
448
100
AcDbEntity
  8
0
100
AcDbVertex
100
AcDb2dVertex
 10
8.7282766997
 20
6.1781482574
 30
0.0
  0
VERTEX
  5
449
100
AcDbEntity
  8
0
100
AcDbVertex
100
AcDb2dVertex
 10
8.7398890837
 20
6.1696066196
 30
0.0
  0
VERTEX
  5
44A
100
AcDbEntity
  8
0
100
AcDbVertex
100
AcDb2dVertex
 10
8.7513692289
 20
6.1602497649
 30
0.0
  0
VERTEX
  5
44B
100
AcDbEntity
  8
0
100
AcDbVertex
100
AcDb2dVertex
 10
8.7626658599
 20
6.1501194832
 30
0.0
  0
VERTEX
  5
44C
100
AcDbEntity
  8
0
100
AcDbVertex
100
AcDb2dVertex
 10
8.7737285261
 20
6.1392610214
 30
0.0
  0
VERTEX
  5
44D
100
AcDbEntity
  8
0
100
AcDbVertex
100
AcDb2dVertex
 10
8.7845078108
 20
6.1277228842
 30
0.0
  0
VERTEX
  5
44E
100
AcDbEntity
  8
0
100
AcDbVertex
100
AcDb2dVertex
 10
8.7949555805
 20
6.115556593
 30
0.0
  0
VERTEX
  5
44F
100
AcDbEntity
  8
0
100
AcDbVertex
100
AcDb2dVertex
 10
8.8050251668
 20
6.1028164836
 30
0.0
  0
VERTEX
  5
450
100
AcDbEntity
  8
0
100
AcDbVertex
100
AcDb2dVertex
 10
8.8146715994
 20
6.0895594667
 30
0.0
  0
VERTEX
  5
451
100
AcDbEntity
  8
0
100
AcDbVertex
100
AcDb2dVertex
 10
8.8238518005
 20
6.0758447437
 30
0.0
  0
VERTEX
  5
452
100
AcDbEntity
  8
0
100
AcDbVertex
100
AcDb2dVertex
 10
8.8325247539
 20
6.0617335668
 30
0.0
  0
VERTEX
  5
453
100
AcDbEntity
  8
0
100
AcDbVertex
100
AcDb2dVertex
 10
8.8406517376
 20
6.0472889625
 30
0.0
  0
VERTEX
  5
454
100
AcDbEntity
  8
0
100
AcDbVertex
100
AcDb2dVertex
 10
8.8481964539
 20
6.0325754545
 30
0.0
  0
VERTEX
  5
455
100
AcDbEntity
  8
0
100
AcDbVertex
100
AcDb2dVertex
 10
8.8551251847
 20
6.0176587343
 30
0.0
  0
VERTEX
  5
456
100
AcDbEntity
  8
0
100
AcDbVertex
100
AcDb2dVertex
 10
8.8614070253
 20
6.0026054369
 30
0.0
  0
VERTEX
  5
457
100
AcDbEntity
  8
0
100
AcDbVertex
100
AcDb2dVertex
 10
8.8670138836
 20
5.9874828111
 30
0.0
  0
VERTEX
  5
458
100
AcDbEntity
  8
0
100
AcDbVertex
100
AcDb2dVertex
 10
8.8719207272
 20
5.9723583607
 30
0.0
  0
VERTEX
  5
459
100
AcDbEntity
  8
0
100
AcDbVertex
100
AcDb2dVertex
 10
8.8761056479
 20
5.9572996721
 30
0.0
  0
VERTEX
  5
45A
100
AcDbEntity
  8
0
100
AcDbVertex
100
AcDb2dVertex
 10
8.8795499653
 20
5.9423739649
 30
0.0
  0
VERTEX
  5
45B
100
AcDbEntity
  8
0
100
AcDbVertex
100
AcDb2dVertex
 10
8.8822382659
 20
5.9276479207
 30
0.0
  0
VERTEX
  5
45C
100
AcDbEntity
  8
0
100
AcDbVertex
100
AcDb2dVertex
 10
8.8841585713
 20
5.9131873152
 30
0.0
  0
VERTEX
  5
45D
100
AcDbEntity
  8
0
100
AcDbVertex
100
AcDb2dVertex
 10
8.8853022868
 20
5.8990567346
 30
0.0
  0
VERTEX
  5
45E
100
AcDbEntity
  8
0
100
AcDbVertex
100
AcDb2dVertex
 10
8.8856643048
 20
5.8853192609
 30
0.0
  0
VERTEX
  5
45F
100
AcDbEntity
  8
0
100
AcDbVertex
100
AcDb2dVertex
 10
8.8852430178
 20
5.8720362849
 30
0.0
  0
VERTEX
  5
460
100
AcDbEntity
  8
0
100
AcDbVertex
100
AcDb2dVertex
 10
8.8840403055
 20
5.8592671393
 30
0.0
  0
VERTEX
  5
461
100
AcDbEntity
  8
0
100
AcDbVertex
100
AcDb2dVertex
 10
8.8820615478
 20
5.8470687771
 30
0.0
  0
VERTEX
  5
462
100
AcDbEntity
  8
0
100
AcDbVertex
100
AcDb2dVertex
 10
8.8793155598
 20
5.8354957787
 30
0.0
  0
VERTEX
  5
463
100
AcDbEntity
  8
0
100
AcDbVertex
100
AcDb2dVertex
 10
8.8758146179
 20
5.8245997684
 30
0.0
  0
VERTEX
  5
464
100
AcDbEntity
  8
0
100
AcDbVertex
100
AcDb2dVertex
 10
8.8715743691
 20
5.8144294368
 30
0.0
  0
VERTEX
  5
465
100
AcDbEntity
  8
0
100
AcDbVertex
100
AcDb2dVertex
 10
8.86661374
 20
5.805030174
 30
0.0
  0
VERTEX
  5
466
100
AcDbEntity
  8
0
100
AcDbVertex
100
AcDb2dVertex
 10
8.8609548722
 20
5.7964440169
 30
0.0
  0
VERTEX
  5
467
100
AcDbEntity
  8
0
100
AcDbVertex
100
AcDb2dVertex
 10
8.8546230705
 20
5.7887092607
 30
0.0
  0
VERTEX
  5
468
100
AcDbEntity
  8
0
100
AcDbVertex
100
AcDb2dVertex
 10
8.8476465952
 20
5.7818604581
 30
0.0
  0
VERTEX
  5
469
100
AcDbEntity
  8
0
100
AcDbVertex
100
AcDb2dVertex
 10
8.8400565975
 20
5.7759282476
 30
0.0
  0
VERTEX
  5
46A
100
AcDbEntity
  8
0
100
AcDbVertex
100
AcDb2dVertex
 10
8.8342857771
 20
5.7722712868
 30
0.0
  0
SEQEND
  5
46B
100
AcDbEntity
  8
0
  0
LINE
  5
46C
100
AcDbEntity
  8
0
  6
CONTINUOUS
 62
       144
100
AcDbLine
 10
8.464938538
 20
5.9613675222
 30
0.0
 11
8.4651379067
 21
5.9616614737
 31
0.0
  0
LINE
  5
46D
100
AcDbEntity
  8
0
  6
CONTINUOUS
 62
       144
100
AcDbLine
 10
8.5656783363
 20
5.7875014707
 30
0.0
 11
8.5653240801
 21
5.7874758214
 31
0.0
  0
LINE
  5
46E
100
AcDbEntity
  8
0
  6
CONTINUOUS
 62
         7
100
AcDbLine
 10
9.0638334955
 20
5.5965030969
 30
0.0
 11
9.9546766489
 21
6.1107759028
 31
0.0
  0
LINE
  5
46F
100
AcDbEntity
  8
0
  6
CONTINUOUS
 62
         7
100
AcDbLine
 10
9.0638334955
 20
6.2555222594
 30
0.0
 11
9.0638334955
 21
5.5965030969
 31
0.0
  0
LINE
  5
470
100
AcDbEntity
  8
0
  6
CONTINUOUS
 62
         7
100
AcDbLine
 10
9.9546766489
 20
6.7697950652
 30
0.0
 11
9.9546766489
 21
6.1107759028
 31
0.0
  0
LINE
  5
471
100
AcDbEntity
  8
0
  6
CONTINUOUS
 62
       144
100
AcDbLine
 10
9.0638334955
 20
6.2555222594
 30
0.0
 11
9.9546766489
 21
6.7697950652
 31
0.0
  0
LINE
  5
472
100
AcDbEntity
  8
0
  6
CONTINUOUS
 62
         7
100
AcDbLine
 10
9.0638334955
 20
5.5965030969
 30
0.0
 11
8.7968234333
 21
5.7506447248
 31
0.0
  0
LINE
  5
473
100
AcDbEntity
  8
0
  6
CONTINUOUS
 62
         7
100
AcDbLine
 10
8.5627341974
 20
6.1882965766
 30
0.0
 11
8.5627341974
 21
6.5448007267
 31
0.0
  0
POLYLINE
  5
474
100
AcDbEntity
  8
0
  6
CONTINUOUS
 62
         7
100
AcDb2dPolyline
 66
         1
 10
0.0
 20
0.0
 30
0.0
 70
       128
  0
VERTEX
  5
475
100
AcDbEntity
  8
0
100
AcDbVertex
100
AcDb2dVertex
 10
8.6725754804
 20
6.2539795604
 30
0.0
  0
VERTEX
  5
476
100
AcDbEntity
  8
0
100
AcDbVertex
100
AcDb2dVertex
 10
8.6726837514
 20
6.2540778619
 30
0.0
  0
VERTEX
  5
477
100
AcDbEntity
  8
0
100
AcDbVertex
100
AcDb2dVertex
 10
8.6802236711
 20
6.2601793231
 30
0.0
  0
VERTEX
  5
478
100
AcDbEntity
  8
0
100
AcDbVertex
100
AcDb2dVertex
 10
8.6883454306
 20
6.2653465997
 30
0.0
  0
VERTEX
  5
479
100
AcDbEntity
  8
0
100
AcDbVertex
100
AcDb2dVertex
 10
8.6970135226
 20
6.2695570916
 30
0.0
  0
VERTEX
  5
47A
100
AcDbEntity
  8
0
100
AcDbVertex
100
AcDb2dVertex
 10
8.7061900292
 20
6.27279239
 30
0.0
  0
VERTEX
  5
47B
100
AcDbEntity
  8
0
100
AcDbVertex
100
AcDb2dVertex
 10
8.7158348284
 20
6.2750383596
 30
0.0
  0
VERTEX
  5
47C
100
AcDbEntity
  8
0
100
AcDbVertex
100
AcDb2dVertex
 10
8.7259057499
 20
6.2762851613
 30
0.0
  0
VERTEX
  5
47D
100
AcDbEntity
  8
0
100
AcDbVertex
100
AcDb2dVertex
 10
8.7363587504
 20
6.2765273608
 30
0.0
  0
VERTEX
  5
47E
100
AcDbEntity
  8
0
100
AcDbVertex
100
AcDb2dVertex
 10
8.7471481271
 20
6.2757638872
 30
0.0
  0
VERTEX
  5
47F
100
AcDbEntity
  8
0
100
AcDbVertex
100
AcDb2dVertex
 10
8.7582266995
 20
6.2739980781
 30
0.0
  0
VERTEX
  5
480
100
AcDbEntity
  8
0
100
AcDbVertex
100
AcDb2dVertex
 10
8.7695460231
 20
6.2712376644
 30
0.0
  0
VERTEX
  5
481
100
AcDbEntity
  8
0
100
AcDbVertex
100
AcDb2dVertex
 10
8.7810566001
 20
6.2674947091
 30
0.0
  0
VERTEX
  5
482
100
AcDbEntity
  8
0
100
AcDbVertex
100
AcDb2dVertex
 10
8.7927080965
 20
6.2627855824
 30
0.0
  0
VERTEX
  5
483
100
AcDbEntity
  8
0
100
AcDbVertex
100
AcDb2dVertex
 10
8.8044495675
 20
6.2571308771
 30
0.0
  0
VERTEX
  5
484
100
AcDbEntity
  8
0
100
AcDbVertex
100
AcDb2dVertex
 10
8.816229668
 20
6.2505553126
 30
0.0
  0
VERTEX
  5
485
100
AcDbEntity
  8
0
100
AcDbVertex
100
AcDb2dVertex
 10
8.8279968877
 20
6.2430876523
 30
0.0
  0
VERTEX
  5
486
100
AcDbEntity
  8
0
100
AcDbVertex
100
AcDb2dVertex
 10
8.8396997714
 20
6.2347605422
 30
0.0
  0
VERTEX
  5
487
100
AcDbEntity
  8
0
100
AcDbVertex
100
AcDb2dVertex
 10
8.8512871439
 20
6.2256103998
 30
0.0
  0
VERTEX
  5
488
100
AcDbEntity
  8
0
100
AcDbVertex
100
AcDb2dVertex
 10
8.8627083377
 20
6.2156772345
 30
0.0
  0
VERTEX
  5
489
100
AcDbEntity
  8
0
100
AcDbVertex
100
AcDb2dVertex
 10
8.8739134077
 20
6.2050044856
 30
0.0
  0
VERTEX
  5
48A
100
AcDbEntity
  8
0
100
AcDbVertex
100
AcDb2dVertex
 10
8.8848533617
 20
6.1936388075
 30
0.0
  0
VERTEX
  5
48B
100
AcDbEntity
  8
0
100
AcDbVertex
100
AcDb2dVertex
 10
8.8954803644
 20
6.1816299175
 30
0.0
  0
VERTEX
  5
48C
100
AcDbEntity
  8
0
100
AcDbVertex
100
AcDb2dVertex
 10
8.9057479418
 20
6.1690303177
 30
0.0
  0
VERTEX
  5
48D
100
AcDbEntity
  8
0
100
AcDbVertex
100
AcDb2dVertex
 10
8.915611195
 20
6.1558951038
 30
0.0
  0
VERTEX
  5
48E
100
AcDbEntity
  8
0
100
AcDbVertex
100
AcDb2dVertex
 10
8.9250270008
 20
6.1422817218
 30
0.0
  0
VERTEX
  5
48F
100
AcDbEntity
  8
0
100
AcDbVertex
100
AcDb2dVertex
 10
8.933954168
 20
6.1282496913
 30
0.0
  0
VERTEX
  5
490
100
AcDbEntity
  8
0
100
AcDbVertex
100
AcDb2dVertex
 10
8.9423536957
 20
6.1138603584
 30
0.0
  0
VERTEX
  5
491
100
AcDbEntity
  8
0
100
AcDbVertex
100
AcDb2dVertex
 10
8.9501888198
 20
6.099176675
 30
0.0
  0
VERTEX
  5
492
100
AcDbEntity
  8
0
100
AcDbVertex
100
AcDb2dVertex
 10
8.9574252905
 20
6.0842628204
 30
0.0
  0
VERTEX
  5
493
100
AcDbEntity
  8
0
100
AcDbVertex
100
AcDb2dVertex
 10
8.9640314772
 20
6.0691840151
 30
0.0
  0
VERTEX
  5
494
100
AcDbEntity
  8
0
100
AcDbVertex
100
AcDb2dVertex
 10
8.9699784841
 20
6.0540062053
 30
0.0
  0
VERTEX
  5
495
100
AcDbEntity
  8
0
100
AcDbVertex
100
AcDb2dVertex
 10
8.9752402936
 20
6.0387957571
 30
0.0
  0
VERTEX
  5
496
100
AcDbEntity
  8
0
100
AcDbVertex
100
AcDb2dVertex
 10
8.9797939215
 20
6.0236191714
 30
0.0
  0
VERTEX
  5
497
100
AcDbEntity
  8
0
100
AcDbVertex
100
AcDb2dVertex
 10
8.9836194298
 20
6.0085428371
 30
0.0
  0
VERTEX
  5
498
100
AcDbEntity
  8
0
100
AcDbVertex
100
AcDb2dVertex
 10
8.9867001088
 20
5.9936326419
 30
0.0
  0
VERTEX
  5
499
100
AcDbEntity
  8
0
100
AcDbVertex
100
AcDb2dVertex
 10
8.9890224894
 20
5.9789538153
 30
0.0
  0
VERTEX
  5
49A
100
AcDbEntity
  8
0
100
AcDbVertex
100
AcDb2dVertex
 10
8.9905764081
 20
5.9645705166
 30
0.0
  0
VERTEX
  5
49B
100
AcDbEntity
  8
0
100
AcDbVertex
100
AcDb2dVertex
 10
8.9913550592
 20
5.9505456705
 30
0.0
  0
VERTEX
  5
49C
100
AcDbEntity
  8
0
100
AcDbVertex
100
AcDb2dVertex
 10
8.9913550592
 20
5.9369406001
 30
0.0
  0
VERTEX
  5
49D
100
AcDbEntity
  8
0
100
AcDbVertex
100
AcDb2dVertex
 10
8.9905764081
 20
5.9238147654
 30
0.0
  0
VERTEX
  5
49E
100
AcDbEntity
  8
0
100
AcDbVertex
100
AcDb2dVertex
 10
8.9890224894
 20
5.9112255831
 30
0.0
  0
VERTEX
  5
49F
100
AcDbEntity
  8
0
100
AcDbVertex
100
AcDb2dVertex
 10
8.9867001088
 20
5.899228105
 30
0.0
  0
VERTEX
  5
4A0
100
AcDbEntity
  8
0
100
AcDbVertex
100
AcDb2dVertex
 10
8.9836194298
 20
5.887874816
 30
0.0
  0
VERTEX
  5
4A1
100
AcDbEntity
  8
0
100
AcDbVertex
100
AcDb2dVertex
 10
8.9797939215
 20
5.8772153047
 30
0.0
  0
VERTEX
  5
4A2
100
AcDbEntity
  8
0
100
AcDbVertex
100
AcDb2dVertex
 10
8.9752402936
 20
5.8672962108
 30
0.0
  0
VERTEX
  5
4A3
100
AcDbEntity
  8
0
100
AcDbVertex
100
AcDb2dVertex
 10
8.9699784841
 20
5.8581609335
 30
0.0
  0
VERTEX
  5
4A4
100
AcDbEntity
  8
0
100
AcDbVertex
100
AcDb2dVertex
 10
8.9640314772
 20
5.8498493769
 30
0.0
  0
VERTEX
  5
4A5
100
AcDbEntity
  8
0
100
AcDbVertex
100
AcDb2dVertex
 10
8.9574252905
 20
5.8423979272
 30
0.0
  0
VERTEX
  5
4A6
100
AcDbEntity
  8
0
100
AcDbVertex
100
AcDb2dVertex
 10
8.9501888198
 20
5.835839124
 30
0.0
  0
VERTEX
  5
4A7
100
AcDbEntity
  8
0
100
AcDbVertex
100
AcDb2dVertex
 10
8.9423536957
 20
5.8302016822
 30
0.0
  0
VERTEX
  5
4A8
100
AcDbEntity
  8
0
100
AcDbVertex
100
AcDb2dVertex
 10
8.933954168
 20
5.8255102302
 30
0.0
  0
VERTEX
  5
4A9
100
AcDbEntity
  8
0
100
AcDbVertex
100
AcDb2dVertex
 10
8.9250270008
 20
5.8217853099
 30
0.0
  0
VERTEX
  5
4AA
100
AcDbEntity
  8
0
100
AcDbVertex
100
AcDb2dVertex
 10
8.9225551644
 20
5.820955133
 30
0.0
  0
SEQEND
  5
4AB
100
AcDbEntity
  8
0
  0
LINE
  5
4AC
100
AcDbEntity
  8
0
  6
CONTINUOUS
 62
       144
100
AcDbLine
 10
8.5627341974
 20
6.5448007267
 30
0.0
 11
9.0638334955
 21
6.2555222594
 31
0.0
  0
POLYLINE
  5
4AD
100
AcDbEntity
  8
0
  6
CONTINUOUS
 62
         7
100
AcDb2dPolyline
 66
         1
 10
0.0
 20
0.0
 30
0.0
 70
       128
  0
VERTEX
  5
4AE
100
AcDbEntity
  8
0
100
AcDbVertex
100
AcDb2dVertex
 10
9.6763368049
 20
7.3966179658
 30
0.0
  0
VERTEX
  5
4AF
100
AcDbEntity
  8
0
100
AcDbVertex
100
AcDb2dVertex
 10
9.6693662468
 20
7.4001974243
 30
0.0
  0
VERTEX
  5
4B0
100
AcDbEntity
  8
0
100
AcDbVertex
100
AcDb2dVertex
 10
9.6617112508
 20
7.4032758178
 30
0.0
  0
VERTEX
  5
4B1
100
AcDbEntity
  8
0
100
AcDbVertex
100
AcDb2dVertex
 10
9.6534793092
 20
7.4058099512
 30
0.0
  0
VERTEX
  5
4B2
100
AcDbEntity
  8
0
100
AcDbVertex
100
AcDb2dVertex
 10
9.644785948
 20
7.4077642346
 30
0.0
  0
VERTEX
  5
4B3
100
AcDbEntity
  8
0
100
AcDbVertex
100
AcDb2dVertex
 10
9.6357532339
 20
7.4091112466
 30
0.0
  0
VERTEX
  5
4B4
100
AcDbEntity
  8
0
100
AcDbVertex
100
AcDb2dVertex
 10
9.6265079464
 20
7.4098320703
 30
0.0
  0
VERTEX
  5
4B5
100
AcDbEntity
  8
0
100
AcDbVertex
100
AcDb2dVertex
 10
9.6171798449
 20
7.4099165757
 30
0.0
  0
VERTEX
  5
4B6
100
AcDbEntity
  8
0
100
AcDbVertex
100
AcDb2dVertex
 10
9.6078999157
 20
7.4093635935
 30
0.0
  0
VERTEX
  5
4B7
100
AcDbEntity
  8
0
100
AcDbVertex
100
AcDb2dVertex
 10
9.5987984352
 20
7.4081808955
 30
0.0
  0
VERTEX
  5
4B8
100
AcDbEntity
  8
0
100
AcDbVertex
100
AcDb2dVertex
 10
9.5900031325
 20
7.4063850579
 30
0.0
  0
VERTEX
  5
4B9
100
AcDbEntity
  8
0
100
AcDbVertex
100
AcDb2dVertex
 10
9.5816374913
 20
7.4040013043
 30
0.0
  0
VERTEX
  5
4BA
100
AcDbEntity
  8
0
100
AcDbVertex
100
AcDb2dVertex
 10
9.5738189313
 20
7.4010630887
 30
0.0
  0
VERTEX
  5
4BB
100
AcDbEntity
  8
0
100
AcDbVertex
100
AcDb2dVertex
 10
9.5666572209
 20
7.3976116646
 30
0.0
  0
VERTEX
  5
4BC
100
AcDbEntity
  8
0
100
AcDbVertex
100
AcDb2dVertex
 10
9.5602529145
 20
7.3936954907
 30
0.0
  0
VERTEX
  5
4BD
100
AcDbEntity
  8
0
100
AcDbVertex
100
AcDb2dVertex
 10
9.5546958813
 20
7.389369523
 30
0.0
  0
VERTEX
  5
4BE
100
AcDbEntity
  8
0
100
AcDbVertex
100
AcDb2dVertex
 10
9.5500641517
 20
7.3846945045
 30
0.0
  0
VERTEX
  5
4BF
100
AcDbEntity
  8
0
100
AcDbVertex
100
AcDb2dVertex
 10
9.5464227409
 20
7.3797360577
 30
0.0
  0
VERTEX
  5
4C0
100
AcDbEntity
  8
0
100
AcDbVertex
100
AcDb2dVertex
 10
9.543822767
 20
7.3745637859
 30
0.0
  0
VERTEX
  5
4C1
100
AcDbEntity
  8
0
100
AcDbVertex
100
AcDb2dVertex
 10
9.5423007125
 20
7.3692502939
 30
0.0
  0
VERTEX
  5
4C2
100
AcDbEntity
  8
0
100
AcDbVertex
100
AcDb2dVertex
 10
9.5418779509
 20
7.363870173
 30
0.0
  0
VERTEX
  5
4C3
100
AcDbEntity
  8
0
100
AcDbVertex
100
AcDb2dVertex
 10
9.5420363516
 20
7.3615535404
 30
0.0
  0
SEQEND
  5
4C4
100
AcDbEntity
  8
0
  0
POLYLINE
  5
4C5
100
AcDbEntity
  8
0
  6
CONTINUOUS
 62
         7
100
AcDb2dPolyline
 66
         1
 10
0.0
 20
0.0
 30
0.0
 70
       128
  0
VERTEX
  5
4C6
100
AcDbEntity
  8
0
100
AcDbVertex
100
AcDb2dVertex
 10
9.682479527
 20
7.3363869062
 30
0.0
  0
VERTEX
  5
4C7
100
AcDbEntity
  8
0
100
AcDbVertex
100
AcDb2dVertex
 10
9.6838575898
 20
7.3374279761
 30
0.0
  0
VERTEX
  5
4C8
100
AcDbEntity
  8
0
100
AcDbVertex
100
AcDb2dVertex
 10
9.6889609208
 20
7.3419363841
 30
0.0
  0
VERTEX
  5
4C9
100
AcDbEntity
  8
0
100
AcDbVertex
100
AcDb2dVertex
 10
9.6931047862
 20
7.3467615976
 30
0.0
  0
VERTEX
  5
4CA
100
AcDbEntity
  8
0
100
AcDbVertex
100
AcDb2dVertex
 10
9.6962309637
 20
7.351835869
 30
0.0
  0
VERTEX
  5
4CB
100
AcDbEntity
  8
0
100
AcDbVertex
100
AcDb2dVertex
 10
9.6982956045
 20
7.3570879726
 30
0.0
  0
VERTEX
  5
4CC
100
AcDbEntity
  8
0
100
AcDbVertex
100
AcDb2dVertex
 10
9.6992697156
 20
7.3624441832
 30
0.0
  0
VERTEX
  5
4CD
100
AcDbEntity
  8
0
100
AcDbVertex
100
AcDb2dVertex
 10
9.6991396368
 20
7.3678293181
 30
0.0
  0
VERTEX
  5
4CE
100
AcDbEntity
  8
0
100
AcDbVertex
100
AcDb2dVertex
 10
9.6979071734
 20
7.3731677682
 30
0.0
  0
VERTEX
  5
4CF
100
AcDbEntity
  8
0
100
AcDbVertex
100
AcDb2dVertex
 10
9.6955896217
 20
7.3783845901
 30
0.0
  0
VERTEX
  5
4D0
100
AcDbEntity
  8
0
100
AcDbVertex
100
AcDb2dVertex
 10
9.6922195397
 20
7.3834065676
 30
0.0
  0
VERTEX
  5
4D1
100
AcDbEntity
  8
0
100
AcDbVertex
100
AcDb2dVertex
 10
9.6878442276
 20
7.388163199
 30
0.0
  0
VERTEX
  5
4D2
100
AcDbEntity
  8
0
100
AcDbVertex
100
AcDb2dVertex
 10
9.6825250864
 20
7.392587697
 30
0.0
  0
VERTEX
  5
4D3
100
AcDbEntity
  8
0
100
AcDbVertex
100
AcDb2dVertex
 10
9.6763368049
 20
7.3966179658
 30
0.0
  0
SEQEND
  5
4D4
100
AcDbEntity
  8
0
  0
POLYLINE
  5
4D5
100
AcDbEntity
  8
0
  6
CONTINUOUS
 62
       144
100
AcDb2dPolyline
 66
         1
 10
0.0
 20
0.0
 30
0.0
 70
       128
  0
VERTEX
  5
4D6
100
AcDbEntity
  8
0
100
AcDbVertex
100
AcDb2dVertex
 10
9.5579628519
 20
7.3926211108
 30
0.0
  0
VERTEX
  5
4D7
100
AcDbEntity
  8
0
100
AcDbVertex
100
AcDb2dVertex
 10
9.5514020179
 20
7.3883859423
 30
0.0
  0
VERTEX
  5
4D8
100
AcDbEntity
  8
0
100
AcDbVertex
100
AcDb2dVertex
 10
9.5456465723
 20
7.3837119061
 30
0.0
  0
VERTEX
  5
4D9
100
AcDbEntity
  8
0
100
AcDbVertex
100
AcDb2dVertex
 10
9.5408338435
 20
7.3786952607
 30
0.0
  0
VERTEX
  5
4DA
100
AcDbEntity
  8
0
100
AcDbVertex
100
AcDb2dVertex
 10
9.5370243482
 20
7.3733990765
 30
0.0
  0
VERTEX
  5
4DB
100
AcDbEntity
  8
0
100
AcDbVertex
100
AcDb2dVertex
 10
9.5356949374
 20
7.3710286326
 30
0.0
  0
SEQEND
  5
4DC
100
AcDbEntity
  8
0
  0
POLYLINE
  5
4DD
100
AcDbEntity
  8
0
  6
CONTINUOUS
 62
       144
100
AcDb2dPolyline
 66
         1
 10
0.0
 20
0.0
 30
0.0
 70
       128
  0
VERTEX
  5
4DE
100
AcDbEntity
  8
0
100
AcDbVertex
100
AcDb2dVertex
 10
9.7091856296
 20
7.3558015846
 30
0.0
  0
VERTEX
  5
4DF
100
AcDbEntity
  8
0
100
AcDbVertex
100
AcDb2dVertex
 10
9.7091930998
 20
7.3564224865
 30
0.0
  0
VERTEX
  5
4E0
100
AcDbEntity
  8
0
100
AcDbVertex
100
AcDb2dVertex
 10
9.7086447708
 20
7.3621483654
 30
0.0
  0
VERTEX
  5
4E1
100
AcDbEntity
  8
0
100
AcDbVertex
100
AcDb2dVertex
 10
9.7069893804
 20
7.367802809
 30
0.0
  0
VERTEX
  5
4E2
100
AcDbEntity
  8
0
100
AcDbVertex
100
AcDb2dVertex
 10
9.7042477125
 20
7.3733146983
 30
0.0
  0
VERTEX
  5
4E3
100
AcDbEntity
  8
0
100
AcDbVertex
100
AcDb2dVertex
 10
9.7004542434
 20
7.3786147085
 30
0.0
  0
VERTEX
  5
4E4
100
AcDbEntity
  8
0
100
AcDbVertex
100
AcDb2dVertex
 10
9.6956567142
 20
7.3836362145
 30
0.0
  0
VERTEX
  5
4E5
100
AcDbEntity
  8
0
100
AcDbVertex
100
AcDb2dVertex
 10
9.689915432
 20
7.3883160539
 30
0.0
  0
VERTEX
  5
4E6
100
AcDbEntity
  8
0
100
AcDbVertex
100
AcDb2dVertex
 10
9.683302589
 20
7.3925953682
 30
0.0
  0
SEQEND
  5
4E7
100
AcDbEntity
  8
0
  0
LINE
  5
4E8
100
AcDbEntity
  8
0
  6
CONTINUOUS
 62
         7
100
AcDbLine
 10
9.5877703847
 20
7.3834953555
 30
0.0
 11
9.5757003147
 21
7.3575814275
 31
0.0
  0
LINE
  5
4E9
100
AcDbEntity
  8
0
  6
CONTINUOUS
 62
         7
100
AcDbLine
 10
9.5757003147
 20
7.3575814275
 30
0.0
 11
9.6085403843
 21
7.3385900913
 31
0.0
  0
LINE
  5
4EA
100
AcDbEntity
  8
0
  6
CONTINUOUS
 62
         7
100
AcDbLine
 10
9.6534505254
 20
7.3455126823
 30
0.0
 11
9.6085403843
 21
7.3385900913
 31
0.0
  0
LINE
  5
4EB
100
AcDbEntity
  8
0
  6
CONTINUOUS
 62
         7
100
AcDbLine
 10
9.6655205686
 20
7.3714265958
 30
0.0
 11
9.6534505254
 21
7.3455126823
 31
0.0
  0
LINE
  5
4EC
100
AcDbEntity
  8
0
  6
CONTINUOUS
 62
         7
100
AcDbLine
 10
9.6655205686
 20
7.3714265958
 30
0.0
 11
9.6326805242
 21
7.3904179474
 31
0.0
  0
LINE
  5
4ED
100
AcDbEntity
  8
0
  6
CONTINUOUS
 62
         7
100
AcDbLine
 10
9.5877703847
 20
7.3834953555
 30
0.0
 11
9.6326805242
 21
7.3904179474
 31
0.0
  0
LINE
  5
4EE
100
AcDbEntity
  8
0
  6
CONTINUOUS
 62
         7
100
AcDbLine
 10
9.6500548015
 20
7.3449892484
 30
0.0
 11
9.6491005472
 21
7.3455602631
 31
0.0
  0
POLYLINE
  5
4EF
100
AcDbEntity
  8
0
  6
CONTINUOUS
 62
         7
100
AcDb2dPolyline
 66
         1
 10
0.0
 20
0.0
 30
0.0
 70
       128
  0
VERTEX
  5
4F0
100
AcDbEntity
  8
0
100
AcDbVertex
100
AcDb2dVertex
 10
9.6102254415
 20
7.3515946405
 30
0.0
  0
VERTEX
  5
4F1
100
AcDbEntity
  8
0
100
AcDbVertex
100
AcDb2dVertex
 10
9.6052377009
 20
7.3506200395
 30
0.0
  0
VERTEX
  5
4F2
100
AcDbEntity
  8
0
100
AcDbVertex
100
AcDb2dVertex
 10
9.6005129681
 20
7.3492779284
 30
0.0
  0
VERTEX
  5
4F3
100
AcDbEntity
  8
0
100
AcDbVertex
100
AcDb2dVertex
 10
9.5961321304
 20
7.3475912997
 30
0.0
  0
VERTEX
  5
4F4
100
AcDbEntity
  8
0
100
AcDbVertex
100
AcDb2dVertex
 10
9.5943878593
 20
7.3467744794
 30
0.0
  0
SEQEND
  5
4F5
100
AcDbEntity
  8
0
  0
POLYLINE
  5
4F6
100
AcDbEntity
  8
0
  6
CONTINUOUS
 62
         7
100
AcDb2dPolyline
 66
         1
 10
0.0
 20
0.0
 30
0.0
 70
       128
  0
VERTEX
  5
4F7
100
AcDbEntity
  8
0
100
AcDbVertex
100
AcDb2dVertex
 10
9.6491005594
 20
7.3455602756
 30
0.0
  0
VERTEX
  5
4F8
100
AcDbEntity
  8
0
100
AcDbVertex
100
AcDb2dVertex
 10
9.6451445997
 20
7.3475665685
 30
0.0
  0
VERTEX
  5
4F9
100
AcDbEntity
  8
0
100
AcDbVertex
100
AcDb2dVertex
 10
9.6407688749
 20
7.3492576244
 30
0.0
  0
VERTEX
  5
4FA
100
AcDbEntity
  8
0
100
AcDbVertex
100
AcDb2dVertex
 10
9.6360482222
 20
7.3506044896
 30
0.0
  0
VERTEX
  5
4FB
100
AcDbEntity
  8
0
100
AcDbVertex
100
AcDb2dVertex
 10
9.6310634434
 20
7.3515841367
 30
0.0
  0
VERTEX
  5
4FC
100
AcDbEntity
  8
0
100
AcDbVertex
100
AcDb2dVertex
 10
9.6258997812
 20
7.3521797753
 30
0.0
  0
VERTEX
  5
4FD
100
AcDbEntity
  8
0
100
AcDbVertex
100
AcDb2dVertex
 10
9.6206456282
 20
7.3523812381
 30
0.0
  0
VERTEX
  5
4FE
100
AcDbEntity
  8
0
100
AcDbVertex
100
AcDb2dVertex
 10
9.6153908951
 20
7.352185085
 30
0.0
  0
VERTEX
  5
4FF
100
AcDbEntity
  8
0
100
AcDbVertex
100
AcDb2dVertex
 10
9.6102254415
 20
7.3515946405
 30
0.0
  0
SEQEND
  5
500
100
AcDbEntity
  8
0
  0
LINE
  5
501
100
AcDbEntity
  8
0
  6
CONTINUOUS
 62
         7
100
AcDbLine
 10
9.5877703847
 20
7.3506013236
 30
0.0
 11
9.5877703847
 21
7.3834953555
 31
0.0
  0
LINE
  5
502
100
AcDbEntity
  8
0
  6
CONTINUOUS
 62
         7
100
AcDbLine
 10
9.6500548015
 20
7.3449892484
 30
0.0
 11
9.6491005472
 21
7.3455602631
 31
0.0
  0
LINE
  5
503
100
AcDbEntity
  8
0
  6
CONTINUOUS
 62
         7
100
AcDbLine
 10
9.6491005472
 20
7.3455602631
 30
0.0
 11
9.6326805242
 21
7.355055944
 31
0.0
  0
LINE
  5
504
100
AcDbEntity
  8
0
  6
CONTINUOUS
 62
         7
100
AcDbLine
 10
9.6326805242
 20
7.355055944
 30
0.0
 11
9.6326805242
 21
7.3904179474
 31
0.0
  0
LINE
  5
505
100
AcDbEntity
  8
0
  6
CONTINUOUS
 62
         7
100
AcDbLine
 10
9.6102254505
 20
7.3515946399
 30
0.0
 11
9.6326805242
 21
7.355055944
 31
0.0
  0
LINE
  5
506
100
AcDbEntity
  8
0
  6
CONTINUOUS
 62
         7
100
AcDbLine
 10
9.5911399191
 20
7.3486527383
 30
0.0
 11
9.6102254505
 21
7.3515946399
 31
0.0
  0
POLYLINE
  5
507
100
AcDbEntity
  8
0
  6
CONTINUOUS
 62
         7
100
AcDb2dPolyline
 66
         1
 10
0.0
 20
0.0
 30
0.0
 70
       128
  0
VERTEX
  5
508
100
AcDbEntity
  8
0
100
AcDbVertex
100
AcDb2dVertex
 10
8.8869434108
 20
5.8451027156
 30
0.0
  0
VERTEX
  5
509
100
AcDbEntity
  8
0
100
AcDbVertex
100
AcDb2dVertex
 10
8.8924600563
 20
5.8528139303
 30
0.0
  0
VERTEX
  5
50A
100
AcDbEntity
  8
0
100
AcDbVertex
100
AcDb2dVertex
 10
8.897289521
 20
5.8613485435
 30
0.0
  0
VERTEX
  5
50B
100
AcDbEntity
  8
0
100
AcDbVertex
100
AcDb2dVertex
 10
8.9014072002
 20
5.870663036
 30
0.0
  0
VERTEX
  5
50C
100
AcDbEntity
  8
0
100
AcDbVertex
100
AcDb2dVertex
 10
8.904792093
 20
5.8807100115
 30
0.0
  0
VERTEX
  5
50D
100
AcDbEntity
  8
0
100
AcDbVertex
100
AcDb2dVertex
 10
8.9074269581
 20
5.891438227
 30
0.0
  0
VERTEX
  5
50E
100
AcDbEntity
  8
0
100
AcDbVertex
100
AcDb2dVertex
 10
8.9092983653
 20
5.9027930417
 30
0.0
  0
VERTEX
  5
50F
100
AcDbEntity
  8
0
100
AcDbVertex
100
AcDb2dVertex
 10
8.9103967994
 20
5.9147165367
 30
0.0
  0
VERTEX
  5
510
100
AcDbEntity
  8
0
100
AcDbVertex
100
AcDb2dVertex
 10
8.9107166342
 20
5.9271480392
 30
0.0
  0
VERTEX
  5
511
100
AcDbEntity
  8
0
100
AcDbVertex
100
AcDb2dVertex
 10
8.9102562623
 20
5.9400241223
 30
0.0
  0
VERTEX
  5
512
100
AcDbEntity
  8
0
100
AcDbVertex
100
AcDb2dVertex
 10
8.9090180042
 20
5.9532792261
 30
0.0
  0
VERTEX
  5
513
100
AcDbEntity
  8
0
100
AcDbVertex
100
AcDb2dVertex
 10
8.907008199
 20
5.9668457703
 30
0.0
  0
VERTEX
  5
514
100
AcDbEntity
  8
0
100
AcDbVertex
100
AcDb2dVertex
 10
8.9042370748
 20
5.9806546332
 30
0.0
  0
VERTEX
  5
515
100
AcDbEntity
  8
0
100
AcDbVertex
100
AcDb2dVertex
 10
8.9007187489
 20
5.9946354657
 30
0.0
  0
VERTEX
  5
516
100
AcDbEntity
  8
0
100
AcDbVertex
100
AcDb2dVertex
 10
8.8964711628
 20
6.0087169986
 30
0.0
  0
VERTEX
  5
517
100
AcDbEntity
  8
0
100
AcDbVertex
100
AcDb2dVertex
 10
8.8915159394
 20
6.0228274989
 30
0.0
  0
VERTEX
  5
518
100
AcDbEntity
  8
0
100
AcDbVertex
100
AcDb2dVertex
 10
8.8858783447
 20
6.0368950469
 30
0.0
  0
VERTEX
  5
519
100
AcDbEntity
  8
0
100
AcDbVertex
100
AcDb2dVertex
 10
8.8795871187
 20
6.0508479476
 30
0.0
  0
VERTEX
  5
51A
100
AcDbEntity
  8
0
100
AcDbVertex
100
AcDb2dVertex
 10
8.872674294
 20
6.0646151353
 30
0.0
  0
VERTEX
  5
51B
100
AcDbEntity
  8
0
100
AcDbVertex
100
AcDb2dVertex
 10
8.8651751054
 20
6.0781264201
 30
0.0
  0
VERTEX
  5
51C
100
AcDbEntity
  8
0
100
AcDbVertex
100
AcDb2dVertex
 10
8.8571277758
 20
6.0913129785
 30
0.0
  0
VERTEX
  5
51D
100
AcDbEntity
  8
0
100
AcDbVertex
100
AcDb2dVertex
 10
8.8485733021
 20
6.1041076039
 30
0.0
  0
VERTEX
  5
51E
100
AcDbEntity
  8
0
100
AcDbVertex
100
AcDb2dVertex
 10
8.8395552805
 20
6.1164450923
 30
0.0
  0
VERTEX
  5
51F
100
AcDbEntity
  8
0
100
AcDbVertex
100
AcDb2dVertex
 10
8.8301196729
 20
6.1282625712
 30
0.0
  0
VERTEX
  5
520
100
AcDbEntity
  8
0
100
AcDbVertex
100
AcDb2dVertex
 10
8.8203145415
 20
6.1394998406
 30
0.0
  0
VERTEX
  5
521
100
AcDbEntity
  8
0
100
AcDbVertex
100
AcDb2dVertex
 10
8.8101898734
 20
6.1500996235
 30
0.0
  0
VERTEX
  5
522
100
AcDbEntity
  8
0
100
AcDbVertex
100
AcDb2dVertex
 10
8.7997972438
 20
6.1600079102
 30
0.0
  0
VERTEX
  5
523
100
AcDbEntity
  8
0
100
AcDbVertex
100
AcDb2dVertex
 10
8.7891896182
 20
6.169174207
 30
0.0
  0
VERTEX
  5
524
100
AcDbEntity
  8
0
100
AcDbVertex
100
AcDb2dVertex
 10
8.7784210528
 20
6.177551807
 30
0.0
  0
VERTEX
  5
525
100
AcDbEntity
  8
0
100
AcDbVertex
100
AcDb2dVertex
 10
8.7675464169
 20
6.1850980243
 30
0.0
  0
VERTEX
  5
526
100
AcDbEntity
  8
0
100
AcDbVertex
100
AcDb2dVertex
 10
8.7566211295
 20
6.191774392
 30
0.0
  0
VERTEX
  5
527
100
AcDbEntity
  8
0
100
AcDbVertex
100
AcDb2dVertex
 10
8.7457008609
 20
6.1975469009
 30
0.0
  0
VERTEX
  5
528
100
AcDbEntity
  8
0
100
AcDbVertex
100
AcDb2dVertex
 10
8.734841259
 20
6.2023861358
 30
0.0
  0
VERTEX
  5
529
100
AcDbEntity
  8
0
100
AcDbVertex
100
AcDb2dVertex
 10
8.7240976596
 20
6.2062674348
 30
0.0
  0
VERTEX
  5
52A
100
AcDbEntity
  8
0
100
AcDbVertex
100
AcDb2dVertex
 10
8.713524815
 20
6.2091710162
 30
0.0
  0
VERTEX
  5
52B
100
AcDbEntity
  8
0
100
AcDbVertex
100
AcDb2dVertex
 10
8.7031765983
 20
6.2110820817
 30
0.0
  0
VERTEX
  5
52C
100
AcDbEntity
  8
0
100
AcDbVertex
100
AcDb2dVertex
 10
8.6931057416
 20
6.2119909003
 30
0.0
  0
VERTEX
  5
52D
100
AcDbEntity
  8
0
100
AcDbVertex
100
AcDb2dVertex
 10
8.6833635608
 20
6.21189284
 30
0.0
  0
VERTEX
  5
52E
100
AcDbEntity
  8
0
100
AcDbVertex
100
AcDb2dVertex
 10
8.6739997061
 20
6.210788392
 30
0.0
  0
VERTEX
  5
52F
100
AcDbEntity
  8
0
100
AcDbVertex
100
AcDb2dVertex
 10
8.6653798316
 20
6.20877745
 30
0.0
  0
SEQEND
  5
530
100
AcDbEntity
  8
0
  0
POLYLINE
  5
531
100
AcDbEntity
  8
0
  6
CONTINUOUS
 62
         7
100
AcDb2dPolyline
 66
         1
 10
0.0
 20
0.0
 30
0.0
 70
       128
  0
VERTEX
  5
532
100
AcDbEntity
  8
0
100
AcDbVertex
100
AcDb2dVertex
 10
8.8798126831
 20
5.8373286113
 30
0.0
  0
VERTEX
  5
533
100
AcDbEntity
  8
0
100
AcDbVertex
100
AcDb2dVertex
 10
8.8807676893
 20
5.8382542127
 30
0.0
  0
VERTEX
  5
534
100
AcDbEntity
  8
0
100
AcDbVertex
100
AcDb2dVertex
 10
8.8869434108
 20
5.8451027156
 30
0.0
  0
SEQEND
  5
535
100
AcDbEntity
  8
0
  0
POLYLINE
  5
536
100
AcDbEntity
  8
0
  6
CONTINUOUS
 62
         7
100
AcDb2dPolyline
 66
         1
 10
0.0
 20
0.0
 30
0.0
 70
       128
  0
VERTEX
  5
537
100
AcDbEntity
  8
0
100
AcDbVertex
100
AcDb2dVertex
 10
8.9069319089
 20
5.8189386724
 30
0.0
  0
VERTEX
  5
538
100
AcDbEntity
  8
0
100
AcDbVertex
100
AcDb2dVertex
 10
8.9003523233
 20
5.8115794987
 30
0.0
  0
VERTEX
  5
539
100
AcDbEntity
  8
0
100
AcDbVertex
100
AcDb2dVertex
 10
8.8931485594
 20
5.8051071713
 30
0.0
  0
VERTEX
  5
53A
100
AcDbEntity
  8
0
100
AcDbVertex
100
AcDb2dVertex
 10
8.8853520925
 20
5.7995500158
 30
0.0
  0
VERTEX
  5
53B
100
AcDbEntity
  8
0
100
AcDbVertex
100
AcDb2dVertex
 10
8.8769970294
 20
5.7949323538
 30
0.0
  0
VERTEX
  5
53C
100
AcDbEntity
  8
0
100
AcDbVertex
100
AcDb2dVertex
 10
8.8681199013
 20
5.7912743829
 30
0.0
  0
VERTEX
  5
53D
100
AcDbEntity
  8
0
100
AcDbVertex
100
AcDb2dVertex
 10
8.8587595208
 20
5.7885920496
 30
0.0
  0
VERTEX
  5
53E
100
AcDbEntity
  8
0
100
AcDbVertex
100
AcDb2dVertex
 10
8.853555846
 20
5.7875599253
 30
0.0
  0
SEQEND
  5
53F
100
AcDbEntity
  8
0
  0
POLYLINE
  5
540
100
AcDbEntity
  8
0
  6
CONTINUOUS
 62
         7
100
AcDb2dPolyline
 66
         1
 10
0.0
 20
0.0
 30
0.0
 70
       128
  0
VERTEX
  5
541
100
AcDbEntity
  8
0
100
AcDbVertex
100
AcDb2dVertex
 10
8.6091506829
 20
6.2109279738
 30
0.0
  0
VERTEX
  5
542
100
AcDbEntity
  8
0
100
AcDbVertex
100
AcDb2dVertex
 10
8.611490253
 20
6.2136486595
 30
0.0
  0
VERTEX
  5
543
100
AcDbEntity
  8
0
100
AcDbVertex
100
AcDb2dVertex
 10
8.6183857066
 20
6.2205682015
 30
0.0
  0
VERTEX
  5
544
100
AcDbEntity
  8
0
100
AcDbVertex
100
AcDb2dVertex
 10
8.625889925
 20
6.2265862255
 30
0.0
  0
VERTEX
  5
545
100
AcDbEntity
  8
0
100
AcDbVertex
100
AcDb2dVertex
 10
8.6339700976
 20
6.231676419
 30
0.0
  0
VERTEX
  5
546
100
AcDbEntity
  8
0
100
AcDbVertex
100
AcDb2dVertex
 10
8.6425909119
 20
6.2358165038
 30
0.0
  0
VERTEX
  5
547
100
AcDbEntity
  8
0
100
AcDbVertex
100
AcDb2dVertex
 10
8.6517146571
 20
6.2389883853
 30
0.0
  0
VERTEX
  5
548
100
AcDbEntity
  8
0
100
AcDbVertex
100
AcDb2dVertex
 10
8.6613014318
 20
6.2411782055
 30
0.0
  0
VERTEX
  5
549
100
AcDbEntity
  8
0
100
AcDbVertex
100
AcDb2dVertex
 10
8.6713093314
 20
6.2423763684
 30
0.0
  0
VERTEX
  5
54A
100
AcDbEntity
  8
0
100
AcDbVertex
100
AcDb2dVertex
 10
8.6816945783
 20
6.2425776605
 30
0.0
  0
VERTEX
  5
54B
100
AcDbEntity
  8
0
100
AcDbVertex
100
AcDb2dVertex
 10
8.6924117679
 20
6.2417811755
 30
0.0
  0
VERTEX
  5
54C
100
AcDbEntity
  8
0
100
AcDbVertex
100
AcDb2dVertex
 10
8.7034140373
 20
6.2399904121
 30
0.0
  0
VERTEX
  5
54D
100
AcDbEntity
  8
0
100
AcDbVertex
100
AcDb2dVertex
 10
8.7146532757
 20
6.2372131968
 30
0.0
  0
VERTEX
  5
54E
100
AcDbEntity
  8
0
100
AcDbVertex
100
AcDb2dVertex
 10
8.7260803339
 20
6.2334616719
 30
0.0
  0
VERTEX
  5
54F
100
AcDbEntity
  8
0
100
AcDbVertex
100
AcDb2dVertex
 10
8.7376452472
 20
6.2287522452
 30
0.0
  0
VERTEX
  5
550
100
AcDbEntity
  8
0
100
AcDbVertex
100
AcDb2dVertex
 10
8.7492974447
 20
6.223105507
 30
0.0
  0
VERTEX
  5
551
100
AcDbEntity
  8
0
100
AcDbVertex
100
AcDb2dVertex
 10
8.7609859735
 20
6.2165461523
 30
0.0
  0
VERTEX
  5
552
100
AcDbEntity
  8
0
100
AcDbVertex
100
AcDb2dVertex
 10
8.7726597233
 20
6.2091028596
 30
0.0
  0
VERTEX
  5
553
100
AcDbEntity
  8
0
100
AcDbVertex
100
AcDb2dVertex
 10
8.7842676495
 20
6.2008081763
 30
0.0
  0
VERTEX
  5
554
100
AcDbEntity
  8
0
100
AcDbVertex
100
AcDb2dVertex
 10
8.7957589886
 20
6.1916983795
 30
0.0
  0
VERTEX
  5
555
100
AcDbEntity
  8
0
100
AcDbVertex
100
AcDb2dVertex
 10
8.8070834943
 20
6.1818132955
 30
0.0
  0
VERTEX
  5
556
100
AcDbEntity
  8
0
100
AcDbVertex
100
AcDb2dVertex
 10
8.8181916494
 20
6.1711961576
 30
0.0
  0
VERTEX
  5
557
100
AcDbEntity
  8
0
100
AcDbVertex
100
AcDb2dVertex
 10
8.8290348829
 20
6.1598933807
 30
0.0
  0
VERTEX
  5
558
100
AcDbEntity
  8
0
100
AcDbVertex
100
AcDb2dVertex
 10
8.8395657744
 20
6.1479543979
 30
0.0
  0
VERTEX
  5
559
100
AcDbEntity
  8
0
100
AcDbVertex
100
AcDb2dVertex
 10
8.8497382777
 20
6.1354314118
 30
0.0
  0
VERTEX
  5
55A
100
AcDbEntity
  8
0
100
AcDbVertex
100
AcDb2dVertex
 10
8.8595079086
 20
6.1223791888
 30
0.0
  0
VERTEX
  5
55B
100
AcDbEntity
  8
0
100
AcDbVertex
100
AcDb2dVertex
 10
8.8688319461
 20
6.1088548008
 30
0.0
  0
VERTEX
  5
55C
100
AcDbEntity
  8
0
100
AcDbVertex
100
AcDb2dVertex
 10
8.8776696263
 20
6.0949173707
 30
0.0
  0
VERTEX
  5
55D
100
AcDbEntity
  8
0
100
AcDbVertex
100
AcDb2dVertex
 10
8.8859822988
 20
6.0806278629
 30
0.0
  0
VERTEX
  5
55E
100
AcDbEntity
  8
0
100
AcDbVertex
100
AcDb2dVertex
 10
8.893733614
 20
6.0660487576
 30
0.0
  0
VERTEX
  5
55F
100
AcDbEntity
  8
0
100
AcDbVertex
100
AcDb2dVertex
 10
8.9008896853
 20
6.0512438004
 30
0.0
  0
VERTEX
  5
560
100
AcDbEntity
  8
0
100
AcDbVertex
100
AcDb2dVertex
 10
8.9074192059
 20
6.036277725
 30
0.0
  0
VERTEX
  5
561
100
AcDbEntity
  8
0
100
AcDbVertex
100
AcDb2dVertex
 10
8.9132936304
 20
6.0212159913
 30
0.0
  0
VERTEX
  5
562
100
AcDbEntity
  8
0
100
AcDbVertex
100
AcDb2dVertex
 10
8.9184872779
 20
6.0061244414
 30
0.0
  0
VERTEX
  5
563
100
AcDbEntity
  8
0
100
AcDbVertex
100
AcDb2dVertex
 10
8.9229774236
 20
5.9910690971
 30
0.0
  0
VERTEX
  5
564
100
AcDbEntity
  8
0
100
AcDbVertex
100
AcDb2dVertex
 10
8.9267444538
 20
5.9761157413
 30
0.0
  0
VERTEX
  5
565
100
AcDbEntity
  8
0
100
AcDbVertex
100
AcDb2dVertex
 10
8.9297718788
 20
5.9613298199
 30
0.0
  0
VERTEX
  5
566
100
AcDbEntity
  8
0
100
AcDbVertex
100
AcDb2dVertex
 10
8.932046476
 20
5.9467759263
 30
0.0
  0
VERTEX
  5
567
100
AcDbEntity
  8
0
100
AcDbVertex
100
AcDb2dVertex
 10
8.9335582764
 20
5.9325177632
 30
0.0
  0
VERTEX
  5
568
100
AcDbEntity
  8
0
100
AcDbVertex
100
AcDb2dVertex
 10
8.9343006946
 20
5.918617634
 30
0.0
  0
VERTEX
  5
569
100
AcDbEntity
  8
0
100
AcDbVertex
100
AcDb2dVertex
 10
8.9342704638
 20
5.9051363307
 30
0.0
  0
VERTEX
  5
56A
100
AcDbEntity
  8
0
100
AcDbVertex
100
AcDb2dVertex
 10
8.9334677395
 20
5.892132804
 30
0.0
  0
VERTEX
  5
56B
100
AcDbEntity
  8
0
100
AcDbVertex
100
AcDb2dVertex
 10
8.931895996
 20
5.8796639393
 30
0.0
  0
VERTEX
  5
56C
100
AcDbEntity
  8
0
100
AcDbVertex
100
AcDb2dVertex
 10
8.9295621428
 20
5.8677842196
 30
0.0
  0
VERTEX
  5
56D
100
AcDbEntity
  8
0
100
AcDbVertex
100
AcDb2dVertex
 10
8.9264763691
 20
5.8565456058
 30
0.0
  0
VERTEX
  5
56E
100
AcDbEntity
  8
0
100
AcDbVertex
100
AcDb2dVertex
 10
8.9226521571
 20
5.8459972599
 30
0.0
  0
VERTEX
  5
56F
100
AcDbEntity
  8
0
100
AcDbVertex
100
AcDb2dVertex
 10
8.9181062555
 20
5.8361852903
 30
0.0
  0
VERTEX
  5
570
100
AcDbEntity
  8
0
100
AcDbVertex
100
AcDb2dVertex
 10
8.9128585113
 20
5.8271526094
 30
0.0
  0
VERTEX
  5
571
100
AcDbEntity
  8
0
100
AcDbVertex
100
AcDb2dVertex
 10
8.9069319089
 20
5.8189386724
 30
0.0
  0
SEQEND
  5
572
100
AcDbEntity
  8
0
  0
POLYLINE
  5
573
100
AcDbEntity
  8
0
  6
CONTINUOUS
 62
         7
100
AcDb2dPolyline
 66
         1
 10
0.0
 20
0.0
 30
0.0
 70
       128
  0
VERTEX
  5
574
100
AcDbEntity
  8
0
100
AcDbVertex
100
AcDb2dVertex
 10
8.1033931806
 20
5.8135115831
 30
0.0
  0
VERTEX
  5
575
100
AcDbEntity
  8
0
100
AcDbVertex
100
AcDb2dVertex
 10
8.1037833034
 20
5.8258998596
 30
0.0
  0
VERTEX
  5
576
100
AcDbEntity
  8
0
100
AcDbVertex
100
AcDb2dVertex
 10
8.1049516625
 20
5.8377745898
 30
0.0
  0
VERTEX
  5
577
100
AcDbEntity
  8
0
100
AcDbVertex
100
AcDb2dVertex
 10
8.1068923076
 20
5.8490752729
 30
0.0
  0
VERTEX
  5
578
100
AcDbEntity
  8
0
100
AcDbVertex
100
AcDb2dVertex
 10
8.1095953606
 20
5.8597442895
 30
0.0
  0
VERTEX
  5
579
100
AcDbEntity
  8
0
100
AcDbVertex
100
AcDb2dVertex
 10
8.1130470412
 20
5.8697273055
 30
0.0
  0
VERTEX
  5
57A
100
AcDbEntity
  8
0
100
AcDbVertex
100
AcDb2dVertex
 10
8.1172297581
 20
5.8789734448
 30
0.0
  0
VERTEX
  5
57B
100
AcDbEntity
  8
0
100
AcDbVertex
100
AcDb2dVertex
 10
8.1221221994
 20
5.8874355804
 30
0.0
  0
VERTEX
  5
57C
100
AcDbEntity
  8
0
100
AcDbVertex
100
AcDb2dVertex
 10
8.1276994361
 20
5.8950706048
 30
0.0
  0
VERTEX
  5
57D
100
AcDbEntity
  8
0
100
AcDbVertex
100
AcDb2dVertex
 10
8.1339330525
 20
5.9018395938
 30
0.0
  0
VERTEX
  5
57E
100
AcDbEntity
  8
0
100
AcDbVertex
100
AcDb2dVertex
 10
8.1407912621
 20
5.9077080843
 30
0.0
  0
VERTEX
  5
57F
100
AcDbEntity
  8
0
100
AcDbVertex
100
AcDb2dVertex
 10
8.1482391412
 20
5.9126461334
 30
0.0
  0
VERTEX
  5
580
100
AcDbEntity
  8
0
100
AcDbVertex
100
AcDb2dVertex
 10
8.1562387263
 20
5.9166286071
 30
0.0
  0
VERTEX
  5
581
100
AcDbEntity
  8
0
100
AcDbVertex
100
AcDb2dVertex
 10
8.1647492539
 20
5.9196351989
 30
0.0
  0
VERTEX
  5
582
100
AcDbEntity
  8
0
100
AcDbVertex
100
AcDb2dVertex
 10
8.1737273545
 20
5.9216505943
 30
0.0
  0
VERTEX
  5
583
100
AcDbEntity
  8
0
100
AcDbVertex
100
AcDb2dVertex
 10
8.1831272866
 20
5.9226645162
 30
0.0
  0
VERTEX
  5
584
100
AcDbEntity
  8
0
100
AcDbVertex
100
AcDb2dVertex
 10
8.1929011371
 20
5.922671803
 30
0.0
  0
VERTEX
  5
585
100
AcDbEntity
  8
0
100
AcDbVertex
100
AcDb2dVertex
 10
8.2029991134
 20
5.9216724124
 30
0.0
  0
VERTEX
  5
586
100
AcDbEntity
  8
0
100
AcDbVertex
100
AcDb2dVertex
 10
8.2133697505
 20
5.9196714445
 30
0.0
  0
VERTEX
  5
587
100
AcDbEntity
  8
0
100
AcDbVertex
100
AcDb2dVertex
 10
8.2239602059
 20
5.9166790905
 30
0.0
  0
VERTEX
  5
588
100
AcDbEntity
  8
0
100
AcDbVertex
100
AcDb2dVertex
 10
8.2347165096
 20
5.9127106014
 30
0.0
  0
VERTEX
  5
589
100
AcDbEntity
  8
0
100
AcDbVertex
100
AcDb2dVertex
 10
8.2455838527
 20
5.9077861957
 30
0.0
  0
VERTEX
  5
58A
100
AcDbEntity
  8
0
100
AcDbVertex
100
AcDb2dVertex
 10
8.2565068569
 20
5.9019309715
 30
0.0
  0
VERTEX
  5
58B
100
AcDbEntity
  8
0
100
AcDbVertex
100
AcDb2dVertex
 10
8.2674298619
 20
5.895174763
 30
0.0
  0
VERTEX
  5
58C
100
AcDbEntity
  8
0
100
AcDbVertex
100
AcDb2dVertex
 10
8.2782972043
 20
5.8875520019
 30
0.0
  0
VERTEX
  5
58D
100
AcDbEntity
  8
0
100
AcDbVertex
100
AcDb2dVertex
 10
8.2890535095
 20
5.8791015262
 30
0.0
  0
VERTEX
  5
58E
100
AcDbEntity
  8
0
100
AcDbVertex
100
AcDb2dVertex
 10
8.299643965
 20
5.8698664006
 30
0.0
  0
VERTEX
  5
58F
100
AcDbEntity
  8
0
100
AcDbVertex
100
AcDb2dVertex
 10
8.3100145988
 20
5.8598936877
 30
0.0
  0
VERTEX
  5
590
100
AcDbEntity
  8
0
100
AcDbVertex
100
AcDb2dVertex
 10
8.3201125751
 20
5.849234203
 30
0.0
  0
VERTEX
  5
591
100
AcDbEntity
  8
0
100
AcDbVertex
100
AcDb2dVertex
 10
8.3298864321
 20
5.8379422648
 30
0.0
  0
VERTEX
  5
592
100
AcDbEntity
  8
0
100
AcDbVertex
100
AcDb2dVertex
 10
8.3392863577
 20
5.8260754161
 30
0.0
  0
VERTEX
  5
593
100
AcDbEntity
  8
0
100
AcDbVertex
100
AcDb2dVertex
 10
8.3482644648
 20
5.8136941226
 30
0.0
  0
VERTEX
  5
594
100
AcDbEntity
  8
0
100
AcDbVertex
100
AcDb2dVertex
 10
8.3567749924
 20
5.8008614849
 30
0.0
  0
VERTEX
  5
595
100
AcDbEntity
  8
0
100
AcDbVertex
100
AcDb2dVertex
 10
8.3647745775
 20
5.7876428868
 30
0.0
  0
VERTEX
  5
596
100
AcDbEntity
  8
0
100
AcDbVertex
100
AcDb2dVertex
 10
8.3722224566
 20
5.7741056995
 30
0.0
  0
VERTEX
  5
597
100
AcDbEntity
  8
0
100
AcDbVertex
100
AcDb2dVertex
 10
8.3790806662
 20
5.7603188888
 30
0.0
  0
VERTEX
  5
598
100
AcDbEntity
  8
0
100
AcDbVertex
100
AcDb2dVertex
 10
8.3853142696
 20
5.746352727
 30
0.0
  0
VERTEX
  5
599
100
AcDbEntity
  8
0
100
AcDbVertex
100
AcDb2dVertex
 10
8.3908915064
 20
5.7322783621
 30
0.0
  0
VERTEX
  5
59A
100
AcDbEntity
  8
0
100
AcDbVertex
100
AcDb2dVertex
 10
8.3957839476
 20
5.718167534
 30
0.0
  0
VERTEX
  5
59B
100
AcDbEntity
  8
0
100
AcDbVertex
100
AcDb2dVertex
 10
8.3999666645
 20
5.7040921326
 30
0.0
  0
VERTEX
  5
59C
100
AcDbEntity
  8
0
100
AcDbVertex
100
AcDb2dVertex
 10
8.4034183452
 20
5.6901238909
 30
0.0
  0
VERTEX
  5
59D
100
AcDbEntity
  8
0
100
AcDbVertex
100
AcDb2dVertex
 10
8.4061213981
 20
5.6763339958
 30
0.0
  0
VERTEX
  5
59E
100
AcDbEntity
  8
0
100
AcDbVertex
100
AcDb2dVertex
 10
8.4080620562
 20
5.6627926841
 30
0.0
  0
VERTEX
  5
59F
100
AcDbEntity
  8
0
100
AcDbVertex
100
AcDb2dVertex
 10
8.4092304153
 20
5.6495689952
 30
0.0
  0
VERTEX
  5
5A0
100
AcDbEntity
  8
0
100
AcDbVertex
100
AcDb2dVertex
 10
8.4096205251
 20
5.6367303
 30
0.0
  0
VERTEX
  5
5A1
100
AcDbEntity
  8
0
100
AcDbVertex
100
AcDb2dVertex
 10
8.4092304153
 20
5.624342031
 30
0.0
  0
VERTEX
  5
5A2
100
AcDbEntity
  8
0
100
AcDbVertex
100
AcDb2dVertex
 10
8.4080620562
 20
5.6124673158
 30
0.0
  0
VERTEX
  5
5A3
100
AcDbEntity
  8
0
100
AcDbVertex
100
AcDb2dVertex
 10
8.4061213981
 20
5.6011666401
 30
0.0
  0
VERTEX
  5
5A4
100
AcDbEntity
  8
0
100
AcDbVertex
100
AcDb2dVertex
 10
8.4034183452
 20
5.5904976086
 30
0.0
  0
VERTEX
  5
5A5
100
AcDbEntity
  8
0
100
AcDbVertex
100
AcDb2dVertex
 10
8.3999666645
 20
5.5805146075
 30
0.0
  0
VERTEX
  5
5A6
100
AcDbEntity
  8
0
100
AcDbVertex
100
AcDb2dVertex
 10
8.3957839476
 20
5.5712684683
 30
0.0
  0
VERTEX
  5
5A7
100
AcDbEntity
  8
0
100
AcDbVertex
100
AcDb2dVertex
 10
8.3908915064
 20
5.5628063176
 30
0.0
  0
VERTEX
  5
5A8
100
AcDbEntity
  8
0
100
AcDbVertex
100
AcDb2dVertex
 10
8.3853142696
 20
5.5551713082
 30
0.0
  0
VERTEX
  5
5A9
100
AcDbEntity
  8
0
100
AcDbVertex
100
AcDb2dVertex
 10
8.3790806662
 20
5.5484022967
 30
0.0
  0
VERTEX
  5
5AA
100
AcDbEntity
  8
0
100
AcDbVertex
100
AcDb2dVertex
 10
8.3722224566
 20
5.5425338212
 30
0.0
  0
VERTEX
  5
5AB
100
AcDbEntity
  8
0
100
AcDbVertex
100
AcDb2dVertex
 10
8.3647745775
 20
5.5375957721
 30
0.0
  0
VERTEX
  5
5AC
100
AcDbEntity
  8
0
100
AcDbVertex
100
AcDb2dVertex
 10
8.3567749924
 20
5.5336132984
 30
0.0
  0
VERTEX
  5
5AD
100
AcDbEntity
  8
0
100
AcDbVertex
100
AcDb2dVertex
 10
8.3482644648
 20
5.5306066992
 30
0.0
  0
VERTEX
  5
5AE
100
AcDbEntity
  8
0
100
AcDbVertex
100
AcDb2dVertex
 10
8.3392863577
 20
5.5285913
 30
0.0
  0
VERTEX
  5
5AF
100
AcDbEntity
  8
0
100
AcDbVertex
100
AcDb2dVertex
 10
8.3298864321
 20
5.5275773893
 30
0.0
  0
VERTEX
  5
5B0
100
AcDbEntity
  8
0
100
AcDbVertex
100
AcDb2dVertex
 10
8.3201125751
 20
5.5275701063
 30
0.0
  0
VERTEX
  5
5B1
100
AcDbEntity
  8
0
100
AcDbVertex
100
AcDb2dVertex
 10
8.3100145988
 20
5.5285694968
 30
0.0
  0
VERTEX
  5
5B2
100
AcDbEntity
  8
0
100
AcDbVertex
100
AcDb2dVertex
 10
8.299643965
 20
5.5305704629
 30
0.0
  0
VERTEX
  5
5B3
100
AcDbEntity
  8
0
100
AcDbVertex
100
AcDb2dVertex
 10
8.2890535095
 20
5.5335628019
 30
0.0
  0
VERTEX
  5
5B4
100
AcDbEntity
  8
0
100
AcDbVertex
100
AcDb2dVertex
 10
8.2782972043
 20
5.5375313144
 30
0.0
  0
VERTEX
  5
5B5
100
AcDbEntity
  8
0
100
AcDbVertex
100
AcDb2dVertex
 10
8.2674298619
 20
5.5424557047
 30
0.0
  0
VERTEX
  5
5B6
100
AcDbEntity
  8
0
100
AcDbVertex
100
AcDb2dVertex
 10
8.2565068569
 20
5.5483109218
 30
0.0
  0
VERTEX
  5
5B7
100
AcDbEntity
  8
0
100
AcDbVertex
100
AcDb2dVertex
 10
8.2455838527
 20
5.5550671374
 30
0.0
  0
VERTEX
  5
5B8
100
AcDbEntity
  8
0
100
AcDbVertex
100
AcDb2dVertex
 10
8.2347165096
 20
5.5626899139
 30
0.0
  0
VERTEX
  5
5B9
100
AcDbEntity
  8
0
100
AcDbVertex
100
AcDb2dVertex
 10
8.2239602059
 20
5.5711403662
 30
0.0
  0
VERTEX
  5
5BA
100
AcDbEntity
  8
0
100
AcDbVertex
100
AcDb2dVertex
 10
8.2133697505
 20
5.5803755068
 30
0.0
  0
VERTEX
  5
5BB
100
AcDbEntity
  8
0
100
AcDbVertex
100
AcDb2dVertex
 10
8.2029991134
 20
5.5903482216
 30
0.0
  0
VERTEX
  5
5BC
100
AcDbEntity
  8
0
100
AcDbVertex
100
AcDb2dVertex
 10
8.1929011371
 20
5.6010077063
 30
0.0
  0
VERTEX
  5
5BD
100
AcDbEntity
  8
0
100
AcDbVertex
100
AcDb2dVertex
 10
8.1831272866
 20
5.6122996407
 30
0.0
  0
VERTEX
  5
5BE
100
AcDbEntity
  8
0
100
AcDbVertex
100
AcDb2dVertex
 10
8.1737273545
 20
5.6241664782
 30
0.0
  0
VERTEX
  5
5BF
100
AcDbEntity
  8
0
100
AcDbVertex
100
AcDb2dVertex
 10
8.1647492539
 20
5.6365477754
 30
0.0
  0
VERTEX
  5
5C0
100
AcDbEntity
  8
0
100
AcDbVertex
100
AcDb2dVertex
 10
8.1562387263
 20
5.6493804206
 30
0.0
  0
VERTEX
  5
5C1
100
AcDbEntity
  8
0
100
AcDbVertex
100
AcDb2dVertex
 10
8.1482391412
 20
5.6625990187
 30
0.0
  0
VERTEX
  5
5C2
100
AcDbEntity
  8
0
100
AcDbVertex
100
AcDb2dVertex
 10
8.1407912621
 20
5.676136206
 30
0.0
  0
VERTEX
  5
5C3
100
AcDbEntity
  8
0
100
AcDbVertex
100
AcDb2dVertex
 10
8.1339330525
 20
5.6899230017
 30
0.0
  0
VERTEX
  5
5C4
100
AcDbEntity
  8
0
100
AcDbVertex
100
AcDb2dVertex
 10
8.1276994361
 20
5.703889186
 30
0.0
  0
VERTEX
  5
5C5
100
AcDbEntity
  8
0
100
AcDbVertex
100
AcDb2dVertex
 10
8.1221221994
 20
5.7179635359
 30
0.0
  0
VERTEX
  5
5C6
100
AcDbEntity
  8
0
100
AcDbVertex
100
AcDb2dVertex
 10
8.1172297581
 20
5.732074379
 30
0.0
  0
VERTEX
  5
5C7
100
AcDbEntity
  8
0
100
AcDbVertex
100
AcDb2dVertex
 10
8.1130470412
 20
5.7461497804
 30
0.0
  0
VERTEX
  5
5C8
100
AcDbEntity
  8
0
100
AcDbVertex
100
AcDb2dVertex
 10
8.1095953606
 20
5.7601180071
 30
0.0
  0
VERTEX
  5
5C9
100
AcDbEntity
  8
0
100
AcDbVertex
100
AcDb2dVertex
 10
8.1068923076
 20
5.7739079172
 30
0.0
  0
VERTEX
  5
5CA
100
AcDbEntity
  8
0
100
AcDbVertex
100
AcDb2dVertex
 10
8.1049516625
 20
5.7874492215
 30
0.0
  0
VERTEX
  5
5CB
100
AcDbEntity
  8
0
100
AcDbVertex
100
AcDb2dVertex
 10
8.1037833034
 20
5.8006728954
 30
0.0
  0
VERTEX
  5
5CC
100
AcDbEntity
  8
0
100
AcDbVertex
100
AcDb2dVertex
 10
8.1033931806
 20
5.8135115831
 30
0.0
  0
SEQEND
  5
5CD
100
AcDbEntity
  8
0
  0
POLYLINE
  5
5CE
100
AcDbEntity
  8
0
  6
CONTINUOUS
 62
         7
100
AcDb2dPolyline
 66
         1
 10
0.0
 20
0.0
 30
0.0
 70
       128
  0
VERTEX
  5
5CF
100
AcDbEntity
  8
0
100
AcDbVertex
100
AcDb2dVertex
 10
8.2317644477
 20
5.9608642756
 30
0.0
  0
VERTEX
  5
5D0
100
AcDbEntity
  8
0
100
AcDbVertex
100
AcDb2dVertex
 10
8.2397552371
 20
5.9648416625
 30
0.0
  0
VERTEX
  5
5D1
100
AcDbEntity
  8
0
100
AcDbVertex
100
AcDb2dVertex
 10
8.2482657647
 20
5.9678482543
 30
0.0
  0
VERTEX
  5
5D2
100
AcDbEntity
  8
0
100
AcDbVertex
100
AcDb2dVertex
 10
8.2572438653
 20
5.9698636498
 30
0.0
  0
VERTEX
  5
5D3
100
AcDbEntity
  8
0
100
AcDbVertex
100
AcDb2dVertex
 10
8.2666437974
 20
5.9708775717
 30
0.0
  0
VERTEX
  5
5D4
100
AcDbEntity
  8
0
100
AcDbVertex
100
AcDb2dVertex
 10
8.2764176479
 20
5.9708848584
 30
0.0
  0
VERTEX
  5
5D5
100
AcDbEntity
  8
0
100
AcDbVertex
100
AcDb2dVertex
 10
8.2865156242
 20
5.9698854679
 30
0.0
  0
VERTEX
  5
5D6
100
AcDbEntity
  8
0
100
AcDbVertex
100
AcDb2dVertex
 10
8.2968862613
 20
5.9678845
 30
0.0
  0
VERTEX
  5
5D7
100
AcDbEntity
  8
0
100
AcDbVertex
100
AcDb2dVertex
 10
8.3074767167
 20
5.964892146
 30
0.0
  0
VERTEX
  5
5D8
100
AcDbEntity
  8
0
100
AcDbVertex
100
AcDb2dVertex
 10
8.3182330204
 20
5.9609236569
 30
0.0
  0
VERTEX
  5
5D9
100
AcDbEntity
  8
0
100
AcDbVertex
100
AcDb2dVertex
 10
8.3291003635
 20
5.9559992512
 30
0.0
  0
VERTEX
  5
5DA
100
AcDbEntity
  8
0
100
AcDbVertex
100
AcDb2dVertex
 10
8.3400233677
 20
5.950144027
 30
0.0
  0
VERTEX
  5
5DB
100
AcDbEntity
  8
0
100
AcDbVertex
100
AcDb2dVertex
 10
8.3509463727
 20
5.9433878185
 30
0.0
  0
VERTEX
  5
5DC
100
AcDbEntity
  8
0
100
AcDbVertex
100
AcDb2dVertex
 10
8.361813715
 20
5.9357650573
 30
0.0
  0
VERTEX
  5
5DD
100
AcDbEntity
  8
0
100
AcDbVertex
100
AcDb2dVertex
 10
8.3725700203
 20
5.9273145817
 30
0.0
  0
VERTEX
  5
5DE
100
AcDbEntity
  8
0
100
AcDbVertex
100
AcDb2dVertex
 10
8.3831604758
 20
5.918079456
 30
0.0
  0
VERTEX
  5
5DF
100
AcDbEntity
  8
0
100
AcDbVertex
100
AcDb2dVertex
 10
8.3935311096
 20
5.9081067432
 30
0.0
  0
VERTEX
  5
5E0
100
AcDbEntity
  8
0
100
AcDbVertex
100
AcDb2dVertex
 10
8.4036290859
 20
5.8974472584
 30
0.0
  0
VERTEX
  5
5E1
100
AcDbEntity
  8
0
100
AcDbVertex
100
AcDb2dVertex
 10
8.4134029429
 20
5.8861553203
 30
0.0
  0
VERTEX
  5
5E2
100
AcDbEntity
  8
0
100
AcDbVertex
100
AcDb2dVertex
 10
8.4228028685
 20
5.8742884716
 30
0.0
  0
VERTEX
  5
5E3
100
AcDbEntity
  8
0
100
AcDbVertex
100
AcDb2dVertex
 10
8.4317809756
 20
5.861907178
 30
0.0
  0
VERTEX
  5
5E4
100
AcDbEntity
  8
0
100
AcDbVertex
100
AcDb2dVertex
 10
8.4402915031
 20
5.8490745403
 30
0.0
  0
VERTEX
  5
5E5
100
AcDbEntity
  8
0
100
AcDbVertex
100
AcDb2dVertex
 10
8.4482910883
 20
5.8358559422
 30
0.0
  0
VERTEX
  5
5E6
100
AcDbEntity
  8
0
100
AcDbVertex
100
AcDb2dVertex
 10
8.4557389674
 20
5.8223187549
 30
0.0
  0
VERTEX
  5
5E7
100
AcDbEntity
  8
0
100
AcDbVertex
100
AcDb2dVertex
 10
8.462597177
 20
5.8085319443
 30
0.0
  0
VERTEX
  5
5E8
100
AcDbEntity
  8
0
100
AcDbVertex
100
AcDb2dVertex
 10
8.4688307804
 20
5.7945657824
 30
0.0
  0
VERTEX
  5
5E9
100
AcDbEntity
  8
0
100
AcDbVertex
100
AcDb2dVertex
 10
8.4744080171
 20
5.7804914175
 30
0.0
  0
VERTEX
  5
5EA
100
AcDbEntity
  8
0
100
AcDbVertex
100
AcDb2dVertex
 10
8.4793004584
 20
5.7663805895
 30
0.0
  0
VERTEX
  5
5EB
100
AcDbEntity
  8
0
100
AcDbVertex
100
AcDb2dVertex
 10
8.4834831753
 20
5.7523051881
 30
0.0
  0
VERTEX
  5
5EC
100
AcDbEntity
  8
0
100
AcDbVertex
100
AcDb2dVertex
 10
8.486934856
 20
5.7383369464
 30
0.0
  0
VERTEX
  5
5ED
100
AcDbEntity
  8
0
100
AcDbVertex
100
AcDb2dVertex
 10
8.4896379089
 20
5.7245470513
 30
0.0
  0
VERTEX
  5
5EE
100
AcDbEntity
  8
0
100
AcDbVertex
100
AcDb2dVertex
 10
8.491578567
 20
5.7110057395
 30
0.0
  0
VERTEX
  5
5EF
100
AcDbEntity
  8
0
100
AcDbVertex
100
AcDb2dVertex
 10
8.4927469261
 20
5.6977820506
 30
0.0
  0
VERTEX
  5
5F0
100
AcDbEntity
  8
0
100
AcDbVertex
100
AcDb2dVertex
 10
8.4931370359
 20
5.6849433554
 30
0.0
  0
VERTEX
  5
5F1
100
AcDbEntity
  8
0
100
AcDbVertex
100
AcDb2dVertex
 10
8.4927469261
 20
5.6725550864
 30
0.0
  0
VERTEX
  5
5F2
100
AcDbEntity
  8
0
100
AcDbVertex
100
AcDb2dVertex
 10
8.491578567
 20
5.6606803712
 30
0.0
  0
VERTEX
  5
5F3
100
AcDbEntity
  8
0
100
AcDbVertex
100
AcDb2dVertex
 10
8.4896379089
 20
5.6493796956
 30
0.0
  0
VERTEX
  5
5F4
100
AcDbEntity
  8
0
100
AcDbVertex
100
AcDb2dVertex
 10
8.486934856
 20
5.638710664
 30
0.0
  0
VERTEX
  5
5F5
100
AcDbEntity
  8
0
100
AcDbVertex
100
AcDb2dVertex
 10
8.4834831753
 20
5.6287276629
 30
0.0
  0
VERTEX
  5
5F6
100
AcDbEntity
  8
0
100
AcDbVertex
100
AcDb2dVertex
 10
8.4793004584
 20
5.6194815237
 30
0.0
  0
VERTEX
  5
5F7
100
AcDbEntity
  8
0
100
AcDbVertex
100
AcDb2dVertex
 10
8.4744080171
 20
5.6110193731
 30
0.0
  0
VERTEX
  5
5F8
100
AcDbEntity
  8
0
100
AcDbVertex
100
AcDb2dVertex
 10
8.4688307804
 20
5.6033843637
 30
0.0
  0
VERTEX
  5
5F9
100
AcDbEntity
  8
0
100
AcDbVertex
100
AcDb2dVertex
 10
8.462597177
 20
5.5966153522
 30
0.0
  0
VERTEX
  5
5FA
100
AcDbEntity
  8
0
100
AcDbVertex
100
AcDb2dVertex
 10
8.4557389674
 20
5.5907468767
 30
0.0
  0
VERTEX
  5
5FB
100
AcDbEntity
  8
0
100
AcDbVertex
100
AcDb2dVertex
 10
8.4482910883
 20
5.5858088276
 30
0.0
  0
VERTEX
  5
5FC
100
AcDbEntity
  8
0
100
AcDbVertex
100
AcDb2dVertex
 10
8.4482822861
 20
5.5858037295
 30
0.0
  0
SEQEND
  5
5FD
100
AcDbEntity
  8
0
  0
POLYLINE
  5
5FE
100
AcDbEntity
  8
0
  6
CONTINUOUS
 62
         7
100
AcDb2dPolyline
 66
         1
 10
0.0
 20
0.0
 30
0.0
 70
       128
  0
VERTEX
  5
5FF
100
AcDbEntity
  8
0
100
AcDbVertex
100
AcDb2dVertex
 10
9.9546766489
 20
6.8732716478
 30
0.0
  0
VERTEX
  5
600
100
AcDbEntity
  8
0
100
AcDbVertex
100
AcDb2dVertex
 10
9.9560094302
 20
6.8722487332
 30
0.0
  0
VERTEX
  5
601
100
AcDbEntity
  8
0
100
AcDbVertex
100
AcDb2dVertex
 10
9.9674955192
 20
6.8629219907
 30
0.0
  0
VERTEX
  5
602
100
AcDbEntity
  8
0
100
AcDbVertex
100
AcDb2dVertex
 10
9.9788000158
 20
6.8528201766
 30
0.0
  0
VERTEX
  5
603
100
AcDbEntity
  8
0
100
AcDbVertex
100
AcDb2dVertex
 10
9.9898724435
 20
6.8419884067
 30
0.0
  0
VERTEX
  5
604
100
AcDbEntity
  8
0
100
AcDbVertex
100
AcDb2dVertex
 10
10.0006633369
 20
6.8304750717
 30
0.0
  0
VERTEX
  5
605
100
AcDbEntity
  8
0
100
AcDbVertex
100
AcDb2dVertex
 10
10.0111245109
 20
6.8183315732
 30
0.0
  0
VERTEX
  5
606
100
AcDbEntity
  8
0
100
AcDbVertex
100
AcDb2dVertex
 10
10.0212092385
 20
6.8056121609
 30
0.0
  0
VERTEX
  5
607
100
AcDbEntity
  8
0
100
AcDbVertex
100
AcDb2dVertex
 10
10.0308724782
 20
6.792373637
 30
0.0
  0
VERTEX
  5
608
100
AcDbEntity
  8
0
100
AcDbVertex
100
AcDb2dVertex
 10
10.0400710746
 20
6.7786751354
 30
0.0
  0
VERTEX
  5
609
100
AcDbEntity
  8
0
100
AcDbVertex
100
AcDb2dVertex
 10
10.0487639528
 20
6.7645778148
 30
0.0
  0
VERTEX
  5
60A
100
AcDbEntity
  8
0
100
AcDbVertex
100
AcDb2dVertex
 10
10.0569122744
 20
6.7501446644
 30
0.0
  0
VERTEX
  5
60B
100
AcDbEntity
  8
0
100
AcDbVertex
100
AcDb2dVertex
 10
10.0644796508
 20
6.7354401329
 30
0.0
  0
VERTEX
  5
60C
100
AcDbEntity
  8
0
100
AcDbVertex
100
AcDb2dVertex
 10
10.0714322734
 20
6.7205299044
 30
0.0
  0
VERTEX
  5
60D
100
AcDbEntity
  8
0
100
AcDbVertex
100
AcDb2dVertex
 10
10.0777391204
 20
6.7054805538
 30
0.0
  0
VERTEX
  5
60E
100
AcDbEntity
  8
0
100
AcDbVertex
100
AcDb2dVertex
 10
10.0833719964
 20
6.6903593152
 30
0.0
  0
VERTEX
  5
60F
100
AcDbEntity
  8
0
100
AcDbVertex
100
AcDb2dVertex
 10
10.0883057522
 20
6.6752337146
 30
0.0
  0
VERTEX
  5
610
100
AcDbEntity
  8
0
100
AcDbVertex
100
AcDb2dVertex
 10
10.09251835
 20
6.6601712936
 30
0.0
  0
VERTEX
  5
611
100
AcDbEntity
  8
0
100
AcDbVertex
100
AcDb2dVertex
 10
10.0959909926
 20
6.6452393393
 30
0.0
  0
VERTEX
  5
612
100
AcDbEntity
  8
0
100
AcDbVertex
100
AcDb2dVertex
 10
10.0987081368
 20
6.6305045479
 30
0.0
  0
VERTEX
  5
613
100
AcDbEntity
  8
0
100
AcDbVertex
100
AcDb2dVertex
 10
10.1006576749
 20
6.6160327253
 30
0.0
  0
VERTEX
  5
614
100
AcDbEntity
  8
0
100
AcDbVertex
100
AcDb2dVertex
 10
10.1018308953
 20
6.6018884801
 30
0.0
  0
VERTEX
  5
615
100
AcDbEntity
  8
0
100
AcDbVertex
100
AcDb2dVertex
 10
10.1022225478
 20
6.5881350066
 30
0.0
  0
VERTEX
  5
616
100
AcDbEntity
  8
0
100
AcDbVertex
100
AcDb2dVertex
 10
10.1018308953
 20
6.5748337553
 30
0.0
  0
VERTEX
  5
617
100
AcDbEntity
  8
0
100
AcDbVertex
100
AcDb2dVertex
 10
10.1006576749
 20
6.5620440815
 30
0.0
  0
VERTEX
  5
618
100
AcDbEntity
  8
0
100
AcDbVertex
100
AcDb2dVertex
 10
10.0987081368
 20
6.5498231327
 30
0.0
  0
VERTEX
  5
619
100
AcDbEntity
  8
0
100
AcDbVertex
100
AcDb2dVertex
 10
10.0959909926
 20
6.5382254893
 30
0.0
  0
VERTEX
  5
61A
100
AcDbEntity
  8
0
100
AcDbVertex
100
AcDb2dVertex
 10
10.09251835
 20
6.5273029628
 30
0.0
  0
VERTEX
  5
61B
100
AcDbEntity
  8
0
100
AcDbVertex
100
AcDb2dVertex
 10
10.0883057522
 20
6.5171043335
 30
0.0
  0
VERTEX
  5
61C
100
AcDbEntity
  8
0
100
AcDbVertex
100
AcDb2dVertex
 10
10.0833719964
 20
6.5076750962
 30
0.0
  0
VERTEX
  5
61D
100
AcDbEntity
  8
0
100
AcDbVertex
100
AcDb2dVertex
 10
10.0777391204
 20
6.4990574378
 30
0.0
  0
VERTEX
  5
61E
100
AcDbEntity
  8
0
100
AcDbVertex
100
AcDb2dVertex
 10
10.0714322734
 20
6.4912898328
 30
0.0
  0
VERTEX
  5
61F
100
AcDbEntity
  8
0
100
AcDbVertex
100
AcDb2dVertex
 10
10.0644796508
 20
6.4844069314
 30
0.0
  0
VERTEX
  5
620
100
AcDbEntity
  8
0
100
AcDbVertex
100
AcDb2dVertex
 10
10.0569122744
 20
6.4784395067
 30
0.0
  0
VERTEX
  5
621
100
AcDbEntity
  8
0
100
AcDbVertex
100
AcDb2dVertex
 10
10.0508434627
 20
6.4745750897
 30
0.0
  0
SEQEND
  5
622
100
AcDbEntity
  8
0
  0
POLYLINE
  5
623
100
AcDbEntity
  8
0
  6
CONTINUOUS
 62
         7
100
AcDb2dPolyline
 66
         1
 10
0.0
 20
0.0
 30
0.0
 70
       128
  0
VERTEX
  5
624
100
AcDbEntity
  8
0
100
AcDbVertex
100
AcDb2dVertex
 10
8.9525267249
 20
6.9787713008
 30
0.0
  0
VERTEX
  5
625
100
AcDbEntity
  8
0
100
AcDbVertex
100
AcDb2dVertex
 10
8.9455561408
 20
6.9823507443
 30
0.0
  0
VERTEX
  5
626
100
AcDbEntity
  8
0
100
AcDbVertex
100
AcDb2dVertex
 10
8.9379011708
 20
6.9854291528
 30
0.0
  0
VERTEX
  5
627
100
AcDbEntity
  8
0
100
AcDbVertex
100
AcDb2dVertex
 10
8.9296692551
 20
6.9879633011
 30
0.0
  0
VERTEX
  5
628
100
AcDbEntity
  8
0
100
AcDbVertex
100
AcDb2dVertex
 10
8.9209758421
 20
6.9899175546
 30
0.0
  0
VERTEX
  5
629
100
AcDbEntity
  8
0
100
AcDbVertex
100
AcDb2dVertex
 10
8.9119431539
 20
6.9912645815
 30
0.0
  0
VERTEX
  5
62A
100
AcDbEntity
  8
0
100
AcDbVertex
100
AcDb2dVertex
 10
8.9026978404
 20
6.9919853903
 30
0.0
  0
VERTEX
  5
62B
100
AcDbEntity
  8
0
100
AcDbVertex
100
AcDb2dVertex
 10
8.8933697649
 20
6.9920699107
 30
0.0
  0
VERTEX
  5
62C
100
AcDbEntity
  8
0
100
AcDbVertex
100
AcDb2dVertex
 10
8.8840898357
 20
6.9915169285
 30
0.0
  0
VERTEX
  5
62D
100
AcDbEntity
  8
0
100
AcDbVertex
100
AcDb2dVertex
 10
8.8749883293
 20
6.9903342155
 30
0.0
  0
VERTEX
  5
62E
100
AcDbEntity
  8
0
100
AcDbVertex
100
AcDb2dVertex
 10
8.8661930526
 20
6.9885383928
 30
0.0
  0
VERTEX
  5
62F
100
AcDbEntity
  8
0
100
AcDbVertex
100
AcDb2dVertex
 10
8.8578273854
 20
6.9861546243
 30
0.0
  0
VERTEX
  5
630
100
AcDbEntity
  8
0
100
AcDbVertex
100
AcDb2dVertex
 10
8.8500087995
 20
6.9832163937
 30
0.0
  0
VERTEX
  5
631
100
AcDbEntity
  8
0
100
AcDbVertex
100
AcDb2dVertex
 10
8.8428470891
 20
6.9797649696
 30
0.0
  0
VERTEX
  5
632
100
AcDbEntity
  8
0
100
AcDbVertex
100
AcDb2dVertex
 10
8.8364428604
 20
6.9758488406
 30
0.0
  0
VERTEX
  5
633
100
AcDbEntity
  8
0
100
AcDbVertex
100
AcDb2dVertex
 10
8.8308857494
 20
6.971522828
 30
0.0
  0
VERTEX
  5
634
100
AcDbEntity
  8
0
100
AcDbVertex
100
AcDb2dVertex
 10
8.8262540458
 20
6.9668478245
 30
0.0
  0
VERTEX
  5
635
100
AcDbEntity
  8
0
100
AcDbVertex
100
AcDb2dVertex
 10
8.822612609
 20
6.9618893627
 30
0.0
  0
VERTEX
  5
636
100
AcDbEntity
  8
0
100
AcDbVertex
100
AcDb2dVertex
 10
8.820012687
 20
6.9567171209
 30
0.0
  0
VERTEX
  5
637
100
AcDbEntity
  8
0
100
AcDbVertex
100
AcDb2dVertex
 10
8.8184906325
 20
6.9514036288
 30
0.0
  0
VERTEX
  5
638
100
AcDbEntity
  8
0
100
AcDbVertex
100
AcDb2dVertex
 10
8.818067819
 20
6.946023478
 30
0.0
  0
VERTEX
  5
639
100
AcDbEntity
  8
0
100
AcDbVertex
100
AcDb2dVertex
 10
8.8187503557
 20
6.9406522889
 30
0.0
  0
VERTEX
  5
63A
100
AcDbEntity
  8
0
100
AcDbVertex
100
AcDb2dVertex
 10
8.8205284972
 20
6.935365375
 30
0.0
  0
VERTEX
  5
63B
100
AcDbEntity
  8
0
100
AcDbVertex
100
AcDb2dVertex
 10
8.8233772385
 20
6.930236921
 30
0.0
  0
VERTEX
  5
63C
100
AcDbEntity
  8
0
100
AcDbVertex
100
AcDb2dVertex
 10
8.8272568508
 20
6.9253390745
 30
0.0
  0
VERTEX
  5
63D
100
AcDbEntity
  8
0
100
AcDbVertex
100
AcDb2dVertex
 10
8.8321126013
 20
6.9207404309
 30
0.0
  0
VERTEX
  5
63E
100
AcDbEntity
  8
0
100
AcDbVertex
100
AcDb2dVertex
 10
8.8349313354
 20
6.9185402618
 30
0.0
  0
SEQEND
  5
63F
100
AcDbEntity
  8
0
  0
POLYLINE
  5
640
100
AcDbEntity
  8
0
  6
CONTINUOUS
 62
         7
100
AcDb2dPolyline
 66
         1
 10
0.0
 20
0.0
 30
0.0
 70
       128
  0
VERTEX
  5
641
100
AcDbEntity
  8
0
100
AcDbVertex
100
AcDb2dVertex
 10
8.958669473
 20
6.9185402561
 30
0.0
  0
VERTEX
  5
642
100
AcDbEntity
  8
0
100
AcDbVertex
100
AcDb2dVertex
 10
8.9600474838
 20
6.9195812961
 30
0.0
  0
VERTEX
  5
643
100
AcDbEntity
  8
0
100
AcDbVertex
100
AcDb2dVertex
 10
8.9651508667
 20
6.924089734
 30
0.0
  0
VERTEX
  5
644
100
AcDbEntity
  8
0
100
AcDbVertex
100
AcDb2dVertex
 10
8.9692946803
 20
6.9289149176
 30
0.0
  0
VERTEX
  5
645
100
AcDbEntity
  8
0
100
AcDbVertex
100
AcDb2dVertex
 10
8.9724208578
 20
6.933989189
 30
0.0
  0
VERTEX
  5
646
100
AcDbEntity
  8
0
100
AcDbVertex
100
AcDb2dVertex
 10
8.9744854726
 20
6.9392412776
 30
0.0
  0
VERTEX
  5
647
100
AcDbEntity
  8
0
100
AcDbVertex
100
AcDb2dVertex
 10
8.9754595837
 20
6.9445974882
 30
0.0
  0
VERTEX
  5
648
100
AcDbEntity
  8
0
100
AcDbVertex
100
AcDb2dVertex
 10
8.975329505
 20
6.9499826231
 30
0.0
  0
VERTEX
  5
649
100
AcDbEntity
  8
0
100
AcDbVertex
100
AcDb2dVertex
 10
8.9740971193
 20
6.9553211181
 30
0.0
  0
VERTEX
  5
64A
100
AcDbEntity
  8
0
100
AcDbVertex
100
AcDb2dVertex
 10
8.9717795677
 20
6.96053794
 30
0.0
  0
VERTEX
  5
64B
100
AcDbEntity
  8
0
100
AcDbVertex
100
AcDb2dVertex
 10
8.9684094597
 20
6.9655599025
 30
0.0
  0
VERTEX
  5
64C
100
AcDbEntity
  8
0
100
AcDbVertex
100
AcDb2dVertex
 10
8.9640341736
 20
6.9703165489
 30
0.0
  0
VERTEX
  5
64D
100
AcDbEntity
  8
0
100
AcDbVertex
100
AcDb2dVertex
 10
8.9587149804
 20
6.9747410169
 30
0.0
  0
VERTEX
  5
64E
100
AcDbEntity
  8
0
100
AcDbVertex
100
AcDb2dVertex
 10
8.9525267249
 20
6.9787713008
 30
0.0
  0
SEQEND
  5
64F
100
AcDbEntity
  8
0
  0
POLYLINE
  5
650
100
AcDbEntity
  8
0
  6
CONTINUOUS
 62
       144
100
AcDb2dPolyline
 66
         1
 10
0.0
 20
0.0
 30
0.0
 70
       128
  0
VERTEX
  5
651
100
AcDbEntity
  8
0
100
AcDbVertex
100
AcDb2dVertex
 10
8.8341527719
 20
6.9747744457
 30
0.0
  0
VERTEX
  5
652
100
AcDbEntity
  8
0
100
AcDbVertex
100
AcDb2dVertex
 10
8.8275918861
 20
6.9705392473
 30
0.0
  0
VERTEX
  5
653
100
AcDbEntity
  8
0
100
AcDbVertex
100
AcDb2dVertex
 10
8.8218365182
 20
6.965865256
 30
0.0
  0
VERTEX
  5
654
100
AcDbEntity
  8
0
100
AcDbVertex
100
AcDb2dVertex
 10
8.8170237894
 20
6.9608486106
 30
0.0
  0
VERTEX
  5
655
100
AcDbEntity
  8
0
100
AcDbVertex
100
AcDb2dVertex
 10
8.8132142682
 20
6.9555524114
 30
0.0
  0
VERTEX
  5
656
100
AcDbEntity
  8
0
100
AcDbVertex
100
AcDb2dVertex
 10
8.8104559358
 20
6.9500433135
 30
0.0
  0
VERTEX
  5
657
100
AcDbEntity
  8
0
100
AcDbVertex
100
AcDb2dVertex
 10
8.808783398
 20
6.9443905444
 30
0.0
  0
VERTEX
  5
658
100
AcDbEntity
  8
0
100
AcDbVertex
100
AcDb2dVertex
 10
8.8082176752
 20
6.9386651875
 30
0.0
  0
VERTEX
  5
659
100
AcDbEntity
  8
0
100
AcDbVertex
100
AcDb2dVertex
 10
8.8082251551
 20
6.9379548914
 30
0.0
  0
SEQEND
  5
65A
100
AcDbEntity
  8
0
  0
POLYLINE
  5
65B
100
AcDbEntity
  8
0
  6
CONTINUOUS
 62
       144
100
AcDb2dPolyline
 66
         1
 10
0.0
 20
0.0
 30
0.0
 70
       128
  0
VERTEX
  5
65C
100
AcDbEntity
  8
0
100
AcDbVertex
100
AcDb2dVertex
 10
8.9853754978
 20
6.9379548896
 30
0.0
  0
VERTEX
  5
65D
100
AcDbEntity
  8
0
100
AcDbVertex
100
AcDb2dVertex
 10
8.9853830198
 20
6.9385758215
 30
0.0
  0
VERTEX
  5
65E
100
AcDbEntity
  8
0
100
AcDbVertex
100
AcDb2dVertex
 10
8.9848346648
 20
6.9443016853
 30
0.0
  0
VERTEX
  5
65F
100
AcDbEntity
  8
0
100
AcDbVertex
100
AcDb2dVertex
 10
8.9831792486
 20
6.949956114
 30
0.0
  0
VERTEX
  5
660
100
AcDbEntity
  8
0
100
AcDbVertex
100
AcDb2dVertex
 10
8.9804376325
 20
6.9554680332
 30
0.0
  0
VERTEX
  5
661
100
AcDbEntity
  8
0
100
AcDbVertex
100
AcDb2dVertex
 10
8.9766441634
 20
6.9607680435
 30
0.0
  0
VERTEX
  5
662
100
AcDbEntity
  8
0
100
AcDbVertex
100
AcDb2dVertex
 10
8.9718466083
 20
6.9657895345
 30
0.0
  0
VERTEX
  5
663
100
AcDbEntity
  8
0
100
AcDbVertex
100
AcDb2dVertex
 10
8.966105352
 20
6.9704693888
 30
0.0
  0
VERTEX
  5
664
100
AcDbEntity
  8
0
100
AcDbVertex
100
AcDb2dVertex
 10
8.9594925349
 20
6.9747487181
 30
0.0
  0
SEQEND
  5
665
100
AcDbEntity
  8
0
  0
LINE
  5
666
100
AcDbEntity
  8
0
  6
CONTINUOUS
 62
         7
100
AcDbLine
 10
8.8639602788
 20
6.9656486755
 30
0.0
 11
8.8518901829
 21
6.9397347325
 31
0.0
  0
LINE
  5
667
100
AcDbEntity
  8
0
  6
CONTINUOUS
 62
         7
100
AcDbLine
 10
8.8518901829
 20
6.9397347325
 30
0.0
 11
8.8847302524
 21
6.9207433963
 31
0.0
  0
LINE
  5
668
100
AcDbEntity
  8
0
  6
CONTINUOUS
 62
         7
100
AcDbLine
 10
8.9296404195
 20
6.9276660023
 30
0.0
 11
8.8847302524
 21
6.9207433963
 31
0.0
  0
LINE
  5
669
100
AcDbEntity
  8
0
  6
CONTINUOUS
 62
         7
100
AcDbLine
 10
8.9417105146
 20
6.9535799457
 30
0.0
 11
8.9296404195
 21
6.9276660023
 31
0.0
  0
LINE
  5
66A
100
AcDbEntity
  8
0
  6
CONTINUOUS
 62
         7
100
AcDbLine
 10
8.9417105146
 20
6.9535799457
 30
0.0
 11
8.9088704442
 21
6.9725712824
 31
0.0
  0
LINE
  5
66B
100
AcDbEntity
  8
0
  6
CONTINUOUS
 62
         7
100
AcDbLine
 10
8.8639602788
 20
6.9656486755
 30
0.0
 11
8.9088704442
 21
6.9725712824
 31
0.0
  0
LINE
  5
66C
100
AcDbEntity
  8
0
  6
CONTINUOUS
 62
         7
100
AcDbLine
 10
8.9262447105
 20
6.927142577
 30
0.0
 11
8.9252904562
 21
6.9277135917
 31
0.0
  0
POLYLINE
  5
66D
100
AcDbEntity
  8
0
  6
CONTINUOUS
 62
         7
100
AcDb2dPolyline
 66
         1
 10
0.0
 20
0.0
 30
0.0
 70
       128
  0
VERTEX
  5
66E
100
AcDbEntity
  8
0
100
AcDbVertex
100
AcDb2dVertex
 10
8.9252904275
 20
6.9277135806
 30
0.0
  0
VERTEX
  5
66F
100
AcDbEntity
  8
0
100
AcDbVertex
100
AcDb2dVertex
 10
8.9213344678
 20
6.9297198735
 30
0.0
  0
VERTEX
  5
670
100
AcDbEntity
  8
0
100
AcDbVertex
100
AcDb2dVertex
 10
8.9169587949
 20
6.9314109594
 30
0.0
  0
VERTEX
  5
671
100
AcDbEntity
  8
0
100
AcDbVertex
100
AcDb2dVertex
 10
8.9122381422
 20
6.9327578246
 30
0.0
  0
VERTEX
  5
672
100
AcDbEntity
  8
0
100
AcDbVertex
100
AcDb2dVertex
 10
8.9072533893
 20
6.9337374867
 30
0.0
  0
VERTEX
  5
673
100
AcDbEntity
  8
0
100
AcDbVertex
100
AcDb2dVertex
 10
8.9020897012
 20
6.9343331103
 30
0.0
  0
VERTEX
  5
674
100
AcDbEntity
  8
0
100
AcDbVertex
100
AcDb2dVertex
 10
8.8968355482
 20
6.934534573
 30
0.0
  0
VERTEX
  5
675
100
AcDbEntity
  8
0
100
AcDbVertex
100
AcDb2dVertex
 10
8.8915807633
 20
6.93433839
 30
0.0
  0
VERTEX
  5
676
100
AcDbEntity
  8
0
100
AcDbVertex
100
AcDb2dVertex
 10
8.8864153097
 20
6.9337479455
 30
0.0
  0
SEQEND
  5
677
100
AcDbEntity
  8
0
  0
POLYLINE
  5
678
100
AcDbEntity
  8
0
  6
CONTINUOUS
 62
       144
100
AcDb2dPolyline
 66
         1
 10
0.0
 20
0.0
 30
0.0
 70
       128
  0
VERTEX
  5
679
100
AcDbEntity
  8
0
100
AcDbVertex
100
AcDb2dVertex
 10
8.8864153097
 20
6.9337479455
 30
0.0
  0
VERTEX
  5
67A
100
AcDbEntity
  8
0
100
AcDbVertex
100
AcDb2dVertex
 10
8.8814276209
 20
6.9327733745
 30
0.0
  0
VERTEX
  5
67B
100
AcDbEntity
  8
0
100
AcDbVertex
100
AcDb2dVertex
 10
8.8767028622
 20
6.9314312484
 30
0.0
  0
VERTEX
  5
67C
100
AcDbEntity
  8
0
100
AcDbVertex
100
AcDb2dVertex
 10
8.8723220245
 20
6.9297446197
 30
0.0
  0
VERTEX
  5
67D
100
AcDbEntity
  8
0
100
AcDbVertex
100
AcDb2dVertex
 10
8.8705777793
 20
6.9289278144
 30
0.0
  0
SEQEND
  5
67E
100
AcDbEntity
  8
0
  0
LINE
  5
67F
100
AcDbEntity
  8
0
  6
CONTINUOUS
 62
         7
100
AcDbLine
 10
8.8639602788
 20
6.9327546436
 30
0.0
 11
8.8639602788
 21
6.9656486755
 31
0.0
  0
LINE
  5
680
100
AcDbEntity
  8
0
  6
CONTINUOUS
 62
         7
100
AcDbLine
 10
8.9262447105
 20
6.927142577
 30
0.0
 11
8.9252904562
 21
6.9277135917
 31
0.0
  0
LINE
  5
681
100
AcDbEntity
  8
0
  6
CONTINUOUS
 62
         7
100
AcDbLine
 10
8.9252904562
 20
6.9277135917
 30
0.0
 11
8.9088704442
 21
6.9372092789
 31
0.0
  0
LINE
  5
682
100
AcDbEntity
  8
0
  6
CONTINUOUS
 62
         7
100
AcDbLine
 10
8.9088704442
 20
6.9372092789
 30
0.0
 11
8.9088704442
 21
6.9725712824
 31
0.0
  0
LINE
  5
683
100
AcDbEntity
  8
0
  6
CONTINUOUS
 62
         7
100
AcDbLine
 10
8.8864153596
 20
6.9337479685
 30
0.0
 11
8.9088704442
 21
6.9372092789
 31
0.0
  0
LINE
  5
684
100
AcDbEntity
  8
0
  6
CONTINUOUS
 62
       144
100
AcDbLine
 10
8.8673298132
 20
6.9308060582
 30
0.0
 11
8.8864153596
 21
6.9337479685
 31
0.0
  0
ENDSEC
  0
SECTION
  2
OBJECTS
  0
DICTIONARY
  5
19
100
AcDbDictionary
  3
ACAD_GROUP
350
1A
  3
ACAD_MLINESTYLE
350
1B
  0
DICTIONARY
  5
1A
102
{ACAD_REACTORS
330
19
102
}
100
AcDbDictionary
  0
DICTIONARY
  5
1B
102
{ACAD_REACTORS
330
19
102
}
100
AcDbDictionary
  3
STANDARD
350
1C
  0
MLINESTYLE
  5
1C
102
{ACAD_REACTORS
330
1B
102
}
100
AcDbMlineStyle
  2
STANDARD
 70
         0
  3

 62
         0
 51
90.0
 52
90.0
 71
         2
 49
0.5
 62
       256
  6
BYLAYER
 49
-0.5
 62
       256
  6
BYLAYER
  0
ENDSEC
  0
EOF
