  0
SECTION
  2
HEADER
  9
$ACADVER
  1
AC1015
  9
$ACADMAINTVER
 70
     6
  9
$DWGCODEPAGE
  3
ANSI_1252
  9
$INSBASE
 10
0.0
 20
0.0
 30
0.0
  9
$EXTMIN
 10
0.0
 20
0.0
 30
0.0
  9
$EXTMAX
 10
11.0
 20
8.5
 30
0.0
  9
$LIMMIN
 10
0.0
 20
0.0
  9
$LIMMAX
 10
11.0
 20
8.5
  9
$ORTHOMODE
 70
     0
  9
$REGENMODE
 70
     1
  9
$FILLMODE
 70
     1
  9
$QTEXTMODE
 70
     0
  9
$MIRRTEXT
 70
     1
  9
$LTSCALE
 40
1.0
  9
$ATTMODE
 70
     1
  9
$TEXTSIZE
 40
0.1111111111
  9
$TRACEWID
 40
0.05
  9
$TEXTSTYLE
  7
Standard
  9
$CLAYER
  8
0
  9
$CELTYPE
  6
ByLayer
  9
$CECOLOR
 62
   256
  9
$CELTSCALE
 40
1.0
  9
$DISPSILH
 70
     0
  9
$DIMSCALE
 40
1.0
  9
$DIMASZ
 40
0.125
  9
$DIMEXO
 40
0.05
  9
$DIMDLI
 40
0.38
  9
$DIMRND
 40
0.0
  9
$DIMDLE
 40
0.0
  9
$DIMEXE
 40
0.07
  9
$DIMTP
 40
0.0
  9
$DIMTM
 40
0.0
  9
$DIMTXT
 40
0.1111111111
  9
$DIMCEN
 40
0.09
  9
$DIMTSZ
 40
0.0
  9
$DIMTOL
 70
     0
  9
$DIMLIM
 70
     0
  9
$DIMTIH
 70
     1
  9
$DIMTOH
 70
     1
  9
$DIMSE1
 70
     0
  9
$DIMSE2
 70
     0
  9
$DIMTAD
 70
     0
  9
$DIMZIN
 70
     1
  9
$DIMBLK
  1

  9
$DIMASO
 70
     1
  9
$DIMSHO
 70
     1
  9
$DIMPOST
  1

  9
$DIMAPOST
  1

  9
$DIMALT
 70
     0
  9
$DIMALTD
 70
     2
  9
$DIMALTF
 40
25.4
  9
$DIMLFAC
 40
1.0
  9
$DIMTOFL
 70
     0
  9
$DIMTVP
 40
0.0
  9
$DIMTIX
 70
     0
  9
$DIMSOXD
 70
     0
  9
$DIMSAH
 70
     0
  9
$DIMBLK1
  1

  9
$DIMBLK2
  1

  9
$DIMSTYLE
  2
Standard
  9
$DIMCLRD
 70
     0
  9
$DIMCLRE
 70
     0
  9
$DIMCLRT
 70
     0
  9
$DIMTFAC
 40
1.0
  9
$DIMGAP
 40
0.1
  9
$DIMJUST
 70
     0
  9
$DIMSD1
 70
     0
  9
$DIMSD2
 70
     0
  9
$DIMTOLJ
 70
     1
  9
$DIMTZIN
 70
     1
  9
$DIMALTZ
 70
     0
  9
$DIMALTTZ
 70
     0
  9
$DIMUPT
 70
     0
  9
$DIMDEC
 70
     2
  9
$DIMTDEC
 70
     2
  9
$DIMALTU
 70
     2
  9
$DIMALTTD
 70
     2
  9
$DIMTXSTY
  7
Standard
  9
$DIMAUNIT
 70
     0
  9
$DIMADEC
 70
     0
  9
$DIMALTRND
 40
0.0
  9
$DIMAZIN
 70
     0
  9
$DIMDSEP
 70
    46
  9
$DIMATFIT
 70
     3
  9
$DIMFRAC
 70
     0
  9
$DIMLDRBLK
  1

  9
$DIMLUNIT
 70
     2
  9
$DIMLWD
 70
    -2
  9
$DIMLWE
 70
    -2
  9
$DIMTMOVE
 70
     0
  9
$LUNITS
 70
     2
  9
$LUPREC
 70
     2
  9
$SKETCHINC
 40
0.1
  9
$FILLETRAD
 40
0.5
  9
$AUNITS
 70
     0
  9
$AUPREC
 70
     0
  9
$MENU
  1
.
  9
$ELEVATION
 40
0.0
  9
$PELEVATION
 40
0.0
  9
$THICKNESS
 40
0.0
  9
$LIMCHECK
 70
     0
  9
$CHAMFERA
 40
0.0
  9
$CHAMFERB
 40
0.0
  9
$CHAMFERC
 40
0.0
  9
$CHAMFERD
 40
0.0
  9
$SKPOLY
 70
     0
  9
$TDCREATE
 40
2457340.66339265
  9
$TDUCREATE
 40
2457340.871725984
  9
$TDUPDATE
 40
2457340.663395532
  9
$TDUUPDATE
 40
2457340.871728866
  9
$TDINDWG
 40
0.0000000116
  9
$TDUSRTIMER
 40
0.0000000116
  9
$USRTIMER
 70
     1
  9
$ANGBASE
 50
0.0
  9
$ANGDIR
 70
     0
  9
$PDMODE
 70
     0
  9
$PDSIZE
 40
-1.0
  9
$PLINEWID
 40
0.0
  9
$SPLFRAME
 70
     0
  9
$SPLINETYPE
 70
     6
  9
$SPLINESEGS
 70
     8
  9
$HANDSEED
  5
363
  9
$SURFTAB1
 70
     6
  9
$SURFTAB2
 70
     6
  9
$SURFTYPE
 70
     6
  9
$SURFU
 70
     6
  9
$SURFV
 70
     6
  9
$UCSBASE
  2

  9
$UCSNAME
  2

  9
$UCSORG
 10
0.0
 20
0.0
 30
0.0
  9
$UCSXDIR
 10
1.0
 20
0.0
 30
0.0
  9
$UCSYDIR
 10
0.0
 20
1.0
 30
0.0
  9
$UCSORTHOREF
  2

  9
$UCSORTHOVIEW
 70
     0
  9
$UCSORGTOP
 10
0.0
 20
0.0
 30
0.0
  9
$UCSORGBOTTOM
 10
0.0
 20
0.0
 30
0.0
  9
$UCSORGLEFT
 10
0.0
 20
0.0
 30
0.0
  9
$UCSORGRIGHT
 10
0.0
 20
0.0
 30
0.0
  9
$UCSORGFRONT
 10
0.0
 20
0.0
 30
0.0
  9
$UCSORGBACK
 10
0.0
 20
0.0
 30
0.0
  9
$PUCSBASE
  2

  9
$PUCSNAME
  2

  9
$PUCSORG
 10
0.0
 20
0.0
 30
0.0
  9
$PUCSXDIR
 10
1.0
 20
0.0
 30
0.0
  9
$PUCSYDIR
 10
0.0
 20
1.0
 30
0.0
  9
$PUCSORTHOREF
  2

  9
$PUCSORTHOVIEW
 70
     0
  9
$PUCSORGTOP
 10
0.0
 20
0.0
 30
0.0
  9
$PUCSORGBOTTOM
 10
0.0
 20
0.0
 30
0.0
  9
$PUCSORGLEFT
 10
0.0
 20
0.0
 30
0.0
  9
$PUCSORGRIGHT
 10
0.0
 20
0.0
 30
0.0
  9
$PUCSORGFRONT
 10
0.0
 20
0.0
 30
0.0
  9
$PUCSORGBACK
 10
0.0
 20
0.0
 30
0.0
  9
$USERI1
 70
     0
  9
$USERI2
 70
     0
  9
$USERI3
 70
     0
  9
$USERI4
 70
     0
  9
$USERI5
 70
     0
  9
$USERR1
 40
0.0
  9
$USERR2
 40
0.0
  9
$USERR3
 40
0.0
  9
$USERR4
 40
0.0
  9
$USERR5
 40
0.0
  9
$WORLDVIEW
 70
     1
  9
$SHADEDGE
 70
     3
  9
$SHADEDIF
 70
    70
  9
$TILEMODE
 70
     1
  9
$MAXACTVP
 70
    64
  9
$PINSBASE
 10
0.0
 20
0.0
 30
0.0
  9
$PLIMCHECK
 70
     0
  9
$PEXTMIN
 10
1.0000000000E+20
 20
1.0000000000E+20
 30
1.0000000000E+20
  9
$PEXTMAX
 10
-1.0000000000E+20
 20
-1.0000000000E+20
 30
-1.0000000000E+20
  9
$PLIMMIN
 10
0.0
 20
0.0
  9
$PLIMMAX
 10
12.0
 20
9.0
  9
$UNITMODE
 70
     0
  9
$VISRETAIN
 70
     1
  9
$PLINEGEN
 70
     0
  9
$PSLTSCALE
 70
     1
  9
$TREEDEPTH
 70
  3020
  9
$CMLSTYLE
  2
Standard
  9
$CMLJUST
 70
     0
  9
$CMLSCALE
 40
1.0
  9
$PROXYGRAPHICS
 70
     1
  9
$MEASUREMENT
 70
     0
  9
$CELWEIGHT
370
    -1
  9
$ENDCAPS
280
     0
  9
$JOINSTYLE
280
     0
  9
$LWDISPLAY
290
     1
  9
$INSUNITS
 70
     1
  9
$HYPERLINKBASE
  1

  9
$STYLESHEET
  1

  9
$XEDIT
290
     1
  9
$CEPSNTYPE
380
     0
  9
$PSTYLEMODE
290
     1
  9
$FINGERPRINTGUID
  2
{4D8D73B8-A535-48B3-B641-56D1F74A09B7}
  9
$VERSIONGUID
  2
{FAEB1C32-E019-11D5-929B-00C0DF256EC4}
  9
$EXTNAMES
290
     1
  9
$PSVPSCALE
 40
0.0
  9
$OLESTARTUP
290
     0
  0
ENDSEC
  0
SECTION
  2
CLASSES
  0
CLASS
  1
ACDBDICTIONARYWDFLT
  2
AcDbDictionaryWithDefault
  3
ObjectDBX Classes
 90
        0
280
     0
281
     0
  0
CLASS
  1
VISUALSTYLE
  2
AcDbVisualStyle
  3
ObjectDBX Classes
 90
     4095
280
     0
281
     0
  0
CLASS
  1
MATERIAL
  2
AcDbMaterial
  3
ObjectDBX Classes
 90
     1153
280
     0
281
     0
  0
CLASS
  1
SCALE
  2
AcDbScale
  3
ObjectDBX Classes
 90
     1153
280
     0
281
     0
  0
CLASS
  1
SUN
  2
AcDbSun
  3
SCENEOE
 90
     1153
280
     0
281
     0
  0
CLASS
  1
ACDBPLACEHOLDER
  2
AcDbPlaceHolder
  3
ObjectDBX Classes
 90
        0
280
     0
281
     0
  0
CLASS
  1
LAYOUT
  2
AcDbLayout
  3
ObjectDBX Classes
 90
        0
280
     0
281
     0
  0
ENDSEC
  0
SECTION
  2
TABLES
  0
TABLE
  2
VPORT
  5
8
330
0
100
AcDbSymbolTable
 70
     1
  0
VPORT
  5
29
330
8
100
AcDbSymbolTableRecord
100
AcDbViewportTableRecord
  2
*Active
 70
     0
 10
0.0
 20
0.0
 11
1.0
 21
1.0
 12
5.5
 22
4.25
 13
0.0
 23
0.0
 14
0.5
 24
0.5
 15
0.5
 25
0.5
 16
0.0
 26
0.0
 36
1.0
 17
0.0
 27
0.0
 37
0.0
 40
8.5
 41
1.2941176471
 42
50.0
 43
0.0
 44
0.0
 50
0.0
 51
0.0
 71
     0
 72
  2000
 73
     1
 74
     3
 75
     0
 76
     0
 77
     0
 78
     0
281
     0
 65
     1
110
0.0
120
0.0
130
0.0
111
1.0
121
0.0
131
0.0
112
0.0
122
1.0
132
0.0
 79
     0
146
0.0
  0
ENDTAB
  0
TABLE
  2
LTYPE
  5
5
330
0
100
AcDbSymbolTable
 70
     6
  0
LTYPE
  5
14
330
5
100
AcDbSymbolTableRecord
100
AcDbLinetypeTableRecord
  2
ByBlock
 70
     0
  3

 72
    65
 73
     0
 40
0.0
  0
LTYPE
  5
15
330
5
100
AcDbSymbolTableRecord
100
AcDbLinetypeTableRecord
  2
ByLayer
 70
     0
  3

 72
    65
 73
     0
 40
0.0
  0
LTYPE
  5
16
330
5
100
AcDbSymbolTableRecord
100
AcDbLinetypeTableRecord
  2
Continuous
 70
     0
  3
Solid line
 72
    65
 73
     0
 40
0.0
  0
LTYPE
  5
6A
330
5
100
AcDbSymbolTableRecord
100
AcDbLinetypeTableRecord
  2
HIDDEN
 70
     0
  3
Hidden __ __ __ __ __ __ __ __ __ __ __ __ __ __
 72
    65
 73
     2
 40
0.075
 49
0.05
 74
     0
 49
-0.025
 74
     0
  0
LTYPE
  5
6B
330
5
100
AcDbSymbolTableRecord
100
AcDbLinetypeTableRecord
  2
PHANTOM
 70
     0
  3
Phantom ______  __  __  ______  __  __  ______
 72
    65
 73
     6
 40
0.5
 49
0.25
 74
     0
 49
-0.05
 74
     0
 49
0.05
 74
     0
 49
-0.05
 74
     0
 49
0.05
 74
     0
 49
-0.05
 74
     0
  0
LTYPE
  5
6C
330
5
100
AcDbSymbolTableRecord
100
AcDbLinetypeTableRecord
  2
CENTER
 70
     0
  3
Center ____ _ ____ _ ____ _ ____ _ ____ _ ____
 72
    65
 73
     4
 40
0.4
 49
0.25
 74
     0
 49
-0.05
 74
     0
 49
0.05
 74
     0
 49
-0.05
 74
     0
  0
LTYPE
  5
6D
330
5
100
AcDbSymbolTableRecord
100
AcDbLinetypeTableRecord
  2
CENTERX2
 70
     0
  3
Center (2x) ________  __  ________  __  _____
 72
    65
 73
     4
 40
0.8
 49
0.5
 74
     0
 49
-0.1
 74
     0
 49
0.1
 74
     0
 49
-0.1
 74
     0
  0
LTYPE
  5
6E
330
5
100
AcDbSymbolTableRecord
100
AcDbLinetypeTableRecord
  2
DOT2
 70
     0
  3
Dot (.5x) ........................................
 72
    65
 73
     2
 40
0.025
 49
0.0
 74
     0
 49
-0.025
 74
     0
  0
ENDTAB
  0
TABLE
  2
LAYER
  5
2
330
0
100
AcDbSymbolTable
 70
     2
  0
LAYER
  5
10
330
2
100
AcDbSymbolTableRecord
100
AcDbLayerTableRecord
  2
0
 70
     0
 62
     7
  6
Continuous
370
    -3
390
F
  0
LAYER
  5
6F
330
2
100
AcDbSymbolTableRecord
100
AcDbLayerTableRecord
  2
FORMAT
 70
     0
 62
     7
  6
Continuous
370
    -3
390
F
  0
ENDTAB
  0
TABLE
  2
STYLE
  5
3
330
0
100
AcDbSymbolTable
 70
     5
  0
STYLE
  5
11
330
3
100
AcDbSymbolTableRecord
100
AcDbTextStyleTableRecord
  2
Standard
 70
     0
 40
0.0
 41
1.0
 50
0.0
 71
     0
 42
0.1111111111
  3
txt
  4

  0
STYLE
  5
96
330
3
100
AcDbSymbolTableRecord
100
AcDbTextStyleTableRecord
  2
SLDTEXTSTYLE0
 70
     0
 40
0.0
 41
0.75
 50
0.0
 71
     0
 42
0.1111111111
  3
TXT
  4

  0
STYLE
  5
A2
330
3
100
AcDbSymbolTableRecord
100
AcDbTextStyleTableRecord
  2
SLDTEXTSTYLE1
 70
     0
 40
0.0
 41
0.6
 50
0.0
 71
     0
 42
0.1111111111
  3
TXT
  4

  0
STYLE
  5
A7
330
3
100
AcDbSymbolTableRecord
100
AcDbTextStyleTableRecord
  2
SLDTEXTSTYLE2
 70
     0
 40
0.0
 41
0.6875
 50
0.0
 71
     0
 42
0.1111111111
  3
TXT
  4

  0
STYLE
  5
1CA
330
3
100
AcDbSymbolTableRecord
100
AcDbTextStyleTableRecord
  2
SLDTEXTSTYLE3
 70
     0
 40
0.0
 41
0.7
 50
0.0
 71
     0
 42
0.1111111111
  3
TXT
  4

  0
ENDTAB
  0
TABLE
  2
VIEW
  5
6
330
0
100
AcDbSymbolTable
 70
     0
  0
ENDTAB
  0
TABLE
  2
UCS
  5
7
330
0
100
AcDbSymbolTable
 70
     0
  0
ENDTAB
  0
TABLE
  2
APPID
  5
9
330
0
100
AcDbSymbolTable
 70
     1
  0
APPID
  5
12
330
9
100
AcDbSymbolTableRecord
100
AcDbRegAppTableRecord
  2
ACAD
 70
     0
  0
ENDTAB
  0
TABLE
  2
DIMSTYLE
  5
A
330
0
100
AcDbSymbolTable
 70
     5
100
AcDbDimStyleTable
  0
DIMSTYLE
105
27
330
A
100
AcDbSymbolTableRecord
100
AcDbDimStyleTableRecord
  2
Standard
 70
     0
178
     0
340
11
  0
DIMSTYLE
105
11A
102
{ACAD_REACTORS
330
119
102
}
330
A
100
AcDbSymbolTableRecord
100
AcDbDimStyleTableRecord
  2
SLDDIMSTYLE0
 70
     0
 41
0.125
 44
0.0
 45
0.000000001
 78
     4
 79
     1
140
0.0833333333
141
0.0
147
0.0208333333
148
0.000000001
170
     1
171
     1
173
     1
178
     0
271
     2
272
     2
274
     1
276
     2
284
    12
340
96
  0
DIMSTYLE
105
18B
102
{ACAD_REACTORS
330
18A
330
19F
102
}
330
A
100
AcDbSymbolTableRecord
100
AcDbDimStyleTableRecord
  2
SLDDIMSTYLE1
 70
     0
 41
0.125
 44
0.0
 45
0.000000001
 78
     8
 79
     2
140
0.0833333333
147
0.0208333333
148
0.000000001
170
     1
171
     1
172
     1
173
     1
178
     0
271
     2
272
     2
274
     1
276
     2
284
    12
289
     0
340
96
  0
DIMSTYLE
105
1B4
102
{ACAD_REACTORS
330
1B3
102
}
330
A
100
AcDbSymbolTableRecord
100
AcDbDimStyleTableRecord
  2
SLDDIMSTYLE2
 70
     0
 41
0.125
 44
0.0
 45
0.000000001
 78
     4
 79
     1
140
0.0833333333
147
0.0208333333
148
0.000000001
170
     1
171
     1
173
     1
178
     0
271
     2
272
     2
274
     1
276
     2
284
    12
340
96
  0
DIMSTYLE
105
1CF
330
A
100
AcDbSymbolTableRecord
100
AcDbDimStyleTableRecord
  2
SLDDIMSTYLE3
 70
     0
 41
0.125
 44
0.0
 45
0.000000001
146
0.125
147
0.0
173
     1
178
     0
271
     0
272
     0
276
     2
340
11
  0
ENDTAB
  0
TABLE
  2
BLOCK_RECORD
  5
1
330
0
100
AcDbSymbolTable
 70
    20
  0
BLOCK_RECORD
  5
1F
330
1
100
AcDbSymbolTableRecord
100
AcDbBlockTableRecord
  2
*Model_Space
340
22
  0
BLOCK_RECORD
  5
1B
330
1
100
AcDbSymbolTableRecord
100
AcDbBlockTableRecord
  2
*Paper_Space
340
1E
  0
BLOCK_RECORD
  5
23
330
1
100
AcDbSymbolTableRecord
100
AcDbBlockTableRecord
  2
*Paper_Space0
340
26
  0
BLOCK_RECORD
  5
70
330
1
100
AcDbSymbolTableRecord
100
AcDbBlockTableRecord
  2
Third Angle Projection Block
340
0
102
{BLKREFS
331
95
102
}
  0
BLOCK_RECORD
  5
A9
330
1
100
AcDbSymbolTableRecord
100
AcDbBlockTableRecord
  2
SW_NOTE_0
340
0
102
{BLKREFS
331
AE
102
}
  0
BLOCK_RECORD
  5
AF
330
1
100
AcDbSymbolTableRecord
100
AcDbBlockTableRecord
  2
SW_NOTE_1
340
0
102
{BLKREFS
331
B4
102
}
  0
BLOCK_RECORD
  5
B6
330
1
100
AcDbSymbolTableRecord
100
AcDbBlockTableRecord
  2
SW_NOTE_2
340
0
102
{BLKREFS
331
BC
102
}
  0
BLOCK_RECORD
  5
BE
330
1
100
AcDbSymbolTableRecord
100
AcDbBlockTableRecord
  2
SW_NOTE_3
340
0
102
{BLKREFS
331
C3
102
}
  0
BLOCK_RECORD
  5
C4
330
1
100
AcDbSymbolTableRecord
100
AcDbBlockTableRecord
  2
SW_NOTE_4
340
0
102
{BLKREFS
331
D6
102
}
  0
BLOCK_RECORD
  5
D7
330
1
100
AcDbSymbolTableRecord
100
AcDbBlockTableRecord
  2
SW_TABLEANNOTATION_0
340
0
102
{BLKREFS
331
100
102
}
  0
BLOCK_RECORD
  5
E5
330
1
100
AcDbSymbolTableRecord
100
AcDbBlockTableRecord
  2
SW_SYMBOL_C#_1
340
0
102
{BLKREFS
331
EA
102
}
  0
BLOCK_RECORD
  5
EE
330
1
100
AcDbSymbolTableRecord
100
AcDbBlockTableRecord
  2
SW_SYMBOL_C#_2
340
0
102
{BLKREFS
331
F3
102
}
  0
BLOCK_RECORD
  5
F6
330
1
100
AcDbSymbolTableRecord
100
AcDbBlockTableRecord
  2
SW_SYMBOL_C#_3
340
0
102
{BLKREFS
331
FB
102
}
  0
BLOCK_RECORD
  5
11B
330
1
100
AcDbSymbolTableRecord
100
AcDbBlockTableRecord
  2
_D
340
0
  0
BLOCK_RECORD
  5
18C
330
1
100
AcDbSymbolTableRecord
100
AcDbBlockTableRecord
  2
_D_1
340
0
  0
BLOCK_RECORD
  5
1A0
330
1
100
AcDbSymbolTableRecord
100
AcDbBlockTableRecord
  2
_D_2
340
0
  0
BLOCK_RECORD
  5
1B5
330
1
100
AcDbSymbolTableRecord
100
AcDbBlockTableRecord
  2
_D_3
340
0
  0
BLOCK_RECORD
  5
1C7
330
1
100
AcDbSymbolTableRecord
100
AcDbBlockTableRecord
  2
SW_NOTE_5
340
0
102
{BLKREFS
331
1CE
102
}
  0
BLOCK_RECORD
  5
1D1
330
1
100
AcDbSymbolTableRecord
100
AcDbBlockTableRecord
  2
SW_NOTE_6
340
0
102
{BLKREFS
331
1D7
102
}
  0
BLOCK_RECORD
  5
1D9
330
1
100
AcDbSymbolTableRecord
100
AcDbBlockTableRecord
  2
SW_NOTE_7
340
0
102
{BLKREFS
331
1DE
102
}
  0
BLOCK_RECORD
  5
1E0
330
1
100
AcDbSymbolTableRecord
100
AcDbBlockTableRecord
  2
SW_NOTE_8
340
0
102
{BLKREFS
331
1E5
102
}
  0
BLOCK_RECORD
  5
1E7
330
1
100
AcDbSymbolTableRecord
100
AcDbBlockTableRecord
  2
SW_NOTE_9
340
0
102
{BLKREFS
331
1EC
102
}
  0
ENDTAB
  0
ENDSEC
  0
SECTION
  2
BLOCKS
  0
BLOCK
  5
20
330
1F
100
AcDbEntity
  8
0
100
AcDbBlockBegin
  2
*Model_Space
 70
     0
 10
0.0
 20
0.0
 30
0.0
  3
*Model_Space
  1
*Model_Space
  0
ENDBLK
  5
21
330
1F
100
AcDbEntity
  8
0
100
AcDbBlockEnd
  0
BLOCK
  5
1C
330
1B
100
AcDbEntity
 67
     1
  8
0
100
AcDbBlockBegin
  2
*Paper_Space
 70
     0
 10
0.0
 20
0.0
 30
0.0
  3
*Paper_Space
  1
*Paper_Space
  0
ENDBLK
  5
1D
330
1B
100
AcDbEntity
 67
     1
  8
0
100
AcDbBlockEnd
  0
BLOCK
  5
24
330
23
100
AcDbEntity
  8
0
100
AcDbBlockBegin
  2
*Paper_Space0
 70
     0
 10
0.0
 20
0.0
 30
0.0
  3
*Paper_Space0
  1
*Paper_Space0
  0
ENDBLK
  5
25
330
23
100
AcDbEntity
  8
0
100
AcDbBlockEnd
  0
BLOCK
  5
71
330
70
100
AcDbEntity
  8
0
100
AcDbBlockBegin
  2
Third Angle Projection Block
 70
     0
 10
0.0
 20
0.0
 30
0.0
  3
Third Angle Projection Block
  1
Third Angle Projection Block
  0
CIRCLE
  5
73
330
70
100
AcDbEntity
  8
0
  6
Continuous
 62
     7
370
    30
100
AcDbCircle
 10
3.9951432636
 20
0.7456853688
 30
0.0
 40
0.0696152422706639
  0
CIRCLE
  5
74
330
70
100
AcDbEntity
  8
0
  6
Continuous
 62
     7
370
    30
100
AcDbCircle
 10
3.9951432636
 20
0.7456853688
 30
0.0
 40
0.1535916633280245
  0
LINE
  5
75
330
70
100
AcDbEntity
  8
0
  6
CENTERX2
 62
     7
370
     0
100
AcDbLine
 10
4.3360937897
 20
0.7456853688
 30
0.0
 11
4.7028635231
 21
0.7456853688
 31
0.0
  0
LINE
  5
76
330
70
100
AcDbEntity
  8
0
  6
Continuous
 62
     7
370
    30
100
AcDbLine
 10
4.3701432636
 20
0.815300611
 30
0.0
 11
4.3701432636
 21
0.6760701265
 31
0.0
  0
LINE
  5
77
330
70
100
AcDbEntity
  8
0
  6
Continuous
 62
     7
370
    30
100
AcDbLine
 10
4.3701432636
 20
0.6760701265
 30
0.0
 11
4.6701432636
 21
0.5956853688
 31
0.0
  0
LINE
  5
78
330
70
100
AcDbEntity
  8
0
  6
Continuous
 62
     7
370
    30
100
AcDbLine
 10
4.6701432636
 20
0.5956853688
 30
0.0
 11
4.6701432636
 21
0.8956853688
 31
0.0
  0
LINE
  5
79
330
70
100
AcDbEntity
  8
0
  6
Continuous
 62
     7
370
    30
100
AcDbLine
 10
4.6701432636
 20
0.8956853688
 30
0.0
 11
4.3701432636
 21
0.815300611
 31
0.0
  0
LINE
  5
7A
330
70
100
AcDbEntity
  8
0
  6
CENTERX2
 62
     7
370
     0
100
AcDbLine
 10
3.8032513961
 20
0.7456853688
 30
0.0
 11
4.187035131
 21
0.7456853688
 31
0.0
  0
LINE
  5
7B
330
70
100
AcDbEntity
  8
0
  6
CENTERX2
 62
     7
370
     0
100
AcDbLine
 10
3.9951432636
 20
0.9375772362
 30
0.0
 11
3.9951432636
 21
0.5537935013
 31
0.0
  0
POINT
  5
7C
330
70
100
AcDbEntity
  8
0
  6
Continuous
 62
     7
370
     0
100
AcDbPoint
 10
3.9951432636
 20
0.7456853688
 30
0.0
  0
ENDBLK
  5
72
330
70
100
AcDbEntity
  8
0
100
AcDbBlockEnd
  0
BLOCK
  5
AA
330
A9
100
AcDbEntity
  8
0
100
AcDbBlockBegin
  2
SW_NOTE_0
 70
     0
 10
0.0
 20
0.0
 30
0.0
  3
SW_NOTE_0
  1
SW_NOTE_0
  0
MTEXT
  5
AC
330
A9
100
AcDbEntity
  8
0
  6
Continuous
 62
     0
370
     0
100
AcDbMText
 10
0.78375
 20
0.0773440644
 30
0.0
 40
0.06
 41
0.0
 71
     2
 72
     1
  1
VALUES IN PARENTHESIS ARE CALCULATED
  7
SLDTEXTSTYLE0
 73
     1
 44
1.0
  0
MTEXT
  5
AD
330
A9
100
AcDbEntity
  8
0
  6
Continuous
 62
     0
370
     0
100
AcDbMText
 10
0.7825936818
 20
-0.0220260102
 30
0.0
 40
0.06
 41
0.0
 71
     2
 72
     1
  1
AND MAY CONTAIN ROUNDOFF ERRORS
  7
SLDTEXTSTYLE0
 73
     1
 44
1.0
  0
ENDBLK
  5
AB
330
A9
100
AcDbEntity
  8
0
100
AcDbBlockEnd
  0
BLOCK
  5
B0
330
AF
100
AcDbEntity
  8
0
100
AcDbBlockBegin
  2
SW_NOTE_1
 70
     0
 10
0.0
 20
0.0
 30
0.0
  3
SW_NOTE_1
  1
SW_NOTE_1
  0
MTEXT
  5
B2
330
AF
100
AcDbEntity
  8
0
  6
Continuous
 62
     0
370
     0
100
AcDbMText
 10
0.0
 20
0.1074223116
 30
0.0
 40
0.0833333333
 41
0.0
 71
     1
 72
     1
  1
DRAWING
  7
SLDTEXTSTYLE0
 73
     1
 44
1.0
  0
MTEXT
  5
B3
330
AF
100
AcDbEntity
  8
0
  6
Continuous
 62
     0
370
     0
100
AcDbMText
 10
0.0
 20
-0.0036887981
 30
0.0
 40
0.0833333333
 41
0.0
 71
     1
 72
     1
  1
PROJECTION
  7
SLDTEXTSTYLE0
 73
     1
 44
1.0
  0
ENDBLK
  5
B1
330
AF
100
AcDbEntity
  8
0
100
AcDbBlockEnd
  0
BLOCK
  5
B7
330
B6
100
AcDbEntity
  8
0
100
AcDbBlockBegin
  2
SW_NOTE_2
 70
     0
 10
0.0
 20
0.0
 30
0.0
  3
SW_NOTE_2
  1
SW_NOTE_2
  0
MTEXT
  5
B9
330
B6
100
AcDbEntity
  8
0
  6
Continuous
 62
     0
370
     0
100
AcDbMText
 10
0.0823567708
 20
0.1477056785
 30
0.0
 40
0.1145833333
 41
0.0
 71
     2
 72
     1
  1
%%c
  7
SLDTEXTSTYLE0
 73
     1
 44
1.0
  0
MTEXT
  5
BA
330
B6
100
AcDbEntity
  8
0
  6
Continuous
 62
     0
370
     0
100
AcDbMText
 10
1.2471759303
 20
0.1477056785
 30
0.0
 40
0.1145833333
 41
0.0
 71
     2
 72
     1
  1
2" MOUNTED PLANO-CONVEX
  7
SLDTEXTSTYLE0
 73
     1
 44
1.0
  0
MTEXT
  5
BB
330
B6
100
AcDbEntity
  8
0
  6
Continuous
 62
     0
370
     0
100
AcDbMText
 10
1.1668775604
 20
-0.0050720974
 30
0.0
 40
0.1145833333
 41
0.0
 71
     2
 72
     1
  1
LENS, f=400mm
  7
SLDTEXTSTYLE0
 73
     1
 44
1.0
  0
ENDBLK
  5
B8
330
B6
100
AcDbEntity
  8
0
100
AcDbBlockEnd
  0
BLOCK
  5
BF
330
BE
100
AcDbEntity
  8
0
100
AcDbBlockBegin
  2
SW_NOTE_3
 70
     0
 10
0.0
 20
0.0
 30
0.0
  3
SW_NOTE_3
  1
SW_NOTE_3
  0
MTEXT
  5
C1
330
BE
100
AcDbEntity
  8
0
  6
Continuous
 62
     0
370
     0
100
AcDbMText
 10
0.986328125
 20
0.1611334675
 30
0.0
 40
0.125
 41
0.0
 71
     2
 72
     1
  1
FOR INFORMATION ONLY
  7
SLDTEXTSTYLE0
 73
     1
 44
1.0
  0
MTEXT
  5
C2
330
BE
100
AcDbEntity
  8
0
  6
Continuous
 62
     0
370
     0
100
AcDbMText
 10
0.999088459
 20
-0.0055331972
 30
0.0
 40
0.125
 41
0.0
 71
     2
 72
     1
  1
NOT FOR MANUFACTURING PURPOSES
  7
SLDTEXTSTYLE0
 73
     1
 44
1.0
  0
ENDBLK
  5
C0
330
BE
100
AcDbEntity
  8
0
100
AcDbBlockEnd
  0
BLOCK
  5
C5
330
C4
100
AcDbEntity
  8
0
100
AcDbBlockBegin
  2
SW_NOTE_4
 70
     0
 10
0.0
 20
0.0
 30
0.0
  3
SW_NOTE_4
  1
SW_NOTE_4
  0
MTEXT
  5
C7
330
C4
100
AcDbEntity
  8
0
  6
Continuous
 62
     0
370
     0
100
AcDbMText
 10
0.0
 20
0.1074223116
 30
0.0
 40
0.0833333333
 41
0.0
 71
     1
 72
     1
  1
NOTES/SPECIFICATIONS:
  7
SLDTEXTSTYLE0
 73
     1
 44
1.0
  0
MTEXT
  5
C8
330
C4
100
AcDbEntity
  8
0
  6
Continuous
 62
     0
370
     0
100
AcDbMText
 10
0.4183921567
 20
-0.1147999079
 30
0.0
 40
0.0833333333
 41
0.0
 71
     1
 72
     1
  1
DESIGN WAVELENGTH: 633nm
  7
SLDTEXTSTYLE0
 73
     1
 44
1.0
  0
MTEXT
  5
C9
330
C4
100
AcDbEntity
  8
0
  6
Continuous
 62
     0
370
     0
100
AcDbMText
 10
0.0
 20
-0.1147999079
 30
0.0
 40
0.0833333333
 41
0.0
 71
     1
 72
     1
  1
1.
  7
SLDTEXTSTYLE0
 73
     1
 44
1.0
  0
MTEXT
  5
CA
330
C4
100
AcDbEntity
  8
0
  6
Continuous
 62
     0
370
     0
100
AcDbMText
 10
0.4183921567
 20
-0.2259110177
 30
0.0
 40
0.0833333333
 41
0.0
 71
     1
 72
     1
  1
FOCAL LENGTH: f=400.0mm
  7
SLDTEXTSTYLE0
 73
     1
 44
1.0
  0
MTEXT
  5
CB
330
C4
100
AcDbEntity
  8
0
  6
Continuous
 62
     0
370
     0
100
AcDbMText
 10
1.8858304981
 20
-0.2259110177
 30
0.0
 40
0.0833333333
 41
0.0
 71
     1
 72
     1
  1
%%p
  7
SLDTEXTSTYLE0
 73
     1
 44
1.0
  0
MTEXT
  5
CC
330
C4
100
AcDbEntity
  8
0
  6
Continuous
 62
     0
370
     0
100
AcDbMText
 10
1.9652749536
 20
-0.2259110177
 30
0.0
 40
0.0833333333
 41
0.0
 71
     1
 72
     1
  1
1%
  7
SLDTEXTSTYLE0
 73
     1
 44
1.0
  0
MTEXT
  5
CD
330
C4
100
AcDbEntity
  8
0
  6
Continuous
 62
     0
370
     0
100
AcDbMText
 10
0.0
 20
-0.2259110177
 30
0.0
 40
0.0833333333
 41
0.0
 71
     1
 72
     1
  1
2.
  7
SLDTEXTSTYLE0
 73
     1
 44
1.0
  0
MTEXT
  5
CE
330
C4
100
AcDbEntity
  8
0
  6
Continuous
 62
     0
370
     0
100
AcDbMText
 10
0.4183921567
 20
-0.3370221274
 30
0.0
 40
0.0833333333
 41
0.0
 71
     1
 72
     1
  1
WORKING DISTANCE (REF): 393.2mm
  7
SLDTEXTSTYLE0
 73
     1
 44
1.0
  0
MTEXT
  5
CF
330
C4
100
AcDbEntity
  8
0
  6
Continuous
 62
     0
370
     0
100
AcDbMText
 10
0.0
 20
-0.3370221274
 30
0.0
 40
0.0833333333
 41
0.0
 71
     1
 72
     1
  1
3.
  7
SLDTEXTSTYLE0
 73
     1
 44
1.0
  0
MTEXT
  5
D0
330
C4
100
AcDbEntity
  8
0
  6
Continuous
 62
     0
370
     0
100
AcDbMText
 10
0.4183921567
 20
-0.4481332372
 30
0.0
 40
0.0833333333
 41
0.0
 71
     1
 72
     1
  1
CLEAR APERTURE: >
  7
SLDTEXTSTYLE0
 73
     1
 44
1.0
  0
MTEXT
  5
D1
330
C4
100
AcDbEntity
  8
0
  6
Continuous
 62
     0
370
     0
100
AcDbMText
 10
1.4507996036
 20
-0.4481332372
 30
0.0
 40
0.0833333333
 41
0.0
 71
     1
 72
     1
  1
%%c
  7
SLDTEXTSTYLE0
 73
     1
 44
1.0
  0
MTEXT
  5
D2
330
C4
100
AcDbEntity
  8
0
  6
Continuous
 62
     0
370
     0
100
AcDbMText
 10
1.5765865971
 20
-0.4481332372
 30
0.0
 40
0.0833333333
 41
0.0
 71
     1
 72
     1
  1
45.72mm
  7
SLDTEXTSTYLE0
 73
     1
 44
1.0
  0
MTEXT
  5
D3
330
C4
100
AcDbEntity
  8
0
  6
Continuous
 62
     0
370
     0
100
AcDbMText
 10
0.0
 20
-0.4481332372
 30
0.0
 40
0.0833333333
 41
0.0
 71
     1
 72
     1
  1
4.
  7
SLDTEXTSTYLE0
 73
     1
 44
1.0
  0
MTEXT
  5
D4
330
C4
100
AcDbEntity
  8
0
  6
Continuous
 62
     0
370
     0
100
AcDbMText
 10
0.4183921567
 20
-0.559244347
 30
0.0
 40
0.0833333333
 41
0.0
 71
     1
 72
     1
  1
SURFACE QUALITY: 40-20 SCRATCH-DIG
  7
SLDTEXTSTYLE0
 73
     1
 44
1.0
  0
MTEXT
  5
D5
330
C4
100
AcDbEntity
  8
0
  6
Continuous
 62
     0
370
     0
100
AcDbMText
 10
0.0
 20
-0.559244347
 30
0.0
 40
0.0833333333
 41
0.0
 71
     1
 72
     1
  1
5.
  7
SLDTEXTSTYLE0
 73
     1
 44
1.0
  0
ENDBLK
  5
C6
330
C4
100
AcDbEntity
  8
0
100
AcDbBlockEnd
  0
BLOCK
  5
D8
330
D7
100
AcDbEntity
  8
0
100
AcDbBlockBegin
  2
SW_TABLEANNOTATION_0
 70
     0
 10
0.0
 20
0.0
 30
0.0
  3
SW_TABLEANNOTATION_0
  1
SW_TABLEANNOTATION_0
  0
LINE
  5
DA
330
D7
100
AcDbEntity
  8
0
  6
Continuous
 62
     0
370
     0
100
AcDbLine
 10
0.0
 20
0.0
 30
0.0
 11
0.0
 21
-1.2444444391
 31
0.0
  0
LINE
  5
DB
330
D7
100
AcDbEntity
  8
0
  6
Continuous
 62
     0
370
     0
100
AcDbLine
 10
0.0
 20
-1.2444444391
 30
0.0
 11
3.3
 21
-1.2444444391
 31
0.0
  0
LINE
  5
DC
330
D7
100
AcDbEntity
  8
0
  6
Continuous
 62
     0
370
     0
100
AcDbLine
 10
3.3
 20
-1.2444444391
 30
0.0
 11
3.3
 21
0.0
 31
0.0
  0
LINE
  5
DD
330
D7
100
AcDbEntity
  8
0
  6
Continuous
 62
     0
370
     0
100
AcDbLine
 10
3.3
 20
0.0
 30
0.0
 11
0.0
 21
0.0
 31
0.0
  0
LINE
  5
DE
330
D7
100
AcDbEntity
  8
0
  6
Continuous
 62
     0
370
     0
100
AcDbLine
 10
1.1
 20
0.0
 30
0.0
 11
1.1
 21
-1.2444444391
 31
0.0
  0
LINE
  5
DF
330
D7
100
AcDbEntity
  8
0
  6
Continuous
 62
     0
370
     0
100
AcDbLine
 10
2.2
 20
0.0
 30
0.0
 11
2.2
 21
-1.2444444391
 31
0.0
  0
LINE
  5
E0
330
D7
100
AcDbEntity
  8
0
  6
Continuous
 62
     0
370
     0
100
AcDbLine
 10
0.0
 20
-0.3111111098
 30
0.0
 11
3.3
 21
-0.3111111098
 31
0.0
  0
LINE
  5
E1
330
D7
100
AcDbEntity
  8
0
  6
Continuous
 62
     0
370
     0
100
AcDbLine
 10
0.0
 20
-0.6222222195
 30
0.0
 11
3.3
 21
-0.6222222195
 31
0.0
  0
LINE
  5
E2
330
D7
100
AcDbEntity
  8
0
  6
Continuous
 62
     0
370
     0
100
AcDbLine
 10
0.0
 20
-0.9333333293
 30
0.0
 11
3.3
 21
-0.9333333293
 31
0.0
  0
MTEXT
  5
E3
330
D7
100
AcDbEntity
  8
0
  6
Continuous
 62
     0
370
     0
100
AcDbMText
 10
1.1543981952
 20
-0.1140373979
 30
0.0
 40
0.0833333333
 41
0.0
 71
     1
 72
     1
  1
PART DESCRIPTION
  7
SLDTEXTSTYLE0
 73
     1
 44
1.0
  0
MTEXT
  5
E4
330
D7
100
AcDbEntity
  8
0
  6
Continuous
 62
     0
370
     0
100
AcDbMText
 10
2.491203698
 20
-0.1140373979
 30
0.0
 40
0.0833333333
 41
0.0
 71
     1
 72
     1
  1
MATERIAL
  7
SLDTEXTSTYLE0
 73
     1
 44
1.0
  0
INSERT
  5
EA
330
D7
100
AcDbEntity
  8
0
  6
Continuous
 62
     0
370
     0
100
AcDbBlockReference
  2
SW_SYMBOL_C#_1
 10
0.4374537001
 20
-0.5210148297
 30
0.0
 41
0.0027037109
 42
0.0027037109
 43
0.0027037109
  0
MTEXT
  5
EB
330
D7
100
AcDbEntity
  8
0
  6
Continuous
 62
     0
370
     0
100
AcDbMText
 10
1.4729938215
 20
-0.4251485077
 30
0.0
 40
0.0833333333
 41
0.0
 71
     1
 72
     1
  1
SM2RR
  7
SLDTEXTSTYLE0
 73
     1
 44
1.0
  0
MTEXT
  5
EC
330
D7
100
AcDbEntity
  8
0
  6
Continuous
 62
     0
370
     0
100
AcDbMText
 10
2.4676697448
 20
-0.3695929528
 30
0.0
 40
0.0833333333
 41
0.0
 71
     1
 72
     1
  1
ANODIZED
  7
SLDTEXTSTYLE0
 73
     1
 44
1.0
  0
MTEXT
  5
ED
330
D7
100
AcDbEntity
  8
0
  6
Continuous
 62
     0
370
     0
100
AcDbMText
 10
2.4546296155
 20
-0.4807040626
 30
0.0
 40
0.0833333333
 41
0.0
 71
     1
 72
     1
  1
ALUMINUM
  7
SLDTEXTSTYLE0
 73
     1
 44
1.0
  0
INSERT
  5
F3
330
D7
100
AcDbEntity
  8
0
  6
Continuous
 62
     0
370
     0
100
AcDbBlockReference
  2
SW_SYMBOL_C#_2
 10
0.4374537001
 20
-0.8321259395
 30
0.0
 41
0.0027037109
 42
0.0027037109
 43
0.0027037109
  0
MTEXT
  5
F4
330
D7
100
AcDbEntity
  8
0
  6
Continuous
 62
     0
370
     0
100
AcDbMText
 10
1.4600308562
 20
-0.7362596175
 30
0.0
 40
0.0833333333
 41
0.0
 71
     1
 72
     1
  1
LA1725
  7
SLDTEXTSTYLE0
 73
     1
 44
1.0
  0
MTEXT
  5
F5
330
D7
100
AcDbEntity
  8
0
  6
Continuous
 62
     0
370
     0
100
AcDbMText
 10
2.5949845658
 20
-0.7362596175
 30
0.0
 40
0.0833333333
 41
0.0
 71
     1
 72
     1
  1
N-BK7
  7
SLDTEXTSTYLE0
 73
     1
 44
1.0
  0
INSERT
  5
FB
330
D7
100
AcDbEntity
  8
0
  6
Continuous
 62
     0
370
     0
100
AcDbBlockReference
  2
SW_SYMBOL_C#_3
 10
0.4374537001
 20
-1.1432370493
 30
0.0
 41
0.0027037109
 42
0.0027037109
 43
0.0027037109
  0
MTEXT
  5
FC
330
D7
100
AcDbEntity
  8
0
  6
Continuous
 62
     0
370
     0
100
AcDbMText
 10
1.3456018548
 20
-0.9918151723
 30
0.0
 40
0.0833333333
 41
0.0
 71
     1
 72
     1
  1
ENGRAVED
  7
SLDTEXTSTYLE0
 73
     1
 44
1.0
  0
MTEXT
  5
FD
330
D7
100
AcDbEntity
  8
0
  6
Continuous
 62
     0
370
     0
100
AcDbMText
 10
1.3975308615
 20
-1.1029262821
 30
0.0
 40
0.0833333333
 41
0.0
 71
     1
 72
     1
  1
HOUSING
  7
SLDTEXTSTYLE0
 73
     1
 44
1.0
  0
MTEXT
  5
FE
330
D7
100
AcDbEntity
  8
0
  6
Continuous
 62
     0
370
     0
100
AcDbMText
 10
2.4676697448
 20
-0.9918151723
 30
0.0
 40
0.0833333333
 41
0.0
 71
     1
 72
     1
  1
ANODIZED
  7
SLDTEXTSTYLE0
 73
     1
 44
1.0
  0
MTEXT
  5
FF
330
D7
100
AcDbEntity
  8
0
  6
Continuous
 62
     0
370
     0
100
AcDbMText
 10
2.4546296155
 20
-1.1029262821
 30
0.0
 40
0.0833333333
 41
0.0
 71
     1
 72
     1
  1
ALUMINUM
  7
SLDTEXTSTYLE0
 73
     1
 44
1.0
  0
ENDBLK
  5
D9
330
D7
100
AcDbEntity
  8
0
100
AcDbBlockEnd
  0
BLOCK
  5
E6
330
E5
100
AcDbEntity
  8
0
100
AcDbBlockBegin
  2
SW_SYMBOL_C#_1
 70
     0
 10
0.0
 20
0.0
 30
0.0
  3
SW_SYMBOL_C#_1
  1
SW_SYMBOL_C#_1
  0
CIRCLE
  5
E8
330
E5
100
AcDbEntity
  8
0
  6
Continuous
 62
     0
370
     0
100
AcDbCircle
 10
31.4960629921
 20
19.6850393701
 30
0.0
 40
31.49606299212599
  0
MTEXT
  5
E9
330
E5
100
AcDbEntity
  8
0
  6
Continuous
 62
     0
370
     0
100
AcDbMText
 10
31.4960629921
 20
19.6850393701
 30
0.0
 40
30.821835344
 41
0.0
 71
     5
 72
     1
  1
1
  7
SLDTEXTSTYLE0
 73
     1
 44
1.0
  0
ENDBLK
  5
E7
330
E5
100
AcDbEntity
  8
0
100
AcDbBlockEnd
  0
BLOCK
  5
EF
330
EE
100
AcDbEntity
  8
0
100
AcDbBlockBegin
  2
SW_SYMBOL_C#_2
 70
     0
 10
0.0
 20
0.0
 30
0.0
  3
SW_SYMBOL_C#_2
  1
SW_SYMBOL_C#_2
  0
CIRCLE
  5
F1
330
EE
100
AcDbEntity
  8
0
  6
Continuous
 62
     0
370
     0
100
AcDbCircle
 10
31.4960629921
 20
19.6850393701
 30
0.0
 40
31.49606299212599
  0
MTEXT
  5
F2
330
EE
100
AcDbEntity
  8
0
  6
Continuous
 62
     0
370
     0
100
AcDbMText
 10
31.4960629921
 20
19.6850393701
 30
0.0
 40
30.821835344
 41
0.0
 71
     5
 72
     1
  1
2
  7
SLDTEXTSTYLE0
 73
     1
 44
1.0
  0
ENDBLK
  5
F0
330
EE
100
AcDbEntity
  8
0
100
AcDbBlockEnd
  0
BLOCK
  5
F7
330
F6
100
AcDbEntity
  8
0
100
AcDbBlockBegin
  2
SW_SYMBOL_C#_3
 70
     0
 10
0.0
 20
0.0
 30
0.0
  3
SW_SYMBOL_C#_3
  1
SW_SYMBOL_C#_3
  0
CIRCLE
  5
F9
330
F6
100
AcDbEntity
  8
0
  6
Continuous
 62
     0
370
     0
100
AcDbCircle
 10
31.4960629921
 20
19.6850393701
 30
0.0
 40
31.49606299212599
  0
MTEXT
  5
FA
330
F6
100
AcDbEntity
  8
0
  6
Continuous
 62
     0
370
     0
100
AcDbMText
 10
31.4960629921
 20
19.6850393701
 30
0.0
 40
30.821835344
 41
0.0
 71
     5
 72
     1
  1
3
  7
SLDTEXTSTYLE0
 73
     1
 44
1.0
  0
ENDBLK
  5
F8
330
F6
100
AcDbEntity
  8
0
100
AcDbBlockEnd
  0
BLOCK
  5
11C
330
11B
100
AcDbEntity
  8
0
100
AcDbBlockBegin
  2
_D
 70
     0
 10
0.0
 20
0.0
 30
0.0
  3
_D
  1
_D
  0
SOLID
  5
11E
330
11B
100
AcDbEntity
  8
0
  6
Continuous
 62
     7
370
     0
100
AcDbTrace
 10
3.3425303593
 20
5.3133728363
 30
0.0
 11
3.4449084846
 21
5.3878289942
 31
0.0
 12
3.4165663137
 22
5.416055247
 32
0.0
 13
3.4165663137
 23
5.416055247
 33
0.0
  0
LINE
  5
11F
330
11B
100
AcDbEntity
  8
0
  6
Continuous
 62
     7
370
     0
100
AcDbLine
 10
4.2395809551
 20
5.9658579938
 30
0.0
 11
4.222682807
 21
5.9658579938
 31
0.0
  0
LINE
  5
120
330
11B
100
AcDbEntity
  8
0
  6
Continuous
 62
     7
370
     0
100
AcDbLine
 10
4.222682807
 20
5.9658579938
 30
0.0
 11
4.222682807
 21
5.8334505892
 31
0.0
  0
LINE
  5
121
330
11B
100
AcDbEntity
  8
0
  6
Continuous
 62
     7
370
     0
100
AcDbLine
 10
4.222682807
 20
5.8334505892
 30
0.0
 11
4.2395809551
 21
5.8334505892
 31
0.0
  0
LINE
  5
122
330
11B
100
AcDbEntity
  8
0
  6
Continuous
 62
     7
370
     0
100
AcDbLine
 10
4.7055917748
 20
5.9658579938
 30
0.0
 11
4.7224899228
 21
5.9658579938
 31
0.0
  0
LINE
  5
123
330
11B
100
AcDbEntity
  8
0
  6
Continuous
 62
     7
370
     0
100
AcDbLine
 10
4.7224899228
 20
5.9658579938
 30
0.0
 11
4.7224899228
 21
5.8334505892
 31
0.0
  0
LINE
  5
124
330
11B
100
AcDbEntity
  8
0
  6
Continuous
 62
     7
370
     0
100
AcDbLine
 10
4.7224899228
 20
5.8334505892
 30
0.0
 11
4.7055917748
 21
5.8334505892
 31
0.0
  0
LINE
  5
125
330
11B
100
AcDbEntity
  8
0
  6
Continuous
 62
     7
370
     0
100
AcDbLine
 10
3.3425303593
 20
5.3133728363
 30
0.0
 11
4.0600091957
 21
6.0337981801
 31
0.0
  0
LINE
  5
126
330
11B
100
AcDbEntity
  8
0
  6
Continuous
 62
     7
370
     0
100
AcDbLine
 10
4.0600091957
 20
6.0337981801
 30
0.0
 11
4.2100091957
 21
6.0337981801
 31
0.0
  0
MTEXT
  5
127
330
11B
100
AcDbEntity
  8
0
  6
Continuous
 62
     7
370
     0
100
AcDbMText
 10
4.2100091957
 20
6.0901784523
 30
0.0
 40
0.0833333333
 41
0.0
 71
     1
 72
     1
  1
%%c
  7
SLDTEXTSTYLE0
 73
     1
 44
1.0
  0
MTEXT
  5
128
330
11B
100
AcDbEntity
  8
0
  6
Continuous
 62
     7
370
     0
100
AcDbMText
 10
4.3357962351
 20
6.0901784523
 30
0.0
 40
0.0833333333
 41
0.0
 71
     1
 72
     1
  1
2.20in
  7
SLDTEXTSTYLE0
 73
     1
 44
1.0
  0
MTEXT
  5
129
330
11B
100
AcDbEntity
  8
0
  6
Continuous
 62
     7
370
     0
100
AcDbMText
 10
4.2607036409
 20
5.9408728962
 30
0.0
 40
0.0833333333
 41
0.0
 71
     1
 72
     1
  1
55.9mm
  7
SLDTEXTSTYLE0
 73
     1
 44
1.0
  0
ENDBLK
  5
11D
330
11B
100
AcDbEntity
  8
0
100
AcDbBlockEnd
  0
BLOCK
  5
18D
330
18C
100
AcDbEntity
  8
0
100
AcDbBlockBegin
  2
_D_1
 70
     0
 10
0.0
 20
0.0
 30
0.0
  3
_D_1
  1
_D_1
  0
SOLID
  5
18F
330
18C
100
AcDbEntity
  8
0
  6
Continuous
 62
     7
370
     0
100
AcDbTrace
 10
7.241043095
 20
6.3308960566
 30
0.0
 11
7.366043095
 21
6.3108960566
 31
0.0
 12
7.366043095
 22
6.3508960566
 32
0.0
 13
7.366043095
 23
6.3508960566
 33
0.0
  0
SOLID
  5
190
330
18C
100
AcDbEntity
  8
0
  6
Continuous
 62
     7
370
     0
100
AcDbTrace
 10
6.731043095
 20
6.3308960566
 30
0.0
 11
6.606043095
 21
6.3508960566
 31
0.0
 12
6.606043095
 22
6.3108960566
 32
0.0
 13
6.606043095
 23
6.3108960566
 33
0.0
  0
LINE
  5
191
330
18C
100
AcDbEntity
  8
0
  6
Continuous
 62
     7
370
     0
100
AcDbLine
 10
5.9309111857
 20
6.3308960474
 30
0.0
 11
5.9140130376
 21
6.3308960474
 31
0.0
  0
LINE
  5
192
330
18C
100
AcDbEntity
  8
0
  6
Continuous
 62
     7
370
     0
100
AcDbLine
 10
5.9140130376
 20
6.3308960474
 30
0.0
 11
5.9140130376
 21
6.1984886429
 31
0.0
  0
LINE
  5
193
330
18C
100
AcDbEntity
  8
0
  6
Continuous
 62
     7
370
     0
100
AcDbLine
 10
5.9140130376
 20
6.1984886429
 30
0.0
 11
5.9309111857
 21
6.1984886429
 31
0.0
  0
LINE
  5
194
330
18C
100
AcDbEntity
  8
0
  6
Continuous
 62
     7
370
     0
100
AcDbLine
 10
6.3969220054
 20
6.3308960474
 30
0.0
 11
6.4138201534
 21
6.3308960474
 31
0.0
  0
LINE
  5
195
330
18C
100
AcDbEntity
  8
0
  6
Continuous
 62
     7
370
     0
100
AcDbLine
 10
6.4138201534
 20
6.3308960474
 30
0.0
 11
6.4138201534
 21
6.1984886429
 31
0.0
  0
LINE
  5
196
330
18C
100
AcDbEntity
  8
0
  6
Continuous
 62
     7
370
     0
100
AcDbLine
 10
6.4138201534
 20
6.1984886429
 30
0.0
 11
6.3969220054
 21
6.1984886429
 31
0.0
  0
LINE
  5
197
330
18C
100
AcDbEntity
  8
0
  6
Continuous
 62
     7
370
     0
100
AcDbLine
 10
7.241043095
 20
5.5841426267
 30
0.0
 11
7.241043095
 21
6.4008960566
 31
0.0
  0
LINE
  5
198
330
18C
100
AcDbEntity
  8
0
  6
Continuous
 62
     7
370
     0
100
AcDbLine
 10
6.731043095
 20
5.6739631348
 30
0.0
 11
6.731043095
 21
6.4008960566
 31
0.0
  0
LINE
  5
199
330
18C
100
AcDbEntity
  8
0
  6
Continuous
 62
     7
370
     0
100
AcDbLine
 10
7.241043095
 20
6.3308960566
 30
0.0
 11
7.491043095
 21
6.3308960566
 31
0.0
  0
LINE
  5
19A
330
18C
100
AcDbEntity
  8
0
  6
Continuous
 62
     7
370
     0
100
AcDbLine
 10
6.731043095
 20
6.3308960566
 30
0.0
 11
6.5048244216
 21
6.3308960566
 31
0.0
  0
MTEXT
  5
19B
330
18C
100
AcDbEntity
  8
0
  6
Continuous
 62
     7
370
     0
100
AcDbMText
 10
5.9024196742
 20
6.455216506
 30
0.0
 40
0.0833333333
 41
0.0
 71
     1
 72
     1
  1

  7
SLDTEXTSTYLE0
 73
     1
 44
1.0
  0
MTEXT
  5
19C
330
18C
100
AcDbEntity
  8
0
  6
Continuous
 62
     7
370
     0
100
AcDbMText
 10
6.0112159654
 20
6.455216506
 30
0.0
 40
0.0833333333
 41
0.0
 71
     1
 72
     1
  1
0.51in
  7
SLDTEXTSTYLE0
 73
     1
 44
1.0
  0
MTEXT
  5
19D
330
18C
100
AcDbEntity
  8
0
  6
Continuous
 62
     7
370
     0
100
AcDbMText
 10
5.9520338715
 20
6.3059109499
 30
0.0
 40
0.0833333333
 41
0.0
 71
     1
 72
     1
  1
13.0mm
  7
SLDTEXTSTYLE0
 73
     1
 44
1.0
  0
MTEXT
  5
19E
330
18C
100
AcDbEntity
  8
0
  6
Continuous
 62
     7
370
     0
100
AcDbMText
 10
6.4889937647
 20
6.455216506
 30
0.0
 40
0.0833333333
 41
0.0
 71
     1
 72
     1
  1

  7
SLDTEXTSTYLE0
 73
     1
 44
1.0
  0
ENDBLK
  5
18E
330
18C
100
AcDbEntity
  8
0
100
AcDbBlockEnd
  0
BLOCK
  5
1A1
330
1A0
100
AcDbEntity
  8
0
100
AcDbBlockBegin
  2
_D_2
 70
     0
 10
0.0
 20
0.0
 30
0.0
  3
_D_2
  1
_D_2
  0
SOLID
  5
1A3
330
1A0
100
AcDbEntity
  8
0
  6
Continuous
 62
     7
370
     0
100
AcDbTrace
 10
7.121043095
 20
6.0276639222
 30
0.0
 11
6.996043095
 21
6.0476639222
 31
0.0
 12
6.996043095
 22
6.0076639222
 32
0.0
 13
6.996043095
 23
6.0076639222
 33
0.0
  0
SOLID
  5
1A4
330
1A0
100
AcDbEntity
  8
0
  6
Continuous
 62
     7
370
     0
100
AcDbTrace
 10
7.241043095
 20
6.0276639222
 30
0.0
 11
7.366043095
 21
6.0076639222
 31
0.0
 12
7.366043095
 22
6.0476639222
 32
0.0
 13
7.366043095
 23
6.0476639222
 33
0.0
  0
LINE
  5
1A5
330
1A0
100
AcDbEntity
  8
0
  6
Continuous
 62
     7
370
     0
100
AcDbLine
 10
7.5820346065
 20
6.027663913
 30
0.0
 11
7.5651364584
 21
6.027663913
 31
0.0
  0
LINE
  5
1A6
330
1A0
100
AcDbEntity
  8
0
  6
Continuous
 62
     7
370
     0
100
AcDbLine
 10
7.5651364584
 20
6.027663913
 30
0.0
 11
7.5651364584
 21
5.8952565084
 31
0.0
  0
LINE
  5
1A7
330
1A0
100
AcDbEntity
  8
0
  6
Continuous
 62
     7
370
     0
100
AcDbLine
 10
7.5651364584
 20
5.8952565084
 30
0.0
 11
7.5820346065
 21
5.8952565084
 31
0.0
  0
LINE
  5
1A8
330
1A0
100
AcDbEntity
  8
0
  6
Continuous
 62
     7
370
     0
100
AcDbLine
 10
7.9864713275
 20
6.027663913
 30
0.0
 11
8.0033694755
 21
6.027663913
 31
0.0
  0
LINE
  5
1A9
330
1A0
100
AcDbEntity
  8
0
  6
Continuous
 62
     7
370
     0
100
AcDbLine
 10
8.0033694755
 20
6.027663913
 30
0.0
 11
8.0033694755
 21
5.8952565084
 31
0.0
  0
LINE
  5
1AA
330
1A0
100
AcDbEntity
  8
0
  6
Continuous
 62
     7
370
     0
100
AcDbLine
 10
8.0033694755
 20
5.8952565084
 30
0.0
 11
7.9864713275
 21
5.8952565084
 31
0.0
  0
LINE
  5
1AB
330
1A0
100
AcDbEntity
  8
0
  6
Continuous
 62
     7
370
     0
100
AcDbLine
 10
7.121043095
 20
5.6739631348
 30
0.0
 11
7.121043095
 21
6.0976639222
 31
0.0
  0
LINE
  5
1AC
330
1A0
100
AcDbEntity
  8
0
  6
Continuous
 62
     7
370
     0
100
AcDbLine
 10
7.241043095
 20
5.5841426267
 30
0.0
 11
7.241043095
 21
6.0976639222
 31
0.0
  0
LINE
  5
1AD
330
1A0
100
AcDbEntity
  8
0
  6
Continuous
 62
     7
370
     0
100
AcDbLine
 10
7.121043095
 20
6.0276639222
 30
0.0
 11
6.871043095
 21
6.0276639222
 31
0.0
  0
LINE
  5
1AE
330
1A0
100
AcDbEntity
  8
0
  6
Continuous
 62
     7
370
     0
100
AcDbLine
 10
7.241043095
 20
6.0276639222
 30
0.0
 11
7.4741322086
 21
6.0276639222
 31
0.0
  0
MTEXT
  5
1AF
330
1A0
100
AcDbEntity
  8
0
  6
Continuous
 62
     7
370
     0
100
AcDbMText
 10
7.553543095
 20
6.1519843715
 30
0.0
 40
0.0833333333
 41
0.0
 71
     1
 72
     1
  1

  7
SLDTEXTSTYLE0
 73
     1
 44
1.0
  0
MTEXT
  5
1B0
330
1A0
100
AcDbEntity
  8
0
  6
Continuous
 62
     7
370
     0
100
AcDbMText
 10
7.6315523368
 20
6.1519843715
 30
0.0
 40
0.0833333333
 41
0.0
 71
     1
 72
     1
  1
0.12in
  7
SLDTEXTSTYLE0
 73
     1
 44
1.0
  0
MTEXT
  5
1B1
330
1A0
100
AcDbEntity
  8
0
  6
Continuous
 62
     7
370
     0
100
AcDbMText
 10
7.6031572924
 20
6.0026788155
 30
0.0
 40
0.0833333333
 41
0.0
 71
     1
 72
     1
  1
3.0mm
  7
SLDTEXTSTYLE0
 73
     1
 44
1.0
  0
MTEXT
  5
1B2
330
1A0
100
AcDbEntity
  8
0
  6
Continuous
 62
     7
370
     0
100
AcDbMText
 10
8.0785430502
 20
6.1519843715
 30
0.0
 40
0.0833333333
 41
0.0
 71
     1
 72
     1
  1

  7
SLDTEXTSTYLE0
 73
     1
 44
1.0
  0
ENDBLK
  5
1A2
330
1A0
100
AcDbEntity
  8
0
100
AcDbBlockEnd
  0
BLOCK
  5
1B6
330
1B5
100
AcDbEntity
  8
0
100
AcDbBlockBegin
  2
_D_3
 70
     0
 10
0.0
 20
0.0
 30
0.0
  3
_D_3
  1
_D_3
  0
SOLID
  5
1B8
330
1B5
100
AcDbEntity
  8
0
  6
Continuous
 62
     7
370
     0
100
AcDbTrace
 10
7.6347438824
 20
3.5839631348
 30
0.0
 11
7.6547438824
 21
3.7089631348
 31
0.0
 12
7.6147438824
 22
3.7089631348
 32
0.0
 13
7.6147438824
 23
3.7089631348
 33
0.0
  0
SOLID
  5
1B9
330
1B5
100
AcDbEntity
  8
0
  6
Continuous
 62
     7
370
     0
100
AcDbTrace
 10
7.6347438824
 20
5.4839631348
 30
0.0
 11
7.6147438824
 21
5.3589631348
 31
0.0
 12
7.6547438824
 22
5.3589631348
 32
0.0
 13
7.6547438824
 23
5.3589631348
 33
0.0
  0
LINE
  5
1BA
330
1B5
100
AcDbEntity
  8
0
  6
Continuous
 62
     7
370
     0
100
AcDbLine
 10
7.4017384817
 20
4.5446112776
 30
0.0
 11
7.3848403337
 21
4.5446112776
 31
0.0
  0
LINE
  5
1BB
330
1B5
100
AcDbEntity
  8
0
  6
Continuous
 62
     7
370
     0
100
AcDbLine
 10
7.3848403337
 20
4.5446112776
 30
0.0
 11
7.3848403337
 21
4.412203873
 31
0.0
  0
LINE
  5
1BC
330
1B5
100
AcDbEntity
  8
0
  6
Continuous
 62
     7
370
     0
100
AcDbLine
 10
7.3848403337
 20
4.412203873
 30
0.0
 11
7.4017384817
 21
4.412203873
 31
0.0
  0
LINE
  5
1BD
330
1B5
100
AcDbEntity
  8
0
  6
Continuous
 62
     7
370
     0
100
AcDbLine
 10
7.8677493014
 20
4.5446112776
 30
0.0
 11
7.8846474495
 21
4.5446112776
 31
0.0
  0
LINE
  5
1BE
330
1B5
100
AcDbEntity
  8
0
  6
Continuous
 62
     7
370
     0
100
AcDbLine
 10
7.8846474495
 20
4.5446112776
 30
0.0
 11
7.8846474495
 21
4.412203873
 31
0.0
  0
LINE
  5
1BF
330
1B5
100
AcDbEntity
  8
0
  6
Continuous
 62
     7
370
     0
100
AcDbLine
 10
7.8846474495
 20
4.412203873
 30
0.0
 11
7.8677493014
 21
4.412203873
 31
0.0
  0
LINE
  5
1C0
330
1B5
100
AcDbEntity
  8
0
  6
Continuous
 62
     7
370
     0
100
AcDbLine
 10
7.291043095
 20
3.5839631348
 30
0.0
 11
7.7047438824
 21
3.5839631348
 31
0.0
  0
LINE
  5
1C1
330
1B5
100
AcDbEntity
  8
0
  6
Continuous
 62
     7
370
     0
100
AcDbLine
 10
7.291043095
 20
5.4839631348
 30
0.0
 11
7.7047438824
 21
5.4839631348
 31
0.0
  0
LINE
  5
1C2
330
1B5
100
AcDbEntity
  8
0
  6
Continuous
 62
     7
370
     0
100
AcDbLine
 10
7.6347438824
 20
3.5839631348
 30
0.0
 11
7.6347438824
 21
4.3953057307
 31
0.0
  0
LINE
  5
1C3
330
1B5
100
AcDbEntity
  8
0
  6
Continuous
 62
     7
370
     0
100
AcDbLine
 10
7.6347438824
 20
5.4839631348
 30
0.0
 11
7.6347438824
 21
4.6726205388
 31
0.0
  0
MTEXT
  5
1C4
330
1B5
100
AcDbEntity
  8
0
  6
Continuous
 62
     7
370
     0
100
AcDbMText
 10
7.4191497463
 20
4.6689317361
 30
0.0
 40
0.0833333333
 41
0.0
 71
     1
 72
     1
  1
%%c
  7
SLDTEXTSTYLE0
 73
     1
 44
1.0
  0
MTEXT
  5
1C5
330
1B5
100
AcDbEntity
  8
0
  6
Continuous
 62
     7
370
     0
100
AcDbMText
 10
7.5449367857
 20
4.6689317361
 30
0.0
 40
0.0833333333
 41
0.0
 71
     1
 72
     1
  1
1.90in
  7
SLDTEXTSTYLE0
 73
     1
 44
1.0
  0
MTEXT
  5
1C6
330
1B5
100
AcDbEntity
  8
0
  6
Continuous
 62
     7
370
     0
100
AcDbMText
 10
7.4228611676
 20
4.5196261801
 30
0.0
 40
0.0833333333
 41
0.0
 71
     1
 72
     1
  1
48.3mm
  7
SLDTEXTSTYLE0
 73
     1
 44
1.0
  0
ENDBLK
  5
1B7
330
1B5
100
AcDbEntity
  8
0
100
AcDbBlockEnd
  0
BLOCK
  5
1C8
330
1C7
100
AcDbEntity
  8
0
100
AcDbBlockBegin
  2
SW_NOTE_5
 70
     0
 10
0.0
 20
0.0
 30
0.0
  3
SW_NOTE_5
  1
SW_NOTE_5
  0
MTEXT
  5
1CB
330
1C7
100
AcDbEntity
  8
0
  6
Continuous
 62
     0
370
     0
100
AcDbMText
 10
-2.2718265401
 20
0.035979452
 30
0.0
 40
0.0833333333
 41
0.0
 71
     1
 72
     1
  1
SM2 (
  7
SLDTEXTSTYLE3
 73
     1
 44
1.0
  0
MTEXT
  5
1CC
330
1C7
100
AcDbEntity
  8
0
  6
Continuous
 62
     0
370
     0
100
AcDbMText
 10
-1.9502216053
 20
0.035979452
 30
0.0
 40
0.0833333333
 41
0.0
 71
     1
 72
     1
  1
%%c
  7
SLDTEXTSTYLE0
 73
     1
 44
1.0
  0
MTEXT
  5
1CD
330
1C7
100
AcDbEntity
  8
0
  6
Continuous
 62
     0
370
     0
100
AcDbMText
 10
-1.824434575
 20
0.035979452
 30
0.0
 40
0.0833333333
 41
0.0
 71
     1
 72
     1
  1
2.035-40) SERIES INTERNAL THREAD
  7
SLDTEXTSTYLE0
 73
     1
 44
1.0
  0
ENDBLK
  5
1C9
330
1C7
100
AcDbEntity
  8
0
100
AcDbBlockEnd
  0
BLOCK
  5
1D2
330
1D1
100
AcDbEntity
  8
0
100
AcDbBlockBegin
  2
SW_NOTE_6
 70
     0
 10
0.0
 20
0.0
 30
0.0
  3
SW_NOTE_6
  1
SW_NOTE_6
  0
MTEXT
  5
1D4
330
1D1
100
AcDbEntity
  8
0
  6
Continuous
 62
     0
370
     0
100
AcDbMText
 10
0.0202895427
 20
0.0390965183
 30
0.0
 40
0.0833333333
 41
0.0
 71
     1
 72
     1
  1
SM2 (
  7
SLDTEXTSTYLE3
 73
     1
 44
1.0
  0
MTEXT
  5
1D5
330
1D1
100
AcDbEntity
  8
0
  6
Continuous
 62
     0
370
     0
100
AcDbMText
 10
0.3418944775
 20
0.0390965183
 30
0.0
 40
0.0833333333
 41
0.0
 71
     1
 72
     1
  1
%%c
  7
SLDTEXTSTYLE0
 73
     1
 44
1.0
  0
MTEXT
  5
1D6
330
1D1
100
AcDbEntity
  8
0
  6
Continuous
 62
     0
370
     0
100
AcDbMText
 10
0.4676815077
 20
0.0390965183
 30
0.0
 40
0.0833333333
 41
0.0
 71
     1
 72
     1
  1
2.035-40) SERIES EXTERNAL THREAD
  7
SLDTEXTSTYLE0
 73
     1
 44
1.0
  0
ENDBLK
  5
1D3
330
1D1
100
AcDbEntity
  8
0
100
AcDbBlockEnd
  0
BLOCK
  5
1DA
330
1D9
100
AcDbEntity
  8
0
100
AcDbBlockBegin
  2
SW_NOTE_7
 70
     0
 10
0.0
 20
0.0
 30
0.0
  3
SW_NOTE_7
  1
SW_NOTE_7
  0
CIRCLE
  5
1DC
330
1D9
100
AcDbEntity
  8
0
  6
Continuous
 62
     0
370
     0
100
AcDbCircle
 10
-0.1740529942
 20
0.0
 30
0.0
 40
0.1740529942255687
  0
MTEXT
  5
1DD
330
1D9
100
AcDbEntity
  8
0
  6
Continuous
 62
     0
370
     0
100
AcDbMText
 10
-0.1753116749
 20
0.0623338763
 30
0.0
 40
0.125
 41
0.0
 71
     2
 72
     1
  1
1
  7
SLDTEXTSTYLE0
 73
     1
 44
1.0
  0
ENDBLK
  5
1DB
330
1D9
100
AcDbEntity
  8
0
100
AcDbBlockEnd
  0
BLOCK
  5
1E1
330
1E0
100
AcDbEntity
  8
0
100
AcDbBlockBegin
  2
SW_NOTE_8
 70
     0
 10
0.0
 20
0.0
 30
0.0
  3
SW_NOTE_8
  1
SW_NOTE_8
  0
CIRCLE
  5
1E3
330
1E0
100
AcDbEntity
  8
0
  6
Continuous
 62
     0
370
     0
100
AcDbCircle
 10
0.1740529942
 20
0.0
 30
0.0
 40
0.1740529942255687
  0
MTEXT
  5
1E4
330
1E0
100
AcDbEntity
  8
0
  6
Continuous
 62
     0
370
     0
100
AcDbMText
 10
0.1727943135
 20
0.0623338763
 30
0.0
 40
0.125
 41
0.0
 71
     2
 72
     1
  1
2
  7
SLDTEXTSTYLE0
 73
     1
 44
1.0
  0
ENDBLK
  5
1E2
330
1E0
100
AcDbEntity
  8
0
100
AcDbBlockEnd
  0
BLOCK
  5
1E8
330
1E7
100
AcDbEntity
  8
0
100
AcDbBlockBegin
  2
SW_NOTE_9
 70
     0
 10
0.0
 20
0.0
 30
0.0
  3
SW_NOTE_9
  1
SW_NOTE_9
  0
CIRCLE
  5
1EA
330
1E7
100
AcDbEntity
  8
0
  6
Continuous
 62
     0
370
     0
100
AcDbCircle
 10
-0.1740529942
 20
0.0
 30
0.0
 40
0.1740529942255686
  0
MTEXT
  5
1EB
330
1E7
100
AcDbEntity
  8
0
  6
Continuous
 62
     0
370
     0
100
AcDbMText
 10
-0.1753116749
 20
0.0623338763
 30
0.0
 40
0.125
 41
0.0
 71
     2
 72
     1
  1
3
  7
SLDTEXTSTYLE0
 73
     1
 44
1.0
  0
ENDBLK
  5
1E9
330
1E7
100
AcDbEntity
  8
0
100
AcDbBlockEnd
  0
ENDSEC
  0
SECTION
  2
ENTITIES
  0
LINE
  5
7D
330
1F
100
AcDbEntity
  8
0
  6
Continuous
 62
     7
370
     0
100
AcDbLine
 10
0.0621791378
 20
8.4506055117
 30
0.0
 11
10.9444569626
 21
8.4506055117
 31
0.0
  0
LINE
  5
7E
330
1F
100
AcDbEntity
  8
0
  6
Continuous
 62
     7
370
     0
100
AcDbLine
 10
0.0621791378
 20
8.4506055117
 30
0.0
 11
0.0621791378
 21
0.035557648
 31
0.0
  0
LINE
  5
7F
330
1F
100
AcDbEntity
  8
0
  6
Continuous
 62
     7
370
     0
100
AcDbLine
 10
10.9444569626
 20
0.035557648
 30
0.0
 11
0.0621791378
 21
0.035557648
 31
0.0
  0
LINE
  5
80
330
1F
100
AcDbEntity
  8
0
  6
Continuous
 62
     7
370
     0
100
AcDbLine
 10
10.9444569626
 20
0.035557648
 30
0.0
 11
10.9444569626
 21
8.4506055117
 31
0.0
  0
LINE
  5
81
330
1F
100
AcDbEntity
  8
0
  6
Continuous
 62
     7
370
     0
100
AcDbLine
 10
8.4938096065
 20
0.4840901186
 30
0.0
 11
6.7571952625
 21
0.4840901186
 31
0.0
  0
LINE
  5
82
330
1F
100
AcDbEntity
  8
0
  6
Continuous
 62
     7
370
     0
100
AcDbLine
 10
6.7571952625
 20
0.4840901186
 30
0.0
 11
6.7571952625
 21
1.030163002
 31
0.0
  0
LINE
  5
83
330
1F
100
AcDbEntity
  8
0
  6
Continuous
 62
     7
370
     0
100
AcDbLine
 10
6.7571952625
 20
0.035557648
 30
0.0
 11
6.7571952625
 21
1.030163002
 31
0.0
  0
LINE
  5
84
330
1F
100
AcDbEntity
  8
0
  6
Continuous
 62
     7
370
     0
100
AcDbLine
 10
8.4938096065
 20
0.6756085809
 30
0.0
 11
10.9444569626
 21
0.6756085809
 31
0.0
  0
LINE
  5
85
330
1F
100
AcDbEntity
  8
0
  6
Continuous
 62
     7
370
     0
100
AcDbLine
 10
8.4938096065
 20
1.3873799542
 30
0.0
 11
8.4938096065
 21
0.035557648
 31
0.0
  0
LINE
  5
86
330
1F
100
AcDbEntity
  8
0
  6
Continuous
 62
     7
370
     0
100
AcDbLine
 10
8.4938096065
 20
1.030163002
 30
0.0
 11
6.7571952625
 21
1.030163002
 31
0.0
  0
LINE
  5
87
330
1F
100
AcDbEntity
  8
0
  6
Continuous
 62
     7
370
     0
100
AcDbLine
 10
8.4938096065
 20
0.3598787426
 30
0.0
 11
10.9444569626
 21
0.3598787426
 31
0.0
  0
LINE
  5
88
330
1F
100
AcDbEntity
  8
0
  6
Continuous
 62
     7
370
     0
100
AcDbLine
 10
8.4938096065
 20
0.6662079686
 30
0.0
 11
6.7571952625
 21
0.6662079686
 31
0.0
  0
LINE
  5
89
330
1F
100
AcDbEntity
  8
0
  6
Continuous
 62
     7
370
     0
100
AcDbLine
 10
8.4938096065
 20
0.8459606517
 30
0.0
 11
6.7571952625
 21
0.8459606517
 31
0.0
  0
LINE
  5
8A
330
1F
100
AcDbEntity
  8
0
  6
Continuous
 62
     7
370
     0
100
AcDbLine
 10
7.3281027587
 20
1.030163002
 30
0.0
 11
7.3281027587
 21
0.4840901186
 31
0.0
  0
LINE
  5
8B
330
1F
100
AcDbEntity
  8
0
  6
Continuous
 62
     7
370
     0
100
AcDbLine
 10
7.8037240401
 20
1.030163002
 30
0.0
 11
7.8037240401
 21
0.4840901186
 31
0.0
  0
LINE
  5
8C
330
1F
100
AcDbEntity
  8
0
  6
Continuous
 62
     7
370
     0
100
AcDbLine
 10
9.990119718
 20
0.3598787426
 30
0.0
 11
9.990119718
 21
0.035557648
 31
0.0
  0
LINE
  5
8D
330
1F
100
AcDbEntity
  8
0
  6
Continuous
 62
     7
370
     0
100
AcDbLine
 10
6.7571952625
 20
0.4840901186
 30
0.0
 11
6.7571952625
 21
0.297745443
 31
0.0
  0
LINE
  5
8E
330
1F
100
AcDbEntity
  8
0
  6
Continuous
 62
     7
370
     0
100
AcDbLine
 10
6.7571952625
 20
0.297745443
 30
0.0
 11
8.4938096065
 21
0.297745443
 31
0.0
  0
LINE
  5
8F
330
1F
100
AcDbEntity
  8
0
  6
Continuous
 62
     7
370
     0
100
AcDbLine
 10
6.7571952625
 20
0.297745443
 30
0.0
 11
6.7571952625
 21
1.3873799542
 31
0.0
  0
LINE
  5
90
330
1F
100
AcDbEntity
  8
0
  6
Continuous
 62
     7
370
     0
100
AcDbLine
 10
6.7571952625
 20
1.3873799542
 30
0.0
 11
8.4938096065
 21
1.3873799542
 31
0.0
  0
LINE
  5
91
330
1F
100
AcDbEntity
  8
0
  6
Continuous
 62
     7
370
     0
100
AcDbLine
 10
10.6365495992
 20
0.6756085809
 30
0.0
 11
10.6365495992
 21
0.3598787426
 31
0.0
  0
LINE
  5
92
330
1F
100
AcDbEntity
  8
0
  6
Continuous
 62
     7
370
     0
100
AcDbLine
 10
8.4938096065
 20
1.3873799542
 30
0.0
 11
10.9444569626
 21
1.3873799542
 31
0.0
  0
LINE
  5
93
330
1F
100
AcDbEntity
  8
0
  6
Continuous
 62
     7
370
     0
100
AcDbLine
 10
10.9444569626
 20
1.3873799542
 30
0.0
 11
10.9444569626
 21
1.9698084888
 31
0.0
  0
LINE
  5
94
330
1F
100
AcDbEntity
  8
0
  6
Continuous
 62
     7
370
     0
100
AcDbLine
 10
8.4938096065
 20
0.9800288797
 30
0.0
 11
10.9444569626
 21
0.9800288797
 31
0.0
  0
INSERT
  5
95
330
1F
100
AcDbEntity
  8
0
  6
Continuous
 62
     7
100
AcDbBlockReference
  2
Third Angle Projection Block
 10
4.6348905679
 20
0.6108753523
 30
0.0
 41
0.8
 42
0.8
 43
0.8
  0
MTEXT
  5
97
330
1F
100
AcDbEntity
  8
0
  6
Continuous
 62
     7
370
     0
100
AcDbMText
 10
10.7892734632
 20
0.5227176726
 30
0.0
 40
0.125
 41
0.0
 71
     2
 72
     1
  1
A
  7
SLDTEXTSTYLE0
 73
     1
 44
1.0
  0
MTEXT
  5
98
330
1F
100
AcDbEntity
  8
0
  6
Continuous
 62
     7
370
     0
100
AcDbMText
 10
9.2318752508
 20
0.2019943461
 30
0.0
 40
0.125
 41
0.0
 71
     2
 72
     1
  1
LA1725-ML
  7
SLDTEXTSTYLE0
 73
     1
 44
1.0
  0
MTEXT
  5
99
330
1F
100
AcDbEntity
  8
0
  6
Continuous
 62
     7
370
     0
100
AcDbMText
 10
8.5204715199
 20
0.6623747189
 30
0.0
 40
0.0833333333
 41
0.0
 71
     1
 72
     1
  1
MATERIAL
  7
SLDTEXTSTYLE0
 73
     1
 44
1.0
  0
MTEXT
  5
9A
330
1F
100
AcDbEntity
  8
0
  6
Continuous
 62
     7
370
     0
100
AcDbMText
 10
6.8594860853
 20
0.7895493672
 30
0.0
 40
0.0729166667
 41
0.0
 71
     1
 72
     1
  1
DRAWN
  7
SLDTEXTSTYLE0
 73
     1
 44
1.0
  0
MTEXT
  5
9B
330
1F
100
AcDbEntity
  8
0
  6
Continuous
 62
     7
370
     0
100
AcDbMText
 10
6.7872445848
 20
0.613335314
 30
0.0
 40
0.0729166667
 41
0.0
 71
     1
 72
     1
  1
APPROVAL
  7
SLDTEXTSTYLE0
 73
     1
 44
1.0
  0
MTEXT
  5
9C
330
1F
100
AcDbEntity
  8
0
  6
Continuous
 62
     7
370
     0
100
AcDbMText
 10
10.6936137314
 20
0.6373332609
 30
0.0
 40
0.0833333333
 41
0.0
 71
     1
 72
     1
  1
REV
  7
SLDTEXTSTYLE0
 73
     1
 44
1.0
  0
MTEXT
  5
9D
330
1F
100
AcDbEntity
  8
0
  6
Continuous
 62
     7
370
     0
100
AcDbMText
 10
7.4919633718
 20
0.7999100272
 30
0.0
 40
0.0833333333
 41
0.0
 71
     1
 72
     1
  1
GG
  7
SLDTEXTSTYLE0
 73
     1
 44
1.0
  0
MTEXT
  5
9E
330
1F
100
AcDbEntity
  8
0
  6
Continuous
 62
     7
370
     0
100
AcDbMText
 10
7.4919633718
 20
0.623695974
 30
0.0
 40
0.0833333333
 41
0.0
 71
     1
 72
     1
  1
DD
  7
SLDTEXTSTYLE0
 73
     1
 44
1.0
  0
MTEXT
  5
9F
330
1F
100
AcDbEntity
  8
0
  6
Continuous
 62
     7
370
     0
100
AcDbMText
 10
7.8687497515
 20
0.7999100272
 30
0.0
 40
0.0833333333
 41
0.0
 71
     1
 72
     1
  1
15/OCT/15
  7
SLDTEXTSTYLE0
 73
     1
 44
1.0
  0
MTEXT
  5
A0
330
1F
100
AcDbEntity
  8
0
  6
Continuous
 62
     7
370
     0
100
AcDbMText
 10
8.0163191884
 20
0.9772495896
 30
0.0
 40
0.0833333333
 41
0.0
 71
     1
 72
     1
  1
DATE
  7
SLDTEXTSTYLE0
 73
     1
 44
1.0
  0
MTEXT
  5
A1
330
1F
100
AcDbEntity
  8
0
  6
Continuous
 62
     7
370
     0
100
AcDbMText
 10
7.8687497515
 20
0.623695974
 30
0.0
 40
0.0833333333
 41
0.0
 71
     1
 72
     1
  1
15/OCT/15
  7
SLDTEXTSTYLE0
 73
     1
 44
1.0
  0
MTEXT
  5
A3
330
1F
100
AcDbEntity
  8
0
  6
Continuous
 62
     7
370
     0
100
AcDbMText
 10
9.0316104912
 20
1.0943207896
 30
0.0
 40
0.0833333333
 41
0.0
 71
     1
 72
     1
  1
w w w . t h o r  l a b s . c o m
  7
SLDTEXTSTYLE1
 73
     1
 44
1.0
  0
MTEXT
  5
A4
330
1F
100
AcDbEntity
  8
0
  6
Continuous
 62
     7
370
     0
100
AcDbMText
 10
8.5315119501
 20
0.328719653
 30
0.0
 40
0.0833333333
 41
0.0
 71
     1
 72
     1
  1
ITEM #
  7
SLDTEXTSTYLE0
 73
     1
 44
1.0
  0
MTEXT
  5
A5
330
1F
100
AcDbEntity
  8
0
  6
Continuous
 62
     7
370
     0
100
AcDbMText
 10
10.0209370115
 20
0.328719653
 30
0.0
 40
0.0833333333
 41
0.0
 71
     1
 72
     1
  1
APPROX WEIGHT
  7
SLDTEXTSTYLE0
 73
     1
 44
1.0
  0
MTEXT
  5
A6
330
1F
100
AcDbEntity
  8
0
  6
Continuous
 62
     7
370
     0
100
AcDbMText
 10
9.5949135982
 20
0.5414715262
 30
0.0
 40
0.125
 41
0.0
 71
     2
 72
     1
  1
SEE TABLE
  7
SLDTEXTSTYLE0
 73
     1
 44
1.0
  0
MTEXT
  5
A8
330
1F
100
AcDbEntity
  8
0
  6
Continuous
 62
     7
370
     0
100
AcDbMText
 10
10.4826226539
 20
0.2019943461
 30
0.0
 40
0.125
 41
0.0
 71
     2
 72
     1
  1
33 g
  7
SLDTEXTSTYLE2
 73
     1
 44
1.0
  0
INSERT
  5
AE
330
1F
100
AcDbEntity
  8
0
  6
Continuous
 62
     7
370
     0
100
AcDbBlockReference
  2
SW_NOTE_0
 10
6.8835832285
 20
0.1754273811
 30
0.0
  0
INSERT
  5
B4
330
1F
100
AcDbEntity
  8
0
  6
Continuous
 62
     7
370
     0
100
AcDbBlockReference
  2
SW_NOTE_1
 10
6.8719828753
 20
1.2001390658
 30
0.0
  0
MTEXT
  5
B5
330
1F
100
AcDbEntity
  8
0
  6
Continuous
 62
     7
370
     0
100
AcDbMText
 10
7.3987149145
 20
0.9772495896
 30
0.0
 40
0.0833333333
 41
0.0
 71
     1
 72
     1
  1
NAME
  7
SLDTEXTSTYLE0
 73
     1
 44
1.0
  0
INSERT
  5
BC
330
1F
100
AcDbEntity
  8
0
  6
Continuous
 62
     7
370
     0
100
AcDbBlockReference
  2
SW_NOTE_2
 10
8.5755302951
 20
0.8160048101
 30
0.0
  0
MTEXT
  5
BD
330
1F
100
AcDbEntity
  8
0
  6
Continuous
 62
     7
370
     0
100
AcDbMText
 10
7.0281258754
 20
0.4200025137
 30
0.0
 40
0.0625
 41
0.0
 71
     1
 72
     1
  1
COPYRIGHT © 2015 BY THORLABS
  7
SLDTEXTSTYLE0
 73
     1
 44
1.0
  0
INSERT
  5
C3
330
1F
100
AcDbEntity
  8
0
  6
Continuous
 62
     7
370
     0
100
AcDbBlockReference
  2
SW_NOTE_3
 10
2.1096529316
 20
0.3219551564
 30
0.0
  0
INSERT
  5
D6
330
1F
100
AcDbEntity
  8
0
  6
Continuous
 62
     7
370
     0
100
AcDbBlockReference
  2
SW_NOTE_4
 10
0.2229009106
 20
1.7636814979
 30
0.0
  0
INSERT
  5
100
330
1F
100
AcDbEntity
  8
0
  6
Continuous
 62
     7
370
     0
100
AcDbBlockReference
  2
SW_TABLEANNOTATION_0
 10
0.0612779343
 20
8.4504327236
 30
0.0
  0
ARC
  5
101
330
1F
100
AcDbEntity
  8
0
  6
Continuous
 62
     7
370
     0
100
AcDbCircle
 10
2.5663084083
 20
4.5339631348
 30
0.0
 40
1.000179491924312
100
AcDbArc
 50
180.8593146732
 51
359.1406853268
  0
LINE
  5
102
330
1F
100
AcDbEntity
  8
0
  6
Continuous
 62
     7
370
     0
100
AcDbLine
 10
1.5662413945
 20
4.5189631351
 30
0.0
 11
1.606425617
 21
4.5189631351
 31
0.0
  0
ARC
  5
103
330
1F
100
AcDbEntity
  8
0
  6
Continuous
 62
     7
370
     0
100
AcDbCircle
 10
2.5663084083
 20
4.5339631348
 30
0.0
 40
0.9600000000000013
100
AcDbArc
 50
180.8952829866
 51
359.1047170134
  0
LINE
  5
104
330
1F
100
AcDbEntity
  8
0
  6
Continuous
 62
     7
370
     0
100
AcDbLine
 10
3.5261911997
 20
4.5189631351
 30
0.0
 11
3.5663754221
 21
4.5189631351
 31
0.0
  0
ARC
  5
105
330
1F
100
AcDbEntity
  8
0
  6
Continuous
 62
     7
370
     0
100
AcDbCircle
 10
2.5663084083
 20
4.5339631348
 30
0.0
 40
1.000179491924312
100
AcDbArc
 50
0.8593146732
 51
179.1406853268
  0
LINE
  5
106
330
1F
100
AcDbEntity
  8
0
  6
Continuous
 62
     7
370
     0
100
AcDbLine
 10
1.5662413945
 20
4.5489631344
 30
0.0
 11
1.5489190146
 21
4.5489631344
 31
0.0
  0
LINE
  5
107
330
1F
100
AcDbEntity
  8
0
  6
Continuous
 62
     7
370
     0
100
AcDbLine
 10
3.583697802
 20
4.5489631344
 30
0.0
 11
3.5663754221
 21
4.5489631344
 31
0.0
  0
LINE
  5
108
330
1F
100
AcDbEntity
  8
0
  6
Continuous
 62
     7
370
     0
100
AcDbLine
 10
3.5663754221
 20
4.5489631344
 30
0.0
 11
3.5261911997
 21
4.5489631344
 31
0.0
  0
ARC
  5
109
330
1F
100
AcDbEntity
  8
0
  6
Continuous
 62
     7
370
     0
100
AcDbCircle
 10
2.5663084083
 20
4.5339631348
 30
0.0
 40
0.9600000000000013
100
AcDbArc
 50
0.8952829866
 51
179.1047170134
  0
LINE
  5
10A
330
1F
100
AcDbEntity
  8
0
  6
Continuous
 62
     7
370
     0
100
AcDbLine
 10
1.606425617
 20
4.5489631344
 30
0.0
 11
1.5662413945
 21
4.5489631344
 31
0.0
  0
ARC
  5
10B
330
1F
100
AcDbEntity
  8
0
  6
Continuous
 62
     7
370
     0
100
AcDbCircle
 10
2.5663084083
 20
4.5339631348
 30
0.0
 40
0.9499999999999998
100
AcDbArc
 50
0.9047077972
 51
179.0952922028
  0
LINE
  5
10C
330
1F
100
AcDbEntity
  8
0
  6
Continuous
 62
     7
370
     0
100
AcDbLine
 10
1.6164268481
 20
4.5489631344
 30
0.0
 11
1.606425617
 21
4.5489631344
 31
0.0
  0
LINE
  5
10D
330
1F
100
AcDbEntity
  8
0
  6
Continuous
 62
     7
370
     0
100
AcDbLine
 10
3.5261911997
 20
4.5489631344
 30
0.0
 11
3.5161899686
 21
4.5489631344
 31
0.0
  0
LINE
  5
10E
330
1F
100
AcDbEntity
  8
0
  6
Continuous
 62
     7
370
     0
100
AcDbLine
 10
1.5489190146
 20
4.5189631351
 30
0.0
 11
1.5662413945
 21
4.5189631351
 31
0.0
  0
LINE
  5
10F
330
1F
100
AcDbEntity
  8
0
  6
Continuous
 62
     7
370
     0
100
AcDbLine
 10
3.5663754221
 20
4.5189631351
 30
0.0
 11
3.583697802
 21
4.5189631351
 31
0.0
  0
ARC
  5
110
330
1F
100
AcDbEntity
  8
0
  6
Continuous
 62
     7
370
     0
100
AcDbCircle
 10
2.5663084083
 20
4.5339631348
 30
0.0
 40
0.9499999999999998
100
AcDbArc
 50
180.9047077972
 51
359.0952922028
  0
LINE
  5
111
330
1F
100
AcDbEntity
  8
0
  6
Continuous
 62
     7
370
     0
100
AcDbLine
 10
1.606425617
 20
4.5189631351
 30
0.0
 11
1.6164268481
 21
4.5189631351
 31
0.0
  0
LINE
  5
112
330
1F
100
AcDbEntity
  8
0
  6
Continuous
 62
     7
370
     0
100
AcDbLine
 10
3.5161899686
 20
4.5189631351
 30
0.0
 11
3.5261911997
 21
4.5189631351
 31
0.0
  0
ARC
  5
113
330
1F
100
AcDbEntity
  8
0
  6
Continuous
 62
     7
370
     0
100
AcDbCircle
 10
2.5663084083
 20
4.5339631348
 30
0.0
 40
0.9499999999999998
100
AcDbArc
 50
179.0952922028
 51
180.9047077972
  0
ARC
  5
114
330
1F
100
AcDbEntity
  8
0
  6
Continuous
 62
     7
370
     0
100
AcDbCircle
 10
2.5663084083
 20
4.5339631348
 30
0.0
 40
0.9499999999999997
100
AcDbArc
 50
359.0952922028
 51
0.9047077972
  0
CIRCLE
  5
115
330
1F
100
AcDbEntity
  8
0
  6
Continuous
 62
     7
370
     0
100
AcDbCircle
 10
2.5663084083
 20
4.5339631348
 30
0.0
 40
1.1
  0
CIRCLE
  5
116
330
1F
100
AcDbEntity
  8
0
  6
Continuous
 62
     7
370
     0
100
AcDbCircle
 10
2.5663084083
 20
4.5339631348
 30
0.0
 40
1.090000000000001
  0
CIRCLE
  5
117
330
1F
100
AcDbEntity
  8
0
  6
Continuous
 62
     7
370
     0
100
AcDbCircle
 10
2.5663084083
 20
4.5339631348
 30
0.0
 40
1.034820508075689
  0
CIRCLE
  5
118
330
1F
100
AcDbEntity
  8
0
  6
Continuous
 62
     7
370
     0
100
AcDbCircle
 10
2.5663084083
 20
4.5339631348
 30
0.0
 40
1.0175
  0
DIMENSION
  5
119
330
1F
100
AcDbEntity
  8
0
  6
Continuous
 62
     7
370
     0
100
AcDbDimension
  2
_D
 10
1.7900864574
 20
3.7545534332
 30
0.0
 11
4.4725863558
 21
6.0276639222
 31
0.0
 70
   163
  1
<>
 71
     1
 42
-1.0
  3
SLDDIMSTYLE0
100
AcDbDiametricDimension
 15
3.3425303593
 25
5.3133728363
 35
0.0
 40
0.0
  0
LINE
  5
12A
330
1F
100
AcDbEntity
  8
0
  6
PHANTOM
 62
     7
370
    30
100
AcDbLine
 10
2.5663084083
 20
5.8979631348
 30
0.0
 11
2.5663084083
 21
3.1699631348
 31
0.0
  0
LINE
  5
12B
330
1F
100
AcDbEntity
  8
0
  6
Continuous
 62
     7
370
    30
100
AcDbLine
 10
2.5663084083
 20
5.8979631348
 30
0.0
 11
2.2163084083
 21
5.8979631348
 31
0.0
  0
SOLID
  5
12C
330
1F
100
AcDbEntity
  8
0
  6
Continuous
 62
     7
370
    30
100
AcDbTrace
 10
2.2163084083
 20
5.8979631348
 30
0.0
 11
2.3663084083
 21
5.8729631348
 31
0.0
 12
2.3663084083
 22
5.9229631348
 32
0.0
 13
2.3663084083
 23
5.9229631348
 33
0.0
  0
LINE
  5
12D
330
1F
100
AcDbEntity
  8
0
  6
Continuous
 62
     7
370
    30
100
AcDbLine
 10
2.5663084083
 20
3.1699631348
 30
0.0
 11
2.2163084083
 21
3.1699631348
 31
0.0
  0
SOLID
  5
12E
330
1F
100
AcDbEntity
  8
0
  6
Continuous
 62
     7
370
    30
100
AcDbTrace
 10
2.2163084083
 20
3.1699631348
 30
0.0
 11
2.3663084083
 21
3.1449631348
 31
0.0
 12
2.3663084083
 22
3.1949631348
 32
0.0
 13
2.3663084083
 23
3.1949631348
 33
0.0
  0
MTEXT
  5
12F
330
1F
100
AcDbEntity
  8
0
  6
Continuous
 62
     7
100
AcDbMText
 10
2.082275696
 20
5.9806592277
 30
0.0
 40
0.1041666667
 41
0.0
 71
     1
 72
     1
  1
A
  7
SLDTEXTSTYLE0
 73
     1
 44
1.0
  0
MTEXT
  5
130
330
1F
100
AcDbEntity
  8
0
  6
Continuous
 62
     7
100
AcDbMText
 10
2.082275696
 20
3.2526592277
 30
0.0
 40
0.1041666667
 41
0.0
 71
     1
 72
     1
  1
A
  7
SLDTEXTSTYLE0
 73
     1
 44
1.0
  0
LINE
  5
131
330
1F
100
AcDbEntity
  8
0
  6
Continuous
 62
     7
370
     0
100
AcDbLine
 10
6.9690068883
 20
3.5264631402
 30
0.0
 11
6.9516863806
 21
3.5164631557
 31
0.0
  0
LINE
  5
132
330
1F
100
AcDbEntity
  8
0
  6
Continuous
 62
     7
370
     0
100
AcDbLine
 10
6.9516863806
 20
5.5514631139
 30
0.0
 11
6.9690068883
 21
5.5414631294
 31
0.0
  0
LINE
  5
133
330
1F
100
AcDbEntity
  8
0
  6
Continuous
 62
     7
370
     0
100
AcDbLine
 10
6.9690068883
 20
5.5012836735
 30
0.0
 11
6.9590068877
 21
5.483963127
 31
0.0
  0
LINE
  5
134
330
1F
100
AcDbEntity
  8
0
  6
Continuous
 62
     7
370
     0
100
AcDbLine
 10
6.9590068877
 20
3.5839631426
 30
0.0
 11
6.9690068883
 21
3.566642596
 31
0.0
  0
LINE
  5
135
330
1F
100
AcDbEntity
  8
0
  6
Continuous
 62
     7
370
     0
100
AcDbLine
 10
6.9590068877
 20
3.5839631426
 30
0.0
 11
6.9590068877
 21
3.6538845682
 31
0.0
  0
LINE
  5
136
330
1F
100
AcDbEntity
  8
0
  6
Continuous
 62
     7
370
     0
100
AcDbLine
 10
6.9590068877
 20
5.4140417014
 30
0.0
 11
6.9590068877
 21
5.483963127
 31
0.0
  0
LINE
  5
137
330
1F
100
AcDbEntity
  8
0
  6
Continuous
 62
     7
370
     0
100
AcDbLine
 10
6.9590068877
 20
3.5839631426
 30
0.0
 11
6.8863273953
 21
3.5839631426
 31
0.0
  0
LINE
  5
138
330
1F
100
AcDbEntity
  8
0
  6
Continuous
 62
     7
370
     0
100
AcDbLine
 10
6.8863273953
 20
4.5189631351
 30
0.0
 11
6.8863273953
 21
3.5839631426
 31
0.0
  0
LINE
  5
139
330
1F
100
AcDbEntity
  8
0
  6
Continuous
 62
     7
370
     0
100
AcDbLine
 10
6.8940068924
 20
4.5189631351
 30
0.0
 11
6.8863273953
 21
4.5189631351
 31
0.0
  0
LINE
  5
13A
330
1F
100
AcDbEntity
  8
0
  6
Continuous
 62
     7
370
     0
100
AcDbLine
 10
6.8940068924
 20
4.5189631351
 30
0.0
 11
6.8940068924
 21
4.5489631344
 31
0.0
  0
LINE
  5
13B
330
1F
100
AcDbEntity
  8
0
  6
Continuous
 62
     7
370
     0
100
AcDbLine
 10
6.8863273953
 20
4.5489631344
 30
0.0
 11
6.8940068924
 21
4.5489631344
 31
0.0
  0
LINE
  5
13C
330
1F
100
AcDbEntity
  8
0
  6
Continuous
 62
     7
370
     0
100
AcDbLine
 10
6.8863273953
 20
5.483963127
 30
0.0
 11
6.8863273953
 21
4.5489631344
 31
0.0
  0
LINE
  5
13D
330
1F
100
AcDbEntity
  8
0
  6
Continuous
 62
     7
370
     0
100
AcDbLine
 10
6.8863273953
 20
5.483963127
 30
0.0
 11
6.9590068877
 21
5.483963127
 31
0.0
  0
LINE
  5
13E
330
1F
100
AcDbEntity
  8
0
  6
Continuous
 62
     7
370
     0
100
AcDbLine
 10
6.8790068882
 20
3.5164631557
 30
0.0
 11
6.9516863806
 21
3.5164631557
 31
0.0
  0
LINE
  5
13F
330
1F
100
AcDbEntity
  8
0
  6
Continuous
 62
     7
370
     0
100
AcDbLine
 10
6.9516863806
 20
5.5514631139
 30
0.0
 11
6.8790068882
 21
5.5514631139
 31
0.0
  0
LINE
  5
140
330
1F
100
AcDbEntity
  8
0
  6
Continuous
 62
     7
370
     0
100
AcDbLine
 10
6.8863273953
 20
5.483963127
 30
0.0
 11
6.8690068854
 21
5.4939631114
 31
0.0
  0
LINE
  5
141
330
1F
100
AcDbEntity
  8
0
  6
Continuous
 62
     7
370
     0
100
AcDbLine
 10
6.8690068854
 20
5.5341426406
 30
0.0
 11
6.8690068854
 21
5.4939631114
 31
0.0
  0
LINE
  5
142
330
1F
100
AcDbEntity
  8
0
  6
Continuous
 62
     7
370
     0
100
AcDbLine
 10
6.8690068854
 20
5.5341426406
 30
0.0
 11
6.8790068882
 21
5.5514631139
 31
0.0
  0
LINE
  5
143
330
1F
100
AcDbEntity
  8
0
  6
Continuous
 62
     7
370
     0
100
AcDbLine
 10
6.9690068883
 20
5.5012836735
 30
0.0
 11
6.9690068883
 21
5.5414631294
 31
0.0
  0
LINE
  5
144
330
1F
100
AcDbEntity
  8
0
  6
Continuous
 62
     7
370
     0
100
AcDbLine
 10
6.8790068882
 20
3.5164631557
 30
0.0
 11
6.8690068854
 21
3.5337836289
 31
0.0
  0
LINE
  5
145
330
1F
100
AcDbEntity
  8
0
  6
Continuous
 62
     7
370
     0
100
AcDbLine
 10
6.8690068854
 20
3.5739631581
 30
0.0
 11
6.8690068854
 21
3.5337836289
 31
0.0
  0
LINE
  5
146
330
1F
100
AcDbEntity
  8
0
  6
Continuous
 62
     7
370
     0
100
AcDbLine
 10
6.8690068854
 20
3.5739631581
 30
0.0
 11
6.8863273953
 21
3.5839631426
 31
0.0
  0
LINE
  5
147
330
1F
100
AcDbEntity
  8
0
  6
Continuous
 62
     7
370
     0
100
AcDbLine
 10
6.9690068883
 20
3.5264631402
 30
0.0
 11
6.9690068883
 21
3.566642596
 31
0.0
  0
LINE
  5
148
330
1F
100
AcDbEntity
  8
0
  6
Continuous
 62
     7
370
     0
100
AcDbLine
 10
6.8863273953
 20
4.5489631344
 30
0.0
 11
6.8690068854
 21
4.5489631344
 31
0.0
  0
LINE
  5
149
330
1F
100
AcDbEntity
  8
0
  6
Continuous
 62
     7
370
     0
100
AcDbLine
 10
6.8690068854
 20
4.5489631344
 30
0.0
 11
6.8690068854
 21
5.4939631114
 31
0.0
  0
LINE
  5
14A
330
1F
100
AcDbEntity
  8
0
  6
Continuous
 62
     7
370
     0
100
AcDbLine
 10
6.8690068854
 20
4.5189631351
 30
0.0
 11
6.8863273953
 21
4.5189631351
 31
0.0
  0
LINE
  5
14B
330
1F
100
AcDbEntity
  8
0
  6
Continuous
 62
     7
370
     0
100
AcDbLine
 10
6.8690068854
 20
3.5739631581
 30
0.0
 11
6.8690068854
 21
4.5189631351
 31
0.0
  0
LINE
  5
14C
330
1F
100
AcDbEntity
  8
0
  6
Continuous
 62
     7
370
     0
100
AcDbLine
 10
6.9729993586
 20
3.5339631469
 30
0.0
 11
7.091043097
 21
3.5339631469
 31
0.0
  0
LINE
  5
14D
330
1F
100
AcDbEntity
  8
0
  6
Continuous
 62
     7
370
     0
100
AcDbLine
 10
7.091043097
 20
5.5339631227
 30
0.0
 11
6.9729993586
 21
5.5339631227
 31
0.0
  0
ARC
  5
14E
330
1F
100
AcDbEntity
  8
0
  6
Continuous
 62
     7
370
     0
100
AcDbCircle
 10
15.022539158
 20
4.5339631348
 30
0.0
 40
8.111417322834647
100
AcDbArc
 50
172.9183870255
 51
187.0816129745
  0
LINE
  5
14F
330
1F
100
AcDbEntity
  8
0
  6
Continuous
 62
     7
370
     0
100
AcDbLine
 10
7.091043097
 20
3.5339631469
 30
0.0
 11
7.091043097
 21
5.5339631227
 31
0.0
  0
LINE
  5
150
330
1F
100
AcDbEntity
  8
0
  6
Continuous
 62
     7
370
     0
100
AcDbLine
 10
6.9464121616
 20
3.4339631554
 30
0.0
 11
7.1110430935
 21
3.4339631554
 31
0.0
  0
LINE
  5
151
330
1F
100
AcDbEntity
  8
0
  6
Continuous
 62
     7
370
     0
100
AcDbLine
 10
7.1110430935
 20
5.6339631142
 30
0.0
 11
7.0160430943
 21
5.6339631142
 31
0.0
  0
LINE
  5
152
330
1F
100
AcDbEntity
  8
0
  6
Continuous
 62
     7
370
     0
100
AcDbLine
 10
7.0068123263
 20
5.6339631142
 30
0.0
 11
6.9791200179
 21
5.6339631142
 31
0.0
  0
LINE
  5
153
330
1F
100
AcDbEntity
  8
0
  6
Continuous
 62
     7
370
     0
100
AcDbLine
 10
6.9698892488
 20
5.6339631142
 30
0.0
 11
6.9452738626
 21
5.6339631142
 31
0.0
  0
LINE
  5
154
330
1F
100
AcDbEntity
  8
0
  6
Continuous
 62
     7
370
     0
100
AcDbLine
 10
6.9360430947
 20
5.6339631142
 30
0.0
 11
6.9160430937
 21
5.6339631142
 31
0.0
  0
LINE
  5
155
330
1F
100
AcDbEntity
  8
0
  6
Continuous
 62
     7
370
     0
100
AcDbLine
 10
6.9057866838
 20
5.6339631142
 30
0.0
 11
6.8950604969
 21
5.6339631142
 31
0.0
  0
LINE
  5
156
330
1F
100
AcDbEntity
  8
0
  6
Continuous
 62
     7
370
     0
100
AcDbLine
 10
6.8361396317
 20
5.6339631142
 30
0.0
 11
6.7410430903
 21
5.6339631142
 31
0.0
  0
LINE
  5
157
330
1F
100
AcDbEntity
  8
0
  6
Continuous
 62
     7
370
     0
100
AcDbLine
 10
6.7410430903
 20
3.4339631554
 30
0.0
 11
6.8755859368
 21
3.4339631554
 31
0.0
  0
LINE
  5
158
330
1F
100
AcDbEntity
  8
0
  6
Continuous
 62
     7
370
     0
100
AcDbLine
 10
6.9287325287
 20
3.4339631554
 30
0.0
 11
6.9464121616
 21
3.4339631554
 31
0.0
  0
LINE
  5
159
330
1F
100
AcDbEntity
  8
0
  6
Continuous
 62
     7
370
     0
100
AcDbLine
 10
6.8755859368
 20
3.4339631554
 30
0.0
 11
6.9099604848
 21
3.4339631554
 31
0.0
  0
LINE
  5
15A
330
1F
100
AcDbEntity
  8
0
  6
Continuous
 62
     7
370
     0
100
AcDbLine
 10
6.845404183
 20
5.6339631142
 30
0.0
 11
6.8361396317
 21
5.6339631142
 31
0.0
  0
LINE
  5
15B
330
1F
100
AcDbEntity
  8
0
  6
Continuous
 62
     7
370
     0
100
AcDbLine
 10
6.8950604969
 20
5.6339631142
 30
0.0
 11
6.8821852098
 21
5.6339631142
 31
0.0
  0
LINE
  5
15C
330
1F
100
AcDbEntity
  8
0
  6
Continuous
 62
     7
370
     0
100
AcDbLine
 10
6.8821852098
 20
5.6339631142
 30
0.0
 11
6.845404183
 21
5.6339631142
 31
0.0
  0
LINE
  5
15D
330
1F
100
AcDbEntity
  8
0
  6
Continuous
 62
     7
370
     0
100
AcDbLine
 10
6.9160430937
 20
5.6339631142
 30
0.0
 11
6.9057866838
 21
5.6339631142
 31
0.0
  0
LINE
  5
15E
330
1F
100
AcDbEntity
  8
0
  6
Continuous
 62
     7
370
     0
100
AcDbLine
 10
6.9452738626
 20
5.6339631142
 30
0.0
 11
6.9360430947
 21
5.6339631142
 31
0.0
  0
LINE
  5
15F
330
1F
100
AcDbEntity
  8
0
  6
Continuous
 62
     7
370
     0
100
AcDbLine
 10
6.9791200179
 20
5.6339631142
 30
0.0
 11
6.9698892488
 21
5.6339631142
 31
0.0
  0
LINE
  5
160
330
1F
100
AcDbEntity
  8
0
  6
Continuous
 62
     7
370
     0
100
AcDbLine
 10
7.0160430943
 20
5.6339631142
 30
0.0
 11
7.0068123263
 21
5.6339631142
 31
0.0
  0
LINE
  5
161
330
1F
100
AcDbEntity
  8
0
  6
Continuous
 62
     7
370
     0
100
AcDbLine
 10
7.1110430935
 20
5.6339631142
 30
0.0
 11
7.1210430963
 21
5.6239631297
 31
0.0
  0
LINE
  5
162
330
1F
100
AcDbEntity
  8
0
  6
Continuous
 62
     7
370
     0
100
AcDbLine
 10
7.1210430963
 20
5.5414631294
 30
0.0
 11
7.1210430963
 21
5.6239631297
 31
0.0
  0
LINE
  5
163
330
1F
100
AcDbEntity
  8
0
  6
Continuous
 62
     7
370
     0
100
AcDbLine
 10
7.1310430991
 20
5.5414631294
 30
0.0
 11
7.1210430963
 21
5.5414631294
 31
0.0
  0
LINE
  5
164
330
1F
100
AcDbEntity
  8
0
  6
Continuous
 62
     7
370
     0
100
AcDbLine
 10
7.1310430991
 20
5.5514631139
 30
0.0
 11
7.1310430991
 21
5.5414631294
 31
0.0
  0
LINE
  5
165
330
1F
100
AcDbEntity
  8
0
  6
Continuous
 62
     7
370
     0
100
AcDbLine
 10
7.2310430997
 20
5.5514631139
 30
0.0
 11
7.1310430991
 21
5.5514631139
 31
0.0
  0
LINE
  5
166
330
1F
100
AcDbEntity
  8
0
  6
Continuous
 62
     7
370
     0
100
AcDbLine
 10
7.2310430997
 20
5.5514631139
 30
0.0
 11
7.2410431026
 21
5.5341426406
 31
0.0
  0
LINE
  5
167
330
1F
100
AcDbEntity
  8
0
  6
Continuous
 62
     7
370
     0
100
AcDbLine
 10
7.2410431026
 20
5.483963127
 30
0.0
 11
7.2410431026
 21
5.5341426406
 31
0.0
  0
LINE
  5
168
330
1F
100
AcDbEntity
  8
0
  6
Continuous
 62
     7
370
     0
100
AcDbLine
 10
7.091043097
 20
5.483963127
 30
0.0
 11
7.2410431026
 21
5.483963127
 31
0.0
  0
LINE
  5
169
330
1F
100
AcDbEntity
  8
0
  6
Continuous
 62
     7
370
     0
100
AcDbLine
 10
7.091043097
 20
5.5614630983
 30
0.0
 11
7.091043097
 21
5.483963127
 31
0.0
  0
LINE
  5
16A
330
1F
100
AcDbEntity
  8
0
  6
Continuous
 62
     7
370
     0
100
AcDbLine
 10
7.0810430942
 20
5.5614630983
 30
0.0
 11
7.091043097
 21
5.5614630983
 31
0.0
  0
LINE
  5
16B
330
1F
100
AcDbEntity
  8
0
  6
Continuous
 62
     7
370
     0
100
AcDbLine
 10
7.0810430942
 20
5.5514631139
 30
0.0
 11
7.0810430942
 21
5.5614630983
 31
0.0
  0
LINE
  5
16C
330
1F
100
AcDbEntity
  8
0
  6
Continuous
 62
     7
370
     0
100
AcDbLine
 10
6.7410430903
 20
5.5514631139
 30
0.0
 11
7.0810430942
 21
5.5514631139
 31
0.0
  0
LINE
  5
16D
330
1F
100
AcDbEntity
  8
0
  6
Continuous
 62
     7
370
     0
100
AcDbLine
 10
6.7410430903
 20
5.5514631139
 30
0.0
 11
6.7310430875
 21
5.5687836604
 31
0.0
  0
LINE
  5
16E
330
1F
100
AcDbEntity
  8
0
  6
Continuous
 62
     7
370
     0
100
AcDbLine
 10
6.7310430875
 20
5.6239631297
 30
0.0
 11
6.7310430875
 21
5.5687836604
 31
0.0
  0
LINE
  5
16F
330
1F
100
AcDbEntity
  8
0
  6
Continuous
 62
     7
370
     0
100
AcDbLine
 10
6.7310430875
 20
5.6239631297
 30
0.0
 11
6.7410430903
 21
5.6339631142
 31
0.0
  0
LINE
  5
170
330
1F
100
AcDbEntity
  8
0
  6
Continuous
 62
     7
370
     0
100
AcDbLine
 10
7.2410431026
 20
3.5337836289
 30
0.0
 11
7.2310430997
 21
3.5164631557
 31
0.0
  0
LINE
  5
171
330
1F
100
AcDbEntity
  8
0
  6
Continuous
 62
     7
370
     0
100
AcDbLine
 10
7.2410431026
 20
3.5839631426
 30
0.0
 11
7.2410431026
 21
5.483963127
 31
0.0
  0
LINE
  5
172
330
1F
100
AcDbEntity
  8
0
  6
Continuous
 62
     7
370
     0
100
AcDbLine
 10
7.2410431026
 20
3.5839631426
 30
0.0
 11
7.091043097
 21
3.5839631426
 31
0.0
  0
LINE
  5
173
330
1F
100
AcDbEntity
  8
0
  6
Continuous
 62
     7
370
     0
100
AcDbLine
 10
7.0810430942
 20
3.5164631557
 30
0.0
 11
6.7410430903
 21
3.5164631557
 31
0.0
  0
LINE
  5
174
330
1F
100
AcDbEntity
  8
0
  6
Continuous
 62
     7
370
     0
100
AcDbLine
 10
7.0810430942
 20
3.5064631712
 30
0.0
 11
7.0810430942
 21
3.5164631557
 31
0.0
  0
LINE
  5
175
330
1F
100
AcDbEntity
  8
0
  6
Continuous
 62
     7
370
     0
100
AcDbLine
 10
7.091043097
 20
3.5064631712
 30
0.0
 11
7.0810430942
 21
3.5064631712
 31
0.0
  0
LINE
  5
176
330
1F
100
AcDbEntity
  8
0
  6
Continuous
 62
     7
370
     0
100
AcDbLine
 10
7.091043097
 20
3.5839631426
 30
0.0
 11
7.091043097
 21
3.5064631712
 31
0.0
  0
LINE
  5
177
330
1F
100
AcDbEntity
  8
0
  6
Continuous
 62
     7
370
     0
100
AcDbLine
 10
7.1310430991
 20
3.5164631557
 30
0.0
 11
7.2310430997
 21
3.5164631557
 31
0.0
  0
LINE
  5
178
330
1F
100
AcDbEntity
  8
0
  6
Continuous
 62
     7
370
     0
100
AcDbLine
 10
7.1310430991
 20
3.5264631402
 30
0.0
 11
7.1310430991
 21
3.5164631557
 31
0.0
  0
LINE
  5
179
330
1F
100
AcDbEntity
  8
0
  6
Continuous
 62
     7
370
     0
100
AcDbLine
 10
7.1210430963
 20
3.5264631402
 30
0.0
 11
7.1310430991
 21
3.5264631402
 31
0.0
  0
LINE
  5
17A
330
1F
100
AcDbEntity
  8
0
  6
Continuous
 62
     7
370
     0
100
AcDbLine
 10
7.1210430963
 20
3.4439631399
 30
0.0
 11
7.1210430963
 21
3.5264631402
 31
0.0
  0
LINE
  5
17B
330
1F
100
AcDbEntity
  8
0
  6
Continuous
 62
     7
370
     0
100
AcDbLine
 10
7.1210430963
 20
3.4439631399
 30
0.0
 11
7.1110430935
 21
3.4339631554
 31
0.0
  0
LINE
  5
17C
330
1F
100
AcDbEntity
  8
0
  6
Continuous
 62
     7
370
     0
100
AcDbLine
 10
6.9099604848
 20
3.4339631554
 30
0.0
 11
6.9287325287
 21
3.4339631554
 31
0.0
  0
LINE
  5
17D
330
1F
100
AcDbEntity
  8
0
  6
Continuous
 62
     7
370
     0
100
AcDbLine
 10
6.7410430903
 20
3.4339631554
 30
0.0
 11
6.7310430875
 21
3.4439631399
 31
0.0
  0
LINE
  5
17E
330
1F
100
AcDbEntity
  8
0
  6
Continuous
 62
     7
370
     0
100
AcDbLine
 10
6.7310430875
 20
3.4991426091
 30
0.0
 11
6.7310430875
 21
3.4439631399
 31
0.0
  0
LINE
  5
17F
330
1F
100
AcDbEntity
  8
0
  6
Continuous
 62
     7
370
     0
100
AcDbLine
 10
6.7310430875
 20
3.4991426091
 30
0.0
 11
6.7410430903
 21
3.5164631557
 31
0.0
  0
LINE
  5
180
330
1F
100
AcDbEntity
  8
0
  6
Continuous
 62
     7
370
     0
100
AcDbLine
 10
7.2410431026
 20
3.5337836289
 30
0.0
 11
7.2410431026
 21
3.5839631426
 31
0.0
  0
LINE
  5
181
330
1F
100
AcDbEntity
  8
0
  6
Continuous
 62
     7
370
     0
100
AcDbLine
 10
6.7410430903
 20
5.5514631139
 30
0.0
 11
6.7410430903
 21
3.5164631557
 31
0.0
  0
LINE
  5
182
330
1F
100
AcDbEntity
  8
0
  6
Continuous
 62
     7
370
     0
100
AcDbLine
 10
7.0810430942
 20
3.5164631557
 30
0.0
 11
7.0810430942
 21
3.5339631469
 31
0.0
  0
LINE
  5
183
330
1F
100
AcDbEntity
  8
0
  6
Continuous
 62
     7
370
     0
100
AcDbLine
 10
7.0810430942
 20
5.5339631227
 30
0.0
 11
7.0810430942
 21
5.5514631139
 31
0.0
  0
LINE
  5
184
330
1F
100
AcDbEntity
  8
0
  6
Continuous
 62
     7
370
     0
100
AcDbLine
 10
6.7310430875
 20
3.4991426091
 30
0.0
 11
6.7310430875
 21
5.5687836604
 31
0.0
  0
HATCH
  5
185
330
1F
100
AcDbEntity
  8
0
  6
Continuous
 62
     7
370
     0
100
AcDbHatch
 10
0.0
 20
0.0
 30
0.0
210
0.0
220
0.0
230
1.0
  2
ANSI31
 70
     0
 71
     0
 91
        1
 92
        0
 93
       20
 72
     1
 10
6.741043095004896
 20
3.516463134783532
 11
6.731043095004896
 21
3.499142626707842
 72
     1
 10
6.731043095004896
 20
3.499142626707842
 11
6.731043095004896
 21
3.44396313478353
 72
     1
 10
6.731043095004896
 20
3.44396313478353
 11
6.741043095004895
 21
3.433963134783532
 72
     1
 10
6.741043095004895
 20
3.433963134783532
 11
6.875585934352142
 21
3.433963134783532
 72
     1
 10
6.875585934352142
 20
3.433963134783532
 11
6.909960482589484
 21
3.433963134783532
 72
     1
 10
6.909960482589484
 20
3.433963134783532
 11
6.928732528127949
 21
3.433963134783532
 72
     1
 10
6.928732528127949
 20
3.433963134783532
 11
6.946412163546228
 21
3.433963134783532
 72
     1
 10
6.946412163546228
 20
3.433963134783532
 11
7.111043095004897
 21
3.433963134783531
 72
     1
 10
7.111043095004897
 20
3.433963134783531
 11
7.121043095004896
 21
3.443963134783531
 72
     1
 10
7.121043095004896
 20
3.443963134783531
 11
7.121043095004896
 21
3.526463134783531
 72
     1
 10
7.121043095004896
 20
3.526463134783531
 11
7.131043095004896
 21
3.526463134783531
 72
     1
 10
7.131043095004896
 20
3.526463134783531
 11
7.131043095004896
 21
3.516463134783532
 72
     1
 10
7.131043095004896
 20
3.516463134783532
 11
7.231043095004897
 21
3.516463134783532
 72
     1
 10
7.231043095004897
 20
3.516463134783532
 11
7.241043095004897
 21
3.53378364285922
 72
     1
 10
7.241043095004897
 20
3.53378364285922
 11
7.241043095004897
 21
3.583963134783531
 72
     1
 10
7.241043095004897
 20
3.583963134783531
 11
7.091043095004896
 21
3.583963134783531
 72
     1
 10
7.091043095004896
 20
3.583963134783531
 11
7.091043095004896
 21
3.506463134783532
 72
     1
 10
7.091043095004896
 20
3.506463134783532
 11
7.081043095004897
 21
3.506463134783532
 72
     1
 10
7.081043095004897
 20
3.506463134783532
 11
7.081043095004897
 21
3.516463134783532
 72
     1
 10
7.081043095004897
 20
3.516463134783532
 11
6.741043095004896
 21
3.516463134783532
 97
        0
 75
     0
 76
     1
 52
0.0
 41
1.0
 77
     0
 78
     1
 53
45.0
 43
0.0
 44
0.0
 45
-0.0883883476483184
 46
0.0883883476483184
 79
     0
 98
        1
 10
0.0
 20
0.0
  0
HATCH
  5
186
330
1F
100
AcDbEntity
  8
0
  6
Continuous
 62
     7
370
     0
100
AcDbHatch
 10
0.0
 20
0.0
 30
0.0
210
0.0
220
0.0
230
1.0
  2
ANSI31
 70
     0
 71
     0
 91
        1
 92
        0
 93
       28
 72
     1
 10
6.89506049795675
 20
5.633963134783532
 11
6.882185206121877
 21
5.633963134783532
 72
     1
 10
6.882185206121877
 20
5.633963134783532
 11
6.845404185063868
 21
5.633963134783532
 72
     1
 10
6.845404185063868
 20
5.633963134783532
 11
6.836139635573607
 21
5.633963134783532
 72
     1
 10
6.836139635573607
 20
5.633963134783532
 11
6.741043095004895
 21
5.633963134783532
 72
     1
 10
6.741043095004895
 20
5.633963134783532
 11
6.731043095004896
 21
5.623963134783532
 72
     1
 10
6.731043095004896
 20
5.623963134783532
 11
6.731043095004896
 21
5.56878364285922
 72
     1
 10
6.731043095004896
 20
5.56878364285922
 11
6.741043095004896
 21
5.551463134783531
 72
     1
 10
6.741043095004896
 20
5.551463134783531
 11
7.081043095004897
 21
5.551463134783531
 72
     1
 10
7.081043095004897
 20
5.551463134783531
 11
7.081043095004897
 21
5.561463134783531
 72
     1
 10
7.081043095004897
 20
5.561463134783531
 11
7.091043095004896
 21
5.561463134783531
 72
     1
 10
7.091043095004896
 20
5.561463134783531
 11
7.091043095004896
 21
5.483963134783531
 72
     1
 10
7.091043095004896
 20
5.483963134783531
 11
7.241043095004897
 21
5.483963134783531
 72
     1
 10
7.241043095004897
 20
5.483963134783531
 11
7.241043095004897
 21
5.534142626707842
 72
     1
 10
7.241043095004897
 20
5.534142626707842
 11
7.231043095004897
 21
5.551463134783531
 72
     1
 10
7.231043095004897
 20
5.551463134783531
 11
7.131043095004896
 21
5.551463134783531
 72
     1
 10
7.131043095004896
 20
5.551463134783531
 11
7.131043095004896
 21
5.541463134783531
 72
     1
 10
7.131043095004896
 20
5.541463134783531
 11
7.121043095004896
 21
5.541463134783531
 72
     1
 10
7.121043095004896
 20
5.541463134783531
 11
7.121043095004896
 21
5.623963134783532
 72
     1
 10
7.121043095004896
 20
5.623963134783532
 11
7.111043095004897
 21
5.633963134783532
 72
     1
 10
7.111043095004897
 20
5.633963134783532
 11
7.016043095004897
 21
5.633963134783532
 72
     1
 10
7.016043095004897
 20
5.633963134783532
 11
7.006812325774128
 21
5.633963134783532
 72
     1
 10
7.006812325774128
 20
5.633963134783532
 11
6.97912001808182
 21
5.633963134783532
 72
     1
 10
6.97912001808182
 20
5.633963134783532
 11
6.969889248851051
 21
5.633963134783532
 72
     1
 10
6.969889248851051
 20
5.633963134783532
 11
6.945273864235666
 21
5.633963134783532
 72
     1
 10
6.945273864235666
 20
5.633963134783532
 11
6.936043095004897
 21
5.633963134783532
 72
     1
 10
6.936043095004897
 20
5.633963134783532
 11
6.916043095004897
 21
5.633963134783532
 72
     1
 10
6.916043095004897
 20
5.633963134783532
 11
6.905786684748486
 21
5.633963134783532
 72
     1
 10
6.905786684748486
 20
5.633963134783532
 11
6.89506049795675
 21
5.633963134783532
 97
        0
 75
     0
 76
     1
 52
0.0
 41
1.0
 77
     0
 78
     1
 53
45.0
 43
0.0
 44
0.0
 45
-0.0883883476483184
 46
0.0883883476483184
 79
     0
 98
        1
 10
0.0
 20
0.0
  0
HATCH
  5
187
330
1F
100
AcDbEntity
  8
0
  6
Continuous
 62
     7
370
     0
100
AcDbHatch
 10
0.0
 20
0.0
 30
0.0
210
0.0
220
0.0
230
1.0
  2
ANSI31
 70
     0
 71
     0
 91
        1
 92
        0
 93
        4
 72
     1
 10
7.091043095004896
 20
5.533963134783532
 11
6.972999358407112
 21
5.533963134783532
 72
     2
 10
15.02253915799702
 20
4.533963134783531
 40
8.111417322834646
 50
172.918387025494
 51
187.0816129745068
 73
     1
 72
     1
 10
6.972999358407112
 20
3.533963134783531
 11
7.091043095004896
 21
3.533963134783531
 72
     1
 10
7.091043095004896
 20
3.533963134783531
 11
7.091043095004896
 21
5.533963134783532
 97
        0
 75
     0
 76
     1
 52
0.0
 41
1.0
 77
     0
 78
     1
 53
45.0
 43
0.0
 44
0.0
 45
-0.0883883476483184
 46
0.0883883476483184
 79
     0
 98
        1
 10
0.0
 20
0.0
  0
HATCH
  5
188
330
1F
100
AcDbEntity
  8
0
  6
Continuous
 62
     7
370
     0
100
AcDbHatch
 10
0.0
 20
0.0
 30
0.0
210
0.0
220
0.0
230
1.0
  2
ANSI31
 70
     0
 71
     0
 91
        1
 92
        0
 93
        8
 72
     1
 10
6.969006888251146
 20
3.566642626707843
 11
6.959006888251146
 21
3.583963134783531
 72
     1
 10
6.959006888251146
 20
3.583963134783531
 11
6.886327396326837
 21
3.583963134783531
 72
     1
 10
6.886327396326837
 20
3.583963134783531
 11
6.869006888251145
 21
3.573963134783531
 72
     1
 10
6.869006888251145
 20
3.573963134783531
 11
6.869006888251145
 21
3.533783642859219
 72
     1
 10
6.869006888251145
 20
3.533783642859219
 11
6.879006888251146
 21
3.516463134783532
 72
     1
 10
6.879006888251146
 20
3.516463134783532
 11
6.951686380175456
 21
3.516463134783532
 72
     1
 10
6.951686380175456
 20
3.516463134783532
 11
6.969006888251146
 21
3.526463134783532
 72
     1
 10
6.969006888251146
 20
3.526463134783532
 11
6.969006888251146
 21
3.566642626707843
 97
        0
 75
     0
 76
     1
 52
90.0
 41
0.25
 77
     0
 78
     1
 53
135.0000000000002
 43
0.0
 44
0.0
 45
-0.0220970869120795
 46
-0.0220970869120797
 79
     0
 98
        1
 10
0.0
 20
0.0
  0
HATCH
  5
189
330
1F
100
AcDbEntity
  8
0
  6
Continuous
 62
     7
370
     0
100
AcDbHatch
 10
0.0
 20
0.0
 30
0.0
210
0.0
220
0.0
230
1.0
  2
ANSI31
 70
     0
 71
     0
 91
        1
 92
        0
 93
        8
 72
     1
 10
6.959006888251146
 20
5.483963134783531
 11
6.969006888251146
 21
5.50128364285922
 72
     1
 10
6.969006888251146
 20
5.50128364285922
 11
6.969006888251146
 21
5.541463134783531
 72
     1
 10
6.969006888251146
 20
5.541463134783531
 11
6.951686380175456
 21
5.551463134783531
 72
     1
 10
6.951686380175456
 20
5.551463134783531
 11
6.879006888251146
 21
5.551463134783531
 72
     1
 10
6.879006888251146
 20
5.551463134783531
 11
6.869006888251145
 21
5.534142626707844
 72
     1
 10
6.869006888251145
 20
5.534142626707844
 11
6.869006888251145
 21
5.493963134783532
 72
     1
 10
6.869006888251145
 20
5.493963134783532
 11
6.886327396326837
 21
5.483963134783531
 72
     1
 10
6.886327396326837
 20
5.483963134783531
 11
6.959006888251146
 21
5.483963134783531
 97
        0
 75
     0
 76
     1
 52
90.0
 41
0.25
 77
     0
 78
     1
 53
135.0000000000002
 43
0.0
 44
0.0
 45
-0.0220970869120795
 46
-0.0220970869120797
 79
     0
 98
        1
 10
0.0
 20
0.0
  0
DIMENSION
  5
18A
330
1F
100
AcDbEntity
  8
0
  6
Continuous
 62
     7
370
     0
100
AcDbDimension
  2
_D_1
 10
6.731043095
 20
6.3308960566
 30
0.0
 11
6.1639166047
 21
6.3308960566
 31
0.0
 70
   160
  1
<>
 71
     2
 42
-1.0
  3
SLDDIMSTYLE1
100
AcDbAlignedDimension
 13
7.241043095
 23
5.5341426267
 33
0.0
 14
6.731043095
 24
5.6239631348
 34
0.0
100
AcDbRotatedDimension
  0
DIMENSION
  5
19F
330
1F
100
AcDbEntity
  8
0
  6
Continuous
 62
     7
370
     0
100
AcDbDimension
  2
_D_2
 10
7.241043095
 20
6.0276639222
 30
0.0
 11
7.7842529578
 21
6.0276639222
 31
0.0
 70
   160
  1
<>
 71
     2
 42
-1.0
  3
SLDDIMSTYLE1
100
AcDbAlignedDimension
 13
7.121043095
 23
5.6239631348
 33
0.0
 14
7.241043095
 24
5.5341426267
 34
0.0
100
AcDbRotatedDimension
  0
DIMENSION
  5
1B3
330
1F
100
AcDbEntity
  8
0
  6
Continuous
 62
     7
370
     0
100
AcDbDimension
  2
_D_3
 10
7.6347438824
 20
5.4839631348
 30
0.0
 11
7.6347438824
 21
4.5339631348
 31
0.0
 70
   160
  1
%%c<>
 71
     2
 42
-1.0
  3
SLDDIMSTYLE2
100
AcDbAlignedDimension
 13
7.241043095
 23
3.5839631348
 33
0.0
 14
7.241043095
 24
5.4839631348
 34
0.0
 50
90.0
100
AcDbRotatedDimension
  0
INSERT
  5
1CE
102
{ACAD_REACTORS
330
1D0
102
}
330
1F
100
AcDbEntity
  8
0
  6
Continuous
 62
     7
370
     0
100
AcDbBlockReference
  2
SW_NOTE_5
 10
6.244617629
 20
3.8076884048
 30
0.0
  0
LEADER
  5
1D0
330
1F
100
AcDbEntity
  8
0
  6
Continuous
 62
     7
370
     0
100
AcDbLeader
  3
SLDDIMSTYLE3
 73
     2
 76
     3
 10
6.8077409959
 20
3.5164631348
 30
0.0
 10
6.494617629
 20
3.8076884048
 30
0.0
 10
6.244617629
 20
3.8076884048
 30
0.0
340
1CE
  0
INSERT
  5
1D7
102
{ACAD_REACTORS
330
1D8
102
}
330
1F
100
AcDbEntity
  8
0
  6
Continuous
 62
     7
370
     0
100
AcDbBlockReference
  2
SW_NOTE_6
 10
8.0530246544
 20
2.8203638495
 30
0.0
  0
LEADER
  5
1D8
330
1F
100
AcDbEntity
  8
0
  6
Continuous
 62
     7
370
     0
100
AcDbLeader
  3
SLDDIMSTYLE3
 73
     2
 76
     3
 10
7.1732939123
 20
3.5164631348
 30
0.0
 10
7.8030246544
 20
2.8203638495
 30
0.0
 10
8.0530246544
 20
2.8203638495
 30
0.0
340
1D7
  0
INSERT
  5
1DE
102
{ACAD_REACTORS
330
1DF
102
}
330
1F
100
AcDbEntity
  8
0
  6
Continuous
 62
     7
370
     0
100
AcDbBlockReference
  2
SW_NOTE_7
 10
6.2311457536
 20
4.1732406368
 30
0.0
  0
LEADER
  5
1DF
330
1F
100
AcDbEntity
  8
0
  6
Continuous
 62
     7
370
     0
100
AcDbLeader
  3
SLDDIMSTYLE3
 73
     2
 76
     3
 10
6.8690068883
 20
3.6776072039
 30
0.0
 10
6.4772087457
 20
4.1732406368
 30
0.0
 10
6.2311457536
 20
4.1732406368
 30
0.0
340
1DE
  0
INSERT
  5
1E5
102
{ACAD_REACTORS
330
1E6
102
}
330
1F
100
AcDbEntity
  8
0
  6
Continuous
 62
     7
370
     0
100
AcDbBlockReference
  2
SW_NOTE_8
 10
7.8576888757
 20
3.1941096463
 30
0.0
  0
LEADER
  5
1E6
330
1F
100
AcDbEntity
  8
0
  6
Continuous
 62
     7
370
     0
100
AcDbLeader
  3
SLDDIMSTYLE3
 73
     2
 76
     3
 10
7.091043095
 20
3.7180340678
 30
0.0
 10
7.6116258836
 20
3.1941096463
 30
0.0
 10
7.8576888757
 20
3.1941096463
 30
0.0
340
1E5
  0
INSERT
  5
1EC
102
{ACAD_REACTORS
330
1ED
102
}
330
1F
100
AcDbEntity
  8
0
  6
Continuous
 62
     7
370
     0
100
AcDbBlockReference
  2
SW_NOTE_9
 10
6.1533068882
 20
2.9933673093
 30
0.0
  0
LEADER
  5
1ED
330
1F
100
AcDbEntity
  8
0
  6
Continuous
 62
     7
370
     0
100
AcDbLeader
  3
SLDDIMSTYLE3
 73
     2
 76
     3
 10
6.8029393884
 20
3.4339631348
 30
0.0
 10
6.3993698803
 20
2.9933673093
 30
0.0
 10
6.1533068882
 20
2.9933673093
 30
0.0
340
1EC
  0
LINE
  5
1EE
330
1F
100
AcDbEntity
  8
0
  6
Continuous
 62
     7
370
     0
100
AcDbLine
 10
8.8881872167
 20
7.4819380721
 30
0.0
 11
8.8881872167
 21
7.473773991
 31
0.0
  0
LINE
  5
1EF
330
1F
100
AcDbEntity
  8
0
  6
Continuous
 62
     7
370
     0
100
AcDbLine
 10
9.6588083402
 20
6.1388744125
 30
0.0
 11
9.6658782588
 21
6.1347917085
 31
0.0
  0
LINE
  5
1F0
330
1F
100
AcDbEntity
  8
0
  6
Continuous
 62
     7
370
     0
100
AcDbLine
 10
9.3776788821
 20
8.1366028599
 30
0.0
 11
9.1160493731
 21
7.9855673592
 31
0.0
  0
LINE
  5
1F1
330
1F
100
AcDbEntity
  8
0
  6
Continuous
 62
     7
370
     0
100
AcDbLine
 10
10.215959979
 20
6.080259862
 30
0.0
 11
10.477589488
 21
6.2312953627
 31
0.0
  0
LINE
  5
1F2
330
1F
100
AcDbEntity
  8
0
  6
Continuous
 62
     7
370
     0
100
AcDbLine
 10
10.7054516444
 20
6.7349246498
 30
0.0
 11
10.7054516444
 21
6.7430887309
 31
0.0
  0
LINE
  5
1F3
330
1F
100
AcDbEntity
  8
0
  6
Continuous
 62
     7
370
     0
100
AcDbLine
 10
9.9348305208
 20
8.0779883094
 30
0.0
 11
9.9277606023
 21
8.0820710134
 31
0.0
  0
LWPOLYLINE
  5
1F4
330
1F
100
AcDbEntity
  8
0
  6
Continuous
 62
     7
370
     0
100
AcDbPolyline
 90
       21
 70
   128
 43
0.0
 10
9.2594928728
 20
7.953094466
 10
9.2502131799
 20
7.9476681691
 10
9.2309213356
 20
7.935035461
 10
9.2124657648
 20
7.9210504288
 10
9.1948758335
 20
7.9057353252
 10
9.1781795306
 20
7.8891145193
 10
9.1624034229
 20
7.8712144578
 10
9.1475726131
 20
7.852063623
 10
9.1337106997
 20
7.8316924874
 10
9.1208397395
 20
7.8101334652
 10
9.1089802126
 20
7.7874208606
 10
9.0981509896
 20
7.7635908135
 10
9.0883693018
 20
7.738681242
 10
9.0796507136
 20
7.7127317816
 10
9.072009098
 20
7.6857837228
 10
9.065456614
 20
7.6578799446
 10
9.060003688
 20
7.6290648472
 10
9.0556589964
 20
7.5993842806
 10
9.0524294526
 20
7.568885472
 10
9.0503201952
 20
7.5376169506
 10
9.0493345805
 20
7.5056284701
  0
LINE
  5
1F5
330
1F
100
AcDbEntity
  8
0
  6
Continuous
 62
     7
370
     0
100
AcDbLine
 10
9.0493345805
 20
7.5056284701
 30
0.0
 11
9.0441568455
 21
7.5167815941
 31
0.0
  0
ARC
  5
1F6
330
1F
100
AcDbEntity
  8
0
  6
Continuous
 62
     7
370
     0
100
AcDbCircle
 10
9.5822543444
 20
7.5497810736
 30
0.0
 40
0.5391084157292135
100
AcDbArc
 50
133.9027787391
 51
183.5093379087
  0
LWPOLYLINE
  5
1F7
330
1F
100
AcDbEntity
  8
0
  6
Continuous
 62
     7
370
     0
100
AcDbPolyline
 90
        3
 70
   128
 43
0.0
 10
9.0547199815
 20
7.5025195443
 10
9.0547292414
 20
7.5014900596
 10
9.0547634472
 20
7.4984084306
  0
LINE
  5
1F8
330
1F
100
AcDbEntity
  8
0
  6
Continuous
 62
     7
370
     0
100
AcDbLine
 10
9.0441568455
 20
7.4922853697
 30
0.0
 11
9.0547634472
 21
7.4984084306
 31
0.0
  0
LWPOLYLINE
  5
1F9
330
1F
100
AcDbEntity
  8
0
  6
Continuous
 62
     7
370
     0
100
AcDbPolyline
 90
       58
 70
   128
 43
0.0
 10
10.2211477415
 20
6.1839264893
 10
10.2150015339
 20
6.1816905899
 10
10.1922958182
 20
6.1745191173
 10
10.1689076815
 20
6.1688035954
 10
10.1448743508
 20
6.1645531218
 10
10.1202340802
 20
6.1617744618
 10
10.0950260897
 20
6.1604720384
 10
10.0692905028
 20
6.1606479245
 10
10.0430682831
 20
6.1623018403
 10
10.0164011686
 20
6.1654311531
 10
9.9893316054
 20
6.170030882
 10
9.9619026803
 20
6.1760937057
 10
9.934158052
 20
6.1836099739
 10
9.9061418818
 20
6.1925677228
 10
9.877898763
 20
6.2029526946
 10
9.8494736505
 20
6.2147483592
 10
9.8209117885
 20
6.2279359416
 10
9.7922586392
 20
6.242494451
 10
9.7635598098
 20
6.2584007145
 10
9.7348609804
 20
6.2756294141
 10
9.706207831
 20
6.2941531268
 10
9.6776459691
 20
6.3139423683
 10
9.6492208565
 20
6.33496564
 10
9.6209777378
 20
6.3571894791
 10
9.5929615675
 20
6.3805785117
 10
9.5652169392
 20
6.4050955096
 10
9.5377880141
 20
6.4307014487
 10
9.510718451
 20
6.4573555722
 10
9.4840513364
 20
6.4850154544
 10
9.4578291167
 20
6.5136370691
 10
9.4320935299
 20
6.5431748591
 10
9.4068855393
 20
6.5735818089
 10
9.3822452687
 20
6.6048095198
 10
9.3582119381
 20
6.6368082863
 10
9.3348238014
 20
6.669527176
 10
9.3121180856
 20
6.7029141101
 10
9.2901309316
 20
6.7369159463
 10
9.2688973363
 20
6.7714785639
 10
9.2484510973
 20
6.8065469494
 10
9.2288247591
 20
6.8420652843
 10
9.210049561
 20
6.8779770339
 10
9.1921553874
 20
6.9142250373
 10
9.1751707207
 20
6.9507515985
 10
9.1591225955
 20
6.9874985779
 10
9.1440365555
 20
7.0244074851
 10
9.1299366133
 20
7.0614195723
 10
9.1168452118
 20
7.098475927
 10
9.1047831887
 20
7.1355175665
 10
9.0937697432
 20
7.1724855314
 10
9.0838224054
 20
7.2093209798
 10
9.0749570085
 20
7.2459652804
 10
9.0671876636
 20
7.2823601063
 10
9.0605267371
 20
7.3184475278
 10
9.0549848315
 20
7.3541701044
 10
9.0505707676
 20
7.3894709763
 10
9.0472915714
 20
7.4242939549
 10
9.0451524625
 20
7.4585836124
 10
9.0441568455
 20
7.4922853697
  0
LWPOLYLINE
  5
1FA
330
1F
100
AcDbEntity
  8
0
  6
Continuous
 62
     7
370
     0
100
AcDbPolyline
 90
       26
 70
   128
 43
0.0
 10
9.0777491012
 20
7.4892251165
 10
9.0787513922
 20
7.5207040629
 10
9.0808886672
 20
7.5514535998
 10
9.084157347
 20
7.5814222319
 10
9.0885519576
 20
7.6105597718
 10
9.0940651395
 20
7.6388174238
 10
9.10068766
 20
7.6661478658
 10
9.1084084286
 20
7.6925053285
 10
9.1172145155
 20
7.7178456718
 10
9.1270911734
 20
7.7421264591
 10
9.1380218624
 20
7.7653070283
 10
9.1499882771
 20
7.7873485595
 10
9.1629703777
 20
7.8082141407
 10
9.1769464237
 20
7.8278688288
 10
9.1918930097
 20
7.8462797089
 10
9.2077851052
 20
7.8634159489
 10
9.2245960962
 20
7.8792488512
 10
9.2422978301
 20
7.8937519011
 10
9.2608606622
 20
7.9069008108
 10
9.280253506
 20
7.9186735602
 10
9.3004438849
 20
7.9290504339
 10
9.3213979869
 20
7.9380140542
 10
9.3430807208
 20
7.9455494099
 10
9.3654557752
 20
7.9516438818
 10
9.3884856794
 20
7.9562872638
 10
9.401605398
 20
7.9582443471
  0
LINE
  5
1FB
330
1F
100
AcDbEntity
  8
0
  6
Continuous
 62
     7
370
     0
100
AcDbLine
 10
9.0777491012
 20
7.4892251165
 30
0.0
 11
9.0493345805
 21
7.5056284701
 31
0.0
  0
LWPOLYLINE
  5
1FC
330
1F
100
AcDbEntity
  8
0
  6
Continuous
 62
     7
370
     0
100
AcDbPolyline
 90
       26
 70
   128
 43
0.0
 10
9.4169989299
 20
7.9561474083
 10
9.4046007028
 20
7.9542889434
 10
9.3818121389
 20
7.9496966247
 10
9.3596714067
 20
7.943668621
 10
9.3382155767
 20
7.9362150253
 10
9.3174805726
 20
7.9273483171
 10
9.2975011113
 20
7.9170833421
 10
9.2783106447
 20
7.9054372871
 10
9.2599413036
 20
7.8924296511
 10
9.2424238439
 20
7.8780822131
 10
9.2257875955
 20
7.8624189952
 10
9.2100604125
 20
7.8454662224
 10
9.1952686273
 20
7.8272522789
 10
9.1814370058
 20
7.8078076607
 10
9.1685887065
 20
7.7871649241
 10
9.1567452414
 20
7.7653586314
 10
9.1459264403
 20
7.7424252932
 10
9.1361504172
 20
7.7184033071
 10
9.1274335402
 20
7.6933328933
 10
9.119790404
 20
7.6672560276
 10
9.1132338058
 20
7.6402163709
 10
9.1077747232
 20
7.6122591958
 10
9.1034222964
 20
7.5834313115
 10
9.1001838129
 20
7.5537809849
 10
9.0980646947
 20
7.5233578598
 10
9.0970684901
 20
7.492212874
  0
LINE
  5
1FD
330
1F
100
AcDbEntity
  8
0
  6
Continuous
 62
     7
370
     0
100
AcDbLine
 10
9.0970684901
 20
7.492212874
 30
0.0
 11
9.0777491012
 21
7.4892251165
 31
0.0
  0
LWPOLYLINE
  5
1FE
330
1F
100
AcDbEntity
  8
0
  6
Continuous
 62
     7
370
     0
100
AcDbPolyline
 90
       64
 70
   128
 43
0.0
 10
9.0970684901
 20
7.4677166496
 10
9.0980646947
 20
7.4354214705
 10
9.1001838129
 20
7.4025516637
 10
9.1034222964
 20
7.3691622635
 10
9.1077747232
 20
7.3353091743
 10
9.1132338058
 20
7.3010490766
 10
9.119790404
 20
7.2664393326
 10
9.1274335402
 20
7.2315378898
 10
9.1361504172
 20
7.196403184
 10
9.1459264403
 20
7.1610940419
 10
9.1567452414
 20
7.1256695818
 10
9.1685887065
 20
7.0901891155
 10
9.1814370058
 20
7.0547120482
 10
9.1952686273
 20
7.0192977797
 10
9.2100604125
 20
6.9840056045
 10
9.2257875955
 20
6.9488946127
 10
9.2424238439
 20
6.9140235912
 10
9.2599413036
 20
6.8794509248
 10
9.2783106447
 20
6.845234499
 10
9.2975011113
 20
6.8114316028
 10
9.3174805726
 20
6.7780988329
 10
9.3382155767
 20
6.7452919985
 10
9.3596714067
 20
6.7130660288
 10
9.3818121389
 20
6.6814748799
 10
9.4046007028
 20
6.6505714453
 10
9.4279989432
 20
6.620407467
 10
9.4519676841
 20
6.591033449
 10
9.4764667944
 20
6.5624985725
 10
9.5014552549
 20
6.5348506139
 10
9.5268912272
 20
6.5081358643
 10
9.5527321234
 20
6.4823990527
 10
9.5789346779
 20
6.4576832706
 10
9.6054550194
 20
6.4340298997
 10
9.6322487445
 20
6.4114785434
 10
9.6592709923
 20
6.3900669596
 10
9.686476519
 20
6.3698309979
 10
9.713819774
 20
6.3508045397
 10
9.7412549763
 20
6.3330194413
 10
9.7687361907
 20
6.3165054804
 10
9.7962174051
 20
6.3012903065
 10
9.8236526074
 20
6.2873993947
 10
9.8509958624
 20
6.2748560025
 10
9.8782013891
 20
6.2636811317
 10
9.9052236368
 20
6.2538934924
 10
9.932017362
 20
6.2455094721
 10
9.9585377035
 20
6.2385431084
 10
9.984740258
 20
6.2330060651
 10
10.0105811542
 20
6.228907613
 10
10.0360171265
 20
6.226254614
 10
10.061005587
 20
6.2250515103
 10
10.0855046973
 20
6.2253003161
 10
10.1094734382
 20
6.2270006149
 10
10.1328716786
 20
6.2301495599
 10
10.1556602424
 20
6.2347418787
 10
10.1778009746
 20
6.2407698823
 10
10.1992568046
 20
6.2482234781
 10
10.2199918087
 20
6.2570901862
 10
10.23997127
 20
6.2673551612
 10
10.2591617367
 20
6.2790012163
 10
10.2775310778
 20
6.2920088522
 10
10.2950485374
 20
6.3063562902
 10
10.3116847859
 20
6.3220195082
 10
10.3274119688
 20
6.338972281
 10
10.3409821693
 20
6.3555880683
  0
LINE
  5
1FF
330
1F
100
AcDbEntity
  8
0
  6
Continuous
 62
     7
370
     0
100
AcDbLine
 10
9.1024987109
 20
7.4708514494
 30
0.0
 11
9.0970684901
 21
7.4677166496
 31
0.0
  0
ARC
  5
200
330
1F
100
AcDbEntity
  8
0
  6
Continuous
 62
     7
370
     0
100
AcDbCircle
 10
9.9981526828
 20
7.4830995616
 30
0.0
 40
0.8957377147315119
100
AcDbArc
 50
179.2165262291
 51
180.7834737709
  0
LINE
  5
201
330
1F
100
AcDbEntity
  8
0
  6
Continuous
 62
     7
370
     0
100
AcDbLine
 10
9.0970684901
 20
7.492212874
 30
0.0
 11
9.1024987109
 21
7.4953476737
 31
0.0
  0
LWPOLYLINE
  5
202
330
1F
100
AcDbEntity
  8
0
  6
Continuous
 62
     7
370
     0
100
AcDbPolyline
 90
       58
 70
   128
 43
0.0
 10
9.8201283523
 20
6.3461735438
 10
9.7927285608
 20
6.3626366562
 10
9.7653743735
 20
6.3803634665
 10
9.7381113188
 20
6.39932447
 10
9.7109847734
 20
6.4194881081
 10
9.6840398867
 20
6.4408208203
 10
9.6573215059
 20
6.4632871005
 10
9.6308741009
 20
6.4868495557
 10
9.604741691
 20
6.5114689687
 10
9.5789677709
 20
6.5371043627
 10
9.5535952388
 20
6.5637130702
 10
9.5286663248
 20
6.5912508037
 10
9.5042225206
 20
6.6196717293
 10
9.4803045104
 20
6.6489285432
 10
9.4569521035
 20
6.6789725502
 10
9.4342041676
 20
6.7097537452
 10
9.4120985644
 20
6.7412208959
 10
9.3906720866
 20
6.7733216282
 10
9.3699603963
 20
6.8060025137
 10
9.3499979661
 20
6.8392091583
 10
9.3308180216
 20
6.8728862928
 10
9.3124524858
 20
6.9069778649
 10
9.2949319264
 20
6.9414271326
 10
9.2782855047
 20
6.9761767584
 10
9.2625409268
 20
7.0111689051
 10
9.2477243983
 20
7.0463453317
 10
9.2338605796
 20
7.0816474904
 10
9.2209725457
 20
7.1170166243
 10
9.2090817476
 20
7.1523938651
 10
9.1982079762
 20
7.1877203307
 10
9.18836933
 20
7.2229372237
 10
9.1795821842
 20
7.2579859291
 10
9.1718611644
 20
7.2928081118
 10
9.1652191213
 20
7.3273458138
 10
9.15966711
 20
7.3615415503
 10
9.1552143712
 20
7.395338406
 10
9.1518683162
 20
7.4286801293
 10
9.149634514
 20
7.4615112263
 10
9.1485166827
 20
7.4937770528
 10
9.1485166827
 20
7.5254239056
 10
9.149634514
 20
7.5563991115
 10
9.1518683162
 20
7.5866511154
 10
9.1552143712
 20
7.6161295658
 10
9.15966711
 20
7.6447853988
 10
9.1652191213
 20
7.6725709195
 10
9.1718611644
 20
7.6994398817
 10
9.1795821842
 20
7.7253475647
 10
9.18836933
 20
7.7502508476
 10
9.1982079762
 20
7.7741082814
 10
9.2090817476
 20
7.7968801578
 10
9.2209725457
 20
7.8185285753
 10
9.2338605796
 20
7.8390175021
 10
9.2477243983
 20
7.8583128365
 10
9.2625409268
 20
7.8763824633
 10
9.2782855047
 20
7.8931963073
 10
9.2949319264
 20
7.9087263837
 10
9.3124524858
 20
7.9229468441
 10
9.3201662537
 20
7.9285951382
  0
LWPOLYLINE
  5
203
330
1F
100
AcDbEntity
  8
0
  6
Continuous
 62
     7
370
     0
100
AcDbPolyline
 90
       19
 70
   128
 43
0.0
 10
10.2686982893
 20
6.2855114285
 10
10.249584618
 20
6.277481978
 10
10.2281581401
 20
6.2701197305
 10
10.206052537
 20
6.264175166
 10
10.1833046011
 20
6.2596581787
 10
10.1599521942
 20
6.2565762868
 10
10.136034184
 20
6.2549346197
 10
10.1115903797
 20
6.2547359097
 10
10.0866614657
 20
6.2559804877
 10
10.0612889336
 20
6.2586662822
 10
10.0355150136
 20
6.2627888229
 10
10.0093826036
 20
6.2683412482
 10
9.9829351987
 20
6.2753143167
 10
9.9562168178
 20
6.2836964225
 10
9.9292719311
 20
6.2934736142
 10
9.9021453857
 20
6.3046296188
 10
9.8748823311
 20
6.3171458682
 10
9.8475281438
 20
6.3310015303
 10
9.8201283523
 20
6.3461735438
  0
LWPOLYLINE
  5
204
330
1F
100
AcDbEntity
  8
0
  6
Continuous
 62
     7
370
     0
100
AcDbPolyline
 90
       60
 70
   128
 43
0.0
 10
9.0493345805
 20
7.4811322458
 10
9.0503201952
 20
7.4480057989
 10
9.0524294526
 20
7.4143019807
 10
9.0556589964
 20
7.3800744201
 10
9.060003688
 20
7.3453775794
 10
9.065456614
 20
7.3102666676
 10
9.072009098
 20
7.2747975526
 10
9.0796507136
 20
7.2390266721
 10
9.0883693018
 20
7.2030109441
 10
9.0981509896
 20
7.1668076762
 10
9.1089802126
 20
7.1304744745
 10
9.1208397395
 20
7.0940691516
 10
9.1337106997
 20
7.057649635
 10
9.1475726131
 20
7.0212738748
 10
9.1624034229
 20
6.9849997515
 10
9.1781795306
 20
6.9488849838
 10
9.1948758335
 20
6.9129870369
 10
9.2124657648
 20
6.8773630309
 10
9.2309213356
 20
6.8420696502
 10
9.2502131799
 20
6.8071630528
 10
9.2703106007
 20
6.7726987816
 10
9.2911816194
 20
6.7387316755
 10
9.3127930265
 20
6.7053157824
 10
9.3351104342
 20
6.6725042729
 10
9.3580983316
 20
6.6403493563
 10
9.3817201405
 20
6.6089021968
 10
9.4059382746
 20
6.5782128325
 10
9.4307141982
 20
6.5483300959
 10
9.4560084884
 20
6.5193015357
 10
9.4817808974
 20
6.4911733419
 10
9.5079904166
 20
6.4639902713
 10
9.5345953419
 20
6.4377955772
 10
9.5615533399
 20
6.4126309402
 10
9.5888215157
 20
6.3885364018
 10
9.6163564805
 20
6.3655503007
 10
9.6441144213
 20
6.3437092121
 10
9.6720511701
 20
6.323047889
 10
9.7001222744
 20
6.3035992074
 10
9.728283068
 20
6.2853941138
 10
9.756488742
 20
6.2684615757
 10
9.784694416
 20
6.2528285358
 10
9.8128552096
 20
6.2385198692
 10
9.8409263139
 20
6.2255583436
 10
9.8688630627
 20
6.2139645831
 10
9.8966210034
 20
6.2037570355
 10
9.9241559683
 20
6.1949519429
 10
9.951424144
 20
6.1875633157
 10
9.9783821421
 20
6.1816029107
 10
10.0049870673
 20
6.1770802119
 10
10.0311965865
 20
6.1740024157
 10
10.0569689955
 20
6.1723744195
 10
10.0822632858
 20
6.1721988138
 10
10.1070392094
 20
6.1734758779
 10
10.1312573434
 20
6.1762035798
 10
10.1548791524
 20
6.1803775792
 10
10.1778670497
 20
6.1859912346
 10
10.2001844574
 20
6.1930356135
 10
10.2217958645
 20
6.2014995072
 10
10.2426668833
 20
6.211369448
 10
10.2595725589
 20
6.2207179315
  0
LINE
  5
205
330
1F
100
AcDbEntity
  8
0
  6
Continuous
 62
     7
370
     0
100
AcDbLine
 10
9.0441568455
 20
7.4922853697
 30
0.0
 11
9.0493345805
 21
7.4811322458
 31
0.0
  0
LINE
  5
206
330
1F
100
AcDbEntity
  8
0
  6
Continuous
 62
     7
370
     0
100
AcDbLine
 10
9.0493345805
 20
7.4811322458
 30
0.0
 11
9.0777491012
 21
7.4647288922
 31
0.0
  0
LWPOLYLINE
  5
207
330
1F
100
AcDbEntity
  8
0
  6
Continuous
 62
     7
370
     0
100
AcDbPolyline
 90
       64
 70
   128
 43
0.0
 10
10.3351000563
 20
6.3412089611
 10
10.3210844743
 20
6.3240181911
 10
10.3051923788
 20
6.3068819512
 10
10.2883813877
 20
6.2910490488
 10
10.2706796539
 20
6.2765459989
 10
10.2521168218
 20
6.2633970893
 10
10.232723978
 20
6.2516243398
 10
10.212533599
 20
6.2412474661
 10
10.191579497
 20
6.2322838459
 10
10.1698967632
 20
6.2247484902
 10
10.1475217088
 20
6.2186540182
 10
10.1244918046
 20
6.2140106363
 10
10.100845618
 20
6.2108261204
 10
10.0766227486
 20
6.2091058037
 10
10.0518637614
 20
6.208852567
 10
10.0266101197
 20
6.2100668344
 10
10.0009041147
 20
6.2127465724
 10
9.9747887955
 20
6.2168872935
 10
9.9483078966
 20
6.2224820632
 10
9.9215057645
 20
6.2295215121
 10
9.894427284
 20
6.2379938517
 10
9.8671178024
 20
6.2478848934
 10
9.8396230541
 20
6.2591780731
 10
9.8119890835
 20
6.2718544785
 10
9.7842621683
 20
6.2858928809
 10
9.756488742
 20
6.3012697706
 10
9.7287153156
 20
6.3179593965
 10
9.7009884005
 20
6.3359338089
 10
9.6733544299
 20
6.3551629068
 10
9.6458596815
 20
6.3756144878
 10
9.6185502
 20
6.3972543023
 10
9.5914717194
 20
6.4200461109
 10
9.5646695874
 20
6.4439517449
 10
9.5381886884
 20
6.4689311704
 10
9.5120733692
 20
6.4949425551
 10
9.4863673643
 20
6.5219423386
 10
9.4611137225
 20
6.5498853053
 10
9.4363547354
 20
6.5787246601
 10
9.4121318659
 20
6.6084121067
 10
9.3884856794
 20
6.6388979284
 10
9.3654557752
 20
6.6701310717
 10
9.3430807208
 20
6.7020592316
 10
9.3213979869
 20
6.7346289389
 10
9.3004438849
 20
6.7677856503
 10
9.280253506
 20
6.8014738394
 10
9.2608606622
 20
6.8356370897
 10
9.2422978301
 20
6.8702181891
 10
9.2245960962
 20
6.9051592259
 10
9.2077851052
 20
6.9404016854
 10
9.1918930097
 20
6.9758865483
 10
9.1769464237
 20
7.0115543892
 10
9.1629703777
 20
7.0473454765
 10
9.1499882771
 20
7.0831998721
 10
9.1380218624
 20
7.1190575316
 10
9.1270911734
 20
7.1548584056
 10
9.1172145155
 20
7.1905425395
 10
9.1084084286
 20
7.2260501743
 10
9.10068766
 20
7.2613218466
 10
9.0940651395
 20
7.296298488
 10
9.0885519576
 20
7.3309215244
 10
9.084157347
 20
7.3651329737
 10
9.0808886672
 20
7.3988755432
 10
9.0787513922
 20
7.4320927252
 10
9.0777491012
 20
7.4647288922
  0
LINE
  5
208
330
1F
100
AcDbEntity
  8
0
  6
Continuous
 62
     7
370
     0
100
AcDbLine
 10
9.0777491012
 20
7.4647288922
 30
0.0
 11
9.0970684901
 21
7.4677166496
 31
0.0
  0
LINE
  5
209
330
1F
100
AcDbEntity
  8
0
  6
Continuous
 62
     7
370
     0
100
AcDbLine
 10
9.0547634472
 20
7.4984084306
 30
0.0
 11
9.1024987109
 21
7.4708514494
 31
0.0
  0
LWPOLYLINE
  5
20A
330
1F
100
AcDbEntity
  8
0
  6
Continuous
 62
     7
370
     0
100
AcDbPolyline
 90
      125
 70
   128
 43
0.0
 10
8.8881872167
 20
7.4819380721
 10
8.8887510972
 20
7.5158074668
 10
8.8904419211
 20
7.5489767115
 10
8.8932572368
 20
7.5813977141
 10
8.8971929624
 20
7.6130234671
 10
8.9022433915
 20
7.6438081163
 10
8.9084012015
 20
7.6737070269
 10
8.915657464
 20
7.7026768483
 10
8.9240016583
 20
7.730675577
 10
8.933421686
 20
7.7576626176
 10
8.9439038891
 20
7.7835988414
 10
8.9554330692
 20
7.8084466434
 10
8.9679925102
 20
7.8321699967
 10
8.9815640022
 20
7.8547345045
 10
8.9961278677
 20
7.8761074507
 10
9.0116629905
 20
7.8962578464
 10
9.0281468462
 20
7.9151564755
 10
9.0455555348
 20
7.9327759368
 10
9.0638638153
 20
7.9490906837
 10
9.0830451425
 20
7.9640770615
 10
9.1030717053
 20
7.9777133413
 10
9.1239144671
 20
7.9899797518
 10
9.1455432078
 20
8.0008585079
 10
9.167926568
 20
8.0103338364
 10
9.1910320938
 20
8.018391999
 10
9.2148262844
 20
8.0250213122
 10
9.2392746405
 20
8.0302121641
 10
9.2643417144
 20
8.0339570284
 10
9.2899911612
 20
8.0362504755
 10
9.3161857917
 20
8.03708918
 10
9.3428876261
 20
8.0364719259
 10
9.3700579493
 20
8.0343996083
 10
9.397657367
 20
8.0308752316
 10
9.4256458626
 20
8.0259039061
 10
9.4539828555
 20
8.0194928395
 10
9.4826272598
 20
8.0116513274
 10
9.5115375438
 20
8.0023907391
 10
9.5406717904
 20
7.9917245017
 10
9.5699877577
 20
7.9796680802
 10
9.5994429403
 20
7.9662389552
 10
9.6289946311
 20
7.9514565977
 10
9.658599983
 20
7.9353424406
 10
9.6882160709
 20
7.917919848
 10
9.7177999544
 20
7.899214081
 10
9.7473087397
 20
7.8792522612
 10
9.776699642
 20
7.8580633311
 10
9.805930047
 20
7.8356780129
 10
9.8349575737
 20
7.8121287631
 10
9.8637401348
 20
7.7874497257
 10
9.8922359984
 20
7.7616766832
 10
9.9204038483
 20
7.7348470038
 10
9.9482028436
 20
7.7069995882
 10
9.9755926786
 20
7.6781748123
 10
10.0025336406
 20
7.6484144693
 10
10.0289866677
 20
7.617761709
 10
10.0549134057
 20
7.5862609748
 10
10.0802762632
 20
7.5539579399
 10
10.1050384664
 20
7.5208994404
 10
10.1291641127
 20
7.4871334082
 10
10.1526182221
 20
7.4527088007
 10
10.1753667883
 20
7.4176755303
 10
10.1973768282
 20
7.3820843919
 10
10.2186164292
 20
7.3459869893
 10
10.2390547961
 20
7.3094356602
 10
10.258662295
 20
7.2724834005
 10
10.2774104971
 20
7.2351837876
 10
10.2952722191
 20
7.1975909022
 10
10.3122215634
 20
7.1597592505
 10
10.328233955
 20
7.1217436848
 10
10.3432861774
 20
7.0835993239
 10
10.3573564064
 20
7.0453814736
 10
10.3704242415
 20
7.0071455461
 10
10.3824707356
 20
6.9689469798
 10
10.3934784224
 20
6.930841159
 10
10.4034313418
 20
6.8928833336
 10
10.412315063
 20
6.8551285386
 10
10.4201167055
 20
6.817631515
 10
10.4268249577
 20
6.7804466298
 10
10.4324300931
 20
6.7436277977
 10
10.436923985
 20
6.7072284023
 10
10.4403001176
 20
6.6713012193
 10
10.4425535959
 20
6.6358983397
 10
10.4436811524
 20
6.6010710943
 10
10.4436811524
 20
6.5668699793
 10
10.4425535959
 20
6.533344583
 10
10.4403001176
 20
6.500543514
 10
10.436923985
 20
6.4685143307
 10
10.4324300931
 20
6.4373034725
 10
10.4268249577
 20
6.406956192
 10
10.4201167055
 20
6.37751649
 10
10.412315063
 20
6.3490270511
 10
10.4034313418
 20
6.3215291823
 10
10.3934784224
 20
6.2950627529
 10
10.3824707356
 20
6.2696661368
 10
10.3704242415
 20
6.2453761565
 10
10.3573564064
 20
6.2222280302
 10
10.3432861774
 20
6.2002553206
 10
10.328233955
 20
6.1794898858
 10
10.3122215634
 20
6.1599618339
 10
10.2952722191
 20
6.1416994785
 10
10.2774104971
 20
6.1247292985
 10
10.258662295
 20
6.1090758989
 10
10.2390547961
 20
6.0947619757
 10
10.2186164292
 20
6.0818082826
 10
10.1973768282
 20
6.0702336013
 10
10.1753667883
 20
6.0600547141
 10
10.1526182221
 20
6.0512863792
 10
10.1291641127
 20
6.0439413099
 10
10.1050384664
 20
6.038030156
 10
10.0802762632
 20
6.0335614879
 10
10.0549134057
 20
6.0305417849
 10
10.0289866677
 20
6.0289754252
 10
10.0025336406
 20
6.0288646799
 10
9.9755926786
 20
6.0302097096
 10
9.9482028436
 20
6.033008564
 10
9.9204038483
 20
6.0372571852
 10
9.8922359984
 20
6.042949413
 10
9.8637401348
 20
6.0500769942
 10
9.8349575737
 20
6.0586295946
 10
9.805930047
 20
6.0685948137
 10
9.776699642
 20
6.0799582028
 10
9.7473087397
 20
6.0927032862
 10
9.7177999544
 20
6.1068115847
 10
9.6882160709
 20
6.1222626425
 10
9.6658782588
 20
6.1347917085
  0
LWPOLYLINE
  5
20B
330
1F
100
AcDbEntity
  8
0
  6
Continuous
 62
     7
370
     0
100
AcDbPolyline
 90
      165
 70
   128
 43
0.0
 10
8.8881872167
 20
7.473773991
 10
8.888752805
 20
7.4393569215
 10
8.8904487399
 20
7.4043373494
 10
8.8932725322
 20
7.3687666708
 10
8.8972200378
 20
7.3326970906
 10
8.9022854631
 20
7.2961815458
 10
8.9084613738
 20
7.259273628
 10
8.9157387061
 20
7.2220275048
 10
8.9241067794
 20
7.1844978399
 10
8.9335533123
 20
7.1467397133
 10
8.9440644409
 20
7.1088085402
 10
8.9556247386
 20
7.0707599898
 10
8.968217239
 20
7.0326499038
 10
8.9818234609
 20
6.9945342138
 10
8.9964234354
 20
6.9564688599
 10
9.0119957349
 20
6.9185097082
 10
9.0285175049
 20
6.8807124692
 10
9.0459644975
 20
6.8431326153
 10
9.0643111068
 20
6.8058253002
 10
9.0835304066
 20
6.7688452776
 10
9.10359419
 20
6.7322468207
 10
9.1244730105
 20
6.6960836429
 10
9.1461362256
 20
6.6604088185
 10
9.1685520417
 20
6.6252747053
 10
9.1916875603
 20
6.5907328674
 10
9.2155088269
 20
6.5568339999
 10
9.2399808805
 20
6.5236278538
 10
9.265067805
 20
6.4911631638
 10
9.2907327819
 20
6.4594875764
 10
9.3169381443
 20
6.4286475798
 10
9.3436454322
 20
6.398688436
 10
9.370815449
 20
6.3696541141
 10
9.3984083189
 20
6.3415872261
 10
9.4263835456
 20
6.3145289639
 10
9.4547000716
 20
6.2885190392
 10
9.4833163384
 20
6.2635956253
 10
9.5121903479
 20
6.2397953007
 10
9.5412797232
 20
6.2171529956
 10
9.5705417719
 20
6.1957019407
 10
9.5999335478
 20
6.1754736184
 10
9.6294119144
 20
6.1564977167
 10
9.6589336082
 20
6.1388020851
 10
9.688455302
 20
6.1224126945
 10
9.7179336686
 20
6.1073535987
 10
9.7473254445
 20
6.0936468988
 10
9.7765874932
 20
6.0813127114
 10
9.8056768686
 20
6.0703691386
 10
9.834550878
 20
6.0608322416
 10
9.8631671448
 20
6.052716017
 10
9.8914836708
 20
6.0460323767
 10
9.9194588975
 20
6.0407911297
 10
9.9470517674
 20
6.0369999683
 10
9.9742217842
 20
6.0346644565
 10
10.0009290721
 20
6.0337880221
 10
10.0271344345
 20
6.0343719513
 10
10.0527994114
 20
6.0364153871
 10
10.0778863359
 20
6.0399153305
 10
10.1023583895
 20
6.0448666449
 10
10.1261796561
 20
6.0512620635
 10
10.1493151747
 20
6.0590922001
 10
10.1717309908
 20
6.068345563
 10
10.1933942059
 20
6.0790085715
 10
10.2142730265
 20
6.0910655763
 10
10.2343368098
 20
6.104498882
 10
10.2535561096
 20
6.1192887734
 10
10.2719027189
 20
6.1354135443
 10
10.2893497115
 20
6.1528495293
 10
10.3058714815
 20
6.1715711387
 10
10.321443781
 20
6.1915508961
 10
10.3360437555
 20
6.2127594783
 10
10.3496499774
 20
6.2351657588
 10
10.3622424778
 20
6.2587368534
 10
10.3738027755
 20
6.2834381681
 10
10.3843139041
 20
6.3092334505
 10
10.3937604371
 20
6.3360848423
 10
10.4021285103
 20
6.3639529355
 10
10.4094058426
 20
6.3927968297
 10
10.4155817533
 20
6.4225741927
 10
10.4206471786
 20
6.4532413219
 10
10.4245946842
 20
6.4847532092
 10
10.4274184766
 20
6.5170636066
 10
10.4291144114
 20
6.5501250939
 10
10.4296799997
 20
6.5838891491
 10
10.4291144114
 20
6.6183062186
 10
10.4274184766
 20
6.6533257907
 10
10.4245946842
 20
6.6888964693
 10
10.4206471786
 20
6.7249660495
 10
10.4155817533
 20
6.7614815943
 10
10.4094058426
 20
6.7983895121
 10
10.4021285103
 20
6.8356356353
 10
10.3937604371
 20
6.8731653002
 10
10.3843139041
 20
6.9109234269
 10
10.3738027755
 20
6.9488545999
 10
10.3622424778
 20
6.9869031503
 10
10.3496499774
 20
7.0250132363
 10
10.3360437555
 20
7.0631289263
 10
10.321443781
 20
7.1011942802
 10
10.3058714815
 20
7.1391534319
 10
10.2893497115
 20
7.176950671
 10
10.2719027189
 20
7.2145305248
 10
10.2535561096
 20
7.2518378399
 10
10.2343368098
 20
7.2888178625
 10
10.2142730265
 20
7.3254163194
 10
10.1933942059
 20
7.3615794972
 10
10.1717309908
 20
7.3972543216
 10
10.1493151747
 20
7.4323884348
 10
10.1261796561
 20
7.4669302727
 10
10.1023583895
 20
7.5008291403
 10
10.0778863359
 20
7.5340352863
 10
10.0527994114
 20
7.5664999763
 10
10.0271344345
 20
7.5981755637
 10
10.0009290721
 20
7.6290155603
 10
9.9742217842
 20
7.6589747041
 10
9.9470517674
 20
7.688009026
 10
9.9194588975
 20
7.716075914
 10
9.8914836708
 20
7.7431341762
 10
9.8631671448
 20
7.7691441009
 10
9.834550878
 20
7.7940675148
 10
9.8056768686
 20
7.8178678394
 10
9.7765874932
 20
7.8405101445
 10
9.7473254445
 20
7.8619611994
 10
9.7179336686
 20
7.8821895217
 10
9.688455302
 20
7.9011654234
 10
9.6589336082
 20
7.918861055
 10
9.6294119144
 20
7.9352504456
 10
9.5999335478
 20
7.9503095414
 10
9.5705417719
 20
7.9640162413
 10
9.5412797232
 20
7.9763504287
 10
9.5121903479
 20
7.9872940015
 10
9.4833163384
 20
7.9968308985
 10
9.4547000716
 20
8.0049471231
 10
9.4263835456
 20
8.0116307634
 10
9.3984083189
 20
8.0168720104
 10
9.370815449
 20
8.0206631718
 10
9.3436454322
 20
8.0229986836
 10
9.3169381443
 20
8.023875118
 10
9.2907327819
 20
8.0232911888
 10
9.265067805
 20
8.021247753
 10
9.2399808805
 20
8.0177478096
 10
9.2155088269
 20
8.0127964952
 10
9.1916875603
 20
8.0064010767
 10
9.1685520417
 20
7.99857094
 10
9.1461362256
 20
7.9893175771
 10
9.1244730105
 20
7.9786545686
 10
9.10359419
 20
7.9665975638
 10
9.0835304066
 20
7.9531642581
 10
9.0643111068
 20
7.9383743667
 10
9.0459644975
 20
7.9222495958
 10
9.0285175049
 20
7.9048136108
 10
9.0119957349
 20
7.8860920014
 10
8.9964234354
 20
7.866112244
 10
8.9818234609
 20
7.8449036618
 10
8.968217239
 20
7.8224973813
 10
8.9556247386
 20
7.7989262867
 10
8.9440644409
 20
7.774224972
 10
8.9335533123
 20
7.7484296896
 10
8.9241067794
 20
7.7215782978
 10
8.9157387061
 20
7.6937102046
 10
8.9084613738
 20
7.6648663104
 10
8.9022854631
 20
7.6350889474
 10
8.8972200378
 20
7.6044218182
 10
8.8932725322
 20
7.5729099309
 10
8.8904487399
 20
7.5405995335
 10
8.888752805
 20
7.5075380462
 10
8.8881872167
 20
7.473773991
  0
ARC
  5
20C
330
1F
100
AcDbEntity
  8
0
  6
Continuous
 62
     7
370
     0
100
AcDbCircle
 10
9.4008714977
 20
7.4094844788
 30
0.0
 40
0.6987621414948977
100
AcDbArc
 50
72.5022799718
 51
74.7296667561
  0
LINE
  5
20D
330
1F
100
AcDbEntity
  8
0
  6
Continuous
 62
     7
370
     0
100
AcDbLine
 10
9.5609254041
 20
8.0470258515
 30
0.0
 11
9.6109668071
 21
8.0759141385
 31
0.0
  0
ARC
  5
20E
330
1F
100
AcDbEntity
  8
0
  6
Continuous
 62
     7
370
     0
100
AcDbCircle
 10
9.3426737969
 20
7.3543002078
 30
0.0
 40
0.72629372946261
100
AcDbArc
 50
71.8669884465
 51
72.51233501
  0
LINE
  5
20F
330
1F
100
AcDbEntity
  8
0
  6
Continuous
 62
     7
370
     0
100
AcDbLine
 10
9.625282399
 20
8.0771800272
 30
0.0
 11
9.5687138565
 21
8.0445237027
 31
0.0
  0
ARC
  5
210
330
1F
100
AcDbEntity
  8
0
  6
Continuous
 62
     7
370
     0
100
AcDbCircle
 10
9.4056700102
 20
7.4072723799
 30
0.0
 40
0.7049864234626818
100
AcDbArc
 50
71.8495694362
 51
74.7221420844
  0
LINE
  5
211
330
1F
100
AcDbEntity
  8
0
  6
Continuous
 62
     7
370
     0
100
AcDbLine
 10
9.584906987
 20
8.0835760669
 30
0.0
 11
9.5914341265
 21
8.0873441043
 31
0.0
  0
ARC
  5
212
330
1F
100
AcDbEntity
  8
0
  6
Continuous
 62
     7
370
     0
100
AcDbCircle
 10
9.3196848878
 20
7.2292681969
 30
0.0
 40
0.8812842850576953
100
AcDbArc
 50
64.6754719879
 51
66.1710072782
  0
LINE
  5
213
330
1F
100
AcDbEntity
  8
0
  6
Continuous
 62
     7
370
     0
100
AcDbLine
 10
9.7031768479
 20
8.0296286742
 30
0.0
 11
9.6966497084
 21
8.0258606368
 31
0.0
  0
ARC
  5
214
330
1F
100
AcDbEntity
  8
0
  6
Continuous
 62
     7
370
     0
100
AcDbCircle
 10
9.3262120273
 20
7.2330362344
 30
0.0
 40
0.8812842850610079
100
AcDbArc
 50
64.6754719879
 51
66.1710072782
  0
LINE
  5
215
330
1F
100
AcDbEntity
  8
0
  6
Continuous
 62
     7
370
     0
100
AcDbLine
 10
9.675730993
 20
8.035427711
 30
0.0
 11
9.6822581325
 21
8.0391957484
 31
0.0
  0
ARC
  5
216
330
1F
100
AcDbEntity
  8
0
  6
Continuous
 62
     7
370
     0
100
AcDbCircle
 10
9.2218921136
 20
7.0237258842
 30
0.0
 40
1.131650496891917
100
AcDbArc
 50
56.886192027
 51
57.3227076597
  0
SPLINE
  5
217
330
1F
100
AcDbEntity
  8
0
  6
Continuous
 62
     7
370
     0
100
AcDbSpline
210
0.0
220
0.0
230
1.0
 70
     8
 71
     3
 72
    11
 73
     7
 74
     0
 42
0.000000001
 43
0.00000001
 40
0.0
 40
0.0
 40
0.0
 40
0.0
 40
0.2500046874459121
 40
0.4999902174400003
 40
0.749985133753026
 40
1.0
 40
1.0
 40
1.0
 40
1.0
 10
9.81499986648836
 20
7.968986402972803
 30
0.0
 10
9.816587172759558
 20
7.96950328959557
 30
0.0
 10
9.819761663669254
 20
7.970537023232927
 30
0.0
 10
9.824297166178367
 20
7.972311670957539
 30
0.0
 10
9.828682489647518
 20
7.974213949084482
 30
0.0
 10
9.831479376306024
 20
7.975580765857602
 30
0.0
 10
9.832877875431892
 20
7.976264201511532
 30
0.0
  0
SPLINE
  5
218
330
1F
100
AcDbEntity
  8
0
  6
Continuous
 62
     7
370
     0
100
AcDbSpline
210
0.0
220
0.0
230
1.0
 70
     8
 71
     3
 72
    14
 73
    10
 74
     0
 42
0.000000001
 43
0.00000001
 40
0.0
 40
0.0
 40
0.0
 40
0.0
 40
0.0714406687654188
 40
0.1428795370169176
 40
0.2500353555881956
 40
0.5000130023866953
 40
0.749963104754525
 40
0.8749754923226936
 40
1.0
 40
1.0
 40
1.0
 40
1.0
 10
9.762616654771756
 20
7.960121562975683
 30
0.0
 10
9.763932049621435
 20
7.960162344345881
 30
0.0
 10
9.766562806168992
 20
7.960243906058467
 30
0.0
 10
9.771131492494904
 20
7.960567333840379
 30
0.0
 10
9.778907210683705
 20
7.961299231606836
 30
0.0
 10
9.789722930489818
 20
7.962866075032842
 30
0.0
 10
9.800550082785033
 20
7.96501801858008
 30
0.0
 10
9.808925349011732
 20
7.967144481184025
 30
0.0
 10
9.812974961896808
 20
7.968372409202642
 30
0.0
 10
9.81499986648836
 20
7.968986402972803
 30
0.0
  0
LINE
  5
219
330
1F
100
AcDbEntity
  8
0
  6
Continuous
 62
     7
370
     0
100
AcDbLine
 10
9.7567467619
 20
7.956732946
 30
0.0
 11
9.7626166548
 21
7.960121563
 31
0.0
  0
ARC
  5
21A
330
1F
100
AcDbEntity
  8
0
  6
Continuous
 62
     7
370
     0
100
AcDbCircle
 10
9.1725933419
 20
7.0014647827
 30
0.0
 40
1.119719822936706
100
AcDbArc
 50
56.355864705
 51
58.55391123
  0
LINE
  5
21B
330
1F
100
AcDbEntity
  8
0
  6
Continuous
 62
     7
370
     0
100
AcDbLine
 10
9.8002074399
 20
7.9378123233
 30
0.0
 11
9.7929550627
 21
7.933625615
 31
0.0
  0
ARC
  5
21C
330
1F
100
AcDbEntity
  8
0
  6
Continuous
 62
     7
370
     0
100
AcDbCircle
 10
9.1757991173
 20
6.9994161705
 30
0.0
 40
1.127152648432573
100
AcDbArc
 50
56.36022605
 51
58.11092628
  0
SPLINE
  5
21D
330
1F
100
AcDbEntity
  8
0
  6
Continuous
 62
     7
370
     0
100
AcDbSpline
210
0.0
220
0.0
230
1.0
 70
     8
 71
     3
 72
    16
 73
    12
 74
     0
 42
0.000000001
 43
0.00000001
 40
0.0
 40
0.0
 40
0.0
 40
0.0
 40
0.06291163034384
 40
0.1250257283577125
 40
0.1835263708142334
 40
0.2500782449891958
 40
0.3761461362529035
 40
0.5001293926099419
 40
0.7500023071406339
 40
0.9166493982577348
 40
1.0
 40
1.0
 40
1.0
 40
1.0
 10
9.84011711519485
 20
7.971581724774193
 30
0.0
 10
9.838939839865198
 20
7.970968824159557
 30
0.0
 10
9.836600213555045
 20
7.969750792686888
 30
0.0
 10
9.83292533637434
 20
7.968145069986554
 30
0.0
 10
9.829023081884413
 20
7.966647464216742
 30
0.0
 10
9.82365383217806
 20
7.964767599214991
 30
0.0
 10
9.816663913620767
 20
7.962623438067781
 30
0.0
 10
9.805163414325444
 20
7.959803720535191
 30
0.0
 10
9.79207895203956
 20
7.957731972762264
 30
0.0
 10
9.779649247240206
 20
7.956616600170747
 30
0.0
 10
9.773348120770704
 20
7.956491976113165
 30
0.0
 10
9.771247290651514
 20
7.956450425768951
 30
0.0
  0
ARC
  5
21E
330
1F
100
AcDbEntity
  8
0
  6
Continuous
 62
     7
370
     0
100
AcDbCircle
 10
9.1025293053
 20
6.8701132096
 30
0.0
 40
1.307787668173817
100
AcDbArc
 50
51.5202921491
 51
52.8382641041
  0
SPLINE
  5
21F
330
1F
100
AcDbEntity
  8
0
  6
Continuous
 62
     7
370
     0
100
AcDbSpline
210
0.0
220
0.0
230
1.0
 70
     8
 71
     3
 72
     8
 73
     4
 74
     0
 42
0.000000001
 43
0.00000001
 40
0.0
 40
0.0
 40
0.0
 40
0.0
 40
1.0
 40
1.0
 40
1.0
 40
1.0
 10
9.903563187186215
 20
7.927172540382911
 30
0.0
 10
9.899883687165518
 20
7.922235409324609
 30
0.0
 10
9.896202888195408
 20
7.917288887524871
 30
0.0
 10
9.892520717653689
 20
7.912333029667008
 30
0.0
  0
ARC
  5
220
330
1F
100
AcDbEntity
  8
0
  6
Continuous
 62
     7
370
     0
100
AcDbCircle
 10
9.147951555
 20
6.9171487541
 30
0.0
 40
1.26138693016256
100
AcDbArc
 50
53.1993706613
 51
53.6733029297
  0
SPLINE
  5
221
330
1F
100
AcDbEntity
  8
0
  6
Continuous
 62
     7
370
     0
100
AcDbSpline
210
0.0
220
0.0
230
1.0
 70
     8
 71
     3
 72
     8
 73
     4
 74
     0
 42
0.000000001
 43
0.00000001
 40
0.0
 40
0.0
 40
0.0
 40
0.0
 40
1.0
 40
1.0
 40
1.0
 40
1.0
 10
9.860819663384442
 20
7.88402678453256
 30
0.0
 10
9.872290765727902
 20
7.900594220533098
 30
0.0
 10
9.883744129614374
 20
7.917048763681982
 30
0.0
 10
9.895182840827363
 20
7.933388092559926
 30
0.0
  0
ARC
  5
222
330
1F
100
AcDbEntity
  8
0
  6
Continuous
 62
     7
370
     0
100
AcDbCircle
 10
9.0633070952
 20
6.8474945561
 30
0.0
 40
1.3078323122594
100
AcDbArc
 50
51.9334016642
 51
52.425154589
  0
SPLINE
  5
223
330
1F
100
AcDbEntity
  8
0
  6
Continuous
 62
     7
370
     0
100
AcDbSpline
210
0.0
220
0.0
230
1.0
 70
     8
 71
     3
 72
     8
 73
     4
 74
     0
 42
0.000000001
 43
0.00000001
 40
0.0
 40
0.0
 40
0.0
 40
0.0
 40
1.0
 40
1.0
 40
1.0
 40
1.0
 10
9.948306119580879
 20
7.892150672259781
 30
0.0
 10
9.922120571459422
 20
7.88725870743694
 30
0.0
 10
9.89591298811285
 20
7.882257259114898
 30
0.0
 10
9.869686433893113
 20
7.877143874615277
 30
0.0
  0
ARC
  5
224
330
1F
100
AcDbEntity
  8
0
  6
Continuous
 62
     7
370
     0
100
AcDbCircle
 10
9.0912597931
 20
6.8440942813
 30
0.0
 40
1.353865061366663
100
AcDbArc
 50
50.7254751424
 51
51.1775720167
  0
SPLINE
  5
225
330
1F
100
AcDbEntity
  8
0
  6
Continuous
 62
     7
370
     0
100
AcDbSpline
210
0.0
220
0.0
230
1.0
 70
     8
 71
     3
 72
     8
 73
     4
 74
     0
 42
0.000000001
 43
0.00000001
 40
0.0
 40
0.0
 40
0.0
 40
0.0
 40
1.0
 40
1.0
 40
1.0
 40
1.0
 10
9.916283736806815
 20
7.893886773498134
 30
0.0
 10
9.924194075826831
 20
7.895560477755344
 30
0.0
 10
9.932102772071609
 20
7.897225056478671
 30
0.0
 10
9.940009753408837
 20
7.898880567351788
 30
0.0
  0
SPLINE
  5
226
330
1F
100
AcDbEntity
  8
0
  6
Continuous
 62
     7
370
     0
100
AcDbSpline
210
0.0
220
0.0
230
1.0
 70
     8
 71
     3
 72
    15
 73
    11
 74
     0
 42
0.000000001
 43
0.00000001
 40
0.0
 40
0.0
 40
0.0
 40
0.0
 40
0.0715686387664985
 40
0.1431353726650517
 40
0.2503322464845925
 40
0.4992737633368765
 40
0.6243899522806164
 40
0.749523929083269
 40
0.8747465879576758
 40
1.0
 40
1.0
 40
1.0
 40
1.0
 10
9.364911622272924
 20
8.119592472777356
 30
0.0
 10
9.365207433644024
 20
8.119684789432037
 30
0.0
 10
9.365799048512917
 20
8.119869420284308
 30
0.0
 10
9.36655377007115
 20
8.120032367451177
 30
0.0
 10
9.367407236110761
 20
8.120074638417602
 30
0.0
 10
9.367175155466972
 20
8.119513235835463
 30
0.0
 10
9.366077716802113
 20
8.118557932780199
 30
0.0
 10
9.364793558888108
 20
8.117647309997034
 30
0.0
 10
9.363149984083647
 20
8.116599387425564
 30
0.0
 10
9.361823229108317
 20
8.115823704575305
 30
0.0
 10
9.361159770171916
 20
8.115435815531445
 30
0.0
  0
SPLINE
  5
227
330
1F
100
AcDbEntity
  8
0
  6
Continuous
 62
     7
370
     0
100
AcDbSpline
210
0.0
220
0.0
230
1.0
 70
     8
 71
     3
 72
    12
 73
     8
 74
     0
 42
0.000000001
 43
0.00000001
 40
0.0
 40
0.0
 40
0.0
 40
0.0
 40
0.2502273872369871
 40
0.5002411532953673
 40
0.749865710519632
 40
0.8749015259391029
 40
1.0
 40
1.0
 40
1.0
 40
1.0
 10
9.348971780600843
 20
8.112492037358418
 30
0.0
 10
9.350427857827187
 20
8.11320777691687
 30
0.0
 10
9.353338769214771
 20
8.114638645001024
 30
0.0
 10
9.357669381748666
 20
8.116666815841189
 30
0.0
 10
9.361076785814342
 20
8.118155187925067
 30
0.0
 10
9.36346664748493
 20
8.119102315590482
 30
0.0
 10
9.364429883580042
 20
8.119429059765258
 30
0.0
 10
9.364911622272924
 20
8.119592472777356
 30
0.0
  0
SPLINE
  5
228
330
1F
100
AcDbEntity
  8
0
  6
Continuous
 62
     7
370
     0
100
AcDbSpline
210
0.0
220
0.0
230
1.0
 70
     8
 71
     3
 72
    11
 73
     7
 74
     0
 42
0.000000001
 43
0.00000001
 40
0.0
 40
0.0
 40
0.0
 40
0.0
 40
0.1406923327709307
 40
0.2856504977000965
 40
0.4999629897009654
 40
1.0
 40
1.0
 40
1.0
 40
1.0
 10
9.350659049935583
 20
8.114536459679417
 30
0.0
 10
9.350655966802545
 20
8.114479313644946
 30
0.0
 10
9.350649707054988
 20
8.114363288891736
 30
0.0
 10
9.350466174402687
 20
8.114072345340313
 30
0.0
 10
9.349988249731751
 20
8.113490412872766
 30
0.0
 10
9.349390322951246
 20
8.11290312946309
 30
0.0
 10
9.348971780600843
 20
8.112492037358418
 30
0.0
  0
SPLINE
  5
229
330
1F
100
AcDbEntity
  8
0
  6
Continuous
 62
     7
370
     0
100
AcDbSpline
210
0.0
220
0.0
230
1.0
 70
     8
 71
     3
 72
    11
 73
     7
 74
     0
 42
0.000000001
 43
0.00000001
 40
0.0
 40
0.0
 40
0.0
 40
0.0
 40
0.2500722882310523
 40
0.4999620443496567
 40
0.7498852660693529
 40
1.0
 40
1.0
 40
1.0
 40
1.0
 10
9.347810437944078
 20
8.113909798460663
 30
0.0
 10
9.348225701628046
 20
8.114061986123824
 30
0.0
 10
9.349055925887793
 20
8.114366250365729
 30
0.0
 10
9.349913421965145
 20
8.114598277572144
 30
0.0
 10
9.350474586090112
 20
8.114667354368407
 30
0.0
 10
9.350597546289364
 20
8.11458010238145
 30
0.0
 10
9.350659049935583
 20
8.114536459679417
 30
0.0
  0
SPLINE
  5
22A
330
1F
100
AcDbEntity
  8
0
  6
Continuous
 62
     7
370
     0
100
AcDbSpline
210
0.0
220
0.0
230
1.0
 70
     8
 71
     3
 72
    14
 73
    10
 74
     0
 42
0.000000001
 43
0.00000001
 40
0.0
 40
0.0
 40
0.0
 40
0.0
 40
0.1253688471068468
 40
0.2506913889047605
 40
0.379443280823496
 40
0.5007734369138916
 40
0.7496382694919707
 40
0.8748235175244367
 40
1.0
 40
1.0
 40
1.0
 40
1.0
 10
9.326446381345042
 20
8.103109848923038
 30
0.0
 10
9.32725879644868
 20
8.10357681102707
 30
0.0
 10
9.328883326588333
 20
8.104510562761465
 30
0.0
 10
9.331557568661903
 20
8.106008288086658
 30
0.0
 10
9.334417316873804
 20
8.107564166248881
 30
0.0
 10
9.338455838022513
 20
8.109664950807455
 30
0.0
 10
9.342378752244347
 20
8.111565474934372
 30
0.0
 10
9.34580214280264
 20
8.113110010827944
 30
0.0
 10
9.347141021855684
 20
8.113643208805788
 30
0.0
 10
9.347810437944078
 20
8.113909798460663
 30
0.0
  0
SPLINE
  5
22B
330
1F
100
AcDbEntity
  8
0
  6
Continuous
 62
     7
370
     0
100
AcDbSpline
210
0.0
220
0.0
230
1.0
 70
     8
 71
     3
 72
    15
 73
    11
 74
     0
 42
0.000000001
 43
0.00000001
 40
0.0
 40
0.0
 40
0.0
 40
0.0
 40
0.0688261813468777
 40
0.1253069327108524
 40
0.2505010874263658
 40
0.3757413007373888
 40
0.5009237703813706
 40
0.7493266030478741
 40
0.8746205673268476
 40
1.0
 40
1.0
 40
1.0
 40
1.0
 10
9.322427117593792
 20
8.099256319530511
 30
0.0
 10
9.32211684527661
 20
8.099141340718385
 30
0.0
 10
9.321551954538663
 20
8.09893200697369
 30
0.0
 10
9.320632215148498
 20
8.098626910884267
 30
0.0
 10
9.319876016910344
 20
8.098451117635477
 30
0.0
 10
9.319547772096348
 20
8.098540649446397
 30
0.0
 10
9.31968670793542
 20
8.098946896668181
 30
0.0
 10
9.321525514596292
 20
8.100191189631012
 30
0.0
 10
9.324161358783476
 20
8.101782565921509
 30
0.0
 10
9.325684534046351
 20
8.102667320701952
 30
0.0
 10
9.326446381345042
 20
8.103109848923038
 30
0.0
  0
SPLINE
  5
22C
330
1F
100
AcDbEntity
  8
0
  6
Continuous
 62
     7
370
     0
100
AcDbSpline
210
0.0
220
0.0
230
1.0
 70
     8
 71
     3
 72
    11
 73
     7
 74
     0
 42
0.000000001
 43
0.00000001
 40
0.0
 40
0.0
 40
0.0
 40
0.0
 40
0.2501057289063542
 40
0.5000274417325274
 40
0.7499366741641704
 40
1.0
 40
1.0
 40
1.0
 40
1.0
 10
9.329570496733849
 20
8.102362297050394
 30
0.0
 10
9.32887807841082
 20
8.102041178127115
 30
0.0
 10
9.327493751213733
 20
8.101399176544817
 30
0.0
 10
9.325590625912263
 20
8.100556605340426
 30
0.0
 10
9.323839140818318
 20
8.099808183630365
 30
0.0
 10
9.322897888701105
 20
8.099440312023596
 30
0.0
 10
9.322427117593792
 20
8.099256319530511
 30
0.0
  0
SPLINE
  5
22D
330
1F
100
AcDbEntity
  8
0
  6
Continuous
 62
     7
370
     0
100
AcDbSpline
210
0.0
220
0.0
230
1.0
 70
     8
 71
     3
 72
    11
 73
     7
 74
     0
 42
0.000000001
 43
0.00000001
 40
0.0
 40
0.0
 40
0.0
 40
0.0
 40
0.5000481029605746
 40
0.7000739104333434
 40
0.8545686097636834
 40
0.9999999999999999
 40
0.9999999999999999
 40
0.9999999999999999
 40
0.9999999999999999
 10
9.340914842757515
 20
8.107840866144427
 30
0.0
 10
9.339006657734322
 20
8.106908614805185
 30
0.0
 10
9.336335173644875
 20
8.105603450688564
 30
0.0
 10
9.33309463931828
 20
8.104035847484386
 30
0.0
 10
9.331212122645727
 20
8.103134359244441
 30
0.0
 10
9.330106569325956
 20
8.102614413795528
 30
0.0
 10
9.329570496733849
 20
8.102362297050394
 30
0.0
  0
SPLINE
  5
22E
330
1F
100
AcDbEntity
  8
0
  6
Continuous
 62
     7
370
     0
100
AcDbSpline
210
0.0
220
0.0
230
1.0
 70
     8
 71
     3
 72
    12
 73
     8
 74
     0
 42
0.000000001
 43
0.00000001
 40
0.0
 40
0.0
 40
0.0
 40
0.0
 40
0.1251004913760298
 40
0.2501590347327388
 40
0.4997202301425666
 40
0.7497461316783088
 40
1.0
 40
1.0
 40
1.0
 40
1.0
 10
9.342429252819812
 20
8.106613677153506
 30
0.0
 10
9.342006857309622
 20
8.106484328532337
 30
0.0
 10
9.341162207924619
 20
8.10622567466248
 30
0.0
 10
9.340060096504583
 20
8.106021618170683
 30
0.0
 10
9.33951444584195
 20
8.106184942861264
 30
0.0
 10
9.339823867934891
 20
8.106836432435305
 30
0.0
 10
9.340551074025889
 20
8.107505953212623
 30
0.0
 10
9.340914842757515
 20
8.107840866144427
 30
0.0
  0
SPLINE
  5
22F
330
1F
100
AcDbEntity
  8
0
  6
Continuous
 62
     7
370
     0
100
AcDbSpline
210
0.0
220
0.0
230
1.0
 70
     8
 71
     3
 72
    15
 73
    11
 74
     0
 42
0.000000001
 43
0.00000001
 40
0.0
 40
0.0
 40
0.0
 40
0.0
 40
0.1252383696494629
 40
0.2504482143412438
 40
0.372919744160665
 40
0.5007462977267827
 40
0.7496979142810684
 40
0.8497381416191827
 40
0.9248704692275159
 40
1.0
 40
1.0
 40
1.0
 40
1.0
 10
9.361159770171916
 20
8.115435815531445
 30
0.0
 10
9.36046149408981
 20
8.115037547836168
 30
0.0
 10
9.359065100968676
 20
8.114241103157191
 30
0.0
 10
9.35671775219996
 20
8.11298652414383
 30
0.0
 10
9.354208669989625
 20
8.111704411307553
 30
0.0
 10
9.350750118698071
 20
8.110033988590756
 30
0.0
 10
9.34737143472514
 20
8.108502629984107
 30
0.0
 10
9.34479768245056
 20
8.10746156017749
 30
0.0
 10
9.343435217817811
 20
8.10694741187238
 30
0.0
 10
9.342764570324874
 20
8.106724920679383
 30
0.0
 10
9.342429252819812
 20
8.106613677153506
 30
0.0
  0
SPLINE
  5
230
330
1F
100
AcDbEntity
  8
0
  6
Continuous
 62
     7
370
     0
100
AcDbSpline
210
0.0
220
0.0
230
1.0
 70
     8
 71
     3
 72
    16
 73
    12
 74
     0
 42
0.000000001
 43
0.00000001
 40
0.0
 40
0.0
 40
0.0
 40
0.0
 40
0.0625970617098173
 40
0.1251497037903839
 40
0.2500363750336355
 40
0.3752748441716221
 40
0.4995205038007479
 40
0.6423186562676585
 40
0.7853466580359987
 40
0.8840246588220496
 40
1.0
 40
1.0
 40
1.0
 40
1.0
 10
9.465272170709694
 20
8.128687837597791
 30
0.0
 10
9.465651483937412
 20
8.128703924206008
 30
0.0
 10
9.46640984122761
 20
8.12873608600719
 30
0.0
 10
9.468183119724435
 20
8.128958523805602
 30
0.0
 10
9.47068742354513
 20
8.129444356880974
 30
0.0
 10
9.473982860041316
 20
8.130348470590715
 30
0.0
 10
9.4774778572139
 20
8.131606648211882
 30
0.0
 10
9.48084780274126
 20
8.133108739432535
 30
0.0
 10
9.483689650592572
 20
8.134563679749675
 30
0.0
 10
9.486203972782928
 20
8.135924252936915
 30
0.0
 10
9.487631689738413
 20
8.136742342475003
 30
0.0
 10
9.488403072841527
 20
8.137184349165539
 30
0.0
  0
SPLINE
  5
231
330
1F
100
AcDbEntity
  8
0
  6
Continuous
 62
     7
370
     0
100
AcDbSpline
210
0.0
220
0.0
230
1.0
 70
     8
 71
     3
 72
    14
 73
    10
 74
     0
 42
0.000000001
 43
0.00000001
 40
0.0
 40
0.0
 40
0.0
 40
0.0
 40
0.1962429596938922
 40
0.36149288090945
 40
0.5004684503032593
 40
0.6266180396392532
 40
0.7498473153959944
 40
0.8499254015607217
 40
0.9999999999999999
 40
0.9999999999999999
 40
0.9999999999999999
 40
0.9999999999999999
 10
9.46828480373089
 20
8.133786342860152
 30
0.0
 10
9.4674469906571
 20
8.13328912673858
 30
0.0
 10
9.465903681984113
 20
8.132373220820215
 30
0.0
 10
9.464108843886702
 20
8.131134910749012
 30
0.0
 10
9.462966627547711
 20
8.130136180860193
 30
0.0
 10
9.462548864498057
 20
8.129380733946652
 30
0.0
 10
9.4628896307097
 20
8.128939654764656
 30
0.0
 10
9.46379445054647
 20
8.128696952577545
 30
0.0
 10
9.464718064906574
 20
8.128691255473043
 30
0.0
 10
9.465272170709694
 20
8.128687837597791
 30
0.0
  0
LINE
  5
232
330
1F
100
AcDbEntity
  8
0
  6
Continuous
 62
     7
370
     0
100
AcDbLine
 10
9.4946539941
 20
8.1490089524
 30
0.0
 11
9.4682848037
 21
8.1337863429
 31
0.0
  0
ARC
  5
233
330
1F
100
AcDbEntity
  8
0
  6
Continuous
 62
     7
370
     0
100
AcDbCircle
 10
9.5121928088
 20
7.6884410485
 30
0.0
 40
0.4609017293750509
100
AcDbArc
 50
92.1808178967
 51
92.9752744214
  0
LINE
  5
234
330
1F
100
AcDbEntity
  8
0
  6
Continuous
 62
     7
370
     0
100
AcDbLine
 10
9.4646881466
 20
8.1351081512
 30
0.0
 11
9.4882697045
 21
8.1487214948
 31
0.0
  0
SPLINE
  5
235
330
1F
100
AcDbEntity
  8
0
  6
Continuous
 62
     7
370
     0
100
AcDbSpline
210
0.0
220
0.0
230
1.0
 70
     8
 71
     3
 72
    13
 73
     9
 74
     0
 42
0.000000001
 43
0.00000001
 40
0.0
 40
0.0
 40
0.0
 40
0.0
 40
0.1431483331898692
 40
0.2861300558850404
 40
0.4997986267800816
 40
0.7490771388913464
 40
0.874509092737041
 40
1.0
 40
1.0
 40
1.0
 40
1.0
 10
9.444284274484604
 20
8.127688569800714
 30
0.0
 10
9.445058838739591
 20
8.127766919391476
 30
0.0
 10
9.446607065733424
 20
8.127923527381833
 30
0.0
 10
9.45008534957387
 20
8.128707521927165
 30
0.0
 10
9.454859100995778
 20
8.130207764930072
 30
0.0
 10
9.459239875077277
 20
8.132174849181443
 30
0.0
 10
9.462465862788989
 20
8.13384694301437
 30
0.0
 10
9.46394726931775
 20
8.134687682631165
 30
0.0
 10
9.464688146607678
 20
8.135108151203925
 30
0.0
  0
SPLINE
  5
236
330
1F
100
AcDbEntity
  8
0
  6
Continuous
 62
     7
370
     0
100
AcDbSpline
210
0.0
220
0.0
230
1.0
 70
     8
 71
     3
 72
    14
 73
    10
 74
     0
 42
0.000000001
 43
0.00000001
 40
0.0
 40
0.0
 40
0.0
 40
0.0
 40
0.2504938292205844
 40
0.3757028501511476
 40
0.5005307050946086
 40
0.6429117438464627
 40
0.7855348750382857
 40
0.8927018362619413
 40
1.0
 40
1.0
 40
1.0
 40
1.0
 10
9.448144910560423
 20
8.13297115417474
 30
0.0
 10
9.446989338962531
 20
8.132296057619726
 30
0.0
 10
9.44525615637583
 20
8.131283514913045
 30
0.0
 10
9.443222432082926
 20
8.1299672468933
 30
0.0
 10
9.442037920707886
 20
8.129006793520794
 30
0.0
 10
9.44167109564913
 20
8.128242672690924
 30
0.0
 10
9.442103379786346
 20
8.127800619836984
 30
0.0
 10
9.44303005502477
 20
8.127629121800052
 30
0.0
 10
9.443866030857407
 20
8.127668745720301
 30
0.0
 10
9.444284274484604
 20
8.127688569800714
 30
0.0
  0
LINE
  5
237
330
1F
100
AcDbEntity
  8
0
  6
Continuous
 62
     7
370
     0
100
AcDbLine
 10
9.4737095403
 20
8.1477293008
 30
0.0
 11
9.4481449106
 21
8.1329711542
 31
0.0
  0
ARC
  5
238
330
1F
100
AcDbEntity
  8
0
  6
Continuous
 62
     7
370
     0
100
AcDbCircle
 10
9.5109087293
 20
7.7073906234
 30
0.0
 40
0.4419071514360787
100
AcDbArc
 50
94.8288011036
 51
95.6458632152
  0
LINE
  5
239
330
1F
100
AcDbEntity
  8
0
  6
Continuous
 62
     7
370
     0
100
AcDbLine
 10
9.4391951754
 20
8.1308520745
 30
0.0
 11
9.4674341193
 21
8.1471540698
 31
0.0
  0
SPLINE
  5
23A
330
1F
100
AcDbEntity
  8
0
  6
Continuous
 62
     7
370
     0
100
AcDbSpline
210
0.0
220
0.0
230
1.0
 70
     8
 71
     3
 72
    13
 73
     9
 74
     0
 42
0.000000001
 43
0.00000001
 40
0.0
 40
0.0
 40
0.0
 40
0.0
 40
0.1255997205531147
 40
0.2510728045682583
 40
0.4995957155071195
 40
0.7487890782142431
 40
0.8492801662769671
 40
1.0
 40
1.0
 40
1.0
 40
1.0
 10
9.436236228077055
 20
8.123810399808354
 30
0.0
 10
9.435494500550677
 20
8.123771294037576
 30
0.0
 10
9.434011793348358
 20
8.123693121924608
 30
0.0
 10
9.431826859921946
 20
8.123918954119079
 30
0.0
 10
9.430937067438133
 20
8.125059734148534
 30
0.0
 10
9.433475532701973
 20
8.127253770285758
 30
0.0
 10
9.436416053356638
 20
8.129212640487063
 30
0.0
 10
9.438153033647643
 20
8.130237303851487
 30
0.0
 10
9.439195175361784
 20
8.130852074462615
 30
0.0
  0
SPLINE
  5
23B
330
1F
100
AcDbEntity
  8
0
  6
Continuous
 62
     7
370
     0
100
AcDbSpline
210
0.0
220
0.0
230
1.0
 70
     8
 71
     3
 72
    13
 73
     9
 74
     0
 42
0.000000001
 43
0.00000001
 40
0.0
 40
0.0
 40
0.0
 40
0.0
 40
0.1252111800123863
 40
0.2503709188547455
 40
0.5001800844950656
 40
0.7497098314791405
 40
0.8748093757729428
 40
1.0
 40
1.0
 40
1.0
 40
1.0
 10
9.454872998204712
 20
8.128918006209048
 30
0.0
 10
9.45402632175505
 20
8.128592572085063
 30
0.0
 10
9.45233331670028
 20
8.12794183753691
 30
0.0
 10
9.448917782885987
 20
8.12672475177815
 30
0.0
 10
9.444652895718782
 20
8.125374109245394
 30
0.0
 10
9.440704011091224
 20
8.124423096568792
 30
0.0
 10
9.437992524053065
 20
8.123978272331907
 30
0.0
 10
9.436821802076606
 20
8.123866370889752
 30
0.0
 10
9.436236228077055
 20
8.123810399808354
 30
0.0
  0
SPLINE
  5
23C
330
1F
100
AcDbEntity
  8
0
  6
Continuous
 62
     7
370
     0
100
AcDbSpline
210
0.0
220
0.0
230
1.0
 70
     8
 71
     3
 72
    13
 73
     9
 74
     0
 42
0.000000001
 43
0.00000001
 40
0.0
 40
0.0
 40
0.0
 40
0.0
 40
0.1253429328899707
 40
0.2505898065604562
 40
0.5000565154177924
 40
0.7494697823308841
 40
0.8746743889016458
 40
1.0
 40
1.0
 40
1.0
 40
1.0
 10
9.45689754625346
 20
8.124870166367684
 30
0.0
 10
9.456380428243637
 20
8.12486423685271
 30
0.0
 10
9.455346588528363
 20
8.124852382366974
 30
0.0
 10
9.453668733631087
 20
8.125024642023254
 30
0.0
 10
9.45238581694782
 20
8.125624052913672
 30
0.0
 10
9.45266426138042
 20
8.126799707204752
 30
0.0
 10
9.45369844654468
 20
8.127958513092084
 30
0.0
 10
9.454481354938084
 20
8.128598072202378
 30
0.0
 10
9.454872998204712
 20
8.128918006209048
 30
0.0
  0
SPLINE
  5
23D
330
1F
100
AcDbEntity
  8
0
  6
Continuous
 62
     7
370
     0
100
AcDbSpline
210
0.0
220
0.0
230
1.0
 70
     8
 71
     3
 72
    13
 73
     9
 74
     0
 42
0.000000001
 43
0.00000001
 40
0.0
 40
0.0
 40
0.0
 40
0.0
 40
0.1251971558968281
 40
0.2503378710232816
 40
0.5001340654709765
 40
0.7497012951317772
 40
0.8748025018892683
 40
1.0
 40
1.0
 40
1.0
 40
1.0
 10
9.474566896882733
 20
8.129196894802272
 30
0.0
 10
9.473769090503449
 20
8.128896736504943
 30
0.0
 10
9.472173837408059
 20
8.12829655522618
 30
0.0
 10
9.468931126101015
 20
8.127215769223545
 30
0.0
 10
9.464895821729138
 20
8.126054433464425
 30
0.0
 10
9.461145992247475
 20
8.125271871549806
 30
0.0
 10
9.458571502421233
 20
8.124954076391216
 30
0.0
 10
9.457455674731165
 20
8.12489814354809
 30
0.0
 10
9.45689754625346
 20
8.124870166367684
 30
0.0
  0
LINE
  5
23E
330
1F
100
AcDbEntity
  8
0
  6
Continuous
 62
     7
370
     0
100
AcDbLine
 10
9.4681190802
 20
8.1254746495
 30
0.0
 11
9.4745668969
 21
8.1291968948
 31
0.0
  0
ARC
  5
23F
330
1F
100
AcDbEntity
  8
0
  6
Continuous
 62
     7
370
     0
100
AcDbCircle
 10
9.4713189527
 20
7.6434203739
 30
0.0
 40
0.4820648958645117
100
AcDbArc
 50
89.6092921389
 51
90.380323347
  0
LINE
  5
240
330
1F
100
AcDbEntity
  8
0
  6
Continuous
 62
     7
370
     0
100
AcDbLine
 10
9.5159447449
 20
8.1493382987
 30
0.0
 11
9.4746061946
 21
8.1254740616
 31
0.0
  0
ARC
  5
241
330
1F
100
AcDbEntity
  8
0
  6
Continuous
 62
     7
370
     0
100
AcDbCircle
 10
9.512657503
 20
7.6672846109
 30
0.0
 40
0.4820648958994269
100
AcDbArc
 50
89.609292139
 51
90.380323347
  0
LINE
  5
242
330
1F
100
AcDbEntity
  8
0
  6
Continuous
 62
     7
370
     0
100
AcDbLine
 10
9.4884030728
 20
8.1371843492
 30
0.0
 11
9.5094576305
 21
8.1493388866
 31
0.0
  0
SPLINE
  5
243
330
1F
100
AcDbEntity
  8
0
  6
Continuous
 62
     7
370
     0
100
AcDbSpline
210
0.0
220
0.0
230
1.0
 70
     8
 71
     3
 72
    16
 73
    12
 74
     0
 42
0.000000001
 43
0.00000001
 40
0.0
 40
0.0
 40
0.0
 40
0.0
 40
0.1252094946983548
 40
0.2504046739963741
 40
0.3833289736496783
 40
0.5006376999520156
 40
0.6312680262843072
 40
0.7501982147432261
 40
0.8748506031236274
 40
0.9374183744277135
 40
1.0
 40
1.0
 40
1.0
 40
1.0
 10
9.555909704512187
 20
8.128232435915507
 30
0.0
 10
9.557530925609926
 20
8.129153270202895
 30
0.0
 10
9.560773182448624
 20
8.13099483349722
 30
0.0
 10
9.566074189992563
 20
8.133756007769238
 30
0.0
 10
9.571626480589186
 20
8.136370169733803
 30
0.0
 10
9.577716197794684
 20
8.138835703480824
 30
0.0
 10
9.584040275339447
 20
8.140881559366514
 30
0.0
 10
9.590703207724538
 20
8.14230638443423
 30
0.0
 10
9.595684942221196
 20
8.142637450164653
 30
0.0
 10
9.599228142942458
 20
8.142492831201714
 30
0.0
 10
9.600777928615374
 20
8.142264303675901
 30
0.0
 10
9.601552907233891
 20
8.142150027263787
 30
0.0
  0
SPLINE
  5
244
330
1F
100
AcDbEntity
  8
0
  6
Continuous
 62
     7
370
     0
100
AcDbSpline
210
0.0
220
0.0
230
1.0
 70
     8
 71
     3
 72
    15
 73
    11
 74
     0
 42
0.000000001
 43
0.00000001
 40
0.0
 40
0.0
 40
0.0
 40
0.0
 40
0.0626310590473277
 40
0.125223928024668
 40
0.250045843302767
 40
0.3746204791019509
 40
0.499611629376776
 40
0.7494432638969599
 40
0.8747101358354901
 40
1.0
 40
1.0
 40
1.0
 40
1.0
 10
9.544259127014673
 20
8.109075031964302
 30
0.0
 10
9.543528721630258
 20
8.10921531981167
 30
0.0
 10
9.542068356235228
 20
8.10949580996414
 30
0.0
 10
9.539708469714764
 20
8.110323907709436
 30
0.0
 10
9.537734338741796
 20
8.111765454996407
 30
0.0
 10
9.537641528233191
 20
8.114177200723217
 30
0.0
 10
9.540601443417083
 20
8.117882385455339
 30
0.0
 10
9.545276158656398
 20
8.121701700202431
 30
0.0
 10
9.55116103527456
 20
8.125452745587257
 30
0.0
 10
9.55432671793383
 20
8.127305815790708
 30
0.0
 10
9.555909704512187
 20
8.128232435915507
 30
0.0
  0
SPLINE
  5
245
330
1F
100
AcDbEntity
  8
0
  6
Continuous
 62
     7
370
     0
100
AcDbSpline
210
0.0
220
0.0
230
1.0
 70
     8
 71
     3
 72
    17
 73
    13
 74
     0
 42
0.000000001
 43
0.00000001
 40
0.0
 40
0.0
 40
0.0
 40
0.0
 40
0.1251519328702226
 40
0.2502835494577831
 40
0.3838490249492401
 40
0.5004249589582791
 40
0.631690922811148
 40
0.7498767247056398
 40
0.812395824471502
 40
0.8749120167803465
 40
0.937447730866733
 40
1.0
 40
1.0
 40
1.0
 40
1.0
 10
9.590088723278043
 20
8.122477325833382
 30
0.0
 10
9.588467359780282
 20
8.121556617119484
 30
0.0
 10
9.58522489598548
 20
8.119715349153054
 30
0.0
 10
9.579889158523345
 20
8.116977617399154
 30
0.0
 10
9.574332742158909
 20
8.114405804126049
 30
0.0
 10
9.568203665004532
 20
8.112018977191687
 30
0.0
 10
9.56185178950954
 20
8.110081940340464
 30
0.0
 10
9.556271370759438
 20
8.109023727868882
 30
0.0
 10
9.552176030434874
 20
8.108633905679007
 30
0.0
 10
9.549274552505457
 20
8.10859787839931
 30
0.0
 10
9.546585293668203
 20
8.108725195605679
 30
0.0
 10
9.545034584309875
 20
8.108958409556356
 30
0.0
 10
9.544259127014673
 20
8.109075031964302
 30
0.0
  0
SPLINE
  5
246
330
1F
100
AcDbEntity
  8
0
  6
Continuous
 62
     7
370
     0
100
AcDbSpline
210
0.0
220
0.0
230
1.0
 70
     8
 71
     3
 72
    12
 73
     8
 74
     0
 42
0.000000001
 43
0.00000001
 40
0.0
 40
0.0
 40
0.0
 40
0.0
 40
0.1249981962352804
 40
0.2500181853098288
 40
0.4998430509921702
 40
0.7498766505114253
 40
1.0
 40
1.0
 40
1.0
 40
1.0
 10
9.608046353201669
 20
8.136866584718708
 30
0.0
 10
9.607747063199286
 20
8.136281714582672
 30
0.0
 10
9.607148431014737
 20
8.13511187234128
 30
0.0
 10
9.60494727159838
 20
8.132671406774346
 30
0.0
 10
9.601317209454988
 20
8.129607581808214
 30
0.0
 10
9.596031174774874
 20
8.125991446334387
 30
0.0
 10
9.592069777392803
 20
8.123648839455663
 30
0.0
 10
9.590088723278043
 20
8.122477325833382
 30
0.0
  0
SPLINE
  5
247
330
1F
100
AcDbEntity
  8
0
  6
Continuous
 62
     7
370
     0
100
AcDbSpline
210
0.0
220
0.0
230
1.0
 70
     8
 71
     3
 72
    12
 73
     8
 74
     0
 42
0.000000001
 43
0.00000001
 40
0.0
 40
0.0
 40
0.0
 40
0.0
 40
0.2501121538982661
 40
0.5000209053225458
 40
0.7497559520083881
 40
0.8748533096535236
 40
1.0
 40
1.0
 40
1.0
 40
1.0
 10
9.601552907233891
 20
8.142150027263787
 30
0.0
 10
9.602620566260338
 20
8.141929892433206
 30
0.0
 10
9.604755016044804
 20
8.14148980179561
 30
0.0
 10
9.607047255188712
 20
8.140345456382219
 30
0.0
 10
9.608011797723199
 20
8.139039134490767
 30
0.0
 10
9.608253374705582
 20
8.137846609683892
 30
0.0
 10
9.60811536943835
 20
8.13719330263773
 30
0.0
 10
9.608046353201669
 20
8.136866584718708
 30
0.0
  0
ARC
  5
248
330
1F
100
AcDbEntity
  8
0
  6
Continuous
 62
     7
370
     0
100
AcDbCircle
 10
9.4664560394
 20
7.453674358
 30
0.0
 40
0.6909130019425533
100
AcDbArc
 50
73.7356865451
 51
74.3422267382
  0
LINE
  5
249
330
1F
100
AcDbEntity
  8
0
  6
Continuous
 62
     7
370
     0
100
AcDbLine
 10
9.6456747754
 20
8.1147615033
 30
0.0
 11
9.6529271526
 21
8.1189482116
 31
0.0
  0
ARC
  5
24A
330
1F
100
AcDbEntity
  8
0
  6
Continuous
 62
     7
370
     0
100
AcDbCircle
 10
9.4592036621
 20
7.4494876497
 30
0.0
 40
0.6909130020168255
100
AcDbArc
 50
73.7356865452
 51
74.3422267381
  0
LINE
  5
24B
330
1F
100
AcDbEntity
  8
0
  6
Continuous
 62
     7
370
     0
100
AcDbLine
 10
9.6178954558
 20
8.0926540573
 30
0.0
 11
9.6527068665
 21
8.112750257
 31
0.0
  0
ARC
  5
24C
330
1F
100
AcDbEntity
  8
0
  6
Continuous
 62
     7
370
     0
100
AcDbCircle
 10
9.4217253817
 20
7.4202320827
 30
0.0
 40
0.7004527178189917
100
AcDbArc
 50
73.3153905662
 51
73.7361047011
  0
SPLINE
  5
24D
330
1F
100
AcDbEntity
  8
0
  6
Continuous
 62
     7
370
     0
100
AcDbSpline
210
0.0
220
0.0
230
1.0
 70
     8
 71
     3
 72
     8
 73
     4
 74
     0
 42
0.000000001
 43
0.00000001
 40
0.0
 40
0.0
 40
0.0
 40
0.0
 40
1.0
 40
1.0
 40
1.0
 40
1.0
 10
9.683832652325684
 20
8.102891424261712
 30
0.0
 10
9.663465040509339
 20
8.099185739678694
 30
0.0
 10
9.64312829593304
 20
8.095287652342817
 30
0.0
 10
9.622827614509552
 20
8.091195495929787
 30
0.0
  0
LINE
  5
24E
330
1F
100
AcDbEntity
  8
0
  6
Continuous
 62
     7
370
     0
100
AcDbLine
 10
9.6910850296
 20
8.1070781325
 30
0.0
 11
9.6838326523
 21
8.1028914243
 31
0.0
  0
ARC
  5
24F
330
1F
100
AcDbEntity
  8
0
  6
Continuous
 62
     7
370
     0
100
AcDbCircle
 10
9.4558652232
 20
7.4186960001
 30
0.0
 40
0.7274601828013696
100
AcDbArc
 50
71.1347296925
 51
73.1273209857
  0
LINE
  5
250
330
1F
100
AcDbEntity
  8
0
  6
Continuous
 62
     7
370
     0
100
AcDbLine
 10
9.6807870845
 20
8.1227952911
 30
0.0
 11
9.6670075677
 21
8.1148405454
 31
0.0
  0
ARC
  5
251
330
1F
100
AcDbEntity
  8
0
  6
Continuous
 62
     7
370
     0
100
AcDbCircle
 10
9.4770887649
 20
7.4508426862
 30
0.0
 40
0.7021490643596765
100
AcDbArc
 50
73.1356412605
 51
73.7356933183
  0
LINE
  5
252
330
1F
100
AcDbEntity
  8
0
  6
Continuous
 62
     7
370
     0
100
AcDbLine
 10
9.6599592438
 20
8.1169369653
 30
0.0
 11
9.6737387605
 21
8.124891711
 31
0.0
  0
LINE
  5
253
330
1F
100
AcDbEntity
  8
0
  6
Continuous
 62
     7
370
     0
100
AcDbLine
 10
9.7136498154
 20
8.0807062642
 30
0.0
 11
9.7063974381
 21
8.0765195559
 31
0.0
  0
ARC
  5
254
330
1F
100
AcDbEntity
  8
0
  6
Continuous
 62
     7
370
     0
100
AcDbCircle
 10
9.4173096004
 20
7.3513634658
 30
0.0
 40
0.7872473820290217
100
AcDbArc
 50
67.8875374089
 51
70.7231332177
  0
LINE
  5
255
330
1F
100
AcDbEntity
  8
0
  6
Continuous
 62
     7
370
     0
100
AcDbLine
 10
9.6699538036
 20
8.0902865799
 30
0.0
 11
9.6772061808
 21
8.0944732881
 31
0.0
  0
ARC
  5
256
330
1F
100
AcDbEntity
  8
0
  6
Continuous
 62
     7
370
     0
100
AcDbCircle
 10
9.4100572232
 20
7.3471767576
 30
0.0
 40
0.7872473820290494
100
AcDbArc
 50
67.8875374089
 51
70.7231332177
  0
SPLINE
  5
257
330
1F
100
AcDbEntity
  8
0
  6
Continuous
 62
     7
370
     0
100
AcDbSpline
210
0.0
220
0.0
230
1.0
 70
     8
 71
     3
 72
     8
 73
     4
 74
     0
 42
0.000000001
 43
0.00000001
 40
0.0
 40
0.0
 40
0.0
 40
0.0
 40
1.0
 40
1.0
 40
1.0
 40
1.0
 10
9.796497942636583
 20
8.052098755914479
 30
0.0
 10
9.798679999932435
 20
8.052388469412588
 30
0.0
 10
9.800862136555546
 20
8.052676384816653
 30
0.0
 10
9.803044347310218
 20
8.05296250482273
 30
0.0
  0
SPLINE
  5
258
330
1F
100
AcDbEntity
  8
0
  6
Continuous
 62
     7
370
     0
100
AcDbSpline
210
0.0
220
0.0
230
1.0
 70
     8
 71
     3
 72
     8
 73
     4
 74
     0
 42
0.000000001
 43
0.00000001
 40
0.0
 40
0.0
 40
0.0
 40
0.0
 40
1.0
 40
1.0
 40
1.0
 40
1.0
 10
9.797543824151047
 20
8.055236726751364
 30
0.0
 10
9.797195134314293
 20
8.054192105966191
 30
0.0
 10
9.796846508292301
 20
8.053146115095018
 30
0.0
 10
9.796497942636583
 20
8.052098755914479
 30
0.0
  0
SPLINE
  5
259
330
1F
100
AcDbEntity
  8
0
  6
Continuous
 62
     7
370
     0
100
AcDbSpline
210
0.0
220
0.0
230
1.0
 70
     8
 71
     3
 72
     8
 73
     4
 74
     0
 42
0.000000001
 43
0.00000001
 40
0.0
 40
0.0
 40
0.0
 40
0.0
 40
1.0
 40
1.0
 40
1.0
 40
1.0
 10
9.8037934292748
 20
8.073690258694864
 30
0.0
 10
9.80170750752161
 20
8.067587450737298
 30
0.0
 10
9.799624544983802
 20
8.061436153071174
 30
0.0
 10
9.797543824151047
 20
8.055236726751364
 30
0.0
  0
ARC
  5
25A
330
1F
100
AcDbEntity
  8
0
  6
Continuous
 62
     7
370
     0
100
AcDbCircle
 10
9.3983944728
 20
7.2513142399
 30
0.0
 40
0.9168700181506457
100
AcDbArc
 50
63.7585198937
 51
64.4248112112
  0
SPLINE
  5
25B
330
1F
100
AcDbEntity
  8
0
  6
Continuous
 62
     7
370
     0
100
AcDbSpline
210
0.0
220
0.0
230
1.0
 70
     8
 71
     3
 72
     8
 73
     4
 74
     0
 42
0.000000001
 43
0.00000001
 40
0.0
 40
0.0
 40
0.0
 40
0.0
 40
1.0
 40
1.0
 40
1.0
 40
1.0
 10
9.7847088548094
 20
8.050525193483733
 30
0.0
 10
9.787867212264873
 20
8.059911319563946
 30
0.0
 10
9.79103103745484
 20
8.069186309397976
 30
0.0
 10
9.79420284142165
 20
8.078348922079627
 30
0.0
  0
SPLINE
  5
25C
330
1F
100
AcDbEntity
  8
0
  6
Continuous
 62
     7
370
     0
100
AcDbSpline
210
0.0
220
0.0
230
1.0
 70
     8
 71
     3
 72
     8
 73
     4
 74
     0
 42
0.000000001
 43
0.00000001
 40
0.0
 40
0.0
 40
0.0
 40
0.0
 40
1.0
 40
1.0
 40
1.0
 40
1.0
 10
9.7405251601118
 20
8.044302866875725
 30
0.0
 10
9.75524793319549
 20
8.046459940160405
 30
0.0
 10
9.769976366207727
 20
8.04853378359505
 30
0.0
 10
9.7847088548094
 20
8.050525193483733
 30
0.0
  0
ARC
  5
25D
330
1F
100
AcDbEntity
  8
0
  6
Continuous
 62
     7
370
     0
100
AcDbCircle
 10
9.3393591859
 20
7.213602237
 30
0.0
 40
0.9224953524415567
100
AcDbArc
 50
63.5507714547
 51
64.2229489468
  0
SPLINE
  5
25E
330
1F
100
AcDbEntity
  8
0
  6
Continuous
 62
     7
370
     0
100
AcDbSpline
210
0.0
220
0.0
230
1.0
 70
     8
 71
     3
 72
     8
 73
     4
 74
     0
 42
0.000000001
 43
0.00000001
 40
0.0
 40
0.0
 40
0.0
 40
0.0
 40
1.0
 40
1.0
 40
1.0
 40
1.0
 10
9.77439428710417
 20
8.042859449455243
 30
0.0
 10
9.766342559062853
 20
8.041777401415056
 30
0.0
 10
9.758291999232336
 20
8.040670777799226
 30
0.0
 10
9.750242869248753
 20
8.03953944653791
 30
0.0
  0
SPLINE
  5
25F
330
1F
100
AcDbEntity
  8
0
  6
Continuous
 62
     7
370
     0
100
AcDbSpline
210
0.0
220
0.0
230
1.0
 70
     8
 71
     3
 72
     8
 73
     4
 74
     0
 42
0.000000001
 43
0.00000001
 40
0.0
 40
0.0
 40
0.0
 40
0.0
 40
1.0
 40
1.0
 40
1.0
 40
1.0
 10
9.783465700946836
 20
8.044067552671027
 30
0.0
 10
9.780441740795302
 20
8.043668313365052
 30
0.0
 10
9.777417931558418
 20
8.043265614673158
 30
0.0
 10
9.77439428710417
 20
8.042859449455243
 30
0.0
  0
SPLINE
  5
260
330
1F
100
AcDbEntity
  8
0
  6
Continuous
 62
     7
370
     0
100
AcDbSpline
210
0.0
220
0.0
230
1.0
 70
     8
 71
     3
 72
    12
 73
     8
 74
     0
 42
0.000000001
 43
0.00000001
 40
0.0
 40
0.0
 40
0.0
 40
0.0
 40
0.5002192200952903
 40
0.7502916379679908
 40
0.875323557382503
 40
0.9381223094072926
 40
1.0
 40
1.0
 40
1.0
 40
1.0
 10
9.78100305943301
 20
8.039430001496344
 30
0.0
 10
9.781279458987129
 20
8.040225257461158
 30
0.0
 10
9.781694037767513
 20
8.041418082279703
 30
0.0
 10
9.782354610337832
 20
8.042790643661762
 30
0.0
 10
9.782764145221146
 20
8.043466390238619
 30
0.0
 10
9.783100569730202
 20
8.043833917592918
 30
0.0
 10
9.783344591454057
 20
8.04399005881535
 30
0.0
 10
9.783465700946836
 20
8.044067552671027
 30
0.0
  0
SPLINE
  5
261
330
1F
100
AcDbEntity
  8
0
  6
Continuous
 62
     7
370
     0
100
AcDbSpline
210
0.0
220
0.0
230
1.0
 70
     8
 71
     3
 72
     8
 73
     4
 74
     0
 42
0.000000001
 43
0.00000001
 40
0.0
 40
0.0
 40
0.0
 40
0.0
 40
1.0
 40
1.0
 40
1.0
 40
1.0
 10
9.776541076649066
 20
8.025941366974651
 30
0.0
 10
9.778027582044967
 20
8.030462138977905
 30
0.0
 10
9.779514821422726
 20
8.034958397180247
 30
0.0
 10
9.78100305943301
 20
8.039430001496344
 30
0.0
  0
ARC
  5
262
330
1F
100
AcDbEntity
  8
0
  6
Continuous
 62
     7
370
     0
100
AcDbCircle
 10
9.3073440222
 20
7.1516856356
 30
0.0
 40
0.9922040918241175
100
AcDbArc
 50
61.1469797468
 51
61.7783585911
  0
SPLINE
  5
263
330
1F
100
AcDbEntity
  8
0
  6
Continuous
 62
     7
370
     0
100
AcDbSpline
210
0.0
220
0.0
230
1.0
 70
     8
 71
     3
 72
     8
 73
     4
 74
     0
 42
0.000000001
 43
0.00000001
 40
0.0
 40
0.0
 40
0.0
 40
0.0
 40
1.0
 40
1.0
 40
1.0
 40
1.0
 10
9.79428235438144
 20
8.045476769481176
 30
0.0
 10
9.79156770546254
 20
8.037305548286133
 30
0.0
 10
9.788856248848244
 20
8.029052339838584
 30
0.0
 10
9.786146377213825
 20
8.020718008172409
 30
0.0
  0
SPLINE
  5
264
330
1F
100
AcDbEntity
  8
0
  6
Continuous
 62
     7
370
     0
100
AcDbSpline
210
0.0
220
0.0
230
1.0
 70
     8
 71
     3
 72
     8
 73
     4
 74
     0
 42
0.000000001
 43
0.00000001
 40
0.0
 40
0.0
 40
0.0
 40
0.0
 40
1.0
 40
1.0
 40
1.0
 40
1.0
 10
9.845615232338025
 20
8.051770192874514
 30
0.0
 10
9.828501646672386
 20
8.049782014253381
 30
0.0
 10
9.811389848618319
 20
8.047684659134465
 30
0.0
 10
9.79428235438144
 20
8.045476769481176
 30
0.0
  0
ARC
  5
265
330
1F
100
AcDbEntity
  8
0
  6
Continuous
 62
     7
370
     0
100
AcDbCircle
 10
9.3612340761
 20
7.179435006
 30
0.0
 40
0.9977944591952295
100
AcDbArc
 50
60.9579200213
 51
61.5950977888
  0
SPLINE
  5
266
330
1F
100
AcDbEntity
  8
0
  6
Continuous
 62
     7
370
     0
100
AcDbSpline
210
0.0
220
0.0
230
1.0
 70
     8
 71
     3
 72
     8
 73
     4
 74
     0
 42
0.000000001
 43
0.00000001
 40
0.0
 40
0.0
 40
0.0
 40
0.0
 40
1.0
 40
1.0
 40
1.0
 40
1.0
 10
9.803044347310218
 20
8.05296250482273
 30
0.0
 10
9.813989369615241
 20
8.054387855487395
 30
0.0
 10
9.824936264222657
 20
8.055767860561641
 30
0.0
 10
9.835884371366312
 20
8.057102870274623
 30
0.0
  0
ARC
  5
267
330
1F
100
AcDbEntity
  8
0
  6
Continuous
 62
     7
370
     0
100
AcDbCircle
 10
9.2428081328
 20
7.0424334398
 30
0.0
 40
1.11911853891112
100
AcDbArc
 50
57.2130112237
 51
57.7372975116
  0
SPLINE
  5
268
330
1F
100
AcDbEntity
  8
0
  6
Continuous
 62
     7
370
     0
100
AcDbSpline
210
0.0
220
0.0
230
1.0
 70
     8
 71
     3
 72
     8
 73
     4
 74
     0
 42
0.000000001
 43
0.00000001
 40
0.0
 40
0.0
 40
0.0
 40
0.0
 40
1.0
 40
1.0
 40
1.0
 40
1.0
 10
9.9047625464437
 20
7.996583159112794
 30
0.0
 10
9.886122046970453
 20
7.99220030836213
 30
0.0
 10
9.86747759444101
 20
7.987761060338848
 30
0.0
 10
9.84883019710492
 20
7.983264754023049
 30
0.0
  0
SPLINE
  5
269
330
1F
100
AcDbEntity
  8
0
  6
Continuous
 62
     7
370
     0
100
AcDbSpline
210
0.0
220
0.0
230
1.0
 70
     8
 71
     3
 72
     9
 73
     5
 74
     0
 42
0.000000001
 43
0.00000001
 40
0.0
 40
0.0
 40
0.0
 40
0.0
 40
0.4999996840328779
 40
1.0
 40
1.0
 40
1.0
 40
1.0
 10
9.916957209033747
 20
7.999806583825936
 30
0.0
 10
9.914956773701864
 20
7.99922852348085
 30
0.0
 10
9.910955900509805
 20
7.998072402060084
 30
0.0
 10
9.906826998668802
 20
7.997079573637691
 30
0.0
 10
9.9047625464437
 20
7.996583159112794
 30
0.0
  0
SPLINE
  5
26A
330
1F
100
AcDbEntity
  8
0
  6
Continuous
 62
     7
370
     0
100
AcDbSpline
210
0.0
220
0.0
230
1.0
 70
     8
 71
     3
 72
     9
 73
     5
 74
     0
 42
0.000000001
 43
0.00000001
 40
0.0
 40
0.0
 40
0.0
 40
0.0
 40
0.5154276969666427
 40
1.0
 40
1.0
 40
1.0
 40
1.0
 10
9.910917829544115
 20
7.992448445295939
 30
0.0
 10
9.91189865787374
 20
7.993733758980198
 30
0.0
 10
9.913801598548826
 20
7.996227442753542
 30
0.0
 10
9.915927200972146
 20
7.998638333125862
 30
0.0
 10
9.916957209033747
 20
7.999806583825936
 30
0.0
  0
SPLINE
  5
26B
330
1F
100
AcDbEntity
  8
0
  6
Continuous
 62
     7
370
     0
100
AcDbSpline
210
0.0
220
0.0
230
1.0
 70
     8
 71
     3
 72
     8
 73
     4
 74
     0
 42
0.000000001
 43
0.00000001
 40
0.0
 40
0.0
 40
0.0
 40
0.0
 40
1.0
 40
1.0
 40
1.0
 40
1.0
 10
9.88569082066859
 20
7.958505151058357
 30
0.0
 10
9.894104827083883
 20
7.969875003348203
 30
0.0
 10
9.902513496933482
 20
7.981189663895715
 30
0.0
 10
9.910917829544115
 20
7.992448445295939
 30
0.0
  0
ARC
  5
26C
330
1F
100
AcDbEntity
  8
0
  6
Continuous
 62
     7
370
     0
100
AcDbCircle
 10
9.1906463415
 20
6.9647654782
 30
0.0
 40
1.21268518811551
100
AcDbArc
 50
54.5332109564
 51
55.0301697943
  0
SPLINE
  5
26D
330
1F
100
AcDbEntity
  8
0
  6
Continuous
 62
     7
370
     0
100
AcDbSpline
210
0.0
220
0.0
230
1.0
 70
     8
 71
     3
 72
     8
 73
     4
 74
     0
 42
0.000000001
 43
0.00000001
 40
0.0
 40
0.0
 40
0.0
 40
0.0
 40
1.0
 40
1.0
 40
1.0
 40
1.0
 10
9.928160327776304
 20
8.000872678905543
 30
0.0
 10
9.916878953869503
 20
7.984850145130726
 30
0.0
 10
9.905587874550715
 20
7.96870494211458
 30
0.0
 10
9.89428383698714
 20
7.952439331442722
 30
0.0
  0
ARC
  5
26E
330
1F
100
AcDbEntity
  8
0
  6
Continuous
 62
     7
370
     0
100
AcDbCircle
 10
9.2737941344
 20
7.0360121764
 30
0.0
 40
1.165826275341335
100
AcDbArc
 50
55.8549690714
 51
56.3651567342
  0
SPLINE
  5
26F
330
1F
100
AcDbEntity
  8
0
  6
Continuous
 62
     7
370
     0
100
AcDbSpline
210
0.0
220
0.0
230
1.0
 70
     8
 71
     3
 72
     8
 73
     4
 74
     0
 42
0.000000001
 43
0.00000001
 40
0.0
 40
0.0
 40
0.0
 40
0.0
 40
1.0
 40
1.0
 40
1.0
 40
1.0
 10
9.840195848099164
 20
7.988770706241953
 30
0.0
 10
9.866651179011871
 20
7.994859213439246
 30
0.0
 10
9.893101300104366
 20
8.000821979977246
 30
0.0
 10
9.919542942899277
 20
8.006661124604737
 30
0.0
  0
SPLINE
  5
270
330
1F
100
AcDbEntity
  8
0
  6
Continuous
 62
     7
370
     0
100
AcDbSpline
210
0.0
220
0.0
230
1.0
 70
     8
 71
     3
 72
    15
 73
    11
 74
     0
 42
0.000000001
 43
0.00000001
 40
0.0
 40
0.0
 40
0.0
 40
0.0
 40
0.0626761947927773
 40
0.1253392690171531
 40
0.2504957453422352
 40
0.4992172028464089
 40
0.6369416197792893
 40
0.7852085601039984
 40
0.8925889660600478
 40
1.0
 40
1.0
 40
1.0
 40
1.0
 10
9.978567566044196
 20
7.885896178699444
 30
0.0
 10
9.977685115170035
 20
7.886669488816224
 30
0.0
 10
9.975920398153043
 20
7.888215947165864
 30
0.0
 10
9.972868553604059
 20
7.891523020166774
 30
0.0
 10
9.968631869672615
 20
7.897632835078637
 30
0.0
 10
9.966861236723085
 20
7.90540103549665
 30
0.0
 10
9.969097914282498
 20
7.912755894048831
 30
0.0
 10
9.972566575881688
 20
7.917549317355334
 30
0.0
 10
9.97684519949917
 20
7.921411443811145
 30
0.0
 10
9.979921123034389
 20
7.923325872692009
 30
0.0
 10
9.981459304106215
 20
7.924283223625534
 30
0.0
  0
SPLINE
  5
271
330
1F
100
AcDbEntity
  8
0
  6
Continuous
 62
     7
370
     0
100
AcDbSpline
210
0.0
220
0.0
230
1.0
 70
     8
 71
     3
 72
    17
 73
    13
 74
     0
 42
0.000000001
 43
0.00000001
 40
0.0
 40
0.0
 40
0.0
 40
0.0
 40
0.062587252349893
 40
0.1251621031372392
 40
0.2502151565809095
 40
0.376936492784842
 40
0.500101031436349
 40
0.6250388192668297
 40
0.7499288092933302
 40
0.8748555591109762
 40
0.9374185878447009
 40
1.0
 40
1.0
 40
1.0
 40
1.0
 10
10.03439086422325
 20
7.88051011161924
 30
0.0
 10
10.03343338933194
 20
7.879979340400863
 30
0.0
 10
10.03151862927142
 20
7.878917903135563
 30
0.0
 10
10.02744273581188
 20
7.877033867753074
 30
0.0
 10
10.02188441975981
 20
7.875136325426196
 30
0.0
 10
10.01456736683769
 20
7.873884874943317
 30
0.0
 10
10.0067573006635
 20
7.87392307017518
 30
0.0
 10
9.998888424938489
 20
7.875227996719754
 30
0.0
 10
9.99125868653141
 20
7.877743381674045
 30
0.0
 10
9.985534434151234
 20
7.880805095684762
 30
0.0
 10
9.98138709676207
 20
7.883603904320904
 30
0.0
 10
9.979507501652844
 20
7.885132012414779
 30
0.0
 10
9.978567566044196
 20
7.885896178699444
 30
0.0
  0
SPLINE
  5
272
330
1F
100
AcDbEntity
  8
0
  6
Continuous
 62
     7
370
     0
100
AcDbSpline
210
0.0
220
0.0
230
1.0
 70
     8
 71
     3
 72
    17
 73
    13
 74
     0
 42
0.000000001
 43
0.00000001
 40
0.0
 40
0.0
 40
0.0
 40
0.0
 40
0.0625735814875132
 40
0.125143834497334
 40
0.2500878788322734
 40
0.3750376600705214
 40
0.4999484912518444
 40
0.6426403265606601
 40
0.7498323494477057
 40
0.8748525257198544
 40
0.9374292607999332
 40
1.0
 40
1.0
 40
1.0
 40
1.0
 10
10.03661970367643
 20
7.919361871773284
 30
0.0
 10
10.03748456117386
 20
7.918600918822838
 30
0.0
 10
10.03921423016432
 20
7.917079053399331
 30
0.0
 10
10.04222274727359
 20
7.913805670109147
 30
0.0
 10
10.04519605463537
 20
7.909406934687777
 30
0.0
 10
10.04724063508664
 20
7.903846452593369
 30
0.0
 10
10.04766535524574
 20
7.898003081982283
 30
0.0
 10
10.04622263444225
 20
7.892712501912431
 30
0.0
 10
10.04331682947365
 20
7.887961155081046
 30
0.0
 10
10.04021100828919
 20
7.884624556660472
 30
0.0
 10
10.03705963663121
 20
7.882136360626754
 30
0.0
 10
10.03528042661161
 20
7.881052177307151
 30
0.0
 10
10.03439086422325
 20
7.88051011161924
 30
0.0
  0
SPLINE
  5
273
330
1F
100
AcDbEntity
  8
0
  6
Continuous
 62
     7
370
     0
100
AcDbSpline
210
0.0
220
0.0
230
1.0
 70
     8
 71
     3
 72
    16
 73
    12
 74
     0
 42
0.000000001
 43
0.00000001
 40
0.0
 40
0.0
 40
0.0
 40
0.0
 40
0.0626649867820418
 40
0.1253199439526324
 40
0.2505126252440127
 40
0.4994724275636058
 40
0.6206389663288272
 40
0.7495739117792015
 40
0.874696749605687
 40
0.9373438300019988
 40
1.0
 40
1.0
 40
1.0
 40
1.0
 10
9.981459304106215
 20
7.924283223625534
 30
0.0
 10
9.982400260134083
 20
7.924802867846633
 30
0.0
 10
9.984282021588605
 20
7.925842073119108
 30
0.0
 10
9.98835615501269
 20
7.927644572086984
 30
0.0
 10
9.99604444477236
 20
7.930153058710808
 30
0.0
 10
10.0061979696659
 20
7.93119737128875
 30
0.0
 10
10.01655893685426
 20
7.929603414155301
 30
0.0
 10
10.02399675504743
 20
7.927155044123994
 30
0.0
 10
10.0297412507616
 20
7.924281447429026
 30
0.0
 10
10.0338469002193
 20
7.921598300604394
 30
0.0
 10
10.03569539116036
 20
7.920107384101094
 30
0.0
 10
10.03661970367643
 20
7.919361871773284
 30
0.0
  0
ARC
  5
274
330
1F
100
AcDbEntity
  8
0
  6
Continuous
 62
     7
370
     0
100
AcDbCircle
 10
8.9835910551
 20
6.6998237793
 30
0.0
 40
1.585397968687711
100
AcDbArc
 50
44.2797280712
 51
45.2907901848
  0
LINE
  5
275
330
1F
100
AcDbEntity
  8
0
  6
Continuous
 62
     7
370
     0
100
AcDbLine
 10
10.1251676938
 20
7.8104564668
 30
0.0
 11
10.1186405543
 21
7.8066884294
 31
0.0
  0
ARC
  5
276
330
1F
100
AcDbEntity
  8
0
  6
Continuous
 62
     7
370
     0
100
AcDbCircle
 10
8.9901181946
 20
6.7035918167
 30
0.0
 40
1.585397968704898
100
AcDbArc
 50
44.2797280712
 51
45.2907901848
  0
LINE
  5
277
330
1F
100
AcDbEntity
  8
0
  6
Continuous
 62
     7
370
     0
100
AcDbLine
 10
10.0989327135
 20
7.8265445541
 30
0.0
 11
10.105459853
 21
7.8303125915
 31
0.0
  0
SPLINE
  5
278
330
1F
100
AcDbEntity
  8
0
  6
Continuous
 62
     7
370
     0
100
AcDbSpline
210
0.0
220
0.0
230
1.0
 70
     8
 71
     3
 72
     8
 73
     4
 74
     0
 42
0.000000001
 43
0.00000001
 40
0.0
 40
0.0
 40
0.0
 40
0.0
 40
1.0
 40
1.0
 40
1.0
 40
1.0
 10
10.21307748378813
 20
7.74220080461319
 30
0.0
 10
10.20706056232137
 20
7.72469900542806
 30
0.0
 10
10.20097226246887
 20
7.707076353474108
 30
0.0
 10
10.19480773833456
 20
7.689338616182081
 30
0.0
  0
ARC
  5
279
330
1F
100
AcDbEntity
  8
0
  6
Continuous
 62
     7
370
     0
100
AcDbCircle
 10
8.9086174133
 20
6.6221294125
 30
0.0
 40
1.719353366507858
100
AcDbArc
 50
40.6509554091
 51
41.0349193557
  0
LINE
  5
27A
330
1F
100
AcDbEntity
  8
0
  6
Continuous
 62
     7
370
     0
100
AcDbLine
 10
10.1489736207
 20
7.7182610185
 30
0.0
 11
10.2055421632
 21
7.750917343
 31
0.0
  0
ARC
  5
27B
330
1F
100
AcDbEntity
  8
0
  6
Continuous
 62
     7
370
     0
100
AcDbCircle
 10
8.8522905482
 20
6.5896825122
 30
0.0
 40
1.719033575962641
100
AcDbArc
 50
40.6715766967
 51
41.0349425223
  0
LINE
  5
27C
330
1F
100
AcDbEntity
  8
0
  6
Continuous
 62
     7
370
     0
100
AcDbLine
 10
10.1983159643
 20
7.7343828551
 30
0.0
 11
10.1561048624
 21
7.7100149046
 31
0.0
  0
SPLINE
  5
27D
330
1F
100
AcDbEntity
  8
0
  6
Continuous
 62
     7
370
     0
100
AcDbSpline
210
0.0
220
0.0
230
1.0
 70
     8
 71
     3
 72
     8
 73
     4
 74
     0
 42
0.000000001
 43
0.00000001
 40
0.0
 40
0.0
 40
0.0
 40
0.0
 40
1.0
 40
1.0
 40
1.0
 40
1.0
 10
10.18005361963836
 20
7.681532507829012
 30
0.0
 10
10.18621559605957
 20
7.699266394878004
 30
0.0
 10
10.19230142849593
 20
7.716885098967207
 30
0.0
 10
10.19831596434147
 20
7.734382855062619
 30
0.0
  0
ARC
  5
27E
330
1F
100
AcDbEntity
  8
0
  6
Continuous
 62
     7
370
     0
100
AcDbCircle
 10
8.8162464432
 20
6.5593618544
 30
0.0
 40
1.766136175304772
100
AcDbArc
 50
39.0711490649
 51
39.4483022062
  0
LINE
  5
27F
330
1F
100
AcDbEntity
  8
0
  6
Continuous
 62
     7
370
     0
100
AcDbLine
 10
10.2439793222
 20
7.7051872372
 30
0.0
 11
10.1874107797
 21
7.6725309127
 31
0.0
  0
ARC
  5
280
330
1F
100
AcDbEntity
  8
0
  6
Continuous
 62
     7
370
     0
100
AcDbCircle
 10
8.8725948275
 20
6.5918386638
 30
0.0
 40
1.766420243904008
100
AcDbArc
 50
39.0711687404
 51
39.4280066145
  0
LINE
  5
281
330
1F
100
AcDbEntity
  8
0
  6
Continuous
 62
     7
370
     0
100
AcDbLine
 10
10.1948077383
 20
7.6893386162
 30
0.0
 11
10.2370188403
 21
7.7137065666
 31
0.0
  0
ARC
  5
282
330
1F
100
AcDbEntity
  8
0
  6
Continuous
 62
     7
370
     0
100
AcDbCircle
 10
8.8014447526
 20
6.5382198215
 30
0.0
 40
1.84804799434128
100
AcDbArc
 50
35.2199434753
 51
36.3845929742
  0
LINE
  5
283
330
1F
100
AcDbEntity
  8
0
  6
Continuous
 62
     7
370
     0
100
AcDbLine
 10
10.2611554485
 20
7.5751316983
 30
0.0
 11
10.3111968515
 21
7.6040199853
 31
0.0
  0
ARC
  5
284
330
1F
100
AcDbEntity
  8
0
  6
Continuous
 62
     7
370
     0
100
AcDbCircle
 10
8.7402836861
 20
6.5014398544
 30
0.0
 40
1.861683403091929
100
AcDbArc
 50
34.876436438
 51
35.220994997
  0
LINE
  5
285
330
1F
100
AcDbEntity
  8
0
  6
Continuous
 62
     7
370
     0
100
AcDbLine
 10
10.3241532921
 20
7.5986226251
 30
0.0
 11
10.2675847496
 21
7.5659663007
 31
0.0
  0
ARC
  5
286
330
1F
100
AcDbEntity
  8
0
  6
Continuous
 62
     7
370
     0
100
AcDbCircle
 10
8.8053933916
 20
6.5401186792
 30
0.0
 40
1.851232626900392
100
AcDbArc
 50
34.8746762508
 51
36.3838259278
  0
LINE
  5
287
330
1F
100
AcDbEntity
  8
0
  6
Continuous
 62
     7
370
     0
100
AcDbLine
 10
10.2892219639
 20
7.6344863761
 30
0.0
 11
10.2957491035
 21
7.6382544135
 31
0.0
  0
LWPOLYLINE
  5
288
330
1F
100
AcDbEntity
  8
0
  6
Continuous
 62
     7
370
     0
100
AcDbPolyline
 90
       63
 70
   128
 43
0.0
 10
10.7054516444
 20
6.7349246498
 10
10.7048877639
 20
6.769445087
 10
10.70319694
 20
6.8045665154
 10
10.7003816243
 20
6.8402380123
 10
10.6964458987
 20
6.8764078574
 10
10.6913954696
 20
6.913023608
 10
10.6852376596
 20
6.9500321746
 10
10.6779813971
 20
6.9873798984
 10
10.6696372028
 20
7.0250126288
 10
10.660217175
 20
7.0628758019
 10
10.649734972
 20
7.1009145197
 10
10.6382057919
 20
7.1390736298
 10
10.6256463509
 20
7.177297805
 10
10.6120748589
 20
7.2155316239
 10
10.5975109934
 20
7.2537196512
 10
10.5819758706
 20
7.291806518
 10
10.5654920149
 20
7.3297370017
 10
10.5480833263
 20
7.367456107
 10
10.5297750458
 20
7.4049091447
 10
10.5105937186
 20
7.4420418115
 10
10.4905671558
 20
7.4788002685
 10
10.469724394
 20
7.5151312195
 10
10.4480956532
 20
7.5509819882
 10
10.4257122931
 20
7.5863005942
 10
10.4026067673
 20
7.6210358291
 10
10.3788125767
 20
7.65513733
 10
10.3543642206
 20
7.688555653
 10
10.3292971467
 20
7.7212423448
 10
10.3036476999
 20
7.7531500128
 10
10.2774530694
 20
7.7842323939
 10
10.250751235
 20
7.8144444216
 10
10.2235809118
 20
7.8437422914
 10
10.1959814941
 20
7.8720835241
 10
10.1679929985
 20
7.8994270278
 10
10.1396560056
 20
7.9257331568
 10
10.1110116013
 20
7.9509637699
 10
10.0821013173
 20
7.9750822851
 10
10.0529670707
 20
7.9980537328
 10
10.0236511034
 20
8.0198448067
 10
9.9941959207
 20
8.0404239117
 10
9.9646442299
 20
8.0597612101
 10
9.9350388781
 20
8.0778286647
 10
9.9054227902
 20
8.0946000794
 10
9.8758389067
 20
8.1100511372
 10
9.8463301213
 20
8.1241594357
 10
9.8169392191
 20
8.1369045191
 10
9.7877088141
 20
8.1482679082
 10
9.7586812874
 20
8.1582331273
 10
9.7298987263
 20
8.1667857277
 10
9.7014028626
 20
8.1739133089
 10
9.6732350128
 20
8.1796055367
 10
9.6454360175
 20
8.1838541579
 10
9.6180461825
 20
8.1866530124
 10
9.5911052205
 20
8.187998042
 10
9.5646521934
 20
8.1878872967
 10
9.5387254554
 20
8.186320937
 10
9.5133625979
 20
8.183301234
 10
9.4886003946
 20
8.1788325659
 10
9.4644747484
 20
8.172921412
 10
9.441020639
 20
8.1655763427
 10
9.4182720728
 20
8.1568080078
 10
9.3962620329
 20
8.1466291206
 10
9.3776788821
 20
8.1366028599
  0
LWPOLYLINE
  5
289
330
1F
100
AcDbEntity
  8
0
  6
Continuous
 62
     7
370
     0
100
AcDbPolyline
 90
       22
 70
   128
 43
0.0
 10
10.477589488
 20
6.2312953627
 10
10.4905671558
 20
6.2391493806
 10
10.5105937186
 20
6.2527856604
 10
10.5297750458
 20
6.2677720382
 10
10.5480833263
 20
6.2840867851
 10
10.5654920149
 20
6.3017062464
 10
10.5819758706
 20
6.3206048755
 10
10.5975109934
 20
6.3407552712
 10
10.6120748589
 20
6.3621282174
 10
10.6256463509
 20
6.3846927252
 10
10.6382057919
 20
6.4084160785
 10
10.649734972
 20
6.4332638805
 10
10.660217175
 20
6.4592001043
 10
10.6696372028
 20
6.4861871449
 10
10.6779813971
 20
6.5141858736
 10
10.6852376596
 20
6.543155695
 10
10.6913954696
 20
6.5730546056
 10
10.6964458987
 20
6.6038392548
 10
10.7003816243
 20
6.6354650079
 10
10.70319694
 20
6.6678860104
 10
10.7048877639
 20
6.7010552551
 10
10.7054516444
 20
6.7349246498
  0
ARC
  5
28A
330
1F
100
AcDbEntity
  8
0
  6
Continuous
 62
     7
370
     0
100
AcDbCircle
 10
8.7530337873
 20
6.506678387
 30
0.0
 40
1.88661172992606
100
AcDbArc
 50
32.9767969666
 51
33.5700837074
  0
SPLINE
  5
28B
330
1F
100
AcDbEntity
  8
0
  6
Continuous
 62
     7
370
     0
100
AcDbSpline
210
0.0
220
0.0
230
1.0
 70
     8
 71
     3
 72
    15
 73
    11
 74
     0
 42
0.000000001
 43
0.00000001
 40
0.0
 40
0.0
 40
0.0
 40
0.0
 40
0.0626964153114151
 40
0.1253787081573924
 40
0.2505492576971808
 40
0.3756933751300134
 40
0.5006718414742862
 40
0.7492845741561978
 40
0.8746116954167751
 40
1.0
 40
1.0
 40
1.0
 40
1.0
 10
10.29195805181575
 20
7.563619773660227
 30
0.0
 10
10.29260081528238
 20
7.5639673684647
 30
0.0
 10
10.29388619743218
 20
7.564662479777374
 30
0.0
 10
10.29665713585094
 20
7.565716196210588
 30
0.0
 10
10.30041222253205
 20
7.566452798430218
 30
0.0
 10
10.30520004941781
 20
7.566211495239918
 30
0.0
 10
10.31169883842986
 20
7.564491092730702
 30
0.0
 10
10.31735980183119
 20
7.55969283972111
 30
0.0
 10
10.32194875258755
 20
7.554298688298815
 30
0.0
 10
10.32396787732943
 20
7.551361632345882
 30
0.0
 10
10.32497768606886
 20
7.549892745997287
 30
0.0
  0
SPLINE
  5
28C
330
1F
100
AcDbEntity
  8
0
  6
Continuous
 62
     7
370
     0
100
AcDbSpline
210
0.0
220
0.0
230
1.0
 70
     8
 71
     3
 72
    14
 73
    10
 74
     0
 42
0.000000001
 43
0.00000001
 40
0.0
 40
0.0
 40
0.0
 40
0.0
 40
0.1251999787233848
 40
0.2503250814000129
 40
0.3754446601025297
 40
0.5003442011326693
 40
0.7496501209498349
 40
0.8748058919807367
 40
1.0
 40
1.0
 40
1.0
 40
1.0
 10
10.28641649261561
 20
7.539528490444906
 30
0.0
 10
10.28588343026917
 20
7.54070274289901
 30
0.0
 10
10.28481762437507
 20
7.543050545543668
 30
0.0
 10
10.28384401623197
 20
7.54669754714843
 30
0.0
 10
10.2835340943646
 20
7.550322315509265
 30
0.0
 10
10.28423247142762
 20
7.554874320463635
 30
0.0
 10
10.28629721632329
 20
7.558791939357161
 30
0.0
 10
10.28924126636162
 20
7.561888579705748
 30
0.0
 10
10.2910523642177
 20
7.563042650099733
 30
0.0
 10
10.29195805181575
 20
7.563619773660227
 30
0.0
  0
SPLINE
  5
28D
330
1F
100
AcDbEntity
  8
0
  6
Continuous
 62
     7
370
     0
100
AcDbSpline
210
0.0
220
0.0
230
1.0
 70
     8
 71
     3
 72
    10
 73
     6
 74
     0
 42
0.000000001
 43
0.00000001
 40
0.0
 40
0.0
 40
0.0
 40
0.0
 40
0.5000056856159634
 40
0.7500189825075415
 40
1.0
 40
1.0
 40
1.0
 40
1.0
 10
10.29243724304673
 20
7.529396497739748
 30
0.0
 10
10.29136571573865
 20
7.531053451561953
 30
0.0
 10
10.28975840237311
 20
7.533538916938733
 30
0.0
 10
10.28772450051804
 20
7.536911388442948
 30
0.0
 10
10.28685247648394
 20
7.538656160658146
 30
0.0
 10
10.28641649261561
 20
7.539528490444906
 30
0.0
  0
ARC
  5
28E
330
1F
100
AcDbEntity
  8
0
  6
Continuous
 62
     7
370
     0
100
AcDbCircle
 10
8.7179456543
 20
6.486286222
 30
0.0
 40
1.888677529432893
100
AcDbArc
 50
32.6356813336
 51
33.524715987
  0
LINE
  5
28F
330
1F
100
AcDbEntity
  8
0
  6
Continuous
 62
     7
370
     0
100
AcDbLine
 10
10.3650011052
 20
7.5374975056
 30
0.0
 11
10.3084325627
 21
7.5048411811
 31
0.0
  0
ARC
  5
290
330
1F
100
AcDbEntity
  8
0
  6
Continuous
 62
     7
370
     0
100
AcDbCircle
 10
8.7721434499
 20
6.5174122251
 30
0.0
 40
1.891499270219671
100
AcDbArc
 50
32.6359895922
 51
32.9769176915
  0
LINE
  5
291
330
1F
100
AcDbEntity
  8
0
  6
Continuous
 62
     7
370
     0
100
AcDbLine
 10
10.3356955037
 20
7.5335599339
 30
0.0
 11
10.3589031108
 21
7.5469574003
 31
0.0
  0
ARC
  5
292
330
1F
100
AcDbEntity
  8
0
  6
Continuous
 62
     7
370
     0
100
AcDbCircle
 10
8.821825168
 20
6.5552760568
 30
0.0
 40
1.809037938212336
100
AcDbArc
 50
37.077870018
 51
38.1394762575
  0
SPLINE
  5
293
330
1F
100
AcDbEntity
  8
0
  6
Continuous
 62
     7
370
     0
100
AcDbSpline
210
0.0
220
0.0
230
1.0
 70
     8
 71
     3
 72
     8
 73
     4
 74
     0
 42
0.000000001
 43
0.00000001
 40
0.0
 40
0.0
 40
0.0
 40
0.0
 40
1.0
 40
1.0
 40
1.0
 40
1.0
 10
10.25653087525962
 20
7.689547251206203
 30
0.0
 10
10.25257547813888
 20
7.683870334718661
 30
0.0
 10
10.24861556071746
 20
7.678187205343132
 30
0.0
 10
10.24465105992961
 20
7.67249794298285
 30
0.0
  0
ARC
  5
294
330
1F
100
AcDbEntity
  8
0
  6
Continuous
 62
     7
370
     0
100
AcDbCircle
 10
8.8591438754
 20
6.5809714292
 30
0.0
 40
1.783712639617671
100
AcDbArc
 50
38.4256904251
 51
38.8018726297
  0
SPLINE
  5
295
330
1F
100
AcDbEntity
  8
0
  6
Continuous
 62
     7
370
     0
100
AcDbSpline
210
0.0
220
0.0
230
1.0
 70
     8
 71
     3
 72
     8
 73
     4
 74
     0
 42
0.000000001
 43
0.00000001
 40
0.0
 40
0.0
 40
0.0
 40
0.0
 40
1.0
 40
1.0
 40
1.0
 40
1.0
 10
10.2119421169371
 20
7.64162128773734
 30
0.0
 10
10.22442466720037
 20
7.66072152197806
 30
0.0
 10
10.23685050921804
 20
7.679748224203456
 30
0.0
 10
10.2492223234067
 20
7.698698000817785
 30
0.0
  0
ARC
  5
296
330
1F
100
AcDbEntity
  8
0
  6
Continuous
 62
     7
370
     0
100
AcDbCircle
 10
8.7825949918
 20
6.5326373519
 30
0.0
 40
1.809109884497901
100
AcDbArc
 50
37.4106232058
 51
37.8067230697
  0
SPLINE
  5
297
330
1F
100
AcDbEntity
  8
0
  6
Continuous
 62
     7
370
     0
100
AcDbSpline
210
0.0
220
0.0
230
1.0
 70
     8
 71
     3
 72
     8
 73
     4
 74
     0
 42
0.000000001
 43
0.00000001
 40
0.0
 40
0.0
 40
0.0
 40
0.0
 40
1.0
 40
1.0
 40
1.0
 40
1.0
 10
10.29495051984819
 20
7.639337317783712
 30
0.0
 10
10.26988471780968
 20
7.636865859752472
 30
0.0
 10
10.24475853308646
 20
7.634325725474997
 30
0.0
 10
10.21957457926126
 20
7.631713436300996
 30
0.0
  0
ARC
  5
298
330
1F
100
AcDbEntity
  8
0
  6
Continuous
 62
     7
370
     0
100
AcDbCircle
 10
8.8211144989
 20
6.5516338164
 30
0.0
 40
1.831745485504133
100
AcDbArc
 50
36.4276406417
 51
36.7972174682
  0
SPLINE
  5
299
330
1F
100
AcDbEntity
  8
0
  6
Continuous
 62
     7
370
     0
100
AcDbSpline
210
0.0
220
0.0
230
1.0
 70
     8
 71
     3
 72
     8
 73
     4
 74
     0
 42
0.000000001
 43
0.00000001
 40
0.0
 40
0.0
 40
0.0
 40
0.0
 40
1.0
 40
1.0
 40
1.0
 40
1.0
 10
10.26510612282056
 20
7.645944818232659
 30
0.0
 10
10.27271020541322
 20
7.646909466925561
 30
0.0
 10
10.28030947118901
 20
7.647868285680381
 30
0.0
 10
10.28790385860989
 20
7.64882135634456
 30
0.0
  0
SPLINE
  5
29A
330
1F
100
AcDbEntity
  8
0
  6
Continuous
 62
     7
370
     0
100
AcDbSpline
210
0.0
220
0.0
230
1.0
 70
     8
 71
     3
 72
    15
 73
    11
 74
     0
 42
0.000000001
 43
0.00000001
 40
0.0
 40
0.0
 40
0.0
 40
0.0
 40
0.0626761947927372
 40
0.1253392690170827
 40
0.2504957453420835
 40
0.4992172028461086
 40
0.6369416197782742
 40
0.7852085601041304
 40
0.8925889660601144
 40
1.0
 40
1.0
 40
1.0
 40
1.0
 10
10.11469187938981
 20
7.755261896891059
 30
0.0
 10
10.11386295797015
 20
7.756191629344558
 30
0.0
 10
10.11220528865636
 20
7.758050899622345
 30
0.0
 10
10.10936266871395
 20
7.761980621396011
 30
0.0
 10
10.10547475630312
 20
7.769149993908226
 30
0.0
 10
10.10405264044129
 20
7.778026159892859
 30
0.0
 10
10.10652528872938
 20
7.786154035226242
 30
0.0
 10
10.11010150267767
 20
7.791305355246319
 30
0.0
 10
10.11443352413811
 20
7.795346486019887
 30
0.0
 10
10.11751475884354
 20
7.797278774314744
 30
0.0
 10
10.11905559587913
 20
7.798245056228593
 30
0.0
  0
SPLINE
  5
29B
330
1F
100
AcDbEntity
  8
0
  6
Continuous
 62
     7
370
     0
100
AcDbSpline
210
0.0
220
0.0
230
1.0
 70
     8
 71
     3
 72
    17
 73
    13
 74
     0
 42
0.000000001
 43
0.00000001
 40
0.0
 40
0.0
 40
0.0
 40
0.0
 40
0.062587252349931
 40
0.1251621031373155
 40
0.2502151565810607
 40
0.3769364927708406
 40
0.5001010314360426
 40
0.6250388192666018
 40
0.7499288092931833
 40
0.8748555591109036
 40
0.9374185878446685
 40
0.9999999999999999
 40
0.9999999999999999
 40
0.9999999999999999
 40
0.9999999999999999
 10
10.16887726612099
 20
7.745423718102582
 30
0.0
 10
10.16792078484198
 20
7.744895474323742
 30
0.0
 10
10.16600801180917
 20
7.743839091436709
 30
0.0
 10
10.16195331819398
 20
7.742009029022261
 30
0.0
 10
10.15645422619588
 20
7.740262511849963
 30
0.0
 10
10.14927087772671
 20
7.739354549249575
 30
0.0
 10
10.14166380203436
 20
7.739921136243829
 30
0.0
 10
10.13405325050171
 20
7.741910987896357
 30
0.0
 10
10.12672521413996
 20
7.745244776298133
 30
0.0
 10
10.12127417299888
 20
7.749067972658953
 30
0.0
 10
10.117347004528
 20
7.752493227645052
 30
0.0
 10
10.11557700777198
 20
7.754338916766605
 30
0.0
 10
10.11469187938981
 20
7.755261896891059
 30
0.0
  0
SPLINE
  5
29C
330
1F
100
AcDbEntity
  8
0
  6
Continuous
 62
     7
370
     0
100
AcDbSpline
210
0.0
220
0.0
230
1.0
 70
     8
 71
     3
 72
    17
 73
    13
 74
     0
 42
0.000000001
 43
0.00000001
 40
0.0
 40
0.0
 40
0.0
 40
0.0
 40
0.062573581487512
 40
0.1251438344973317
 40
0.2500878788322681
 40
0.3750376600705193
 40
0.4999484912518423
 40
0.6426403265606653
 40
0.7498323494477062
 40
0.8748525257198536
 40
0.9374292607999329
 40
1.0
 40
1.0
 40
1.0
 40
1.0
 10
10.17274204681411
 20
7.788721857140891
 30
0.0
 10
10.17355404903739
 20
7.787807749386766
 30
0.0
 10
10.17517801029111
 20
7.785979582502668
 30
0.0
 10
10.17797418603435
 20
7.782101662920583
 30
0.0
 10
10.18068527358828
 20
7.776971048961894
 30
0.0
 10
10.18243636834607
 20
7.770612552021527
 30
0.0
 10
10.18259252757721
 20
7.764055216315009
 30
0.0
 10
10.18095090846115
 20
7.758246380989327
 30
0.0
 10
10.17790701687086
 20
7.75313950480029
 30
0.0
 10
10.17473152180892
 20
7.74962501221478
 30
0.0
 10
10.17154991052572
 20
7.747059815337825
 30
0.0
 10
10.16976811913372
 20
7.745969066428215
 30
0.0
 10
10.16887726612099
 20
7.745423718102582
 30
0.0
  0
SPLINE
  5
29D
330
1F
100
AcDbEntity
  8
0
  6
Continuous
 62
     7
370
     0
100
AcDbSpline
210
0.0
220
0.0
230
1.0
 70
     8
 71
     3
 72
    16
 73
    12
 74
     0
 42
0.000000001
 43
0.00000001
 40
0.0
 40
0.0
 40
0.0
 40
0.0
 40
0.0626649867820434
 40
0.1253199439526355
 40
0.2505126252440212
 40
0.4994724275636219
 40
0.620638966329577
 40
0.7495739117791945
 40
0.8746967496056823
 40
0.9373438300020002
 40
1.0
 40
1.0
 40
1.0
 40
1.0
 10
10.11905559587913
 20
7.798245056228593
 30
0.0
 10
10.11999564964441
 20
7.798761668605223
 30
0.0
 10
10.12187560671814
 20
7.799794810674009
 30
0.0
 10
10.12592868536369
 20
7.801526619799153
 30
0.0
 10
10.13354287598535
 20
7.803787106093496
 30
0.0
 10
10.14351037432232
 20
7.804214476440915
 30
0.0
 10
10.15357250724692
 20
7.801662753189243
 30
0.0
 10
10.16074021172698
 20
7.798370101931466
 30
0.0
 10
10.16623235229619
 20
7.79472998392119
 30
0.0
 10
10.17012938680896
 20
7.79142616741509
 30
0.0
 10
10.17187111803018
 20
7.789623337491884
 30
0.0
 10
10.17274204681411
 20
7.788721857140891
 30
0.0
  0
SPLINE
  5
29E
330
1F
100
AcDbEntity
  8
0
  6
Continuous
 62
     7
370
     0
100
AcDbSpline
210
0.0
220
0.0
230
1.0
 70
     8
 71
     3
 72
    15
 73
    11
 74
     0
 42
0.000000001
 43
0.00000001
 40
0.0
 40
0.0
 40
0.0
 40
0.0
 40
0.0627077247449544
 40
0.1254112927258575
 40
0.2505229930352312
 40
0.4986822572927346
 40
0.6238561955984377
 40
0.7492159321906051
 40
0.874604982422564
 40
0.9999999999999999
 40
0.9999999999999999
 40
0.9999999999999999
 40
0.9999999999999999
 10
10.04083027110445
 20
7.840050490752734
 30
0.0
 10
10.0414818283659
 20
7.839462125210725
 30
0.0
 10
10.04278489969843
 20
7.83828543312823
 30
0.0
 10
10.04567983034893
 20
7.836129079306133
 30
0.0
 10
10.05132561327211
 20
7.832910421382809
 30
0.0
 10
10.05900379183777
 20
7.831178951220314
 30
0.0
 10
10.06607340611248
 20
7.831681342164193
 30
0.0
 10
10.07094778482983
 20
7.832943807539004
 30
0.0
 10
10.0755832819365
 20
7.834548593009919
 30
0.0
 10
10.07832695215095
 20
7.83601683850522
 30
0.0
 10
10.07969881990065
 20
7.836750978721141
 30
0.0
  0
SPLINE
  5
29F
330
1F
100
AcDbEntity
  8
0
  6
Continuous
 62
     7
370
     0
100
AcDbSpline
210
0.0
220
0.0
230
1.0
 70
     8
 71
     3
 72
    13
 73
     9
 74
     0
 42
0.000000001
 43
0.00000001
 40
0.0
 40
0.0
 40
0.0
 40
0.0
 40
0.1432749372462727
 40
0.25072733992616
 40
0.500268791237346
 40
0.7494047175484836
 40
0.8746601628232997
 40
1.0
 40
1.0
 40
1.0
 40
1.0
 10
10.03885070811172
 20
7.859349743367765
 30
0.0
 10
10.03823689068569
 20
7.858564648683307
 30
0.0
 10
10.03716272647116
 20
7.857190753809521
 30
0.0
 10
10.03555487928183
 20
7.854199232159071
 30
0.0
 10
10.03457418030202
 20
7.850137039332313
 30
0.0
 10
10.03615139492611
 20
7.845639927637196
 30
0.0
 10
10.03853010076731
 20
7.842329715593113
 30
0.0
 10
10.04006337554061
 20
7.840810402917006
 30
0.0
 10
10.04083027110445
 20
7.840050490752734
 30
0.0
  0
SPLINE
  5
2A0
330
1F
100
AcDbEntity
  8
0
  6
Continuous
 62
     7
370
     0
100
AcDbSpline
210
0.0
220
0.0
230
1.0
 70
     8
 71
     3
 72
     8
 73
     4
 74
     0
 42
0.000000001
 43
0.00000001
 40
0.0
 40
0.0
 40
0.0
 40
0.0
 40
1.0
 40
1.0
 40
1.0
 40
1.0
 10
10.02946901440064
 20
7.865321062021677
 30
0.0
 10
10.03259996985398
 20
7.863343621305583
 30
0.0
 10
10.03572724591882
 20
7.861353141084355
 30
0.0
 10
10.03885070811172
 20
7.859349743367765
 30
0.0
  0
SPLINE
  5
2A1
330
1F
100
AcDbEntity
  8
0
  6
Continuous
 62
     7
370
     0
100
AcDbSpline
210
0.0
220
0.0
230
1.0
 70
     8
 71
     3
 72
    14
 73
    10
 74
     0
 42
0.000000001
 43
0.00000001
 40
0.0
 40
0.0
 40
0.0
 40
0.0
 40
0.0716530045517845
 40
0.1432915146744402
 40
0.2864108891677027
 40
0.570953682072883
 40
0.7851429384798637
 40
0.8925549501623605
 40
1.0
 40
1.0
 40
1.0
 40
1.0
 10
10.03393522505486
 20
7.836626946422695
 30
0.0
 10
10.03327581077311
 20
7.837263716815811
 30
0.0
 10
10.03195711560016
 20
7.838537128792044
 30
0.0
 10
10.0295996418306
 20
7.841213368874023
 30
0.0
 10
10.02612022045648
 20
7.846111277662661
 30
0.0
 10
10.0241079534646
 20
7.852963770160772
 30
0.0
 10
10.02533514622519
 20
7.858945459785332
 30
0.0
 10
10.02736844775364
 20
7.862745440581502
 30
0.0
 10
10.02876875374419
 20
7.864462433535389
 30
0.0
 10
10.02946901440064
 20
7.865321062021677
 30
0.0
  0
SPLINE
  5
2A2
330
1F
100
AcDbEntity
  8
0
  6
Continuous
 62
     7
370
     0
100
AcDbSpline
210
0.0
220
0.0
230
1.0
 70
     8
 71
     3
 72
    16
 73
    12
 74
     0
 42
0.000000001
 43
0.00000001
 40
0.0
 40
0.0
 40
0.0
 40
0.0
 40
0.062667337225436
 40
0.1253236135995606
 40
0.2505320761324855
 40
0.4994286266901788
 40
0.6209451481907108
 40
0.7495714564986656
 40
0.8746959905394799
 40
0.9373444465983067
 40
1.0
 40
1.0
 40
1.0
 40
1.0
 10
10.08728096769633
 20
7.829431448119936
 30
0.0
 10
10.08635666359061
 20
7.828922653500304
 30
0.0
 10
10.08450821851982
 20
7.827905154063828
 30
0.0
 10
10.08056277989046
 20
7.826134462616571
 30
0.0
 10
10.07312762024089
 20
7.823752039686496
 30
0.0
 10
10.06330319893858
 20
7.8230511139267
 30
0.0
 10
10.05327296992676
 20
7.825160580865234
 30
0.0
 10
10.0460780963668
 20
7.828047040125397
 30
0.0
 10
10.04055018436479
 20
7.831285241894167
 30
0.0
 10
10.03660947346061
 20
7.834230203040171
 30
0.0
 10
10.03482667484993
 20
7.835828001794887
 30
0.0
 10
10.03393522505486
 20
7.836626946422695
 30
0.0
  0
SPLINE
  5
2A3
330
1F
100
AcDbEntity
  8
0
  6
Continuous
 62
     7
370
     0
100
AcDbSpline
210
0.0
220
0.0
230
1.0
 70
     8
 71
     3
 72
    16
 73
    12
 74
     0
 42
0.000000001
 43
0.00000001
 40
0.0
 40
0.0
 40
0.0
 40
0.0
 40
0.0626596732655862
 40
0.1253066935863614
 40
0.2504130650862195
 40
0.3753509260122139
 40
0.5003167170701756
 40
0.7494642842602045
 40
0.8746874249442927
 40
0.9373399599321073
 40
1.0
 40
1.0
 40
1.0
 40
1.0
 10
10.09180273561121
 20
7.870262410986866
 30
0.0
 10
10.09267701738493
 20
7.869419935439995
 30
0.0
 10
10.09442540438757
 20
7.867735154468375
 30
0.0
 10
10.09753393847688
 20
7.864165887003289
 30
0.0
 10
10.10077705271577
 20
7.859415159354464
 30
0.0
 10
10.1027237426171
 20
7.853335789112301
 30
0.0
 10
10.10248045722361
 20
7.845411614643125
 30
0.0
 10
10.09847884734121
 20
7.838485889073404
 30
0.0
 10
10.09336216048269
 20
7.833597697444898
 30
0.0
 10
10.09003357850322
 20
7.831085829044544
 30
0.0
 10
10.08819854126596
 20
7.829982930445993
 30
0.0
 10
10.08728096769633
 20
7.829431448119936
 30
0.0
  0
SPLINE
  5
2A4
330
1F
100
AcDbEntity
  8
0
  6
Continuous
 62
     7
370
     0
100
AcDbSpline
210
0.0
220
0.0
230
1.0
 70
     8
 71
     3
 72
    14
 73
    10
 74
     0
 42
0.000000001
 43
0.00000001
 40
0.0
 40
0.0
 40
0.0
 40
0.0
 40
0.0716724462801659
 40
0.1433330938213282
 40
0.2865135066059581
 40
0.5710080364222951
 40
0.7850962256137303
 40
0.8925354065145936
 40
1.0
 40
1.0
 40
1.0
 40
1.0
 10
10.05081496869314
 20
7.879707227878515
 30
0.0
 10
10.05175348888534
 20
7.879965269368692
 30
0.0
 10
10.05363037477026
 20
7.88048130987018
 30
0.0
 10
10.05756251267736
 20
7.881222932742802
 30
0.0
 10
10.06469350174994
 20
7.881957211072099
 30
0.0
 10
10.07463337389033
 20
7.880661176534645
 30
0.0
 10
10.08313033296053
 20
7.876832550212566
 30
0.0
 10
10.08836654420421
 20
7.873297551587283
 30
0.0
 10
10.09065724818287
 20
7.871274204274614
 30
0.0
 10
10.09180273561121
 20
7.870262410986866
 30
0.0
  0
SPLINE
  5
2A5
330
1F
100
AcDbEntity
  8
0
  6
Continuous
 62
     7
370
     0
100
AcDbSpline
210
0.0
220
0.0
230
1.0
 70
     8
 71
     3
 72
     8
 73
     4
 74
     0
 42
0.000000001
 43
0.00000001
 40
0.0
 40
0.0
 40
0.0
 40
0.0
 40
1.0
 40
1.0
 40
1.0
 40
1.0
 10
10.05663120687338
 20
7.87168943420587
 30
0.0
 10
10.05469620541134
 20
7.874375012464421
 30
0.0
 10
10.05275741449963
 20
7.877047650942413
 30
0.0
 10
10.05081496869314
 20
7.879707227878515
 30
0.0
  0
SPLINE
  5
2A6
330
1F
100
AcDbEntity
  8
0
  6
Continuous
 62
     7
370
     0
100
AcDbSpline
210
0.0
220
0.0
230
1.0
 70
     8
 71
     3
 72
    14
 73
    10
 74
     0
 42
0.000000001
 43
0.00000001
 40
0.0
 40
0.0
 40
0.0
 40
0.0
 40
0.1144070908855254
 40
0.2002230675503861
 40
0.3997605577183938
 40
0.5482287445117258
 40
0.6997074444437068
 40
0.8498328043129465
 40
1.0
 40
1.0
 40
1.0
 40
1.0
 10
10.08598976110271
 20
7.865825631354855
 30
0.0
 10
10.08510697688826
 20
7.866598109627697
 30
0.0
 10
10.0835620222702
 20
7.867950018571515
 30
0.0
 10
10.08002531715161
 20
7.870295612684281
 30
0.0
 10
10.0756232731961
 20
7.872239195568071
 30
0.0
 10
10.07023775954091
 20
7.873389814703834
 30
0.0
 10
10.06541780238561
 20
7.87352067914002
 30
0.0
 10
10.06082329346406
 20
7.872922337079191
 30
0.0
 10
10.05802869884833
 20
7.872100439998352
 30
0.0
 10
10.05663120687338
 20
7.87168943420587
 30
0.0
  0
SPLINE
  5
2A7
330
1F
100
AcDbEntity
  8
0
  6
Continuous
 62
     7
370
     0
100
AcDbSpline
210
0.0
220
0.0
230
1.0
 70
     8
 71
     3
 72
    15
 73
    11
 74
     0
 42
0.000000001
 43
0.00000001
 40
0.0
 40
0.0
 40
0.0
 40
0.0
 40
0.125289933255744
 40
0.2505321937203279
 40
0.4998875512559061
 40
0.6248075308142813
 40
0.7497334520959995
 40
0.8747525524942706
 40
0.9373611783787402
 40
1.0
 40
1.0
 40
1.0
 40
1.0
 10
10.07969881990065
 20
7.836750978721141
 30
0.0
 10
10.08103155101784
 20
7.837563512244304
 30
0.0
 10
10.08369650614835
 20
7.839188270121812
 30
0.0
 10
10.08829109011941
 20
7.843022103658427
 30
0.0
 10
10.09193806376154
 20
7.847651412108108
 30
0.0
 10
10.09285199557615
 20
7.853282038376737
 30
0.0
 10
10.09182120167393
 20
7.857703448344698
 30
0.0
 10
10.08995528519643
 20
7.861279403033882
 30
0.0
 10
10.08787446736974
 20
7.863963979079198
 30
0.0
 10
10.08661809749055
 20
7.865204980865824
 30
0.0
 10
10.08598976110271
 20
7.865825631354855
 30
0.0
  0
SPLINE
  5
2A8
330
1F
100
AcDbEntity
  8
0
  6
Continuous
 62
     7
370
     0
100
AcDbSpline
210
0.0
220
0.0
230
1.0
 70
     8
 71
     3
 72
     8
 73
     4
 74
     0
 42
0.000000001
 43
0.00000001
 40
0.0
 40
0.0
 40
0.0
 40
0.0
 40
1.0
 40
1.0
 40
1.0
 40
1.0
 10
9.96502895456174
 20
7.974843621173126
 30
0.0
 10
9.959911815940616
 20
7.96014969021681
 30
0.0
 10
9.954773509712734
 20
7.945287814096708
 30
0.0
 10
9.949608613242944
 20
7.930262084182467
 30
0.0
  0
ARC
  5
2A9
330
1F
100
AcDbEntity
  8
0
  6
Continuous
 62
     7
370
     0
100
AcDbCircle
 10
9.2299834699
 20
6.9733801974
 30
0.0
 40
1.242264405716522
100
AcDbArc
 50
53.7223968718
 51
54.1992575228
  0
LINE
  5
2AA
330
1F
100
AcDbEntity
  8
0
  6
Continuous
 62
     7
370
     0
100
AcDbLine
 10
9.9001000824
 20
7.9482701692
 30
0.0
 11
9.9566686249
 21
7.9809264937
 31
0.0
  0
ARC
  5
2AB
330
1F
100
AcDbEntity
  8
0
  6
Continuous
 62
     7
370
     0
100
AcDbCircle
 10
9.1736877944
 20
6.9411000582
 30
0.0
 40
1.24179967973405
100
AcDbArc
 50
53.7479798129
 51
54.1993153856
  0
LINE
  5
2AC
330
1F
100
AcDbEntity
  8
0
  6
Continuous
 62
     7
370
     0
100
AcDbLine
 10
9.9502223376
 20
7.9668847692
 30
0.0
 11
9.9080112357
 21
7.9425168187
 31
0.0
  0
SPLINE
  5
2AD
330
1F
100
AcDbEntity
  8
0
  6
Continuous
 62
     7
370
     0
100
AcDbSpline
210
0.0
220
0.0
230
1.0
 70
     8
 71
     3
 72
     8
 73
     4
 74
     0
 42
0.000000001
 43
0.00000001
 40
0.0
 40
0.0
 40
0.0
 40
0.0
 40
1.0
 40
1.0
 40
1.0
 40
1.0
 10
9.93480438763913
 20
7.922319881046681
 30
0.0
 10
9.93996839639802
 20
7.937340130289229
 30
0.0
 10
9.945105905354726
 20
7.952196455664724
 30
0.0
 10
9.950222337628414
 20
7.96688476917336
 30
0.0
  0
ARC
  5
2AE
330
1F
100
AcDbEntity
  8
0
  6
Continuous
 62
     7
370
     0
100
AcDbCircle
 10
9.1302201922
 20
6.8834386974
 30
0.0
 40
1.314012877120231
100
AcDbArc
 50
51.7838872718
 51
52.2432273887
  0
LINE
  5
2AF
330
1F
100
AcDbEntity
  8
0
  6
Continuous
 62
     7
370
     0
100
AcDbLine
 10
9.9996756926
 20
7.9484925398
 30
0.0
 11
9.9431071501
 21
7.9158362153
 31
0.0
  0
ARC
  5
2B0
330
1F
100
AcDbEntity
  8
0
  6
Continuous
 62
     7
370
     0
100
AcDbCircle
 10
9.1865041618
 20
6.9157316627
 30
0.0
 40
1.31447440741847
100
AcDbArc
 50
51.7839396074
 51
52.2184823
  0
LINE
  5
2B1
330
1F
100
AcDbEntity
  8
0
  6
Continuous
 62
     7
370
     0
100
AcDbLine
 10
9.9496086132
 20
7.9302620842
 30
0.0
 11
9.9918197152
 21
7.9546300346
 31
0.0
  0
ARC
  5
2B2
330
1F
100
AcDbEntity
  8
0
  6
Continuous
 62
     7
370
     0
100
AcDbCircle
 10
9.3290390512
 20
7.130245318
 30
0.0
 40
1.049967098005723
100
AcDbArc
 50
58.5325888184
 51
60.6433960093
  0
LINE
  5
2B3
330
1F
100
AcDbEntity
  8
0
  6
Continuous
 62
     7
370
     0
100
AcDbLine
 10
9.8575546467
 20
8.0144972173
 30
0.0
 11
9.8771360653
 21
8.0258013297
 31
0.0
  0
ARC
  5
2B4
330
1F
100
AcDbEntity
  8
0
  6
Continuous
 62
     7
370
     0
100
AcDbCircle
 10
9.3075861967
 20
7.1158019067
 30
0.0
 40
1.053621638666083
100
AcDbArc
 50
58.5349020882
 51
60.4119207573
  0
LINE
  5
2B5
330
1F
100
AcDbEntity
  8
0
  6
Continuous
 62
     7
370
     0
100
AcDbLine
 10
9.8212962803
 20
8.0282608002
 30
0.0
 11
9.8278234199
 21
8.0320288377
 31
0.0
  0
ARC
  5
2B6
330
1F
100
AcDbEntity
  8
0
  6
Continuous
 62
     7
370
     0
100
AcDbCircle
 10
9.3010590571
 20
7.1120338692
 30
0.0
 40
1.053621638665634
100
AcDbArc
 50
58.5349020882
 51
60.4119207573
  0
LINE
  5
2B7
330
1F
100
AcDbEntity
  8
0
  6
Continuous
 62
     7
370
     0
100
AcDbLine
 10
9.8336218018
 20
8.0006810801
 30
0.0
 11
9.8510275072
 21
8.0107291799
 31
0.0
  0
ARC
  5
2B8
330
1F
100
AcDbEntity
  8
0
  6
Continuous
 62
     7
370
     0
100
AcDbCircle
 10
9.2847768722
 20
7.1038693197
 30
0.0
 40
1.051428594971292
100
AcDbArc
 50
58.5335475068
 51
60.550709035
  0
LINE
  5
2B9
330
1F
100
AcDbEntity
  8
0
  6
Continuous
 62
     7
370
     0
100
AcDbLine
 10
9.7951878272
 20
8.015676018
 30
0.0
 11
9.8017149668
 21
8.0194440554
 31
0.0
  0
ARC
  5
2BA
330
1F
100
AcDbEntity
  8
0
  6
Continuous
 62
     7
370
     0
100
AcDbCircle
 10
9.2742307125
 20
7.0931973248
 30
0.0
 40
1.059416468976886
100
AcDbArc
 50
58.0362503459
 51
60.5450100812
  0
LINE
  5
2BB
330
1F
100
AcDbEntity
  8
0
  6
Continuous
 62
     7
370
     0
100
AcDbLine
 10
9.8916359088
 20
8.0246447833
 30
0.0
 11
9.8350673663
 21
7.9919884588
 31
0.0
  0
ARC
  5
2BC
330
1F
100
AcDbEntity
  8
0
  6
Continuous
 62
     7
370
     0
100
AcDbCircle
 10
9.3315568885
 20
7.1271090646
 30
0.0
 40
1.057950317971781
100
AcDbArc
 50
58.0350680081
 51
60.6374569123
  0
LINE
  5
2BD
330
1F
100
AcDbEntity
  8
0
  6
Continuous
 62
     7
370
     0
100
AcDbLine
 10
9.8437788615
 20
8.045381283
 30
0.0
 11
9.8503060011
 21
8.0491493205
 31
0.0
  0
ARC
  5
2BE
330
1F
100
AcDbEntity
  8
0
  6
Continuous
 62
     7
370
     0
100
AcDbCircle
 10
9.3975279743
 20
7.3062500562
 30
0.0
 40
0.8345065093800079
100
AcDbArc
 50
67.0143991326
 51
67.5491955301
  0
LINE
  5
2BF
330
1F
100
AcDbEntity
  8
0
  6
Continuous
 62
     7
370
     0
100
AcDbLine
 10
9.7096905476
 20
8.0737394214
 30
0.0
 11
9.7162176871
 21
8.0775074588
 31
0.0
  0
ARC
  5
2C0
330
1F
100
AcDbEntity
  8
0
  6
Continuous
 62
     7
370
     0
100
AcDbCircle
 10
9.3910008348
 20
7.3024820189
 30
0.0
 40
0.8345065091846073
100
AcDbArc
 50
67.0143991325
 51
67.5491955301
  0
LINE
  5
2C1
330
1F
100
AcDbEntity
  8
0
  6
Continuous
 62
     7
370
     0
100
AcDbLine
 10
9.7133739064
 20
8.0687098363
 30
0.0
 11
9.7168754448
 21
8.0707312314
 31
0.0
  0
SPLINE
  5
2C2
330
1F
100
AcDbEntity
  8
0
  6
Continuous
 62
     7
370
     0
100
AcDbSpline
210
0.0
220
0.0
230
1.0
 70
     8
 71
     3
 72
    11
 73
     7
 74
     0
 42
0.000000001
 43
0.00000001
 40
0.0
 40
0.0
 40
0.0
 40
0.0
 40
0.2514051028349996
 40
0.4995925313080953
 40
0.748476675180992
 40
1.0
 40
1.0
 40
1.0
 40
1.0
 10
9.701766028417573
 20
8.067673705597343
 30
0.0
 10
9.702589305620215
 20
8.067359422665664
 30
0.0
 10
9.704225323095589
 20
8.066734879235101
 30
0.0
 10
9.707607576993984
 20
8.066343873576136
 30
0.0
 10
9.710907167106628
 20
8.067357936286546
 30
0.0
 10
9.712548773965421
 20
8.068257621313533
 30
0.0
 10
9.713373906364522
 20
8.06870983632517
 30
0.0
  0
SPLINE
  5
2C3
330
1F
100
AcDbEntity
  8
0
  6
Continuous
 62
     7
370
     0
100
AcDbSpline
210
0.0
220
0.0
230
1.0
 70
     8
 71
     3
 72
     9
 73
     5
 74
     0
 42
0.000000001
 43
0.00000001
 40
0.0
 40
0.0
 40
0.0
 40
0.0
 40
0.5000055301934823
 40
1.0
 40
1.0
 40
1.0
 40
1.0
 10
9.69811257761102
 20
8.069539353925151
 30
0.0
 10
9.698675068604244
 20
8.069207056655996
 30
0.0
 10
9.69980003814809
 20
8.068542469468275
 30
0.0
 10
9.7011107031599
 20
8.06796329141901
 30
0.0
 10
9.701766028417573
 20
8.067673705597343
 30
0.0
  0
LINE
  5
2C4
330
1F
100
AcDbEntity
  8
0
  6
Continuous
 62
     7
370
     0
100
AcDbLine
 10
9.6909163617
 20
8.0663909957
 30
0.0
 11
9.6981125776
 21
8.0695393539
 31
0.0
  0
SPLINE
  5
2C5
330
1F
100
AcDbEntity
  8
0
  6
Continuous
 62
     7
370
     0
100
AcDbSpline
210
0.0
220
0.0
230
1.0
 70
     8
 71
     3
 72
     9
 73
     5
 74
     0
 42
0.000000001
 43
0.00000001
 40
0.0
 40
0.0
 40
0.0
 40
0.0
 40
0.4999614776741113
 40
1.0
 40
1.0
 40
1.0
 40
1.0
 10
9.696563270037206
 20
8.063354056850166
 30
0.0
 10
9.695534762693816
 20
8.063822566051794
 30
0.0
 10
9.693477589512845
 20
8.06475965665287
 30
0.0
 10
9.691770148127244
 20
8.06584718806642
 30
0.0
 10
9.690916361659829
 20
8.066390995667437
 30
0.0
  0
SPLINE
  5
2C6
330
1F
100
AcDbEntity
  8
0
  6
Continuous
 62
     7
370
     0
100
AcDbSpline
210
0.0
220
0.0
230
1.0
 70
     8
 71
     3
 72
    12
 73
     8
 74
     0
 42
0.000000001
 43
0.00000001
 40
0.0
 40
0.0
 40
0.0
 40
0.0
 40
0.1252020070481033
 40
0.2502889761809646
 40
0.4998446615956913
 40
0.7496271040880869
 40
1.0
 40
1.0
 40
1.0
 40
1.0
 10
9.713185155068176
 20
8.06213103634524
 30
0.0
 10
9.71245574954272
 20
8.06194369502235
 30
0.0
 10
9.710997608683066
 20
8.061569184509233
 30
0.0
 10
9.707900661122702
 20
8.061207959592918
 30
0.0
 10
9.704030445082406
 20
8.0612320241808
 30
0.0
 10
9.699940690003958
 20
8.062060704699217
 30
0.0
 10
9.697689962384173
 20
8.062922600299084
 30
0.0
 10
9.696563270037206
 20
8.063354056850166
 30
0.0
  0
SPLINE
  5
2C7
330
1F
100
AcDbEntity
  8
0
  6
Continuous
 62
     7
370
     0
100
AcDbSpline
210
0.0
220
0.0
230
1.0
 70
     8
 71
     3
 72
    10
 73
     6
 74
     0
 42
0.000000001
 43
0.00000001
 40
0.0
 40
0.0
 40
0.0
 40
0.0
 40
0.5000183278221643
 40
0.7500559199693885
 40
1.0
 40
1.0
 40
1.0
 40
1.0
 10
9.719865118327643
 20
8.065213519204878
 30
0.0
 10
9.718843280560051
 20
8.064647158491658
 30
0.0
 10
9.717310465812702
 20
8.063797585221739
 30
0.0
 10
9.715073298504608
 20
8.062755684726254
 30
0.0
 10
9.713814457732868
 20
8.0623392265087
 30
0.0
 10
9.713185155068176
 20
8.06213103634524
 30
0.0
  0
LINE
  5
2C8
330
1F
100
AcDbEntity
  8
0
  6
Continuous
 62
     7
370
     0
100
AcDbLine
 10
9.7240692308
 20
8.0676405017
 30
0.0
 11
9.7198651183
 21
8.0652135192
 31
0.0
  0
ARC
  5
2C9
330
1F
100
AcDbEntity
  8
0
  6
Continuous
 62
     7
370
     0
100
AcDbCircle
 10
9.3811722029
 20
7.2795817745
 30
0.0
 40
0.859427093527222
100
AcDbArc
 50
66.06584121
 51
66.4853671569
  0
LINE
  5
2CA
330
1F
100
AcDbEntity
  8
0
  6
Continuous
 62
     7
370
     0
100
AcDbLine
 10
9.7363573788
 20
8.068876707
 30
0.0
 11
9.7298302393
 21
8.0651086695
 31
0.0
  0
ARC
  5
2CB
330
1F
100
AcDbEntity
  8
0
  6
Continuous
 62
     7
370
     0
100
AcDbCircle
 10
9.3876993424
 20
7.2833498119
 30
0.0
 40
0.8594270936213262
100
AcDbArc
 50
66.06584121
 51
66.4853671568
  0
LINE
  5
2CC
330
1F
100
AcDbEntity
  8
0
  6
Continuous
 62
     7
370
     0
100
AcDbLine
 10
9.765407781
 20
8.0915047388
 30
0.0
 11
9.7305963703
 21
8.0714085391
 31
0.0
  0
ARC
  5
2CD
330
1F
100
AcDbEntity
  8
0
  6
Continuous
 62
     7
370
     0
100
AcDbCircle
 10
9.4272408727
 20
7.314326215
 30
0.0
 40
0.8475631632527882
100
AcDbArc
 50
66.4851172291
 51
67.0144070735
  0
LINE
  5
2CE
330
1F
100
AcDbEntity
  8
0
  6
Continuous
 62
     7
370
     0
100
AcDbLine
 10
9.7234025843
 20
8.0744992688
 30
0.0
 11
9.758213995
 21
8.0945954685
 31
0.0
  0
LINE
  5
2CF
330
1F
100
AcDbEntity
  8
0
  6
Continuous
 62
     7
370
     0
100
AcDbLine
 10
9.730330283
 20
8.0903356932
 30
0.0
 11
9.7230779058
 21
8.0861489849
 31
0.0
  0
ARC
  5
2D0
330
1F
100
AcDbEntity
  8
0
  6
Continuous
 62
     7
370
     0
100
AcDbCircle
 10
9.4339900681
 20
7.3609928948
 30
0.0
 40
0.7872473820318795
100
AcDbArc
 50
67.8875374089
 51
70.7231332177
  0
LINE
  5
2D1
330
1F
100
AcDbEntity
  8
0
  6
Continuous
 62
     7
370
     0
100
AcDbLine
 10
9.6866342712
 20
8.0999160089
 30
0.0
 11
9.6938866485
 21
8.1041027171
 31
0.0
  0
ARC
  5
2D2
330
1F
100
AcDbEntity
  8
0
  6
Continuous
 62
     7
370
     0
100
AcDbCircle
 10
9.4267376909
 20
7.3568061866
 30
0.0
 40
0.7872473820316863
100
AcDbArc
 50
67.8875374089
 51
70.7231332177
  0
SPLINE
  5
2D3
330
1F
100
AcDbEntity
  8
0
  6
Continuous
 62
     7
370
     0
100
AcDbSpline
210
0.0
220
0.0
230
1.0
 70
     8
 71
     3
 72
    16
 73
    12
 74
     0
 42
0.000000001
 43
0.00000001
 40
0.0
 40
0.0
 40
0.0
 40
0.0
 40
0.1252094946983481
 40
0.2504046739963602
 40
0.3833289736429398
 40
0.500637699951655
 40
0.6312680262732405
 40
0.7501982147432383
 40
0.8748506031236382
 40
0.9374183744277159
 40
1.0
 40
1.0
 40
1.0
 40
1.0
 10
9.596990152770594
 20
8.121066774204463
 30
0.0
 10
9.59861178971054
 20
8.121985992401008
 30
0.0
 10
9.601854878186103
 20
8.123824323698424
 30
0.0
 10
9.607164120182464
 20
8.126553468437791
 30
0.0
 10
9.612732625502318
 20
8.129104429137165
 30
0.0
 10
9.618850918896786
 20
8.13145810494541
 30
0.0
 10
9.625218160053954
 20
8.133333909372407
 30
0.0
 10
9.631944950664456
 20
8.134504437213062
 30
0.0
 10
9.636991974140166
 20
8.134571537034462
 30
0.0
 10
9.640590073476773
 20
8.134202068527086
 30
0.0
 10
9.64216745592817
 20
8.133859229131833
 30
0.0
 10
9.642956234463437
 20
8.13368779045773
 30
0.0
  0
SPLINE
  5
2D4
330
1F
100
AcDbEntity
  8
0
  6
Continuous
 62
     7
370
     0
100
AcDbSpline
210
0.0
220
0.0
230
1.0
 70
     8
 71
     3
 72
    15
 73
    11
 74
     0
 42
0.000000001
 43
0.00000001
 40
0.0
 40
0.0
 40
0.0
 40
0.0
 40
0.0626310590473299
 40
0.1252239280246657
 40
0.2500458433027659
 40
0.3746204791019454
 40
0.4996116293767697
 40
0.7494432638969596
 40
0.8747101358354901
 40
1.0
 40
1.0
 40
1.0
 40
1.0
 10
9.585662454244218
 20
8.100612795158247
 30
0.0
 10
9.584918242144301
 20
8.10081027361049
 30
0.0
 10
9.583430271737084
 20
8.101205110100027
 30
0.0
 10
9.581015474532466
 20
8.102258100174193
 30
0.0
 10
9.578975136271335
 20
8.10396735875952
 30
0.0
 10
9.578817241878053
 20
8.106638123706793
 30
0.0
 10
9.581723444384174
 20
8.110554877322606
 30
0.0
 10
9.586367407015068
 20
8.114494034131555
 30
0.0
 10
9.592242541198418
 20
8.118282973731974
 30
0.0
 10
9.595407518768956
 20
8.12013878394777
 30
0.0
 10
9.596990152770594
 20
8.121066774204463
 30
0.0
  0
SPLINE
  5
2D5
330
1F
100
AcDbEntity
  8
0
  6
Continuous
 62
     7
370
     0
100
AcDbSpline
210
0.0
220
0.0
230
1.0
 70
     8
 71
     3
 72
    17
 73
    13
 74
     0
 42
0.000000001
 43
0.00000001
 40
0.0
 40
0.0
 40
0.0
 40
0.0
 40
0.1251519328701927
 40
0.2502835494577229
 40
0.3838490249499381
 40
0.5004249589581667
 40
0.6316909228150069
 40
0.7498767247057038
 40
0.8123958244715489
 40
0.8749120167803739
 40
0.9374477308667474
 40
1.0
 40
1.0
 40
1.0
 40
1.0
 10
9.631792433701952
 20
8.112723111741305
 30
0.0
 10
9.630170739848644
 20
8.111803877314683
 30
0.0
 10
9.626927615396374
 20
8.109965557683479
 30
0.0
 10
9.621584458853858
 20
8.107260893037303
 30
0.0
 10
9.616014217030457
 20
8.10475055892726
 30
0.0
 10
9.609859893536951
 20
8.102475440608345
 30
0.0
 10
9.603469630385439
 20
8.100707054256638
 30
0.0
 10
9.597840180522399
 20
8.09986159586549
 30
0.0
 10
9.593699144108099
 20
8.099667650706607
 30
0.0
 10
9.59075914520468
 20
8.099795281951092
 30
0.0
 10
9.588029823089418
 20
8.100091382993298
 30
0.0
 10
9.586451646815032
 20
8.100438975768952
 30
0.0
 10
9.585662454244218
 20
8.100612795158247
 30
0.0
  0
SPLINE
  5
2D6
330
1F
100
AcDbEntity
  8
0
  6
Continuous
 62
     7
370
     0
100
AcDbSpline
210
0.0
220
0.0
230
1.0
 70
     8
 71
     3
 72
    12
 73
     8
 74
     0
 42
0.000000001
 43
0.00000001
 40
0.0
 40
0.0
 40
0.0
 40
0.0
 40
0.1249981962352775
 40
0.2500181853098276
 40
0.4998430509921692
 40
0.7498766505114263
 40
0.9999999999999999
 40
0.9999999999999999
 40
0.9999999999999999
 40
0.9999999999999999
 10
9.649661395965477
 20
8.127503473630846
 30
0.0
 10
9.649371326512584
 20
8.126878290272593
 30
0.0
 10
9.648791137034571
 20
8.125627814558351
 30
0.0
 10
9.64661578847676
 20
8.123073568424228
 30
0.0
 10
9.643006881003178
 20
8.119915941931744
 30
0.0
 10
9.637733076729898
 20
8.116245299731043
 30
0.0
 10
9.633772884921642
 20
8.113897314848181
 30
0.0
 10
9.631792433701952
 20
8.112723111741305
 30
0.0
  0
SPLINE
  5
2D7
330
1F
100
AcDbEntity
  8
0
  6
Continuous
 62
     7
370
     0
100
AcDbSpline
210
0.0
220
0.0
230
1.0
 70
     8
 71
     3
 72
    12
 73
     8
 74
     0
 42
0.000000001
 43
0.00000001
 40
0.0
 40
0.0
 40
0.0
 40
0.0
 40
0.2501121538982728
 40
0.500020905322529
 40
0.7497559520083961
 40
0.8748533096535168
 40
1.0
 40
1.0
 40
1.0
 40
1.0
 10
9.642956234463437
 20
8.13368779045773
 30
0.0
 10
9.644044208832543
 20
8.133382950057419
 30
0.0
 10
9.646219272780975
 20
8.132773517166745
 30
0.0
 10
9.648569645969005
 20
8.131382520816505
 30
0.0
 10
9.64957717673383
 20
8.129891596942025
 30
0.0
 10
9.649849048943691
 20
8.128567884880152
 30
0.0
 10
9.649723955178475
 20
8.127858324007837
 30
0.0
 10
9.649661395965477
 20
8.127503473630846
 30
0.0
  0
SPLINE
  5
2D8
330
1F
100
AcDbEntity
  8
0
  6
Continuous
 62
     7
370
     0
100
AcDbSpline
210
0.0
220
0.0
230
1.0
 70
     8
 71
     3
 72
    16
 73
    12
 74
     0
 42
0.000000001
 43
0.00000001
 40
0.0
 40
0.0
 40
0.0
 40
0.0
 40
0.0625970617098002
 40
0.125149703790332
 40
0.2500363750335462
 40
0.3752748441851594
 40
0.4995205038008961
 40
0.6423186562677585
 40
0.7853466580360503
 40
0.8840246588128803
 40
1.0
 40
1.0
 40
1.0
 40
1.0
 10
9.524344670913829
 20
8.126593893382038
 30
0.0
 10
9.524738709002667
 20
8.126565197506439
 30
0.0
 10
9.525526505566168
 20
8.126507826118182
 30
0.0
 10
9.527357320657034
 20
8.126554534821482
 30
0.0
 10
9.529929731255269
 20
8.126831354437504
 30
0.0
 10
9.533294919770263
 20
8.127520069382399
 30
0.0
 10
9.536842351764887
 20
8.128615537128546
 30
0.0
 10
9.54024265428764
 20
8.13002310703932
 30
0.0
 10
9.543097167162612
 20
8.131438554759475
 30
0.0
 10
9.545617684645247
 20
8.132779799582835
 30
0.0
 10
9.547045817809057
 20
8.13359659007287
 30
0.0
 10
9.547817425785984
 20
8.134037894899032
 30
0.0
  0
SPLINE
  5
2D9
330
1F
100
AcDbEntity
  8
0
  6
Continuous
 62
     7
370
     0
100
AcDbSpline
210
0.0
220
0.0
230
1.0
 70
     8
 71
     3
 72
    14
 73
    10
 74
     0
 42
0.000000001
 43
0.00000001
 40
0.0
 40
0.0
 40
0.0
 40
0.0
 40
0.1962429597023213
 40
0.3614928809179176
 40
0.5004684503040964
 40
0.6266180396415314
 40
0.7498473153959136
 40
0.8499254015606831
 40
1.0
 40
1.0
 40
1.0
 40
1.0
 10
9.527106998960996
 20
8.13244580389486
 30
0.0
 10
9.52627022097017
 20
8.131945501587289
 30
0.0
 10
9.52472881899045
 20
8.131023910704393
 30
0.0
 10
9.522949388837283
 20
8.129739628344002
 30
0.0
 10
9.521832933543037
 20
8.128663919795994
 30
0.0
 10
9.52145398294916
 20
8.127792230152464
 30
0.0
 10
9.521842448368647
 20
8.12720778678839
 30
0.0
 10
9.522803977852039
 20
8.126794045892872
 30
0.0
 10
9.523766951946724
 20
8.126668945256217
 30
0.0
 10
9.524344670913829
 20
8.126593893382038
 30
0.0
  0
LINE
  5
2DA
330
1F
100
AcDbEntity
  8
0
  6
Continuous
 62
     7
370
     0
100
AcDbLine
 10
9.5534761893
 20
8.1476684135
 30
0.0
 11
9.527106999
 21
8.1324458039
 31
0.0
  0
ARC
  5
2DB
330
1F
100
AcDbEntity
  8
0
  6
Continuous
 62
     7
370
     0
100
AcDbCircle
 10
9.5110456219
 20
7.6256722351
 30
0.0
 40
0.5237178279392732
100
AcDbArc
 50
85.3529175915
 51
86.0825049025
  0
LINE
  5
2DC
330
1F
100
AcDbEntity
  8
0
  6
Continuous
 62
     7
370
     0
100
AcDbLine
 10
9.523244428
 20
8.1345530339
 30
0.0
 11
9.5468259859
 21
8.1481663775
 31
0.0
  0
SPLINE
  5
2DD
330
1F
100
AcDbEntity
  8
0
  6
Continuous
 62
     7
370
     0
100
AcDbSpline
210
0.0
220
0.0
230
1.0
 70
     8
 71
     3
 72
    13
 73
     9
 74
     0
 42
0.000000001
 43
0.00000001
 40
0.0
 40
0.0
 40
0.0
 40
0.0
 40
0.1431483331898703
 40
0.2861300558850456
 40
0.4997986267800767
 40
0.7490771388913443
 40
0.8745090927370418
 40
1.0
 40
1.0
 40
1.0
 40
1.0
 10
9.502478662725116
 20
8.12817910829782
 30
0.0
 10
9.50328474057856
 20
8.128167350157224
 30
0.0
 10
9.504895958090586
 20
8.128143847561342
 30
0.0
 10
9.508476538552507
 20
8.128632991359554
 30
0.0
 10
9.51335317690608
 20
8.129834530458556
 30
0.0
 10
9.51777912393335
 20
8.13166953716897
 30
0.0
 10
9.52102040658084
 20
8.133296912818553
 30
0.0
 10
9.522502971425668
 20
8.134134261303375
 30
0.0
 10
9.523244428009704
 20
8.134553033911784
 30
0.0
  0
SPLINE
  5
2DE
330
1F
100
AcDbEntity
  8
0
  6
Continuous
 62
     7
370
     0
100
AcDbSpline
210
0.0
220
0.0
230
1.0
 70
     8
 71
     3
 72
    14
 73
    10
 74
     0
 42
0.000000001
 43
0.00000001
 40
0.0
 40
0.0
 40
0.0
 40
0.0
 40
0.2504938292205812
 40
0.3757028501511446
 40
0.5005307050945943
 40
0.6429117438464518
 40
0.7855348750382747
 40
0.8927018362619338
 40
1.0
 40
1.0
 40
1.0
 40
1.0
 10
9.506070309828907
 20
8.134222577581157
 30
0.0
 10
9.504915461770475
 20
8.133545453227487
 30
0.0
 10
9.503183364383506
 20
8.132529869129577
 30
0.0
 10
9.501162471205664
 20
8.131177608386372
 30
0.0
 10
9.500002856931344
 20
8.13014725601452
 30
0.0
 10
9.499685411612152
 20
8.129244179644417
 30
0.0
 10
9.500178790039906
 20
8.128629486586128
 30
0.0
 10
9.501167174975345
 20
8.128282918175062
 30
0.0
 10
9.502041321884015
 20
8.128213725700107
 30
0.0
 10
9.502478662725116
 20
8.12817910829782
 30
0.0
  0
LINE
  5
2DF
330
1F
100
AcDbEntity
  8
0
  6
Continuous
 62
     7
370
     0
100
AcDbLine
 10
9.5316349396
 20
8.1489807242
 30
0.0
 11
9.5060703098
 21
8.1342225776
 31
0.0
  0
ARC
  5
2E0
330
1F
100
AcDbEntity
  8
0
  6
Continuous
 62
     7
370
     0
100
AcDbCircle
 10
9.5123845456
 20
7.6505347348
 30
0.0
 40
0.4988175839321721
100
AcDbArc
 50
87.7882890774
 51
88.541958813
  0
LINE
  5
2E1
330
1F
100
AcDbEntity
  8
0
  6
Continuous
 62
     7
370
     0
100
AcDbLine
 10
9.4968379517
 20
8.1328888197
 30
0.0
 11
9.5250768956
 21
8.149190815
 31
0.0
  0
SPLINE
  5
2E2
330
1F
100
AcDbEntity
  8
0
  6
Continuous
 62
     7
370
     0
100
AcDbSpline
210
0.0
220
0.0
230
1.0
 70
     8
 71
     3
 72
    13
 73
     9
 74
     0
 42
0.000000001
 43
0.00000001
 40
0.0
 40
0.0
 40
0.0
 40
0.0
 40
0.1255997205531129
 40
0.2510728045682519
 40
0.4995957155071181
 40
0.7487890782142448
 40
0.849280166276968
 40
1.0
 40
1.0
 40
1.0
 40
1.0
 10
9.494364245282346
 20
8.124489938446414
 30
0.0
 10
9.493588486310914
 20
8.124547335195382
 30
0.0
 10
9.492037750530857
 20
8.124662070822767
 30
0.0
 10
9.489719600951311
 20
8.125262514946892
 30
0.0
 10
9.488677193445792
 20
8.126828137682626
 30
0.0
 10
9.49114647328087
 20
8.129212892793891
 30
0.0
 10
9.494062179400002
 20
8.131240168915099
 30
0.0
 10
9.49579706608747
 20
8.132270592855548
 30
0.0
 10
9.496837951695486
 20
8.132888819658207
 30
0.0
  0
SPLINE
  5
2E3
330
1F
100
AcDbEntity
  8
0
  6
Continuous
 62
     7
370
     0
100
AcDbSpline
210
0.0
220
0.0
230
1.0
 70
     8
 71
     3
 72
    13
 73
     9
 74
     0
 42
0.000000001
 43
0.00000001
 40
0.0
 40
0.0
 40
0.0
 40
0.0
 40
0.1252111800123836
 40
0.2503709188547507
 40
0.5001800844950594
 40
0.7497098314791293
 40
0.8748093757729348
 40
0.9999999999999999
 40
0.9999999999999999
 40
0.9999999999999999
 40
0.9999999999999999
 10
9.513471164802134
 20
8.128240161864438
 30
0.0
 10
9.512611457244793
 20
8.127952938326462
 30
0.0
 10
9.510892395328307
 20
8.127378609252071
 30
0.0
 10
9.507416071293228
 20
8.126339133564969
 30
0.0
 10
9.503060547995924
 20
8.125252096431934
 30
0.0
 10
9.499000721336264
 20
8.124620959500534
 30
0.0
 10
9.496193829278393
 20
8.124449278407686
 30
0.0
 10
9.494974254547706
 20
8.124476381812551
 30
0.0
 10
9.494364245282346
 20
8.124489938446414
 30
0.0
  0
SPLINE
  5
2E4
330
1F
100
AcDbEntity
  8
0
  6
Continuous
 62
     7
370
     0
100
AcDbSpline
210
0.0
220
0.0
230
1.0
 70
     8
 71
     3
 72
    13
 73
     9
 74
     0
 42
0.000000001
 43
0.00000001
 40
0.0
 40
0.0
 40
0.0
 40
0.0
 40
0.1253429328899749
 40
0.2505898065604614
 40
0.5000565154177815
 40
0.7494697823308855
 40
0.8746743889016471
 40
1.0
 40
1.0
 40
1.0
 40
1.0
 10
9.515895531597613
 20
8.12300198347672
 30
0.0
 10
9.515356741138563
 20
8.123061438573519
 30
0.0
 10
9.514279573133978
 20
8.12318030320244
 30
0.0
 10
9.512515886670409
 20
8.123609939986192
 30
0.0
 10
9.511130300834854
 20
8.12451505729877
 30
0.0
 10
9.511329240420599
 20
8.125925447891
 30
0.0
 10
9.512319001085356
 20
8.1272149503652
 30
0.0
 10
9.51308698658581
 20
8.127898314677797
 30
0.0
 10
9.513471164802134
 20
8.128240161864438
 30
0.0
  0
SPLINE
  5
2E5
330
1F
100
AcDbEntity
  8
0
  6
Continuous
 62
     7
370
     0
100
AcDbSpline
210
0.0
220
0.0
230
1.0
 70
     8
 71
     3
 72
    13
 73
     9
 74
     0
 42
0.000000001
 43
0.00000001
 40
0.0
 40
0.0
 40
0.0
 40
0.0
 40
0.1251971558968229
 40
0.250337871023284
 40
0.5001340654709721
 40
0.749701295131784
 40
0.8748025018892628
 40
1.0
 40
1.0
 40
1.0
 40
1.0
 10
9.533981249827189
 20
8.126050440535767
 30
0.0
 10
9.533172500466152
 20
8.125784406926696
 30
0.0
 10
9.531555366340514
 20
8.12525245964053
 30
0.0
 10
9.528258215475555
 20
8.124340842332051
 30
0.0
 10
9.524141595319582
 20
8.123431000020108
 30
0.0
 10
9.520293456637132
 20
8.122949845188515
 30
0.0
 10
9.517634378384802
 20
8.12288956394027
 30
0.0
 10
9.516475295828586
 20
8.12296450068837
 30
0.0
 10
9.515895531597613
 20
8.12300198347672
 30
0.0
  0
LINE
  5
2E6
330
1F
100
AcDbEntity
  8
0
  6
Continuous
 62
     7
370
     0
100
AcDbLine
 10
9.5275334332
 20
8.1223281952
 30
0.0
 11
9.5339812498
 21
8.1260504405
 31
0.0
  0
ARC
  5
2E7
330
1F
100
AcDbEntity
  8
0
  6
Continuous
 62
     7
370
     0
100
AcDbCircle
 10
9.4671206227
 20
7.5748885082
 30
0.0
 40
0.5507630330316998
100
AcDbArc
 50
82.9970916264
 51
83.702594717
  0
LINE
  5
2E8
330
1F
100
AcDbEntity
  8
0
  6
Continuous
 62
     7
370
     0
100
AcDbLine
 10
9.5756080508
 20
8.1454070664
 30
0.0
 11
9.5342695005
 21
8.1215428293
 31
0.0
  0
ARC
  5
2E9
330
1F
100
AcDbEntity
  8
0
  6
Continuous
 62
     7
370
     0
100
AcDbCircle
 10
9.5084591729
 20
7.5987527453
 30
0.0
 40
0.5507630330453277
100
AcDbArc
 50
82.9970916264
 51
83.702594717
  0
LINE
  5
2EA
330
1F
100
AcDbEntity
  8
0
  6
Continuous
 62
     7
370
     0
100
AcDbLine
 10
9.5478174258
 20
8.1340378949
 30
0.0
 11
9.5688719835
 21
8.1461924323
 31
0.0
  0
LINE
  5
2EB
330
1F
100
AcDbEntity
  8
0
  6
Continuous
 62
     7
370
     0
100
AcDbLine
 10
9.4461807746
 20
8.1512066964
 30
0.0
 11
9.3898048734
 21
8.1186615814
 31
0.0
  0
ARC
  5
2EC
330
1F
100
AcDbEntity
  8
0
  6
Continuous
 62
     7
370
     0
100
AcDbCircle
 10
9.5227866418
 20
7.749227641
 30
0.0
 40
0.409213416082676
100
AcDbArc
 50
100.7895833263
 51
101.2478126769
  0
LINE
  5
2ED
330
1F
100
AcDbEntity
  8
0
  6
Continuous
 62
     7
370
     0
100
AcDbLine
 10
9.3865924855
 20
8.1180360684
 30
0.0
 11
9.4429683867
 21
8.1505811835
 31
0.0
  0
SPLINE
  5
2EE
330
1F
100
AcDbEntity
  8
0
  6
Continuous
 62
     7
370
     0
100
AcDbSpline
210
0.0
220
0.0
230
1.0
 70
     8
 71
     3
 72
    12
 73
     8
 74
     0
 42
0.000000001
 43
0.00000001
 40
0.0
 40
0.0
 40
0.0
 40
0.0
 40
0.2500197623417155
 40
0.5000174565970829
 40
0.700007382725388
 40
0.8500145534344863
 40
1.0
 40
1.0
 40
1.0
 40
1.0
 10
9.384369391198264
 20
8.120320593622932
 30
0.0
 10
9.38472900832654
 20
8.120220009877261
 30
0.0
 10
9.385448210841354
 20
8.12001885126398
 30
0.0
 10
9.386167571354546
 20
8.119578759271318
 30
0.0
 10
9.386566378010023
 20
8.119091477374155
 30
0.0
 10
9.38672144701139
 20
8.118599176700352
 30
0.0
 10
9.386635470606823
 20
8.118223762115987
 30
0.0
 10
9.386592485517557
 20
8.11803606841674
 30
0.0
  0
LINE
  5
2EF
330
1F
100
AcDbEntity
  8
0
  6
Continuous
 62
     7
370
     0
100
AcDbLine
 10
9.3814231129
 20
8.1186197434
 30
0.0
 11
9.3843693912
 21
8.1203205936
 31
0.0
  0
SPLINE
  5
2F0
330
1F
100
AcDbEntity
  8
0
  6
Continuous
 62
     7
370
     0
100
AcDbSpline
210
0.0
220
0.0
230
1.0
 70
     8
 71
     3
 72
    11
 73
     7
 74
     0
 42
0.000000001
 43
0.00000001
 40
0.0
 40
0.0
 40
0.0
 40
0.0
 40
0.1250486697797324
 40
0.2500820807313204
 40
0.5000562481132586
 40
1.0
 40
1.0
 40
1.0
 40
1.0
 10
9.376329900674033
 20
8.111740048739126
 30
0.0
 10
9.376780052297974
 20
8.112121299850171
 30
0.0
 10
9.377680300616955
 20
8.112883755550817
 30
0.0
 10
9.379087911845103
 20
8.114265855503403
 30
0.0
 10
9.380827153666296
 20
8.116407501029133
 30
0.0
 10
9.381184729669553
 20
8.117734848067965
 30
0.0
 10
9.381423112943322
 20
8.118619743389969
 30
0.0
  0
ARC
  5
2F1
330
1F
100
AcDbEntity
  8
0
  6
Continuous
 62
     7
370
     0
100
AcDbCircle
 10
9.4551827836
 20
7.710122159
 30
0.0
 40
0.4092856050795892
100
AcDbArc
 50
100.8984428834
 51
101.1080479608
  0
SPLINE
  5
2F2
330
1F
100
AcDbEntity
  8
0
  6
Continuous
 62
     7
370
     0
100
AcDbSpline
210
0.0
220
0.0
230
1.0
 70
     8
 71
     3
 72
    11
 73
     7
 74
     0
 42
0.000000001
 43
0.00000001
 40
0.0
 40
0.0
 40
0.0
 40
0.0
 40
0.4999651355568726
 40
0.6999694370052233
 40
0.8499895917083066
 40
1.0
 40
1.0
 40
1.0
 40
1.0
 10
9.404251484881197
 20
8.123051855585945
 30
0.0
 10
9.399826838983111
 20
8.121349117819221
 30
0.0
 10
9.393632173239508
 20
8.118965222800991
 30
0.0
 10
9.386085529070385
 20
8.115773121536034
 30
0.0
 10
9.38167062443567
 20
8.113834601845342
 30
0.0
 10
9.37908995570921
 20
8.11262873958714
 30
0.0
 10
9.377799663262142
 20
8.112025828044095
 30
0.0
  0
LINE
  5
2F3
330
1F
100
AcDbEntity
  8
0
  6
Continuous
 62
     7
370
     0
100
AcDbLine
 10
9.4071524358
 20
8.1247265389
 30
0.0
 11
9.4042514849
 21
8.1230518556
 31
0.0
  0
SPLINE
  5
2F4
330
1F
100
AcDbEntity
  8
0
  6
Continuous
 62
     7
370
     0
100
AcDbSpline
210
0.0
220
0.0
230
1.0
 70
     8
 71
     3
 72
    11
 73
     7
 74
     0
 42
0.000000001
 43
0.00000001
 40
0.0
 40
0.0
 40
0.0
 40
0.0
 40
0.3023087415124333
 40
0.4999876043954477
 40
0.7020377215329101
 40
1.0
 40
1.0
 40
1.0
 40
1.0
 10
9.38980487341007
 20
8.118661581383531
 30
0.0
 10
9.391601342518548
 20
8.119338232369184
 30
0.0
 10
9.394572517885248
 20
8.120457343591823
 30
0.0
 10
9.39871443591792
 20
8.121961729240656
 30
0.0
 10
9.40267570758356
 20
8.123286712756107
 30
0.0
 10
9.4054808336883
 20
8.124188910456082
 30
0.0
 10
9.407152435778373
 20
8.124726538892249
 30
0.0
  0
ARC
  5
2F5
330
1F
100
AcDbEntity
  8
0
  6
Continuous
 62
     7
370
     0
100
AcDbCircle
 10
9.0610958595
 20
6.8116167338
 30
0.0
 40
1.391052789451256
100
AcDbArc
 50
49.2627137009
 51
50.6702001199
  0
LINE
  5
2F6
330
1F
100
AcDbEntity
  8
0
  6
Continuous
 62
     7
370
     0
100
AcDbLine
 10
9.9188438718
 20
7.8367427922
 30
0.0
 11
9.9688852748
 21
7.8656310793
 31
0.0
  0
ARC
  5
2F7
330
1F
100
AcDbEntity
  8
0
  6
Continuous
 62
     7
370
     0
100
AcDbCircle
 10
8.9886614542
 20
6.7565729777
 30
0.0
 40
1.425484534580258
100
AcDbArc
 50
48.8551120033
 51
49.2667910816
  0
LINE
  5
2F8
330
1F
100
AcDbEntity
  8
0
  6
Continuous
 62
     7
370
     0
100
AcDbLine
 10
9.9831495246
 20
7.8626877865
 30
0.0
 11
9.9265809821
 21
7.830031462
 31
0.0
  0
ARC
  5
2F9
330
1F
100
AcDbEntity
  8
0
  6
Continuous
 62
     7
370
     0
100
AcDbCircle
 10
9.062578232
 20
6.8093445438
 30
0.0
 40
1.398922260758712
100
AcDbArc
 50
48.8481051926
 51
50.6671698674
  0
LINE
  5
2FA
330
1F
100
AcDbEntity
  8
0
  6
Continuous
 62
     7
370
     0
100
AcDbLine
 10
9.9427218394
 20
7.8876109227
 30
0.0
 11
9.9492489789
 21
7.8913789602
 31
0.0
  0
SPLINE
  5
2FB
330
1F
100
AcDbEntity
  8
0
  6
Continuous
 62
     7
370
     0
100
AcDbSpline
210
0.0
220
0.0
230
1.0
 70
     8
 71
     3
 72
    13
 73
     9
 74
     0
 42
0.000000001
 43
0.00000001
 40
0.0
 40
0.0
 40
0.0
 40
0.0
 40
0.1250710524897536
 40
0.2501213755201643
 40
0.50007145957512
 40
0.7499678126074915
 40
0.8749906036692483
 40
0.9999999999999999
 40
0.9999999999999999
 40
0.9999999999999999
 40
0.9999999999999999
 10
9.84461094803464
 20
7.914834460427984
 30
0.0
 10
9.843414232932322
 20
7.915167666337751
 30
0.0
 10
9.841021001073
 20
7.915834022931246
 30
0.0
 10
9.836133418191386
 20
7.916936450720562
 30
0.0
 10
9.829885574655904
 20
7.917904541265285
 30
0.0
 10
9.823576237764492
 20
7.91828183498885
 30
0.0
 10
9.818560335364936
 20
7.918198115674093
 30
0.0
 10
9.816143446235925
 20
7.917876879830743
 30
0.0
 10
9.814935066410246
 20
7.917716270513697
 30
0.0
  0
LINE
  5
2FC
330
1F
100
AcDbEntity
  8
0
  6
Continuous
 62
     7
370
     0
100
AcDbLine
 10
9.8512967333
 20
7.9186940821
 30
0.0
 11
9.844610948
 21
7.9148344604
 31
0.0
  0
SPLINE
  5
2FD
330
1F
100
AcDbEntity
  8
0
  6
Continuous
 62
     7
370
     0
100
AcDbSpline
210
0.0
220
0.0
230
1.0
 70
     8
 71
     3
 72
    13
 73
     9
 74
     0
 42
0.000000001
 43
0.00000001
 40
0.0
 40
0.0
 40
0.0
 40
0.0
 40
0.125013171967467
 40
0.2500192439134404
 40
0.4999856528643402
 40
0.7500043584872093
 40
0.8671891874064002
 40
1.0
 40
1.0
 40
1.0
 40
1.0
 10
9.82999164560231
 20
7.923123749031353
 30
0.0
 10
9.830907133082144
 20
7.923055829364743
 30
0.0
 10
9.832738056047445
 20
7.922919993888967
 30
0.0
 10
9.836376936168826
 20
7.92242356388367
 30
0.0
 10
9.840873115626977
 20
7.921586376914424
 30
0.0
 10
9.845237132997122
 20
7.920544483590263
 30
0.0
 10
9.848705965221042
 20
7.919559818055204
 30
0.0
 10
9.850397892622814
 20
7.918994440406628
 30
0.0
 10
9.851296733305475
 20
7.91869408211048
 30
0.0
  0
LINE
  5
2FE
330
1F
100
AcDbEntity
  8
0
  6
Continuous
 62
     7
370
     0
100
AcDbLine
 10
9.874072501
 20
7.9485710852
 30
0.0
 11
9.8299916456
 21
7.923123749
 31
0.0
  0
ARC
  5
2FF
330
1F
100
AcDbEntity
  8
0
  6
Continuous
 62
     7
370
     0
100
AcDbCircle
 10
9.1828904005
 20
6.9657040019
 30
0.0
 40
1.201565811604806
100
AcDbArc
 50
54.883944456
 51
55.3033584563
  0
LINE
  5
300
330
1F
100
AcDbEntity
  8
0
  6
Continuous
 62
     7
370
     0
100
AcDbLine
 10
9.8102907649
 20
7.9209479426
 30
0.0
 11
9.8668593074
 21
7.9536042671
 31
0.0
  0
ARC
  5
301
330
1F
100
AcDbEntity
  8
0
  6
Continuous
 62
     7
370
     0
100
AcDbCircle
 10
9.1278361747
 20
6.9352255646
 30
0.0
 40
1.198913205499976
100
AcDbArc
 50
55.033216568
 51
55.3036124774
  0
SPLINE
  5
302
330
1F
100
AcDbEntity
  8
0
  6
Continuous
 62
     7
370
     0
100
AcDbSpline
210
0.0
220
0.0
230
1.0
 70
     8
 71
     3
 72
    12
 73
     8
 74
     0
 42
0.000000001
 43
0.00000001
 40
0.0
 40
0.0
 40
0.0
 40
0.0
 40
0.2000228332343866
 40
0.5000551798482734
 40
0.750035832297447
 40
0.8749976284370009
 40
1.0
 40
1.0
 40
1.0
 40
1.0
 10
9.768478512156435
 20
7.994325113796743
 30
0.0
 10
9.769926451310337
 20
7.99424471045858
 30
0.0
 10
9.773546285417801
 20
7.994043702878215
 30
0.0
 10
9.778980488250143
 20
7.993768243469376
 30
0.0
 10
9.783884812718997
 20
7.993555335164111
 30
0.0
 10
9.78752560900545
 20
7.993628572586818
 30
0.0
 10
9.789324554216748
 20
7.993777370915232
 30
0.0
 10
9.790224172829252
 20
7.99385178215628
 30
0.0
  0
SPLINE
  5
303
330
1F
100
AcDbEntity
  8
0
  6
Continuous
 62
     7
370
     0
100
AcDbSpline
210
0.0
220
0.0
230
1.0
 70
     8
 71
     3
 72
    14
 73
    10
 74
     0
 42
0.000000001
 43
0.00000001
 40
0.0
 40
0.0
 40
0.0
 40
0.0
 40
0.0625299365906808
 40
0.1250430253688299
 40
0.2499269153538144
 40
0.3671601779452187
 40
0.4999054098792338
 40
0.7498533557526773
 40
1.0
 40
1.0
 40
1.0
 40
1.0
 10
9.729578250798587
 20
7.989721875958915
 30
0.0
 10
9.730199573774179
 20
7.990061136960414
 30
0.0
 10
9.731442052318618
 20
7.990739567554304
 30
0.0
 10
9.734214945913015
 20
7.991905479326231
 30
0.0
 10
9.737912070549546
 20
7.993066530201333
 30
0.0
 10
9.742840094682553
 20
7.993952708645539
 30
0.0
 10
9.749589709385251
 20
7.99466382774776
 30
0.0
 10
9.758268054139018
 20
7.994718124222042
 30
0.0
 10
9.765074124751047
 20
7.994456151967587
 30
0.0
 10
9.768478512156435
 20
7.994325113796743
 30
0.0
  0
SPLINE
  5
304
330
1F
100
AcDbEntity
  8
0
  6
Continuous
 62
     7
370
     0
100
AcDbSpline
210
0.0
220
0.0
230
1.0
 70
     8
 71
     3
 72
    15
 73
    11
 74
     0
 42
0.000000001
 43
0.00000001
 40
0.0
 40
0.0
 40
0.0
 40
0.0
 40
0.1252724422777206
 40
0.2505060303586191
 40
0.3775601453661369
 40
0.5007942874420764
 40
0.7495930121837967
 40
0.8746823730960813
 40
0.9373324602671557
 40
1.0
 40
1.0
 40
1.0
 40
1.0
 10
9.731366727567512
 20
7.970932124913539
 30
0.0
 10
9.730307469260113
 20
7.971580333683494
 30
0.0
 10
9.728189281182305
 20
7.972876550176541
 30
0.0
 10
9.725642530108257
 20
7.975115000712533
 30
0.0
 10
9.723820846176308
 20
7.977553471217354
 30
0.0
 10
9.722748524704432
 20
7.981007194521492
 30
0.0
 10
9.723574554245367
 20
7.984589935202468
 30
0.0
 10
9.726139749680552
 20
7.987320763557147
 30
0.0
 10
9.727967098101013
 20
7.98875606434216
 30
0.0
 10
9.729041150039537
 20
7.989399908864647
 30
0.0
 10
9.729578250798587
 20
7.989721875958915
 30
0.0
  0
SPLINE
  5
305
330
1F
100
AcDbEntity
  8
0
  6
Continuous
 62
     7
370
     0
100
AcDbSpline
210
0.0
220
0.0
230
1.0
 70
     8
 71
     3
 72
    15
 73
    11
 74
     0
 42
0.000000001
 43
0.00000001
 40
0.0
 40
0.0
 40
0.0
 40
0.0
 40
0.1251021374433003
 40
0.2501334280050987
 40
0.3753610103821088
 40
0.4999414506619567
 40
0.6224565897849635
 40
0.7498368597279895
 40
0.8748895829217878
 40
1.0
 40
1.0
 40
1.0
 40
1.0
 10
9.76545170202698
 20
7.96948159534874
 30
0.0
 10
9.764191565452613
 20
7.968922036423015
 30
0.0
 10
9.761672005934745
 20
7.967803235456675
 30
0.0
 10
9.757387418696414
 20
7.966571638184349
 30
0.0
 10
9.752766061002253
 20
7.965848753472916
 30
0.0
 10
9.74798947788852
 20
7.965794204369737
 30
0.0
 10
9.743272779252285
 20
7.966351418917028
 30
0.0
 10
9.738873590487648
 20
7.96749153469654
 30
0.0
 10
9.73485492264312
 20
7.969051220951245
 30
0.0
 10
9.732529638015667
 20
7.970305060537173
 30
0.0
 10
9.731366727567512
 20
7.970932124913539
 30
0.0
  0
SPLINE
  5
306
330
1F
100
AcDbEntity
  8
0
  6
Continuous
 62
     7
370
     0
100
AcDbSpline
210
0.0
220
0.0
230
1.0
 70
     8
 71
     3
 72
     8
 73
     4
 74
     0
 42
0.000000001
 43
0.00000001
 40
0.0
 40
0.0
 40
0.0
 40
0.0
 40
1.0
 40
1.0
 40
1.0
 40
1.0
 10
9.75892555420893
 20
7.974223046767876
 30
0.0
 10
9.7611011031907
 20
7.972655479882535
 30
0.0
 10
9.763276520819812
 20
7.971074975197781
 30
0.0
 10
9.76545170202698
 20
7.969481595348742
 30
0.0
  0
SPLINE
  5
307
330
1F
100
AcDbEntity
  8
0
  6
Continuous
 62
     7
370
     0
100
AcDbSpline
210
0.0
220
0.0
230
1.0
 70
     8
 71
     3
 72
    13
 73
     9
 74
     0
 42
0.000000001
 43
0.00000001
 40
0.0
 40
0.0
 40
0.0
 40
0.0
 40
0.1434367694921578
 40
0.2509936148446254
 40
0.5003246652995299
 40
0.7490693331464382
 40
0.8744679563985832
 40
1.0
 40
1.0
 40
1.0
 40
1.0
 10
9.738052512443952
 20
7.97460898668951
 30
0.0
 10
9.738880392369403
 20
7.974170093856636
 30
0.0
 10
9.740329062580548
 20
7.973402094834888
 30
0.0
 10
9.74365781538553
 20
7.972189546320568
 30
0.0
 10
9.748373992762673
 20
7.971389513236648
 30
0.0
 10
9.753346501453292
 20
7.971934137629241
 30
0.0
 10
9.756750253075964
 20
7.973071012245359
 30
0.0
 10
9.758200196851918
 20
7.973838899164687
 30
0.0
 10
9.75892555420893
 20
7.974223046767876
 30
0.0
  0
SPLINE
  5
308
330
1F
100
AcDbEntity
  8
0
  6
Continuous
 62
     7
370
     0
100
AcDbSpline
210
0.0
220
0.0
230
1.0
 70
     8
 71
     3
 72
    14
 73
    10
 74
     0
 42
0.000000001
 43
0.00000001
 40
0.0
 40
0.0
 40
0.0
 40
0.0
 40
0.1251797946203149
 40
0.2502291347126208
 40
0.499146275415027
 40
0.6243071863565788
 40
0.7494533418553337
 40
0.8496883195654231
 40
1.0
 40
1.0
 40
1.0
 40
1.0
 10
9.736897135615958
 20
7.985743148598817
 30
0.0
 10
9.736289234643403
 20
7.985351743004471
 30
0.0
 10
9.735074066214544
 20
7.984569339714132
 30
0.0
 10
9.733447979091512
 20
7.982689586475962
 30
0.0
 10
9.733017714055864
 20
7.980566160947211
 30
0.0
 10
9.733689092305234
 20
7.978528127292796
 30
0.0
 10
9.73463971567697
 20
7.977171649739901
 30
0.0
 10
9.736087627037469
 20
7.975844191832149
 30
0.0
 10
9.737315730396817
 20
7.975072157198397
 30
0.0
 10
9.738052512443952
 20
7.97460898668951
 30
0.0
  0
SPLINE
  5
309
330
1F
100
AcDbEntity
  8
0
  6
Continuous
 62
     7
370
     0
100
AcDbSpline
210
0.0
220
0.0
230
1.0
 70
     8
 71
     3
 72
    13
 73
     9
 74
     0
 42
0.000000001
 43
0.00000001
 40
0.0
 40
0.0
 40
0.0
 40
0.0
 40
0.5001432452252202
 40
0.6252060662519704
 40
0.7501818330517676
 40
0.8750463541865674
 40
0.9250606856153217
 40
0.9999999999999999
 40
0.9999999999999999
 40
0.9999999999999999
 40
0.9999999999999999
 10
9.771832715195679
 20
7.988452073788937
 30
0.0
 10
9.765805730737334
 20
7.988718427685669
 30
0.0
 10
9.75827167468332
 20
7.989051384440749
 30
0.0
 10
9.749215699033744
 20
7.988778445190531
 30
0.0
 10
9.744738041449418
 20
7.988314189090092
 30
0.0
 10
9.741316049100906
 20
7.987565227693412
 30
0.0
 10
9.738704639995921
 20
7.98667344735299
 30
0.0
 10
9.737574763976896
 20
7.986091915012309
 30
0.0
 10
9.736897135615958
 20
7.985743148598817
 30
0.0
  0
SPLINE
  5
30A
330
1F
100
AcDbEntity
  8
0
  6
Continuous
 62
     7
370
     0
100
AcDbSpline
210
0.0
220
0.0
230
1.0
 70
     8
 71
     3
 72
    13
 73
     9
 74
     0
 42
0.000000001
 43
0.00000001
 40
0.0
 40
0.0
 40
0.0
 40
0.0
 40
0.125024798091024
 40
0.2500355982295805
 40
0.4998462717381775
 40
0.6998564448699466
 40
0.8499253812223907
 40
1.0
 40
1.0
 40
1.0
 40
1.0
 10
9.800999689822017
 20
7.990043076313536
 30
0.0
 10
9.799872463985121
 20
7.989749991756237
 30
0.0
 10
9.797618138517121
 20
7.9891638554558
 30
0.0
 10
9.792844567601314
 20
7.988402822153615
 30
0.0
 10
9.78718374188076
 20
7.987937450661925
 30
0.0
 10
9.781225098053863
 20
7.987973741909181
 30
0.0
 10
9.776270121645446
 20
7.988147397941741
 30
0.0
 10
9.77331186934783
 20
7.988350513891384
 30
0.0
 10
9.771832715195679
 20
7.988452073788937
 30
0.0
  0
SPLINE
  5
30B
330
1F
100
AcDbEntity
  8
0
  6
Continuous
 62
     7
370
     0
100
AcDbSpline
210
0.0
220
0.0
230
1.0
 70
     8
 71
     3
 72
    10
 73
     6
 74
     0
 42
0.000000001
 43
0.00000001
 40
0.0
 40
0.0
 40
0.0
 40
0.0
 40
0.4997743808251658
 40
0.7498615325680028
 40
1.0
 40
1.0
 40
1.0
 40
1.0
 10
9.80679008552434
 20
7.992490628576027
 30
0.0
 10
9.805915998878215
 20
7.992010910845361
 30
0.0
 10
9.804604519184156
 20
7.991291142312759
 30
0.0
 10
9.8026065282668
 20
7.990513441385218
 30
0.0
 10
9.801535339266284
 20
7.990199875393162
 30
0.0
 10
9.800999689822017
 20
7.990043076313536
 30
0.0
  0
ARC
  5
30C
330
1F
100
AcDbEntity
  8
0
  6
Continuous
 62
     7
370
     0
100
AcDbCircle
 10
9.2729095576
 20
7.1070069559
 30
0.0
 40
1.03397763645247
100
AcDbArc
 50
58.9131609103
 51
61.2774699061
  0
LINE
  5
30D
330
1F
100
AcDbEntity
  8
0
  6
Continuous
 62
     7
370
     0
100
AcDbLine
 10
9.7625541334
 20
8.009574443
 30
0.0
 11
9.7698065106
 21
8.0137611512
 31
0.0
  0
ARC
  5
30E
330
1F
100
AcDbEntity
  8
0
  6
Continuous
 62
     7
370
     0
100
AcDbCircle
 10
9.2702032271
 20
7.1108852362
 30
0.0
 40
1.024720305893803
100
AcDbArc
 50
59.5041479191
 51
61.2836712991
  0
SPLINE
  5
30F
330
1F
100
AcDbEntity
  8
0
  6
Continuous
 62
     7
370
     0
100
AcDbSpline
210
0.0
220
0.0
230
1.0
 70
     8
 71
     3
 72
    12
 73
     8
 74
     0
 42
0.000000001
 43
0.00000001
 40
0.0
 40
0.0
 40
0.0
 40
0.0
 40
0.2500254403219323
 40
0.4999661796302632
 40
0.7498412451501891
 40
0.8749080833013149
 40
1.0
 40
1.0
 40
1.0
 40
1.0
 10
9.706237529274178
 20
8.025298871903807
 30
0.0
 10
9.707466885871437
 20
8.025961275380254
 30
0.0
 10
9.709925182597338
 20
8.027285857930998
 30
0.0
 10
9.714213696966716
 20
8.028903778256483
 30
0.0
 10
9.71809398080796
 20
8.029934790111648
 30
0.0
 10
9.72132666425242
 20
8.030552633802273
 30
0.0
 10
9.72298268970369
 20
8.030757435533495
 30
0.0
 10
9.723810785438038
 20
8.030859846664848
 30
0.0
  0
SPLINE
  5
310
330
1F
100
AcDbEntity
  8
0
  6
Continuous
 62
     7
370
     0
100
AcDbSpline
210
0.0
220
0.0
230
1.0
 70
     8
 71
     3
 72
    15
 73
    11
 74
     0
 42
0.000000001
 43
0.00000001
 40
0.0
 40
0.0
 40
0.0
 40
0.0
 40
0.0626631227622362
 40
0.1253010678552757
 40
0.2503942881655021
 40
0.4992765565485363
 40
0.6245124185241386
 40
0.7495575867238777
 40
0.8747501309314163
 40
1.0
 40
1.0
 40
1.0
 40
1.0
 10
9.704483279534351
 20
8.006544804407564
 30
0.0
 10
9.70392339343862
 20
8.006844234843362
 30
0.0
 10
9.702803846206056
 20
8.007442975405592
 30
0.0
 10
9.70087313551298
 20
8.008784988659166
 30
0.0
 10
9.69825786841203
 20
8.011412838806626
 30
0.0
 10
9.697472213478042
 20
8.014937452742995
 30
0.0
 10
9.69852914461638
 20
8.018399630950857
 30
0.0
 10
9.700317504480765
 20
8.020909695359745
 30
0.0
 10
9.702917841936586
 20
8.023239584711387
 30
0.0
 10
9.705130797983912
 20
8.024612338101155
 30
0.0
 10
9.706237529274178
 20
8.025298871903807
 30
0.0
  0
SPLINE
  5
311
330
1F
100
AcDbEntity
  8
0
  6
Continuous
 62
     7
370
     0
100
AcDbSpline
210
0.0
220
0.0
230
1.0
 70
     8
 71
     3
 72
    12
 73
     8
 74
     0
 42
0.000000001
 43
0.00000001
 40
0.0
 40
0.0
 40
0.0
 40
0.0
 40
0.2500264305438161
 40
0.499957993501743
 40
0.6999160723307191
 40
0.8499541454005178
 40
0.9999999999999999
 40
0.9999999999999999
 40
0.9999999999999999
 40
0.9999999999999999
 10
9.718326969156333
 20
8.00354642646222
 30
0.0
 10
9.717048885323786
 20
8.003619208827137
 30
0.0
 10
9.714493202602332
 20
8.00376474594114
 30
0.0
 10
9.711047645469876
 20
8.004301195579705
 30
0.0
 10
9.708311003870044
 20
8.00501283975649
 30
0.0
 10
9.706175166243607
 20
8.005738051273982
 30
0.0
 10
9.705047251520156
 20
8.00627588204751
 30
0.0
 10
9.704483279534351
 20
8.006544804407564
 30
0.0
  0
SPLINE
  5
312
330
1F
100
AcDbEntity
  8
0
  6
Continuous
 62
     7
370
     0
100
AcDbSpline
210
0.0
220
0.0
230
1.0
 70
     8
 71
     3
 72
     8
 73
     4
 74
     0
 42
0.000000001
 43
0.00000001
 40
0.0
 40
0.0
 40
0.0
 40
0.0
 40
1.0
 40
1.0
 40
1.0
 40
1.0
 10
9.700800220677133
 20
7.996581173795616
 30
0.0
 10
9.706642380252086
 20
7.99890502385869
 30
0.0
 10
9.712484631932059
 20
8.001226773611606
 30
0.0
 10
9.718326969156333
 20
8.00354642646222
 30
0.0
  0
ARC
  5
313
330
1F
100
AcDbEntity
  8
0
  6
Continuous
 62
     7
370
     0
100
AcDbCircle
 10
9.2701004507
 20
7.1641559618
 30
0.0
 40
0.9372481130314411
100
AcDbArc
 50
62.6427936492
 51
64.0696782851
  0
LINE
  5
314
330
1F
100
AcDbEntity
  8
0
  6
Continuous
 62
     7
370
     0
100
AcDbLine
 10
9.6726858528
 20
8.0028613107
 30
0.0
 11
9.6799382301
 21
8.007048019
 31
0.0
  0
ARC
  5
315
330
1F
100
AcDbEntity
  8
0
  6
Continuous
 62
     7
370
     0
100
AcDbCircle
 10
9.2603171046
 20
7.1548869348
 30
0.0
 40
0.9429255149172862
100
AcDbArc
 50
62.2424051092
 51
64.0664102686
  0
SPLINE
  5
316
330
1F
100
AcDbEntity
  8
0
  6
Continuous
 62
     7
370
     0
100
AcDbSpline
210
0.0
220
0.0
230
1.0
 70
     8
 71
     3
 72
     8
 73
     4
 74
     0
 42
0.000000001
 43
0.00000001
 40
0.0
 40
0.0
 40
0.0
 40
0.0
 40
1.0
 40
1.0
 40
1.0
 40
1.0
 10
9.734274152666583
 20
8.002978048627327
 30
0.0
 10
9.722671660581886
 20
7.998429236837935
 30
0.0
 10
9.711069434089557
 20
7.993871948108044
 30
0.0
 10
9.699467526948029
 20
7.989306153922811
 30
0.0
  0
SPLINE
  5
317
330
1F
100
AcDbEntity
  8
0
  6
Continuous
 62
     7
370
     0
100
AcDbSpline
210
0.0
220
0.0
230
1.0
 70
     8
 71
     3
 72
     8
 73
     4
 74
     0
 42
0.000000001
 43
0.00000001
 40
0.0
 40
0.0
 40
0.0
 40
0.0
 40
1.0
 40
1.0
 40
1.0
 40
1.0
 10
9.727753281248713
 20
8.007232425232369
 30
0.0
 10
9.72992642007014
 20
8.005827582003269
 30
0.0
 10
9.732100078873707
 20
8.004409437942375
 30
0.0
 10
9.734274152666583
 20
8.002978048627327
 30
0.0
  0
SPLINE
  5
318
330
1F
100
AcDbEntity
  8
0
  6
Continuous
 62
     7
370
     0
100
AcDbSpline
210
0.0
220
0.0
230
1.0
 70
     8
 71
     3
 72
    12
 73
     8
 74
     0
 42
0.000000001
 43
0.00000001
 40
0.0
 40
0.0
 40
0.0
 40
0.0
 40
0.250160074697021
 40
0.4997212708768903
 40
0.7496198846855734
 40
0.8747847392147552
 40
1.0
 40
1.0
 40
1.0
 40
1.0
 10
9.713012558667671
 20
8.009295650715265
 30
0.0
 10
9.71400710056167
 20
8.008832412325916
 30
0.0
 10
9.715993803435062
 20
8.007907044531214
 30
0.0
 10
9.719704164035617
 20
8.007059558205093
 30
0.0
 10
9.723061994801773
 20
8.006885350987263
 30
0.0
 10
9.725762014903351
 20
8.006977138481833
 30
0.0
 10
9.72708943672188
 20
8.007147318228723
 30
0.0
 10
9.727753281248713
 20
8.007232425232369
 30
0.0
  0
SPLINE
  5
319
330
1F
100
AcDbEntity
  8
0
  6
Continuous
 62
     7
370
     0
100
AcDbSpline
210
0.0
220
0.0
230
1.0
 70
     8
 71
     3
 72
    14
 73
    10
 74
     0
 42
0.000000001
 43
0.00000001
 40
0.0
 40
0.0
 40
0.0
 40
0.0
 40
0.143162915979008
 40
0.2862518345746057
 40
0.4291627725286005
 40
0.5719568474698296
 40
0.785233365293426
 40
0.892576338290561
 40
1.0
 40
1.0
 40
1.0
 40
1.0
 10
9.713898521271796
 20
8.022024808413704
 30
0.0
 10
9.713027093329423
 20
8.021486715782332
 30
0.0
 10
9.711284687864309
 20
8.020410808646407
 30
0.0
 10
9.709232608759999
 20
8.018573595730718
 30
0.0
 10
9.707954725576048
 20
8.016571026399838
 30
0.0
 10
9.707548649690754
 20
8.014139874892132
 30
0.0
 10
9.708915427297148
 20
8.012007580438706
 30
0.0
 10
9.711042940753705
 20
8.010365681198497
 30
0.0
 10
9.712355854940588
 20
8.00965241686846
 30
0.0
 10
9.713012558667671
 20
8.009295650715265
 30
0.0
  0
SPLINE
  5
31A
330
1F
100
AcDbEntity
  8
0
  6
Continuous
 62
     7
370
     0
100
AcDbSpline
210
0.0
220
0.0
230
1.0
 70
     8
 71
     3
 72
    14
 73
    10
 74
     0
 42
0.000000001
 43
0.00000001
 40
0.0
 40
0.0
 40
0.0
 40
0.0
 40
0.1251970014422178
 40
0.2502999019764608
 40
0.372761083913963
 40
0.5003498491042853
 40
0.7494545984459177
 40
0.8747156920713152
 40
0.9999999999999999
 40
0.9999999999999999
 40
0.9999999999999999
 40
0.9999999999999999
 10
9.738429816235673
 20
8.023931836206996
 30
0.0
 10
9.737574730044017
 20
8.024326625631621
 30
0.0
 10
9.735865200362893
 20
8.025115907748182
 30
0.0
 10
9.732793565114303
 20
8.025885217249739
 30
0.0
 10
9.729408724364973
 20
8.02622714506833
 30
0.0
 10
9.72475495787257
 20
8.026007531439612
 30
0.0
 10
9.72026426206426
 20
8.024960064329345
 30
0.0
 10
9.716432562724984
 20
8.023406414288674
 30
0.0
 10
9.714743253930537
 20
8.02248537215177
 30
0.0
 10
9.713898521271796
 20
8.022024808413704
 30
0.0
  0
SPLINE
  5
31B
330
1F
100
AcDbEntity
  8
0
  6
Continuous
 62
     7
370
     0
100
AcDbSpline
210
0.0
220
0.0
230
1.0
 70
     8
 71
     3
 72
    14
 73
    10
 74
     0
 42
0.000000001
 43
0.00000001
 40
0.0
 40
0.0
 40
0.0
 40
0.0
 40
0.1252774937452029
 40
0.2504957049744769
 40
0.4995727217355573
 40
0.6240990078173888
 40
0.7496548526516651
 40
0.874786189368336
 40
0.9999999999999999
 40
0.9999999999999999
 40
0.9999999999999999
 40
0.9999999999999999
 10
9.738631090302071
 20
8.012713831951318
 30
0.0
 10
9.739174743699284
 20
8.013156856227084
 30
0.0
 10
9.74026179323169
 20
8.014042695135268
 30
0.0
 10
9.742006964882638
 20
8.01593941913402
 30
0.0
 10
9.742998174441624
 20
8.018026186009209
 30
0.0
 10
9.742730219241311
 20
8.02010392945639
 30
0.0
 10
9.741815595300343
 20
8.021560114184073
 30
0.0
 10
9.740361169390592
 20
8.022861150620548
 30
0.0
 10
9.7390737419977
 20
8.023574862636218
 30
0.0
 10
9.738429816235673
 20
8.023931836206996
 30
0.0
  0
SPLINE
  5
31C
330
1F
100
AcDbEntity
  8
0
  6
Continuous
 62
     7
370
     0
100
AcDbSpline
210
0.0
220
0.0
230
1.0
 70
     8
 71
     3
 72
     8
 73
     4
 74
     0
 42
0.000000001
 43
0.00000001
 40
0.0
 40
0.0
 40
0.0
 40
0.0
 40
1.0
 40
1.0
 40
1.0
 40
1.0
 10
9.746602714510143
 20
8.009288834842122
 30
0.0
 10
9.743945066954007
 20
8.01044375874247
 30
0.0
 10
9.741287823885699
 20
8.011585443009869
 30
0.0
 10
9.738631090302073
 20
8.012713831951318
 30
0.0
  0
SPLINE
  5
31D
330
1F
100
AcDbEntity
  8
0
  6
Continuous
 62
     7
370
     0
100
AcDbSpline
210
0.0
220
0.0
230
1.0
 70
     8
 71
     3
 72
    14
 73
    10
 74
     0
 42
0.000000001
 43
0.00000001
 40
0.0
 40
0.0
 40
0.0
 40
0.0
 40
0.1252473964946539
 40
0.250430296910186
 40
0.4993057413268476
 40
0.6244083469248101
 40
0.7495630757481866
 40
0.8747729446731844
 40
1.0
 40
1.0
 40
1.0
 40
1.0
 10
9.745002205513181
 20
8.027676812985813
 30
0.0
 10
9.746057506008459
 20
8.027092502867342
 30
0.0
 10
9.748167563572599
 20
8.025924183520575
 30
0.0
 10
9.751438864010064
 20
8.023131830655275
 30
0.0
 10
9.753058981741647
 20
8.019774829420165
 30
0.0
 10
9.752687630680738
 20
8.016330829654835
 30
0.0
 10
9.751494890328473
 20
8.013793152767992
 30
0.0
 10
9.749438103597539
 20
8.0114069021966
 30
0.0
 10
9.747547887445059
 20
8.009994889593719
 30
0.0
 10
9.746602714510143
 20
8.009288834842122
 30
0.0
  0
SPLINE
  5
31E
330
1F
100
AcDbEntity
  8
0
  6
Continuous
 62
     7
370
     0
100
AcDbSpline
210
0.0
220
0.0
230
1.0
 70
     8
 71
     3
 72
    13
 73
     9
 74
     0
 42
0.000000001
 43
0.00000001
 40
0.0
 40
0.0
 40
0.0
 40
0.0
 40
0.1251643234241639
 40
0.2502678499793817
 40
0.4999977268183803
 40
0.749708721471206
 40
0.8748307575535651
 40
1.0
 40
1.0
 40
1.0
 40
1.0
 10
9.723810785438038
 20
8.030859846664848
 30
0.0
 10
9.72477962502989
 20
8.030957440865723
 30
0.0
 10
9.726716833612931
 20
8.031152581862417
 30
0.0
 10
9.73061156874754
 20
8.031247680543448
 30
0.0
 10
9.735407635881478
 20
8.030884597189052
 30
0.0
 10
9.73975953646546
 20
8.029837777382497
 30
0.0
 10
9.742892696391875
 20
8.028701227438775
 30
0.0
 10
9.74429894739709
 20
8.028018327403084
 30
0.0
 10
9.745002205513181
 20
8.027676812985813
 30
0.0
  0
SPLINE
  5
31F
330
1F
100
AcDbEntity
  8
0
  6
Continuous
 62
     7
370
     0
100
AcDbSpline
210
0.0
220
0.0
230
1.0
 70
     8
 71
     3
 72
     8
 73
     4
 74
     0
 42
0.000000001
 43
0.00000001
 40
0.0
 40
0.0
 40
0.0
 40
0.0
 40
1.0
 40
1.0
 40
1.0
 40
1.0
 10
9.668271766075074
 20
8.061649596205982
 30
0.0
 10
9.657256286923639
 20
8.050489115023284
 30
0.0
 10
9.64624834090449
 20
8.039269268660973
 30
0.0
 10
9.635247007707878
 20
8.027990430856129
 30
0.0
  0
ARC
  5
320
330
1F
100
AcDbEntity
  8
0
  6
Continuous
 62
     7
370
     0
100
AcDbCircle
 10
9.3748247995
 20
7.3182187674
 30
0.0
 40
0.799249973025154
100
AcDbArc
 50
68.4598623207
 51
69.092834327
  0
SPLINE
  5
321
330
1F
100
AcDbEntity
  8
0
  6
Continuous
 62
     7
370
     0
100
AcDbSpline
210
0.0
220
0.0
230
1.0
 70
     8
 71
     3
 72
     8
 73
     4
 74
     0
 42
0.000000001
 43
0.00000001
 40
0.0
 40
0.0
 40
0.0
 40
0.0
 40
1.0
 40
1.0
 40
1.0
 40
1.0
 10
9.597318019164875
 20
8.042717510725236
 30
0.0
 10
9.618216921601151
 20
8.050154190751869
 30
0.0
 10
9.639124897600004
 20
8.05753023993879
 30
0.0
 10
9.66004101466875
 20
8.064846003721186
 30
0.0
  0
LINE
  5
322
330
1F
100
AcDbEntity
  8
0
  6
Continuous
 62
     7
370
     0
100
AcDbLine
 10
9.645183709
 20
8.0703497853
 30
0.0
 11
9.5973180192
 21
8.0427175107
 31
0.0
  0
ARC
  5
323
330
1F
100
AcDbEntity
  8
0
  6
Continuous
 62
     7
370
     0
100
AcDbCircle
 10
9.3886012608
 20
7.3553892129
 30
0.0
 40
0.7596072489841993
100
AcDbArc
 50
70.2581374881
 51
70.8844749746
  0
LINE
  5
324
330
1F
100
AcDbEntity
  8
0
  6
Continuous
 62
     7
370
     0
100
AcDbLine
 10
9.5807842916
 20
8.040455556
 30
0.0
 11
9.6373528341
 21
8.0731118805
 31
0.0
  0
ARC
  5
325
330
1F
100
AcDbEntity
  8
0
  6
Continuous
 62
     7
370
     0
100
AcDbCircle
 10
9.330944174
 20
7.3196375917
 30
0.0
 40
0.7628883417519197
100
AcDbArc
 50
69.9518678017
 51
70.8833564407
  0
SPLINE
  5
326
330
1F
100
AcDbEntity
  8
0
  6
Continuous
 62
     7
370
     0
100
AcDbSpline
210
0.0
220
0.0
230
1.0
 70
     8
 71
     3
 72
     8
 73
     4
 74
     0
 42
0.000000001
 43
0.00000001
 40
0.0
 40
0.0
 40
0.0
 40
0.0
 40
1.0
 40
1.0
 40
1.0
 40
1.0
 10
9.643817796772064
 20
8.054203525521014
 30
0.0
 10
9.626695971198183
 20
8.048276780153994
 30
0.0
 10
9.609579690828813
 20
8.042308568641914
 30
0.0
 10
9.592469488362854
 20
8.036298691501127
 30
0.0
  0
SPLINE
  5
327
330
1F
100
AcDbEntity
  8
0
  6
Continuous
 62
     7
370
     0
100
AcDbSpline
210
0.0
220
0.0
230
1.0
 70
     8
 71
     3
 72
     9
 73
     5
 74
     0
 42
0.000000001
 43
0.00000001
 40
0.0
 40
0.0
 40
0.0
 40
0.0
 40
0.5714251866672605
 40
1.0
 40
1.0
 40
1.0
 40
1.0
 10
9.655542982404056
 20
8.058333402319526
 30
0.0
 10
9.653316427567715
 20
8.057541884319281
 30
0.0
 10
9.649419933523893
 20
8.056156719614059
 30
0.0
 10
9.645498447088919
 20
8.054789486988357
 30
0.0
 10
9.643817796772064
 20
8.054203525521014
 30
0.0
  0
SPLINE
  5
328
330
1F
100
AcDbEntity
  8
0
  6
Continuous
 62
     7
370
     0
100
AcDbSpline
210
0.0
220
0.0
230
1.0
 70
     8
 71
     3
 72
     9
 73
     5
 74
     0
 42
0.000000001
 43
0.00000001
 40
0.0
 40
0.0
 40
0.0
 40
0.0
 40
0.3333359272971089
 40
1.0
 40
1.0
 40
1.0
 40
1.0
 10
9.649753597027654
 20
8.052556178737643
 30
0.0
 10
9.650388441979917
 20
8.05319991532622
 30
0.0
 10
9.652292962015938
 20
8.055131110063602
 30
0.0
 10
9.654242977283769
 20
8.057052488407548
 30
0.0
 10
9.655542982404056
 20
8.058333402319526
 30
0.0
  0
SPLINE
  5
329
330
1F
100
AcDbEntity
  8
0
  6
Continuous
 62
     7
370
     0
100
AcDbSpline
210
0.0
220
0.0
230
1.0
 70
     8
 71
     3
 72
     8
 73
     4
 74
     0
 42
0.000000001
 43
0.00000001
 40
0.0
 40
0.0
 40
0.0
 40
0.0
 40
1.0
 40
1.0
 40
1.0
 40
1.0
 10
9.622560780208289
 20
8.024617174160989
 30
0.0
 10
9.631619995126785
 20
8.033972234107567
 30
0.0
 10
9.640684083786594
 20
8.043285309405526
 30
0.0
 10
9.649753597027654
 20
8.052556178737643
 30
0.0
  0
ARC
  5
32A
330
1F
100
AcDbEntity
  8
0
  6
Continuous
 62
     7
370
     0
100
AcDbCircle
 10
9.3042556276
 20
7.2509292938
 30
0.0
 40
0.8366069007552704
100
AcDbArc
 50
66.7536634187
 51
67.6371032947
  0
LINE
  5
32B
330
1F
100
AcDbEntity
  8
0
  6
Continuous
 62
     7
370
     0
100
AcDbLine
 10
9.6910204561
 20
8.052273799
 30
0.0
 11
9.6344519136
 21
8.0196174745
 31
0.0
  0
ARC
  5
32C
330
1F
100
AcDbEntity
  8
0
  6
Continuous
 62
     7
370
     0
100
AcDbCircle
 10
9.3594113757
 20
7.2802574203
 30
0.0
 40
0.8402225128174278
100
AcDbArc
 50
66.7547198043
 51
67.3403248401
  0
LINE
  5
32D
330
1F
100
AcDbEntity
  8
0
  6
Continuous
 62
     7
370
     0
100
AcDbLine
 10
9.6352470077
 20
8.0279904309
 30
0.0
 11
9.6831126975
 21
8.0556227054
 31
0.0
  0
LWPOLYLINE
  5
32E
330
1F
100
AcDbEntity
  8
0
  6
Continuous
 62
     7
370
     0
100
AcDbPolyline
 90
      161
 70
   128
 43
0.0
 10
8.9272050096
 20
7.4512494986
 10
8.9277691459
 20
7.484097321
 10
8.9294606847
 20
7.5162431565
 10
8.9322770179
 20
7.5476374388
 10
8.9362138029
 20
7.57823176
 10
8.9412649695
 20
7.6079789459
 10
8.9474227291
 20
7.6368331285
 10
8.9546775869
 20
7.6647498169
 10
8.9630183564
 20
7.6916859653
 10
8.9724321768
 20
7.7176000404
 10
8.9829045326
 20
7.7424520843
 10
8.9944192763
 20
7.7662037772
 10
9.0069586529
 20
7.7888184956
 10
9.0205033277
 20
7.8102613692
 10
9.0350324157
 20
7.8304993347
 10
9.050523514
 20
7.8495011866
 10
9.0669527367
 20
7.8672376255
 10
9.0842947509
 20
7.883681303
 10
9.1025228167
 20
7.8988068641
 10
9.1216088275
 20
7.9125909864
 10
9.1415233542
 20
7.9250124158
 10
9.16223569
 20
7.9360519992
 10
9.183713898
 20
7.9456927145
 10
9.2059248603
 20
7.9539196964
 10
9.2288343293
 20
7.9607202594
 10
9.2524069802
 20
7.9660839176
 10
9.2766064657
 20
7.9700024006
 10
9.3013954719
 20
7.9724696665
 10
9.3267357761
 20
7.9734819107
 10
9.3525883052
 20
7.9730375726
 10
9.3789131966
 20
7.9711373373
 10
9.4056698591
 20
7.9677841349
 10
9.432817036
 20
7.9629831356
 10
9.4603128682
 20
7.9567417423
 10
9.4881149593
 20
7.9490695787
 10
9.5161804403
 20
7.9399784749
 10
9.5444660363
 20
7.9294824486
 10
9.5729281331
 20
7.9175976839
 10
9.601522844
 20
7.9043425063
 10
9.6302060782
 20
7.8897373542
 10
9.6589336082
 20
7.8738047479
 10
9.6876611382
 20
7.8565692541
 10
9.7163443724
 20
7.8380574489
 10
9.7449390833
 20
7.818297876
 10
9.7734011801
 20
7.7973210032
 10
9.8016867761
 20
7.7751591755
 10
9.8297522571
 20
7.7518465647
 10
9.8575543482
 20
7.7274191172
 10
9.8850501804
 20
7.7019144983
 10
9.9121973573
 20
7.6753720343
 10
9.9389540199
 20
7.6478326518
 10
9.9652789112
 20
7.6193388145
 10
9.9911314404
 20
7.5899344578
 10
10.0164717445
 20
7.5596649211
 10
10.0412607507
 20
7.5285768779
 10
10.0654602362
 20
7.4967182636
 10
10.0890328871
 20
7.464138202
 10
10.1119423561
 20
7.4308869291
 10
10.1341533185
 20
7.397015716
 10
10.1556315264
 20
7.3625767896
 10
10.1763438622
 20
7.3276232522
 10
10.1962583889
 20
7.2922089998
 10
10.2153443998
 20
7.2563886384
 10
10.2335724655
 20
7.2202174006
 10
10.2509144797
 20
7.1837510596
 10
10.2673437024
 20
7.1470458441
 10
10.2828348008
 20
7.1101583507
 10
10.2973638887
 20
7.0731454573
 10
10.3109085635
 20
7.0360642351
 10
10.3234479401
 20
6.9989718606
 10
10.3349626838
 20
6.9619255277
 10
10.3454350396
 20
6.924982359
 10
10.35484886
 20
6.8881993183
 10
10.3631896296
 20
6.8516331223
 10
10.3704444874
 20
6.8153401535
 10
10.3766022469
 20
6.7793763729
 10
10.3816534135
 20
6.7437972342
 10
10.3855901985
 20
6.7086575978
 10
10.3884065317
 20
6.6740116465
 10
10.3900980706
 20
6.6399128017
 10
10.3906622068
 20
6.6064136415
 10
10.3900980706
 20
6.5735658191
 10
10.3884065317
 20
6.5414199836
 10
10.3855901985
 20
6.5100257013
 10
10.3816534135
 20
6.4794313801
 10
10.3766022469
 20
6.4496841942
 10
10.3704444874
 20
6.4208300116
 10
10.3631896296
 20
6.3929133232
 10
10.35484886
 20
6.3659771748
 10
10.3454350396
 20
6.3400630997
 10
10.3349626838
 20
6.3152110558
 10
10.3234479401
 20
6.2914593629
 10
10.3109085635
 20
6.2688446445
 10
10.2973638887
 20
6.2474017709
 10
10.2828348008
 20
6.2271638054
 10
10.2673437024
 20
6.2081619535
 10
10.2509144797
 20
6.1904255146
 10
10.2335724655
 20
6.1739818371
 10
10.2153443998
 20
6.158856276
 10
10.1962583889
 20
6.1450721537
 10
10.1763438622
 20
6.1326507243
 10
10.1556315264
 20
6.1216111409
 10
10.1341533185
 20
6.1119704256
 10
10.1119423561
 20
6.1037434437
 10
10.0890328871
 20
6.0969428807
 10
10.0654602362
 20
6.0915792225
 10
10.0412607507
 20
6.0876607395
 10
10.0164717445
 20
6.0851934736
 10
9.9911314404
 20
6.0841812294
 10
9.9652789112
 20
6.0846255675
 10
9.9389540199
 20
6.0865258028
 10
9.9121973573
 20
6.0898790053
 10
9.8850501804
 20
6.0946800045
 10
9.8575543482
 20
6.1009213978
 10
9.8297522571
 20
6.1085935614
 10
9.8016867761
 20
6.1176846652
 10
9.7734011801
 20
6.1281806915
 10
9.7449390833
 20
6.1400654562
 10
9.7163443724
 20
6.1533206339
 10
9.6876611382
 20
6.1679257859
 10
9.6589336082
 20
6.1838583922
 10
9.6302060782
 20
6.201093886
 10
9.601522844
 20
6.2196056912
 10
9.5729281331
 20
6.2393652641
 10
9.5444660363
 20
6.2603421369
 10
9.5161804403
 20
6.2825039646
 10
9.4881149593
 20
6.3058165754
 10
9.4603128682
 20
6.3302440229
 10
9.432817036
 20
6.3557486418
 10
9.4056698591
 20
6.3822911058
 10
9.3789131966
 20
6.4098304883
 10
9.3525883052
 20
6.4383243256
 10
9.3267357761
 20
6.4677286823
 10
9.3013954719
 20
6.497998219
 10
9.2766064657
 20
6.5290862622
 10
9.2524069802
 20
6.5609448765
 10
9.2288343293
 20
6.5935249381
 10
9.2059248603
 20
6.626776211
 10
9.183713898
 20
6.6606474241
 10
9.16223569
 20
6.6950863505
 10
9.1415233542
 20
6.7300398879
 10
9.1216088275
 20
6.7654541403
 10
9.1025228167
 20
6.8012745017
 10
9.0842947509
 20
6.8374457395
 10
9.0669527367
 20
6.8739120805
 10
9.050523514
 20
6.910617296
 10
9.0350324157
 20
6.9475047894
 10
9.0205033277
 20
6.9845176828
 10
9.0069586529
 20
7.021598905
 10
8.9944192763
 20
7.0586912795
 10
8.9829045326
 20
7.0957376124
 10
8.9724321768
 20
7.1326807811
 10
8.9630183564
 20
7.1694638218
 10
8.9546775869
 20
7.2060300178
 10
8.9474227291
 20
7.2423229867
 10
8.9412649695
 20
7.2782867672
 10
8.9362138029
 20
7.3138659059
 10
8.9322770179
 20
7.3490055423
 10
8.9294606847
 20
7.3836514936
 10
8.9277691459
 20
7.4177503384
 10
8.9272050096
 20
7.4512494986
  0
LWPOLYLINE
  5
32F
330
1F
100
AcDbEntity
  8
0
  6
Continuous
 62
     7
370
     0
100
AcDbPolyline
 90
      160
 70
   128
 43
0.0
 10
8.9465235262
 20
7.4482612375
 10
8.9470852184
 20
7.4151136962
 10
8.948769418
 20
7.3813693948
 10
8.9515734953
 20
7.3470810211
 10
8.9554930721
 20
7.3123021123
 10
8.9605220284
 20
7.2770869715
 10
8.9666525121
 20
7.241490583
 10
8.9738749512
 20
7.2055685263
 10
8.9821780687
 20
7.1693768894
 10
8.9915489003
 20
7.1329721814
 10
9.0019728146
 20
7.0964112437
 10
9.0134335357
 20
7.059751162
 10
9.0259131692
 20
7.0230491767
 10
9.0393922296
 20
6.9863625936
 10
9.053849671
 20
6.9497486943
 10
9.0692629198
 20
6.9132646471
 10
9.0856079099
 20
6.8769674176
 10
9.1028591207
 20
6.8409136796
 10
9.1209896165
 20
6.8051597267
 10
9.1399710886
 20
6.7697613844
 10
9.1597738996
 20
6.7347739231
 10
9.18036713
 20
6.7002519715
 10
9.2017186257
 20
6.6662494316
 10
9.2237950489
 20
6.6328193943
 10
9.24656193
 20
6.6000140566
 10
9.2699837212
 20
6.5678846402
 10
9.2940238521
 20
6.5364813113
 10
9.3186447869
 20
6.5058531025
 10
9.3438080829
 20
6.4760478361
 10
9.3694744506
 20
6.4471120495
 10
9.3956038151
 20
6.4190909226
 10
9.4221553784
 20
6.3920282069
 10
9.4490876835
 20
6.3659661576
 10
9.4763586787
 20
6.3409454677
 10
9.5039257836
 20
6.3170052038
 10
9.5317459555
 20
6.294182746
 10
9.5597757564
 20
6.2725137287
 10
9.5879714211
 20
6.2520319855
 10
9.6162889256
 20
6.2327694964
 10
9.6446840552
 20
6.2147563372
 10
9.6731124745
 20
6.1980206336
 10
9.7015297958
 20
6.1825885162
 10
9.7298916489
 20
6.1684840805
 10
9.75815375
 20
6.1557293489
 10
9.7862719713
 20
6.1443442364
 10
9.8142024095
 20
6.1343465195
 10
9.8419014545
 20
6.1257518084
 10
9.8693258576
 20
6.1185735228
 10
9.8964327987
 20
6.1128228707
 10
9.9231799538
 20
6.1085088311
 10
9.9495255601
 20
6.1056381398
 10
9.9754284823
 20
6.1042152791
 10
10.0008482759
 20
6.1042424706
 10
10.025745251
 20
6.1057196718
 10
10.0500805338
 20
6.1086445763
 10
10.0738161278
 20
6.1130126172
 10
10.0969149727
 20
6.1188169743
 10
10.1193410022
 20
6.1260485848
 10
10.1410592009
 20
6.1346961574
 10
10.1620356584
 20
6.1447461898
 10
10.1822376224
 20
6.1561829903
 10
10.2016335498
 20
6.1689887016
 10
10.2201931564
 20
6.1831433291
 10
10.2378874635
 20
6.198624772
 10
10.2546888435
 20
6.2154088578
 10
10.270571063
 20
6.2334693803
 10
10.2855093239
 20
6.2527781401
 10
10.2994803018
 20
6.2733049888
 10
10.3124621827
 20
6.2950178762
 10
10.324434697
 20
6.3178829002
 10
10.335379151
 20
6.3418643597
 10
10.3452784561
 20
6.3669248107
 10
10.3541171559
 20
6.3930251241
 10
10.3618814498
 20
6.4201245474
 10
10.3685592146
 20
6.448180768
 10
10.374140024
 20
6.4771499796
 10
10.378615164
 20
6.5069869502
 10
10.3819776474
 20
6.5376450928
 10
10.384222224
 20
6.5690765383
 10
10.3853453891
 20
6.6012322104
 10
10.3853453891
 20
6.6340619018
 10
10.384222224
 20
6.6675143528
 10
10.3819776474
 20
6.7015373313
 10
10.378615164
 20
6.7360777146
 10
10.374140024
 20
6.7710815719
 10
10.3685592146
 20
6.8064942488
 10
10.3618814498
 20
6.8422604527
 10
10.3541171559
 20
6.8783243388
 10
10.3452784561
 20
6.9146295978
 10
10.335379151
 20
6.9511195432
 10
10.324434697
 20
6.9877372003
 10
10.3124621827
 20
7.024425395
 10
10.2994803018
 20
7.0611268431
 10
10.2855093239
 20
7.0977842395
 10
10.270571063
 20
7.1343403482
 10
10.2546888435
 20
7.170738091
 10
10.2378874635
 20
7.2069206373
 10
10.2201931564
 20
7.2428314923
 10
10.2016335498
 20
7.2784145854
 10
10.1822376224
 20
7.3136143579
 10
10.1620356584
 20
7.3483758495
 10
10.1410592009
 20
7.3826447843
 10
10.1193410022
 20
7.4163676553
 10
10.0969149727
 20
7.4494918084
 10
10.0738161278
 20
7.481965524
 10
10.0500805338
 20
7.5137380984
 10
10.025745251
 20
7.5447599225
 10
10.0008482759
 20
7.5749825593
 10
9.9754284823
 20
7.6043588198
 10
9.9495255601
 20
7.6328428364
 10
9.9231799538
 20
7.6603901347
 10
9.8964327987
 20
7.686957703
 10
9.8693258576
 20
7.712504059
 10
9.8419014545
 20
7.7369893152
 10
9.8142024095
 20
7.7603752408
 10
9.7862719713
 20
7.7826253214
 10
9.75815375
 20
7.8037048162
 10
9.7298916489
 20
7.823580812
 10
9.7015297958
 20
7.8422222748
 10
9.6731124745
 20
7.8596000982
 10
9.6446840552
 20
7.8756871488
 10
9.6162889256
 20
7.8904583085
 10
9.5879714211
 20
7.903890514
 10
9.5597757564
 20
7.9159627925
 10
9.5317459555
 20
7.9266562945
 10
9.5039257836
 20
7.9359543234
 10
9.4763586787
 20
7.9438423614
 10
9.4490876835
 20
7.9503080923
 10
9.4221553784
 20
7.9553414206
 10
9.3956038151
 20
7.9589344874
 10
9.3694744506
 20
7.9610816825
 10
9.3438080829
 20
7.9617796533
 10
9.3186447869
 20
7.9610273101
 10
9.2940238521
 20
7.9588258275
 10
9.2699837212
 20
7.9551786429
 10
9.24656193
 20
7.950091451
 10
9.2237950489
 20
7.9435721947
 10
9.2017186257
 20
7.9356310531
 10
9.18036713
 20
7.9262804254
 10
9.1597738996
 20
7.9155349115
 10
9.1399710886
 20
7.9034112892
 10
9.1209896165
 20
7.8899284881
 10
9.1028591207
 20
7.87510756
 10
9.0856079099
 20
7.858971646
 10
9.0692629198
 20
7.8415459405
 10
9.053849671
 20
7.8228576515
 10
9.0393922296
 20
7.8029359587
 10
9.0259131692
 20
7.7818119675
 10
9.0134335357
 20
7.7595186603
 10
9.0019728146
 20
7.7360908456
 10
8.9915489003
 20
7.7115651032
 10
8.9821780687
 20
7.685979727
 10
8.9738749512
 20
7.6593746655
 10
8.9666525121
 20
7.6317914595
 10
8.9605220284
 20
7.6032731769
 10
8.9554930721
 20
7.5738643454
 10
8.9515734953
 20
7.5436108836
 10
8.948769418
 20
7.5125600287
 10
8.9470852184
 20
7.4807602628
 10
8.9465235262
 20
7.4482612375
  0
ARC
  5
330
330
1F
100
AcDbEntity
  8
0
  6
Continuous
 62
     7
370
     0
100
AcDbCircle
 10
9.0334112553
 20
6.6677252021
 30
0.0
 40
1.673737949627865
100
AcDbArc
 50
2.5807340673
 51
57.4138894
  0
LWPOLYLINE
  5
331
330
1F
100
AcDbEntity
  8
0
  6
Continuous
 62
     7
370
     0
100
AcDbPolyline
 90
       50
 70
   128
 43
0.0
 10
10.7319681487
 20
6.8175859711
 10
10.7314064565
 20
6.8507335124
 10
10.7297222569
 20
6.8844778138
 10
10.7269181796
 20
6.9187661875
 10
10.7229986028
 20
6.9535450963
 10
10.7179696464
 20
6.9887602371
 10
10.7118391627
 20
7.0243566256
 10
10.7046167236
 20
7.0602786823
 10
10.6963136061
 20
7.0964703192
 10
10.6869427745
 20
7.1328750273
 10
10.6765188603
 20
7.1694359649
 10
10.6650581391
 20
7.2060960466
 10
10.6525785056
 20
7.2427980319
 10
10.6390994452
 20
7.2794846151
 10
10.6246420038
 20
7.3160985144
 10
10.6092287551
 20
7.3525825615
 10
10.5928837649
 20
7.388879791
 10
10.5756325541
 20
7.424933529
 10
10.5575020583
 20
7.4606874819
 10
10.5385205863
 20
7.4960858242
 10
10.5187177752
 20
7.5310732855
 10
10.4981245449
 20
7.5655952371
 10
10.4767730492
 20
7.599597777
 10
10.4546966259
 20
7.6330278143
 10
10.4319297448
 20
7.665833152
 10
10.4085079536
 20
7.6979625684
 10
10.3844678227
 20
7.7293658973
 10
10.359846888
 20
7.7599941061
 10
10.334683592
 20
7.7897993725
 10
10.3090172242
 20
7.8187351591
 10
10.2828878597
 20
7.8467562861
 10
10.2563362964
 20
7.8738190018
 10
10.2294039913
 20
7.899881051
 10
10.2021329961
 20
7.9249017409
 10
10.1745658912
 20
7.9488420048
 10
10.1467457194
 20
7.9716644626
 10
10.1187159184
 20
7.9933334799
 10
10.0905202537
 20
8.0138152231
 10
10.0622027493
 20
8.0330777123
 10
10.0338076196
 20
8.0510908714
 10
10.0053792003
 20
8.0678265751
 10
9.976961879
 20
8.0832586925
 10
9.9486000259
 20
8.0973631282
 10
9.9203379248
 20
8.1101178598
 10
9.8922197035
 20
8.1215029723
 10
9.8642892653
 20
8.1315006892
 10
9.8365902203
 20
8.1400954002
 10
9.8091658173
 20
8.1472736858
 10
9.7820588761
 20
8.1530243379
 10
9.7663756151
 20
8.1557213219
  0
ARC
  5
332
330
1F
100
AcDbEntity
  8
0
  6
Continuous
 62
     7
370
     0
100
AcDbCircle
 10
10.0073904366
 20
6.8057401868
 30
0.0
 40
0.7246745362102126
100
AcDbArc
 50
340.0379154229
 51
0.9366186332
  0
ARC
  5
333
330
1F
100
AcDbEntity
  8
0
  6
Continuous
 62
     7
370
     0
100
AcDbCircle
 10
8.7464627356
 20
6.5028816439
 30
0.0
 40
1.886664191935945
100
AcDbArc
 50
32.9768024204
 51
33.5608613522
  0
SPLINE
  5
334
330
1F
100
AcDbEntity
  8
0
  6
Continuous
 62
     7
370
     0
100
AcDbSpline
210
0.0
220
0.0
230
1.0
 70
     8
 71
     3
 72
    14
 73
    10
 74
     0
 42
0.000000001
 43
0.00000001
 40
0.0
 40
0.0
 40
0.0
 40
0.0
 40
0.1253839955034076
 40
0.2507191295888612
 40
0.4995238767913363
 40
0.6221861952455197
 40
0.7495943121208605
 40
0.8747213849328265
 40
1.0
 40
1.0
 40
1.0
 40
1.0
 10
10.31861824683168
 20
7.545871970716616
 30
0.0
 10
10.31799754394267
 20
7.546774106312175
 30
0.0
 10
10.31675638004897
 20
7.548578025946269
 30
0.0
 10
10.31396118188147
 20
7.551922520511106
 30
0.0
 10
10.31057217085711
 20
7.554883468539066
 30
0.0
 10
10.30660674457724
 20
7.55620928946107
 30
0.0
 10
10.30366577939242
 20
7.556308063261348
 30
0.0
 10
10.30090304986869
 20
7.555712358837786
 30
0.0
 10
10.29930278071127
 20
7.554889754697326
 30
0.0
 10
10.29850216190155
 20
7.554478203712449
 30
0.0
  0
SPLINE
  5
335
330
1F
100
AcDbEntity
  8
0
  6
Continuous
 62
     7
370
     0
100
AcDbSpline
210
0.0
220
0.0
230
1.0
 70
     8
 71
     3
 72
    13
 73
     9
 74
     0
 42
0.000000001
 43
0.00000001
 40
0.0
 40
0.0
 40
0.0
 40
0.0
 40
0.1253123608593339
 40
0.2505410036197088
 40
0.5002407886108755
 40
0.7496578836112411
 40
0.87477385208867
 40
1.0
 40
1.0
 40
1.0
 40
1.0
 10
10.29850216190155
 20
7.554478203712449
 30
0.0
 10
10.29800938419076
 20
7.554170895443659
 30
0.0
 10
10.29702415798184
 20
7.553556484211155
 30
0.0
 10
10.2953122309213
 20
7.5520052855039
 30
0.0
 10
10.29368452837189
 20
7.549543146765035
 30
0.0
 10
10.29303483638565
 20
7.546487559461335
 30
0.0
 10
10.29320206907077
 20
7.543872969314932
 30
0.0
 10
10.29361740549569
 20
7.542566101050843
 30
0.0
 10
10.29382516510614
 20
7.541912379332341
 30
0.0
  0
SPLINE
  5
336
330
1F
100
AcDbEntity
  8
0
  6
Continuous
 62
     7
370
     0
100
AcDbSpline
210
0.0
220
0.0
230
1.0
 70
     8
 71
     3
 72
    11
 73
     7
 74
     0
 42
0.000000001
 43
0.00000001
 40
0.0
 40
0.0
 40
0.0
 40
0.0
 40
0.2245830904256894
 40
0.4998470029803628
 40
0.7047624397404799
 40
1.0
 40
1.0
 40
1.0
 40
1.0
 10
10.29382516510614
 20
7.541912379332341
 30
0.0
 10
10.29410616789705
 20
7.54129428349342
 30
0.0
 10
10.2947315863228
 20
7.539918608450152
 30
0.0
 10
10.29581665943176
 20
7.538051054130203
 30
0.0
 10
10.29708047332558
 20
7.536036133525919
 30
0.0
 10
10.29792120687387
 20
7.534749210657819
 30
0.0
 10
10.29841748725829
 20
7.533989547174676
 30
0.0
  0
ARC
  5
337
330
1F
100
AcDbEntity
  8
0
  6
Continuous
 62
     7
370
     0
100
AcDbCircle
 10
8.7261283812
 20
6.491140756
 30
0.0
 40
1.886697282066863
100
AcDbArc
 50
32.9768058162
 51
33.5550368419
  0
LINE
  5
338
330
1F
100
AcDbEntity
  8
0
  6
Continuous
 62
     7
370
     0
100
AcDbLine
 10
10.3088617079
 20
7.5180691133
 30
0.0
 11
10.3291683641
 21
7.5297918964
 31
0.0
  0
ARC
  5
339
330
1F
100
AcDbEntity
  8
0
  6
Continuous
 62
     7
370
     0
100
AcDbCircle
 10
8.81526996
 20
6.5514953145
 30
0.0
 40
1.809067926936505
100
AcDbArc
 50
37.1836346618
 51
38.0337116137
  0
SPLINE
  5
33A
330
1F
100
AcDbEntity
  8
0
  6
Continuous
 62
     7
370
     0
100
AcDbSpline
210
0.0
220
0.0
230
1.0
 70
     8
 71
     3
 72
     8
 73
     4
 74
     0
 42
0.000000001
 43
0.00000001
 40
0.0
 40
0.0
 40
0.0
 40
0.0
 40
1.0
 40
1.0
 40
1.0
 40
1.0
 10
10.24017937320751
 20
7.666107322498536
 30
0.0
 10
10.23678956074903
 20
7.661244531225614
 30
0.0
 10
10.23339638946174
 20
7.656377290226361
 30
0.0
 10
10.22999982033809
 20
7.651505649584511
 30
0.0
  0
SPLINE
  5
33B
330
1F
100
AcDbEntity
  8
0
  6
Continuous
 62
     7
370
     0
100
AcDbSpline
210
0.0
220
0.0
230
1.0
 70
     8
 71
     3
 72
     8
 73
     4
 74
     0
 42
0.000000001
 43
0.00000001
 40
0.0
 40
0.0
 40
0.0
 40
0.0
 40
1.0
 40
1.0
 40
1.0
 40
1.0
 10
10.22999982033809
 20
7.651505649584511
 30
0.0
 10
10.22743262365162
 20
7.647821000566148
 30
0.0
 10
10.22486348137953
 20
7.6441338323326
 30
0.0
 10
10.22229237668492
 20
7.640444166668027
 30
0.0
  0
SPLINE
  5
33C
330
1F
100
AcDbEntity
  8
0
  6
Continuous
 62
     7
370
     0
100
AcDbSpline
210
0.0
220
0.0
230
1.0
 70
     8
 71
     3
 72
    11
 73
     7
 74
     0
 42
0.000000001
 43
0.00000001
 40
0.0
 40
0.0
 40
0.0
 40
0.0
 40
0.250010043689011
 40
0.4999937932095415
 40
0.7499834514766642
 40
0.9999999999999999
 40
0.9999999999999999
 40
0.9999999999999999
 40
0.9999999999999999
 10
10.22229237668492
 20
7.640444166668027
 30
0.0
 10
10.22338332964911
 20
7.640725696834361
 30
0.0
 10
10.22556512083929
 20
7.641288727557813
 30
0.0
 10
10.22898196914668
 20
7.641804908862158
 30
0.0
 10
10.23245563864929
 20
7.642158391311744
 30
0.0
 10
10.23482728789395
 20
7.64219548548177
 30
0.0
 10
10.23601317628974
 20
7.642214033564241
 30
0.0
  0
SPLINE
  5
33D
330
1F
100
AcDbEntity
  8
0
  6
Continuous
 62
     7
370
     0
100
AcDbSpline
210
0.0
220
0.0
230
1.0
 70
     8
 71
     3
 72
     8
 73
     4
 74
     0
 42
0.000000001
 43
0.00000001
 40
0.0
 40
0.0
 40
0.0
 40
0.0
 40
1.0
 40
1.0
 40
1.0
 40
1.0
 10
10.23601317628974
 20
7.642214033564241
 30
0.0
 10
10.24286564689143
 20
7.643095655849345
 30
0.0
 10
10.24971428271245
 20
7.643972475729837
 30
0.0
 10
10.2565590386271
 20
7.644844552417054
 30
0.0
  0
SPLINE
  5
33E
330
1F
100
AcDbEntity
  8
0
  6
Continuous
 62
     7
370
     0
100
AcDbSpline
210
0.0
220
0.0
230
1.0
 70
     8
 71
     3
 72
    15
 73
    11
 74
     0
 42
0.000000001
 43
0.00000001
 40
0.0
 40
0.0
 40
0.0
 40
0.0
 40
0.1252951067982212
 40
0.2505670241322498
 40
0.3770507931569581
 40
0.500898483890872
 40
0.7495825887399817
 40
0.8746661269954552
 40
0.9373222084020651
 40
1.0
 40
1.0
 40
1.0
 40
1.0
 10
10.16175526931926
 20
7.753576102729972
 30
0.0
 10
10.16306131036131
 20
7.754393989577422
 30
0.0
 10
10.16567315072494
 20
7.756029611898831
 30
0.0
 10
10.16893925470061
 20
7.759127446577017
 30
0.0
 10
10.17141817907212
 20
7.762771633080058
 30
0.0
 10
10.1732064750519
 20
7.768351009296333
 30
0.0
 10
10.17273334718393
 20
7.774701161203613
 30
0.0
 10
10.1700712945617
 20
7.780012492717776
 30
0.0
 10
10.16804087658553
 20
7.782890385502837
 30
0.0
 10
10.16684439873342
 20
7.784243458772969
 30
0.0
 10
10.16624605618109
 20
7.784920112596943
 30
0.0
  0
SPLINE
  5
33F
330
1F
100
AcDbEntity
  8
0
  6
Continuous
 62
     7
370
     0
100
AcDbSpline
210
0.0
220
0.0
230
1.0
 70
     8
 71
     3
 72
    14
 73
    10
 74
     0
 42
0.000000001
 43
0.00000001
 40
0.0
 40
0.0
 40
0.0
 40
0.0
 40
0.0627712587146604
 40
0.1255164908686966
 40
0.2507936783371121
 40
0.4996926161412427
 40
0.7490368580308165
 40
0.8744925538895082
 40
1.0
 40
1.0
 40
1.0
 40
1.0
 10
10.16624605618109
 20
7.784920112596943
 30
0.0
 10
10.16559689793096
 20
7.785593314281806
 30
0.0
 10
10.16429885058822
 20
7.786939438524987
 30
0.0
 10
10.16138110311086
 20
7.789397463205527
 30
0.0
 10
10.15565993328202
 20
7.793064939211893
 30
0.0
 10
10.14603612759021
 20
7.795883042799233
 30
0.0
 10
10.13695157809258
 20
7.794975083421971
 30
0.0
 10
10.13063511295145
 20
7.792784261834369
 30
0.0
 10
10.12781140906294
 20
7.791261332537313
 30
0.0
 10
10.12639926598551
 20
7.790499710869764
 30
0.0
  0
SPLINE
  5
340
330
1F
100
AcDbEntity
  8
0
  6
Continuous
 62
     7
370
     0
100
AcDbSpline
210
0.0
220
0.0
230
1.0
 70
     8
 71
     3
 72
    15
 73
    11
 74
     0
 42
0.000000001
 43
0.00000001
 40
0.0
 40
0.0
 40
0.0
 40
0.0
 40
0.074284455384105
 40
0.1433906268050433
 40
0.2866474824502593
 40
0.5007283791548262
 40
0.7493687920853698
 40
0.874559056970291
 40
0.9372675318370973
 40
1.0
 40
1.0
 40
1.0
 40
1.0
 10
10.12639926598551
 20
7.790499710869764
 30
0.0
 10
10.12560302839122
 20
7.790011753660189
 30
0.0
 10
10.12406605800972
 20
7.789069854177008
 30
0.0
 10
10.12120320463271
 20
7.786983140297318
 30
0.0
 10
10.11752589330136
 20
7.783384089697599
 30
0.0
 10
10.11409186718177
 20
7.777028740526534
 30
0.0
 10
10.1146389313399
 20
7.769474759847465
 30
0.0
 10
10.11730235529642
 20
7.764094501943668
 30
0.0
 10
10.11933776678303
 20
7.76114819545086
 30
0.0
 10
10.12056416763025
 20
7.759766068995738
 30
0.0
 10
10.12117748534172
 20
7.759074873587373
 30
0.0
  0
SPLINE
  5
341
330
1F
100
AcDbEntity
  8
0
  6
Continuous
 62
     7
370
     0
100
AcDbSpline
210
0.0
220
0.0
230
1.0
 70
     8
 71
     3
 72
    16
 73
    12
 74
     0
 42
0.000000001
 43
0.00000001
 40
0.0
 40
0.0
 40
0.0
 40
0.0
 40
0.0625794781288135
 40
0.1251437417759404
 40
0.2500356406551109
 40
0.3749737287994385
 40
0.4998276230516491
 40
0.6246967345498219
 40
0.7497162312909456
 40
0.874837434408727
 40
0.9999999999999999
 40
0.9999999999999999
 40
0.9999999999999999
 40
0.9999999999999999
 10
10.12117748534172
 20
7.759074873587373
 30
0.0
 10
10.1218445846452
 20
7.75837959723683
 30
0.0
 10
10.12317862106527
 20
7.756989213573099
 30
0.0
 10
10.12621189366142
 20
7.754472063023118
 30
0.0
 10
10.13043010788924
 20
7.751720148111232
 30
0.0
 10
10.13602429987333
 20
7.749447317799934
 30
0.0
 10
10.14182291550201
 20
7.748052605845268
 30
0.0
 10
10.14745530455182
 20
7.7482297820893
 30
0.0
 10
10.15264284088479
 20
7.749372794148988
 30
0.0
 10
10.15740946462911
 20
7.751215204854473
 30
0.0
 10
10.16030650816517
 20
7.752789050072375
 30
0.0
 10
10.16175526931926
 20
7.753576102729972
 30
0.0
  0
ARC
  5
342
330
1F
100
AcDbEntity
  8
0
  6
Continuous
 62
     7
370
     0
100
AcDbCircle
 10
9.0959774178
 20
6.8663408252
 30
0.0
 40
1.307806276653842
100
AcDbArc
 50
51.6515979668
 51
52.7069582864
  0
SPLINE
  5
343
330
1F
100
AcDbEntity
  8
0
  6
Continuous
 62
     7
370
     0
100
AcDbSpline
210
0.0
220
0.0
230
1.0
 70
     8
 71
     3
 72
     8
 73
     4
 74
     0
 42
0.000000001
 43
0.00000001
 40
0.0
 40
0.0
 40
0.0
 40
0.0
 40
1.0
 40
1.0
 40
1.0
 40
1.0
 10
9.88836650304929
 20
7.906762275697504
 30
0.0
 10
9.88521981086053
 20
7.902523674297186
 30
0.0
 10
9.882072098915643
 20
7.898278280992684
 30
0.0
 10
9.878923322079661
 20
7.894026130344585
 30
0.0
  0
SPLINE
  5
344
330
1F
100
AcDbEntity
  8
0
  6
Continuous
 62
     7
370
     0
100
AcDbSpline
210
0.0
220
0.0
230
1.0
 70
     8
 71
     3
 72
     8
 73
     4
 74
     0
 42
0.000000001
 43
0.00000001
 40
0.0
 40
0.0
 40
0.0
 40
0.0
 40
1.0
 40
1.0
 40
1.0
 40
1.0
 10
9.878923322079661
 20
7.894026130344585
 30
0.0
 10
9.876543630072742
 20
7.890810250043144
 30
0.0
 10
9.874163328313987
 20
7.887590500517673
 30
0.0
 10
9.87178239726729
 20
7.884366896871176
 30
0.0
  0
SPLINE
  5
345
330
1F
100
AcDbEntity
  8
0
  6
Continuous
 62
     7
370
     0
100
AcDbSpline
210
0.0
220
0.0
230
1.0
 70
     8
 71
     3
 72
    11
 73
     7
 74
     0
 42
0.000000001
 43
0.00000001
 40
0.0
 40
0.0
 40
0.0
 40
0.0
 40
0.2500100436890095
 40
0.499993793209537
 40
0.7499834514766583
 40
1.0
 40
1.0
 40
1.0
 40
1.0
 10
9.87178239726729
 20
7.884366896871176
 30
0.0
 10
9.872903394249855
 20
7.884722007335219
 30
0.0
 10
9.87514527031699
 20
7.885432190915464
 30
0.0
 10
9.878688124492125
 20
7.886255557641142
 30
0.0
 10
9.88230507838183
 20
7.886956971498854
 30
0.0
 10
9.88479281489464
 20
7.887273902570484
 30
0.0
 10
9.886036750046086
 20
7.887432376628549
 30
0.0
  0
SPLINE
  5
346
330
1F
100
AcDbEntity
  8
0
  6
Continuous
 62
     7
370
     0
100
AcDbSpline
210
0.0
220
0.0
230
1.0
 70
     8
 71
     3
 72
     8
 73
     4
 74
     0
 42
0.000000001
 43
0.00000001
 40
0.0
 40
0.0
 40
0.0
 40
0.0
 40
1.0
 40
1.0
 40
1.0
 40
1.0
 10
9.886036750046086
 20
7.887432376628549
 30
0.0
 10
9.893157458977132
 20
7.888959411590189
 30
0.0
 10
9.900276912747168
 20
7.890479001964295
 30
0.0
 10
9.907395058725816
 20
7.891991189150335
 30
0.0
  0
SPLINE
  5
347
330
1F
100
AcDbEntity
  8
0
  6
Continuous
 62
     7
370
     0
100
AcDbSpline
210
0.0
220
0.0
230
1.0
 70
     8
 71
     3
 72
    15
 73
    11
 74
     0
 42
0.000000001
 43
0.00000001
 40
0.0
 40
0.0
 40
0.0
 40
0.0
 40
0.1252951067982555
 40
0.2505670241323184
 40
0.3770507931507509
 40
0.5008984838907241
 40
0.7495825887399077
 40
0.8746661269954238
 40
0.9373222084020464
 40
1.0
 40
1.0
 40
1.0
 40
1.0
 10
10.02676569718119
 20
7.887357156723161
 30
0.0
 10
10.02806914660558
 20
7.888168191578781
 30
0.0
 10
10.03067580421353
 20
7.889790111184689
 30
0.0
 10
10.03389282475731
 20
7.892757894199177
 30
0.0
 10
10.03628245063021
 20
7.896164208139659
 30
0.0
 10
10.03788832874133
 20
7.901253245877561
 30
0.0
 10
10.03715247615571
 20
7.906884566890739
 30
0.0
 10
10.03422406579301
 20
7.911444547400031
 30
0.0
 10
10.03203761747311
 20
7.913875785910041
 30
0.0
 10
10.03076306842394
 20
7.915002436786811
 30
0.0
 10
10.03012568351138
 20
7.91556585980379
 30
0.0
  0
SPLINE
  5
348
330
1F
100
AcDbEntity
  8
0
  6
Continuous
 62
     7
370
     0
100
AcDbSpline
210
0.0
220
0.0
230
1.0
 70
     8
 71
     3
 72
    14
 73
    10
 74
     0
 42
0.000000001
 43
0.00000001
 40
0.0
 40
0.0
 40
0.0
 40
0.0
 40
0.0627712587146594
 40
0.125516490868695
 40
0.2507936783371119
 40
0.4996926161412437
 40
0.7490368580308174
 40
0.8744925538895076
 40
1.0
 40
1.0
 40
1.0
 40
1.0
 10
10.03012568351138
 20
7.91556585980379
 30
0.0
 10
10.02943665442802
 20
7.916122716975873
 30
0.0
 10
10.02805888195029
 20
7.917236200432889
 30
0.0
 10
10.02498492539922
 20
7.919232189509486
 30
0.0
 10
10.01900355867959
 20
7.922118148681605
 30
0.0
 10
10.00907403567098
 20
7.923986801396304
 30
0.0
 10
9.99983418108257
 20
7.922582532340316
 30
0.0
 10
9.993465720368112
 20
7.92022490879255
 30
0.0
 10
9.990638198719886
 20
7.918689684055725
 30
0.0
 10
9.989224146368985
 20
7.917921913400591
 30
0.0
  0
SPLINE
  5
349
330
1F
100
AcDbEntity
  8
0
  6
Continuous
 62
     7
370
     0
100
AcDbSpline
210
0.0
220
0.0
230
1.0
 70
     8
 71
     3
 72
    15
 73
    11
 74
     0
 42
0.000000001
 43
0.00000001
 40
0.0
 40
0.0
 40
0.0
 40
0.0
 40
0.0742844553839553
 40
0.143390626805042
 40
0.2866474824502559
 40
0.5007283791548254
 40
0.749368792085372
 40
0.874559056970292
 40
0.9372675318370988
 40
1.0
 40
1.0
 40
1.0
 40
1.0
 10
9.989224146368985
 20
7.917921913400591
 30
0.0
 10
9.988428918144319
 20
7.917437201389589
 30
0.0
 10
9.986893896140073
 20
7.916501566084487
 30
0.0
 10
9.984046528269692
 20
7.914464616699282
 30
0.0
 10
9.980421970621537
 20
7.911034692431119
 30
0.0
 10
9.977144881521328
 20
7.905179329539129
 30
0.0
 10
9.977979223845768
 20
7.898517711603549
 30
0.0
 10
9.980900813225825
 20
7.893913208263204
 30
0.0
 10
9.983091582793323
 20
7.891426672322389
 30
0.0
 10
9.984397474642202
 20
7.890276638258591
 30
0.0
 10
9.985050545456687
 20
7.889701511242237
 30
0.0
  0
SPLINE
  5
34A
330
1F
100
AcDbEntity
  8
0
  6
Continuous
 62
     7
370
     0
100
AcDbSpline
210
0.0
220
0.0
230
1.0
 70
     8
 71
     3
 72
    16
 73
    12
 74
     0
 42
0.000000001
 43
0.00000001
 40
0.0
 40
0.0
 40
0.0
 40
0.0
 40
0.0625794781288148
 40
0.1251437417759408
 40
0.2500356406551142
 40
0.3749737287994396
 40
0.4998276230516483
 40
0.6246967345498209
 40
0.7497162312909463
 40
0.8748374344087271
 40
1.0
 40
1.0
 40
1.0
 40
1.0
 10
9.985050545456687
 20
7.889701511242237
 30
0.0
 10
9.985758903898395
 20
7.889125942782867
 30
0.0
 10
9.98717544856391
 20
7.887974945797794
 30
0.0
 10
9.99037318962539
 20
7.885928463559425
 30
0.0
 10
9.994793316253713
 20
7.883745404453646
 30
0.0
 10
10.00060446102603
 20
7.882071748653677
 30
0.0
 10
10.00659213360669
 20
7.881190250897622
 30
0.0
 10
10.01234812762533
 20
7.881698542932915
 30
0.0
 10
10.01761044766851
 20
7.883040472190832
 30
0.0
 10
10.02241389875858
 20
7.884980405364927
 30
0.0
 10
10.02531493789618
 20
7.886564818989132
 30
0.0
 10
10.02676569718119
 20
7.887357156723161
 30
0.0
  0
SPLINE
  5
34B
330
1F
100
AcDbEntity
  8
0
  6
Continuous
 62
     7
370
     0
100
AcDbSpline
210
0.0
220
0.0
230
1.0
 70
     8
 71
     3
 72
     8
 73
     4
 74
     0
 42
0.000000001
 43
0.00000001
 40
0.0
 40
0.0
 40
0.0
 40
0.0
 40
1.0
 40
1.0
 40
1.0
 40
1.0
 10
9.639380543156614
 20
8.098891803568538
 30
0.0
 10
9.65126581278223
 20
8.10126842934555
 30
0.0
 10
9.663163292395097
 20
8.10357861844008
 30
0.0
 10
9.675071941140166
 20
8.105822699153768
 30
0.0
  0
ARC
  5
34C
330
1F
100
AcDbEntity
  8
0
  6
Continuous
 62
     7
370
     0
100
AcDbCircle
 10
9.4507621428
 20
7.4213616227
 30
0.0
 40
0.7202790089887867
100
AcDbArc
 50
71.8551302271
 51
73.1327232456
  0
LINE
  5
34D
330
1F
100
AcDbEntity
  8
0
  6
Continuous
 62
     7
370
     0
100
AcDbLine
 10
9.6597551905
 20
8.1106538371
 30
0.0
 11
9.6393805432
 21
8.0988918036
 31
0.0
  0
SPLINE
  5
34E
330
1F
100
AcDbEntity
  8
0
  6
Continuous
 62
     7
370
     0
100
AcDbSpline
210
0.0
220
0.0
230
1.0
 70
     8
 71
     3
 72
    14
 73
    10
 74
     0
 42
0.000000001
 43
0.00000001
 40
0.0
 40
0.0
 40
0.0
 40
0.0
 40
0.2504464664184512
 40
0.5006269836253822
 40
0.6256171862413129
 40
0.7503617214490083
 40
0.8749138878876713
 40
0.9374334273388256
 40
1.0
 40
1.0
 40
1.0
 40
1.0
 10
9.624771977079686
 20
8.114550410198504
 30
0.0
 10
9.627034573462504
 20
8.115885993975832
 30
0.0
 10
9.63155736357606
 20
8.118555743273498
 30
0.0
 10
9.636543403577763
 20
8.122038133130093
 30
0.0
 10
9.639528179873404
 20
8.124939961206364
 30
0.0
 10
9.64012308899342
 20
8.12704241950958
 30
0.0
 10
9.63946564901811
 20
8.1285696283089
 30
0.0
 10
9.63799918610636
 20
8.129472588741216
 30
0.0
 10
9.636952589841034
 20
8.1297706609004
 30
0.0
 10
9.636429094944791
 20
8.12991975301855
 30
0.0
  0
SPLINE
  5
34F
330
1F
100
AcDbEntity
  8
0
  6
Continuous
 62
     7
370
     0
100
AcDbSpline
210
0.0
220
0.0
230
1.0
 70
     8
 71
     3
 72
    14
 73
    10
 74
     0
 42
0.000000001
 43
0.00000001
 40
0.0
 40
0.0
 40
0.0
 40
0.0
 40
0.0625718620266095
 40
0.1250838325594704
 40
0.2496292595893121
 40
0.3743667264463
 40
0.4993490079196505
 40
0.7495426895023142
 40
1.0
 40
1.0
 40
1.0
 40
1.0
 10
9.636429094944791
 20
8.12991975301855
 30
0.0
 10
9.635850611330298
 20
8.13003633542387
 30
0.0
 10
9.634694197804633
 20
8.130269388646106
 30
0.0
 10
9.631887291840561
 20
8.130369015822984
 30
0.0
 10
9.627946692404795
 20
8.129968618469615
 30
0.0
 10
9.623123489467893
 20
8.128863881803857
 30
0.0
 10
9.6173130311342
 20
8.126648563740375
 30
0.0
 10
9.610884157653588
 20
8.123509965377604
 30
0.0
 10
9.606221803047728
 20
8.120875049511483
 30
0.0
 10
9.60388939821154
 20
8.119556897841647
 30
0.0
  0
SPLINE
  5
350
330
1F
100
AcDbEntity
  8
0
  6
Continuous
 62
     7
370
     0
100
AcDbSpline
210
0.0
220
0.0
230
1.0
 70
     8
 71
     3
 72
    15
 73
    11
 74
     0
 42
0.000000001
 43
0.00000001
 40
0.0
 40
0.0
 40
0.0
 40
0.0
 40
0.2504089787798949
 40
0.3868224180873037
 40
0.5007925876291428
 40
0.6257359606018152
 40
0.7504625586280257
 40
0.8749216804690298
 40
0.9374459870515642
 40
1.0
 40
1.0
 40
1.0
 40
1.0
 10
9.60388939821154
 20
8.119556897841647
 30
0.0
 10
9.601619747776052
 20
8.11821893808533
 30
0.0
 10
9.59811367673201
 20
8.116152107931061
 30
0.0
 10
9.594022397545768
 20
8.11339565424786
 30
0.0
 10
9.591274381961266
 20
8.111297494616311
 30
0.0
 10
9.58914821798553
 20
8.109213811102629
 30
0.0
 10
9.588476229973573
 20
8.107155304798216
 30
0.0
 10
9.589176888613844
 20
8.105671948057116
 30
0.0
 10
9.590686776840602
 20
8.104805038254383
 30
0.0
 10
9.591739330140193
 20
8.104510085465186
 30
0.0
 10
9.59226573178181
 20
8.104362574044632
 30
0.0
  0
SPLINE
  5
351
330
1F
100
AcDbEntity
  8
0
  6
Continuous
 62
     7
370
     0
100
AcDbSpline
210
0.0
220
0.0
230
1.0
 70
     8
 71
     3
 72
    11
 73
     7
 74
     0
 42
0.000000001
 43
0.00000001
 40
0.0
 40
0.0
 40
0.0
 40
0.0
 40
0.2499764207202827
 40
0.4998293549776547
 40
0.7498122864636029
 40
1.0
 40
1.0
 40
1.0
 40
1.0
 10
9.59226573178181
 20
8.104362574044632
 30
0.0
 10
9.593011773606476
 20
8.104216119726923
 30
0.0
 10
9.59450348871678
 20
8.103923283438828
 30
0.0
 10
9.597299772435008
 20
8.103892306252893
 30
0.0
 10
9.600320016861929
 20
8.104181416812166
 30
0.0
 10
9.602355499829471
 20
8.10460788070227
 30
0.0
 10
9.603373658001408
 20
8.104821199949676
 30
0.0
  0
SPLINE
  5
352
330
1F
100
AcDbEntity
  8
0
  6
Continuous
 62
     7
370
     0
100
AcDbSpline
210
0.0
220
0.0
230
1.0
 70
     8
 71
     3
 72
    12
 73
     8
 74
     0
 42
0.000000001
 43
0.00000001
 40
0.0
 40
0.0
 40
0.0
 40
0.0
 40
0.1249203065853095
 40
0.2499253476584995
 40
0.4998213427851124
 40
0.7498857630912044
 40
1.0
 40
1.0
 40
1.0
 40
1.0
 10
9.603373658001408
 20
8.104821199949676
 30
0.0
 10
9.604426714556737
 20
8.10511953003354
 30
0.0
 10
9.606533541964462
 20
8.105716392561062
 30
0.0
 10
9.610430990775582
 20
8.107216234989702
 30
0.0
 10
9.614969897540824
 20
8.109257038732547
 30
0.0
 10
9.62002693589006
 20
8.11185891586137
 30
0.0
 10
9.623190191665564
 20
8.11365318585112
 30
0.0
 10
9.624771977079686
 20
8.114550410198504
 30
0.0
  0
SPLINE
  5
353
330
1F
100
AcDbEntity
  8
0
  6
Continuous
 62
     7
370
     0
100
AcDbSpline
210
0.0
220
0.0
230
1.0
 70
     8
 71
     3
 72
    14
 73
    10
 74
     0
 42
0.000000001
 43
0.00000001
 40
0.0
 40
0.0
 40
0.0
 40
0.0
 40
0.2504464664184506
 40
0.50062698362538
 40
0.6256171862413114
 40
0.7503617214490108
 40
0.8749138878876687
 40
0.9374334273388257
 40
1.0
 40
1.0
 40
1.0
 40
1.0
 10
9.583185709720146
 20
8.123788430099953
 30
0.0
 10
9.585448907621238
 20
8.12512140826291
 30
0.0
 10
9.589972900132588
 20
8.127785949098731
 30
0.0
 10
9.594971305284814
 20
8.131214812117852
 30
0.0
 10
9.597980411763947
 20
8.134011847884388
 30
0.0
 10
9.598612016882992
 20
8.135957278383582
 30
0.0
 10
9.597995047574262
 20
8.137313115777593
 30
0.0
 10
9.59656628440153
 20
8.138057889639695
 30
0.0
 10
9.595539401982213
 20
8.138273929352179
 30
0.0
 10
9.595025767715246
 20
8.138381989824605
 30
0.0
  0
SPLINE
  5
354
330
1F
100
AcDbEntity
  8
0
  6
Continuous
 62
     7
370
     0
100
AcDbSpline
210
0.0
220
0.0
230
1.0
 70
     8
 71
     3
 72
    14
 73
    10
 74
     0
 42
0.000000001
 43
0.00000001
 40
0.0
 40
0.0
 40
0.0
 40
0.0
 40
0.062571862026608
 40
0.1250838325594683
 40
0.2496292595893075
 40
0.3743667264462932
 40
0.4993490079196466
 40
0.7495426895023138
 40
1.0
 40
1.0
 40
1.0
 40
1.0
 10
9.595025767715246
 20
8.138381989824605
 30
0.0
 10
9.59445719107037
 20
8.138457504896763
 30
0.0
 10
9.59332058200135
 20
8.138608462760821
 30
0.0
 10
9.590552021877333
 20
8.13855043154114
 30
0.0
 10
9.586653841023946
 20
8.137977168372313
 30
0.0
 10
9.581869297800745
 20
8.13671644781605
 30
0.0
 10
9.576085323498447
 20
8.13439490686475
 30
0.0
 10
9.569669877064731
 20
8.131202713013202
 30
0.0
 10
9.565008850361549
 20
8.128562498621008
 30
0.0
 10
9.562677109826318
 20
8.127241696293105
 30
0.0
  0
SPLINE
  5
355
330
1F
100
AcDbEntity
  8
0
  6
Continuous
 62
     7
370
     0
100
AcDbSpline
210
0.0
220
0.0
230
1.0
 70
     8
 71
     3
 72
    15
 73
    11
 74
     0
 42
0.000000001
 43
0.00000001
 40
0.0
 40
0.0
 40
0.0
 40
0.0
 40
0.2504089787798957
 40
0.3868224181024896
 40
0.5007925876291487
 40
0.6257359606018191
 40
0.750462558628029
 40
0.8749216804690273
 40
0.9374459870515641
 40
1.0
 40
1.0
 40
1.0
 40
1.0
 10
9.562677109826318
 20
8.127241696293105
 30
0.0
 10
9.560406808043629
 20
8.12590633298365
 30
0.0
 10
9.556899730822668
 20
8.12384351372323
 30
0.0
 10
9.552799208102568
 20
8.121123975041284
 30
0.0
 10
9.550039248818189
 20
8.119073616419845
 30
0.0
 10
9.547893180423591
 20
8.1170697799199
 30
0.0
 10
9.547182751642241
 20
8.11516639856655
 30
0.0
 10
9.547840697706297
 20
8.113857126675011
 30
0.0
 10
9.549311844209205
 20
8.113149545007705
 30
0.0
 10
9.55034456048437
 20
8.112936847693142
 30
0.0
 10
9.550861041258106
 20
8.11283047377783
 30
0.0
  0
SPLINE
  5
356
330
1F
100
AcDbEntity
  8
0
  6
Continuous
 62
     7
370
     0
100
AcDbSpline
210
0.0
220
0.0
230
1.0
 70
     8
 71
     3
 72
    11
 73
     7
 74
     0
 42
0.000000001
 43
0.00000001
 40
0.0
 40
0.0
 40
0.0
 40
0.0
 40
0.2499764207202938
 40
0.4998293549776804
 40
0.7498122864635991
 40
1.0
 40
1.0
 40
1.0
 40
1.0
 10
9.550861041258106
 20
8.11283047377783
 30
0.0
 10
9.551594490803014
 20
8.112736462265005
 30
0.0
 10
9.5530610275743
 20
8.112548485680334
 30
0.0
 10
9.555822047595509
 20
8.112665950209134
 30
0.0
 10
9.558811470667779
 20
8.11308569873631
 30
0.0
 10
9.560831287257098
 20
8.113579072251827
 30
0.0
 10
9.561841609032825
 20
8.113825860009158
 30
0.0
  0
SPLINE
  5
357
330
1F
100
AcDbEntity
  8
0
  6
Continuous
 62
     7
370
     0
100
AcDbSpline
210
0.0
220
0.0
230
1.0
 70
     8
 71
     3
 72
    12
 73
     8
 74
     0
 42
0.000000001
 43
0.00000001
 40
0.0
 40
0.0
 40
0.0
 40
0.0
 40
0.1249203065853081
 40
0.2499253476585004
 40
0.4998213427851101
 40
0.7498857630912035
 40
1.0
 40
1.0
 40
1.0
 40
1.0
 10
9.561841609032825
 20
8.113825860009158
 30
0.0
 10
9.562888216924486
 20
8.11415181047503
 30
0.0
 10
9.564982142630686
 20
8.114803932501701
 30
0.0
 10
9.568864104367286
 20
8.116370467522216
 30
0.0
 10
9.573391101998471
 20
8.118462699755204
 30
0.0
 10
9.578441645292635
 20
8.121092704952522
 30
0.0
 10
9.581604249915015
 20
8.122889795388833
 30
0.0
 10
9.583185709720146
 20
8.123788430099953
 30
0.0
  0
SPLINE
  5
358
330
1F
100
AcDbEntity
  8
0
  6
Continuous
 62
     7
370
     0
100
AcDbSpline
210
0.0
220
0.0
230
1.0
 70
     8
 71
     3
 72
    11
 73
     7
 74
     0
 42
0.000000001
 43
0.00000001
 40
0.0
 40
0.0
 40
0.0
 40
0.0
 40
0.2786390363769594
 40
0.500188661778606
 40
0.7655079241559978
 40
1.0
 40
1.0
 40
1.0
 40
1.0
 10
9.342676129426254
 20
8.109379749385804
 30
0.0
 10
9.342987621893366
 20
8.109636103383675
 30
0.0
 10
9.343546786188165
 20
8.110096287874708
 30
0.0
 10
9.344247519912392
 20
8.110724241822256
 30
0.0
 10
9.344715434036331
 20
8.111223195906653
 30
0.0
 10
9.344729072055436
 20
8.111412147276576
 30
0.0
 10
9.344735470484533
 20
8.111500795923734
 30
0.0
  0
SPLINE
  5
359
330
1F
100
AcDbEntity
  8
0
  6
Continuous
 62
     7
370
     0
100
AcDbSpline
210
0.0
220
0.0
230
1.0
 70
     8
 71
     3
 72
    11
 73
     7
 74
     0
 42
0.000000001
 43
0.00000001
 40
0.0
 40
0.0
 40
0.0
 40
0.0
 40
0.2501057527660617
 40
0.5000136770967165
 40
0.7499022689413759
 40
1.0
 40
1.0
 40
1.0
 40
1.0
 10
9.344735470484533
 20
8.111500795923734
 30
0.0
 10
9.344698321906545
 20
8.111522898653263
 30
0.0
 10
9.344624054134318
 20
8.111567086629524
 30
0.0
 10
9.3442918541108
 20
8.111517283966936
 30
0.0
 10
9.343779442112
 20
8.111369101201541
 30
0.0
 10
9.343303367482758
 20
8.11119318019557
 30
0.0
 10
9.34306523059954
 20
8.1111051828996
 30
0.0
  0
SPLINE
  5
35A
330
1F
100
AcDbEntity
  8
0
  6
Continuous
 62
     7
370
     0
100
AcDbSpline
210
0.0
220
0.0
230
1.0
 70
     8
 71
     3
 72
    13
 73
     9
 74
     0
 42
0.000000001
 43
0.00000001
 40
0.0
 40
0.0
 40
0.0
 40
0.0
 40
0.1254299417467577
 40
0.2506842283024203
 40
0.4996143292729102
 40
0.7490348254190049
 40
0.8744607112379309
 40
1.0
 40
1.0
 40
1.0
 40
1.0
 10
9.34306523059954
 20
8.1111051828996
 30
0.0
 10
9.342684180506605
 20
8.110955142088866
 30
0.0
 10
9.341922613952706
 20
8.110655270588257
 30
0.0
 10
9.33994982502667
 20
8.109774484426351
 30
0.0
 10
9.337038376436253
 20
8.108358104344967
 30
0.0
 10
9.33413205471291
 20
8.10682005505338
 30
0.0
 10
9.332077714768788
 20
8.105676838017867
 30
0.0
 10
9.331131192532421
 20
8.105134676811588
 30
0.0
 10
9.330657717563037
 20
8.104863473716
 30
0.0
  0
SPLINE
  5
35B
330
1F
100
AcDbEntity
  8
0
  6
Continuous
 62
     7
370
     0
100
AcDbSpline
210
0.0
220
0.0
230
1.0
 70
     8
 71
     3
 72
    13
 73
     9
 74
     0
 42
0.000000001
 43
0.00000001
 40
0.0
 40
0.0
 40
0.0
 40
0.0
 40
0.1435207777286522
 40
0.286879737095212
 40
0.5709063242996466
 40
0.7849096377848829
 40
0.8923723273037014
 40
1.0
 40
1.0
 40
1.0
 40
1.0
 10
9.330657717563037
 20
8.104863473716
 30
0.0
 10
9.330130485091328
 20
8.104556798826678
 30
0.0
 10
9.32907661459769
 20
8.103943794821161
 30
0.0
 10
9.327292677264039
 20
8.102854174486776
 30
0.0
 10
9.326081973908884
 20
8.101978756813077
 30
0.0
 10
9.326293197046049
 20
8.101817438989888
 30
0.0
 10
9.327076837479561
 20
8.102036874836132
 30
0.0
 10
9.3276579081975
 20
8.102249676825414
 30
0.0
 10
9.32794866640907
 20
8.102356159434004
 30
0.0
  0
SPLINE
  5
35C
330
1F
100
AcDbEntity
  8
0
  6
Continuous
 62
     7
370
     0
100
AcDbSpline
210
0.0
220
0.0
230
1.0
 70
     8
 71
     3
 72
    11
 73
     7
 74
     0
 42
0.000000001
 43
0.00000001
 40
0.0
 40
0.0
 40
0.0
 40
0.0
 40
0.2500487591314054
 40
0.4999858921707482
 40
0.7499263637970995
 40
1.0
 40
1.0
 40
1.0
 40
1.0
 10
9.32794866640907
 20
8.102356159434004
 30
0.0
 10
9.32817959015346
 20
8.102445399333225
 30
0.0
 10
9.32864133455389
 20
8.10262383929343
 30
0.0
 10
9.329505085295063
 20
8.102992231964803
 30
0.0
 10
9.330429917353262
 20
8.103398621383075
 30
0.0
 10
9.331112936507553
 20
8.10371525229989
 30
0.0
 10
9.33145453703609
 20
8.10387360992113
 30
0.0
  0
SPLINE
  5
35D
330
1F
100
AcDbEntity
  8
0
  6
Continuous
 62
     7
370
     0
100
AcDbSpline
210
0.0
220
0.0
230
1.0
 70
     8
 71
     3
 72
    11
 73
     7
 74
     0
 42
0.000000001
 43
0.00000001
 40
0.0
 40
0.0
 40
0.0
 40
0.0
 40
0.1427889218553798
 40
0.2856613563781165
 40
0.4999550547499511
 40
1.0
 40
1.0
 40
1.0
 40
1.0
 10
9.33145453703609
 20
8.10387360992113
 30
0.0
 10
9.331973374618938
 20
8.104119012203578
 30
0.0
 10
9.333011353236122
 20
8.104609960296406
 30
0.0
 10
9.334886201481739
 20
8.10552606251465
 30
0.0
 10
9.33810149203766
 20
8.107103866958179
 30
0.0
 10
9.340792437713453
 20
8.10844261262412
 30
0.0
 10
9.342676129426254
 20
8.109379749385804
 30
0.0
  0
SPLINE
  5
35E
330
1F
100
AcDbEntity
  8
0
  6
Continuous
 62
     7
370
     0
100
AcDbSpline
210
0.0
220
0.0
230
1.0
 70
     8
 71
     3
 72
    13
 73
     9
 74
     0
 42
0.000000001
 43
0.00000001
 40
0.0
 40
0.0
 40
0.0
 40
0.0
 40
0.2001718321700999
 40
0.5002900930362412
 40
0.6253436745187151
 40
0.7503297953505738
 40
0.8752622292163819
 40
1.0
 40
1.0
 40
1.0
 40
1.0
 10
9.347456128703
 20
8.111057513395599
 30
0.0
 10
9.34721117323177
 20
8.110842497401302
 30
0.0
 10
9.346598955248036
 20
8.110305107246925
 30
0.0
 10
9.345997122833946
 20
8.109702651620097
 30
0.0
 10
9.345773356636508
 20
8.109310884003344
 30
0.0
 10
9.345939665521888
 20
8.109196315349516
 30
0.0
 10
9.346343095015328
 20
8.109196989409936
 30
0.0
 10
9.34693973678677
 20
8.109370875852147
 30
0.0
 10
9.347237825077402
 20
8.109457751285285
 30
0.0
  0
SPLINE
  5
35F
330
1F
100
AcDbEntity
  8
0
  6
Continuous
 62
     7
370
     0
100
AcDbSpline
210
0.0
220
0.0
230
1.0
 70
     8
 71
     3
 72
    12
 73
     8
 74
     0
 42
0.000000001
 43
0.00000001
 40
0.0
 40
0.0
 40
0.0
 40
0.0
 40
0.1254098869537935
 40
0.2505747542013327
 40
0.4996165625312203
 40
0.7494318480725005
 40
1.0
 40
1.0
 40
1.0
 40
1.0
 10
9.347237825077402
 20
8.109457751285285
 30
0.0
 10
9.347544614072449
 20
8.109562260016085
 30
0.0
 10
9.348157592673205
 20
8.109771073293638
 30
0.0
 10
9.34977923607676
 20
8.110432418243603
 30
0.0
 10
9.352126090751236
 20
8.111512670491095
 30
0.0
 10
9.354835350237359
 20
8.11289909925103
 30
0.0
 10
9.35633282446536
 20
8.113749045341216
 30
0.0
 10
9.35708268811346
 20
8.114174657791805
 30
0.0
  0
SPLINE
  5
360
330
1F
100
AcDbEntity
  8
0
  6
Continuous
 62
     7
370
     0
100
AcDbSpline
210
0.0
220
0.0
230
1.0
 70
     8
 71
     3
 72
    12
 73
     8
 74
     0
 42
0.000000001
 43
0.00000001
 40
0.0
 40
0.0
 40
0.0
 40
0.0
 40
0.2505615752638378
 40
0.5002616093773031
 40
0.7495438170943098
 40
0.874654516130372
 40
1.0
 40
1.0
 40
1.0
 40
1.0
 10
9.35708268811346
 20
8.114174657791805
 30
0.0
 10
9.35778224048231
 20
8.114586694308775
 30
0.0
 10
9.35917893985058
 20
8.11540935057953
 30
0.0
 10
9.360530051698618
 20
8.116374170627685
 30
0.0
 10
9.36078053908919
 20
8.116794444551639
 30
0.0
 10
9.360312858995703
 20
8.116799306923184
 30
0.0
 10
9.359779958845744
 20
8.116638358227554
 30
0.0
 10
9.359513258992797
 20
8.11655780844077
 30
0.0
  0
SPLINE
  5
361
330
1F
100
AcDbEntity
  8
0
  6
Continuous
 62
     7
370
     0
100
AcDbSpline
210
0.0
220
0.0
230
1.0
 70
     8
 71
     3
 72
    12
 73
     8
 74
     0
 42
0.000000001
 43
0.00000001
 40
0.0
 40
0.0
 40
0.0
 40
0.0
 40
0.1248393077247072
 40
0.2498284197823321
 40
0.4994890782924246
 40
0.7496925475890707
 40
0.9999999999999999
 40
0.9999999999999999
 40
0.9999999999999999
 40
0.9999999999999999
 10
9.359513258992797
 20
8.11655780844077
 30
0.0
 10
9.359146310856447
 20
8.116429886286127
 30
0.0
 10
9.358411974254322
 20
8.116173888473163
 30
0.0
 10
9.356470570933858
 20
8.115354458598485
 30
0.0
 10
9.353865834539086
 20
8.114172557036273
 30
0.0
 10
9.350655682704605
 20
8.112637675082057
 30
0.0
 10
9.348522794408847
 20
8.11158430690488
 30
0.0
 10
9.347456128703
 20
8.111057513395599
 30
0.0
  0
OLE2FRAME
  5
362
330
1F
100
AcDbEntity
  8
0
100
AcDbOle2Frame
 70
     2
  3
Paintbrush Picture
 10
9.0178120406
 20
1.3267570784
 30
0.0
 11
10.4397105087
 21
1.1242314806
 31
0.0
 71
     2
 72
     0
 73
     1
 90
     7296
310
8055C64EE7A81E092240C05F59A1653AF53F0000000000000000FD155DBC21E1
310
2440C05F59A1653AF53F0000000000000000FD155DBC21E12440A1732426DAFC
310
F13F0000000000000000C64EE7A81E092240A1732426DAFCF13F000000000000
310
00000000000001000000000100000100000001000000000001000000001C0000
310
D0CF11E0A1B11AE1000000000000000000000000000000003E000300FEFF0900
310
0600000000000000000000000100000001000000000000000010000002000000
310
01000000FEFFFFFF0000000000000000FFFFFFFFFFFFFFFFFFFFFFFFFFFFFFFF
310
FFFFFFFFFFFFFFFFFFFFFFFFFFFFFFFFFFFFFFFFFFFFFFFFFFFFFFFFFFFFFFFF
310
FFFFFFFFFFFFFFFFFFFFFFFFFFFFFFFFFFFFFFFFFFFFFFFFFFFFFFFFFFFFFFFF
310
FFFFFFFFFFFFFFFFFFFFFFFFFFFFFFFFFFFFFFFFFFFFFFFFFFFFFFFFFFFFFFFF
310
FFFFFFFFFFFFFFFFFFFFFFFFFFFFFFFFFFFFFFFFFFFFFFFFFFFFFFFFFFFFFFFF
310
FFFFFFFFFFFFFFFFFFFFFFFFFFFFFFFFFFFFFFFFFFFFFFFFFFFFFFFFFFFFFFFF
310
FFFFFFFFFFFFFFFFFFFFFFFFFFFFFFFFFFFFFFFFFFFFFFFFFFFFFFFFFFFFFFFF
310
FFFFFFFFFFFFFFFFFFFFFFFFFFFFFFFFFFFFFFFFFFFFFFFFFFFFFFFFFFFFFFFF
310
FFFFFFFFFFFFFFFFFFFFFFFFFFFFFFFFFFFFFFFFFFFFFFFFFFFFFFFFFFFFFFFF
310
FFFFFFFFFFFFFFFFFFFFFFFFFFFFFFFFFFFFFFFFFFFFFFFFFFFFFFFFFFFFFFFF
310
FFFFFFFFFFFFFFFFFFFFFFFFFFFFFFFFFFFFFFFFFFFFFFFFFFFFFFFFFFFFFFFF
310
FFFFFFFFFFFFFFFFFFFFFFFFFFFFFFFFFFFFFFFFFFFFFFFFFFFFFFFFFFFFFFFF
310
FFFFFFFFFFFFFFFFFFFFFFFFFFFFFFFFFFFFFFFFFFFFFFFFFFFFFFFFFFFFFFFF
310
FFFFFFFFFFFFFFFFFFFFFFFFFFFFFFFFFFFFFFFFFFFFFFFFFFFFFFFFFFFFFFFF
310
FDFFFFFFFEFFFFFFFEFFFFFFFEFFFFFF05000000060000000700000008000000
310
090000000A0000000B0000000C000000FEFFFFFFFFFFFFFFFFFFFFFFFFFFFFFF
310
FFFFFFFFFFFFFFFFFFFFFFFFFFFFFFFFFFFFFFFFFFFFFFFFFFFFFFFFFFFFFFFF
310
FFFFFFFFFFFFFFFFFFFFFFFFFFFFFFFFFFFFFFFFFFFFFFFFFFFFFFFFFFFFFFFF
310
FFFFFFFFFFFFFFFFFFFFFFFFFFFFFFFFFFFFFFFFFFFFFFFFFFFFFFFFFFFFFFFF
310
FFFFFFFFFFFFFFFFFFFFFFFFFFFFFFFFFFFFFFFFFFFFFFFFFFFFFFFFFFFFFFFF
310
FFFFFFFFFFFFFFFFFFFFFFFFFFFFFFFFFFFFFFFFFFFFFFFFFFFFFFFFFFFFFFFF
310
FFFFFFFFFFFFFFFFFFFFFFFFFFFFFFFFFFFFFFFFFFFFFFFFFFFFFFFFFFFFFFFF
310
FFFFFFFFFFFFFFFFFFFFFFFFFFFFFFFFFFFFFFFFFFFFFFFFFFFFFFFFFFFFFFFF
310
FFFFFFFFFFFFFFFFFFFFFFFFFFFFFFFFFFFFFFFFFFFFFFFFFFFFFFFFFFFFFFFF
310
FFFFFFFFFFFFFFFFFFFFFFFFFFFFFFFFFFFFFFFFFFFFFFFFFFFFFFFFFFFFFFFF
310
FFFFFFFFFFFFFFFFFFFFFFFFFFFFFFFFFFFFFFFFFFFFFFFFFFFFFFFFFFFFFFFF
310
FFFFFFFFFFFFFFFFFFFFFFFFFFFFFFFFFFFFFFFFFFFFFFFFFFFFFFFFFFFFFFFF
310
FFFFFFFFFFFFFFFFFFFFFFFFFFFFFFFFFFFFFFFFFFFFFFFFFFFFFFFFFFFFFFFF
310
FFFFFFFFFFFFFFFFFFFFFFFFFFFFFFFFFFFFFFFFFFFFFFFFFFFFFFFFFFFFFFFF
310
FFFFFFFFFFFFFFFFFFFFFFFFFFFFFFFFFFFFFFFFFFFFFFFFFFFFFFFFFFFFFFFF
310
52006F006F007400200045006E00740072007900000000000000000000000000
310
0000000000000000000000000000000000000000000000000000000000000000
310
16000500FFFFFFFFFFFFFFFF020000000A00030000000000C000000000000046
310
000000000000000000000000E0B9E999551ED10103000000C000000000000000
310
01004F006C006500000000000000000000000000000000000000000000000000
310
0000000000000000000000000000000000000000000000000000000000000000
310
0A000200FFFFFFFFFFFFFFFFFFFFFFFF00000000000000000000000000000000
310
0000000000000000000000000000000000000000000000001400000000000000
310
010043006F006D0070004F0062006A0000000000000000000000000000000000
310
0000000000000000000000000000000000000000000000000000000000000000
310
120002010100000003000000FFFFFFFF00000000000000000000000000000000
310
0000000000000000000000000000000000000000010000004D00000000000000
310
01004F006C006500310030004E00610074006900760065000000000000000000
310
0000000000000000000000000000000000000000000000000000000000000000
310
1A000200FFFFFFFFFFFFFFFFFFFFFFFF00000000000000000000000000000000
310
000000000000000000000000000000000000000004000000E411000000000000
310
FEFFFFFF02000000FEFFFFFFFFFFFFFFFFFFFFFFFFFFFFFFFFFFFFFFFFFFFFFF
310
FFFFFFFFFFFFFFFFFFFFFFFFFFFFFFFFFFFFFFFFFFFFFFFFFFFFFFFFFFFFFFFF
310
FFFFFFFFFFFFFFFFFFFFFFFFFFFFFFFFFFFFFFFFFFFFFFFFFFFFFFFFFFFFFFFF
310
FFFFFFFFFFFFFFFFFFFFFFFFFFFFFFFFFFFFFFFFFFFFFFFFFFFFFFFFFFFFFFFF
310
FFFFFFFFFFFFFFFFFFFFFFFFFFFFFFFFFFFFFFFFFFFFFFFFFFFFFFFFFFFFFFFF
310
FFFFFFFFFFFFFFFFFFFFFFFFFFFFFFFFFFFFFFFFFFFFFFFFFFFFFFFFFFFFFFFF
310
FFFFFFFFFFFFFFFFFFFFFFFFFFFFFFFFFFFFFFFFFFFFFFFFFFFFFFFFFFFFFFFF
310
FFFFFFFFFFFFFFFFFFFFFFFFFFFFFFFFFFFFFFFFFFFFFFFFFFFFFFFFFFFFFFFF
310
FFFFFFFFFFFFFFFFFFFFFFFFFFFFFFFFFFFFFFFFFFFFFFFFFFFFFFFFFFFFFFFF
310
FFFFFFFFFFFFFFFFFFFFFFFFFFFFFFFFFFFFFFFFFFFFFFFFFFFFFFFFFFFFFFFF
310
FFFFFFFFFFFFFFFFFFFFFFFFFFFFFFFFFFFFFFFFFFFFFFFFFFFFFFFFFFFFFFFF
310
FFFFFFFFFFFFFFFFFFFFFFFFFFFFFFFFFFFFFFFFFFFFFFFFFFFFFFFFFFFFFFFF
310
FFFFFFFFFFFFFFFFFFFFFFFFFFFFFFFFFFFFFFFFFFFFFFFFFFFFFFFFFFFFFFFF
310
FFFFFFFFFFFFFFFFFFFFFFFFFFFFFFFFFFFFFFFFFFFFFFFFFFFFFFFFFFFFFFFF
310
FFFFFFFFFFFFFFFFFFFFFFFFFFFFFFFFFFFFFFFFFFFFFFFFFFFFFFFFFFFFFFFF
310
FFFFFFFFFFFFFFFFFFFFFFFFFFFFFFFFFFFFFFFFFFFFFFFFFFFFFFFFFFFFFFFF
310
0100000200000000000000000000000000000000000000000000000000000000
310
0000000000000000000000000000000000000000000000000000000000000000
310
0100FEFF030A0000FFFFFFFF0A00030000000000C00000000000004607000000
310
5042727573680007000000504272757368000700000050427275736800F439B2
310
7100000000000000000000000000000000000000000000000000000000000000
310
0000000000000000000000000000000000000000000000000000000000000000
310
0000000000000000000000000000000000000000000000000000000000000000
310
0000000000000000000000000000000000000000000000000000000000000000
310
0000000000000000000000000000000000000000000000000000000000000000
310
0000000000000000000000000000000000000000000000000000000000000000
310
0000000000000000000000000000000000000000000000000000000000000000
310
0000000000000000000000000000000000000000000000000000000000000000
310
0000000000000000000000000000000000000000000000000000000000000000
310
0000000000000000000000000000000000000000000000000000000000000000
310
0000000000000000000000000000000000000000000000000000000000000000
310
0000000000000000000000000000000000000000000000000000000000000000
310
E0110000424DDE11000000000000360400002800000096000000170000000100
310
08000000000000000000E7240000E72400000001000000010000000000FF0101
310
01FF020202FF030303FF040404FF050505FF060606FF070707FF080808FF0909
310
09FF0A0A0AFF0B0B0BFF0C0C0CFF0D0D0DFF0E0E0EFF0F0F0FFF101010FF1111
310
11FF121212FF131313FF141414FF151515FF161616FF171717FF181818FF1919
310
19FF1A1A1AFF1B1B1BFF1C1C1CFF1D1D1DFF1E1E1EFF1F1F1FFF202020FF2121
310
21FF222222FF232323FF242424FF252525FF262626FF272727FF282828FF2929
310
29FF2A2A2AFF2B2B2BFF2C2C2CFF2D2D2DFF2E2E2EFF2F2F2FFF303030FF3131
310
31FF323232FF333333FF343434FF353535FF363636FF373737FF383838FF3939
310
39FF3A3A3AFF3B3B3BFF3C3C3CFF3D3D3DFF3E3E3EFF3F3F3FFF404040FF4141
310
41FF424242FF434343FF444444FF454545FF464646FF474747FF484848FF4949
310
49FF4A4A4AFF4B4B4BFF4C4C4CFF4D4D4DFF4E4E4EFF4F4F4FFF505050FF5151
310
51FF525252FF535353FF545454FF555555FF565656FF575757FF585858FF5959
310
59FF5A5A5AFF5B5B5BFF5C5C5CFF5D5D5DFF5E5E5EFF5F5F5FFF606060FF6161
310
61FF626262FF636363FF646464FF656565FF666666FF676767FF686868FF6969
310
69FF6A6A6AFF6B6B6BFF6C6C6CFF6D6D6DFF6E6E6EFF6F6F6FFF707070FF7171
310
71FF727272FF737373FF747474FF757575FF767676FF777777FF787878FF7979
310
79FF7A7A7AFF7B7B7BFF7C7C7CFF7D7D7DFF7E7E7EFF7F7F7FFF808080FF8181
310
81FF828282FF838383FF848484FF858585FF868686FF878787FF888888FF8989
310
89FF8A8A8AFF8B8B8BFF8C8C8CFF8D8D8DFF8E8E8EFF8F8F8FFF909090FF9191
310
91FF929292FF939393FF949494FF959595FF969696FF979797FF989898FF9999
310
99FF9A9A9AFF9B9B9BFF9C9C9CFF9D9D9DFF9E9E9EFF9F9F9FFFA0A0A0FFA1A1
310
A1FFA2A2A2FFA3A3A3FFA4A4A4FFA5A5A5FFA6A6A6FFA7A7A7FFA8A8A8FFA9A9
310
A9FFAAAAAAFFABABABFFACACACFFADADADFFAEAEAEFFAFAFAFFFB0B0B0FFB1B1
310
B1FFB2B2B2FFB3B3B3FFB4B4B4FFB5B5B5FFB6B6B6FFB7B7B7FFB8B8B8FFB9B9
310
B9FFBABABAFFBBBBBBFFBCBCBCFFBDBDBDFFBEBEBEFFBFBFBFFFC0C0C0FFC1C1
310
C1FFC2C2C2FFC3C3C3FFC4C4C4FFC5C5C5FFC6C6C6FFC7C7C7FFC8C8C8FFC9C9
310
C9FFCACACAFFCBCBCBFFCCCCCCFFCDCDCDFFCECECEFFCFCFCFFFD0D0D0FFD1D1
310
D1FFD2D2D2FFD3D3D3FFD4D4D4FFD5D5D5FFD6D6D6FFD7D7D7FFD8D8D8FFD9D9
310
D9FFDADADAFFDBDBDBFFDCDCDCFFDDDDDDFFDEDEDEFFDFDFDFFFE0E0E0FFE1E1
310
E1FFE2E2E2FFE3E3E3FFE4E4E4FFE5E5E5FFE6E6E6FFE7E7E7FFE8E8E8FFE9E9
310
E9FFEAEAEAFFEBEBEBFFECECECFFEDEDEDFFEEEEEEFFEFEFEFFFF0F0F0FFF1F1
310
F1FFF2F2F2FFF3F3F3FFF4F4F4FFF5F5F5FFF6F6F6FFF7F7F7FFF8F8F8FFF9F9
310
F9FFFAFAFAFFFBFBFBFFFCFCFCFFFDFDFDFFFEFEFEFFFFFFFFFFFFFFFFFFFFFF
310
C94E4E4E4F4E4EFFFFFFFFFFC94E4E4E4E4E72FFFFFFFFFFFFFF734E4D4E4E4E
310
C9FFFFFFFFFFAA683516171616265B9BE9FFFFFFFFFF4E4E4E4D4E4EFFFFFFFF
310
FFFFFFFF4E4E4F4E4D4E4E4E4F4E4E4F4D4E4E4E4E4E4D4E4F4E4D4E4E4EAAFF
310
FFFFFFFFFFEA4E4F4F4E4E4E4E4E4D4D4F4F4E4E4E4E4E5B7FAAFFFFFFFFFFFF
310
C9744E1716171616164D8DEAFFFFFFFF0000FFFFFFFFFFFFBA161617161716FF
310
FFFFFFFFB917171616174FFFFFFFFFFFFFFF4E1716161616B9FFFFFFB9341717
310
1716171617171616268CFFFFFFFF161617161617FFFFFFFFFFFFFFB917161717
310
1617167F807F7F7F7F7F7F807F7F807F7F807F7F7F414EFFFFFFFFFFFF8C167F
310
7F807F7F7F7E7F7F807F807F7F807F4E3417258EFFFFEA4E162674AABAEAEBBA
310
AA74341680FFFFFF0000FFFFFFFFFFFFB9171717171617FFFFFFFFFFBB161616
310
16164EFFFFFFFFFFFFFF4E1717171717B9FFFF9C171617171716161616171616
310
171766FFFFFF161717161617FFFFFFFFFFFFFF8E16171717161616FFFFFFFFFF
310
FFFFFFFFFFFFFFFFFFFFFFFFFFAA16D9FFFFFFFFFF3467FFFFFFFFEAFFFFFFFF
310
FFFFFFFFFFFFFFFFFFCA671667EB26278DFFFFFFFFFFFFFFFFFFFF8C2541EAFF
310
0000FFFFFFFFFFFFB9171717171716FFFFFFFFFFBA16171617174EFFFFFFFFFF
310
FFFF4E1717161616BAFF9B1617161616171716171617161616161667FFFF1616
310
16161716FFFFFFFFFFFFFF7F16161617174017FFFFFFFFFFFFFFFFFFFFFFFFFF
310
FFFFFFFFFFFF344E7F7F7F7E7417DAFFFFFFFF80FFFFFFFFFFFFFFFFFFFFFFFF
310
FFFFFF9B163425CAFFFFFFFFFFFFFFFFFFFFFFFFCA2667FF0000FFFFFFFFFFFF
310
BA171717171617FFFFFFFFFFB916171716164EFFFFFFFFFFFFFF4F1716161717
310
B9C91716171616161716161617171616161617168DFF161716161717FFFFFFFF
310
FFFFFF7F17171716164F16FFFFFFFFFFFFFFFFFFFFFFFFFFFFFFFFFFFFFF9B16
310
17161617174EFFFFFFFFFF34FFFFFFFFD9BABABABABADAFFFFFFFFFF7F16AAFF
310
FFFFFFFFFFFFFFFFFFFFFFFFFF9C16BA0000FFFFFFFFFFFFB9161717161717FF
310
FFFFFFFFB917161716174DFFFFFFFFFFFFFF4E1616161616BA4E161617171716
310
419BEAEAAA4E16161617161726E9171717161616FFFFFFFFFFFFFF4F16161717
310
164E16FFFFFFFFFFBAB9B9B9B9B9BABABACAFFFFFFFFFFFFFFFFFFFFFFFFFFFF
310
FFFFBA16FFFFFFFF7F1617161617174DEAFFFFFFEA41FFFFFFFFFFAA4D16174E
310
9BFFFFFFFFFF34730000FFFFFFFFFFFFB9161617171617FFFFFFFFFFBA161616
310
16164EFFFFFFFFFFFFFF4F16161717169B1617161716175BFFFFFFFFFFFF7417
310
16171616168D171717161617FFFFFFFFFFFFEA2616171717167416FFFFFFFFFF
310
16171616171717171717EAFFFFFFFFFFFFFFFFFFFFFFFFFFFFFF6716FFFFFFFF
310
7F4EFFFFFFFFBA2573FFFFFFFFBAFFFFFFFFAA167FB9BB9B269BFFFFFFFF664F
310
0000FFFFFFFFFFFFB9171616161616FFFFFFFFFFBA16161717164EFFFFFFFFFF
310
FFFF4E16161616174E161617171626EAFFFFFFFFFFFFFF4E16161616164E1716
310
16161617FFFFFFFFFFFF671616161716347F16FFFFFFFFFF16B9FFFFFFFFFFFF
310
D9168DFFFFFFFFFFFFFFFFFFFFFFFFFFFFEA1716FFFFFFFF7F4EFFFFFFFFFF7F
310
4EFFFFFFFFFFFFFFFFFF5B66FFFFFFEA347FFFFFFFFF7F4D0000FFFFFFFFFFFF
310
B9171616171617FFFFFFFFFFBA17161716174EFFFFFFFFFFFFFF4D1716161617
310
17161716161673FFFFFFFFFFFFFFFF9B1617161717161616171616174F4E4E4E
310
4E341616171616167E7F16FFFFFFFFFF16BAFFFFFFFFFFFFFF5B41FFFFFFFF34
310
1616171616BAFFFFFF9B1716FFFFFFFF7F4EFFFFFFFFFF4E4EFFFFFFFF734E4E
310
4E4E267EDA9B67164EEAFFFFFFFF744D0000FFFFFFFFFFFFBA171717161617FF
310
FFFFFFFFBA1616171616347F7F7F7F80807F331616161717161717161716B9FF
310
FFFFFFFFFFFFFFE9161616161616171716161716171616161616171616171734
310
EA7F16FFFFFFFFFF16BAFFFFFFFFFFFFFFAA17C9FFFFFF7326BABA5B25FFFFFF
310
FF401716FFFFFFFF7F264F4E4E4E4217AAFFFFFFEA16677F73261616164173CA
310
FFFFFFFFFFFF417F0000FFFFFFFFFFFFBA171616171617FFFFFFFFFFBA161616
310
17171616161616161616161717161616161616161617EAFFFFFFFFFFFFFFFFFF
310
261717161716161617161616161617161617161616174EEAFF8016FFFFFFFFFF
310
17BAFFFFFFFFFFFFFFFF3467FFFFFFC916C9FF3467FFFFFFDA166716FFFFFFFF
310
9C4D4E4E4E4E67AAFFFFFFFF6834FF7F262567AAEAFFFFFFFFFFFFFFFF9B17D9
310
0000FFFFFFFFFFFFB9161616161616FFFFFFFFFFBA1617161717171616161616
310
1716171716161716161617171716FFFFFFFFFFFFFFFFFFFF4E17161716171616
310
1617171616161716171717161616169BFF7F17FFFFFFFFFF17B9FFFFFFFFFFFF
310
FFFF7326FFFFFFFF3473DA16AAFFFFFF7317AA16FFFFFFFFFFFFFFFFFFFFFFFF
310
FFFFEA6725BA4E167FEAFFFFFFFFFFFFFFFFFFFF9C167FFF0000FFFFFFFFFFFF
310
B9161717171716FFFFFFFFFFBA16161716171616171717161617161716161616
310
171617171617EAFFFFFFFFFFFFFFFFFF26161717161616161616161617171616
310
1616161616171616AA8016FFFFFFFFFF16BAFFFFFFFFFFFFFFFFDA179BFFFFFF
310
74348D26FFFFFFFF2566B917FFFFFFFFD8BAB9BAB9BADAFFFFEA41169B7425C9
310
FFFFFFFFFFFFFFFFFFFFAB4F1680FFFF0000FFFFFFFFFFFFBA161717171617FF
310
FFFFFFFFBA17161717161617171617161616161617171616171716171617BBFF
310
FFFFFFFFFFFFFFE9171616161617161617161716FFFFFFFFFFD9671616161617
310
348017FFFFFFFFFF16BAFFFFFFFFFFFFFFFFFF4E5AFFFFFFC916265AFFFFFFAA
310
16AABA16FFFFFFFF7F1617161616179BFFFFEB4127168DFFFFFFFFFFFFFFD99B
310
6734175AC9FFFFFF0000FFFFFFFFFFFFB9161617171617FFFFFFFFFFBB161616
310
1616347F807F7F7F7F8033171716171617171616161672FFFFFFFFFFFFFFFF9C
310
171617171617161716161617FFFFFFFFFFFFFF4117161616174E17FFFFFFFFFF
310
16BAFFFFFFFFFFFFFFFFFF9B16DAFFFFFF34169BFFFFFF5A26FFB917FFFFFFFF
310
7F4EFFFFFFEA5B26FFFFFFEA2616EAFFFFFFFFDA743416331617414E4E4E4ECA
310
0000FFFFFFFFFFFFBA161716161616FFFFFFFFFFBA17171616164EFFFFFFFFFF
310
FFFF4E16161717174E161717171626EBFFFFFFFFFFFFFF4E16161617165B1616
310
16171617FFFFFFFFFFFFFF6716161616161617FFFFFFFFFF16BAFFFFFFFFFFFF
310
FFFFFFEA268CFFFFFF7316EAFFFFEB1774FFB916FFFFFFFF7F4EFFFFFFFF7316
310
FFFFFFFF6826FFFFFFFFEB264D9CEABA257F807F7F6616BA0000FFFFFFFFFFFF
310
BA161716161616FFFFFFFFFFBA16171616164DFFFFFFFFFFFFFF4E1617161617
310
9B1617171717165BEBFFFFFFFFFF671616161617179B171616161616FFFFFFFF
310
FFFFFF3417161617171617FFFFFFFFFF17BAFFFFFFFFFFFFFFFFFFFF6734FFFF
310
FFEBCAFFFFFF8D17C9FFBA17FFFFFFFF7F357F808066174FFFFFFFFF7F16FFFF
310
FFFFD91673B99B415BFFFFFFFFBA16DA00009B7F7F7F807F671617161616167F
310
80807F7E6617161616164EFFFFFFFFFFFFFF4E1616161617B94E171716161616
310
349BC9D9AA4E16171616161634FF161617161717B9B9BAB9BA9B411716171716
310
163416FFFFFFFFFF16B9FFFFFFFFFFFFFFFFFFFFC917CAFFFFFFFFFFFFFF3342
310
FFFFBA17FFFFFFFF9B4E4E4F4E4E66EAFFFFFFFF5B16C9FFFFFFFFAA4E164E73
310
EAFFFFFFFF8D26FF00004E161716161616171617171616171717171617161616
310
17174EFFFFFFFFFFFFFF4E1717171616B9D92616171716171716171717171716
310
16171716AAFF161717171617161617171616161617161716166717FFFFFFFFFF
310
17B9FFFFFFFFFFFFFFFFFFFFFF3467FFFFFFFFFFFFCA168CFFFFBB17FFFFFFFF
310
FFFFFFFFFFFFFFFFFFFFFFEA26265BFFFFFFFFFFFFFFFFFFFFFFFFFFEA3467FF
310
00004D16161616161617161717161617161616171617171616164EFFFFFFFFFF
310
FFFF4D1617161616BAFF9B1616161616161716161616171717161766FFFF1616
310
16171617161617161716171616171717667F16FFFFFFFFFF17BAFFFFFFFFFFFF
310
FFFFFFFFFF8C26EAFFFFFFFFFF6617EAFFFFBA17FFFFFFFFFFFFFFFFFFFFFFFF
310
FFFFEA5A25BA269BFFFFFFFFFFFFFFFFFFFFFFFF6616DAFF00004E1616171616
310
1616161616161716161617171616171616174EFFFFFFFFFFFFFF4D1717171716
310
B9FFFF9C161616161616161716161717171667FFFFFF17161717171716161617
310
1716161616161641E97E16FFFFFFFFFF16B9FFFFFFFFFFFFFFFFFFFFFFEA169B
310
FFFFFFFFEA265BFFFFFFB916FFFFFFFFFFFFFFFFFFFFFFFFFF9B3416AAFF9B17
310
67EAFFFFFFFFFFFFFFFFEA5B169BFFFF00004D17161716161616161717171616
310
161717161716171716174EFFFFFFFFFFFFFF4D1616161616BAFFFFFFBB411616
310
161716161616171634ABFFFFFFFF161716161617171716171617171617267FFF
310
FF7F164E4E4E4E4F17BAFFFFFFFFFFFFFFFFFFFFFFFF66344D4E4E4F4117AAFF
310
FFFFBA174E4E4E4D4E4D4D4E4E4E4E4116174EBBFFFFFFCA342666ABEAFFFFEA
310
AA6725269CFFFFFF0000724F4E4D4D4D4E4D4D4E4E4E4D4E4E4E4E4E4E4E4E4D
310
4E4E74FFFFFFFFFFFFFF734E4E4E4D4ECAFFFFFFFFFFAA663416171717265B9B
310
FFFFFFFFFFFF7F8080807F80807F7F7F7F7F807FBAFFFFFFFF9B4E4E4F4D4D4E
310
4DC9FFFFFFFFFFFFFFFFFFFFFFFFBA4E4E4E4E4D4E4EFFFFFFFFC94E4E4E4F4E
310
4E4E4D4E4E5A807F9CD9FFFFFFFFFFFFFF9B5B2617171716174E8DEAFFFFFFFF
310
0000000000000000000000000000000000000000000000000000000000000000
  1
OLE
  0
ENDSEC
  0
SECTION
  2
OBJECTS
  0
DICTIONARY
  5
C
330
0
100
AcDbDictionary
281
     1
  3
ACAD_GROUP
350
D
  3
ACAD_LAYOUT
350
1A
  3
ACAD_MLINESTYLE
350
17
  3
ACAD_PLOTSETTINGS
350
19
  3
ACAD_PLOTSTYLENAME
350
E
  3
ACAD_SCALELIST
350
47
  0
DICTIONARY
  5
D
102
{ACAD_REACTORS
330
C
102
}
330
C
100
AcDbDictionary
281
     1
  0
DICTIONARY
  5
1A
102
{ACAD_REACTORS
330
C
102
}
330
C
100
AcDbDictionary
281
     1
  3
Layout1
350
1E
  3
Layout2
350
26
  3
Model
350
22
  0
DICTIONARY
  5
17
102
{ACAD_REACTORS
330
C
102
}
330
C
100
AcDbDictionary
281
     1
  3
Standard
350
18
  0
DICTIONARY
  5
19
102
{ACAD_REACTORS
330
C
102
}
330
C
100
AcDbDictionary
281
     1
  0
ACDBDICTIONARYWDFLT
  5
E
102
{ACAD_REACTORS
330
C
102
}
330
C
100
AcDbDictionary
281
     1
  3
Normal
350
F
100
AcDbDictionaryWithDefault
340
F
  0
DICTIONARY
  5
47
102
{ACAD_REACTORS
330
C
102
}
330
C
100
AcDbDictionary
281
     1
  3
A0
350
48
  3
A1
350
49
  3
A2
350
4A
  3
A3
350
4B
  3
A4
350
4C
  3
A5
350
4D
  3
A6
350
4E
  3
A7
350
4F
  3
A8
350
50
  3
A9
350
51
  3
B0
350
52
  3
B1
350
53
  3
B2
350
54
  3
B3
350
55
  3
B4
350
56
  3
B5
350
57
  3
B6
350
58
  3
B7
350
59
  3
B8
350
5A
  3
B9
350
5B
  3
C0
350
5C
  3
C1
350
5D
  3
C2
350
5E
  3
C3
350
5F
  3
C4
350
60
  3
C5
350
61
  3
C6
350
62
  3
C7
350
63
  3
C8
350
64
  3
C9
350
65
  3
D0
350
66
  3
D1
350
67
  3
D2
350
68
  0
LAYOUT
  5
1E
102
{ACAD_REACTORS
330
1A
102
}
330
1A
100
AcDbPlotSettings
  1

  2
none_device
  4

  6

 40
0.0
 41
0.0
 42
0.0
 43
0.0
 44
0.0
 45
0.0
 46
0.0
 47
0.0
 48
0.0
 49
0.0
140
0.0
141
0.0
142
1.0
143
1.0
 70
   688
 72
     0
 73
     0
 74
     5
  7

 75
    16
147
1.0
148
0.0
149
0.0
100
AcDbLayout
  1
Layout1
 70
     1
 71
     1
 10
0.0
 20
0.0
 11
12.0
 21
9.0
 12
0.0
 22
0.0
 32
0.0
 14
1.0000000000E+20
 24
1.0000000000E+20
 34
1.0000000000E+20
 15
-1.0000000000E+20
 25
-1.0000000000E+20
 35
-1.0000000000E+20
146
0.0
 13
0.0
 23
0.0
 33
0.0
 16
1.0
 26
0.0
 36
0.0
 17
0.0
 27
1.0
 37
0.0
 76
     0
330
1B
  0
LAYOUT
  5
26
102
{ACAD_REACTORS
330
1A
102
}
330
1A
100
AcDbPlotSettings
  1

  2
none_device
  4

  6

 40
0.0
 41
0.0
 42
0.0
 43
0.0
 44
0.0
 45
0.0
 46
0.0
 47
0.0
 48
0.0
 49
0.0
140
0.0
141
0.0
142
1.0
143
1.0
 70
   688
 72
     0
 73
     0
 74
     5
  7

 75
    16
147
1.0
148
0.0
149
0.0
100
AcDbLayout
  1
Layout2
 70
     1
 71
     2
 10
0.0
 20
0.0
 11
0.0
 21
0.0
 12
0.0
 22
0.0
 32
0.0
 14
0.0
 24
0.0
 34
0.0
 15
0.0
 25
0.0
 35
0.0
146
0.0
 13
0.0
 23
0.0
 33
0.0
 16
1.0
 26
0.0
 36
0.0
 17
0.0
 27
1.0
 37
0.0
 76
     0
330
23
  0
LAYOUT
  5
22
102
{ACAD_REACTORS
330
1A
102
}
330
1A
100
AcDbPlotSettings
  1

  2
none_device
  4
Letter_(8.50_x_11.00_Inches)
  6

 40
6.35
 41
6.35
 42
6.35000508
 43
6.35000508
 44
215.9
 45
279.4
 46
0.0
 47
0.0
 48
0.0
 49
0.0
140
0.0
141
0.0
142
1.0
143
1.0
 70
  1712
 72
     0
 73
     0
 74
     0
  7

 75
     0
147
1.0
148
0.0
149
0.0
100
AcDbLayout
  1
Model
 70
     1
 71
     0
 10
0.0
 20
0.0
 11
11.0
 21
8.5
 12
0.0
 22
0.0
 32
0.0
 14
0.0
 24
0.0
 34
0.0
 15
11.0
 25
8.5
 35
0.0
146
0.0
 13
0.0
 23
0.0
 33
0.0
 16
1.0
 26
0.0
 36
0.0
 17
0.0
 27
1.0
 37
0.0
 76
     0
330
1F
331
29
  0
MLINESTYLE
  5
18
102
{ACAD_REACTORS
330
17
102
}
330
17
100
AcDbMlineStyle
  2
Standard
 70
     0
  3

 62
   256
 51
90.0
 52
90.0
 71
     2
 49
0.5
 62
   256
  6
BYLAYER
 49
-0.5
 62
   256
  6
BYLAYER
  0
ACDBPLACEHOLDER
  5
F
102
{ACAD_REACTORS
330
E
102
}
330
E
  0
SCALE
  5
48
102
{ACAD_REACTORS
330
47
102
}
330
47
100
AcDbScale
 70
     0
300
1:1
140
1.0
141
1.0
290
     1
  0
SCALE
  5
49
102
{ACAD_REACTORS
330
47
102
}
330
47
100
AcDbScale
 70
     0
300
1:2
140
1.0
141
2.0
290
     0
  0
SCALE
  5
4A
102
{ACAD_REACTORS
330
47
102
}
330
47
100
AcDbScale
 70
     0
300
1:4
140
1.0
141
4.0
290
     0
  0
SCALE
  5
4B
102
{ACAD_REACTORS
330
47
102
}
330
47
100
AcDbScale
 70
     0
300
1:5
140
1.0
141
5.0
290
     0
  0
SCALE
  5
4C
102
{ACAD_REACTORS
330
47
102
}
330
47
100
AcDbScale
 70
     0
300
1:8
140
1.0
141
8.0
290
     0
  0
SCALE
  5
4D
102
{ACAD_REACTORS
330
47
102
}
330
47
100
AcDbScale
 70
     0
300
1:10
140
1.0
141
10.0
290
     0
  0
SCALE
  5
4E
102
{ACAD_REACTORS
330
47
102
}
330
47
100
AcDbScale
 70
     0
300
1:16
140
1.0
141
16.0
290
     0
  0
SCALE
  5
4F
102
{ACAD_REACTORS
330
47
102
}
330
47
100
AcDbScale
 70
     0
300
1:20
140
1.0
141
20.0
290
     0
  0
SCALE
  5
50
102
{ACAD_REACTORS
330
47
102
}
330
47
100
AcDbScale
 70
     0
300
1:30
140
1.0
141
30.0
290
     0
  0
SCALE
  5
51
102
{ACAD_REACTORS
330
47
102
}
330
47
100
AcDbScale
 70
     0
300
1:40
140
1.0
141
40.0
290
     0
  0
SCALE
  5
52
102
{ACAD_REACTORS
330
47
102
}
330
47
100
AcDbScale
 70
     0
300
1:50
140
1.0
141
50.0
290
     0
  0
SCALE
  5
53
102
{ACAD_REACTORS
330
47
102
}
330
47
100
AcDbScale
 70
     0
300
1:100
140
1.0
141
100.0
290
     0
  0
SCALE
  5
54
102
{ACAD_REACTORS
330
47
102
}
330
47
100
AcDbScale
 70
     0
300
2:1
140
2.0
141
1.0
290
     0
  0
SCALE
  5
55
102
{ACAD_REACTORS
330
47
102
}
330
47
100
AcDbScale
 70
     0
300
4:1
140
4.0
141
1.0
290
     0
  0
SCALE
  5
56
102
{ACAD_REACTORS
330
47
102
}
330
47
100
AcDbScale
 70
     0
300
8:1
140
8.0
141
1.0
290
     0
  0
SCALE
  5
57
102
{ACAD_REACTORS
330
47
102
}
330
47
100
AcDbScale
 70
     0
300
10:1
140
10.0
141
1.0
290
     0
  0
SCALE
  5
58
102
{ACAD_REACTORS
330
47
102
}
330
47
100
AcDbScale
 70
     0
300
100:1
140
100.0
141
1.0
290
     0
  0
SCALE
  5
59
102
{ACAD_REACTORS
330
47
102
}
330
47
100
AcDbScale
 70
     0
300
1/128" = 1'-0"
140
0.0078125
141
12.0
290
     0
  0
SCALE
  5
5A
102
{ACAD_REACTORS
330
47
102
}
330
47
100
AcDbScale
 70
     0
300
1/64" = 1'-0"
140
0.015625
141
12.0
290
     0
  0
SCALE
  5
5B
102
{ACAD_REACTORS
330
47
102
}
330
47
100
AcDbScale
 70
     0
300
1/32" = 1'-0"
140
0.03125
141
12.0
290
     0
  0
SCALE
  5
5C
102
{ACAD_REACTORS
330
47
102
}
330
47
100
AcDbScale
 70
     0
300
1/16" = 1'-0"
140
0.0625
141
12.0
290
     0
  0
SCALE
  5
5D
102
{ACAD_REACTORS
330
47
102
}
330
47
100
AcDbScale
 70
     0
300
3/32" = 1'-0"
140
0.09375
141
12.0
290
     0
  0
SCALE
  5
5E
102
{ACAD_REACTORS
330
47
102
}
330
47
100
AcDbScale
 70
     0
300
1/8" = 1'-0"
140
0.125
141
12.0
290
     0
  0
SCALE
  5
5F
102
{ACAD_REACTORS
330
47
102
}
330
47
100
AcDbScale
 70
     0
300
3/16" = 1'-0"
140
0.1875
141
12.0
290
     0
  0
SCALE
  5
60
102
{ACAD_REACTORS
330
47
102
}
330
47
100
AcDbScale
 70
     0
300
1/4" = 1'-0"
140
0.25
141
12.0
290
     0
  0
SCALE
  5
61
102
{ACAD_REACTORS
330
47
102
}
330
47
100
AcDbScale
 70
     0
300
3/8" = 1'-0"
140
0.375
141
12.0
290
     0
  0
SCALE
  5
62
102
{ACAD_REACTORS
330
47
102
}
330
47
100
AcDbScale
 70
     0
300
1/2" = 1'-0"
140
0.5
141
12.0
290
     0
  0
SCALE
  5
63
102
{ACAD_REACTORS
330
47
102
}
330
47
100
AcDbScale
 70
     0
300
3/4" = 1'-0"
140
0.75
141
12.0
290
     0
  0
SCALE
  5
64
102
{ACAD_REACTORS
330
47
102
}
330
47
100
AcDbScale
 70
     0
300
1" = 1'-0"
140
1.0
141
12.0
290
     0
  0
SCALE
  5
65
102
{ACAD_REACTORS
330
47
102
}
330
47
100
AcDbScale
 70
     0
300
1-1/2" = 1'-0"
140
1.5
141
12.0
290
     0
  0
SCALE
  5
66
102
{ACAD_REACTORS
330
47
102
}
330
47
100
AcDbScale
 70
     0
300
3" = 1'-0"
140
3.0
141
12.0
290
     0
  0
SCALE
  5
67
102
{ACAD_REACTORS
330
47
102
}
330
47
100
AcDbScale
 70
     0
300
6" = 1'-0"
140
6.0
141
12.0
290
     0
  0
SCALE
  5
68
102
{ACAD_REACTORS
330
47
102
}
330
47
100
AcDbScale
 70
     0
300
1'-0" = 1'-0"
140
12.0
141
12.0
290
     0
  0
ENDSEC
  0
EOF
