  0
SECTION
  2
HEADER
  9
$ACADVER
  1
AC1015
  9
$ACADMAINTVER
 70
     6
  9
$DWGCODEPAGE
  3
ANSI_1252
  9
$INSBASE
 10
0.0
 20
0.0
 30
0.0
  9
$EXTMIN
 10
0.0
 20
0.0
 30
0.0
  9
$EXTMAX
 10
11.0
 20
8.5
 30
0.0
  9
$LIMMIN
 10
0.0
 20
0.0
  9
$LIMMAX
 10
11.0
 20
8.5
  9
$ORTHOMODE
 70
     0
  9
$REGENMODE
 70
     1
  9
$FILLMODE
 70
     1
  9
$QTEXTMODE
 70
     0
  9
$MIRRTEXT
 70
     1
  9
$LTSCALE
 40
1.0
  9
$ATTMODE
 70
     1
  9
$TEXTSIZE
 40
0.1111111111
  9
$TRACEWID
 40
0.05
  9
$TEXTSTYLE
  7
Standard
  9
$CLAYER
  8
0
  9
$CELTYPE
  6
ByLayer
  9
$CECOLOR
 62
   256
  9
$CELTSCALE
 40
1.0
  9
$DISPSILH
 70
     0
  9
$DIMSCALE
 40
1.0
  9
$DIMASZ
 40
0.125
  9
$DIMEXO
 40
0.05
  9
$DIMDLI
 40
0.38
  9
$DIMRND
 40
0.0
  9
$DIMDLE
 40
0.0
  9
$DIMEXE
 40
0.07
  9
$DIMTP
 40
0.0
  9
$DIMTM
 40
0.0
  9
$DIMTXT
 40
0.1111111111
  9
$DIMCEN
 40
0.09
  9
$DIMTSZ
 40
0.0
  9
$DIMTOL
 70
     0
  9
$DIMLIM
 70
     0
  9
$DIMTIH
 70
     1
  9
$DIMTOH
 70
     1
  9
$DIMSE1
 70
     0
  9
$DIMSE2
 70
     0
  9
$DIMTAD
 70
     0
  9
$DIMZIN
 70
     1
  9
$DIMBLK
  1

  9
$DIMASO
 70
     1
  9
$DIMSHO
 70
     1
  9
$DIMPOST
  1

  9
$DIMAPOST
  1

  9
$DIMALT
 70
     0
  9
$DIMALTD
 70
     2
  9
$DIMALTF
 40
25.4
  9
$DIMLFAC
 40
1.0
  9
$DIMTOFL
 70
     0
  9
$DIMTVP
 40
0.0
  9
$DIMTIX
 70
     0
  9
$DIMSOXD
 70
     0
  9
$DIMSAH
 70
     0
  9
$DIMBLK1
  1

  9
$DIMBLK2
  1

  9
$DIMSTYLE
  2
Standard
  9
$DIMCLRD
 70
     0
  9
$DIMCLRE
 70
     0
  9
$DIMCLRT
 70
     0
  9
$DIMTFAC
 40
1.0
  9
$DIMGAP
 40
0.1
  9
$DIMJUST
 70
     0
  9
$DIMSD1
 70
     0
  9
$DIMSD2
 70
     0
  9
$DIMTOLJ
 70
     1
  9
$DIMTZIN
 70
     1
  9
$DIMALTZ
 70
     0
  9
$DIMALTTZ
 70
     0
  9
$DIMUPT
 70
     0
  9
$DIMDEC
 70
     2
  9
$DIMTDEC
 70
     2
  9
$DIMALTU
 70
     2
  9
$DIMALTTD
 70
     2
  9
$DIMTXSTY
  7
Standard
  9
$DIMAUNIT
 70
     0
  9
$DIMADEC
 70
     0
  9
$DIMALTRND
 40
0.0
  9
$DIMAZIN
 70
     0
  9
$DIMDSEP
 70
    46
  9
$DIMATFIT
 70
     3
  9
$DIMFRAC
 70
     0
  9
$DIMLDRBLK
  1

  9
$DIMLUNIT
 70
     2
  9
$DIMLWD
 70
    -2
  9
$DIMLWE
 70
    -2
  9
$DIMTMOVE
 70
     0
  9
$LUNITS
 70
     2
  9
$LUPREC
 70
     2
  9
$SKETCHINC
 40
0.1
  9
$FILLETRAD
 40
0.5
  9
$AUNITS
 70
     0
  9
$AUPREC
 70
     0
  9
$MENU
  1
.
  9
$ELEVATION
 40
0.0
  9
$PELEVATION
 40
0.0
  9
$THICKNESS
 40
0.0
  9
$LIMCHECK
 70
     0
  9
$CHAMFERA
 40
0.0
  9
$CHAMFERB
 40
0.0
  9
$CHAMFERC
 40
0.0
  9
$CHAMFERD
 40
0.0
  9
$SKPOLY
 70
     0
  9
$TDCREATE
 40
2457427.491531169
  9
$TDUCREATE
 40
2457427.699864503
  9
$TDUPDATE
 40
2457427.491534421
  9
$TDUUPDATE
 40
2457427.699867755
  9
$TDINDWG
 40
0.0000000116
  9
$TDUSRTIMER
 40
0.0000000116
  9
$USRTIMER
 70
     1
  9
$ANGBASE
 50
0.0
  9
$ANGDIR
 70
     0
  9
$PDMODE
 70
     0
  9
$PDSIZE
 40
-1.0
  9
$PLINEWID
 40
0.0
  9
$SPLFRAME
 70
     0
  9
$SPLINETYPE
 70
     6
  9
$SPLINESEGS
 70
     8
  9
$HANDSEED
  5
216
  9
$SURFTAB1
 70
     6
  9
$SURFTAB2
 70
     6
  9
$SURFTYPE
 70
     6
  9
$SURFU
 70
     6
  9
$SURFV
 70
     6
  9
$UCSBASE
  2

  9
$UCSNAME
  2

  9
$UCSORG
 10
0.0
 20
0.0
 30
0.0
  9
$UCSXDIR
 10
1.0
 20
0.0
 30
0.0
  9
$UCSYDIR
 10
0.0
 20
1.0
 30
0.0
  9
$UCSORTHOREF
  2

  9
$UCSORTHOVIEW
 70
     0
  9
$UCSORGTOP
 10
0.0
 20
0.0
 30
0.0
  9
$UCSORGBOTTOM
 10
0.0
 20
0.0
 30
0.0
  9
$UCSORGLEFT
 10
0.0
 20
0.0
 30
0.0
  9
$UCSORGRIGHT
 10
0.0
 20
0.0
 30
0.0
  9
$UCSORGFRONT
 10
0.0
 20
0.0
 30
0.0
  9
$UCSORGBACK
 10
0.0
 20
0.0
 30
0.0
  9
$PUCSBASE
  2

  9
$PUCSNAME
  2

  9
$PUCSORG
 10
0.0
 20
0.0
 30
0.0
  9
$PUCSXDIR
 10
1.0
 20
0.0
 30
0.0
  9
$PUCSYDIR
 10
0.0
 20
1.0
 30
0.0
  9
$PUCSORTHOREF
  2

  9
$PUCSORTHOVIEW
 70
     0
  9
$PUCSORGTOP
 10
0.0
 20
0.0
 30
0.0
  9
$PUCSORGBOTTOM
 10
0.0
 20
0.0
 30
0.0
  9
$PUCSORGLEFT
 10
0.0
 20
0.0
 30
0.0
  9
$PUCSORGRIGHT
 10
0.0
 20
0.0
 30
0.0
  9
$PUCSORGFRONT
 10
0.0
 20
0.0
 30
0.0
  9
$PUCSORGBACK
 10
0.0
 20
0.0
 30
0.0
  9
$USERI1
 70
     0
  9
$USERI2
 70
     0
  9
$USERI3
 70
     0
  9
$USERI4
 70
     0
  9
$USERI5
 70
     0
  9
$USERR1
 40
0.0
  9
$USERR2
 40
0.0
  9
$USERR3
 40
0.0
  9
$USERR4
 40
0.0
  9
$USERR5
 40
0.0
  9
$WORLDVIEW
 70
     1
  9
$SHADEDGE
 70
     3
  9
$SHADEDIF
 70
    70
  9
$TILEMODE
 70
     1
  9
$MAXACTVP
 70
    64
  9
$PINSBASE
 10
0.0
 20
0.0
 30
0.0
  9
$PLIMCHECK
 70
     0
  9
$PEXTMIN
 10
1.0000000000E+20
 20
1.0000000000E+20
 30
1.0000000000E+20
  9
$PEXTMAX
 10
-1.0000000000E+20
 20
-1.0000000000E+20
 30
-1.0000000000E+20
  9
$PLIMMIN
 10
0.0
 20
0.0
  9
$PLIMMAX
 10
12.0
 20
9.0
  9
$UNITMODE
 70
     0
  9
$VISRETAIN
 70
     1
  9
$PLINEGEN
 70
     0
  9
$PSLTSCALE
 70
     1
  9
$TREEDEPTH
 70
  3020
  9
$CMLSTYLE
  2
Standard
  9
$CMLJUST
 70
     0
  9
$CMLSCALE
 40
1.0
  9
$PROXYGRAPHICS
 70
     1
  9
$MEASUREMENT
 70
     0
  9
$CELWEIGHT
370
    -1
  9
$ENDCAPS
280
     0
  9
$JOINSTYLE
280
     0
  9
$LWDISPLAY
290
     1
  9
$INSUNITS
 70
     1
  9
$HYPERLINKBASE
  1

  9
$STYLESHEET
  1

  9
$XEDIT
290
     1
  9
$CEPSNTYPE
380
     0
  9
$PSTYLEMODE
290
     1
  9
$FINGERPRINTGUID
  2
{B85BCEB8-E89F-499E-8DE1-1210BADC1DAB}
  9
$VERSIONGUID
  2
{FAEB1C32-E019-11D5-929B-00C0DF256EC4}
  9
$EXTNAMES
290
     1
  9
$PSVPSCALE
 40
0.0
  9
$OLESTARTUP
290
     0
  0
ENDSEC
  0
SECTION
  2
CLASSES
  0
CLASS
  1
ACDBDICTIONARYWDFLT
  2
AcDbDictionaryWithDefault
  3
ObjectDBX Classes
 90
        0
280
     0
281
     0
  0
CLASS
  1
VISUALSTYLE
  2
AcDbVisualStyle
  3
ObjectDBX Classes
 90
     4095
280
     0
281
     0
  0
CLASS
  1
MATERIAL
  2
AcDbMaterial
  3
ObjectDBX Classes
 90
     1153
280
     0
281
     0
  0
CLASS
  1
SCALE
  2
AcDbScale
  3
ObjectDBX Classes
 90
     1153
280
     0
281
     0
  0
CLASS
  1
SUN
  2
AcDbSun
  3
SCENEOE
 90
     1153
280
     0
281
     0
  0
CLASS
  1
ACDBPLACEHOLDER
  2
AcDbPlaceHolder
  3
ObjectDBX Classes
 90
        0
280
     0
281
     0
  0
CLASS
  1
LAYOUT
  2
AcDbLayout
  3
ObjectDBX Classes
 90
        0
280
     0
281
     0
  0
ENDSEC
  0
SECTION
  2
TABLES
  0
TABLE
  2
VPORT
  5
8
330
0
100
AcDbSymbolTable
 70
     1
  0
VPORT
  5
29
330
8
100
AcDbSymbolTableRecord
100
AcDbViewportTableRecord
  2
*Active
 70
     0
 10
0.0
 20
0.0
 11
1.0
 21
1.0
 12
5.5
 22
4.25
 13
0.0
 23
0.0
 14
0.5
 24
0.5
 15
0.5
 25
0.5
 16
0.0
 26
0.0
 36
1.0
 17
0.0
 27
0.0
 37
0.0
 40
8.5
 41
1.2941176471
 42
50.0
 43
0.0
 44
0.0
 50
0.0
 51
0.0
 71
     0
 72
  2000
 73
     1
 74
     3
 75
     0
 76
     0
 77
     0
 78
     0
281
     0
 65
     1
110
0.0
120
0.0
130
0.0
111
1.0
121
0.0
131
0.0
112
0.0
122
1.0
132
0.0
 79
     0
146
0.0
  0
ENDTAB
  0
TABLE
  2
LTYPE
  5
5
330
0
100
AcDbSymbolTable
 70
     6
  0
LTYPE
  5
14
330
5
100
AcDbSymbolTableRecord
100
AcDbLinetypeTableRecord
  2
ByBlock
 70
     0
  3

 72
    65
 73
     0
 40
0.0
  0
LTYPE
  5
15
330
5
100
AcDbSymbolTableRecord
100
AcDbLinetypeTableRecord
  2
ByLayer
 70
     0
  3

 72
    65
 73
     0
 40
0.0
  0
LTYPE
  5
16
330
5
100
AcDbSymbolTableRecord
100
AcDbLinetypeTableRecord
  2
Continuous
 70
     0
  3
Solid line
 72
    65
 73
     0
 40
0.0
  0
LTYPE
  5
6A
330
5
100
AcDbSymbolTableRecord
100
AcDbLinetypeTableRecord
  2
HIDDEN
 70
     0
  3
Hidden __ __ __ __ __ __ __ __ __ __ __ __ __ __
 72
    65
 73
     2
 40
0.075
 49
0.05
 74
     0
 49
-0.025
 74
     0
  0
LTYPE
  5
6B
330
5
100
AcDbSymbolTableRecord
100
AcDbLinetypeTableRecord
  2
PHANTOM
 70
     0
  3
Phantom ______  __  __  ______  __  __  ______
 72
    65
 73
     6
 40
0.5
 49
0.25
 74
     0
 49
-0.05
 74
     0
 49
0.05
 74
     0
 49
-0.05
 74
     0
 49
0.05
 74
     0
 49
-0.05
 74
     0
  0
LTYPE
  5
6C
330
5
100
AcDbSymbolTableRecord
100
AcDbLinetypeTableRecord
  2
CENTER
 70
     0
  3
Center ____ _ ____ _ ____ _ ____ _ ____ _ ____
 72
    65
 73
     4
 40
0.4
 49
0.25
 74
     0
 49
-0.05
 74
     0
 49
0.05
 74
     0
 49
-0.05
 74
     0
  0
LTYPE
  5
6D
330
5
100
AcDbSymbolTableRecord
100
AcDbLinetypeTableRecord
  2
CENTERX2
 70
     0
  3
Center (2x) ________  __  ________  __  _____
 72
    65
 73
     4
 40
0.8
 49
0.5
 74
     0
 49
-0.1
 74
     0
 49
0.1
 74
     0
 49
-0.1
 74
     0
  0
LTYPE
  5
6E
330
5
100
AcDbSymbolTableRecord
100
AcDbLinetypeTableRecord
  2
DOT2
 70
     0
  3
Dot (.5x) ........................................
 72
    65
 73
     2
 40
0.025
 49
0.0
 74
     0
 49
-0.025
 74
     0
  0
ENDTAB
  0
TABLE
  2
LAYER
  5
2
330
0
100
AcDbSymbolTable
 70
     2
  0
LAYER
  5
10
330
2
100
AcDbSymbolTableRecord
100
AcDbLayerTableRecord
  2
0
 70
     0
 62
     7
  6
Continuous
370
    -3
390
F
  0
LAYER
  5
6F
330
2
100
AcDbSymbolTableRecord
100
AcDbLayerTableRecord
  2
FORMAT
 70
     0
 62
     7
  6
Continuous
370
    -3
390
F
  0
ENDTAB
  0
TABLE
  2
STYLE
  5
3
330
0
100
AcDbSymbolTable
 70
     5
  0
STYLE
  5
11
330
3
100
AcDbSymbolTableRecord
100
AcDbTextStyleTableRecord
  2
Standard
 70
     0
 40
0.0
 41
1.0
 50
0.0
 71
     0
 42
0.1111111111
  3
txt
  4

  0
STYLE
  5
96
330
3
100
AcDbSymbolTableRecord
100
AcDbTextStyleTableRecord
  2
SLDTEXTSTYLE0
 70
     0
 40
0.0
 41
0.75
 50
0.0
 71
     0
 42
0.1111111111
  3
TXT
  4

  0
STYLE
  5
A2
330
3
100
AcDbSymbolTableRecord
100
AcDbTextStyleTableRecord
  2
SLDTEXTSTYLE1
 70
     0
 40
0.0
 41
0.6
 50
0.0
 71
     0
 42
0.1111111111
  3
TXT
  4

  0
STYLE
  5
A7
330
3
100
AcDbSymbolTableRecord
100
AcDbTextStyleTableRecord
  2
SLDTEXTSTYLE2
 70
     0
 40
0.0
 41
0.6875
 50
0.0
 71
     0
 42
0.1111111111
  3
TXT
  4

  0
STYLE
  5
1F1
330
3
100
AcDbSymbolTableRecord
100
AcDbTextStyleTableRecord
  2
SLDTEXTSTYLE3
 70
     0
 40
0.0
 41
0.7
 50
0.0
 71
     0
 42
0.1111111111
  3
TXT
  4

  0
ENDTAB
  0
TABLE
  2
VIEW
  5
6
330
0
100
AcDbSymbolTable
 70
     0
  0
ENDTAB
  0
TABLE
  2
UCS
  5
7
330
0
100
AcDbSymbolTable
 70
     0
  0
ENDTAB
  0
TABLE
  2
APPID
  5
9
330
0
100
AcDbSymbolTable
 70
     1
  0
APPID
  5
12
330
9
100
AcDbSymbolTableRecord
100
AcDbRegAppTableRecord
  2
ACAD
 70
     0
  0
ENDTAB
  0
TABLE
  2
DIMSTYLE
  5
A
330
0
100
AcDbSymbolTable
 70
     5
100
AcDbDimStyleTable
  0
DIMSTYLE
105
27
330
A
100
AcDbSymbolTableRecord
100
AcDbDimStyleTableRecord
  2
Standard
 70
     0
178
     0
340
11
  0
DIMSTYLE
105
11D
102
{ACAD_REACTORS
330
11C
102
}
330
A
100
AcDbSymbolTableRecord
100
AcDbDimStyleTableRecord
  2
SLDDIMSTYLE0
 70
     0
 41
0.125
 44
0.0
 45
0.000000001
 78
     4
 79
     1
140
0.0833333333
141
0.0
147
0.0208333333
148
0.000000001
170
     1
171
     1
173
     1
178
     0
271
     2
272
     2
274
     1
276
     2
284
    12
340
96
  0
DIMSTYLE
105
1B2
102
{ACAD_REACTORS
330
1B1
102
}
330
A
100
AcDbSymbolTableRecord
100
AcDbDimStyleTableRecord
  2
SLDDIMSTYLE1
 70
     0
 41
0.125
 44
0.0
 45
0.000000001
 78
     4
 79
     1
140
0.0833333333
147
0.0208333333
148
0.000000001
170
     1
171
     1
173
     1
178
     0
271
     2
272
     2
274
     1
276
     2
284
    12
340
96
  0
DIMSTYLE
105
1C6
102
{ACAD_REACTORS
330
1C5
330
1DA
102
}
330
A
100
AcDbSymbolTableRecord
100
AcDbDimStyleTableRecord
  2
SLDDIMSTYLE2
 70
     0
 41
0.125
 44
0.0
 45
0.000000001
 78
     8
 79
     2
140
0.0833333333
147
0.0208333333
148
0.000000001
170
     1
171
     1
172
     1
173
     1
178
     0
271
     2
272
     2
274
     1
276
     2
284
    12
289
     0
340
96
  0
DIMSTYLE
105
1F6
330
A
100
AcDbSymbolTableRecord
100
AcDbDimStyleTableRecord
  2
SLDDIMSTYLE3
 70
     0
 41
0.125
 44
0.0
 45
0.000000001
146
0.125
147
0.0
173
     1
178
     0
271
     0
272
     0
276
     2
340
11
  0
ENDTAB
  0
TABLE
  2
BLOCK_RECORD
  5
1
330
0
100
AcDbSymbolTable
 70
    20
  0
BLOCK_RECORD
  5
1F
330
1
100
AcDbSymbolTableRecord
100
AcDbBlockTableRecord
  2
*Model_Space
340
22
  0
BLOCK_RECORD
  5
1B
330
1
100
AcDbSymbolTableRecord
100
AcDbBlockTableRecord
  2
*Paper_Space
340
1E
  0
BLOCK_RECORD
  5
23
330
1
100
AcDbSymbolTableRecord
100
AcDbBlockTableRecord
  2
*Paper_Space0
340
26
  0
BLOCK_RECORD
  5
70
330
1
100
AcDbSymbolTableRecord
100
AcDbBlockTableRecord
  2
Third Angle Projection Block
340
0
102
{BLKREFS
331
95
102
}
  0
BLOCK_RECORD
  5
A9
330
1
100
AcDbSymbolTableRecord
100
AcDbBlockTableRecord
  2
SW_NOTE_0
340
0
102
{BLKREFS
331
AE
102
}
  0
BLOCK_RECORD
  5
AF
330
1
100
AcDbSymbolTableRecord
100
AcDbBlockTableRecord
  2
SW_NOTE_1
340
0
102
{BLKREFS
331
B4
102
}
  0
BLOCK_RECORD
  5
B6
330
1
100
AcDbSymbolTableRecord
100
AcDbBlockTableRecord
  2
SW_NOTE_2
340
0
102
{BLKREFS
331
BC
102
}
  0
BLOCK_RECORD
  5
BE
330
1
100
AcDbSymbolTableRecord
100
AcDbBlockTableRecord
  2
SW_NOTE_3
340
0
102
{BLKREFS
331
C3
102
}
  0
BLOCK_RECORD
  5
C4
330
1
100
AcDbSymbolTableRecord
100
AcDbBlockTableRecord
  2
SW_NOTE_4
340
0
102
{BLKREFS
331
D9
102
}
  0
BLOCK_RECORD
  5
DA
330
1
100
AcDbSymbolTableRecord
100
AcDbBlockTableRecord
  2
SW_TABLEANNOTATION_0
340
0
102
{BLKREFS
331
103
102
}
  0
BLOCK_RECORD
  5
E8
330
1
100
AcDbSymbolTableRecord
100
AcDbBlockTableRecord
  2
SW_SYMBOL_C#_1
340
0
102
{BLKREFS
331
ED
102
}
  0
BLOCK_RECORD
  5
F1
330
1
100
AcDbSymbolTableRecord
100
AcDbBlockTableRecord
  2
SW_SYMBOL_C#_2
340
0
102
{BLKREFS
331
F6
102
}
  0
BLOCK_RECORD
  5
F9
330
1
100
AcDbSymbolTableRecord
100
AcDbBlockTableRecord
  2
SW_SYMBOL_C#_3
340
0
102
{BLKREFS
331
FE
102
}
  0
BLOCK_RECORD
  5
11E
330
1
100
AcDbSymbolTableRecord
100
AcDbBlockTableRecord
  2
_D
340
0
  0
BLOCK_RECORD
  5
1B3
330
1
100
AcDbSymbolTableRecord
100
AcDbBlockTableRecord
  2
_D_1
340
0
  0
BLOCK_RECORD
  5
1C7
330
1
100
AcDbSymbolTableRecord
100
AcDbBlockTableRecord
  2
_D_2
340
0
  0
BLOCK_RECORD
  5
1DB
330
1
100
AcDbSymbolTableRecord
100
AcDbBlockTableRecord
  2
_D_3
340
0
  0
BLOCK_RECORD
  5
1EE
330
1
100
AcDbSymbolTableRecord
100
AcDbBlockTableRecord
  2
SW_NOTE_5
340
0
102
{BLKREFS
331
1F5
102
}
  0
BLOCK_RECORD
  5
1F8
330
1
100
AcDbSymbolTableRecord
100
AcDbBlockTableRecord
  2
SW_NOTE_6
340
0
102
{BLKREFS
331
1FE
102
}
  0
BLOCK_RECORD
  5
200
330
1
100
AcDbSymbolTableRecord
100
AcDbBlockTableRecord
  2
SW_NOTE_7
340
0
102
{BLKREFS
331
205
102
}
  0
BLOCK_RECORD
  5
207
330
1
100
AcDbSymbolTableRecord
100
AcDbBlockTableRecord
  2
SW_NOTE_8
340
0
102
{BLKREFS
331
20C
102
}
  0
BLOCK_RECORD
  5
20E
330
1
100
AcDbSymbolTableRecord
100
AcDbBlockTableRecord
  2
SW_NOTE_9
340
0
102
{BLKREFS
331
213
102
}
  0
ENDTAB
  0
ENDSEC
  0
SECTION
  2
BLOCKS
  0
BLOCK
  5
20
330
1F
100
AcDbEntity
  8
0
100
AcDbBlockBegin
  2
*Model_Space
 70
     0
 10
0.0
 20
0.0
 30
0.0
  3
*Model_Space
  1
*Model_Space
  0
ENDBLK
  5
21
330
1F
100
AcDbEntity
  8
0
100
AcDbBlockEnd
  0
BLOCK
  5
1C
330
1B
100
AcDbEntity
 67
     1
  8
0
100
AcDbBlockBegin
  2
*Paper_Space
 70
     0
 10
0.0
 20
0.0
 30
0.0
  3
*Paper_Space
  1
*Paper_Space
  0
ENDBLK
  5
1D
330
1B
100
AcDbEntity
 67
     1
  8
0
100
AcDbBlockEnd
  0
BLOCK
  5
24
330
23
100
AcDbEntity
  8
0
100
AcDbBlockBegin
  2
*Paper_Space0
 70
     0
 10
0.0
 20
0.0
 30
0.0
  3
*Paper_Space0
  1
*Paper_Space0
  0
ENDBLK
  5
25
330
23
100
AcDbEntity
  8
0
100
AcDbBlockEnd
  0
BLOCK
  5
71
330
70
100
AcDbEntity
  8
0
100
AcDbBlockBegin
  2
Third Angle Projection Block
 70
     0
 10
0.0
 20
0.0
 30
0.0
  3
Third Angle Projection Block
  1
Third Angle Projection Block
  0
CIRCLE
  5
73
330
70
100
AcDbEntity
  8
0
  6
Continuous
 62
     7
370
    30
100
AcDbCircle
 10
3.9951432636
 20
0.7456853688
 30
0.0
 40
0.0696152422706639
  0
CIRCLE
  5
74
330
70
100
AcDbEntity
  8
0
  6
Continuous
 62
     7
370
    30
100
AcDbCircle
 10
3.9951432636
 20
0.7456853688
 30
0.0
 40
0.1535916633280245
  0
LINE
  5
75
330
70
100
AcDbEntity
  8
0
  6
CENTERX2
 62
     7
370
     0
100
AcDbLine
 10
4.3360937897
 20
0.7456853688
 30
0.0
 11
4.7028635231
 21
0.7456853688
 31
0.0
  0
LINE
  5
76
330
70
100
AcDbEntity
  8
0
  6
Continuous
 62
     7
370
    30
100
AcDbLine
 10
4.3701432636
 20
0.815300611
 30
0.0
 11
4.3701432636
 21
0.6760701265
 31
0.0
  0
LINE
  5
77
330
70
100
AcDbEntity
  8
0
  6
Continuous
 62
     7
370
    30
100
AcDbLine
 10
4.3701432636
 20
0.6760701265
 30
0.0
 11
4.6701432636
 21
0.5956853688
 31
0.0
  0
LINE
  5
78
330
70
100
AcDbEntity
  8
0
  6
Continuous
 62
     7
370
    30
100
AcDbLine
 10
4.6701432636
 20
0.5956853688
 30
0.0
 11
4.6701432636
 21
0.8956853688
 31
0.0
  0
LINE
  5
79
330
70
100
AcDbEntity
  8
0
  6
Continuous
 62
     7
370
    30
100
AcDbLine
 10
4.6701432636
 20
0.8956853688
 30
0.0
 11
4.3701432636
 21
0.815300611
 31
0.0
  0
LINE
  5
7A
330
70
100
AcDbEntity
  8
0
  6
CENTERX2
 62
     7
370
     0
100
AcDbLine
 10
3.8032513961
 20
0.7456853688
 30
0.0
 11
4.187035131
 21
0.7456853688
 31
0.0
  0
LINE
  5
7B
330
70
100
AcDbEntity
  8
0
  6
CENTERX2
 62
     7
370
     0
100
AcDbLine
 10
3.9951432636
 20
0.9375772362
 30
0.0
 11
3.9951432636
 21
0.5537935013
 31
0.0
  0
POINT
  5
7C
330
70
100
AcDbEntity
  8
0
  6
Continuous
 62
     7
370
     0
100
AcDbPoint
 10
3.9951432636
 20
0.7456853688
 30
0.0
  0
ENDBLK
  5
72
330
70
100
AcDbEntity
  8
0
100
AcDbBlockEnd
  0
BLOCK
  5
AA
330
A9
100
AcDbEntity
  8
0
100
AcDbBlockBegin
  2
SW_NOTE_0
 70
     0
 10
0.0
 20
0.0
 30
0.0
  3
SW_NOTE_0
  1
SW_NOTE_0
  0
MTEXT
  5
AC
330
A9
100
AcDbEntity
  8
0
  6
Continuous
 62
     0
370
     0
100
AcDbMText
 10
0.78375
 20
0.0773440644
 30
0.0
 40
0.06
 41
0.0
 71
     2
 72
     1
  1
VALUES IN PARENTHESIS ARE CALCULATED
  7
SLDTEXTSTYLE0
 73
     1
 44
1.0
  0
MTEXT
  5
AD
330
A9
100
AcDbEntity
  8
0
  6
Continuous
 62
     0
370
     0
100
AcDbMText
 10
0.7825936818
 20
-0.0220260102
 30
0.0
 40
0.06
 41
0.0
 71
     2
 72
     1
  1
AND MAY CONTAIN ROUNDOFF ERRORS
  7
SLDTEXTSTYLE0
 73
     1
 44
1.0
  0
ENDBLK
  5
AB
330
A9
100
AcDbEntity
  8
0
100
AcDbBlockEnd
  0
BLOCK
  5
B0
330
AF
100
AcDbEntity
  8
0
100
AcDbBlockBegin
  2
SW_NOTE_1
 70
     0
 10
0.0
 20
0.0
 30
0.0
  3
SW_NOTE_1
  1
SW_NOTE_1
  0
MTEXT
  5
B2
330
AF
100
AcDbEntity
  8
0
  6
Continuous
 62
     0
370
     0
100
AcDbMText
 10
0.0
 20
0.1074223116
 30
0.0
 40
0.0833333333
 41
0.0
 71
     1
 72
     1
  1
DRAWING
  7
SLDTEXTSTYLE0
 73
     1
 44
1.0
  0
MTEXT
  5
B3
330
AF
100
AcDbEntity
  8
0
  6
Continuous
 62
     0
370
     0
100
AcDbMText
 10
0.0
 20
-0.0036887981
 30
0.0
 40
0.0833333333
 41
0.0
 71
     1
 72
     1
  1
PROJECTION
  7
SLDTEXTSTYLE0
 73
     1
 44
1.0
  0
ENDBLK
  5
B1
330
AF
100
AcDbEntity
  8
0
100
AcDbBlockEnd
  0
BLOCK
  5
B7
330
B6
100
AcDbEntity
  8
0
100
AcDbBlockBegin
  2
SW_NOTE_2
 70
     0
 10
0.0
 20
0.0
 30
0.0
  3
SW_NOTE_2
  1
SW_NOTE_2
  0
MTEXT
  5
B9
330
B6
100
AcDbEntity
  8
0
  6
Continuous
 62
     0
370
     0
100
AcDbMText
 10
0.0823567708
 20
0.1477056785
 30
0.0
 40
0.1145833333
 41
0.0
 71
     2
 72
     1
  1
%%c
  7
SLDTEXTSTYLE0
 73
     1
 44
1.0
  0
MTEXT
  5
BA
330
B6
100
AcDbEntity
  8
0
  6
Continuous
 62
     0
370
     0
100
AcDbMText
 10
1.2471759303
 20
0.1477056785
 30
0.0
 40
0.1145833333
 41
0.0
 71
     2
 72
     1
  1
2" MOUNTED PLANO-CONVEX
  7
SLDTEXTSTYLE0
 73
     1
 44
1.0
  0
MTEXT
  5
BB
330
B6
100
AcDbEntity
  8
0
  6
Continuous
 62
     0
370
     0
100
AcDbMText
 10
1.1568117673
 20
-0.0050720974
 30
0.0
 40
0.1145833333
 41
0.0
 71
     2
 72
     1
  1
LENS, f=1000mm, -UV COAT
  7
SLDTEXTSTYLE0
 73
     1
 44
1.0
  0
ENDBLK
  5
B8
330
B6
100
AcDbEntity
  8
0
100
AcDbBlockEnd
  0
BLOCK
  5
BF
330
BE
100
AcDbEntity
  8
0
100
AcDbBlockBegin
  2
SW_NOTE_3
 70
     0
 10
0.0
 20
0.0
 30
0.0
  3
SW_NOTE_3
  1
SW_NOTE_3
  0
MTEXT
  5
C1
330
BE
100
AcDbEntity
  8
0
  6
Continuous
 62
     0
370
     0
100
AcDbMText
 10
0.986328125
 20
0.1611334675
 30
0.0
 40
0.125
 41
0.0
 71
     2
 72
     1
  1
FOR INFORMATION ONLY
  7
SLDTEXTSTYLE0
 73
     1
 44
1.0
  0
MTEXT
  5
C2
330
BE
100
AcDbEntity
  8
0
  6
Continuous
 62
     0
370
     0
100
AcDbMText
 10
0.999088459
 20
-0.0055331972
 30
0.0
 40
0.125
 41
0.0
 71
     2
 72
     1
  1
NOT FOR MANUFACTURING PURPOSES
  7
SLDTEXTSTYLE0
 73
     1
 44
1.0
  0
ENDBLK
  5
C0
330
BE
100
AcDbEntity
  8
0
100
AcDbBlockEnd
  0
BLOCK
  5
C5
330
C4
100
AcDbEntity
  8
0
100
AcDbBlockBegin
  2
SW_NOTE_4
 70
     0
 10
0.0
 20
0.0
 30
0.0
  3
SW_NOTE_4
  1
SW_NOTE_4
  0
MTEXT
  5
C7
330
C4
100
AcDbEntity
  8
0
  6
Continuous
 62
     0
370
     0
100
AcDbMText
 10
0.0
 20
0.1074223116
 30
0.0
 40
0.0833333333
 41
0.0
 71
     1
 72
     1
  1
NOTES/SPECIFICATIONS:
  7
SLDTEXTSTYLE0
 73
     1
 44
1.0
  0
MTEXT
  5
C8
330
C4
100
AcDbEntity
  8
0
  6
Continuous
 62
     0
370
     0
100
AcDbMText
 10
0.4183921567
 20
-0.1147999079
 30
0.0
 40
0.0833333333
 41
0.0
 71
     1
 72
     1
  1
DESIGN WAVELENGTH: 546nm
  7
SLDTEXTSTYLE0
 73
     1
 44
1.0
  0
MTEXT
  5
C9
330
C4
100
AcDbEntity
  8
0
  6
Continuous
 62
     0
370
     0
100
AcDbMText
 10
0.0
 20
-0.1147999079
 30
0.0
 40
0.0833333333
 41
0.0
 71
     1
 72
     1
  1
1.
  7
SLDTEXTSTYLE0
 73
     1
 44
1.0
  0
MTEXT
  5
CA
330
C4
100
AcDbEntity
  8
0
  6
Continuous
 62
     0
370
     0
100
AcDbMText
 10
0.4183921567
 20
-0.2259110177
 30
0.0
 40
0.0833333333
 41
0.0
 71
     1
 72
     1
  1
FOCAL LENGTH: f=1000.0mm
  7
SLDTEXTSTYLE0
 73
     1
 44
1.0
  0
MTEXT
  5
CB
330
C4
100
AcDbEntity
  8
0
  6
Continuous
 62
     0
370
     0
100
AcDbMText
 10
1.9474045601
 20
-0.2259110177
 30
0.0
 40
0.0833333333
 41
0.0
 71
     1
 72
     1
  1
%%p
  7
SLDTEXTSTYLE0
 73
     1
 44
1.0
  0
MTEXT
  5
CC
330
C4
100
AcDbEntity
  8
0
  6
Continuous
 62
     0
370
     0
100
AcDbMText
 10
2.0268490157
 20
-0.2259110177
 30
0.0
 40
0.0833333333
 41
0.0
 71
     1
 72
     1
  1
1%
  7
SLDTEXTSTYLE0
 73
     1
 44
1.0
  0
MTEXT
  5
CD
330
C4
100
AcDbEntity
  8
0
  6
Continuous
 62
     0
370
     0
100
AcDbMText
 10
0.0
 20
-0.2259110177
 30
0.0
 40
0.0833333333
 41
0.0
 71
     1
 72
     1
  1
2.
  7
SLDTEXTSTYLE0
 73
     1
 44
1.0
  0
MTEXT
  5
CE
330
C4
100
AcDbEntity
  8
0
  6
Continuous
 62
     0
370
     0
100
AcDbMText
 10
0.4183921567
 20
-0.3370221274
 30
0.0
 40
0.0833333333
 41
0.0
 71
     1
 72
     1
  1
WORKING DISTANCE (REF): 993.7mm
  7
SLDTEXTSTYLE0
 73
     1
 44
1.0
  0
MTEXT
  5
CF
330
C4
100
AcDbEntity
  8
0
  6
Continuous
 62
     0
370
     0
100
AcDbMText
 10
0.0
 20
-0.3370221274
 30
0.0
 40
0.0833333333
 41
0.0
 71
     1
 72
     1
  1
3.
  7
SLDTEXTSTYLE0
 73
     1
 44
1.0
  0
MTEXT
  5
D0
330
C4
100
AcDbEntity
  8
0
  6
Continuous
 62
     0
370
     0
100
AcDbMText
 10
0.4183921567
 20
-0.4481332372
 30
0.0
 40
0.0833333333
 41
0.0
 71
     1
 72
     1
  1
CLEAR APERTURE: >
  7
SLDTEXTSTYLE0
 73
     1
 44
1.0
  0
MTEXT
  5
D1
330
C4
100
AcDbEntity
  8
0
  6
Continuous
 62
     0
370
     0
100
AcDbMText
 10
1.4507996036
 20
-0.4481332372
 30
0.0
 40
0.0833333333
 41
0.0
 71
     1
 72
     1
  1
%%c
  7
SLDTEXTSTYLE0
 73
     1
 44
1.0
  0
MTEXT
  5
D2
330
C4
100
AcDbEntity
  8
0
  6
Continuous
 62
     0
370
     0
100
AcDbMText
 10
1.5765865971
 20
-0.4481332372
 30
0.0
 40
0.0833333333
 41
0.0
 71
     1
 72
     1
  1
45.72mm
  7
SLDTEXTSTYLE0
 73
     1
 44
1.0
  0
MTEXT
  5
D3
330
C4
100
AcDbEntity
  8
0
  6
Continuous
 62
     0
370
     0
100
AcDbMText
 10
0.0
 20
-0.4481332372
 30
0.0
 40
0.0833333333
 41
0.0
 71
     1
 72
     1
  1
4.
  7
SLDTEXTSTYLE0
 73
     1
 44
1.0
  0
MTEXT
  5
D4
330
C4
100
AcDbEntity
  8
0
  6
Continuous
 62
     0
370
     0
100
AcDbMText
 10
0.4183921567
 20
-0.559244347
 30
0.0
 40
0.0833333333
 41
0.0
 71
     1
 72
     1
  1
SURFACE QUALITY: 40-20 SCRATCH-DIG
  7
SLDTEXTSTYLE0
 73
     1
 44
1.0
  0
MTEXT
  5
D5
330
C4
100
AcDbEntity
  8
0
  6
Continuous
 62
     0
370
     0
100
AcDbMText
 10
0.0
 20
-0.559244347
 30
0.0
 40
0.0833333333
 41
0.0
 71
     1
 72
     1
  1
5.
  7
SLDTEXTSTYLE0
 73
     1
 44
1.0
  0
MTEXT
  5
D6
330
C4
100
AcDbEntity
  8
0
  6
Continuous
 62
     0
370
     0
100
AcDbMText
 10
0.4183921567
 20
-0.6703554567
 30
0.0
 40
0.0833333333
 41
0.0
 71
     1
 72
     1
  1
COATING: BBAR Ravg<0.5% FROM 245-400nm, AOI: 0°,
  7
SLDTEXTSTYLE0
 73
     1
 44
1.0
  0
MTEXT
  5
D7
330
C4
100
AcDbEntity
  8
0
  6
Continuous
 62
     0
370
     0
100
AcDbMText
 10
0.0
 20
-0.6703554567
 30
0.0
 40
0.0833333333
 41
0.0
 71
     1
 72
     1
  1
6.
  7
SLDTEXTSTYLE0
 73
     1
 44
1.0
  0
MTEXT
  5
D8
330
C4
100
AcDbEntity
  8
0
  6
Continuous
 62
     0
370
     0
100
AcDbMText
 10
0.4249507874
 20
-0.7814665665
 30
0.0
 40
0.0833333333
 41
0.0
 71
     1
 72
     1
  1
ON OUTER OPTICAL SURFACES
  7
SLDTEXTSTYLE0
 73
     1
 44
1.0
  0
ENDBLK
  5
C6
330
C4
100
AcDbEntity
  8
0
100
AcDbBlockEnd
  0
BLOCK
  5
DB
330
DA
100
AcDbEntity
  8
0
100
AcDbBlockBegin
  2
SW_TABLEANNOTATION_0
 70
     0
 10
0.0
 20
0.0
 30
0.0
  3
SW_TABLEANNOTATION_0
  1
SW_TABLEANNOTATION_0
  0
LINE
  5
DD
330
DA
100
AcDbEntity
  8
0
  6
Continuous
 62
     0
370
     0
100
AcDbLine
 10
0.0
 20
0.0
 30
0.0
 11
0.0
 21
-1.2444444391
 31
0.0
  0
LINE
  5
DE
330
DA
100
AcDbEntity
  8
0
  6
Continuous
 62
     0
370
     0
100
AcDbLine
 10
0.0
 20
-1.2444444391
 30
0.0
 11
3.3
 21
-1.2444444391
 31
0.0
  0
LINE
  5
DF
330
DA
100
AcDbEntity
  8
0
  6
Continuous
 62
     0
370
     0
100
AcDbLine
 10
3.3
 20
-1.2444444391
 30
0.0
 11
3.3
 21
0.0
 31
0.0
  0
LINE
  5
E0
330
DA
100
AcDbEntity
  8
0
  6
Continuous
 62
     0
370
     0
100
AcDbLine
 10
3.3
 20
0.0
 30
0.0
 11
0.0
 21
0.0
 31
0.0
  0
LINE
  5
E1
330
DA
100
AcDbEntity
  8
0
  6
Continuous
 62
     0
370
     0
100
AcDbLine
 10
1.1
 20
0.0
 30
0.0
 11
1.1
 21
-1.2444444391
 31
0.0
  0
LINE
  5
E2
330
DA
100
AcDbEntity
  8
0
  6
Continuous
 62
     0
370
     0
100
AcDbLine
 10
2.2
 20
0.0
 30
0.0
 11
2.2
 21
-1.2444444391
 31
0.0
  0
LINE
  5
E3
330
DA
100
AcDbEntity
  8
0
  6
Continuous
 62
     0
370
     0
100
AcDbLine
 10
0.0
 20
-0.3111111098
 30
0.0
 11
3.3
 21
-0.3111111098
 31
0.0
  0
LINE
  5
E4
330
DA
100
AcDbEntity
  8
0
  6
Continuous
 62
     0
370
     0
100
AcDbLine
 10
0.0
 20
-0.6222222195
 30
0.0
 11
3.3
 21
-0.6222222195
 31
0.0
  0
LINE
  5
E5
330
DA
100
AcDbEntity
  8
0
  6
Continuous
 62
     0
370
     0
100
AcDbLine
 10
0.0
 20
-0.9333333293
 30
0.0
 11
3.3
 21
-0.9333333293
 31
0.0
  0
MTEXT
  5
E6
330
DA
100
AcDbEntity
  8
0
  6
Continuous
 62
     0
370
     0
100
AcDbMText
 10
1.1543981952
 20
-0.1141206209
 30
0.0
 40
0.0833333333
 41
0.0
 71
     1
 72
     1
  1
PART DESCRIPTION
  7
SLDTEXTSTYLE0
 73
     1
 44
1.0
  0
MTEXT
  5
E7
330
DA
100
AcDbEntity
  8
0
  6
Continuous
 62
     0
370
     0
100
AcDbMText
 10
2.491203698
 20
-0.1141206209
 30
0.0
 40
0.0833333333
 41
0.0
 71
     1
 72
     1
  1
MATERIAL
  7
SLDTEXTSTYLE0
 73
     1
 44
1.0
  0
INSERT
  5
ED
330
DA
100
AcDbEntity
  8
0
  6
Continuous
 62
     0
370
     0
100
AcDbBlockReference
  2
SW_SYMBOL_C#_1
 10
0.4374537001
 20
-0.5210980527
 30
0.0
 41
0.0027037109
 42
0.0027037109
 43
0.0027037109
  0
MTEXT
  5
EE
330
DA
100
AcDbEntity
  8
0
  6
Continuous
 62
     0
370
     0
100
AcDbMText
 10
1.4729938215
 20
-0.4252317307
 30
0.0
 40
0.0833333333
 41
0.0
 71
     1
 72
     1
  1
SM2RR
  7
SLDTEXTSTYLE0
 73
     1
 44
1.0
  0
MTEXT
  5
EF
330
DA
100
AcDbEntity
  8
0
  6
Continuous
 62
     0
370
     0
100
AcDbMText
 10
2.4676697448
 20
-0.3696761758
 30
0.0
 40
0.0833333333
 41
0.0
 71
     1
 72
     1
  1
ANODIZED
  7
SLDTEXTSTYLE0
 73
     1
 44
1.0
  0
MTEXT
  5
F0
330
DA
100
AcDbEntity
  8
0
  6
Continuous
 62
     0
370
     0
100
AcDbMText
 10
2.4546296155
 20
-0.4807872855
 30
0.0
 40
0.0833333333
 41
0.0
 71
     1
 72
     1
  1
ALUMINUM
  7
SLDTEXTSTYLE0
 73
     1
 44
1.0
  0
INSERT
  5
F6
330
DA
100
AcDbEntity
  8
0
  6
Continuous
 62
     0
370
     0
100
AcDbBlockReference
  2
SW_SYMBOL_C#_2
 10
0.4374537001
 20
-0.8322091625
 30
0.0
 41
0.0027037109
 42
0.0027037109
 43
0.0027037109
  0
MTEXT
  5
F7
330
DA
100
AcDbEntity
  8
0
  6
Continuous
 62
     0
370
     0
100
AcDbMText
 10
1.3662037001
 20
-0.7363428404
 30
0.0
 40
0.0833333333
 41
0.0
 71
     1
 72
     1
  1
LA4337-UV
  7
SLDTEXTSTYLE0
 73
     1
 44
1.0
  0
MTEXT
  5
F8
330
DA
100
AcDbEntity
  8
0
  6
Continuous
 62
     0
370
     0
100
AcDbMText
 10
2.3169753357
 20
-0.7363428404
 30
0.0
 40
0.0833333333
 41
0.0
 71
     1
 72
     1
  1
UV FUSED SILICA
  7
SLDTEXTSTYLE0
 73
     1
 44
1.0
  0
INSERT
  5
FE
330
DA
100
AcDbEntity
  8
0
  6
Continuous
 62
     0
370
     0
100
AcDbBlockReference
  2
SW_SYMBOL_C#_3
 10
0.4374537001
 20
-1.1433202723
 30
0.0
 41
0.0027037109
 42
0.0027037109
 43
0.0027037109
  0
MTEXT
  5
FF
330
DA
100
AcDbEntity
  8
0
  6
Continuous
 62
     0
370
     0
100
AcDbMText
 10
1.3456018548
 20
-0.9918983953
 30
0.0
 40
0.0833333333
 41
0.0
 71
     1
 72
     1
  1
ENGRAVED
  7
SLDTEXTSTYLE0
 73
     1
 44
1.0
  0
MTEXT
  5
100
330
DA
100
AcDbEntity
  8
0
  6
Continuous
 62
     0
370
     0
100
AcDbMText
 10
1.3975308615
 20
-1.1030095051
 30
0.0
 40
0.0833333333
 41
0.0
 71
     1
 72
     1
  1
HOUSING
  7
SLDTEXTSTYLE0
 73
     1
 44
1.0
  0
MTEXT
  5
101
330
DA
100
AcDbEntity
  8
0
  6
Continuous
 62
     0
370
     0
100
AcDbMText
 10
2.4676697448
 20
-0.9918983953
 30
0.0
 40
0.0833333333
 41
0.0
 71
     1
 72
     1
  1
ANODIZED
  7
SLDTEXTSTYLE0
 73
     1
 44
1.0
  0
MTEXT
  5
102
330
DA
100
AcDbEntity
  8
0
  6
Continuous
 62
     0
370
     0
100
AcDbMText
 10
2.4546296155
 20
-1.1030095051
 30
0.0
 40
0.0833333333
 41
0.0
 71
     1
 72
     1
  1
ALUMINUM
  7
SLDTEXTSTYLE0
 73
     1
 44
1.0
  0
ENDBLK
  5
DC
330
DA
100
AcDbEntity
  8
0
100
AcDbBlockEnd
  0
BLOCK
  5
E9
330
E8
100
AcDbEntity
  8
0
100
AcDbBlockBegin
  2
SW_SYMBOL_C#_1
 70
     0
 10
0.0
 20
0.0
 30
0.0
  3
SW_SYMBOL_C#_1
  1
SW_SYMBOL_C#_1
  0
CIRCLE
  5
EB
330
E8
100
AcDbEntity
  8
0
  6
Continuous
 62
     0
370
     0
100
AcDbCircle
 10
31.4960629921
 20
19.6850393701
 30
0.0
 40
31.49606299212599
  0
MTEXT
  5
EC
330
E8
100
AcDbEntity
  8
0
  6
Continuous
 62
     0
370
     0
100
AcDbMText
 10
31.4960629921
 20
19.6850393701
 30
0.0
 40
30.821835344
 41
0.0
 71
     5
 72
     1
  1
1
  7
SLDTEXTSTYLE0
 73
     1
 44
1.0
  0
ENDBLK
  5
EA
330
E8
100
AcDbEntity
  8
0
100
AcDbBlockEnd
  0
BLOCK
  5
F2
330
F1
100
AcDbEntity
  8
0
100
AcDbBlockBegin
  2
SW_SYMBOL_C#_2
 70
     0
 10
0.0
 20
0.0
 30
0.0
  3
SW_SYMBOL_C#_2
  1
SW_SYMBOL_C#_2
  0
CIRCLE
  5
F4
330
F1
100
AcDbEntity
  8
0
  6
Continuous
 62
     0
370
     0
100
AcDbCircle
 10
31.4960629921
 20
19.6850393701
 30
0.0
 40
31.49606299212599
  0
MTEXT
  5
F5
330
F1
100
AcDbEntity
  8
0
  6
Continuous
 62
     0
370
     0
100
AcDbMText
 10
31.4960629921
 20
19.6850393701
 30
0.0
 40
30.821835344
 41
0.0
 71
     5
 72
     1
  1
2
  7
SLDTEXTSTYLE0
 73
     1
 44
1.0
  0
ENDBLK
  5
F3
330
F1
100
AcDbEntity
  8
0
100
AcDbBlockEnd
  0
BLOCK
  5
FA
330
F9
100
AcDbEntity
  8
0
100
AcDbBlockBegin
  2
SW_SYMBOL_C#_3
 70
     0
 10
0.0
 20
0.0
 30
0.0
  3
SW_SYMBOL_C#_3
  1
SW_SYMBOL_C#_3
  0
CIRCLE
  5
FC
330
F9
100
AcDbEntity
  8
0
  6
Continuous
 62
     0
370
     0
100
AcDbCircle
 10
31.4960629921
 20
19.6850393701
 30
0.0
 40
31.49606299212599
  0
MTEXT
  5
FD
330
F9
100
AcDbEntity
  8
0
  6
Continuous
 62
     0
370
     0
100
AcDbMText
 10
31.4960629921
 20
19.6850393701
 30
0.0
 40
30.821835344
 41
0.0
 71
     5
 72
     1
  1
3
  7
SLDTEXTSTYLE0
 73
     1
 44
1.0
  0
ENDBLK
  5
FB
330
F9
100
AcDbEntity
  8
0
100
AcDbBlockEnd
  0
BLOCK
  5
11F
330
11E
100
AcDbEntity
  8
0
100
AcDbBlockBegin
  2
_D
 70
     0
 10
0.0
 20
0.0
 30
0.0
  3
_D
  1
_D
  0
SOLID
  5
121
330
11E
100
AcDbEntity
  8
0
  6
Continuous
 62
     7
370
     0
100
AcDbTrace
 10
3.2923637022
 20
5.2707526574
 30
0.0
 11
3.3723290985
 21
5.3688879487
 31
0.0
 12
3.3377176305
 22
5.3889390406
 32
0.0
 13
3.3377176305
 23
5.3889390406
 33
0.0
  0
LINE
  5
122
330
11E
100
AcDbEntity
  8
0
  6
Continuous
 62
     7
370
     0
100
AcDbLine
 10
3.7057934216
 20
5.6064606538
 30
0.0
 11
3.6888952736
 21
5.6064606538
 31
0.0
  0
LINE
  5
123
330
11E
100
AcDbEntity
  8
0
  6
Continuous
 62
     7
370
     0
100
AcDbLine
 10
3.6888952736
 20
5.6064606538
 30
0.0
 11
3.6888952736
 21
5.4740532493
 31
0.0
  0
LINE
  5
124
330
11E
100
AcDbEntity
  8
0
  6
Continuous
 62
     7
370
     0
100
AcDbLine
 10
3.6888952736
 20
5.4740532493
 30
0.0
 11
3.7057934216
 21
5.4740532493
 31
0.0
  0
LINE
  5
125
330
11E
100
AcDbEntity
  8
0
  6
Continuous
 62
     7
370
     0
100
AcDbLine
 10
4.1718042413
 20
5.6064606538
 30
0.0
 11
4.1887023893
 21
5.6064606538
 31
0.0
  0
LINE
  5
126
330
11E
100
AcDbEntity
  8
0
  6
Continuous
 62
     7
370
     0
100
AcDbLine
 10
4.1887023893
 20
5.6064606538
 30
0.0
 11
4.1887023893
 21
5.4740532493
 31
0.0
  0
LINE
  5
127
330
11E
100
AcDbEntity
  8
0
  6
Continuous
 62
     7
370
     0
100
AcDbLine
 10
4.1887023893
 20
5.4740532493
 30
0.0
 11
4.1718042413
 21
5.4740532493
 31
0.0
  0
LINE
  5
128
330
11E
100
AcDbEntity
  8
0
  6
Continuous
 62
     7
370
     0
100
AcDbLine
 10
3.2923637022
 20
5.2707526574
 30
0.0
 11
3.5262216623
 21
5.6744297892
 31
0.0
  0
LINE
  5
129
330
11E
100
AcDbEntity
  8
0
  6
Continuous
 62
     7
370
     0
100
AcDbLine
 10
3.5262216623
 20
5.6744297892
 30
0.0
 11
3.6762216623
 21
5.6744297892
 31
0.0
  0
MTEXT
  5
12A
330
11E
100
AcDbEntity
  8
0
  6
Continuous
 62
     7
370
     0
100
AcDbMText
 10
3.6762216623
 20
5.7307811124
 30
0.0
 40
0.0833333333
 41
0.0
 71
     1
 72
     1
  1
%%c
  7
SLDTEXTSTYLE0
 73
     1
 44
1.0
  0
MTEXT
  5
12B
330
11E
100
AcDbEntity
  8
0
  6
Continuous
 62
     7
370
     0
100
AcDbMText
 10
3.8020087017
 20
5.7307811124
 30
0.0
 40
0.0833333333
 41
0.0
 71
     1
 72
     1
  1
2.20in
  7
SLDTEXTSTYLE0
 73
     1
 44
1.0
  0
MTEXT
  5
12C
330
11E
100
AcDbEntity
  8
0
  6
Continuous
 62
     7
370
     0
100
AcDbMText
 10
3.7269161075
 20
5.5814755563
 30
0.0
 40
0.0833333333
 41
0.0
 71
     1
 72
     1
  1
55.9mm
  7
SLDTEXTSTYLE0
 73
     1
 44
1.0
  0
ENDBLK
  5
120
330
11E
100
AcDbEntity
  8
0
100
AcDbBlockEnd
  0
BLOCK
  5
1B4
330
1B3
100
AcDbEntity
  8
0
100
AcDbBlockBegin
  2
_D_1
 70
     0
 10
0.0
 20
0.0
 30
0.0
  3
_D_1
  1
_D_1
  0
SOLID
  5
1B6
330
1B3
100
AcDbEntity
  8
0
  6
Continuous
 62
     7
370
     0
100
AcDbTrace
 10
8.4194104174
 20
5.2689372894
 30
0.0
 11
8.3994104174
 21
5.1439372894
 31
0.0
 12
8.4394104174
 22
5.1439372894
 32
0.0
 13
8.4394104174
 23
5.1439372894
 33
0.0
  0
SOLID
  5
1B7
330
1B3
100
AcDbEntity
  8
0
  6
Continuous
 62
     7
370
     0
100
AcDbTrace
 10
8.4194104174
 20
3.3689372894
 30
0.0
 11
8.4394104174
 21
3.4939372894
 31
0.0
 12
8.3994104174
 22
3.4939372894
 32
0.0
 13
8.3994104174
 23
3.4939372894
 33
0.0
  0
LINE
  5
1B8
330
1B3
100
AcDbEntity
  8
0
  6
Continuous
 62
     7
370
     0
100
AcDbLine
 10
8.1864050167
 20
4.3295854322
 30
0.0
 11
8.1695068686
 21
4.3295854322
 31
0.0
  0
LINE
  5
1B9
330
1B3
100
AcDbEntity
  8
0
  6
Continuous
 62
     7
370
     0
100
AcDbLine
 10
8.1695068686
 20
4.3295854322
 30
0.0
 11
8.1695068686
 21
4.1971780277
 31
0.0
  0
LINE
  5
1BA
330
1B3
100
AcDbEntity
  8
0
  6
Continuous
 62
     7
370
     0
100
AcDbLine
 10
8.1695068686
 20
4.1971780277
 30
0.0
 11
8.1864050167
 21
4.1971780277
 31
0.0
  0
LINE
  5
1BB
330
1B3
100
AcDbEntity
  8
0
  6
Continuous
 62
     7
370
     0
100
AcDbLine
 10
8.6524158364
 20
4.3295854322
 30
0.0
 11
8.6693139844
 21
4.3295854322
 31
0.0
  0
LINE
  5
1BC
330
1B3
100
AcDbEntity
  8
0
  6
Continuous
 62
     7
370
     0
100
AcDbLine
 10
8.6693139844
 20
4.3295854322
 30
0.0
 11
8.6693139844
 21
4.1971780277
 31
0.0
  0
LINE
  5
1BD
330
1B3
100
AcDbEntity
  8
0
  6
Continuous
 62
     7
370
     0
100
AcDbLine
 10
8.6693139844
 20
4.1971780277
 30
0.0
 11
8.6524158364
 21
4.1971780277
 31
0.0
  0
LINE
  5
1BE
330
1B3
100
AcDbEntity
  8
0
  6
Continuous
 62
     7
370
     0
100
AcDbLine
 10
7.6094323362
 20
5.2689372894
 30
0.0
 11
8.4894104174
 21
5.2689372894
 31
0.0
  0
LINE
  5
1BF
330
1B3
100
AcDbEntity
  8
0
  6
Continuous
 62
     7
370
     0
100
AcDbLine
 10
7.6094323362
 20
3.3689372894
 30
0.0
 11
8.4894104174
 21
3.3689372894
 31
0.0
  0
LINE
  5
1C0
330
1B3
100
AcDbEntity
  8
0
  6
Continuous
 62
     7
370
     0
100
AcDbLine
 10
8.4194104174
 20
5.2689372894
 30
0.0
 11
8.4194104174
 21
4.4575946935
 31
0.0
  0
LINE
  5
1C1
330
1B3
100
AcDbEntity
  8
0
  6
Continuous
 62
     7
370
     0
100
AcDbLine
 10
8.4194104174
 20
3.3689372894
 30
0.0
 11
8.4194104174
 21
4.1802798854
 31
0.0
  0
MTEXT
  5
1C2
330
1B3
100
AcDbEntity
  8
0
  6
Continuous
 62
     7
370
     0
100
AcDbMText
 10
8.2038162813
 20
4.4539058908
 30
0.0
 40
0.0833333333
 41
0.0
 71
     1
 72
     1
  1
%%c
  7
SLDTEXTSTYLE0
 73
     1
 44
1.0
  0
MTEXT
  5
1C3
330
1B3
100
AcDbEntity
  8
0
  6
Continuous
 62
     7
370
     0
100
AcDbMText
 10
8.3296033207
 20
4.4539058908
 30
0.0
 40
0.0833333333
 41
0.0
 71
     1
 72
     1
  1
1.90in
  7
SLDTEXTSTYLE0
 73
     1
 44
1.0
  0
MTEXT
  5
1C4
330
1B3
100
AcDbEntity
  8
0
  6
Continuous
 62
     7
370
     0
100
AcDbMText
 10
8.2075277026
 20
4.3046003347
 30
0.0
 40
0.0833333333
 41
0.0
 71
     1
 72
     1
  1
48.3mm
  7
SLDTEXTSTYLE0
 73
     1
 44
1.0
  0
ENDBLK
  5
1B5
330
1B3
100
AcDbEntity
  8
0
100
AcDbBlockEnd
  0
BLOCK
  5
1C8
330
1C7
100
AcDbEntity
  8
0
100
AcDbBlockBegin
  2
_D_2
 70
     0
 10
0.0
 20
0.0
 30
0.0
  3
_D_2
  1
_D_2
  0
SOLID
  5
1CA
330
1C7
100
AcDbEntity
  8
0
  6
Continuous
 62
     7
370
     0
100
AcDbTrace
 10
7.0494323362
 20
6.0488585493
 30
0.0
 11
6.9244323362
 21
6.0688585493
 31
0.0
 12
6.9244323362
 22
6.0288585493
 32
0.0
 13
6.9244323362
 23
6.0288585493
 33
0.0
  0
SOLID
  5
1CB
330
1C7
100
AcDbEntity
  8
0
  6
Continuous
 62
     7
370
     0
100
AcDbTrace
 10
7.5594323362
 20
6.0488585493
 30
0.0
 11
7.6844323362
 21
6.0288585493
 31
0.0
 12
7.6844323362
 22
6.0688585493
 32
0.0
 13
7.6844323362
 23
6.0688585493
 33
0.0
  0
LINE
  5
1CC
330
1C7
100
AcDbEntity
  8
0
  6
Continuous
 62
     7
370
     0
100
AcDbLine
 10
8.1925686495
 20
6.0488585401
 30
0.0
 11
8.1756705015
 21
6.0488585401
 31
0.0
  0
LINE
  5
1CD
330
1C7
100
AcDbEntity
  8
0
  6
Continuous
 62
     7
370
     0
100
AcDbLine
 10
8.1756705015
 20
6.0488585401
 30
0.0
 11
8.1756705015
 21
5.9164511355
 31
0.0
  0
LINE
  5
1CE
330
1C7
100
AcDbEntity
  8
0
  6
Continuous
 62
     7
370
     0
100
AcDbLine
 10
8.1756705015
 20
5.9164511355
 30
0.0
 11
8.1925686495
 21
5.9164511355
 31
0.0
  0
LINE
  5
1CF
330
1C7
100
AcDbEntity
  8
0
  6
Continuous
 62
     7
370
     0
100
AcDbLine
 10
8.6585794692
 20
6.0488585401
 30
0.0
 11
8.6754776172
 21
6.0488585401
 31
0.0
  0
LINE
  5
1D0
330
1C7
100
AcDbEntity
  8
0
  6
Continuous
 62
     7
370
     0
100
AcDbLine
 10
8.6754776172
 20
6.0488585401
 30
0.0
 11
8.6754776172
 21
5.9164511355
 31
0.0
  0
LINE
  5
1D1
330
1C7
100
AcDbEntity
  8
0
  6
Continuous
 62
     7
370
     0
100
AcDbLine
 10
8.6754776172
 20
5.9164511355
 30
0.0
 11
8.6585794692
 21
5.9164511355
 31
0.0
  0
LINE
  5
1D2
330
1C7
100
AcDbEntity
  8
0
  6
Continuous
 62
     7
370
     0
100
AcDbLine
 10
7.0494323362
 20
5.4589372894
 30
0.0
 11
7.0494323362
 21
6.1188585493
 31
0.0
  0
LINE
  5
1D3
330
1C7
100
AcDbEntity
  8
0
  6
Continuous
 62
     7
370
     0
100
AcDbLine
 10
7.5594323362
 20
5.3691167813
 30
0.0
 11
7.5594323362
 21
6.1188585493
 31
0.0
  0
LINE
  5
1D4
330
1C7
100
AcDbEntity
  8
0
  6
Continuous
 62
     7
370
     0
100
AcDbLine
 10
7.0494323362
 20
6.0488585493
 30
0.0
 11
6.7994323362
 21
6.0488585493
 31
0.0
  0
LINE
  5
1D5
330
1C7
100
AcDbEntity
  8
0
  6
Continuous
 62
     7
370
     0
100
AcDbLine
 10
7.5594323362
 20
6.0488585493
 30
0.0
 11
8.0846734094
 21
6.0488585493
 31
0.0
  0
MTEXT
  5
1D6
330
1C7
100
AcDbEntity
  8
0
  6
Continuous
 62
     7
370
     0
100
AcDbMText
 10
8.164077138
 20
6.1731789986
 30
0.0
 40
0.0833333333
 41
0.0
 71
     1
 72
     1
  1

  7
SLDTEXTSTYLE0
 73
     1
 44
1.0
  0
MTEXT
  5
1D7
330
1C7
100
AcDbEntity
  8
0
  6
Continuous
 62
     7
370
     0
100
AcDbMText
 10
8.2728734292
 20
6.1731789986
 30
0.0
 40
0.0833333333
 41
0.0
 71
     1
 72
     1
  1
0.51in
  7
SLDTEXTSTYLE0
 73
     1
 44
1.0
  0
MTEXT
  5
1D8
330
1C7
100
AcDbEntity
  8
0
  6
Continuous
 62
     7
370
     0
100
AcDbMText
 10
8.2136913354
 20
6.0238734426
 30
0.0
 40
0.0833333333
 41
0.0
 71
     1
 72
     1
  1
13.0mm
  7
SLDTEXTSTYLE0
 73
     1
 44
1.0
  0
MTEXT
  5
1D9
330
1C7
100
AcDbEntity
  8
0
  6
Continuous
 62
     7
370
     0
100
AcDbMText
 10
8.7506512285
 20
6.1731789986
 30
0.0
 40
0.0833333333
 41
0.0
 71
     1
 72
     1
  1

  7
SLDTEXTSTYLE0
 73
     1
 44
1.0
  0
ENDBLK
  5
1C9
330
1C7
100
AcDbEntity
  8
0
100
AcDbBlockEnd
  0
BLOCK
  5
1DC
330
1DB
100
AcDbEntity
  8
0
100
AcDbBlockBegin
  2
_D_3
 70
     0
 10
0.0
 20
0.0
 30
0.0
  3
_D_3
  1
_D_3
  0
SOLID
  5
1DE
330
1DB
100
AcDbEntity
  8
0
  6
Continuous
 62
     7
370
     0
100
AcDbTrace
 10
7.4394323362
 20
5.6120747985
 30
0.0
 11
7.3144323362
 21
5.6320747985
 31
0.0
 12
7.3144323362
 22
5.5920747985
 32
0.0
 13
7.3144323362
 23
5.5920747985
 33
0.0
  0
SOLID
  5
1DF
330
1DB
100
AcDbEntity
  8
0
  6
Continuous
 62
     7
370
     0
100
AcDbTrace
 10
7.5594323362
 20
5.6120747985
 30
0.0
 11
7.6844323362
 21
5.5920747985
 31
0.0
 12
7.6844323362
 22
5.6320747985
 32
0.0
 13
7.6844323362
 23
5.6320747985
 33
0.0
  0
LINE
  5
1E0
330
1DB
100
AcDbEntity
  8
0
  6
Continuous
 62
     7
370
     0
100
AcDbLine
 10
8.2233557172
 20
5.6120747893
 30
0.0
 11
8.2064575691
 21
5.6120747893
 31
0.0
  0
LINE
  5
1E1
330
1DB
100
AcDbEntity
  8
0
  6
Continuous
 62
     7
370
     0
100
AcDbLine
 10
8.2064575691
 20
5.6120747893
 30
0.0
 11
8.2064575691
 21
5.4796673847
 31
0.0
  0
LINE
  5
1E2
330
1DB
100
AcDbEntity
  8
0
  6
Continuous
 62
     7
370
     0
100
AcDbLine
 10
8.2064575691
 20
5.4796673847
 30
0.0
 11
8.2233557172
 21
5.4796673847
 31
0.0
  0
LINE
  5
1E3
330
1DB
100
AcDbEntity
  8
0
  6
Continuous
 62
     7
370
     0
100
AcDbLine
 10
8.6277924382
 20
5.6120747893
 30
0.0
 11
8.6446905862
 21
5.6120747893
 31
0.0
  0
LINE
  5
1E4
330
1DB
100
AcDbEntity
  8
0
  6
Continuous
 62
     7
370
     0
100
AcDbLine
 10
8.6446905862
 20
5.6120747893
 30
0.0
 11
8.6446905862
 21
5.4796673847
 31
0.0
  0
LINE
  5
1E5
330
1DB
100
AcDbEntity
  8
0
  6
Continuous
 62
     7
370
     0
100
AcDbLine
 10
8.6446905862
 20
5.4796673847
 30
0.0
 11
8.6277924382
 21
5.4796673847
 31
0.0
  0
LINE
  5
1E6
330
1DB
100
AcDbEntity
  8
0
  6
Continuous
 62
     7
370
     0
100
AcDbLine
 10
7.4394323362
 20
5.4589372894
 30
0.0
 11
7.4394323362
 21
5.6820747985
 31
0.0
  0
LINE
  5
1E7
330
1DB
100
AcDbEntity
  8
0
  6
Continuous
 62
     7
370
     0
100
AcDbLine
 10
7.5594323362
 20
5.3691167813
 30
0.0
 11
7.5594323362
 21
5.6820747985
 31
0.0
  0
LINE
  5
1E8
330
1DB
100
AcDbEntity
  8
0
  6
Continuous
 62
     7
370
     0
100
AcDbLine
 10
7.4394323362
 20
5.6120747985
 30
0.0
 11
7.1894323362
 21
5.6120747985
 31
0.0
  0
LINE
  5
1E9
330
1DB
100
AcDbEntity
  8
0
  6
Continuous
 62
     7
370
     0
100
AcDbLine
 10
7.5594323362
 20
5.6120747985
 30
0.0
 11
8.1154604771
 21
5.6120747985
 31
0.0
  0
MTEXT
  5
1EA
330
1DB
100
AcDbEntity
  8
0
  6
Continuous
 62
     7
370
     0
100
AcDbMText
 10
8.1948642057
 20
5.7363952478
 30
0.0
 40
0.0833333333
 41
0.0
 71
     1
 72
     1
  1

  7
SLDTEXTSTYLE0
 73
     1
 44
1.0
  0
MTEXT
  5
1EB
330
1DB
100
AcDbEntity
  8
0
  6
Continuous
 62
     7
370
     0
100
AcDbMText
 10
8.2728734475
 20
5.7363952478
 30
0.0
 40
0.0833333333
 41
0.0
 71
     1
 72
     1
  1
0.12in
  7
SLDTEXTSTYLE0
 73
     1
 44
1.0
  0
MTEXT
  5
1EC
330
1DB
100
AcDbEntity
  8
0
  6
Continuous
 62
     7
370
     0
100
AcDbMText
 10
8.244478403
 20
5.5870896918
 30
0.0
 40
0.0833333333
 41
0.0
 71
     1
 72
     1
  1
3.0mm
  7
SLDTEXTSTYLE0
 73
     1
 44
1.0
  0
MTEXT
  5
1ED
330
1DB
100
AcDbEntity
  8
0
  6
Continuous
 62
     7
370
     0
100
AcDbMText
 10
8.7198641609
 20
5.7363952478
 30
0.0
 40
0.0833333333
 41
0.0
 71
     1
 72
     1
  1

  7
SLDTEXTSTYLE0
 73
     1
 44
1.0
  0
ENDBLK
  5
1DD
330
1DB
100
AcDbEntity
  8
0
100
AcDbBlockEnd
  0
BLOCK
  5
1EF
330
1EE
100
AcDbEntity
  8
0
100
AcDbBlockBegin
  2
SW_NOTE_5
 70
     0
 10
0.0
 20
0.0
 30
0.0
  3
SW_NOTE_5
  1
SW_NOTE_5
  0
MTEXT
  5
1F2
330
1EE
100
AcDbEntity
  8
0
  6
Continuous
 62
     0
370
     0
100
AcDbMText
 10
-2.26946578
 20
0.0388281456
 30
0.0
 40
0.0833333333
 41
0.0
 71
     1
 72
     1
  1
SM2 (
  7
SLDTEXTSTYLE3
 73
     1
 44
1.0
  0
MTEXT
  5
1F3
330
1EE
100
AcDbEntity
  8
0
  6
Continuous
 62
     0
370
     0
100
AcDbMText
 10
-1.9478608452
 20
0.0388281456
 30
0.0
 40
0.0833333333
 41
0.0
 71
     1
 72
     1
  1
%%c
  7
SLDTEXTSTYLE0
 73
     1
 44
1.0
  0
MTEXT
  5
1F4
330
1EE
100
AcDbEntity
  8
0
  6
Continuous
 62
     0
370
     0
100
AcDbMText
 10
-1.822073815
 20
0.0388281456
 30
0.0
 40
0.0833333333
 41
0.0
 71
     1
 72
     1
  1
2.035-40) SERIES INTERNAL THREAD
  7
SLDTEXTSTYLE0
 73
     1
 44
1.0
  0
ENDBLK
  5
1F0
330
1EE
100
AcDbEntity
  8
0
100
AcDbBlockEnd
  0
BLOCK
  5
1F9
330
1F8
100
AcDbEntity
  8
0
100
AcDbBlockBegin
  2
SW_NOTE_6
 70
     0
 10
0.0
 20
0.0
 30
0.0
  3
SW_NOTE_6
  1
SW_NOTE_6
  0
MTEXT
  5
1FB
330
1F8
100
AcDbEntity
  8
0
  6
Continuous
 62
     0
370
     0
100
AcDbMText
 10
0.02138731
 20
0.0394023738
 30
0.0
 40
0.0833333333
 41
0.0
 71
     1
 72
     1
  1
SM2 (
  7
SLDTEXTSTYLE3
 73
     1
 44
1.0
  0
MTEXT
  5
1FC
330
1F8
100
AcDbEntity
  8
0
  6
Continuous
 62
     0
370
     0
100
AcDbMText
 10
0.3122823778
 20
0.0394023738
 30
0.0
 40
0.0833333333
 41
0.0
 71
     1
 72
     1
  1
%%c
  7
SLDTEXTSTYLE0
 73
     1
 44
1.0
  0
MTEXT
  5
1FD
330
1F8
100
AcDbEntity
  8
0
  6
Continuous
 62
     0
370
     0
100
AcDbMText
 10
0.4380694264
 20
0.0394023738
 30
0.0
 40
0.0833333333
 41
0.0
 71
     1
 72
     1
  1
2.035-40) SERIES EXTERNAL THREAD
  7
SLDTEXTSTYLE0
 73
     1
 44
1.0
  0
ENDBLK
  5
1FA
330
1F8
100
AcDbEntity
  8
0
100
AcDbBlockEnd
  0
BLOCK
  5
201
330
200
100
AcDbEntity
  8
0
100
AcDbBlockBegin
  2
SW_NOTE_7
 70
     0
 10
0.0
 20
0.0
 30
0.0
  3
SW_NOTE_7
  1
SW_NOTE_7
  0
CIRCLE
  5
203
330
200
100
AcDbEntity
  8
0
  6
Continuous
 62
     0
370
     0
100
AcDbCircle
 10
-0.1778468128
 20
0.0
 30
0.0
 40
0.1778468128131543
  0
MTEXT
  5
204
330
200
100
AcDbEntity
  8
0
  6
Continuous
 62
     0
370
     0
100
AcDbMText
 10
-0.1791054935
 20
0.0644701083
 30
0.0
 40
0.125
 41
0.0
 71
     2
 72
     1
  1
1
  7
SLDTEXTSTYLE0
 73
     1
 44
1.0
  0
ENDBLK
  5
202
330
200
100
AcDbEntity
  8
0
100
AcDbBlockEnd
  0
BLOCK
  5
208
330
207
100
AcDbEntity
  8
0
100
AcDbBlockBegin
  2
SW_NOTE_8
 70
     0
 10
0.0
 20
0.0
 30
0.0
  3
SW_NOTE_8
  1
SW_NOTE_8
  0
CIRCLE
  5
20A
330
207
100
AcDbEntity
  8
0
  6
Continuous
 62
     0
370
     0
100
AcDbCircle
 10
-0.1778468128
 20
0.0
 30
0.0
 40
0.1778468128131545
  0
MTEXT
  5
20B
330
207
100
AcDbEntity
  8
0
  6
Continuous
 62
     0
370
     0
100
AcDbMText
 10
-0.1791054935
 20
0.0644701083
 30
0.0
 40
0.125
 41
0.0
 71
     2
 72
     1
  1
3
  7
SLDTEXTSTYLE0
 73
     1
 44
1.0
  0
ENDBLK
  5
209
330
207
100
AcDbEntity
  8
0
100
AcDbBlockEnd
  0
BLOCK
  5
20F
330
20E
100
AcDbEntity
  8
0
100
AcDbBlockBegin
  2
SW_NOTE_9
 70
     0
 10
0.0
 20
0.0
 30
0.0
  3
SW_NOTE_9
  1
SW_NOTE_9
  0
CIRCLE
  5
211
330
20E
100
AcDbEntity
  8
0
  6
Continuous
 62
     0
370
     0
100
AcDbCircle
 10
0.1778468128
 20
0.0
 30
0.0
 40
0.1778468128131555
  0
MTEXT
  5
212
330
20E
100
AcDbEntity
  8
0
  6
Continuous
 62
     0
370
     0
100
AcDbMText
 10
0.1765881321
 20
0.0644701083
 30
0.0
 40
0.125
 41
0.0
 71
     2
 72
     1
  1
2
  7
SLDTEXTSTYLE0
 73
     1
 44
1.0
  0
ENDBLK
  5
210
330
20E
100
AcDbEntity
  8
0
100
AcDbBlockEnd
  0
ENDSEC
  0
SECTION
  2
ENTITIES
  0
LINE
  5
7D
330
1F
100
AcDbEntity
  8
0
  6
Continuous
 62
     7
370
     0
100
AcDbLine
 10
0.0621791378
 20
8.4506055117
 30
0.0
 11
10.9444569626
 21
8.4506055117
 31
0.0
  0
LINE
  5
7E
330
1F
100
AcDbEntity
  8
0
  6
Continuous
 62
     7
370
     0
100
AcDbLine
 10
0.0621791378
 20
8.4506055117
 30
0.0
 11
0.0621791378
 21
0.035557648
 31
0.0
  0
LINE
  5
7F
330
1F
100
AcDbEntity
  8
0
  6
Continuous
 62
     7
370
     0
100
AcDbLine
 10
10.9444569626
 20
0.035557648
 30
0.0
 11
0.0621791378
 21
0.035557648
 31
0.0
  0
LINE
  5
80
330
1F
100
AcDbEntity
  8
0
  6
Continuous
 62
     7
370
     0
100
AcDbLine
 10
10.9444569626
 20
0.035557648
 30
0.0
 11
10.9444569626
 21
8.4506055117
 31
0.0
  0
LINE
  5
81
330
1F
100
AcDbEntity
  8
0
  6
Continuous
 62
     7
370
     0
100
AcDbLine
 10
8.4938096065
 20
0.4840901186
 30
0.0
 11
6.7571952625
 21
0.4840901186
 31
0.0
  0
LINE
  5
82
330
1F
100
AcDbEntity
  8
0
  6
Continuous
 62
     7
370
     0
100
AcDbLine
 10
6.7571952625
 20
0.4840901186
 30
0.0
 11
6.7571952625
 21
1.030163002
 31
0.0
  0
LINE
  5
83
330
1F
100
AcDbEntity
  8
0
  6
Continuous
 62
     7
370
     0
100
AcDbLine
 10
6.7571952625
 20
0.035557648
 30
0.0
 11
6.7571952625
 21
1.030163002
 31
0.0
  0
LINE
  5
84
330
1F
100
AcDbEntity
  8
0
  6
Continuous
 62
     7
370
     0
100
AcDbLine
 10
8.4938096065
 20
0.6756085809
 30
0.0
 11
10.9444569626
 21
0.6756085809
 31
0.0
  0
LINE
  5
85
330
1F
100
AcDbEntity
  8
0
  6
Continuous
 62
     7
370
     0
100
AcDbLine
 10
8.4938096065
 20
1.3873799542
 30
0.0
 11
8.4938096065
 21
0.035557648
 31
0.0
  0
LINE
  5
86
330
1F
100
AcDbEntity
  8
0
  6
Continuous
 62
     7
370
     0
100
AcDbLine
 10
8.4938096065
 20
1.030163002
 30
0.0
 11
6.7571952625
 21
1.030163002
 31
0.0
  0
LINE
  5
87
330
1F
100
AcDbEntity
  8
0
  6
Continuous
 62
     7
370
     0
100
AcDbLine
 10
8.4938096065
 20
0.3598787426
 30
0.0
 11
10.9444569626
 21
0.3598787426
 31
0.0
  0
LINE
  5
88
330
1F
100
AcDbEntity
  8
0
  6
Continuous
 62
     7
370
     0
100
AcDbLine
 10
8.4938096065
 20
0.6662079686
 30
0.0
 11
6.7571952625
 21
0.6662079686
 31
0.0
  0
LINE
  5
89
330
1F
100
AcDbEntity
  8
0
  6
Continuous
 62
     7
370
     0
100
AcDbLine
 10
8.4938096065
 20
0.8459606517
 30
0.0
 11
6.7571952625
 21
0.8459606517
 31
0.0
  0
LINE
  5
8A
330
1F
100
AcDbEntity
  8
0
  6
Continuous
 62
     7
370
     0
100
AcDbLine
 10
7.3281027587
 20
1.030163002
 30
0.0
 11
7.3281027587
 21
0.4840901186
 31
0.0
  0
LINE
  5
8B
330
1F
100
AcDbEntity
  8
0
  6
Continuous
 62
     7
370
     0
100
AcDbLine
 10
7.8037240401
 20
1.030163002
 30
0.0
 11
7.8037240401
 21
0.4840901186
 31
0.0
  0
LINE
  5
8C
330
1F
100
AcDbEntity
  8
0
  6
Continuous
 62
     7
370
     0
100
AcDbLine
 10
9.990119718
 20
0.3598787426
 30
0.0
 11
9.990119718
 21
0.035557648
 31
0.0
  0
LINE
  5
8D
330
1F
100
AcDbEntity
  8
0
  6
Continuous
 62
     7
370
     0
100
AcDbLine
 10
6.7571952625
 20
0.4840901186
 30
0.0
 11
6.7571952625
 21
0.297745443
 31
0.0
  0
LINE
  5
8E
330
1F
100
AcDbEntity
  8
0
  6
Continuous
 62
     7
370
     0
100
AcDbLine
 10
6.7571952625
 20
0.297745443
 30
0.0
 11
8.4938096065
 21
0.297745443
 31
0.0
  0
LINE
  5
8F
330
1F
100
AcDbEntity
  8
0
  6
Continuous
 62
     7
370
     0
100
AcDbLine
 10
6.7571952625
 20
0.297745443
 30
0.0
 11
6.7571952625
 21
1.3873799542
 31
0.0
  0
LINE
  5
90
330
1F
100
AcDbEntity
  8
0
  6
Continuous
 62
     7
370
     0
100
AcDbLine
 10
6.7571952625
 20
1.3873799542
 30
0.0
 11
8.4938096065
 21
1.3873799542
 31
0.0
  0
LINE
  5
91
330
1F
100
AcDbEntity
  8
0
  6
Continuous
 62
     7
370
     0
100
AcDbLine
 10
10.6365495992
 20
0.6756085809
 30
0.0
 11
10.6365495992
 21
0.3598787426
 31
0.0
  0
LINE
  5
92
330
1F
100
AcDbEntity
  8
0
  6
Continuous
 62
     7
370
     0
100
AcDbLine
 10
8.4938096065
 20
1.3873799542
 30
0.0
 11
10.9444569626
 21
1.3873799542
 31
0.0
  0
LINE
  5
93
330
1F
100
AcDbEntity
  8
0
  6
Continuous
 62
     7
370
     0
100
AcDbLine
 10
10.9444569626
 20
1.3873799542
 30
0.0
 11
10.9444569626
 21
1.9698084888
 31
0.0
  0
LINE
  5
94
330
1F
100
AcDbEntity
  8
0
  6
Continuous
 62
     7
370
     0
100
AcDbLine
 10
8.4938096065
 20
0.9800288797
 30
0.0
 11
10.9444569626
 21
0.9800288797
 31
0.0
  0
INSERT
  5
95
330
1F
100
AcDbEntity
  8
0
  6
Continuous
 62
     7
100
AcDbBlockReference
  2
Third Angle Projection Block
 10
4.6348905679
 20
0.6108753523
 30
0.0
 41
0.8
 42
0.8
 43
0.8
  0
MTEXT
  5
97
330
1F
100
AcDbEntity
  8
0
  6
Continuous
 62
     7
370
     0
100
AcDbMText
 10
10.7943805235
 20
0.5227176726
 30
0.0
 40
0.125
 41
0.0
 71
     2
 72
     1
  1
B
  7
SLDTEXTSTYLE0
 73
     1
 44
1.0
  0
MTEXT
  5
98
330
1F
100
AcDbEntity
  8
0
  6
Continuous
 62
     7
370
     0
100
AcDbMText
 10
9.2296617067
 20
0.2019943461
 30
0.0
 40
0.125
 41
0.0
 71
     2
 72
     1
  1
LA4337-UV-ML
  7
SLDTEXTSTYLE0
 73
     1
 44
1.0
  0
MTEXT
  5
99
330
1F
100
AcDbEntity
  8
0
  6
Continuous
 62
     7
370
     0
100
AcDbMText
 10
8.5204715199
 20
0.6623747189
 30
0.0
 40
0.0833333333
 41
0.0
 71
     1
 72
     1
  1
MATERIAL
  7
SLDTEXTSTYLE0
 73
     1
 44
1.0
  0
MTEXT
  5
9A
330
1F
100
AcDbEntity
  8
0
  6
Continuous
 62
     7
370
     0
100
AcDbMText
 10
6.8594860853
 20
0.7895493672
 30
0.0
 40
0.0729166667
 41
0.0
 71
     1
 72
     1
  1
DRAWN
  7
SLDTEXTSTYLE0
 73
     1
 44
1.0
  0
MTEXT
  5
9B
330
1F
100
AcDbEntity
  8
0
  6
Continuous
 62
     7
370
     0
100
AcDbMText
 10
6.7872445848
 20
0.613335314
 30
0.0
 40
0.0729166667
 41
0.0
 71
     1
 72
     1
  1
APPROVAL
  7
SLDTEXTSTYLE0
 73
     1
 44
1.0
  0
MTEXT
  5
9C
330
1F
100
AcDbEntity
  8
0
  6
Continuous
 62
     7
370
     0
100
AcDbMText
 10
10.6936137314
 20
0.6373332609
 30
0.0
 40
0.0833333333
 41
0.0
 71
     1
 72
     1
  1
REV
  7
SLDTEXTSTYLE0
 73
     1
 44
1.0
  0
MTEXT
  5
9D
330
1F
100
AcDbEntity
  8
0
  6
Continuous
 62
     7
370
     0
100
AcDbMText
 10
7.4919633718
 20
0.7999100272
 30
0.0
 40
0.0833333333
 41
0.0
 71
     1
 72
     1
  1
GG
  7
SLDTEXTSTYLE0
 73
     1
 44
1.0
  0
MTEXT
  5
9E
330
1F
100
AcDbEntity
  8
0
  6
Continuous
 62
     7
370
     0
100
AcDbMText
 10
7.4919633718
 20
0.623695974
 30
0.0
 40
0.0833333333
 41
0.0
 71
     1
 72
     1
  1
DD
  7
SLDTEXTSTYLE0
 73
     1
 44
1.0
  0
MTEXT
  5
9F
330
1F
100
AcDbEntity
  8
0
  6
Continuous
 62
     7
370
     0
100
AcDbMText
 10
7.8687497515
 20
0.7999100272
 30
0.0
 40
0.0833333333
 41
0.0
 71
     1
 72
     1
  1
08/FEB/16
  7
SLDTEXTSTYLE0
 73
     1
 44
1.0
  0
MTEXT
  5
A0
330
1F
100
AcDbEntity
  8
0
  6
Continuous
 62
     7
370
     0
100
AcDbMText
 10
8.0163191884
 20
0.9772495896
 30
0.0
 40
0.0833333333
 41
0.0
 71
     1
 72
     1
  1
DATE
  7
SLDTEXTSTYLE0
 73
     1
 44
1.0
  0
MTEXT
  5
A1
330
1F
100
AcDbEntity
  8
0
  6
Continuous
 62
     7
370
     0
100
AcDbMText
 10
7.8687497515
 20
0.623695974
 30
0.0
 40
0.0833333333
 41
0.0
 71
     1
 72
     1
  1
08/FEB/16
  7
SLDTEXTSTYLE0
 73
     1
 44
1.0
  0
MTEXT
  5
A3
330
1F
100
AcDbEntity
  8
0
  6
Continuous
 62
     7
370
     0
100
AcDbMText
 10
9.0316104912
 20
1.0943207896
 30
0.0
 40
0.0833333333
 41
0.0
 71
     1
 72
     1
  1
w w w . t h o r  l a b s . c o m
  7
SLDTEXTSTYLE1
 73
     1
 44
1.0
  0
MTEXT
  5
A4
330
1F
100
AcDbEntity
  8
0
  6
Continuous
 62
     7
370
     0
100
AcDbMText
 10
8.5315119501
 20
0.328719653
 30
0.0
 40
0.0833333333
 41
0.0
 71
     1
 72
     1
  1
ITEM #
  7
SLDTEXTSTYLE0
 73
     1
 44
1.0
  0
MTEXT
  5
A5
330
1F
100
AcDbEntity
  8
0
  6
Continuous
 62
     7
370
     0
100
AcDbMText
 10
10.0209370115
 20
0.328719653
 30
0.0
 40
0.0833333333
 41
0.0
 71
     1
 72
     1
  1
APPROX WEIGHT
  7
SLDTEXTSTYLE0
 73
     1
 44
1.0
  0
MTEXT
  5
A6
330
1F
100
AcDbEntity
  8
0
  6
Continuous
 62
     7
370
     0
100
AcDbMText
 10
9.5949135982
 20
0.5414715262
 30
0.0
 40
0.125
 41
0.0
 71
     2
 72
     1
  1
SEE TABLE
  7
SLDTEXTSTYLE0
 73
     1
 44
1.0
  0
MTEXT
  5
A8
330
1F
100
AcDbEntity
  8
0
  6
Continuous
 62
     7
370
     0
100
AcDbMText
 10
10.4826226539
 20
0.2019943461
 30
0.0
 40
0.125
 41
0.0
 71
     2
 72
     1
  1
29 g
  7
SLDTEXTSTYLE2
 73
     1
 44
1.0
  0
INSERT
  5
AE
330
1F
100
AcDbEntity
  8
0
  6
Continuous
 62
     7
370
     0
100
AcDbBlockReference
  2
SW_NOTE_0
 10
6.8835832285
 20
0.1754273811
 30
0.0
  0
INSERT
  5
B4
330
1F
100
AcDbEntity
  8
0
  6
Continuous
 62
     7
370
     0
100
AcDbBlockReference
  2
SW_NOTE_1
 10
6.8719828753
 20
1.2001390658
 30
0.0
  0
MTEXT
  5
B5
330
1F
100
AcDbEntity
  8
0
  6
Continuous
 62
     7
370
     0
100
AcDbMText
 10
7.3987149145
 20
0.9772495896
 30
0.0
 40
0.0833333333
 41
0.0
 71
     1
 72
     1
  1
NAME
  7
SLDTEXTSTYLE0
 73
     1
 44
1.0
  0
INSERT
  5
BC
330
1F
100
AcDbEntity
  8
0
  6
Continuous
 62
     7
370
     0
100
AcDbBlockReference
  2
SW_NOTE_2
 10
8.5755302951
 20
0.8160048101
 30
0.0
  0
MTEXT
  5
BD
330
1F
100
AcDbEntity
  8
0
  6
Continuous
 62
     7
370
     0
100
AcDbMText
 10
7.0281258754
 20
0.4200025137
 30
0.0
 40
0.0625
 41
0.0
 71
     1
 72
     1
  1
COPYRIGHT © 2016 BY THORLABS
  7
SLDTEXTSTYLE0
 73
     1
 44
1.0
  0
INSERT
  5
C3
330
1F
100
AcDbEntity
  8
0
  6
Continuous
 62
     7
370
     0
100
AcDbBlockReference
  2
SW_NOTE_3
 10
2.1096529316
 20
0.3219551564
 30
0.0
  0
INSERT
  5
D9
330
1F
100
AcDbEntity
  8
0
  6
Continuous
 62
     7
370
     0
100
AcDbBlockReference
  2
SW_NOTE_4
 10
0.2229009106
 20
1.7636814979
 30
0.0
  0
INSERT
  5
103
330
1F
100
AcDbEntity
  8
0
  6
Continuous
 62
     7
370
     0
100
AcDbBlockReference
  2
SW_TABLEANNOTATION_0
 10
0.0612779343
 20
8.4504327236
 30
0.0
  0
ARC
  5
104
330
1F
100
AcDbEntity
  8
0
  6
Continuous
 62
     7
370
     0
100
AcDbCircle
 10
2.7409586738
 20
4.3189372894
 30
0.0
 40
1.000179491924313
100
AcDbArc
 50
0.8593146732
 51
179.1406853268
  0
LINE
  5
105
330
1F
100
AcDbEntity
  8
0
  6
Continuous
 62
     7
370
     0
100
AcDbLine
 10
1.74089166
 20
4.3339372891
 30
0.0
 11
1.7235692801
 21
4.3339372891
 31
0.0
  0
LINE
  5
106
330
1F
100
AcDbEntity
  8
0
  6
Continuous
 62
     7
370
     0
100
AcDbLine
 10
3.7583480675
 20
4.3339372891
 30
0.0
 11
3.7410256876
 21
4.3339372891
 31
0.0
  0
ARC
  5
107
330
1F
100
AcDbEntity
  8
0
  6
Continuous
 62
     7
370
     0
100
AcDbCircle
 10
2.7409586738
 20
4.3189372894
 30
0.0
 40
1.000179491924313
100
AcDbArc
 50
180.8593146732
 51
359.1406853268
  0
LINE
  5
108
330
1F
100
AcDbEntity
  8
0
  6
Continuous
 62
     7
370
     0
100
AcDbLine
 10
1.74089166
 20
4.3039372898
 30
0.0
 11
1.7810758824
 21
4.3039372898
 31
0.0
  0
ARC
  5
109
330
1F
100
AcDbEntity
  8
0
  6
Continuous
 62
     7
370
     0
100
AcDbCircle
 10
2.7409586738
 20
4.3189372894
 30
0.0
 40
0.9600000000000009
100
AcDbArc
 50
180.8952829866
 51
359.1047170134
  0
LINE
  5
10A
330
1F
100
AcDbEntity
  8
0
  6
Continuous
 62
     7
370
     0
100
AcDbLine
 10
3.7008414652
 20
4.3039372898
 30
0.0
 11
3.7410256876
 21
4.3039372898
 31
0.0
  0
LINE
  5
10B
330
1F
100
AcDbEntity
  8
0
  6
Continuous
 62
     7
370
     0
100
AcDbLine
 10
3.7410256876
 20
4.3339372891
 30
0.0
 11
3.7008414652
 21
4.3339372891
 31
0.0
  0
ARC
  5
10C
330
1F
100
AcDbEntity
  8
0
  6
Continuous
 62
     7
370
     0
100
AcDbCircle
 10
2.7409586738
 20
4.3189372894
 30
0.0
 40
0.9600000000000013
100
AcDbArc
 50
0.8952829866
 51
179.1047170134
  0
LINE
  5
10D
330
1F
100
AcDbEntity
  8
0
  6
Continuous
 62
     7
370
     0
100
AcDbLine
 10
1.7810758824
 20
4.3339372891
 30
0.0
 11
1.74089166
 21
4.3339372891
 31
0.0
  0
LINE
  5
10E
330
1F
100
AcDbEntity
  8
0
  6
Continuous
 62
     7
370
     0
100
AcDbLine
 10
3.7410256876
 20
4.3039372898
 30
0.0
 11
3.7583480675
 21
4.3039372898
 31
0.0
  0
LINE
  5
10F
330
1F
100
AcDbEntity
  8
0
  6
Continuous
 62
     7
370
     0
100
AcDbLine
 10
1.7235692801
 20
4.3039372898
 30
0.0
 11
1.74089166
 21
4.3039372898
 31
0.0
  0
ARC
  5
110
330
1F
100
AcDbEntity
  8
0
  6
Continuous
 62
     7
370
     0
100
AcDbCircle
 10
2.7409586738
 20
4.3189372894
 30
0.0
 40
0.9500000000000001
100
AcDbArc
 50
180.9047077972
 51
359.0952922028
  0
LINE
  5
111
330
1F
100
AcDbEntity
  8
0
  6
Continuous
 62
     7
370
     0
100
AcDbLine
 10
3.690840234
 20
4.3039372898
 30
0.0
 11
3.7008414652
 21
4.3039372898
 31
0.0
  0
LINE
  5
112
330
1F
100
AcDbEntity
  8
0
  6
Continuous
 62
     7
370
     0
100
AcDbLine
 10
1.7810758824
 20
4.3039372898
 30
0.0
 11
1.7910771136
 21
4.3039372898
 31
0.0
  0
ARC
  5
113
330
1F
100
AcDbEntity
  8
0
  6
Continuous
 62
     7
370
     0
100
AcDbCircle
 10
2.7409586738
 20
4.3189372894
 30
0.0
 40
0.9500000000000001
100
AcDbArc
 50
0.9047077972
 51
179.0952922028
  0
LINE
  5
114
330
1F
100
AcDbEntity
  8
0
  6
Continuous
 62
     7
370
     0
100
AcDbLine
 10
1.7910771136
 20
4.3339372891
 30
0.0
 11
1.7810758824
 21
4.3339372891
 31
0.0
  0
LINE
  5
115
330
1F
100
AcDbEntity
  8
0
  6
Continuous
 62
     7
370
     0
100
AcDbLine
 10
3.7008414652
 20
4.3339372891
 30
0.0
 11
3.690840234
 21
4.3339372891
 31
0.0
  0
ARC
  5
116
330
1F
100
AcDbEntity
  8
0
  6
Continuous
 62
     7
370
     0
100
AcDbCircle
 10
2.7409586738
 20
4.3189372894
 30
0.0
 40
0.9500000000000001
100
AcDbArc
 50
359.0952922028
 51
0.9047077972
  0
ARC
  5
117
330
1F
100
AcDbEntity
  8
0
  6
Continuous
 62
     7
370
     0
100
AcDbCircle
 10
2.7409586738
 20
4.3189372894
 30
0.0
 40
0.9499999999999997
100
AcDbArc
 50
179.0952922028
 51
180.9047077972
  0
CIRCLE
  5
118
330
1F
100
AcDbEntity
  8
0
  6
Continuous
 62
     7
370
     0
100
AcDbCircle
 10
2.7409586738
 20
4.3189372894
 30
0.0
 40
1.034820508075689
  0
CIRCLE
  5
119
330
1F
100
AcDbEntity
  8
0
  6
Continuous
 62
     7
370
     0
100
AcDbCircle
 10
2.7409586738
 20
4.3189372894
 30
0.0
 40
1.0175
  0
CIRCLE
  5
11A
330
1F
100
AcDbEntity
  8
0
  6
Continuous
 62
     7
370
     0
100
AcDbCircle
 10
2.7409586738
 20
4.3189372894
 30
0.0
 40
1.090000000000001
  0
CIRCLE
  5
11B
330
1F
100
AcDbEntity
  8
0
  6
Continuous
 62
     7
370
     0
100
AcDbCircle
 10
2.7409586738
 20
4.3189372894
 30
0.0
 40
1.1
  0
DIMENSION
  5
11C
330
1F
100
AcDbEntity
  8
0
  6
Continuous
 62
     7
370
     0
100
AcDbDimension
  2
_D
 10
2.1895536454
 20
3.3671219215
 30
0.0
 11
3.9387988223
 21
5.6682955313
 31
0.0
 70
   163
  1
<>
 71
     1
 42
-1.0
  3
SLDDIMSTYLE0
100
AcDbDiametricDimension
 15
3.2923637022
 25
5.2707526574
 35
0.0
 40
0.0
  0
LINE
  5
12D
330
1F
100
AcDbEntity
  8
0
  6
PHANTOM
 62
     7
370
    30
100
AcDbLine
 10
2.7409586738
 20
5.7862065323
 30
0.0
 11
2.7409586738
 21
2.8944701041
 31
0.0
  0
LINE
  5
12E
330
1F
100
AcDbEntity
  8
0
  6
Continuous
 62
     7
370
    30
100
AcDbLine
 10
2.7409586738
 20
5.7862065323
 30
0.0
 11
2.359212225
 21
5.7862065323
 31
0.0
  0
SOLID
  5
12F
330
1F
100
AcDbEntity
  8
0
  6
Continuous
 62
     7
370
    30
100
AcDbTrace
 10
2.359212225
 20
5.7862065323
 30
0.0
 11
2.509212225
 21
5.7612065323
 31
0.0
 12
2.509212225
 22
5.8112065323
 32
0.0
 13
2.509212225
 23
5.8112065323
 33
0.0
  0
LINE
  5
130
330
1F
100
AcDbEntity
  8
0
  6
Continuous
 62
     7
370
    30
100
AcDbLine
 10
2.7409586738
 20
2.8944701041
 30
0.0
 11
2.3491364883
 21
2.8944701041
 31
0.0
  0
SOLID
  5
131
330
1F
100
AcDbEntity
  8
0
  6
Continuous
 62
     7
370
    30
100
AcDbTrace
 10
2.3491364883
 20
2.8944701041
 30
0.0
 11
2.4991364883
 21
2.8694701041
 31
0.0
 12
2.4991364883
 22
2.9194701041
 32
0.0
 13
2.4991364883
 23
2.9194701041
 33
0.0
  0
MTEXT
  5
132
330
1F
100
AcDbEntity
  8
0
  6
Continuous
 62
     7
100
AcDbMText
 10
2.1401630727
 20
5.8471410179
 30
0.0
 40
0.1041666667
 41
0.0
 71
     1
 72
     1
  1
A
  7
SLDTEXTSTYLE0
 73
     1
 44
1.0
  0
MTEXT
  5
133
330
1F
100
AcDbEntity
  8
0
  6
Continuous
 62
     7
100
AcDbMText
 10
2.1468649157
 20
2.96173304
 30
0.0
 40
0.1041666667
 41
0.0
 71
     1
 72
     1
  1
A
  7
SLDTEXTSTYLE0
 73
     1
 44
1.0
  0
LINE
  5
134
330
1F
100
AcDbEntity
  8
0
  6
Continuous
 62
     7
370
     0
100
AcDbLine
 10
8.7629401657
 20
7.4662171377
 30
0.0
 11
8.7629401657
 21
7.4580530566
 31
0.0
  0
LINE
  5
135
330
1F
100
AcDbEntity
  8
0
  6
Continuous
 62
     7
370
     0
100
AcDbLine
 10
9.5335612892
 20
6.1231534781
 30
0.0
 11
9.5406312078
 21
6.1190707741
 31
0.0
  0
LINE
  5
136
330
1F
100
AcDbEntity
  8
0
  6
Continuous
 62
     7
370
     0
100
AcDbLine
 10
9.2524318311
 20
8.1208819255
 30
0.0
 11
8.9908023221
 21
7.9698464248
 31
0.0
  0
LINE
  5
137
330
1F
100
AcDbEntity
  8
0
  6
Continuous
 62
     7
370
     0
100
AcDbLine
 10
10.090712928
 20
6.0645389276
 30
0.0
 11
10.352342437
 21
6.2155744283
 31
0.0
  0
LINE
  5
138
330
1F
100
AcDbEntity
  8
0
  6
Continuous
 62
     7
370
     0
100
AcDbLine
 10
10.5802045934
 20
6.7192037154
 30
0.0
 11
10.5802045934
 21
6.7273677965
 31
0.0
  0
LINE
  5
139
330
1F
100
AcDbEntity
  8
0
  6
Continuous
 62
     7
370
     0
100
AcDbLine
 10
9.8095834698
 20
8.062267375
 30
0.0
 11
9.8025135513
 21
8.066350079
 31
0.0
  0
LWPOLYLINE
  5
13A
330
1F
100
AcDbEntity
  8
0
  6
Continuous
 62
     7
370
     0
100
AcDbPolyline
 90
       21
 70
   128
 43
0.0
 10
9.1342010173
 20
7.937363964
 10
9.1264870181
 20
7.9328252254
 10
9.1071951739
 20
7.9201925173
 10
9.088739603
 20
7.9062074851
 10
9.0711496718
 20
7.8908923815
 10
9.0544533689
 20
7.8742715756
 10
9.0386772612
 20
7.8563715141
 10
9.0238464514
 20
7.8372206793
 10
9.0099845379
 20
7.8168495437
 10
8.9971135778
 20
7.7952905214
 10
8.9852540508
 20
7.7725779169
 10
8.9744248279
 20
7.7487478698
 10
8.9646431401
 20
7.7238382983
 10
8.9559245519
 20
7.6978888379
 10
8.9482829363
 20
7.670940779
 10
8.9417304523
 20
7.6430370009
 10
8.9362775263
 20
7.6142219035
 10
8.9319328347
 20
7.5845413369
 10
8.9287032909
 20
7.5540425283
 10
8.9265940335
 20
7.5227740068
 10
8.9256084188
 20
7.4907855264
  0
LINE
  5
13B
330
1F
100
AcDbEntity
  8
0
  6
Continuous
 62
     7
370
     0
100
AcDbLine
 10
8.9256084188
 20
7.4907855264
 30
0.0
 11
8.9204306838
 21
7.5019386504
 31
0.0
  0
ARC
  5
13C
330
1F
100
AcDbEntity
  8
0
  6
Continuous
 62
     7
370
     0
100
AcDbCircle
 10
9.4589378903
 20
7.5348665825
 30
0.0
 40
0.5395129842564541
100
AcDbArc
 50
134.0231442021
 51
183.499090561
  0
LWPOLYLINE
  5
13D
330
1F
100
AcDbEntity
  8
0
  6
Continuous
 62
     7
370
     0
100
AcDbPolyline
 90
        3
 70
   128
 43
0.0
 10
8.9309938198
 20
7.4876766006
 10
8.9310030797
 20
7.4866471159
 10
8.9310372855
 20
7.4835654868
  0
LINE
  5
13E
330
1F
100
AcDbEntity
  8
0
  6
Continuous
 62
     7
370
     0
100
AcDbLine
 10
8.9204306838
 20
7.477442426
 30
0.0
 11
8.9310372855
 21
7.4835654868
 31
0.0
  0
LWPOLYLINE
  5
13F
330
1F
100
AcDbEntity
  8
0
  6
Continuous
 62
     7
370
     0
100
AcDbPolyline
 90
       58
 70
   128
 43
0.0
 10
10.09658733
 20
6.1687723983
 10
10.0912753722
 20
6.1668476462
 10
10.0685696564
 20
6.1596761736
 10
10.0451815197
 20
6.1539606517
 10
10.0211481891
 20
6.1497101781
 10
9.9965079185
 20
6.1469315181
 10
9.9712999279
 20
6.1456290947
 10
9.9455643411
 20
6.1458049808
 10
9.9193421214
 20
6.1474588966
 10
9.8926750069
 20
6.1505882094
 10
9.8656054437
 20
6.1551879383
 10
9.8381765186
 20
6.161250762
 10
9.8104318903
 20
6.1687670301
 10
9.7824157201
 20
6.1777247791
 10
9.7541726013
 20
6.1881097508
 10
9.7257474888
 20
6.1999054155
 10
9.6971856268
 20
6.2130929979
 10
9.6685324775
 20
6.2276515073
 10
9.6398336481
 20
6.2435577708
 10
9.6111348187
 20
6.2607864704
 10
9.5824816693
 20
6.2793101831
 10
9.5539198074
 20
6.2990994246
 10
9.5254946948
 20
6.3201226963
 10
9.4972515761
 20
6.3423465354
 10
9.4692354058
 20
6.365735568
 10
9.4414907775
 20
6.3902525659
 10
9.4140618524
 20
6.415858505
 10
9.3869922892
 20
6.4425126285
 10
9.3603251747
 20
6.4701725107
 10
9.334102955
 20
6.4987941254
 10
9.3083673682
 20
6.5283319154
 10
9.2831593776
 20
6.5587388652
 10
9.258519107
 20
6.5899665761
 10
9.2344857764
 20
6.6219653426
 10
9.2110976397
 20
6.6546842323
 10
9.1883919239
 20
6.6880711663
 10
9.1664047699
 20
6.7220730026
 10
9.1451711745
 20
6.7566356202
 10
9.1247249356
 20
6.7917040057
 10
9.1050985974
 20
6.8272223406
 10
9.0863233992
 20
6.8631340902
 10
9.0684292257
 20
6.8993820936
 10
9.051444559
 20
6.9359086548
 10
9.0353964337
 20
6.9726556341
 10
9.0203103937
 20
7.0095645414
 10
9.0062104516
 20
7.0465766286
 10
8.9931190501
 20
7.0836329833
 10
8.981057027
 20
7.1206746228
 10
8.9700435815
 20
7.1576425877
 10
8.9600962437
 20
7.1944780361
 10
8.9512308467
 20
7.2311223366
 10
8.9434615018
 20
7.2675171626
 10
8.9368005754
 20
7.3036045841
 10
8.9312586698
 20
7.3393271607
 10
8.9268446059
 20
7.3746280326
 10
8.9235654097
 20
7.4094510112
 10
8.9214263007
 20
7.4437406687
 10
8.9204306838
 20
7.477442426
  0
LWPOLYLINE
  5
140
330
1F
100
AcDbEntity
  8
0
  6
Continuous
 62
     7
370
     0
100
AcDbPolyline
 90
       26
 70
   128
 43
0.0
 10
8.9540229394
 20
7.4743821728
 10
8.9550252305
 20
7.5058611192
 10
8.9571625055
 20
7.536610656
 10
8.9604311853
 20
7.5665792882
 10
8.9648257959
 20
7.595716828
 10
8.9703389778
 20
7.6239744801
 10
8.9769614983
 20
7.6513049221
 10
8.9846822668
 20
7.6776623847
 10
8.9934883537
 20
7.703002728
 10
9.0033650117
 20
7.7272835154
 10
9.0142957007
 20
7.7504640845
 10
9.0262621154
 20
7.7725056158
 10
9.039244216
 20
7.793371197
 10
9.0532202619
 20
7.8130258851
 10
9.0681668479
 20
7.8314367652
 10
9.0840589434
 20
7.8485730052
 10
9.1008699345
 20
7.8644059075
 10
9.1185716684
 20
7.8789089574
 10
9.1371345005
 20
7.8920578671
 10
9.1565273443
 20
7.9038306165
 10
9.1767177232
 20
7.9142074902
 10
9.1976718252
 20
7.9231711105
 10
9.2193545591
 20
7.9307064662
 10
9.2417296135
 20
7.9368009381
 10
9.2647595176
 20
7.94144432
 10
9.2737300736
 20
7.9428345361
  0
LINE
  5
141
330
1F
100
AcDbEntity
  8
0
  6
Continuous
 62
     7
370
     0
100
AcDbLine
 10
8.9540229394
 20
7.4743821728
 30
0.0
 11
8.9256084188
 21
7.4907855264
 31
0.0
  0
LWPOLYLINE
  5
142
330
1F
100
AcDbEntity
  8
0
  6
Continuous
 62
     7
370
     0
100
AcDbPolyline
 90
       26
 70
   128
 43
0.0
 10
9.2894216973
 20
7.9407737704
 10
9.2808745411
 20
7.9394459997
 10
9.2580859772
 20
7.9348536809
 10
9.235945245
 20
7.9288256773
 10
9.214489415
 20
7.9213720816
 10
9.1937544109
 20
7.9125053734
 10
9.1737749496
 20
7.9022403984
 10
9.154584483
 20
7.8905943434
 10
9.1362151419
 20
7.8775867074
 10
9.1186976822
 20
7.8632392694
 10
9.1020614338
 20
7.8475760515
 10
9.0863342508
 20
7.8306232787
 10
9.0715424655
 20
7.8124093352
 10
9.057710844
 20
7.792964717
 10
9.0448625447
 20
7.7723219803
 10
9.0330190797
 20
7.7505156876
 10
9.0222002786
 20
7.7275823495
 10
9.0124242555
 20
7.7035603633
 10
9.0037073785
 20
7.6784899496
 10
8.9960642423
 20
7.6524130839
 10
8.9895076441
 20
7.6253734272
 10
8.9840485614
 20
7.5974162521
 10
8.9796961347
 20
7.5685883678
 10
8.9764576511
 20
7.5389380412
 10
8.974338533
 20
7.508514916
 10
8.9733423284
 20
7.4773699303
  0
LINE
  5
143
330
1F
100
AcDbEntity
  8
0
  6
Continuous
 62
     7
370
     0
100
AcDbLine
 10
8.9733423284
 20
7.4773699303
 30
0.0
 11
8.9540229394
 21
7.4743821728
 31
0.0
  0
LWPOLYLINE
  5
144
330
1F
100
AcDbEntity
  8
0
  6
Continuous
 62
     7
370
     0
100
AcDbPolyline
 90
       64
 70
   128
 43
0.0
 10
8.9733423284
 20
7.4528737059
 10
8.974338533
 20
7.4205785268
 10
8.9764576511
 20
7.38770872
 10
8.9796961347
 20
7.3543193198
 10
8.9840485614
 20
7.3204662305
 10
8.9895076441
 20
7.2862061329
 10
8.9960642423
 20
7.2515963889
 10
9.0037073785
 20
7.216694946
 10
9.0124242555
 20
7.1815602403
 10
9.0222002786
 20
7.1462510982
 10
9.0330190797
 20
7.1108266381
 10
9.0448625447
 20
7.0753461718
 10
9.057710844
 20
7.0398691045
 10
9.0715424655
 20
7.004454836
 10
9.0863342508
 20
6.9691626608
 10
9.1020614338
 20
6.934051669
 10
9.1186976822
 20
6.8991806475
 10
9.1362151419
 20
6.8646079811
 10
9.154584483
 20
6.8303915553
 10
9.1737749496
 20
6.7965886591
 10
9.1937544109
 20
6.7632558892
 10
9.214489415
 20
6.7304490548
 10
9.235945245
 20
6.698223085
 10
9.2580859772
 20
6.6666319361
 10
9.2808745411
 20
6.6357285016
 10
9.3042727815
 20
6.6055645233
 10
9.3282415224
 20
6.5761905053
 10
9.3527406327
 20
6.5476556288
 10
9.3777290932
 20
6.5200076701
 10
9.4031650654
 20
6.4932929206
 10
9.4290059617
 20
6.467556109
 10
9.4552085162
 20
6.4428403268
 10
9.4817288577
 20
6.419186956
 10
9.5085225828
 20
6.3966355997
 10
9.5355448306
 20
6.3752240159
 10
9.5627503572
 20
6.3549880542
 10
9.5900936123
 20
6.335961596
 10
9.6175288146
 20
6.3181764976
 10
9.645010029
 20
6.3016625367
 10
9.6724912434
 20
6.2864473628
 10
9.6999264456
 20
6.2725564509
 10
9.7272697007
 20
6.2600130588
 10
9.7544752274
 20
6.248838188
 10
9.7814974751
 20
6.2390505487
 10
9.8082912003
 20
6.2306665284
 10
9.8348115418
 20
6.2237001647
 10
9.8610140963
 20
6.2181631214
 10
9.8868549925
 20
6.2140646692
 10
9.9122909648
 20
6.2114116703
 10
9.9372794253
 20
6.2102085666
 10
9.9617785356
 20
6.2104573724
 10
9.9857472765
 20
6.2121576712
 10
10.0091455168
 20
6.2153066162
 10
10.0319340807
 20
6.219898935
 10
10.0540748129
 20
6.2259269386
 10
10.0755306429
 20
6.2333805343
 10
10.096265647
 20
6.2422472425
 10
10.1162451083
 20
6.2525122175
 10
10.1354355749
 20
6.2641582726
 10
10.1538049161
 20
6.2771659085
 10
10.1713223757
 20
6.2915133465
 10
10.1879586241
 20
6.3071765645
 10
10.2036858071
 20
6.3241293373
 10
10.2148705895
 20
6.3376755703
  0
LINE
  5
145
330
1F
100
AcDbEntity
  8
0
  6
Continuous
 62
     7
370
     0
100
AcDbLine
 10
8.9787725492
 20
7.4560085057
 30
0.0
 11
8.9733423284
 21
7.4528737059
 31
0.0
  0
ARC
  5
146
330
1F
100
AcDbEntity
  8
0
  6
Continuous
 62
     7
370
     0
100
AcDbCircle
 10
9.8744265211
 20
7.4682566179
 30
0.0
 40
0.8957377147379132
100
AcDbArc
 50
179.2165262291
 51
180.7834737709
  0
LINE
  5
147
330
1F
100
AcDbEntity
  8
0
  6
Continuous
 62
     7
370
     0
100
AcDbLine
 10
8.9733423284
 20
7.4773699303
 30
0.0
 11
8.9787725492
 21
7.48050473
 31
0.0
  0
LWPOLYLINE
  5
148
330
1F
100
AcDbEntity
  8
0
  6
Continuous
 62
     7
370
     0
100
AcDbPolyline
 90
       58
 70
   128
 43
0.0
 10
9.6964021906
 20
6.3313306001
 10
9.669002399
 20
6.3477937125
 10
9.6416482118
 20
6.3655205228
 10
9.6143851571
 20
6.3844815263
 10
9.5872586117
 20
6.4046451643
 10
9.560313725
 20
6.4259778766
 10
9.5335953441
 20
6.4484441568
 10
9.5071479392
 20
6.472006612
 10
9.4810155293
 20
6.496626025
 10
9.4552416092
 20
6.522261419
 10
9.4298690771
 20
6.5488701265
 10
9.4049401631
 20
6.57640786
 10
9.3804963588
 20
6.6048287856
 10
9.3565783487
 20
6.6340855995
 10
9.3332259418
 20
6.6641296065
 10
9.3104780059
 20
6.6949108015
 10
9.2883724027
 20
6.7263779522
 10
9.2669459248
 20
6.7584786845
 10
9.2462342345
 20
6.79115957
 10
9.2262718044
 20
6.8243662146
 10
9.2070918599
 20
6.8580433491
 10
9.1887263241
 20
6.8921349212
 10
9.1712057647
 20
6.9265841889
 10
9.1545593429
 20
6.9613338147
 10
9.1388147651
 20
6.9963259614
 10
9.1239982365
 20
7.0315023879
 10
9.1101344178
 20
7.0668045467
 10
9.097246384
 20
7.1021736806
 10
9.0853555859
 20
7.1375509214
 10
9.0744818145
 20
7.1728773869
 10
9.0646431682
 20
7.20809428
 10
9.0558560225
 20
7.2431429854
 10
9.0481350027
 20
7.2779651681
 10
9.0414929596
 20
7.31250287
 10
9.0359409483
 20
7.3466986066
 10
9.0314882095
 20
7.3804954623
 10
9.0281421545
 20
7.4138371856
 10
9.0259083523
 20
7.4466682826
 10
9.024790521
 20
7.4789341091
 10
9.024790521
 20
7.5105809619
 10
9.0259083523
 20
7.5415561678
 10
9.0281421545
 20
7.5718081717
 10
9.0314882095
 20
7.6012866221
 10
9.0359409483
 20
7.6299424551
 10
9.0414929596
 20
7.6577279758
 10
9.0481350027
 20
7.684596938
 10
9.0558560225
 20
7.710504621
 10
9.0646431682
 20
7.7354079039
 10
9.0744818145
 20
7.7592653377
 10
9.0853555859
 20
7.7820372141
 10
9.097246384
 20
7.8036856316
 10
9.1101344178
 20
7.8241745584
 10
9.1239982365
 20
7.8434698928
 10
9.1388147651
 20
7.8615395195
 10
9.1545593429
 20
7.8783533636
 10
9.1712057647
 20
7.89388344
 10
9.1887263241
 20
7.9081039004
 10
9.196440092
 20
7.9137521945
  0
LWPOLYLINE
  5
149
330
1F
100
AcDbEntity
  8
0
  6
Continuous
 62
     7
370
     0
100
AcDbPolyline
 90
       19
 70
   128
 43
0.0
 10
10.1449721275
 20
6.2706684848
 10
10.1258584563
 20
6.2626390343
 10
10.1044319784
 20
6.2552767868
 10
10.0823263753
 20
6.2493322223
 10
10.0595784394
 20
6.244815235
 10
10.0362260324
 20
6.2417333431
 10
10.0123080223
 20
6.2400916759
 10
9.987864218
 20
6.239892966
 10
9.962935304
 20
6.241137544
 10
9.9375627719
 20
6.2438233385
 10
9.9117888518
 20
6.2479458792
 10
9.8856564419
 20
6.2534983045
 10
9.859209037
 20
6.260471373
 10
9.8324906561
 20
6.2688534788
 10
9.8055457694
 20
6.2786306705
 10
9.778419224
 20
6.2897866751
 10
9.7511561693
 20
6.3023029245
 10
9.7238019821
 20
6.3161585866
 10
9.6964021906
 20
6.3313306001
  0
LWPOLYLINE
  5
14A
330
1F
100
AcDbEntity
  8
0
  6
Continuous
 62
     7
370
     0
100
AcDbPolyline
 90
       60
 70
   128
 43
0.0
 10
8.9256084188
 20
7.4662893021
 10
8.9265940335
 20
7.4331628552
 10
8.9287032909
 20
7.399459037
 10
8.9319328347
 20
7.3652314764
 10
8.9362775263
 20
7.3305346357
 10
8.9417304523
 20
7.2954237239
 10
8.9482829363
 20
7.2599546089
 10
8.9559245519
 20
7.2241837284
 10
8.9646431401
 20
7.1881680004
 10
8.9744248279
 20
7.1519647325
 10
8.9852540508
 20
7.1156315308
 10
8.9971135778
 20
7.0792262078
 10
9.0099845379
 20
7.0428066913
 10
9.0238464514
 20
7.0064309311
 10
9.0386772612
 20
6.9701568078
 10
9.0544533689
 20
6.9340420401
 10
9.0711496718
 20
6.8981440932
 10
9.088739603
 20
6.8625200872
 10
9.1071951739
 20
6.8272267065
 10
9.1264870181
 20
6.7923201091
 10
9.146584439
 20
6.7578558379
 10
9.1674554577
 20
6.7238887318
 10
9.1890668648
 20
6.6904728387
 10
9.2113842725
 20
6.6576613292
 10
9.2343721698
 20
6.6255064126
 10
9.2579939788
 20
6.594059253
 10
9.2822121128
 20
6.5633698888
 10
9.3069880365
 20
6.5334871521
 10
9.3322823267
 20
6.504458592
 10
9.3580547357
 20
6.4763303981
 10
9.3842642549
 20
6.4491473276
 10
9.4108691802
 20
6.4229526335
 10
9.4378271782
 20
6.3977879965
 10
9.465095354
 20
6.3736934581
 10
9.4926303188
 20
6.350707357
 10
9.5203882596
 20
6.3288662683
 10
9.5483250083
 20
6.3082049453
 10
9.5763961126
 20
6.2887562637
 10
9.6045569063
 20
6.2705511701
 10
9.6327625803
 20
6.2536186319
 10
9.6609682542
 20
6.2379855921
 10
9.6891290479
 20
6.2236769255
 10
9.7172001522
 20
6.2107153999
 10
9.7451369009
 20
6.1991216394
 10
9.7728948417
 20
6.1889140918
 10
9.8004298065
 20
6.1801089992
 10
9.8276979823
 20
6.172720372
 10
9.8546559803
 20
6.166759967
 10
9.8812609056
 20
6.1622372682
 10
9.9074704248
 20
6.159159472
 10
9.9332428338
 20
6.1575314758
 10
9.958537124
 20
6.1573558701
 10
9.9833130477
 20
6.1586329342
 10
10.0075311817
 20
6.1613606361
 10
10.0311529907
 20
6.1655346355
 10
10.054140888
 20
6.1711482909
 10
10.0764582957
 20
6.1781926698
 10
10.0980697028
 20
6.1866565635
 10
10.1189407215
 20
6.1965265042
 10
10.1342948166
 20
6.2049629819
  0
LINE
  5
14B
330
1F
100
AcDbEntity
  8
0
  6
Continuous
 62
     7
370
     0
100
AcDbLine
 10
8.9204306838
 20
7.477442426
 30
0.0
 11
8.9256084188
 21
7.4662893021
 31
0.0
  0
LINE
  5
14C
330
1F
100
AcDbEntity
  8
0
  6
Continuous
 62
     7
370
     0
100
AcDbLine
 10
8.9256084188
 20
7.4662893021
 30
0.0
 11
8.9540229394
 21
7.4498859485
 31
0.0
  0
LWPOLYLINE
  5
14D
330
1F
100
AcDbEntity
  8
0
  6
Continuous
 62
     7
370
     0
100
AcDbPolyline
 90
       64
 70
   128
 43
0.0
 10
10.2088080812
 20
6.3230564115
 10
10.1973583126
 20
6.3091752474
 10
10.1814662171
 20
6.2920390075
 10
10.164655226
 20
6.2762061051
 10
10.1469534921
 20
6.2617030552
 10
10.12839066
 20
6.2485541456
 10
10.1089978162
 20
6.2367813961
 10
10.0888074373
 20
6.2264045224
 10
10.0678533353
 20
6.2174409021
 10
10.0461706014
 20
6.2099055464
 10
10.023795547
 20
6.2038110745
 10
10.0007656429
 20
6.1991676926
 10
9.9771194563
 20
6.1959831767
 10
9.9528965868
 20
6.19426286
 10
9.9281375997
 20
6.1940096232
 10
9.9028839579
 20
6.1952238907
 10
9.877177953
 20
6.1979036287
 10
9.8510626338
 20
6.2020443498
 10
9.8245817348
 20
6.2076391195
 10
9.7977796028
 20
6.2146785684
 10
9.7707011223
 20
6.2231509079
 10
9.7433916407
 20
6.2330419497
 10
9.7158968923
 20
6.2443351294
 10
9.6882629218
 20
6.2570115348
 10
9.6605360066
 20
6.2710499372
 10
9.6327625803
 20
6.2864268269
 10
9.6049891539
 20
6.3031164527
 10
9.5772622387
 20
6.3210908652
 10
9.5496282682
 20
6.3403199631
 10
9.5221335198
 20
6.3607715441
 10
9.4948240382
 20
6.3824113586
 10
9.4677455577
 20
6.4052031672
 10
9.4409434257
 20
6.4291088012
 10
9.4144625267
 20
6.4540882267
 10
9.3883472075
 20
6.4800996114
 10
9.3626412026
 20
6.5070993949
 10
9.3373875608
 20
6.5350423616
 10
9.3126285737
 20
6.5638817164
 10
9.2884057042
 20
6.5935691629
 10
9.2647595176
 20
6.6240549847
 10
9.2417296135
 20
6.655288128
 10
9.2193545591
 20
6.6872162879
 10
9.1976718252
 20
6.7197859952
 10
9.1767177232
 20
6.7529427066
 10
9.1565273443
 20
6.7866308957
 10
9.1371345005
 20
6.820794146
 10
9.1185716684
 20
6.8553752454
 10
9.1008699345
 20
6.8903162822
 10
9.0840589434
 20
6.9255587417
 10
9.0681668479
 20
6.9610436046
 10
9.0532202619
 20
6.9967114455
 10
9.039244216
 20
7.0325025328
 10
9.0262621154
 20
7.0683569283
 10
9.0142957007
 20
7.1042145879
 10
9.0033650117
 20
7.1400154619
 10
8.9934883537
 20
7.1756995958
 10
8.9846822668
 20
7.2112072306
 10
8.9769614983
 20
7.2464789029
 10
8.9703389778
 20
7.2814555443
 10
8.9648257959
 20
7.3160785807
 10
8.9604311853
 20
7.35029003
 10
8.9571625055
 20
7.3840325994
 10
8.9550252305
 20
7.4172497815
 10
8.9540229394
 20
7.4498859485
  0
LINE
  5
14E
330
1F
100
AcDbEntity
  8
0
  6
Continuous
 62
     7
370
     0
100
AcDbLine
 10
8.9540229394
 20
7.4498859485
 30
0.0
 11
8.9733423284
 21
7.4528737059
 31
0.0
  0
LINE
  5
14F
330
1F
100
AcDbEntity
  8
0
  6
Continuous
 62
     7
370
     0
100
AcDbLine
 10
8.9310372855
 20
7.4835654868
 30
0.0
 11
8.9787725492
 21
7.4560085057
 31
0.0
  0
LWPOLYLINE
  5
150
330
1F
100
AcDbEntity
  8
0
  6
Continuous
 62
     7
370
     0
100
AcDbPolyline
 90
      125
 70
   128
 43
0.0
 10
8.7629401657
 20
7.4662171377
 10
8.7635040462
 20
7.5000865324
 10
8.7651948701
 20
7.5332557771
 10
8.7680101858
 20
7.5656767797
 10
8.7719459114
 20
7.5973025327
 10
8.7769963405
 20
7.6280871819
 10
8.7831541504
 20
7.6579860925
 10
8.790410413
 20
7.6869559139
 10
8.7987546073
 20
7.7149546426
 10
8.808174635
 20
7.7419416832
 10
8.8186568381
 20
7.767877907
 10
8.8301860182
 20
7.792725709
 10
8.8427454592
 20
7.8164490623
 10
8.8563169512
 20
7.8390135701
 10
8.8708808167
 20
7.8603865163
 10
8.8864159395
 20
7.880536912
 10
8.9028997952
 20
7.8994355411
 10
8.9203084838
 20
7.9170550024
 10
8.9386167643
 20
7.9333697493
 10
8.9577980915
 20
7.9483561271
 10
8.9778246543
 20
7.9619924069
 10
8.9986674161
 20
7.9742588174
 10
9.0202961568
 20
7.9851375735
 10
9.042679517
 20
7.994612902
 10
9.0657850427
 20
8.0026710646
 10
9.0895792334
 20
8.0093003778
 10
9.1140275895
 20
8.0144912297
 10
9.1390946634
 20
8.018236094
 10
9.1647441102
 20
8.0205295411
 10
9.1909387407
 20
8.0213682456
 10
9.217640575
 20
8.0207509915
 10
9.2448108983
 20
8.0186786739
 10
9.2724103159
 20
8.0151542972
 10
9.3003988116
 20
8.0101829717
 10
9.3287358045
 20
8.0037719051
 10
9.3573802088
 20
7.995930393
 10
9.3862904928
 20
7.9866698047
 10
9.4154247394
 20
7.9760035673
 10
9.4447407067
 20
7.9639471458
 10
9.4741958893
 20
7.9505180208
 10
9.5037475801
 20
7.9357356632
 10
9.533352932
 20
7.9196215062
 10
9.5629690199
 20
7.9021989136
 10
9.5925529034
 20
7.8834931466
 10
9.6220616887
 20
7.8635313267
 10
9.6514525909
 20
7.8423423967
 10
9.680682996
 20
7.8199570785
 10
9.7097105227
 20
7.7964078287
 10
9.7384930838
 20
7.7717287913
 10
9.7669889474
 20
7.7459557488
 10
9.7951567973
 20
7.7191260694
 10
9.8229557926
 20
7.6912786538
 10
9.8503456276
 20
7.6624538779
 10
9.8772865896
 20
7.6326935349
 10
9.9037396167
 20
7.6020407746
 10
9.9296663547
 20
7.5705400404
 10
9.9550292122
 20
7.5382370055
 10
9.9797914154
 20
7.505178506
 10
10.0039170617
 20
7.4714124738
 10
10.0273711711
 20
7.4369878663
 10
10.0501197373
 20
7.4019545959
 10
10.0721297772
 20
7.3663634575
 10
10.0933693782
 20
7.3302660549
 10
10.113807745
 20
7.2937147258
 10
10.133415244
 20
7.2567624661
 10
10.152163446
 20
7.2194628532
 10
10.1700251681
 20
7.1818699678
 10
10.1869745124
 20
7.1440383161
 10
10.202986904
 20
7.1060227504
 10
10.2180391264
 20
7.0678783895
 10
10.2321093554
 20
7.0296605392
 10
10.2451771905
 20
6.9914246117
 10
10.2572236846
 20
6.9532260454
 10
10.2682313714
 20
6.9151202246
 10
10.2781842908
 20
6.8771623991
 10
10.287068012
 20
6.8394076042
 10
10.2948696545
 20
6.8019105806
 10
10.3015779066
 20
6.7647256954
 10
10.3071830421
 20
6.7279068633
 10
10.311676934
 20
6.6915074679
 10
10.3150530666
 20
6.6555802849
 10
10.3173065449
 20
6.6201774053
 10
10.3184341014
 20
6.5853501599
 10
10.3184341014
 20
6.5511490449
 10
10.3173065449
 20
6.5176236486
 10
10.3150530666
 20
6.4848225796
 10
10.311676934
 20
6.4527933963
 10
10.3071830421
 20
6.4215825381
 10
10.3015779066
 20
6.3912352576
 10
10.2948696545
 20
6.3617955555
 10
10.287068012
 20
6.3333061166
 10
10.2781842908
 20
6.3058082479
 10
10.2682313714
 20
6.2793418185
 10
10.2572236846
 20
6.2539452024
 10
10.2451771905
 20
6.2296552221
 10
10.2321093554
 20
6.2065070958
 10
10.2180391264
 20
6.1845343861
 10
10.202986904
 20
6.1637689514
 10
10.1869745124
 20
6.1442408994
 10
10.1700251681
 20
6.1259785441
 10
10.152163446
 20
6.1090083641
 10
10.133415244
 20
6.0933549645
 10
10.113807745
 20
6.0790410413
 10
10.0933693782
 20
6.0660873482
 10
10.0721297772
 20
6.0545126669
 10
10.0501197373
 20
6.0443337797
 10
10.0273711711
 20
6.0355654448
 10
10.0039170617
 20
6.0282203755
 10
9.9797914154
 20
6.0223092216
 10
9.9550292122
 20
6.0178405535
 10
9.9296663547
 20
6.0148208505
 10
9.9037396167
 20
6.0132544908
 10
9.8772865896
 20
6.0131437455
 10
9.8503456276
 20
6.0144887752
 10
9.8229557926
 20
6.0172876296
 10
9.7951567973
 20
6.0215362508
 10
9.7669889474
 20
6.0272284786
 10
9.7384930838
 20
6.0343560598
 10
9.7097105227
 20
6.0429086602
 10
9.680682996
 20
6.0528738793
 10
9.6514525909
 20
6.0642372684
 10
9.6220616887
 20
6.0769823518
 10
9.5925529034
 20
6.0910906503
 10
9.5629690199
 20
6.1065417081
 10
9.5406312078
 20
6.1190707741
  0
LWPOLYLINE
  5
151
330
1F
100
AcDbEntity
  8
0
  6
Continuous
 62
     7
370
     0
100
AcDbPolyline
 90
      165
 70
   128
 43
0.0
 10
8.7629401657
 20
7.4580530566
 10
8.763505754
 20
7.4236359871
 10
8.7652016889
 20
7.388616415
 10
8.7680254812
 20
7.3530457364
 10
8.7719729868
 20
7.3169761562
 10
8.7770384121
 20
7.2804606114
 10
8.7832143228
 20
7.2435526936
 10
8.7904916551
 20
7.2063065704
 10
8.7988597284
 20
7.1687769055
 10
8.8083062613
 20
7.1310187788
 10
8.8188173899
 20
7.0930876058
 10
8.8303776876
 20
7.0550390554
 10
8.842970188
 20
7.0169289694
 10
8.8565764099
 20
6.9788132794
 10
8.8711763844
 20
6.9407479255
 10
8.8867486839
 20
6.9027887738
 10
8.9032704539
 20
6.8649915347
 10
8.9207174465
 20
6.8274116809
 10
8.9390640558
 20
6.7901043658
 10
8.9582833556
 20
6.7531243432
 10
8.9783471389
 20
6.7165258863
 10
8.9992259595
 20
6.6803627085
 10
9.0208891746
 20
6.6446878841
 10
9.0433049907
 20
6.6095537709
 10
9.0664405093
 20
6.575011933
 10
9.0902617759
 20
6.5411130654
 10
9.1147338295
 20
6.5079069194
 10
9.139820754
 20
6.4754422294
 10
9.1654857309
 20
6.443766642
 10
9.1916910933
 20
6.4129266454
 10
9.2183983812
 20
6.3829675016
 10
9.245568398
 20
6.3539331797
 10
9.2731612679
 20
6.3258662917
 10
9.3011364946
 20
6.2988080295
 10
9.3294530206
 20
6.2727981048
 10
9.3580692874
 20
6.2478746909
 10
9.3869432968
 20
6.2240743663
 10
9.4160326722
 20
6.2014320612
 10
9.4452947209
 20
6.1799810063
 10
9.4746864968
 20
6.159752684
 10
9.5041648634
 20
6.1407767822
 10
9.5336865572
 20
6.1230811507
 10
9.563208251
 20
6.1066917601
 10
9.5926866176
 20
6.0916326643
 10
9.6220783935
 20
6.0779259644
 10
9.6513404422
 20
6.065591777
 10
9.6804298176
 20
6.0546482042
 10
9.709303827
 20
6.0451113072
 10
9.7379200938
 20
6.0369950826
 10
9.7662366198
 20
6.0303114423
 10
9.7942118465
 20
6.0250701953
 10
9.8218047164
 20
6.0212790339
 10
9.8489747332
 20
6.0189435221
 10
9.8756820211
 20
6.0180670877
 10
9.9018873835
 20
6.0186510169
 10
9.9275523604
 20
6.0206944527
 10
9.9526392849
 20
6.0241943961
 10
9.9771113385
 20
6.0291457105
 10
10.0009326051
 20
6.035541129
 10
10.0240681237
 20
6.0433712657
 10
10.0464839398
 20
6.0526246286
 10
10.0681471549
 20
6.0632876371
 10
10.0890259755
 20
6.0753446419
 10
10.1090897588
 20
6.0887779476
 10
10.1283090586
 20
6.103567839
 10
10.1466556679
 20
6.1196926099
 10
10.1641026605
 20
6.1371285949
 10
10.1806244305
 20
6.1558502043
 10
10.19619673
 20
6.1758299617
 10
10.2107967045
 20
6.1970385439
 10
10.2244029264
 20
6.2194448244
 10
10.2369954268
 20
6.243015919
 10
10.2485557245
 20
6.2677172337
 10
10.2590668531
 20
6.2935125161
 10
10.268513386
 20
6.3203639079
 10
10.2768814593
 20
6.3482320011
 10
10.2841587916
 20
6.3770758953
 10
10.2903347023
 20
6.4068532583
 10
10.2954001276
 20
6.4375203875
 10
10.2993476332
 20
6.4690322748
 10
10.3021714255
 20
6.5013426722
 10
10.3038673604
 20
6.5344041595
 10
10.3044329487
 20
6.5681682147
 10
10.3038673604
 20
6.6025852842
 10
10.3021714255
 20
6.6376048563
 10
10.2993476332
 20
6.6731755349
 10
10.2954001276
 20
6.7092451151
 10
10.2903347023
 20
6.7457606599
 10
10.2841587916
 20
6.7826685777
 10
10.2768814593
 20
6.8199147009
 10
10.268513386
 20
6.8574443658
 10
10.2590668531
 20
6.8952024924
 10
10.2485557245
 20
6.9331336655
 10
10.2369954268
 20
6.9711822159
 10
10.2244029264
 20
7.0092923019
 10
10.2107967045
 20
7.0474079919
 10
10.19619673
 20
7.0854733458
 10
10.1806244305
 20
7.1234324975
 10
10.1641026605
 20
7.1612297365
 10
10.1466556679
 20
7.1988095904
 10
10.1283090586
 20
7.2361169055
 10
10.1090897588
 20
7.2730969281
 10
10.0890259755
 20
7.309695385
 10
10.0681471549
 20
7.3458585628
 10
10.0464839398
 20
7.3815333872
 10
10.0240681237
 20
7.4166675004
 10
10.0009326051
 20
7.4512093383
 10
9.9771113385
 20
7.4851082058
 10
9.9526392849
 20
7.5183143519
 10
9.9275523604
 20
7.5507790419
 10
9.9018873835
 20
7.5824546293
 10
9.8756820211
 20
7.6132946259
 10
9.8489747332
 20
7.6432537697
 10
9.8218047164
 20
7.6722880916
 10
9.7942118465
 20
7.7003549796
 10
9.7662366198
 20
7.7274132418
 10
9.7379200938
 20
7.7534231665
 10
9.709303827
 20
7.7783465804
 10
9.6804298176
 20
7.802146905
 10
9.6513404422
 20
7.8247892101
 10
9.6220783935
 20
7.846240265
 10
9.5926866176
 20
7.8664685873
 10
9.563208251
 20
7.885444489
 10
9.5336865572
 20
7.9031401206
 10
9.5041648634
 20
7.9195295112
 10
9.4746864968
 20
7.934588607
 10
9.4452947209
 20
7.9482953069
 10
9.4160326722
 20
7.9606294943
 10
9.3869432968
 20
7.9715730671
 10
9.3580692874
 20
7.9811099641
 10
9.3294530206
 20
7.9892261887
 10
9.3011364946
 20
7.995909829
 10
9.2731612679
 20
8.001151076
 10
9.245568398
 20
8.0049422374
 10
9.2183983812
 20
8.0072777492
 10
9.1916910933
 20
8.0081541836
 10
9.1654857309
 20
8.0075702544
 10
9.139820754
 20
8.0055268186
 10
9.1147338295
 20
8.0020268752
 10
9.0902617759
 20
7.9970755608
 10
9.0664405093
 20
7.9906801422
 10
9.0433049907
 20
7.9828500056
 10
9.0208891746
 20
7.9735966427
 10
8.9992259595
 20
7.9629336342
 10
8.9783471389
 20
7.9508766294
 10
8.9582833556
 20
7.9374433237
 10
8.9390640558
 20
7.9226534323
 10
8.9207174465
 20
7.9065286614
 10
8.9032704539
 20
7.8890926764
 10
8.8867486839
 20
7.870371067
 10
8.8711763844
 20
7.8503913096
 10
8.8565764099
 20
7.8291827274
 10
8.842970188
 20
7.8067764469
 10
8.8303776876
 20
7.7832053523
 10
8.8188173899
 20
7.7585040376
 10
8.8083062613
 20
7.7327087552
 10
8.7988597284
 20
7.7058573634
 10
8.7904916551
 20
7.6779892702
 10
8.7832143228
 20
7.649145376
 10
8.7770384121
 20
7.619368013
 10
8.7719729868
 20
7.5887008838
 10
8.7680254812
 20
7.5571889965
 10
8.7652016889
 20
7.5248785991
 10
8.763505754
 20
7.4918171117
 10
8.7629401657
 20
7.4580530566
  0
LWPOLYLINE
  5
152
330
1F
100
AcDbEntity
  8
0
  6
Continuous
 62
     7
370
     0
100
AcDbPolyline
 90
       63
 70
   128
 43
0.0
 10
10.5802045934
 20
6.7192037154
 10
10.5796407129
 20
6.7537241526
 10
10.577949889
 20
6.788845581
 10
10.5751345733
 20
6.8245170779
 10
10.5711988477
 20
6.860686923
 10
10.5661484186
 20
6.8973026736
 10
10.5599906086
 20
6.9343112402
 10
10.5527343461
 20
6.971658964
 10
10.5443901518
 20
7.0092916944
 10
10.534970124
 20
7.0471548675
 10
10.524487921
 20
7.0851935853
 10
10.5129587409
 20
7.1233526954
 10
10.5003992998
 20
7.1615768705
 10
10.4868278079
 20
7.1998106895
 10
10.4722639424
 20
7.2379987168
 10
10.4567288196
 20
7.2760855836
 10
10.4402449639
 20
7.3140160673
 10
10.4228362753
 20
7.3517351726
 10
10.4045279948
 20
7.3891882103
 10
10.3853466676
 20
7.4263208771
 10
10.3653201048
 20
7.4630793341
 10
10.344477343
 20
7.4994102851
 10
10.3228486022
 20
7.5352610538
 10
10.3004652421
 20
7.5705796598
 10
10.2773597163
 20
7.6053148947
 10
10.2535655257
 20
7.6394163956
 10
10.2291171696
 20
7.6728347186
 10
10.2040500957
 20
7.7055214104
 10
10.1784006489
 20
7.7374290784
 10
10.1522060184
 20
7.7685114595
 10
10.125504184
 20
7.7987234872
 10
10.0983338608
 20
7.828021357
 10
10.0707344431
 20
7.8563625897
 10
10.0427459475
 20
7.8837060934
 10
10.0144089546
 20
7.9100122224
 10
9.9857645503
 20
7.9352428355
 10
9.9568542663
 20
7.9593613507
 10
9.9277200197
 20
7.9823327984
 10
9.8984040524
 20
8.0041238723
 10
9.8689488697
 20
8.0247029773
 10
9.8393971789
 20
8.0440402757
 10
9.8097918271
 20
8.0621077303
 10
9.7801757392
 20
8.078879145
 10
9.7505918557
 20
8.0943302028
 10
9.7210830703
 20
8.1084385013
 10
9.6916921681
 20
8.1211835847
 10
9.662461763
 20
8.1325469738
 10
9.6334342364
 20
8.1425121929
 10
9.6046516752
 20
8.1510647933
 10
9.5761558116
 20
8.1581923745
 10
9.5479879618
 20
8.1638846023
 10
9.5201889665
 20
8.1681332235
 10
9.4927991315
 20
8.1709320779
 10
9.4658581695
 20
8.1722771076
 10
9.4394051424
 20
8.1721663623
 10
9.4134784044
 20
8.1706000026
 10
9.3881155469
 20
8.1675802996
 10
9.3633533436
 20
8.1631116315
 10
9.3392276974
 20
8.1572004776
 10
9.315773588
 20
8.1498554083
 10
9.2930250218
 20
8.1410870734
 10
9.2710149819
 20
8.1309081862
 10
9.2524318311
 20
8.1208819255
  0
LWPOLYLINE
  5
153
330
1F
100
AcDbEntity
  8
0
  6
Continuous
 62
     7
370
     0
100
AcDbPolyline
 90
       22
 70
   128
 43
0.0
 10
10.352342437
 20
6.2155744283
 10
10.3653201048
 20
6.2234284462
 10
10.3853466676
 20
6.237064726
 10
10.4045279948
 20
6.2520511038
 10
10.4228362753
 20
6.2683658507
 10
10.4402449639
 20
6.285985312
 10
10.4567288196
 20
6.3048839411
 10
10.4722639424
 20
6.3250343368
 10
10.4868278079
 20
6.346407283
 10
10.5003992998
 20
6.3689717908
 10
10.5129587409
 20
6.3926951441
 10
10.524487921
 20
6.4175429461
 10
10.534970124
 20
6.4434791699
 10
10.5443901518
 20
6.4704662105
 10
10.5527343461
 20
6.4984649392
 10
10.5599906086
 20
6.5274347606
 10
10.5661484186
 20
6.5573336712
 10
10.5711988477
 20
6.5881183204
 10
10.5751345733
 20
6.6197440734
 10
10.577949889
 20
6.652165076
 10
10.5796407129
 20
6.6853343207
 10
10.5802045934
 20
6.7192037154
  0
LWPOLYLINE
  5
154
330
1F
100
AcDbEntity
  8
0
  6
Continuous
 62
     7
370
     0
100
AcDbPolyline
 90
      161
 70
   128
 43
0.0
 10
8.8019579586
 20
7.4355285642
 10
8.8025220949
 20
7.4683763866
 10
8.8042136337
 20
7.5005222221
 10
8.8070299669
 20
7.5319165044
 10
8.8109667519
 20
7.5625108256
 10
8.8160179185
 20
7.5922580115
 10
8.8221756781
 20
7.6211121941
 10
8.8294305358
 20
7.6490288824
 10
8.8377713054
 20
7.6759650309
 10
8.8471851258
 20
7.701879106
 10
8.8576574816
 20
7.7267311499
 10
8.8691722253
 20
7.7504828428
 10
8.8817116019
 20
7.7730975612
 10
8.8952562767
 20
7.7945404348
 10
8.9097853647
 20
7.8147784003
 10
8.925276463
 20
7.8337802522
 10
8.9417056857
 20
7.8515166911
 10
8.9590476999
 20
7.8679603686
 10
8.9772757657
 20
7.8830859297
 10
8.9963617765
 20
7.896870052
 10
9.0162763032
 20
7.9092914814
 10
9.036988639
 20
7.9203310648
 10
9.058466847
 20
7.9299717801
 10
9.0806778093
 20
7.938198762
 10
9.1035872783
 20
7.944999325
 10
9.1271599292
 20
7.9503629832
 10
9.1513594147
 20
7.9542814662
 10
9.1761484209
 20
7.956748732
 10
9.2014887251
 20
7.9577609763
 10
9.2273412542
 20
7.9573166382
 10
9.2536661455
 20
7.9554164029
 10
9.2804228081
 20
7.9520632004
 10
9.307569985
 20
7.9472622012
 10
9.3350658172
 20
7.9410208079
 10
9.3628679083
 20
7.9333486443
 10
9.3909333893
 20
7.9242575405
 10
9.4192189853
 20
7.9137615142
 10
9.4476810821
 20
7.9018767495
 10
9.476275793
 20
7.8886215718
 10
9.5049590272
 20
7.8740164198
 10
9.5336865572
 20
7.8580838135
 10
9.5624140872
 20
7.8408483197
 10
9.5910973214
 20
7.8223365145
 10
9.6196920323
 20
7.8025769416
 10
9.6481541291
 20
7.7816000688
 10
9.6764397251
 20
7.7594382411
 10
9.7045052061
 20
7.7361256303
 10
9.7323072972
 20
7.7116981827
 10
9.7598031294
 20
7.6861935639
 10
9.7869503063
 20
7.6596510999
 10
9.8137069689
 20
7.6321117174
 10
9.8400318602
 20
7.6036178801
 10
9.8658843893
 20
7.5742135234
 10
9.8912246935
 20
7.5439439867
 10
9.9160136997
 20
7.5128559435
 10
9.9402131852
 20
7.4809973292
 10
9.9637858361
 20
7.4484172676
 10
9.9866953051
 20
7.4151659947
 10
10.0089062675
 20
7.3812947816
 10
10.0303844754
 20
7.3468558552
 10
10.0510968112
 20
7.3119023178
 10
10.0710113379
 20
7.2764880654
 10
10.0900973488
 20
7.240667704
 10
10.1083254145
 20
7.2044964662
 10
10.1256674287
 20
7.1680301252
 10
10.1420966514
 20
7.1313249097
 10
10.1575877498
 20
7.0944374163
 10
10.1721168377
 20
7.0574245229
 10
10.1856615125
 20
7.0203433007
 10
10.1982008891
 20
6.9832509262
 10
10.2097156328
 20
6.9462045932
 10
10.2201879886
 20
6.9092614246
 10
10.229601809
 20
6.8724783838
 10
10.2379425786
 20
6.8359121879
 10
10.2451974364
 20
6.799619219
 10
10.2513551959
 20
6.7636554385
 10
10.2564063625
 20
6.7280762998
 10
10.2603431475
 20
6.6929366634
 10
10.2631594807
 20
6.6582907121
 10
10.2648510195
 20
6.6241918673
 10
10.2654151558
 20
6.5906927071
 10
10.2648510195
 20
6.5578448847
 10
10.2631594807
 20
6.5256990492
 10
10.2603431475
 20
6.4943047669
 10
10.2564063625
 20
6.4637104457
 10
10.2513551959
 20
6.4339632598
 10
10.2451974364
 20
6.4051090772
 10
10.2379425786
 20
6.3771923888
 10
10.229601809
 20
6.3502562404
 10
10.2201879886
 20
6.3243421653
 10
10.2097156328
 20
6.2994901214
 10
10.1982008891
 20
6.2757384285
 10
10.1856615125
 20
6.2531237101
 10
10.1721168377
 20
6.2316808365
 10
10.1575877498
 20
6.211442871
 10
10.1420966514
 20
6.1924410191
 10
10.1256674287
 20
6.1747045802
 10
10.1083254145
 20
6.1582609027
 10
10.0900973488
 20
6.1431353416
 10
10.0710113379
 20
6.1293512193
 10
10.0510968112
 20
6.1169297899
 10
10.0303844754
 20
6.1058902065
 10
10.0089062675
 20
6.0962494912
 10
9.9866953051
 20
6.0880225093
 10
9.9637858361
 20
6.0812219463
 10
9.9402131852
 20
6.0758582881
 10
9.9160136997
 20
6.0719398051
 10
9.8912246935
 20
6.0694725392
 10
9.8658843893
 20
6.068460295
 10
9.8400318602
 20
6.0689046331
 10
9.8137069689
 20
6.0708048684
 10
9.7869503063
 20
6.0741580708
 10
9.7598031294
 20
6.0789590701
 10
9.7323072972
 20
6.0852004634
 10
9.7045052061
 20
6.092872627
 10
9.6764397251
 20
6.1019637308
 10
9.6481541291
 20
6.1124597571
 10
9.6196920323
 20
6.1243445218
 10
9.5910973214
 20
6.1375996994
 10
9.5624140872
 20
6.1522048515
 10
9.5336865572
 20
6.1681374578
 10
9.5049590272
 20
6.1853729516
 10
9.476275793
 20
6.2038847568
 10
9.4476810821
 20
6.2236443297
 10
9.4192189853
 20
6.2446212025
 10
9.3909333893
 20
6.2667830302
 10
9.3628679083
 20
6.290095641
 10
9.3350658172
 20
6.3145230885
 10
9.307569985
 20
6.3400277074
 10
9.2804228081
 20
6.3665701714
 10
9.2536661455
 20
6.3941095539
 10
9.2273412542
 20
6.4226033912
 10
9.2014887251
 20
6.4520077479
 10
9.1761484209
 20
6.4822772846
 10
9.1513594147
 20
6.5133653278
 10
9.1271599292
 20
6.5452239421
 10
9.1035872783
 20
6.5778040037
 10
9.0806778093
 20
6.6110552766
 10
9.058466847
 20
6.6449264897
 10
9.036988639
 20
6.6793654161
 10
9.0162763032
 20
6.7143189535
 10
8.9963617765
 20
6.7497332059
 10
8.9772757657
 20
6.7855535673
 10
8.9590476999
 20
6.8217248051
 10
8.9417056857
 20
6.8581911461
 10
8.925276463
 20
6.8948963616
 10
8.9097853647
 20
6.931783855
 10
8.8952562767
 20
6.9687967484
 10
8.8817116019
 20
7.0058779706
 10
8.8691722253
 20
7.0429703451
 10
8.8576574816
 20
7.080016678
 10
8.8471851258
 20
7.1169598467
 10
8.8377713054
 20
7.1537428874
 10
8.8294305358
 20
7.1903090834
 10
8.8221756781
 20
7.2266020522
 10
8.8160179185
 20
7.2625658328
 10
8.8109667519
 20
7.2981449715
 10
8.8070299669
 20
7.3332846079
 10
8.8042136337
 20
7.3679305592
 10
8.8025220949
 20
7.402029404
 10
8.8019579586
 20
7.4355285642
  0
LWPOLYLINE
  5
155
330
1F
100
AcDbEntity
  8
0
  6
Continuous
 62
     7
370
     0
100
AcDbPolyline
 90
      160
 70
   128
 43
0.0
 10
8.8212764752
 20
7.4325403031
 10
8.8218381674
 20
7.3993927618
 10
8.823522367
 20
7.3656484604
 10
8.8263264443
 20
7.3313600867
 10
8.8302460211
 20
7.2965811779
 10
8.8352749774
 20
7.2613660371
 10
8.8414054611
 20
7.2257696486
 10
8.8486279002
 20
7.1898475919
 10
8.8569310177
 20
7.153655955
 10
8.8663018493
 20
7.117251247
 10
8.8767257635
 20
7.0806903093
 10
8.8881864847
 20
7.0440302276
 10
8.9006661182
 20
7.0073282423
 10
8.9141451786
 20
6.9706416591
 10
8.92860262
 20
6.9340277599
 10
8.9440158688
 20
6.8975437127
 10
8.9603608589
 20
6.8612464832
 10
8.9776120697
 20
6.8251927452
 10
8.9957425655
 20
6.7894387923
 10
9.0147240375
 20
6.75404045
 10
9.0345268486
 20
6.7190529887
 10
9.055120079
 20
6.6845310371
 10
9.0764715747
 20
6.6505284972
 10
9.0985479979
 20
6.6170984599
 10
9.121314879
 20
6.5842931222
 10
9.1447366702
 20
6.5521637058
 10
9.1687768011
 20
6.5207603769
 10
9.1933977359
 20
6.4901321681
 10
9.2185610319
 20
6.4603269017
 10
9.2442273996
 20
6.4313911151
 10
9.2703567641
 20
6.4033699882
 10
9.2969083274
 20
6.3763072724
 10
9.3238406325
 20
6.3502452232
 10
9.3511116277
 20
6.3252245333
 10
9.3786787326
 20
6.3012842694
 10
9.4064989045
 20
6.2784618116
 10
9.4345287054
 20
6.2567927943
 10
9.4627243701
 20
6.2363110511
 10
9.4910418746
 20
6.217048562
 10
9.5194370042
 20
6.1990354028
 10
9.5478654235
 20
6.1822996992
 10
9.5762827448
 20
6.1668675818
 10
9.6046445979
 20
6.1527631461
 10
9.632906699
 20
6.1400084145
 10
9.6610249203
 20
6.128623302
 10
9.6889553585
 20
6.118625585
 10
9.7166544035
 20
6.110030874
 10
9.7440788066
 20
6.1028525884
 10
9.7711857477
 20
6.0971019363
 10
9.7979329028
 20
6.0927878967
 10
9.8242785091
 20
6.0899172054
 10
9.8501814313
 20
6.0884943447
 10
9.8756012249
 20
6.0885215362
 10
9.9004981999
 20
6.0899987374
 10
9.9248334828
 20
6.0929236419
 10
9.9485690768
 20
6.0972916828
 10
9.9716679217
 20
6.1030960399
 10
9.9940939512
 20
6.1103276504
 10
10.0158121499
 20
6.1189752229
 10
10.0367886074
 20
6.1290252554
 10
10.0569905713
 20
6.1404620559
 10
10.0763864988
 20
6.1532677672
 10
10.0949461054
 20
6.1674223947
 10
10.1126404125
 20
6.1829038376
 10
10.1294417925
 20
6.1996879234
 10
10.145324012
 20
6.2177484459
 10
10.1602622729
 20
6.2370572057
 10
10.1742332508
 20
6.2575840544
 10
10.1872151317
 20
6.2792969418
 10
10.199187646
 20
6.3021619658
 10
10.2101320999
 20
6.3261434253
 10
10.2200314051
 20
6.3512038763
 10
10.2288701049
 20
6.3773041896
 10
10.2366343987
 20
6.4044036129
 10
10.2433121636
 20
6.4324598336
 10
10.248892973
 20
6.4614290452
 10
10.253368113
 20
6.4912660158
 10
10.2567305964
 20
6.5219241583
 10
10.258975173
 20
6.5533556039
 10
10.2600983381
 20
6.585511276
 10
10.2600983381
 20
6.6183409674
 10
10.258975173
 20
6.6517934184
 10
10.2567305964
 20
6.6858163969
 10
10.253368113
 20
6.7203567802
 10
10.248892973
 20
6.7553606375
 10
10.2433121636
 20
6.7907733144
 10
10.2366343987
 20
6.8265395183
 10
10.2288701049
 20
6.8626034044
 10
10.2200314051
 20
6.8989086634
 10
10.2101320999
 20
6.9353986088
 10
10.199187646
 20
6.9720162659
 10
10.1872151317
 20
7.0087044606
 10
10.1742332508
 20
7.0454059087
 10
10.1602622729
 20
7.0820633051
 10
10.145324012
 20
7.1186194138
 10
10.1294417925
 20
7.1550171566
 10
10.1126404125
 20
7.1911997029
 10
10.0949461054
 20
7.2271105579
 10
10.0763864988
 20
7.262693651
 10
10.0569905713
 20
7.2978934235
 10
10.0367886074
 20
7.3326549151
 10
10.0158121499
 20
7.3669238499
 10
9.9940939512
 20
7.4006467209
 10
9.9716679217
 20
7.433770874
 10
9.9485690768
 20
7.4662445896
 10
9.9248334828
 20
7.498017164
 10
9.9004981999
 20
7.5290389881
 10
9.8756012249
 20
7.5592616249
 10
9.8501814313
 20
7.5886378854
 10
9.8242785091
 20
7.617121902
 10
9.7979329028
 20
7.6446692003
 10
9.7711857477
 20
7.6712367686
 10
9.7440788066
 20
7.6967831246
 10
9.7166544035
 20
7.7212683808
 10
9.6889553585
 20
7.7446543064
 10
9.6610249203
 20
7.766904387
 10
9.632906699
 20
7.7879838818
 10
9.6046445979
 20
7.8078598775
 10
9.5762827448
 20
7.8265013404
 10
9.5478654235
 20
7.8438791638
 10
9.5194370042
 20
7.8599662144
 10
9.4910418746
 20
7.8747373741
 10
9.4627243701
 20
7.8881695796
 10
9.4345287054
 20
7.9002418581
 10
9.4064989045
 20
7.9109353601
 10
9.3786787326
 20
7.920233389
 10
9.3511116277
 20
7.928121427
 10
9.3238406325
 20
7.9345871579
 10
9.2969083274
 20
7.9396204862
 10
9.2703567641
 20
7.943213553
 10
9.2442273996
 20
7.9453607481
 10
9.2185610319
 20
7.9460587189
 10
9.1933977359
 20
7.9453063757
 10
9.1687768011
 20
7.9431048931
 10
9.1447366702
 20
7.9394577085
 10
9.121314879
 20
7.9343705166
 10
9.0985479979
 20
7.9278512603
 10
9.0764715747
 20
7.9199101187
 10
9.055120079
 20
7.910559491
 10
9.0345268486
 20
7.8998139771
 10
9.0147240375
 20
7.8876903548
 10
8.9957425655
 20
7.8742075537
 10
8.9776120697
 20
7.8593866256
 10
8.9603608589
 20
7.8432507116
 10
8.9440158688
 20
7.8258250061
 10
8.92860262
 20
7.8071367171
 10
8.9141451786
 20
7.7872150243
 10
8.9006661182
 20
7.7660910331
 10
8.8881864847
 20
7.7437977259
 10
8.8767257635
 20
7.7203699112
 10
8.8663018493
 20
7.6958441688
 10
8.8569310177
 20
7.6702587925
 10
8.8486279002
 20
7.6436537311
 10
8.8414054611
 20
7.6160705251
 10
8.8352749774
 20
7.5875522424
 10
8.8302460211
 20
7.558143411
 10
8.8263264443
 20
7.5278899492
 10
8.823522367
 20
7.4968390943
 10
8.8218381674
 20
7.4650393284
 10
8.8212764752
 20
7.4325403031
  0
ARC
  5
156
330
1F
100
AcDbEntity
  8
0
  6
Continuous
 62
     7
370
     0
100
AcDbCircle
 10
8.9081642043
 20
6.6520042677
 30
0.0
 40
1.673737949627868
100
AcDbArc
 50
2.5807340673
 51
57.4138894
  0
LWPOLYLINE
  5
157
330
1F
100
AcDbEntity
  8
0
  6
Continuous
 62
     7
370
     0
100
AcDbPolyline
 90
       50
 70
   128
 43
0.0
 10
10.6067210977
 20
6.8018650367
 10
10.6061594055
 20
6.835012578
 10
10.6044752059
 20
6.8687568794
 10
10.6016711285
 20
6.9030452531
 10
10.5977515518
 20
6.9378241619
 10
10.5927225954
 20
6.9730393027
 10
10.5865921117
 20
7.0086356912
 10
10.5793696726
 20
7.0445577479
 10
10.5710665551
 20
7.0807493848
 10
10.5616957235
 20
7.1171540929
 10
10.5512718093
 20
7.1537150305
 10
10.5398110881
 20
7.1903751122
 10
10.5273314546
 20
7.2270770975
 10
10.5138523942
 20
7.2637636807
 10
10.4993949528
 20
7.3003775799
 10
10.4839817041
 20
7.3368616271
 10
10.4676367139
 20
7.3731588566
 10
10.4503855031
 20
7.4092125946
 10
10.4322550073
 20
7.4449665475
 10
10.4132735353
 20
7.4803648898
 10
10.3934707242
 20
7.5153523511
 10
10.3728774939
 20
7.5498743027
 10
10.3515259982
 20
7.5838768426
 10
10.3294495749
 20
7.6173068799
 10
10.3066826938
 20
7.6501122176
 10
10.2832609026
 20
7.682241634
 10
10.2592207717
 20
7.7136449629
 10
10.234599837
 20
7.7442731717
 10
10.209436541
 20
7.7740784381
 10
10.1837701732
 20
7.8030142247
 10
10.1576408087
 20
7.8310353516
 10
10.1310892454
 20
7.8580980674
 10
10.1041569403
 20
7.8841601166
 10
10.0768859451
 20
7.9091808065
 10
10.0493188402
 20
7.9331210704
 10
10.0214986684
 20
7.9559435282
 10
9.9934688674
 20
7.9776125455
 10
9.9652732027
 20
7.9980942887
 10
9.9369556982
 20
8.0173567779
 10
9.9085605686
 20
8.035369937
 10
9.8801321493
 20
8.0521056407
 10
9.851714828
 20
8.067537758
 10
9.8233529749
 20
8.0816421937
 10
9.7950908738
 20
8.0943969253
 10
9.7669726525
 20
8.1057820378
 10
9.7390422143
 20
8.1157797548
 10
9.7113431693
 20
8.1243744658
 10
9.6839187663
 20
8.1315527514
 10
9.6568118251
 20
8.1373034035
 10
9.6411285641
 20
8.1400003875
  0
ARC
  5
158
330
1F
100
AcDbEntity
  8
0
  6
Continuous
 62
     7
370
     0
100
AcDbCircle
 10
9.8821433856
 20
6.7900192524
 30
0.0
 40
0.7246745362102462
100
AcDbArc
 50
340.0379154229
 51
0.9366186332
  0
ARC
  5
159
330
1F
100
AcDbEntity
  8
0
  6
Continuous
 62
     7
370
     0
100
AcDbCircle
 10
25.3779362354
 20
4.3201075428
 30
0.0
 40
18.11417322834646
100
AcDbArc
 50
176.8701858134
 51
180.0037015534
  0
LINE
  5
15A
330
1F
100
AcDbEntity
  8
0
  6
Continuous
 62
     7
370
     0
100
AcDbLine
 10
7.3011646197
 20
5.3189372894
 30
0.0
 11
7.2907821999
 21
5.3091124167
 31
0.0
  0
LINE
  5
15B
330
1F
100
AcDbEntity
  8
0
  6
Continuous
 62
     7
370
     0
100
AcDbLine
 10
7.3011646197
 20
5.3189372894
 30
0.0
 11
7.3995898165
 21
5.3189372894
 31
0.0
  0
LINE
  5
15C
330
1F
100
AcDbEntity
  8
0
  6
Continuous
 62
     7
370
     0
100
AcDbLine
 10
7.4094323362
 20
5.3090947697
 30
0.0
 11
7.3995898165
 21
5.3189372894
 31
0.0
  0
LINE
  5
15D
330
1F
100
AcDbEntity
  8
0
  6
Continuous
 62
     7
370
     0
100
AcDbLine
 10
7.4094323362
 20
5.3090947697
 30
0.0
 11
7.4094323362
 21
3.3287798091
 31
0.0
  0
LINE
  5
15E
330
1F
100
AcDbEntity
  8
0
  6
Continuous
 62
     7
370
     0
100
AcDbLine
 10
7.3995898165
 20
3.3189372894
 30
0.0
 11
7.4094323362
 21
3.3287798091
 31
0.0
  0
LINE
  5
15F
330
1F
100
AcDbEntity
  8
0
  6
Continuous
 62
     7
370
     0
100
AcDbLine
 10
7.3995898165
 20
3.3189372894
 30
0.0
 11
7.3011646197
 21
3.3189372894
 31
0.0
  0
LINE
  5
160
330
1F
100
AcDbEntity
  8
0
  6
Continuous
 62
     7
370
     0
100
AcDbLine
 10
7.2907821999
 20
3.3287621621
 30
0.0
 11
7.3011646197
 21
3.3189372894
 31
0.0
  0
ARC
  5
161
330
1F
100
AcDbEntity
  8
0
  6
Continuous
 62
     7
370
     0
100
AcDbCircle
 10
25.3779362354
 20
4.317767036
 30
0.0
 40
18.11417322834646
100
AcDbArc
 50
179.9962984466
 51
183.1298141866
  0
LINE
  5
162
330
1F
100
AcDbEntity
  8
0
  6
Continuous
 62
     7
370
     0
100
AcDbLine
 10
7.2722264836
 20
3.3014372894
 30
0.0
 11
7.2895469917
 21
3.3114372894
 31
0.0
  0
LINE
  5
163
330
1F
100
AcDbEntity
  8
0
  6
Continuous
 62
     7
370
     0
100
AcDbLine
 10
7.2722264836
 20
3.3014372894
 30
0.0
 11
7.1995469917
 21
3.3014372894
 31
0.0
  0
LINE
  5
164
330
1F
100
AcDbEntity
  8
0
  6
Continuous
 62
     7
370
     0
100
AcDbLine
 10
7.1895469917
 20
3.3187577975
 30
0.0
 11
7.1995469917
 21
3.3014372894
 31
0.0
  0
LINE
  5
165
330
1F
100
AcDbEntity
  8
0
  6
Continuous
 62
     7
370
     0
100
AcDbLine
 10
7.1895469917
 20
3.3187577975
 30
0.0
 11
7.1895469917
 21
3.3589372894
 31
0.0
  0
LINE
  5
166
330
1F
100
AcDbEntity
  8
0
  6
Continuous
 62
     7
370
     0
100
AcDbLine
 10
7.2068674998
 20
3.3689372894
 30
0.0
 11
7.1895469917
 21
3.3589372894
 31
0.0
  0
LINE
  5
167
330
1F
100
AcDbEntity
  8
0
  6
Continuous
 62
     7
370
     0
100
AcDbLine
 10
7.2068674998
 20
3.3689372894
 30
0.0
 11
7.2795469917
 21
3.3689372894
 31
0.0
  0
LINE
  5
168
330
1F
100
AcDbEntity
  8
0
  6
Continuous
 62
     7
370
     0
100
AcDbLine
 10
7.2895469917
 20
3.3516167813
 30
0.0
 11
7.2795469917
 21
3.3689372894
 31
0.0
  0
LINE
  5
169
330
1F
100
AcDbEntity
  8
0
  6
Continuous
 62
     7
370
     0
100
AcDbLine
 10
7.2895469917
 20
3.3516167813
 30
0.0
 11
7.2895469917
 21
3.3114372894
 31
0.0
  0
LINE
  5
16A
330
1F
100
AcDbEntity
  8
0
  6
Continuous
 62
     7
370
     0
100
AcDbLine
 10
7.2895469917
 20
5.3264372894
 30
0.0
 11
7.2722264836
 21
5.3364372894
 31
0.0
  0
LINE
  5
16B
330
1F
100
AcDbEntity
  8
0
  6
Continuous
 62
     7
370
     0
100
AcDbLine
 10
7.2795469917
 20
3.3689372894
 30
0.0
 11
7.2795469917
 21
3.5617389084
 31
0.0
  0
LINE
  5
16C
330
1F
100
AcDbEntity
  8
0
  6
Continuous
 62
     7
370
     0
100
AcDbLine
 10
7.2795469917
 20
5.0761356704
 30
0.0
 11
7.2795469917
 21
5.2689372894
 31
0.0
  0
LINE
  5
16D
330
1F
100
AcDbEntity
  8
0
  6
Continuous
 62
     7
370
     0
100
AcDbLine
 10
7.2795469917
 20
5.2689372894
 30
0.0
 11
7.2895469917
 21
5.2862577975
 31
0.0
  0
LINE
  5
16E
330
1F
100
AcDbEntity
  8
0
  6
Continuous
 62
     7
370
     0
100
AcDbLine
 10
7.2145469917
 20
4.3039372894
 30
0.0
 11
7.2068674998
 21
4.3039372894
 31
0.0
  0
LINE
  5
16F
330
1F
100
AcDbEntity
  8
0
  6
Continuous
 62
     7
370
     0
100
AcDbLine
 10
7.2145469917
 20
4.3039372894
 30
0.0
 11
7.2145469917
 21
4.3339372894
 31
0.0
  0
LINE
  5
170
330
1F
100
AcDbEntity
  8
0
  6
Continuous
 62
     7
370
     0
100
AcDbLine
 10
7.2068674998
 20
4.3339372894
 30
0.0
 11
7.2145469917
 21
4.3339372894
 31
0.0
  0
LINE
  5
171
330
1F
100
AcDbEntity
  8
0
  6
Continuous
 62
     7
370
     0
100
AcDbLine
 10
7.2068674998
 20
5.2689372894
 30
0.0
 11
7.2068674998
 21
4.3339372894
 31
0.0
  0
LINE
  5
172
330
1F
100
AcDbEntity
  8
0
  6
Continuous
 62
     7
370
     0
100
AcDbLine
 10
7.2795469917
 20
5.2689372894
 30
0.0
 11
7.2068674998
 21
5.2689372894
 31
0.0
  0
LINE
  5
173
330
1F
100
AcDbEntity
  8
0
  6
Continuous
 62
     7
370
     0
100
AcDbLine
 10
7.2068674998
 20
4.3039372894
 30
0.0
 11
7.2068674998
 21
3.3689372894
 31
0.0
  0
LINE
  5
174
330
1F
100
AcDbEntity
  8
0
  6
Continuous
 62
     7
370
     0
100
AcDbLine
 10
7.1995469917
 20
5.3364372894
 30
0.0
 11
7.2722264836
 21
5.3364372894
 31
0.0
  0
LINE
  5
175
330
1F
100
AcDbEntity
  8
0
  6
Continuous
 62
     7
370
     0
100
AcDbLine
 10
7.1895469917
 20
5.2789372894
 30
0.0
 11
7.2068674998
 21
5.2689372894
 31
0.0
  0
LINE
  5
176
330
1F
100
AcDbEntity
  8
0
  6
Continuous
 62
     7
370
     0
100
AcDbLine
 10
7.1895469917
 20
5.2789372894
 30
0.0
 11
7.1895469917
 21
5.3191167813
 31
0.0
  0
LINE
  5
177
330
1F
100
AcDbEntity
  8
0
  6
Continuous
 62
     7
370
     0
100
AcDbLine
 10
7.1995469917
 20
5.3364372894
 30
0.0
 11
7.1895469917
 21
5.3191167813
 31
0.0
  0
LINE
  5
178
330
1F
100
AcDbEntity
  8
0
  6
Continuous
 62
     7
370
     0
100
AcDbLine
 10
7.2895469917
 20
5.3264372894
 30
0.0
 11
7.2895469917
 21
5.2862577975
 31
0.0
  0
LINE
  5
179
330
1F
100
AcDbEntity
  8
0
  6
Continuous
 62
     7
370
     0
100
AcDbLine
 10
7.2068674998
 20
4.3339372894
 30
0.0
 11
7.1895469917
 21
4.3339372894
 31
0.0
  0
LINE
  5
17A
330
1F
100
AcDbEntity
  8
0
  6
Continuous
 62
     7
370
     0
100
AcDbLine
 10
7.1895469917
 20
4.3339372894
 30
0.0
 11
7.1895469917
 21
5.2789372894
 31
0.0
  0
LINE
  5
17B
330
1F
100
AcDbEntity
  8
0
  6
Continuous
 62
     7
370
     0
100
AcDbLine
 10
7.1895469917
 20
3.3589372894
 30
0.0
 11
7.1895469917
 21
4.3039372894
 31
0.0
  0
LINE
  5
17C
330
1F
100
AcDbEntity
  8
0
  6
Continuous
 62
     7
370
     0
100
AcDbLine
 10
7.1895469917
 20
4.3039372894
 30
0.0
 11
7.2068674998
 21
4.3039372894
 31
0.0
  0
LINE
  5
17D
330
1F
100
AcDbEntity
  8
0
  6
Continuous
 62
     7
370
     0
100
AcDbLine
 10
7.0594323362
 20
3.3014372894
 30
0.0
 11
7.0494323362
 21
3.2841167813
 31
0.0
  0
LINE
  5
17E
330
1F
100
AcDbEntity
  8
0
  6
Continuous
 62
     7
370
     0
100
AcDbLine
 10
7.0594323362
 20
3.3014372894
 30
0.0
 11
7.3994323362
 21
3.3014372894
 31
0.0
  0
LINE
  5
17F
330
1F
100
AcDbEntity
  8
0
  6
Continuous
 62
     7
370
     0
100
AcDbLine
 10
7.3994323362
 20
3.3014372894
 30
0.0
 11
7.3994323362
 21
3.2914372894
 31
0.0
  0
LINE
  5
180
330
1F
100
AcDbEntity
  8
0
  6
Continuous
 62
     7
370
     0
100
AcDbLine
 10
7.3994323362
 20
3.2914372894
 30
0.0
 11
7.4094323362
 21
3.2914372894
 31
0.0
  0
LINE
  5
181
330
1F
100
AcDbEntity
  8
0
  6
Continuous
 62
     7
370
     0
100
AcDbLine
 10
7.4094323362
 20
3.2914372894
 30
0.0
 11
7.4094323362
 21
3.3689372894
 31
0.0
  0
LINE
  5
182
330
1F
100
AcDbEntity
  8
0
  6
Continuous
 62
     7
370
     0
100
AcDbLine
 10
7.4094323362
 20
3.3689372894
 30
0.0
 11
7.5594323362
 21
3.3689372894
 31
0.0
  0
LINE
  5
183
330
1F
100
AcDbEntity
  8
0
  6
Continuous
 62
     7
370
     0
100
AcDbLine
 10
7.5594323362
 20
3.3689372894
 30
0.0
 11
7.5594323362
 21
3.3187577975
 31
0.0
  0
LINE
  5
184
330
1F
100
AcDbEntity
  8
0
  6
Continuous
 62
     7
370
     0
100
AcDbLine
 10
7.5494323362
 20
3.3014372894
 30
0.0
 11
7.5594323362
 21
3.3187577975
 31
0.0
  0
LINE
  5
185
330
1F
100
AcDbEntity
  8
0
  6
Continuous
 62
     7
370
     0
100
AcDbLine
 10
7.5494323362
 20
3.3014372894
 30
0.0
 11
7.4494323362
 21
3.3014372894
 31
0.0
  0
LINE
  5
186
330
1F
100
AcDbEntity
  8
0
  6
Continuous
 62
     7
370
     0
100
AcDbLine
 10
7.4494323362
 20
3.3014372894
 30
0.0
 11
7.4494323362
 21
3.3114372894
 31
0.0
  0
LINE
  5
187
330
1F
100
AcDbEntity
  8
0
  6
Continuous
 62
     7
370
     0
100
AcDbLine
 10
7.4494323362
 20
3.3114372894
 30
0.0
 11
7.4394323362
 21
3.3114372894
 31
0.0
  0
LINE
  5
188
330
1F
100
AcDbEntity
  8
0
  6
Continuous
 62
     7
370
     0
100
AcDbLine
 10
7.4394323362
 20
3.3114372894
 30
0.0
 11
7.4394323362
 21
3.2289372894
 31
0.0
  0
LINE
  5
189
330
1F
100
AcDbEntity
  8
0
  6
Continuous
 62
     7
370
     0
100
AcDbLine
 10
7.4294323362
 20
3.2189372894
 30
0.0
 11
7.4394323362
 21
3.2289372894
 31
0.0
  0
LINE
  5
18A
330
1F
100
AcDbEntity
  8
0
  6
Continuous
 62
     7
370
     0
100
AcDbLine
 10
7.4294323362
 20
3.2189372894
 30
0.0
 11
7.2844323362
 21
3.2189372894
 31
0.0
  0
LINE
  5
18B
330
1F
100
AcDbEntity
  8
0
  6
Continuous
 62
     7
370
     0
100
AcDbLine
 10
7.2844323362
 20
3.2189372894
 30
0.0
 11
7.263912902
 21
3.2189372894
 31
0.0
  0
LINE
  5
18C
330
1F
100
AcDbEntity
  8
0
  6
Continuous
 62
     7
370
     0
100
AcDbLine
 10
7.263912902
 20
3.2189372894
 30
0.0
 11
7.2406462155
 21
3.2189372894
 31
0.0
  0
LINE
  5
18D
330
1F
100
AcDbEntity
  8
0
  6
Continuous
 62
     7
370
     0
100
AcDbLine
 10
7.2406462155
 20
3.2189372894
 30
0.0
 11
7.2106344835
 21
3.2189372894
 31
0.0
  0
LINE
  5
18E
330
1F
100
AcDbEntity
  8
0
  6
Continuous
 62
     7
370
     0
100
AcDbLine
 10
7.2106344835
 20
3.2189372894
 30
0.0
 11
7.0594323362
 21
3.2189372894
 31
0.0
  0
LINE
  5
18F
330
1F
100
AcDbEntity
  8
0
  6
Continuous
 62
     7
370
     0
100
AcDbLine
 10
7.0494323362
 20
3.2289372894
 30
0.0
 11
7.0594323362
 21
3.2189372894
 31
0.0
  0
LINE
  5
190
330
1F
100
AcDbEntity
  8
0
  6
Continuous
 62
     7
370
     0
100
AcDbLine
 10
7.0494323362
 20
3.2289372894
 30
0.0
 11
7.0494323362
 21
3.2841167813
 31
0.0
  0
LINE
  5
191
330
1F
100
AcDbEntity
  8
0
  6
Continuous
 62
     7
370
     0
100
AcDbLine
 10
7.2044323362
 20
5.4189372894
 30
0.0
 11
7.2126652597
 21
5.4189372894
 31
0.0
  0
LINE
  5
192
330
1F
100
AcDbEntity
  8
0
  6
Continuous
 62
     7
370
     0
100
AcDbLine
 10
7.2126652597
 20
5.4189372894
 30
0.0
 11
7.2702006984
 21
5.4189372894
 31
0.0
  0
LINE
  5
193
330
1F
100
AcDbEntity
  8
0
  6
Continuous
 62
     7
370
     0
100
AcDbLine
 10
7.2702006984
 20
5.4189372894
 30
0.0
 11
7.2844323362
 21
5.4189372894
 31
0.0
  0
LINE
  5
194
330
1F
100
AcDbEntity
  8
0
  6
Continuous
 62
     7
370
     0
100
AcDbLine
 10
7.2844323362
 20
5.4189372894
 30
0.0
 11
7.3393711815
 21
5.4189372894
 31
0.0
  0
LINE
  5
195
330
1F
100
AcDbEntity
  8
0
  6
Continuous
 62
     7
370
     0
100
AcDbLine
 10
7.3393711815
 20
5.4189372894
 30
0.0
 11
7.3606739214
 21
5.4189372894
 31
0.0
  0
LINE
  5
196
330
1F
100
AcDbEntity
  8
0
  6
Continuous
 62
     7
370
     0
100
AcDbLine
 10
7.3606739214
 20
5.4189372894
 30
0.0
 11
7.4294323362
 21
5.4189372894
 31
0.0
  0
LINE
  5
197
330
1F
100
AcDbEntity
  8
0
  6
Continuous
 62
     7
370
     0
100
AcDbLine
 10
7.4394323362
 20
5.4089372894
 30
0.0
 11
7.4294323362
 21
5.4189372894
 31
0.0
  0
LINE
  5
198
330
1F
100
AcDbEntity
  8
0
  6
Continuous
 62
     7
370
     0
100
AcDbLine
 10
7.4394323362
 20
5.4089372894
 30
0.0
 11
7.4394323362
 21
5.3264372894
 31
0.0
  0
LINE
  5
199
330
1F
100
AcDbEntity
  8
0
  6
Continuous
 62
     7
370
     0
100
AcDbLine
 10
7.4394323362
 20
5.3264372894
 30
0.0
 11
7.4494323362
 21
5.3264372894
 31
0.0
  0
LINE
  5
19A
330
1F
100
AcDbEntity
  8
0
  6
Continuous
 62
     7
370
     0
100
AcDbLine
 10
7.4494323362
 20
5.3264372894
 30
0.0
 11
7.4494323362
 21
5.3364372894
 31
0.0
  0
LINE
  5
19B
330
1F
100
AcDbEntity
  8
0
  6
Continuous
 62
     7
370
     0
100
AcDbLine
 10
7.4494323362
 20
5.3364372894
 30
0.0
 11
7.5494323362
 21
5.3364372894
 31
0.0
  0
LINE
  5
19C
330
1F
100
AcDbEntity
  8
0
  6
Continuous
 62
     7
370
     0
100
AcDbLine
 10
7.5594323362
 20
5.3191167813
 30
0.0
 11
7.5494323362
 21
5.3364372894
 31
0.0
  0
LINE
  5
19D
330
1F
100
AcDbEntity
  8
0
  6
Continuous
 62
     7
370
     0
100
AcDbLine
 10
7.5594323362
 20
5.3191167813
 30
0.0
 11
7.5594323362
 21
5.2689372894
 31
0.0
  0
LINE
  5
19E
330
1F
100
AcDbEntity
  8
0
  6
Continuous
 62
     7
370
     0
100
AcDbLine
 10
7.5594323362
 20
5.2689372894
 30
0.0
 11
7.4094323362
 21
5.2689372894
 31
0.0
  0
LINE
  5
19F
330
1F
100
AcDbEntity
  8
0
  6
Continuous
 62
     7
370
     0
100
AcDbLine
 10
7.4094323362
 20
5.2689372894
 30
0.0
 11
7.4094323362
 21
5.3464372894
 31
0.0
  0
LINE
  5
1A0
330
1F
100
AcDbEntity
  8
0
  6
Continuous
 62
     7
370
     0
100
AcDbLine
 10
7.4094323362
 20
5.3464372894
 30
0.0
 11
7.3994323362
 21
5.3464372894
 31
0.0
  0
LINE
  5
1A1
330
1F
100
AcDbEntity
  8
0
  6
Continuous
 62
     7
370
     0
100
AcDbLine
 10
7.3994323362
 20
5.3464372894
 30
0.0
 11
7.3994323362
 21
5.3364372894
 31
0.0
  0
LINE
  5
1A2
330
1F
100
AcDbEntity
  8
0
  6
Continuous
 62
     7
370
     0
100
AcDbLine
 10
7.3994323362
 20
5.3364372894
 30
0.0
 11
7.0594323362
 21
5.3364372894
 31
0.0
  0
LINE
  5
1A3
330
1F
100
AcDbEntity
  8
0
  6
Continuous
 62
     7
370
     0
100
AcDbLine
 10
7.0494323362
 20
5.3537577975
 30
0.0
 11
7.0594323362
 21
5.3364372894
 31
0.0
  0
LINE
  5
1A4
330
1F
100
AcDbEntity
  8
0
  6
Continuous
 62
     7
370
     0
100
AcDbLine
 10
7.0494323362
 20
5.3537577975
 30
0.0
 11
7.0494323362
 21
5.4089372894
 31
0.0
  0
LINE
  5
1A5
330
1F
100
AcDbEntity
  8
0
  6
Continuous
 62
     7
370
     0
100
AcDbLine
 10
7.0594323362
 20
5.4189372894
 30
0.0
 11
7.0494323362
 21
5.4089372894
 31
0.0
  0
LINE
  5
1A6
330
1F
100
AcDbEntity
  8
0
  6
Continuous
 62
     7
370
     0
100
AcDbLine
 10
7.0594323362
 20
5.4189372894
 30
0.0
 11
7.2044323362
 21
5.4189372894
 31
0.0
  0
LINE
  5
1A7
330
1F
100
AcDbEntity
  8
0
  6
Continuous
 62
     7
370
     0
100
AcDbLine
 10
7.5594323362
 20
3.3689372894
 30
0.0
 11
7.5594323362
 21
5.2689372894
 31
0.0
  0
LINE
  5
1A8
330
1F
100
AcDbEntity
  8
0
  6
Continuous
 62
     7
370
     0
100
AcDbLine
 10
7.0594323362
 20
5.3364372894
 30
0.0
 11
7.0594323362
 21
3.3014372894
 31
0.0
  0
LINE
  5
1A9
330
1F
100
AcDbEntity
  8
0
  6
Continuous
 62
     7
370
     0
100
AcDbLine
 10
7.3994323362
 20
3.3014372894
 30
0.0
 11
7.3994323362
 21
3.3189372894
 31
0.0
  0
LINE
  5
1AA
330
1F
100
AcDbEntity
  8
0
  6
Continuous
 62
     7
370
     0
100
AcDbLine
 10
7.3994323362
 20
5.3189372894
 30
0.0
 11
7.3994323362
 21
5.3364372894
 31
0.0
  0
LINE
  5
1AB
330
1F
100
AcDbEntity
  8
0
  6
Continuous
 62
     7
370
     0
100
AcDbLine
 10
7.0494323362
 20
3.2841167813
 30
0.0
 11
7.0494323362
 21
5.3537577975
 31
0.0
  0
HATCH
  5
1AC
330
1F
100
AcDbEntity
  8
0
  6
Continuous
 62
     7
370
     0
100
AcDbHatch
 10
0.0
 20
0.0
 30
0.0
210
0.0
220
0.0
230
1.0
  2
ANSI31
 70
     0
 71
     0
 91
        1
 92
        0
 93
       22
 72
     1
 10
7.204432336226961
 20
5.418937289423173
 11
7.05943233622696
 21
5.418937289423173
 72
     1
 10
7.05943233622696
 20
5.418937289423173
 11
7.049432336226961
 21
5.408937289423173
 72
     1
 10
7.049432336226961
 20
5.408937289423173
 11
7.049432336226961
 21
5.353757797498861
 72
     1
 10
7.049432336226961
 20
5.353757797498861
 11
7.059432336226961
 21
5.336437289423173
 72
     1
 10
7.059432336226961
 20
5.336437289423173
 11
7.399432336226961
 21
5.336437289423173
 72
     1
 10
7.399432336226961
 20
5.336437289423173
 11
7.399432336226961
 21
5.346437289423172
 72
     1
 10
7.399432336226961
 20
5.346437289423172
 11
7.409432336226962
 21
5.346437289423172
 72
     1
 10
7.409432336226962
 20
5.346437289423172
 11
7.409432336226962
 21
5.268937289423174
 72
     1
 10
7.409432336226962
 20
5.268937289423174
 11
7.559432336226962
 21
5.268937289423174
 72
     1
 10
7.559432336226962
 20
5.268937289423174
 11
7.559432336226962
 21
5.319116781347484
 72
     1
 10
7.559432336226962
 20
5.319116781347484
 11
7.549432336226961
 21
5.336437289423173
 72
     1
 10
7.549432336226961
 20
5.336437289423173
 11
7.449432336226961
 21
5.336437289423173
 72
     1
 10
7.449432336226961
 20
5.336437289423173
 11
7.449432336226961
 21
5.326437289423173
 72
     1
 10
7.449432336226961
 20
5.326437289423173
 11
7.439432336226961
 21
5.326437289423173
 72
     1
 10
7.439432336226961
 20
5.326437289423173
 11
7.439432336226961
 21
5.408937289423173
 72
     1
 10
7.439432336226961
 20
5.408937289423173
 11
7.429432336226962
 21
5.418937289423173
 72
     1
 10
7.429432336226962
 20
5.418937289423173
 11
7.360673921425494
 21
5.418937289423173
 72
     1
 10
7.360673921425494
 20
5.418937289423173
 11
7.339371181523257
 21
5.418937289423173
 72
     1
 10
7.339371181523257
 20
5.418937289423173
 11
7.284432336226961
 21
5.418937289423173
 72
     1
 10
7.284432336226961
 20
5.418937289423173
 11
7.27020069839777
 21
5.418937289423173
 72
     1
 10
7.27020069839777
 20
5.418937289423173
 11
7.212665259691155
 21
5.418937289423173
 72
     1
 10
7.212665259691155
 20
5.418937289423173
 11
7.204432336226961
 21
5.418937289423173
 97
        0
 75
     0
 76
     1
 52
0.0
 41
1.0
 77
     0
 78
     1
 53
45.0
 43
0.0
 44
0.0
 45
-0.0883883476483184
 46
0.0883883476483184
 79
     0
 98
        1
 10
0.0
 20
0.0
  0
HATCH
  5
1AD
330
1F
100
AcDbEntity
  8
0
  6
Continuous
 62
     7
370
     0
100
AcDbHatch
 10
0.0
 20
0.0
 30
0.0
210
0.0
220
0.0
230
1.0
  2
ANSI31
 70
     0
 71
     0
 91
        1
 92
        0
 93
       20
 72
     1
 10
7.049432336226961
 20
3.284116781347484
 11
7.049432336226961
 21
3.228937289423172
 72
     1
 10
7.049432336226961
 20
3.228937289423172
 11
7.05943233622696
 21
3.218937289423173
 72
     1
 10
7.05943233622696
 20
3.218937289423173
 11
7.210634483451499
 21
3.218937289423173
 72
     1
 10
7.210634483451499
 20
3.218937289423173
 11
7.240646215518939
 21
3.218937289423173
 72
     1
 10
7.240646215518939
 20
3.218937289423173
 11
7.263912901957553
 21
3.218937289423173
 72
     1
 10
7.263912901957553
 20
3.218937289423173
 11
7.284432336226961
 21
3.218937289423173
 72
     1
 10
7.284432336226961
 20
3.218937289423173
 11
7.429432336226962
 21
3.218937289423172
 72
     1
 10
7.429432336226962
 20
3.218937289423172
 11
7.439432336226961
 21
3.228937289423172
 72
     1
 10
7.439432336226961
 20
3.228937289423172
 11
7.439432336226961
 21
3.311437289423173
 72
     1
 10
7.439432336226961
 20
3.311437289423173
 11
7.449432336226961
 21
3.311437289423173
 72
     1
 10
7.449432336226961
 20
3.311437289423173
 11
7.449432336226961
 21
3.301437289423173
 72
     1
 10
7.449432336226961
 20
3.301437289423173
 11
7.549432336226961
 21
3.301437289423173
 72
     1
 10
7.549432336226961
 20
3.301437289423173
 11
7.559432336226962
 21
3.318757797498862
 72
     1
 10
7.559432336226962
 20
3.318757797498862
 11
7.559432336226962
 21
3.368937289423173
 72
     1
 10
7.559432336226962
 20
3.368937289423173
 11
7.409432336226962
 21
3.368937289423173
 72
     1
 10
7.409432336226962
 20
3.368937289423173
 11
7.409432336226962
 21
3.291437289423173
 72
     1
 10
7.409432336226962
 20
3.291437289423173
 11
7.399432336226961
 21
3.291437289423173
 72
     1
 10
7.399432336226961
 20
3.291437289423173
 11
7.399432336226961
 21
3.301437289423173
 72
     1
 10
7.399432336226961
 20
3.301437289423173
 11
7.059432336226961
 21
3.301437289423173
 72
     1
 10
7.059432336226961
 20
3.301437289423173
 11
7.049432336226961
 21
3.284116781347484
 97
        0
 75
     0
 76
     1
 52
0.0
 41
1.0
 77
     0
 78
     1
 53
45.0
 43
0.0
 44
0.0
 45
-0.0883883476483184
 46
0.0883883476483184
 79
     0
 98
        1
 10
0.0
 20
0.0
  0
HATCH
  5
1AE
330
1F
100
AcDbEntity
  8
0
  6
Continuous
 62
     7
370
     0
100
AcDbHatch
 10
0.0
 20
0.0
 30
0.0
210
0.0
220
0.0
230
1.0
  2
ANSI31
 70
     0
 71
     0
 91
        1
 92
        0
 93
        8
 72
     1
 10
7.289546991724914
 20
3.311437289423175
 11
7.289546991724914
 21
3.351616781347486
 72
     1
 10
7.289546991724914
 20
3.351616781347486
 11
7.279546991724915
 21
3.368937289423175
 72
     1
 10
7.279546991724915
 20
3.368937289423175
 11
7.206867499800605
 21
3.368937289423175
 72
     1
 10
7.206867499800605
 20
3.368937289423175
 11
7.189546991724915
 21
3.358937289423174
 72
     1
 10
7.189546991724915
 20
3.358937289423174
 11
7.189546991724915
 21
3.318757797498862
 72
     1
 10
7.189546991724915
 20
3.318757797498862
 11
7.199546991724914
 21
3.301437289423175
 72
     1
 10
7.199546991724914
 20
3.301437289423175
 11
7.272226483649225
 21
3.301437289423175
 72
     1
 10
7.272226483649225
 20
3.301437289423175
 11
7.289546991724914
 21
3.311437289423175
 97
        0
 75
     0
 76
     1
 52
90.0
 41
0.25
 77
     0
 78
     1
 53
135.0000000000002
 43
0.0
 44
0.0
 45
-0.0220970869120795
 46
-0.0220970869120797
 79
     0
 98
        1
 10
0.0
 20
0.0
  0
HATCH
  5
1AF
330
1F
100
AcDbEntity
  8
0
  6
Continuous
 62
     7
370
     0
100
AcDbHatch
 10
0.0
 20
0.0
 30
0.0
210
0.0
220
0.0
230
1.0
  2
ANSI31
 70
     0
 71
     0
 91
        1
 92
        0
 93
        8
 72
     1
 10
7.206867499800605
 20
5.268937289423175
 11
7.279546991724915
 21
5.268937289423175
 72
     1
 10
7.279546991724915
 20
5.268937289423175
 11
7.289546991724914
 21
5.286257797498863
 72
     1
 10
7.289546991724914
 20
5.286257797498863
 11
7.289546991724914
 21
5.326437289423174
 72
     1
 10
7.289546991724914
 20
5.326437289423174
 11
7.272226483649225
 21
5.336437289423175
 72
     1
 10
7.272226483649225
 20
5.336437289423175
 11
7.199546991724914
 21
5.336437289423175
 72
     1
 10
7.199546991724914
 20
5.336437289423175
 11
7.189546991724915
 21
5.319116781347486
 72
     1
 10
7.189546991724915
 20
5.319116781347486
 11
7.189546991724915
 21
5.278937289423176
 72
     1
 10
7.189546991724915
 20
5.278937289423176
 11
7.206867499800605
 21
5.268937289423175
 97
        0
 75
     0
 76
     1
 52
90.0
 41
0.25
 77
     0
 78
     1
 53
135.0000000000002
 43
0.0
 44
0.0
 45
-0.0220970869120795
 46
-0.0220970869120797
 79
     0
 98
        1
 10
0.0
 20
0.0
  0
HATCH
  5
1B0
330
1F
100
AcDbEntity
  8
0
  6
Continuous
 62
     7
370
     0
100
AcDbHatch
 10
0.0
 20
0.0
 30
0.0
210
0.0
220
0.0
230
1.0
  2
ANSI31
 70
     0
 71
     0
 91
        1
 92
        0
 93
        9
 72
     2
 10
25.37793623543314
 20
4.317767036040889
 40
18.11417322834646
 50
179.9962984465828
 51
183.1298141866192
 73
     1
 72
     1
 10
7.290782199878205
 20
3.328762162113325
 11
7.301164619691524
 21
3.318937289423172
 72
     1
 10
7.301164619691524
 20
3.318937289423172
 11
7.399589816541922
 21
3.318937289423172
 72
     1
 10
7.399589816541922
 20
3.318937289423172
 11
7.409432336226962
 21
3.328779809108212
 72
     1
 10
7.409432336226962
 20
3.328779809108212
 11
7.409432336226962
 21
5.309094769738134
 72
     1
 10
7.409432336226962
 20
5.309094769738134
 11
7.399589816541922
 21
5.318937289423174
 72
     1
 10
7.399589816541922
 20
5.318937289423174
 11
7.301164619691524
 21
5.318937289423173
 72
     1
 10
7.301164619691524
 20
5.318937289423173
 11
7.290782199878205
 21
5.30911241673302
 72
     2
 10
25.37793623543314
 20
4.320107542805457
 40
18.11417322834646
 50
176.8701858133816
 51
180.003701553418
 73
     1
 97
        0
 75
     0
 76
     1
 52
0.0
 41
1.0
 77
     0
 78
     1
 53
45.0
 43
0.0
 44
0.0
 45
-0.0883883476483184
 46
0.0883883476483184
 79
     0
 98
        1
 10
0.0
 20
0.0
  0
DIMENSION
  5
1B1
330
1F
100
AcDbEntity
  8
0
  6
Continuous
 62
     7
370
     0
100
AcDbDimension
  2
_D_1
 10
8.4194104174
 20
3.3689372894
 30
0.0
 11
8.4194104174
 21
4.3189372894
 31
0.0
 70
   160
  1
%%c<>
 71
     2
 42
-1.0
  3
SLDDIMSTYLE1
100
AcDbAlignedDimension
 13
7.5594323362
 23
5.2689372894
 33
0.0
 14
7.5594323362
 24
3.3689372894
 34
0.0
 50
90.0
100
AcDbRotatedDimension
  0
DIMENSION
  5
1C5
330
1F
100
AcDbEntity
  8
0
  6
Continuous
 62
     7
370
     0
100
AcDbDimension
  2
_D_2
 10
7.5594323362
 20
6.0488585493
 30
0.0
 11
8.4255740685
 21
6.0488585493
 31
0.0
 70
   160
  1
<>
 71
     2
 42
-1.0
  3
SLDDIMSTYLE2
100
AcDbAlignedDimension
 13
7.0494323362
 23
5.4089372894
 33
0.0
 14
7.5594323362
 24
5.3191167813
 34
0.0
100
AcDbRotatedDimension
  0
DIMENSION
  5
1DA
330
1F
100
AcDbEntity
  8
0
  6
Continuous
 62
     7
370
     0
100
AcDbDimension
  2
_D_3
 10
7.5594323362
 20
5.6120747985
 30
0.0
 11
8.4255740685
 21
5.6120747985
 31
0.0
 70
   160
  1
<>
 71
     2
 42
-1.0
  3
SLDDIMSTYLE2
100
AcDbAlignedDimension
 13
7.4394323362
 23
5.4089372894
 33
0.0
 14
7.5594323362
 24
5.3191167813
 34
0.0
100
AcDbRotatedDimension
  0
INSERT
  5
1F5
102
{ACAD_REACTORS
330
1F7
102
}
330
1F
100
AcDbEntity
  8
0
  6
Continuous
 62
     7
370
     0
100
AcDbBlockReference
  2
SW_NOTE_5
 10
6.4165873115
 20
3.6749981752
 30
0.0
  0
LEADER
  5
1F7
330
1F
100
AcDbEntity
  8
0
  6
Continuous
 62
     7
370
     0
100
AcDbLeader
  3
SLDDIMSTYLE3
 73
     2
 76
     3
 10
7.1206771511
 20
3.3014372894
 30
0.0
 10
6.6665873115
 20
3.6749981752
 30
0.0
 10
6.4165873115
 20
3.6749981752
 30
0.0
340
1F5
  0
INSERT
  5
1FE
102
{ACAD_REACTORS
330
1FF
102
}
330
1F
100
AcDbEntity
  8
0
  6
Continuous
 62
     7
370
     0
100
AcDbBlockReference
  2
SW_NOTE_6
 10
8.3633579893
 20
2.6688739408
 30
0.0
  0
LEADER
  5
1FF
330
1F
100
AcDbEntity
  8
0
  6
Continuous
 62
     7
370
     0
100
AcDbLeader
  3
SLDDIMSTYLE3
 73
     2
 76
     3
 10
7.5123306071
 20
3.3014372894
 30
0.0
 10
8.1133579893
 20
2.6688739408
 30
0.0
 10
8.3633579893
 20
2.6688739408
 30
0.0
340
1FE
  0
INSERT
  5
205
102
{ACAD_REACTORS
330
206
102
}
330
1F
100
AcDbEntity
  8
0
  6
Continuous
 62
     7
370
     0
100
AcDbBlockReference
  2
SW_NOTE_7
 10
6.3975238986
 20
4.0788316233
 30
0.0
  0
LEADER
  5
206
330
1F
100
AcDbEntity
  8
0
  6
Continuous
 62
     7
370
     0
100
AcDbLeader
  3
SLDDIMSTYLE3
 73
     2
 76
     3
 10
7.1895469917
 20
3.483503051
 30
0.0
 10
6.6435868908
 20
4.0788316233
 30
0.0
 10
6.3975238986
 20
4.0788316233
 30
0.0
340
205
  0
INSERT
  5
20C
102
{ACAD_REACTORS
330
20D
102
}
330
1F
100
AcDbEntity
  8
0
  6
Continuous
 62
     7
370
     0
100
AcDbBlockReference
  2
SW_NOTE_8
 10
6.5804555776
 20
2.6829833771
 30
0.0
  0
LEADER
  5
20D
330
1F
100
AcDbEntity
  8
0
  6
Continuous
 62
     7
370
     0
100
AcDbLeader
  3
SLDDIMSTYLE3
 73
     2
 76
     3
 10
7.1986238498
 20
3.2189372894
 30
0.0
 10
6.8265185698
 20
2.6829833771
 30
0.0
 10
6.5804555776
 20
2.6829833771
 30
0.0
340
20C
  0
INSERT
  5
213
102
{ACAD_REACTORS
330
214
102
}
330
1F
100
AcDbEntity
  8
0
  6
Continuous
 62
     7
370
     0
100
AcDbBlockReference
  2
SW_NOTE_9
 10
8.2409871966
 20
3.0130557544
 30
0.0
  0
LEADER
  5
214
330
1F
100
AcDbEntity
  8
0
  6
Continuous
 62
     7
370
     0
100
AcDbLeader
  3
SLDDIMSTYLE3
 73
     2
 76
     3
 10
7.4094323362
 20
3.5804069988
 30
0.0
 10
7.9949242044
 20
3.0130557544
 30
0.0
 10
8.2409871966
 20
3.0130557544
 30
0.0
340
213
  0
OLE2FRAME
  5
215
330
1F
100
AcDbEntity
  8
0
100
AcDbOle2Frame
 70
     2
  3
Paintbrush Picture
 10
9.0178120406
 20
1.3267570784
 30
0.0
 11
10.4397105087
 21
1.1242314806
 31
0.0
 71
     2
 72
     0
 73
     1
 90
     7296
310
8055C64EE7A81E092240C05F59A1653AF53F0000000000000000FD155DBC21E1
310
2440C05F59A1653AF53F0000000000000000FD155DBC21E12440A1732426DAFC
310
F13F0000000000000000C64EE7A81E092240A1732426DAFCF13F000000000000
310
00000000000001000000000100000100000001000000000001000000001C0000
310
D0CF11E0A1B11AE1000000000000000000000000000000003E000300FEFF0900
310
0600000000000000000000000100000001000000000000000010000002000000
310
01000000FEFFFFFF0000000000000000FFFFFFFFFFFFFFFFFFFFFFFFFFFFFFFF
310
FFFFFFFFFFFFFFFFFFFFFFFFFFFFFFFFFFFFFFFFFFFFFFFFFFFFFFFFFFFFFFFF
310
FFFFFFFFFFFFFFFFFFFFFFFFFFFFFFFFFFFFFFFFFFFFFFFFFFFFFFFFFFFFFFFF
310
FFFFFFFFFFFFFFFFFFFFFFFFFFFFFFFFFFFFFFFFFFFFFFFFFFFFFFFFFFFFFFFF
310
FFFFFFFFFFFFFFFFFFFFFFFFFFFFFFFFFFFFFFFFFFFFFFFFFFFFFFFFFFFFFFFF
310
FFFFFFFFFFFFFFFFFFFFFFFFFFFFFFFFFFFFFFFFFFFFFFFFFFFFFFFFFFFFFFFF
310
FFFFFFFFFFFFFFFFFFFFFFFFFFFFFFFFFFFFFFFFFFFFFFFFFFFFFFFFFFFFFFFF
310
FFFFFFFFFFFFFFFFFFFFFFFFFFFFFFFFFFFFFFFFFFFFFFFFFFFFFFFFFFFFFFFF
310
FFFFFFFFFFFFFFFFFFFFFFFFFFFFFFFFFFFFFFFFFFFFFFFFFFFFFFFFFFFFFFFF
310
FFFFFFFFFFFFFFFFFFFFFFFFFFFFFFFFFFFFFFFFFFFFFFFFFFFFFFFFFFFFFFFF
310
FFFFFFFFFFFFFFFFFFFFFFFFFFFFFFFFFFFFFFFFFFFFFFFFFFFFFFFFFFFFFFFF
310
FFFFFFFFFFFFFFFFFFFFFFFFFFFFFFFFFFFFFFFFFFFFFFFFFFFFFFFFFFFFFFFF
310
FFFFFFFFFFFFFFFFFFFFFFFFFFFFFFFFFFFFFFFFFFFFFFFFFFFFFFFFFFFFFFFF
310
FFFFFFFFFFFFFFFFFFFFFFFFFFFFFFFFFFFFFFFFFFFFFFFFFFFFFFFFFFFFFFFF
310
FDFFFFFFFEFFFFFFFEFFFFFFFEFFFFFF05000000060000000700000008000000
310
090000000A0000000B0000000C000000FEFFFFFFFFFFFFFFFFFFFFFFFFFFFFFF
310
FFFFFFFFFFFFFFFFFFFFFFFFFFFFFFFFFFFFFFFFFFFFFFFFFFFFFFFFFFFFFFFF
310
FFFFFFFFFFFFFFFFFFFFFFFFFFFFFFFFFFFFFFFFFFFFFFFFFFFFFFFFFFFFFFFF
310
FFFFFFFFFFFFFFFFFFFFFFFFFFFFFFFFFFFFFFFFFFFFFFFFFFFFFFFFFFFFFFFF
310
FFFFFFFFFFFFFFFFFFFFFFFFFFFFFFFFFFFFFFFFFFFFFFFFFFFFFFFFFFFFFFFF
310
FFFFFFFFFFFFFFFFFFFFFFFFFFFFFFFFFFFFFFFFFFFFFFFFFFFFFFFFFFFFFFFF
310
FFFFFFFFFFFFFFFFFFFFFFFFFFFFFFFFFFFFFFFFFFFFFFFFFFFFFFFFFFFFFFFF
310
FFFFFFFFFFFFFFFFFFFFFFFFFFFFFFFFFFFFFFFFFFFFFFFFFFFFFFFFFFFFFFFF
310
FFFFFFFFFFFFFFFFFFFFFFFFFFFFFFFFFFFFFFFFFFFFFFFFFFFFFFFFFFFFFFFF
310
FFFFFFFFFFFFFFFFFFFFFFFFFFFFFFFFFFFFFFFFFFFFFFFFFFFFFFFFFFFFFFFF
310
FFFFFFFFFFFFFFFFFFFFFFFFFFFFFFFFFFFFFFFFFFFFFFFFFFFFFFFFFFFFFFFF
310
FFFFFFFFFFFFFFFFFFFFFFFFFFFFFFFFFFFFFFFFFFFFFFFFFFFFFFFFFFFFFFFF
310
FFFFFFFFFFFFFFFFFFFFFFFFFFFFFFFFFFFFFFFFFFFFFFFFFFFFFFFFFFFFFFFF
310
FFFFFFFFFFFFFFFFFFFFFFFFFFFFFFFFFFFFFFFFFFFFFFFFFFFFFFFFFFFFFFFF
310
FFFFFFFFFFFFFFFFFFFFFFFFFFFFFFFFFFFFFFFFFFFFFFFFFFFFFFFFFFFFFFFF
310
52006F006F007400200045006E00740072007900000000000000000000000000
310
0000000000000000000000000000000000000000000000000000000000000000
310
16000500FFFFFFFFFFFFFFFF020000000A00030000000000C000000000000046
310
000000000000000000000000E0E746719062D10103000000C000000000000000
310
01004F006C006500000000000000000000000000000000000000000000000000
310
0000000000000000000000000000000000000000000000000000000000000000
310
0A000200FFFFFFFFFFFFFFFFFFFFFFFF00000000000000000000000000000000
310
0000000000000000000000000000000000000000000000001400000000000000
310
010043006F006D0070004F0062006A0000000000000000000000000000000000
310
0000000000000000000000000000000000000000000000000000000000000000
310
120002010100000003000000FFFFFFFF00000000000000000000000000000000
310
0000000000000000000000000000000000000000010000004D00000000000000
310
01004F006C006500310030004E00610074006900760065000000000000000000
310
0000000000000000000000000000000000000000000000000000000000000000
310
1A000200FFFFFFFFFFFFFFFFFFFFFFFF00000000000000000000000000000000
310
000000000000000000000000000000000000000004000000E411000000000000
310
FEFFFFFF02000000FEFFFFFFFFFFFFFFFFFFFFFFFFFFFFFFFFFFFFFFFFFFFFFF
310
FFFFFFFFFFFFFFFFFFFFFFFFFFFFFFFFFFFFFFFFFFFFFFFFFFFFFFFFFFFFFFFF
310
FFFFFFFFFFFFFFFFFFFFFFFFFFFFFFFFFFFFFFFFFFFFFFFFFFFFFFFFFFFFFFFF
310
FFFFFFFFFFFFFFFFFFFFFFFFFFFFFFFFFFFFFFFFFFFFFFFFFFFFFFFFFFFFFFFF
310
FFFFFFFFFFFFFFFFFFFFFFFFFFFFFFFFFFFFFFFFFFFFFFFFFFFFFFFFFFFFFFFF
310
FFFFFFFFFFFFFFFFFFFFFFFFFFFFFFFFFFFFFFFFFFFFFFFFFFFFFFFFFFFFFFFF
310
FFFFFFFFFFFFFFFFFFFFFFFFFFFFFFFFFFFFFFFFFFFFFFFFFFFFFFFFFFFFFFFF
310
FFFFFFFFFFFFFFFFFFFFFFFFFFFFFFFFFFFFFFFFFFFFFFFFFFFFFFFFFFFFFFFF
310
FFFFFFFFFFFFFFFFFFFFFFFFFFFFFFFFFFFFFFFFFFFFFFFFFFFFFFFFFFFFFFFF
310
FFFFFFFFFFFFFFFFFFFFFFFFFFFFFFFFFFFFFFFFFFFFFFFFFFFFFFFFFFFFFFFF
310
FFFFFFFFFFFFFFFFFFFFFFFFFFFFFFFFFFFFFFFFFFFFFFFFFFFFFFFFFFFFFFFF
310
FFFFFFFFFFFFFFFFFFFFFFFFFFFFFFFFFFFFFFFFFFFFFFFFFFFFFFFFFFFFFFFF
310
FFFFFFFFFFFFFFFFFFFFFFFFFFFFFFFFFFFFFFFFFFFFFFFFFFFFFFFFFFFFFFFF
310
FFFFFFFFFFFFFFFFFFFFFFFFFFFFFFFFFFFFFFFFFFFFFFFFFFFFFFFFFFFFFFFF
310
FFFFFFFFFFFFFFFFFFFFFFFFFFFFFFFFFFFFFFFFFFFFFFFFFFFFFFFFFFFFFFFF
310
FFFFFFFFFFFFFFFFFFFFFFFFFFFFFFFFFFFFFFFFFFFFFFFFFFFFFFFFFFFFFFFF
310
0100000200000000000000000000000000000000000000000000000000000000
310
0000000000000000000000000000000000000000000000000000000000000000
310
0100FEFF030A0000FFFFFFFF0A00030000000000C00000000000004607000000
310
5042727573680007000000504272757368000700000050427275736800F439B2
310
7100000000000000000000000000000000000000000000000000000000000000
310
0000000000000000000000000000000000000000000000000000000000000000
310
0000000000000000000000000000000000000000000000000000000000000000
310
0000000000000000000000000000000000000000000000000000000000000000
310
0000000000000000000000000000000000000000000000000000000000000000
310
0000000000000000000000000000000000000000000000000000000000000000
310
0000000000000000000000000000000000000000000000000000000000000000
310
0000000000000000000000000000000000000000000000000000000000000000
310
0000000000000000000000000000000000000000000000000000000000000000
310
0000000000000000000000000000000000000000000000000000000000000000
310
0000000000000000000000000000000000000000000000000000000000000000
310
0000000000000000000000000000000000000000000000000000000000000000
310
E0110000424DDE11000000000000360400002800000096000000170000000100
310
08000000000000000000E7240000E72400000001000000010000000000FF0101
310
01FF020202FF030303FF040404FF050505FF060606FF070707FF080808FF0909
310
09FF0A0A0AFF0B0B0BFF0C0C0CFF0D0D0DFF0E0E0EFF0F0F0FFF101010FF1111
310
11FF121212FF131313FF141414FF151515FF161616FF171717FF181818FF1919
310
19FF1A1A1AFF1B1B1BFF1C1C1CFF1D1D1DFF1E1E1EFF1F1F1FFF202020FF2121
310
21FF222222FF232323FF242424FF252525FF262626FF272727FF282828FF2929
310
29FF2A2A2AFF2B2B2BFF2C2C2CFF2D2D2DFF2E2E2EFF2F2F2FFF303030FF3131
310
31FF323232FF333333FF343434FF353535FF363636FF373737FF383838FF3939
310
39FF3A3A3AFF3B3B3BFF3C3C3CFF3D3D3DFF3E3E3EFF3F3F3FFF404040FF4141
310
41FF424242FF434343FF444444FF454545FF464646FF474747FF484848FF4949
310
49FF4A4A4AFF4B4B4BFF4C4C4CFF4D4D4DFF4E4E4EFF4F4F4FFF505050FF5151
310
51FF525252FF535353FF545454FF555555FF565656FF575757FF585858FF5959
310
59FF5A5A5AFF5B5B5BFF5C5C5CFF5D5D5DFF5E5E5EFF5F5F5FFF606060FF6161
310
61FF626262FF636363FF646464FF656565FF666666FF676767FF686868FF6969
310
69FF6A6A6AFF6B6B6BFF6C6C6CFF6D6D6DFF6E6E6EFF6F6F6FFF707070FF7171
310
71FF727272FF737373FF747474FF757575FF767676FF777777FF787878FF7979
310
79FF7A7A7AFF7B7B7BFF7C7C7CFF7D7D7DFF7E7E7EFF7F7F7FFF808080FF8181
310
81FF828282FF838383FF848484FF858585FF868686FF878787FF888888FF8989
310
89FF8A8A8AFF8B8B8BFF8C8C8CFF8D8D8DFF8E8E8EFF8F8F8FFF909090FF9191
310
91FF929292FF939393FF949494FF959595FF969696FF979797FF989898FF9999
310
99FF9A9A9AFF9B9B9BFF9C9C9CFF9D9D9DFF9E9E9EFF9F9F9FFFA0A0A0FFA1A1
310
A1FFA2A2A2FFA3A3A3FFA4A4A4FFA5A5A5FFA6A6A6FFA7A7A7FFA8A8A8FFA9A9
310
A9FFAAAAAAFFABABABFFACACACFFADADADFFAEAEAEFFAFAFAFFFB0B0B0FFB1B1
310
B1FFB2B2B2FFB3B3B3FFB4B4B4FFB5B5B5FFB6B6B6FFB7B7B7FFB8B8B8FFB9B9
310
B9FFBABABAFFBBBBBBFFBCBCBCFFBDBDBDFFBEBEBEFFBFBFBFFFC0C0C0FFC1C1
310
C1FFC2C2C2FFC3C3C3FFC4C4C4FFC5C5C5FFC6C6C6FFC7C7C7FFC8C8C8FFC9C9
310
C9FFCACACAFFCBCBCBFFCCCCCCFFCDCDCDFFCECECEFFCFCFCFFFD0D0D0FFD1D1
310
D1FFD2D2D2FFD3D3D3FFD4D4D4FFD5D5D5FFD6D6D6FFD7D7D7FFD8D8D8FFD9D9
310
D9FFDADADAFFDBDBDBFFDCDCDCFFDDDDDDFFDEDEDEFFDFDFDFFFE0E0E0FFE1E1
310
E1FFE2E2E2FFE3E3E3FFE4E4E4FFE5E5E5FFE6E6E6FFE7E7E7FFE8E8E8FFE9E9
310
E9FFEAEAEAFFEBEBEBFFECECECFFEDEDEDFFEEEEEEFFEFEFEFFFF0F0F0FFF1F1
310
F1FFF2F2F2FFF3F3F3FFF4F4F4FFF5F5F5FFF6F6F6FFF7F7F7FFF8F8F8FFF9F9
310
F9FFFAFAFAFFFBFBFBFFFCFCFCFFFDFDFDFFFEFEFEFFFFFFFFFFFFFFFFFFFFFF
310
C94E4E4E4F4E4EFFFFFFFFFFC94E4E4E4E4E72FFFFFFFFFFFFFF734E4D4E4E4E
310
C9FFFFFFFFFFAA683516171616265B9BE9FFFFFFFFFF4E4E4E4D4E4EFFFFFFFF
310
FFFFFFFF4E4E4F4E4D4E4E4E4F4E4E4F4D4E4E4E4E4E4D4E4F4E4D4E4E4EAAFF
310
FFFFFFFFFFEA4E4F4F4E4E4E4E4E4D4D4F4F4E4E4E4E4E5B7FAAFFFFFFFFFFFF
310
C9744E1716171616164D8DEAFFFFFFFF0000FFFFFFFFFFFFBA161617161716FF
310
FFFFFFFFB917171616174FFFFFFFFFFFFFFF4E1716161616B9FFFFFFB9341717
310
1716171617171616268CFFFFFFFF161617161617FFFFFFFFFFFFFFB917161717
310
1617167F807F7F7F7F7F7F807F7F807F7F807F7F7F414EFFFFFFFFFFFF8C167F
310
7F807F7F7F7E7F7F807F807F7F807F4E3417258EFFFFEA4E162674AABAEAEBBA
310
AA74341680FFFFFF0000FFFFFFFFFFFFB9171717171617FFFFFFFFFFBB161616
310
16164EFFFFFFFFFFFFFF4E1717171717B9FFFF9C171617171716161616171616
310
171766FFFFFF161717161617FFFFFFFFFFFFFF8E16171717161616FFFFFFFFFF
310
FFFFFFFFFFFFFFFFFFFFFFFFFFAA16D9FFFFFFFFFF3467FFFFFFFFEAFFFFFFFF
310
FFFFFFFFFFFFFFFFFFCA671667EB26278DFFFFFFFFFFFFFFFFFFFF8C2541EAFF
310
0000FFFFFFFFFFFFB9171717171716FFFFFFFFFFBA16171617174EFFFFFFFFFF
310
FFFF4E1717161616BAFF9B1617161616171716171617161616161667FFFF1616
310
16161716FFFFFFFFFFFFFF7F16161617174017FFFFFFFFFFFFFFFFFFFFFFFFFF
310
FFFFFFFFFFFF344E7F7F7F7E7417DAFFFFFFFF80FFFFFFFFFFFFFFFFFFFFFFFF
310
FFFFFF9B163425CAFFFFFFFFFFFFFFFFFFFFFFFFCA2667FF0000FFFFFFFFFFFF
310
BA171717171617FFFFFFFFFFB916171716164EFFFFFFFFFFFFFF4F1716161717
310
B9C91716171616161716161617171616161617168DFF161716161717FFFFFFFF
310
FFFFFF7F17171716164F16FFFFFFFFFFFFFFFFFFFFFFFFFFFFFFFFFFFFFF9B16
310
17161617174EFFFFFFFFFF34FFFFFFFFD9BABABABABADAFFFFFFFFFF7F16AAFF
310
FFFFFFFFFFFFFFFFFFFFFFFFFF9C16BA0000FFFFFFFFFFFFB9161717161717FF
310
FFFFFFFFB917161716174DFFFFFFFFFFFFFF4E1616161616BA4E161617171716
310
419BEAEAAA4E16161617161726E9171717161616FFFFFFFFFFFFFF4F16161717
310
164E16FFFFFFFFFFBAB9B9B9B9B9BABABACAFFFFFFFFFFFFFFFFFFFFFFFFFFFF
310
FFFFBA16FFFFFFFF7F1617161617174DEAFFFFFFEA41FFFFFFFFFFAA4D16174E
310
9BFFFFFFFFFF34730000FFFFFFFFFFFFB9161617171617FFFFFFFFFFBA161616
310
16164EFFFFFFFFFFFFFF4F16161717169B1617161716175BFFFFFFFFFFFF7417
310
16171616168D171717161617FFFFFFFFFFFFEA2616171717167416FFFFFFFFFF
310
16171616171717171717EAFFFFFFFFFFFFFFFFFFFFFFFFFFFFFF6716FFFFFFFF
310
7F4EFFFFFFFFBA2573FFFFFFFFBAFFFFFFFFAA167FB9BB9B269BFFFFFFFF664F
310
0000FFFFFFFFFFFFB9171616161616FFFFFFFFFFBA16161717164EFFFFFFFFFF
310
FFFF4E16161616174E161617171626EAFFFFFFFFFFFFFF4E16161616164E1716
310
16161617FFFFFFFFFFFF671616161716347F16FFFFFFFFFF16B9FFFFFFFFFFFF
310
D9168DFFFFFFFFFFFFFFFFFFFFFFFFFFFFEA1716FFFFFFFF7F4EFFFFFFFFFF7F
310
4EFFFFFFFFFFFFFFFFFF5B66FFFFFFEA347FFFFFFFFF7F4D0000FFFFFFFFFFFF
310
B9171616171617FFFFFFFFFFBA17161716174EFFFFFFFFFFFFFF4D1716161617
310
17161716161673FFFFFFFFFFFFFFFF9B1617161717161616171616174F4E4E4E
310
4E341616171616167E7F16FFFFFFFFFF16BAFFFFFFFFFFFFFF5B41FFFFFFFF34
310
1616171616BAFFFFFF9B1716FFFFFFFF7F4EFFFFFFFFFF4E4EFFFFFFFF734E4E
310
4E4E267EDA9B67164EEAFFFFFFFF744D0000FFFFFFFFFFFFBA171717161617FF
310
FFFFFFFFBA1616171616347F7F7F7F80807F331616161717161717161716B9FF
310
FFFFFFFFFFFFFFE9161616161616171716161716171616161616171616171734
310
EA7F16FFFFFFFFFF16BAFFFFFFFFFFFFFFAA17C9FFFFFF7326BABA5B25FFFFFF
310
FF401716FFFFFFFF7F264F4E4E4E4217AAFFFFFFEA16677F73261616164173CA
310
FFFFFFFFFFFF417F0000FFFFFFFFFFFFBA171616171617FFFFFFFFFFBA161616
310
17171616161616161616161717161616161616161617EAFFFFFFFFFFFFFFFFFF
310
261717161716161617161616161617161617161616174EEAFF8016FFFFFFFFFF
310
17BAFFFFFFFFFFFFFFFF3467FFFFFFC916C9FF3467FFFFFFDA166716FFFFFFFF
310
9C4D4E4E4E4E67AAFFFFFFFF6834FF7F262567AAEAFFFFFFFFFFFFFFFF9B17D9
310
0000FFFFFFFFFFFFB9161616161616FFFFFFFFFFBA1617161717171616161616
310
1716171716161716161617171716FFFFFFFFFFFFFFFFFFFF4E17161716171616
310
1617171616161716171717161616169BFF7F17FFFFFFFFFF17B9FFFFFFFFFFFF
310
FFFF7326FFFFFFFF3473DA16AAFFFFFF7317AA16FFFFFFFFFFFFFFFFFFFFFFFF
310
FFFFEA6725BA4E167FEAFFFFFFFFFFFFFFFFFFFF9C167FFF0000FFFFFFFFFFFF
310
B9161717171716FFFFFFFFFFBA16161716171616171717161617161716161616
310
171617171617EAFFFFFFFFFFFFFFFFFF26161717161616161616161617171616
310
1616161616171616AA8016FFFFFFFFFF16BAFFFFFFFFFFFFFFFFDA179BFFFFFF
310
74348D26FFFFFFFF2566B917FFFFFFFFD8BAB9BAB9BADAFFFFEA41169B7425C9
310
FFFFFFFFFFFFFFFFFFFFAB4F1680FFFF0000FFFFFFFFFFFFBA161717171617FF
310
FFFFFFFFBA17161717161617171617161616161617171616171716171617BBFF
310
FFFFFFFFFFFFFFE9171616161617161617161716FFFFFFFFFFD9671616161617
310
348017FFFFFFFFFF16BAFFFFFFFFFFFFFFFFFF4E5AFFFFFFC916265AFFFFFFAA
310
16AABA16FFFFFFFF7F1617161616179BFFFFEB4127168DFFFFFFFFFFFFFFD99B
310
6734175AC9FFFFFF0000FFFFFFFFFFFFB9161617171617FFFFFFFFFFBB161616
310
1616347F807F7F7F7F8033171716171617171616161672FFFFFFFFFFFFFFFF9C
310
171617171617161716161617FFFFFFFFFFFFFF4117161616174E17FFFFFFFFFF
310
16BAFFFFFFFFFFFFFFFFFF9B16DAFFFFFF34169BFFFFFF5A26FFB917FFFFFFFF
310
7F4EFFFFFFEA5B26FFFFFFEA2616EAFFFFFFFFDA743416331617414E4E4E4ECA
310
0000FFFFFFFFFFFFBA161716161616FFFFFFFFFFBA17171616164EFFFFFFFFFF
310
FFFF4E16161717174E161717171626EBFFFFFFFFFFFFFF4E16161617165B1616
310
16171617FFFFFFFFFFFFFF6716161616161617FFFFFFFFFF16BAFFFFFFFFFFFF
310
FFFFFFEA268CFFFFFF7316EAFFFFEB1774FFB916FFFFFFFF7F4EFFFFFFFF7316
310
FFFFFFFF6826FFFFFFFFEB264D9CEABA257F807F7F6616BA0000FFFFFFFFFFFF
310
BA161716161616FFFFFFFFFFBA16171616164DFFFFFFFFFFFFFF4E1617161617
310
9B1617171717165BEBFFFFFFFFFF671616161617179B171616161616FFFFFFFF
310
FFFFFF3417161617171617FFFFFFFFFF17BAFFFFFFFFFFFFFFFFFFFF6734FFFF
310
FFEBCAFFFFFF8D17C9FFBA17FFFFFFFF7F357F808066174FFFFFFFFF7F16FFFF
310
FFFFD91673B99B415BFFFFFFFFBA16DA00009B7F7F7F807F671617161616167F
310
80807F7E6617161616164EFFFFFFFFFFFFFF4E1616161617B94E171716161616
310
349BC9D9AA4E16171616161634FF161617161717B9B9BAB9BA9B411716171716
310
163416FFFFFFFFFF16B9FFFFFFFFFFFFFFFFFFFFC917CAFFFFFFFFFFFFFF3342
310
FFFFBA17FFFFFFFF9B4E4E4F4E4E66EAFFFFFFFF5B16C9FFFFFFFFAA4E164E73
310
EAFFFFFFFF8D26FF00004E161716161616171617171616171717171617161616
310
17174EFFFFFFFFFFFFFF4E1717171616B9D92616171716171716171717171716
310
16171716AAFF161717171617161617171616161617161716166717FFFFFFFFFF
310
17B9FFFFFFFFFFFFFFFFFFFFFF3467FFFFFFFFFFFFCA168CFFFFBB17FFFFFFFF
310
FFFFFFFFFFFFFFFFFFFFFFEA26265BFFFFFFFFFFFFFFFFFFFFFFFFFFEA3467FF
310
00004D16161616161617161717161617161616171617171616164EFFFFFFFFFF
310
FFFF4D1617161616BAFF9B1616161616161716161616171717161766FFFF1616
310
16171617161617161716171616171717667F16FFFFFFFFFF17BAFFFFFFFFFFFF
310
FFFFFFFFFF8C26EAFFFFFFFFFF6617EAFFFFBA17FFFFFFFFFFFFFFFFFFFFFFFF
310
FFFFEA5A25BA269BFFFFFFFFFFFFFFFFFFFFFFFF6616DAFF00004E1616171616
310
1616161616161716161617171616171616174EFFFFFFFFFFFFFF4D1717171716
310
B9FFFF9C161616161616161716161717171667FFFFFF17161717171716161617
310
1716161616161641E97E16FFFFFFFFFF16B9FFFFFFFFFFFFFFFFFFFFFFEA169B
310
FFFFFFFFEA265BFFFFFFB916FFFFFFFFFFFFFFFFFFFFFFFFFF9B3416AAFF9B17
310
67EAFFFFFFFFFFFFFFFFEA5B169BFFFF00004D17161716161616161717171616
310
161717161716171716174EFFFFFFFFFFFFFF4D1616161616BAFFFFFFBB411616
310
161716161616171634ABFFFFFFFF161716161617171716171617171617267FFF
310
FF7F164E4E4E4E4F17BAFFFFFFFFFFFFFFFFFFFFFFFF66344D4E4E4F4117AAFF
310
FFFFBA174E4E4E4D4E4D4D4E4E4E4E4116174EBBFFFFFFCA342666ABEAFFFFEA
310
AA6725269CFFFFFF0000724F4E4D4D4D4E4D4D4E4E4E4D4E4E4E4E4E4E4E4E4D
310
4E4E74FFFFFFFFFFFFFF734E4E4E4D4ECAFFFFFFFFFFAA663416171717265B9B
310
FFFFFFFFFFFF7F8080807F80807F7F7F7F7F807FBAFFFFFFFF9B4E4E4F4D4D4E
310
4DC9FFFFFFFFFFFFFFFFFFFFFFFFBA4E4E4E4E4D4E4EFFFFFFFFC94E4E4E4F4E
310
4E4E4D4E4E5A807F9CD9FFFFFFFFFFFFFF9B5B2617171716174E8DEAFFFFFFFF
310
0000000000000000000000000000000000000000000000000000000000000000
  1
OLE
  0
ENDSEC
  0
SECTION
  2
OBJECTS
  0
DICTIONARY
  5
C
330
0
100
AcDbDictionary
281
     1
  3
ACAD_GROUP
350
D
  3
ACAD_LAYOUT
350
1A
  3
ACAD_MLINESTYLE
350
17
  3
ACAD_PLOTSETTINGS
350
19
  3
ACAD_PLOTSTYLENAME
350
E
  3
ACAD_SCALELIST
350
47
  0
DICTIONARY
  5
D
102
{ACAD_REACTORS
330
C
102
}
330
C
100
AcDbDictionary
281
     1
  0
DICTIONARY
  5
1A
102
{ACAD_REACTORS
330
C
102
}
330
C
100
AcDbDictionary
281
     1
  3
Layout1
350
1E
  3
Layout2
350
26
  3
Model
350
22
  0
DICTIONARY
  5
17
102
{ACAD_REACTORS
330
C
102
}
330
C
100
AcDbDictionary
281
     1
  3
Standard
350
18
  0
DICTIONARY
  5
19
102
{ACAD_REACTORS
330
C
102
}
330
C
100
AcDbDictionary
281
     1
  0
ACDBDICTIONARYWDFLT
  5
E
102
{ACAD_REACTORS
330
C
102
}
330
C
100
AcDbDictionary
281
     1
  3
Normal
350
F
100
AcDbDictionaryWithDefault
340
F
  0
DICTIONARY
  5
47
102
{ACAD_REACTORS
330
C
102
}
330
C
100
AcDbDictionary
281
     1
  3
A0
350
48
  3
A1
350
49
  3
A2
350
4A
  3
A3
350
4B
  3
A4
350
4C
  3
A5
350
4D
  3
A6
350
4E
  3
A7
350
4F
  3
A8
350
50
  3
A9
350
51
  3
B0
350
52
  3
B1
350
53
  3
B2
350
54
  3
B3
350
55
  3
B4
350
56
  3
B5
350
57
  3
B6
350
58
  3
B7
350
59
  3
B8
350
5A
  3
B9
350
5B
  3
C0
350
5C
  3
C1
350
5D
  3
C2
350
5E
  3
C3
350
5F
  3
C4
350
60
  3
C5
350
61
  3
C6
350
62
  3
C7
350
63
  3
C8
350
64
  3
C9
350
65
  3
D0
350
66
  3
D1
350
67
  3
D2
350
68
  0
LAYOUT
  5
1E
102
{ACAD_REACTORS
330
1A
102
}
330
1A
100
AcDbPlotSettings
  1

  2
none_device
  4

  6

 40
0.0
 41
0.0
 42
0.0
 43
0.0
 44
0.0
 45
0.0
 46
0.0
 47
0.0
 48
0.0
 49
0.0
140
0.0
141
0.0
142
1.0
143
1.0
 70
   688
 72
     0
 73
     0
 74
     5
  7

 75
    16
147
1.0
148
0.0
149
0.0
100
AcDbLayout
  1
Layout1
 70
     1
 71
     1
 10
0.0
 20
0.0
 11
12.0
 21
9.0
 12
0.0
 22
0.0
 32
0.0
 14
1.0000000000E+20
 24
1.0000000000E+20
 34
1.0000000000E+20
 15
-1.0000000000E+20
 25
-1.0000000000E+20
 35
-1.0000000000E+20
146
0.0
 13
0.0
 23
0.0
 33
0.0
 16
1.0
 26
0.0
 36
0.0
 17
0.0
 27
1.0
 37
0.0
 76
     0
330
1B
  0
LAYOUT
  5
26
102
{ACAD_REACTORS
330
1A
102
}
330
1A
100
AcDbPlotSettings
  1

  2
none_device
  4

  6

 40
0.0
 41
0.0
 42
0.0
 43
0.0
 44
0.0
 45
0.0
 46
0.0
 47
0.0
 48
0.0
 49
0.0
140
0.0
141
0.0
142
1.0
143
1.0
 70
   688
 72
     0
 73
     0
 74
     5
  7

 75
    16
147
1.0
148
0.0
149
0.0
100
AcDbLayout
  1
Layout2
 70
     1
 71
     2
 10
0.0
 20
0.0
 11
0.0
 21
0.0
 12
0.0
 22
0.0
 32
0.0
 14
0.0
 24
0.0
 34
0.0
 15
0.0
 25
0.0
 35
0.0
146
0.0
 13
0.0
 23
0.0
 33
0.0
 16
1.0
 26
0.0
 36
0.0
 17
0.0
 27
1.0
 37
0.0
 76
     0
330
23
  0
LAYOUT
  5
22
102
{ACAD_REACTORS
330
1A
102
}
330
1A
100
AcDbPlotSettings
  1

  2
none_device
  4
Letter_(8.50_x_11.00_Inches)
  6

 40
6.35
 41
6.35
 42
6.35000508
 43
6.35000508
 44
215.9
 45
279.4
 46
0.0
 47
0.0
 48
0.0
 49
0.0
140
0.0
141
0.0
142
1.0
143
1.0
 70
  1712
 72
     0
 73
     0
 74
     0
  7

 75
     0
147
1.0
148
0.0
149
0.0
100
AcDbLayout
  1
Model
 70
     1
 71
     0
 10
0.0
 20
0.0
 11
11.0
 21
8.5
 12
0.0
 22
0.0
 32
0.0
 14
0.0
 24
0.0
 34
0.0
 15
11.0
 25
8.5
 35
0.0
146
0.0
 13
0.0
 23
0.0
 33
0.0
 16
1.0
 26
0.0
 36
0.0
 17
0.0
 27
1.0
 37
0.0
 76
     0
330
1F
331
29
  0
MLINESTYLE
  5
18
102
{ACAD_REACTORS
330
17
102
}
330
17
100
AcDbMlineStyle
  2
Standard
 70
     0
  3

 62
   256
 51
90.0
 52
90.0
 71
     2
 49
0.5
 62
   256
  6
BYLAYER
 49
-0.5
 62
   256
  6
BYLAYER
  0
ACDBPLACEHOLDER
  5
F
102
{ACAD_REACTORS
330
E
102
}
330
E
  0
SCALE
  5
48
102
{ACAD_REACTORS
330
47
102
}
330
47
100
AcDbScale
 70
     0
300
1:1
140
1.0
141
1.0
290
     1
  0
SCALE
  5
49
102
{ACAD_REACTORS
330
47
102
}
330
47
100
AcDbScale
 70
     0
300
1:2
140
1.0
141
2.0
290
     0
  0
SCALE
  5
4A
102
{ACAD_REACTORS
330
47
102
}
330
47
100
AcDbScale
 70
     0
300
1:4
140
1.0
141
4.0
290
     0
  0
SCALE
  5
4B
102
{ACAD_REACTORS
330
47
102
}
330
47
100
AcDbScale
 70
     0
300
1:5
140
1.0
141
5.0
290
     0
  0
SCALE
  5
4C
102
{ACAD_REACTORS
330
47
102
}
330
47
100
AcDbScale
 70
     0
300
1:8
140
1.0
141
8.0
290
     0
  0
SCALE
  5
4D
102
{ACAD_REACTORS
330
47
102
}
330
47
100
AcDbScale
 70
     0
300
1:10
140
1.0
141
10.0
290
     0
  0
SCALE
  5
4E
102
{ACAD_REACTORS
330
47
102
}
330
47
100
AcDbScale
 70
     0
300
1:16
140
1.0
141
16.0
290
     0
  0
SCALE
  5
4F
102
{ACAD_REACTORS
330
47
102
}
330
47
100
AcDbScale
 70
     0
300
1:20
140
1.0
141
20.0
290
     0
  0
SCALE
  5
50
102
{ACAD_REACTORS
330
47
102
}
330
47
100
AcDbScale
 70
     0
300
1:30
140
1.0
141
30.0
290
     0
  0
SCALE
  5
51
102
{ACAD_REACTORS
330
47
102
}
330
47
100
AcDbScale
 70
     0
300
1:40
140
1.0
141
40.0
290
     0
  0
SCALE
  5
52
102
{ACAD_REACTORS
330
47
102
}
330
47
100
AcDbScale
 70
     0
300
1:50
140
1.0
141
50.0
290
     0
  0
SCALE
  5
53
102
{ACAD_REACTORS
330
47
102
}
330
47
100
AcDbScale
 70
     0
300
1:100
140
1.0
141
100.0
290
     0
  0
SCALE
  5
54
102
{ACAD_REACTORS
330
47
102
}
330
47
100
AcDbScale
 70
     0
300
2:1
140
2.0
141
1.0
290
     0
  0
SCALE
  5
55
102
{ACAD_REACTORS
330
47
102
}
330
47
100
AcDbScale
 70
     0
300
4:1
140
4.0
141
1.0
290
     0
  0
SCALE
  5
56
102
{ACAD_REACTORS
330
47
102
}
330
47
100
AcDbScale
 70
     0
300
8:1
140
8.0
141
1.0
290
     0
  0
SCALE
  5
57
102
{ACAD_REACTORS
330
47
102
}
330
47
100
AcDbScale
 70
     0
300
10:1
140
10.0
141
1.0
290
     0
  0
SCALE
  5
58
102
{ACAD_REACTORS
330
47
102
}
330
47
100
AcDbScale
 70
     0
300
100:1
140
100.0
141
1.0
290
     0
  0
SCALE
  5
59
102
{ACAD_REACTORS
330
47
102
}
330
47
100
AcDbScale
 70
     0
300
1/128" = 1'-0"
140
0.0078125
141
12.0
290
     0
  0
SCALE
  5
5A
102
{ACAD_REACTORS
330
47
102
}
330
47
100
AcDbScale
 70
     0
300
1/64" = 1'-0"
140
0.015625
141
12.0
290
     0
  0
SCALE
  5
5B
102
{ACAD_REACTORS
330
47
102
}
330
47
100
AcDbScale
 70
     0
300
1/32" = 1'-0"
140
0.03125
141
12.0
290
     0
  0
SCALE
  5
5C
102
{ACAD_REACTORS
330
47
102
}
330
47
100
AcDbScale
 70
     0
300
1/16" = 1'-0"
140
0.0625
141
12.0
290
     0
  0
SCALE
  5
5D
102
{ACAD_REACTORS
330
47
102
}
330
47
100
AcDbScale
 70
     0
300
3/32" = 1'-0"
140
0.09375
141
12.0
290
     0
  0
SCALE
  5
5E
102
{ACAD_REACTORS
330
47
102
}
330
47
100
AcDbScale
 70
     0
300
1/8" = 1'-0"
140
0.125
141
12.0
290
     0
  0
SCALE
  5
5F
102
{ACAD_REACTORS
330
47
102
}
330
47
100
AcDbScale
 70
     0
300
3/16" = 1'-0"
140
0.1875
141
12.0
290
     0
  0
SCALE
  5
60
102
{ACAD_REACTORS
330
47
102
}
330
47
100
AcDbScale
 70
     0
300
1/4" = 1'-0"
140
0.25
141
12.0
290
     0
  0
SCALE
  5
61
102
{ACAD_REACTORS
330
47
102
}
330
47
100
AcDbScale
 70
     0
300
3/8" = 1'-0"
140
0.375
141
12.0
290
     0
  0
SCALE
  5
62
102
{ACAD_REACTORS
330
47
102
}
330
47
100
AcDbScale
 70
     0
300
1/2" = 1'-0"
140
0.5
141
12.0
290
     0
  0
SCALE
  5
63
102
{ACAD_REACTORS
330
47
102
}
330
47
100
AcDbScale
 70
     0
300
3/4" = 1'-0"
140
0.75
141
12.0
290
     0
  0
SCALE
  5
64
102
{ACAD_REACTORS
330
47
102
}
330
47
100
AcDbScale
 70
     0
300
1" = 1'-0"
140
1.0
141
12.0
290
     0
  0
SCALE
  5
65
102
{ACAD_REACTORS
330
47
102
}
330
47
100
AcDbScale
 70
     0
300
1-1/2" = 1'-0"
140
1.5
141
12.0
290
     0
  0
SCALE
  5
66
102
{ACAD_REACTORS
330
47
102
}
330
47
100
AcDbScale
 70
     0
300
3" = 1'-0"
140
3.0
141
12.0
290
     0
  0
SCALE
  5
67
102
{ACAD_REACTORS
330
47
102
}
330
47
100
AcDbScale
 70
     0
300
6" = 1'-0"
140
6.0
141
12.0
290
     0
  0
SCALE
  5
68
102
{ACAD_REACTORS
330
47
102
}
330
47
100
AcDbScale
 70
     0
300
1'-0" = 1'-0"
140
12.0
141
12.0
290
     0
  0
ENDSEC
  0
EOF
