  0
SECTION
  2
HEADER
  9
$ACADVER
  1
AC1015
  9
$ACADMAINTVER
 70
     6
  9
$DWGCODEPAGE
  3
ANSI_1252
  9
$INSBASE
 10
0.0
 20
0.0
 30
0.0
  9
$EXTMIN
 10
0.0
 20
0.0
 30
0.0
  9
$EXTMAX
 10
11.0
 20
8.5
 30
0.0
  9
$LIMMIN
 10
0.0
 20
0.0
  9
$LIMMAX
 10
11.0
 20
8.5
  9
$ORTHOMODE
 70
     0
  9
$REGENMODE
 70
     1
  9
$FILLMODE
 70
     1
  9
$QTEXTMODE
 70
     0
  9
$MIRRTEXT
 70
     1
  9
$LTSCALE
 40
1.0
  9
$ATTMODE
 70
     1
  9
$TEXTSIZE
 40
0.1111111111
  9
$TRACEWID
 40
0.05
  9
$TEXTSTYLE
  7
Standard
  9
$CLAYER
  8
0
  9
$CELTYPE
  6
ByLayer
  9
$CECOLOR
 62
   256
  9
$CELTSCALE
 40
1.0
  9
$DISPSILH
 70
     0
  9
$DIMSCALE
 40
1.0
  9
$DIMASZ
 40
0.125
  9
$DIMEXO
 40
0.05
  9
$DIMDLI
 40
0.38
  9
$DIMRND
 40
0.0
  9
$DIMDLE
 40
0.0
  9
$DIMEXE
 40
0.07
  9
$DIMTP
 40
0.0
  9
$DIMTM
 40
0.0
  9
$DIMTXT
 40
0.1111111111
  9
$DIMCEN
 40
0.09
  9
$DIMTSZ
 40
0.0
  9
$DIMTOL
 70
     0
  9
$DIMLIM
 70
     0
  9
$DIMTIH
 70
     1
  9
$DIMTOH
 70
     1
  9
$DIMSE1
 70
     0
  9
$DIMSE2
 70
     0
  9
$DIMTAD
 70
     0
  9
$DIMZIN
 70
     0
  9
$DIMBLK
  1

  9
$DIMASO
 70
     1
  9
$DIMSHO
 70
     1
  9
$DIMPOST
  1

  9
$DIMAPOST
  1

  9
$DIMALT
 70
     0
  9
$DIMALTD
 70
     2
  9
$DIMALTF
 40
25.4
  9
$DIMLFAC
 40
1.0
  9
$DIMTOFL
 70
     0
  9
$DIMTVP
 40
0.0
  9
$DIMTIX
 70
     0
  9
$DIMSOXD
 70
     0
  9
$DIMSAH
 70
     0
  9
$DIMBLK1
  1

  9
$DIMBLK2
  1

  9
$DIMSTYLE
  2
Standard
  9
$DIMCLRD
 70
     0
  9
$DIMCLRE
 70
     0
  9
$DIMCLRT
 70
     0
  9
$DIMTFAC
 40
1.0
  9
$DIMGAP
 40
0.1
  9
$DIMJUST
 70
     0
  9
$DIMSD1
 70
     0
  9
$DIMSD2
 70
     0
  9
$DIMTOLJ
 70
     1
  9
$DIMTZIN
 70
     0
  9
$DIMALTZ
 70
     0
  9
$DIMALTTZ
 70
     0
  9
$DIMUPT
 70
     0
  9
$DIMDEC
 70
     2
  9
$DIMTDEC
 70
     2
  9
$DIMALTU
 70
     2
  9
$DIMALTTD
 70
     2
  9
$DIMTXSTY
  7
Standard
  9
$DIMAUNIT
 70
     0
  9
$DIMADEC
 70
     2
  9
$DIMALTRND
 40
0.0
  9
$DIMAZIN
 70
     0
  9
$DIMDSEP
 70
    46
  9
$DIMATFIT
 70
     3
  9
$DIMFRAC
 70
     0
  9
$DIMLDRBLK
  1

  9
$DIMLUNIT
 70
     2
  9
$DIMLWD
 70
    -2
  9
$DIMLWE
 70
    -2
  9
$DIMTMOVE
 70
     0
  9
$LUNITS
 70
     2
  9
$LUPREC
 70
     2
  9
$SKETCHINC
 40
0.1
  9
$FILLETRAD
 40
0.5
  9
$AUNITS
 70
     0
  9
$AUPREC
 70
     2
  9
$MENU
  1
.
  9
$ELEVATION
 40
0.0
  9
$PELEVATION
 40
0.0
  9
$THICKNESS
 40
0.0
  9
$LIMCHECK
 70
     0
  9
$CHAMFERA
 40
0.5
  9
$CHAMFERB
 40
0.5
  9
$CHAMFERC
 40
1.0
  9
$CHAMFERD
 40
0.0
  9
$SKPOLY
 70
     0
  9
$TDCREATE
 40
2455993.629584491
  9
$TDUCREATE
 40
2455993.837917824
  9
$TDUPDATE
 40
2455993.629584502
  9
$TDUUPDATE
 40
2455993.837917835
  9
$TDINDWG
 40
0.0000000116
  9
$TDUSRTIMER
 40
0.0000000116
  9
$USRTIMER
 70
     1
  9
$ANGBASE
 50
0.0
  9
$ANGDIR
 70
     0
  9
$PDMODE
 70
     0
  9
$PDSIZE
 40
-1.0
  9
$PLINEWID
 40
0.0
  9
$SPLFRAME
 70
     0
  9
$SPLINETYPE
 70
     6
  9
$SPLINESEGS
 70
     8
  9
$HANDSEED
  5
3D9
  9
$SURFTAB1
 70
     6
  9
$SURFTAB2
 70
     6
  9
$SURFTYPE
 70
     6
  9
$SURFU
 70
     6
  9
$SURFV
 70
     6
  9
$UCSBASE
  2

  9
$UCSNAME
  2

  9
$UCSORG
 10
0.0
 20
0.0
 30
0.0
  9
$UCSXDIR
 10
1.0
 20
0.0
 30
0.0
  9
$UCSYDIR
 10
0.0
 20
1.0
 30
0.0
  9
$UCSORTHOREF
  2

  9
$UCSORTHOVIEW
 70
     0
  9
$UCSORGTOP
 10
0.0
 20
0.0
 30
0.0
  9
$UCSORGBOTTOM
 10
0.0
 20
0.0
 30
0.0
  9
$UCSORGLEFT
 10
0.0
 20
0.0
 30
0.0
  9
$UCSORGRIGHT
 10
0.0
 20
0.0
 30
0.0
  9
$UCSORGFRONT
 10
0.0
 20
0.0
 30
0.0
  9
$UCSORGBACK
 10
0.0
 20
0.0
 30
0.0
  9
$PUCSBASE
  2

  9
$PUCSNAME
  2

  9
$PUCSORG
 10
0.0
 20
0.0
 30
0.0
  9
$PUCSXDIR
 10
1.0
 20
0.0
 30
0.0
  9
$PUCSYDIR
 10
0.0
 20
1.0
 30
0.0
  9
$PUCSORTHOREF
  2

  9
$PUCSORTHOVIEW
 70
     0
  9
$PUCSORGTOP
 10
0.0
 20
0.0
 30
0.0
  9
$PUCSORGBOTTOM
 10
0.0
 20
0.0
 30
0.0
  9
$PUCSORGLEFT
 10
0.0
 20
0.0
 30
0.0
  9
$PUCSORGRIGHT
 10
0.0
 20
0.0
 30
0.0
  9
$PUCSORGFRONT
 10
0.0
 20
0.0
 30
0.0
  9
$PUCSORGBACK
 10
0.0
 20
0.0
 30
0.0
  9
$USERI1
 70
     0
  9
$USERI2
 70
     0
  9
$USERI3
 70
     0
  9
$USERI4
 70
     0
  9
$USERI5
 70
     0
  9
$USERR1
 40
0.0
  9
$USERR2
 40
0.0
  9
$USERR3
 40
0.0
  9
$USERR4
 40
0.0
  9
$USERR5
 40
0.0
  9
$WORLDVIEW
 70
     1
  9
$SHADEDGE
 70
     3
  9
$SHADEDIF
 70
    70
  9
$TILEMODE
 70
     1
  9
$MAXACTVP
 70
    64
  9
$PINSBASE
 10
0.0
 20
0.0
 30
0.0
  9
$PLIMCHECK
 70
     0
  9
$PEXTMIN
 10
1.0000000000E+20
 20
1.0000000000E+20
 30
1.0000000000E+20
  9
$PEXTMAX
 10
-1.0000000000E+20
 20
-1.0000000000E+20
 30
-1.0000000000E+20
  9
$PLIMMIN
 10
0.0
 20
0.0
  9
$PLIMMAX
 10
12.0
 20
9.0
  9
$UNITMODE
 70
     0
  9
$VISRETAIN
 70
     1
  9
$PLINEGEN
 70
     0
  9
$PSLTSCALE
 70
     1
  9
$TREEDEPTH
 70
  3020
  9
$CMLSTYLE
  2
Standard
  9
$CMLJUST
 70
     0
  9
$CMLSCALE
 40
1.0
  9
$PROXYGRAPHICS
 70
     1
  9
$MEASUREMENT
 70
     0
  9
$CELWEIGHT
370
    -1
  9
$ENDCAPS
280
     0
  9
$JOINSTYLE
280
     0
  9
$LWDISPLAY
290
     1
  9
$INSUNITS
 70
     1
  9
$HYPERLINKBASE
  1

  9
$STYLESHEET
  1

  9
$XEDIT
290
     1
  9
$CEPSNTYPE
380
     0
  9
$PSTYLEMODE
290
     1
  9
$FINGERPRINTGUID
  2
{81C6CD2E-B6F0-4505-A8AF-17D56EF686BB}
  9
$VERSIONGUID
  2
{FAEB1C32-E019-11D5-929B-00C0DF256EC4}
  9
$EXTNAMES
290
     1
  9
$PSVPSCALE
 40
0.0
  9
$OLESTARTUP
290
     0
  0
ENDSEC
  0
SECTION
  2
CLASSES
  0
CLASS
  1
ACDBDICTIONARYWDFLT
  2
AcDbDictionaryWithDefault
  3
ObjectDBX Classes
 90
        0
280
     0
281
     0
  0
CLASS
  1
VISUALSTYLE
  2
AcDbVisualStyle
  3
ObjectDBX Classes
 90
     4095
280
     0
281
     0
  0
CLASS
  1
MATERIAL
  2
AcDbMaterial
  3
ObjectDBX Classes
 90
     1153
280
     0
281
     0
  0
CLASS
  1
ACDBPLACEHOLDER
  2
AcDbPlaceHolder
  3
ObjectDBX Classes
 90
        0
280
     0
281
     0
  0
CLASS
  1
LAYOUT
  2
AcDbLayout
  3
ObjectDBX Classes
 90
        0
280
     0
281
     0
  0
ENDSEC
  0
SECTION
  2
TABLES
  0
TABLE
  2
VPORT
  5
8
330
0
100
AcDbSymbolTable
 70
     1
  0
VPORT
  5
29
330
8
100
AcDbSymbolTableRecord
100
AcDbViewportTableRecord
  2
*Active
 70
     0
 10
0.0
 20
0.0
 11
1.0
 21
1.0
 12
5.5
 22
4.25
 13
0.0
 23
0.0
 14
0.5
 24
0.5
 15
0.5
 25
0.5
 16
0.0
 26
0.0
 36
1.0
 17
0.0
 27
0.0
 37
0.0
 40
8.5
 41
1.2941176471
 42
50.0
 43
0.0
 44
0.0
 50
0.0
 51
0.0
 71
     0
 72
  2000
 73
     1
 74
     3
 75
     0
 76
     0
 77
     0
 78
     0
281
     0
 65
     1
110
0.0
120
0.0
130
0.0
111
1.0
121
0.0
131
0.0
112
0.0
122
1.0
132
0.0
 79
     0
146
0.0
  0
ENDTAB
  0
TABLE
  2
LTYPE
  5
5
330
0
100
AcDbSymbolTable
 70
     6
  0
LTYPE
  5
14
330
5
100
AcDbSymbolTableRecord
100
AcDbLinetypeTableRecord
  2
ByBlock
 70
     0
  3

 72
    65
 73
     0
 40
0.0
  0
LTYPE
  5
15
330
5
100
AcDbSymbolTableRecord
100
AcDbLinetypeTableRecord
  2
ByLayer
 70
     0
  3

 72
    65
 73
     0
 40
0.0
  0
LTYPE
  5
16
330
5
100
AcDbSymbolTableRecord
100
AcDbLinetypeTableRecord
  2
Continuous
 70
     0
  3
Solid line
 72
    65
 73
     0
 40
0.0
  0
LTYPE
  5
3F
330
5
100
AcDbSymbolTableRecord
100
AcDbLinetypeTableRecord
  2
HIDDEN
 70
     0
  3
Hidden __ __ __ __ __ __ __ __ __ __ __ __ __ __
 72
    65
 73
     2
 40
0.075
 49
0.05
 74
     0
 49
-0.025
 74
     0
  0
LTYPE
  5
40
330
5
100
AcDbSymbolTableRecord
100
AcDbLinetypeTableRecord
  2
PHANTOM
 70
     0
  3
Phantom ______  __  __  ______  __  __  ______
 72
    65
 73
     6
 40
0.5
 49
0.25
 74
     0
 49
-0.05
 74
     0
 49
0.05
 74
     0
 49
-0.05
 74
     0
 49
0.05
 74
     0
 49
-0.05
 74
     0
  0
LTYPE
  5
41
330
5
100
AcDbSymbolTableRecord
100
AcDbLinetypeTableRecord
  2
CENTER
 70
     0
  3
Center ____ _ ____ _ ____ _ ____ _ ____ _ ____
 72
    65
 73
     4
 40
0.4
 49
0.25
 74
     0
 49
-0.05
 74
     0
 49
0.05
 74
     0
 49
-0.05
 74
     0
  0
LTYPE
  5
42
330
5
100
AcDbSymbolTableRecord
100
AcDbLinetypeTableRecord
  2
CENTERX2
 70
     0
  3
Center (2x) ________  __  ________  __  _____
 72
    65
 73
     4
 40
0.8
 49
0.5
 74
     0
 49
-0.1
 74
     0
 49
0.1
 74
     0
 49
-0.1
 74
     0
  0
LTYPE
  5
43
330
5
100
AcDbSymbolTableRecord
100
AcDbLinetypeTableRecord
  2
DOT2
 70
     0
  3
Dot (.5x) ........................................
 72
    65
 73
     2
 40
0.025
 49
0.0
 74
     0
 49
-0.025
 74
     0
  0
ENDTAB
  0
TABLE
  2
LAYER
  5
2
330
0
100
AcDbSymbolTable
 70
     2
  0
LAYER
  5
10
330
2
100
AcDbSymbolTableRecord
100
AcDbLayerTableRecord
  2
0
 70
     0
 62
     7
  6
Continuous
370
    -3
390
F
  0
LAYER
  5
44
330
2
100
AcDbSymbolTableRecord
100
AcDbLayerTableRecord
  2
FORMAT
 70
     0
 62
     7
  6
Continuous
370
    -3
390
F
  0
ENDTAB
  0
TABLE
  2
STYLE
  5
3
330
0
100
AcDbSymbolTable
 70
     4
  0
STYLE
  5
11
330
3
100
AcDbSymbolTableRecord
100
AcDbTextStyleTableRecord
  2
Standard
 70
     0
 40
0.0
 41
1.0
 50
0.0
 71
     0
 42
0.2
  3
txt
  4

  0
STYLE
  5
6B
330
3
100
AcDbSymbolTableRecord
100
AcDbTextStyleTableRecord
  2
SLDTEXTSTYLE0
 70
     0
 40
0.0
 41
0.75
 50
0.0
 71
     0
 42
0.2
  3
TXT
  4

  0
STYLE
  5
74
330
3
100
AcDbSymbolTableRecord
100
AcDbTextStyleTableRecord
  2
SLDTEXTSTYLE1
 70
     0
 40
0.0
 41
0.6944444444
 50
0.0
 71
     0
 42
0.2
  3
TXT
  4

  0
STYLE
  5
78
330
3
100
AcDbSymbolTableRecord
100
AcDbTextStyleTableRecord
  2
SLDTEXTSTYLE2
 70
     0
 40
0.0
 41
0.6
 50
0.0
 71
     0
 42
0.2
  3
TXT
  4

  0
ENDTAB
  0
TABLE
  2
VIEW
  5
6
330
0
100
AcDbSymbolTable
 70
     0
  0
ENDTAB
  0
TABLE
  2
UCS
  5
7
330
0
100
AcDbSymbolTable
 70
     0
  0
ENDTAB
  0
TABLE
  2
APPID
  5
9
330
0
100
AcDbSymbolTable
 70
     1
  0
APPID
  5
12
330
9
100
AcDbSymbolTableRecord
100
AcDbRegAppTableRecord
  2
ACAD
 70
     0
  0
ENDTAB
  0
TABLE
  2
DIMSTYLE
  5
A
330
0
100
AcDbSymbolTable
 70
     9
100
AcDbDimStyleTable
  0
DIMSTYLE
105
27
330
A
100
AcDbSymbolTableRecord
100
AcDbDimStyleTableRecord
  2
Standard
 70
     0
178
     0
340
11
  0
DIMSTYLE
105
CE
102
{ACAD_REACTORS
330
CD
330
1C5
330
1D5
102
}
330
A
100
AcDbSymbolTableRecord
100
AcDbDimStyleTableRecord
  2
SLDDIMSTYLE0
 70
     0
 41
0.125
 44
0.0
 45
0.000000001
 78
    12
 79
     3
140
0.0833333333
147
0.0208333333
172
     1
173
     1
178
     0
271
     2
272
     2
276
     2
284
    12
289
     0
340
6B
  0
DIMSTYLE
105
DD
102
{ACAD_REACTORS
330
DC
102
}
330
A
100
AcDbSymbolTableRecord
100
AcDbDimStyleTableRecord
  2
SLDDIMSTYLE1
 70
     0
 41
0.125
 44
0.0
 45
0.000000001
 78
     4
 79
     1
140
0.0833333333
147
0.0208333333
173
     1
178
     0
271
     2
272
     2
276
     2
284
    12
340
6B
  0
DIMSTYLE
105
F0
102
{ACAD_REACTORS
330
EF
330
12F
330
147
330
1B7
330
3B4
102
}
330
A
100
AcDbSymbolTableRecord
100
AcDbDimStyleTableRecord
  2
SLDDIMSTYLE2
 70
     0
 41
0.125
 44
0.0
 45
0.000000001
 78
    12
 79
     3
140
0.0833333333
147
0.0208333333
173
     1
178
     0
271
     2
272
     2
276
     2
284
    12
340
6B
  0
DIMSTYLE
105
13E
102
{ACAD_REACTORS
330
13D
330
3AB
102
}
330
A
100
AcDbSymbolTableRecord
100
AcDbDimStyleTableRecord
  2
SLDDIMSTYLE3
 70
     0
  3
<>
 41
0.125
 44
0.0
 45
0.000000001
 78
    12
 79
     3
140
0.0833333333
141
0.0
147
0.0208333333
173
     1
178
     0
271
     2
272
     2
276
     2
284
    12
340
6B
  0
DIMSTYLE
105
156
102
{ACAD_REACTORS
330
155
102
}
330
A
100
AcDbSymbolTableRecord
100
AcDbDimStyleTableRecord
  2
SLDDIMSTYLE4
 70
     0
 41
0.125
 44
0.0
 45
0.000000001
 78
    12
 79
     3
140
0.0833333333
141
0.0
147
0.0208333333
173
     1
178
     0
271
     2
272
     2
276
     2
284
    12
340
6B
  0
DIMSTYLE
105
164
102
{ACAD_REACTORS
330
163
102
}
330
A
100
AcDbSymbolTableRecord
100
AcDbDimStyleTableRecord
  2
SLDDIMSTYLE5
 70
     0
 41
0.125
 44
0.0
 45
0.000000001
 78
     4
 79
     1
140
0.0833333333
141
0.0
147
0.0208333333
173
     1
178
     0
271
     2
272
     2
276
     2
284
    12
340
6B
  0
DIMSTYLE
105
1E4
102
{ACAD_REACTORS
330
1E3
102
}
330
A
100
AcDbSymbolTableRecord
100
AcDbDimStyleTableRecord
  2
SLDDIMSTYLE6
 70
     0
  3
<>
 41
0.125
 44
0.0
 45
0.000000001
 78
    12
 79
     3
140
0.0833333333
141
0.0
147
0.0208333333
173
     1
178
     0
271
     2
272
     2
276
     2
284
    12
340
6B
  0
DIMSTYLE
105
1F5
330
A
100
AcDbSymbolTableRecord
100
AcDbDimStyleTableRecord
  2
SLDDIMSTYLE7
 70
     0
 41
0.04
 44
0.0
 45
0.000000001
140
0.0
146
0.04
147
0.0
173
     1
178
     0
271
     0
272
     0
276
     2
340
11
341
1F6
343
1F6
344
1F6
  0
ENDTAB
  0
TABLE
  2
BLOCK_RECORD
  5
1
330
0
100
AcDbSymbolTable
 70
    28
  0
BLOCK_RECORD
  5
1F
330
1
100
AcDbSymbolTableRecord
100
AcDbBlockTableRecord
  2
*Model_Space
340
22
  0
BLOCK_RECORD
  5
1B
330
1
100
AcDbSymbolTableRecord
100
AcDbBlockTableRecord
  2
*Paper_Space
340
1E
  0
BLOCK_RECORD
  5
23
330
1
100
AcDbSymbolTableRecord
100
AcDbBlockTableRecord
  2
*Paper_Space0
340
26
  0
BLOCK_RECORD
  5
45
330
1
100
AcDbSymbolTableRecord
100
AcDbBlockTableRecord
  2
Third Angle Projection Block
340
0
102
{BLKREFS
331
6A
102
}
  0
BLOCK_RECORD
  5
7E
330
1
100
AcDbSymbolTableRecord
100
AcDbBlockTableRecord
  2
SW_NOTE_0
340
0
102
{BLKREFS
331
83
102
}
  0
BLOCK_RECORD
  5
84
330
1
100
AcDbSymbolTableRecord
100
AcDbBlockTableRecord
  2
SW_NOTE_1
340
0
102
{BLKREFS
331
89
102
}
  0
BLOCK_RECORD
  5
8B
330
1
100
AcDbSymbolTableRecord
100
AcDbBlockTableRecord
  2
SW_NOTE_2
340
0
102
{BLKREFS
331
90
102
}
  0
BLOCK_RECORD
  5
92
330
1
100
AcDbSymbolTableRecord
100
AcDbBlockTableRecord
  2
SW_NOTE_3
340
0
102
{BLKREFS
331
97
102
}
  0
BLOCK_RECORD
  5
98
330
1
100
AcDbSymbolTableRecord
100
AcDbBlockTableRecord
  2
SW_BROKEN_VIEW_0
340
0
102
{BLKREFS
331
9B
102
}
  0
BLOCK_RECORD
  5
CF
330
1
100
AcDbSymbolTableRecord
100
AcDbBlockTableRecord
  2
*D7
340
0
  0
BLOCK_RECORD
  5
DE
330
1
100
AcDbSymbolTableRecord
100
AcDbBlockTableRecord
  2
*D8
340
0
  0
BLOCK_RECORD
  5
F1
330
1
100
AcDbSymbolTableRecord
100
AcDbBlockTableRecord
  2
*D9
340
0
  0
BLOCK_RECORD
  5
130
330
1
100
AcDbSymbolTableRecord
100
AcDbBlockTableRecord
  2
*D10
340
0
  0
BLOCK_RECORD
  5
13F
330
1
100
AcDbSymbolTableRecord
100
AcDbBlockTableRecord
  2
*D11
340
0
  0
BLOCK_RECORD
  5
148
330
1
100
AcDbSymbolTableRecord
100
AcDbBlockTableRecord
  2
*D12
340
0
  0
BLOCK_RECORD
  5
157
330
1
100
AcDbSymbolTableRecord
100
AcDbBlockTableRecord
  2
*D13
340
0
  0
BLOCK_RECORD
  5
165
330
1
100
AcDbSymbolTableRecord
100
AcDbBlockTableRecord
  2
*D14
340
0
  0
BLOCK_RECORD
  5
171
330
1
100
AcDbSymbolTableRecord
100
AcDbBlockTableRecord
  2
SW_CENTERMARKSYMBOL_0
340
0
102
{BLKREFS
331
178
102
}
  0
BLOCK_RECORD
  5
179
330
1
100
AcDbSymbolTableRecord
100
AcDbBlockTableRecord
  2
SW_CENTERMARKSYMBOL_1
340
0
102
{BLKREFS
331
180
102
}
  0
BLOCK_RECORD
  5
1B8
330
1
100
AcDbSymbolTableRecord
100
AcDbBlockTableRecord
  2
*D17
340
0
  0
BLOCK_RECORD
  5
1C6
330
1
100
AcDbSymbolTableRecord
100
AcDbBlockTableRecord
  2
*D18
340
0
  0
BLOCK_RECORD
  5
1D6
330
1
100
AcDbSymbolTableRecord
100
AcDbBlockTableRecord
  2
*D19
340
0
  0
BLOCK_RECORD
  5
1E5
330
1
100
AcDbSymbolTableRecord
100
AcDbBlockTableRecord
  2
*D20
340
0
  0
BLOCK_RECORD
  5
1ED
330
1
100
AcDbSymbolTableRecord
100
AcDbBlockTableRecord
  2
SW_NOTE_4
340
0
102
{BLKREFS
331
1F4
102
}
  0
BLOCK_RECORD
  5
1F6
330
1
100
AcDbSymbolTableRecord
100
AcDbBlockTableRecord
  2
_DOT
340
0
  0
BLOCK_RECORD
  5
1FF
330
1
100
AcDbSymbolTableRecord
100
AcDbBlockTableRecord
  2
SW_CENTERMARKSYMBOL_2
340
0
102
{BLKREFS
331
206
102
}
  0
BLOCK_RECORD
  5
250
330
1
100
AcDbSymbolTableRecord
100
AcDbBlockTableRecord
  2
SW_BROKEN_VIEW_1
340
0
102
{BLKREFS
331
253
102
}
  0
BLOCK_RECORD
  5
3AC
330
1
100
AcDbSymbolTableRecord
100
AcDbBlockTableRecord
  2
*D25
340
0
  0
BLOCK_RECORD
  5
3B5
330
1
100
AcDbSymbolTableRecord
100
AcDbBlockTableRecord
  2
*D26
340
0
  0
BLOCK_RECORD
  5
3C6
330
1
100
AcDbSymbolTableRecord
100
AcDbBlockTableRecord
  2
SW_CENTERMARKSYMBOL_3
340
0
102
{BLKREFS
331
3CD
102
}
  0
ENDTAB
  0
ENDSEC
  0
SECTION
  2
BLOCKS
  0
BLOCK
  5
20
330
1F
100
AcDbEntity
  8
0
100
AcDbBlockBegin
  2
*Model_Space
 70
     0
 10
0.0
 20
0.0
 30
0.0
  3
*Model_Space
  1

  0
ENDBLK
  5
21
330
1F
100
AcDbEntity
  8
0
100
AcDbBlockEnd
  0
BLOCK
  5
1C
330
1B
100
AcDbEntity
 67
     1
  8
0
100
AcDbBlockBegin
  2
*Paper_Space
 70
     0
 10
0.0
 20
0.0
 30
0.0
  3
*Paper_Space
  1

  0
ENDBLK
  5
1D
330
1B
100
AcDbEntity
 67
     1
  8
0
100
AcDbBlockEnd
  0
BLOCK
  5
24
330
23
100
AcDbEntity
  8
0
100
AcDbBlockBegin
  2
*Paper_Space0
 70
     0
 10
0.0
 20
0.0
 30
0.0
  3
*Paper_Space0
  1

  0
ENDBLK
  5
25
330
23
100
AcDbEntity
  8
0
100
AcDbBlockEnd
  0
BLOCK
  5
46
330
45
100
AcDbEntity
  8
0
100
AcDbBlockBegin
  2
Third Angle Projection Block
 70
     0
 10
0.0
 20
0.0
 30
0.0
  3
Third Angle Projection Block
  1

  0
CIRCLE
  5
48
330
45
100
AcDbEntity
  8
0
  6
Continuous
 62
     7
370
    30
100
AcDbCircle
 10
3.9951432636
 20
0.7456853688
 30
0.0
 40
0.0696152422706639
  0
CIRCLE
  5
49
330
45
100
AcDbEntity
  8
0
  6
Continuous
 62
     7
370
    30
100
AcDbCircle
 10
3.9951432636
 20
0.7456853688
 30
0.0
 40
0.1535916633280245
  0
LINE
  5
4A
330
45
100
AcDbEntity
  8
0
  6
CENTERX2
 62
     7
370
     0
100
AcDbLine
 10
4.3360937897
 20
0.7456853688
 30
0.0
 11
4.7028635231
 21
0.7456853688
 31
0.0
  0
LINE
  5
4B
330
45
100
AcDbEntity
  8
0
  6
Continuous
 62
     7
370
    30
100
AcDbLine
 10
4.3701432636
 20
0.815300611
 30
0.0
 11
4.3701432636
 21
0.6760701265
 31
0.0
  0
LINE
  5
4C
330
45
100
AcDbEntity
  8
0
  6
Continuous
 62
     7
370
    30
100
AcDbLine
 10
4.3701432636
 20
0.6760701265
 30
0.0
 11
4.6701432636
 21
0.5956853688
 31
0.0
  0
LINE
  5
4D
330
45
100
AcDbEntity
  8
0
  6
Continuous
 62
     7
370
    30
100
AcDbLine
 10
4.6701432636
 20
0.5956853688
 30
0.0
 11
4.6701432636
 21
0.8956853688
 31
0.0
  0
LINE
  5
4E
330
45
100
AcDbEntity
  8
0
  6
Continuous
 62
     7
370
    30
100
AcDbLine
 10
4.6701432636
 20
0.8956853688
 30
0.0
 11
4.3701432636
 21
0.815300611
 31
0.0
  0
LINE
  5
4F
330
45
100
AcDbEntity
  8
0
  6
CENTERX2
 62
     7
370
     0
100
AcDbLine
 10
3.8032513961
 20
0.7456853688
 30
0.0
 11
4.187035131
 21
0.7456853688
 31
0.0
  0
LINE
  5
50
330
45
100
AcDbEntity
  8
0
  6
CENTERX2
 62
     7
370
     0
100
AcDbLine
 10
3.9951432636
 20
0.9375772362
 30
0.0
 11
3.9951432636
 21
0.5537935013
 31
0.0
  0
POINT
  5
51
330
45
100
AcDbEntity
  8
0
  6
Continuous
 62
     7
370
     0
100
AcDbPoint
 10
3.9951432636
 20
0.7456853688
 30
0.0
  0
ENDBLK
  5
47
330
45
100
AcDbEntity
  8
0
100
AcDbBlockEnd
  0
BLOCK
  5
7F
330
7E
100
AcDbEntity
  8
0
100
AcDbBlockBegin
  2
SW_NOTE_0
 70
     0
 10
0.0
 20
0.0
 30
0.0
  3
SW_NOTE_0
  1

  0
MTEXT
  5
81
330
7E
100
AcDbEntity
  8
0
  6
Continuous
 62
     0
370
     0
100
AcDbMText
 10
0.78375
 20
0.0773440644
 30
0.0
 40
0.06
 41
0.0
 71
     2
 72
     1
  1
VALUES IN PARENTHESIS ARE CALCULATED
  7
SLDTEXTSTYLE0
 73
     1
 44
1.0
  0
MTEXT
  5
82
330
7E
100
AcDbEntity
  8
0
  6
Continuous
 62
     0
370
     0
100
AcDbMText
 10
0.7825936818
 20
-0.0220260102
 30
0.0
 40
0.06
 41
0.0
 71
     2
 72
     1
  1
AND MAY CONTAIN ROUNDOFF ERRORS
  7
SLDTEXTSTYLE0
 73
     1
 44
1.0
  0
ENDBLK
  5
80
330
7E
100
AcDbEntity
  8
0
100
AcDbBlockEnd
  0
BLOCK
  5
85
330
84
100
AcDbEntity
  8
0
100
AcDbBlockBegin
  2
SW_NOTE_1
 70
     0
 10
0.0
 20
0.0
 30
0.0
  3
SW_NOTE_1
  1

  0
MTEXT
  5
87
330
84
100
AcDbEntity
  8
0
  6
Continuous
 62
     0
370
     0
100
AcDbMText
 10
0.0
 20
0.1074223116
 30
0.0
 40
0.0833333333
 41
0.0
 71
     1
 72
     1
  1
DRAWING
  7
SLDTEXTSTYLE0
 73
     1
 44
1.0
  0
MTEXT
  5
88
330
84
100
AcDbEntity
  8
0
  6
Continuous
 62
     0
370
     0
100
AcDbMText
 10
0.0
 20
-0.0036887981
 30
0.0
 40
0.0833333333
 41
0.0
 71
     1
 72
     1
  1
PROJECTION
  7
SLDTEXTSTYLE0
 73
     1
 44
1.0
  0
ENDBLK
  5
86
330
84
100
AcDbEntity
  8
0
100
AcDbBlockEnd
  0
BLOCK
  5
8C
330
8B
100
AcDbEntity
  8
0
100
AcDbBlockBegin
  2
SW_NOTE_2
 70
     0
 10
0.0
 20
0.0
 30
0.0
  3
SW_NOTE_2
  1

  0
MTEXT
  5
8E
330
8B
100
AcDbEntity
  8
0
  6
Continuous
 62
     0
370
     0
100
AcDbMText
 10
0.986328125
 20
0.1611334675
 30
0.0
 40
0.125
 41
0.0
 71
     2
 72
     1
  1
FOR INFORMATION ONLY
  7
SLDTEXTSTYLE0
 73
     1
 44
1.0
  0
MTEXT
  5
8F
330
8B
100
AcDbEntity
  8
0
  6
Continuous
 62
     0
370
     0
100
AcDbMText
 10
0.999088459
 20
-0.0055331972
 30
0.0
 40
0.125
 41
0.0
 71
     2
 72
     1
  1
NOT FOR MANUFACTURING PURPOSES
  7
SLDTEXTSTYLE0
 73
     1
 44
1.0
  0
ENDBLK
  5
8D
330
8B
100
AcDbEntity
  8
0
100
AcDbBlockEnd
  0
BLOCK
  5
93
330
92
100
AcDbEntity
  8
0
100
AcDbBlockBegin
  2
SW_NOTE_3
 70
     0
 10
0.0
 20
0.0
 30
0.0
  3
SW_NOTE_3
  1

  0
MTEXT
  5
95
330
92
100
AcDbEntity
  8
0
  6
Continuous
 62
     0
370
     0
100
AcDbMText
 10
0.6731770833
 20
0.1477056785
 30
0.0
 40
0.1145833333
 41
0.0
 71
     2
 72
     1
  1
METRIC UNIVERSAL
  7
SLDTEXTSTYLE0
 73
     1
 44
1.0
  0
MTEXT
  5
96
330
92
100
AcDbEntity
  8
0
  6
Continuous
 62
     0
370
     0
100
AcDbMText
 10
0.6786276985
 20
-0.0050720974
 30
0.0
 40
0.1145833333
 41
0.0
 71
     2
 72
     1
  1
POST HOLDER 6"
  7
SLDTEXTSTYLE0
 73
     1
 44
1.0
  0
ENDBLK
  5
94
330
92
100
AcDbEntity
  8
0
100
AcDbBlockEnd
  0
BLOCK
  5
99
330
98
100
AcDbEntity
  8
0
100
AcDbBlockBegin
  2
SW_BROKEN_VIEW_0
 70
     0
 10
0.0
 20
0.0
 30
0.0
  3
SW_BROKEN_VIEW_0
  1

  0
ENDBLK
  5
9A
330
98
100
AcDbEntity
  8
0
100
AcDbBlockEnd
  0
BLOCK
  5
D0
330
CF
100
AcDbEntity
  8
0
100
AcDbBlockBegin
  2
*D7
 70
     1
 10
0.0
 20
0.0
 30
0.0
  3
*D7
  1

  0
SOLID
  5
D2
330
CF
100
AcDbEntity
  8
0
  6
Continuous
 62
     7
370
     0
100
AcDbTrace
 10
6.610166629
 20
3.3888982581
 30
0.0
 11
6.590166629
 21
3.2638982581
 31
0.0
 12
6.630166629
 22
3.2638982581
 32
0.0
 13
6.630166629
 23
3.2638982581
 33
0.0
  0
SOLID
  5
D3
330
CF
100
AcDbEntity
  8
0
  6
Continuous
 62
     7
370
     0
100
AcDbTrace
 10
6.610166629
 20
3.8188982581
 30
0.0
 11
6.630166629
 21
3.9438982581
 31
0.0
 12
6.590166629
 22
3.9438982581
 32
0.0
 13
6.590166629
 23
3.9438982581
 33
0.0
  0
LINE
  5
D4
330
CF
100
AcDbEntity
  8
0
  6
Continuous
 62
     7
370
     0
100
AcDbLine
 10
6.2664658416
 20
3.3888982581
 30
0.0
 11
6.680166629
 21
3.3888982581
 31
0.0
  0
LINE
  5
D5
330
CF
100
AcDbEntity
  8
0
  6
Continuous
 62
     7
370
     0
100
AcDbLine
 10
6.2664658416
 20
3.8188982581
 30
0.0
 11
6.680166629
 21
3.8188982581
 31
0.0
  0
LINE
  5
D6
330
CF
100
AcDbEntity
  8
0
  6
Continuous
 62
     7
370
     0
100
AcDbLine
 10
6.610166629
 20
3.3888982581
 30
0.0
 11
6.610166629
 21
3.1388982581
 31
0.0
  0
LINE
  5
D7
330
CF
100
AcDbEntity
  8
0
  6
Continuous
 62
     7
370
     0
100
AcDbLine
 10
6.610166629
 20
3.8188982581
 30
0.0
 11
6.610166629
 21
4.0688982581
 31
0.0
  0
MTEXT
  5
D8
330
CF
100
AcDbEntity
  8
0
  6
Continuous
 62
     7
370
     0
100
AcDbMText
 10
6.4442755761
 20
3.5790328749
 30
0.0
 40
0.0833333333
 41
0.0
 71
     1
 72
     1
  1
(
  7
SLDTEXTSTYLE0
 73
     1
 44
1.0
  0
MTEXT
  5
D9
330
CF
100
AcDbEntity
  8
0
  6
Continuous
 62
     7
370
     0
100
AcDbMText
 10
6.4853190992
 20
3.5790328749
 30
0.0
 40
0.0833333333
 41
0.0
 71
     1
 72
     1
  1
0.43
  7
SLDTEXTSTYLE0
 73
     1
 44
1.0
  0
MTEXT
  5
DA
330
CF
100
AcDbEntity
  8
0
  6
Continuous
 62
     7
370
     0
100
AcDbMText
 10
6.700674956
 20
3.5790328749
 30
0.0
 40
0.0833333333
 41
0.0
 71
     1
 72
     1
  1
")
  7
SLDTEXTSTYLE0
 73
     1
 44
1.0
  0
MTEXT
  5
DB
330
CF
100
AcDbEntity
  8
0
  6
Continuous
 62
     7
370
     0
100
AcDbMText
 10
6.3985805713
 20
3.7113205652
 30
0.0
 40
0.0833333333
 41
0.0
 71
     1
 72
     1
  1
10.9 mm
  7
SLDTEXTSTYLE0
 73
     1
 44
1.0
  0
ENDBLK
  5
D1
330
CF
100
AcDbEntity
  8
0
100
AcDbBlockEnd
  0
BLOCK
  5
DF
330
DE
100
AcDbEntity
  8
0
100
AcDbBlockBegin
  2
*D8
 70
     1
 10
0.0
 20
0.0
 30
0.0
  3
*D8
  1

  0
SOLID
  5
E1
330
DE
100
AcDbEntity
  8
0
  6
Continuous
 62
     7
370
     0
100
AcDbTrace
 10
7.3188280463
 20
3.3888982581
 30
0.0
 11
7.3388280463
 21
3.5138982581
 31
0.0
 12
7.2988280463
 22
3.5138982581
 32
0.0
 13
7.2988280463
 23
3.5138982581
 33
0.0
  0
SOLID
  5
E2
330
DE
100
AcDbEntity
  8
0
  6
Continuous
 62
     7
370
     0
100
AcDbTrace
 10
7.3188280463
 20
5.4047486619
 30
0.0
 11
7.2988280463
 21
5.2797486619
 31
0.0
 12
7.3388280463
 22
5.2797486619
 32
0.0
 13
7.3388280463
 23
5.2797486619
 33
0.0
  0
LINE
  5
E3
330
DE
100
AcDbEntity
  8
0
  6
Continuous
 62
     7
370
     0
100
AcDbLine
 10
6.2664658416
 20
3.3888982581
 30
0.0
 11
7.3888280463
 21
3.3888982581
 31
0.0
  0
LINE
  5
E4
330
DE
100
AcDbEntity
  8
0
  6
Continuous
 62
     7
370
     0
100
AcDbLine
 10
4.7033593642
 20
5.4047486619
 30
0.0
 11
7.3888280463
 21
5.4047486619
 31
0.0
  0
LINE
  5
E5
330
DE
100
AcDbEntity
  8
0
  6
Continuous
 62
     7
370
     0
100
AcDbLine
 10
7.3188280463
 20
3.3888982581
 30
0.0
 11
7.3188280463
 21
3.6875719746
 31
0.0
  0
LINE
  5
E6
330
DE
100
AcDbEntity
  8
0
  6
Continuous
 62
     7
370
     0
100
AcDbLine
 10
7.3188280463
 20
5.4047486619
 30
0.0
 11
7.3188280463
 21
4.5291111503
 31
0.0
  0
LINE
  5
E7
330
DE
100
AcDbEntity
  8
0
  6
Continuous
 62
     7
370
     0
100
AcDbLine
 10
7.3188280463
 20
3.6875719746
 30
0.0
 11
7.2632724907
 21
3.7153497524
 31
0.0
  0
LINE
  5
E8
330
DE
100
AcDbEntity
  8
0
  6
Continuous
 62
     7
370
     0
100
AcDbLine
 10
7.2632724907
 20
3.7153497524
 30
0.0
 11
7.3743836018
 21
3.7709053079
 31
0.0
  0
LINE
  5
E9
330
DE
100
AcDbEntity
  8
0
  6
Continuous
 62
     7
370
     0
100
AcDbLine
 10
7.3743836018
 20
3.7709053079
 30
0.0
 11
7.3188280463
 21
3.7986830857
 31
0.0
  0
LINE
  5
EA
330
DE
100
AcDbEntity
  8
0
  6
Continuous
 62
     7
370
     0
100
AcDbLine
 10
7.3188280463
 20
3.7986830857
 30
0.0
 11
7.3188280463
 21
4.2645357697
 31
0.0
  0
MTEXT
  5
EB
330
DE
100
AcDbEntity
  8
0
  6
Continuous
 62
     7
370
     0
100
AcDbMText
 10
7.1529369934
 20
4.3719580768
 30
0.0
 40
0.0833333333
 41
0.0
 71
     1
 72
     1
  1
(
  7
SLDTEXTSTYLE0
 73
     1
 44
1.0
  0
MTEXT
  5
EC
330
DE
100
AcDbEntity
  8
0
  6
Continuous
 62
     7
370
     0
100
AcDbMText
 10
7.1939805166
 20
4.3719580768
 30
0.0
 40
0.0833333333
 41
0.0
 71
     1
 72
     1
  1
6.00
  7
SLDTEXTSTYLE0
 73
     1
 44
1.0
  0
MTEXT
  5
ED
330
DE
100
AcDbEntity
  8
0
  6
Continuous
 62
     7
370
     0
100
AcDbMText
 10
7.4093363733
 20
4.3719580768
 30
0.0
 40
0.0833333333
 41
0.0
 71
     1
 72
     1
  1
")
  7
SLDTEXTSTYLE0
 73
     1
 44
1.0
  0
MTEXT
  5
EE
330
DE
100
AcDbEntity
  8
0
  6
Continuous
 62
     7
370
     0
100
AcDbMText
 10
7.0765002262
 20
4.5042457671
 30
0.0
 40
0.0833333333
 41
0.0
 71
     1
 72
     1
  1
152.4 mm
  7
SLDTEXTSTYLE0
 73
     1
 44
1.0
  0
ENDBLK
  5
E0
330
DE
100
AcDbEntity
  8
0
100
AcDbBlockEnd
  0
BLOCK
  5
F2
330
F1
100
AcDbEntity
  8
0
100
AcDbBlockBegin
  2
*D9
 70
     1
 10
0.0
 20
0.0
 30
0.0
  3
*D9
  1

  0
SOLID
  5
F4
330
F1
100
AcDbEntity
  8
0
  6
Continuous
 62
     7
370
     0
100
AcDbTrace
 10
3.7559619045
 20
2.9971974707
 30
0.0
 11
3.8809619045
 21
2.9771974707
 31
0.0
 12
3.8809619045
 22
3.0171974707
 32
0.0
 13
3.8809619045
 23
3.0171974707
 33
0.0
  0
SOLID
  5
F5
330
F1
100
AcDbEntity
  8
0
  6
Continuous
 62
     7
370
     0
100
AcDbTrace
 10
6.2164658416
 20
2.9971974707
 30
0.0
 11
6.0914658416
 21
3.0171974707
 31
0.0
 12
6.0914658416
 22
2.9771974707
 32
0.0
 13
6.0914658416
 23
2.9771974707
 33
0.0
  0
LINE
  5
F6
330
F1
100
AcDbEntity
  8
0
  6
Continuous
 62
     7
370
     0
100
AcDbLine
 10
3.7559619045
 20
3.3366423333
 30
0.0
 11
3.7559619045
 21
2.9271974707
 31
0.0
  0
LINE
  5
F7
330
F1
100
AcDbEntity
  8
0
  6
Continuous
 62
     7
370
     0
100
AcDbLine
 10
6.2164658416
 20
3.3388982581
 30
0.0
 11
6.2164658416
 21
2.9271974707
 31
0.0
  0
LINE
  5
F8
330
F1
100
AcDbEntity
  8
0
  6
Continuous
 62
     7
370
     0
100
AcDbLine
 10
3.7559619045
 20
2.9971974707
 30
0.0
 11
4.6965028154
 21
2.9971974707
 31
0.0
  0
LINE
  5
F9
330
F1
100
AcDbEntity
  8
0
  6
Continuous
 62
     7
370
     0
100
AcDbLine
 10
6.2164658416
 20
2.9971974707
 30
0.0
 11
5.2759249307
 21
2.9971974707
 31
0.0
  0
MTEXT
  5
FA
330
F1
100
AcDbEntity
  8
0
  6
Continuous
 62
     7
370
     0
100
AcDbMText
 10
4.8203228202
 20
2.9723320875
 30
0.0
 40
0.0833333333
 41
0.0
 71
     1
 72
     1
  1
(
  7
SLDTEXTSTYLE0
 73
     1
 44
1.0
  0
MTEXT
  5
FB
330
F1
100
AcDbEntity
  8
0
  6
Continuous
 62
     7
370
     0
100
AcDbMText
 10
4.8613663433
 20
2.9723320875
 30
0.0
 40
0.0833333333
 41
0.0
 71
     1
 72
     1
  1
2.46
  7
SLDTEXTSTYLE0
 73
     1
 44
1.0
  0
MTEXT
  5
FC
330
F1
100
AcDbEntity
  8
0
  6
Continuous
 62
     7
370
     0
100
AcDbMText
 10
5.0767222001
 20
2.9723320875
 30
0.0
 40
0.0833333333
 41
0.0
 71
     1
 72
     1
  1
")
  7
SLDTEXTSTYLE0
 73
     1
 44
1.0
  0
MTEXT
  5
FD
330
F1
100
AcDbEntity
  8
0
  6
Continuous
 62
     7
370
     0
100
AcDbMText
 10
4.7746278154
 20
3.1046197778
 30
0.0
 40
0.0833333333
 41
0.0
 71
     1
 72
     1
  1
62.5 mm
  7
SLDTEXTSTYLE0
 73
     1
 44
1.0
  0
ENDBLK
  5
F3
330
F1
100
AcDbEntity
  8
0
100
AcDbBlockEnd
  0
BLOCK
  5
131
330
130
100
AcDbEntity
  8
0
100
AcDbBlockBegin
  2
*D10
 70
     1
 10
0.0
 20
0.0
 30
0.0
  3
*D10
  1

  0
SOLID
  5
133
330
130
100
AcDbEntity
  8
0
  6
Continuous
 62
     7
370
     0
100
AcDbTrace
 10
6.1052006506
 20
7.6702411041
 30
0.0
 11
5.9802006506
 21
7.6902411041
 31
0.0
 12
5.9802006506
 22
7.6502411041
 32
0.0
 13
5.9802006506
 23
7.6502411041
 33
0.0
  0
SOLID
  5
134
330
130
100
AcDbEntity
  8
0
  6
Continuous
 62
     7
370
     0
100
AcDbTrace
 10
4.8866967136
 20
7.6702411041
 30
0.0
 11
5.0116967136
 21
7.6502411041
 31
0.0
 12
5.0116967136
 22
7.6902411041
 32
0.0
 13
5.0116967136
 23
7.6902411041
 33
0.0
  0
LINE
  5
135
330
130
100
AcDbEntity
  8
0
  6
Continuous
 62
     7
370
     0
100
AcDbLine
 10
6.1052006506
 20
7.3235403167
 30
0.0
 11
6.1052006506
 21
7.7402411041
 31
0.0
  0
LINE
  5
136
330
130
100
AcDbEntity
  8
0
  6
Continuous
 62
     7
370
     0
100
AcDbLine
 10
4.8866967136
 20
6.8815403167
 30
0.0
 11
4.8866967136
 21
7.7402411041
 31
0.0
  0
LINE
  5
137
330
130
100
AcDbEntity
  8
0
  6
Continuous
 62
     7
370
     0
100
AcDbLine
 10
6.1052006506
 20
7.6702411041
 30
0.0
 11
5.7856597398
 21
7.6702411041
 31
0.0
  0
LINE
  5
138
330
130
100
AcDbEntity
  8
0
  6
Continuous
 62
     7
370
     0
100
AcDbLine
 10
4.8866967136
 20
7.6702411041
 30
0.0
 11
5.2062376244
 21
7.6702411041
 31
0.0
  0
MTEXT
  5
139
330
130
100
AcDbEntity
  8
0
  6
Continuous
 62
     7
370
     0
100
AcDbMText
 10
5.3300576292
 20
7.6453757209
 30
0.0
 40
0.0833333333
 41
0.0
 71
     1
 72
     1
  1
(
  7
SLDTEXTSTYLE0
 73
     1
 44
1.0
  0
MTEXT
  5
13A
330
130
100
AcDbEntity
  8
0
  6
Continuous
 62
     7
370
     0
100
AcDbMText
 10
5.3711011524
 20
7.6453757209
 30
0.0
 40
0.0833333333
 41
0.0
 71
     1
 72
     1
  1
1.22
  7
SLDTEXTSTYLE0
 73
     1
 44
1.0
  0
MTEXT
  5
13B
330
130
100
AcDbEntity
  8
0
  6
Continuous
 62
     7
370
     0
100
AcDbMText
 10
5.5864570091
 20
7.6453757209
 30
0.0
 40
0.0833333333
 41
0.0
 71
     1
 72
     1
  1
")
  7
SLDTEXTSTYLE0
 73
     1
 44
1.0
  0
MTEXT
  5
13C
330
130
100
AcDbEntity
  8
0
  6
Continuous
 62
     7
370
     0
100
AcDbMText
 10
5.2843626244
 20
7.7776634112
 30
0.0
 40
0.0833333333
 41
0.0
 71
     1
 72
     1
  1
31.0 mm
  7
SLDTEXTSTYLE0
 73
     1
 44
1.0
  0
ENDBLK
  5
132
330
130
100
AcDbEntity
  8
0
100
AcDbBlockEnd
  0
BLOCK
  5
140
330
13F
100
AcDbEntity
  8
0
100
AcDbBlockBegin
  2
*D11
 70
     1
 10
0.0
 20
0.0
 30
0.0
  3
*D11
  1

  0
SOLID
  5
142
330
13F
100
AcDbEntity
  8
0
  6
Continuous
 62
     7
370
     0
100
AcDbTrace
 10
4.7930052804
 20
6.8752321805
 30
0.0
 11
4.7187593039
 21
6.9777628344
 31
0.0
 12
4.6904749677
 22
6.9494786281
 32
0.0
 13
4.6904749677
 23
6.9494786281
 33
0.0
  0
LINE
  5
143
330
13F
100
AcDbEntity
  8
0
  6
Continuous
 62
     7
370
     0
100
AcDbLine
 10
4.7930052804
 20
6.8752321805
 30
0.0
 11
3.7856975677
 21
7.8825445224
 31
0.0
  0
LINE
  5
144
330
13F
100
AcDbEntity
  8
0
  6
Continuous
 62
     7
370
     0
100
AcDbLine
 10
3.7856975677
 20
7.8825445224
 30
0.0
 11
3.6356975677
 21
7.8825445224
 31
0.0
  0
MTEXT
  5
145
330
13F
100
AcDbEntity
  8
0
  6
Continuous
 62
     7
370
     0
100
AcDbMText
 10
1.4987826863
 20
7.791535294
 30
0.0
 40
0.0833333333
 41
0.0
 71
     1
 72
     1
  1
FOR USE WITH M6 (1/4"-20) CAP SCREW
  7
SLDTEXTSTYLE0
 73
     1
 44
1.0
  0
MTEXT
  5
146
330
13F
100
AcDbEntity
  8
0
  6
Continuous
 62
     7
370
     0
100
AcDbMText
 10
2.626580214
 20
7.9238229843
 30
0.0
 40
0.0833333333
 41
0.0
 71
     1
 72
     1
  1
CLEARANCE SLOT
  7
SLDTEXTSTYLE0
 73
     1
 44
1.0
  0
ENDBLK
  5
141
330
13F
100
AcDbEntity
  8
0
100
AcDbBlockEnd
  0
BLOCK
  5
149
330
148
100
AcDbEntity
  8
0
100
AcDbBlockBegin
  2
*D12
 70
     1
 10
0.0
 20
0.0
 30
0.0
  3
*D12
  1

  0
SOLID
  5
14B
330
148
100
AcDbEntity
  8
0
  6
Continuous
 62
     7
370
     0
100
AcDbTrace
 10
6.7351219104
 20
7.2735403167
 30
0.0
 11
6.7151219104
 21
7.1485403167
 31
0.0
 12
6.7551219104
 22
7.1485403167
 32
0.0
 13
6.7551219104
 23
7.1485403167
 33
0.0
  0
SOLID
  5
14C
330
148
100
AcDbEntity
  8
0
  6
Continuous
 62
     7
370
     0
100
AcDbTrace
 10
6.7351219104
 20
6.2895403167
 30
0.0
 11
6.7551219104
 21
6.4145403167
 31
0.0
 12
6.7151219104
 22
6.4145403167
 32
0.0
 13
6.7151219104
 23
6.4145403167
 33
0.0
  0
LINE
  5
14D
330
148
100
AcDbEntity
  8
0
  6
Continuous
 62
     7
370
     0
100
AcDbLine
 10
6.1552006506
 20
7.2735403167
 30
0.0
 11
6.8051219104
 21
7.2735403167
 31
0.0
  0
LINE
  5
14E
330
148
100
AcDbEntity
  8
0
  6
Continuous
 62
     7
370
     0
100
AcDbLine
 10
6.1552006506
 20
6.2895403167
 30
0.0
 11
6.8051219104
 21
6.2895403167
 31
0.0
  0
LINE
  5
14F
330
148
100
AcDbEntity
  8
0
  6
Continuous
 62
     7
370
     0
100
AcDbLine
 10
6.7351219104
 20
7.2735403167
 30
0.0
 11
6.7351219104
 21
6.913828007
 31
0.0
  0
LINE
  5
150
330
148
100
AcDbEntity
  8
0
  6
Continuous
 62
     7
370
     0
100
AcDbLine
 10
6.7351219104
 20
6.2895403167
 30
0.0
 11
6.7351219104
 21
6.6492526264
 31
0.0
  0
MTEXT
  5
151
330
148
100
AcDbEntity
  8
0
  6
Continuous
 62
     7
370
     0
100
AcDbMText
 10
6.5692308575
 20
6.7566749335
 30
0.0
 40
0.0833333333
 41
0.0
 71
     1
 72
     1
  1
(
  7
SLDTEXTSTYLE0
 73
     1
 44
1.0
  0
MTEXT
  5
152
330
148
100
AcDbEntity
  8
0
  6
Continuous
 62
     7
370
     0
100
AcDbMText
 10
6.6102743807
 20
6.7566749335
 30
0.0
 40
0.0833333333
 41
0.0
 71
     1
 72
     1
  1
0.98
  7
SLDTEXTSTYLE0
 73
     1
 44
1.0
  0
MTEXT
  5
153
330
148
100
AcDbEntity
  8
0
  6
Continuous
 62
     7
370
     0
100
AcDbMText
 10
6.8256302375
 20
6.7566749335
 30
0.0
 40
0.0833333333
 41
0.0
 71
     1
 72
     1
  1
")
  7
SLDTEXTSTYLE0
 73
     1
 44
1.0
  0
MTEXT
  5
154
330
148
100
AcDbEntity
  8
0
  6
Continuous
 62
     7
370
     0
100
AcDbMText
 10
6.5235358528
 20
6.8889626238
 30
0.0
 40
0.0833333333
 41
0.0
 71
     1
 72
     1
  1
25.0 mm
  7
SLDTEXTSTYLE0
 73
     1
 44
1.0
  0
ENDBLK
  5
14A
330
148
100
AcDbEntity
  8
0
100
AcDbBlockEnd
  0
BLOCK
  5
158
330
157
100
AcDbEntity
  8
0
100
AcDbBlockBegin
  2
*D13
 70
     1
 10
0.0
 20
0.0
 30
0.0
  3
*D13
  1

  0
SOLID
  5
15A
330
157
100
AcDbEntity
  8
0
  6
Continuous
 62
     7
370
     0
100
AcDbTrace
 10
3.8731127565
 20
6.3661038022
 30
0.0
 11
3.7892576246
 21
6.2712707022
 31
0.0
 12
3.823032951
 22
6.2498411122
 32
0.0
 13
3.823032951
 23
6.2498411122
 33
0.0
  0
LINE
  5
15B
330
157
100
AcDbEntity
  8
0
  6
Continuous
 62
     7
370
     0
100
AcDbLine
 10
3.8731127565
 20
6.3661038022
 30
0.0
 11
3.6809452621
 21
6.0632272729
 31
0.0
  0
LINE
  5
15C
330
157
100
AcDbEntity
  8
0
  6
Continuous
 62
     7
370
     0
100
AcDbLine
 10
3.6809452621
 20
6.0632272729
 30
0.0
 11
3.5309452621
 21
6.0632272729
 31
0.0
  0
MTEXT
  5
15D
330
157
100
AcDbEntity
  8
0
  6
Continuous
 62
     7
370
     0
100
AcDbMText
 10
3.0109162665
 20
5.9722180445
 30
0.0
 40
0.0833333333
 41
0.0
 71
     1
 72
     1
  1
(
  7
SLDTEXTSTYLE0
 73
     1
 44
1.0
  0
MTEXT
  5
15E
330
157
100
AcDbEntity
  8
0
  6
Continuous
 62
     7
370
     0
100
AcDbMText
 10
3.0519656473
 20
5.9722180445
 30
0.0
 40
0.0833333333
 41
0.0
 71
     1
 72
     1
  1
%%c
  7
SLDTEXTSTYLE0
 73
     1
 44
1.0
  0
MTEXT
  5
15F
330
157
100
AcDbEntity
  8
0
  6
Continuous
 62
     7
370
     0
100
AcDbMText
 10
3.1777066795
 20
5.9722180445
 30
0.0
 40
0.0833333333
 41
0.0
 71
     1
 72
     1
  1
0.98
  7
SLDTEXTSTYLE0
 73
     1
 44
1.0
  0
MTEXT
  5
160
330
157
100
AcDbEntity
  8
0
  6
Continuous
 62
     7
370
     0
100
AcDbMText
 10
3.3930625362
 20
5.9722180445
 30
0.0
 40
0.0833333333
 41
0.0
 71
     1
 72
     1
  1
")
  7
SLDTEXTSTYLE0
 73
     1
 44
1.0
  0
MTEXT
  5
161
330
157
100
AcDbEntity
  8
0
  6
Continuous
 62
     7
370
     0
100
AcDbMText
 10
2.888276257
 20
6.1045057348
 30
0.0
 40
0.0833333333
 41
0.0
 71
     1
 72
     1
  1
%%c
  7
SLDTEXTSTYLE0
 73
     1
 44
1.0
  0
MTEXT
  5
162
330
157
100
AcDbEntity
  8
0
  6
Continuous
 62
     7
370
     0
100
AcDbMText
 10
3.0140632963
 20
6.1045057348
 30
0.0
 40
0.0833333333
 41
0.0
 71
     1
 72
     1
  1
25.0 mm
  7
SLDTEXTSTYLE0
 73
     1
 44
1.0
  0
ENDBLK
  5
159
330
157
100
AcDbEntity
  8
0
100
AcDbBlockEnd
  0
BLOCK
  5
166
330
165
100
AcDbEntity
  8
0
100
AcDbBlockBegin
  2
*D14
 70
     1
 10
0.0
 20
0.0
 30
0.0
  3
*D14
  1

  0
SOLID
  5
168
330
165
100
AcDbEntity
  8
0
  6
Continuous
 62
     7
370
     0
100
AcDbTrace
 10
3.9588651522
 20
6.959383466
 30
0.0
 11
3.8846222806
 21
7.0619163682
 31
0.0
 12
3.8563370879
 22
7.0336330184
 32
0.0
 13
3.8563370879
 23
7.0336330184
 33
0.0
  0
LINE
  5
169
330
165
100
AcDbEntity
  8
0
  6
Continuous
 62
     7
370
     0
100
AcDbLine
 10
3.9588651522
 20
6.959383466
 30
0.0
 11
3.4270395413
 21
7.4912437317
 31
0.0
  0
LINE
  5
16A
330
165
100
AcDbEntity
  8
0
  6
Continuous
 62
     7
370
     0
100
AcDbLine
 10
3.4270395413
 20
7.4912437317
 30
0.0
 11
3.2770395413
 21
7.4912437317
 31
0.0
  0
MTEXT
  5
16B
330
165
100
AcDbEntity
  8
0
  6
Continuous
 62
     7
370
     0
100
AcDbMText
 10
1.8519272754
 20
7.5325221936
 30
0.0
 40
0.0833333333
 41
0.0
 71
     1
 72
     1
  1
%%c
  7
SLDTEXTSTYLE0
 73
     1
 44
1.0
  0
MTEXT
  5
16C
330
165
100
AcDbEntity
  8
0
  6
Continuous
 62
     7
370
     0
100
AcDbMText
 10
1.9777143148
 20
7.5325221936
 30
0.0
 40
0.0833333333
 41
0.0
 71
     1
 72
     1
  1
12.8 mm (
  7
SLDTEXTSTYLE1
 73
     1
 44
1.0
  0
MTEXT
  5
16D
330
165
100
AcDbEntity
  8
0
  6
Continuous
 62
     7
370
     0
100
AcDbMText
 10
2.5039489231
 20
7.5325221936
 30
0.0
 40
0.0833333333
 41
0.0
 71
     1
 72
     1
  1
%%c
  7
SLDTEXTSTYLE0
 73
     1
 44
1.0
  0
MTEXT
  5
16E
330
165
100
AcDbEntity
  8
0
  6
Continuous
 62
     7
370
     0
100
AcDbMText
 10
2.6296284558
 20
7.5325221936
 30
0.0
 40
0.0833333333
 41
0.0
 71
     1
 72
     1
  1
0.50
  7
SLDTEXTSTYLE0
 73
     1
 44
1.0
  0
MTEXT
  5
16F
330
165
100
AcDbEntity
  8
0
  6
Continuous
 62
     7
370
     0
100
AcDbMText
 10
2.8449843126
 20
7.5325221936
 30
0.0
 40
0.0833333333
 41
0.0
 71
     1
 72
     1
  1
") THRU
  7
SLDTEXTSTYLE0
 73
     1
 44
1.0
  0
MTEXT
  5
170
330
165
100
AcDbEntity
  8
0
  6
Continuous
 62
     7
370
     0
100
AcDbMText
 10
1.6426216591
 20
7.4002345033
 30
0.0
 40
0.0833333333
 41
0.0
 71
     1
 72
     1
  1
FOR USE WITH TR SERIES POSTS
  7
SLDTEXTSTYLE0
 73
     1
 44
1.0
  0
ENDBLK
  5
167
330
165
100
AcDbEntity
  8
0
100
AcDbBlockEnd
  0
BLOCK
  5
172
330
171
100
AcDbEntity
  8
0
100
AcDbBlockBegin
  2
SW_CENTERMARKSYMBOL_0
 70
     0
 10
0.0
 20
0.0
 30
0.0
  3
SW_CENTERMARKSYMBOL_0
  1

  0
LINE
  5
174
330
171
100
AcDbEntity
  8
0
  6
Continuous
 62
     0
370
     0
100
AcDbLine
 10
0.0
 20
0.0
 30
0.0
 11
0.0
 21
0.05
 31
0.0
  0
LINE
  5
175
330
171
100
AcDbEntity
  8
0
  6
Continuous
 62
     0
370
     0
100
AcDbLine
 10
0.0
 20
0.0
 30
0.0
 11
-0.05
 21
0.0
 31
0.0
  0
LINE
  5
176
330
171
100
AcDbEntity
  8
0
  6
Continuous
 62
     0
370
     0
100
AcDbLine
 10
0.0
 20
0.0
 30
0.0
 11
0.0
 21
-0.05
 31
0.0
  0
LINE
  5
177
330
171
100
AcDbEntity
  8
0
  6
Continuous
 62
     0
370
     0
100
AcDbLine
 10
0.0
 20
0.0
 30
0.0
 11
0.05
 21
0.0
 31
0.0
  0
ENDBLK
  5
173
330
171
100
AcDbEntity
  8
0
100
AcDbBlockEnd
  0
BLOCK
  5
17A
330
179
100
AcDbEntity
  8
0
100
AcDbBlockBegin
  2
SW_CENTERMARKSYMBOL_1
 70
     0
 10
0.0
 20
0.0
 30
0.0
  3
SW_CENTERMARKSYMBOL_1
  1

  0
LINE
  5
17C
330
179
100
AcDbEntity
  8
0
  6
Continuous
 62
     0
370
     0
100
AcDbLine
 10
0.0
 20
0.0
 30
0.0
 11
0.0
 21
0.05
 31
0.0
  0
LINE
  5
17D
330
179
100
AcDbEntity
  8
0
  6
Continuous
 62
     0
370
     0
100
AcDbLine
 10
0.0
 20
0.0
 30
0.0
 11
-0.05
 21
0.0
 31
0.0
  0
LINE
  5
17E
330
179
100
AcDbEntity
  8
0
  6
Continuous
 62
     0
370
     0
100
AcDbLine
 10
0.0
 20
0.0
 30
0.0
 11
0.0
 21
-0.05
 31
0.0
  0
LINE
  5
17F
330
179
100
AcDbEntity
  8
0
  6
Continuous
 62
     0
370
     0
100
AcDbLine
 10
0.0
 20
0.0
 30
0.0
 11
0.05
 21
0.0
 31
0.0
  0
ENDBLK
  5
17B
330
179
100
AcDbEntity
  8
0
100
AcDbBlockEnd
  0
BLOCK
  5
1B9
330
1B8
100
AcDbEntity
  8
0
100
AcDbBlockBegin
  2
*D17
 70
     1
 10
0.0
 20
0.0
 30
0.0
  3
*D17
  1

  0
SOLID
  5
1BB
330
1B8
100
AcDbEntity
  8
0
  6
Continuous
 62
     7
370
     0
100
AcDbTrace
 10
6.1052006506
 20
0.9906493142
 30
0.0
 11
5.9802006506
 21
1.0106493142
 31
0.0
 12
5.9802006506
 22
0.9706493142
 32
0.0
 13
5.9802006506
 23
0.9706493142
 33
0.0
  0
SOLID
  5
1BC
330
1B8
100
AcDbEntity
  8
0
  6
Continuous
 62
     7
370
     0
100
AcDbTrace
 10
4.1366967136
 20
0.9906493142
 30
0.0
 11
4.2616967136
 21
0.9706493142
 31
0.0
 12
4.2616967136
 22
1.0106493142
 32
0.0
 13
4.2616967136
 23
1.0106493142
 33
0.0
  0
LINE
  5
1BD
330
1B8
100
AcDbEntity
  8
0
  6
Continuous
 62
     7
370
     0
100
AcDbLine
 10
6.1052006506
 20
1.2189478022
 30
0.0
 11
6.1052006506
 21
0.9206493142
 31
0.0
  0
LINE
  5
1BE
330
1B8
100
AcDbEntity
  8
0
  6
Continuous
 62
     7
370
     0
100
AcDbLine
 10
4.1366967136
 20
1.6609478022
 30
0.0
 11
4.1366967136
 21
0.9206493142
 31
0.0
  0
LINE
  5
1BF
330
1B8
100
AcDbEntity
  8
0
  6
Continuous
 62
     7
370
     0
100
AcDbLine
 10
6.1052006506
 20
0.9906493142
 30
0.0
 11
5.4106597398
 21
0.9906493142
 31
0.0
  0
LINE
  5
1C0
330
1B8
100
AcDbEntity
  8
0
  6
Continuous
 62
     7
370
     0
100
AcDbLine
 10
4.1366967136
 20
0.9906493142
 30
0.0
 11
4.8312376244
 21
0.9906493142
 31
0.0
  0
MTEXT
  5
1C1
330
1B8
100
AcDbEntity
  8
0
  6
Continuous
 62
     7
370
     0
100
AcDbMText
 10
4.9550576292
 20
0.965783931
 30
0.0
 40
0.0833333333
 41
0.0
 71
     1
 72
     1
  1
(
  7
SLDTEXTSTYLE0
 73
     1
 44
1.0
  0
MTEXT
  5
1C2
330
1B8
100
AcDbEntity
  8
0
  6
Continuous
 62
     7
370
     0
100
AcDbMText
 10
4.9961011524
 20
0.965783931
 30
0.0
 40
0.0833333333
 41
0.0
 71
     1
 72
     1
  1
1.97
  7
SLDTEXTSTYLE0
 73
     1
 44
1.0
  0
MTEXT
  5
1C3
330
1B8
100
AcDbEntity
  8
0
  6
Continuous
 62
     7
370
     0
100
AcDbMText
 10
5.2114570091
 20
0.965783931
 30
0.0
 40
0.0833333333
 41
0.0
 71
     1
 72
     1
  1
")
  7
SLDTEXTSTYLE0
 73
     1
 44
1.0
  0
MTEXT
  5
1C4
330
1B8
100
AcDbEntity
  8
0
  6
Continuous
 62
     7
370
     0
100
AcDbMText
 10
4.9093626244
 20
1.0980716212
 30
0.0
 40
0.0833333333
 41
0.0
 71
     1
 72
     1
  1
50.0 mm
  7
SLDTEXTSTYLE0
 73
     1
 44
1.0
  0
ENDBLK
  5
1BA
330
1B8
100
AcDbEntity
  8
0
100
AcDbBlockEnd
  0
BLOCK
  5
1C7
330
1C6
100
AcDbEntity
  8
0
100
AcDbBlockBegin
  2
*D18
 70
     1
 10
0.0
 20
0.0
 30
0.0
  3
*D18
  1

  0
SOLID
  5
1C9
330
1C6
100
AcDbEntity
  8
0
  6
Continuous
 62
     7
370
     0
100
AcDbTrace
 10
2.7356374905
 20
2.0459478022
 30
0.0
 11
2.7556374905
 21
2.1709478022
 31
0.0
 12
2.7156374905
 22
2.1709478022
 32
0.0
 13
2.7156374905
 23
2.1709478022
 33
0.0
  0
SOLID
  5
1CA
330
1C6
100
AcDbEntity
  8
0
  6
Continuous
 62
     7
370
     0
100
AcDbTrace
 10
2.7356374905
 20
1.4759478022
 30
0.0
 11
2.7156374905
 21
1.3509478022
 31
0.0
 12
2.7556374905
 22
1.3509478022
 32
0.0
 13
2.7556374905
 23
1.3509478022
 33
0.0
  0
LINE
  5
1CB
330
1C6
100
AcDbEntity
  8
0
  6
Continuous
 62
     7
370
     0
100
AcDbLine
 10
3.2046967136
 20
2.0459478022
 30
0.0
 11
2.6656374905
 21
2.0459478022
 31
0.0
  0
LINE
  5
1CC
330
1C6
100
AcDbEntity
  8
0
  6
Continuous
 62
     7
370
     0
100
AcDbLine
 10
3.2046967136
 20
1.4759478022
 30
0.0
 11
2.6656374905
 21
1.4759478022
 31
0.0
  0
LINE
  5
1CD
330
1C6
100
AcDbEntity
  8
0
  6
Continuous
 62
     7
370
     0
100
AcDbLine
 10
2.7356374905
 20
2.0459478022
 30
0.0
 11
2.7356374905
 21
2.2959478022
 31
0.0
  0
LINE
  5
1CE
330
1C6
100
AcDbEntity
  8
0
  6
Continuous
 62
     7
370
     0
100
AcDbLine
 10
2.7356374905
 20
1.4759478022
 30
0.0
 11
2.7356374905
 21
1.2259478022
 31
0.0
  0
MTEXT
  5
1CF
330
1C6
100
AcDbEntity
  8
0
  6
Continuous
 62
     7
370
     0
100
AcDbMText
 10
2.5068729927
 20
1.736082419
 30
0.0
 40
0.0833333333
 41
0.0
 71
     1
 72
     1
  1
(
  7
SLDTEXTSTYLE0
 73
     1
 44
1.0
  0
MTEXT
  5
1D0
330
1C6
100
AcDbEntity
  8
0
  6
Continuous
 62
     7
370
     0
100
AcDbMText
 10
2.5479223735
 20
1.736082419
 30
0.0
 40
0.0833333333
 41
0.0
 71
     1
 72
     1
  1
%%c
  7
SLDTEXTSTYLE0
 73
     1
 44
1.0
  0
MTEXT
  5
1D1
330
1C6
100
AcDbEntity
  8
0
  6
Continuous
 62
     7
370
     0
100
AcDbMText
 10
2.6736634056
 20
1.736082419
 30
0.0
 40
0.0833333333
 41
0.0
 71
     1
 72
     1
  1
0.57
  7
SLDTEXTSTYLE0
 73
     1
 44
1.0
  0
MTEXT
  5
1D2
330
1C6
100
AcDbEntity
  8
0
  6
Continuous
 62
     7
370
     0
100
AcDbMText
 10
2.8890192624
 20
1.736082419
 30
0.0
 40
0.0833333333
 41
0.0
 71
     1
 72
     1
  1
")
  7
SLDTEXTSTYLE0
 73
     1
 44
1.0
  0
MTEXT
  5
1D3
330
1C6
100
AcDbEntity
  8
0
  6
Continuous
 62
     7
370
     0
100
AcDbMText
 10
2.4611779879
 20
1.8683701093
 30
0.0
 40
0.0833333333
 41
0.0
 71
     1
 72
     1
  1
%%c
  7
SLDTEXTSTYLE0
 73
     1
 44
1.0
  0
MTEXT
  5
1D4
330
1C6
100
AcDbEntity
  8
0
  6
Continuous
 62
     7
370
     0
100
AcDbMText
 10
2.5869650273
 20
1.8683701093
 30
0.0
 40
0.0833333333
 41
0.0
 71
     1
 72
     1
  1
14.5 mm
  7
SLDTEXTSTYLE0
 73
     1
 44
1.0
  0
ENDBLK
  5
1C8
330
1C6
100
AcDbEntity
  8
0
100
AcDbBlockEnd
  0
BLOCK
  5
1D7
330
1D6
100
AcDbEntity
  8
0
100
AcDbBlockBegin
  2
*D19
 70
     1
 10
0.0
 20
0.0
 30
0.0
  3
*D19
  1

  0
SOLID
  5
1D9
330
1D6
100
AcDbEntity
  8
0
  6
Continuous
 62
     7
370
     0
100
AcDbTrace
 10
3.2346967136
 20
2.5881189181
 30
0.0
 11
3.1096967136
 21
2.6081189181
 31
0.0
 12
3.1096967136
 22
2.5681189181
 32
0.0
 13
3.1096967136
 23
2.5681189181
 33
0.0
  0
SOLID
  5
1DA
330
1D6
100
AcDbEntity
  8
0
  6
Continuous
 62
     7
370
     0
100
AcDbTrace
 10
3.5446967136
 20
2.5881189181
 30
0.0
 11
3.6696967136
 21
2.5681189181
 31
0.0
 12
3.6696967136
 22
2.6081189181
 32
0.0
 13
3.6696967136
 23
2.6081189181
 33
0.0
  0
LINE
  5
1DB
330
1D6
100
AcDbEntity
  8
0
  6
Continuous
 62
     7
370
     0
100
AcDbLine
 10
3.2346967136
 20
2.0759478022
 30
0.0
 11
3.2346967136
 21
2.6581189181
 31
0.0
  0
LINE
  5
1DC
330
1D6
100
AcDbEntity
  8
0
  6
Continuous
 62
     7
370
     0
100
AcDbLine
 10
3.5446967136
 20
2.0759478022
 30
0.0
 11
3.5446967136
 21
2.6581189181
 31
0.0
  0
LINE
  5
1DD
330
1D6
100
AcDbEntity
  8
0
  6
Continuous
 62
     7
370
     0
100
AcDbLine
 10
3.2346967136
 20
2.5881189181
 30
0.0
 11
2.9846967136
 21
2.5881189181
 31
0.0
  0
LINE
  5
1DE
330
1D6
100
AcDbEntity
  8
0
  6
Continuous
 62
     7
370
     0
100
AcDbLine
 10
3.5446967136
 20
2.5881189181
 30
0.0
 11
3.8285240717
 21
2.5881189181
 31
0.0
  0
MTEXT
  5
1DF
330
1D6
100
AcDbEntity
  8
0
  6
Continuous
 62
     7
370
     0
100
AcDbMText
 10
3.8910240717
 20
2.4971096897
 30
0.0
 40
0.0833333333
 41
0.0
 71
     1
 72
     1
  1
(
  7
SLDTEXTSTYLE0
 73
     1
 44
1.0
  0
MTEXT
  5
1E0
330
1D6
100
AcDbEntity
  8
0
  6
Continuous
 62
     7
370
     0
100
AcDbMText
 10
3.9320675949
 20
2.4971096897
 30
0.0
 40
0.0833333333
 41
0.0
 71
     1
 72
     1
  1
0.31
  7
SLDTEXTSTYLE0
 73
     1
 44
1.0
  0
MTEXT
  5
1E1
330
1D6
100
AcDbEntity
  8
0
  6
Continuous
 62
     7
370
     0
100
AcDbMText
 10
4.1474234516
 20
2.4971096897
 30
0.0
 40
0.0833333333
 41
0.0
 71
     1
 72
     1
  1
")
  7
SLDTEXTSTYLE0
 73
     1
 44
1.0
  0
MTEXT
  5
1E2
330
1D6
100
AcDbEntity
  8
0
  6
Continuous
 62
     7
370
     0
100
AcDbMText
 10
3.8910240717
 20
2.62939738
 30
0.0
 40
0.0833333333
 41
0.0
 71
     1
 72
     1
  1
7.9 mm
  7
SLDTEXTSTYLE0
 73
     1
 44
1.0
  0
ENDBLK
  5
1D8
330
1D6
100
AcDbEntity
  8
0
100
AcDbBlockEnd
  0
BLOCK
  5
1E6
330
1E5
100
AcDbEntity
  8
0
100
AcDbBlockBegin
  2
*D20
 70
     1
 10
0.0
 20
0.0
 30
0.0
  3
*D20
  1

  0
SOLID
  5
1E8
330
1E5
100
AcDbEntity
  8
0
  6
Continuous
 62
     7
370
     0
100
AcDbTrace
 10
3.8815310092
 20
1.3558990957
 30
0.0
 11
3.7856834219
 21
1.273205444
 31
0.0
 12
3.8162697763
 22
1.2474280328
 32
0.0
 13
3.8162697763
 23
1.2474280328
 33
0.0
  0
LINE
  5
1E9
330
1E5
100
AcDbEntity
  8
0
  6
Continuous
 62
     7
370
     0
100
AcDbLine
 10
3.8815310092
 20
1.3558990957
 30
0.0
 11
3.5737076669
 21
0.9906493142
 31
0.0
  0
LINE
  5
1EA
330
1E5
100
AcDbEntity
  8
0
  6
Continuous
 62
     7
370
     0
100
AcDbLine
 10
3.5737076669
 20
0.9906493142
 30
0.0
 11
3.4237076669
 21
0.9906493142
 31
0.0
  0
MTEXT
  5
1EB
330
1E5
100
AcDbEntity
  8
0
  6
Continuous
 62
     7
370
     0
100
AcDbMText
 10
2.9531829692
 20
1.0318080618
 30
0.7128425529
 40
0.0833333333
 41
0.0
 71
     1
 72
     1
  1
MAGNET
  7
SLDTEXTSTYLE0
 73
     1
 44
1.0
  0
MTEXT
  5
1EC
330
1E5
100
AcDbEntity
  8
0
  6
Continuous
 62
     7
370
     0
100
AcDbMText
 10
2.9267940907
 20
0.8994006572
 30
0.7128425529
 40
0.0833333333
 41
0.0
 71
     1
 72
     1
  1
3 PLACES
  7
SLDTEXTSTYLE0
 73
     1
 44
1.0
  0
ENDBLK
  5
1E7
330
1E5
100
AcDbEntity
  8
0
100
AcDbBlockEnd
  0
BLOCK
  5
1EE
330
1ED
100
AcDbEntity
  8
0
100
AcDbBlockBegin
  2
SW_NOTE_4
 70
     0
 10
0.0
 20
0.0
 30
0.0
  3
SW_NOTE_4
  1

  0
MTEXT
  5
1F0
330
1ED
100
AcDbEntity
  8
0
  6
Continuous
 62
     0
370
     0
100
AcDbMText
 10
0.0197384079
 20
0.0396079403
 30
0.0
 40
0.0833333333
 41
0.0
 71
     1
 72
     1
  1
CLAMPING BASE
  7
SLDTEXTSTYLE0
 73
     1
 44
1.0
  0
MTEXT
  5
1F1
330
1ED
100
AcDbEntity
  8
0
  6
Continuous
 62
     0
370
     0
100
AcDbMText
 10
0.0197384079
 20
-0.0715031695
 30
0.0
 40
0.0833333333
 41
0.0
 71
     1
 72
     1
  1
PROVIDES 360
  7
SLDTEXTSTYLE0
 73
     1
 44
1.0
  0
MTEXT
  5
1F2
330
1ED
100
AcDbEntity
  8
0
  6
Continuous
 62
     0
370
     0
100
AcDbMText
 10
0.765880395
 20
-0.0715031695
 30
0.0
 40
0.0833333333
 41
0.0
 71
     1
 72
     1
  1
%%d
  7
SLDTEXTSTYLE0
 73
     1
 44
1.0
  0
MTEXT
  5
1F3
330
1ED
100
AcDbEntity
  8
0
  6
Continuous
 62
     0
370
     0
100
AcDbMText
 10
0.8500933165
 20
-0.0715031695
 30
0.0
 40
0.0833333333
 41
0.0
 71
     1
 72
     1
  1
ROTATION
  7
SLDTEXTSTYLE0
 73
     1
 44
1.0
  0
ENDBLK
  5
1EF
330
1ED
100
AcDbEntity
  8
0
100
AcDbBlockEnd
  0
BLOCK
  5
1F7
330
1F6
100
AcDbEntity
  8
0
100
AcDbBlockBegin
  2
_DOT
 70
     0
 10
0.0
 20
0.0
 30
0.0
  3
_DOT
  1

  0
POLYLINE
  5
1F9
330
1F6
100
AcDbEntity
  8
0
  6
ByBlock
 62
     0
100
AcDb2dPolyline
 66
     1
 10
0.0
 20
0.0
 30
0.0
 70
     1
 40
0.5
 41
0.5
  0
VERTEX
  5
1FB
330
1F9
100
AcDbEntity
  8
0
  6
ByBlock
 62
     0
100
AcDbVertex
100
AcDb2dVertex
 10
-0.25
 20
0.0
 30
0.0
 42
1.0
  0
VERTEX
  5
1FC
330
1F9
100
AcDbEntity
  8
0
  6
ByBlock
 62
     0
100
AcDbVertex
100
AcDb2dVertex
 10
0.25
 20
0.0
 30
0.0
 42
1.0
  0
SEQEND
  5
1FD
330
1F9
100
AcDbEntity
  8
0
  6
ByBlock
 62
     0
  0
LINE
  5
1FA
330
1F6
100
AcDbEntity
  8
0
  6
ByBlock
 62
     0
370
    -2
100
AcDbLine
 10
-0.5
 20
0.0
 30
0.0
 11
-1.0
 21
0.0
 31
0.0
  0
ENDBLK
  5
1F8
330
1F6
100
AcDbEntity
  8
0
100
AcDbBlockEnd
  0
BLOCK
  5
200
330
1FF
100
AcDbEntity
  8
0
100
AcDbBlockBegin
  2
SW_CENTERMARKSYMBOL_2
 70
     0
 10
0.0
 20
0.0
 30
0.0
  3
SW_CENTERMARKSYMBOL_2
  1

  0
LINE
  5
202
330
1FF
100
AcDbEntity
  8
0
  6
Continuous
 62
     0
370
     0
100
AcDbLine
 10
0.0
 20
0.0
 30
0.0
 11
0.0
 21
0.05
 31
0.0
  0
LINE
  5
203
330
1FF
100
AcDbEntity
  8
0
  6
Continuous
 62
     0
370
     0
100
AcDbLine
 10
0.0
 20
0.0
 30
0.0
 11
-0.05
 21
0.0
 31
0.0
  0
LINE
  5
204
330
1FF
100
AcDbEntity
  8
0
  6
Continuous
 62
     0
370
     0
100
AcDbLine
 10
0.0
 20
0.0
 30
0.0
 11
0.0
 21
-0.05
 31
0.0
  0
LINE
  5
205
330
1FF
100
AcDbEntity
  8
0
  6
Continuous
 62
     0
370
     0
100
AcDbLine
 10
0.0
 20
0.0
 30
0.0
 11
0.05
 21
0.0
 31
0.0
  0
ENDBLK
  5
201
330
1FF
100
AcDbEntity
  8
0
100
AcDbBlockEnd
  0
BLOCK
  5
251
330
250
100
AcDbEntity
  8
0
100
AcDbBlockBegin
  2
SW_BROKEN_VIEW_1
 70
     0
 10
0.0
 20
0.0
 30
0.0
  3
SW_BROKEN_VIEW_1
  1

  0
ENDBLK
  5
252
330
250
100
AcDbEntity
  8
0
100
AcDbBlockEnd
  0
BLOCK
  5
3AD
330
3AC
100
AcDbEntity
  8
0
100
AcDbBlockBegin
  2
*D25
 70
     1
 10
0.0
 20
0.0
 30
0.0
  3
*D25
  1

  0
SOLID
  5
3AF
330
3AC
100
AcDbEntity
  8
0
  6
Continuous
 62
     7
370
     0
100
AcDbTrace
 10
2.4155622111
 20
5.3650001502
 30
0.0
 11
2.4954238919
 21
5.4632198628
 31
0.0
 12
2.4607912612
 22
5.4832343798
 32
0.0
 13
2.4607912612
 23
5.4832343798
 33
0.0
  0
LINE
  5
3B0
330
3AC
100
AcDbEntity
  8
0
  6
Continuous
 62
     7
370
     0
100
AcDbLine
 10
2.4155622111
 20
5.3650001502
 30
0.0
 11
2.7591884274
 21
5.9596025533
 31
0.0
  0
LINE
  5
3B1
330
3AC
100
AcDbEntity
  8
0
  6
Continuous
 62
     7
370
     0
100
AcDbLine
 10
2.7591884274
 20
5.9596025533
 30
0.0
 11
2.6091884274
 21
5.9596025533
 31
0.0
  0
MTEXT
  5
3B2
330
3AC
100
AcDbEntity
  8
0
  6
Continuous
 62
     7
370
     0
100
AcDbMText
 10
1.474487704
 20
5.868593325
 30
0.0
 40
0.0833333333
 41
0.0
 71
     1
 72
     1
  1
5.0 mm HEX SOCKET
  7
SLDTEXTSTYLE0
 73
     1
 44
1.0
  0
MTEXT
  5
3B3
330
3AC
100
AcDbEntity
  8
0
  6
Continuous
 62
     7
370
     0
100
AcDbMText
 10
0.895953899
 20
6.0008810153
 30
0.0
 40
0.0833333333
 41
0.0
 71
     1
 72
     1
  1
SPRING LOADED THUMBSCREW
  7
SLDTEXTSTYLE0
 73
     1
 44
1.0
  0
ENDBLK
  5
3AE
330
3AC
100
AcDbEntity
  8
0
100
AcDbBlockEnd
  0
BLOCK
  5
3B6
330
3B5
100
AcDbEntity
  8
0
100
AcDbBlockBegin
  2
*D26
 70
     1
 10
0.0
 20
0.0
 30
0.0
  3
*D26
  1

  0
SOLID
  5
3B8
330
3B5
100
AcDbEntity
  8
0
  6
Continuous
 62
     7
370
     0
100
AcDbTrace
 10
1.207173492
 20
3.3574042638
 30
0.0
 11
1.227173492
 21
3.4824042638
 31
0.0
 12
1.187173492
 22
3.4824042638
 32
0.0
 13
1.187173492
 23
3.4824042638
 33
0.0
  0
SOLID
  5
3B9
330
3B5
100
AcDbEntity
  8
0
  6
Continuous
 62
     7
370
     0
100
AcDbTrace
 10
1.207173492
 20
5.1182426562
 30
0.0
 11
1.187173492
 21
4.9932426562
 31
0.0
 12
1.227173492
 22
4.9932426562
 32
0.0
 13
1.227173492
 23
4.9932426562
 33
0.0
  0
LINE
  5
3BA
330
3B5
100
AcDbEntity
  8
0
  6
Continuous
 62
     7
370
     0
100
AcDbLine
 10
1.7309587781
 20
3.3574042638
 30
0.0
 11
1.137173492
 21
3.3574042638
 31
0.0
  0
LINE
  5
3BB
330
3B5
100
AcDbEntity
  8
0
  6
Continuous
 62
     7
370
     0
100
AcDbLine
 10
2.1729587781
 20
5.1182426562
 30
0.0
 11
1.137173492
 21
5.1182426562
 31
0.0
  0
LINE
  5
3BC
330
3B5
100
AcDbEntity
  8
0
  6
Continuous
 62
     7
370
     0
100
AcDbLine
 10
1.207173492
 20
3.3574042638
 30
0.0
 11
1.207173492
 21
3.741003719
 31
0.0
  0
LINE
  5
3BD
330
3B5
100
AcDbEntity
  8
0
  6
Continuous
 62
     7
370
     0
100
AcDbLine
 10
1.207173492
 20
5.1182426562
 30
0.0
 11
1.207173492
 21
4.3701111503
 31
0.0
  0
LINE
  5
3BE
330
3B5
100
AcDbEntity
  8
0
  6
Continuous
 62
     7
370
     0
100
AcDbLine
 10
1.207173492
 20
3.741003719
 30
0.0
 11
1.2627290476
 21
3.7687814968
 31
0.0
  0
LINE
  5
3BF
330
3B5
100
AcDbEntity
  8
0
  6
Continuous
 62
     7
370
     0
100
AcDbLine
 10
1.2627290476
 20
3.7687814968
 30
0.0
 11
1.1516179364
 21
3.8243370524
 31
0.0
  0
LINE
  5
3C0
330
3B5
100
AcDbEntity
  8
0
  6
Continuous
 62
     7
370
     0
100
AcDbLine
 10
1.1516179364
 20
3.8243370524
 30
0.0
 11
1.207173492
 21
3.8521148301
 31
0.0
  0
LINE
  5
3C1
330
3B5
100
AcDbEntity
  8
0
  6
Continuous
 62
     7
370
     0
100
AcDbLine
 10
1.207173492
 20
3.8521148301
 30
0.0
 11
1.207173492
 21
4.1055357697
 31
0.0
  0
MTEXT
  5
3C2
330
3B5
100
AcDbEntity
  8
0
  6
Continuous
 62
     7
370
     0
100
AcDbMText
 10
1.0412824391
 20
4.2129580768
 30
0.0
 40
0.0833333333
 41
0.0
 71
     1
 72
     1
  1
(
  7
SLDTEXTSTYLE0
 73
     1
 44
1.0
  0
MTEXT
  5
3C3
330
3B5
100
AcDbEntity
  8
0
  6
Continuous
 62
     7
370
     0
100
AcDbMText
 10
1.0823259623
 20
4.2129580768
 30
0.0
 40
0.0833333333
 41
0.0
 71
     1
 72
     1
  1
5.68
  7
SLDTEXTSTYLE0
 73
     1
 44
1.0
  0
MTEXT
  5
3C4
330
3B5
100
AcDbEntity
  8
0
  6
Continuous
 62
     7
370
     0
100
AcDbMText
 10
1.297681819
 20
4.2129580768
 30
0.0
 40
0.0833333333
 41
0.0
 71
     1
 72
     1
  1
")
  7
SLDTEXTSTYLE0
 73
     1
 44
1.0
  0
MTEXT
  5
3C5
330
3B5
100
AcDbEntity
  8
0
  6
Continuous
 62
     7
370
     0
100
AcDbMText
 10
0.9648456719
 20
4.3452457671
 30
0.0
 40
0.0833333333
 41
0.0
 71
     1
 72
     1
  1
144.3 mm
  7
SLDTEXTSTYLE0
 73
     1
 44
1.0
  0
ENDBLK
  5
3B7
330
3B5
100
AcDbEntity
  8
0
100
AcDbBlockEnd
  0
BLOCK
  5
3C7
330
3C6
100
AcDbEntity
  8
0
100
AcDbBlockBegin
  2
SW_CENTERMARKSYMBOL_3
 70
     0
 10
0.0
 20
0.0
 30
0.0
  3
SW_CENTERMARKSYMBOL_3
  1

  0
LINE
  5
3C9
330
3C6
100
AcDbEntity
  8
0
  6
Continuous
 62
     0
370
     0
100
AcDbLine
 10
0.0
 20
0.0
 30
0.0
 11
0.0
 21
0.0500001424
 31
0.0
  0
LINE
  5
3CA
330
3C6
100
AcDbEntity
  8
0
  6
Continuous
 62
     0
370
     0
100
AcDbLine
 10
0.0
 20
0.0
 30
0.0
 11
-0.0500000003
 21
0.0
 31
0.0
  0
LINE
  5
3CB
330
3C6
100
AcDbEntity
  8
0
  6
Continuous
 62
     0
370
     0
100
AcDbLine
 10
0.0
 20
0.0
 30
0.0
 11
0.0
 21
-0.0499998491
 31
0.0
  0
LINE
  5
3CC
330
3C6
100
AcDbEntity
  8
0
  6
Continuous
 62
     0
370
     0
100
AcDbLine
 10
0.0
 20
0.0
 30
0.0
 11
0.0500000003
 21
0.0
 31
0.0
  0
ENDBLK
  5
3C8
330
3C6
100
AcDbEntity
  8
0
100
AcDbBlockEnd
  0
ENDSEC
  0
SECTION
  2
ENTITIES
  0
LINE
  5
52
330
1F
100
AcDbEntity
  8
0
  6
Continuous
 62
     7
370
     0
100
AcDbLine
 10
0.0621791378
 20
8.4506055117
 30
0.0
 11
10.9444569626
 21
8.4506055117
 31
0.0
  0
LINE
  5
53
330
1F
100
AcDbEntity
  8
0
  6
Continuous
 62
     7
370
     0
100
AcDbLine
 10
0.0621791378
 20
8.4506055117
 30
0.0
 11
0.0621791378
 21
0.035557648
 31
0.0
  0
LINE
  5
54
330
1F
100
AcDbEntity
  8
0
  6
Continuous
 62
     7
370
     0
100
AcDbLine
 10
10.9444569626
 20
0.035557648
 30
0.0
 11
0.0621791378
 21
0.035557648
 31
0.0
  0
LINE
  5
55
330
1F
100
AcDbEntity
  8
0
  6
Continuous
 62
     7
370
     0
100
AcDbLine
 10
10.9444569626
 20
0.035557648
 30
0.0
 11
10.9444569626
 21
8.4506055117
 31
0.0
  0
LINE
  5
56
330
1F
100
AcDbEntity
  8
0
  6
Continuous
 62
     7
370
     0
100
AcDbLine
 10
8.4938096065
 20
0.4840901186
 30
0.0
 11
6.7571952625
 21
0.4840901186
 31
0.0
  0
LINE
  5
57
330
1F
100
AcDbEntity
  8
0
  6
Continuous
 62
     7
370
     0
100
AcDbLine
 10
6.7571952625
 20
0.4840901186
 30
0.0
 11
6.7571952625
 21
1.030163002
 31
0.0
  0
LINE
  5
58
330
1F
100
AcDbEntity
  8
0
  6
Continuous
 62
     7
370
     0
100
AcDbLine
 10
6.7571952625
 20
0.035557648
 30
0.0
 11
6.7571952625
 21
1.030163002
 31
0.0
  0
LINE
  5
59
330
1F
100
AcDbEntity
  8
0
  6
Continuous
 62
     7
370
     0
100
AcDbLine
 10
8.4938096065
 20
0.6756085809
 30
0.0
 11
10.9444569626
 21
0.6756085809
 31
0.0
  0
LINE
  5
5A
330
1F
100
AcDbEntity
  8
0
  6
Continuous
 62
     7
370
     0
100
AcDbLine
 10
8.4938096065
 20
1.3873799542
 30
0.0
 11
8.4938096065
 21
0.035557648
 31
0.0
  0
LINE
  5
5B
330
1F
100
AcDbEntity
  8
0
  6
Continuous
 62
     7
370
     0
100
AcDbLine
 10
8.4938096065
 20
1.030163002
 30
0.0
 11
6.7571952625
 21
1.030163002
 31
0.0
  0
LINE
  5
5C
330
1F
100
AcDbEntity
  8
0
  6
Continuous
 62
     7
370
     0
100
AcDbLine
 10
8.4938096065
 20
0.3598787426
 30
0.0
 11
10.9444569626
 21
0.3598787426
 31
0.0
  0
LINE
  5
5D
330
1F
100
AcDbEntity
  8
0
  6
Continuous
 62
     7
370
     0
100
AcDbLine
 10
8.4938096065
 20
0.6662079686
 30
0.0
 11
6.7571952625
 21
0.6662079686
 31
0.0
  0
LINE
  5
5E
330
1F
100
AcDbEntity
  8
0
  6
Continuous
 62
     7
370
     0
100
AcDbLine
 10
8.4938096065
 20
0.8459606517
 30
0.0
 11
6.7571952625
 21
0.8459606517
 31
0.0
  0
LINE
  5
5F
330
1F
100
AcDbEntity
  8
0
  6
Continuous
 62
     7
370
     0
100
AcDbLine
 10
7.3281027587
 20
1.030163002
 30
0.0
 11
7.3281027587
 21
0.4840901186
 31
0.0
  0
LINE
  5
60
330
1F
100
AcDbEntity
  8
0
  6
Continuous
 62
     7
370
     0
100
AcDbLine
 10
7.8037240401
 20
1.030163002
 30
0.0
 11
7.8037240401
 21
0.4840901186
 31
0.0
  0
LINE
  5
61
330
1F
100
AcDbEntity
  8
0
  6
Continuous
 62
     7
370
     0
100
AcDbLine
 10
9.990119718
 20
0.3598787426
 30
0.0
 11
9.990119718
 21
0.035557648
 31
0.0
  0
LINE
  5
62
330
1F
100
AcDbEntity
  8
0
  6
Continuous
 62
     7
370
     0
100
AcDbLine
 10
6.7571952625
 20
0.4840901186
 30
0.0
 11
6.7571952625
 21
0.297745443
 31
0.0
  0
LINE
  5
63
330
1F
100
AcDbEntity
  8
0
  6
Continuous
 62
     7
370
     0
100
AcDbLine
 10
6.7571952625
 20
0.297745443
 30
0.0
 11
8.4938096065
 21
0.297745443
 31
0.0
  0
LINE
  5
64
330
1F
100
AcDbEntity
  8
0
  6
Continuous
 62
     7
370
     0
100
AcDbLine
 10
6.7571952625
 20
0.297745443
 30
0.0
 11
6.7571952625
 21
1.3873799542
 31
0.0
  0
LINE
  5
65
330
1F
100
AcDbEntity
  8
0
  6
Continuous
 62
     7
370
     0
100
AcDbLine
 10
6.7571952625
 20
1.3873799542
 30
0.0
 11
8.4938096065
 21
1.3873799542
 31
0.0
  0
LINE
  5
66
330
1F
100
AcDbEntity
  8
0
  6
Continuous
 62
     7
370
     0
100
AcDbLine
 10
10.6365495992
 20
0.6756085809
 30
0.0
 11
10.6365495992
 21
0.3598787426
 31
0.0
  0
LINE
  5
67
330
1F
100
AcDbEntity
  8
0
  6
Continuous
 62
     7
370
     0
100
AcDbLine
 10
8.4938096065
 20
1.3873799542
 30
0.0
 11
10.9444569626
 21
1.3873799542
 31
0.0
  0
LINE
  5
68
330
1F
100
AcDbEntity
  8
0
  6
Continuous
 62
     7
370
     0
100
AcDbLine
 10
10.9444569626
 20
1.3873799542
 30
0.0
 11
10.9444569626
 21
1.9698084888
 31
0.0
  0
LINE
  5
69
330
1F
100
AcDbEntity
  8
0
  6
Continuous
 62
     7
370
     0
100
AcDbLine
 10
8.4938096065
 20
0.9800288797
 30
0.0
 11
10.9444569626
 21
0.9800288797
 31
0.0
  0
INSERT
  5
6A
330
1F
100
AcDbEntity
  8
0
  6
Continuous
 62
     7
100
AcDbBlockReference
  2
Third Angle Projection Block
 10
4.6348905679
 20
0.6108753523
 30
0.0
 41
0.8
 42
0.8
 43
0.8
  0
MTEXT
  5
6C
330
1F
100
AcDbEntity
  8
0
  6
Continuous
 62
     7
370
     0
100
AcDbMText
 10
10.7776160107
 20
0.5162413101
 30
0.0
 40
0.125
 41
0.0
 71
     2
 72
     1
  1
A
  7
SLDTEXTSTYLE0
 73
     1
 44
1.0
  0
MTEXT
  5
6D
330
1F
100
AcDbEntity
  8
0
  6
Continuous
 62
     7
370
     0
100
AcDbMText
 10
9.2389498909
 20
0.2019943461
 30
0.0
 40
0.125
 41
0.0
 71
     2
 72
     1
  1
UPH6/M
  7
SLDTEXTSTYLE0
 73
     1
 44
1.0
  0
MTEXT
  5
6E
330
1F
100
AcDbEntity
  8
0
  6
Continuous
 62
     7
370
     0
100
AcDbMText
 10
8.5204715199
 20
0.6623747189
 30
0.0
 40
0.0833333333
 41
0.0
 71
     1
 72
     1
  1
MATERIAL
  7
SLDTEXTSTYLE0
 73
     1
 44
1.0
  0
MTEXT
  5
6F
330
1F
100
AcDbEntity
  8
0
  6
Continuous
 62
     7
370
     0
100
AcDbMText
 10
6.8055665782
 20
0.7895493672
 30
0.0
 40
0.0729166667
 41
0.0
 71
     1
 72
     1
  1
REDRAWN
  7
SLDTEXTSTYLE0
 73
     1
 44
1.0
  0
MTEXT
  5
70
330
1F
100
AcDbEntity
  8
0
  6
Continuous
 62
     7
370
     0
100
AcDbMText
 10
6.7872445848
 20
0.613335314
 30
0.0
 40
0.0729166667
 41
0.0
 71
     1
 72
     1
  1
APPROVAL
  7
SLDTEXTSTYLE0
 73
     1
 44
1.0
  0
MTEXT
  5
71
330
1F
100
AcDbEntity
  8
0
  6
Continuous
 62
     7
370
     0
100
AcDbMText
 10
10.681956279
 20
0.6308568984
 30
0.0
 40
0.0833333333
 41
0.0
 71
     1
 72
     1
  1
REV
  7
SLDTEXTSTYLE0
 73
     1
 44
1.0
  0
MTEXT
  5
72
330
1F
100
AcDbEntity
  8
0
  6
Continuous
 62
     7
370
     0
100
AcDbMText
 10
7.4919633718
 20
0.7999100272
 30
0.0
 40
0.0833333333
 41
0.0
 71
     1
 72
     1
  1
TLB
  7
SLDTEXTSTYLE0
 73
     1
 44
1.0
  0
MTEXT
  5
73
330
1F
100
AcDbEntity
  8
0
  6
Continuous
 62
     7
370
     0
100
AcDbMText
 10
7.4919633718
 20
0.623695974
 30
0.0
 40
0.0833333333
 41
0.0
 71
     1
 72
     1
  1
TLB
  7
SLDTEXTSTYLE0
 73
     1
 44
1.0
  0
MTEXT
  5
75
330
1F
100
AcDbEntity
  8
0
  6
Continuous
 62
     7
370
     0
100
AcDbMText
 10
7.8687497515
 20
0.7999100272
 30
0.0
 40
0.0833333333
 41
0.0
 71
     1
 72
     1
  1
05 MAR 12
  7
SLDTEXTSTYLE1
 73
     1
 44
1.0
  0
MTEXT
  5
76
330
1F
100
AcDbEntity
  8
0
  6
Continuous
 62
     7
370
     0
100
AcDbMText
 10
8.0163191884
 20
0.9772495896
 30
0.0
 40
0.0833333333
 41
0.0
 71
     1
 72
     1
  1
DATE
  7
SLDTEXTSTYLE0
 73
     1
 44
1.0
  0
MTEXT
  5
77
330
1F
100
AcDbEntity
  8
0
  6
Continuous
 62
     7
370
     0
100
AcDbMText
 10
7.8687497515
 20
0.623695974
 30
0.0
 40
0.0833333333
 41
0.0
 71
     1
 72
     1
  1
05 MAR 12
  7
SLDTEXTSTYLE1
 73
     1
 44
1.0
  0
MTEXT
  5
79
330
1F
100
AcDbEntity
  8
0
  6
Continuous
 62
     7
370
     0
100
AcDbMText
 10
9.0316104912
 20
1.0943207896
 30
0.0
 40
0.0833333333
 41
0.0
 71
     1
 72
     1
  1
w w w . t h o r  l a b s . c o m
  7
SLDTEXTSTYLE2
 73
     1
 44
1.0
  0
MTEXT
  5
7A
330
1F
100
AcDbEntity
  8
0
  6
Continuous
 62
     7
370
     0
100
AcDbMText
 10
8.5315119501
 20
0.328719653
 30
0.0
 40
0.0833333333
 41
0.0
 71
     1
 72
     1
  1
ITEM #
  7
SLDTEXTSTYLE0
 73
     1
 44
1.0
  0
MTEXT
  5
7B
330
1F
100
AcDbEntity
  8
0
  6
Continuous
 62
     7
370
     0
100
AcDbMText
 10
10.0209370115
 20
0.328719653
 30
0.0
 40
0.0833333333
 41
0.0
 71
     1
 72
     1
  1
APPROX WEIGHT
  7
SLDTEXTSTYLE0
 73
     1
 44
1.0
  0
MTEXT
  5
7C
330
1F
100
AcDbEntity
  8
0
  6
Continuous
 62
     7
370
     0
100
AcDbMText
 10
9.5853574294
 20
0.5162413101
 30
0.0
 40
0.125
 41
0.0
 71
     2
 72
     1
  1
ALUMINUM
  7
SLDTEXTSTYLE0
 73
     1
 44
1.0
  0
MTEXT
  5
7D
330
1F
100
AcDbEntity
  8
0
  6
Continuous
 62
     7
370
     0
100
AcDbMText
 10
10.4790491378
 20
0.2019943461
 30
0.0
 40
0.125
 41
0.0
 71
     2
 72
     1
  1
0.18 kg
  7
SLDTEXTSTYLE0
 73
     1
 44
1.0
  0
INSERT
  5
83
330
1F
100
AcDbEntity
  8
0
  6
Continuous
 62
     7
370
     0
100
AcDbBlockReference
  2
SW_NOTE_0
 10
6.8835832285
 20
0.1754273811
 30
0.0
  0
INSERT
  5
89
330
1F
100
AcDbEntity
  8
0
  6
Continuous
 62
     7
370
     0
100
AcDbBlockReference
  2
SW_NOTE_1
 10
6.8719828753
 20
1.2001390658
 30
0.0
  0
MTEXT
  5
8A
330
1F
100
AcDbEntity
  8
0
  6
Continuous
 62
     7
370
     0
100
AcDbMText
 10
7.3987149145
 20
0.9772495896
 30
0.0
 40
0.0833333333
 41
0.0
 71
     1
 72
     1
  1
NAME
  7
SLDTEXTSTYLE0
 73
     1
 44
1.0
  0
INSERT
  5
90
330
1F
100
AcDbEntity
  8
0
  6
Continuous
 62
     7
370
     0
100
AcDbBlockReference
  2
SW_NOTE_2
 10
2.3078923918
 20
0.3219551564
 30
0.0
  0
MTEXT
  5
91
330
1F
100
AcDbEntity
  8
0
  6
Continuous
 62
     7
370
     0
100
AcDbMText
 10
7.0518693355
 20
0.4200025137
 30
0.0
 40
0.0625
 41
0.0
 71
     1
 72
     1
  1
COPYRIGHT © 2012 BY THORLABS
  7
SLDTEXTSTYLE0
 73
     1
 44
1.0
  0
INSERT
  5
97
330
1F
100
AcDbEntity
  8
0
  6
Continuous
 62
     7
370
     0
100
AcDbBlockReference
  2
SW_NOTE_3
 10
9.0747457122
 20
0.8103344692
 30
0.0
  0
INSERT
  5
9B
330
1F
100
AcDbEntity
  8
0
  6
Continuous
 62
     7
100
AcDbBlockReference
  2
SW_BROKEN_VIEW_0
 10
0.0
 20
0.0
 30
0.0
  0
LINE
  5
9C
330
1F
100
AcDbEntity
  8
0
  6
Continuous
 62
     7
370
     0
100
AcDbLine
 10
4.7399619113
 20
4.6468013518
 30
0.0
 11
4.7399619113
 21
5.2547484887
 31
0.0
  0
LINE
  5
9D
330
1F
100
AcDbEntity
  8
0
  6
Continuous
 62
     7
370
     0
100
AcDbLine
 10
3.7559619169
 20
4.9597483232
 30
0.0
 11
3.7559619169
 21
4.5922991814
 31
0.0
  0
LINE
  5
9E
330
1F
100
AcDbEntity
  8
0
  6
Continuous
 62
     7
370
     0
100
AcDbLine
 10
3.7559619169
 20
5.2547484887
 30
0.0
 11
3.7559619169
 21
5.2097487419
 31
0.0
  0
LINE
  5
9F
330
1F
100
AcDbEntity
  8
0
  6
Continuous
 62
     7
370
     0
100
AcDbLine
 10
4.7399619113
 20
5.2547484887
 30
0.0
 11
4.6533593617
 21
5.4047486226
 31
0.0
  0
LINE
  5
A0
330
1F
100
AcDbEntity
  8
0
  6
Continuous
 62
     7
370
     0
100
AcDbLine
 10
3.8425644297
 20
5.4047486226
 30
0.0
 11
3.7559619169
 21
5.2547484887
 31
0.0
  0
LINE
  5
A1
330
1F
100
AcDbEntity
  8
0
  6
Continuous
 62
     7
370
     0
100
AcDbLine
 10
3.6359619564
 20
4.7997485716
 30
0.0
 11
3.6559619254
 21
4.8197483939
 31
0.0
  0
LINE
  5
A2
330
1F
100
AcDbEntity
  8
0
  6
Continuous
 62
     7
370
     0
100
AcDbLine
 10
3.6559619254
 20
5.3497486713
 30
0.0
 11
3.6359619564
 21
5.3697484935
 31
0.0
  0
LINE
  5
A3
330
1F
100
AcDbEntity
  8
0
  6
Continuous
 62
     7
370
     0
100
AcDbLine
 10
3.3659618622
 20
4.7997485716
 30
0.0
 11
3.6359619564
 21
4.7997485716
 31
0.0
  0
LINE
  5
A4
330
1F
100
AcDbEntity
  8
0
  6
Continuous
 62
     7
370
     0
100
AcDbLine
 10
3.6359619564
 20
5.3697484935
 30
0.0
 11
3.3659618622
 21
5.3697484935
 31
0.0
  0
LINE
  5
A5
330
1F
100
AcDbEntity
  8
0
  6
Continuous
 62
     7
370
     0
100
AcDbLine
 10
3.3659618622
 20
5.3697484935
 30
0.0
 11
3.3459618932
 21
5.3497486713
 31
0.0
  0
LINE
  5
A6
330
1F
100
AcDbEntity
  8
0
  6
Continuous
 62
     7
370
     0
100
AcDbLine
 10
3.3459618932
 20
4.8197483939
 30
0.0
 11
3.3659618622
 21
4.7997485716
 31
0.0
  0
ARC
  5
A7
330
1F
100
AcDbEntity
  8
0
  6
Continuous
 62
     7
370
     0
100
AcDbCircle
 10
3.6659613131
 20
4.9497489356
 30
0.0
 40
0.0099993876745839
100
AcDbArc
 50
89.9965803361
 51
180.0013188011
  0
ARC
  5
A8
330
1F
100
AcDbEntity
  8
0
  6
Continuous
 62
     7
370
     0
100
AcDbCircle
 10
3.6659613131
 20
5.2197481295
 30
0.0
 40
0.0099993876745839
100
AcDbArc
 50
179.9986811989
 51
270.0034196639
  0
LINE
  5
A9
330
1F
100
AcDbEntity
  8
0
  6
Continuous
 62
     7
370
     0
100
AcDbLine
 10
3.6659619099
 20
4.9597483232
 30
0.0
 11
3.7559619169
 21
4.9597483232
 31
0.0
  0
LINE
  5
AA
330
1F
100
AcDbEntity
  8
0
  6
Continuous
 62
     7
370
     0
100
AcDbLine
 10
3.7559619169
 20
5.2097487419
 30
0.0
 11
3.6659619099
 21
5.2097487419
 31
0.0
  0
SPLINE
  5
AB
330
1F
100
AcDbEntity
  8
0
  6
Continuous
 62
     7
370
     0
100
AcDbSpline
210
0.0
220
0.0
230
1.0
 70
     8
 71
     3
 72
    24
 73
    20
 74
     0
 42
0.00000001
 43
0.00000001
 40
0.0
 40
0.0
 40
0.0
 40
0.0
 40
0.0000504583524207
 40
0.0099341695152825
 40
0.0395207335401072
 40
0.0864566018578941
 40
0.1487700670568416
 40
0.224257144047627
 40
0.3106614477518753
 40
0.4043940710714827
 40
0.5003652250411258
 40
0.5961945712734875
 40
0.6900352675818291
 40
0.7762910221601833
 40
0.8517169006186598
 40
0.9138523935591478
 40
0.9607010267745614
 40
0.990207807861969
 40
1.0
 40
1.0
 40
1.0
 40
1.0
 10
3.755964850151259
 20
5.203155271381711
 30
0.0
 10
3.755963866913641
 20
5.203159203714917
 30
0.0
 10
3.755770288473328
 20
5.203933395950489
 30
0.0
 10
3.757531164781457
 20
5.197174956598323
 30
0.0
 10
3.758306496698367
 20
5.193980940145164
 30
0.0
 10
3.761384814887823
 20
5.181302039924669
 30
0.0
 10
3.764184234270098
 20
5.167626527865351
 30
0.0
 10
3.767294329116981
 20
5.149688468579594
 30
0.0
 10
3.769842456835569
 20
5.129512640636515
 30
0.0
 10
3.771641069903279
 20
5.107488392022479
 30
0.0
 10
3.77225674907349
 20
5.084680004530842
 30
0.0
 10
3.771639090536668
 20
5.061852931075041
 30
0.0
 10
3.76983989495555
 20
5.039872273531503
 30
0.0
 10
3.767261715229921
 20
5.019613412101283
 30
0.0
 10
3.764220227076424
 20
5.001987139883619
 30
0.0
 10
3.761220231627886
 20
4.987559207969218
 30
0.0
 10
3.758633872473692
 20
4.976800113783875
 30
0.0
 10
3.756964425763973
 20
4.970122585746075
 30
0.0
 10
3.75616188684265
 20
4.967087023434766
 30
0.0
 10
3.755961916851811
 20
4.966330647199978
 30
0.0
  0
LINE
  5
AC
330
1F
100
AcDbEntity
  8
0
  6
Continuous
 62
     7
370
     0
100
AcDbLine
 10
4.7399619113
 20
5.2547484887
 30
0.0
 11
3.7559619169
 21
5.2547484887
 31
0.0
  0
LINE
  5
AD
330
1F
100
AcDbEntity
  8
0
  6
Continuous
 62
     7
370
     0
100
AcDbLine
 10
3.8425644297
 20
5.4047486226
 30
0.0
 11
4.6533593617
 21
5.4047486226
 31
0.0
  0
LINE
  5
AE
330
1F
100
AcDbEntity
  8
0
  6
Continuous
 62
     7
370
     0
100
AcDbLine
 10
3.6359619564
 20
4.7997485716
 30
0.0
 11
3.6359619564
 21
5.3697484935
 31
0.0
  0
LINE
  5
AF
330
1F
100
AcDbEntity
  8
0
  6
Continuous
 62
     7
370
     0
100
AcDbLine
 10
3.6559619254
 20
4.8197483939
 30
0.0
 11
3.6559619254
 21
5.3497486713
 31
0.0
  0
LINE
  5
B0
330
1F
100
AcDbEntity
  8
0
  6
Continuous
 62
     7
370
     0
100
AcDbLine
 10
3.3659618622
 20
4.7997485716
 30
0.0
 11
3.3659618622
 21
5.3697484935
 31
0.0
  0
LINE
  5
B1
330
1F
100
AcDbEntity
  8
0
  6
Continuous
 62
     7
370
     0
100
AcDbLine
 10
3.3459618932
 20
4.8197483939
 30
0.0
 11
3.3459618932
 21
5.3497486713
 31
0.0
  0
LINE
  5
B2
330
1F
100
AcDbEntity
  8
0
  6
Continuous
 62
     7
370
     0
100
AcDbLine
 10
3.7559619169
 20
3.847898355
 30
0.0
 11
3.7809619147
 21
3.8228981372
 31
0.0
  0
LINE
  5
B3
330
1F
100
AcDbEntity
  8
0
  6
Continuous
 62
     7
370
     0
100
AcDbLine
 10
4.7149619134
 20
3.8228981372
 30
0.0
 11
4.7399619113
 21
3.847898355
 31
0.0
  0
LINE
  5
B4
330
1F
100
AcDbEntity
  8
0
  6
Continuous
 62
     7
370
     0
100
AcDbLine
 10
4.7399619113
 20
3.847898355
 30
0.0
 11
4.7399619113
 21
4.346801405
 31
0.0
  0
LINE
  5
B5
330
1F
100
AcDbEntity
  8
0
  6
Continuous
 62
     7
370
     0
100
AcDbLine
 10
3.7559619169
 20
4.292299088
 30
0.0
 11
3.7559619169
 21
3.847898355
 31
0.0
  0
LINE
  5
B6
330
1F
100
AcDbEntity
  8
0
  6
Continuous
 62
     7
370
     0
100
AcDbLine
 10
3.7559619169
 20
3.5408983549
 30
0.0
 11
3.7559619169
 21
3.390898221
 31
0.0
  0
LINE
  5
B7
330
1F
100
AcDbEntity
  8
0
  6
Continuous
 62
     7
370
     0
100
AcDbLine
 10
4.7399619113
 20
3.390898221
 30
0.0
 11
4.7399619113
 21
3.4688981733
 31
0.0
  0
LINE
  5
B8
330
1F
100
AcDbEntity
  8
0
  6
Continuous
 62
     7
370
     0
100
AcDbLine
 10
3.8532119401
 20
3.8228981372
 30
0.0
 11
3.8532119401
 21
3.8188982901
 31
0.0
  0
LINE
  5
B9
330
1F
100
AcDbEntity
  8
0
  6
Continuous
 62
     7
370
     0
100
AcDbLine
 10
4.642711888
 20
3.8188982901
 30
0.0
 11
4.642711888
 21
3.8228981372
 31
0.0
  0
LINE
  5
BA
330
1F
100
AcDbEntity
  8
0
  6
Continuous
 62
     7
370
     0
100
AcDbLine
 10
3.7559619169
 20
3.8188982901
 30
0.0
 11
3.7559619169
 21
3.5408983549
 31
0.0
  0
LINE
  5
BB
330
1F
100
AcDbEntity
  8
0
  6
Continuous
 62
     7
370
     0
100
AcDbLine
 10
3.7559619169
 20
3.847898355
 30
0.0
 11
4.7399619113
 21
3.847898355
 31
0.0
  0
LINE
  5
BC
330
1F
100
AcDbEntity
  8
0
  6
Continuous
 62
     7
370
     0
100
AcDbLine
 10
4.7149619134
 20
3.8228981372
 30
0.0
 11
3.7809619147
 21
3.8228981372
 31
0.0
  0
LINE
  5
BD
330
1F
100
AcDbEntity
  8
0
  6
Continuous
 62
     7
370
     0
100
AcDbLine
 10
4.0019619017
 20
3.390898221
 30
0.0
 11
4.7399619113
 21
3.390898221
 31
0.0
  0
LINE
  5
BE
330
1F
100
AcDbEntity
  8
0
  6
Continuous
 62
     7
370
     0
100
AcDbLine
 10
3.7559619169
 20
3.390898221
 30
0.0
 11
4.0019619017
 21
3.390898221
 31
0.0
  0
LINE
  5
BF
330
1F
100
AcDbEntity
  8
0
  6
Continuous
 62
     7
370
     0
100
AcDbLine
 10
4.0019619017
 20
3.5408983549
 30
0.0
 11
4.2479618866
 21
3.5408983549
 31
0.0
  0
LINE
  5
C0
330
1F
100
AcDbEntity
  8
0
  6
Continuous
 62
     7
370
     0
100
AcDbLine
 10
3.7559619169
 20
3.5408983549
 30
0.0
 11
4.0019619017
 21
3.5408983549
 31
0.0
  0
LINE
  5
C1
330
1F
100
AcDbEntity
  8
0
  6
Continuous
 62
     7
370
     0
100
AcDbLine
 10
3.7559619169
 20
3.5408983549
 30
0.0
 11
4.2479618866
 21
3.5408983549
 31
0.0
  0
LINE
  5
C2
330
1F
100
AcDbEntity
  8
0
  6
Continuous
 62
     7
370
     0
100
AcDbLine
 10
3.7559619169
 20
3.8188982901
 30
0.0
 11
4.2479618866
 21
3.8188982901
 31
0.0
  0
SPLINE
  5
C3
330
1F
100
AcDbEntity
  8
0
  6
Continuous
 62
     7
370
     0
100
AcDbSpline
210
0.0
220
0.0
230
1.0
 70
     8
 71
     3
 72
    17
 73
    13
 74
     0
 42
0.00000001
 43
0.00000001
 40
0.0
 40
0.0
 40
0.0
 40
0.0
 40
0.1072260022227735
 40
0.2144111202242937
 40
0.3217330897009844
 40
0.4291898738359223
 40
0.5365028934810465
 40
0.6436252661747057
 40
0.7508018662929961
 40
0.8581953047412085
 40
0.9656307725363737
 40
1.0
 40
1.0
 40
1.0
 40
1.0
 10
4.24796188655951
 20
3.646398282786873
 30
0.0
 10
4.244199995416596
 20
3.64676756217694
 30
0.0
 10
4.236677647502904
 20
3.64750598015447
 30
0.0
 10
4.226659325025182
 20
3.653265958036873
 30
0.0
 10
4.219030734466435
 20
3.661757166955967
 30
0.0
 10
4.214661129106062
 20
3.67237060566543
 30
0.0
 10
4.214046813072124
 20
3.683806069940763
 30
0.0
 10
4.217244514149066
 20
3.694793986503393
 30
0.0
 10
4.223896698969604
 20
3.70411946455501
 30
0.0
 10
4.233257964306512
 20
3.710691726853307
 30
0.0
 10
4.241810207655905
 20
3.71319397868951
 30
0.0
 10
4.246761774486997
 20
3.713358489594337
 30
0.0
 10
4.24796188655951
 20
3.713398362129571
 30
0.0
  0
LINE
  5
C4
330
1F
100
AcDbEntity
  8
0
  6
Continuous
 62
     7
370
     0
100
AcDbLine
 10
6.0164657233
 20
3.3888982974
 30
0.0
 11
6.2164658529
 21
3.3888982974
 31
0.0
  0
LINE
  5
C5
330
1F
100
AcDbEntity
  8
0
  6
Continuous
 62
     7
370
     0
100
AcDbLine
 10
4.4479619061
 20
3.5408983549
 30
0.0
 11
4.4479619061
 21
3.4688981733
 31
0.0
  0
ARC
  5
C6
330
1F
100
AcDbEntity
  8
0
  6
Continuous
 62
     7
370
     0
100
AcDbCircle
 10
4.2479618638
 20
3.6798983225
 30
0.0
 40
0.0335000396713576
100
AcDbArc
 50
270.0000389097
 51
89.9999610903
  0
LINE
  5
C7
330
1F
100
AcDbEntity
  8
0
  6
Continuous
 62
     7
370
     0
100
AcDbLine
 10
4.2479618866
 20
3.5408983549
 30
0.0
 11
4.4479619061
 21
3.5408983549
 31
0.0
  0
LINE
  5
C8
330
1F
100
AcDbEntity
  8
0
  6
Continuous
 62
     7
370
     0
100
AcDbLine
 10
4.4479619061
 20
3.4688981733
 30
0.0
 11
6.0164657233
 21
3.4688981733
 31
0.0
  0
LINE
  5
C9
330
1F
100
AcDbEntity
  8
0
  6
Continuous
 62
     7
370
     0
100
AcDbLine
 10
6.2164658529
 20
3.8188982901
 30
0.0
 11
6.2164658529
 21
3.3888982974
 31
0.0
  0
LINE
  5
CA
330
1F
100
AcDbEntity
  8
0
  6
Continuous
 62
     7
370
     0
100
AcDbLine
 10
4.2479618866
 20
3.8188982901
 30
0.0
 11
6.2164658529
 21
3.8188982901
 31
0.0
  0
LINE
  5
CB
330
1F
100
AcDbEntity
  8
0
  6
Continuous
 62
     7
370
     0
100
AcDbLine
 10
6.0164657233
 20
3.4688981733
 30
0.0
 11
6.0164657233
 21
3.3888982974
 31
0.0
  0
CIRCLE
  5
CC
330
1F
100
AcDbEntity
  8
0
  6
Continuous
 62
     7
370
     0
100
AcDbCircle
 10
4.2479619402
 20
3.6798982959
 30
0.0
 40
0.0312500152598267
  0
DIMENSION
  5
CD
330
1F
100
AcDbEntity
  8
0
  6
Continuous
 62
     7
370
     0
100
AcDbDimension
  2
*D7
 10
6.610166629
 20
3.8188982581
 30
0.0
 11
6.610166629
 21
3.6038982581
 31
0.0
 70
   160
  1
10.9 mm\P(<>")
 71
     2
 42
-1.0
  3
SLDDIMSTYLE0
100
AcDbAlignedDimension
 13
6.2164658416
 23
3.3888982581
 33
0.0
 14
6.2164658416
 24
3.8188982581
 34
0.0
 50
90.0
100
AcDbRotatedDimension
  0
DIMENSION
  5
DC
330
1F
100
AcDbEntity
  8
0
  6
Continuous
 62
     7
370
     0
100
AcDbDimension
  2
*D8
 10
7.3188280463
 20
5.4047486619
 30
0.0
 11
7.3188280463
 21
4.39682346
 31
0.0
 70
   160
  1
152.4 mm\P(6.00")
 71
     2
 42
-1.0
  3
SLDDIMSTYLE1
100
AcDbAlignedDimension
 13
6.2164658416
 23
3.3888982581
 33
0.0
 14
4.6533593642
 24
5.4047486619
 34
0.0
 50
90.0
100
AcDbRotatedDimension
  0
DIMENSION
  5
EF
330
1F
100
AcDbEntity
  8
0
  6
Continuous
 62
     7
370
     0
100
AcDbDimension
  2
*D9
 10
6.2164658416
 20
2.9971974707
 30
0.0
 11
4.9862138731
 21
2.9971974707
 31
0.0
 70
   160
  1
62.5 mm\P(<>")
 71
     2
 42
-1.0
  3
SLDDIMSTYLE2
100
AcDbAlignedDimension
 13
3.7559619045
 23
3.8478982581
 33
0.0
 14
6.2164658416
 24
3.3888982581
 34
0.0
100
AcDbRotatedDimension
  0
LINE
  5
FE
330
1F
100
AcDbEntity
  8
0
  6
HIDDEN
 62
     7
370
     0
100
AcDbLine
 10
4.8099619099
 20
4.3195502867
 30
0.0
 11
4.6077020642
 21
4.3982904442
 31
0.0
  0
LINE
  5
FF
330
1F
100
AcDbEntity
  8
0
  6
HIDDEN
 62
     7
370
     0
100
AcDbLine
 10
4.6077020642
 20
4.3982904442
 30
0.0
 11
4.4502217493
 21
4.2408101292
 31
0.0
  0
LINE
  5
100
330
1F
100
AcDbEntity
  8
0
  6
HIDDEN
 62
     7
370
     0
100
AcDbLine
 10
4.4502217493
 20
4.2408101292
 30
0.0
 11
4.0457020579
 21
4.3982904442
 31
0.0
  0
LINE
  5
101
330
1F
100
AcDbEntity
  8
0
  6
HIDDEN
 62
     7
370
     0
100
AcDbLine
 10
4.0457020579
 20
4.3982904442
 30
0.0
 11
3.8882217429
 21
4.2408101292
 31
0.0
  0
LINE
  5
102
330
1F
100
AcDbEntity
  8
0
  6
HIDDEN
 62
     7
370
     0
100
AcDbLine
 10
3.8882217429
 20
4.2408101292
 30
0.0
 11
3.6859618972
 21
4.3195502867
 31
0.0
  0
LINE
  5
103
330
1F
100
AcDbEntity
  8
0
  6
HIDDEN
 62
     7
370
     0
100
AcDbLine
 10
4.8099619099
 20
4.6195502867
 30
0.0
 11
4.6077020642
 21
4.6982904442
 31
0.0
  0
LINE
  5
104
330
1F
100
AcDbEntity
  8
0
  6
HIDDEN
 62
     7
370
     0
100
AcDbLine
 10
4.6077020642
 20
4.6982904442
 30
0.0
 11
4.4502217493
 21
4.5408101292
 31
0.0
  0
LINE
  5
105
330
1F
100
AcDbEntity
  8
0
  6
HIDDEN
 62
     7
370
     0
100
AcDbLine
 10
4.4502217493
 20
4.5408101292
 30
0.0
 11
4.0457020579
 21
4.6982904442
 31
0.0
  0
LINE
  5
106
330
1F
100
AcDbEntity
  8
0
  6
HIDDEN
 62
     7
370
     0
100
AcDbLine
 10
4.0457020579
 20
4.6982904442
 30
0.0
 11
3.8882217429
 21
4.5408101292
 31
0.0
  0
LINE
  5
107
330
1F
100
AcDbEntity
  8
0
  6
HIDDEN
 62
     7
370
     0
100
AcDbLine
 10
3.8882217429
 20
4.5408101292
 30
0.0
 11
3.6859618972
 21
4.6195502867
 31
0.0
  0
SPLINE
  5
108
330
1F
100
AcDbEntity
  8
0
  6
Continuous
 62
     7
370
     0
100
AcDbSpline
210
0.0
220
0.0
230
1.0
 70
     8
 71
     3
 72
     9
 73
     5
 74
     0
 42
0.00000001
 43
0.00000001
 40
0.0
 40
0.0
 40
0.0
 40
0.0
 40
0.5926492427269147
 40
1.0
 40
1.0
 40
1.0
 40
1.0
 10
3.543756152324415
 20
6.78177357460011
 30
0.0
 10
3.54394950516182
 20
6.784168888980498
 30
0.0
 10
3.544275756886221
 20
6.78821059562196
 30
0.0
 10
3.544574870596072
 20
6.792037478328915
 30
0.0
 10
3.54469671479229
 20
6.793596361897588
 30
0.0
  0
ARC
  5
109
330
1F
100
AcDbEntity
  8
0
  6
Continuous
 62
     7
370
     0
100
AcDbCircle
 10
3.8646967136
 20
6.7815403167
 30
0.0
 40
0.0450000000000003
100
AcDbArc
 50
301.4066750694
 51
58.5933249306
  0
LINE
  5
10A
330
1F
100
AcDbEntity
  8
0
  6
Continuous
 62
     7
370
     0
100
AcDbLine
 10
3.5246967458
 20
6.496540319
 30
0.0
 11
3.5446967148
 21
6.5165403247
 31
0.0
  0
LINE
  5
10B
330
1F
100
AcDbEntity
  8
0
  6
Continuous
 62
     7
370
     0
100
AcDbLine
 10
3.5446967148
 20
7.0465403087
 30
0.0
 11
3.5246967458
 21
7.0665403143
 31
0.0
  0
LINE
  5
10C
330
1F
100
AcDbEntity
  8
0
  6
Continuous
 62
     7
370
     0
100
AcDbLine
 10
3.2546967249
 20
6.496540319
 30
0.0
 11
3.5246967458
 21
6.496540319
 31
0.0
  0
LINE
  5
10D
330
1F
100
AcDbEntity
  8
0
  6
Continuous
 62
     7
370
     0
100
AcDbLine
 10
3.5246967458
 20
7.0665403143
 30
0.0
 11
3.2546967249
 21
7.0665403143
 31
0.0
  0
LINE
  5
10E
330
1F
100
AcDbEntity
  8
0
  6
Continuous
 62
     7
370
     0
100
AcDbLine
 10
3.2546967249
 20
7.0665403143
 30
0.0
 11
3.2346966826
 21
7.0465403087
 31
0.0
  0
LINE
  5
10F
330
1F
100
AcDbEntity
  8
0
  6
Continuous
 62
     7
370
     0
100
AcDbLine
 10
3.2346966826
 20
6.5165403247
 30
0.0
 11
3.2546967249
 21
6.496540319
 31
0.0
  0
ARC
  5
110
330
1F
100
AcDbEntity
  8
0
  6
Continuous
 62
     7
370
     0
100
AcDbCircle
 10
3.5546967136
 20
6.6465403167
 30
0.0
 40
0.0099999999999998
100
AcDbArc
 50
90.0
 51
180.0
  0
ARC
  5
111
330
1F
100
AcDbEntity
  8
0
  6
Continuous
 62
     7
370
     0
100
AcDbCircle
 10
3.5546967136
 20
6.9165403167
 30
0.0
 40
0.0099999999999998
100
AcDbArc
 50
180.0
 51
270.0
  0
LINE
  5
112
330
1F
100
AcDbEntity
  8
0
  6
Continuous
 62
     7
370
     0
100
AcDbLine
 10
3.5546966993
 20
6.6565403182
 30
0.0
 11
3.6608406331
 21
6.6565403182
 31
0.0
  0
LINE
  5
113
330
1F
100
AcDbEntity
  8
0
  6
Continuous
 62
     7
370
     0
100
AcDbLine
 10
3.6608406331
 20
6.9065403152
 30
0.0
 11
3.5546966993
 21
6.9065403152
 31
0.0
  0
LINE
  5
114
330
1F
100
AcDbEntity
  8
0
  6
Continuous
 62
     7
370
     0
100
AcDbLine
 10
3.2346342033
 20
6.8003165143
 30
0.0
 11
3.2346966826
 21
6.8003165143
 31
0.0
  0
CIRCLE
  5
115
330
1F
100
AcDbEntity
  8
0
  6
Continuous
 62
     7
370
     0
100
AcDbCircle
 10
4.1366967136
 20
6.7815403167
 30
0.0
 40
0.4053974596215562
  0
CIRCLE
  5
116
330
1F
100
AcDbEntity
  8
0
  6
Continuous
 62
     7
370
     0
100
AcDbCircle
 10
4.1366967136
 20
6.7815403167
 30
0.0
 40
0.492
  0
ARC
  5
117
330
1F
100
AcDbEntity
  8
0
  6
Continuous
 62
     7
370
     0
100
AcDbCircle
 10
4.1366967136
 20
6.7815403167
 30
0.0
 40
0.2814999999999987
100
AcDbArc
 50
33.8987130402
 51
326.1012869598
  0
LINE
  5
118
330
1F
100
AcDbEntity
  8
0
  6
Continuous
 62
     7
370
     0
100
AcDbLine
 10
4.4316967131
 20
6.624540322
 30
0.0
 11
4.3703486985
 21
6.624540322
 31
0.0
  0
LINE
  5
119
330
1F
100
AcDbEntity
  8
0
  6
Continuous
 62
     7
370
     0
100
AcDbLine
 10
4.4316967131
 20
6.9385403113
 30
0.0
 11
4.4316967131
 21
6.624540322
 31
0.0
  0
LINE
  5
11A
330
1F
100
AcDbEntity
  8
0
  6
Continuous
 62
     7
370
     0
100
AcDbLine
 10
4.3703486985
 20
6.9385403113
 30
0.0
 11
4.4316967131
 21
6.9385403113
 31
0.0
  0
LINE
  5
11B
330
1F
100
AcDbEntity
  8
0
  6
Continuous
 62
     7
370
     0
100
AcDbLine
 10
4.4316967131
 20
6.9385403113
 30
0.0
 11
4.4016967047
 21
6.9085403212
 31
0.0
  0
LINE
  5
11C
330
1F
100
AcDbEntity
  8
0
  6
Continuous
 62
     7
370
     0
100
AcDbLine
 10
4.4016967047
 20
6.9085403212
 30
0.0
 11
4.3537756116
 21
6.9085403212
 31
0.0
  0
LINE
  5
11D
330
1F
100
AcDbEntity
  8
0
  6
Continuous
 62
     7
370
     0
100
AcDbLine
 10
4.3703486985
 20
6.9385403113
 30
0.0
 11
4.3537756116
 21
6.9085403212
 31
0.0
  0
ARC
  5
11E
330
1F
100
AcDbEntity
  8
0
  6
Continuous
 62
     7
370
     0
100
AcDbCircle
 10
4.1366967136
 20
6.7815403167
 30
0.0
 40
0.2515000000000003
100
AcDbArc
 50
30.3293727942
 51
329.6706272058
  0
LINE
  5
11F
330
1F
100
AcDbEntity
  8
0
  6
Continuous
 62
     7
370
     0
100
AcDbLine
 10
4.3537756116
 20
6.6545403121
 30
0.0
 11
4.3703486985
 21
6.624540322
 31
0.0
  0
LINE
  5
120
330
1F
100
AcDbEntity
  8
0
  6
Continuous
 62
     7
370
     0
100
AcDbLine
 10
4.4016967047
 20
6.6545403121
 30
0.0
 11
4.4316967131
 21
6.624540322
 31
0.0
  0
LINE
  5
121
330
1F
100
AcDbEntity
  8
0
  6
Continuous
 62
     7
370
     0
100
AcDbLine
 10
4.4016967047
 20
6.6545403121
 30
0.0
 11
4.4016967047
 21
6.9085403212
 31
0.0
  0
LINE
  5
122
330
1F
100
AcDbEntity
  8
0
  6
Continuous
 62
     7
370
     0
100
AcDbLine
 10
4.3537756116
 20
6.6545403121
 30
0.0
 11
4.4016967047
 21
6.6545403121
 31
0.0
  0
ARC
  5
123
330
1F
100
AcDbEntity
  8
0
  6
Continuous
 62
     7
370
     0
100
AcDbCircle
 10
4.1366967136
 20
6.7815403167
 30
0.0
 40
0.2550000000000003
100
AcDbArc
 50
330.1296398799
 51
29.8703601201
  0
LINE
  5
124
330
1F
100
AcDbEntity
  8
0
  6
Continuous
 62
     7
370
     0
100
AcDbLine
 10
4.1366967126
 20
7.2735403231
 30
0.0
 11
6.1052007156
 21
7.2735403231
 31
0.0
  0
LINE
  5
125
330
1F
100
AcDbEntity
  8
0
  6
Continuous
 62
     7
370
     0
100
AcDbLine
 10
6.1052007156
 20
6.9140403127
 30
0.0
 11
4.8866966852
 21
6.9140403127
 31
0.0
  0
ARC
  5
126
330
1F
100
AcDbEntity
  8
0
  6
Continuous
 62
     7
370
     0
100
AcDbCircle
 10
4.8866967136
 20
6.7815403167
 30
0.0
 40
0.1325000000000003
100
AcDbArc
 50
90.0
 51
270.0
  0
LINE
  5
127
330
1F
100
AcDbEntity
  8
0
  6
Continuous
 62
     7
370
     0
100
AcDbLine
 10
6.1052007156
 20
6.6490403207
 30
0.0
 11
4.8866966852
 21
6.6490403207
 31
0.0
  0
LINE
  5
128
330
1F
100
AcDbEntity
  8
0
  6
Continuous
 62
     7
370
     0
100
AcDbLine
 10
6.1052007156
 20
6.2895403103
 30
0.0
 11
6.1052007156
 21
6.6490403207
 31
0.0
  0
LINE
  5
129
330
1F
100
AcDbEntity
  8
0
  6
Continuous
 62
     7
370
     0
100
AcDbLine
 10
4.1366967126
 20
6.2895403103
 30
0.0
 11
6.1052007156
 21
6.2895403103
 31
0.0
  0
LINE
  5
12A
330
1F
100
AcDbEntity
  8
0
  6
Continuous
 62
     7
370
     0
100
AcDbLine
 10
6.1052007156
 20
7.2735403231
 30
0.0
 11
6.1052007156
 21
6.9140403127
 31
0.0
  0
LINE
  5
12B
330
1F
100
AcDbEntity
  8
0
  6
Continuous
 62
     7
370
     0
100
AcDbLine
 10
3.5246967458
 20
6.496540319
 30
0.0
 11
3.5246967458
 21
7.0665403143
 31
0.0
  0
LINE
  5
12C
330
1F
100
AcDbEntity
  8
0
  6
Continuous
 62
     7
370
     0
100
AcDbLine
 10
3.5446967148
 20
6.5165403247
 30
0.0
 11
3.5446967148
 21
7.0465403087
 31
0.0
  0
LINE
  5
12D
330
1F
100
AcDbEntity
  8
0
  6
Continuous
 62
     7
370
     0
100
AcDbLine
 10
3.2546967249
 20
6.496540319
 30
0.0
 11
3.2546967249
 21
7.0665403143
 31
0.0
  0
LINE
  5
12E
330
1F
100
AcDbEntity
  8
0
  6
Continuous
 62
     7
370
     0
100
AcDbLine
 10
3.2346966826
 20
6.5165403247
 30
0.0
 11
3.2346966826
 21
7.0465403087
 31
0.0
  0
DIMENSION
  5
12F
330
1F
100
AcDbEntity
  8
0
  6
Continuous
 62
     7
370
     0
100
AcDbDimension
  2
*D10
 10
4.8866967136
 20
7.6702411041
 30
0.0
 11
5.4959486821
 21
7.6702411041
 31
0.0
 70
   160
  1
31.0 mm\P(<>")
 71
     2
 42
-1.0
  3
SLDDIMSTYLE2
100
AcDbAlignedDimension
 13
6.1052006506
 23
7.2735403167
 33
0.0
 14
4.8866967136
 24
6.8315403167
 34
0.0
100
AcDbRotatedDimension
  0
DIMENSION
  5
13D
330
1F
100
AcDbEntity
  8
0
  6
Continuous
 62
     7
370
     0
100
AcDbDimension
  2
*D11
 10
4.9803881468
 20
6.6878484529
 30
0.0
 11
2.535990127
 21
7.8825445224
 31
0.0
 70
   163
  1
CLEARANCE SLOT\PFOR USE WITH M6 (1/4"-20) CAP SCREW
 71
     1
 42
-1.0
  3
SLDDIMSTYLE3
100
AcDbDiametricDimension
 15
4.7930052804
 25
6.8752321805
 35
0.0
 40
0.0
  0
DIMENSION
  5
147
330
1F
100
AcDbEntity
  8
0
  6
Continuous
 62
     7
370
     0
100
AcDbDimension
  2
*D12
 10
6.7351219104
 20
6.2895403167
 30
0.0
 11
6.7351219104
 21
6.7815403167
 31
0.0
 70
   160
  1
25.0 mm\P(<>")
 71
     2
 42
-1.0
  3
SLDDIMSTYLE2
100
AcDbAlignedDimension
 13
6.1052006506
 23
7.2735403167
 33
0.0
 14
6.1052006506
 24
6.2895403167
 34
0.0
 50
90.0
100
AcDbRotatedDimension
  0
DIMENSION
  5
155
330
1F
100
AcDbEntity
  8
0
  6
Continuous
 62
     7
370
     0
100
AcDbDimension
  2
*D13
 10
4.4002806707
 20
7.1969768312
 30
0.0
 11
3.1783607595
 21
6.0632272729
 31
0.0
 70
   163
  1
%%c25.0 mm\P(<>")
 71
     1
 42
-1.0
  3
SLDDIMSTYLE4
100
AcDbDiametricDimension
 15
3.8731127565
 25
6.3661038022
 35
0.0
 40
0.0
  0
DIMENSION
  5
163
330
1F
100
AcDbEntity
  8
0
  6
Continuous
 62
     7
370
     0
100
AcDbDimension
  2
*D14
 10
4.314528275
 20
6.6036971674
 30
0.0
 11
2.4285806002
 21
7.4912437317
 31
0.0
 70
   163
  1
%%c12.8 mm (<>") THRU\PFOR USE WITH TR SERIES POSTS
 71
     1
 42
-1.0
  3
SLDDIMSTYLE5
100
AcDbDiametricDimension
 15
3.9588651522
 25
6.959383466
 35
0.0
 40
0.0
  0
INSERT
  5
178
330
1F
100
AcDbEntity
  8
0
  6
Continuous
 62
     7
370
     0
100
AcDbBlockReference
  2
SW_CENTERMARKSYMBOL_0
 10
4.8866967136
 20
6.7815403167
 30
0.0
  0
INSERT
  5
180
330
1F
100
AcDbEntity
  8
0
  6
Continuous
 62
     7
370
     0
100
AcDbBlockReference
  2
SW_CENTERMARKSYMBOL_1
 10
4.1366967136
 20
6.7815403167
 30
0.0
  0
ARC
  5
181
330
1F
100
AcDbEntity
  8
0
  6
Continuous
 62
     7
370
     0
100
AcDbCircle
 10
3.8646967136
 20
1.7609478022
 30
0.0
 40
0.0450000000000002
100
AcDbArc
 50
301.4066750694
 51
58.5933249306
  0
LINE
  5
182
330
1F
100
AcDbEntity
  8
0
  6
Continuous
 62
     7
370
     0
100
AcDbLine
 10
3.5246967458
 20
1.4759478045
 30
0.0
 11
3.5446967148
 21
1.4959478102
 31
0.0
  0
LINE
  5
183
330
1F
100
AcDbEntity
  8
0
  6
Continuous
 62
     7
370
     0
100
AcDbLine
 10
3.5446967148
 20
2.0259477942
 30
0.0
 11
3.5246967458
 21
2.0459477999
 31
0.0
  0
LINE
  5
184
330
1F
100
AcDbEntity
  8
0
  6
Continuous
 62
     7
370
     0
100
AcDbLine
 10
3.2546967249
 20
2.0459477999
 30
0.0
 11
3.2346966826
 21
2.0259477942
 31
0.0
  0
LINE
  5
185
330
1F
100
AcDbEntity
  8
0
  6
Continuous
 62
     7
370
     0
100
AcDbLine
 10
3.2346966826
 20
1.4959478102
 30
0.0
 11
3.2546967249
 21
1.4759478045
 31
0.0
  0
LINE
  5
186
330
1F
100
AcDbEntity
  8
0
  6
Continuous
 62
     7
370
     0
100
AcDbLine
 10
3.2546967249
 20
1.4759478045
 30
0.0
 11
3.5246967458
 21
1.4759478045
 31
0.0
  0
LINE
  5
187
330
1F
100
AcDbEntity
  8
0
  6
Continuous
 62
     7
370
     0
100
AcDbLine
 10
3.5246967458
 20
2.0459477999
 30
0.0
 11
3.2546967249
 21
2.0459477999
 31
0.0
  0
LINE
  5
188
330
1F
100
AcDbEntity
  8
0
  6
Continuous
 62
     7
370
     0
100
AcDbLine
 10
3.2346966826
 20
1.7421716046
 30
0.0
 11
3.2346342033
 21
1.7421716046
 31
0.0
  0
LINE
  5
189
330
1F
100
AcDbEntity
  8
0
  6
Continuous
 62
     7
370
     0
100
AcDbLine
 10
3.2346966826
 20
1.7211093562
 30
0.0
 11
3.2346342033
 21
1.7211093562
 31
0.0
  0
LINE
  5
18A
330
1F
100
AcDbEntity
  8
0
  6
Continuous
 62
     7
370
     0
100
AcDbLine
 10
3.2346966826
 20
1.6352490368
 30
0.0
 11
3.2346342033
 21
1.6352490368
 31
0.0
  0
ARC
  5
18B
330
1F
100
AcDbEntity
  8
0
  6
Continuous
 62
     7
370
     0
100
AcDbCircle
 10
3.5546967136
 20
1.6259478022
 30
0.0
 40
0.01
100
AcDbArc
 50
90.0
 51
180.0
  0
ARC
  5
18C
330
1F
100
AcDbEntity
  8
0
  6
Continuous
 62
     7
370
     0
100
AcDbCircle
 10
3.5546967136
 20
1.8959478022
 30
0.0
 40
0.01
100
AcDbArc
 50
180.0
 51
270.0
  0
LINE
  5
18D
330
1F
100
AcDbEntity
  8
0
  6
Continuous
 62
     7
370
     0
100
AcDbLine
 10
3.5546966993
 20
1.6359478037
 30
0.0
 11
3.6608406331
 21
1.6359478037
 31
0.0
  0
LINE
  5
18E
330
1F
100
AcDbEntity
  8
0
  6
Continuous
 62
     7
370
     0
100
AcDbLine
 10
3.6608406331
 20
1.8859478007
 30
0.0
 11
3.5546966993
 21
1.8859478007
 31
0.0
  0
LINE
  5
18F
330
1F
100
AcDbEntity
  8
0
  6
Continuous
 62
     7
370
     0
100
AcDbLine
 10
4.3537756116
 20
1.6339477976
 30
0.0
 11
4.3578211082
 21
1.6339477976
 31
0.0
  0
LINE
  5
190
330
1F
100
AcDbEntity
  8
0
  6
Continuous
 62
     7
370
     0
100
AcDbLine
 10
4.3537756116
 20
1.8879478067
 30
0.0
 11
4.3578211082
 21
1.8879478067
 31
0.0
  0
ARC
  5
191
330
1F
100
AcDbEntity
  8
0
  6
Continuous
 62
     7
370
     0
100
AcDbCircle
 10
4.1366967136
 20
1.7609478022
 30
0.0
 40
0.2514999999999992
100
AcDbArc
 50
30.3293727942
 51
329.6706272058
  0
CIRCLE
  5
192
330
1F
100
AcDbEntity
  8
0
  6
Continuous
 62
     7
370
     0
100
AcDbCircle
 10
4.1366967136
 20
1.7609478022
 30
0.0
 40
0.2549999999999996
  0
CIRCLE
  5
193
330
1F
100
AcDbEntity
  8
0
  6
Continuous
 62
     7
370
     0
100
AcDbCircle
 10
4.1366967136
 20
1.7609478022
 30
0.0
 40
0.4919999999999999
  0
CIRCLE
  5
194
330
1F
100
AcDbEntity
  8
0
  6
Continuous
 62
     7
370
     0
100
AcDbCircle
 10
3.9491967136
 20
2.0857073286
 30
0.0
 40
0.105
  0
CIRCLE
  5
195
330
1F
100
AcDbEntity
  8
0
  6
Continuous
 62
     7
370
     0
100
AcDbCircle
 10
4.5116967136
 20
1.7609478022
 30
0.0
 40
0.1049999999999999
  0
CIRCLE
  5
196
330
1F
100
AcDbEntity
  8
0
  6
Continuous
 62
     7
370
     0
100
AcDbCircle
 10
3.9491967136
 20
1.4361882758
 30
0.0
 40
0.1049999999999998
  0
CIRCLE
  5
197
330
1F
100
AcDbEntity
  8
0
  6
Continuous
 62
     7
370
     0
100
AcDbCircle
 10
3.9491967136
 20
1.4361882758
 30
0.0
 40
0.0950000000000001
  0
CIRCLE
  5
198
330
1F
100
AcDbEntity
  8
0
  6
Continuous
 62
     7
370
     0
100
AcDbCircle
 10
4.5116967136
 20
1.7609478022
 30
0.0
 40
0.0950000000000001
  0
CIRCLE
  5
199
330
1F
100
AcDbEntity
  8
0
  6
Continuous
 62
     7
370
     0
100
AcDbCircle
 10
3.9491967136
 20
2.0857073286
 30
0.0
 40
0.0950000000000003
  0
LINE
  5
19A
330
1F
100
AcDbEntity
  8
0
  6
Continuous
 62
     7
370
     0
100
AcDbLine
 10
6.1052007156
 20
1.2689477958
 30
0.0
 11
6.1052007156
 21
1.6284478062
 31
0.0
  0
LINE
  5
19B
330
1F
100
AcDbEntity
  8
0
  6
Continuous
 62
     7
370
     0
100
AcDbLine
 10
5.9052005861
 20
1.2689477958
 30
0.0
 11
6.1052007156
 21
1.2689477958
 31
0.0
  0
LINE
  5
19C
330
1F
100
AcDbEntity
  8
0
  6
Continuous
 62
     7
370
     0
100
AcDbLine
 10
5.9052005861
 20
1.2689477958
 30
0.0
 11
5.9052005861
 21
1.6284478062
 31
0.0
  0
LINE
  5
19D
330
1F
100
AcDbEntity
  8
0
  6
Continuous
 62
     7
370
     0
100
AcDbLine
 10
6.1052007156
 20
1.6284478062
 30
0.0
 11
5.9052005861
 21
1.6284478062
 31
0.0
  0
LINE
  5
19E
330
1F
100
AcDbEntity
  8
0
  6
Continuous
 62
     7
370
     0
100
AcDbLine
 10
5.9052005861
 20
2.2529478086
 30
0.0
 11
6.1052007156
 21
2.2529478086
 31
0.0
  0
LINE
  5
19F
330
1F
100
AcDbEntity
  8
0
  6
Continuous
 62
     7
370
     0
100
AcDbLine
 10
6.1052007156
 20
2.2529478086
 30
0.0
 11
6.1052007156
 21
1.8934477982
 31
0.0
  0
LINE
  5
1A0
330
1F
100
AcDbEntity
  8
0
  6
Continuous
 62
     7
370
     0
100
AcDbLine
 10
6.1052007156
 20
1.8934477982
 30
0.0
 11
5.9052005861
 21
1.8934477982
 31
0.0
  0
LINE
  5
1A1
330
1F
100
AcDbEntity
  8
0
  6
Continuous
 62
     7
370
     0
100
AcDbLine
 10
5.9052005861
 20
1.8934477982
 30
0.0
 11
5.9052005861
 21
2.2529478086
 31
0.0
  0
LINE
  5
1A2
330
1F
100
AcDbEntity
  8
0
  6
Continuous
 62
     7
370
     0
100
AcDbLine
 10
4.3366967139
 20
2.2300959759
 30
0.0
 11
4.3366967139
 21
2.2529478086
 31
0.0
  0
ARC
  5
1A3
330
1F
100
AcDbEntity
  8
0
  6
Continuous
 62
     7
370
     0
100
AcDbCircle
 10
4.8866967136
 20
1.7609478022
 30
0.0
 40
0.1325000000000003
100
AcDbArc
 50
90.0
 51
270.0
  0
ARC
  5
1A4
330
1F
100
AcDbEntity
  8
0
  6
Continuous
 62
     7
370
     0
100
AcDbCircle
 10
4.1366967136
 20
1.7609478022
 30
0.0
 40
0.5100000000000001
100
AcDbArc
 50
293.088772437
 51
66.911227563
  0
LINE
  5
1A5
330
1F
100
AcDbEntity
  8
0
  6
Continuous
 62
     7
370
     0
100
AcDbLine
 10
4.3366967139
 20
1.2689477958
 30
0.0
 11
4.3366967139
 21
1.2917996285
 31
0.0
  0
LINE
  5
1A6
330
1F
100
AcDbEntity
  8
0
  6
Continuous
 62
     7
370
     0
100
AcDbLine
 10
4.3366967139
 20
2.2529478086
 30
0.0
 11
5.9052005861
 21
2.2529478086
 31
0.0
  0
LINE
  5
1A7
330
1F
100
AcDbEntity
  8
0
  6
Continuous
 62
     7
370
     0
100
AcDbLine
 10
5.9052005861
 20
1.8934477982
 30
0.0
 11
4.8866966852
 21
1.8934477982
 31
0.0
  0
LINE
  5
1A8
330
1F
100
AcDbEntity
  8
0
  6
Continuous
 62
     7
370
     0
100
AcDbLine
 10
5.9052005861
 20
1.6284478062
 30
0.0
 11
4.8866966852
 21
1.6284478062
 31
0.0
  0
LINE
  5
1A9
330
1F
100
AcDbEntity
  8
0
  6
Continuous
 62
     7
370
     0
100
AcDbLine
 10
4.3366967139
 20
1.2689477958
 30
0.0
 11
5.9052005861
 21
1.2689477958
 31
0.0
  0
LINE
  5
1AA
330
1F
100
AcDbEntity
  8
0
  6
Continuous
 62
     7
370
     0
100
AcDbLine
 10
4.1366967126
 20
2.2529478086
 30
0.0
 11
4.3366967139
 21
2.2529478086
 31
0.0
  0
LINE
  5
1AB
330
1F
100
AcDbEntity
  8
0
  6
Continuous
 62
     7
370
     0
100
AcDbLine
 10
4.1366967126
 20
1.2689477958
 30
0.0
 11
4.3366967139
 21
1.2689477958
 31
0.0
  0
CIRCLE
  5
1AC
330
1F
100
AcDbEntity
  8
0
  6
Continuous
 62
     7
370
     0
100
AcDbCircle
 10
3.9491967136
 20
1.4361882758
 30
0.0
 40
0.0937499999999999
  0
CIRCLE
  5
1AD
330
1F
100
AcDbEntity
  8
0
  6
Continuous
 62
     7
370
     0
100
AcDbCircle
 10
4.5116967136
 20
1.7609478022
 30
0.0
 40
0.0937500000000001
  0
CIRCLE
  5
1AE
330
1F
100
AcDbEntity
  8
0
  6
Continuous
 62
     7
370
     0
100
AcDbCircle
 10
3.9491967136
 20
2.0857073286
 30
0.0
 40
0.09375
  0
LINE
  5
1AF
330
1F
100
AcDbEntity
  8
0
  6
Continuous
 62
     7
370
     0
100
AcDbLine
 10
3.5246967458
 20
1.7609478022
 30
0.0
 11
3.5246967458
 21
2.0459477999
 31
0.0
  0
LINE
  5
1B0
330
1F
100
AcDbEntity
  8
0
  6
Continuous
 62
     7
370
     0
100
AcDbLine
 10
3.5246967458
 20
1.4759478045
 30
0.0
 11
3.5246967458
 21
1.7609478022
 31
0.0
  0
LINE
  5
1B1
330
1F
100
AcDbEntity
  8
0
  6
Continuous
 62
     7
370
     0
100
AcDbLine
 10
3.5446967148
 20
1.7609478022
 30
0.0
 11
3.5446967148
 21
2.0259477942
 31
0.0
  0
LINE
  5
1B2
330
1F
100
AcDbEntity
  8
0
  6
Continuous
 62
     7
370
     0
100
AcDbLine
 10
3.5446967148
 20
1.4959478102
 30
0.0
 11
3.5446967148
 21
1.7609478022
 31
0.0
  0
LINE
  5
1B3
330
1F
100
AcDbEntity
  8
0
  6
Continuous
 62
     7
370
     0
100
AcDbLine
 10
3.2346966826
 20
1.7609478022
 30
0.0
 11
3.2346966826
 21
2.0259477942
 31
0.0
  0
LINE
  5
1B4
330
1F
100
AcDbEntity
  8
0
  6
Continuous
 62
     7
370
     0
100
AcDbLine
 10
3.2346966826
 20
1.4959478102
 30
0.0
 11
3.2346966826
 21
1.7609478022
 31
0.0
  0
LINE
  5
1B5
330
1F
100
AcDbEntity
  8
0
  6
Continuous
 62
     7
370
     0
100
AcDbLine
 10
3.2546967249
 20
1.7609478022
 30
0.0
 11
3.2546967249
 21
2.0459477999
 31
0.0
  0
LINE
  5
1B6
330
1F
100
AcDbEntity
  8
0
  6
Continuous
 62
     7
370
     0
100
AcDbLine
 10
3.2546967249
 20
1.4759478045
 30
0.0
 11
3.2546967249
 21
1.7609478022
 31
0.0
  0
DIMENSION
  5
1B7
330
1F
100
AcDbEntity
  8
0
  6
Continuous
 62
     7
370
     0
100
AcDbDimension
  2
*D17
 10
4.1366967136
 20
0.9906493142
 30
0.0
 11
5.1209486821
 21
0.9906493142
 31
0.0
 70
   160
  1
50.0 mm\P(<>")
 71
     2
 42
-1.0
  3
SLDDIMSTYLE2
100
AcDbAlignedDimension
 13
6.1052006506
 23
1.2689478022
 33
0.0
 14
4.1366967136
 24
1.7109478022
 34
0.0
 50
0.0
100
AcDbRotatedDimension
  0
DIMENSION
  5
1C5
330
1F
100
AcDbEntity
  8
0
  6
Continuous
 62
     7
370
     0
100
AcDbDimension
  2
*D18
 10
2.7356374905
 20
1.4759478022
 30
0.0
 11
2.7356374905
 21
1.7609478022
 31
0.0
 70
   160
  1
%%c14.5 mm\P(%%c<>")
 71
     2
 42
-1.0
  3
SLDDIMSTYLE0
100
AcDbAlignedDimension
 13
3.2546967136
 23
2.0459478022
 33
0.0
 14
3.2546967136
 24
1.4759478022
 34
0.0
 50
90.0
100
AcDbRotatedDimension
  0
DIMENSION
  5
1D5
330
1F
100
AcDbEntity
  8
0
  6
Continuous
 62
     7
370
     0
100
AcDbDimension
  2
*D19
 10
3.5446967136
 20
2.5881189181
 30
0.0
 11
4.0874116069
 21
2.5881189181
 31
0.0
 70
   160
  1
7.9 mm\P(<>")
 71
     1
 42
-1.0
  3
SLDDIMSTYLE0
100
AcDbAlignedDimension
 13
3.2346967136
 23
2.0259478022
 33
0.0
 14
3.5446967136
 24
2.0259478022
 34
0.0
100
AcDbRotatedDimension
  0
DIMENSION
  5
1E3
330
1F
100
AcDbEntity
  8
0
  6
Continuous
 62
     7
370
     0
100
AcDbDimension
  2
*D20
 10
4.016862418
 20
1.5164774559
 30
0.0
 11
3.1752508788
 21
0.9906493142
 31
0.0
 70
   163
  1
MAGNET\P3 PLACES
 71
     1
 42
-1.0
  3
SLDDIMSTYLE6
100
AcDbDiametricDimension
 15
3.8815310092
 25
1.3558990957
 35
0.0
 40
0.0
  0
INSERT
  5
1F4
102
{ACAD_REACTORS
330
1FE
102
}
330
1F
100
AcDbEntity
  8
0
  6
Continuous
 62
     7
370
     0
100
AcDbBlockReference
  2
SW_NOTE_4
 10
5.8749517109
 20
2.5626369888
 30
0.0
  0
LEADER
  5
1FE
330
1F
100
AcDbEntity
  8
0
  6
Continuous
 62
     7
370
     0
100
AcDbLeader
  3
SLDDIMSTYLE7
 73
     2
 76
     3
 10
5.224870856
 20
2.0807886868
 30
0.0
 10
5.6249517109
 20
2.5626369888
 30
0.0
 10
5.8749517109
 20
2.5626369888
 30
0.0
340
1F4
  0
INSERT
  5
206
330
1F
100
AcDbEntity
  8
0
  6
Continuous
 62
     7
370
     0
100
AcDbBlockReference
  2
SW_CENTERMARKSYMBOL_2
 10
4.1366967136
 20
1.7609478022
 30
0.0
  0
LINE
  5
207
330
1F
100
AcDbEntity
  8
0
  6
Continuous
 62
     7
370
     0
100
AcDbLine
 10
9.1481920904
 20
6.7283160648
 30
0.0
 11
9.0954857498
 21
6.7963655554
 31
0.0
  0
LINE
  5
208
330
1F
100
AcDbEntity
  8
0
  6
Continuous
 62
     7
370
     0
100
AcDbLine
 10
8.6020356391
 20
6.7963655554
 30
0.0
 11
8.5493292985
 21
6.7283160648
 31
0.0
  0
LINE
  5
209
330
1F
100
AcDbEntity
  8
0
  6
Continuous
 62
     7
370
     0
100
AcDbLine
 10
9.1767606944
 20
3.7142015427
 30
0.0
 11
9.1767606944
 21
6.6510266628
 31
0.0
  0
LINE
  5
20A
330
1F
100
AcDbEntity
  8
0
  6
Continuous
 62
     7
370
     0
100
AcDbLine
 10
8.5207606944
 20
6.6510266628
 30
0.0
 11
8.5207606944
 21
3.7142015427
 31
0.0
  0
LINE
  5
20B
330
1F
100
AcDbEntity
  8
0
  6
Continuous
 62
     7
370
     0
100
AcDbLine
 10
8.6167919841
 20
3.5803323717
 30
0.0
 11
8.628579012
 21
3.5735256534
 31
0.0
  0
LINE
  5
20C
330
1F
100
AcDbEntity
  8
0
  6
Continuous
 62
     7
370
     0
100
AcDbLine
 10
9.0689423768
 20
3.5735256534
 30
0.0
 11
9.0807294048
 21
3.5803323717
 31
0.0
  0
LINE
  5
20D
330
1F
100
AcDbEntity
  8
0
  6
Continuous
 62
     7
370
     0
100
AcDbLine
 10
8.5207606944
 20
3.5470828566
 30
0.0
 11
8.5207606944
 21
3.4654287754
 31
0.0
  0
LINE
  5
20E
330
1F
100
AcDbEntity
  8
0
  6
Continuous
 62
     7
370
     0
100
AcDbLine
 10
8.5207606944
 20
3.698415087
 30
0.0
 11
8.5207606944
 21
3.5470828566
 31
0.0
  0
ARC
  5
20F
330
1F
100
AcDbEntity
  8
0
  6
Continuous
 62
     7
370
     0
100
AcDbCircle
 10
8.7205386648
 20
6.6325063729
 30
0.0
 40
0.0299999999999995
100
AcDbArc
 50
16.0146835307
 51
60.0026882664
  0
LINE
  5
210
330
1F
100
AcDbEntity
  8
0
  6
Continuous
 62
     7
370
     0
100
AcDbLine
 10
8.7355374458
 20
6.6584878388
 30
0.0
 11
8.721200956
 21
6.6667641182
 31
0.0
  0
LINE
  5
211
330
1F
100
AcDbEntity
  8
0
  6
Continuous
 62
     7
370
     0
100
AcDbLine
 10
8.3379896275
 20
6.6339600718
 30
0.0
 11
8.4652688481
 21
6.5604833418
 31
0.0
  0
LINE
  5
212
330
1F
100
AcDbEntity
  8
0
  6
Continuous
 62
     7
370
     0
100
AcDbLine
 10
8.6552534073
 20
6.8895819095
 30
0.0
 11
8.5279741867
 21
6.9630586395
 31
0.0
  0
LINE
  5
213
330
1F
100
AcDbEntity
  8
0
  6
Continuous
 62
     7
370
     0
100
AcDbLine
 10
8.6346839357
 20
6.832176257
 30
0.0
 11
8.6299698905
 21
6.8348976173
 31
0.0
  0
LINE
  5
214
330
1F
100
AcDbEntity
  8
0
  6
Continuous
 62
     7
370
     0
100
AcDbLine
 10
8.4999804553
 20
6.6097249131
 30
0.0
 11
8.5046945005
 21
6.6070035527
 31
0.0
  0
LINE
  5
215
330
1F
100
AcDbEntity
  8
0
  6
Continuous
 62
     7
370
     0
100
AcDbLine
 10
8.4329600714
 20
6.9536395024
 30
0.0
 11
8.4235335133
 21
6.9481958971
 31
0.0
  0
LINE
  5
216
330
1F
100
AcDbEntity
  8
0
  6
Continuous
 62
     7
370
     0
100
AcDbLine
 10
8.2986316187
 20
6.7318360265
 30
0.0
 11
8.2986316187
 21
6.720950585
 31
0.0
  0
LWPOLYLINE
  5
217
330
1F
100
AcDbEntity
  8
0
  6
Continuous
 62
     7
370
     0
100
AcDbPolyline
 90
       70
 70
   128
 43
0.0
 10
8.6576544992
 20
6.8430040022
 10
8.6410680668
 20
6.8325146853
 10
8.6262026408
 20
6.8211981129
 10
8.613181401
 20
6.8091480577
 10
8.6021122453
 20
6.7964643702
 10
8.5930868965
 20
6.7832521516
 10
8.5861801412
 20
6.7696208823
 10
8.581449211
 20
6.7556835154
 10
8.5789333081
 20
6.7415555403
 10
8.5786532798
 20
6.7273540259
 10
8.5806114466
 20
6.7131966503
 10
8.5847915826
 20
6.699200726
 10
8.5911590497
 20
6.6854822277
 10
8.5996610852
 20
6.6721548312
 10
8.6102272385
 20
6.6593289715
 10
8.6227699551
 20
6.6471109277
 10
8.6371853022
 20
6.6356019423
 10
8.6533538296
 20
6.6248973824
 10
8.6711415599
 20
6.6150859494
 10
8.6904010982
 20
6.6062489439
 10
8.710972854
 20
6.5984595921
 10
8.7326863633
 20
6.5917824391
 10
8.755361701
 20
6.5862728138
 10
8.7788109722
 20
6.5819763707
 10
8.8028398688
 20
6.5789287115
 10
8.8272492798
 20
6.5771550901
 10
8.8518369412
 20
6.5766702032
 10
8.8763991119
 20
6.5774780688
 10
8.9007322619
 20
6.5795719926
 10
8.9246347592
 20
6.5829346238
 10
8.94790854
 20
6.5875380985
 10
8.9703607506
 20
6.5933442708
 10
8.9918053448
 20
6.6003050291
 10
9.012064626
 20
6.6083626942
 10
9.0309707194
 20
6.6174504978
 10
9.0483669631
 20
6.6274931356
 10
9.0641092064
 20
6.638407391
 10
9.0780670042
 20
6.6501028251
 10
9.0901246976
 20
6.6624825258
 10
9.1001823729
 20
6.6754439111
 10
9.108156689
 20
6.6888795788
 10
9.1139815681
 20
6.7026781967
 10
9.1176087436
 20
6.7167254252
 10
9.1190081595
 20
6.7309048645
 10
9.1181682198
 20
6.7450990193
 10
9.1150958845
 20
6.7591902724
 10
9.1098166119
 20
6.7730618591
 10
9.1023741477
 20
6.7865988352
 10
9.0928301627
 20
6.7996890291
 10
9.0812637411
 20
6.8122239711
 10
9.0677707261
 20
6.824099793
 10
9.0524629249
 20
6.8352180878
 10
9.035467183
 20
6.8454867259
 10
9.0169243322
 20
6.8548206181
 10
8.9969880247
 20
6.8631424208
 10
8.9758234587
 20
6.870383177
 10
8.9536060107
 20
6.8764828875
 10
8.9305197814
 20
6.8813910081
 10
8.9067560705
 20
6.8850668687
 10
8.8825117917
 20
6.8874800098
 10
8.8579878407
 20
6.8886104354
 10
8.8333874306
 20
6.8884487785
 10
8.8089144082
 20
6.8869963787
 10
8.7847715647
 20
6.8842652708
 10
8.7611589553
 20
6.8802780859
 10
8.7382722415
 20
6.8750678629
 10
8.7163010698
 20
6.8686777753
 10
8.6954275002
 20
6.8611607736
 10
8.6758244979
 20
6.8525791458
 10
8.6576544992
 20
6.8430040022
  0
LWPOLYLINE
  5
218
330
1F
100
AcDbEntity
  8
0
  6
Continuous
 62
     7
370
     0
100
AcDbPolyline
 90
       50
 70
   128
 43
0.0
 10
9.1481920904
 20
6.7283160648
 10
9.1543225713
 20
6.7198570314
 10
9.1631249087
 20
6.7050551823
 10
9.1697798197
 20
6.6898842637
 10
9.1742418446
 20
6.6744479082
 10
9.1764805032
 20
6.658851562
 10
9.1764805032
 20
6.6432017637
 10
9.1742418446
 20
6.6276054174
 10
9.1697798197
 20
6.6121690619
 10
9.1631249087
 20
6.5969981433
 10
9.1543225713
 20
6.5821962942
 10
9.1434329365
 20
6.5678646264
 10
9.1305303915
 20
6.5541010396
 10
9.1157030737
 20
6.5409995531
 10
9.0990522688
 20
6.5286496633
 10
9.0806917187
 20
6.5171357325
 10
9.0607468445
 20
6.5065364125
 10
9.0393538899
 20
6.4969241074
 10
9.0166589905
 20
6.4883644791
 10
8.9928171756
 20
6.4809159984
 10
8.9679913088
 20
6.474629546
 10
8.942350976
 20
6.4695480648
 10
8.9160713267
 20
6.4657062664
 10
8.8893318775
 20
6.4631303943
 10
8.862315286
 20
6.4618380442
 10
8.8352061029
 20
6.4618380442
 10
8.8081895114
 20
6.4631303943
 10
8.7814500622
 20
6.4657062664
 10
8.7551704129
 20
6.4695480648
 10
8.7295300801
 20
6.474629546
 10
8.7047042133
 20
6.4809159984
 10
8.6808623983
 20
6.4883644791
 10
8.658167499
 20
6.4969241074
 10
8.6367745444
 20
6.5065364125
 10
8.6168296702
 20
6.5171357325
 10
8.5984691201
 20
6.5286496633
 10
8.5818183152
 20
6.5409995531
 10
8.5669909974
 20
6.5541010396
 10
8.5540884524
 20
6.5678646264
 10
8.5431988176
 20
6.5821962942
 10
8.5343964802
 20
6.5969981433
 10
8.5277415692
 20
6.6121690619
 10
8.5232795443
 20
6.6276054174
 10
8.5210408857
 20
6.6432017637
 10
8.5210408857
 20
6.658851562
 10
8.5232795443
 20
6.6744479082
 10
8.5277415692
 20
6.6898842637
 10
8.5343964802
 20
6.7050551823
 10
8.5431988176
 20
6.7198570314
 10
8.5493292985
 20
6.7283160648
  0
LWPOLYLINE
  5
219
330
1F
100
AcDbEntity
  8
0
  6
Continuous
 62
     7
370
     0
100
AcDbPolyline
 90
       40
 70
   128
 43
0.0
 10
8.5207606944
 20
3.7142015427
 10
8.5210408857
 20
3.7063766436
 10
8.5232795443
 20
3.6907802973
 10
8.5277415692
 20
3.6753439418
 10
8.5343964802
 20
3.6601730232
 10
8.5431988176
 20
3.6453711742
 10
8.5540884524
 20
3.6310395063
 10
8.5669909974
 20
3.6172759195
 10
8.5818183152
 20
3.604174433
 10
8.5984691201
 20
3.5918245432
 10
8.6168296702
 20
3.5803106124
 10
8.6367745444
 20
3.5697112924
 10
8.658167499
 20
3.5600989873
 10
8.6808623983
 20
3.551539359
 10
8.7047042133
 20
3.5440908783
 10
8.7295300801
 20
3.5378044259
 10
8.7551704129
 20
3.5327229447
 10
8.7814500622
 20
3.5288811464
 10
8.8081895114
 20
3.5263052742
 10
8.8352061029
 20
3.5250129241
 10
8.862315286
 20
3.5250129241
 10
8.8893318775
 20
3.5263052742
 10
8.9160713267
 20
3.5288811464
 10
8.942350976
 20
3.5327229447
 10
8.9679913088
 20
3.5378044259
 10
8.9928171756
 20
3.5440908783
 10
9.0166589905
 20
3.551539359
 10
9.0393538899
 20
3.5600989873
 10
9.0607468445
 20
3.5697112924
 10
9.0806917187
 20
3.5803106124
 10
9.0990522688
 20
3.5918245432
 10
9.1157030737
 20
3.604174433
 10
9.1305303915
 20
3.6172759195
 10
9.1434329365
 20
3.6310395063
 10
9.1543225713
 20
3.6453711742
 10
9.1631249087
 20
3.6601730232
 10
9.1697798197
 20
3.6753439418
 10
9.1742418446
 20
3.6907802973
 10
9.1764805032
 20
3.7063766436
 10
9.1767606944
 20
3.7142015427
  0
LWPOLYLINE
  5
21A
330
1F
100
AcDbEntity
  8
0
  6
Continuous
 62
     7
370
     0
100
AcDbPolyline
 90
       48
 70
   128
 43
0.0
 10
8.8848947866
 20
6.6263702609
 10
8.8647390765
 20
6.6247364794
 10
8.8443954201
 20
6.6243723961
 10
8.8241031104
 20
6.6252822936
 10
8.8041008364
 20
6.6274554691
 10
8.7846238756
 20
6.6308663606
 10
8.7659013264
 20
6.6354748474
 10
8.7481534133
 20
6.6412267219
 10
8.731588897
 20
6.6480543276
 10
8.716402618
 20
6.6558773545
 10
8.7027732056
 20
6.664603784
 10
8.6908609761
 20
6.6741309711
 10
8.6808060476
 20
6.6843468519
 10
8.6727266916
 20
6.6951312619
 10
8.6667179416
 20
6.7063573489
 10
8.662850476
 20
6.7178930658
 10
8.6611697858
 20
6.7296027233
 10
8.6616956403
 20
6.7413485861
 10
8.6644218541
 20
6.7529924932
 10
8.6693163599
 20
6.7643974825
 10
8.6763215861
 20
6.7754294026
 10
8.6853551333
 20
6.7859584902
 10
8.6963107442
 20
6.7958608963
 10
8.7090595529
 20
6.8050201437
 10
8.7234516012
 20
6.8133284964
 10
8.7393176022
 20
6.820688227
 10
8.7564709314
 20
6.8270127665
 10
8.7747098221
 20
6.8322277223
 10
8.7938197389
 20
6.8362717533
 10
8.8135759005
 20
6.8390972914
 10
8.8337459245
 20
6.8406711011
 10
8.8540925603
 20
6.8409746704
 10
8.8743764799
 20
6.8400044286
 10
8.8943590928
 20
6.8377717883
 10
8.913805353
 20
6.8343030108
 10
8.9324865231
 20
6.8296388978
 10
8.9501828652
 20
6.8238343111
 10
8.9666862255
 20
6.8169575274
 10
8.9818024825
 20
6.8090894351
 10
8.9953538309
 20
6.8003225829
 10
9.0071808723
 20
6.7907600911
 10
9.0171444909
 20
6.780514439
 10
9.0251274891
 20
6.7697061414
 10
9.0310359667
 20
6.7584623312
 10
9.0348004249
 20
6.7469152642
 10
9.0363765844
 20
6.7352007632
 10
9.0357459053
 20
6.7234566204
 10
9.0329158061
 20
6.7118209766
  0
LINE
  5
21B
330
1F
100
AcDbEntity
  8
0
  6
Continuous
 62
     7
370
     0
100
AcDbLine
 10
8.9138145183
 20
6.6096752551
 30
0.0
 11
8.8848947866
 21
6.6263702609
 31
0.0
  0
LINE
  5
21C
330
1F
100
AcDbEntity
  8
0
  6
Continuous
 62
     7
370
     0
100
AcDbLine
 10
9.0618355378
 20
6.6951259709
 30
0.0
 11
8.9138145183
 21
6.6096752551
 31
0.0
  0
LINE
  5
21D
330
1F
100
AcDbEntity
  8
0
  6
Continuous
 62
     7
370
     0
100
AcDbLine
 10
9.0329158061
 20
6.7118209766
 30
0.0
 11
9.0618355378
 21
6.6951259709
 31
0.0
  0
LINE
  5
21E
330
1F
100
AcDbEntity
  8
0
  6
Continuous
 62
     7
370
     0
100
AcDbLine
 10
9.0329158061
 20
6.7118209766
 30
0.0
 11
9.0109610447
 21
6.6918362121
 31
0.0
  0
LWPOLYLINE
  5
21F
330
1F
100
AcDbEntity
  8
0
  6
Continuous
 62
     7
370
     0
100
AcDbPolyline
 90
       37
 70
   128
 43
0.0
 10
9.0109610447
 20
6.6918362121
 10
9.014788057
 20
6.7028479839
 10
9.0163796724
 20
6.7140415463
 10
9.0157144614
 20
6.7252661888
 10
9.0128013803
 20
6.7363707824
 10
9.007679651
 20
6.7472058148
 10
9.0004182326
 20
6.7576254026
 10
8.991114893
 20
6.7674892564
 10
8.9798948926
 20
6.7766645688
 10
8.9669092978
 20
6.7850278033
 10
8.9523329471
 20
6.792466357
 10
8.9363620967
 20
6.7988800771
 10
8.9192117787
 20
6.804182609
 10
8.9011129054
 20
6.8083025593
 10
8.8823091605
 20
6.8111844569
 10
8.8630537182
 20
6.8127894998
 10
8.8436058342
 20
6.8130960777
 10
8.8242273553
 20
6.8121000629
 10
8.8051791941
 20
6.8098148656
 10
8.7867178153
 20
6.8062712539
 10
8.7690917835
 20
6.801516939
 10
8.7525384161
 20
6.7956159332
 10
8.737280588
 20
6.7886476878
 10
8.7235237311
 20
6.7807060233
 10
8.7114530681
 20
6.7718978667
 10
8.7012311186
 20
6.7623418111
 10
8.6929955114
 20
6.7521665195
 10
8.6868571307
 20
6.7415089924
 10
8.6828986241
 20
6.730512723
 10
8.6811732888
 20
6.7193257652
 10
8.6817043549
 20
6.7080987408
 10
8.684484672
 20
6.6969828105
 10
8.689476806
 20
6.6861276397
 10
8.6966135425
 20
6.6756793825
 10
8.7057987924
 20
6.6657787147
 10
8.7169088852
 20
6.656558939
 10
8.7235097997
 20
6.6520028682
  0
LINE
  5
220
330
1F
100
AcDbEntity
  8
0
  6
Continuous
 62
     7
370
     0
100
AcDbLine
 10
9.0109610447
 20
6.6918362121
 30
0.0
 11
9.0109610447
 21
6.6657567511
 31
0.0
  0
SPLINE
  5
221
330
1F
100
AcDbEntity
  8
0
  6
Continuous
 62
     7
370
     0
100
AcDbSpline
210
0.0
220
0.0
230
1.0
 70
     8
 71
     3
 72
    20
 73
    16
 74
     0
 42
0.00000001
 43
0.00000001
 40
0.0
 40
0.0
 40
0.0
 40
0.0
 40
0.0771688543100385
 40
0.1567079086801706
 40
0.2338429564535935
 40
0.3130123195133804
 40
0.3941286741871913
 40
0.4774167883996426
 40
0.561511370684084
 40
0.6482837391720128
 40
0.72825527929979
 40
0.8108299342550389
 40
0.8864661962133963
 40
0.9642410964299554
 40
1.0
 40
1.0
 40
1.0
 40
1.0
 10
8.787455868119457
 20
6.648575237206073
 30
0.0
 10
8.787289864433792
 20
6.65143044671926
 30
0.0
 10
8.786952758348095
 20
6.65722856197775
 30
0.0
 10
8.784278806300847
 20
6.665110606196392
 30
0.0
 10
8.780168120365563
 20
6.672162734777389
 30
0.0
 10
8.774677467358535
 20
6.678119635121183
 30
0.0
 10
8.767936943412629
 20
6.682849100186317
 30
0.0
 10
8.760180191151612
 20
6.686045544270811
 30
0.0
 10
8.7516517441158
 20
6.687445546103323
 30
0.0
 10
8.742964848938888
 20
6.686801813056621
 30
0.0
 10
8.734428636708605
 20
6.684123070714532
 30
0.0
 10
8.726632996293988
 20
6.679716539899291
 30
0.0
 10
8.719571140860015
 20
6.673639884748455
 30
0.0
 10
8.714366987378286
 20
6.667813583798671
 30
0.0
 10
8.711781092141981
 20
6.663626166046647
 30
0.0
 10
8.710966631819918
 20
6.662307286007328
 30
0.0
  0
SPLINE
  5
222
330
1F
100
AcDbEntity
  8
0
  6
Continuous
 62
     7
370
     0
100
AcDbSpline
210
0.0
220
0.0
230
1.0
 70
     8
 71
     3
 72
    10
 73
     6
 74
     0
 42
0.00000001
 43
0.00000001
 40
0.0
 40
0.0
 40
0.0
 40
0.0
 40
0.2449266180607262
 40
0.7762880021594454
 40
1.0
 40
1.0
 40
1.0
 40
1.0
 10
8.784229048047452
 20
6.631623519021941
 30
0.0
 10
8.78475327751257
 20
6.633018592233438
 30
0.0
 10
8.786414808004315
 20
6.63744023739718
 30
0.0
 10
8.787299621682434
 20
6.643153045142816
 30
0.0
 10
8.787420156304277
 20
6.64733593649296
 30
0.0
 10
8.787455868119455
 20
6.648575237206074
 30
0.0
  0
LINE
  5
223
330
1F
100
AcDbEntity
  8
0
  6
Continuous
 62
     7
370
     0
100
AcDbLine
 10
9.0335489679
 20
6.6787964816
 30
0.0
 11
9.0109610447
 21
6.6918362121
 31
0.0
  0
ARC
  5
224
330
1F
100
AcDbEntity
  8
0
  6
Continuous
 62
     7
370
     0
100
AcDbCircle
 10
8.8487606944
 20
3.9968099529
 30
0.0
 40
0.4771263684736105
100
AcDbArc
 50
242.5177006397
 51
297.4822993603
  0
ARC
  5
225
330
1F
100
AcDbEntity
  8
0
  6
Continuous
 62
     7
370
     0
100
AcDbCircle
 10
8.7160797955
 20
3.5973454539
 30
0.0
 40
0.2091963410652903
100
AcDbArc
 50
208.3287961753
 51
241.6774122781
  0
ARC
  5
226
330
1F
100
AcDbEntity
  8
0
  6
Continuous
 62
     7
370
     0
100
AcDbCircle
 10
8.6358989657
 20
3.5475624036
 30
0.0
 40
0.1151392698819883
100
AcDbArc
 50
180.2386336363
 51
205.4549623967
  0
LWPOLYLINE
  5
227
330
1F
100
AcDbEntity
  8
0
  6
Continuous
 62
     7
370
     0
100
AcDbPolyline
 90
       15
 70
   128
 43
0.0
 10
8.5319370234
 20
3.4164212935
 10
8.5400295161
 20
3.4014850478
 10
8.5502309558
 20
3.3869856025
 10
8.5624716562
 20
3.3730220036
 10
8.5766680012
 20
3.3596896367
 10
8.5927230151
 20
3.3470795753
 10
8.6105270259
 20
3.335277959
 10
8.6299584143
 20
3.3243654047
 10
8.6508844442
 20
3.3144164563
 10
8.6731621694
 20
3.3054990751
 10
8.6966394107
 20
3.297674176
 10
8.7211557945
 20
3.2909952109
 10
8.7465438493
 20
3.2855078038
 10
8.7726301487
 20
3.2812494395
 10
8.7789301082
 20
3.2804193763
  0
ARC
  5
228
330
1F
100
AcDbEntity
  8
0
  6
Continuous
 62
     7
370
     0
100
AcDbCircle
 10
8.6358989657
 20
3.4659083224
 30
0.0
 40
0.1151392698819954
100
AcDbArc
 50
180.2386336363
 51
205.4549623967
  0
LINE
  5
229
330
1F
100
AcDbEntity
  8
0
  6
Continuous
 62
     7
370
     0
100
AcDbLine
 10
9.5447913253
 20
3.0288232959
 30
0.0
 11
9.5447913253
 21
2.7947482632
 31
0.0
  0
LINE
  5
22A
330
1F
100
AcDbEntity
  8
0
  6
Continuous
 62
     7
370
     0
100
AcDbLine
 10
9.5447913253
 20
3.0288232959
 30
0.0
 11
9.7142612505
 21
3.1266562013
 31
0.0
  0
LINE
  5
22B
330
1F
100
AcDbEntity
  8
0
  6
Continuous
 62
     7
370
     0
100
AcDbLine
 10
9.7142612505
 20
3.1266562013
 30
0.0
 11
9.7142612505
 21
2.8925811686
 31
0.0
  0
LINE
  5
22C
330
1F
100
AcDbEntity
  8
0
  6
Continuous
 62
     7
370
     0
100
AcDbLine
 10
9.5447913253
 20
2.7947482632
 30
0.0
 11
9.7142612505
 21
2.8925811686
 31
0.0
  0
LINE
  5
22D
330
1F
100
AcDbEntity
  8
0
  6
Continuous
 62
     7
370
     0
100
AcDbLine
 10
8.6168296702
 20
3.5645241567
 30
0.0
 11
9.5447913253
 21
3.0288232959
 31
0.0
  0
LINE
  5
22E
330
1F
100
AcDbEntity
  8
0
  6
Continuous
 62
     7
370
     0
100
AcDbLine
 10
9.4505104211
 20
2.8491754706
 30
0.0
 11
9.5447913253
 21
2.7947482632
 31
0.0
  0
LINE
  5
22F
330
1F
100
AcDbEntity
  8
0
  6
Continuous
 62
     7
370
     0
100
AcDbLine
 10
9.4505104211
 20
2.8927243139
 30
0.0
 11
9.4505104211
 21
2.8491754706
 31
0.0
  0
LINE
  5
230
330
1F
100
AcDbEntity
  8
0
  6
Continuous
 62
     7
370
     0
100
AcDbLine
 10
8.7111105744
 20
3.3195707598
 30
0.0
 11
9.4505104211
 21
2.8927243139
 31
0.0
  0
LINE
  5
231
330
1F
100
AcDbEntity
  8
0
  6
Continuous
 62
     7
370
     0
100
AcDbLine
 10
8.7111105744
 20
3.3587647188
 30
0.0
 11
8.7111105744
 21
3.3195707598
 31
0.0
  0
LINE
  5
232
330
1F
100
AcDbEntity
  8
0
  6
Continuous
 62
     7
370
     0
100
AcDbLine
 10
8.6168296702
 20
3.4131919262
 30
0.0
 11
8.7111105744
 21
3.3587647188
 31
0.0
  0
LWPOLYLINE
  5
233
330
1F
100
AcDbEntity
  8
0
  6
Continuous
 62
     7
370
     0
100
AcDbPolyline
 90
       10
 70
   128
 43
0.0
 10
8.6168296702
 20
3.4706219633
 10
8.6222308699
 20
3.4686036872
 10
8.6269806052
 20
3.4690283851
 10
8.6305059879
 20
3.4718448322
 10
8.6323818049
 20
3.4767133235
 10
8.6323818049
 20
3.4830466469
 10
8.6305059879
 20
3.4900809103
 10
8.6269806052
 20
3.4969676777
 10
8.6222308699
 20
3.5028763033
 10
8.6168296702
 20
3.5070941196
  0
ARC
  5
234
330
1F
100
AcDbEntity
  8
0
  6
Continuous
 62
     7
370
     0
100
AcDbCircle
 10
8.6820432356
 20
3.7118259158
 30
0.0
 40
0.1610919530919744
100
AcDbArc
 50
181.9628360464
 51
246.12002727
  0
LINE
  5
235
330
1F
100
AcDbEntity
  8
0
  6
Continuous
 62
     7
370
     0
100
AcDbLine
 10
9.1767606944
 20
3.7768465781
 30
0.0
 11
10.0086533738
 21
3.2966051566
 31
0.0
  0
LINE
  5
236
330
1F
100
AcDbEntity
  8
0
  6
Continuous
 62
     7
370
     0
100
AcDbLine
 10
10.0086533738
 20
3.2966051566
 30
0.0
 11
9.8391834485
 21
3.1987722512
 31
0.0
  0
LINE
  5
237
330
1F
100
AcDbEntity
  8
0
  6
Continuous
 62
     7
370
     0
100
AcDbLine
 10
9.8391834485
 20
3.1987722512
 30
0.0
 11
9.264775184
 21
3.530371084
 31
0.0
  0
LWPOLYLINE
  5
238
330
1F
100
AcDbEntity
  8
0
  6
Continuous
 62
     7
370
     0
100
AcDbPolyline
 90
       20
 70
   128
 43
0.0
 10
9.264775184
 20
3.530371084
 10
9.2536425371
 20
3.5358142554
 10
9.2411097837
 20
3.5401253823
 10
9.2275187848
 20
3.5431868685
 10
9.2132402675
 20
3.5449152046
 10
9.1986637123
 20
3.545263246
 10
9.1841867298
 20
3.5442214991
 10
9.1702042143
 20
3.5418183802
 10
9.1570975724
 20
3.5381194399
 10
9.145224319
 20
3.5332255757
 10
9.1349083257
 20
3.5272702795
 10
9.1264309857
 20
3.5204159962
 10
9.1200235389
 20
3.5128496929
 10
9.1158607637
 20
3.5047777585
 10
9.1140562097
 20
3.4964203744
 10
9.1146591005
 20
3.4880055082
 10
9.1176529907
 20
3.4797626956
 10
9.122956215
 20
3.4719167789
 10
9.130424115
 20
3.4646817744
 10
9.139852986
 20
3.4582550341
  0
LINE
  5
239
330
1F
100
AcDbEntity
  8
0
  6
Continuous
 62
     7
370
     0
100
AcDbLine
 10
9.7142612505
 20
3.1266562013
 30
0.0
 11
9.139852986
 21
3.4582550341
 31
0.0
  0
LINE
  5
23A
330
1F
100
AcDbEntity
  8
0
  6
Continuous
 62
     7
370
     0
100
AcDbLine
 10
9.8391834485
 20
3.1987722512
 30
0.0
 11
9.8391834485
 21
2.9646972184
 31
0.0
  0
LINE
  5
23B
330
1F
100
AcDbEntity
  8
0
  6
Continuous
 62
     7
370
     0
100
AcDbLine
 10
9.8391834485
 20
2.9646972184
 30
0.0
 11
9.7449025444
 21
3.0191244259
 31
0.0
  0
LINE
  5
23C
330
1F
100
AcDbEntity
  8
0
  6
Continuous
 62
     7
370
     0
100
AcDbLine
 10
9.7449025444
 20
3.0626732692
 30
0.0
 11
9.7449025444
 21
3.0191244259
 31
0.0
  0
LINE
  5
23D
330
1F
100
AcDbEntity
  8
0
  6
Continuous
 62
     7
370
     0
100
AcDbLine
 10
9.7449025444
 20
3.0626732692
 30
0.0
 11
9.7142612505
 21
3.0803621116
 31
0.0
  0
LINE
  5
23E
330
1F
100
AcDbEntity
  8
0
  6
Continuous
 62
     7
370
     0
100
AcDbLine
 10
10.0086533738
 20
3.2966051566
 30
0.0
 11
10.0086533738
 21
3.0625301238
 31
0.0
  0
LINE
  5
23F
330
1F
100
AcDbEntity
  8
0
  6
Continuous
 62
     7
370
     0
100
AcDbLine
 10
10.0086533738
 20
3.0625301238
 30
0.0
 11
9.8391834485
 21
2.9646972184
 31
0.0
  0
SPLINE
  5
240
330
1F
100
AcDbEntity
  8
0
  6
Continuous
 62
     7
370
     0
100
AcDbSpline
210
0.0
220
0.0
230
1.0
 70
     8
 71
     3
 72
    17
 73
    13
 74
     0
 42
0.00000001
 43
0.00000001
 40
0.0
 40
0.0
 40
0.0
 40
0.0
 40
0.1072028223541183
 40
0.2143996562184863
 40
0.321752036277195
 40
0.4292072669282311
 40
0.5364929531126954
 40
0.6436012507253206
 40
0.7508011422587003
 40
0.8582184677951118
 40
0.9656401968878022
 40
1.0
 40
1.0
 40
1.0
 40
1.0
 10
8.616829670203115
 20
3.470621963321068
 30
0.0
 10
8.615068371250258
 20
3.47185397032221
 30
0.0
 10
8.611545871733
 20
3.474317915502974
 30
0.0
 10
8.606993420478531
 20
3.480277290369215
 30
0.0
 10
8.603587102786934
 20
3.487082985995456
 30
0.0
 10
8.601662943990487
 20
3.494128322648767
 30
0.0
 10
8.601393660911718
 20
3.50053393576861
 30
0.0
 10
8.602798597093644
 20
3.505585857902337
 30
0.0
 10
8.605752308673575
 20
3.508746032219794
 30
0.0
 10
8.609984217119575
 20
3.509672541770789
 30
0.0
 10
8.61393595517034
 20
3.508660984096719
 30
0.0
 10
8.616265194643702
 20
3.507399767070137
 30
0.0
 10
8.616829670203115
 20
3.507094119585298
 30
0.0
  0
ARC
  5
241
330
1F
100
AcDbEntity
  8
0
  6
Continuous
 62
     7
370
     0
100
AcDbCircle
 10
8.684021549
 20
3.5628142314
 30
0.0
 40
0.1640170197808963
100
AcDbArc
 50
185.503874486
 51
245.8162664716
  0
LWPOLYLINE
  5
242
330
1F
100
AcDbEntity
  8
0
  6
Continuous
 62
     7
370
     0
100
AcDbPolyline
 90
       39
 70
   128
 43
0.0
 10
8.5207606944
 20
6.55394374
 10
8.517362875
 20
6.5532464684
 10
8.5038489058
 20
6.5516627928
 10
8.4909963183
 20
6.5521117199
 10
8.4789557973
 20
6.5545879866
 10
8.4678685071
 20
6.5590625608
 10
8.4578644358
 20
6.5654829823
 10
8.4490608721
 20
6.5737739775
 10
8.4415610297
 20
6.583838342
 10
8.4354528375
 20
6.5955580804
 10
8.4308079083
 20
6.6087957895
 10
8.4276806998
 20
6.6233962692
 10
8.4261078756
 20
6.6391883422
 10
8.4261078756
 20
6.655986861
 10
8.4276806998
 20
6.6735948782
 10
8.4308079083
 20
6.691805956
 10
8.4354528375
 20
6.7104065862
 10
8.4415610297
 20
6.7291786932
 10
8.4490608721
 20
6.7479021914
 10
8.4578644358
 20
6.7663575649
 10
8.4678685071
 20
6.7843284412
 10
8.4789557973
 20
6.8016041283
 10
8.4909963183
 20
6.8179820846
 10
8.5038489058
 20
6.8332702934
 10
8.517362875
 20
6.8472895145
 10
8.5313797871
 20
6.8598753854
 10
8.5457353064
 20
6.8708803482
 10
8.5602611277
 20
6.8801753799
 10
8.574786949
 20
6.8876515045
 10
8.5891424684
 20
6.8932210715
 10
8.6031593804
 20
6.8968187828
 10
8.6166733496
 20
6.8984024584
 10
8.6295259371
 20
6.8979535313
 10
8.6415664581
 20
6.8954772646
 10
8.6526537484
 20
6.8910026904
 10
8.6626578196
 20
6.8845822689
 10
8.6714613833
 20
6.8762912737
 10
8.6789612257
 20
6.8662269092
 10
8.6842069973
 20
6.8564483705
  0
LWPOLYLINE
  5
243
330
1F
100
AcDbEntity
  8
0
  6
Continuous
 62
     7
370
     0
100
AcDbPolyline
 90
       36
 70
   128
 43
0.0
 10
8.5207606944
 20
6.5586138339
 10
8.5154875078
 20
6.5583301698
 10
8.5032266017
 20
6.5590771936
 10
8.4918015016
 20
6.5618427578
 10
8.4813558848
 20
6.566592084
 10
8.4720211109
 20
6.5732654465
 10
8.46391457
 20
6.581778924
 10
8.4571382068
 20
6.5920254545
 10
8.4517772378
 20
6.603876182
 10
8.4478990804
 20
6.6171820767
 10
8.4455525047
 20
6.6317758092
 10
8.4447670201
 20
6.647473855
 10
8.4455525047
 20
6.6640788019
 10
8.4478990804
 20
6.6813818332
 10
8.4517772378
 20
6.6991653531
 10
8.4571382068
 20
6.7172057236
 10
8.46391457
 20
6.7352760766
 10
8.4720211109
 20
6.7531491669
 10
8.4813558848
 20
6.7706002299
 10
8.4918015016
 20
6.7874098086
 10
8.5032266017
 20
6.8033665126
 10
8.5154875078
 20
6.8182696771
 10
8.5284300317
 20
6.8319318863
 10
8.541891414
 20
6.8441813299
 10
8.5557023697
 20
6.854863964
 10
8.5696892181
 20
6.8638454483
 10
8.5836760666
 20
6.8710128355
 10
8.5974870223
 20
6.8762759914
 10
8.6109484045
 20
6.8795687289
 10
8.6238909285
 20
6.8808496399
 10
8.6361518345
 20
6.8801026161
 10
8.6475769346
 20
6.8773370519
 10
8.6580225515
 20
6.8725877257
 10
8.6673573254
 20
6.8659143632
 10
8.6754638662
 20
6.8574008858
 10
8.6781988637
 20
6.8537073162
  0
LWPOLYLINE
  5
244
330
1F
100
AcDbEntity
  8
0
  6
Continuous
 62
     7
370
     0
100
AcDbPolyline
 90
       12
 70
   128
 43
0.0
 10
8.7117394779
 20
6.6605667941
 10
8.7155528712
 20
6.6640566352
 10
8.7228956874
 20
6.6692509306
 10
8.7302385036
 20
6.6725344703
 10
8.7372131203
 20
6.6737426039
 10
8.7434698012
 20
6.6728147504
 10
8.7486948101
 20
6.6697974365
 10
8.7526261432
 20
6.6648419627
 10
8.7550666671
 20
6.6581968172
 10
8.7558940038
 20
6.6501952154
 10
8.7550666671
 20
6.6412383909
 10
8.7546172514
 20
6.6389611644
  0
LWPOLYLINE
  5
245
330
1F
100
AcDbEntity
  8
0
  6
Continuous
 62
     7
370
     0
100
AcDbPolyline
 90
       31
 70
   128
 43
0.0
 10
8.3379896275
 20
6.6339600718
 10
8.3305852152
 20
6.6389597124
 10
8.3217816515
 20
6.6472507075
 10
8.3142818091
 20
6.6573150721
 10
8.3081736168
 20
6.6690348105
 10
8.3035286877
 20
6.6822725195
 10
8.3004014792
 20
6.6968729992
 10
8.2988286549
 20
6.7126650723
 10
8.2988286549
 20
6.7294635911
 10
8.3004014792
 20
6.7470716083
 10
8.3035286877
 20
6.7652826861
 10
8.3081736168
 20
6.7838833162
 10
8.3142818091
 20
6.8026554233
 10
8.3217816515
 20
6.8213789215
 10
8.3305852152
 20
6.8398342949
 10
8.3405892864
 20
6.8578051713
 10
8.3516765767
 20
6.8750808584
 10
8.3637170977
 20
6.8914588146
 10
8.3765696852
 20
6.9067470235
 10
8.3900836544
 20
6.9207662446
 10
8.4041005664
 20
6.9333521155
 10
8.4184560858
 20
6.9443570783
 10
8.4329819071
 20
6.9536521099
 10
8.4475077284
 20
6.9611282346
 10
8.4618632477
 20
6.9666978016
 10
8.4758801598
 20
6.9702955129
 10
8.489394129
 20
6.9718791885
 10
8.5022467165
 20
6.9714302613
 10
8.5142872375
 20
6.9689539947
 10
8.5253745277
 20
6.9644794205
 10
8.5279741867
 20
6.9630586395
  0
LWPOLYLINE
  5
246
330
1F
100
AcDbEntity
  8
0
  6
Continuous
 62
     7
370
     0
100
AcDbPolyline
 90
       21
 70
   128
 43
0.0
 10
8.5696892181
 20
6.8284620131
 10
8.5573830907
 20
6.820426421
 10
8.5452875245
 20
6.8106654881
 10
8.5336094781
 20
6.7993462268
 10
8.522548766
 20
6.7866623126
 10
8.5122946402
 20
6.772830771
 10
8.5030225515
 20
6.7580882634
 10
8.4948911479
 20
6.7426870382
 10
8.48803956
 20
6.7268906147
 10
8.4825850205
 20
6.710969274
 10
8.4786208579
 20
6.6951954346
 10
8.4762149002
 20
6.6798389914
 10
8.475408314
 20
6.6651626974
 10
8.4762149002
 20
6.651417668
 10
8.4786208579
 20
6.6388390844
 10
8.4825850205
 20
6.6276421698
 10
8.48803956
 20
6.6180185064
 10
8.4948911479
 20
6.6101327578
 10
8.5030225515
 20
6.6041198514
 10
8.5122946402
 20
6.6000826695
 10
8.5207606944
 20
6.5982807063
  0
ARC
  5
247
330
1F
100
AcDbEntity
  8
0
  6
Continuous
 62
     7
370
     0
100
AcDbCircle
 10
8.608089068
 20
6.7754612744
 30
0.0
 40
0.0654494215008787
100
AcDbArc
 50
60.1556793536
 51
125.9239071182
  0
ARC
  5
248
330
1F
100
AcDbEntity
  8
0
  6
Continuous
 62
     7
370
     0
100
AcDbCircle
 10
8.7233497247
 20
6.6539105884
 30
0.0
 40
0.0131625448317584
100
AcDbArc
 50
19.8238783614
 51
115.0397152305
  0
ARC
  5
249
330
1F
100
AcDbEntity
  8
0
  6
Continuous
 62
     7
370
     0
100
AcDbCircle
 10
8.5221605859
 20
6.6496355437
 30
0.0
 40
0.0490263924582379
100
AcDbArc
 50
244.0569199819
 51
268.3637634669
  0
LWPOLYLINE
  5
24A
330
1F
100
AcDbEntity
  8
0
  6
Continuous
 62
     7
370
     0
100
AcDbPolyline
 90
        3
 70
   128
 43
0.0
 10
8.6398701529
 20
6.8316782605
 10
8.6397732432
 20
6.8317684123
 10
8.6339517748
 20
6.8363515851
  0
LWPOLYLINE
  5
24B
330
1F
100
AcDbEntity
  8
0
  6
Continuous
 62
     7
370
     0
100
AcDbPolyline
 90
       21
 70
   128
 43
0.0
 10
8.5696892181
 20
6.8257402104
 10
8.5576907439
 20
6.8179055081
 10
8.5458975669
 20
6.8083885985
 10
8.5345114716
 20
6.7973523187
 10
8.5237272773
 20
6.7849855024
 10
8.5137295046
 20
6.7714997494
 10
8.5046892181
 20
6.7571258044
 10
8.4967610996
 20
6.7421096099
 10
8.4900808015
 20
6.7267080969
 10
8.4847626254
 20
6.7111847897
 10
8.4808975669
 20
6.6958052964
 10
8.4785517581
 20
6.6808327643
 10
8.4777653366
 20
6.6665233776
 10
8.4785517581
 20
6.6531219739
 10
8.4808975669
 20
6.6408578549
 10
8.4847626254
 20
6.6299408632
 10
8.4900808015
 20
6.6205577914
 10
8.4967610996
 20
6.6128691865
 10
8.5046892181
 20
6.6070066027
 10
8.5137295046
 20
6.6030703504
 10
8.5207606944
 20
6.6014800557
  0
ARC
  5
24C
330
1F
100
AcDbEntity
  8
0
  6
Continuous
 62
     7
370
     0
100
AcDbCircle
 10
8.6073023046
 20
6.7735975373
 30
0.0
 40
0.0642930994113642
100
AcDbArc
 50
61.6886389642
 51
125.8047737523
  0
ARC
  5
24D
330
1F
100
AcDbEntity
  8
0
  6
Continuous
 62
     7
370
     0
100
AcDbCircle
 10
8.5239263725
 20
6.6503428104
 30
0.0
 40
0.0471510395630695
100
AcDbArc
 50
208.5695202581
 51
239.478905564
  0
ARC
  5
24E
330
1F
100
AcDbEntity
  8
0
  6
Continuous
 62
     7
370
     0
100
AcDbCircle
 10
8.6065816031
 20
6.7930918736
 30
0.0
 40
0.0479033631695845
100
AcDbArc
 50
60.7751019299
 51
91.1872251373
  0
ARC
  5
24F
330
1F
100
AcDbEntity
  8
0
  6
Continuous
 62
     7
370
     0
100
AcDbCircle
 10
8.5685097118
 20
6.7202708194
 30
0.0
 40
0.2701257839968528
100
AcDbArc
 50
122.4591969699
 51
177.5461795628
  0
INSERT
  5
253
330
1F
100
AcDbEntity
  8
0
  6
Continuous
 62
     7
100
AcDbBlockReference
  2
SW_BROKEN_VIEW_1
 10
0.0
 20
0.0
 30
0.0
  0
LINE
  5
254
330
1F
100
AcDbEntity
  8
0
  6
Continuous
 62
     7
370
     0
100
AcDbLine
 10
2.7649587844
 20
4.6037969497
 30
0.0
 11
2.7649587844
 21
5.2882424829
 31
0.0
  0
LINE
  5
255
330
1F
100
AcDbEntity
  8
0
  6
Continuous
 62
     7
370
     0
100
AcDbLine
 10
1.7809587717
 20
5.2882424829
 30
0.0
 11
1.7809587717
 21
4.5492946327
 31
0.0
  0
LINE
  5
256
330
1F
100
AcDbEntity
  8
0
  6
Continuous
 62
     7
370
     0
100
AcDbLine
 10
2.7649587844
 20
5.2882424829
 30
0.0
 11
2.6783562349
 21
5.4382426168
 31
0.0
  0
LINE
  5
257
330
1F
100
AcDbEntity
  8
0
  6
Continuous
 62
     7
370
     0
100
AcDbLine
 10
1.8675613212
 20
5.4382426168
 30
0.0
 11
1.7809587717
 21
5.2882424829
 31
0.0
  0
LINE
  5
258
330
1F
100
AcDbEntity
  8
0
  6
Continuous
 62
     7
370
     0
100
AcDbLine
 10
2.0442121856
 20
5.2882424829
 30
0.0
 11
1.7809587717
 21
5.2882424829
 31
0.0
  0
LINE
  5
259
330
1F
100
AcDbEntity
  8
0
  6
Continuous
 62
     7
370
     0
100
AcDbLine
 10
2.7649587844
 20
5.2882424829
 30
0.0
 11
2.5017053706
 21
5.2882424829
 31
0.0
  0
LINE
  5
25A
330
1F
100
AcDbEntity
  8
0
  6
Continuous
 62
     7
370
     0
100
AcDbLine
 10
2.2729587781
 20
5.4382426168
 30
0.0
 11
2.6783562349
 21
5.4382426168
 31
0.0
  0
LINE
  5
25B
330
1F
100
AcDbEntity
  8
0
  6
Continuous
 62
     7
370
     0
100
AcDbLine
 10
1.8675613212
 20
5.4382426168
 30
0.0
 11
2.2729587781
 21
5.4382426168
 31
0.0
  0
LINE
  5
25C
330
1F
100
AcDbEntity
  8
0
  6
Continuous
 62
     7
370
     0
100
AcDbLine
 10
2.2774751761
 20
5.1540434466
 30
0.0
 11
2.2442127185
 21
5.1400539548
 31
0.0
  0
LINE
  5
25D
330
1F
100
AcDbEntity
  8
0
  6
Continuous
 62
     7
370
     0
100
AcDbLine
 10
2.2396963196
 20
5.1042536217
 30
0.0
 11
2.2442127185
 21
5.1400539548
 31
0.0
  0
LINE
  5
25E
330
1F
100
AcDbEntity
  8
0
  6
Continuous
 62
     7
370
     0
100
AcDbLine
 10
2.2684423801
 20
5.0824421937
 30
0.0
 11
2.2396963196
 21
5.1042536217
 31
0.0
  0
LINE
  5
25F
330
1F
100
AcDbEntity
  8
0
  6
Continuous
 62
     7
370
     0
100
AcDbLine
 10
2.2684423801
 20
5.0824421937
 30
0.0
 11
2.3017048377
 21
5.0964310988
 31
0.0
  0
LINE
  5
260
330
1F
100
AcDbEntity
  8
0
  6
Continuous
 62
     7
370
     0
100
AcDbLine
 10
2.3062212365
 20
5.1322314319
 30
0.0
 11
2.3017048377
 21
5.0964310988
 31
0.0
  0
LINE
  5
261
330
1F
100
AcDbEntity
  8
0
  6
Continuous
 62
     7
370
     0
100
AcDbLine
 10
2.3062212365
 20
5.1322314319
 30
0.0
 11
2.2774751761
 21
5.1540434466
 31
0.0
  0
CIRCLE
  5
262
330
1F
100
AcDbEntity
  8
0
  6
Continuous
 62
     7
370
     0
100
AcDbCircle
 10
2.2729589574
 20
5.1182427268
 30
0.0
 40
0.0541001086304578
  0
LINE
  5
263
330
1F
100
AcDbEntity
  8
0
  6
Continuous
 62
     7
370
     0
100
AcDbLine
 10
2.2161329624
 20
5.2166676298
 30
0.0
 11
2.3297845937
 21
5.2166676298
 31
0.0
  0
LWPOLYLINE
  5
264
330
1F
100
AcDbEntity
  8
0
  6
Continuous
 62
     7
370
     0
100
AcDbPolyline
 90
        6
 70
   128
 43
0.0
 10
2.1593071468
 20
5.1182425268
 10
2.1711508933
 20
5.1387568498
 10
2.184151414
 20
5.1612740297
 10
2.1932593638
 20
5.1770493141
 10
2.2024885184
 20
5.1930352095
 10
2.2161329624
 20
5.2166676298
  0
LWPOLYLINE
  5
265
330
1F
100
AcDbEntity
  8
0
  6
Continuous
 62
     7
370
     0
100
AcDbPolyline
 90
        6
 70
   128
 43
0.0
 10
2.2161329624
 20
5.0198174238
 10
2.2042892205
 20
5.0403311602
 10
2.1912886999
 20
5.0628489267
 10
2.1821807501
 20
5.0786242111
 10
2.1729516
 20
5.0946095198
 10
2.1593071468
 20
5.1182425268
  0
LINE
  5
266
330
1F
100
AcDbEntity
  8
0
  6
Continuous
 62
     7
370
     0
100
AcDbLine
 10
2.3297845937
 20
5.0198174238
 30
0.0
 11
2.2161329624
 21
5.0198174238
 31
0.0
  0
LWPOLYLINE
  5
267
330
1F
100
AcDbEntity
  8
0
  6
Continuous
 62
     7
370
     0
100
AcDbPolyline
 90
        6
 70
   128
 43
0.0
 10
2.3866104093
 20
5.1182425268
 10
2.3747666628
 20
5.0977287904
 10
2.3617661422
 20
5.0752110239
 10
2.3526581924
 20
5.0594357395
 10
2.3434290377
 20
5.0434504308
 10
2.3297845937
 20
5.0198174238
  0
LWPOLYLINE
  5
268
330
1F
100
AcDbEntity
  8
0
  6
Continuous
 62
     7
370
     0
100
AcDbPolyline
 90
        6
 70
   128
 43
0.0
 10
2.3297845937
 20
5.2166676298
 10
2.3416283356
 20
5.1961538934
 10
2.3546288563
 20
5.1736361269
 10
2.3637368061
 20
5.1578608425
 10
2.3729659561
 20
5.1418755338
 10
2.3866104093
 20
5.1182425268
  0
CIRCLE
  5
269
330
1F
100
AcDbEntity
  8
0
  6
Continuous
 62
     7
370
     0
100
AcDbCircle
 10
2.2729587958
 20
5.1182426502
 30
0.0
 40
0.1199999823595343
  0
LINE
  5
26A
330
1F
100
AcDbEntity
  8
0
  6
Continuous
 62
     7
370
     0
100
AcDbLine
 10
2.3599246718
 20
4.9784467551
 30
0.0
 11
2.3802084924
 21
4.9708993756
 31
0.0
  0
LINE
  5
26B
330
1F
100
AcDbEntity
  8
0
  6
Continuous
 62
     7
370
     0
100
AcDbLine
 10
2.3544420784
 20
4.974388242
 30
0.0
 11
2.3599246718
 21
4.9784467551
 31
0.0
  0
LINE
  5
26C
330
1F
100
AcDbEntity
  8
0
  6
Continuous
 62
     7
370
     0
100
AcDbLine
 10
2.3797545735
 20
4.9653366665
 30
0.0
 11
2.3544420784
 21
4.974388242
 31
0.0
  0
LINE
  5
26D
330
1F
100
AcDbEntity
  8
0
  6
Continuous
 62
     7
370
     0
100
AcDbLine
 10
2.3804310015
 20
4.938083968
 30
0.0
 11
2.3797545735
 21
4.9653366665
 31
0.0
  0
LINE
  5
26E
330
1F
100
AcDbEntity
  8
0
  6
Continuous
 62
     7
370
     0
100
AcDbLine
 10
2.3860026022
 20
4.9422046671
 30
0.0
 11
2.3804310015
 21
4.938083968
 31
0.0
  0
LINE
  5
26F
330
1F
100
AcDbEntity
  8
0
  6
Continuous
 62
     7
370
     0
100
AcDbLine
 10
2.3848277607
 20
4.9642061729
 30
0.0
 11
2.3860026022
 21
4.9422046671
 31
0.0
  0
LINE
  5
270
330
1F
100
AcDbEntity
  8
0
  6
Continuous
 62
     7
370
     0
100
AcDbLine
 10
2.4056633992
 20
4.9567567656
 30
0.0
 11
2.3848277607
 21
4.9642061729
 31
0.0
  0
LINE
  5
271
330
1F
100
AcDbEntity
  8
0
  6
Continuous
 62
     7
370
     0
100
AcDbLine
 10
2.4111904962
 20
4.960851065
 30
0.0
 11
2.4056633992
 21
4.9567567656
 31
0.0
  0
LINE
  5
272
330
1F
100
AcDbEntity
  8
0
  6
Continuous
 62
     7
370
     0
100
AcDbLine
 10
2.3852905712
 20
4.969768882
 30
0.0
 11
2.4111904962
 21
4.960851065
 31
0.0
  0
LINE
  5
273
330
1F
100
AcDbEntity
  8
0
  6
Continuous
 62
     7
370
     0
100
AcDbLine
 10
2.3846319538
 20
4.9967370504
 30
0.0
 11
2.3852905712
 21
4.969768882
 31
0.0
  0
LINE
  5
274
330
1F
100
AcDbEntity
  8
0
  6
Continuous
 62
     7
370
     0
100
AcDbLine
 10
2.3790692539
 20
4.9926163514
 30
0.0
 11
2.3846319538
 21
4.9967370504
 31
0.0
  0
LINE
  5
275
330
1F
100
AcDbEntity
  8
0
  6
Continuous
 62
     7
370
     0
100
AcDbLine
 10
2.3802084924
 20
4.9708993756
 30
0.0
 11
2.3790692539
 21
4.9926163514
 31
0.0
  0
LINE
  5
276
330
1F
100
AcDbEntity
  8
0
  6
Continuous
 62
     7
370
     0
100
AcDbLine
 10
2.3191800379
 20
4.9427625806
 30
0.0
 11
2.315673315
 21
4.9598508099
 31
0.0
  0
LINE
  5
277
330
1F
100
AcDbEntity
  8
0
  6
Continuous
 62
     7
370
     0
100
AcDbLine
 10
2.2963952288
 20
4.9380898346
 30
0.0
 11
2.3191800379
 21
4.9427625806
 31
0.0
  0
LINE
  5
278
330
1F
100
AcDbEntity
  8
0
  6
Continuous
 62
     7
370
     0
100
AcDbLine
 10
2.2928885037
 20
4.9551780639
 30
0.0
 11
2.2963952288
 21
4.9380898346
 31
0.0
  0
LINE
  5
279
330
1F
100
AcDbEntity
  8
0
  6
Continuous
 62
     7
370
     0
100
AcDbLine
 10
2.2871923008
 20
4.9540035708
 30
0.0
 11
2.2928885037
 21
4.9551780639
 31
0.0
  0
LINE
  5
27A
330
1F
100
AcDbEntity
  8
0
  6
Continuous
 62
     7
370
     0
100
AcDbLine
 10
2.2961994219
 20
4.9101425308
 30
0.0
 11
2.2871923008
 21
4.9540035708
 31
0.0
  0
LINE
  5
27B
330
1F
100
AcDbEntity
  8
0
  6
Continuous
 62
     7
370
     0
100
AcDbLine
 10
2.3018956236
 20
4.9113176105
 30
0.0
 11
2.2961994219
 21
4.9101425308
 31
0.0
  0
LINE
  5
27C
330
1F
100
AcDbEntity
  8
0
  6
Continuous
 62
     7
370
     0
100
AcDbLine
 10
2.2974543653
 20
4.9329630138
 30
0.0
 11
2.3018956236
 21
4.9113176105
 31
0.0
  0
LINE
  5
27D
330
1F
100
AcDbEntity
  8
0
  6
Continuous
 62
     7
370
     0
100
AcDbLine
 10
2.3202391744
 20
4.9376357599
 30
0.0
 11
2.2974543653
 21
4.9329630138
 31
0.0
  0
LINE
  5
27E
330
1F
100
AcDbEntity
  8
0
  6
Continuous
 62
     7
370
     0
100
AcDbLine
 10
2.3246804327
 20
4.9159903566
 30
0.0
 11
2.3202391744
 21
4.9376357599
 31
0.0
  0
LINE
  5
27F
330
1F
100
AcDbEntity
  8
0
  6
Continuous
 62
     7
370
     0
100
AcDbLine
 10
2.3303766343
 20
4.9171648497
 30
0.0
 11
2.3246804327
 21
4.9159903566
 31
0.0
  0
LINE
  5
280
330
1F
100
AcDbEntity
  8
0
  6
Continuous
 62
     7
370
     0
100
AcDbLine
 10
2.3213695167
 20
4.9610258896
 30
0.0
 11
2.3303766343
 21
4.9171648497
 31
0.0
  0
LINE
  5
281
330
1F
100
AcDbEntity
  8
0
  6
Continuous
 62
     7
370
     0
100
AcDbLine
 10
2.315673315
 20
4.9598508099
 30
0.0
 11
2.3213695167
 21
4.9610258896
 31
0.0
  0
SPLINE
  5
282
330
1F
100
AcDbEntity
  8
0
  6
Continuous
 62
     7
370
     0
100
AcDbSpline
210
0.0
220
0.0
230
1.0
 70
     8
 71
     3
 72
     9
 73
     5
 74
     0
 42
0.00000001
 43
0.00000001
 40
0.0
 40
0.0
 40
0.0
 40
0.0
 40
0.5607337954812968
 40
1.0
 40
1.0
 40
1.0
 40
1.0
 10
2.187711165349859
 20
4.960733733023235
 30
0.0
 10
2.190257156014316
 20
4.961117614074637
 30
0.0
 10
2.194797618324549
 20
4.961802218880869
 30
0.0
 10
2.199013806494409
 20
4.960051815962694
 30
0.0
 10
2.20086583546932
 20
4.959282923116449
 30
0.0
  0
SPLINE
  5
283
330
1F
100
AcDbEntity
  8
0
  6
Continuous
 62
     7
370
     0
100
AcDbSpline
210
0.0
220
0.0
230
1.0
 70
     8
 71
     3
 72
    10
 73
     6
 74
     0
 42
0.00000001
 43
0.00000001
 40
0.0
 40
0.0
 40
0.0
 40
0.0
 40
0.2815299917201846
 40
0.5625562296090193
 40
1.0
 40
1.0
 40
1.0
 40
1.0
 10
2.182068368035935
 20
4.969704936053799
 30
0.0
 10
2.18295179068464
 20
4.969148036008707
 30
0.0
 10
2.184717055235567
 20
4.96803523240394
 30
0.0
 10
2.18721423434023
 20
4.965106976418994
 30
0.0
 10
2.187523106881756
 20
4.962388742345884
 30
0.0
 10
2.187711165349859
 20
4.960733733023235
 30
0.0
  0
SPLINE
  5
284
330
1F
100
AcDbEntity
  8
0
  6
Continuous
 62
     7
370
     0
100
AcDbSpline
210
0.0
220
0.0
230
1.0
 70
     8
 71
     3
 72
     9
 73
     5
 74
     0
 42
0.00000001
 43
0.00000001
 40
0.0
 40
0.0
 40
0.0
 40
0.0
 40
0.560637553146767
 40
1.0
 40
1.0
 40
1.0
 40
1.0
 10
2.17053355295377
 20
4.9711381461639
 30
0.0
 10
2.172769400879335
 20
4.971419219286012
 30
0.0
 10
2.176757446120001
 20
4.971920564799765
 30
0.0
 10
2.180447219969211
 20
4.970381252202851
 30
0.0
 10
2.182068368035935
 20
4.969704936053799
 30
0.0
  0
LINE
  5
285
330
1F
100
AcDbEntity
  8
0
  6
Continuous
 62
     7
370
     0
100
AcDbLine
 10
2.1723136166
 20
4.9743600823
 30
0.0
 11
2.170533553
 21
4.9711381462
 31
0.0
  0
LINE
  5
286
330
1F
100
AcDbEntity
  8
0
  6
Continuous
 62
     7
370
     0
100
AcDbLine
 10
2.1671870341
 20
4.9772077294
 30
0.0
 11
2.1723136166
 21
4.9743600823
 31
0.0
  0
LINE
  5
287
330
1F
100
AcDbEntity
  8
0
  6
Continuous
 62
     7
370
     0
100
AcDbLine
 10
2.1510863643
 20
4.948157505
 30
0.0
 11
2.1671870341
 21
4.9772077294
 31
0.0
  0
LINE
  5
288
330
1F
100
AcDbEntity
  8
0
  6
Continuous
 62
     7
370
     0
100
AcDbLine
 10
2.1562129467
 20
4.9453092712
 30
0.0
 11
2.1510863643
 21
4.948157505
 31
0.0
  0
LINE
  5
289
330
1F
100
AcDbEntity
  8
0
  6
Continuous
 62
     7
370
     0
100
AcDbLine
 10
2.1681749694
 20
4.9668836886
 30
0.0
 11
2.1562129467
 21
4.9453092712
 31
0.0
  0
SPLINE
  5
28A
330
1F
100
AcDbEntity
  8
0
  6
Continuous
 62
     7
370
     0
100
AcDbSpline
210
0.0
220
0.0
230
1.0
 70
     8
 71
     3
 72
     9
 73
     5
 74
     0
 42
0.00000001
 43
0.00000001
 40
0.0
 40
0.0
 40
0.0
 40
0.0
 40
0.5575444379534831
 40
1.0
 40
1.0
 40
1.0
 40
1.0
 10
2.178027619715004
 20
4.965984925694343
 30
0.0
 10
2.176225983423713
 20
4.966551637556767
 30
0.0
 10
2.17299460639141
 20
4.967568080056856
 30
0.0
 10
2.169653333945154
 20
4.967093617321384
 30
0.0
 10
2.168174969366995
 20
4.96688368864509
 30
0.0
  0
SPLINE
  5
28B
330
1F
100
AcDbEntity
  8
0
  6
Continuous
 62
     7
370
     0
100
AcDbSpline
210
0.0
220
0.0
230
1.0
 70
     8
 71
     3
 72
    10
 73
     6
 74
     0
 42
0.00000001
 43
0.00000001
 40
0.0
 40
0.0
 40
0.0
 40
0.0
 40
0.2796899324413236
 40
0.5592358908623051
 40
1.0
 40
1.0
 40
1.0
 40
1.0
 10
2.181667853496046
 20
4.961054049322914
 30
0.0
 10
2.181619052387287
 20
4.96166501727155
 30
0.0
 10
2.181521475290773
 20
4.962886638665145
 30
0.0
 10
2.180185744798582
 20
4.964696545624569
 30
0.0
 10
2.178846881825008
 20
4.965495834036736
 30
0.0
 10
2.178027619715004
 20
4.965984925694343
 30
0.0
  0
SPLINE
  5
28C
330
1F
100
AcDbEntity
  8
0
  6
Continuous
 62
     7
370
     0
100
AcDbSpline
210
0.0
220
0.0
230
1.0
 70
     8
 71
     3
 72
     9
 73
     5
 74
     0
 42
0.00000001
 43
0.00000001
 40
0.0
 40
0.0
 40
0.0
 40
0.0
 40
0.5612882542348078
 40
0.9999999999999999
 40
0.9999999999999999
 40
0.9999999999999999
 40
0.9999999999999999
 10
2.178997753507936
 20
4.954183088696838
 30
0.0
 10
2.179689142061616
 20
4.955396854742093
 30
0.0
 10
2.180920930805569
 20
4.957559319458034
 30
0.0
 10
2.181440091570522
 20
4.959988388293516
 30
0.0
 10
2.181667853496046
 20
4.961054049322914
 30
0.0
  0
LINE
  5
28D
330
1F
100
AcDbEntity
  8
0
  6
Continuous
 62
     7
370
     0
100
AcDbLine
 10
2.1698838363
 20
4.9377349054
 30
0.0
 11
2.1789977535
 21
4.9541830887
 31
0.0
  0
LINE
  5
28E
330
1F
100
AcDbEntity
  8
0
  6
Continuous
 62
     7
370
     0
100
AcDbLine
 10
2.1750104187
 20
4.9348960582
 30
0.0
 11
2.1698838363
 21
4.9377349054
 31
0.0
  0
LINE
  5
28F
330
1F
100
AcDbEntity
  8
0
  6
Continuous
 62
     7
370
     0
100
AcDbLine
 10
2.1852635745
 20
4.9533905112
 30
0.0
 11
2.1750104187
 21
4.9348960582
 31
0.0
  0
SPLINE
  5
290
330
1F
100
AcDbEntity
  8
0
  6
Continuous
 62
     7
370
     0
100
AcDbSpline
210
0.0
220
0.0
230
1.0
 70
     8
 71
     3
 72
     9
 73
     5
 74
     0
 42
0.00000001
 43
0.00000001
 40
0.0
 40
0.0
 40
0.0
 40
0.0
 40
0.5599797982996744
 40
0.9999999999999999
 40
0.9999999999999999
 40
0.9999999999999999
 40
0.9999999999999999
 10
2.186705428634882
 20
4.956434689352822
 30
0.0
 10
2.186461231259777
 20
4.955854539034312
 30
0.0
 10
2.186025148787075
 20
4.954818518948818
 30
0.0
 10
2.185496285144604
 20
4.953826860803302
 30
0.0
 10
2.185263574457971
 20
4.953390511186094
 30
0.0
  0
SPLINE
  5
291
330
1F
100
AcDbEntity
  8
0
  6
Continuous
 62
     7
370
     0
100
AcDbSpline
210
0.0
220
0.0
230
1.0
 70
     8
 71
     3
 72
     9
 73
     5
 74
     0
 42
0.00000001
 43
0.00000001
 40
0.0
 40
0.0
 40
0.0
 40
0.0
 40
0.5574913516877652
 40
0.9999999999999999
 40
0.9999999999999999
 40
0.9999999999999999
 40
0.9999999999999999
 10
2.19682509173167
 20
4.955571125995446
 30
0.0
 10
2.194972524648489
 20
4.956144484942058
 30
0.0
 10
2.191649482815512
 20
4.957172947437262
 30
0.0
 10
2.188222082788195
 20
4.95666115980583
 30
0.0
 10
2.186705428634882
 20
4.956434689352822
 30
0.0
  0
SPLINE
  5
292
330
1F
100
AcDbEntity
  8
0
  6
Continuous
 62
     7
370
     0
100
AcDbSpline
210
0.0
220
0.0
230
1.0
 70
     8
 71
     3
 72
    10
 73
     6
 74
     0
 42
0.00000001
 43
0.00000001
 40
0.0
 40
0.0
 40
0.0
 40
0.0
 40
0.2796144380138065
 40
0.5592469664842205
 40
1.0
 40
1.0
 40
1.0
 40
1.0
 10
2.200456420198921
 20
4.950613849928988
 30
0.0
 10
2.200401311638664
 20
4.9512235584302
 30
0.0
 10
2.200291090952746
 20
4.952443014879459
 30
0.0
 10
2.19898854505037
 20
4.95427582394983
 30
0.0
 10
2.197646310332775
 20
4.955079446269928
 30
0.0
 10
2.19682509173167
 20
4.955571125995446
 30
0.0
  0
SPLINE
  5
293
330
1F
100
AcDbEntity
  8
0
  6
Continuous
 62
     7
370
     0
100
AcDbSpline
210
0.0
220
0.0
230
1.0
 70
     8
 71
     3
 72
     9
 73
     5
 74
     0
 42
0.00000001
 43
0.00000001
 40
0.0
 40
0.0
 40
0.0
 40
0.0
 40
0.5613337184904972
 40
1.0
 40
1.0
 40
1.0
 40
1.0
 10
2.197795225524602
 20
4.943760489099597
 30
0.0
 10
2.198484020483226
 20
4.944971480272583
 30
0.0
 10
2.199711089045001
 20
4.94712882648767
 30
0.0
 10
2.20022915995797
 20
4.949551225265003
 30
0.0
 10
2.200456420198921
 20
4.950613849928988
 30
0.0
  0
LINE
  5
294
330
1F
100
AcDbEntity
  8
0
  6
Continuous
 62
     7
370
     0
100
AcDbLine
 10
2.1886812991
 20
4.9273128924
 30
0.0
 11
2.1977952255
 21
4.9437604891
 31
0.0
  0
LINE
  5
295
330
1F
100
AcDbEntity
  8
0
  6
Continuous
 62
     7
370
     0
100
AcDbLine
 10
2.1938078816
 20
4.9244734586
 30
0.0
 11
2.1886812991
 21
4.9273128924
 31
0.0
  0
LINE
  5
296
330
1F
100
AcDbEntity
  8
0
  6
Continuous
 62
     7
370
     0
100
AcDbLine
 10
2.2041767514
 20
4.9431820424
 30
0.0
 11
2.1938078816
 21
4.9244734586
 31
0.0
  0
SPLINE
  5
297
330
1F
100
AcDbEntity
  8
0
  6
Continuous
 62
     7
370
     0
100
AcDbSpline
210
0.0
220
0.0
230
1.0
 70
     8
 71
     3
 72
    10
 73
     6
 74
     0
 42
0.00000001
 43
0.00000001
 40
0.0
 40
0.0
 40
0.0
 40
0.0
 40
0.2811767762830287
 40
0.5598137128259746
 40
1.0
 40
1.0
 40
1.0
 40
1.0
 10
2.20086583546932
 20
4.959282923116449
 30
0.0
 10
2.202362368739055
 20
4.958312266584779
 30
0.0
 10
2.205341917253596
 20
4.956379721358048
 30
0.0
 10
2.207312764102901
 20
4.949906122130265
 30
0.0
 10
2.205367794067576
 20
4.945735815857593
 30
0.0
 10
2.204176751388004
 20
4.943182042448529
 30
0.0
  0
LINE
  5
298
330
1F
100
AcDbEntity
  8
0
  6
Continuous
 62
     7
370
     0
100
AcDbLine
 10
2.0814417688
 20
5.1704886966
 30
0.0
 11
2.0461253201
 21
5.1757046897
 31
0.0
  0
LINE
  5
299
330
1F
100
AcDbEntity
  8
0
  6
Continuous
 62
     7
370
     0
100
AcDbLine
 10
2.0747131465
 20
5.124919303
 30
0.0
 11
2.0814417688
 21
5.1704886966
 31
0.0
  0
LINE
  5
29A
330
1F
100
AcDbEntity
  8
0
  6
Continuous
 62
     7
370
     0
100
AcDbLine
 10
2.0393966795
 20
5.1301347094
 30
0.0
 11
2.0747131465
 21
5.124919303
 31
0.0
  0
LINE
  5
29B
330
1F
100
AcDbEntity
  8
0
  6
Continuous
 62
     7
370
     0
100
AcDbLine
 10
2.0377234155
 20
5.118742361
 30
0.0
 11
2.0393966795
 21
5.1301347094
 31
0.0
  0
LINE
  5
29C
330
1F
100
AcDbEntity
  8
0
  6
Continuous
 62
     7
370
     0
100
AcDbLine
 10
2.126584184
 20
5.1056234726
 30
0.0
 11
2.0377234155
 21
5.118742361
 31
0.0
  0
LINE
  5
29D
330
1F
100
AcDbEntity
  8
0
  6
Continuous
 62
     7
370
     0
100
AcDbLine
 10
2.1282574388
 20
5.117015821
 30
0.0
 11
2.126584184
 21
5.1056234726
 31
0.0
  0
LINE
  5
29E
330
1F
100
AcDbEntity
  8
0
  6
Continuous
 62
     7
370
     0
100
AcDbLine
 10
2.0849662931
 20
5.1234063071
 30
0.0
 11
2.1282574388
 21
5.117015821
 31
0.0
  0
LINE
  5
29F
330
1F
100
AcDbEntity
  8
0
  6
Continuous
 62
     7
370
     0
100
AcDbLine
 10
2.0916949337
 20
5.1689757007
 30
0.0
 11
2.0849662931
 21
5.1234063071
 31
0.0
  0
LINE
  5
2A0
330
1F
100
AcDbEntity
  8
0
  6
Continuous
 62
     7
370
     0
100
AcDbLine
 10
2.1349860794
 20
5.1625852146
 30
0.0
 11
2.0916949337
 21
5.1689757007
 31
0.0
  0
LINE
  5
2A1
330
1F
100
AcDbEntity
  8
0
  6
Continuous
 62
     7
370
     0
100
AcDbLine
 10
2.1366771449
 20
5.1739775629
 30
0.0
 11
2.1349860794
 21
5.1625852146
 31
0.0
  0
LINE
  5
2A2
330
1F
100
AcDbEntity
  8
0
  6
Continuous
 62
     7
370
     0
100
AcDbLine
 10
2.0478163856
 20
5.1870970381
 30
0.0
 11
2.1366771449
 21
5.1739775629
 31
0.0
  0
LINE
  5
2A3
330
1F
100
AcDbEntity
  8
0
  6
Continuous
 62
     7
370
     0
100
AcDbLine
 10
2.0461253201
 20
5.1757046897
 30
0.0
 11
2.0478163856
 21
5.1870970381
 31
0.0
  0
SPLINE
  5
2A4
330
1F
100
AcDbEntity
  8
0
  6
Continuous
 62
     7
370
     0
100
AcDbSpline
210
0.0
220
0.0
230
1.0
 70
     8
 71
     3
 72
    10
 73
     6
 74
     0
 42
0.00000001
 43
0.00000001
 40
0.0
 40
0.0
 40
0.0
 40
0.0
 40
0.2805707143599911
 40
0.5609765059393294
 40
1.0
 40
1.0
 40
1.0
 40
1.0
 10
2.248489510316565
 20
5.346183946936139
 30
0.0
 10
2.250439507968303
 20
5.345270108602881
 30
0.0
 10
2.254338357040121
 20
5.343442969101333
 30
0.0
 10
2.25994499056088
 20
5.337853463051279
 30
0.0
 10
2.26140925229025
 20
5.33243653541113
 30
0.0
 10
2.262302801265082
 20
5.329130917267526
 30
0.0
  0
SPLINE
  5
2A5
330
1F
100
AcDbEntity
  8
0
  6
Continuous
 62
     7
370
     0
100
AcDbSpline
210
0.0
220
0.0
230
1.0
 70
     8
 71
     3
 72
     9
 73
     5
 74
     0
 42
0.00000001
 43
0.00000001
 40
0.0
 40
0.0
 40
0.0
 40
0.0
 40
0.5610244068550052
 40
1.0
 40
1.0
 40
1.0
 40
1.0
 10
2.22456546043923
 20
5.346504849895707
 30
0.0
 10
2.229067614059729
 20
5.347359870070067
 30
0.0
 10
2.237092494199502
 20
5.348883903898027
 30
0.0
 10
2.245012723125799
 20
5.347007598994212
 30
0.0
 10
2.248489510316565
 20
5.346183946936139
 30
0.0
  0
LINE
  5
2A6
330
1F
100
AcDbEntity
  8
0
  6
Continuous
 62
     7
370
     0
100
AcDbLine
 10
2.1997335773
 20
5.3418051175
 30
0.0
 11
2.2245654604
 21
5.3465048499
 31
0.0
  0
LINE
  5
2A7
330
1F
100
AcDbEntity
  8
0
  6
Continuous
 62
     7
370
     0
100
AcDbLine
 10
2.2163237644
 20
5.2540836242
 30
0.0
 11
2.1997335773
 21
5.3418051175
 31
0.0
  0
LINE
  5
2A8
330
1F
100
AcDbEntity
  8
0
  6
Continuous
 62
     7
370
     0
100
AcDbLine
 10
2.2277161724
 20
5.2562378393
 30
0.0
 11
2.2163237644
 21
5.2540836242
 31
0.0
  0
LINE
  5
2A9
330
1F
100
AcDbEntity
  8
0
  6
Continuous
 62
     7
370
     0
100
AcDbLine
 10
2.2210409362
 20
5.291554178
 30
0.0
 11
2.2277161724
 21
5.2562378393
 31
0.0
  0
LINE
  5
2AA
330
1F
100
AcDbEntity
  8
0
  6
Continuous
 62
     7
370
     0
100
AcDbLine
 10
2.2394289883
 20
5.2950248579
 30
0.0
 11
2.2210409362
 21
5.291554178
 31
0.0
  0
LINE
  5
2AB
330
1F
100
AcDbEntity
  8
0
  6
Continuous
 62
     7
370
     0
100
AcDbLine
 10
2.2758490829
 20
5.2653334143
 30
0.0
 11
2.2394289883
 21
5.2950248579
 31
0.0
  0
LINE
  5
2AC
330
1F
100
AcDbEntity
  8
0
  6
Continuous
 62
     7
370
     0
100
AcDbLine
 10
2.2892351583
 20
5.2678789315
 30
0.0
 11
2.2758490829
 21
5.2653334143
 31
0.0
  0
LINE
  5
2AD
330
1F
100
AcDbEntity
  8
0
  6
Continuous
 62
     7
370
     0
100
AcDbLine
 10
2.248578513
 20
5.3003476231
 30
0.0
 11
2.2892351583
 21
5.2678789315
 31
0.0
  0
SPLINE
  5
2AE
330
1F
100
AcDbEntity
  8
0
  6
Continuous
 62
     7
370
     0
100
AcDbSpline
210
0.0
220
0.0
230
1.0
 70
     8
 71
     3
 72
    10
 73
     6
 74
     0
 42
0.00000001
 43
0.00000001
 40
0.0
 40
0.0
 40
0.0
 40
0.0
 40
0.2808479183813279
 40
0.5609957783001205
 40
1.0
 40
1.0
 40
1.0
 40
1.0
 10
2.262302801265082
 20
5.329130917267526
 30
0.0
 10
2.262665395146305
 20
5.325942354960742
 30
0.0
 10
2.263389679085369
 20
5.31957317834992
 30
0.0
 10
2.259234202407001
 20
5.308446559815618
 30
0.0
 10
2.252617598785749
 20
5.303417560555723
 30
0.0
 10
2.248578513038398
 20
5.30034762310793
 30
0.0
  0
LINE
  5
2AF
330
1F
100
AcDbEntity
  8
0
  6
Continuous
 62
     7
370
     0
100
AcDbLine
 10
2.3529815795
 20
5.2446202135
 30
0.0
 11
2.4409879053
 21
5.2800433243
 31
0.0
  0
LINE
  5
2B0
330
1F
100
AcDbEntity
  8
0
  6
Continuous
 62
     7
370
     0
100
AcDbLine
 10
2.361739495
 20
5.2349186189
 30
0.0
 11
2.3529815795
 21
5.2446202135
 31
0.0
  0
LINE
  5
2B1
330
1F
100
AcDbEntity
  8
0
  6
Continuous
 62
     7
370
     0
100
AcDbLine
 10
2.3858059519
 20
5.24492293
 30
0.0
 11
2.361739495
 21
5.2349186189
 31
0.0
  0
LINE
  5
2B2
330
1F
100
AcDbEntity
  8
0
  6
Continuous
 62
     7
370
     0
100
AcDbLine
 10
2.4111362485
 20
5.2169046404
 30
0.0
 11
2.3858059519
 21
5.24492293
 31
0.0
  0
LINE
  5
2B3
330
1F
100
AcDbEntity
  8
0
  6
Continuous
 62
     7
370
     0
100
AcDbLine
 10
2.3987648106
 20
5.1939597854
 30
0.0
 11
2.4111362485
 21
5.2169046404
 31
0.0
  0
LINE
  5
2B4
330
1F
100
AcDbEntity
  8
0
  6
Continuous
 62
     7
370
     0
100
AcDbLine
 10
2.4075405184
 20
5.1842405911
 30
0.0
 11
2.3987648106
 21
5.1939597854
 31
0.0
  0
LINE
  5
2B5
330
1F
100
AcDbEntity
  8
0
  6
Continuous
 62
     7
370
     0
100
AcDbLine
 10
2.4516682869
 20
5.2682238875
 30
0.0
 11
2.4075405184
 21
5.1842405911
 31
0.0
  0
LINE
  5
2B6
330
1F
100
AcDbEntity
  8
0
  6
Continuous
 62
     7
370
     0
100
AcDbLine
 10
2.4409879053
 20
5.2800433243
 30
0.0
 11
2.4516682869
 21
5.2682238875
 31
0.0
  0
SPLINE
  5
2B7
330
1F
100
AcDbEntity
  8
0
  6
Continuous
 62
     7
370
     0
100
AcDbSpline
210
0.0
220
0.0
230
1.0
 70
     8
 71
     3
 72
    10
 73
     6
 74
     0
 42
0.00000001
 43
0.00000001
 40
0.0
 40
0.0
 40
0.0
 40
0.0
 40
0.2808941727712155
 40
0.5594628818296611
 40
1.0
 40
1.0
 40
1.0
 40
1.0
 10
2.476453805603573
 20
5.05721699177373
 30
0.0
 10
2.474576171771798
 20
5.057857535431658
 30
0.0
 10
2.4708364486434
 20
5.059133319821439
 30
0.0
 10
2.463674847308605
 20
5.057139313307307
 30
0.0
 10
2.460560856284354
 20
5.053070067846066
 30
0.0
 10
2.458653169571372
 20
5.050577175144126
 30
0.0
  0
SPLINE
  5
2B8
330
1F
100
AcDbEntity
  8
0
  6
Continuous
 62
     7
370
     0
100
AcDbSpline
210
0.0
220
0.0
230
1.0
 70
     8
 71
     3
 72
    11
 73
     7
 74
     0
 42
0.00000001
 43
0.00000001
 40
0.0
 40
0.0
 40
0.0
 40
0.0
 40
0.2809883917789607
 40
0.560950556023084
 40
0.7806575221507838
 40
0.9999999999999999
 40
0.9999999999999999
 40
0.9999999999999999
 40
0.9999999999999999
 10
2.482559413404404
 20
5.032171307770276
 30
0.0
 10
2.483453536669907
 20
5.034720615402918
 30
0.0
 10
2.485238517678416
 20
5.039809920071167
 30
0.0
 10
2.484932790262758
 20
5.047415168747514
 30
0.0
 10
2.482047803511978
 20
5.054030595772621
 30
0.0
 10
2.47831743928685
 20
5.056155447773686
 30
0.0
 10
2.476453805603573
 20
5.05721699177373
 30
0.0
  0
SPLINE
  5
2B9
330
1F
100
AcDbEntity
  8
0
  6
Continuous
 62
     7
370
     0
100
AcDbSpline
210
0.0
220
0.0
230
1.0
 70
     8
 71
     3
 72
     9
 73
     5
 74
     0
 42
0.00000001
 43
0.00000001
 40
0.0
 40
0.0
 40
0.0
 40
0.0
 40
0.559028189458176
 40
1.0
 40
1.0
 40
1.0
 40
1.0
 10
2.460913845122522
 20
5.008585820231841
 30
0.0
 10
2.466100079578994
 20
5.011966814999052
 30
0.0
 10
2.475377312023208
 20
5.018014801184666
 30
0.0
 10
2.480361518743043
 20
5.027839078441198
 30
0.0
 10
2.482559413404404
 20
5.032171307770276
 30
0.0
  0
LINE
  5
2BA
330
1F
100
AcDbEntity
  8
0
  6
Continuous
 62
     7
370
     0
100
AcDbLine
 10
2.4606112386
 20
5.0078202291
 30
0.0
 11
2.4609138451
 21
5.0085858202
 31
0.0
  0
LINE
  5
2BB
330
1F
100
AcDbEntity
  8
0
  6
Continuous
 62
     7
370
     0
100
AcDbLine
 10
2.4740151154
 20
5.002319706
 30
0.0
 11
2.4606112386
 21
5.0078202291
 31
0.0
  0
SPLINE
  5
2BC
330
1F
100
AcDbEntity
  8
0
  6
Continuous
 62
     7
370
     0
100
AcDbSpline
210
0.0
220
0.0
230
1.0
 70
     8
 71
     3
 72
     9
 73
     5
 74
     0
 42
0.00000001
 43
0.00000001
 40
0.0
 40
0.0
 40
0.0
 40
0.0
 40
0.5597384824249049
 40
1.0
 40
1.0
 40
1.0
 40
1.0
 10
2.491673339786215
 20
5.028433697614134
 30
0.0
 10
2.489119021440706
 20
5.023046905010096
 30
0.0
 10
2.484555607586358
 20
5.013423138245479
 30
0.0
 10
2.477237150475938
 20
5.005713821459516
 30
0.0
 10
2.474015115442196
 20
5.00231970595186
 30
0.0
  0
SPLINE
  5
2BD
330
1F
100
AcDbEntity
  8
0
  6
Continuous
 62
     7
370
     0
100
AcDbSpline
210
0.0
220
0.0
230
1.0
 70
     8
 71
     3
 72
    11
 73
     7
 74
     0
 42
0.00000001
 43
0.00000001
 40
0.0
 40
0.0
 40
0.0
 40
0.0
 40
0.2783078697804762
 40
0.5578755630218927
 40
0.7787497779908253
 40
1.0
 40
1.0
 40
1.0
 40
1.0
 10
2.480031734271035
 20
5.069054615024497
 30
0.0
 10
2.483865601966921
 20
5.066728105903715
 30
0.0
 10
2.491550692227144
 20
5.062064556192905
 30
0.0
 10
2.495346432321523
 20
5.049625206091298
 30
0.0
 10
2.495111937362507
 20
5.038281040902235
 30
0.0
 10
2.492820188654872
 20
5.031718005899317
 30
0.0
 10
2.491673339786215
 20
5.028433697614134
 30
0.0
  0
SPLINE
  5
2BE
330
1F
100
AcDbEntity
  8
0
  6
Continuous
 62
     7
370
     0
100
AcDbSpline
210
0.0
220
0.0
230
1.0
 70
     8
 71
     3
 72
    11
 73
     7
 74
     0
 42
0.00000001
 43
0.00000001
 40
0.0
 40
0.0
 40
0.0
 40
0.0
 40
0.2807197797765933
 40
0.5600230698266836
 40
0.779695936972356
 40
1.0
 40
1.0
 40
1.0
 40
1.0
 10
2.448079596718188
 20
5.05718120552047
 30
0.0
 10
2.450197981431191
 20
5.059972582534738
 30
0.0
 10
2.454424061656082
 20
5.065541251496429
 30
0.0
 10
2.462987026840634
 20
5.070790441729957
 30
0.0
 10
2.472184515732849
 20
5.071670316297825
 30
0.0
 10
2.477413494241064
 20
5.069927348942502
 30
0.0
 10
2.480031734271035
 20
5.069054615024497
 30
0.0
  0
SPLINE
  5
2BF
330
1F
100
AcDbEntity
  8
0
  6
Continuous
 62
     7
370
     0
100
AcDbSpline
210
0.0
220
0.0
230
1.0
 70
     8
 71
     3
 72
     9
 73
     5
 74
     0
 42
0.00000001
 43
0.00000001
 40
0.0
 40
0.0
 40
0.0
 40
0.0
 40
0.5599205559084326
 40
1.0
 40
1.0
 40
1.0
 40
1.0
 10
2.436473575791932
 20
5.039612501808968
 30
0.0
 10
2.438670261638042
 20
5.042871389598698
 30
0.0
 10
2.442593471498673
 20
5.048691657769498
 30
0.0
 10
2.446403070505189
 20
5.054586851806051
 30
0.0
 10
2.448079596718188
 20
5.05718120552047
 30
0.0
  0
SPLINE
  5
2C0
330
1F
100
AcDbEntity
  8
0
  6
Continuous
 62
     7
370
     0
100
AcDbSpline
210
0.0
220
0.0
230
1.0
 70
     8
 71
     3
 72
    10
 73
     6
 74
     0
 42
0.00000001
 43
0.00000001
 40
0.0
 40
0.0
 40
0.0
 40
0.0
 40
0.2811077590824778
 40
0.5592589398714423
 40
1.0
 40
1.0
 40
1.0
 40
1.0
 10
2.419616380527691
 20
5.033933634078399
 30
0.0
 10
2.421357055619776
 20
5.033303563603612
 30
0.0
 10
2.42482009808377
 20
5.032050049481756
 30
0.0
 10
2.431550555811417
 20
5.033674096883728
 30
0.0
 10
2.434602486850895
 20
5.037355496184981
 30
0.0
 10
2.436473575791932
 20
5.039612501808968
 30
0.0
  0
SPLINE
  5
2C1
330
1F
100
AcDbEntity
  8
0
  6
Continuous
 62
     7
370
     0
100
AcDbSpline
210
0.0
220
0.0
230
1.0
 70
     8
 71
     3
 72
    11
 73
     7
 74
     0
 42
0.00000001
 43
0.00000001
 40
0.0
 40
0.0
 40
0.0
 40
0.0
 40
0.2513670116433701
 40
0.5020560278353395
 40
0.7513444088818395
 40
0.9999999999999999
 40
0.9999999999999999
 40
0.9999999999999999
 40
0.9999999999999999
 10
2.41331495665561
 20
5.061257905092755
 30
0.0
 10
2.412411608013459
 20
5.058783959200314
 30
0.0
 10
2.410607347271112
 20
5.053842740224449
 30
0.0
 10
2.410122221703074
 20
5.045947215740683
 30
0.0
 10
2.412693346074863
 20
5.038000366035167
 30
0.0
 10
2.417310658278631
 20
5.035288062460572
 30
0.0
 10
2.419616380527691
 20
5.033933634078399
 30
0.0
  0
SPLINE
  5
2C2
330
1F
100
AcDbEntity
  8
0
  6
Continuous
 62
     7
370
     0
100
AcDbSpline
210
0.0
220
0.0
230
1.0
 70
     8
 71
     3
 72
    10
 73
     6
 74
     0
 42
0.00000001
 43
0.00000001
 40
0.0
 40
0.0
 40
0.0
 40
0.0
 40
0.2803538032718286
 40
0.5607363745845452
 40
1.0
 40
1.0
 40
1.0
 40
1.0
 10
2.436740597707272
 20
5.085911700290009
 30
0.0
 10
2.433921598065964
 20
5.084310716222223
 30
0.0
 10
2.428283309516371
 20
5.081108583804325
 30
0.0
 10
2.419846737578061
 20
5.073007931569727
 30
0.0
 10
2.415790709051175
 20
5.065711538266261
 30
0.0
 10
2.41331495665561
 20
5.061257905092755
 30
0.0
  0
LINE
  5
2C3
330
1F
100
AcDbEntity
  8
0
  6
Continuous
 62
     7
370
     0
100
AcDbLine
 10
2.4370432042
 20
5.0866772914
 30
0.0
 11
2.4367405977
 21
5.0859117003
 31
0.0
  0
LINE
  5
2C4
330
1F
100
AcDbEntity
  8
0
  6
Continuous
 62
     7
370
     0
100
AcDbLine
 10
2.4231943092
 20
5.0923555725
 30
0.0
 11
2.4370432042
 21
5.0866772914
 31
0.0
  0
SPLINE
  5
2C5
330
1F
100
AcDbEntity
  8
0
  6
Continuous
 62
     7
370
     0
100
AcDbSpline
210
0.0
220
0.0
230
1.0
 70
     8
 71
     3
 72
     9
 73
     5
 74
     0
 42
0.00000001
 43
0.00000001
 40
0.0
 40
0.0
 40
0.0
 40
0.0
 40
0.5596189036927739
 40
1.0
 40
1.0
 40
1.0
 40
1.0
 10
2.404218840901382
 20
5.065013701705472
 30
0.0
 10
2.406922684575795
 20
5.070711246722684
 30
0.0
 10
2.411754264882628
 20
5.080892362799385
 30
0.0
 10
2.41969663814888
 20
5.088850818895843
 30
0.0
 10
2.423194309195153
 20
5.092355572516514
 30
0.0
  0
SPLINE
  5
2C6
330
1F
100
AcDbEntity
  8
0
  6
Continuous
 62
     7
370
     0
100
AcDbSpline
210
0.0
220
0.0
230
1.0
 70
     8
 71
     3
 72
     9
 73
     5
 74
     0
 42
0.00000001
 43
0.00000001
 40
0.0
 40
0.0
 40
0.0
 40
0.0
 40
0.5586615412897776
 40
1.0
 40
1.0
 40
1.0
 40
1.0
 10
2.40201156056674
 20
5.03767183089443
 30
0.0
 10
2.401099588868977
 20
5.042898527939903
 30
0.0
 10
2.399467166319078
 20
5.052254276741595
 30
0.0
 10
2.402763876091574
 20
5.061106760269506
 30
0.0
 10
2.404218840901382
 20
5.065013701705472
 30
0.0
  0
SPLINE
  5
2C7
330
1F
100
AcDbEntity
  8
0
  6
Continuous
 62
     7
370
     0
100
AcDbSpline
210
0.0
220
0.0
230
1.0
 70
     8
 71
     3
 72
     9
 73
     5
 74
     0
 42
0.00000001
 43
0.00000001
 40
0.0
 40
0.0
 40
0.0
 40
0.0
 40
0.5590542178591293
 40
1.0
 40
1.0
 40
1.0
 40
1.0
 10
2.416554675896764
 20
5.021883053287736
 30
0.0
 10
2.412904153994447
 20
5.024002606597519
 30
0.0
 10
2.406374336696409
 20
5.02779392636951
 30
0.0
 10
2.403346619634642
 20
5.034649079871707
 30
0.0
 10
2.40201156056674
 20
5.03767183089443
 30
0.0
  0
SPLINE
  5
2C8
330
1F
100
AcDbEntity
  8
0
  6
Continuous
 62
     7
370
     0
100
AcDbSpline
210
0.0
220
0.0
230
1.0
 70
     8
 71
     3
 72
    11
 73
     7
 74
     0
 42
0.00000001
 43
0.00000001
 40
0.0
 40
0.0
 40
0.0
 40
0.0
 40
0.2805827399191385
 40
0.5598699941825189
 40
0.7795333718324041
 40
1.0
 40
1.0
 40
1.0
 40
1.0
 10
2.445801119706016
 20
5.031334730767818
 30
0.0
 10
2.44376017424062
 20
5.028949174374917
 30
0.0
 10
2.43968770661069
 20
5.024189076001793
 30
0.0
 10
2.431833291302666
 20
5.019727406353067
 30
0.0
 10
2.423550366299326
 20
5.019435719838262
 30
0.0
 10
2.418889408160616
 20
5.021066283528628
 30
0.0
 10
2.416554675896764
 20
5.021883053287736
 30
0.0
  0
SPLINE
  5
2C9
330
1F
100
AcDbEntity
  8
0
  6
Continuous
 62
     7
370
     0
100
AcDbSpline
210
0.0
220
0.0
230
1.0
 70
     8
 71
     3
 72
     9
 73
     5
 74
     0
 42
0.00000001
 43
0.00000001
 40
0.0
 40
0.0
 40
0.0
 40
0.0
 40
0.5600211963092442
 40
1.0
 40
1.0
 40
1.0
 40
1.0
 10
2.458653169571372
 20
5.050577175144126
 30
0.0
 10
2.456314361771538
 20
5.046944697828809
 30
0.0
 10
2.452138077346507
 20
5.040458376705152
 30
0.0
 10
2.447737347541145
 20
5.034122418207743
 30
0.0
 10
2.445801119706016
 20
5.031334730767818
 30
0.0
  0
CIRCLE
  5
2CA
330
1F
100
AcDbEntity
  8
0
  6
Continuous
 62
     7
370
     0
100
AcDbCircle
 10
2.2729588912
 20
5.1182428093
 30
0.0
 40
0.2650000660723731
  0
SPLINE
  5
2CB
330
1F
100
AcDbEntity
  8
0
  6
Continuous
 62
     7
370
     0
100
AcDbSpline
210
0.0
220
0.0
230
1.0
 70
     8
 71
     3
 72
    10
 73
     6
 74
     0
 42
0.00000001
 43
0.00000001
 40
0.0
 40
0.0
 40
0.0
 40
0.0
 40
0.2804494554887952
 40
0.5604665622815964
 40
1.0
 40
1.0
 40
1.0
 40
1.0
 10
2.488089489520493
 20
5.12532116502851
 30
0.0
 10
2.485944713494463
 20
5.125112944982591
 30
0.0
 10
2.481658467888896
 20
5.124696825888578
 30
0.0
 10
2.474251913490491
 20
5.127485941145857
 30
0.0
 10
2.470520866428714
 20
5.131590042741609
 30
0.0
 10
2.468241777136293
 20
5.134097010315863
 30
0.0
  0
SPLINE
  5
2CC
330
1F
100
AcDbEntity
  8
0
  6
Continuous
 62
     7
370
     0
100
AcDbSpline
210
0.0
220
0.0
230
1.0
 70
     8
 71
     3
 72
    10
 73
     6
 74
     0
 42
0.00000001
 43
0.00000001
 40
0.0
 40
0.0
 40
0.0
 40
0.0
 40
0.2806901067064254
 40
0.5606909443539452
 40
1.0
 40
1.0
 40
1.0
 40
1.0
 10
2.502507994623358
 20
5.137389932275747
 30
0.0
 10
2.501828892646553
 20
5.135652730308304
 30
0.0
 10
2.500472356311322
 20
5.132182592286382
 30
0.0
 10
2.495629771291432
 20
5.127306679592494
 30
0.0
 10
2.490948508930738
 20
5.126074004889167
 30
0.0
 10
2.488089489520493
 20
5.12532116502851
 30
0.0
  0
SPLINE
  5
2CD
330
1F
100
AcDbEntity
  8
0
  6
Continuous
 62
     7
370
     0
100
AcDbSpline
210
0.0
220
0.0
230
1.0
 70
     8
 71
     3
 72
     9
 73
     5
 74
     0
 42
0.00000001
 43
0.00000001
 40
0.0
 40
0.0
 40
0.0
 40
0.0
 40
0.5610914217351022
 40
1.0
 40
1.0
 40
1.0
 40
1.0
 10
2.502027373508867
 20
5.161759197426584
 30
0.0
 10
2.502942972475136
 20
5.157204984852843
 30
0.0
 10
2.504574790269528
 20
5.149088281589661
 30
0.0
 10
2.503138426849788
 20
5.14095826590234
 30
0.0
 10
2.502507994623358
 20
5.137389932275747
 30
0.0
  0
LINE
  5
2CE
330
1F
100
AcDbEntity
  8
0
  6
Continuous
 62
     7
370
     0
100
AcDbLine
 10
2.497452618
 20
5.187997561
 30
0.0
 11
2.5020273735
 21
5.1617591974
 31
0.0
  0
LINE
  5
2CF
330
1F
100
AcDbEntity
  8
0
  6
Continuous
 62
     7
370
     0
100
AcDbLine
 10
2.4097310972
 20
5.1726886712
 30
0.0
 11
2.497452618
 21
5.187997561
 31
0.0
  0
LINE
  5
2D0
330
1F
100
AcDbEntity
  8
0
  6
Continuous
 62
     7
370
     0
100
AcDbLine
 10
2.415231492
 20
5.1410923428
 30
0.0
 11
2.4097310972
 21
5.1726886712
 31
0.0
  0
SPLINE
  5
2D1
330
1F
100
AcDbEntity
  8
0
  6
Continuous
 62
     7
370
     0
100
AcDbSpline
210
0.0
220
0.0
230
1.0
 70
     8
 71
     3
 72
     9
 73
     5
 74
     0
 42
0.00000001
 43
0.00000001
 40
0.0
 40
0.0
 40
0.0
 40
0.0
 40
0.5578790193560477
 40
1.0
 40
1.0
 40
1.0
 40
1.0
 10
2.427015518385552
 20
5.115993859445006
 30
0.0
 10
2.423669859355262
 20
5.120146673242651
 30
0.0
 10
2.41767275440202
 20
5.1275906058043
 30
0.0
 10
2.415979926671784
 20
5.136953022144842
 30
0.0
 10
2.41523149201563
 20
5.141092342838517
 30
0.0
  0
SPLINE
  5
2D2
330
1F
100
AcDbEntity
  8
0
  6
Continuous
 62
     7
370
     0
100
AcDbSpline
210
0.0
220
0.0
230
1.0
 70
     8
 71
     3
 72
     9
 73
     5
 74
     0
 42
0.00000001
 43
0.00000001
 40
0.0
 40
0.0
 40
0.0
 40
0.0
 40
0.5593328075352576
 40
0.9999999999999999
 40
0.9999999999999999
 40
0.9999999999999999
 40
0.9999999999999999
 10
2.448376281624192
 20
5.110173020021173
 30
0.0
 10
2.443976267743402
 20
5.109883201352925
 30
0.0
 10
2.43610972778452
 20
5.109365050684232
 30
0.0
 10
2.429797229348702
 20
5.113966258232683
 30
0.0
 10
2.427015518385552
 20
5.115993859445006
 30
0.0
  0
SPLINE
  5
2D3
330
1F
100
AcDbEntity
  8
0
  6
Continuous
 62
     7
370
     0
100
AcDbSpline
210
0.0
220
0.0
230
1.0
 70
     8
 71
     3
 72
    11
 73
     7
 74
     0
 42
0.00000001
 43
0.00000001
 40
0.0
 40
0.0
 40
0.0
 40
0.0
 40
0.2802158290272229
 40
0.5596772488427084
 40
0.7796339116266966
 40
1.0
 40
1.0
 40
1.0
 40
1.0
 10
2.467778957482825
 20
5.134007838012655
 30
0.0
 10
2.467476482628287
 20
5.130864351518663
 30
0.0
 10
2.466872347255138
 20
5.124585841561394
 30
0.0
 10
2.462188509073874
 20
5.116876000215044
 30
0.0
 10
2.455608543445611
 20
5.111916561755633
 30
0.0
 10
2.450788529496897
 20
5.110754560754041
 30
0.0
 10
2.448376281624192
 20
5.110173020021173
 30
0.0
  0
LINE
  5
2D4
330
1F
100
AcDbEntity
  8
0
  6
Continuous
 62
     7
370
     0
100
AcDbLine
 10
2.4682417771
 20
5.1340970103
 30
0.0
 11
2.4677789575
 21
5.134007838
 31
0.0
  0
LINE
  5
2D5
330
1F
100
AcDbEntity
  8
0
  6
Continuous
 62
     7
370
     0
100
AcDbLine
 10
2.3390606582
 20
5.3441083442
 30
0.0
 11
2.3139973652
 21
5.2700577864
 31
0.0
  0
LINE
  5
2D6
330
1F
100
AcDbEntity
  8
0
  6
Continuous
 62
     7
370
     0
100
AcDbLine
 10
2.3276682548
 20
5.3479533132
 30
0.0
 11
2.3390606582
 21
5.3441083442
 31
0.0
  0
LINE
  5
2D7
330
1F
100
AcDbEntity
  8
0
  6
Continuous
 62
     7
370
     0
100
AcDbLine
 10
2.2991338396
 20
5.2636497004
 30
0.0
 11
2.3276682548
 21
5.3479533132
 31
0.0
  0
LINE
  5
2D8
330
1F
100
AcDbEntity
  8
0
  6
Continuous
 62
     7
370
     0
100
AcDbLine
 10
2.3526781388
 20
5.2455283631
 30
0.0
 11
2.2991338396
 21
5.2636497004
 31
0.0
  0
LINE
  5
2D9
330
1F
100
AcDbEntity
  8
0
  6
Continuous
 62
     7
370
     0
100
AcDbLine
 10
2.3561492679
 20
5.2557820046
 30
0.0
 11
2.3526781388
 21
5.2455283631
 31
0.0
  0
LINE
  5
2DA
330
1F
100
AcDbEntity
  8
0
  6
Continuous
 62
     7
370
     0
100
AcDbLine
 10
2.3139973652
 20
5.2700577864
 30
0.0
 11
2.3561492679
 21
5.2557820046
 31
0.0
  0
SPLINE
  5
2DB
330
1F
100
AcDbEntity
  8
0
  6
Continuous
 62
     7
370
     0
100
AcDbSpline
210
0.0
220
0.0
230
1.0
 70
     8
 71
     3
 72
    10
 73
     6
 74
     0
 42
0.00000001
 43
0.00000001
 40
0.0
 40
0.0
 40
0.0
 40
0.0
 40
0.5591618245903716
 40
0.7796299291508042
 40
1.0
 40
1.0
 40
1.0
 40
1.0
 10
2.110784956507988
 20
5.219967005005023
 30
0.0
 10
2.106186118232373
 20
5.225186768127937
 30
0.0
 10
2.099774035358832
 20
5.232464596074585
 30
0.0
 10
2.095343455885446
 20
5.244109006323339
 30
0.0
 10
2.094696278057336
 20
5.249506046128986
 30
0.0
 10
2.09437276110307
 20
5.252203965934233
 30
0.0
  0
SPLINE
  5
2DC
330
1F
100
AcDbEntity
  8
0
  6
Continuous
 62
     7
370
     0
100
AcDbSpline
210
0.0
220
0.0
230
1.0
 70
     8
 71
     3
 72
    10
 73
     6
 74
     0
 42
0.00000001
 43
0.00000001
 40
0.0
 40
0.0
 40
0.0
 40
0.0
 40
0.2799347617231516
 40
0.5600689293739569
 40
1.0
 40
1.0
 40
1.0
 40
1.0
 10
2.143182103086719
 20
5.204195827195015
 30
0.0
 10
2.139753713461415
 20
5.204588724484966
 30
0.0
 10
2.132894492066037
 20
5.205374798937394
 30
0.0
 10
2.121535195558561
 20
5.21054708651305
 30
0.0
 10
2.114862007562984
 20
5.216394480855095
 30
0.0
 10
2.110784956507988
 20
5.219967005005023
 30
0.0
  0
SPLINE
  5
2DD
330
1F
100
AcDbEntity
  8
0
  6
Continuous
 62
     7
370
     0
100
AcDbSpline
210
0.0
220
0.0
230
1.0
 70
     8
 71
     3
 72
    10
 73
     6
 74
     0
 42
0.00000001
 43
0.00000001
 40
0.0
 40
0.0
 40
0.0
 40
0.0
 40
0.2807716336600794
 40
0.5613808422599887
 40
0.9999999999999999
 40
0.9999999999999999
 40
0.9999999999999999
 40
0.9999999999999999
 10
2.17344318434146
 20
5.217689004654011
 30
0.0
 10
2.171105061934652
 20
5.215532663067155
 30
0.0
 10
2.166430169713776
 20
5.211221227326839
 30
0.0
 10
2.156399584870252
 20
5.205504166746236
 30
0.0
 10
2.148189187877045
 20
5.204691456179021
 30
0.0
 10
2.143182103086719
 20
5.204195827195015
 30
0.0
  0
SPLINE
  5
2DE
330
1F
100
AcDbEntity
  8
0
  6
Continuous
 62
     7
370
     0
100
AcDbSpline
210
0.0
220
0.0
230
1.0
 70
     8
 71
     3
 72
    10
 73
     6
 74
     0
 42
0.00000001
 43
0.00000001
 40
0.0
 40
0.0
 40
0.0
 40
0.0
 40
0.2801401283222348
 40
0.5602732002539391
 40
1.0
 40
1.0
 40
1.0
 40
1.0
 10
2.186402042972952
 20
5.248198838868469
 30
0.0
 10
2.186302849521952
 20
5.245006472562562
 30
0.0
 10
2.186104465118514
 20
5.23862182036259
 30
0.0
 10
2.182066310039018
 20
5.227757242898345
 30
0.0
 10
2.176713159376736
 20
5.221506980740978
 30
0.0
 10
2.17344318434146
 20
5.217689004654011
 30
0.0
  0
SPLINE
  5
2DF
330
1F
100
AcDbEntity
  8
0
  6
Continuous
 62
     7
370
     0
100
AcDbSpline
210
0.0
220
0.0
230
1.0
 70
     8
 71
     3
 72
    10
 73
     6
 74
     0
 42
0.00000001
 43
0.00000001
 40
0.0
 40
0.0
 40
0.0
 40
0.0
 40
0.5591479393459439
 40
0.7796353695210444
 40
0.9999999999999999
 40
0.9999999999999999
 40
0.9999999999999999
 40
0.9999999999999999
 10
2.170096665500731
 20
5.280347214154361
 30
0.0
 10
2.174657948708226
 20
5.275133349776405
 30
0.0
 10
2.181017871492034
 20
5.267863515095989
 30
0.0
 10
2.185499702009969
 20
5.256278790981757
 30
0.0
 10
2.186101318512212
 20
5.250891656042642
 30
0.0
 10
2.186402042972952
 20
5.248198838868469
 30
0.0
  0
SPLINE
  5
2E0
330
1F
100
AcDbEntity
  8
0
  6
Continuous
 62
     7
370
     0
100
AcDbSpline
210
0.0
220
0.0
230
1.0
 70
     8
 71
     3
 72
    10
 73
     6
 74
     0
 42
0.00000001
 43
0.00000001
 40
0.0
 40
0.0
 40
0.0
 40
0.0
 40
0.2799332342272353
 40
0.5601243858232036
 40
1.0
 40
1.0
 40
1.0
 40
1.0
 10
2.137574908694841
 20
5.296171778014315
 30
0.0
 10
2.141015514682135
 20
5.295775522095191
 30
0.0
 10
2.147899896669908
 20
5.294982645165301
 30
0.0
 10
2.159291852228134
 20
5.289777704735746
 30
0.0
 10
2.165999243114495
 20
5.283923463206194
 30
0.0
 10
2.170096665500731
 20
5.280347214154361
 30
0.0
  0
SPLINE
  5
2E1
330
1F
100
AcDbEntity
  8
0
  6
Continuous
 62
     7
370
     0
100
AcDbSpline
210
0.0
220
0.0
230
1.0
 70
     8
 71
     3
 72
    10
 73
     6
 74
     0
 42
0.00000001
 43
0.00000001
 40
0.0
 40
0.0
 40
0.0
 40
0.0
 40
0.2807593580507435
 40
0.5613487439733184
 40
1.0
 40
1.0
 40
1.0
 40
1.0
 10
2.107367222656607
 20
5.282607614708688
 30
0.0
 10
2.109697761437676
 20
5.284768921394132
 30
0.0
 10
2.114357428088208
 20
5.289090226306779
 30
0.0
 10
2.124378190299279
 20
5.294802729298373
 30
0.0
 10
2.132575515306077
 20
5.295653132931938
 30
0.0
 10
2.137574908694841
 20
5.296171778014315
 30
0.0
  0
SPLINE
  5
2E2
330
1F
100
AcDbEntity
  8
0
  6
Continuous
 62
     7
370
     0
100
AcDbSpline
210
0.0
220
0.0
230
1.0
 70
     8
 71
     3
 72
    10
 73
     6
 74
     0
 42
0.00000001
 43
0.00000001
 40
0.0
 40
0.0
 40
0.0
 40
0.0
 40
0.2800761039865267
 40
0.5603202539680301
 40
1.0
 40
1.0
 40
1.0
 40
1.0
 10
2.09437276110307
 20
5.252203965934233
 30
0.0
 10
2.0944988410608
 20
5.25538284842035
 30
0.0
 10
2.094751076624384
 20
5.261742520725849
 30
0.0
 10
2.098890425680251
 20
5.272506594716666
 30
0.0
 10
2.104153127937868
 20
5.278777673387598
 30
0.0
 10
2.107367222656607
 20
5.282607614708688
 30
0.0
  0
LINE
  5
2E3
330
1F
100
AcDbEntity
  8
0
  6
Continuous
 62
     7
370
     0
100
AcDbLine
 10
2.0835973772
 20
4.9934652482
 30
0.0
 11
2.0733442124
 21
4.9889438605
 31
0.0
  0
LINE
  5
2E4
330
1F
100
AcDbEntity
  8
0
  6
Continuous
 62
     7
370
     0
100
AcDbLine
 10
2.0705317099
 20
5.0230857061
 30
0.0
 11
2.0835973772
 21
4.9934652482
 31
0.0
  0
LINE
  5
2E5
330
1F
100
AcDbEntity
  8
0
  6
Continuous
 62
     7
370
     0
100
AcDbLine
 10
2.1423038641
 20
5.0547354204
 30
0.0
 11
2.0705317099
 21
5.0230857061
 31
0.0
  0
LINE
  5
2E6
330
1F
100
AcDbEntity
  8
0
  6
Continuous
 62
     7
370
     0
100
AcDbLine
 10
2.1372840904
 20
5.0661277688
 30
0.0
 11
2.1423038641
 21
5.0547354204
 31
0.0
  0
LINE
  5
2E7
330
1F
100
AcDbEntity
  8
0
  6
Continuous
 62
     7
370
     0
100
AcDbLine
 10
2.0655119362
 20
5.0344780545
 30
0.0
 11
2.1372840904
 21
5.0661277688
 31
0.0
  0
LINE
  5
2E8
330
1F
100
AcDbEntity
  8
0
  6
Continuous
 62
     7
370
     0
100
AcDbLine
 10
2.0524462688
 20
5.0640985123
 30
0.0
 11
2.0655119362
 21
5.0344780545
 31
0.0
  0
LINE
  5
2E9
330
1F
100
AcDbEntity
  8
0
  6
Continuous
 62
     7
370
     0
100
AcDbLine
 10
2.0421931039
 20
5.0595771245
 30
0.0
 11
2.0524462688
 21
5.0640985123
 31
0.0
  0
LINE
  5
2EA
330
1F
100
AcDbEntity
  8
0
  6
Continuous
 62
     7
370
     0
100
AcDbLine
 10
2.0733442124
 20
4.9889438605
 30
0.0
 11
2.0421931039
 21
5.0595771245
 31
0.0
  0
SPLINE
  5
2EB
330
1F
100
AcDbEntity
  8
0
  6
Continuous
 62
     7
370
     0
100
AcDbSpline
210
0.0
220
0.0
230
1.0
 70
     8
 71
     3
 72
     9
 73
     5
 74
     0
 42
0.00000001
 43
0.00000001
 40
0.0
 40
0.0
 40
0.0
 40
0.0
 40
0.5600335721245822
 40
1.0
 40
1.0
 40
1.0
 40
1.0
 10
2.142460273092027
 20
4.992482592924364
 30
0.0
 10
2.143204402038985
 20
4.991887468686051
 30
0.0
 10
2.144533124072798
 20
4.990824810538514
 30
0.0
 10
2.145788489584078
 20
4.989676640693297
 30
0.0
 10
2.146340808263754
 20
4.989171484507904
 30
0.0
  0
LINE
  5
2EC
330
1F
100
AcDbEntity
  8
0
  6
Continuous
 62
     7
370
     0
100
AcDbLine
 10
2.1511914864
 20
5.0017741123
 30
0.0
 11
2.1424602731
 21
4.9924825929
 31
0.0
  0
LINE
  5
2ED
330
1F
100
AcDbEntity
  8
0
  6
Continuous
 62
     7
370
     0
100
AcDbLine
 10
2.167140853
 20
4.9867949253
 30
0.0
 11
2.1511914864
 21
5.0017741123
 31
0.0
  0
LINE
  5
2EE
330
1F
100
AcDbEntity
  8
0
  6
Continuous
 62
     7
370
     0
100
AcDbLine
 10
2.1703449601
 20
4.9902128058
 30
0.0
 11
2.167140853
 21
4.9867949253
 31
0.0
  0
LINE
  5
2EF
330
1F
100
AcDbEntity
  8
0
  6
Continuous
 62
     7
370
     0
100
AcDbLine
 10
2.1504082588
 20
5.0089301896
 30
0.0
 11
2.1703449601
 21
4.9902128058
 31
0.0
  0
LINE
  5
2F0
330
1F
100
AcDbEntity
  8
0
  6
Continuous
 62
     7
370
     0
100
AcDbLine
 10
2.1349039012
 20
4.9924110204
 30
0.0
 11
2.1504082588
 21
5.0089301896
 31
0.0
  0
SPLINE
  5
2F1
330
1F
100
AcDbEntity
  8
0
  6
Continuous
 62
     7
370
     0
100
AcDbSpline
210
0.0
220
0.0
230
1.0
 70
     8
 71
     3
 72
     9
 73
     5
 74
     0
 42
0.00000001
 43
0.00000001
 40
0.0
 40
0.0
 40
0.0
 40
0.0
 40
0.5599216608583941
 40
0.9999999999999999
 40
0.9999999999999999
 40
0.9999999999999999
 40
0.9999999999999999
 10
2.142219962534782
 20
4.986617167348927
 30
0.0
 10
2.140909798700779
 20
4.987768994144856
 30
0.0
 10
2.13856989309328
 20
4.989826115482443
 30
0.0
 10
2.136024203892614
 20
4.99162109070368
 30
0.0
 10
2.134903901217214
 20
4.992411020417841
 30
0.0
  0
SPLINE
  5
2F2
330
1F
100
AcDbEntity
  8
0
  6
Continuous
 62
     7
370
     0
100
AcDbSpline
210
0.0
220
0.0
230
1.0
 70
     8
 71
     3
 72
     9
 73
     5
 74
     0
 42
0.00000001
 43
0.00000001
 40
0.0
 40
0.0
 40
0.0
 40
0.0
 40
0.5577393320299655
 40
1.0
 40
1.0
 40
1.0
 40
1.0
 10
2.14713293661302
 20
4.979007015262053
 30
0.0
 10
2.146523428649043
 20
4.980625595822644
 30
0.0
 10
2.145430609963011
 20
4.983527633508779
 30
0.0
 10
2.143204488499997
 20
4.985669780146179
 30
0.0
 10
2.142219962534782
 20
4.986617167348927
 30
0.0
  0
SPLINE
  5
2F3
330
1F
100
AcDbEntity
  8
0
  6
Continuous
 62
     7
370
     0
100
AcDbSpline
210
0.0
220
0.0
230
1.0
 70
     8
 71
     3
 72
     9
 73
     5
 74
     0
 42
0.00000001
 43
0.00000001
 40
0.0
 40
0.0
 40
0.0
 40
0.0
 40
0.5605002492219376
 40
0.9999999999999999
 40
0.9999999999999999
 40
0.9999999999999999
 40
0.9999999999999999
 10
2.144649751965647
 20
4.971975896486137
 30
0.0
 10
2.14560152211957
 20
4.973134032842984
 30
0.0
 10
2.147299594788126
 20
4.975200287690249
 30
0.0
 10
2.14718381972459
 20
4.97784476718373
 30
0.0
 10
2.14713293661302
 20
4.979007015262053
 30
0.0
  0
SPLINE
  5
2F4
330
1F
100
AcDbEntity
  8
0
  6
Continuous
 62
     7
370
     0
100
AcDbSpline
210
0.0
220
0.0
230
1.0
 70
     8
 71
     3
 72
     9
 73
     5
 74
     0
 42
0.00000001
 43
0.00000001
 40
0.0
 40
0.0
 40
0.0
 40
0.0
 40
0.5579547478728404
 40
1.0
 40
1.0
 40
1.0
 40
1.0
 10
2.137484993900211
 20
4.968184313620159
 30
0.0
 10
2.139020992468601
 20
4.9685248906302
 30
0.0
 10
2.141773901327691
 20
4.969135293196609
 30
0.0
 10
2.143768187314011
 20
4.971105136573811
 30
0.0
 10
2.144649751965647
 20
4.971975896486137
 30
0.0
  0
SPLINE
  5
2F5
330
1F
100
AcDbEntity
  8
0
  6
Continuous
 62
     7
370
     0
100
AcDbSpline
210
0.0
220
0.0
230
1.0
 70
     8
 71
     3
 72
     9
 73
     5
 74
     0
 42
0.00000001
 43
0.00000001
 40
0.0
 40
0.0
 40
0.0
 40
0.0
 40
0.5604523849795858
 40
1.0
 40
1.0
 40
1.0
 40
1.0
 10
2.130008728599999
 20
4.971281877836833
 30
0.0
 10
2.131238097498906
 20
4.970267753126764
 30
0.0
 10
2.133431627104374
 20
4.968458277893458
 30
0.0
 10
2.136247349733861
 20
4.96826796513795
 30
0.0
 10
2.137484993900211
 20
4.968184313620159
 30
0.0
  0
SPLINE
  5
2F6
330
1F
100
AcDbEntity
  8
0
  6
Continuous
 62
     7
370
     0
100
AcDbSpline
210
0.0
220
0.0
230
1.0
 70
     8
 71
     3
 72
     9
 73
     5
 74
     0
 42
0.00000001
 43
0.00000001
 40
0.0
 40
0.0
 40
0.0
 40
0.0
 40
0.5603302645890051
 40
1.0
 40
1.0
 40
1.0
 40
1.0
 10
2.124437127963605
 20
4.982941156481185
 30
0.0
 10
2.124968609761959
 20
4.980507665011246
 30
0.0
 10
2.12591712500724
 20
4.976164705824983
 30
0.0
 10
2.128759168214872
 20
4.97277307518356
 30
0.0
 10
2.130008728599999
 20
4.971281877836833
 30
0.0
  0
LINE
  5
2F7
330
1F
100
AcDbEntity
  8
0
  6
Continuous
 62
     7
370
     0
100
AcDbLine
 10
2.1241345215
 20
4.9832262732
 30
0.0
 11
2.124437128
 21
4.9829411565
 31
0.0
  0
LINE
  5
2F8
330
1F
100
AcDbEntity
  8
0
  6
Continuous
 62
     7
370
     0
100
AcDbLine
 10
2.119586459
 20
4.9783839825
 30
0.0
 11
2.1241345215
 21
4.9832262732
 31
0.0
  0
SPLINE
  5
2F9
330
1F
100
AcDbEntity
  8
0
  6
Continuous
 62
     7
370
     0
100
AcDbSpline
210
0.0
220
0.0
230
1.0
 70
     8
 71
     3
 72
     9
 73
     5
 74
     0
 42
0.00000001
 43
0.00000001
 40
0.0
 40
0.0
 40
0.0
 40
0.0
 40
0.5598812250720225
 40
1.0
 40
1.0
 40
1.0
 40
1.0
 10
2.126973726160606
 20
4.967703839170641
 30
0.0
 10
2.125287680067173
 20
4.969490160178211
 30
0.0
 10
2.122276244752093
 20
4.972680695826803
 30
0.0
 10
2.120408492036154
 20
4.976640984888976
 30
0.0
 10
2.119586458998946
 20
4.978383982459381
 30
0.0
  0
SPLINE
  5
2FA
330
1F
100
AcDbEntity
  8
0
  6
Continuous
 62
     7
370
     0
100
AcDbSpline
210
0.0
220
0.0
230
1.0
 70
     8
 71
     3
 72
     9
 73
     5
 74
     0
 42
0.00000001
 43
0.00000001
 40
0.0
 40
0.0
 40
0.0
 40
0.0
 40
0.5583369336307006
 40
1.0
 40
1.0
 40
1.0
 40
1.0
 10
2.138704338980899
 20
4.96270197695258
 30
0.0
 10
2.136238685404285
 20
4.963011040797249
 30
0.0
 10
2.131822617922269
 20
4.963564584412317
 30
0.0
 10
2.128459216393315
 20
4.966435750952463
 30
0.0
 10
2.126973726160606
 20
4.967703839170641
 30
0.0
  0
SPLINE
  5
2FB
330
1F
100
AcDbEntity
  8
0
  6
Continuous
 62
     7
370
     0
100
AcDbSpline
210
0.0
220
0.0
230
1.0
 70
     8
 71
     3
 72
     9
 73
     5
 74
     0
 42
0.00000001
 43
0.00000001
 40
0.0
 40
0.0
 40
0.0
 40
0.0
 40
0.5596704703731994
 40
1.0
 40
1.0
 40
1.0
 40
1.0
 10
2.149215615887064
 20
4.967703839170641
 30
0.0
 10
2.147502463789885
 20
4.966217321922736
 30
0.0
 10
2.144441462383043
 20
4.9635612638911
 30
0.0
 10
2.140458260425342
 20
4.962964673374247
 30
0.0
 10
2.138704338980899
 20
4.96270197695258
 30
0.0
  0
SPLINE
  5
2FC
330
1F
100
AcDbEntity
  8
0
  6
Continuous
 62
     7
370
     0
100
AcDbSpline
210
0.0
220
0.0
230
1.0
 70
     8
 71
     3
 72
    10
 73
     6
 74
     0
 42
0.00000001
 43
0.00000001
 40
0.0
 40
0.0
 40
0.0
 40
0.0
 40
0.2801838644158694
 40
0.5602925760498828
 40
0.9999999999999999
 40
0.9999999999999999
 40
0.9999999999999999
 40
0.9999999999999999
 10
2.152900344154102
 20
4.97915837351355
 30
0.0
 10
2.15305956679753
 20
4.977992608518178
 30
0.0
 10
2.153377969376628
 20
4.975661391216685
 30
0.0
 10
2.152331079476994
 20
4.971485465754614
 30
0.0
 10
2.15039704291222
 20
4.969137884447175
 30
0.0
 10
2.149215615887064
 20
4.967703839170641
 30
0.0
  0
SPLINE
  5
2FD
330
1F
100
AcDbEntity
  8
0
  6
Continuous
 62
     7
370
     0
100
AcDbSpline
210
0.0
220
0.0
230
1.0
 70
     8
 71
     3
 72
     9
 73
     5
 74
     0
 42
0.00000001
 43
0.00000001
 40
0.0
 40
0.0
 40
0.0
 40
0.0
 40
0.5607479488457443
 40
0.9999999999999999
 40
0.9999999999999999
 40
0.9999999999999999
 40
0.9999999999999999
 10
2.146340808263754
 20
4.989171484507904
 30
0.0
 10
2.148001093846472
 20
4.987572463548145
 30
0.0
 10
2.150961934962583
 20
4.984720877620722
 30
0.0
 10
2.15230875200548
 20
4.980856020104826
 30
0.0
 10
2.152900344154102
 20
4.97915837351355
 30
0.0
  0
SPLINE
  5
2FE
330
1F
100
AcDbEntity
  8
0
  6
Continuous
 62
     7
370
     0
100
AcDbSpline
210
0.0
220
0.0
230
1.0
 70
     8
 71
     3
 72
     9
 73
     5
 74
     0
 42
0.00000001
 43
0.00000001
 40
0.0
 40
0.0
 40
0.0
 40
0.0
 40
0.5611434334608445
 40
1.0
 40
1.0
 40
1.0
 40
1.0
 10
2.238571270934579
 20
4.943187909047425
 30
0.0
 10
2.240855023113302
 20
4.94449859896037
 30
0.0
 10
2.244924842062509
 20
4.94683434742465
 30
0.0
 10
2.249577350639606
 20
4.946551551712589
 30
0.0
 10
2.251619134579545
 20
4.946427444957362
 30
0.0
  0
SPLINE
  5
2FF
330
1F
100
AcDbEntity
  8
0
  6
Continuous
 62
     7
370
     0
100
AcDbSpline
210
0.0
220
0.0
230
1.0
 70
     8
 71
     3
 72
    10
 73
     6
 74
     0
 42
0.00000001
 43
0.00000001
 40
0.0
 40
0.0
 40
0.0
 40
0.0
 40
0.2813641454061354
 40
0.562242009757472
 40
1.0
 40
1.0
 40
1.0
 40
1.0
 10
2.230543185550706
 20
4.950530544224677
 30
0.0
 10
2.231588265077386
 20
4.950258651940395
 30
0.0
 10
2.233676617922018
 20
4.949715337282687
 30
0.0
 10
2.236945752357733
 20
4.947429778095929
 30
0.0
 10
2.237955923707958
 20
4.944793687284515
 30
0.0
 10
2.238571270934579
 20
4.943187909047425
 30
0.0
  0
SPLINE
  5
300
330
1F
100
AcDbEntity
  8
0
  6
Continuous
 62
     7
370
     0
100
AcDbSpline
210
0.0
220
0.0
230
1.0
 70
     8
 71
     3
 72
     9
 73
     5
 74
     0
 42
0.00000001
 43
0.00000001
 40
0.0
 40
0.0
 40
0.0
 40
0.0
 40
0.5610006315807291
 40
1.0
 40
1.0
 40
1.0
 40
1.0
 10
2.219035077243356
 20
4.947771482764256
 30
0.0
 10
2.221057684606363
 20
4.948889528930388
 30
0.0
 10
2.224663041265781
 20
4.950882478854492
 30
0.0
 10
2.228749314278802
 20
4.950637909859161
 30
0.0
 10
2.230543185550706
 20
4.950530544224677
 30
0.0
  0
LINE
  5
301
330
1F
100
AcDbEntity
  8
0
  6
Continuous
 62
     7
370
     0
100
AcDbLine
 10
2.219747099
 20
4.9514386937
 30
0.0
 11
2.2190350772
 21
4.9477714828
 31
0.0
  0
LINE
  5
302
330
1F
100
AcDbEntity
  8
0
  6
Continuous
 62
     7
370
     0
100
AcDbLine
 10
2.2140508973
 20
4.9525510009
 30
0.0
 11
2.219747099
 21
4.9514386937
 31
0.0
  0
LINE
  5
303
330
1F
100
AcDbEntity
  8
0
  6
Continuous
 62
     7
370
     0
100
AcDbLine
 10
2.2076337685
 20
4.9195132492
 30
0.0
 11
2.2140508973
 21
4.9525510009
 31
0.0
  0
LINE
  5
304
330
1F
100
AcDbEntity
  8
0
  6
Continuous
 62
     7
370
     0
100
AcDbLine
 10
2.2133299748
 20
4.9184003554
 30
0.0
 11
2.2076337685
 21
4.9195132492
 31
0.0
  0
LINE
  5
305
330
1F
100
AcDbEntity
  8
0
  6
Continuous
 62
     7
370
     0
100
AcDbLine
 10
2.2181895445
 20
4.9434014532
 30
0.0
 11
2.2133299748
 21
4.9184003554
 31
0.0
  0
SPLINE
  5
306
330
1F
100
AcDbEntity
  8
0
  6
Continuous
 62
     7
370
     0
100
AcDbSpline
210
0.0
220
0.0
230
1.0
 70
     8
 71
     3
 72
     9
 73
     5
 74
     0
 42
0.00000001
 43
0.00000001
 40
0.0
 40
0.0
 40
0.0
 40
0.0
 40
0.5574551784171848
 40
1.0
 40
1.0
 40
1.0
 40
1.0
 10
2.227890891606899
 20
4.945724626409715
 30
0.0
 10
2.225984829397159
 20
4.945693096288053
 30
0.0
 10
2.222565608832823
 20
4.945636535468666
 30
0.0
 10
2.219532036318244
 20
4.944087133198445
 30
0.0
 10
2.218189544511022
 20
4.94340145324721
 30
0.0
  0
SPLINE
  5
307
330
1F
100
AcDbEntity
  8
0
  6
Continuous
 62
     7
370
     0
100
AcDbSpline
210
0.0
220
0.0
230
1.0
 70
     8
 71
     3
 72
    10
 73
     6
 74
     0
 42
0.00000001
 43
0.00000001
 40
0.0
 40
0.0
 40
0.0
 40
0.0
 40
0.2797793988681164
 40
0.5591637765028334
 40
1.0
 40
1.0
 40
1.0
 40
1.0
 10
2.232875066945947
 20
4.942075601896891
 30
0.0
 10
2.232642126056879
 20
4.942647261790218
 30
0.0
 10
2.232176573168569
 20
4.943789774448838
 30
0.0
 10
2.230367148149365
 20
4.945157077995832
 30
0.0
 10
2.228831089846498
 20
4.94550913661273
 30
0.0
 10
2.227890891606899
 20
4.945724626409715
 30
0.0
  0
SPLINE
  5
308
330
1F
100
AcDbEntity
  8
0
  6
Continuous
 62
     7
370
     0
100
AcDbSpline
210
0.0
220
0.0
230
1.0
 70
     8
 71
     3
 72
     9
 73
     5
 74
     0
 42
0.00000001
 43
0.00000001
 40
0.0
 40
0.0
 40
0.0
 40
0.0
 40
0.5611939511811203
 40
1.0
 40
1.0
 40
1.0
 40
1.0
 10
2.232412251875759
 20
4.934483636266593
 30
0.0
 10
2.232706490452579
 20
4.935893754291744
 30
0.0
 10
2.23323079862839
 20
4.938406464954757
 30
0.0
 10
2.232983557742285
 20
4.94095659111328
 30
0.0
 10
2.232875066945947
 20
4.942075601896891
 30
0.0
  0
LINE
  5
309
330
1F
100
AcDbEntity
  8
0
  6
Continuous
 62
     7
370
     0
100
AcDbLine
 10
2.2287097176
 20
4.9154189498
 30
0.0
 11
2.2324122519
 21
4.9344836363
 31
0.0
  0
LINE
  5
30A
330
1F
100
AcDbEntity
  8
0
  6
Continuous
 62
     7
370
     0
100
AcDbLine
 10
2.2344059238
 20
4.9143066427
 30
0.0
 11
2.2287097176
 21
4.9154189498
 31
0.0
  0
LINE
  5
30B
330
1F
100
AcDbEntity
  8
0
  6
Continuous
 62
     7
370
     0
100
AcDbLine
 10
2.2385712709
 20
4.9357385018
 30
0.0
 11
2.2344059238
 21
4.9143066427
 31
0.0
  0
SPLINE
  5
30C
330
1F
100
AcDbEntity
  8
0
  6
Continuous
 62
     7
370
     0
100
AcDbSpline
210
0.0
220
0.0
230
1.0
 70
     8
 71
     3
 72
     9
 73
     5
 74
     0
 42
0.00000001
 43
0.00000001
 40
0.0
 40
0.0
 40
0.0
 40
0.0
 40
0.5599218808641023
 40
1.0
 40
1.0
 40
1.0
 40
1.0
 10
2.239025187565896
 20
4.939200381778346
 30
0.0
 10
2.238968711381106
 20
4.938550446522719
 30
0.0
 10
2.238867846980697
 20
4.937389685927645
 30
0.0
 10
2.238661902565476
 20
4.936243092464815
 30
0.0
 10
2.238571270934579
 20
4.93573850177028
 30
0.0
  0
SPLINE
  5
30D
330
1F
100
AcDbEntity
  8
0
  6
Continuous
 62
     7
370
     0
100
AcDbSpline
210
0.0
220
0.0
230
1.0
 70
     8
 71
     3
 72
     9
 73
     5
 74
     0
 42
0.00000001
 43
0.00000001
 40
0.0
 40
0.0
 40
0.0
 40
0.0
 40
0.5572239561505739
 40
1.0
 40
1.0
 40
1.0
 40
1.0
 10
2.248966840635737
 20
4.941630327040745
 30
0.0
 10
2.247012137044744
 20
4.941589672047423
 30
0.0
 10
2.24350420532462
 20
4.941516712166802
 30
0.0
 10
2.24039976109863
 20
4.939911244430953
 30
0.0
 10
2.239025187565896
 20
4.939200381778346
 30
0.0
  0
SPLINE
  5
30E
330
1F
100
AcDbEntity
  8
0
  6
Continuous
 62
     7
370
     0
100
AcDbSpline
210
0.0
220
0.0
230
1.0
 70
     8
 71
     3
 72
    10
 73
     6
 74
     0
 42
0.00000001
 43
0.00000001
 40
0.0
 40
0.0
 40
0.0
 40
0.0
 40
0.2798961498535208
 40
0.5592925049892711
 40
1.0
 40
1.0
 40
1.0
 40
1.0
 10
2.253942116390094
 20
4.937954316173003
 30
0.0
 10
2.253709088059483
 20
4.938526530065252
 30
0.0
 10
2.253243447503763
 20
4.93966993607978
 30
0.0
 10
2.251448700445495
 20
4.941060415658514
 30
0.0
 10
2.249909090402928
 20
4.941413957500002
 30
0.0
 10
2.248966840635737
 20
4.941630327040745
 30
0.0
  0
SPLINE
  5
30F
330
1F
100
AcDbEntity
  8
0
  6
Continuous
 62
     7
370
     0
100
AcDbSpline
210
0.0
220
0.0
230
1.0
 70
     8
 71
     3
 72
     9
 73
     5
 74
     0
 42
0.00000001
 43
0.00000001
 40
0.0
 40
0.0
 40
0.0
 40
0.0
 40
0.561236676729191
 40
1.0
 40
1.0
 40
1.0
 40
1.0
 10
2.253488200904598
 20
4.930389336897623
 30
0.0
 10
2.253775265631777
 20
4.931794919046729
 30
0.0
 10
2.254286751675155
 20
4.934299356492439
 30
0.0
 10
2.254047215901976
 20
4.93683970459657
 30
0.0
 10
2.253942116390094
 20
4.937954316173003
 30
0.0
  0
LINE
  5
310
330
1F
100
AcDbEntity
  8
0
  6
Continuous
 62
     7
370
     0
100
AcDbLine
 10
2.2497856689
 20
4.9113246505
 30
0.0
 11
2.2534882009
 21
4.9303893369
 31
0.0
  0
LINE
  5
311
330
1F
100
AcDbEntity
  8
0
  6
Continuous
 62
     7
370
     0
100
AcDbLine
 10
2.2554818717
 20
4.9102123433
 30
0.0
 11
2.2497856689
 21
4.9113246505
 31
0.0
  0
LINE
  5
312
330
1F
100
AcDbEntity
  8
0
  6
Continuous
 62
     7
370
     0
100
AcDbLine
 10
2.259673921
 20
4.9317955607
 30
0.0
 11
2.2554818717
 21
4.9102123433
 31
0.0
  0
SPLINE
  5
313
330
1F
100
AcDbEntity
  8
0
  6
Continuous
 62
     7
370
     0
100
AcDbSpline
210
0.0
220
0.0
230
1.0
 70
     8
 71
     3
 72
    10
 73
     6
 74
     0
 42
0.00000001
 43
0.00000001
 40
0.0
 40
0.0
 40
0.0
 40
0.0
 40
0.2809576380660038
 40
0.5595461753335783
 40
1.0
 40
1.0
 40
1.0
 40
1.0
 10
2.251619134579545
 20
4.946427444957362
 30
0.0
 10
2.253369745519707
 20
4.945948508147735
 30
0.0
 10
2.25685620583738
 20
4.944994673036157
 30
0.0
 10
2.260612749998498
 20
4.9392401685191
 30
0.0
 10
2.260030550745264
 20
4.934623518213808
 30
0.0
 10
2.259673921009131
 20
4.931795560652805
 30
0.0
  0
LINE
  5
314
330
1F
100
AcDbEntity
  8
0
  6
Continuous
 62
     7
370
     0
100
AcDbLine
 10
2.3415352629
 20
4.9439599535
 30
0.0
 11
2.3484864081
 21
4.9285800778
 31
0.0
  0
LINE
  5
315
330
1F
100
AcDbEntity
  8
0
  6
Continuous
 62
     7
370
     0
100
AcDbLine
 10
2.3631808358
 20
4.9537325339
 30
0.0
 11
2.3415352629
 21
4.9439599535
 31
0.0
  0
LINE
  5
316
330
1F
100
AcDbEntity
  8
0
  6
Continuous
 62
     7
370
     0
100
AcDbLine
 10
2.3611248587
 20
4.9582897079
 30
0.0
 11
2.3631808358
 21
4.9537325339
 31
0.0
  0
LINE
  5
317
330
1F
100
AcDbEntity
  8
0
  6
Continuous
 62
     7
370
     0
100
AcDbLine
 10
2.3394792904
 20
4.9485171275
 30
0.0
 11
2.3611248587
 21
4.9582897079
 31
0.0
  0
LINE
  5
318
330
1F
100
AcDbEntity
  8
0
  6
Continuous
 62
     7
370
     0
100
AcDbLine
 10
2.3343349065
 20
4.9599094759
 30
0.0
 11
2.3394792904
 21
4.9485171275
 31
0.0
  0
LINE
  5
319
330
1F
100
AcDbEntity
  8
0
  6
Continuous
 62
     7
370
     0
100
AcDbLine
 10
2.3559804748
 20
4.9696820563
 30
0.0
 11
2.3343349065
 21
4.9599094759
 31
0.0
  0
LINE
  5
31A
330
1F
100
AcDbEntity
  8
0
  6
Continuous
 62
     7
370
     0
100
AcDbLine
 10
2.3539245069
 20
4.9742392303
 30
0.0
 11
2.3559804748
 21
4.9696820563
 31
0.0
  0
LINE
  5
31B
330
1F
100
AcDbEntity
  8
0
  6
Continuous
 62
     7
370
     0
100
AcDbLine
 10
2.3271523516
 20
4.9621522766
 30
0.0
 11
2.3539245069
 21
4.9742392303
 31
0.0
  0
LINE
  5
31C
330
1F
100
AcDbEntity
  8
0
  6
Continuous
 62
     7
370
     0
100
AcDbLine
 10
2.3454158027
 20
4.9217091172
 30
0.0
 11
2.3271523516
 21
4.9621522766
 31
0.0
  0
LINE
  5
31D
330
1F
100
AcDbEntity
  8
0
  6
Continuous
 62
     7
370
     0
100
AcDbLine
 10
2.3721879534
 20
4.9337960709
 30
0.0
 11
2.3454158027
 21
4.9217091172
 31
0.0
  0
LINE
  5
31E
330
1F
100
AcDbEntity
  8
0
  6
Continuous
 62
     7
370
     0
100
AcDbLine
 10
2.3701319763
 20
4.9383526582
 30
0.0
 11
2.3721879534
 21
4.9337960709
 31
0.0
  0
LINE
  5
31F
330
1F
100
AcDbEntity
  8
0
  6
Continuous
 62
     7
370
     0
100
AcDbLine
 10
2.3484864081
 20
4.9285800778
 30
0.0
 11
2.3701319763
 21
4.9383526582
 31
0.0
  0
CIRCLE
  5
320
330
1F
100
AcDbEntity
  8
0
  6
Continuous
 62
     7
370
     0
100
AcDbCircle
 10
2.2729589452
 20
5.1182425113
 30
0.0
 40
0.2850001607101289
  0
SPLINE
  5
321
330
1F
100
AcDbEntity
  8
0
  6
Continuous
 62
     7
370
     0
100
AcDbSpline
210
0.0
220
0.0
230
1.0
 70
     8
 71
     3
 72
    12
 73
     8
 74
     0
 42
0.00000001
 43
0.00000001
 40
0.0
 40
0.0
 40
0.0
 40
0.0
 40
0.186697825363161
 40
0.3729883325412247
 40
0.559463611476934
 40
0.7794702887753714
 40
1.0
 40
1.0
 40
1.0
 40
1.0
 10
2.114238274948292
 20
5.275932598485712
 30
0.0
 10
2.112067628746785
 20
5.273389475599685
 30
0.0
 10
2.107731072037235
 20
5.268308778152562
 30
0.0
 10
2.105115713849638
 20
5.258362078388441
 30
0.0
 10
2.106504504123116
 20
5.247742858305852
 30
0.0
 10
2.111713511910219
 20
5.237664013583681
 30
0.0
 10
2.117061500635205
 20
5.231944503420516
 30
0.0
 10
2.119738669740595
 20
5.22908135304863
 30
0.0
  0
SPLINE
  5
322
330
1F
100
AcDbEntity
  8
0
  6
Continuous
 62
     7
370
     0
100
AcDbSpline
210
0.0
220
0.0
230
1.0
 70
     8
 71
     3
 72
    11
 73
     7
 74
     0
 42
0.00000001
 43
0.00000001
 40
0.0
 40
0.0
 40
0.0
 40
0.0
 40
0.2810108311220264
 40
0.5603500122274048
 40
0.7798817308651135
 40
1.0
 40
1.0
 40
1.0
 40
1.0
 10
2.161142943101563
 20
5.271232866110754
 30
0.0
 10
2.157410725419333
 20
5.274553640473863
 30
0.0
 10
2.149968491909961
 20
5.281175434899165
 30
0.0
 10
2.136397106355212
 20
5.285714998029052
 30
0.0
 10
2.12323233361638
 20
5.283643368246357
 30
0.0
 10
2.11723895981876
 20
5.278505140095044
 30
0.0
 10
2.114238274948292
 20
5.275932598485712
 30
0.0
  0
SPLINE
  5
323
330
1F
100
AcDbEntity
  8
0
  6
Continuous
 62
     7
370
     0
100
AcDbSpline
210
0.0
220
0.0
230
1.0
 70
     8
 71
     3
 72
    12
 73
     8
 74
     0
 42
0.00000001
 43
0.00000001
 40
0.0
 40
0.0
 40
0.0
 40
0.0
 40
0.1866396503149362
 40
0.3729097944575227
 40
0.5594238176336436
 40
0.7794547251194278
 40
0.9999999999999999
 40
0.9999999999999999
 40
0.9999999999999999
 40
0.9999999999999999
 10
2.166643337893866
 20
5.224435006723619
 30
0.0
 10
2.168796244967347
 20
5.226983620049212
 30
0.0
 10
2.173097796823576
 20
5.232075800996803
 30
0.0
 10
2.175682596370325
 20
5.241999156355651
 30
0.0
 10
2.174362015930082
 20
5.252605012927024
 30
0.0
 10
2.169167181695213
 20
5.262678358583061
 30
0.0
 10
2.163819770312274
 20
5.268379145068301
 30
0.0
 10
2.161142943101563
 20
5.271232866110754
 30
0.0
  0
SPLINE
  5
324
330
1F
100
AcDbEntity
  8
0
  6
Continuous
 62
     7
370
     0
100
AcDbSpline
210
0.0
220
0.0
230
1.0
 70
     8
 71
     3
 72
    11
 73
     7
 74
     0
 42
0.00000001
 43
0.00000001
 40
0.0
 40
0.0
 40
0.0
 40
0.0
 40
0.2810445529062912
 40
0.5602883002754884
 40
0.7799135671177311
 40
1.0
 40
1.0
 40
1.0
 40
1.0
 10
2.119738669740595
 20
5.22908135304863
 30
0.0
 10
2.123464887281882
 20
5.225754136916465
 30
0.0
 10
2.130893446458974
 20
5.219121023938247
 30
0.0
 10
2.144490827294379
 20
5.214621097938056
 30
0.0
 10
2.157625672225808
 20
5.21677041527661
 30
0.0
 10
2.163635348371424
 20
5.221878357185362
 30
0.0
 10
2.166643337893866
 20
5.224435006723619
 30
0.0
  0
LINE
  5
325
330
1F
100
AcDbEntity
  8
0
  6
Continuous
 62
     7
370
     0
100
AcDbLine
 10
2.219100664
 20
5.3018072329
 30
0.0
 11
2.2310804927
 21
5.3040676335
 31
0.0
  0
LINE
  5
326
330
1F
100
AcDbEntity
  8
0
  6
Continuous
 62
     7
370
     0
100
AcDbLine
 10
2.2130662483
 20
5.3337056911
 30
0.0
 11
2.219100664
 21
5.3018072329
 31
0.0
  0
LINE
  5
327
330
1F
100
AcDbEntity
  8
0
  6
Continuous
 62
     7
370
     0
100
AcDbLine
 10
2.227004146
 20
5.3363403806
 30
0.0
 11
2.2130662483
 21
5.3337056911
 31
0.0
  0
SPLINE
  5
328
330
1F
100
AcDbEntity
  8
0
  6
Continuous
 62
     7
370
     0
100
AcDbSpline
210
0.0
220
0.0
230
1.0
 70
     8
 71
     3
 72
     9
 73
     5
 74
     0
 42
0.00000001
 43
0.00000001
 40
0.0
 40
0.0
 40
0.0
 40
0.0
 40
0.5580868267971738
 40
1.0
 40
1.0
 40
1.0
 40
1.0
 10
2.241992279539796
 20
5.336109236653385
 30
0.0
 10
2.239204220274725
 20
5.336674850528712
 30
0.0
 10
2.234208475650056
 20
5.337688337764329
 30
0.0
 10
2.229212107098455
 20
5.336753498455331
 30
0.0
 10
2.227004146017327
 20
5.336340380649857
 30
0.0
  0
SPLINE
  5
329
330
1F
100
AcDbEntity
  8
0
  6
Continuous
 62
     7
370
     0
100
AcDbSpline
210
0.0
220
0.0
230
1.0
 70
     8
 71
     3
 72
     9
 73
     5
 74
     0
 42
0.00000001
 43
0.00000001
 40
0.0
 40
0.0
 40
0.0
 40
0.0
 40
0.5598605570511223
 40
1.0
 40
1.0
 40
1.0
 40
1.0
 10
2.249913560740813
 20
5.326033939710742
 30
0.0
 10
2.249191267729405
 20
5.328551791354403
 30
0.0
 10
2.247901137531249
 20
5.333049074851073
 30
0.0
 10
2.243798161239346
 20
5.33517398144765
 30
0.0
 10
2.241992279539796
 20
5.336109236653385
 30
0.0
  0
SPLINE
  5
32A
330
1F
100
AcDbEntity
  8
0
  6
Continuous
 62
     7
370
     0
100
AcDbSpline
210
0.0
220
0.0
230
1.0
 70
     8
 71
     3
 72
    10
 73
     6
 74
     0
 42
0.00000001
 43
0.00000001
 40
0.0
 40
0.0
 40
0.0
 40
0.0
 40
0.2802029233211445
 40
0.5600967024144883
 40
0.9999999999999999
 40
0.9999999999999999
 40
0.9999999999999999
 40
0.9999999999999999
 10
2.247172264075172
 20
5.311704185249289
 30
0.0
 10
2.247957102840969
 20
5.312879574891827
 30
0.0
 10
2.249525914470197
 20
5.315229057384856
 30
0.0
 10
2.250737183461095
 20
5.320224926614018
 30
0.0
 10
2.250225981395888
 20
5.323830436052664
 30
0.0
 10
2.249913560740813
 20
5.326033939710742
 30
0.0
  0
SPLINE
  5
32B
330
1F
100
AcDbEntity
  8
0
  6
Continuous
 62
     7
370
     0
100
AcDbSpline
210
0.0
220
0.0
230
1.0
 70
     8
 71
     3
 72
     9
 73
     5
 74
     0
 42
0.00000001
 43
0.00000001
 40
0.0
 40
0.0
 40
0.0
 40
0.0
 40
0.561905665096809
 40
1.0
 40
1.0
 40
1.0
 40
1.0
 10
2.231080492677022
 20
5.304067633467386
 30
0.0
 10
2.234489870887822
 20
5.304711510196161
 30
0.0
 10
2.240557398628822
 20
5.305857390668223
 30
0.0
 10
2.24515714239097
 20
5.309923045082654
 30
0.0
 10
2.247172264075172
 20
5.311704185249289
 30
0.0
  0
LINE
  5
32C
330
1F
100
AcDbEntity
  8
0
  6
Continuous
 62
     7
370
     0
100
AcDbLine
 10
2.4164764393
 20
5.2270333234
 30
0.0
 11
2.4372319804
 21
5.2659277007
 31
0.0
  0
LINE
  5
32D
330
1F
100
AcDbEntity
  8
0
  6
Continuous
 62
     7
370
     0
100
AcDbLine
 10
2.3964151277
 20
5.2492307736
 30
0.0
 11
2.4164764393
 21
5.2270333234
 31
0.0
  0
LINE
  5
32E
330
1F
100
AcDbEntity
  8
0
  6
Continuous
 62
     7
370
     0
100
AcDbLine
 10
2.4372319804
 20
5.2659277007
 30
0.0
 11
2.3964151277
 21
5.2492307736
 31
0.0
  0
LINE
  5
32F
330
1F
100
AcDbEntity
  8
0
  6
Continuous
 62
     7
370
     0
100
AcDbLine
 10
2.4219601326
 20
5.1630944353
 30
0.0
 11
2.4247192307
 21
5.1473226709
 31
0.0
  0
LINE
  5
330
330
1F
100
AcDbEntity
  8
0
  6
Continuous
 62
     7
370
     0
100
AcDbLine
 10
2.453858875
 20
5.1686477578
 30
0.0
 11
2.4219601326
 21
5.1630944353
 31
0.0
  0
LINE
  5
331
330
1F
100
AcDbEntity
  8
0
  6
Continuous
 62
     7
370
     0
100
AcDbLine
 10
2.4571341788
 20
5.1499215742
 30
0.0
 11
2.453858875
 21
5.1686477578
 31
0.0
  0
SPLINE
  5
332
330
1F
100
AcDbEntity
  8
0
  6
Continuous
 62
     7
370
     0
100
AcDbSpline
210
0.0
220
0.0
230
1.0
 70
     8
 71
     3
 72
     9
 73
     5
 74
     0
 42
0.00000001
 43
0.00000001
 40
0.0
 40
0.0
 40
0.0
 40
0.0
 40
0.5584320789193246
 40
1.0
 40
1.0
 40
1.0
 40
1.0
 10
2.45781061597129
 20
5.132494842157579
 30
0.0
 10
2.458119845228794
 20
5.135760358522393
 30
0.0
 10
2.458673590740875
 20
5.141608010346289
 30
0.0
 10
2.457605717397681
 20
5.147375039223635
 30
0.0
 10
2.45713417878555
 20
5.149921574175817
 30
0.0
  0
SPLINE
  5
333
330
1F
100
AcDbEntity
  8
0
  6
Continuous
 62
     7
370
     0
100
AcDbSpline
210
0.0
220
0.0
230
1.0
 70
     8
 71
     3
 72
     9
 73
     5
 74
     0
 42
0.00000001
 43
0.00000001
 40
0.0
 40
0.0
 40
0.0
 40
0.0
 40
0.5616974815834298
 40
1.0
 40
1.0
 40
1.0
 40
1.0
 10
2.424719230745796
 20
5.147322670865236
 30
0.0
 10
2.425356449560687
 20
5.143228709109518
 30
0.0
 10
2.426490901531337
 20
5.135940156303163
 30
0.0
 10
2.430333340100581
 20
5.129671083558788
 30
0.0
 10
2.432017490602342
 20
5.126923333186792
 30
0.0
  0
SPLINE
  5
334
330
1F
100
AcDbEntity
  8
0
  6
Continuous
 62
     7
370
     0
100
AcDbSpline
210
0.0
220
0.0
230
1.0
 70
     8
 71
     3
 72
    10
 73
     6
 74
     0
 42
0.00000001
 43
0.00000001
 40
0.0
 40
0.0
 40
0.0
 40
0.0
 40
0.2806790367844302
 40
0.5606187295528177
 40
0.9999999999999999
 40
0.9999999999999999
 40
0.9999999999999999
 40
0.9999999999999999
 10
2.432017490602342
 20
5.126923333186792
 30
0.0
 10
2.43304517716031
 20
5.125961360096269
 30
0.0
 10
2.435097843220117
 20
5.124039947873784
 30
0.0
 10
2.439833127372062
 20
5.12195791302192
 30
0.0
 10
2.443479106756393
 20
5.12236613578767
 30
0.0
 10
2.445706172469521
 20
5.122615489618036
 30
0.0
  0
SPLINE
  5
335
330
1F
100
AcDbEntity
  8
0
  6
Continuous
 62
     7
370
     0
100
AcDbSpline
210
0.0
220
0.0
230
1.0
 70
     8
 71
     3
 72
    10
 73
     6
 74
     0
 42
0.00000001
 43
0.00000001
 40
0.0
 40
0.0
 40
0.0
 40
0.0
 40
0.2815473480722377
 40
0.5618878266780032
 40
1.0
 40
1.0
 40
1.0
 40
1.0
 10
2.445706172469521
 20
5.122615489618036
 30
0.0
 10
2.447223141477754
 20
5.122943622014981
 30
0.0
 10
2.45025057691627
 20
5.123598480249819
 30
0.0
 10
2.455356011590823
 20
5.126319335594628
 30
0.0
 10
2.456880800334246
 20
5.130155531344565
 30
0.0
 10
2.45781061597129
 20
5.132494842157579
 30
0.0
  0
LINE
  5
336
330
1F
100
AcDbEntity
  8
0
  6
Continuous
 62
     7
370
     0
100
AcDbLine
 10
2.4641120398
 20
5.1704458704
 30
0.0
 11
2.4667821307
 21
5.1551727668
 31
0.0
  0
LINE
  5
337
330
1F
100
AcDbEntity
  8
0
  6
Continuous
 62
     7
370
     0
100
AcDbLine
 10
2.4891753236
 20
5.1748071
 30
0.0
 11
2.4641120398
 21
5.1704458704
 31
0.0
  0
LINE
  5
338
330
1F
100
AcDbEntity
  8
0
  6
Continuous
 62
     7
370
     0
100
AcDbLine
 10
2.4916318153
 20
5.160726676
 30
0.0
 11
2.4891753236
 21
5.1748071
 31
0.0
  0
SPLINE
  5
339
330
1F
100
AcDbEntity
  8
0
  6
Continuous
 62
     7
370
     0
100
AcDbSpline
210
0.0
220
0.0
230
1.0
 70
     8
 71
     3
 72
     9
 73
     5
 74
     0
 42
0.00000001
 43
0.00000001
 40
0.0
 40
0.0
 40
0.0
 40
0.0
 40
0.5578282829380896
 40
1.0
 40
1.0
 40
1.0
 40
1.0
 10
2.492219226813415
 20
5.143637860099152
 30
0.0
 10
2.492579124674415
 20
5.146837093606087
 30
0.0
 10
2.493224301464492
 20
5.15257225190621
 30
0.0
 10
2.492120073597767
 20
5.158226519021799
 30
0.0
 10
2.49163181526591
 20
5.160726676021025
 30
0.0
  0
SPLINE
  5
33A
330
1F
100
AcDbEntity
  8
0
  6
Continuous
 62
     7
370
     0
100
AcDbSpline
210
0.0
220
0.0
230
1.0
 70
     8
 71
     3
 72
     9
 73
     5
 74
     0
 42
0.00000001
 43
0.00000001
 40
0.0
 40
0.0
 40
0.0
 40
0.0
 40
0.5603304247649246
 40
1.0
 40
1.0
 40
1.0
 40
1.0
 10
2.484226755809789
 20
5.137550090425586
 30
0.0
 10
2.486237803062718
 20
5.138055927023109
 30
0.0
 10
2.489826841180313
 20
5.138958674000902
 30
0.0
 10
2.491488601402419
 20
5.142208854583127
 30
0.0
 10
2.492219226813415
 20
5.143637860099152
 30
0.0
  0
SPLINE
  5
33B
330
1F
100
AcDbEntity
  8
0
  6
Continuous
 62
     7
370
     0
100
AcDbSpline
210
0.0
220
0.0
230
1.0
 70
     8
 71
     3
 72
    10
 73
     6
 74
     0
 42
0.00000001
 43
0.00000001
 40
0.0
 40
0.0
 40
0.0
 40
0.0
 40
0.2800188684496149
 40
0.559811151120961
 40
1.0
 40
1.0
 40
1.0
 40
1.0
 10
2.472229121074156
 20
5.140754426742153
 30
0.0
 10
2.473121887727612
 20
5.139915795003242
 30
0.0
 10
2.474906698625252
 20
5.138239210129782
 30
0.0
 10
2.479205951777941
 20
5.136984630184418
 30
0.0
 10
2.482321774656589
 20
5.137335544887565
 30
0.0
 10
2.484226755809789
 20
5.137550090425586
 30
0.0
  0
SPLINE
  5
33C
330
1F
100
AcDbEntity
  8
0
  6
Continuous
 62
     7
370
     0
100
AcDbSpline
210
0.0
220
0.0
230
1.0
 70
     8
 71
     3
 72
     9
 73
     5
 74
     0
 42
0.00000001
 43
0.00000001
 40
0.0
 40
0.0
 40
0.0
 40
0.0
 40
0.5613779655823515
 40
0.9999999999999999
 40
0.9999999999999999
 40
0.9999999999999999
 40
0.9999999999999999
 10
2.46678213066492
 20
5.155172766846925
 30
0.0
 10
2.467234144498481
 20
5.152248626726753
 30
0.0
 10
2.468039330774527
 20
5.147039765140716
 30
0.0
 10
2.470951694271951
 20
5.142670766023372
 30
0.0
 10
2.472229121074156
 20
5.140754426742153
 30
0.0
  0
SPLINE
  5
33D
330
1F
100
AcDbEntity
  8
0
  6
Continuous
 62
     7
370
     0
100
AcDbSpline
210
0.0
220
0.0
230
1.0
 70
     8
 71
     3
 72
    10
 73
     6
 74
     0
 42
0.00000001
 43
0.00000001
 40
0.0
 40
0.0
 40
0.0
 40
0.0
 40
0.2799347617231516
 40
0.5600689293739569
 40
1.0
 40
1.0
 40
1.0
 40
1.0
 10
2.143182103086719
 20
5.204195827195015
 30
0.0
 10
2.139753713461415
 20
5.204588724484966
 30
0.0
 10
2.132894492066037
 20
5.205374798937394
 30
0.0
 10
2.121535195558561
 20
5.21054708651305
 30
0.0
 10
2.114862007562984
 20
5.216394480855095
 30
0.0
 10
2.110784956507988
 20
5.219967005005023
 30
0.0
  0
SPLINE
  5
33E
330
1F
100
AcDbEntity
  8
0
  6
Continuous
 62
     7
370
     0
100
AcDbSpline
210
0.0
220
0.0
230
1.0
 70
     8
 71
     3
 72
    12
 73
     8
 74
     0
 42
0.00000001
 43
0.00000001
 40
0.0
 40
0.0
 40
0.0
 40
0.0
 40
0.186697825363161
 40
0.3729883325412247
 40
0.559463611476934
 40
0.7794702887753714
 40
1.0
 40
1.0
 40
1.0
 40
1.0
 10
2.114238274948292
 20
5.275932598485712
 30
0.0
 10
2.112067628746785
 20
5.273389475599685
 30
0.0
 10
2.107731072037235
 20
5.268308778152562
 30
0.0
 10
2.105115713849638
 20
5.258362078388441
 30
0.0
 10
2.106504504123116
 20
5.247742858305852
 30
0.0
 10
2.111713511910219
 20
5.237664013583681
 30
0.0
 10
2.117061500635205
 20
5.231944503420516
 30
0.0
 10
2.119738669740595
 20
5.22908135304863
 30
0.0
  0
SPLINE
  5
33F
330
1F
100
AcDbEntity
  8
0
  6
Continuous
 62
     7
370
     0
100
AcDbSpline
210
0.0
220
0.0
230
1.0
 70
     8
 71
     3
 72
    12
 73
     8
 74
     0
 42
0.00000001
 43
0.00000001
 40
0.0
 40
0.0
 40
0.0
 40
0.0
 40
0.1866396503149362
 40
0.3729097944575227
 40
0.5594238176336436
 40
0.7794547251194278
 40
0.9999999999999999
 40
0.9999999999999999
 40
0.9999999999999999
 40
0.9999999999999999
 10
2.166643337893866
 20
5.224435006723619
 30
0.0
 10
2.168796244967347
 20
5.226983620049212
 30
0.0
 10
2.173097796823576
 20
5.232075800996803
 30
0.0
 10
2.175682596370325
 20
5.241999156355651
 30
0.0
 10
2.174362015930082
 20
5.252605012927024
 30
0.0
 10
2.169167181695213
 20
5.262678358583061
 30
0.0
 10
2.163819770312274
 20
5.268379145068301
 30
0.0
 10
2.161142943101563
 20
5.271232866110754
 30
0.0
  0
SPLINE
  5
340
330
1F
100
AcDbEntity
  8
0
  6
Continuous
 62
     7
370
     0
100
AcDbSpline
210
0.0
220
0.0
230
1.0
 70
     8
 71
     3
 72
    10
 73
     6
 74
     0
 42
0.00000001
 43
0.00000001
 40
0.0
 40
0.0
 40
0.0
 40
0.0
 40
0.2799332342272353
 40
0.5601243858232036
 40
1.0
 40
1.0
 40
1.0
 40
1.0
 10
2.137574908694841
 20
5.296171778014315
 30
0.0
 10
2.141015514682135
 20
5.295775522095191
 30
0.0
 10
2.147899896669908
 20
5.294982645165301
 30
0.0
 10
2.159291852228134
 20
5.289777704735746
 30
0.0
 10
2.165999243114495
 20
5.283923463206194
 30
0.0
 10
2.170096665500731
 20
5.280347214154361
 30
0.0
  0
SPLINE
  5
341
330
1F
100
AcDbEntity
  8
0
  6
Continuous
 62
     7
370
     0
100
AcDbSpline
210
0.0
220
0.0
230
1.0
 70
     8
 71
     3
 72
    11
 73
     7
 74
     0
 42
0.00000001
 43
0.00000001
 40
0.0
 40
0.0
 40
0.0
 40
0.0
 40
0.2810108311220264
 40
0.5603500122274048
 40
0.7798817308651135
 40
1.0
 40
1.0
 40
1.0
 40
1.0
 10
2.161142943101563
 20
5.271232866110754
 30
0.0
 10
2.157410725419333
 20
5.274553640473863
 30
0.0
 10
2.149968491909961
 20
5.281175434899165
 30
0.0
 10
2.136397106355212
 20
5.285714998029052
 30
0.0
 10
2.12323233361638
 20
5.283643368246357
 30
0.0
 10
2.11723895981876
 20
5.278505140095044
 30
0.0
 10
2.114238274948292
 20
5.275932598485712
 30
0.0
  0
SPLINE
  5
342
330
1F
100
AcDbEntity
  8
0
  6
Continuous
 62
     7
370
     0
100
AcDbSpline
210
0.0
220
0.0
230
1.0
 70
     8
 71
     3
 72
    10
 73
     6
 74
     0
 42
0.00000001
 43
0.00000001
 40
0.0
 40
0.0
 40
0.0
 40
0.0
 40
0.5591479393459439
 40
0.7796353695210444
 40
0.9999999999999999
 40
0.9999999999999999
 40
0.9999999999999999
 40
0.9999999999999999
 10
2.170096665500731
 20
5.280347214154361
 30
0.0
 10
2.174657948708226
 20
5.275133349776405
 30
0.0
 10
2.181017871492034
 20
5.267863515095989
 30
0.0
 10
2.185499702009969
 20
5.256278790981757
 30
0.0
 10
2.186101318512212
 20
5.250891656042642
 30
0.0
 10
2.186402042972952
 20
5.248198838868469
 30
0.0
  0
SPLINE
  5
343
330
1F
100
AcDbEntity
  8
0
  6
Continuous
 62
     7
370
     0
100
AcDbSpline
210
0.0
220
0.0
230
1.0
 70
     8
 71
     3
 72
    10
 73
     6
 74
     0
 42
0.00000001
 43
0.00000001
 40
0.0
 40
0.0
 40
0.0
 40
0.0
 40
0.2800761039865267
 40
0.5603202539680301
 40
1.0
 40
1.0
 40
1.0
 40
1.0
 10
2.09437276110307
 20
5.252203965934233
 30
0.0
 10
2.0944988410608
 20
5.25538284842035
 30
0.0
 10
2.094751076624384
 20
5.261742520725849
 30
0.0
 10
2.098890425680251
 20
5.272506594716666
 30
0.0
 10
2.104153127937868
 20
5.278777673387598
 30
0.0
 10
2.107367222656607
 20
5.282607614708688
 30
0.0
  0
SPLINE
  5
344
330
1F
100
AcDbEntity
  8
0
  6
Continuous
 62
     7
370
     0
100
AcDbSpline
210
0.0
220
0.0
230
1.0
 70
     8
 71
     3
 72
    10
 73
     6
 74
     0
 42
0.00000001
 43
0.00000001
 40
0.0
 40
0.0
 40
0.0
 40
0.0
 40
0.5591618245903716
 40
0.7796299291508042
 40
1.0
 40
1.0
 40
1.0
 40
1.0
 10
2.110784956507988
 20
5.219967005005023
 30
0.0
 10
2.106186118232373
 20
5.225186768127937
 30
0.0
 10
2.099774035358832
 20
5.232464596074585
 30
0.0
 10
2.095343455885446
 20
5.244109006323339
 30
0.0
 10
2.094696278057336
 20
5.249506046128986
 30
0.0
 10
2.09437276110307
 20
5.252203965934233
 30
0.0
  0
SPLINE
  5
345
330
1F
100
AcDbEntity
  8
0
  6
Continuous
 62
     7
370
     0
100
AcDbSpline
210
0.0
220
0.0
230
1.0
 70
     8
 71
     3
 72
    10
 73
     6
 74
     0
 42
0.00000001
 43
0.00000001
 40
0.0
 40
0.0
 40
0.0
 40
0.0
 40
0.2801401283222348
 40
0.5602732002539391
 40
1.0
 40
1.0
 40
1.0
 40
1.0
 10
2.186402042972952
 20
5.248198838868469
 30
0.0
 10
2.186302849521952
 20
5.245006472562562
 30
0.0
 10
2.186104465118514
 20
5.23862182036259
 30
0.0
 10
2.182066310039018
 20
5.227757242898345
 30
0.0
 10
2.176713159376736
 20
5.221506980740978
 30
0.0
 10
2.17344318434146
 20
5.217689004654011
 30
0.0
  0
SPLINE
  5
346
330
1F
100
AcDbEntity
  8
0
  6
Continuous
 62
     7
370
     0
100
AcDbSpline
210
0.0
220
0.0
230
1.0
 70
     8
 71
     3
 72
    10
 73
     6
 74
     0
 42
0.00000001
 43
0.00000001
 40
0.0
 40
0.0
 40
0.0
 40
0.0
 40
0.2807716336600794
 40
0.5613808422599887
 40
0.9999999999999999
 40
0.9999999999999999
 40
0.9999999999999999
 40
0.9999999999999999
 10
2.17344318434146
 20
5.217689004654011
 30
0.0
 10
2.171105061934652
 20
5.215532663067155
 30
0.0
 10
2.166430169713776
 20
5.211221227326839
 30
0.0
 10
2.156399584870252
 20
5.205504166746236
 30
0.0
 10
2.148189187877045
 20
5.204691456179021
 30
0.0
 10
2.143182103086719
 20
5.204195827195015
 30
0.0
  0
SPLINE
  5
347
330
1F
100
AcDbEntity
  8
0
  6
Continuous
 62
     7
370
     0
100
AcDbSpline
210
0.0
220
0.0
230
1.0
 70
     8
 71
     3
 72
    11
 73
     7
 74
     0
 42
0.00000001
 43
0.00000001
 40
0.0
 40
0.0
 40
0.0
 40
0.0
 40
0.2810445529062912
 40
0.5602883002754884
 40
0.7799135671177311
 40
1.0
 40
1.0
 40
1.0
 40
1.0
 10
2.119738669740595
 20
5.22908135304863
 30
0.0
 10
2.123464887281882
 20
5.225754136916465
 30
0.0
 10
2.130893446458974
 20
5.219121023938247
 30
0.0
 10
2.144490827294379
 20
5.214621097938056
 30
0.0
 10
2.157625672225808
 20
5.21677041527661
 30
0.0
 10
2.163635348371424
 20
5.221878357185362
 30
0.0
 10
2.166643337893866
 20
5.224435006723619
 30
0.0
  0
SPLINE
  5
348
330
1F
100
AcDbEntity
  8
0
  6
Continuous
 62
     7
370
     0
100
AcDbSpline
210
0.0
220
0.0
230
1.0
 70
     8
 71
     3
 72
    10
 73
     6
 74
     0
 42
0.00000001
 43
0.00000001
 40
0.0
 40
0.0
 40
0.0
 40
0.0
 40
0.2807593580507435
 40
0.5613487439733184
 40
1.0
 40
1.0
 40
1.0
 40
1.0
 10
2.107367222656607
 20
5.282607614708688
 30
0.0
 10
2.109697761437676
 20
5.284768921394132
 30
0.0
 10
2.114357428088208
 20
5.289090226306779
 30
0.0
 10
2.124378190299279
 20
5.294802729298373
 30
0.0
 10
2.132575515306077
 20
5.295653132931938
 30
0.0
 10
2.137574908694841
 20
5.296171778014315
 30
0.0
  0
SPLINE
  5
349
330
1F
100
AcDbEntity
  8
0
  6
Continuous
 62
     7
370
     0
100
AcDbSpline
210
0.0
220
0.0
230
1.0
 70
     8
 71
     3
 72
     9
 73
     5
 74
     0
 42
0.00000001
 43
0.00000001
 40
0.0
 40
0.0
 40
0.0
 40
0.0
 40
0.5613337184904972
 40
1.0
 40
1.0
 40
1.0
 40
1.0
 10
2.197795225524602
 20
4.943760489099597
 30
0.0
 10
2.198484020483226
 20
4.944971480272583
 30
0.0
 10
2.199711089045001
 20
4.94712882648767
 30
0.0
 10
2.20022915995797
 20
4.949551225265003
 30
0.0
 10
2.200456420198921
 20
4.950613849928988
 30
0.0
  0
SPLINE
  5
34A
330
1F
100
AcDbEntity
  8
0
  6
Continuous
 62
     7
370
     0
100
AcDbSpline
210
0.0
220
0.0
230
1.0
 70
     8
 71
     3
 72
     9
 73
     5
 74
     0
 42
0.00000001
 43
0.00000001
 40
0.0
 40
0.0
 40
0.0
 40
0.0
 40
0.5612882542348078
 40
0.9999999999999999
 40
0.9999999999999999
 40
0.9999999999999999
 40
0.9999999999999999
 10
2.178997753507936
 20
4.954183088696838
 30
0.0
 10
2.179689142061616
 20
4.955396854742093
 30
0.0
 10
2.180920930805569
 20
4.957559319458034
 30
0.0
 10
2.181440091570522
 20
4.959988388293516
 30
0.0
 10
2.181667853496046
 20
4.961054049322914
 30
0.0
  0
SPLINE
  5
34B
330
1F
100
AcDbEntity
  8
0
  6
Continuous
 62
     7
370
     0
100
AcDbSpline
210
0.0
220
0.0
230
1.0
 70
     8
 71
     3
 72
    10
 73
     6
 74
     0
 42
0.00000001
 43
0.00000001
 40
0.0
 40
0.0
 40
0.0
 40
0.0
 40
0.2796899324413236
 40
0.5592358908623051
 40
1.0
 40
1.0
 40
1.0
 40
1.0
 10
2.181667853496046
 20
4.961054049322914
 30
0.0
 10
2.181619052387287
 20
4.96166501727155
 30
0.0
 10
2.181521475290773
 20
4.962886638665145
 30
0.0
 10
2.180185744798582
 20
4.964696545624569
 30
0.0
 10
2.178846881825008
 20
4.965495834036736
 30
0.0
 10
2.178027619715004
 20
4.965984925694343
 30
0.0
  0
SPLINE
  5
34C
330
1F
100
AcDbEntity
  8
0
  6
Continuous
 62
     7
370
     0
100
AcDbSpline
210
0.0
220
0.0
230
1.0
 70
     8
 71
     3
 72
    10
 73
     6
 74
     0
 42
0.00000001
 43
0.00000001
 40
0.0
 40
0.0
 40
0.0
 40
0.0
 40
0.2796144380138065
 40
0.5592469664842205
 40
1.0
 40
1.0
 40
1.0
 40
1.0
 10
2.200456420198921
 20
4.950613849928988
 30
0.0
 10
2.200401311638664
 20
4.9512235584302
 30
0.0
 10
2.200291090952746
 20
4.952443014879459
 30
0.0
 10
2.19898854505037
 20
4.95427582394983
 30
0.0
 10
2.197646310332775
 20
4.955079446269928
 30
0.0
 10
2.19682509173167
 20
4.955571125995446
 30
0.0
  0
SPLINE
  5
34D
330
1F
100
AcDbEntity
  8
0
  6
Continuous
 62
     7
370
     0
100
AcDbSpline
210
0.0
220
0.0
230
1.0
 70
     8
 71
     3
 72
     9
 73
     5
 74
     0
 42
0.00000001
 43
0.00000001
 40
0.0
 40
0.0
 40
0.0
 40
0.0
 40
0.5607337954812968
 40
1.0
 40
1.0
 40
1.0
 40
1.0
 10
2.187711165349859
 20
4.960733733023235
 30
0.0
 10
2.190257156014316
 20
4.961117614074637
 30
0.0
 10
2.194797618324549
 20
4.961802218880869
 30
0.0
 10
2.199013806494409
 20
4.960051815962694
 30
0.0
 10
2.20086583546932
 20
4.959282923116449
 30
0.0
  0
SPLINE
  5
34E
330
1F
100
AcDbEntity
  8
0
  6
Continuous
 62
     7
370
     0
100
AcDbSpline
210
0.0
220
0.0
230
1.0
 70
     8
 71
     3
 72
    10
 73
     6
 74
     0
 42
0.00000001
 43
0.00000001
 40
0.0
 40
0.0
 40
0.0
 40
0.0
 40
0.2815299917201846
 40
0.5625562296090193
 40
1.0
 40
1.0
 40
1.0
 40
1.0
 10
2.182068368035935
 20
4.969704936053799
 30
0.0
 10
2.18295179068464
 20
4.969148036008707
 30
0.0
 10
2.184717055235567
 20
4.96803523240394
 30
0.0
 10
2.18721423434023
 20
4.965106976418994
 30
0.0
 10
2.187523106881756
 20
4.962388742345884
 30
0.0
 10
2.187711165349859
 20
4.960733733023235
 30
0.0
  0
SPLINE
  5
34F
330
1F
100
AcDbEntity
  8
0
  6
Continuous
 62
     7
370
     0
100
AcDbSpline
210
0.0
220
0.0
230
1.0
 70
     8
 71
     3
 72
     9
 73
     5
 74
     0
 42
0.00000001
 43
0.00000001
 40
0.0
 40
0.0
 40
0.0
 40
0.0
 40
0.5574913516877652
 40
0.9999999999999999
 40
0.9999999999999999
 40
0.9999999999999999
 40
0.9999999999999999
 10
2.19682509173167
 20
4.955571125995446
 30
0.0
 10
2.194972524648489
 20
4.956144484942058
 30
0.0
 10
2.191649482815512
 20
4.957172947437262
 30
0.0
 10
2.188222082788195
 20
4.95666115980583
 30
0.0
 10
2.186705428634882
 20
4.956434689352822
 30
0.0
  0
SPLINE
  5
350
330
1F
100
AcDbEntity
  8
0
  6
Continuous
 62
     7
370
     0
100
AcDbSpline
210
0.0
220
0.0
230
1.0
 70
     8
 71
     3
 72
    10
 73
     6
 74
     0
 42
0.00000001
 43
0.00000001
 40
0.0
 40
0.0
 40
0.0
 40
0.0
 40
0.2811767762830287
 40
0.5598137128259746
 40
1.0
 40
1.0
 40
1.0
 40
1.0
 10
2.20086583546932
 20
4.959282923116449
 30
0.0
 10
2.202362368739055
 20
4.958312266584779
 30
0.0
 10
2.205341917253596
 20
4.956379721358048
 30
0.0
 10
2.207312764102901
 20
4.949906122130265
 30
0.0
 10
2.205367794067576
 20
4.945735815857593
 30
0.0
 10
2.204176751388004
 20
4.943182042448529
 30
0.0
  0
SPLINE
  5
351
330
1F
100
AcDbEntity
  8
0
  6
Continuous
 62
     7
370
     0
100
AcDbSpline
210
0.0
220
0.0
230
1.0
 70
     8
 71
     3
 72
     9
 73
     5
 74
     0
 42
0.00000001
 43
0.00000001
 40
0.0
 40
0.0
 40
0.0
 40
0.0
 40
0.5575444379534831
 40
1.0
 40
1.0
 40
1.0
 40
1.0
 10
2.178027619715004
 20
4.965984925694343
 30
0.0
 10
2.176225983423713
 20
4.966551637556767
 30
0.0
 10
2.17299460639141
 20
4.967568080056856
 30
0.0
 10
2.169653333945154
 20
4.967093617321384
 30
0.0
 10
2.168174969366995
 20
4.96688368864509
 30
0.0
  0
SPLINE
  5
352
330
1F
100
AcDbEntity
  8
0
  6
Continuous
 62
     7
370
     0
100
AcDbSpline
210
0.0
220
0.0
230
1.0
 70
     8
 71
     3
 72
     9
 73
     5
 74
     0
 42
0.00000001
 43
0.00000001
 40
0.0
 40
0.0
 40
0.0
 40
0.0
 40
0.560637553146767
 40
1.0
 40
1.0
 40
1.0
 40
1.0
 10
2.17053355295377
 20
4.9711381461639
 30
0.0
 10
2.172769400879335
 20
4.971419219286012
 30
0.0
 10
2.176757446120001
 20
4.971920564799765
 30
0.0
 10
2.180447219969211
 20
4.970381252202851
 30
0.0
 10
2.182068368035935
 20
4.969704936053799
 30
0.0
  0
SPLINE
  5
353
330
1F
100
AcDbEntity
  8
0
  6
Continuous
 62
     7
370
     0
100
AcDbSpline
210
0.0
220
0.0
230
1.0
 70
     8
 71
     3
 72
     9
 73
     5
 74
     0
 42
0.00000001
 43
0.00000001
 40
0.0
 40
0.0
 40
0.0
 40
0.0
 40
0.5599216608583941
 40
0.9999999999999999
 40
0.9999999999999999
 40
0.9999999999999999
 40
0.9999999999999999
 10
2.142219962534782
 20
4.986617167348927
 30
0.0
 10
2.140909798700779
 20
4.987768994144856
 30
0.0
 10
2.13856989309328
 20
4.989826115482443
 30
0.0
 10
2.136024203892614
 20
4.99162109070368
 30
0.0
 10
2.134903901217214
 20
4.992411020417841
 30
0.0
  0
SPLINE
  5
354
330
1F
100
AcDbEntity
  8
0
  6
Continuous
 62
     7
370
     0
100
AcDbSpline
210
0.0
220
0.0
230
1.0
 70
     8
 71
     3
 72
     9
 73
     5
 74
     0
 42
0.00000001
 43
0.00000001
 40
0.0
 40
0.0
 40
0.0
 40
0.0
 40
0.5596704703731994
 40
1.0
 40
1.0
 40
1.0
 40
1.0
 10
2.149215615887064
 20
4.967703839170641
 30
0.0
 10
2.147502463789885
 20
4.966217321922736
 30
0.0
 10
2.144441462383043
 20
4.9635612638911
 30
0.0
 10
2.140458260425342
 20
4.962964673374247
 30
0.0
 10
2.138704338980899
 20
4.96270197695258
 30
0.0
  0
SPLINE
  5
355
330
1F
100
AcDbEntity
  8
0
  6
Continuous
 62
     7
370
     0
100
AcDbSpline
210
0.0
220
0.0
230
1.0
 70
     8
 71
     3
 72
    10
 73
     6
 74
     0
 42
0.00000001
 43
0.00000001
 40
0.0
 40
0.0
 40
0.0
 40
0.0
 40
0.2801838644158694
 40
0.5602925760498828
 40
0.9999999999999999
 40
0.9999999999999999
 40
0.9999999999999999
 40
0.9999999999999999
 10
2.152900344154102
 20
4.97915837351355
 30
0.0
 10
2.15305956679753
 20
4.977992608518178
 30
0.0
 10
2.153377969376628
 20
4.975661391216685
 30
0.0
 10
2.152331079476994
 20
4.971485465754614
 30
0.0
 10
2.15039704291222
 20
4.969137884447175
 30
0.0
 10
2.149215615887064
 20
4.967703839170641
 30
0.0
  0
SPLINE
  5
356
330
1F
100
AcDbEntity
  8
0
  6
Continuous
 62
     7
370
     0
100
AcDbSpline
210
0.0
220
0.0
230
1.0
 70
     8
 71
     3
 72
     9
 73
     5
 74
     0
 42
0.00000001
 43
0.00000001
 40
0.0
 40
0.0
 40
0.0
 40
0.0
 40
0.5577393320299655
 40
1.0
 40
1.0
 40
1.0
 40
1.0
 10
2.14713293661302
 20
4.979007015262053
 30
0.0
 10
2.146523428649043
 20
4.980625595822644
 30
0.0
 10
2.145430609963011
 20
4.983527633508779
 30
0.0
 10
2.143204488499997
 20
4.985669780146179
 30
0.0
 10
2.142219962534782
 20
4.986617167348927
 30
0.0
  0
SPLINE
  5
357
330
1F
100
AcDbEntity
  8
0
  6
Continuous
 62
     7
370
     0
100
AcDbSpline
210
0.0
220
0.0
230
1.0
 70
     8
 71
     3
 72
     9
 73
     5
 74
     0
 42
0.00000001
 43
0.00000001
 40
0.0
 40
0.0
 40
0.0
 40
0.0
 40
0.5605002492219376
 40
0.9999999999999999
 40
0.9999999999999999
 40
0.9999999999999999
 40
0.9999999999999999
 10
2.144649751965647
 20
4.971975896486137
 30
0.0
 10
2.14560152211957
 20
4.973134032842984
 30
0.0
 10
2.147299594788126
 20
4.975200287690249
 30
0.0
 10
2.14718381972459
 20
4.97784476718373
 30
0.0
 10
2.14713293661302
 20
4.979007015262053
 30
0.0
  0
SPLINE
  5
358
330
1F
100
AcDbEntity
  8
0
  6
Continuous
 62
     7
370
     0
100
AcDbSpline
210
0.0
220
0.0
230
1.0
 70
     8
 71
     3
 72
     9
 73
     5
 74
     0
 42
0.00000001
 43
0.00000001
 40
0.0
 40
0.0
 40
0.0
 40
0.0
 40
0.5579547478728404
 40
1.0
 40
1.0
 40
1.0
 40
1.0
 10
2.137484993900211
 20
4.968184313620159
 30
0.0
 10
2.139020992468601
 20
4.9685248906302
 30
0.0
 10
2.141773901327691
 20
4.969135293196609
 30
0.0
 10
2.143768187314011
 20
4.971105136573811
 30
0.0
 10
2.144649751965647
 20
4.971975896486137
 30
0.0
  0
SPLINE
  5
359
330
1F
100
AcDbEntity
  8
0
  6
Continuous
 62
     7
370
     0
100
AcDbSpline
210
0.0
220
0.0
230
1.0
 70
     8
 71
     3
 72
     9
 73
     5
 74
     0
 42
0.00000001
 43
0.00000001
 40
0.0
 40
0.0
 40
0.0
 40
0.0
 40
0.5607479488457443
 40
0.9999999999999999
 40
0.9999999999999999
 40
0.9999999999999999
 40
0.9999999999999999
 10
2.146340808263754
 20
4.989171484507904
 30
0.0
 10
2.148001093846472
 20
4.987572463548145
 30
0.0
 10
2.150961934962583
 20
4.984720877620722
 30
0.0
 10
2.15230875200548
 20
4.980856020104826
 30
0.0
 10
2.152900344154102
 20
4.97915837351355
 30
0.0
  0
SPLINE
  5
35A
330
1F
100
AcDbEntity
  8
0
  6
Continuous
 62
     7
370
     0
100
AcDbSpline
210
0.0
220
0.0
230
1.0
 70
     8
 71
     3
 72
     9
 73
     5
 74
     0
 42
0.00000001
 43
0.00000001
 40
0.0
 40
0.0
 40
0.0
 40
0.0
 40
0.5604523849795858
 40
1.0
 40
1.0
 40
1.0
 40
1.0
 10
2.130008728599999
 20
4.971281877836833
 30
0.0
 10
2.131238097498906
 20
4.970267753126764
 30
0.0
 10
2.133431627104374
 20
4.968458277893458
 30
0.0
 10
2.136247349733861
 20
4.96826796513795
 30
0.0
 10
2.137484993900211
 20
4.968184313620159
 30
0.0
  0
SPLINE
  5
35B
330
1F
100
AcDbEntity
  8
0
  6
Continuous
 62
     7
370
     0
100
AcDbSpline
210
0.0
220
0.0
230
1.0
 70
     8
 71
     3
 72
     9
 73
     5
 74
     0
 42
0.00000001
 43
0.00000001
 40
0.0
 40
0.0
 40
0.0
 40
0.0
 40
0.5583369336307006
 40
1.0
 40
1.0
 40
1.0
 40
1.0
 10
2.138704338980899
 20
4.96270197695258
 30
0.0
 10
2.136238685404285
 20
4.963011040797249
 30
0.0
 10
2.131822617922269
 20
4.963564584412317
 30
0.0
 10
2.128459216393315
 20
4.966435750952463
 30
0.0
 10
2.126973726160606
 20
4.967703839170641
 30
0.0
  0
SPLINE
  5
35C
330
1F
100
AcDbEntity
  8
0
  6
Continuous
 62
     7
370
     0
100
AcDbSpline
210
0.0
220
0.0
230
1.0
 70
     8
 71
     3
 72
     9
 73
     5
 74
     0
 42
0.00000001
 43
0.00000001
 40
0.0
 40
0.0
 40
0.0
 40
0.0
 40
0.5598812250720225
 40
1.0
 40
1.0
 40
1.0
 40
1.0
 10
2.126973726160606
 20
4.967703839170641
 30
0.0
 10
2.125287680067173
 20
4.969490160178211
 30
0.0
 10
2.122276244752093
 20
4.972680695826803
 30
0.0
 10
2.120408492036154
 20
4.976640984888976
 30
0.0
 10
2.119586458998946
 20
4.978383982459381
 30
0.0
  0
SPLINE
  5
35D
330
1F
100
AcDbEntity
  8
0
  6
Continuous
 62
     7
370
     0
100
AcDbSpline
210
0.0
220
0.0
230
1.0
 70
     8
 71
     3
 72
     9
 73
     5
 74
     0
 42
0.00000001
 43
0.00000001
 40
0.0
 40
0.0
 40
0.0
 40
0.0
 40
0.5603302645890051
 40
1.0
 40
1.0
 40
1.0
 40
1.0
 10
2.124437127963605
 20
4.982941156481185
 30
0.0
 10
2.124968609761959
 20
4.980507665011246
 30
0.0
 10
2.12591712500724
 20
4.976164705824983
 30
0.0
 10
2.128759168214872
 20
4.97277307518356
 30
0.0
 10
2.130008728599999
 20
4.971281877836833
 30
0.0
  0
SPLINE
  5
35E
330
1F
100
AcDbEntity
  8
0
  6
Continuous
 62
     7
370
     0
100
AcDbSpline
210
0.0
220
0.0
230
1.0
 70
     8
 71
     3
 72
     9
 73
     5
 74
     0
 42
0.00000001
 43
0.00000001
 40
0.0
 40
0.0
 40
0.0
 40
0.0
 40
0.561236676729191
 40
1.0
 40
1.0
 40
1.0
 40
1.0
 10
2.253488200904598
 20
4.930389336897623
 30
0.0
 10
2.253775265631777
 20
4.931794919046729
 30
0.0
 10
2.254286751675155
 20
4.934299356492439
 30
0.0
 10
2.254047215901976
 20
4.93683970459657
 30
0.0
 10
2.253942116390094
 20
4.937954316173003
 30
0.0
  0
SPLINE
  5
35F
330
1F
100
AcDbEntity
  8
0
  6
Continuous
 62
     7
370
     0
100
AcDbSpline
210
0.0
220
0.0
230
1.0
 70
     8
 71
     3
 72
     9
 73
     5
 74
     0
 42
0.00000001
 43
0.00000001
 40
0.0
 40
0.0
 40
0.0
 40
0.0
 40
0.5610006315807291
 40
1.0
 40
1.0
 40
1.0
 40
1.0
 10
2.219035077243356
 20
4.947771482764256
 30
0.0
 10
2.221057684606363
 20
4.948889528930388
 30
0.0
 10
2.224663041265781
 20
4.950882478854492
 30
0.0
 10
2.228749314278802
 20
4.950637909859161
 30
0.0
 10
2.230543185550706
 20
4.950530544224677
 30
0.0
  0
SPLINE
  5
360
330
1F
100
AcDbEntity
  8
0
  6
Continuous
 62
     7
370
     0
100
AcDbSpline
210
0.0
220
0.0
230
1.0
 70
     8
 71
     3
 72
     9
 73
     5
 74
     0
 42
0.00000001
 43
0.00000001
 40
0.0
 40
0.0
 40
0.0
 40
0.0
 40
0.5572239561505739
 40
1.0
 40
1.0
 40
1.0
 40
1.0
 10
2.248966840635737
 20
4.941630327040745
 30
0.0
 10
2.247012137044744
 20
4.941589672047423
 30
0.0
 10
2.24350420532462
 20
4.941516712166802
 30
0.0
 10
2.24039976109863
 20
4.939911244430953
 30
0.0
 10
2.239025187565896
 20
4.939200381778346
 30
0.0
  0
SPLINE
  5
361
330
1F
100
AcDbEntity
  8
0
  6
Continuous
 62
     7
370
     0
100
AcDbSpline
210
0.0
220
0.0
230
1.0
 70
     8
 71
     3
 72
     9
 73
     5
 74
     0
 42
0.00000001
 43
0.00000001
 40
0.0
 40
0.0
 40
0.0
 40
0.0
 40
0.5611434334608445
 40
1.0
 40
1.0
 40
1.0
 40
1.0
 10
2.238571270934579
 20
4.943187909047425
 30
0.0
 10
2.240855023113302
 20
4.94449859896037
 30
0.0
 10
2.244924842062509
 20
4.94683434742465
 30
0.0
 10
2.249577350639606
 20
4.946551551712589
 30
0.0
 10
2.251619134579545
 20
4.946427444957362
 30
0.0
  0
SPLINE
  5
362
330
1F
100
AcDbEntity
  8
0
  6
Continuous
 62
     7
370
     0
100
AcDbSpline
210
0.0
220
0.0
230
1.0
 70
     8
 71
     3
 72
    10
 73
     6
 74
     0
 42
0.00000001
 43
0.00000001
 40
0.0
 40
0.0
 40
0.0
 40
0.0
 40
0.2813641454061354
 40
0.562242009757472
 40
1.0
 40
1.0
 40
1.0
 40
1.0
 10
2.230543185550706
 20
4.950530544224677
 30
0.0
 10
2.231588265077386
 20
4.950258651940395
 30
0.0
 10
2.233676617922018
 20
4.949715337282687
 30
0.0
 10
2.236945752357733
 20
4.947429778095929
 30
0.0
 10
2.237955923707958
 20
4.944793687284515
 30
0.0
 10
2.238571270934579
 20
4.943187909047425
 30
0.0
  0
SPLINE
  5
363
330
1F
100
AcDbEntity
  8
0
  6
Continuous
 62
     7
370
     0
100
AcDbSpline
210
0.0
220
0.0
230
1.0
 70
     8
 71
     3
 72
    10
 73
     6
 74
     0
 42
0.00000001
 43
0.00000001
 40
0.0
 40
0.0
 40
0.0
 40
0.0
 40
0.2798961498535208
 40
0.5592925049892711
 40
1.0
 40
1.0
 40
1.0
 40
1.0
 10
2.253942116390094
 20
4.937954316173003
 30
0.0
 10
2.253709088059483
 20
4.938526530065252
 30
0.0
 10
2.253243447503763
 20
4.93966993607978
 30
0.0
 10
2.251448700445495
 20
4.941060415658514
 30
0.0
 10
2.249909090402928
 20
4.941413957500002
 30
0.0
 10
2.248966840635737
 20
4.941630327040745
 30
0.0
  0
SPLINE
  5
364
330
1F
100
AcDbEntity
  8
0
  6
Continuous
 62
     7
370
     0
100
AcDbSpline
210
0.0
220
0.0
230
1.0
 70
     8
 71
     3
 72
     9
 73
     5
 74
     0
 42
0.00000001
 43
0.00000001
 40
0.0
 40
0.0
 40
0.0
 40
0.0
 40
0.5574551784171848
 40
1.0
 40
1.0
 40
1.0
 40
1.0
 10
2.227890891606899
 20
4.945724626409715
 30
0.0
 10
2.225984829397159
 20
4.945693096288053
 30
0.0
 10
2.222565608832823
 20
4.945636535468666
 30
0.0
 10
2.219532036318244
 20
4.944087133198445
 30
0.0
 10
2.218189544511022
 20
4.94340145324721
 30
0.0
  0
SPLINE
  5
365
330
1F
100
AcDbEntity
  8
0
  6
Continuous
 62
     7
370
     0
100
AcDbSpline
210
0.0
220
0.0
230
1.0
 70
     8
 71
     3
 72
     9
 73
     5
 74
     0
 42
0.00000001
 43
0.00000001
 40
0.0
 40
0.0
 40
0.0
 40
0.0
 40
0.5611939511811203
 40
1.0
 40
1.0
 40
1.0
 40
1.0
 10
2.232412251875759
 20
4.934483636266593
 30
0.0
 10
2.232706490452579
 20
4.935893754291744
 30
0.0
 10
2.23323079862839
 20
4.938406464954757
 30
0.0
 10
2.232983557742285
 20
4.94095659111328
 30
0.0
 10
2.232875066945947
 20
4.942075601896891
 30
0.0
  0
SPLINE
  5
366
330
1F
100
AcDbEntity
  8
0
  6
Continuous
 62
     7
370
     0
100
AcDbSpline
210
0.0
220
0.0
230
1.0
 70
     8
 71
     3
 72
    10
 73
     6
 74
     0
 42
0.00000001
 43
0.00000001
 40
0.0
 40
0.0
 40
0.0
 40
0.0
 40
0.2797793988681164
 40
0.5591637765028334
 40
1.0
 40
1.0
 40
1.0
 40
1.0
 10
2.232875066945947
 20
4.942075601896891
 30
0.0
 10
2.232642126056879
 20
4.942647261790218
 30
0.0
 10
2.232176573168569
 20
4.943789774448838
 30
0.0
 10
2.230367148149365
 20
4.945157077995832
 30
0.0
 10
2.228831089846498
 20
4.94550913661273
 30
0.0
 10
2.227890891606899
 20
4.945724626409715
 30
0.0
  0
SPLINE
  5
367
330
1F
100
AcDbEntity
  8
0
  6
Continuous
 62
     7
370
     0
100
AcDbSpline
210
0.0
220
0.0
230
1.0
 70
     8
 71
     3
 72
    10
 73
     6
 74
     0
 42
0.00000001
 43
0.00000001
 40
0.0
 40
0.0
 40
0.0
 40
0.0
 40
0.2809576380660038
 40
0.5595461753335783
 40
1.0
 40
1.0
 40
1.0
 40
1.0
 10
2.251619134579545
 20
4.946427444957362
 30
0.0
 10
2.253369745519707
 20
4.945948508147735
 30
0.0
 10
2.25685620583738
 20
4.944994673036157
 30
0.0
 10
2.260612749998498
 20
4.9392401685191
 30
0.0
 10
2.260030550745264
 20
4.934623518213808
 30
0.0
 10
2.259673921009131
 20
4.931795560652805
 30
0.0
  0
SPLINE
  5
368
330
1F
100
AcDbEntity
  8
0
  6
Continuous
 62
     7
370
     0
100
AcDbSpline
210
0.0
220
0.0
230
1.0
 70
     8
 71
     3
 72
     9
 73
     5
 74
     0
 42
0.00000001
 43
0.00000001
 40
0.0
 40
0.0
 40
0.0
 40
0.0
 40
0.5610244068550052
 40
1.0
 40
1.0
 40
1.0
 40
1.0
 10
2.22456546043923
 20
5.346504849895707
 30
0.0
 10
2.229067614059729
 20
5.347359870070067
 30
0.0
 10
2.237092494199502
 20
5.348883903898027
 30
0.0
 10
2.245012723125799
 20
5.347007598994212
 30
0.0
 10
2.248489510316565
 20
5.346183946936139
 30
0.0
  0
SPLINE
  5
369
330
1F
100
AcDbEntity
  8
0
  6
Continuous
 62
     7
370
     0
100
AcDbSpline
210
0.0
220
0.0
230
1.0
 70
     8
 71
     3
 72
     9
 73
     5
 74
     0
 42
0.00000001
 43
0.00000001
 40
0.0
 40
0.0
 40
0.0
 40
0.0
 40
0.5598605570511223
 40
1.0
 40
1.0
 40
1.0
 40
1.0
 10
2.249913560740813
 20
5.326033939710742
 30
0.0
 10
2.249191267729405
 20
5.328551791354403
 30
0.0
 10
2.247901137531249
 20
5.333049074851073
 30
0.0
 10
2.243798161239346
 20
5.33517398144765
 30
0.0
 10
2.241992279539796
 20
5.336109236653385
 30
0.0
  0
SPLINE
  5
36A
330
1F
100
AcDbEntity
  8
0
  6
Continuous
 62
     7
370
     0
100
AcDbSpline
210
0.0
220
0.0
230
1.0
 70
     8
 71
     3
 72
     9
 73
     5
 74
     0
 42
0.00000001
 43
0.00000001
 40
0.0
 40
0.0
 40
0.0
 40
0.0
 40
0.5580868267971738
 40
1.0
 40
1.0
 40
1.0
 40
1.0
 10
2.241992279539796
 20
5.336109236653385
 30
0.0
 10
2.239204220274725
 20
5.336674850528712
 30
0.0
 10
2.234208475650056
 20
5.337688337764329
 30
0.0
 10
2.229212107098455
 20
5.336753498455331
 30
0.0
 10
2.227004146017327
 20
5.336340380649857
 30
0.0
  0
SPLINE
  5
36B
330
1F
100
AcDbEntity
  8
0
  6
Continuous
 62
     7
370
     0
100
AcDbSpline
210
0.0
220
0.0
230
1.0
 70
     8
 71
     3
 72
    10
 73
     6
 74
     0
 42
0.00000001
 43
0.00000001
 40
0.0
 40
0.0
 40
0.0
 40
0.0
 40
0.2805707143599911
 40
0.5609765059393294
 40
1.0
 40
1.0
 40
1.0
 40
1.0
 10
2.248489510316565
 20
5.346183946936139
 30
0.0
 10
2.250439507968303
 20
5.345270108602881
 30
0.0
 10
2.254338357040121
 20
5.343442969101333
 30
0.0
 10
2.25994499056088
 20
5.337853463051279
 30
0.0
 10
2.26140925229025
 20
5.33243653541113
 30
0.0
 10
2.262302801265082
 20
5.329130917267526
 30
0.0
  0
SPLINE
  5
36C
330
1F
100
AcDbEntity
  8
0
  6
Continuous
 62
     7
370
     0
100
AcDbSpline
210
0.0
220
0.0
230
1.0
 70
     8
 71
     3
 72
    10
 73
     6
 74
     0
 42
0.00000001
 43
0.00000001
 40
0.0
 40
0.0
 40
0.0
 40
0.0
 40
0.2808479183813279
 40
0.5609957783001205
 40
1.0
 40
1.0
 40
1.0
 40
1.0
 10
2.262302801265082
 20
5.329130917267526
 30
0.0
 10
2.262665395146305
 20
5.325942354960742
 30
0.0
 10
2.263389679085369
 20
5.31957317834992
 30
0.0
 10
2.259234202407001
 20
5.308446559815618
 30
0.0
 10
2.252617598785749
 20
5.303417560555723
 30
0.0
 10
2.248578513038398
 20
5.30034762310793
 30
0.0
  0
SPLINE
  5
36D
330
1F
100
AcDbEntity
  8
0
  6
Continuous
 62
     7
370
     0
100
AcDbSpline
210
0.0
220
0.0
230
1.0
 70
     8
 71
     3
 72
    10
 73
     6
 74
     0
 42
0.00000001
 43
0.00000001
 40
0.0
 40
0.0
 40
0.0
 40
0.0
 40
0.2802029233211445
 40
0.5600967024144883
 40
0.9999999999999999
 40
0.9999999999999999
 40
0.9999999999999999
 40
0.9999999999999999
 10
2.247172264075172
 20
5.311704185249289
 30
0.0
 10
2.247957102840969
 20
5.312879574891827
 30
0.0
 10
2.249525914470197
 20
5.315229057384856
 30
0.0
 10
2.250737183461095
 20
5.320224926614018
 30
0.0
 10
2.250225981395888
 20
5.323830436052664
 30
0.0
 10
2.249913560740813
 20
5.326033939710742
 30
0.0
  0
SPLINE
  5
36E
330
1F
100
AcDbEntity
  8
0
  6
Continuous
 62
     7
370
     0
100
AcDbSpline
210
0.0
220
0.0
230
1.0
 70
     8
 71
     3
 72
     9
 73
     5
 74
     0
 42
0.00000001
 43
0.00000001
 40
0.0
 40
0.0
 40
0.0
 40
0.0
 40
0.561905665096809
 40
1.0
 40
1.0
 40
1.0
 40
1.0
 10
2.231080492677022
 20
5.304067633467386
 30
0.0
 10
2.234489870887822
 20
5.304711510196161
 30
0.0
 10
2.240557398628822
 20
5.305857390668223
 30
0.0
 10
2.24515714239097
 20
5.309923045082654
 30
0.0
 10
2.247172264075172
 20
5.311704185249289
 30
0.0
  0
SPLINE
  5
36F
330
1F
100
AcDbEntity
  8
0
  6
Continuous
 62
     7
370
     0
100
AcDbSpline
210
0.0
220
0.0
230
1.0
 70
     8
 71
     3
 72
    11
 73
     7
 74
     0
 42
0.00000001
 43
0.00000001
 40
0.0
 40
0.0
 40
0.0
 40
0.0
 40
0.2809883917789607
 40
0.560950556023084
 40
0.7806575221507838
 40
0.9999999999999999
 40
0.9999999999999999
 40
0.9999999999999999
 40
0.9999999999999999
 10
2.482559413404404
 20
5.032171307770276
 30
0.0
 10
2.483453536669907
 20
5.034720615402918
 30
0.0
 10
2.485238517678416
 20
5.039809920071167
 30
0.0
 10
2.484932790262758
 20
5.047415168747514
 30
0.0
 10
2.482047803511978
 20
5.054030595772621
 30
0.0
 10
2.47831743928685
 20
5.056155447773686
 30
0.0
 10
2.476453805603573
 20
5.05721699177373
 30
0.0
  0
SPLINE
  5
370
330
1F
100
AcDbEntity
  8
0
  6
Continuous
 62
     7
370
     0
100
AcDbSpline
210
0.0
220
0.0
230
1.0
 70
     8
 71
     3
 72
     9
 73
     5
 74
     0
 42
0.00000001
 43
0.00000001
 40
0.0
 40
0.0
 40
0.0
 40
0.0
 40
0.5597384824249049
 40
1.0
 40
1.0
 40
1.0
 40
1.0
 10
2.491673339786215
 20
5.028433697614134
 30
0.0
 10
2.489119021440706
 20
5.023046905010096
 30
0.0
 10
2.484555607586358
 20
5.013423138245479
 30
0.0
 10
2.477237150475938
 20
5.005713821459516
 30
0.0
 10
2.474015115442196
 20
5.00231970595186
 30
0.0
  0
SPLINE
  5
371
330
1F
100
AcDbEntity
  8
0
  6
Continuous
 62
     7
370
     0
100
AcDbSpline
210
0.0
220
0.0
230
1.0
 70
     8
 71
     3
 72
    10
 73
     6
 74
     0
 42
0.00000001
 43
0.00000001
 40
0.0
 40
0.0
 40
0.0
 40
0.0
 40
0.2808941727712155
 40
0.5594628818296611
 40
1.0
 40
1.0
 40
1.0
 40
1.0
 10
2.476453805603573
 20
5.05721699177373
 30
0.0
 10
2.474576171771798
 20
5.057857535431658
 30
0.0
 10
2.4708364486434
 20
5.059133319821439
 30
0.0
 10
2.463674847308605
 20
5.057139313307307
 30
0.0
 10
2.460560856284354
 20
5.053070067846066
 30
0.0
 10
2.458653169571372
 20
5.050577175144126
 30
0.0
  0
SPLINE
  5
372
330
1F
100
AcDbEntity
  8
0
  6
Continuous
 62
     7
370
     0
100
AcDbSpline
210
0.0
220
0.0
230
1.0
 70
     8
 71
     3
 72
     9
 73
     5
 74
     0
 42
0.00000001
 43
0.00000001
 40
0.0
 40
0.0
 40
0.0
 40
0.0
 40
0.559028189458176
 40
1.0
 40
1.0
 40
1.0
 40
1.0
 10
2.460913845122522
 20
5.008585820231841
 30
0.0
 10
2.466100079578994
 20
5.011966814999052
 30
0.0
 10
2.475377312023208
 20
5.018014801184666
 30
0.0
 10
2.480361518743043
 20
5.027839078441198
 30
0.0
 10
2.482559413404404
 20
5.032171307770276
 30
0.0
  0
SPLINE
  5
373
330
1F
100
AcDbEntity
  8
0
  6
Continuous
 62
     7
370
     0
100
AcDbSpline
210
0.0
220
0.0
230
1.0
 70
     8
 71
     3
 72
    11
 73
     7
 74
     0
 42
0.00000001
 43
0.00000001
 40
0.0
 40
0.0
 40
0.0
 40
0.0
 40
0.2783078697804762
 40
0.5578755630218927
 40
0.7787497779908253
 40
1.0
 40
1.0
 40
1.0
 40
1.0
 10
2.480031734271035
 20
5.069054615024497
 30
0.0
 10
2.483865601966921
 20
5.066728105903715
 30
0.0
 10
2.491550692227144
 20
5.062064556192905
 30
0.0
 10
2.495346432321523
 20
5.049625206091298
 30
0.0
 10
2.495111937362507
 20
5.038281040902235
 30
0.0
 10
2.492820188654872
 20
5.031718005899317
 30
0.0
 10
2.491673339786215
 20
5.028433697614134
 30
0.0
  0
SPLINE
  5
374
330
1F
100
AcDbEntity
  8
0
  6
Continuous
 62
     7
370
     0
100
AcDbSpline
210
0.0
220
0.0
230
1.0
 70
     8
 71
     3
 72
     9
 73
     5
 74
     0
 42
0.00000001
 43
0.00000001
 40
0.0
 40
0.0
 40
0.0
 40
0.0
 40
0.5599205559084326
 40
1.0
 40
1.0
 40
1.0
 40
1.0
 10
2.436473575791932
 20
5.039612501808968
 30
0.0
 10
2.438670261638042
 20
5.042871389598698
 30
0.0
 10
2.442593471498673
 20
5.048691657769498
 30
0.0
 10
2.446403070505189
 20
5.054586851806051
 30
0.0
 10
2.448079596718188
 20
5.05718120552047
 30
0.0
  0
SPLINE
  5
375
330
1F
100
AcDbEntity
  8
0
  6
Continuous
 62
     7
370
     0
100
AcDbSpline
210
0.0
220
0.0
230
1.0
 70
     8
 71
     3
 72
     9
 73
     5
 74
     0
 42
0.00000001
 43
0.00000001
 40
0.0
 40
0.0
 40
0.0
 40
0.0
 40
0.5600211963092442
 40
1.0
 40
1.0
 40
1.0
 40
1.0
 10
2.458653169571372
 20
5.050577175144126
 30
0.0
 10
2.456314361771538
 20
5.046944697828809
 30
0.0
 10
2.452138077346507
 20
5.040458376705152
 30
0.0
 10
2.447737347541145
 20
5.034122418207743
 30
0.0
 10
2.445801119706016
 20
5.031334730767818
 30
0.0
  0
SPLINE
  5
376
330
1F
100
AcDbEntity
  8
0
  6
Continuous
 62
     7
370
     0
100
AcDbSpline
210
0.0
220
0.0
230
1.0
 70
     8
 71
     3
 72
    10
 73
     6
 74
     0
 42
0.00000001
 43
0.00000001
 40
0.0
 40
0.0
 40
0.0
 40
0.0
 40
0.2803538032718286
 40
0.5607363745845452
 40
1.0
 40
1.0
 40
1.0
 40
1.0
 10
2.436740597707272
 20
5.085911700290009
 30
0.0
 10
2.433921598065964
 20
5.084310716222223
 30
0.0
 10
2.428283309516371
 20
5.081108583804325
 30
0.0
 10
2.419846737578061
 20
5.073007931569727
 30
0.0
 10
2.415790709051175
 20
5.065711538266261
 30
0.0
 10
2.41331495665561
 20
5.061257905092755
 30
0.0
  0
SPLINE
  5
377
330
1F
100
AcDbEntity
  8
0
  6
Continuous
 62
     7
370
     0
100
AcDbSpline
210
0.0
220
0.0
230
1.0
 70
     8
 71
     3
 72
     9
 73
     5
 74
     0
 42
0.00000001
 43
0.00000001
 40
0.0
 40
0.0
 40
0.0
 40
0.0
 40
0.5596189036927739
 40
1.0
 40
1.0
 40
1.0
 40
1.0
 10
2.404218840901382
 20
5.065013701705472
 30
0.0
 10
2.406922684575795
 20
5.070711246722684
 30
0.0
 10
2.411754264882628
 20
5.080892362799385
 30
0.0
 10
2.41969663814888
 20
5.088850818895843
 30
0.0
 10
2.423194309195153
 20
5.092355572516514
 30
0.0
  0
SPLINE
  5
378
330
1F
100
AcDbEntity
  8
0
  6
Continuous
 62
     7
370
     0
100
AcDbSpline
210
0.0
220
0.0
230
1.0
 70
     8
 71
     3
 72
     9
 73
     5
 74
     0
 42
0.00000001
 43
0.00000001
 40
0.0
 40
0.0
 40
0.0
 40
0.0
 40
0.5590542178591293
 40
1.0
 40
1.0
 40
1.0
 40
1.0
 10
2.416554675896764
 20
5.021883053287736
 30
0.0
 10
2.412904153994447
 20
5.024002606597519
 30
0.0
 10
2.406374336696409
 20
5.02779392636951
 30
0.0
 10
2.403346619634642
 20
5.034649079871707
 30
0.0
 10
2.40201156056674
 20
5.03767183089443
 30
0.0
  0
SPLINE
  5
379
330
1F
100
AcDbEntity
  8
0
  6
Continuous
 62
     7
370
     0
100
AcDbSpline
210
0.0
220
0.0
230
1.0
 70
     8
 71
     3
 72
    10
 73
     6
 74
     0
 42
0.00000001
 43
0.00000001
 40
0.0
 40
0.0
 40
0.0
 40
0.0
 40
0.2811077590824778
 40
0.5592589398714423
 40
1.0
 40
1.0
 40
1.0
 40
1.0
 10
2.419616380527691
 20
5.033933634078399
 30
0.0
 10
2.421357055619776
 20
5.033303563603612
 30
0.0
 10
2.42482009808377
 20
5.032050049481756
 30
0.0
 10
2.431550555811417
 20
5.033674096883728
 30
0.0
 10
2.434602486850895
 20
5.037355496184981
 30
0.0
 10
2.436473575791932
 20
5.039612501808968
 30
0.0
  0
SPLINE
  5
37A
330
1F
100
AcDbEntity
  8
0
  6
Continuous
 62
     7
370
     0
100
AcDbSpline
210
0.0
220
0.0
230
1.0
 70
     8
 71
     3
 72
    11
 73
     7
 74
     0
 42
0.00000001
 43
0.00000001
 40
0.0
 40
0.0
 40
0.0
 40
0.0
 40
0.2513670116433701
 40
0.5020560278353395
 40
0.7513444088818395
 40
0.9999999999999999
 40
0.9999999999999999
 40
0.9999999999999999
 40
0.9999999999999999
 10
2.41331495665561
 20
5.061257905092755
 30
0.0
 10
2.412411608013459
 20
5.058783959200314
 30
0.0
 10
2.410607347271112
 20
5.053842740224449
 30
0.0
 10
2.410122221703074
 20
5.045947215740683
 30
0.0
 10
2.412693346074863
 20
5.038000366035167
 30
0.0
 10
2.417310658278631
 20
5.035288062460572
 30
0.0
 10
2.419616380527691
 20
5.033933634078399
 30
0.0
  0
SPLINE
  5
37B
330
1F
100
AcDbEntity
  8
0
  6
Continuous
 62
     7
370
     0
100
AcDbSpline
210
0.0
220
0.0
230
1.0
 70
     8
 71
     3
 72
    11
 73
     7
 74
     0
 42
0.00000001
 43
0.00000001
 40
0.0
 40
0.0
 40
0.0
 40
0.0
 40
0.2807197797765933
 40
0.5600230698266836
 40
0.779695936972356
 40
1.0
 40
1.0
 40
1.0
 40
1.0
 10
2.448079596718188
 20
5.05718120552047
 30
0.0
 10
2.450197981431191
 20
5.059972582534738
 30
0.0
 10
2.454424061656082
 20
5.065541251496429
 30
0.0
 10
2.462987026840634
 20
5.070790441729957
 30
0.0
 10
2.472184515732849
 20
5.071670316297825
 30
0.0
 10
2.477413494241064
 20
5.069927348942502
 30
0.0
 10
2.480031734271035
 20
5.069054615024497
 30
0.0
  0
SPLINE
  5
37C
330
1F
100
AcDbEntity
  8
0
  6
Continuous
 62
     7
370
     0
100
AcDbSpline
210
0.0
220
0.0
230
1.0
 70
     8
 71
     3
 72
     9
 73
     5
 74
     0
 42
0.00000001
 43
0.00000001
 40
0.0
 40
0.0
 40
0.0
 40
0.0
 40
0.5586615412897776
 40
1.0
 40
1.0
 40
1.0
 40
1.0
 10
2.40201156056674
 20
5.03767183089443
 30
0.0
 10
2.401099588868977
 20
5.042898527939903
 30
0.0
 10
2.399467166319078
 20
5.052254276741595
 30
0.0
 10
2.402763876091574
 20
5.061106760269506
 30
0.0
 10
2.404218840901382
 20
5.065013701705472
 30
0.0
  0
SPLINE
  5
37D
330
1F
100
AcDbEntity
  8
0
  6
Continuous
 62
     7
370
     0
100
AcDbSpline
210
0.0
220
0.0
230
1.0
 70
     8
 71
     3
 72
    11
 73
     7
 74
     0
 42
0.00000001
 43
0.00000001
 40
0.0
 40
0.0
 40
0.0
 40
0.0
 40
0.2805827399191385
 40
0.5598699941825189
 40
0.7795333718324041
 40
1.0
 40
1.0
 40
1.0
 40
1.0
 10
2.445801119706016
 20
5.031334730767818
 30
0.0
 10
2.44376017424062
 20
5.028949174374917
 30
0.0
 10
2.43968770661069
 20
5.024189076001793
 30
0.0
 10
2.431833291302666
 20
5.019727406353067
 30
0.0
 10
2.423550366299326
 20
5.019435719838262
 30
0.0
 10
2.418889408160616
 20
5.021066283528628
 30
0.0
 10
2.416554675896764
 20
5.021883053287736
 30
0.0
  0
SPLINE
  5
37E
330
1F
100
AcDbEntity
  8
0
  6
Continuous
 62
     7
370
     0
100
AcDbSpline
210
0.0
220
0.0
230
1.0
 70
     8
 71
     3
 72
    10
 73
     6
 74
     0
 42
0.00000001
 43
0.00000001
 40
0.0
 40
0.0
 40
0.0
 40
0.0
 40
0.2806901067064254
 40
0.5606909443539452
 40
1.0
 40
1.0
 40
1.0
 40
1.0
 10
2.502507994623358
 20
5.137389932275747
 30
0.0
 10
2.501828892646553
 20
5.135652730308304
 30
0.0
 10
2.500472356311322
 20
5.132182592286382
 30
0.0
 10
2.495629771291432
 20
5.127306679592494
 30
0.0
 10
2.490948508930738
 20
5.126074004889167
 30
0.0
 10
2.488089489520493
 20
5.12532116502851
 30
0.0
  0
SPLINE
  5
37F
330
1F
100
AcDbEntity
  8
0
  6
Continuous
 62
     7
370
     0
100
AcDbSpline
210
0.0
220
0.0
230
1.0
 70
     8
 71
     3
 72
     9
 73
     5
 74
     0
 42
0.00000001
 43
0.00000001
 40
0.0
 40
0.0
 40
0.0
 40
0.0
 40
0.5578282829380896
 40
1.0
 40
1.0
 40
1.0
 40
1.0
 10
2.492219226813415
 20
5.143637860099152
 30
0.0
 10
2.492579124674415
 20
5.146837093606087
 30
0.0
 10
2.493224301464492
 20
5.15257225190621
 30
0.0
 10
2.492120073597767
 20
5.158226519021799
 30
0.0
 10
2.49163181526591
 20
5.160726676021025
 30
0.0
  0
SPLINE
  5
380
330
1F
100
AcDbEntity
  8
0
  6
Continuous
 62
     7
370
     0
100
AcDbSpline
210
0.0
220
0.0
230
1.0
 70
     8
 71
     3
 72
     9
 73
     5
 74
     0
 42
0.00000001
 43
0.00000001
 40
0.0
 40
0.0
 40
0.0
 40
0.0
 40
0.5610914217351022
 40
1.0
 40
1.0
 40
1.0
 40
1.0
 10
2.502027373508867
 20
5.161759197426584
 30
0.0
 10
2.502942972475136
 20
5.157204984852843
 30
0.0
 10
2.504574790269528
 20
5.149088281589661
 30
0.0
 10
2.503138426849788
 20
5.14095826590234
 30
0.0
 10
2.502507994623358
 20
5.137389932275747
 30
0.0
  0
SPLINE
  5
381
330
1F
100
AcDbEntity
  8
0
  6
Continuous
 62
     7
370
     0
100
AcDbSpline
210
0.0
220
0.0
230
1.0
 70
     8
 71
     3
 72
    10
 73
     6
 74
     0
 42
0.00000001
 43
0.00000001
 40
0.0
 40
0.0
 40
0.0
 40
0.0
 40
0.2804494554887952
 40
0.5604665622815964
 40
1.0
 40
1.0
 40
1.0
 40
1.0
 10
2.488089489520493
 20
5.12532116502851
 30
0.0
 10
2.485944713494463
 20
5.125112944982591
 30
0.0
 10
2.481658467888896
 20
5.124696825888578
 30
0.0
 10
2.474251913490491
 20
5.127485941145857
 30
0.0
 10
2.470520866428714
 20
5.131590042741609
 30
0.0
 10
2.468241777136293
 20
5.134097010315863
 30
0.0
  0
SPLINE
  5
382
330
1F
100
AcDbEntity
  8
0
  6
Continuous
 62
     7
370
     0
100
AcDbSpline
210
0.0
220
0.0
230
1.0
 70
     8
 71
     3
 72
     9
 73
     5
 74
     0
 42
0.00000001
 43
0.00000001
 40
0.0
 40
0.0
 40
0.0
 40
0.0
 40
0.5613779655823515
 40
0.9999999999999999
 40
0.9999999999999999
 40
0.9999999999999999
 40
0.9999999999999999
 10
2.46678213066492
 20
5.155172766846925
 30
0.0
 10
2.467234144498481
 20
5.152248626726753
 30
0.0
 10
2.468039330774527
 20
5.147039765140716
 30
0.0
 10
2.470951694271951
 20
5.142670766023372
 30
0.0
 10
2.472229121074156
 20
5.140754426742153
 30
0.0
  0
SPLINE
  5
383
330
1F
100
AcDbEntity
  8
0
  6
Continuous
 62
     7
370
     0
100
AcDbSpline
210
0.0
220
0.0
230
1.0
 70
     8
 71
     3
 72
    10
 73
     6
 74
     0
 42
0.00000001
 43
0.00000001
 40
0.0
 40
0.0
 40
0.0
 40
0.0
 40
0.2800188684496149
 40
0.559811151120961
 40
1.0
 40
1.0
 40
1.0
 40
1.0
 10
2.472229121074156
 20
5.140754426742153
 30
0.0
 10
2.473121887727612
 20
5.139915795003242
 30
0.0
 10
2.474906698625252
 20
5.138239210129782
 30
0.0
 10
2.479205951777941
 20
5.136984630184418
 30
0.0
 10
2.482321774656589
 20
5.137335544887565
 30
0.0
 10
2.484226755809789
 20
5.137550090425586
 30
0.0
  0
SPLINE
  5
384
330
1F
100
AcDbEntity
  8
0
  6
Continuous
 62
     7
370
     0
100
AcDbSpline
210
0.0
220
0.0
230
1.0
 70
     8
 71
     3
 72
     9
 73
     5
 74
     0
 42
0.00000001
 43
0.00000001
 40
0.0
 40
0.0
 40
0.0
 40
0.0
 40
0.5603304247649246
 40
1.0
 40
1.0
 40
1.0
 40
1.0
 10
2.484226755809789
 20
5.137550090425586
 30
0.0
 10
2.486237803062718
 20
5.138055927023109
 30
0.0
 10
2.489826841180313
 20
5.138958674000902
 30
0.0
 10
2.491488601402419
 20
5.142208854583127
 30
0.0
 10
2.492219226813415
 20
5.143637860099152
 30
0.0
  0
SPLINE
  5
385
330
1F
100
AcDbEntity
  8
0
  6
Continuous
 62
     7
370
     0
100
AcDbSpline
210
0.0
220
0.0
230
1.0
 70
     8
 71
     3
 72
     9
 73
     5
 74
     0
 42
0.00000001
 43
0.00000001
 40
0.0
 40
0.0
 40
0.0
 40
0.0
 40
0.5584320789193246
 40
1.0
 40
1.0
 40
1.0
 40
1.0
 10
2.45781061597129
 20
5.132494842157579
 30
0.0
 10
2.458119845228794
 20
5.135760358522393
 30
0.0
 10
2.458673590740875
 20
5.141608010346289
 30
0.0
 10
2.457605717397681
 20
5.147375039223635
 30
0.0
 10
2.45713417878555
 20
5.149921574175817
 30
0.0
  0
SPLINE
  5
386
330
1F
100
AcDbEntity
  8
0
  6
Continuous
 62
     7
370
     0
100
AcDbSpline
210
0.0
220
0.0
230
1.0
 70
     8
 71
     3
 72
     9
 73
     5
 74
     0
 42
0.00000001
 43
0.00000001
 40
0.0
 40
0.0
 40
0.0
 40
0.0
 40
0.5593328075352576
 40
0.9999999999999999
 40
0.9999999999999999
 40
0.9999999999999999
 40
0.9999999999999999
 10
2.448376281624192
 20
5.110173020021173
 30
0.0
 10
2.443976267743402
 20
5.109883201352925
 30
0.0
 10
2.43610972778452
 20
5.109365050684232
 30
0.0
 10
2.429797229348702
 20
5.113966258232683
 30
0.0
 10
2.427015518385552
 20
5.115993859445006
 30
0.0
  0
SPLINE
  5
387
330
1F
100
AcDbEntity
  8
0
  6
Continuous
 62
     7
370
     0
100
AcDbSpline
210
0.0
220
0.0
230
1.0
 70
     8
 71
     3
 72
    11
 73
     7
 74
     0
 42
0.00000001
 43
0.00000001
 40
0.0
 40
0.0
 40
0.0
 40
0.0
 40
0.2802158290272229
 40
0.5596772488427084
 40
0.7796339116266966
 40
1.0
 40
1.0
 40
1.0
 40
1.0
 10
2.467778957482825
 20
5.134007838012655
 30
0.0
 10
2.467476482628287
 20
5.130864351518663
 30
0.0
 10
2.466872347255138
 20
5.124585841561394
 30
0.0
 10
2.462188509073874
 20
5.116876000215044
 30
0.0
 10
2.455608543445611
 20
5.111916561755633
 30
0.0
 10
2.450788529496897
 20
5.110754560754041
 30
0.0
 10
2.448376281624192
 20
5.110173020021173
 30
0.0
  0
SPLINE
  5
388
330
1F
100
AcDbEntity
  8
0
  6
Continuous
 62
     7
370
     0
100
AcDbSpline
210
0.0
220
0.0
230
1.0
 70
     8
 71
     3
 72
     9
 73
     5
 74
     0
 42
0.00000001
 43
0.00000001
 40
0.0
 40
0.0
 40
0.0
 40
0.0
 40
0.5616974815834298
 40
1.0
 40
1.0
 40
1.0
 40
1.0
 10
2.424719230745796
 20
5.147322670865236
 30
0.0
 10
2.425356449560687
 20
5.143228709109518
 30
0.0
 10
2.426490901531337
 20
5.135940156303163
 30
0.0
 10
2.430333340100581
 20
5.129671083558788
 30
0.0
 10
2.432017490602342
 20
5.126923333186792
 30
0.0
  0
SPLINE
  5
389
330
1F
100
AcDbEntity
  8
0
  6
Continuous
 62
     7
370
     0
100
AcDbSpline
210
0.0
220
0.0
230
1.0
 70
     8
 71
     3
 72
    10
 73
     6
 74
     0
 42
0.00000001
 43
0.00000001
 40
0.0
 40
0.0
 40
0.0
 40
0.0
 40
0.2806790367844302
 40
0.5606187295528177
 40
0.9999999999999999
 40
0.9999999999999999
 40
0.9999999999999999
 40
0.9999999999999999
 10
2.432017490602342
 20
5.126923333186792
 30
0.0
 10
2.43304517716031
 20
5.125961360096269
 30
0.0
 10
2.435097843220117
 20
5.124039947873784
 30
0.0
 10
2.439833127372062
 20
5.12195791302192
 30
0.0
 10
2.443479106756393
 20
5.12236613578767
 30
0.0
 10
2.445706172469521
 20
5.122615489618036
 30
0.0
  0
SPLINE
  5
38A
330
1F
100
AcDbEntity
  8
0
  6
Continuous
 62
     7
370
     0
100
AcDbSpline
210
0.0
220
0.0
230
1.0
 70
     8
 71
     3
 72
    10
 73
     6
 74
     0
 42
0.00000001
 43
0.00000001
 40
0.0
 40
0.0
 40
0.0
 40
0.0
 40
0.2815473480722377
 40
0.5618878266780032
 40
1.0
 40
1.0
 40
1.0
 40
1.0
 10
2.445706172469521
 20
5.122615489618036
 30
0.0
 10
2.447223141477754
 20
5.122943622014981
 30
0.0
 10
2.45025057691627
 20
5.123598480249819
 30
0.0
 10
2.455356011590823
 20
5.126319335594628
 30
0.0
 10
2.456880800334246
 20
5.130155531344565
 30
0.0
 10
2.45781061597129
 20
5.132494842157579
 30
0.0
  0
SPLINE
  5
38B
330
1F
100
AcDbEntity
  8
0
  6
Continuous
 62
     7
370
     0
100
AcDbSpline
210
0.0
220
0.0
230
1.0
 70
     8
 71
     3
 72
     9
 73
     5
 74
     0
 42
0.00000001
 43
0.00000001
 40
0.0
 40
0.0
 40
0.0
 40
0.0
 40
0.5578790193560477
 40
1.0
 40
1.0
 40
1.0
 40
1.0
 10
2.427015518385552
 20
5.115993859445006
 30
0.0
 10
2.423669859355262
 20
5.120146673242651
 30
0.0
 10
2.41767275440202
 20
5.1275906058043
 30
0.0
 10
2.415979926671784
 20
5.136953022144842
 30
0.0
 10
2.41523149201563
 20
5.141092342838517
 30
0.0
  0
CIRCLE
  5
38C
330
1F
100
AcDbEntity
  8
0
  6
Continuous
 62
     7
370
     0
100
AcDbCircle
 10
2.2729589608
 20
5.1182426388
 30
0.0
 40
0.0690001901801827
  0
LINE
  5
38D
330
1F
100
AcDbEntity
  8
0
  6
Continuous
 62
     7
370
     0
100
AcDbLine
 10
2.7649587844
 20
3.8144043608
 30
0.0
 11
2.7649587844
 21
4.3037969206
 31
0.0
  0
LINE
  5
38E
330
1F
100
AcDbEntity
  8
0
  6
Continuous
 62
     7
370
     0
100
AcDbLine
 10
1.7809587717
 20
4.2492946036
 30
0.0
 11
1.7809587717
 21
3.8144043608
 31
0.0
  0
LINE
  5
38F
330
1F
100
AcDbEntity
  8
0
  6
Continuous
 62
     7
370
     0
100
AcDbLine
 10
1.7809587717
 20
3.8144043608
 30
0.0
 11
1.8059587696
 21
3.7894041429
 31
0.0
  0
LINE
  5
390
330
1F
100
AcDbEntity
  8
0
  6
Continuous
 62
     7
370
     0
100
AcDbLine
 10
2.7399587866
 20
3.7894041429
 30
0.0
 11
2.7649587844
 21
3.8144043608
 31
0.0
  0
LINE
  5
391
330
1F
100
AcDbEntity
  8
0
  6
Continuous
 62
     7
370
     0
100
AcDbLine
 10
1.7809587717
 20
3.5074043606
 30
0.0
 11
1.7809587717
 21
3.3574042268
 31
0.0
  0
LINE
  5
392
330
1F
100
AcDbEntity
  8
0
  6
Continuous
 62
     7
370
     0
100
AcDbLine
 10
2.7649587844
 20
3.3574042268
 30
0.0
 11
2.7649587844
 21
3.5074043606
 31
0.0
  0
LINE
  5
393
330
1F
100
AcDbEntity
  8
0
  6
Continuous
 62
     7
370
     0
100
AcDbLine
 10
1.8782087949
 20
3.7894041429
 30
0.0
 11
1.8782087949
 21
3.7854042958
 31
0.0
  0
LINE
  5
394
330
1F
100
AcDbEntity
  8
0
  6
Continuous
 62
     7
370
     0
100
AcDbLine
 10
2.6677087612
 20
3.7854042958
 30
0.0
 11
2.6677087612
 21
3.7894041429
 31
0.0
  0
LINE
  5
395
330
1F
100
AcDbEntity
  8
0
  6
Continuous
 62
     7
370
     0
100
AcDbLine
 10
2.2729587781
 20
3.8144043608
 30
0.0
 11
2.7649587844
 21
3.8144043608
 31
0.0
  0
LINE
  5
396
330
1F
100
AcDbEntity
  8
0
  6
Continuous
 62
     7
370
     0
100
AcDbLine
 10
1.7809587717
 20
3.8144043608
 30
0.0
 11
2.2729587781
 21
3.8144043608
 31
0.0
  0
LINE
  5
397
330
1F
100
AcDbEntity
  8
0
  6
Continuous
 62
     7
370
     0
100
AcDbLine
 10
2.2729587781
 20
3.7894041429
 30
0.0
 11
1.8059587696
 21
3.7894041429
 31
0.0
  0
LINE
  5
398
330
1F
100
AcDbEntity
  8
0
  6
Continuous
 62
     7
370
     0
100
AcDbLine
 10
2.7399587866
 20
3.7894041429
 30
0.0
 11
2.2729587781
 21
3.7894041429
 31
0.0
  0
LINE
  5
399
330
1F
100
AcDbEntity
  8
0
  6
Continuous
 62
     7
370
     0
100
AcDbLine
 10
2.6990432926
 20
3.3574042268
 30
0.0
 11
2.7649587844
 21
3.3574042268
 31
0.0
  0
LINE
  5
39A
330
1F
100
AcDbEntity
  8
0
  6
Continuous
 62
     7
370
     0
100
AcDbLine
 10
1.7809587717
 20
3.3574042268
 30
0.0
 11
2.6990432926
 21
3.3574042268
 31
0.0
  0
LINE
  5
39B
330
1F
100
AcDbEntity
  8
0
  6
Continuous
 62
     7
370
     0
100
AcDbLine
 10
2.6990432926
 20
3.5074043606
 30
0.0
 11
2.7649587844
 21
3.5074043606
 31
0.0
  0
LINE
  5
39C
330
1F
100
AcDbEntity
  8
0
  6
Continuous
 62
     7
370
     0
100
AcDbLine
 10
1.7809587717
 20
3.5074043606
 30
0.0
 11
2.6990432926
 21
3.5074043606
 31
0.0
  0
LINE
  5
39D
330
1F
100
AcDbEntity
  8
0
  6
Continuous
 62
     7
370
     0
100
AcDbLine
 10
1.7809587717
 20
3.5074043606
 30
0.0
 11
2.7649587844
 21
3.5074043606
 31
0.0
  0
LINE
  5
39E
330
1F
100
AcDbEntity
  8
0
  6
Continuous
 62
     7
370
     0
100
AcDbLine
 10
1.7809587717
 20
3.7854042958
 30
0.0
 11
1.7809587717
 21
3.5074043606
 31
0.0
  0
LINE
  5
39F
330
1F
100
AcDbEntity
  8
0
  6
Continuous
 62
     7
370
     0
100
AcDbLine
 10
1.7809587717
 20
3.7854042958
 30
0.0
 11
2.7649587844
 21
3.7854042958
 31
0.0
  0
LINE
  5
3A0
330
1F
100
AcDbEntity
  8
0
  6
Continuous
 62
     7
370
     0
100
AcDbLine
 10
2.7649587844
 20
3.7854042958
 30
0.0
 11
2.7649587844
 21
3.6799043679
 31
0.0
  0
SPLINE
  5
3A1
330
1F
100
AcDbEntity
  8
0
  6
Continuous
 62
     7
370
     0
100
AcDbSpline
210
0.0
220
0.0
230
1.0
 70
     8
 71
     3
 72
    17
 73
    13
 74
     0
 42
0.00000001
 43
0.00000001
 40
0.0
 40
0.0
 40
0.0
 40
0.0
 40
0.0281472567164455
 40
0.1093552891022182
 40
0.2345978357028684
 40
0.3898643353271163
 40
0.5572908154730458
 40
0.7180206297452064
 40
0.8544236976732829
 40
0.9512159224075244
 40
0.9971060472468714
 40
1.0
 40
1.0
 40
1.0
 40
1.0
 10
2.764958784436105
 20
3.612904288545125
 30
0.0
 10
2.764916774661784
 20
3.613531984903262
 30
0.0
 10
2.764753561917388
 20
3.61597065654377
 30
0.0
 10
2.764447595648405
 20
3.621205180195111
 30
0.0
 10
2.764085188027025
 20
3.629281916504593
 30
0.0
 10
2.763828846006102
 20
3.639290903875638
 30
0.0
 10
2.763789710983903
 20
3.650096429697018
 30
0.0
 10
2.763985005262546
 20
3.660478483799574
 30
0.0
 10
2.764328694647673
 20
3.669276632053517
 30
0.0
 10
2.764670808010885
 20
3.67550507157498
 30
0.0
 10
2.764880575944536
 20
3.678751998542089
 30
0.0
 10
2.764954404786223
 20
3.679839835582348
 30
0.0
 10
2.764958784436105
 20
3.679904367887824
 30
0.0
  0
LINE
  5
3A2
330
1F
100
AcDbEntity
  8
0
  6
Continuous
 62
     7
370
     0
100
AcDbLine
 10
2.7649587844
 20
3.6129042885
 30
0.0
 11
2.7649587844
 21
3.5074043606
 31
0.0
  0
LINE
  5
3A3
330
1F
100
AcDbEntity
  8
0
  6
Continuous
 62
     7
370
     0
100
AcDbLine
 10
1.7809587717
 20
3.5074043606
 30
0.0
 11
1.7809587717
 21
3.435404179
 31
0.0
  0
LINE
  5
3A4
330
1F
100
AcDbEntity
  8
0
  6
Continuous
 62
     7
370
     0
100
AcDbLine
 10
2.7649587844
 20
3.5074043606
 30
0.0
 11
2.7649587844
 21
3.435404179
 31
0.0
  0
LINE
  5
3A5
330
1F
100
AcDbEntity
  8
0
  6
Continuous
 62
     7
370
     0
100
AcDbLine
 10
1.7809587717
 20
3.3554043032
 30
0.0
 11
2.140458782
 21
3.3554043032
 31
0.0
  0
LINE
  5
3A6
330
1F
100
AcDbEntity
  8
0
  6
Continuous
 62
     7
370
     0
100
AcDbLine
 10
2.140458782
 20
3.3574042268
 30
0.0
 11
2.140458782
 21
3.3554043032
 31
0.0
  0
LINE
  5
3A7
330
1F
100
AcDbEntity
  8
0
  6
Continuous
 62
     7
370
     0
100
AcDbLine
 10
1.7809587717
 20
3.435404179
 30
0.0
 11
1.7809587717
 21
3.3554043032
 31
0.0
  0
LINE
  5
3A8
330
1F
100
AcDbEntity
  8
0
  6
Continuous
 62
     7
370
     0
100
AcDbLine
 10
2.4054587741
 20
3.3554043032
 30
0.0
 11
2.7649587844
 21
3.3554043032
 31
0.0
  0
LINE
  5
3A9
330
1F
100
AcDbEntity
  8
0
  6
Continuous
 62
     7
370
     0
100
AcDbLine
 10
2.4054587741
 20
3.3574042268
 30
0.0
 11
2.4054587741
 21
3.3554043032
 31
0.0
  0
LINE
  5
3AA
330
1F
100
AcDbEntity
  8
0
  6
Continuous
 62
     7
370
     0
100
AcDbLine
 10
2.7649587844
 20
3.435404179
 30
0.0
 11
2.7649587844
 21
3.3554043032
 31
0.0
  0
DIMENSION
  5
3AB
330
1F
100
AcDbEntity
  8
0
  6
Continuous
 62
     7
370
     0
100
AcDbDimension
  2
*D25
 10
2.130355345
 20
4.8714851621
 30
0.0
 11
1.7213211632
 21
5.9596025533
 31
0.0
 70
   163
  1
SPRING LOADED THUMBSCREW\P5.0 mm HEX SOCKET
 71
     1
 42
-1.0
  3
SLDDIMSTYLE3
100
AcDbDiametricDimension
 15
2.4155622111
 25
5.3650001502
 35
0.0
 40
0.0
  0
DIMENSION
  5
3B4
330
1F
100
AcDbEntity
  8
0
  6
Continuous
 62
     7
370
     0
100
AcDbDimension
  2
*D26
 10
1.207173492
 20
5.1182426562
 30
0.0
 11
1.207173492
 21
4.23782346
 31
0.0
 70
   160
  1
144.3 mm\P(5.68")
 71
     2
 42
-1.0
  3
SLDDIMSTYLE2
100
AcDbAlignedDimension
 13
1.7809587781
 23
3.3574042638
 33
0.0
 14
2.2229587781
 24
5.1182426562
 34
0.0
 50
90.0
100
AcDbRotatedDimension
  0
INSERT
  5
3CD
330
1F
100
AcDbEntity
  8
0
  6
Continuous
 62
     7
370
     0
100
AcDbBlockReference
  2
SW_CENTERMARKSYMBOL_3
 10
2.2729587781
 20
5.1182425268
 30
0.0
  0
LINE
  5
3CE
330
1F
100
AcDbEntity
  8
0
  6
HIDDEN
 62
     7
370
     0
100
AcDbLine
 10
2.8349587844
 20
4.2765457455
 30
0.0
 11
2.6326989387
 21
4.355285903
 31
0.0
  0
LINE
  5
3CF
330
1F
100
AcDbEntity
  8
0
  6
HIDDEN
 62
     7
370
     0
100
AcDbLine
 10
2.6326989387
 20
4.355285903
 30
0.0
 11
2.4752186238
 21
4.197805588
 31
0.0
  0
LINE
  5
3D0
330
1F
100
AcDbEntity
  8
0
  6
HIDDEN
 62
     7
370
     0
100
AcDbLine
 10
2.4752186238
 20
4.197805588
 30
0.0
 11
2.0706989324
 21
4.355285903
 31
0.0
  0
LINE
  5
3D1
330
1F
100
AcDbEntity
  8
0
  6
HIDDEN
 62
     7
370
     0
100
AcDbLine
 10
2.0706989324
 20
4.355285903
 30
0.0
 11
1.9132186174
 21
4.197805588
 31
0.0
  0
LINE
  5
3D2
330
1F
100
AcDbEntity
  8
0
  6
HIDDEN
 62
     7
370
     0
100
AcDbLine
 10
1.9132186174
 20
4.197805588
 30
0.0
 11
1.7109587717
 21
4.2765457455
 31
0.0
  0
LINE
  5
3D3
330
1F
100
AcDbEntity
  8
0
  6
HIDDEN
 62
     7
370
     0
100
AcDbLine
 10
2.8349587844
 20
4.5765457455
 30
0.0
 11
2.6326989387
 21
4.655285903
 31
0.0
  0
LINE
  5
3D4
330
1F
100
AcDbEntity
  8
0
  6
HIDDEN
 62
     7
370
     0
100
AcDbLine
 10
2.6326989387
 20
4.655285903
 30
0.0
 11
2.4752186238
 21
4.497805588
 31
0.0
  0
LINE
  5
3D5
330
1F
100
AcDbEntity
  8
0
  6
HIDDEN
 62
     7
370
     0
100
AcDbLine
 10
2.4752186238
 20
4.497805588
 30
0.0
 11
2.0706989324
 21
4.655285903
 31
0.0
  0
LINE
  5
3D6
330
1F
100
AcDbEntity
  8
0
  6
HIDDEN
 62
     7
370
     0
100
AcDbLine
 10
2.0706989324
 20
4.655285903
 30
0.0
 11
1.9132186174
 21
4.497805588
 31
0.0
  0
LINE
  5
3D7
330
1F
100
AcDbEntity
  8
0
  6
HIDDEN
 62
     7
370
     0
100
AcDbLine
 10
1.9132186174
 20
4.497805588
 30
0.0
 11
1.7109587717
 21
4.5765457455
 31
0.0
  0
OLE2FRAME
  5
3D8
330
1F
100
AcDbEntity
  8
0
100
AcDbOle2Frame
 70
     2
  3
Bitmap Image
 10
9.0178120406
 20
1.3267570784
 30
0.0
 11
10.4397105087
 21
1.1242314806
 31
0.0
 71
     2
 72
     0
 73
     1
 90
     7296
310
8055C64EE7A81E092240C05F59A1653AF53F0000000000000000FD155DBC21E1
310
2440C05F59A1653AF53F0000000000000000FD155DBC21E12440A1732426DAFC
310
F13F0000000000000000C64EE7A81E092240A1732426DAFCF13F000000000000
310
00000000000001000000000100000100000001000000000001000000001C0000
310
D0CF11E0A1B11AE1000000000000000000000000000000003E000300FEFF0900
310
0600000000000000000000000100000001000000000000000010000002000000
310
01000000FEFFFFFF0000000000000000FFFFFFFFFFFFFFFFFFFFFFFFFFFFFFFF
310
FFFFFFFFFFFFFFFFFFFFFFFFFFFFFFFFFFFFFFFFFFFFFFFFFFFFFFFFFFFFFFFF
310
FFFFFFFFFFFFFFFFFFFFFFFFFFFFFFFFFFFFFFFFFFFFFFFFFFFFFFFFFFFFFFFF
310
FFFFFFFFFFFFFFFFFFFFFFFFFFFFFFFFFFFFFFFFFFFFFFFFFFFFFFFFFFFFFFFF
310
FFFFFFFFFFFFFFFFFFFFFFFFFFFFFFFFFFFFFFFFFFFFFFFFFFFFFFFFFFFFFFFF
310
FFFFFFFFFFFFFFFFFFFFFFFFFFFFFFFFFFFFFFFFFFFFFFFFFFFFFFFFFFFFFFFF
310
FFFFFFFFFFFFFFFFFFFFFFFFFFFFFFFFFFFFFFFFFFFFFFFFFFFFFFFFFFFFFFFF
310
FFFFFFFFFFFFFFFFFFFFFFFFFFFFFFFFFFFFFFFFFFFFFFFFFFFFFFFFFFFFFFFF
310
FFFFFFFFFFFFFFFFFFFFFFFFFFFFFFFFFFFFFFFFFFFFFFFFFFFFFFFFFFFFFFFF
310
FFFFFFFFFFFFFFFFFFFFFFFFFFFFFFFFFFFFFFFFFFFFFFFFFFFFFFFFFFFFFFFF
310
FFFFFFFFFFFFFFFFFFFFFFFFFFFFFFFFFFFFFFFFFFFFFFFFFFFFFFFFFFFFFFFF
310
FFFFFFFFFFFFFFFFFFFFFFFFFFFFFFFFFFFFFFFFFFFFFFFFFFFFFFFFFFFFFFFF
310
FFFFFFFFFFFFFFFFFFFFFFFFFFFFFFFFFFFFFFFFFFFFFFFFFFFFFFFFFFFFFFFF
310
FFFFFFFFFFFFFFFFFFFFFFFFFFFFFFFFFFFFFFFFFFFFFFFFFFFFFFFFFFFFFFFF
310
FDFFFFFFFEFFFFFFFEFFFFFFFEFFFFFF05000000060000000700000008000000
310
090000000A0000000B0000000C000000FEFFFFFFFFFFFFFFFFFFFFFFFFFFFFFF
310
FFFFFFFFFFFFFFFFFFFFFFFFFFFFFFFFFFFFFFFFFFFFFFFFFFFFFFFFFFFFFFFF
310
FFFFFFFFFFFFFFFFFFFFFFFFFFFFFFFFFFFFFFFFFFFFFFFFFFFFFFFFFFFFFFFF
310
FFFFFFFFFFFFFFFFFFFFFFFFFFFFFFFFFFFFFFFFFFFFFFFFFFFFFFFFFFFFFFFF
310
FFFFFFFFFFFFFFFFFFFFFFFFFFFFFFFFFFFFFFFFFFFFFFFFFFFFFFFFFFFFFFFF
310
FFFFFFFFFFFFFFFFFFFFFFFFFFFFFFFFFFFFFFFFFFFFFFFFFFFFFFFFFFFFFFFF
310
FFFFFFFFFFFFFFFFFFFFFFFFFFFFFFFFFFFFFFFFFFFFFFFFFFFFFFFFFFFFFFFF
310
FFFFFFFFFFFFFFFFFFFFFFFFFFFFFFFFFFFFFFFFFFFFFFFFFFFFFFFFFFFFFFFF
310
FFFFFFFFFFFFFFFFFFFFFFFFFFFFFFFFFFFFFFFFFFFFFFFFFFFFFFFFFFFFFFFF
310
FFFFFFFFFFFFFFFFFFFFFFFFFFFFFFFFFFFFFFFFFFFFFFFFFFFFFFFFFFFFFFFF
310
FFFFFFFFFFFFFFFFFFFFFFFFFFFFFFFFFFFFFFFFFFFFFFFFFFFFFFFFFFFFFFFF
310
FFFFFFFFFFFFFFFFFFFFFFFFFFFFFFFFFFFFFFFFFFFFFFFFFFFFFFFFFFFFFFFF
310
FFFFFFFFFFFFFFFFFFFFFFFFFFFFFFFFFFFFFFFFFFFFFFFFFFFFFFFFFFFFFFFF
310
FFFFFFFFFFFFFFFFFFFFFFFFFFFFFFFFFFFFFFFFFFFFFFFFFFFFFFFFFFFFFFFF
310
FFFFFFFFFFFFFFFFFFFFFFFFFFFFFFFFFFFFFFFFFFFFFFFFFFFFFFFFFFFFFFFF
310
52006F006F007400200045006E00740072007900000000000000000000000000
310
0000000000000000000000000000000000000000000000000000000000000000
310
16000500FFFFFFFFFFFFFFFF020000000A00030000000000C000000000000046
310
000000000000000000000000908AF3A2D4FBCC0103000000C000000000000000
310
01004F006C006500000000000000000000000000000000000000000000000000
310
0000000000000000000000000000000000000000000000000000000000000000
310
0A000200FFFFFFFFFFFFFFFFFFFFFFFF00000000000000000000000000000000
310
0000000000000000000000000000000000000000000000001400000000000000
310
010043006F006D0070004F0062006A0000000000000000000000000000000000
310
0000000000000000000000000000000000000000000000000000000000000000
310
120002010100000003000000FFFFFFFF00000000000000000000000000000000
310
0000000000000000000000000000000000000000010000004D00000000000000
310
01004F006C006500310030004E00610074006900760065000000000000000000
310
0000000000000000000000000000000000000000000000000000000000000000
310
1A000200FFFFFFFFFFFFFFFFFFFFFFFF00000000000000000000000000000000
310
000000000000000000000000000000000000000004000000E411000000000000
310
FEFFFFFF02000000FEFFFFFFFFFFFFFFFFFFFFFFFFFFFFFFFFFFFFFFFFFFFFFF
310
FFFFFFFFFFFFFFFFFFFFFFFFFFFFFFFFFFFFFFFFFFFFFFFFFFFFFFFFFFFFFFFF
310
FFFFFFFFFFFFFFFFFFFFFFFFFFFFFFFFFFFFFFFFFFFFFFFFFFFFFFFFFFFFFFFF
310
FFFFFFFFFFFFFFFFFFFFFFFFFFFFFFFFFFFFFFFFFFFFFFFFFFFFFFFFFFFFFFFF
310
FFFFFFFFFFFFFFFFFFFFFFFFFFFFFFFFFFFFFFFFFFFFFFFFFFFFFFFFFFFFFFFF
310
FFFFFFFFFFFFFFFFFFFFFFFFFFFFFFFFFFFFFFFFFFFFFFFFFFFFFFFFFFFFFFFF
310
FFFFFFFFFFFFFFFFFFFFFFFFFFFFFFFFFFFFFFFFFFFFFFFFFFFFFFFFFFFFFFFF
310
FFFFFFFFFFFFFFFFFFFFFFFFFFFFFFFFFFFFFFFFFFFFFFFFFFFFFFFFFFFFFFFF
310
FFFFFFFFFFFFFFFFFFFFFFFFFFFFFFFFFFFFFFFFFFFFFFFFFFFFFFFFFFFFFFFF
310
FFFFFFFFFFFFFFFFFFFFFFFFFFFFFFFFFFFFFFFFFFFFFFFFFFFFFFFFFFFFFFFF
310
FFFFFFFFFFFFFFFFFFFFFFFFFFFFFFFFFFFFFFFFFFFFFFFFFFFFFFFFFFFFFFFF
310
FFFFFFFFFFFFFFFFFFFFFFFFFFFFFFFFFFFFFFFFFFFFFFFFFFFFFFFFFFFFFFFF
310
FFFFFFFFFFFFFFFFFFFFFFFFFFFFFFFFFFFFFFFFFFFFFFFFFFFFFFFFFFFFFFFF
310
FFFFFFFFFFFFFFFFFFFFFFFFFFFFFFFFFFFFFFFFFFFFFFFFFFFFFFFFFFFFFFFF
310
FFFFFFFFFFFFFFFFFFFFFFFFFFFFFFFFFFFFFFFFFFFFFFFFFFFFFFFFFFFFFFFF
310
FFFFFFFFFFFFFFFFFFFFFFFFFFFFFFFFFFFFFFFFFFFFFFFFFFFFFFFFFFFFFFFF
310
0100000200000000000000000000000000000000F8995C160000000000000000
310
0000000000000000000000000000000000000000000000000000000000000000
310
0100FEFF030A0000FFFFFFFF0A00030000000000C00000000000004607000000
310
5042727573680007000000504272757368000700000050427275736800F439B2
310
7100000000000000000000000000000000000000000000000000000000000000
310
0000000000000000000000000000000000000000000000000000000000000000
310
0000000000000000000000000000000000000000000000000000000000000000
310
0000000000000000000000000000000000000000000000000000000000000000
310
0000000000000000000000000000000000000000000000000000000000000000
310
0000000000000000000000000000000000000000000000000000000000000000
310
0000000000000000000000000000000000000000000000000000000000000000
310
0000000000000000000000000000000000000000000000000000000000000000
310
0000000000000000000000000000000000000000000000000000000000000000
310
0000000000000000000000000000000000000000000000000000000000000000
310
0000000000000000000000000000000000000000000000000000000000000000
310
0000000000000000000000000000000000000000000000000000000000000000
310
E0110000424DDE11000000000000360400002800000096000000170000000100
310
08000000000000000000E7240000E72400000001000000010000000000FF0101
310
01FF020202FF030303FF040404FF050505FF060606FF070707FF080808FF0909
310
09FF0A0A0AFF0B0B0BFF0C0C0CFF0D0D0DFF0E0E0EFF0F0F0FFF101010FF1111
310
11FF121212FF131313FF141414FF151515FF161616FF171717FF181818FF1919
310
19FF1A1A1AFF1B1B1BFF1C1C1CFF1D1D1DFF1E1E1EFF1F1F1FFF202020FF2121
310
21FF222222FF232323FF242424FF252525FF262626FF272727FF282828FF2929
310
29FF2A2A2AFF2B2B2BFF2C2C2CFF2D2D2DFF2E2E2EFF2F2F2FFF303030FF3131
310
31FF323232FF333333FF343434FF353535FF363636FF373737FF383838FF3939
310
39FF3A3A3AFF3B3B3BFF3C3C3CFF3D3D3DFF3E3E3EFF3F3F3FFF404040FF4141
310
41FF424242FF434343FF444444FF454545FF464646FF474747FF484848FF4949
310
49FF4A4A4AFF4B4B4BFF4C4C4CFF4D4D4DFF4E4E4EFF4F4F4FFF505050FF5151
310
51FF525252FF535353FF545454FF555555FF565656FF575757FF585858FF5959
310
59FF5A5A5AFF5B5B5BFF5C5C5CFF5D5D5DFF5E5E5EFF5F5F5FFF606060FF6161
310
61FF626262FF636363FF646464FF656565FF666666FF676767FF686868FF6969
310
69FF6A6A6AFF6B6B6BFF6C6C6CFF6D6D6DFF6E6E6EFF6F6F6FFF707070FF7171
310
71FF727272FF737373FF747474FF757575FF767676FF777777FF787878FF7979
310
79FF7A7A7AFF7B7B7BFF7C7C7CFF7D7D7DFF7E7E7EFF7F7F7FFF808080FF8181
310
81FF828282FF838383FF848484FF858585FF868686FF878787FF888888FF8989
310
89FF8A8A8AFF8B8B8BFF8C8C8CFF8D8D8DFF8E8E8EFF8F8F8FFF909090FF9191
310
91FF929292FF939393FF949494FF959595FF969696FF979797FF989898FF9999
310
99FF9A9A9AFF9B9B9BFF9C9C9CFF9D9D9DFF9E9E9EFF9F9F9FFFA0A0A0FFA1A1
310
A1FFA2A2A2FFA3A3A3FFA4A4A4FFA5A5A5FFA6A6A6FFA7A7A7FFA8A8A8FFA9A9
310
A9FFAAAAAAFFABABABFFACACACFFADADADFFAEAEAEFFAFAFAFFFB0B0B0FFB1B1
310
B1FFB2B2B2FFB3B3B3FFB4B4B4FFB5B5B5FFB6B6B6FFB7B7B7FFB8B8B8FFB9B9
310
B9FFBABABAFFBBBBBBFFBCBCBCFFBDBDBDFFBEBEBEFFBFBFBFFFC0C0C0FFC1C1
310
C1FFC2C2C2FFC3C3C3FFC4C4C4FFC5C5C5FFC6C6C6FFC7C7C7FFC8C8C8FFC9C9
310
C9FFCACACAFFCBCBCBFFCCCCCCFFCDCDCDFFCECECEFFCFCFCFFFD0D0D0FFD1D1
310
D1FFD2D2D2FFD3D3D3FFD4D4D4FFD5D5D5FFD6D6D6FFD7D7D7FFD8D8D8FFD9D9
310
D9FFDADADAFFDBDBDBFFDCDCDCFFDDDDDDFFDEDEDEFFDFDFDFFFE0E0E0FFE1E1
310
E1FFE2E2E2FFE3E3E3FFE4E4E4FFE5E5E5FFE6E6E6FFE7E7E7FFE8E8E8FFE9E9
310
E9FFEAEAEAFFEBEBEBFFECECECFFEDEDEDFFEEEEEEFFEFEFEFFFF0F0F0FFF1F1
310
F1FFF2F2F2FFF3F3F3FFF4F4F4FFF5F5F5FFF6F6F6FFF7F7F7FFF8F8F8FFF9F9
310
F9FFFAFAFAFFFBFBFBFFFCFCFCFFFDFDFDFFFEFEFEFFFFFFFFFFFFFFFFFFFFFF
310
C94E4E4E4F4E4EFFFFFFFFFFC94E4E4E4E4E72FFFFFFFFFFFFFF734E4D4E4E4E
310
C9FFFFFFFFFFAA683516171616265B9BE9FFFFFFFFFF4E4E4E4D4E4EFFFFFFFF
310
FFFFFFFF4E4E4F4E4D4E4E4E4F4E4E4F4D4E4E4E4E4E4D4E4F4E4D4E4E4EAAFF
310
FFFFFFFFFFEA4E4F4F4E4E4E4E4E4D4D4F4F4E4E4E4E4E5B7FAAFFFFFFFFFFFF
310
C9744E1716171616164D8DEAFFFFFFFF0000FFFFFFFFFFFFBA161617161716FF
310
FFFFFFFFB917171616174FFFFFFFFFFFFFFF4E1716161616B9FFFFFFB9341717
310
1716171617171616268CFFFFFFFF161617161617FFFFFFFFFFFFFFB917161717
310
1617167F807F7F7F7F7F7F807F7F807F7F807F7F7F414EFFFFFFFFFFFF8C167F
310
7F807F7F7F7E7F7F807F807F7F807F4E3417258EFFFFEA4E162674AABAEAEBBA
310
AA74341680FFFFFF0000FFFFFFFFFFFFB9171717171617FFFFFFFFFFBB161616
310
16164EFFFFFFFFFFFFFF4E1717171717B9FFFF9C171617171716161616171616
310
171766FFFFFF161717161617FFFFFFFFFFFFFF8E16171717161616FFFFFFFFFF
310
FFFFFFFFFFFFFFFFFFFFFFFFFFAA16D9FFFFFFFFFF3467FFFFFFFFEAFFFFFFFF
310
FFFFFFFFFFFFFFFFFFCA671667EB26278DFFFFFFFFFFFFFFFFFFFF8C2541EAFF
310
0000FFFFFFFFFFFFB9171717171716FFFFFFFFFFBA16171617174EFFFFFFFFFF
310
FFFF4E1717161616BAFF9B1617161616171716171617161616161667FFFF1616
310
16161716FFFFFFFFFFFFFF7F16161617174017FFFFFFFFFFFFFFFFFFFFFFFFFF
310
FFFFFFFFFFFF344E7F7F7F7E7417DAFFFFFFFF80FFFFFFFFFFFFFFFFFFFFFFFF
310
FFFFFF9B163425CAFFFFFFFFFFFFFFFFFFFFFFFFCA2667FF0000FFFFFFFFFFFF
310
BA171717171617FFFFFFFFFFB916171716164EFFFFFFFFFFFFFF4F1716161717
310
B9C91716171616161716161617171616161617168DFF161716161717FFFFFFFF
310
FFFFFF7F17171716164F16FFFFFFFFFFFFFFFFFFFFFFFFFFFFFFFFFFFFFF9B16
310
17161617174EFFFFFFFFFF34FFFFFFFFD9BABABABABADAFFFFFFFFFF7F16AAFF
310
FFFFFFFFFFFFFFFFFFFFFFFFFF9C16BA0000FFFFFFFFFFFFB9161717161717FF
310
FFFFFFFFB917161716174DFFFFFFFFFFFFFF4E1616161616BA4E161617171716
310
419BEAEAAA4E16161617161726E9171717161616FFFFFFFFFFFFFF4F16161717
310
164E16FFFFFFFFFFBAB9B9B9B9B9BABABACAFFFFFFFFFFFFFFFFFFFFFFFFFFFF
310
FFFFBA16FFFFFFFF7F1617161617174DEAFFFFFFEA41FFFFFFFFFFAA4D16174E
310
9BFFFFFFFFFF34730000FFFFFFFFFFFFB9161617171617FFFFFFFFFFBA161616
310
16164EFFFFFFFFFFFFFF4F16161717169B1617161716175BFFFFFFFFFFFF7417
310
16171616168D171717161617FFFFFFFFFFFFEA2616171717167416FFFFFFFFFF
310
16171616171717171717EAFFFFFFFFFFFFFFFFFFFFFFFFFFFFFF6716FFFFFFFF
310
7F4EFFFFFFFFBA2573FFFFFFFFBAFFFFFFFFAA167FB9BB9B269BFFFFFFFF664F
310
0000FFFFFFFFFFFFB9171616161616FFFFFFFFFFBA16161717164EFFFFFFFFFF
310
FFFF4E16161616174E161617171626EAFFFFFFFFFFFFFF4E16161616164E1716
310
16161617FFFFFFFFFFFF671616161716347F16FFFFFFFFFF16B9FFFFFFFFFFFF
310
D9168DFFFFFFFFFFFFFFFFFFFFFFFFFFFFEA1716FFFFFFFF7F4EFFFFFFFFFF7F
310
4EFFFFFFFFFFFFFFFFFF5B66FFFFFFEA347FFFFFFFFF7F4D0000FFFFFFFFFFFF
310
B9171616171617FFFFFFFFFFBA17161716174EFFFFFFFFFFFFFF4D1716161617
310
17161716161673FFFFFFFFFFFFFFFF9B1617161717161616171616174F4E4E4E
310
4E341616171616167E7F16FFFFFFFFFF16BAFFFFFFFFFFFFFF5B41FFFFFFFF34
310
1616171616BAFFFFFF9B1716FFFFFFFF7F4EFFFFFFFFFF4E4EFFFFFFFF734E4E
310
4E4E267EDA9B67164EEAFFFFFFFF744D0000FFFFFFFFFFFFBA171717161617FF
310
FFFFFFFFBA1616171616347F7F7F7F80807F331616161717161717161716B9FF
310
FFFFFFFFFFFFFFE9161616161616171716161716171616161616171616171734
310
EA7F16FFFFFFFFFF16BAFFFFFFFFFFFFFFAA17C9FFFFFF7326BABA5B25FFFFFF
310
FF401716FFFFFFFF7F264F4E4E4E4217AAFFFFFFEA16677F73261616164173CA
310
FFFFFFFFFFFF417F0000FFFFFFFFFFFFBA171616171617FFFFFFFFFFBA161616
310
17171616161616161616161717161616161616161617EAFFFFFFFFFFFFFFFFFF
310
261717161716161617161616161617161617161616174EEAFF8016FFFFFFFFFF
310
17BAFFFFFFFFFFFFFFFF3467FFFFFFC916C9FF3467FFFFFFDA166716FFFFFFFF
310
9C4D4E4E4E4E67AAFFFFFFFF6834FF7F262567AAEAFFFFFFFFFFFFFFFF9B17D9
310
0000FFFFFFFFFFFFB9161616161616FFFFFFFFFFBA1617161717171616161616
310
1716171716161716161617171716FFFFFFFFFFFFFFFFFFFF4E17161716171616
310
1617171616161716171717161616169BFF7F17FFFFFFFFFF17B9FFFFFFFFFFFF
310
FFFF7326FFFFFFFF3473DA16AAFFFFFF7317AA16FFFFFFFFFFFFFFFFFFFFFFFF
310
FFFFEA6725BA4E167FEAFFFFFFFFFFFFFFFFFFFF9C167FFF0000FFFFFFFFFFFF
310
B9161717171716FFFFFFFFFFBA16161716171616171717161617161716161616
310
171617171617EAFFFFFFFFFFFFFFFFFF26161717161616161616161617171616
310
1616161616171616AA8016FFFFFFFFFF16BAFFFFFFFFFFFFFFFFDA179BFFFFFF
310
74348D26FFFFFFFF2566B917FFFFFFFFD8BAB9BAB9BADAFFFFEA41169B7425C9
310
FFFFFFFFFFFFFFFFFFFFAB4F1680FFFF0000FFFFFFFFFFFFBA161717171617FF
310
FFFFFFFFBA17161717161617171617161616161617171616171716171617BBFF
310
FFFFFFFFFFFFFFE9171616161617161617161716FFFFFFFFFFD9671616161617
310
348017FFFFFFFFFF16BAFFFFFFFFFFFFFFFFFF4E5AFFFFFFC916265AFFFFFFAA
310
16AABA16FFFFFFFF7F1617161616179BFFFFEB4127168DFFFFFFFFFFFFFFD99B
310
6734175AC9FFFFFF0000FFFFFFFFFFFFB9161617171617FFFFFFFFFFBB161616
310
1616347F807F7F7F7F8033171716171617171616161672FFFFFFFFFFFFFFFF9C
310
171617171617161716161617FFFFFFFFFFFFFF4117161616174E17FFFFFFFFFF
310
16BAFFFFFFFFFFFFFFFFFF9B16DAFFFFFF34169BFFFFFF5A26FFB917FFFFFFFF
310
7F4EFFFFFFEA5B26FFFFFFEA2616EAFFFFFFFFDA743416331617414E4E4E4ECA
310
0000FFFFFFFFFFFFBA161716161616FFFFFFFFFFBA17171616164EFFFFFFFFFF
310
FFFF4E16161717174E161717171626EBFFFFFFFFFFFFFF4E16161617165B1616
310
16171617FFFFFFFFFFFFFF6716161616161617FFFFFFFFFF16BAFFFFFFFFFFFF
310
FFFFFFEA268CFFFFFF7316EAFFFFEB1774FFB916FFFFFFFF7F4EFFFFFFFF7316
310
FFFFFFFF6826FFFFFFFFEB264D9CEABA257F807F7F6616BA0000FFFFFFFFFFFF
310
BA161716161616FFFFFFFFFFBA16171616164DFFFFFFFFFFFFFF4E1617161617
310
9B1617171717165BEBFFFFFFFFFF671616161617179B171616161616FFFFFFFF
310
FFFFFF3417161617171617FFFFFFFFFF17BAFFFFFFFFFFFFFFFFFFFF6734FFFF
310
FFEBCAFFFFFF8D17C9FFBA17FFFFFFFF7F357F808066174FFFFFFFFF7F16FFFF
310
FFFFD91673B99B415BFFFFFFFFBA16DA00009B7F7F7F807F671617161616167F
310
80807F7E6617161616164EFFFFFFFFFFFFFF4E1616161617B94E171716161616
310
349BC9D9AA4E16171616161634FF161617161717B9B9BAB9BA9B411716171716
310
163416FFFFFFFFFF16B9FFFFFFFFFFFFFFFFFFFFC917CAFFFFFFFFFFFFFF3342
310
FFFFBA17FFFFFFFF9B4E4E4F4E4E66EAFFFFFFFF5B16C9FFFFFFFFAA4E164E73
310
EAFFFFFFFF8D26FF00004E161716161616171617171616171717171617161616
310
17174EFFFFFFFFFFFFFF4E1717171616B9D92616171716171716171717171716
310
16171716AAFF161717171617161617171616161617161716166717FFFFFFFFFF
310
17B9FFFFFFFFFFFFFFFFFFFFFF3467FFFFFFFFFFFFCA168CFFFFBB17FFFFFFFF
310
FFFFFFFFFFFFFFFFFFFFFFEA26265BFFFFFFFFFFFFFFFFFFFFFFFFFFEA3467FF
310
00004D16161616161617161717161617161616171617171616164EFFFFFFFFFF
310
FFFF4D1617161616BAFF9B1616161616161716161616171717161766FFFF1616
310
16171617161617161716171616171717667F16FFFFFFFFFF17BAFFFFFFFFFFFF
310
FFFFFFFFFF8C26EAFFFFFFFFFF6617EAFFFFBA17FFFFFFFFFFFFFFFFFFFFFFFF
310
FFFFEA5A25BA269BFFFFFFFFFFFFFFFFFFFFFFFF6616DAFF00004E1616171616
310
1616161616161716161617171616171616174EFFFFFFFFFFFFFF4D1717171716
310
B9FFFF9C161616161616161716161717171667FFFFFF17161717171716161617
310
1716161616161641E97E16FFFFFFFFFF16B9FFFFFFFFFFFFFFFFFFFFFFEA169B
310
FFFFFFFFEA265BFFFFFFB916FFFFFFFFFFFFFFFFFFFFFFFFFF9B3416AAFF9B17
310
67EAFFFFFFFFFFFFFFFFEA5B169BFFFF00004D17161716161616161717171616
310
161717161716171716174EFFFFFFFFFFFFFF4D1616161616BAFFFFFFBB411616
310
161716161616171634ABFFFFFFFF161716161617171716171617171617267FFF
310
FF7F164E4E4E4E4F17BAFFFFFFFFFFFFFFFFFFFFFFFF66344D4E4E4F4117AAFF
310
FFFFBA174E4E4E4D4E4D4D4E4E4E4E4116174EBBFFFFFFCA342666ABEAFFFFEA
310
AA6725269CFFFFFF0000724F4E4D4D4D4E4D4D4E4E4E4D4E4E4E4E4E4E4E4E4D
310
4E4E74FFFFFFFFFFFFFF734E4E4E4D4ECAFFFFFFFFFFAA663416171717265B9B
310
FFFFFFFFFFFF7F8080807F80807F7F7F7F7F807FBAFFFFFFFF9B4E4E4F4D4D4E
310
4DC9FFFFFFFFFFFFFFFFFFFFFFFFBA4E4E4E4E4D4E4EFFFFFFFFC94E4E4E4F4E
310
4E4E4D4E4E5A807F9CD9FFFFFFFFFFFFFF9B5B2617171716174E8DEAFFFFFFFF
310
0000000000000000000000000000000000000000000000000000000000000000
  1
OLE
  0
ENDSEC
  0
SECTION
  2
OBJECTS
  0
DICTIONARY
  5
C
330
0
100
AcDbDictionary
281
     1
  3
ACAD_GROUP
350
D
  3
ACAD_LAYOUT
350
1A
  3
ACAD_MLINESTYLE
350
17
  3
ACAD_PLOTSETTINGS
350
19
  3
ACAD_PLOTSTYLENAME
350
E
  0
DICTIONARY
  5
D
102
{ACAD_REACTORS
330
C
102
}
330
C
100
AcDbDictionary
281
     1
  0
DICTIONARY
  5
1A
102
{ACAD_REACTORS
330
C
102
}
330
C
100
AcDbDictionary
281
     1
  3
Layout1
350
1E
  3
Layout2
350
26
  3
Model
350
22
  0
DICTIONARY
  5
17
102
{ACAD_REACTORS
330
C
102
}
330
C
100
AcDbDictionary
281
     1
  3
Standard
350
18
  0
DICTIONARY
  5
19
102
{ACAD_REACTORS
330
C
102
}
330
C
100
AcDbDictionary
281
     1
  0
ACDBDICTIONARYWDFLT
  5
E
102
{ACAD_REACTORS
330
C
102
}
330
C
100
AcDbDictionary
281
     1
  3
Normal
350
F
100
AcDbDictionaryWithDefault
340
F
  0
LAYOUT
  5
1E
102
{ACAD_REACTORS
330
1A
102
}
330
1A
100
AcDbPlotSettings
  1

  2
none_device
  4

  6

 40
0.0
 41
0.0
 42
0.0
 43
0.0
 44
0.0
 45
0.0
 46
0.0
 47
0.0
 48
0.0
 49
0.0
140
0.0
141
0.0
142
1.0
143
1.0
 70
   688
 72
     0
 73
     0
 74
     5
  7

 75
    16
147
1.0
148
0.0
149
0.0
100
AcDbLayout
  1
Layout1
 70
     1
 71
     1
 10
0.0
 20
0.0
 11
12.0
 21
9.0
 12
0.0
 22
0.0
 32
0.0
 14
1.0000000000E+20
 24
1.0000000000E+20
 34
1.0000000000E+20
 15
-1.0000000000E+20
 25
-1.0000000000E+20
 35
-1.0000000000E+20
146
0.0
 13
0.0
 23
0.0
 33
0.0
 16
1.0
 26
0.0
 36
0.0
 17
0.0
 27
1.0
 37
0.0
 76
     0
330
1B
  0
LAYOUT
  5
26
102
{ACAD_REACTORS
330
1A
102
}
330
1A
100
AcDbPlotSettings
  1

  2
none_device
  4

  6

 40
0.0
 41
0.0
 42
0.0
 43
0.0
 44
0.0
 45
0.0
 46
0.0
 47
0.0
 48
0.0
 49
0.0
140
0.0
141
0.0
142
1.0
143
1.0
 70
   688
 72
     0
 73
     0
 74
     5
  7

 75
    16
147
1.0
148
0.0
149
0.0
100
AcDbLayout
  1
Layout2
 70
     1
 71
     2
 10
0.0
 20
0.0
 11
0.0
 21
0.0
 12
0.0
 22
0.0
 32
0.0
 14
0.0
 24
0.0
 34
0.0
 15
0.0
 25
0.0
 35
0.0
146
0.0
 13
0.0
 23
0.0
 33
0.0
 16
1.0
 26
0.0
 36
0.0
 17
0.0
 27
1.0
 37
0.0
 76
     0
330
23
  0
LAYOUT
  5
22
102
{ACAD_REACTORS
330
1A
102
}
330
1A
100
AcDbPlotSettings
  1

  2
none_device
  4

  6

 40
0.0
 41
0.0
 42
0.0
 43
0.0
 44
0.0
 45
0.0
 46
0.0
 47
0.0
 48
0.0
 49
0.0
140
0.0
141
0.0
142
1.0
143
1.0
 70
  1712
 72
     0
 73
     0
 74
     0
  7

 75
     0
147
1.0
148
0.0
149
0.0
100
AcDbLayout
  1
Model
 70
     1
 71
     0
 10
0.0
 20
0.0
 11
11.0
 21
8.5
 12
0.0
 22
0.0
 32
0.0
 14
0.0
 24
0.0
 34
0.0
 15
11.0
 25
8.5
 35
0.0
146
0.0
 13
0.0
 23
0.0
 33
0.0
 16
1.0
 26
0.0
 36
0.0
 17
0.0
 27
1.0
 37
0.0
 76
     0
330
1F
331
29
  0
MLINESTYLE
  5
18
102
{ACAD_REACTORS
330
17
102
}
330
17
100
AcDbMlineStyle
  2
Standard
 70
     0
  3

 62
   256
 51
90.0
 52
90.0
 71
     2
 49
0.5
 62
   256
  6
BYLAYER
 49
-0.5
 62
   256
  6
BYLAYER
  0
ACDBPLACEHOLDER
  5
F
102
{ACAD_REACTORS
330
E
102
}
330
E
  0
ENDSEC
  0
EOF
