  0
SECTION
  2
HEADER
  9
$ACADVER
  1
AC1015
  9
$ACADMAINTVER
 70
     6
  9
$DWGCODEPAGE
  3
ANSI_1252
  9
$INSBASE
 10
0.0
 20
0.0
 30
0.0
  9
$EXTMIN
 10
0.0
 20
0.0
 30
0.0
  9
$EXTMAX
 10
279.4
 20
215.9
 30
0.0
  9
$LIMMIN
 10
0.0
 20
0.0
  9
$LIMMAX
 10
279.4
 20
215.9
  9
$ORTHOMODE
 70
     0
  9
$REGENMODE
 70
     1
  9
$FILLMODE
 70
     1
  9
$QTEXTMODE
 70
     0
  9
$MIRRTEXT
 70
     1
  9
$LTSCALE
 40
1.0
  9
$ATTMODE
 70
     1
  9
$TEXTSIZE
 40
2.8222222222
  9
$TRACEWID
 40
1.0
  9
$TEXTSTYLE
  7
Standard
  9
$CLAYER
  8
0
  9
$CELTYPE
  6
ByLayer
  9
$CECOLOR
 62
   256
  9
$CELTSCALE
 40
1.0
  9
$DISPSILH
 70
     0
  9
$DIMSCALE
 40
1.0
  9
$DIMASZ
 40
3.175
  9
$DIMEXO
 40
1.27
  9
$DIMDLI
 40
3.75
  9
$DIMRND
 40
0.0
  9
$DIMDLE
 40
0.0
  9
$DIMEXE
 40
1.778
  9
$DIMTP
 40
0.0
  9
$DIMTM
 40
0.0
  9
$DIMTXT
 40
2.8222222222
  9
$DIMCEN
 40
2.5
  9
$DIMTSZ
 40
0.0
  9
$DIMTOL
 70
     0
  9
$DIMLIM
 70
     0
  9
$DIMTIH
 70
     1
  9
$DIMTOH
 70
     1
  9
$DIMSE1
 70
     0
  9
$DIMSE2
 70
     0
  9
$DIMTAD
 70
     0
  9
$DIMZIN
 70
     1
  9
$DIMBLK
  1

  9
$DIMASO
 70
     1
  9
$DIMSHO
 70
     1
  9
$DIMPOST
  1

  9
$DIMAPOST
  1

  9
$DIMALT
 70
     0
  9
$DIMALTD
 70
     3
  9
$DIMALTF
 40
0.0393700787
  9
$DIMLFAC
 40
1.0
  9
$DIMTOFL
 70
     1
  9
$DIMTVP
 40
0.0
  9
$DIMTIX
 70
     0
  9
$DIMSOXD
 70
     0
  9
$DIMSAH
 70
     0
  9
$DIMBLK1
  1

  9
$DIMBLK2
  1

  9
$DIMSTYLE
  2
ISO-25
  9
$DIMCLRD
 70
     0
  9
$DIMCLRE
 70
     0
  9
$DIMCLRT
 70
     0
  9
$DIMTFAC
 40
1.0
  9
$DIMGAP
 40
2.54
  9
$DIMJUST
 70
     0
  9
$DIMSD1
 70
     0
  9
$DIMSD2
 70
     0
  9
$DIMTOLJ
 70
     0
  9
$DIMTZIN
 70
     1
  9
$DIMALTZ
 70
     0
  9
$DIMALTTZ
 70
     0
  9
$DIMUPT
 70
     0
  9
$DIMDEC
 70
     1
  9
$DIMTDEC
 70
     1
  9
$DIMALTU
 70
     2
  9
$DIMALTTD
 70
     3
  9
$DIMTXSTY
  7
Standard
  9
$DIMAUNIT
 70
     0
  9
$DIMADEC
 70
     0
  9
$DIMALTRND
 40
0.0
  9
$DIMAZIN
 70
     0
  9
$DIMDSEP
 70
    44
  9
$DIMATFIT
 70
     3
  9
$DIMFRAC
 70
     0
  9
$DIMLDRBLK
  1

  9
$DIMLUNIT
 70
     2
  9
$DIMLWD
 70
    -2
  9
$DIMLWE
 70
    -2
  9
$DIMTMOVE
 70
     0
  9
$LUNITS
 70
     2
  9
$LUPREC
 70
     1
  9
$SKETCHINC
 40
1.0
  9
$FILLETRAD
 40
10.0
  9
$AUNITS
 70
     0
  9
$AUPREC
 70
     0
  9
$MENU
  1
.
  9
$ELEVATION
 40
0.0
  9
$PELEVATION
 40
0.0
  9
$THICKNESS
 40
0.0
  9
$LIMCHECK
 70
     0
  9
$CHAMFERA
 40
0.0
  9
$CHAMFERB
 40
0.0
  9
$CHAMFERC
 40
0.0
  9
$CHAMFERD
 40
0.0
  9
$SKPOLY
 70
     0
  9
$TDCREATE
 40
2459643.619540648
  9
$TDUCREATE
 40
2459643.286207315
  9
$TDUPDATE
 40
2459643.619558229
  9
$TDUUPDATE
 40
2459643.286224896
  9
$TDINDWG
 40
0.0000000116
  9
$TDUSRTIMER
 40
0.0000000116
  9
$USRTIMER
 70
     1
  9
$ANGBASE
 50
0.0
  9
$ANGDIR
 70
     0
  9
$PDMODE
 70
     0
  9
$PDSIZE
 40
-1.0
  9
$PLINEWID
 40
0.0
  9
$SPLFRAME
 70
     0
  9
$SPLINETYPE
 70
     6
  9
$SPLINESEGS
 70
     8
  9
$HANDSEED
  5
27B
  9
$SURFTAB1
 70
     6
  9
$SURFTAB2
 70
     6
  9
$SURFTYPE
 70
     6
  9
$SURFU
 70
     6
  9
$SURFV
 70
     6
  9
$UCSBASE
  2

  9
$UCSNAME
  2

  9
$UCSORG
 10
0.0
 20
0.0
 30
0.0
  9
$UCSXDIR
 10
1.0
 20
0.0
 30
0.0
  9
$UCSYDIR
 10
0.0
 20
1.0
 30
0.0
  9
$UCSORTHOREF
  2

  9
$UCSORTHOVIEW
 70
     0
  9
$UCSORGTOP
 10
0.0
 20
0.0
 30
0.0
  9
$UCSORGBOTTOM
 10
0.0
 20
0.0
 30
0.0
  9
$UCSORGLEFT
 10
0.0
 20
0.0
 30
0.0
  9
$UCSORGRIGHT
 10
0.0
 20
0.0
 30
0.0
  9
$UCSORGFRONT
 10
0.0
 20
0.0
 30
0.0
  9
$UCSORGBACK
 10
0.0
 20
0.0
 30
0.0
  9
$PUCSBASE
  2

  9
$PUCSNAME
  2

  9
$PUCSORG
 10
0.0
 20
0.0
 30
0.0
  9
$PUCSXDIR
 10
1.0
 20
0.0
 30
0.0
  9
$PUCSYDIR
 10
0.0
 20
1.0
 30
0.0
  9
$PUCSORTHOREF
  2

  9
$PUCSORTHOVIEW
 70
     0
  9
$PUCSORGTOP
 10
0.0
 20
0.0
 30
0.0
  9
$PUCSORGBOTTOM
 10
0.0
 20
0.0
 30
0.0
  9
$PUCSORGLEFT
 10
0.0
 20
0.0
 30
0.0
  9
$PUCSORGRIGHT
 10
0.0
 20
0.0
 30
0.0
  9
$PUCSORGFRONT
 10
0.0
 20
0.0
 30
0.0
  9
$PUCSORGBACK
 10
0.0
 20
0.0
 30
0.0
  9
$USERI1
 70
     0
  9
$USERI2
 70
     0
  9
$USERI3
 70
     0
  9
$USERI4
 70
     0
  9
$USERI5
 70
     0
  9
$USERR1
 40
0.0
  9
$USERR2
 40
0.0
  9
$USERR3
 40
0.0
  9
$USERR4
 40
0.0
  9
$USERR5
 40
0.0
  9
$WORLDVIEW
 70
     1
  9
$SHADEDGE
 70
     3
  9
$SHADEDIF
 70
    70
  9
$TILEMODE
 70
     1
  9
$MAXACTVP
 70
    64
  9
$PINSBASE
 10
0.0
 20
0.0
 30
0.0
  9
$PLIMCHECK
 70
     0
  9
$PEXTMIN
 10
1.0000000000E+20
 20
1.0000000000E+20
 30
1.0000000000E+20
  9
$PEXTMAX
 10
-1.0000000000E+20
 20
-1.0000000000E+20
 30
-1.0000000000E+20
  9
$PLIMMIN
 10
0.0
 20
0.0
  9
$PLIMMAX
 10
420.0
 20
297.0
  9
$UNITMODE
 70
     0
  9
$VISRETAIN
 70
     1
  9
$PLINEGEN
 70
     0
  9
$PSLTSCALE
 70
     1
  9
$TREEDEPTH
 70
  3020
  9
$CMLSTYLE
  2
Standard
  9
$CMLJUST
 70
     0
  9
$CMLSCALE
 40
20.0
  9
$PROXYGRAPHICS
 70
     1
  9
$MEASUREMENT
 70
     1
  9
$CELWEIGHT
370
    -1
  9
$ENDCAPS
280
     0
  9
$JOINSTYLE
280
     0
  9
$LWDISPLAY
290
     1
  9
$INSUNITS
 70
     4
  9
$HYPERLINKBASE
  1

  9
$STYLESHEET
  1

  9
$XEDIT
290
     1
  9
$CEPSNTYPE
380
     0
  9
$PSTYLEMODE
290
     1
  9
$FINGERPRINTGUID
  2
{0FB410A4-5A6B-4C7D-9608-CE3D51ED1321}
  9
$VERSIONGUID
  2
{FAEB1C32-E019-11D5-929B-00C0DF256EC4}
  9
$EXTNAMES
290
     1
  9
$PSVPSCALE
 40
0.0
  9
$OLESTARTUP
290
     0
  0
ENDSEC
  0
SECTION
  2
CLASSES
  0
CLASS
  1
ACDBDICTIONARYWDFLT
  2
AcDbDictionaryWithDefault
  3
ObjectDBX Classes
 90
        0
280
     0
281
     0
  0
CLASS
  1
VISUALSTYLE
  2
AcDbVisualStyle
  3
ObjectDBX Classes
 90
     4095
280
     0
281
     0
  0
CLASS
  1
MATERIAL
  2
AcDbMaterial
  3
ObjectDBX Classes
 90
     1153
280
     0
281
     0
  0
CLASS
  1
SCALE
  2
AcDbScale
  3
ObjectDBX Classes
 90
     1153
280
     0
281
     0
  0
CLASS
  1
TABLESTYLE
  2
AcDbTableStyle
  3
ObjectDBX Classes
 90
     4095
280
     0
281
     0
  0
CLASS
  1
MLEADERSTYLE
  2
AcDbMLeaderStyle
  3
ACDB_MLEADERSTYLE_CLASS
 90
     4095
280
     0
281
     0
  0
CLASS
  1
SUN
  2
AcDbSun
  3
SCENEOE
 90
     1153
280
     0
281
     0
  0
CLASS
  1
ACDBPLACEHOLDER
  2
AcDbPlaceHolder
  3
ObjectDBX Classes
 90
        0
280
     0
281
     0
  0
CLASS
  1
LAYOUT
  2
AcDbLayout
  3
ObjectDBX Classes
 90
        0
280
     0
281
     0
  0
ENDSEC
  0
SECTION
  2
TABLES
  0
TABLE
  2
VPORT
  5
8
330
0
100
AcDbSymbolTable
 70
     1
  0
VPORT
  5
29
330
8
100
AcDbSymbolTableRecord
100
AcDbViewportTableRecord
  2
*Active
 70
     0
 10
0.0
 20
0.0
 11
1.0
 21
1.0
 12
139.7
 22
107.95
 13
0.0
 23
0.0
 14
10.0
 24
10.0
 15
10.0
 25
10.0
 16
0.0
 26
0.0
 36
1.0
 17
0.0
 27
0.0
 37
0.0
 40
215.9
 41
1.2941176471
 42
50.0
 43
0.0
 44
0.0
 50
0.0
 51
0.0
 71
     0
 72
  2000
 73
     1
 74
     3
 75
     0
 76
     0
 77
     0
 78
     0
281
     0
 65
     1
110
0.0
120
0.0
130
0.0
111
1.0
121
0.0
131
0.0
112
0.0
122
1.0
132
0.0
 79
     0
146
0.0
  0
ENDTAB
  0
TABLE
  2
LTYPE
  5
5
330
0
100
AcDbSymbolTable
 70
     6
  0
LTYPE
  5
14
330
5
100
AcDbSymbolTableRecord
100
AcDbLinetypeTableRecord
  2
ByBlock
 70
     0
  3

 72
    65
 73
     0
 40
0.0
  0
LTYPE
  5
15
330
5
100
AcDbSymbolTableRecord
100
AcDbLinetypeTableRecord
  2
ByLayer
 70
     0
  3

 72
    65
 73
     0
 40
0.0
  0
LTYPE
  5
16
330
5
100
AcDbSymbolTableRecord
100
AcDbLinetypeTableRecord
  2
Continuous
 70
     0
  3
Solid line
 72
    65
 73
     0
 40
0.0
  0
LTYPE
  5
6E
330
5
100
AcDbSymbolTableRecord
100
AcDbLinetypeTableRecord
  2
HIDDEN
 70
     0
  3
Hidden __ __ __ __ __ __ __ __ __ __ __ __ __ __
 72
    65
 73
     2
 40
1.905
 49
1.27
 74
     0
 49
-0.635
 74
     0
  0
LTYPE
  5
6F
330
5
100
AcDbSymbolTableRecord
100
AcDbLinetypeTableRecord
  2
PHANTOM
 70
     0
  3
Phantom ______  __  __  ______  __  __  ______
 72
    65
 73
     6
 40
12.7
 49
6.35
 74
     0
 49
-1.27
 74
     0
 49
1.27
 74
     0
 49
-1.27
 74
     0
 49
1.27
 74
     0
 49
-1.27
 74
     0
  0
LTYPE
  5
70
330
5
100
AcDbSymbolTableRecord
100
AcDbLinetypeTableRecord
  2
CENTER
 70
     0
  3
Center ____ _ ____ _ ____ _ ____ _ ____ _ ____
 72
    65
 73
     4
 40
10.16
 49
6.35
 74
     0
 49
-1.27
 74
     0
 49
1.27
 74
     0
 49
-1.27
 74
     0
  0
LTYPE
  5
71
330
5
100
AcDbSymbolTableRecord
100
AcDbLinetypeTableRecord
  2
CENTERX2
 70
     0
  3
Center (2x) ________  __  ________  __  _____
 72
    65
 73
     4
 40
20.32
 49
12.7
 74
     0
 49
-2.54
 74
     0
 49
2.54
 74
     0
 49
-2.54
 74
     0
  0
LTYPE
  5
72
330
5
100
AcDbSymbolTableRecord
100
AcDbLinetypeTableRecord
  2
DOT2
 70
     0
  3
Dot (.5x) ........................................
 72
    65
 73
     2
 40
0.635
 49
0.0
 74
     0
 49
-0.635
 74
     0
  0
ENDTAB
  0
TABLE
  2
LAYER
  5
2
330
0
100
AcDbSymbolTable
 70
     2
  0
LAYER
  5
10
330
2
100
AcDbSymbolTableRecord
100
AcDbLayerTableRecord
  2
0
 70
     0
 62
     7
  6
Continuous
370
    -3
390
F
  0
LAYER
  5
73
330
2
100
AcDbSymbolTableRecord
100
AcDbLayerTableRecord
  2
FORMAT
 70
     0
 62
     7
  6
Continuous
370
    -3
390
F
  0
ENDTAB
  0
TABLE
  2
STYLE
  5
3
330
0
100
AcDbSymbolTable
 70
     3
  0
STYLE
  5
11
330
3
100
AcDbSymbolTableRecord
100
AcDbTextStyleTableRecord
  2
Standard
 70
     0
 40
0.0
 41
1.0
 50
0.0
 71
     0
 42
2.8222222222
  3
txt
  4

  0
STYLE
  5
132
330
3
100
AcDbSymbolTableRecord
100
AcDbTextStyleTableRecord
  2
SLDTEXTSTYLE0
 70
     0
 40
0.0
 41
0.75
 50
0.0
 71
     0
 42
2.8222222222
  3
TXT
  4

  0
STYLE
  5
14C
330
3
100
AcDbSymbolTableRecord
100
AcDbTextStyleTableRecord
  2
SLDTEXTSTYLE1
 70
     0
 40
0.0
 41
0.6
 50
0.0
 71
     0
 42
2.8222222222
  3
TXT
  4

  0
ENDTAB
  0
TABLE
  2
VIEW
  5
6
330
0
100
AcDbSymbolTable
 70
     0
  0
ENDTAB
  0
TABLE
  2
UCS
  5
7
330
0
100
AcDbSymbolTable
 70
     0
  0
ENDTAB
  0
TABLE
  2
APPID
  5
9
330
0
100
AcDbSymbolTable
 70
     1
  0
APPID
  5
12
330
9
100
AcDbSymbolTableRecord
100
AcDbRegAppTableRecord
  2
ACAD
 70
     0
  0
ENDTAB
  0
TABLE
  2
DIMSTYLE
  5
A
330
0
100
AcDbSymbolTable
 70
     5
100
AcDbDimStyleTable
  0
DIMSTYLE
105
27
330
A
100
AcDbSymbolTableRecord
100
AcDbDimStyleTableRecord
  2
ISO-25
 70
     0
 41
2.5
 42
0.625
 43
3.75
 44
1.25
 73
     0
 74
     0
 77
     1
 78
     8
140
2.5
141
2.5
143
0.0393700787
147
0.625
171
     3
172
     1
178
     0
271
     2
272
     2
274
     3
278
    44
283
     0
284
     8
340
11
  0
DIMSTYLE
105
170
102
{ACAD_REACTORS
330
16F
102
}
330
A
100
AcDbSymbolTableRecord
100
AcDbDimStyleTableRecord
  2
SLDDIMSTYLE0
 70
     0
 41
3.175
 44
0.0
 45
0.000000001
 78
    12
 79
     3
140
2.1166666667
141
0.0
143
0.0393700787
147
0.5291666667
148
0.000000001
170
     1
173
     1
178
     0
271
     1
272
     1
276
     2
284
    12
340
132
  0
DIMSTYLE
105
242
102
{ACAD_REACTORS
330
241
102
}
330
A
100
AcDbSymbolTableRecord
100
AcDbDimStyleTableRecord
  2
SLDDIMSTYLE1
 70
     0
 41
3.175
 44
0.0
 45
0.000000001
 78
    12
 79
     3
140
2.1166666667
141
0.0
143
0.0393700787
147
0.5291666667
148
0.000000001
170
     1
173
     1
178
     0
271
     1
272
     1
276
     2
284
    12
340
132
  0
DIMSTYLE
105
252
102
{ACAD_REACTORS
330
251
102
}
330
A
100
AcDbSymbolTableRecord
100
AcDbDimStyleTableRecord
  2
SLDDIMSTYLE2
 70
     0
 41
3.175
 44
0.0
 45
0.000000001
 78
    12
 79
     3
140
2.1166666667
143
0.0393700787
147
0.5291666667
148
0.000000001
170
     1
172
     1
173
     1
178
     0
271
     1
272
     1
276
     2
284
    12
289
     0
340
132
  0
DIMSTYLE
105
267
102
{ACAD_REACTORS
330
266
102
}
330
A
100
AcDbSymbolTableRecord
100
AcDbDimStyleTableRecord
  2
SLDDIMSTYLE3
 70
     0
 41
3.175
 44
0.0
 45
0.000000001
 78
     4
 79
     1
140
2.1166666667
143
0.0393700787
147
0.5291666667
148
0.000000001
170
     1
172
     1
173
     1
178
     0
271
     1
272
     1
276
     2
284
    12
289
     0
340
132
  0
ENDTAB
  0
TABLE
  2
BLOCK_RECORD
  5
1
330
0
100
AcDbSymbolTable
 70
    13
  0
BLOCK_RECORD
  5
1F
330
1
100
AcDbSymbolTableRecord
100
AcDbBlockTableRecord
  2
*Model_Space
340
22
  0
BLOCK_RECORD
  5
1B
330
1
100
AcDbSymbolTableRecord
100
AcDbBlockTableRecord
  2
*Paper_Space
340
1E
  0
BLOCK_RECORD
  5
23
330
1
100
AcDbSymbolTableRecord
100
AcDbBlockTableRecord
  2
*Paper_Space0
340
26
  0
BLOCK_RECORD
  5
74
330
1
100
AcDbSymbolTableRecord
100
AcDbBlockTableRecord
  2
Third Angle Projection Block
340
0
102
{BLKREFS
331
12D
102
}
  0
BLOCK_RECORD
  5
81
330
1
100
AcDbSymbolTableRecord
100
AcDbBlockTableRecord
  2
THORLABS LOGO1
340
0
102
{BLKREFS
331
12E
102
}
  0
BLOCK_RECORD
  5
12F
330
1
100
AcDbSymbolTableRecord
100
AcDbBlockTableRecord
  2
SW_NOTE_0
340
0
102
{BLKREFS
331
140
102
}
  0
BLOCK_RECORD
  5
152
330
1
100
AcDbSymbolTableRecord
100
AcDbBlockTableRecord
  2
SW_NOTE_1
340
0
102
{BLKREFS
331
157
102
}
  0
BLOCK_RECORD
  5
158
330
1
100
AcDbSymbolTableRecord
100
AcDbBlockTableRecord
  2
SW_NOTE_2
340
0
102
{BLKREFS
331
15D
102
}
  0
BLOCK_RECORD
  5
15F
330
1
100
AcDbSymbolTableRecord
100
AcDbBlockTableRecord
  2
SW_NOTE_3
340
0
102
{BLKREFS
331
164
102
}
  0
BLOCK_RECORD
  5
165
330
1
100
AcDbSymbolTableRecord
100
AcDbBlockTableRecord
  2
SW_NOTE_4
340
0
102
{BLKREFS
331
16B
102
}
  0
BLOCK_RECORD
  5
171
330
1
100
AcDbSymbolTableRecord
100
AcDbBlockTableRecord
  2
_D
340
0
  0
BLOCK_RECORD
  5
231
330
1
100
AcDbSymbolTableRecord
100
AcDbBlockTableRecord
  2
SW_NOTE_5
340
0
102
{BLKREFS
331
236
102
}
  0
BLOCK_RECORD
  5
243
330
1
100
AcDbSymbolTableRecord
100
AcDbBlockTableRecord
  2
_D_1
340
0
  0
BLOCK_RECORD
  5
253
330
1
100
AcDbSymbolTableRecord
100
AcDbBlockTableRecord
  2
_D_2
340
0
  0
BLOCK_RECORD
  5
268
330
1
100
AcDbSymbolTableRecord
100
AcDbBlockTableRecord
  2
_D_3
340
0
  0
ENDTAB
  0
ENDSEC
  0
SECTION
  2
BLOCKS
  0
BLOCK
  5
20
330
1F
100
AcDbEntity
  8
0
100
AcDbBlockBegin
  2
*Model_Space
 70
     0
 10
0.0
 20
0.0
 30
0.0
  3
*Model_Space
  1

  0
ENDBLK
  5
21
330
1F
100
AcDbEntity
  8
0
100
AcDbBlockEnd
  0
BLOCK
  5
1C
330
1B
100
AcDbEntity
 67
     1
  8
0
100
AcDbBlockBegin
  2
*Paper_Space
 70
     0
 10
0.0
 20
0.0
 30
0.0
  3
*Paper_Space
  1

  0
ENDBLK
  5
1D
330
1B
100
AcDbEntity
 67
     1
  8
0
100
AcDbBlockEnd
  0
BLOCK
  5
24
330
23
100
AcDbEntity
  8
0
100
AcDbBlockBegin
  2
*Paper_Space0
 70
     0
 10
0.0
 20
0.0
 30
0.0
  3
*Paper_Space0
  1

  0
ENDBLK
  5
25
330
23
100
AcDbEntity
  8
0
100
AcDbBlockEnd
  0
BLOCK
  5
75
330
74
100
AcDbEntity
  8
0
100
AcDbBlockBegin
  2
Third Angle Projection Block
 70
     0
 10
0.0
 20
0.0
 30
0.0
  3
Third Angle Projection Block
  1

  0
CIRCLE
  5
77
330
74
100
AcDbEntity
  8
0
  6
Continuous
 62
     7
370
    35
100
AcDbCircle
 10
101.4766388944
 20
18.9404083667
 30
0.0
 40
1.768227153674871
  0
CIRCLE
  5
78
330
74
100
AcDbEntity
  8
0
  6
Continuous
 62
     7
370
    35
100
AcDbCircle
 10
101.4766388944
 20
18.9404083667
 30
0.0
 40
3.901228248531818
  0
LINE
  5
79
330
74
100
AcDbEntity
  8
0
  6
CENTERX2
 62
     7
370
    18
100
AcDbLine
 10
110.1367822585
 20
18.9404083667
 30
0.0
 11
119.4527334874
 21
18.9404083667
 31
0.0
  0
LINE
  5
7A
330
74
100
AcDbEntity
  8
0
  6
Continuous
 62
     7
370
    35
100
AcDbLine
 10
111.0016388944
 20
20.7086355204
 30
0.0
 11
111.0016388944
 21
17.172181213
 31
0.0
  0
LINE
  5
7B
330
74
100
AcDbEntity
  8
0
  6
Continuous
 62
     7
370
    35
100
AcDbLine
 10
111.0016388944
 20
17.172181213
 30
0.0
 11
118.6216388944
 21
15.1304083667
 31
0.0
  0
LINE
  5
7C
330
74
100
AcDbEntity
  8
0
  6
Continuous
 62
     7
370
    35
100
AcDbLine
 10
118.6216388944
 20
15.1304083667
 30
0.0
 11
118.6216388944
 21
22.7504083667
 31
0.0
  0
LINE
  5
7D
330
74
100
AcDbEntity
  8
0
  6
Continuous
 62
     7
370
    35
100
AcDbLine
 10
118.6216388944
 20
22.7504083667
 30
0.0
 11
111.0016388944
 21
20.7086355204
 31
0.0
  0
LINE
  5
7E
330
74
100
AcDbEntity
  8
0
  6
CENTERX2
 62
     7
370
    18
100
AcDbLine
 10
96.6025854619
 20
18.9404083667
 30
0.0
 11
106.3506923269
 21
18.9404083667
 31
0.0
  0
LINE
  5
7F
330
74
100
AcDbEntity
  8
0
  6
CENTERX2
 62
     7
370
    18
100
AcDbLine
 10
101.4766388944
 20
23.8144617992
 30
0.0
 11
101.4766388944
 21
14.0663549342
 31
0.0
  0
POINT
  5
80
330
74
100
AcDbEntity
  8
0
  6
Continuous
 62
     7
370
     0
100
AcDbPoint
 10
101.4766388944
 20
18.9404083667
 30
0.0
  0
ENDBLK
  5
76
330
74
100
AcDbEntity
  8
0
100
AcDbBlockEnd
  0
BLOCK
  5
82
330
81
100
AcDbEntity
  8
0
100
AcDbBlockBegin
  2
THORLABS LOGO1
 70
     0
 10
0.0
 20
0.0
 30
0.0
  3
THORLABS LOGO1
  1

  0
LINE
  5
84
330
81
100
AcDbEntity
  8
0
  6
Continuous
 62
     7
370
    18
100
AcDbLine
 10
127.070019234
 20
36.20212077
 30
0.0
 11
129.5897637342
 21
43.9131108267
 31
0.0
  0
LINE
  5
85
330
81
100
AcDbEntity
  8
0
  6
Continuous
 62
     7
370
    18
100
AcDbLine
 10
129.5897637342
 20
43.9131108267
 30
0.0
 11
130.3745570034
 21
43.9131108267
 31
0.0
  0
LINE
  5
86
330
81
100
AcDbEntity
  8
0
  6
Continuous
 62
     7
370
    18
100
AcDbLine
 10
130.3745570034
 20
43.9131108267
 30
0.0
 11
132.8105856281
 21
36.20212077
 31
0.0
  0
LINE
  5
87
330
81
100
AcDbEntity
  8
0
  6
Continuous
 62
     7
370
    18
100
AcDbLine
 10
132.8105856281
 20
36.20212077
 30
0.0
 11
127.070019234
 21
36.20212077
 31
0.0
  0
LINE
  5
88
330
81
100
AcDbEntity
  8
0
  6
Continuous
 62
     7
370
    18
100
AcDbLine
 10
128.4229091235
 20
37.230137941
 30
0.0
 11
131.3867267247
 21
37.230137941
 31
0.0
  0
LINE
  5
89
330
81
100
AcDbEntity
  8
0
  6
Continuous
 62
     7
370
    18
100
AcDbLine
 10
131.3867267247
 20
37.230137941
 30
0.0
 11
129.9297948829
 21
41.8820534435
 31
0.0
  0
LINE
  5
8A
330
81
100
AcDbEntity
  8
0
  6
Continuous
 62
     7
370
    18
100
AcDbLine
 10
129.9297948829
 20
41.8820534435
 30
0.0
 11
128.4229091235
 21
37.230137941
 31
0.0
  0
LINE
  5
8B
330
81
100
AcDbEntity
  8
0
  6
Continuous
 62
     7
370
    18
100
AcDbLine
 10
148.5694963023
 20
29.6960536541
 30
0.0
 11
134.4690556888
 21
29.6960536541
 31
0.0
  0
LINE
  5
8C
330
81
100
AcDbEntity
  8
0
  6
Continuous
 62
     7
370
    18
100
AcDbLine
 10
134.4690556888
 20
29.6960536541
 30
0.0
 11
133.0327944335
 21
32.9713080926
 31
0.0
  0
LINE
  5
8D
330
81
100
AcDbEntity
  8
0
  6
Continuous
 62
     7
370
    18
100
AcDbLine
 10
133.0327944335
 20
32.9713080926
 30
0.0
 11
126.8013016089
 21
32.9713080926
 31
0.0
  0
LINE
  5
8E
330
81
100
AcDbEntity
  8
0
  6
Continuous
 62
     7
370
    18
100
AcDbLine
 10
126.8013016089
 20
32.9713080926
 30
0.0
 11
125.336790552
 21
29.7225809068
 31
0.0
  0
LINE
  5
8F
330
81
100
AcDbEntity
  8
0
  6
Continuous
 62
     7
370
    18
100
AcDbLine
 10
125.336790552
 20
29.7225809068
 30
0.0
 11
107.5084096545
 21
29.7225809068
 31
0.0
  0
LINE
  5
90
330
81
100
AcDbEntity
  8
0
  6
Continuous
 62
     7
370
    18
100
AcDbLine
 10
107.5084096545
 20
29.7225809068
 30
0.0
 11
107.5084096545
 21
48.9892901182
 31
0.0
  0
LINE
  5
91
330
81
100
AcDbEntity
  8
0
  6
Continuous
 62
     7
370
    18
100
AcDbLine
 10
107.5084096545
 20
48.9892901182
 30
0.0
 11
112.5348072834
 21
48.9892901182
 31
0.0
  0
LINE
  5
92
330
81
100
AcDbEntity
  8
0
  6
Continuous
 62
     7
370
    18
100
AcDbLine
 10
112.5348072834
 20
48.9892901182
 30
0.0
 11
112.5348072834
 21
34.0806295706
 31
0.0
  0
LINE
  5
93
330
81
100
AcDbEntity
  8
0
  6
Continuous
 62
     7
370
    18
100
AcDbLine
 10
112.5348072834
 20
34.0806295706
 30
0.0
 11
121.7804161364
 21
34.0806295706
 31
0.0
  0
LINE
  5
94
330
81
100
AcDbEntity
  8
0
  6
Continuous
 62
     7
370
    18
100
AcDbLine
 10
121.7804161364
 20
34.0806295706
 30
0.0
 11
127.3904133255
 21
48.9892901182
 31
0.0
  0
LINE
  5
95
330
81
100
AcDbEntity
  8
0
  6
Continuous
 62
     7
370
    18
100
AcDbLine
 10
127.3904133255
 20
48.9892901182
 30
0.0
 11
132.4970817321
 21
48.9892901182
 31
0.0
  0
LINE
  5
96
330
81
100
AcDbEntity
  8
0
  6
Continuous
 62
     7
370
    18
100
AcDbLine
 10
132.4970817321
 20
48.9892901182
 30
0.0
 11
139.3018388236
 21
31.0275839375
 31
0.0
  0
LINE
  5
97
330
81
100
AcDbEntity
  8
0
  6
Continuous
 62
     7
370
    18
100
AcDbLine
 10
139.3018388236
 20
31.0275839375
 30
0.0
 11
139.3018388236
 21
48.9892901182
 31
0.0
  0
LINE
  5
98
330
81
100
AcDbEntity
  8
0
  6
Continuous
 62
     7
370
    18
100
AcDbLine
 10
139.3018388236
 20
48.9892901182
 30
0.0
 11
148.3259278908
 21
48.9892901182
 31
0.0
  0
LINE
  5
99
330
81
100
AcDbEntity
  8
0
  6
Continuous
 62
     7
370
    18
100
AcDbLine
 10
156.0567272597
 20
36.2334711596
 30
0.0
 11
160.8609160832
 21
36.2334711596
 31
0.0
  0
LINE
  5
9A
330
81
100
AcDbEntity
  8
0
  6
Continuous
 62
     7
370
    18
100
AcDbLine
 10
171.9930604685
 20
43.2037651984
 30
0.0
 11
166.9673518592
 21
43.2037651984
 31
0.0
  0
LINE
  5
9B
330
81
100
AcDbEntity
  8
0
  6
Continuous
 62
     7
370
    18
100
AcDbLine
 10
161.57267328
 20
37.1278185376
 30
0.0
 11
156.7116403435
 21
37.1278185376
 31
0.0
  0
LINE
  5
9C
330
81
100
AcDbEntity
  8
0
  6
Continuous
 62
     7
370
    18
100
AcDbLine
 10
167.1893381071
 20
42.2088209659
 30
0.0
 11
173.0691700759
 21
42.1674797928
 31
0.0
  0
LINE
  5
9D
330
81
100
AcDbEntity
  8
0
  6
Continuous
 62
     7
370
    18
100
AcDbLine
 10
147.7273754781
 20
50.0471073848
 30
0.0
 11
138.3041010399
 21
50.0471073848
 31
0.0
  0
LINE
  5
9E
330
81
100
AcDbEntity
  8
0
  6
Continuous
 62
     7
370
    18
100
AcDbLine
 10
138.3041010399
 20
50.0471073848
 30
0.0
 11
138.3041010399
 21
36.7502358233
 31
0.0
  0
LINE
  5
9F
330
81
100
AcDbEntity
  8
0
  6
Continuous
 62
     7
370
    18
100
AcDbLine
 10
138.3041010399
 20
36.7502358233
 30
0.0
 11
133.3762332069
 21
50.0471073848
 31
0.0
  0
LINE
  5
A0
330
81
100
AcDbEntity
  8
0
  6
Continuous
 62
     7
370
    18
100
AcDbLine
 10
133.3762332069
 20
50.0471073848
 30
0.0
 11
126.7834772196
 21
50.0471073848
 31
0.0
  0
LINE
  5
A1
330
81
100
AcDbEntity
  8
0
  6
Continuous
 62
     7
370
    18
100
AcDbLine
 10
126.7834772196
 20
50.0471073848
 30
0.0
 11
121.0416582836
 21
34.8362965993
 31
0.0
  0
LINE
  5
A2
330
81
100
AcDbEntity
  8
0
  6
Continuous
 62
     7
370
    18
100
AcDbLine
 10
121.0416582836
 20
34.8362965993
 30
0.0
 11
113.7338781066
 21
34.7908312116
 31
0.0
  0
LINE
  5
A3
330
81
100
AcDbEntity
  8
0
  6
Continuous
 62
     7
370
    18
100
AcDbLine
 10
113.7338781066
 20
34.7908312116
 30
0.0
 11
113.6389611148
 21
50.0471073848
 31
0.0
  0
LINE
  5
A4
330
81
100
AcDbEntity
  8
0
  6
Continuous
 62
     7
370
    18
100
AcDbLine
 10
113.6389611148
 20
50.0471073848
 30
0.0
 11
106.3849632756
 21
50.0471073848
 31
0.0
  0
LINE
  5
A5
330
81
100
AcDbEntity
  8
0
  6
Continuous
 62
     7
370
    18
100
AcDbLine
 10
106.3849632756
 20
50.0471073848
 30
0.0
 11
106.3718719042
 21
28.6983533434
 31
0.0
  0
LINE
  5
A6
330
81
100
AcDbEntity
  8
0
  6
Continuous
 62
     7
370
    18
100
AcDbLine
 10
106.3718719042
 20
28.6983533434
 30
0.0
 11
126.0705963744
 21
28.7607096128
 31
0.0
  0
LINE
  5
A7
330
81
100
AcDbEntity
  8
0
  6
Continuous
 62
     7
370
    18
100
AcDbLine
 10
126.0705963744
 20
28.7607096128
 30
0.0
 11
127.3401148982
 21
31.9074619049
 31
0.0
  0
LINE
  5
A8
330
81
100
AcDbEntity
  8
0
  6
Continuous
 62
     7
370
    18
100
AcDbLine
 10
127.3401148982
 20
31.9074619049
 30
0.0
 11
132.5163742795
 21
31.9074619049
 31
0.0
  0
LINE
  5
A9
330
81
100
AcDbEntity
  8
0
  6
Continuous
 62
     7
370
    18
100
AcDbLine
 10
132.5163742795
 20
31.9074619049
 30
0.0
 11
133.7345608468
 21
28.7607096128
 31
0.0
  0
LINE
  5
AA
330
81
100
AcDbEntity
  8
0
  6
Continuous
 62
     7
370
    18
100
AcDbLine
 10
133.7345608468
 20
28.7607096128
 30
0.0
 11
149.6765281643
 21
28.7607096128
 31
0.0
  0
LINE
  5
AB
330
81
100
AcDbEntity
  8
0
  6
Continuous
 62
     7
370
    18
100
AcDbLine
 10
47.9736752992
 20
45.2630723832
 30
0.0
 11
42.1812601838
 21
45.2630723832
 31
0.0
  0
LINE
  5
AC
330
81
100
AcDbEntity
  8
0
  6
Continuous
 62
     7
370
    18
100
AcDbLine
 10
42.1812601838
 20
45.2630723832
 30
0.0
 11
42.1812601838
 21
28.6983533434
 31
0.0
  0
LINE
  5
AD
330
81
100
AcDbEntity
  8
0
  6
Continuous
 62
     7
370
    18
100
AcDbLine
 10
42.1812601838
 20
28.6983533434
 30
0.0
 11
36.5974457377
 21
28.6983533434
 31
0.0
  0
LINE
  5
AE
330
81
100
AcDbEntity
  8
0
  6
Continuous
 62
     7
370
    18
100
AcDbLine
 10
36.5974457377
 20
28.6983533434
 30
0.0
 11
36.5974457377
 21
45.2630723832
 31
0.0
  0
LINE
  5
AF
330
81
100
AcDbEntity
  8
0
  6
Continuous
 62
     7
370
    18
100
AcDbLine
 10
36.5974457377
 20
45.2630723832
 30
0.0
 11
30.2029997892
 21
45.2630723832
 31
0.0
  0
LINE
  5
B0
330
81
100
AcDbEntity
  8
0
  6
Continuous
 62
     7
370
    18
100
AcDbLine
 10
30.2029997892
 20
45.2630723832
 30
0.0
 11
30.2029997892
 21
50.0471073848
 31
0.0
  0
LINE
  5
B1
330
81
100
AcDbEntity
  8
0
  6
Continuous
 62
     7
370
    18
100
AcDbLine
 10
30.2029997892
 20
50.0471073848
 30
0.0
 11
53.5569729806
 21
50.0471073848
 31
0.0
  0
LINE
  5
B2
330
81
100
AcDbEntity
  8
0
  6
Continuous
 62
     7
370
    18
100
AcDbLine
 10
53.5569729806
 20
50.0471073848
 30
0.0
 11
53.5569729806
 21
42.2728997842
 31
0.0
  0
LINE
  5
B3
330
81
100
AcDbEntity
  8
0
  6
Continuous
 62
     7
370
    18
100
AcDbLine
 10
53.5569729806
 20
42.2728997842
 30
0.0
 11
60.9124289487
 21
42.2728997842
 31
0.0
  0
LINE
  5
B4
330
81
100
AcDbEntity
  8
0
  6
Continuous
 62
     7
370
    18
100
AcDbLine
 10
60.9124289487
 20
42.2728997842
 30
0.0
 11
60.9124289487
 21
50.0471073848
 31
0.0
  0
LINE
  5
B5
330
81
100
AcDbEntity
  8
0
  6
Continuous
 62
     7
370
    18
100
AcDbLine
 10
60.9124289487
 20
50.0471073848
 30
0.0
 11
66.4964156497
 21
50.0471073848
 31
0.0
  0
LINE
  5
B6
330
81
100
AcDbEntity
  8
0
  6
Continuous
 62
     7
370
    18
100
AcDbLine
 10
66.4964156497
 20
50.0471073848
 30
0.0
 11
66.4964156497
 21
28.6983533434
 31
0.0
  0
LINE
  5
B7
330
81
100
AcDbEntity
  8
0
  6
Continuous
 62
     7
370
    18
100
AcDbLine
 10
66.4964156497
 20
28.6983533434
 30
0.0
 11
60.9124289487
 21
28.6983533434
 31
0.0
  0
LINE
  5
B8
330
81
100
AcDbEntity
  8
0
  6
Continuous
 62
     7
370
    18
100
AcDbLine
 10
60.9124289487
 20
28.6983533434
 30
0.0
 11
60.9124289487
 21
37.4895538021
 31
0.0
  0
LINE
  5
B9
330
81
100
AcDbEntity
  8
0
  6
Continuous
 62
     7
370
    18
100
AcDbLine
 10
60.9124289487
 20
37.4895538021
 30
0.0
 11
53.5569729806
 21
37.4895538021
 31
0.0
  0
LINE
  5
BA
330
81
100
AcDbEntity
  8
0
  6
Continuous
 62
     7
370
    18
100
AcDbLine
 10
53.5569729806
 20
37.4895538021
 30
0.0
 11
53.5569729806
 21
28.6983533434
 31
0.0
  0
LINE
  5
BB
330
81
100
AcDbEntity
  8
0
  6
Continuous
 62
     7
370
    18
100
AcDbLine
 10
53.5569729806
 20
28.6983533434
 30
0.0
 11
47.9736752992
 21
28.6983533434
 31
0.0
  0
LINE
  5
BC
330
81
100
AcDbEntity
  8
0
  6
Continuous
 62
     7
370
    18
100
AcDbLine
 10
47.9736752992
 20
28.6983533434
 30
0.0
 11
47.9736752992
 21
45.2630723832
 31
0.0
  0
LINE
  5
BD
330
81
100
AcDbEntity
  8
0
  6
Continuous
 62
     7
370
    18
100
AcDbLine
 10
93.2083256259
 20
40.8002927475
 30
0.0
 11
97.891591518
 21
40.8002927475
 31
0.0
  0
LINE
  5
BE
330
81
100
AcDbEntity
  8
0
  6
Continuous
 62
     7
370
    18
100
AcDbLine
 10
97.6514682043
 20
45.613783335
 30
0.0
 11
93.2083256259
 21
45.613783335
 31
0.0
  0
LINE
  5
BF
330
81
100
AcDbEntity
  8
0
  6
Continuous
 62
     7
370
    18
100
AcDbLine
 10
93.2083256259
 20
45.613783335
 30
0.0
 11
93.2083256259
 21
40.8002927475
 31
0.0
  0
LINE
  5
C0
330
81
100
AcDbEntity
  8
0
  6
Continuous
 62
     7
370
    18
100
AcDbLine
 10
87.6243389163
 20
50.0471073848
 30
0.0
 11
98.5521890046
 21
50.0471073848
 31
0.0
  0
LINE
  5
C1
330
81
100
AcDbEntity
  8
0
  6
Continuous
 62
     7
370
    18
100
AcDbLine
 10
102.6945745488
 20
38.6856917437
 30
0.0
 11
102.6945745488
 21
38.6257470427
 31
0.0
  0
LINE
  5
C2
330
81
100
AcDbEntity
  8
0
  6
Continuous
 62
     7
370
    18
100
AcDbLine
 10
106.3668527513
 20
28.6983533434
 30
0.0
 11
101.1935454556
 21
28.6983533434
 31
0.0
  0
LINE
  5
C3
330
81
100
AcDbEntity
  8
0
  6
Continuous
 62
     7
370
    18
100
AcDbLine
 10
97.4420062521
 20
36.4729054538
 30
0.0
 11
93.2083256173
 21
36.4729054538
 31
0.0
  0
LINE
  5
C4
330
81
100
AcDbEntity
  8
0
  6
Continuous
 62
     7
370
    18
100
AcDbLine
 10
93.2083256173
 20
36.4729054538
 30
0.0
 11
93.2083256173
 21
28.6983533434
 31
0.0
  0
LINE
  5
C5
330
81
100
AcDbEntity
  8
0
  6
Continuous
 62
     7
370
    18
100
AcDbLine
 10
93.2083256173
 20
28.6983533434
 30
0.0
 11
87.6243389163
 21
28.6983533434
 31
0.0
  0
LINE
  5
C6
330
81
100
AcDbEntity
  8
0
  6
Continuous
 62
     7
370
    18
100
AcDbLine
 10
87.6243389163
 20
28.6983533434
 30
0.0
 11
87.6243389163
 21
50.0471073848
 31
0.0
  0
LINE
  5
C7
330
81
100
AcDbEntity
  8
0
  6
Continuous
 62
     7
370
    18
100
AcDbLine
 10
143.8820962928
 20
45.355573258
 30
0.0
 11
148.3552112218
 21
45.355573258
 31
0.0
  0
LINE
  5
C8
330
81
100
AcDbEntity
  8
0
  6
Continuous
 62
     7
370
    18
100
AcDbLine
 10
148.3552112218
 20
40.6891883448
 30
0.0
 11
143.8820962928
 21
40.6891883448
 31
0.0
  0
LINE
  5
C9
330
81
100
AcDbEntity
  8
0
  6
Continuous
 62
     7
370
    18
100
AcDbLine
 10
143.8820962928
 20
40.6891883448
 30
0.0
 11
143.8820962928
 21
45.355573258
 31
0.0
  0
LINE
  5
CA
330
81
100
AcDbEntity
  8
0
  6
Continuous
 62
     7
370
    18
100
AcDbLine
 10
144.8611930757
 20
44.3318624592
 30
0.0
 11
144.8611930757
 21
41.6384850321
 31
0.0
  0
LINE
  5
CB
330
81
100
AcDbEntity
  8
0
  6
Continuous
 62
     7
370
    18
100
AcDbLine
 10
144.8611930757
 20
41.6384850321
 30
0.0
 11
147.9838296835
 21
41.6384850321
 31
0.0
  0
LINE
  5
CC
330
81
100
AcDbEntity
  8
0
  6
Continuous
 62
     7
370
    18
100
AcDbLine
 10
147.9838296835
 20
44.3318624592
 30
0.0
 11
144.8611930757
 21
44.3318624592
 31
0.0
  0
LINE
  5
CD
330
81
100
AcDbEntity
  8
0
  6
Continuous
 62
     7
370
    18
100
AcDbLine
 10
143.8820962928
 20
38.4576262721
 30
0.0
 11
148.8506162794
 21
38.4576262721
 31
0.0
  0
LINE
  5
CE
330
81
100
AcDbEntity
  8
0
  6
Continuous
 62
     7
370
    18
100
AcDbLine
 10
148.8506162794
 20
33.0798286719
 30
0.0
 11
143.8820962928
 21
33.0798286719
 31
0.0
  0
LINE
  5
CF
330
81
100
AcDbEntity
  8
0
  6
Continuous
 62
     7
370
    18
100
AcDbLine
 10
143.8820962928
 20
33.0798286719
 30
0.0
 11
143.8820962928
 21
38.4576262721
 31
0.0
  0
LINE
  5
D0
330
81
100
AcDbEntity
  8
0
  6
Continuous
 62
     7
370
    18
100
AcDbLine
 10
144.8353548425
 20
37.4561363539
 30
0.0
 11
144.8353548425
 21
33.9958801658
 31
0.0
  0
LINE
  5
D1
330
81
100
AcDbEntity
  8
0
  6
Continuous
 62
     7
370
    18
100
AcDbLine
 10
144.8353548425
 20
33.9958801658
 30
0.0
 11
148.5660512046
 21
33.9958801658
 31
0.0
  0
LINE
  5
D2
330
81
100
AcDbEntity
  8
0
  6
Continuous
 62
     7
370
    18
100
AcDbLine
 10
148.5660512046
 20
37.4561363539
 30
0.0
 11
144.8353548425
 21
37.4561363539
 31
0.0
  0
LINE
  5
D3
330
81
100
AcDbEntity
  8
0
  6
Continuous
 62
     7
370
    18
100
AcDbLine
 10
106.3668527513
 20
29.7153023919
 30
0.0
 11
106.3668527513
 21
28.6983533434
 31
0.0
  0
SPLINE
  5
D4
330
81
100
AcDbEntity
  8
0
  6
Continuous
 62
     8
370
     0
100
AcDbSpline
210
0.0
220
0.0
230
1.0
 70
     8
 71
     3
 72
     8
 73
     4
 74
     0
 42
0.000000001
 43
0.00000001
 40
0.0
 40
0.0
 40
0.0
 40
0.0
 40
1.0
 40
1.0
 40
1.0
 40
1.0
 10
165.9145299843317
 20
42.47392123835806
 30
0.0
 10
163.2373445166196
 20
43.14743785003957
 30
0.0
 10
162.5142184972235
 20
43.26439891892237
 30
0.0
 10
162.5142184972235
 20
43.83439034297712
 30
0.0
  0
SPLINE
  5
D5
330
81
100
AcDbEntity
  8
0
  6
Continuous
 62
     8
370
     0
100
AcDbSpline
210
0.0
220
0.0
230
1.0
 70
     8
 71
     3
 72
     8
 73
     4
 74
     0
 42
0.000000001
 43
0.00000001
 40
1.0
 40
1.0
 40
1.0
 40
1.0
 40
2.0
 40
2.0
 40
2.0
 40
2.0
 10
162.5142184972235
 20
43.83439034297712
 30
0.0
 10
162.5142184972235
 20
44.08794953796311
 30
0.0
 10
163.6817621273968
 20
44.25641481832745
 30
0.0
 10
164.2398679641865
 20
44.24039511375292
 30
0.0
  0
SPLINE
  5
D6
330
81
100
AcDbEntity
  8
0
  6
Continuous
 62
     8
370
     0
100
AcDbSpline
210
0.0
220
0.0
230
1.0
 70
     8
 71
     3
 72
     8
 73
     4
 74
     0
 42
0.000000001
 43
0.00000001
 40
2.0
 40
2.0
 40
2.0
 40
2.0
 40
3.0
 40
3.0
 40
3.0
 40
3.0
 10
164.2398679641865
 20
44.24039511375292
 30
0.0
 10
165.3912196348973
 20
44.2062886459491
 30
0.0
 10
165.7515768603801
 20
43.97150523374403
 30
0.0
 10
165.8638870472897
 20
43.27628450618734
 30
0.0
  0
SPLINE
  5
D7
330
81
100
AcDbEntity
  8
0
  6
Continuous
 62
     8
370
     0
100
AcDbSpline
210
0.0
220
0.0
230
1.0
 70
     8
 71
     3
 72
     8
 73
     4
 74
     0
 42
0.000000001
 43
0.00000001
 40
3.0
 40
3.0
 40
3.0
 40
3.0
 40
4.0
 40
4.0
 40
4.0
 40
4.0
 10
165.8638870472897
 20
43.27628450618734
 30
0.0
 10
165.9090178279189
 20
43.00205472465359
 30
0.0
 10
165.9138409647801
 20
42.83186689541027
 30
0.0
 10
165.9145299843317
 20
42.47392123835806
 30
0.0
  0
SPLINE
  5
D8
330
81
100
AcDbEntity
  8
0
  6
Continuous
 62
     8
370
     0
100
AcDbSpline
210
0.0
220
0.0
230
1.0
 70
     8
 71
     3
 72
     8
 73
     4
 74
     0
 42
0.000000001
 43
0.00000001
 40
0.0
 40
0.0
 40
0.0
 40
0.0
 40
1.0
 40
1.0
 40
1.0
 40
1.0
 10
164.2102401234681
 20
29.12313389692912
 30
0.0
 10
160.290752404235
 20
29.12313389692912
 30
0.0
 10
156.7767526911141
 20
30.89219159564247
 30
0.0
 10
155.9991941271422
 20
34.65217128868185
 30
0.0
  0
SPLINE
  5
D9
330
81
100
AcDbEntity
  8
0
  6
Continuous
 62
     8
370
     0
100
AcDbSpline
210
0.0
220
0.0
230
1.0
 70
     8
 71
     3
 72
     8
 73
     4
 74
     0
 42
0.000000001
 43
0.00000001
 40
1.0
 40
1.0
 40
1.0
 40
1.0
 40
2.0
 40
2.0
 40
2.0
 40
2.0
 10
155.9991941271422
 20
34.65217128868185
 30
0.0
 10
155.4869080905333
 20
30.98107511779787
 30
0.0
 10
152.3484240330302
 20
29.69605365407815
 30
0.0
 10
148.569496302322
 20
29.69605365407815
 30
0.0
  0
SPLINE
  5
DA
330
81
100
AcDbEntity
  8
0
  6
Continuous
 62
     8
370
     0
100
AcDbSpline
210
0.0
220
0.0
230
1.0
 70
     8
 71
     3
 72
     8
 73
     4
 74
     0
 42
0.000000001
 43
0.00000001
 40
16.0
 40
16.0
 40
16.0
 40
16.0
 40
17.0
 40
17.0
 40
17.0
 40
17.0
 10
148.3259278908342
 20
48.98929011821522
 30
0.0
 10
151.6487246783881
 20
49.0430336432394
 30
0.0
 10
155.2970832040696
 20
48.18227596841268
 30
0.0
 10
155.2970832040696
 20
44.17218217814528
 30
0.0
  0
SPLINE
  5
DB
330
81
100
AcDbEntity
  8
0
  6
Continuous
 62
     8
370
     0
100
AcDbSpline
210
0.0
220
0.0
230
1.0
 70
     8
 71
     3
 72
     8
 73
     4
 74
     0
 42
0.000000001
 43
0.00000001
 40
17.0
 40
17.0
 40
17.0
 40
17.0
 40
18.0
 40
18.0
 40
18.0
 40
18.0
 10
155.2970832040696
 20
44.17218217814528
 30
0.0
 10
155.2970832040696
 20
42.44963329916444
 30
0.0
 10
154.270444072197
 20
41.05092360943199
 30
0.0
 10
152.7570126271244
 20
40.29730847487787
 30
0.0
  0
SPLINE
  5
DC
330
81
100
AcDbEntity
  8
0
  6
Continuous
 62
     8
370
     0
100
AcDbSpline
210
0.0
220
0.0
230
1.0
 70
     8
 71
     3
 72
     8
 73
     4
 74
     0
 42
0.000000001
 43
0.00000001
 40
18.0
 40
18.0
 40
18.0
 40
18.0
 40
19.0
 40
19.0
 40
19.0
 40
19.0
 10
152.7570126271244
 20
40.29730847487787
 30
0.0
 10
154.6566395308645
 20
39.74936567647406
 30
0.0
 10
155.8830943326989
 20
38.18925315678111
 30
0.0
 10
156.0567272597002
 20
36.23347115958625
 30
0.0
  0
SPLINE
  5
DD
330
81
100
AcDbEntity
  8
0
  6
Continuous
 62
     8
370
     0
100
AcDbSpline
210
0.0
220
0.0
230
1.0
 70
     8
 71
     3
 72
     8
 73
     4
 74
     0
 42
0.000000001
 43
0.00000001
 40
20.0
 40
20.0
 40
20.0
 40
20.0
 40
21.0
 40
21.0
 40
21.0
 40
21.0
 10
160.8609160831777
 20
36.23347115958625
 30
0.0
 10
160.9684031332261
 20
33.9727980108118
 30
0.0
 10
162.3736585086987
 20
33.24622689365768
 30
0.0
 10
164.507896569756
 20
33.24622689365768
 30
0.0
  0
SPLINE
  5
DE
330
81
100
AcDbEntity
  8
0
  6
Continuous
 62
     8
370
     0
100
AcDbSpline
210
0.0
220
0.0
230
1.0
 70
     8
 71
     3
 72
     8
 73
     4
 74
     0
 42
0.000000001
 43
0.00000001
 40
21.0
 40
21.0
 40
21.0
 40
21.0
 40
22.0
 40
22.0
 40
22.0
 40
22.0
 10
164.507896569756
 20
33.24622689365768
 30
0.0
 10
166.0209835050527
 20
33.24622689365768
 30
0.0
 10
167.5885029849253
 20
33.78504018300288
 30
0.0
 10
167.5885029849253
 20
35.21131065479903
 30
0.0
  0
SPLINE
  5
DF
330
81
100
AcDbEntity
  8
0
  6
Continuous
 62
     8
370
     0
100
AcDbSpline
210
0.0
220
0.0
230
1.0
 70
     8
 71
     3
 72
     8
 73
     4
 74
     0
 42
0.000000001
 43
0.00000001
 40
22.0
 40
22.0
 40
22.0
 40
22.0
 40
23.0
 40
23.0
 40
23.0
 40
23.0
 10
167.5885029849253
 20
35.21131065479903
 30
0.0
 10
167.5885029849253
 20
36.90629875171619
 30
0.0
 10
164.8331137981075
 20
37.22910441163718
 30
0.0
 10
162.0491302998987
 20
38.00941905381552
 30
0.0
  0
SPLINE
  5
E0
330
81
100
AcDbEntity
  8
0
  6
Continuous
 62
     8
370
     0
100
AcDbSpline
210
0.0
220
0.0
230
1.0
 70
     8
 71
     3
 72
     8
 73
     4
 74
     0
 42
0.000000001
 43
0.00000001
 40
23.0
 40
23.0
 40
23.0
 40
23.0
 40
24.0
 40
24.0
 40
24.0
 40
24.0
 10
162.0491302998987
 20
38.00941905381552
 30
0.0
 10
159.2930520935294
 20
38.78956144110593
 30
0.0
 10
156.4022705648237
 20
40.02772957531736
 30
0.0
 10
156.4022705648237
 20
43.55344262081537
 30
0.0
  0
SPLINE
  5
E1
330
81
100
AcDbEntity
  8
0
  6
Continuous
 62
     8
370
     0
100
AcDbSpline
210
0.0
220
0.0
230
1.0
 70
     8
 71
     3
 72
     8
 73
     4
 74
     0
 42
0.000000001
 43
0.00000001
 40
24.0
 40
24.0
 40
24.0
 40
24.0
 40
25.0
 40
25.0
 40
25.0
 40
25.0
 10
156.4022705648237
 20
43.55344262081537
 30
0.0
 10
156.4022705648237
 20
47.75129423889168
 30
0.0
 10
160.6449084537535
 20
49.39253881078461
 30
0.0
 10
164.2646726680438
 20
49.39253881078461
 30
0.0
  0
SPLINE
  5
E2
330
81
100
AcDbEntity
  8
0
  6
Continuous
 62
     8
370
     0
100
AcDbSpline
210
0.0
220
0.0
230
1.0
 70
     8
 71
     3
 72
     8
 73
     4
 74
     0
 42
0.000000001
 43
0.00000001
 40
25.0
 40
25.0
 40
25.0
 40
25.0
 40
26.0
 40
26.0
 40
26.0
 40
26.0
 10
164.2646726680438
 20
49.39253881078461
 30
0.0
 10
168.1018225508616
 20
49.39253881078461
 30
0.0
 10
171.9654996864157
 20
47.53614788390696
 30
0.0
 10
171.9930604684793
 20
43.20376519838225
 30
0.0
  0
SPLINE
  5
E3
330
81
100
AcDbEntity
  8
0
  6
Continuous
 62
     8
370
     0
100
AcDbSpline
210
0.0
220
0.0
230
1.0
 70
     8
 71
     3
 72
     8
 73
     4
 74
     0
 42
0.000000001
 43
0.00000001
 40
27.0
 40
27.0
 40
27.0
 40
27.0
 40
28.0
 40
28.0
 40
28.0
 40
28.0
 10
166.9673518591648
 20
43.20376519838225
 30
0.0
 10
167.0486561662527
 20
44.9523245654357
 30
0.0
 10
165.3998323792922
 20
45.51766510751722
 30
0.0
 10
163.8591846619318
 20
45.51766510751722
 30
0.0
  0
SPLINE
  5
E4
330
81
100
AcDbEntity
  8
0
  6
Continuous
 62
     8
370
     0
100
AcDbSpline
210
0.0
220
0.0
230
1.0
 70
     8
 71
     3
 72
     8
 73
     4
 74
     0
 42
0.000000001
 43
0.00000001
 40
28.0
 40
28.0
 40
28.0
 40
28.0
 40
29.0
 40
29.0
 40
29.0
 40
29.0
 10
163.8591846619318
 20
45.51766510751722
 30
0.0
 10
162.7794910245866
 20
45.51766510751722
 30
0.0
 10
161.4286681936898
 20
45.14094366768412
 30
0.0
 10
161.4286681936898
 20
43.87642053562427
 30
0.0
  0
SPLINE
  5
E5
330
81
100
AcDbEntity
  8
0
  6
Continuous
 62
     8
370
     0
100
AcDbSpline
210
0.0
220
0.0
230
1.0
 70
     8
 71
     3
 72
     8
 73
     4
 74
     0
 42
0.000000001
 43
0.00000001
 40
29.0
 40
29.0
 40
29.0
 40
29.0
 40
30.0
 40
30.0
 40
30.0
 40
30.0
 10
161.4286681936898
 20
43.87642053562427
 30
0.0
 10
161.4286681936898
 20
42.39606202902813
 30
0.0
 10
164.2102401234681
 20
42.12665538435552
 30
0.0
 10
167.021095384189
 20
41.34634074217721
 30
0.0
  0
SPLINE
  5
E6
330
81
100
AcDbEntity
  8
0
  6
Continuous
 62
     8
370
     0
100
AcDbSpline
210
0.0
220
0.0
230
1.0
 70
     8
 71
     3
 72
     8
 73
     4
 74
     0
 42
0.000000001
 43
0.00000001
 40
30.0
 40
30.0
 40
30.0
 40
30.0
 40
31.0
 40
31.0
 40
31.0
 40
31.0
 10
167.021095384189
 20
41.34634074217721
 30
0.0
 10
169.8047343726221
 20
40.56619835488677
 30
0.0
 10
172.6142115942398
 20
39.27428669565115
 30
0.0
 10
172.6142115942398
 20
35.80317844961686
 30
0.0
  0
SPLINE
  5
E7
330
81
100
AcDbEntity
  8
0
  6
Continuous
 62
     8
370
     0
100
AcDbSpline
210
0.0
220
0.0
230
1.0
 70
     8
 71
     3
 72
     8
 73
     4
 74
     0
 42
0.000000001
 43
0.00000001
 40
31.0
 40
31.0
 40
31.0
 40
31.0
 40
32.0
 40
32.0
 40
32.0
 40
32.0
 10
172.6142115942398
 20
35.80317844961686
 30
0.0
 10
172.6142115942398
 20
30.93249923941061
 30
0.0
 10
168.4532225221737
 20
29.12313389692912
 30
0.0
 10
164.2102401234681
 20
29.12313389692912
 30
0.0
  0
SPLINE
  5
E8
330
81
100
AcDbEntity
  8
0
  6
Continuous
 62
     8
370
     0
100
AcDbSpline
210
0.0
220
0.0
230
1.0
 70
     8
 71
     3
 72
     8
 73
     4
 74
     0
 42
0.000000001
 43
0.00000001
 40
0.0
 40
0.0
 40
0.0
 40
0.0
 40
1.0
 40
1.0
 40
1.0
 40
1.0
 10
160.6276829649637
 20
37.39343557469195
 30
0.0
 10
160.938086272956
 20
37.30765264051871
 30
0.0
 10
161.2550352666885
 20
37.2187691183633
 30
0.0
 10
161.5726732799726
 20
37.12781853755313
 30
0.0
  0
SPLINE
  5
E9
330
81
100
AcDbEntity
  8
0
  6
Continuous
 62
     8
370
     0
100
AcDbSpline
210
0.0
220
0.0
230
1.0
 70
     8
 71
     3
 72
     8
 73
     4
 74
     0
 42
0.000000001
 43
0.00000001
 40
3.00211844657731
 40
3.00211844657731
 40
3.00211844657731
 40
3.00211844657731
 40
4.0
 40
4.0
 40
4.0
 40
4.0
 10
66.52024188954972
 20
39.12608937915723
 30
0.0
 10
66.52360869616864
 20
45.27412322811475
 30
0.0
 10
70.30988649618203
 20
50.17609584429974
 30
0.0
 10
77.02507716926495
 20
50.1899542846939
 30
0.0
  0
SPLINE
  5
EA
330
81
100
AcDbEntity
  8
0
  6
Continuous
 62
     8
370
     0
100
AcDbSpline
210
0.0
220
0.0
230
1.0
 70
     8
 71
     3
 72
     8
 73
     4
 74
     0
 42
0.000000001
 43
0.00000001
 40
3.0
 40
3.0
 40
3.0
 40
3.0
 40
4.0
 40
4.0
 40
4.0
 40
4.0
 10
161.7042760143268
 20
37.08957795243973
 30
0.0
 10
164.0696801349432
 20
36.40710408658753
 30
0.0
 10
166.4492091563673
 20
35.59543905481176
 30
0.0
 10
166.3251856370807
 20
35.10003399721688
 30
0.0
  0
SPLINE
  5
EB
330
81
100
AcDbEntity
  8
0
  6
Continuous
 62
     8
370
     0
100
AcDbSpline
210
0.0
220
0.0
230
1.0
 70
     8
 71
     3
 72
     8
 73
     4
 74
     0
 42
0.000000001
 43
0.00000001
 40
4.0
 40
4.0
 40
4.0
 40
4.0
 40
5.0
 40
5.0
 40
5.0
 40
5.0
 10
166.3251856370807
 20
35.10003399721688
 30
0.0
 10
166.0898854602119
 20
34.15642172131117
 30
0.0
 10
165.4012104183954
 20
33.89493880148186
 30
0.0
 10
163.6080370353763
 20
34.38448719288822
 30
0.0
  0
SPLINE
  5
EC
330
81
100
AcDbEntity
  8
0
  6
Continuous
 62
     8
370
     0
100
AcDbSpline
210
0.0
220
0.0
230
1.0
 70
     8
 71
     3
 72
     8
 73
     4
 74
     0
 42
0.000000001
 43
0.00000001
 40
5.0
 40
5.0
 40
5.0
 40
5.0
 40
6.0
 40
6.0
 40
6.0
 40
6.0
 10
163.6080370353763
 20
34.38448719288822
 30
0.0
 10
161.7283916986325
 20
34.89884028815191
 30
0.0
 10
161.7046205241026
 20
35.93478118397098
 30
0.0
 10
161.7042760143268
 20
37.08957795243973
 30
0.0
  0
SPLINE
  5
ED
330
81
100
AcDbEntity
  8
0
  6
Continuous
 62
     8
370
     0
100
AcDbSpline
210
0.0
220
0.0
230
1.0
 70
     8
 71
     3
 72
     8
 73
     4
 74
     0
 42
0.000000001
 43
0.00000001
 40
8.0
 40
8.0
 40
8.0
 40
8.0
 40
9.0
 40
9.0
 40
9.0
 40
9.0
 10
156.7116403434886
 20
37.12781853755313
 30
0.0
 10
156.7116403434886
 20
38.5878509673773
 30
0.0
 10
155.4507345640747
 20
39.84892900167915
 30
0.0
 10
154.6542279624339
 20
40.37981856618105
 30
0.0
  0
SPLINE
  5
EE
330
81
100
AcDbEntity
  8
0
  6
Continuous
 62
     8
370
     0
100
AcDbSpline
210
0.0
220
0.0
230
1.0
 70
     8
 71
     3
 72
     8
 73
     4
 74
     0
 42
0.000000001
 43
0.00000001
 40
9.0
 40
9.0
 40
9.0
 40
9.0
 40
10.0
 40
10.0
 40
10.0
 40
10.0
 10
154.6542279624339
 20
40.37981856618105
 30
0.0
 10
155.0517922437027
 20
40.8442177439543
 30
0.0
 10
155.649516704709
 20
41.30913368639121
 30
0.0
 10
155.8493323746708
 20
42.10546803314405
 30
0.0
  0
SPLINE
  5
EF
330
81
100
AcDbEntity
  8
0
  6
Continuous
 62
     8
370
     0
100
AcDbSpline
210
0.0
220
0.0
230
1.0
 70
     8
 71
     3
 72
     8
 73
     4
 74
     0
 42
0.000000001
 43
0.00000001
 40
10.0
 40
10.0
 40
10.0
 40
10.0
 40
11.0
 40
11.0
 40
11.0
 40
11.0
 10
155.8493323746708
 20
42.10546803314405
 30
0.0
 10
155.8493323746708
 20
39.84892900167915
 30
0.0
 10
157.9732351424542
 20
38.12293502494035
 30
0.0
 10
160.6276829649637
 20
37.39343557469195
 30
0.0
  0
SPLINE
  5
F0
330
81
100
AcDbEntity
  8
0
  6
Continuous
 62
     8
370
     0
100
AcDbSpline
210
0.0
220
0.0
230
1.0
 70
     8
 71
     3
 72
     8
 73
     4
 74
     0
 42
0.000000001
 43
0.00000001
 40
0.0
 40
0.0
 40
0.0
 40
0.0
 40
1.0
 40
1.0
 40
1.0
 40
1.0
 10
167.3357547617924
 20
42.17058038076954
 30
0.0
 10
167.2847673149745
 20
42.18401626202559
 30
0.0
 10
167.2406700636727
 20
42.19590184929056
 30
0.0
 10
167.189338107079
 20
42.2088209658829
 30
0.0
  0
SPLINE
  5
F1
330
81
100
AcDbEntity
  8
0
  6
Continuous
 62
     8
370
     0
100
AcDbSpline
210
0.0
220
0.0
230
1.0
 70
     8
 71
     3
 72
     8
 73
     4
 74
     0
 42
0.000000001
 43
0.00000001
 40
2.0
 40
2.0
 40
2.0
 40
2.0
 40
3.0
 40
3.0
 40
3.0
 40
3.0
 10
173.0691700759391
 20
42.16747979278733
 30
0.0
 10
173.0691700759391
 20
45.27185738248661
 30
0.0
 10
172.4597322825556
 20
50.25002364274127
 30
0.0
 10
164.1870190363622
 20
50.25002364274127
 30
0.0
  0
SPLINE
  5
F2
330
81
100
AcDbEntity
  8
0
  6
Continuous
 62
     8
370
     0
100
AcDbSpline
210
0.0
220
0.0
230
1.0
 70
     8
 71
     3
 72
     8
 73
     4
 74
     0
 42
0.000000001
 43
0.00000001
 40
3.0
 40
3.0
 40
3.0
 40
3.0
 40
4.0
 40
4.0
 40
4.0
 40
4.0
 10
164.1870190363622
 20
50.25002364274127
 30
0.0
 10
159.3649157045433
 20
50.25002364274127
 30
0.0
 10
156.9760849191726
 20
47.90081148158718
 30
0.0
 10
156.0162806838046
 20
46.1898036800955
 30
0.0
  0
SPLINE
  5
F3
330
81
100
AcDbEntity
  8
0
  6
Continuous
 62
     8
370
     0
100
AcDbSpline
210
0.0
220
0.0
230
1.0
 70
     8
 71
     3
 72
     8
 73
     4
 74
     0
 42
0.000000001
 43
0.00000001
 40
4.0
 40
4.0
 40
4.0
 40
4.0
 40
5.0
 40
5.0
 40
5.0
 40
5.0
 10
156.0162806838046
 20
46.1898036800955
 30
0.0
 10
155.1174546787523
 20
47.90081148158718
 30
0.0
 10
154.5865651142504
 20
50.04710738479733
 30
0.0
 10
147.7273754781487
 20
50.04710738479733
 30
0.0
  0
SPLINE
  5
F4
330
81
100
AcDbEntity
  8
0
  6
Continuous
 62
     8
370
     0
100
AcDbSpline
210
0.0
220
0.0
230
1.0
 70
     8
 71
     3
 72
     8
 73
     4
 74
     0
 42
0.000000001
 43
0.00000001
 40
19.0
 40
19.0
 40
19.0
 40
19.0
 40
20.0
 40
20.0
 40
20.0
 40
20.0
 10
149.6765281642566
 20
28.76070961279156
 30
0.0
 10
152.520456363454
 20
28.8110080400578
 30
0.0
 10
155.173870656636
 20
30.15769675364504
 30
0.0
 10
155.9810570613264
 20
32.14345110133414
 30
0.0
  0
SPLINE
  5
F5
330
81
100
AcDbEntity
  8
0
  6
Continuous
 62
     8
370
     0
100
AcDbSpline
210
0.0
220
0.0
230
1.0
 70
     8
 71
     3
 72
     8
 73
     4
 74
     0
 42
0.000000001
 43
0.00000001
 40
20.0
 40
20.0
 40
20.0
 40
20.0
 40
21.0
 40
21.0
 40
21.0
 40
21.0
 10
155.9810570613264
 20
32.14345110133414
 30
0.0
 10
156.7465577831456
 20
30.15769675364504
 30
0.0
 10
159.417886584669
 20
28.16367417133681
 30
0.0
 10
164.5948349855581
 20
28.16367417133681
 30
0.0
  0
SPLINE
  5
F6
330
81
100
AcDbEntity
  8
0
  6
Continuous
 62
     8
370
     0
100
AcDbSpline
210
0.0
220
0.0
230
1.0
 70
     8
 71
     3
 72
     8
 73
     4
 74
     0
 42
0.000000001
 43
0.00000001
 40
21.0
 40
21.0
 40
21.0
 40
21.0
 40
22.0
 40
22.0
 40
22.0
 40
22.0
 10
164.5948349855581
 20
28.16367417133681
 30
0.0
 10
169.7717833864471
 20
28.16367417133681
 30
0.0
 10
173.6165124843323
 20
31.30629234614945
 30
0.0
 10
173.6165124843323
 20
35.44798887077101
 30
0.0
  0
SPLINE
  5
F7
330
81
100
AcDbEntity
  8
0
  6
Continuous
 62
     8
370
     0
100
AcDbSpline
210
0.0
220
0.0
230
1.0
 70
     8
 71
     3
 72
     8
 73
     4
 74
     0
 42
0.000000001
 43
0.00000001
 40
22.0
 40
22.0
 40
22.0
 40
22.0
 40
23.0
 40
23.0
 40
23.0
 40
23.0
 10
173.6165124843323
 20
35.44798887077101
 30
0.0
 10
173.6165124843323
 20
39.66030989943075
 30
0.0
 10
171.193575231158
 20
41.15548232638614
 30
0.0
 10
167.3357547617924
 20
42.17058038076954
 30
0.0
  0
SPLINE
  5
F8
330
81
100
AcDbEntity
  8
0
  6
Continuous
 62
     8
370
     0
100
AcDbSpline
210
0.0
220
0.0
230
1.0
 70
     8
 71
     3
 72
     8
 73
     4
 74
     0
 42
0.000000001
 43
0.00000001
 40
0.0
 40
0.0
 40
0.0
 40
0.0
 40
1.0
 40
1.0
 40
1.0
 40
1.0
 10
77.03221361313545
 20
33.05571298764242
 30
0.0
 10
80.63526910329966
 20
33.05571298764242
 30
0.0
 10
82.01537526513914
 20
36.22554743474296
 30
0.0
 10
82.01537526513914
 20
39.394520607404
 30
0.0
  0
SPLINE
  5
F9
330
81
100
AcDbEntity
  8
0
  6
Continuous
 62
     8
370
     0
100
AcDbSpline
210
0.0
220
0.0
230
1.0
 70
     8
 71
     3
 72
     8
 73
     4
 74
     0
 42
0.000000001
 43
0.00000001
 40
1.0
 40
1.0
 40
1.0
 40
1.0
 40
2.0
 40
2.0
 40
2.0
 40
2.0
 10
82.01537526513914
 20
39.394520607404
 30
0.0
 10
82.01537526513914
 20
42.56383828984087
 30
0.0
 10
80.63526910329966
 20
45.73315597227772
 30
0.0
 10
77.03221361313545
 20
45.73315597227772
 30
0.0
  0
SPLINE
  5
FA
330
81
100
AcDbEntity
  8
0
  6
Continuous
 62
     8
370
     0
100
AcDbSpline
210
0.0
220
0.0
230
1.0
 70
     8
 71
     3
 72
     8
 73
     4
 74
     0
 42
0.000000001
 43
0.00000001
 40
2.0
 40
2.0
 40
2.0
 40
2.0
 40
3.0
 40
3.0
 40
3.0
 40
3.0
 10
77.03221361313545
 20
45.73315597227772
 30
0.0
 10
73.42950263274702
 20
45.73315597227772
 30
0.0
 10
72.04887970624388
 20
42.56383828984087
 30
0.0
 10
72.04887970624385
 20
39.394520607404
 30
0.0
  0
SPLINE
  5
FB
330
81
100
AcDbEntity
  8
0
  6
Continuous
 62
     8
370
     0
100
AcDbSpline
210
0.0
220
0.0
230
1.0
 70
     8
 71
     3
 72
     8
 73
     4
 74
     0
 42
0.000000001
 43
0.00000001
 40
3.0
 40
3.0
 40
3.0
 40
3.0
 40
4.0
 40
4.0
 40
4.0
 40
4.0
 10
72.04887970624385
 20
39.394520607404
 30
0.0
 10
72.04887970624388
 20
36.22554743474296
 30
0.0
 10
73.42950263274702
 20
33.05571298764242
 30
0.0
 10
77.03221361313545
 20
33.05571298764242
 30
0.0
  0
SPLINE
  5
FC
330
81
100
AcDbEntity
  8
0
  6
Continuous
 62
     8
370
     0
100
AcDbSpline
210
0.0
220
0.0
230
1.0
 70
     8
 71
     3
 72
    11
 73
     7
 74
     0
 42
0.000000001
 43
0.00000001
 40
2.0
 40
2.0
 40
2.0
 40
2.0
 40
3.0
 40
3.0
 40
3.0
 40
3.00211844657731
 40
3.00211844657731
 40
3.00211844657731
 40
3.00211844657731
 10
77.06659554923958
 20
27.94516906200683
 30
0.0
 10
70.31214814569965
 20
27.95750275571358
 30
0.0
 10
66.50881771248031
 20
32.89783589216447
 30
0.0
 10
66.52011877545024
 20
39.08677144153199
 30
0.0
 10
66.52014271748132
 20
39.09988310068809
 30
0.0
 10
66.5201837582936
 20
39.11298909154457
 30
0.0
 10
66.52024188954972
 20
39.12608937915723
 30
0.0
  0
SPLINE
  5
FD
330
81
100
AcDbEntity
  8
0
  6
Continuous
 62
     8
370
     0
100
AcDbSpline
210
0.0
220
0.0
230
1.0
 70
     8
 71
     3
 72
    11
 73
     7
 74
     0
 42
0.000000001
 43
0.00000001
 40
0.0
 40
0.0
 40
0.0
 40
0.0
 40
1.0
 40
1.0
 40
1.0
 40
2.0
 40
2.0
 40
2.0
 40
2.0
 10
77.02507716926495
 20
50.1899542846939
 30
0.0
 10
83.78004083250916
 20
50.2025619653381
 30
0.0
 10
87.60141459757921
 20
45.2764779726998
 30
0.0
 10
87.61296646735416
 20
39.08719837601426
 30
0.0
 10
87.6245176941261
 20
32.89826328850453
 30
0.0
 10
83.82155921248359
 20
27.95777674265099
 30
0.0
 10
77.06659554923958
 20
27.94516906200683
 30
0.0
  0
SPLINE
  5
FE
330
81
100
AcDbEntity
  8
0
  6
Continuous
 62
     8
370
     0
100
AcDbSpline
210
0.0
220
0.0
230
1.0
 70
     8
 71
     3
 72
     8
 73
     4
 74
     0
 42
0.000000001
 43
0.00000001
 40
1.0
 40
1.0
 40
1.0
 40
1.0
 40
2.0
 40
2.0
 40
2.0
 40
2.0
 10
97.89159151804188
 20
40.80029274754029
 30
0.0
 10
99.57279922392719
 20
40.80029274754029
 30
0.0
 10
100.4730032680826
 20
41.69670718416189
 30
0.0
 10
100.4730032680826
 20
43.31125224843066
 30
0.0
  0
SPLINE
  5
FF
330
81
100
AcDbEntity
  8
0
  6
Continuous
 62
     8
370
     0
100
AcDbSpline
210
0.0
220
0.0
230
1.0
 70
     8
 71
     3
 72
     8
 73
     4
 74
     0
 42
0.000000001
 43
0.00000001
 40
2.0
 40
2.0
 40
2.0
 40
2.0
 40
3.0
 40
3.0
 40
3.0
 40
3.0
 10
100.4730032680826
 20
43.31125224843066
 30
0.0
 10
100.4730032680826
 20
44.89565270731723
 30
0.0
 10
99.21295876310808
 20
45.61378333496433
 30
0.0
 10
97.65146820431197
 20
45.61378333496433
 30
0.0
  0
SPLINE
  5
100
330
81
100
AcDbEntity
  8
0
  6
Continuous
 62
     8
370
     0
100
AcDbSpline
210
0.0
220
0.0
230
1.0
 70
     8
 71
     3
 72
     8
 73
     4
 74
     0
 42
0.000000001
 43
0.00000001
 40
1.0
 40
1.0
 40
1.0
 40
1.0
 40
2.0
 40
2.0
 40
2.0
 40
2.0
 10
98.55218900458812
 20
50.04710738479733
 30
0.0
 10
102.3342173232785
 20
50.04710738479733
 30
0.0
 10
106.0573344703076
 20
48.34264526904578
 30
0.0
 10
106.0573344703077
 20
44.03765111069685
 30
0.0
  0
SPLINE
  5
101
330
81
100
AcDbEntity
  8
0
  6
Continuous
 62
     8
370
     0
100
AcDbSpline
210
0.0
220
0.0
230
1.0
 70
     8
 71
     3
 72
     8
 73
     4
 74
     0
 42
0.000000001
 43
0.00000001
 40
2.0
 40
2.0
 40
2.0
 40
2.0
 40
3.0
 40
3.0
 40
3.0
 40
3.0
 10
106.0573344703077
 20
44.03765111069685
 30
0.0
 10
106.0573344703076
 20
41.73494776927527
 30
0.0
 10
104.9459459335892
 20
39.55265059449444
 30
0.0
 10
102.6945745487612
 20
38.68569174370337
 30
0.0
  0
SPLINE
  5
102
330
81
100
AcDbEntity
  8
0
  6
Continuous
 62
     8
370
     0
100
AcDbSpline
210
0.0
220
0.0
230
1.0
 70
     8
 71
     3
 72
     8
 73
     4
 74
     0
 42
0.000000001
 43
0.00000001
 40
4.0
 40
4.0
 40
4.0
 40
4.0
 40
5.0
 40
5.0
 40
5.0
 40
5.0
 10
102.6945745487612
 20
38.62574704271483
 30
0.0
 10
104.9766073036351
 20
38.08727826314542
 30
0.0
 10
105.6373770536121
 20
35.54548513732129
 30
0.0
 10
105.8175556663535
 20
33.5125329503481
 30
0.0
  0
SPLINE
  5
103
330
81
100
AcDbEntity
  8
0
  6
Continuous
 62
     8
370
     0
100
AcDbSpline
210
0.0
220
0.0
230
1.0
 70
     8
 71
     3
 72
     8
 73
     4
 74
     0
 42
0.000000001
 43
0.00000001
 40
5.0
 40
5.0
 40
5.0
 40
5.0
 40
5.74044267676188
 40
5.74044267676188
 40
5.74044267676188
 40
5.74044267676188
 10
105.8175556663535
 20
33.5125329503481
 30
0.0
 10
105.8808091746534
 20
32.85009942065996
 30
0.0
 10
105.9969739034398
 20
30.95908278298207
 30
0.0
 10
106.3668527512702
 20
29.71530239194635
 30
0.0
  0
SPLINE
  5
104
330
81
100
AcDbEntity
  8
0
  6
Continuous
 62
     8
370
     0
100
AcDbSpline
210
0.0
220
0.0
230
1.0
 70
     8
 71
     3
 72
     8
 73
     4
 74
     0
 42
0.000000001
 43
0.00000001
 40
7.0
 40
7.0
 40
7.0
 40
7.0
 40
8.0
 40
8.0
 40
8.0
 40
8.0
 10
101.1935454556174
 20
28.69835334337245
 30
0.0
 10
100.7139878477091
 20
29.41665622590745
 30
0.0
 10
100.6237262864505
 20
31.50920860409338
 30
0.0
 10
100.5634370756861
 20
32.10693306509975
 30
0.0
  0
SPLINE
  5
105
330
81
100
AcDbEntity
  8
0
  6
Continuous
 62
     8
370
     0
100
AcDbSpline
210
0.0
220
0.0
230
1.0
 70
     8
 71
     3
 72
     8
 73
     4
 74
     0
 42
0.000000001
 43
0.00000001
 40
8.0
 40
8.0
 40
8.0
 40
8.0
 40
9.0
 40
9.0
 40
9.0
 40
9.0
 10
100.5634370756861
 20
32.10693306509975
 30
0.0
 10
100.4134030683269
 20
34.26046367360161
 30
0.0
 10
100.0533903526199
 20
36.4729054537646
 30
0.0
 10
97.44200625208497
 20
36.4729054537646
 30
0.0
  0
SPLINE
  5
106
330
81
100
AcDbEntity
  8
0
  6
Continuous
 62
     8
370
     0
100
AcDbSpline
210
0.0
220
0.0
230
1.0
 70
     8
 71
     3
 72
     8
 73
     4
 74
     0
 42
0.000000001
 43
0.00000001
 40
1.0
 40
1.0
 40
1.0
 40
1.0
 40
2.0
 40
2.0
 40
2.0
 40
2.0
 10
148.3552112217768
 20
45.35557325800512
 30
0.0
 10
149.5682301423551
 20
45.35557325800512
 30
0.0
 10
150.7168257348595
 20
44.77576330534016
 30
0.0
 10
150.7168257348595
 20
43.00515531263576
 30
0.0
  0
SPLINE
  5
107
330
81
100
AcDbEntity
  8
0
  6
Continuous
 62
     8
370
     0
100
AcDbSpline
210
0.0
220
0.0
230
1.0
 70
     8
 71
     3
 72
     8
 73
     4
 74
     0
 42
0.000000001
 43
0.00000001
 40
2.0
 40
2.0
 40
2.0
 40
2.0
 40
3.0
 40
3.0
 40
3.0
 40
3.0
 10
150.7168257348595
 20
43.00515531263576
 30
0.0
 10
150.7168257348595
 20
41.26865378773517
 30
0.0
 10
149.3504999640519
 20
40.68918834484602
 30
0.0
 10
148.3552112217768
 20
40.68918834484602
 30
0.0
  0
SPLINE
  5
108
330
81
100
AcDbEntity
  8
0
  6
Continuous
 62
     8
370
     0
100
AcDbSpline
210
0.0
220
0.0
230
1.0
 70
     8
 71
     3
 72
     8
 73
     4
 74
     0
 42
0.000000001
 43
0.00000001
 40
2.0
 40
2.0
 40
2.0
 40
2.0
 40
3.0
 40
3.0
 40
3.0
 40
3.0
 10
147.9838296834685
 20
41.63848503205236
 30
0.0
 10
148.6783613914736
 20
41.63848503205236
 30
0.0
 10
149.6316199411016
 20
41.97300402435042
 30
0.0
 10
149.6316199411016
 20
42.9753552170294
 30
0.0
  0
SPLINE
  5
109
330
81
100
AcDbEntity
  8
0
  6
Continuous
 62
     8
370
     0
100
AcDbSpline
210
0.0
220
0.0
230
1.0
 70
     8
 71
     3
 72
     8
 73
     4
 74
     0
 42
0.000000001
 43
0.00000001
 40
3.0
 40
3.0
 40
3.0
 40
3.0
 40
4.0
 40
4.0
 40
4.0
 40
4.0
 10
149.6316199411016
 20
42.9753552170294
 30
0.0
 10
149.6316199411016
 20
43.99734346692872
 30
0.0
 10
148.8296011830481
 20
44.33186245922681
 30
0.0
 10
147.9838296834685
 20
44.33186245922681
 30
0.0
  0
SPLINE
  5
10A
330
81
100
AcDbEntity
  8
0
  6
Continuous
 62
     8
370
     0
100
AcDbSpline
210
0.0
220
0.0
230
1.0
 70
     8
 71
     3
 72
     8
 73
     4
 74
     0
 42
0.000000001
 43
0.00000001
 40
1.0
 40
1.0
 40
1.0
 40
1.0
 40
2.0
 40
2.0
 40
2.0
 40
2.0
 10
148.8506162793717
 20
38.45762627212632
 30
0.0
 10
150.1973049929589
 20
38.45762627212632
 30
0.0
 10
151.4726801829563
 20
37.78979407174546
 30
0.0
 10
151.4726801829563
 20
35.74943492459264
 30
0.0
  0
SPLINE
  5
10B
330
81
100
AcDbEntity
  8
0
  6
Continuous
 62
     8
370
     0
100
AcDbSpline
210
0.0
220
0.0
230
1.0
 70
     8
 71
     3
 72
     8
 73
     4
 74
     0
 42
0.000000001
 43
0.00000001
 40
2.0
 40
2.0
 40
2.0
 40
2.0
 40
3.0
 40
3.0
 40
3.0
 40
3.0
 10
151.4726801829563
 20
35.74943492459264
 30
0.0
 10
151.4726801829563
 20
33.74748861744111
 30
0.0
 10
149.9558036401258
 20
33.07982867194814
 30
0.0
 10
148.8506162793717
 20
33.07982867194814
 30
0.0
  0
SPLINE
  5
10C
330
81
100
AcDbEntity
  8
0
  6
Continuous
 62
     8
370
     0
100
AcDbSpline
210
0.0
220
0.0
230
1.0
 70
     8
 71
     3
 72
     8
 73
     4
 74
     0
 42
0.000000001
 43
0.00000001
 40
2.0
 40
2.0
 40
2.0
 40
2.0
 40
3.0
 40
3.0
 40
3.0
 40
3.0
 10
148.5660512045641
 20
33.99588016579015
 30
0.0
 10
149.395975254457
 20
33.99588016579015
 30
0.0
 10
150.5349245732392
 20
34.42513934643217
 30
0.0
 10
150.5349245732392
 20
35.71326139813404
 30
0.0
  0
SPLINE
  5
10D
330
81
100
AcDbEntity
  8
0
  6
Continuous
 62
     8
370
     0
100
AcDbSpline
210
0.0
220
0.0
230
1.0
 70
     8
 71
     3
 72
     8
 73
     4
 74
     0
 42
0.000000001
 43
0.00000001
 40
3.0
 40
3.0
 40
3.0
 40
3.0
 40
4.0
 40
4.0
 40
4.0
 40
4.0
 10
150.5349245732392
 20
35.71326139813404
 30
0.0
 10
150.5349245732392
 20
37.02618815369325
 30
0.0
 10
149.5771873965258
 20
37.45613635388687
 30
0.0
 10
148.5660512045641
 20
37.45613635388687
 30
0.0
  0
HATCH
  5
10E
330
81
100
AcDbEntity
  8
0
  6
Continuous
 62
     7
100
AcDbHatch
 10
0.0
 20
0.0
 30
0.0
210
0.0
220
0.0
230
1.0
  2
SOLID
 70
     1
 71
     0
 91
        1
 92
        0
 93
       18
 72
     1
 10
53.55697298060871
 20
28.69835334337245
 11
47.97367529916809
 21
28.69835334337245
 72
     1
 10
47.97367529916809
 20
28.69835334337245
 11
47.97367529916809
 21
45.26307238320382
 72
     1
 10
47.97367529916809
 20
45.26307238320382
 11
42.18126018381921
 21
45.26307238320382
 72
     1
 10
42.18126018381921
 20
45.26307238320382
 11
42.18126018381921
 21
28.69835334337245
 72
     1
 10
42.18126018381921
 20
28.69835334337245
 11
36.59744573771491
 21
28.69835334337245
 72
     1
 10
36.59744573771491
 20
28.69835334337245
 11
36.59744573771491
 21
45.26307238320382
 72
     1
 10
36.59744573771491
 20
45.26307238320382
 11
30.20299978916224
 21
45.26307238320382
 72
     1
 10
30.20299978916224
 20
45.26307238320382
 11
30.20299978916224
 21
50.04710738479733
 72
     1
 10
30.20299978916224
 20
50.04710738479733
 11
53.55697298060871
 21
50.04710738479733
 72
     1
 10
53.55697298060871
 20
50.04710738479733
 11
53.55697298060871
 21
42.272899784181
 72
     1
 10
53.55697298060871
 20
42.272899784181
 11
60.91242894874484
 21
42.272899784181
 72
     1
 10
60.91242894874484
 20
42.272899784181
 11
60.91242894874484
 21
50.04710738479733
 72
     1
 10
60.91242894874484
 20
50.04710738479733
 11
66.496415649737
 21
50.04710738479733
 72
     1
 10
66.496415649737
 20
50.04710738479733
 11
66.496415649737
 21
28.69835334337245
 72
     1
 10
66.496415649737
 20
28.69835334337245
 11
60.91242894874484
 21
28.69835334337245
 72
     1
 10
60.91242894874484
 20
28.69835334337245
 11
60.91242894874484
 21
37.48955380213908
 72
     1
 10
60.91242894874484
 20
37.48955380213908
 11
53.55697298060871
 21
37.48955380213908
 72
     1
 10
53.55697298060871
 20
37.48955380213908
 11
53.55697298060871
 21
28.69835334337245
 97
        0
 75
     0
 76
     1
 98
        1
 10
0.0
 20
0.0
  0
HATCH
  5
10F
330
81
100
AcDbEntity
  8
0
  6
Continuous
 62
     7
100
AcDbHatch
 10
0.0
 20
0.0
 30
0.0
210
0.0
220
0.0
230
1.0
  2
SOLID
 70
     1
 71
     0
 91
        2
 92
        0
 93
        3
 72
     4
 94
        3
 73
     1
 74
     0
 95
       11
 96
        7
 40
0.0
 40
0.0
 40
0.0
 40
0.0
 40
1.0
 40
1.0
 40
1.0
 40
2.0
 40
2.0
 40
2.0
 40
2.0
 10
77.02507716926495
 20
50.1899542846939
 42
1.0
 10
83.78004083250916
 20
50.2025619653381
 42
1.0
 10
87.60141459757921
 20
45.2764779726998
 42
1.0
 10
87.61296646735416
 20
39.08719837601426
 42
1.0
 10
87.6245176941261
 20
32.89826328850453
 42
1.0
 10
83.82155921248359
 20
27.95777674265099
 42
1.0
 10
77.06659554923958
 20
27.94516906200683
 42
1.0
 72
     4
 94
        3
 73
     1
 74
     0
 95
       11
 96
        7
 40
2.0
 40
2.0
 40
2.0
 40
2.0
 40
3.0
 40
3.0
 40
3.0
 40
3.00211844657731
 40
3.00211844657731
 40
3.00211844657731
 40
3.00211844657731
 10
77.06659554923958
 20
27.94516906200683
 42
1.0
 10
70.31214814569965
 20
27.95750275571358
 42
1.0
 10
66.50881771248031
 20
32.89783589216447
 42
1.0
 10
66.52011877545024
 20
39.08677144153199
 42
1.0
 10
66.52014271748132
 20
39.09988310068809
 42
1.0
 10
66.5201837582936
 20
39.11298909154457
 42
1.0
 10
66.52024188954972
 20
39.12608937915723
 42
1.0
 72
     4
 94
        3
 73
     1
 74
     0
 95
        8
 96
        4
 40
3.00211844657731
 40
3.00211844657731
 40
3.00211844657731
 40
3.00211844657731
 40
4.0
 40
4.0
 40
4.0
 40
4.0
 10
66.52024188954972
 20
39.12608937915723
 42
1.0
 10
66.52360869616864
 20
45.27412322811475
 42
1.0
 10
70.30988649618203
 20
50.17609584429974
 42
1.0
 10
77.02507716926495
 20
50.1899542846939
 42
1.0
 97
        0
 92
        0
 93
        4
 72
     4
 94
        3
 73
     1
 74
     0
 95
        8
 96
        4
 40
2.0
 40
2.0
 40
2.0
 40
2.0
 40
3.0
 40
3.0
 40
3.0
 40
3.0
 10
77.03221361313545
 20
45.73315597227772
 42
1.0
 10
73.42950263274702
 20
45.73315597227772
 42
1.0
 10
72.04887970624388
 20
42.56383828984087
 42
1.0
 10
72.04887970624385
 20
39.394520607404
 42
1.0
 72
     4
 94
        3
 73
     1
 74
     0
 95
        8
 96
        4
 40
3.0
 40
3.0
 40
3.0
 40
3.0
 40
4.0
 40
4.0
 40
4.0
 40
4.0
 10
72.04887970624385
 20
39.394520607404
 42
1.0
 10
72.04887970624388
 20
36.22554743474296
 42
1.0
 10
73.42950263274702
 20
33.05571298764242
 42
1.0
 10
77.03221361313545
 20
33.05571298764242
 42
1.0
 72
     4
 94
        3
 73
     1
 74
     0
 95
        8
 96
        4
 40
0.0
 40
0.0
 40
0.0
 40
0.0
 40
1.0
 40
1.0
 40
1.0
 40
1.0
 10
77.03221361313545
 20
33.05571298764242
 42
1.0
 10
80.63526910329966
 20
33.05571298764242
 42
1.0
 10
82.01537526513914
 20
36.22554743474296
 42
1.0
 10
82.01537526513914
 20
39.394520607404
 42
1.0
 72
     4
 94
        3
 73
     1
 74
     0
 95
        8
 96
        4
 40
1.0
 40
1.0
 40
1.0
 40
1.0
 40
2.0
 40
2.0
 40
2.0
 40
2.0
 10
82.01537526513914
 20
39.394520607404
 42
1.0
 10
82.01537526513914
 20
42.56383828984087
 42
1.0
 10
80.63526910329966
 20
45.73315597227772
 42
1.0
 10
77.03221361313545
 20
45.73315597227772
 42
1.0
 97
        0
 75
     0
 76
     1
 98
        1
 10
0.0
 20
0.0
  0
HATCH
  5
110
330
81
100
AcDbEntity
  8
0
  6
Continuous
 62
     7
100
AcDbHatch
 10
0.0
 20
0.0
 30
0.0
210
0.0
220
0.0
230
1.0
  2
SOLID
 70
     1
 71
     0
 91
        2
 92
        0
 93
       14
 72
     1
 10
106.3668527512702
 20
29.71530239194635
 11
106.3668527512702
 21
28.69835334337245
 72
     1
 10
106.3668527512702
 20
28.69835334337245
 11
101.1935454556174
 21
28.69835334337245
 72
     4
 94
        3
 73
     1
 74
     0
 95
        8
 96
        4
 40
7.0
 40
7.0
 40
7.0
 40
7.0
 40
8.0
 40
8.0
 40
8.0
 40
8.0
 10
101.1935454556174
 20
28.69835334337245
 42
1.0
 10
100.7139878477091
 20
29.41665622590745
 42
1.0
 10
100.6237262864505
 20
31.50920860409338
 42
1.0
 10
100.5634370756861
 20
32.10693306509975
 42
1.0
 72
     4
 94
        3
 73
     1
 74
     0
 95
        8
 96
        4
 40
8.0
 40
8.0
 40
8.0
 40
8.0
 40
9.0
 40
9.0
 40
9.0
 40
9.0
 10
100.5634370756861
 20
32.10693306509975
 42
1.0
 10
100.4134030683269
 20
34.26046367360161
 42
1.0
 10
100.0533903526199
 20
36.4729054537646
 42
1.0
 10
97.44200625208497
 20
36.4729054537646
 42
1.0
 72
     1
 10
97.44200625208497
 20
36.4729054537646
 11
93.20832561732585
 21
36.4729054537646
 72
     1
 10
93.20832561732585
 20
36.4729054537646
 11
93.20832561732585
 21
28.69835334337245
 72
     1
 10
93.20832561732585
 20
28.69835334337245
 11
87.62433891633366
 21
28.69835334337245
 72
     1
 10
87.62433891633366
 20
28.69835334337245
 11
87.62433891633366
 21
50.04710738479733
 72
     1
 10
87.62433891633366
 20
50.04710738479733
 11
98.55218900458812
 21
50.04710738479733
 72
     4
 94
        3
 73
     1
 74
     0
 95
        8
 96
        4
 40
1.0
 40
1.0
 40
1.0
 40
1.0
 40
2.0
 40
2.0
 40
2.0
 40
2.0
 10
98.55218900458812
 20
50.04710738479733
 42
1.0
 10
102.3342173232785
 20
50.04710738479733
 42
1.0
 10
106.0573344703076
 20
48.34264526904578
 42
1.0
 10
106.0573344703077
 20
44.03765111069685
 42
1.0
 72
     4
 94
        3
 73
     1
 74
     0
 95
        8
 96
        4
 40
2.0
 40
2.0
 40
2.0
 40
2.0
 40
3.0
 40
3.0
 40
3.0
 40
3.0
 10
106.0573344703077
 20
44.03765111069685
 42
1.0
 10
106.0573344703076
 20
41.73494776927527
 42
1.0
 10
104.9459459335892
 20
39.55265059449444
 42
1.0
 10
102.6945745487612
 20
38.68569174370337
 42
1.0
 72
     1
 10
102.6945745487612
 20
38.68569174370337
 11
102.6945745487612
 21
38.62574704271483
 72
     4
 94
        3
 73
     1
 74
     0
 95
        8
 96
        4
 40
4.0
 40
4.0
 40
4.0
 40
4.0
 40
5.0
 40
5.0
 40
5.0
 40
5.0
 10
102.6945745487612
 20
38.62574704271483
 42
1.0
 10
104.9766073036351
 20
38.08727826314542
 42
1.0
 10
105.6373770536121
 20
35.54548513732129
 42
1.0
 10
105.8175556663535
 20
33.5125329503481
 42
1.0
 72
     4
 94
        3
 73
     1
 74
     0
 95
        8
 96
        4
 40
5.0
 40
5.0
 40
5.0
 40
5.0
 40
5.74044267676188
 40
5.74044267676188
 40
5.74044267676188
 40
5.74044267676188
 10
105.8175556663535
 20
33.5125329503481
 42
1.0
 10
105.8808091746534
 20
32.85009942065996
 42
1.0
 10
105.9969739034398
 20
30.95908278298207
 42
1.0
 10
106.3668527512702
 20
29.71530239194635
 42
1.0
 97
        0
 92
        0
 93
        5
 72
     1
 10
97.65146820431197
 20
45.61378333496433
 11
93.20832562586878
 21
45.61378333496433
 72
     1
 10
93.20832562586878
 20
45.61378333496433
 11
93.20832562586878
 21
40.80029274754029
 72
     1
 10
93.20832562586878
 20
40.80029274754029
 11
97.89159151804188
 21
40.80029274754029
 72
     4
 94
        3
 73
     1
 74
     0
 95
        8
 96
        4
 40
1.0
 40
1.0
 40
1.0
 40
1.0
 40
2.0
 40
2.0
 40
2.0
 40
2.0
 10
97.89159151804188
 20
40.80029274754029
 42
1.0
 10
99.57279922392719
 20
40.80029274754029
 42
1.0
 10
100.4730032680826
 20
41.69670718416189
 42
1.0
 10
100.4730032680826
 20
43.31125224843066
 42
1.0
 72
     4
 94
        3
 73
     1
 74
     0
 95
        8
 96
        4
 40
2.0
 40
2.0
 40
2.0
 40
2.0
 40
3.0
 40
3.0
 40
3.0
 40
3.0
 10
100.4730032680826
 20
43.31125224843066
 42
1.0
 10
100.4730032680826
 20
44.89565270731723
 42
1.0
 10
99.21295876310808
 20
45.61378333496433
 42
1.0
 10
97.65146820431197
 20
45.61378333496433
 42
1.0
 97
        0
 75
     0
 76
     1
 98
        1
 10
0.0
 20
0.0
  0
HATCH
  5
111
330
81
100
AcDbEntity
  8
0
  6
Continuous
 62
     7
100
AcDbHatch
 10
0.0
 20
0.0
 30
0.0
210
0.0
220
0.0
230
1.0
  2
SOLID
 70
     1
 71
     0
 91
        5
 92
        0
 93
       23
 72
     4
 94
        3
 73
     1
 74
     0
 95
        8
 96
        4
 40
19.0
 40
19.0
 40
19.0
 40
19.0
 40
20.0
 40
20.0
 40
20.0
 40
20.0
 10
149.6765281642566
 20
28.76070961279156
 42
1.0
 10
152.520456363454
 20
28.8110080400578
 42
1.0
 10
155.173870656636
 20
30.15769675364504
 42
1.0
 10
155.9810570613264
 20
32.14345110133414
 42
1.0
 72
     4
 94
        3
 73
     1
 74
     0
 95
        8
 96
        4
 40
20.0
 40
20.0
 40
20.0
 40
20.0
 40
21.0
 40
21.0
 40
21.0
 40
21.0
 10
155.9810570613264
 20
32.14345110133414
 42
1.0
 10
156.7465577831456
 20
30.15769675364504
 42
1.0
 10
159.417886584669
 20
28.16367417133681
 42
1.0
 10
164.5948349855581
 20
28.16367417133681
 42
1.0
 72
     4
 94
        3
 73
     1
 74
     0
 95
        8
 96
        4
 40
21.0
 40
21.0
 40
21.0
 40
21.0
 40
22.0
 40
22.0
 40
22.0
 40
22.0
 10
164.5948349855581
 20
28.16367417133681
 42
1.0
 10
169.7717833864471
 20
28.16367417133681
 42
1.0
 10
173.6165124843323
 20
31.30629234614945
 42
1.0
 10
173.6165124843323
 20
35.44798887077101
 42
1.0
 72
     4
 94
        3
 73
     1
 74
     0
 95
        8
 96
        4
 40
22.0
 40
22.0
 40
22.0
 40
22.0
 40
23.0
 40
23.0
 40
23.0
 40
23.0
 10
173.6165124843323
 20
35.44798887077101
 42
1.0
 10
173.6165124843323
 20
39.66030989943075
 42
1.0
 10
171.193575231158
 20
41.15548232638614
 42
1.0
 10
167.3357547617924
 20
42.17058038076954
 42
1.0
 72
     4
 94
        3
 73
     1
 74
     0
 95
        8
 96
        4
 40
0.0
 40
0.0
 40
0.0
 40
0.0
 40
1.0
 40
1.0
 40
1.0
 40
1.0
 10
167.3357547617924
 20
42.17058038076954
 42
1.0
 10
167.2847673149745
 20
42.18401626202559
 42
1.0
 10
167.2406700636727
 20
42.19590184929056
 42
1.0
 10
167.189338107079
 20
42.2088209658829
 42
1.0
 72
     1
 10
167.189338107079
 20
42.2088209658829
 11
173.0691700759391
 21
42.16747979278733
 72
     4
 94
        3
 73
     1
 74
     0
 95
        8
 96
        4
 40
2.0
 40
2.0
 40
2.0
 40
2.0
 40
3.0
 40
3.0
 40
3.0
 40
3.0
 10
173.0691700759391
 20
42.16747979278733
 42
1.0
 10
173.0691700759391
 20
45.27185738248661
 42
1.0
 10
172.4597322825556
 20
50.25002364274127
 42
1.0
 10
164.1870190363622
 20
50.25002364274127
 42
1.0
 72
     4
 94
        3
 73
     1
 74
     0
 95
        8
 96
        4
 40
3.0
 40
3.0
 40
3.0
 40
3.0
 40
4.0
 40
4.0
 40
4.0
 40
4.0
 10
164.1870190363622
 20
50.25002364274127
 42
1.0
 10
159.3649157045433
 20
50.25002364274127
 42
1.0
 10
156.9760849191726
 20
47.90081148158718
 42
1.0
 10
156.0162806838046
 20
46.1898036800955
 42
1.0
 72
     4
 94
        3
 73
     1
 74
     0
 95
        8
 96
        4
 40
4.0
 40
4.0
 40
4.0
 40
4.0
 40
5.0
 40
5.0
 40
5.0
 40
5.0
 10
156.0162806838046
 20
46.1898036800955
 42
1.0
 10
155.1174546787523
 20
47.90081148158718
 42
1.0
 10
154.5865651142504
 20
50.04710738479733
 42
1.0
 10
147.7273754781487
 20
50.04710738479733
 42
1.0
 72
     1
 10
147.7273754781487
 20
50.04710738479733
 11
138.3041010399261
 21
50.04710738479733
 72
     1
 10
138.3041010399261
 20
50.04710738479733
 11
138.3041010399261
 21
36.75023582328049
 72
     1
 10
138.3041010399261
 20
36.75023582328049
 11
133.3762332069377
 21
50.04710738479733
 72
     1
 10
133.3762332069377
 20
50.04710738479733
 11
126.7834772195869
 21
50.04710738479733
 72
     1
 10
126.7834772195869
 20
50.04710738479733
 11
121.0416582836138
 21
34.83629659928359
 72
     1
 10
121.0416582836138
 20
34.83629659928359
 11
113.7338781065659
 21
34.79083121159394
 72
     1
 10
113.7338781065659
 20
34.79083121159394
 11
113.6389611147968
 21
50.04710738479733
 72
     1
 10
113.6389611147968
 20
50.04710738479733
 11
106.3849632756327
 21
50.04710738479733
 72
     1
 10
106.3849632756327
 20
50.04710738479733
 11
106.3718719041525
 21
28.69835334337245
 72
     1
 10
106.3718719041525
 20
28.69835334337245
 11
126.0705963744016
 21
28.76070961279156
 72
     1
 10
126.0705963744016
 20
28.76070961279156
 11
127.3401148982105
 21
31.90746190491377
 72
     1
 10
127.3401148982105
 20
31.90746190491377
 11
132.5163742795479
 21
31.90746190491377
 72
     1
 10
132.5163742795479
 20
31.90746190491377
 11
133.7345608467632
 21
28.76070961279156
 72
     1
 10
133.7345608467632
 20
28.76070961279156
 11
149.6765281642566
 21
28.76070961279156
 97
        0
 92
        0
 93
        4
 72
     4
 94
        3
 73
     1
 74
     0
 95
        8
 96
        4
 40
2.0
 40
2.0
 40
2.0
 40
2.0
 40
3.0
 40
3.0
 40
3.0
 40
3.0
 10
164.2398679641865
 20
44.24039511375292
 42
1.0
 10
165.3912196348973
 20
44.2062886459491
 42
1.0
 10
165.7515768603801
 20
43.97150523374403
 42
1.0
 10
165.8638870472897
 20
43.27628450618734
 42
1.0
 72
     4
 94
        3
 73
     1
 74
     0
 95
        8
 96
        4
 40
3.0
 40
3.0
 40
3.0
 40
3.0
 40
4.0
 40
4.0
 40
4.0
 40
4.0
 10
165.8638870472897
 20
43.27628450618734
 42
1.0
 10
165.9090178279189
 20
43.00205472465359
 42
1.0
 10
165.9138409647801
 20
42.83186689541027
 42
1.0
 10
165.9145299843317
 20
42.47392123835806
 42
1.0
 72
     4
 94
        3
 73
     1
 74
     0
 95
        8
 96
        4
 40
0.0
 40
0.0
 40
0.0
 40
0.0
 40
1.0
 40
1.0
 40
1.0
 40
1.0
 10
165.9145299843317
 20
42.47392123835806
 42
1.0
 10
163.2373445166196
 20
43.14743785003957
 42
1.0
 10
162.5142184972235
 20
43.26439891892237
 42
1.0
 10
162.5142184972235
 20
43.83439034297712
 42
1.0
 72
     4
 94
        3
 73
     1
 74
     0
 95
        8
 96
        4
 40
1.0
 40
1.0
 40
1.0
 40
1.0
 40
2.0
 40
2.0
 40
2.0
 40
2.0
 10
162.5142184972235
 20
43.83439034297712
 42
1.0
 10
162.5142184972235
 20
44.08794953796311
 42
1.0
 10
163.6817621273968
 20
44.25641481832745
 42
1.0
 10
164.2398679641865
 20
44.24039511375292
 42
1.0
 97
        0
 92
        0
 93
        3
 72
     4
 94
        3
 73
     1
 74
     0
 95
        8
 96
        4
 40
4.0
 40
4.0
 40
4.0
 40
4.0
 40
5.0
 40
5.0
 40
5.0
 40
5.0
 10
166.3251856370807
 20
35.10003399721688
 42
1.0
 10
166.0898854602119
 20
34.15642172131117
 42
1.0
 10
165.4012104183954
 20
33.89493880148186
 42
1.0
 10
163.6080370353763
 20
34.38448719288822
 42
1.0
 72
     4
 94
        3
 73
     1
 74
     0
 95
        8
 96
        4
 40
5.0
 40
5.0
 40
5.0
 40
5.0
 40
6.0
 40
6.0
 40
6.0
 40
6.0
 10
163.6080370353763
 20
34.38448719288822
 42
1.0
 10
161.7283916986325
 20
34.89884028815191
 42
1.0
 10
161.7046205241026
 20
35.93478118397098
 42
1.0
 10
161.7042760143268
 20
37.08957795243973
 42
1.0
 72
     4
 94
        3
 73
     1
 74
     0
 95
        8
 96
        4
 40
3.0
 40
3.0
 40
3.0
 40
3.0
 40
4.0
 40
4.0
 40
4.0
 40
4.0
 10
161.7042760143268
 20
37.08957795243973
 42
1.0
 10
164.0696801349432
 20
36.40710408658753
 42
1.0
 10
166.4492091563673
 20
35.59543905481176
 42
1.0
 10
166.3251856370807
 20
35.10003399721688
 42
1.0
 97
        0
 92
        0
 93
       32
 72
     4
 94
        3
 73
     1
 74
     0
 95
        8
 96
        4
 40
16.0
 40
16.0
 40
16.0
 40
16.0
 40
17.0
 40
17.0
 40
17.0
 40
17.0
 10
148.3259278908342
 20
48.98929011821522
 42
1.0
 10
151.6487246783881
 20
49.0430336432394
 42
1.0
 10
155.2970832040696
 20
48.18227596841268
 42
1.0
 10
155.2970832040696
 20
44.17218217814528
 42
1.0
 72
     4
 94
        3
 73
     1
 74
     0
 95
        8
 96
        4
 40
17.0
 40
17.0
 40
17.0
 40
17.0
 40
18.0
 40
18.0
 40
18.0
 40
18.0
 10
155.2970832040696
 20
44.17218217814528
 42
1.0
 10
155.2970832040696
 20
42.44963329916444
 42
1.0
 10
154.270444072197
 20
41.05092360943199
 42
1.0
 10
152.7570126271244
 20
40.29730847487787
 42
1.0
 72
     4
 94
        3
 73
     1
 74
     0
 95
        8
 96
        4
 40
18.0
 40
18.0
 40
18.0
 40
18.0
 40
19.0
 40
19.0
 40
19.0
 40
19.0
 10
152.7570126271244
 20
40.29730847487787
 42
1.0
 10
154.6566395308645
 20
39.74936567647406
 42
1.0
 10
155.8830943326989
 20
38.18925315678111
 42
1.0
 10
156.0567272597002
 20
36.23347115958625
 42
1.0
 72
     1
 10
156.0567272597002
 20
36.23347115958625
 11
160.8609160831777
 21
36.23347115958625
 72
     4
 94
        3
 73
     1
 74
     0
 95
        8
 96
        4
 40
20.0
 40
20.0
 40
20.0
 40
20.0
 40
21.0
 40
21.0
 40
21.0
 40
21.0
 10
160.8609160831777
 20
36.23347115958625
 42
1.0
 10
160.9684031332261
 20
33.9727980108118
 42
1.0
 10
162.3736585086987
 20
33.24622689365768
 42
1.0
 10
164.507896569756
 20
33.24622689365768
 42
1.0
 72
     4
 94
        3
 73
     1
 74
     0
 95
        8
 96
        4
 40
21.0
 40
21.0
 40
21.0
 40
21.0
 40
22.0
 40
22.0
 40
22.0
 40
22.0
 10
164.507896569756
 20
33.24622689365768
 42
1.0
 10
166.0209835050527
 20
33.24622689365768
 42
1.0
 10
167.5885029849253
 20
33.78504018300288
 42
1.0
 10
167.5885029849253
 20
35.21131065479903
 42
1.0
 72
     4
 94
        3
 73
     1
 74
     0
 95
        8
 96
        4
 40
22.0
 40
22.0
 40
22.0
 40
22.0
 40
23.0
 40
23.0
 40
23.0
 40
23.0
 10
167.5885029849253
 20
35.21131065479903
 42
1.0
 10
167.5885029849253
 20
36.90629875171619
 42
1.0
 10
164.8331137981075
 20
37.22910441163718
 42
1.0
 10
162.0491302998987
 20
38.00941905381552
 42
1.0
 72
     4
 94
        3
 73
     1
 74
     0
 95
        8
 96
        4
 40
23.0
 40
23.0
 40
23.0
 40
23.0
 40
24.0
 40
24.0
 40
24.0
 40
24.0
 10
162.0491302998987
 20
38.00941905381552
 42
1.0
 10
159.2930520935294
 20
38.78956144110593
 42
1.0
 10
156.4022705648237
 20
40.02772957531736
 42
1.0
 10
156.4022705648237
 20
43.55344262081537
 42
1.0
 72
     4
 94
        3
 73
     1
 74
     0
 95
        8
 96
        4
 40
24.0
 40
24.0
 40
24.0
 40
24.0
 40
25.0
 40
25.0
 40
25.0
 40
25.0
 10
156.4022705648237
 20
43.55344262081537
 42
1.0
 10
156.4022705648237
 20
47.75129423889168
 42
1.0
 10
160.6449084537535
 20
49.39253881078461
 42
1.0
 10
164.2646726680438
 20
49.39253881078461
 42
1.0
 72
     4
 94
        3
 73
     1
 74
     0
 95
        8
 96
        4
 40
25.0
 40
25.0
 40
25.0
 40
25.0
 40
26.0
 40
26.0
 40
26.0
 40
26.0
 10
164.2646726680438
 20
49.39253881078461
 42
1.0
 10
168.1018225508616
 20
49.39253881078461
 42
1.0
 10
171.9654996864157
 20
47.53614788390696
 42
1.0
 10
171.9930604684793
 20
43.20376519838225
 42
1.0
 72
     1
 10
171.9930604684793
 20
43.20376519838225
 11
166.9673518591648
 21
43.20376519838225
 72
     4
 94
        3
 73
     1
 74
     0
 95
        8
 96
        4
 40
27.0
 40
27.0
 40
27.0
 40
27.0
 40
28.0
 40
28.0
 40
28.0
 40
28.0
 10
166.9673518591648
 20
43.20376519838225
 42
1.0
 10
167.0486561662527
 20
44.9523245654357
 42
1.0
 10
165.3998323792922
 20
45.51766510751722
 42
1.0
 10
163.8591846619318
 20
45.51766510751722
 42
1.0
 72
     4
 94
        3
 73
     1
 74
     0
 95
        8
 96
        4
 40
28.0
 40
28.0
 40
28.0
 40
28.0
 40
29.0
 40
29.0
 40
29.0
 40
29.0
 10
163.8591846619318
 20
45.51766510751722
 42
1.0
 10
162.7794910245866
 20
45.51766510751722
 42
1.0
 10
161.4286681936898
 20
45.14094366768412
 42
1.0
 10
161.4286681936898
 20
43.87642053562427
 42
1.0
 72
     4
 94
        3
 73
     1
 74
     0
 95
        8
 96
        4
 40
29.0
 40
29.0
 40
29.0
 40
29.0
 40
30.0
 40
30.0
 40
30.0
 40
30.0
 10
161.4286681936898
 20
43.87642053562427
 42
1.0
 10
161.4286681936898
 20
42.39606202902813
 42
1.0
 10
164.2102401234681
 20
42.12665538435552
 42
1.0
 10
167.021095384189
 20
41.34634074217721
 42
1.0
 72
     4
 94
        3
 73
     1
 74
     0
 95
        8
 96
        4
 40
30.0
 40
30.0
 40
30.0
 40
30.0
 40
31.0
 40
31.0
 40
31.0
 40
31.0
 10
167.021095384189
 20
41.34634074217721
 42
1.0
 10
169.8047343726221
 20
40.56619835488677
 42
1.0
 10
172.6142115942398
 20
39.27428669565115
 42
1.0
 10
172.6142115942398
 20
35.80317844961686
 42
1.0
 72
     4
 94
        3
 73
     1
 74
     0
 95
        8
 96
        4
 40
31.0
 40
31.0
 40
31.0
 40
31.0
 40
32.0
 40
32.0
 40
32.0
 40
32.0
 10
172.6142115942398
 20
35.80317844961686
 42
1.0
 10
172.6142115942398
 20
30.93249923941061
 42
1.0
 10
168.4532225221737
 20
29.12313389692912
 42
1.0
 10
164.2102401234681
 20
29.12313389692912
 42
1.0
 72
     4
 94
        3
 73
     1
 74
     0
 95
        8
 96
        4
 40
0.0
 40
0.0
 40
0.0
 40
0.0
 40
1.0
 40
1.0
 40
1.0
 40
1.0
 10
164.2102401234681
 20
29.12313389692912
 42
1.0
 10
160.290752404235
 20
29.12313389692912
 42
1.0
 10
156.7767526911141
 20
30.89219159564247
 42
1.0
 10
155.9991941271422
 20
34.65217128868185
 42
1.0
 72
     4
 94
        3
 73
     1
 74
     0
 95
        8
 96
        4
 40
1.0
 40
1.0
 40
1.0
 40
1.0
 40
2.0
 40
2.0
 40
2.0
 40
2.0
 10
155.9991941271422
 20
34.65217128868185
 42
1.0
 10
155.4869080905333
 20
30.98107511779787
 42
1.0
 10
152.3484240330302
 20
29.69605365407815
 42
1.0
 10
148.569496302322
 20
29.69605365407815
 42
1.0
 72
     1
 10
148.569496302322
 20
29.69605365407815
 11
134.4690556887606
 21
29.69605365407815
 72
     1
 10
134.4690556887606
 20
29.69605365407815
 11
133.0327944334664
 21
32.97130809257236
 72
     1
 10
133.0327944334664
 20
32.97130809257236
 11
126.8013016088652
 21
32.97130809257236
 72
     1
 10
126.8013016088652
 20
32.97130809257236
 11
125.3367905519557
 21
29.72258090681447
 72
     1
 10
125.3367905519557
 20
29.72258090681447
 11
107.508409654504
 21
29.72258090681447
 72
     1
 10
107.508409654504
 20
29.72258090681447
 11
107.508409654504
 21
48.98929011821522
 72
     1
 10
107.508409654504
 20
48.98929011821522
 11
112.5348072833701
 21
48.98929011821522
 72
     1
 10
112.5348072833701
 20
48.98929011821522
 11
112.5348072833701
 21
34.08062957063601
 72
     1
 10
112.5348072833701
 20
34.08062957063601
 11
121.7804161364119
 21
34.08062957063601
 72
     1
 10
121.7804161364119
 20
34.08062957063601
 11
127.3904133254767
 21
48.98929011821522
 72
     1
 10
127.3904133254767
 20
48.98929011821522
 11
132.4970817321033
 21
48.98929011821522
 72
     1
 10
132.4970817321033
 20
48.98929011821522
 11
139.3018388236293
 21
31.02758393753034
 72
     1
 10
139.3018388236293
 20
31.02758393753034
 11
139.3018388236293
 21
48.98929011821522
 72
     1
 10
139.3018388236293
 20
48.98929011821522
 11
148.3259278908342
 21
48.98929011821522
 97
        0
 92
        0
 93
        5
 72
     4
 94
        3
 73
     1
 74
     0
 95
        8
 96
        4
 40
8.0
 40
8.0
 40
8.0
 40
8.0
 40
9.0
 40
9.0
 40
9.0
 40
9.0
 10
156.7116403434886
 20
37.12781853755313
 42
1.0
 10
156.7116403434886
 20
38.5878509673773
 42
1.0
 10
155.4507345640747
 20
39.84892900167915
 42
1.0
 10
154.6542279624339
 20
40.37981856618105
 42
1.0
 72
     4
 94
        3
 73
     1
 74
     0
 95
        8
 96
        4
 40
9.0
 40
9.0
 40
9.0
 40
9.0
 40
10.0
 40
10.0
 40
10.0
 40
10.0
 10
154.6542279624339
 20
40.37981856618105
 42
1.0
 10
155.0517922437027
 20
40.8442177439543
 42
1.0
 10
155.649516704709
 20
41.30913368639121
 42
1.0
 10
155.8493323746708
 20
42.10546803314405
 42
1.0
 72
     4
 94
        3
 73
     1
 74
     0
 95
        8
 96
        4
 40
10.0
 40
10.0
 40
10.0
 40
10.0
 40
11.0
 40
11.0
 40
11.0
 40
11.0
 10
155.8493323746708
 20
42.10546803314405
 42
1.0
 10
155.8493323746708
 20
39.84892900167915
 42
1.0
 10
157.9732351424542
 20
38.12293502494035
 42
1.0
 10
160.6276829649637
 20
37.39343557469195
 42
1.0
 72
     4
 94
        3
 73
     1
 74
     0
 95
        8
 96
        4
 40
0.0
 40
0.0
 40
0.0
 40
0.0
 40
1.0
 40
1.0
 40
1.0
 40
1.0
 10
160.6276829649637
 20
37.39343557469195
 42
1.0
 10
160.938086272956
 20
37.30765264051871
 42
1.0
 10
161.2550352666885
 20
37.2187691183633
 42
1.0
 10
161.5726732799726
 20
37.12781853755313
 42
1.0
 72
     1
 10
161.5726732799726
 20
37.12781853755313
 11
156.7116403434886
 21
37.12781853755313
 97
        0
 75
     0
 76
     1
 98
        1
 10
0.0
 20
0.0
  0
HATCH
  5
112
330
81
100
AcDbEntity
  8
0
  6
Continuous
 62
     7
100
AcDbHatch
 10
0.0
 20
0.0
 30
0.0
210
0.0
220
0.0
230
1.0
  2
SOLID
 70
     1
 71
     0
 91
        2
 92
        0
 93
        4
 72
     1
 10
130.3745570034231
 20
43.91311082674656
 11
132.8105856280779
 21
36.20212076998882
 72
     1
 10
132.8105856280779
 20
36.20212076998882
 11
127.0700192339863
 21
36.20212076998882
 72
     1
 10
127.0700192339863
 20
36.20212076998882
 11
129.5897637341595
 21
43.91311082674656
 72
     1
 10
129.5897637341595
 20
43.91311082674656
 11
130.3745570034231
 21
43.91311082674656
 97
        0
 92
        0
 93
        3
 72
     1
 10
128.4229091235378
 20
37.23013794096457
 11
131.3867267247123
 21
37.23013794096457
 72
     1
 10
131.3867267247123
 20
37.23013794096457
 11
129.9297948828703
 21
41.88205344354024
 72
     1
 10
129.9297948828703
 20
41.88205344354024
 11
128.4229091235378
 21
37.23013794096457
 97
        0
 75
     0
 76
     1
 98
        1
 10
0.0
 20
0.0
  0
HATCH
  5
113
330
81
100
AcDbEntity
  8
0
  6
Continuous
 62
     7
100
AcDbHatch
 10
0.0
 20
0.0
 30
0.0
210
0.0
220
0.0
230
1.0
  2
SOLID
 70
     1
 71
     0
 91
        2
 92
        0
 93
        5
 72
     4
 94
        3
 73
     1
 74
     0
 95
        8
 96
        4
 40
2.0
 40
2.0
 40
2.0
 40
2.0
 40
3.0
 40
3.0
 40
3.0
 40
3.0
 10
150.7168257348595
 20
43.00515531263576
 42
1.0
 10
150.7168257348595
 20
41.26865378773517
 42
1.0
 10
149.3504999640519
 20
40.68918834484602
 42
1.0
 10
148.3552112217768
 20
40.68918834484602
 42
1.0
 72
     1
 10
148.3552112217768
 20
40.68918834484602
 11
143.8820962928393
 21
40.68918834484602
 72
     1
 10
143.8820962928393
 20
40.68918834484602
 11
143.8820962928393
 21
45.35557325800512
 72
     1
 10
143.8820962928393
 20
45.35557325800512
 11
148.3552112217768
 21
45.35557325800512
 72
     4
 94
        3
 73
     1
 74
     0
 95
        8
 96
        4
 40
1.0
 40
1.0
 40
1.0
 40
1.0
 40
2.0
 40
2.0
 40
2.0
 40
2.0
 10
148.3552112217768
 20
45.35557325800512
 42
1.0
 10
149.5682301423551
 20
45.35557325800512
 42
1.0
 10
150.7168257348595
 20
44.77576330534016
 42
1.0
 10
150.7168257348595
 20
43.00515531263576
 42
1.0
 97
        0
 92
        0
 93
        5
 72
     1
 10
144.861193075652
 20
44.33186245922681
 11
144.861193075652
 21
41.63848503205236
 72
     1
 10
144.861193075652
 20
41.63848503205236
 11
147.9838296834685
 21
41.63848503205236
 72
     4
 94
        3
 73
     1
 74
     0
 95
        8
 96
        4
 40
2.0
 40
2.0
 40
2.0
 40
2.0
 40
3.0
 40
3.0
 40
3.0
 40
3.0
 10
147.9838296834685
 20
41.63848503205236
 42
1.0
 10
148.6783613914736
 20
41.63848503205236
 42
1.0
 10
149.6316199411016
 20
41.97300402435042
 42
1.0
 10
149.6316199411016
 20
42.9753552170294
 42
1.0
 72
     4
 94
        3
 73
     1
 74
     0
 95
        8
 96
        4
 40
3.0
 40
3.0
 40
3.0
 40
3.0
 40
4.0
 40
4.0
 40
4.0
 40
4.0
 10
149.6316199411016
 20
42.9753552170294
 42
1.0
 10
149.6316199411016
 20
43.99734346692872
 42
1.0
 10
148.8296011830481
 20
44.33186245922681
 42
1.0
 10
147.9838296834685
 20
44.33186245922681
 42
1.0
 72
     1
 10
147.9838296834685
 20
44.33186245922681
 11
144.861193075652
 21
44.33186245922681
 97
        0
 75
     0
 76
     1
 98
        1
 10
0.0
 20
0.0
  0
HATCH
  5
114
330
81
100
AcDbEntity
  8
0
  6
Continuous
 62
     7
100
AcDbHatch
 10
0.0
 20
0.0
 30
0.0
210
0.0
220
0.0
230
1.0
  2
SOLID
 70
     1
 71
     0
 91
        2
 92
        0
 93
        5
 72
     4
 94
        3
 73
     1
 74
     0
 95
        8
 96
        4
 40
2.0
 40
2.0
 40
2.0
 40
2.0
 40
3.0
 40
3.0
 40
3.0
 40
3.0
 10
151.4726801829563
 20
35.74943492459264
 42
1.0
 10
151.4726801829563
 20
33.74748861744111
 42
1.0
 10
149.9558036401258
 20
33.07982867194814
 42
1.0
 10
148.8506162793717
 20
33.07982867194814
 42
1.0
 72
     1
 10
148.8506162793717
 20
33.07982867194814
 11
143.8820962928393
 21
33.07982867194814
 72
     1
 10
143.8820962928393
 20
33.07982867194814
 11
143.8820962928393
 21
38.45762627212632
 72
     1
 10
143.8820962928393
 20
38.45762627212632
 11
148.8506162793717
 21
38.45762627212632
 72
     4
 94
        3
 73
     1
 74
     0
 95
        8
 96
        4
 40
1.0
 40
1.0
 40
1.0
 40
1.0
 40
2.0
 40
2.0
 40
2.0
 40
2.0
 10
148.8506162793717
 20
38.45762627212632
 42
1.0
 10
150.1973049929589
 20
38.45762627212632
 42
1.0
 10
151.4726801829563
 20
37.78979407174546
 42
1.0
 10
151.4726801829563
 20
35.74943492459264
 42
1.0
 97
        0
 92
        0
 93
        5
 72
     1
 10
144.8353548424673
 20
33.99588016579015
 11
148.5660512045641
 21
33.99588016579015
 72
     4
 94
        3
 73
     1
 74
     0
 95
        8
 96
        4
 40
2.0
 40
2.0
 40
2.0
 40
2.0
 40
3.0
 40
3.0
 40
3.0
 40
3.0
 10
148.5660512045641
 20
33.99588016579015
 42
1.0
 10
149.395975254457
 20
33.99588016579015
 42
1.0
 10
150.5349245732392
 20
34.42513934643217
 42
1.0
 10
150.5349245732392
 20
35.71326139813404
 42
1.0
 72
     4
 94
        3
 73
     1
 74
     0
 95
        8
 96
        4
 40
3.0
 40
3.0
 40
3.0
 40
3.0
 40
4.0
 40
4.0
 40
4.0
 40
4.0
 10
150.5349245732392
 20
35.71326139813404
 42
1.0
 10
150.5349245732392
 20
37.02618815369325
 42
1.0
 10
149.5771873965258
 20
37.45613635388687
 42
1.0
 10
148.5660512045641
 20
37.45613635388687
 42
1.0
 72
     1
 10
148.5660512045641
 20
37.45613635388687
 11
144.8353548424673
 21
37.45613635388687
 72
     1
 10
144.8353548424673
 20
37.45613635388687
 11
144.8353548424673
 21
33.99588016579015
 97
        0
 75
     0
 76
     1
 98
        1
 10
0.0
 20
0.0
  0
ENDBLK
  5
83
330
81
100
AcDbEntity
  8
0
100
AcDbBlockEnd
  0
BLOCK
  5
130
330
12F
100
AcDbEntity
  8
0
100
AcDbBlockBegin
  2
SW_NOTE_0
 70
     0
 10
0.0
 20
0.0
 30
0.0
  3
SW_NOTE_0
  1

  0
MTEXT
  5
133
330
12F
100
AcDbEntity
  8
0
  6
Continuous
 62
     0
370
     0
100
AcDbMText
 10
0.0
 20
3.4106583948
 30
0.0
 40
2.6458333333
 41
0.0
 71
     1
 72
     1
  1
NOTES/SPECIFICATIONS:
  7
SLDTEXTSTYLE0
 73
     1
 44
1.0
  0
MTEXT
  5
134
330
12F
100
AcDbEntity
  8
0
  6
Continuous
 62
     0
370
     0
100
AcDbMText
 10
0.0
 20
-1.1171195042
 30
0.0
 40
2.6458333333
 41
0.0
 71
     1
 72
     1
  1
1. DESIGN WAVELENGTH: 587.6 nm
  7
SLDTEXTSTYLE0
 73
     1
 44
1.0
  0
MTEXT
  5
135
330
12F
100
AcDbEntity
  8
0
  6
Continuous
 62
     0
370
     0
100
AcDbMText
 10
0.0
 20
-5.6448974033
 30
0.0
 40
2.6458333333
 41
0.0
 71
     1
 72
     1
  1
2. FOCAL LENGTH: f=1003.5 mm ± 1%
  7
SLDTEXTSTYLE0
 73
     1
 44
1.0
  0
MTEXT
  5
136
330
12F
100
AcDbEntity
  8
0
  6
Continuous
 62
     0
370
     0
100
AcDbMText
 10
0.0
 20
-10.1726753024
 30
0.0
 40
2.6458333333
 41
0.0
 71
     1
 72
     1
  1
3. BACK FOCAL LENGTH(REF): bf=1001.0 mm
  7
SLDTEXTSTYLE0
 73
     1
 44
1.0
  0
MTEXT
  5
137
330
12F
100
AcDbEntity
  8
0
  6
Continuous
 62
     0
370
     0
100
AcDbMText
 10
0.0
 20
-14.7004532014
 30
0.0
 40
2.6458333333
 41
0.0
 71
     1
 72
     1
  1
4. CLEAR APERTURE: >
  7
SLDTEXTSTYLE0
 73
     1
 44
1.0
  0
MTEXT
  5
138
330
12F
100
AcDbEntity
  8
0
  6
Continuous
 62
     0
370
     0
100
AcDbMText
 10
36.6839878261
 20
-14.7004532014
 30
0.0
 40
2.6458333333
 41
0.0
 71
     1
 72
     1
  1
%%c
  7
SLDTEXTSTYLE0
 73
     1
 44
1.0
  0
MTEXT
  5
139
330
12F
100
AcDbEntity
  8
0
  6
Continuous
 62
     0
370
     0
100
AcDbMText
 10
40.6777262688
 20
-14.7004532014
 30
0.0
 40
2.6458333333
 41
0.0
 71
     1
 72
     1
  1
45.72 mm
  7
SLDTEXTSTYLE0
 73
     1
 44
1.0
  0
MTEXT
  5
13A
330
12F
100
AcDbEntity
  8
0
  6
Continuous
 62
     0
370
     0
100
AcDbMText
 10
0.0
 20
-19.2282311005
 30
0.0
 40
2.6458333333
 41
0.0
 71
     1
 72
     1
  1
5. SURFACE QUALITY: 40-20 SCRATCH-DIG
  7
SLDTEXTSTYLE0
 73
     1
 44
1.0
  0
MTEXT
  5
13B
330
12F
100
AcDbEntity
  8
0
  6
Continuous
 62
     0
370
     0
100
AcDbMText
 10
0.0
 20
-23.7560089995
 30
0.0
 40
2.6458333333
 41
0.0
 71
     1
 72
     1
  1
6. CENTRATION: <3 arcmin
  7
SLDTEXTSTYLE0
 73
     1
 44
1.0
  0
MTEXT
  5
13C
330
12F
100
AcDbEntity
  8
0
  6
Continuous
 62
     0
370
     0
100
AcDbMText
 10
0.0
 20
-28.2837868986
 30
0.0
 40
2.6458333333
 41
0.0
 71
     1
 72
     1
  1
7. DIAMETER TOLERANCE: +0.0/-0.1 mm
  7
SLDTEXTSTYLE0
 73
     1
 44
1.0
  0
MTEXT
  5
13D
330
12F
100
AcDbEntity
  8
0
  6
Continuous
 62
     0
370
     0
100
AcDbMText
 10
0.0
 20
-32.8115647976
 30
0.0
 40
2.6458333333
 41
0.0
 71
     1
 72
     1
  1
8. THICKNESS TOLERANCE: ±0.1 mm
  7
SLDTEXTSTYLE0
 73
     1
 44
1.0
  0
MTEXT
  5
13E
330
12F
100
AcDbEntity
  8
0
  6
Continuous
 62
     0
370
     0
100
AcDbMText
 10
0.0
 20
-37.3393426967
 30
0.0
 40
2.6458333333
 41
0.0
 71
     1
 72
     1
  1
9. COATING: BBAR Ravg <0.5% FROM 650-1050 nm, AOI: 0
  7
SLDTEXTSTYLE0
 73
     1
 44
1.0
  0
MTEXT
  5
13F
330
12F
100
AcDbEntity
  8
0
  6
Continuous
 62
     0
370
     0
100
AcDbMText
 10
97.5087583065
 20
-37.3393426967
 30
0.0
 40
2.6458333333
 41
0.0
 71
     1
 72
     1
  1
%%d
  7
SLDTEXTSTYLE0
 73
     1
 44
1.0
  0
ENDBLK
  5
131
330
12F
100
AcDbEntity
  8
0
100
AcDbBlockEnd
  0
BLOCK
  5
153
330
152
100
AcDbEntity
  8
0
100
AcDbBlockBegin
  2
SW_NOTE_1
 70
     0
 10
0.0
 20
0.0
 30
0.0
  3
SW_NOTE_1
  1

  0
MTEXT
  5
155
330
152
100
AcDbEntity
  8
0
  6
Continuous
 62
     0
370
     0
100
AcDbMText
 10
19.90725
 20
1.9645392354
 30
0.0
 40
1.524
 41
0.0
 71
     2
 72
     1
  1
VALUES IN PARENTHESIS ARE CALCULATED
  7
SLDTEXTSTYLE0
 73
     1
 44
1.0
  0
MTEXT
  5
156
330
152
100
AcDbEntity
  8
0
  6
Continuous
 62
     0
370
     0
100
AcDbMText
 10
19.8778795174
 20
-0.5594606586
 30
0.0
 40
1.524
 41
0.0
 71
     2
 72
     1
  1
AND MAY CONTAIN ROUNDOFF ERRORS
  7
SLDTEXTSTYLE0
 73
     1
 44
1.0
  0
ENDBLK
  5
154
330
152
100
AcDbEntity
  8
0
100
AcDbBlockEnd
  0
BLOCK
  5
159
330
158
100
AcDbEntity
  8
0
100
AcDbBlockBegin
  2
SW_NOTE_2
 70
     0
 10
0.0
 20
0.0
 30
0.0
  3
SW_NOTE_2
  1

  0
MTEXT
  5
15B
330
158
100
AcDbEntity
  8
0
  6
Continuous
 62
     0
370
     0
100
AcDbMText
 10
0.0
 20
2.7285267159
 30
0.0
 40
2.1166666667
 41
0.0
 71
     1
 72
     1
  1
DRAWING
  7
SLDTEXTSTYLE0
 73
     1
 44
1.0
  0
MTEXT
  5
15C
330
158
100
AcDbEntity
  8
0
  6
Continuous
 62
     0
370
     0
100
AcDbMText
 10
0.0
 20
-0.0936954723
 30
0.0
 40
2.1166666667
 41
0.0
 71
     1
 72
     1
  1
PROJECTION
  7
SLDTEXTSTYLE0
 73
     1
 44
1.0
  0
ENDBLK
  5
15A
330
158
100
AcDbEntity
  8
0
100
AcDbBlockEnd
  0
BLOCK
  5
160
330
15F
100
AcDbEntity
  8
0
100
AcDbBlockBegin
  2
SW_NOTE_3
 70
     0
 10
0.0
 20
0.0
 30
0.0
  3
SW_NOTE_3
  1

  0
MTEXT
  5
162
330
15F
100
AcDbEntity
  8
0
  6
Continuous
 62
     0
370
     0
100
AcDbMText
 10
25.052734375
 20
4.0927900738
 30
0.0
 40
3.175
 41
0.0
 71
     2
 72
     1
  1
FOR INFORMATION ONLY
  7
SLDTEXTSTYLE0
 73
     1
 44
1.0
  0
MTEXT
  5
163
330
15F
100
AcDbEntity
  8
0
  6
Continuous
 62
     0
370
     0
100
AcDbMText
 10
25.3768468589
 20
-0.1405432084
 30
0.0
 40
3.175
 41
0.0
 71
     2
 72
     1
  1
NOT FOR MANUFACTURING PURPOSES
  7
SLDTEXTSTYLE0
 73
     1
 44
1.0
  0
ENDBLK
  5
161
330
15F
100
AcDbEntity
  8
0
100
AcDbBlockEnd
  0
BLOCK
  5
166
330
165
100
AcDbEntity
  8
0
100
AcDbBlockBegin
  2
SW_NOTE_4
 70
     0
 10
0.0
 20
0.0
 30
0.0
  3
SW_NOTE_4
  1

  0
MTEXT
  5
168
330
165
100
AcDbEntity
  8
0
  6
Continuous
 62
     0
370
     0
100
AcDbMText
 10
1.7115234375
 20
3.0695925553
 30
0.0
 40
2.38125
 41
0.0
 71
     2
 72
     1
  1
%%c
  7
SLDTEXTSTYLE0
 73
     1
 44
1.0
  0
MTEXT
  5
169
330
165
100
AcDbEntity
  8
0
  6
Continuous
 62
     0
370
     0
100
AcDbMText
 10
29.9369426303
 20
3.0695925553
 30
0.0
 40
2.38125
 41
0.0
 71
     2
 72
     1
  1
50.8 mm f=1003.5 mm FUSED SILICA
  7
SLDTEXTSTYLE0
 73
     1
 44
1.0
  0
MTEXT
  5
16A
330
165
100
AcDbEntity
  8
0
  6
Continuous
 62
     0
370
     0
100
AcDbMText
 10
28.6529415548
 20
-0.1054074063
 30
0.0
 40
2.38125
 41
0.0
 71
     2
 72
     1
  1
PLANO CONVEX LENS, -B COAT
  7
SLDTEXTSTYLE0
 73
     1
 44
1.0
  0
ENDBLK
  5
167
330
165
100
AcDbEntity
  8
0
100
AcDbBlockEnd
  0
BLOCK
  5
172
330
171
100
AcDbEntity
  8
0
100
AcDbBlockBegin
  2
_D
 70
     0
 10
0.0
 20
0.0
 30
0.0
  3
_D
  1

  0
SOLID
  5
174
330
171
100
AcDbEntity
  8
0
  6
Continuous
 62
     7
370
    18
100
AcDbTrace
 10
84.0050409655
 20
156.3339442303
 30
0.0
 11
86.6074735879
 21
158.2223386397
 31
0.0
 12
85.8883523308
 22
158.9400576777
 32
0.0
 13
85.8883523308
 23
158.9400576777
 33
0.0
  0
LINE
  5
175
330
171
100
AcDbEntity
  8
0
  6
Continuous
 62
     7
370
    18
100
AcDbLine
 10
105.2922059535
 20
170.9852138143
 30
0.0
 11
104.6483864993
 21
170.9852138143
 31
0.0
  0
LINE
  5
176
330
171
100
AcDbEntity
  8
0
  6
Continuous
 62
     7
370
    18
100
AcDbLine
 10
104.6483864993
 20
170.9852138143
 30
0.0
 11
104.6483864993
 21
167.6220657379
 31
0.0
  0
LINE
  5
177
330
171
100
AcDbEntity
  8
0
  6
Continuous
 62
     7
370
    18
100
AcDbLine
 10
104.6483864993
 20
167.6220657379
 30
0.0
 11
105.2922059535
 21
167.6220657379
 31
0.0
  0
LINE
  5
178
330
171
100
AcDbEntity
  8
0
  6
Continuous
 62
     7
370
    18
100
AcDbLine
 10
113.0493974997
 20
170.9852138143
 30
0.0
 11
113.6932169538
 21
170.9852138143
 31
0.0
  0
LINE
  5
179
330
171
100
AcDbEntity
  8
0
  6
Continuous
 62
     7
370
    18
100
AcDbLine
 10
113.6932169538
 20
170.9852138143
 30
0.0
 11
113.6932169538
 21
167.6220657379
 31
0.0
  0
LINE
  5
17A
330
171
100
AcDbEntity
  8
0
  6
Continuous
 62
     7
370
    18
100
AcDbLine
 10
113.6932169538
 20
167.6220657379
 30
0.0
 11
113.0493974997
 21
167.6220657379
 31
0.0
  0
LINE
  5
17B
330
171
100
AcDbEntity
  8
0
  6
Continuous
 62
     7
370
    18
100
AcDbLine
 10
84.0050409655
 20
156.3339442303
 30
0.0
 11
100.1945670452
 21
172.5551000437
 31
0.0
  0
LINE
  5
17C
330
171
100
AcDbEntity
  8
0
  6
Continuous
 62
     7
370
    18
100
AcDbLine
 10
100.1945670452
 20
172.5551000437
 30
0.0
 11
104.0045670452
 21
172.5551000437
 31
0.0
  0
MTEXT
  5
17D
330
171
100
AcDbEntity
  8
0
  6
Continuous
 62
     7
370
    18
100
AcDbMText
 10
104.0045670452
 20
174.1429534608
 30
0.0
 40
2.1166666667
 41
0.0
 71
     1
 72
     1
  1
%%c
  7
SLDTEXTSTYLE0
 73
     1
 44
1.0
  0
MTEXT
  5
17E
330
171
100
AcDbEntity
  8
0
  6
Continuous
 62
     7
370
    18
100
AcDbMText
 10
107.1995578459
 20
174.1429534608
 30
0.0
 40
2.1166666667
 41
0.0
 71
     1
 72
     1
  1
50.8mm
  7
SLDTEXTSTYLE0
 73
     1
 44
1.0
  0
MTEXT
  5
17F
330
171
100
AcDbEntity
  8
0
  6
Continuous
 62
     7
370
    18
100
AcDbMText
 10
105.2922059535
 20
170.3505923373
 30
0.0
 40
2.1166666667
 41
0.0
 71
     1
 72
     1
  1
2.00in
  7
SLDTEXTSTYLE0
 73
     1
 44
1.0
  0
ENDBLK
  5
173
330
171
100
AcDbEntity
  8
0
100
AcDbBlockEnd
  0
BLOCK
  5
232
330
231
100
AcDbEntity
  8
0
100
AcDbBlockBegin
  2
SW_NOTE_5
 70
     0
 10
0.0
 20
0.0
 30
0.0
  3
SW_NOTE_5
  1

  0
MTEXT
  5
234
330
231
100
AcDbEntity
  8
0
  6
Continuous
 62
     0
370
     0
100
AcDbMText
 10
11.01328125
 20
2.7285267159
 30
0.0
 40
2.1166666667
 41
0.0
 71
     2
 72
     1
  1
ISOMETRIC VIEW
  7
SLDTEXTSTYLE0
 73
     1
 44
1.0
  0
MTEXT
  5
235
330
231
100
AcDbEntity
  8
0
  6
Continuous
 62
     0
370
     0
100
AcDbMText
 10
10.8150885594
 20
-1.0936954033
 30
0.0
 40
2.1166666667
 41
0.0
 71
     2
 72
     1
  1
SCALE: 1:1
  7
SLDTEXTSTYLE0
 73
     1
 44
1.0
  0
ENDBLK
  5
233
330
231
100
AcDbEntity
  8
0
100
AcDbBlockEnd
  0
BLOCK
  5
244
330
243
100
AcDbEntity
  8
0
100
AcDbBlockBegin
  2
_D_1
 70
     0
 10
0.0
 20
0.0
 30
0.0
  3
_D_1
  1

  0
SOLID
  5
246
330
243
100
AcDbEntity
  8
0
  6
Continuous
 62
     7
370
    18
100
AcDbTrace
 10
166.3746059389
 20
155.8361703489
 30
0.0
 11
163.2211579487
 21
156.4642266942
 31
0.0
 12
163.1826229512
 22
155.4489577378
 32
0.0
 13
163.1826229512
 23
155.4489577378
 33
0.0
  0
LINE
  5
247
330
243
100
AcDbEntity
  8
0
  6
Continuous
 62
     7
370
    18
100
AcDbLine
 10
135.95605072
 20
154.7921812076
 30
0.0
 11
135.3122312659
 21
154.7921812076
 31
0.0
  0
LINE
  5
248
330
243
100
AcDbEntity
  8
0
  6
Continuous
 62
     7
370
    18
100
AcDbLine
 10
135.3122312659
 20
154.7921812076
 30
0.0
 11
135.3122312659
 21
151.4290331311
 31
0.0
  0
LINE
  5
249
330
243
100
AcDbEntity
  8
0
  6
Continuous
 62
     7
370
    18
100
AcDbLine
 10
135.3122312659
 20
151.4290331311
 30
0.0
 11
135.95605072
 21
151.4290331311
 31
0.0
  0
LINE
  5
24A
330
243
100
AcDbEntity
  8
0
  6
Continuous
 62
     7
370
    18
100
AcDbLine
 10
145.277224373
 20
154.7921812076
 30
0.0
 11
145.9210438271
 21
154.7921812076
 31
0.0
  0
LINE
  5
24B
330
243
100
AcDbEntity
  8
0
  6
Continuous
 62
     7
370
    18
100
AcDbLine
 10
145.9210438271
 20
154.7921812076
 30
0.0
 11
145.9210438271
 21
151.4290331311
 31
0.0
  0
LINE
  5
24C
330
243
100
AcDbEntity
  8
0
  6
Continuous
 62
     7
370
    18
100
AcDbLine
 10
145.9210438271
 20
151.4290331311
 30
0.0
 11
145.277224373
 21
151.4290331311
 31
0.0
  0
LINE
  5
24D
330
243
100
AcDbEntity
  8
0
  6
Continuous
 62
     7
370
    18
100
AcDbLine
 10
166.3746059389
 20
155.8361703489
 30
0.0
 11
152.5189676167
 21
156.3620674369
 31
0.0
  0
LINE
  5
24E
330
243
100
AcDbEntity
  8
0
  6
Continuous
 62
     7
370
    18
100
AcDbLine
 10
152.5189676167
 20
156.3620674369
 30
0.0
 11
148.7089676167
 21
156.3620674369
 31
0.0
  0
MTEXT
  5
24F
330
243
100
AcDbEntity
  8
0
  6
Continuous
 62
     7
370
    18
100
AcDbMText
 10
134.6684118118
 20
157.949920854
 30
0.0
 40
2.1166666667
 41
0.0
 71
     1
 72
     1
  1
R460.1mm
  7
SLDTEXTSTYLE0
 73
     1
 44
1.0
  0
MTEXT
  5
250
330
243
100
AcDbEntity
  8
0
  6
Continuous
 62
     7
370
    18
100
AcDbMText
 10
135.95605072
 20
154.1575597305
 30
0.0
 40
2.1166666667
 41
0.0
 71
     1
 72
     1
  1
18.11in
  7
SLDTEXTSTYLE0
 73
     1
 44
1.0
  0
ENDBLK
  5
245
330
243
100
AcDbEntity
  8
0
100
AcDbBlockEnd
  0
BLOCK
  5
254
330
253
100
AcDbEntity
  8
0
100
AcDbBlockBegin
  2
_D_2
 70
     0
 10
0.0
 20
0.0
 30
0.0
  3
_D_2
  1

  0
SOLID
  5
256
330
253
100
AcDbEntity
  8
0
  6
Continuous
 62
     7
370
    18
100
AcDbTrace
 10
166.0435641005
 20
102.9559128026
 30
0.0
 11
162.8685641005
 21
103.4639128026
 31
0.0
 12
162.8685641005
 22
102.4479128026
 32
0.0
 13
162.8685641005
 23
102.4479128026
 33
0.0
  0
SOLID
  5
257
330
253
100
AcDbEntity
  8
0
  6
Continuous
 62
     7
370
    18
100
AcDbTrace
 10
169.7435650967
 20
102.9559128026
 30
0.0
 11
172.9185650967
 21
102.4479128026
 31
0.0
 12
172.9185650967
 22
103.4639128026
 32
0.0
 13
172.9185650967
 23
103.4639128026
 33
0.0
  0
LINE
  5
258
330
253
100
AcDbEntity
  8
0
  6
Continuous
 62
     7
370
    18
100
AcDbLine
 10
184.7002409665
 20
102.9559125697
 30
0.0
 11
184.0564215124
 21
102.9559125697
 31
0.0
  0
LINE
  5
259
330
253
100
AcDbEntity
  8
0
  6
Continuous
 62
     7
370
    18
100
AcDbLine
 10
184.0564215124
 20
102.9559125697
 30
0.0
 11
184.0564215124
 21
99.5927644933
 31
0.0
  0
LINE
  5
25A
330
253
100
AcDbEntity
  8
0
  6
Continuous
 62
     7
370
    18
100
AcDbLine
 10
184.0564215124
 20
99.5927644933
 30
0.0
 11
184.7002409665
 21
99.5927644933
 31
0.0
  0
LINE
  5
25B
330
253
100
AcDbEntity
  8
0
  6
Continuous
 62
     7
370
    18
100
AcDbLine
 10
192.4574325127
 20
102.9559125697
 30
0.0
 11
193.1012519669
 21
102.9559125697
 31
0.0
  0
LINE
  5
25C
330
253
100
AcDbEntity
  8
0
  6
Continuous
 62
     7
370
    18
100
AcDbLine
 10
193.1012519669
 20
102.9559125697
 30
0.0
 11
193.1012519669
 21
99.5927644933
 31
0.0
  0
LINE
  5
25D
330
253
100
AcDbEntity
  8
0
  6
Continuous
 62
     7
370
    18
100
AcDbLine
 10
193.1012519669
 20
99.5927644933
 30
0.0
 11
192.4574325127
 21
99.5927644933
 31
0.0
  0
LINE
  5
25E
330
253
100
AcDbEntity
  8
0
  6
Continuous
 62
     7
370
    18
100
AcDbLine
 10
166.0435641005
 20
137.1161884206
 30
0.0
 11
166.0435641005
 21
101.1779128026
 31
0.0
  0
LINE
  5
25F
330
253
100
AcDbEntity
  8
0
  6
Continuous
 62
     7
370
    18
100
AcDbLine
 10
169.7435650967
 20
111.9359128026
 30
0.0
 11
169.7435650967
 21
101.1779128026
 31
0.0
  0
LINE
  5
260
330
253
100
AcDbEntity
  8
0
  6
Continuous
 62
     7
370
    18
100
AcDbLine
 10
166.0435641005
 20
102.9559128026
 30
0.0
 11
159.6935641005
 21
102.9559128026
 31
0.0
  0
LINE
  5
261
330
253
100
AcDbEntity
  8
0
  6
Continuous
 62
     7
370
    18
100
AcDbLine
 10
169.7435650967
 20
102.9559128026
 30
0.0
 11
181.4229243134
 21
102.9559128026
 31
0.0
  0
MTEXT
  5
262
330
253
100
AcDbEntity
  8
0
  6
Continuous
 62
     7
370
    18
100
AcDbMText
 10
183.4400403539
 20
106.1136522162
 30
0.0
 40
2.1166666667
 41
0.0
 71
     1
 72
     1
  1

  7
SLDTEXTSTYLE0
 73
     1
 44
1.0
  0
MTEXT
  5
263
330
253
100
AcDbEntity
  8
0
  6
Continuous
 62
     7
370
    18
100
AcDbMText
 10
183.9790063711
 20
106.1136522162
 30
0.0
 40
2.1166666667
 41
0.0
 71
     1
 72
     1
  1
3.7mm
  7
SLDTEXTSTYLE0
 73
     1
 44
1.0
  0
MTEXT
  5
264
330
253
100
AcDbEntity
  8
0
  6
Continuous
 62
     7
370
    18
100
AcDbMText
 10
184.7002409665
 20
102.3212910927
 30
0.0
 40
2.1166666667
 41
0.0
 71
     1
 72
     1
  1
0.15in
  7
SLDTEXTSTYLE0
 73
     1
 44
1.0
  0
MTEXT
  5
265
330
253
100
AcDbEntity
  8
0
  6
Continuous
 62
     7
370
    18
100
AcDbMText
 10
195.332571421
 20
106.1136522162
 30
0.0
 40
2.1166666667
 41
0.0
 71
     1
 72
     1
  1

  7
SLDTEXTSTYLE0
 73
     1
 44
1.0
  0
ENDBLK
  5
255
330
253
100
AcDbEntity
  8
0
100
AcDbBlockEnd
  0
BLOCK
  5
269
330
268
100
AcDbEntity
  8
0
100
AcDbBlockBegin
  2
_D_3
 70
     0
 10
0.0
 20
0.0
 30
0.0
  3
_D_3
  1

  0
SOLID
  5
26B
330
268
100
AcDbEntity
  8
0
  6
Continuous
 62
     7
370
    18
100
AcDbTrace
 10
166.7309015045
 20
170.5668903269
 30
0.0
 11
163.5559770984
 21
171.0753625638
 31
0.0
 12
163.5558259808
 22
170.0593625751
 32
0.0
 13
163.5558259808
 23
170.0593625751
 33
0.0
  0
SOLID
  5
26C
330
268
100
AcDbEntity
  8
0
  6
Continuous
 62
     7
370
    18
100
AcDbTrace
 10
169.7446152643
 20
170.5664420738
 30
0.0
 11
172.9195396704
 21
170.0579698369
 31
0.0
 12
172.919690788
 22
171.0739698256
 32
0.0
 13
172.919690788
 23
171.0739698256
 33
0.0
  0
LINE
  5
26D
330
268
100
AcDbEntity
  8
0
  6
Continuous
 62
     7
370
    18
100
AcDbLine
 10
184.7002414321
 20
172.5156774625
 30
0.0
 11
184.056421978
 21
172.5156774625
 31
0.0
  0
LINE
  5
26E
330
268
100
AcDbEntity
  8
0
  6
Continuous
 62
     7
370
    18
100
AcDbLine
 10
184.056421978
 20
172.5156774625
 30
0.0
 11
184.056421978
 21
169.1525293861
 31
0.0
  0
LINE
  5
26F
330
268
100
AcDbEntity
  8
0
  6
Continuous
 62
     7
370
    18
100
AcDbLine
 10
184.056421978
 20
169.1525293861
 30
0.0
 11
184.7002414321
 21
169.1525293861
 31
0.0
  0
LINE
  5
270
330
268
100
AcDbEntity
  8
0
  6
Continuous
 62
     7
370
    18
100
AcDbLine
 10
192.4574329784
 20
172.5156774625
 30
0.0
 11
193.1012524325
 21
172.5156774625
 31
0.0
  0
LINE
  5
271
330
268
100
AcDbEntity
  8
0
  6
Continuous
 62
     7
370
    18
100
AcDbLine
 10
193.1012524325
 20
172.5156774625
 30
0.0
 11
193.1012524325
 21
169.1525293861
 31
0.0
  0
LINE
  5
272
330
268
100
AcDbEntity
  8
0
  6
Continuous
 62
     7
370
    18
100
AcDbLine
 10
193.1012524325
 20
169.1525293861
 30
0.0
 11
192.4574329784
 21
169.1525293861
 31
0.0
  0
LINE
  5
273
330
268
100
AcDbEntity
  8
0
  6
Continuous
 62
     7
370
    18
100
AcDbLine
 10
166.7300402339
 20
164.7763610417
 30
0.0
 11
166.7311659603
 21
172.3448903073
 31
0.0
  0
LINE
  5
274
330
268
100
AcDbEntity
  8
0
  6
Continuous
 62
     7
370
    18
100
AcDbLine
 10
169.7437539937
 20
164.7759127885
 30
0.0
 11
169.7448797201
 21
172.3444420541
 31
0.0
  0
LINE
  5
275
330
268
100
AcDbEntity
  8
0
  6
Continuous
 62
     7
370
    18
100
AcDbLine
 10
166.7309015045
 20
170.5668903269
 30
0.0
 11
160.3809015747
 21
170.567834812
 31
0.0
  0
LINE
  5
276
330
268
100
AcDbEntity
  8
0
  6
Continuous
 62
     7
370
    18
100
AcDbLine
 10
169.7446152643
 20
170.5664420738
 30
0.0
 11
182.9829864834
 21
170.5644730275
 31
0.0
  0
MTEXT
  5
277
330
268
100
AcDbEntity
  8
0
  6
Continuous
 62
     7
370
    18
100
AcDbMText
 10
183.9790068367
 20
175.673417109
 30
0.0
 40
2.1166666667
 41
0.0
 71
     1
 72
     1
  1
3.0mm
  7
SLDTEXTSTYLE0
 73
     1
 44
1.0
  0
MTEXT
  5
278
330
268
100
AcDbEntity
  8
0
  6
Continuous
 62
     7
370
    18
100
AcDbMText
 10
184.7002414321
 20
171.8810559855
 30
0.0
 40
2.1166666667
 41
0.0
 71
     1
 72
     1
  1
0.12in
  7
SLDTEXTSTYLE0
 73
     1
 44
1.0
  0
MTEXT
  5
279
330
268
100
AcDbEntity
  8
0
  6
Continuous
 62
     7
370
    18
100
AcDbMText
 10
186.2818616243
 20
168.0886950948
 30
0.0
 40
2.1166666667
 41
0.0
 71
     1
 72
     1
  1
REF
  7
SLDTEXTSTYLE0
 73
     1
 44
1.0
  0
ENDBLK
  5
26A
330
268
100
AcDbEntity
  8
0
100
AcDbBlockEnd
  0
ENDSEC
  0
SECTION
  2
ENTITIES
  0
LINE
  5
115
330
1F
100
AcDbEntity
  8
0
  6
Continuous
 62
     7
370
    18
100
AcDbLine
 10
1.5793501011
 20
214.6453799966
 30
0.0
 11
277.9892068491
 21
214.6453799966
 31
0.0
  0
LINE
  5
116
330
1F
100
AcDbEntity
  8
0
  6
Continuous
 62
     7
370
    18
100
AcDbLine
 10
1.5793501011
 20
214.6453799966
 30
0.0
 11
1.5793501011
 21
0.9031642596
 31
0.0
  0
LINE
  5
117
330
1F
100
AcDbEntity
  8
0
  6
Continuous
 62
     7
370
    18
100
AcDbLine
 10
277.9892068491
 20
0.9031642596
 30
0.0
 11
1.5793501011
 21
0.9031642596
 31
0.0
  0
LINE
  5
118
330
1F
100
AcDbEntity
  8
0
  6
Continuous
 62
     7
370
    18
100
AcDbLine
 10
277.9892068491
 20
0.9031642596
 30
0.0
 11
277.9892068491
 21
214.6453799966
 31
0.0
  0
LINE
  5
119
330
1F
100
AcDbEntity
  8
0
  6
Continuous
 62
     7
370
    18
100
AcDbLine
 10
215.7427640041
 20
12.2958890132
 30
0.0
 11
171.6327596684
 21
12.2958890132
 31
0.0
  0
LINE
  5
11A
330
1F
100
AcDbEntity
  8
0
  6
Continuous
 62
     7
370
    18
100
AcDbLine
 10
171.6327596684
 20
12.2958890132
 30
0.0
 11
171.6327596684
 21
26.1661402506
 31
0.0
  0
LINE
  5
11B
330
1F
100
AcDbEntity
  8
0
  6
Continuous
 62
     7
370
    18
100
AcDbLine
 10
171.6327596684
 20
0.9031642596
 30
0.0
 11
171.6327596684
 21
26.1661402506
 31
0.0
  0
LINE
  5
11C
330
1F
100
AcDbEntity
  8
0
  6
Continuous
 62
     7
370
    18
100
AcDbLine
 10
215.7427640041
 20
17.1604579552
 30
0.0
 11
277.9892068491
 21
17.1604579552
 31
0.0
  0
LINE
  5
11D
330
1F
100
AcDbEntity
  8
0
  6
Continuous
 62
     7
370
    18
100
AcDbLine
 10
215.7427640041
 20
35.2394508358
 30
0.0
 11
215.7427640041
 21
0.9031642596
 31
0.0
  0
LINE
  5
11E
330
1F
100
AcDbEntity
  8
0
  6
Continuous
 62
     7
370
    18
100
AcDbLine
 10
215.7427640041
 20
26.1661402506
 30
0.0
 11
171.6327596684
 21
26.1661402506
 31
0.0
  0
LINE
  5
11F
330
1F
100
AcDbEntity
  8
0
  6
Continuous
 62
     7
370
    18
100
AcDbLine
 10
215.7427640041
 20
9.1409200612
 30
0.0
 11
277.9892068491
 21
9.1409200612
 31
0.0
  0
LINE
  5
120
330
1F
100
AcDbEntity
  8
0
  6
Continuous
 62
     7
370
    18
100
AcDbLine
 10
215.7427640041
 20
16.9216824031
 30
0.0
 11
171.6327596684
 21
16.9216824031
 31
0.0
  0
LINE
  5
121
330
1F
100
AcDbEntity
  8
0
  6
Continuous
 62
     7
370
    18
100
AcDbLine
 10
215.7427640041
 20
21.4874005542
 30
0.0
 11
171.6327596684
 21
21.4874005542
 31
0.0
  0
LINE
  5
122
330
1F
100
AcDbEntity
  8
0
  6
Continuous
 62
     7
370
    18
100
AcDbLine
 10
186.1338100705
 20
26.1661402506
 30
0.0
 11
186.1338100705
 21
12.2958890132
 31
0.0
  0
LINE
  5
123
330
1F
100
AcDbEntity
  8
0
  6
Continuous
 62
     7
370
    18
100
AcDbLine
 10
198.2145906188
 20
26.1661402506
 30
0.0
 11
198.2145906188
 21
12.2958890132
 31
0.0
  0
LINE
  5
124
330
1F
100
AcDbEntity
  8
0
  6
Continuous
 62
     7
370
    18
100
AcDbLine
 10
253.7490408369
 20
9.1409200612
 30
0.0
 11
253.7490408369
 21
0.9031642596
 31
0.0
  0
LINE
  5
125
330
1F
100
AcDbEntity
  8
0
  6
Continuous
 62
     7
370
    18
100
AcDbLine
 10
171.6327596684
 20
12.2958890132
 30
0.0
 11
171.6327596684
 21
7.5627342528
 31
0.0
  0
LINE
  5
126
330
1F
100
AcDbEntity
  8
0
  6
Continuous
 62
     7
370
    18
100
AcDbLine
 10
171.6327596684
 20
7.5627342528
 30
0.0
 11
215.7427640041
 21
7.5627342528
 31
0.0
  0
LINE
  5
127
330
1F
100
AcDbEntity
  8
0
  6
Continuous
 62
     7
370
    18
100
AcDbLine
 10
171.6327596684
 20
7.5627342528
 30
0.0
 11
171.6327596684
 21
35.2394508358
 31
0.0
  0
LINE
  5
128
330
1F
100
AcDbEntity
  8
0
  6
Continuous
 62
     7
370
    18
100
AcDbLine
 10
171.6327596684
 20
35.2394508358
 30
0.0
 11
215.7427640041
 21
35.2394508358
 31
0.0
  0
LINE
  5
129
330
1F
100
AcDbEntity
  8
0
  6
Continuous
 62
     7
370
    18
100
AcDbLine
 10
270.1683598194
 20
17.1604579552
 30
0.0
 11
270.1683598194
 21
9.1409200612
 31
0.0
  0
LINE
  5
12A
330
1F
100
AcDbEntity
  8
0
  6
Continuous
 62
     7
370
    18
100
AcDbLine
 10
215.7427640041
 20
35.2394508358
 30
0.0
 11
277.9892068491
 21
35.2394508358
 31
0.0
  0
LINE
  5
12B
330
1F
100
AcDbEntity
  8
0
  6
Continuous
 62
     7
370
    18
100
AcDbLine
 10
277.9892068491
 20
35.2394508358
 30
0.0
 11
277.9892068491
 21
50.0331356147
 31
0.0
  0
LINE
  5
12C
330
1F
100
AcDbEntity
  8
0
  6
Continuous
 62
     7
370
    18
100
AcDbLine
 10
215.7427640041
 20
24.8927335446
 30
0.0
 11
277.9892068491
 21
24.8927335446
 31
0.0
  0
INSERT
  5
12D
330
1F
100
AcDbEntity
  8
0
  6
Continuous
 62
     7
100
AcDbBlockReference
  2
Third Angle Projection Block
 10
117.7262204235
 20
15.5162339489
 30
0.0
 41
0.8
 42
0.8
 43
0.8
  0
INSERT
  5
12E
330
1F
100
AcDbEntity
  8
0
  6
Continuous
 62
     7
100
AcDbBlockReference
  2
THORLABS LOGO1
 10
221.4689095479
 20
21.3590046332
 30
0.0
 41
0.25
 42
0.25
 43
0.25
  0
INSERT
  5
140
330
1F
100
AcDbEntity
  8
0
  6
Continuous
 62
     7
370
     0
100
AcDbBlockReference
  2
SW_NOTE_0
 10
15.3672660057
 20
64.9510241138
 30
0.0
  0
MTEXT
  5
141
330
1F
100
AcDbEntity
  8
0
  6
Continuous
 62
     7
370
     0
100
AcDbMText
 10
274.1458225539
 20
13.2559386876
 30
0.0
 40
3.175
 41
0.0
 71
     2
 72
     1
  1
A
  7
SLDTEXTSTYLE0
 73
     1
 44
1.0
  0
MTEXT
  5
142
330
1F
100
AcDbEntity
  8
0
  6
Continuous
 62
     7
370
     0
100
AcDbMText
 10
234.5061668671
 20
5.1306563898
 30
0.0
 40
3.175
 41
0.0
 71
     2
 72
     1
  1
LA4337-B
  7
SLDTEXTSTYLE0
 73
     1
 44
1.0
  0
MTEXT
  5
143
330
1F
100
AcDbEntity
  8
0
  6
Continuous
 62
     7
370
     0
100
AcDbMText
 10
216.4199766059
 20
16.8243178599
 30
0.0
 40
2.1166666667
 41
0.0
 71
     1
 72
     1
  1
MATERIAL
  7
SLDTEXTSTYLE0
 73
     1
 44
1.0
  0
MTEXT
  5
144
330
1F
100
AcDbEntity
  8
0
  6
Continuous
 62
     7
370
     0
100
AcDbMText
 10
174.230946566
 20
20.054553926
 30
0.0
 40
1.8520833333
 41
0.0
 71
     1
 72
     1
  1
DRAWN
  7
SLDTEXTSTYLE0
 73
     1
 44
1.0
  0
MTEXT
  5
145
330
1F
100
AcDbEntity
  8
0
  6
Continuous
 62
     7
370
     0
100
AcDbMText
 10
172.3960124543
 20
15.5787169747
 30
0.0
 40
1.8520833333
 41
0.0
 71
     1
 72
     1
  1
APPROVAL
  7
SLDTEXTSTYLE0
 73
     1
 44
1.0
  0
MTEXT
  5
146
330
1F
100
AcDbEntity
  8
0
  6
Continuous
 62
     7
370
     0
100
AcDbMText
 10
271.7160653675
 20
16.1671746307
 30
0.0
 40
2.1166666667
 41
0.0
 71
     1
 72
     1
  1
REV
  7
SLDTEXTSTYLE0
 73
     1
 44
1.0
  0
MTEXT
  5
147
330
1F
100
AcDbEntity
  8
0
  6
Continuous
 62
     7
370
     0
100
AcDbMText
 10
190.2958696448
 20
20.3177146903
 30
0.0
 40
2.1166666667
 41
0.0
 71
     1
 72
     1
  1
YB
  7
SLDTEXTSTYLE0
 73
     1
 44
1.0
  0
MTEXT
  5
148
330
1F
100
AcDbEntity
  8
0
  6
Continuous
 62
     7
370
     0
100
AcDbMText
 10
190.2958696448
 20
15.841877739
 30
0.0
 40
2.1166666667
 41
0.0
 71
     1
 72
     1
  1
DS
  7
SLDTEXTSTYLE0
 73
     1
 44
1.0
  0
MTEXT
  5
149
330
1F
100
AcDbEntity
  8
0
  6
Continuous
 62
     7
370
     0
100
AcDbMText
 10
199.8662436873
 20
20.3177146903
 30
0.0
 40
2.1166666667
 41
0.0
 71
     1
 72
     1
  1
25/JUN/21
  7
SLDTEXTSTYLE0
 73
     1
 44
1.0
  0
MTEXT
  5
14A
330
1F
100
AcDbEntity
  8
0
  6
Continuous
 62
     7
370
     0
100
AcDbMText
 10
203.6145073853
 20
24.8221395769
 30
0.0
 40
2.1166666667
 41
0.0
 71
     1
 72
     1
  1
DATE
  7
SLDTEXTSTYLE0
 73
     1
 44
1.0
  0
MTEXT
  5
14B
330
1F
100
AcDbEntity
  8
0
  6
Continuous
 62
     7
370
     0
100
AcDbMText
 10
199.8662436873
 20
15.841877739
 30
0.0
 40
2.1166666667
 41
0.0
 71
     1
 72
     1
  1
27/AUG/21
  7
SLDTEXTSTYLE0
 73
     1
 44
1.0
  0
MTEXT
  5
14D
330
1F
100
AcDbEntity
  8
0
  6
Continuous
 62
     7
370
     0
100
AcDbMText
 10
229.402906477
 20
27.7957480569
 30
0.0
 40
2.1166666667
 41
0.0
 71
     1
 72
     1
  1
w w w . t h o r  l a b s . c o m
  7
SLDTEXTSTYLE1
 73
     1
 44
1.0
  0
MTEXT
  5
14E
330
1F
100
AcDbEntity
  8
0
  6
Continuous
 62
     7
370
     0
100
AcDbMText
 10
216.7004035316
 20
8.3494791871
 30
0.0
 40
2.1166666667
 41
0.0
 71
     1
 72
     1
  1
ITEM #
  7
SLDTEXTSTYLE0
 73
     1
 44
1.0
  0
MTEXT
  5
14F
330
1F
100
AcDbEntity
  8
0
  6
Continuous
 62
     7
370
     0
100
AcDbMText
 10
254.5318000914
 20
8.3494791871
 30
0.0
 40
2.1166666667
 41
0.0
 71
     1
 72
     1
  1
APPROX WEIGHT
  7
SLDTEXTSTYLE0
 73
     1
 44
1.0
  0
MTEXT
  5
150
330
1F
100
AcDbEntity
  8
0
  6
Continuous
 62
     7
370
     0
100
AcDbMText
 10
243.4409424799
 20
13.8247651814
 30
0.0
 40
3.175
 41
0.0
 71
     2
 72
     1
  1
UV FUSED SILICA
  7
SLDTEXTSTYLE0
 73
     1
 44
1.0
  0
MTEXT
  5
151
330
1F
100
AcDbEntity
  8
0
  6
Continuous
 62
     7
370
     0
100
AcDbMText
 10
266.1553537756
 20
5.1306563898
 30
0.0
 40
3.175
 41
0.0
 71
     2
 72
     1
  1
14.94 g
  7
SLDTEXTSTYLE0
 73
     1
 44
1.0
  0
INSERT
  5
157
330
1F
100
AcDbEntity
  8
0
  6
Continuous
 62
     7
370
     0
100
AcDbBlockReference
  2
SW_NOTE_1
 10
174.8430140051
 20
4.4558554801
 30
0.0
  0
INSERT
  5
15D
330
1F
100
AcDbEntity
  8
0
  6
Continuous
 62
     7
370
     0
100
AcDbBlockReference
  2
SW_NOTE_2
 10
174.5483650337
 20
30.4835322715
 30
0.0
  0
MTEXT
  5
15E
330
1F
100
AcDbEntity
  8
0
  6
Continuous
 62
     7
370
     0
100
AcDbMText
 10
187.9273588276
 20
24.8221395769
 30
0.0
 40
2.1166666667
 41
0.0
 71
     1
 72
     1
  1
NAME
  7
SLDTEXTSTYLE0
 73
     1
 44
1.0
  0
INSERT
  5
164
330
1F
100
AcDbEntity
  8
0
  6
Continuous
 62
     7
370
     0
100
AcDbBlockReference
  2
SW_NOTE_3
 10
58.6204667508
 20
8.1776609732
 30
0.0
  0
INSERT
  5
16B
330
1F
100
AcDbEntity
  8
0
  6
Continuous
 62
     7
370
     0
100
AcDbBlockReference
  2
SW_NOTE_4
 10
218.0986061985
 20
20.6862828027
 30
0.0
  0
MTEXT
  5
16C
330
1F
100
AcDbEntity
  8
0
  6
Continuous
 62
     7
370
     0
100
AcDbMText
 10
177.6925831922
 20
10.7142101515
 30
0.0
 40
1.5875
 41
0.0
 71
     1
 72
     1
  1
COPYRIGHT © 2021 BY THORLABS
  7
SLDTEXTSTYLE0
 73
     1
 44
1.0
  0
CIRCLE
  5
16D
330
1F
100
AcDbEntity
  8
0
  6
Continuous
 62
     7
370
    18
100
AcDbCircle
 10
66.0620650143
 20
138.3559128026
 30
0.0
 40
25.15044825317292
  0
CIRCLE
  5
16E
330
1F
100
AcDbEntity
  8
0
  6
Continuous
 62
     7
370
    18
100
AcDbCircle
 10
66.0620650143
 20
138.3559128026
 30
0.0
 40
25.40000000000001
  0
DIMENSION
  5
16F
330
1F
100
AcDbEntity
  8
0
  6
Continuous
 62
     7
370
    18
100
AcDbDimension
  2
_D
 10
48.1190890631
 20
120.3778813749
 30
0.0
 11
110.9838835182
 21
172.5551000437
 31
0.0
 70
   163
  1
<>
 71
     1
 42
-1.0
  3
SLDDIMSTYLE0
100
AcDbDiametricDimension
 15
84.0050409655
 25
156.3339442303
 35
0.0
 40
0.0
  0
LINE
  5
180
330
1F
100
AcDbEntity
  8
0
  6
PHANTOM
 62
     7
370
    35
100
AcDbLine
 10
66.0620650143
 20
169.8519128026
 30
0.0
 11
66.0620650143
 21
106.8599128026
 31
0.0
  0
LINE
  5
181
330
1F
100
AcDbEntity
  8
0
  6
Continuous
 62
     7
370
    35
100
AcDbLine
 10
66.0620650143
 20
169.8519128026
 30
0.0
 11
57.1720650143
 21
169.8519128026
 31
0.0
  0
SOLID
  5
182
330
1F
100
AcDbEntity
  8
0
  6
Continuous
 62
     7
370
    35
100
AcDbTrace
 10
57.1720650143
 20
169.8519128026
 30
0.0
 11
60.9820650143
 21
169.2169128026
 31
0.0
 12
60.9820650143
 22
170.4869128026
 32
0.0
 13
60.9820650143
 23
170.4869128026
 33
0.0
  0
LINE
  5
183
330
1F
100
AcDbEntity
  8
0
  6
Continuous
 62
     7
370
    35
100
AcDbLine
 10
66.0620650143
 20
106.8599128026
 30
0.0
 11
57.1720650143
 21
106.8599128026
 31
0.0
  0
SOLID
  5
184
330
1F
100
AcDbEntity
  8
0
  6
Continuous
 62
     7
370
    35
100
AcDbTrace
 10
57.1720650143
 20
106.8599128026
 30
0.0
 11
60.9820650143
 21
106.2249128026
 31
0.0
 12
60.9820650143
 22
107.4949128026
 32
0.0
 13
60.9820650143
 23
107.4949128026
 33
0.0
  0
MTEXT
  5
185
330
1F
100
AcDbEntity
  8
0
  6
Continuous
 62
     7
100
AcDbMText
 10
53.766960101
 20
171.9522578893
 30
0.0
 40
2.6458333333
 41
0.0
 71
     1
 72
     1
  1
A
  7
SLDTEXTSTYLE0
 73
     1
 44
1.0
  0
MTEXT
  5
186
330
1F
100
AcDbEntity
  8
0
  6
Continuous
 62
     7
100
AcDbMText
 10
53.766960101
 20
108.9602578893
 30
0.0
 40
2.6458333333
 41
0.0
 71
     1
 72
     1
  1
A
  7
SLDTEXTSTYLE0
 73
     1
 44
1.0
  0
LINE
  5
187
330
1F
100
AcDbEntity
  8
0
  6
Continuous
 62
     7
370
    18
100
AcDbLine
 10
224.917935502
 20
188.5525966691
 30
0.0
 11
224.9076795768
 21
188.3325539483
 31
0.0
  0
LINE
  5
188
330
1F
100
AcDbEntity
  8
0
  6
Continuous
 62
     7
370
    18
100
AcDbLine
 10
243.5952874401
 20
155.9611601493
 30
0.0
 11
243.7909684972
 21
155.8600023178
 31
0.0
  0
LINE
  5
189
330
1F
100
AcDbEntity
  8
0
  6
Continuous
 62
     7
370
    18
100
AcDbLine
 10
255.5527975453
 20
155.1152446616
 30
0.0
 11
257.3205644982
 21
156.1357548014
 31
0.0
  0
LINE
  5
18A
330
1F
100
AcDbEntity
  8
0
  6
Continuous
 62
     7
370
    18
100
AcDbLine
 10
231.9226286893
 20
200.1310370103
 30
0.0
 11
230.1548617363
 21
199.1105268706
 31
0.0
  0
LINE
  5
18B
330
1F
100
AcDbEntity
  8
0
  6
Continuous
 62
     7
370
    18
100
AcDbLine
 10
262.5821088359
 20
167.7650128857
 30
0.0
 11
262.5821088359
 21
167.9691149137
 31
0.0
  0
LINE
  5
18C
330
1F
100
AcDbEntity
  8
0
  6
Continuous
 62
     7
370
    18
100
AcDbLine
 10
244.8012636462
 20
198.7697794999
 30
0.0
 11
244.6245156821
 21
198.8718471
 31
0.0
  0
LWPOLYLINE
  5
18D
330
1F
100
AcDbEntity
  8
0
  6
Continuous
 62
     7
370
    18
100
AcDbPolyline
 90
      198
 70
   128
 43
0.0
 10
224.8833033432
 20
187.2717517247
 10
224.8923479816
 20
186.6116474896
 10
224.9194726967
 20
185.941771971
 10
224.9646498983
 20
185.2628065411
 10
225.0278336339
 20
184.5754418184
 10
225.1089596353
 20
183.8803769647
 10
225.2079453841
 20
183.1783189741
 10
225.3246901958
 20
182.4699819539
 10
225.4590753218
 20
181.7560863982
 10
225.6109640707
 20
181.0373584549
 10
225.7802019467
 20
180.3145291874
 10
225.9666168076
 20
179.5883338308
 10
226.1700190389
 20
178.8595110438
 10
226.3902017475
 20
178.1288021581
 10
226.6269409717
 20
177.3969504233
 10
226.8799959093
 20
176.664700252
 10
227.1491091621
 20
175.9327964618
 10
227.4340069982
 20
175.2019835179
 10
227.7343996301
 20
174.4730047761
 10
228.0499815095
 20
173.7466017264
 10
228.3804316383
 20
173.0235132391
 10
228.7254138949
 20
172.3044748128
 10
229.0845773763
 20
171.5902178266
 10
229.4575567547
 20
170.8814687963
 10
229.8439726493
 20
170.1789486349
 10
230.2434320122
 20
169.4833719198
 10
230.6555285284
 20
168.7954461658
 10
231.0798430284
 20
168.1158711054
 10
231.5159439154
 20
167.445337977
 10
231.9633876039
 20
166.784528822
 10
232.4217189706
 20
166.1341157909
 10
232.890471818
 20
165.4947604596
 10
233.3691693482
 20
164.8671131565
 10
233.8573246478
 20
164.2518123013
 10
234.3544411834
 20
163.649483755
 10
234.8600133065
 20
163.0607401837
 10
235.3735267681
 20
162.4861804357
 10
235.8944592413
 20
161.9263889316
 10
236.4222808529
 20
161.3819350705
 10
236.9564547226
 20
160.8533726507
 10
237.4964375084
 20
160.3412393062
 10
238.04167996
 20
159.8460559601
 10
238.591627477
 20
159.3683262942
 10
239.1457206733
 20
158.9085362376
 10
239.703395946
 20
158.4671534715
 10
240.2640860483
 20
158.0446269542
 10
240.8272206674
 20
157.6413864637
 10
241.3922270035
 20
157.2578421614
 10
241.9585303532
 20
156.8943841743
 10
242.5255546938
 20
156.5513821983
 10
243.0927232693
 20
156.2291851223
 10
243.6594591769
 20
155.928120673
 10
244.2251859539
 20
155.6484950822
 10
244.7893281641
 20
155.3905927745
 10
245.351311983
 20
155.1546760786
 10
245.9105657815
 20
154.9409849601
 10
246.4665207076
 20
154.7497367778
 10
247.0186112645
 20
154.5811260621
 10
247.5662758862
 20
154.4353243177
 10
248.1089575088
 20
154.3124798485
 10
248.6461041365
 20
154.2127176075
 10
249.1771694039
 20
154.136139069
 10
249.7016131312
 20
154.082822126
 10
250.2189018736
 20
154.0528210104
 10
250.7285094643
 20
154.0461662383
 10
251.2299175494
 20
154.0628645785
 10
251.7226161153
 20
154.1028990463
 10
252.2061040074
 20
154.1662289201
 10
252.6798894396
 20
154.2527897829
 10
253.1434904952
 20
154.3624935884
 10
253.5964356163
 20
154.49522875
 10
254.038264084
 20
154.6508602543
 10
254.4685264869
 20
154.8292297987
 10
254.886785178
 20
155.0301559525
 10
255.2926147201
 20
155.253434341
 10
255.6856023187
 20
155.4988378537
 10
256.0653482411
 20
155.7661168753
 10
256.4314662242
 20
156.0549995396
 10
256.7835838661
 20
156.3651920058
 10
257.1213430061
 20
156.6963787577
 10
257.4444000881
 20
157.0482229244
 10
257.7524265103
 20
157.4203666232
 10
258.0451089598
 20
157.8124313232
 10
258.322149731
 20
158.224018231
 10
258.5832670281
 20
158.6547086956
 10
258.8281952525
 20
159.1040646347
 10
259.0566852722
 20
159.5716289801
 10
259.2685046758
 20
160.0569261429
 10
259.4634380083
 20
160.5594624966
 10
259.6412869908
 20
161.0787268802
 10
259.801870722
 20
161.6141911171
 10
259.9450258622
 20
162.165310553
 10
260.0706067991
 20
162.7315246099
 10
260.1784857965
 20
163.3122573557
 10
260.268553124
 20
163.9069180908
 10
260.3407171684
 20
164.5149019483
 10
260.3949045271
 20
165.1355905098
 10
260.4310600828
 20
165.7683524339
 10
260.4491470593
 20
166.4125440986
 10
260.4491470593
 20
167.0675102563
 10
260.4310600828
 20
167.7325846996
 10
260.3949045271
 20
168.4070909397
 10
260.3407171684
 20
169.0903428938
 10
260.268553124
 20
169.7816455835
 10
260.1784857965
 20
170.4802958415
 10
260.0706067991
 20
171.1855830265
 10
259.9450258622
 20
171.8967897469
 10
259.801870722
 20
172.6131925894
 10
259.6412869908
 20
173.334062856
 10
259.4634380083
 20
174.058667304
 10
259.2685046757
 20
174.7862688928
 10
259.0566852722
 20
175.5161275332
 10
258.8281952525
 20
176.2475008401
 10
258.5832670281
 20
176.9796448877
 10
258.322149731
 20
177.7118149664
 10
258.0451089598
 20
178.44326634
 10
257.7524265103
 20
179.1732550035
 10
257.4444000881
 20
179.9010384394
 10
257.1213430061
 20
180.6258763735
 10
256.7835838661
 20
181.3470315277
 10
256.4314662242
 20
182.0637703697
 10
256.0653482411
 20
182.7753638595
 10
255.6856023187
 20
183.4810881906
 10
255.2926147201
 20
184.1802255266
 10
254.886785178
 20
184.8720647309
 10
254.4685264869
 20
185.5559020904
 10
254.038264084
 20
186.2310420311
 10
253.5964356163
 20
186.896797826
 10
253.1434904952
 20
187.5524922928
 10
252.6798894396
 20
188.1974584837
 10
252.2061040074
 20
188.831040363
 10
251.7226161153
 20
189.4525934747
 10
251.2299175494
 20
190.0614855982
 10
250.7285094643
 20
190.6570973911
 10
250.2189018736
 20
191.2388230191
 10
249.7016131312
 20
191.8060707727
 10
249.1771694039
 20
192.3582636685
 10
248.6461041365
 20
192.8948400365
 10
248.1089575088
 20
193.415254091
 10
247.5662758862
 20
193.9189764864
 10
247.0186112645
 20
194.4054948549
 10
246.4665207076
 20
194.8743143281
 10
245.9105657815
 20
195.3249580404
 10
245.351311983
 20
195.7569676136
 10
244.7893281641
 20
196.1699036237
 10
244.2251859539
 20
196.5633460477
 10
243.6594591769
 20
196.9368946903
 10
243.0927232693
 20
197.290169592
 10
242.5255546938
 20
197.6228114146
 10
241.9585303532
 20
197.9344818072
 10
241.3922270035
 20
198.2248637503
 10
240.8272206674
 20
198.4936618782
 10
240.2640860483
 20
198.7406027794
 10
239.703395946
 20
198.9654352748
 10
239.1457206733
 20
199.1679306731
 10
238.591627477
 20
199.3478830037
 10
238.04167996
 20
199.5051092256
 10
237.4964375084
 20
199.6394494143
 10
236.9564547226
 20
199.7507669238
 10
236.4222808529
 20
199.8389485261
 10
235.8944592413
 20
199.9039045262
 10
235.3735267681
 20
199.9455688533
 10
234.8600133065
 20
199.9638991279
 10
234.3544411834
 20
199.9588767052
 10
233.8573246478
 20
199.9305066938
 10
233.3691693482
 20
199.8788179507
 10
232.890471818
 20
199.8038630516
 10
232.4217189706
 20
199.705718238
 10
231.9633876039
 20
199.584483339
 10
231.5159439154
 20
199.4402816704
 10
231.0798430284
 20
199.2732599086
 10
230.6555285284
 20
199.083587942
 10
230.2434320122
 20
198.8714586979
 10
229.8439726493
 20
198.6370879463
 10
229.4575567547
 20
198.3807140803
 10
229.0845773763
 20
198.1025978739
 10
228.7254138949
 20
197.8030222166
 10
228.3804316383
 20
197.4822918256
 10
228.0499815095
 20
197.1407329359
 10
227.7343996301
 20
196.7786929686
 10
227.4340069982
 20
196.3965401771
 10
227.1491091621
 20
195.9946632731
 10
226.8799959093
 20
195.5734710309
 10
226.6269409717
 20
195.1333918715
 10
226.3902017475
 20
194.674873427
 10
226.1700190389
 20
194.1983820854
 10
225.9666168076
 20
193.704402516
 10
225.7802019467
 20
193.1934371764
 10
225.6109640707
 20
192.6660058014
 10
225.4590753218
 20
192.1226448748
 10
225.3246901958
 20
191.5639070829
 10
225.2079453841
 20
190.9903607532
 10
225.1089596353
 20
190.4025892756
 10
225.0278336339
 20
189.8011905094
 10
224.9646498983
 20
189.186776175
 10
224.9194726967
 20
188.5599712318
 10
224.8923479816
 20
187.9214132426
 10
224.8833033432
 20
187.2717517247
  0
LWPOLYLINE
  5
18E
330
1F
100
AcDbEntity
  8
0
  6
Continuous
 62
     7
370
    18
100
AcDbPolyline
 90
      147
 70
   128
 43
0.0
 10
224.917935502
 20
188.5525966691
 10
224.9294777205
 20
188.7758146355
 10
224.9746439887
 20
189.40579527
 10
225.0378130813
 20
190.0233979866
 10
225.1189213924
 20
190.6280009118
 10
225.2178872527
 20
191.2189952617
 10
225.3346110121
 20
191.795785955
 10
225.4689751396
 20
192.3577922125
 10
225.6208443419
 20
192.9044481414
 10
225.7900656997
 20
193.4352033056
 10
225.9764688213
 20
193.9495232796
 10
226.1798660147
 20
194.4468901868
 10
226.400052476
 20
194.926803221
 10
226.6368064961
 20
195.3887791502
 10
226.889889684
 20
195.832352804
 10
227.1590472061
 20
196.2570775413
 10
227.4440080438
 20
196.6625257003
 10
227.7444852656
 20
197.0482890289
 10
228.0601763165
 20
197.4139790964
 10
228.3907633222
 20
197.7592276837
 10
228.7359134097
 20
198.0836871548
 10
229.0952790421
 20
198.3870308066
 10
229.4684983688
 20
198.6689531976
 10
229.8551955894
 20
198.9291704559
 10
230.2549813326
 20
199.1674205649
 10
230.6674530481
 20
199.3834636268
 10
231.0921954119
 20
199.5770821045
 10
231.5287807443
 20
199.7480810408
 10
231.976769441
 20
199.8962882541
 10
232.4357104153
 20
200.0215545124
 10
232.9051415526
 20
200.1237536832
 10
233.3845901754
 20
200.2027828605
 10
233.8735735197
 20
200.2585624687
 10
234.3715992207
 20
200.2910363424
 10
234.8781658088
 20
200.3001717832
 10
235.3927632142
 20
200.2859595925
 10
235.9148732811
 20
200.2484140808
 10
236.4439702888
 20
200.1875730531
 10
236.9795214816
 20
200.1034977713
 10
237.5209876048
 20
199.9962728921
 10
238.0678234478
 20
199.8660063817
 10
238.6194783934
 20
199.7128294076
 10
239.1753969717
 20
199.536896206
 10
239.73501942
 20
199.3383839267
 10
240.2977822457
 20
199.1174924547
 10
240.8631187946
 20
198.874444209
 10
241.4304598205
 20
198.6094839185
 10
241.9992340591
 20
198.322878376
 10
242.5688688031
 20
198.0149161688
 10
243.1387904785
 20
197.6859073887
 10
243.7084252225
 20
197.3361833198
 10
244.2771994611
 20
196.9660961045
 10
244.844540487
 20
196.5760183893
 10
245.4098770358
 20
196.1663429493
 10
245.9726398616
 20
195.7374822931
 10
246.5322623099
 20
195.2898682469
 10
247.0881808882
 20
194.8239515201
 10
247.6398358338
 20
194.3402012514
 10
248.1866716768
 20
193.8391045363
 10
248.7281378
 20
193.3211659367
 10
249.2636889927
 20
192.786906973
 10
249.7927860005
 20
192.2368655985
 10
250.3148960674
 20
191.6715956583
 10
250.8294934728
 20
191.0916663313
 10
251.3360600609
 20
190.4976615572
 10
251.8340857619
 20
189.8901794485
 10
252.3230691062
 20
189.2698316882
 10
252.802517729
 20
188.6372429138
 10
253.2719488663
 20
187.9930500886
 10
253.7308898406
 20
187.3379018602
 10
254.1788785373
 20
186.6724579074
 10
254.6154638697
 20
185.9973882757
 10
255.0402062335
 20
185.3133727032
 10
255.452677949
 20
184.6210999354
 10
255.8524636922
 20
183.9212670323
 10
256.2391609128
 20
183.2145786665
 10
256.6123802395
 20
182.5017464131
 10
256.9717458719
 20
181.7834880339
 10
257.3168959594
 20
181.0605267541
 10
257.6474829651
 20
180.3335905344
 10
257.963174016
 20
179.603411338
 10
258.2636512378
 20
178.8707243935
 10
258.5486120754
 20
178.1362674546
 10
258.8177695976
 20
177.400780057
 10
259.0708527854
 20
176.6650027742
 10
259.3076068056
 20
175.9296764717
 10
259.5277932669
 20
175.1955415606
 10
259.7311904603
 20
174.4633372526
 10
259.9175935819
 20
173.7338008154
 10
260.0868149396
 20
173.0076668302
 10
260.238684142
 20
172.2856664526
 10
260.3730482695
 20
171.5685266756
 10
260.4897720289
 20
170.8569695983
 10
260.5887378892
 20
170.1517116982
 10
260.6698462003
 20
169.4534631104
 10
260.7330152929
 20
168.7629269119
 10
260.7781815611
 20
168.0807984142
 10
260.8052995262
 20
167.4077644628
 10
260.8143418829
 20
166.7445027459
 10
260.8052995262
 20
166.0916811119
 10
260.7781815611
 20
165.4499568967
 10
260.7330152929
 20
164.8199762622
 10
260.6698462003
 20
164.2023735456
 10
260.5887378892
 20
163.5977706204
 10
260.4897720289
 20
163.0067762705
 10
260.3730482695
 20
162.4299855772
 10
260.238684142
 20
161.8679793197
 10
260.0868149396
 20
161.3213233908
 10
259.9175935819
 20
160.7905682266
 10
259.7311904603
 20
160.2762482526
 10
259.5277932669
 20
159.7788813453
 10
259.3076068056
 20
159.2989683112
 10
259.0708527854
 20
158.836992382
 10
258.8177695976
 20
158.3934187281
 10
258.5486120754
 20
157.9686939909
 10
258.2636512378
 20
157.5632458319
 10
257.963174016
 20
157.1774825032
 10
257.6474829651
 20
156.8117924358
 10
257.3168959594
 20
156.4665438485
 10
256.9717458719
 20
156.1420843774
 10
256.6123802395
 20
155.8387407256
 10
256.2391609128
 20
155.5568183346
 10
255.8524636922
 20
155.2966010763
 10
255.452677949
 20
155.0583509673
 10
255.0402062335
 20
154.8423079054
 10
254.6154638697
 20
154.6486894276
 10
254.1788785373
 20
154.4776904914
 10
253.7308898406
 20
154.329483278
 10
253.2719488663
 20
154.2042170197
 10
252.802517729
 20
154.102017849
 10
252.3230691062
 20
154.0229886717
 10
251.8340857619
 20
153.9672090635
 10
251.3360600609
 20
153.9347351898
 10
250.8294934728
 20
153.925599749
 10
250.3148960674
 20
153.9398119397
 10
249.7927860005
 20
153.9773574514
 10
249.2636889927
 20
154.0381984791
 10
248.7281378
 20
154.1222737608
 10
248.1866716768
 20
154.2294986401
 10
247.6398358338
 20
154.3597651504
 10
247.0881808882
 20
154.5129421245
 10
246.5322623099
 20
154.6888753262
 10
245.9726398616
 20
154.8873876055
 10
245.4098770358
 20
155.1082790775
 10
244.844540487
 20
155.3513273232
 10
244.2771994611
 20
155.6162876136
 10
243.7909684972
 20
155.8600023178
  0
SPLINE
  5
18F
330
1F
100
AcDbEntity
  8
0
  6
Continuous
 62
     7
370
    18
100
AcDbSpline
210
0.0
220
0.0
230
1.0
 70
     8
 71
     3
 72
    13
 73
     9
 74
     0
 42
0.000000001
 43
0.00000001
 40
0.0
 40
0.0
 40
0.0
 40
0.0
 40
0.125181813599688
 40
0.2503332059135235
 40
0.4993454225804393
 40
0.7493478657217902
 40
0.8746555787205837
 40
1.0
 40
1.0
 40
1.0
 40
1.0
 10
244.6691932638574
 20
197.758486719094
 30
0.0
 10
244.6602366470236
 20
197.7697009455122
 30
0.0
 10
244.6423255899644
 20
197.7921266731031
 30
0.0
 10
244.6255113619472
 20
197.8406236060103
 30
0.0
 10
244.6403813696353
 20
197.9017512216085
 30
0.0
 10
244.6848913612568
 20
197.9553472232889
 30
0.0
 10
244.7321543969464
 20
197.993402004458
 30
0.0
 10
244.7598888782341
 20
198.010254111621
 30
0.0
 10
244.7737581497507
 20
198.0186813992074
 30
0.0
  0
SPLINE
  5
190
330
1F
100
AcDbEntity
  8
0
  6
Continuous
 62
     7
370
    18
100
AcDbSpline
210
0.0
220
0.0
230
1.0
 70
     8
 71
     3
 72
    13
 73
     9
 74
     0
 42
0.000000001
 43
0.00000001
 40
0.0
 40
0.0
 40
0.0
 40
0.0
 40
0.1252070167095335
 40
0.2503499988400303
 40
0.5000380243515966
 40
0.7497019434946849
 40
0.8748125575708123
 40
1.0
 40
1.0
 40
1.0
 40
1.0
 10
244.32441206926
 20
197.7080765264521
 30
0.0
 10
244.3358298159251
 20
197.7143102090389
 30
0.0
 10
244.3586594698811
 20
197.7267743861224
 30
0.0
 10
244.4100278420533
 20
197.7473364021442
 30
0.0
 10
244.4818114762111
 20
197.7658531051484
 30
0.0
 10
244.5604490056685
 20
197.7705185074043
 30
0.0
 10
244.6233224907965
 20
197.766579448292
 30
0.0
 10
244.65389987762
 20
197.7611848474463
 30
0.0
 10
244.6691932638574
 20
197.758486719094
 30
0.0
  0
SPLINE
  5
191
330
1F
100
AcDbEntity
  8
0
  6
Continuous
 62
     7
370
    18
100
AcDbSpline
210
0.0
220
0.0
230
1.0
 70
     8
 71
     3
 72
    13
 73
     9
 74
     0
 42
0.000000001
 43
0.00000001
 40
0.0
 40
0.0
 40
0.0
 40
0.0
 40
0.1253218693265596
 40
0.2505408180337312
 40
0.499846220881407
 40
0.7492214387597355
 40
0.8745930071161481
 40
1.0
 40
1.0
 40
1.0
 40
1.0
 10
244.2972806568964
 20
197.3801856436283
 30
0.0
 10
244.2805076274998
 20
197.3922621975366
 30
0.0
 10
244.2469753435615
 20
197.4164053874799
 30
0.0
 10
244.2022521842139
 20
197.4732809761345
 30
0.0
 10
244.1869421592951
 20
197.5514157667644
 30
0.0
 10
244.2205657311842
 20
197.6252792045285
 30
0.0
 10
244.2729676386134
 20
197.6760072790627
 30
0.0
 10
244.3072623109099
 20
197.6973857706932
 30
0.0
 10
244.32441206926
 20
197.7080765264521
 30
0.0
  0
SPLINE
  5
192
330
1F
100
AcDbEntity
  8
0
  6
Continuous
 62
     7
370
    18
100
AcDbSpline
210
0.0
220
0.0
230
1.0
 70
     8
 71
     3
 72
    13
 73
     9
 74
     0
 42
0.000000001
 43
0.00000001
 40
0.0
 40
0.0
 40
0.0
 40
0.0
 40
0.125427452718186
 40
0.2508145688309585
 40
0.5003499196120385
 40
0.7494757444946886
 40
0.8746961640823792
 40
1.0
 40
1.0
 40
1.0
 40
1.0
 10
244.8321873293523
 20
197.360724774801
 30
0.0
 10
244.812018721396
 20
197.3528658094594
 30
0.0
 10
244.7716879915687
 20
197.3371504061655
 30
0.0
 10
244.6841880381317
 20
197.3133602190166
 30
0.0
 10
244.5635272582146
 20
197.2983391685172
 30
0.0
 10
244.4391862229477
 20
197.3163905501303
 30
0.0
 10
244.3518765097602
 20
197.3478452802823
 30
0.0
 10
244.3154833137631
 20
197.3694031298282
 30
0.0
 10
244.2972806568964
 20
197.3801856436283
 30
0.0
  0
SPLINE
  5
193
330
1F
100
AcDbEntity
  8
0
  6
Continuous
 62
     7
370
    18
100
AcDbSpline
210
0.0
220
0.0
230
1.0
 70
     8
 71
     3
 72
     8
 73
     4
 74
     0
 42
0.000000001
 43
0.00000001
 40
0.0
 40
0.0
 40
0.0
 40
0.0
 40
1.0
 40
1.0
 40
1.0
 40
1.0
 10
244.7334291247957
 20
197.4435906131301
 30
0.0
 10
244.7663570582083
 20
197.4161007259991
 30
0.0
 10
244.799276708951
 20
197.3884786150126
 30
0.0
 10
244.8321873293523
 20
197.360724774801
 30
0.0
  0
SPLINE
  5
194
330
1F
100
AcDbEntity
  8
0
  6
Continuous
 62
     7
370
    18
100
AcDbSpline
210
0.0
220
0.0
230
1.0
 70
     8
 71
     3
 72
    12
 73
     8
 74
     0
 42
0.000000001
 43
0.00000001
 40
0.0
 40
0.0
 40
0.0
 40
0.0
 40
0.1254036788910046
 40
0.2506410199107219
 40
0.499513972652287
 40
0.7493339049718746
 40
1.0
 40
1.0
 40
1.0
 40
1.0
 10
244.4074007489141
 20
197.4475422042329
 30
0.0
 10
244.4185861924677
 20
197.4409621077015
 30
0.0
 10
244.4409422429858
 20
197.4278106426062
 30
0.0
 10
244.4951139723611
 20
197.4093344298559
 30
0.0
 10
244.5718736603964
 20
197.4008143084035
 30
0.0
 10
244.6596046489753
 20
197.4144445250491
 30
0.0
 10
244.708793245431
 20
197.4338643062117
 30
0.0
 10
244.7334291247957
 20
197.4435906131301
 30
0.0
  0
SPLINE
  5
195
330
1F
100
AcDbEntity
  8
0
  6
Continuous
 62
     7
370
    18
100
AcDbSpline
210
0.0
220
0.0
230
1.0
 70
     8
 71
     3
 72
    13
 73
     9
 74
     0
 42
0.000000001
 43
0.00000001
 40
0.0
 40
0.0
 40
0.0
 40
0.0
 40
0.1254946067789717
 40
0.2508678087164374
 40
0.5002434855918647
 40
0.7494052184710867
 40
0.874599092149537
 40
1.0
 40
1.0
 40
1.0
 40
1.0
 10
244.4310680214734
 20
197.6325680320554
 30
0.0
 10
244.4214176094809
 20
197.6264843907375
 30
0.0
 10
244.4021261214091
 20
197.6143229934823
 30
0.0
 10
244.3701498675598
 20
197.586597929154
 30
0.0
 10
244.3477919783343
 20
197.545208802727
 30
0.0
 10
244.3546343710954
 20
197.5006713352119
 30
0.0
 10
244.3789877175292
 20
197.4681178217313
 30
0.0
 10
244.3979245234384
 20
197.4544045199104
 30
0.0
 10
244.4074007489141
 20
197.4475422042329
 30
0.0
  0
SPLINE
  5
196
330
1F
100
AcDbEntity
  8
0
  6
Continuous
 62
     7
370
    18
100
AcDbSpline
210
0.0
220
0.0
230
1.0
 70
     8
 71
     3
 72
    14
 73
    10
 74
     0
 42
0.000000001
 43
0.00000001
 40
0.0
 40
0.0
 40
0.0
 40
0.0
 40
0.1363435000463049
 40
0.2622804955692279
 40
0.382076403170443
 40
0.5006611748511441
 40
0.7494110920821174
 40
0.8746555490182008
 40
0.9999999999999999
 40
0.9999999999999999
 40
0.9999999999999999
 40
0.9999999999999999
 10
244.788963924905
 20
197.6182854235858
 30
0.0
 10
244.7754011089876
 20
197.6262947442682
 30
0.0
 10
244.7493106677203
 20
197.641702069128
 30
0.0
 10
244.7047755165999
 20
197.6590940672562
 30
0.0
 10
244.6584367517705
 20
197.6705438328211
 30
0.0
 10
244.5933180297664
 20
197.6777071029226
 30
0.0
 10
244.5262361233378
 20
197.6712989644658
 30
0.0
 10
244.4681330796572
 20
197.652294620909
 30
0.0
 10
244.4434263271642
 20
197.6391453106902
 30
0.0
 10
244.4310680214734
 20
197.6325680320554
 30
0.0
  0
SPLINE
  5
197
330
1F
100
AcDbEntity
  8
0
  6
Continuous
 62
     7
370
    18
100
AcDbSpline
210
0.0
220
0.0
230
1.0
 70
     8
 71
     3
 72
     8
 73
     4
 74
     0
 42
0.000000001
 43
0.00000001
 40
0.0
 40
0.0
 40
0.0
 40
0.0
 40
1.0
 40
1.0
 40
1.0
 40
1.0
 10
244.8044073004881
 20
197.6063313989661
 30
0.0
 10
244.7992596803075
 20
197.6103190746252
 30
0.0
 10
244.7941118875983
 20
197.6143037500505
 30
0.0
 10
244.788963924905
 20
197.6182854235858
 30
0.0
  0
LINE
  5
198
330
1F
100
AcDbEntity
  8
0
  6
Continuous
 62
     7
370
    18
100
AcDbLine
 10
244.9467746374
 20
197.67115916
 30
0.0
 11
244.8044073005
 21
197.606331399
 31
0.0
  0
SPLINE
  5
199
330
1F
100
AcDbEntity
  8
0
  6
Continuous
 62
     7
370
    18
100
AcDbSpline
210
0.0
220
0.0
230
1.0
 70
     8
 71
     3
 72
     9
 73
     5
 74
     0
 42
0.000000001
 43
0.00000001
 40
0.0
 40
0.0
 40
0.0
 40
0.0
 40
0.4996926187733211
 40
1.0
 40
1.0
 40
1.0
 40
1.0
 10
244.8538399385639
 20
197.7131057937881
 30
0.0
 10
244.8681607683424
 20
197.7051341808736
 30
0.0
 10
244.8968200465478
 20
197.689181147719
 30
0.0
 10
244.930116284044
 20
197.6771689507767
 30
0.0
 10
244.9467746374305
 20
197.6711591599817
 30
0.0
  0
SPLINE
  5
19A
330
1F
100
AcDbEntity
  8
0
  6
Continuous
 62
     7
370
    18
100
AcDbSpline
210
0.0
220
0.0
230
1.0
 70
     8
 71
     3
 72
    13
 73
     9
 74
     0
 42
0.000000001
 43
0.00000001
 40
0.0
 40
0.0
 40
0.0
 40
0.0
 40
0.1255009491406237
 40
0.2508913152987094
 40
0.500384623751978
 40
0.749435281453924
 40
0.8747000222277289
 40
0.9999999999999999
 40
0.9999999999999999
 40
0.9999999999999999
 40
0.9999999999999999
 10
244.8881661188237
 20
197.9479416143635
 30
0.0
 10
244.875719080255
 20
197.9402925180376
 30
0.0
 10
244.8508359706094
 20
197.925001065254
 30
0.0
 10
244.8106257742056
 20
197.889540983192
 30
0.0
 10
244.7803330049616
 20
197.8375146374787
 30
0.0
 10
244.7876236626751
 20
197.7808645940568
 30
0.0
 10
244.817485860989
 20
197.7391860445657
 30
0.0
 10
244.8417207766509
 20
197.7218000257145
 30
0.0
 10
244.8538399385639
 20
197.7131057937881
 30
0.0
  0
SPLINE
  5
19B
330
1F
100
AcDbEntity
  8
0
  6
Continuous
 62
     7
370
    18
100
AcDbSpline
210
0.0
220
0.0
230
1.0
 70
     8
 71
     3
 72
    14
 73
    10
 74
     0
 42
0.000000001
 43
0.00000001
 40
0.0
 40
0.0
 40
0.0
 40
0.0
 40
0.0854846141030924
 40
0.1634996788418714
 40
0.2860603030753629
 40
0.5000163307681321
 40
0.749405511005383
 40
0.8746713445292319
 40
0.9999999999999999
 40
0.9999999999999999
 40
0.9999999999999999
 40
0.9999999999999999
 10
245.298708048112
 20
197.9623533325601
 30
0.0
 10
245.2889799893472
 20
197.968040458657
 30
0.0
 10
245.2703738986432
 20
197.9789177761733
 30
0.0
 10
245.2326020183616
 20
197.9939395391477
 30
0.0
 10
245.1717213007782
 20
198.0079057607374
 30
0.0
 10
245.0802705042504
 20
198.0110473707144
 30
0.0
 10
244.9935938719443
 20
197.9949419078851
 30
0.0
 10
244.930085190214
 20
197.9706345753764
 30
0.0
 10
244.9021414777056
 20
197.9555071988035
 30
0.0
 10
244.8881661188237
 20
197.9479416143635
 30
0.0
  0
SPLINE
  5
19C
330
1F
100
AcDbEntity
  8
0
  6
Continuous
 62
     7
370
    18
100
AcDbSpline
210
0.0
220
0.0
230
1.0
 70
     8
 71
     3
 72
    12
 73
     8
 74
     0
 42
0.000000001
 43
0.00000001
 40
0.0
 40
0.0
 40
0.0
 40
0.0
 40
0.2809581538431826
 40
0.5010445554401103
 40
0.7497042880368907
 40
0.874787161820332
 40
0.9999999999999999
 40
0.9999999999999999
 40
0.9999999999999999
 40
0.9999999999999999
 10
245.2569901870897
 20
197.7283929669539
 30
0.0
 10
245.2789759708812
 20
197.7478572787179
 30
0.0
 10
245.3181841487367
 20
197.7825688088917
 30
0.0
 10
245.3579706609086
 20
197.8418179176446
 30
0.0
 10
245.3612194731593
 20
197.8952021773002
 30
0.0
 10
245.3337958241414
 20
197.9367540148159
 30
0.0
 10
245.3104080214425
 20
197.9538172733173
 30
0.0
 10
245.298708048112
 20
197.9623533325601
 30
0.0
  0
SPLINE
  5
19D
330
1F
100
AcDbEntity
  8
0
  6
Continuous
 62
     7
370
    18
100
AcDbSpline
210
0.0
220
0.0
230
1.0
 70
     8
 71
     3
 72
     8
 73
     4
 74
     0
 42
0.000000001
 43
0.00000001
 40
0.0
 40
0.0
 40
0.0
 40
0.0
 40
1.0
 40
1.0
 40
1.0
 40
1.0
 10
245.3840443404545
 20
197.661766841167
 30
0.0
 10
245.3417018305661
 20
197.6841073818857
 30
0.0
 10
245.2993501969017
 20
197.7063162555765
 30
0.0
 10
245.2569901870897
 20
197.7283929669539
 30
0.0
  0
SPLINE
  5
19E
330
1F
100
AcDbEntity
  8
0
  6
Continuous
 62
     7
370
    18
100
AcDbSpline
210
0.0
220
0.0
230
1.0
 70
     8
 71
     3
 72
    13
 73
     9
 74
     0
 42
0.000000001
 43
0.00000001
 40
0.0
 40
0.0
 40
0.0
 40
0.0
 40
0.1252680539189771
 40
0.2504815402279662
 40
0.4996067709597874
 40
0.7491654120850698
 40
0.8745668673283575
 40
1.0
 40
1.0
 40
1.0
 40
1.0
 10
245.4136835657444
 20
198.0265641891283
 30
0.0
 10
245.4319410797991
 20
198.0133592348483
 30
0.0
 10
245.4684481548119
 20
197.9869550784556
 30
0.0
 10
245.5165389981261
 20
197.923995950568
 30
0.0
 10
245.5303153864722
 20
197.8369166144664
 30
0.0
 10
245.4904729902786
 20
197.755972362435
 30
0.0
 10
245.4358928610389
 20
197.6992291474122
 30
0.0
 10
245.4013286356663
 20
197.674255327881
 30
0.0
 10
245.3840443404545
 20
197.661766841167
 30
0.0
  0
SPLINE
  5
19F
330
1F
100
AcDbEntity
  8
0
  6
Continuous
 62
     7
370
    18
100
AcDbSpline
210
0.0
220
0.0
230
1.0
 70
     8
 71
     3
 72
    14
 73
    10
 74
     0
 42
0.000000001
 43
0.00000001
 40
0.0
 40
0.0
 40
0.0
 40
0.0
 40
0.1252592045594816
 40
0.2504936922358247
 40
0.3755795502897269
 40
0.5008267323692518
 40
0.749835507101412
 40
0.8748784146233494
 40
1.0
 40
1.0
 40
1.0
 40
1.0
 10
244.7737581497507
 20
198.0186813992074
 30
0.0
 10
244.7956072426995
 20
198.0303917393343
 30
0.0
 10
244.8393011172056
 20
198.053810108835
 30
0.0
 10
244.915160647854
 20
198.0809521355777
 30
0.0
 10
244.9982397188491
 20
198.0995873882371
 30
0.0
 10
245.1155929808234
 20
198.1095003164279
 30
0.0
 10
245.2375172161983
 20
198.0994386944519
 30
0.0
 10
245.3467362353141
 20
198.0652994633326
 30
0.0
 10
245.3913631104836
 20
198.0394786541165
 30
0.0
 10
245.4136835657444
 20
198.0265641891283
 30
0.0
  0
SPLINE
  5
1A0
330
1F
100
AcDbEntity
  8
0
  6
Continuous
 62
     7
370
    18
100
AcDbSpline
210
0.0
220
0.0
230
1.0
 70
     8
 71
     3
 72
    13
 73
     9
 74
     0
 42
0.000000001
 43
0.00000001
 40
0.0
 40
0.0
 40
0.0
 40
0.0
 40
0.1251818135996931
 40
0.2503332059135323
 40
0.4993454225804294
 40
0.7493478657217804
 40
0.8746555787205836
 40
1.0
 40
1.0
 40
1.0
 40
1.0
 10
243.9762353412924
 20
198.1860428160089
 30
0.0
 10
243.9672611702981
 20
198.1966659123969
 30
0.0
 10
243.9493150091841
 20
198.2179095235819
 30
0.0
 10
243.9324435287232
 20
198.2642979668354
 30
0.0
 10
243.9472664274882
 20
198.3235144150416
 30
0.0
 10
243.9917533485034
 20
198.3760922882872
 30
0.0
 10
244.0390076279501
 20
198.4137537955642
 30
0.0
 10
244.0667414337864
 20
198.430575167667
 30
0.0
 10
244.0806103675277
 20
198.4389870854726
 30
0.0
  0
SPLINE
  5
1A1
330
1F
100
AcDbEntity
  8
0
  6
Continuous
 62
     7
370
    18
100
AcDbSpline
210
0.0
220
0.0
230
1.0
 70
     8
 71
     3
 72
    13
 73
     9
 74
     0
 42
0.000000001
 43
0.00000001
 40
0.0
 40
0.0
 40
0.0
 40
0.0
 40
0.1252070167095192
 40
0.2503499988400357
 40
0.5000380243515884
 40
0.7497019434947066
 40
0.8748125575708184
 40
1.0
 40
1.0
 40
1.0
 40
1.0
 10
243.6313074895638
 20
198.1302491907138
 30
0.0
 10
243.642725549959
 20
198.1364958935676
 30
0.0
 10
243.6655558312147
 20
198.1489861045264
 30
0.0
 10
243.7169322582242
 20
198.1698790006592
 30
0.0
 10
243.7887364625311
 20
198.1892294592323
 30
0.0
 10
243.86741292285
 20
198.1953723059921
 30
0.0
 10
243.9303273226409
 20
198.1928885525396
 30
0.0
 10
243.9609295373178
 20
198.1883251950895
 30
0.0
 10
243.9762353412924
 20
198.1860428160089
 30
0.0
  0
SPLINE
  5
1A2
330
1F
100
AcDbEntity
  8
0
  6
Continuous
 62
     7
370
    18
100
AcDbSpline
210
0.0
220
0.0
230
1.0
 70
     8
 71
     3
 72
    13
 73
     9
 74
     0
 42
0.000000001
 43
0.00000001
 40
0.0
 40
0.0
 40
0.0
 40
0.0
 40
0.1253218693265562
 40
0.2505408180337279
 40
0.4998462208814134
 40
0.7492214387597332
 40
0.8745930071161614
 40
1.0
 40
1.0
 40
1.0
 40
1.0
 10
243.6045201712151
 20
197.8136067046881
 30
0.0
 10
243.5877189826909
 20
197.8249064056347
 30
0.0
 10
243.554130403623
 20
197.8474965276452
 30
0.0
 10
243.5093096937441
 20
197.9014038113068
 30
0.0
 10
243.4939081633899
 20
197.9763979576763
 30
0.0
 10
243.527481462392
 20
198.0482832205685
 30
0.0
 10
243.5798651340881
 20
198.0982662698962
 30
0.0
 10
243.6141584230025
 20
198.1195872131886
 30
0.0
 10
243.6313074895638
 20
198.1302491907138
 30
0.0
  0
SPLINE
  5
1A3
330
1F
100
AcDbEntity
  8
0
  6
Continuous
 62
     7
370
    18
100
AcDbSpline
210
0.0
220
0.0
230
1.0
 70
     8
 71
     3
 72
    13
 73
     9
 74
     0
 42
0.000000001
 43
0.00000001
 40
0.0
 40
0.0
 40
0.0
 40
0.0
 40
0.1254274527181766
 40
0.2508145688309581
 40
0.5003499196120532
 40
0.7494757444946921
 40
0.8746961640823885
 40
1.0
 40
1.0
 40
1.0
 40
1.0
 10
244.1399338881181
 20
197.805726333185
 30
0.0
 10
244.1197586060591
 20
197.797735267828
 30
0.0
 10
244.0794145301729
 20
197.7817557069855
 30
0.0
 10
243.9918681066427
 20
197.7570315498482
 30
0.0
 10
243.8711141008164
 20
197.7400979557557
 30
0.0
 10
243.7466309790848
 20
197.7549857851525
 30
0.0
 10
243.6592020179828
 20
197.7835405258476
 30
0.0
 10
243.6227514990786
 20
197.8035824206443
 30
0.0
 10
243.6045201712151
 20
197.8136067046881
 30
0.0
  0
SPLINE
  5
1A4
330
1F
100
AcDbEntity
  8
0
  6
Continuous
 62
     7
370
    18
100
AcDbSpline
210
0.0
220
0.0
230
1.0
 70
     8
 71
     3
 72
     8
 73
     4
 74
     0
 42
0.000000001
 43
0.00000001
 40
0.0
 40
0.0
 40
0.0
 40
0.0
 40
1.0
 40
1.0
 40
1.0
 40
1.0
 10
244.0409417735659
 20
197.8836875763097
 30
0.0
 10
244.0739430919221
 20
197.857835479344
 30
0.0
 10
244.1069407131795
 20
197.8318482442516
 30
0.0
 10
244.1399338881181
 20
197.805726333185
 30
0.0
  0
SPLINE
  5
1A5
330
1F
100
AcDbEntity
  8
0
  6
Continuous
 62
     7
370
    18
100
AcDbSpline
210
0.0
220
0.0
230
1.0
 70
     8
 71
     3
 72
    12
 73
     8
 74
     0
 42
0.000000001
 43
0.00000001
 40
0.0
 40
0.0
 40
0.0
 40
0.0
 40
0.1254036788910045
 40
0.2506410199107205
 40
0.499513972652294
 40
0.7493339049718619
 40
0.9999999999999999
 40
0.9999999999999999
 40
0.9999999999999999
 40
0.9999999999999999
 10
243.7146352736144
 20
197.8808282657146
 30
0.0
 10
243.72583807437
 20
197.8747128066857
 30
0.0
 10
243.7482288162693
 20
197.8624900002913
 30
0.0
 10
243.8024701524394
 20
197.8457810939442
 30
0.0
 10
243.8793077638802
 20
197.8391310670478
 30
0.0
 10
243.967096059533
 20
197.8540669396234
 30
0.0
 10
244.0162988068221
 20
197.873802908332
 30
0.0
 10
244.0409417735659
 20
197.8836875763097
 30
0.0
  0
SPLINE
  5
1A6
330
1F
100
AcDbEntity
  8
0
  6
Continuous
 62
     7
370
    18
100
AcDbSpline
210
0.0
220
0.0
230
1.0
 70
     8
 71
     3
 72
    13
 73
     9
 74
     0
 42
0.000000001
 43
0.00000001
 40
0.0
 40
0.0
 40
0.0
 40
0.0
 40
0.1254946067789671
 40
0.2508678087164654
 40
0.5002434855918714
 40
0.7494052184710774
 40
0.8745990921495358
 40
1.0
 40
1.0
 40
1.0
 40
1.0
 10
243.7380975800608
 20
198.0597077442994
 30
0.0
 10
243.7284477187864
 20
198.0536425931136
 30
0.0
 10
243.709157331618
 20
198.041518158235
 30
0.0
 10
243.6771910956116
 20
198.0141272235023
 30
0.0
 10
243.6548643752872
 20
197.9737645738889
 30
0.0
 10
243.6617632120164
 20
197.9309688477659
 30
0.0
 10
243.686174157834
 20
197.9000840830014
 30
0.0
 10
243.7051430111813
 20
197.8872504057481
 30
0.0
 10
243.7146352736144
 20
197.8808282657146
 30
0.0
  0
SPLINE
  5
1A7
330
1F
100
AcDbEntity
  8
0
  6
Continuous
 62
     7
370
    18
100
AcDbSpline
210
0.0
220
0.0
230
1.0
 70
     8
 71
     3
 72
    14
 73
    10
 74
     0
 42
0.000000001
 43
0.00000001
 40
0.0
 40
0.0
 40
0.0
 40
0.0
 40
0.1363435000463917
 40
0.2622804955693593
 40
0.3820764031705504
 40
0.5006611748511067
 40
0.7494110920821067
 40
0.8746555490181951
 40
0.9999999999999999
 40
0.9999999999999999
 40
0.9999999999999999
 40
0.9999999999999999
 10
244.0962652946147
 20
198.0533351054404
 30
0.0
 10
244.082680861256
 20
198.0607808357609
 30
0.0
 10
244.0565488350712
 20
198.0751039962905
 30
0.0
 10
244.0119583358732
 20
198.0909564584038
 30
0.0
 10
243.9655724945291
 20
198.1010384068443
 30
0.0
 10
243.9004009153833
 20
198.1065952731373
 30
0.0
 10
243.8332832019623
 20
198.0990231838203
 30
0.0
 10
243.7751644315997
 20
198.0794945996582
 30
0.0
 10
243.7504564836956
 20
198.0663051171127
 30
0.0
 10
243.7380975800608
 20
198.0597077442994
 30
0.0
  0
SPLINE
  5
1A8
330
1F
100
AcDbEntity
  8
0
  6
Continuous
 62
     7
370
    18
100
AcDbSpline
210
0.0
220
0.0
230
1.0
 70
     8
 71
     3
 72
     8
 73
     4
 74
     0
 42
0.000000001
 43
0.00000001
 40
0.0
 40
0.0
 40
0.0
 40
0.0
 40
1.0
 40
1.0
 40
1.0
 40
1.0
 10
244.1117378471803
 20
198.0421224910805
 30
0.0
 10
244.106580397597
 20
198.0458630952172
 30
0.0
 10
244.1014228792255
 20
198.0496006338524
 30
0.0
 10
244.0962652946147
 20
198.0533351054404
 30
0.0
  0
LINE
  5
1A9
330
1F
100
AcDbEntity
  8
0
  6
Continuous
 62
     7
370
    18
100
AcDbLine
 10
244.2541299088
 20
198.1075661912
 30
0.0
 11
244.1117378472
 21
198.0421224911
 31
0.0
  0
SPLINE
  5
1AA
330
1F
100
AcDbEntity
  8
0
  6
Continuous
 62
     7
370
    18
100
AcDbSpline
210
0.0
220
0.0
230
1.0
 70
     8
 71
     3
 72
     9
 73
     5
 74
     0
 42
0.000000001
 43
0.00000001
 40
0.0
 40
0.0
 40
0.0
 40
0.0
 40
0.4996926187733174
 40
0.9999999999999999
 40
0.9999999999999999
 40
0.9999999999999999
 40
0.9999999999999999
 10
244.161064193092
 20
198.1461121723459
 30
0.0
 10
244.175406492671
 20
198.1387195495049
 30
0.0
 10
244.2041087368911
 20
198.1239252088176
 30
0.0
 10
244.2374493526468
 20
198.1130214314888
 30
0.0
 10
244.254129908804
 20
198.107566191208
 30
0.0
  0
SPLINE
  5
1AB
330
1F
100
AcDbEntity
  8
0
  6
Continuous
 62
     7
370
    18
100
AcDbSpline
210
0.0
220
0.0
230
1.0
 70
     8
 71
     3
 72
    13
 73
     9
 74
     0
 42
0.000000001
 43
0.00000001
 40
0.0
 40
0.0
 40
0.0
 40
0.0
 40
0.1255009491406231
 40
0.2508913152987055
 40
0.5003846237519609
 40
0.7494352814539103
 40
0.874700022227723
 40
1.0
 40
1.0
 40
1.0
 40
1.0
 10
244.1951421487869
 20
198.3732206617838
 30
0.0
 10
244.1826955731463
 20
198.3655883472394
 30
0.0
 10
244.1578133889492
 20
198.3503304432318
 30
0.0
 10
244.1176155568827
 20
198.3153134950716
 30
0.0
 10
244.087358206197
 20
198.2645359137624
 30
0.0
 10
244.0947165433014
 20
198.2100773544798
 30
0.0
 10
244.1246496200839
 20
198.1705113404649
 30
0.0
 10
244.1489248641441
 20
198.1542459908527
 30
0.0
 10
244.161064193092
 20
198.1461121723459
 30
0.0
  0
SPLINE
  5
1AC
330
1F
100
AcDbEntity
  8
0
  6
Continuous
 62
     7
370
    18
100
AcDbSpline
210
0.0
220
0.0
230
1.0
 70
     8
 71
     3
 72
    14
 73
    10
 74
     0
 42
0.000000001
 43
0.00000001
 40
0.0
 40
0.0
 40
0.0
 40
0.0
 40
0.0854846141117939
 40
0.1634996788420308
 40
0.2860603030754952
 40
0.5000163307682324
 40
0.7494055110054345
 40
0.8746713445292537
 40
0.9999999999999999
 40
0.9999999999999999
 40
0.9999999999999999
 40
0.9999999999999999
 10
244.6059422171984
 20
198.3956297507223
 30
0.0
 10
244.5961994479331
 20
198.4009134778653
 30
0.0
 10
244.5775652216171
 20
198.4110192460195
 30
0.0
 10
244.5397475246438
 20
198.4247231047462
 30
0.0
 10
244.4788081933295
 20
198.4369275913472
 30
0.0
 10
244.3872954012441
 20
198.4380546689053
 30
0.0
 10
244.3005838719067
 20
198.4207225513105
 30
0.0
 10
244.2370627269578
 20
198.3959681517544
 30
0.0
 10
244.209118010013
 20
198.3808044255806
 30
0.0
 10
244.1951421487869
 20
198.3732206617838
 30
0.0
  0
SPLINE
  5
1AD
330
1F
100
AcDbEntity
  8
0
  6
Continuous
 62
     7
370
    18
100
AcDbSpline
210
0.0
220
0.0
230
1.0
 70
     8
 71
     3
 72
    12
 73
     8
 74
     0
 42
0.000000001
 43
0.00000001
 40
0.0
 40
0.0
 40
0.0
 40
0.0
 40
0.2809581538486949
 40
0.5010445554401952
 40
0.749704288036946
 40
0.8747871618203527
 40
0.9999999999999999
 40
0.9999999999999999
 40
0.9999999999999999
 40
0.9999999999999999
 10
244.5645305701588
 20
198.169103964776
 30
0.0
 10
244.5865055380918
 20
198.1883299609872
 30
0.0
 10
244.6256944275687
 20
198.2226164929587
 30
0.0
 10
244.6654243320004
 20
198.2805866104342
 30
0.0
 10
244.6685959420552
 20
198.3321497120706
 30
0.0
 10
244.6410911490909
 20
198.3716644832179
 30
0.0
 10
244.617662582872
 20
198.3876385634089
 30
0.0
 10
244.6059422171984
 20
198.3956297507223
 30
0.0
  0
SPLINE
  5
1AE
330
1F
100
AcDbEntity
  8
0
  6
Continuous
 62
     7
370
    18
100
AcDbSpline
210
0.0
220
0.0
230
1.0
 70
     8
 71
     3
 72
     8
 73
     4
 74
     0
 42
0.000000001
 43
0.00000001
 40
0.0
 40
0.0
 40
0.0
 40
0.0
 40
1.0
 40
1.0
 40
1.0
 40
1.0
 10
244.6918220720439
 20
198.1073802347887
 30
0.0
 10
244.6493958616422
 20
198.1280895835536
 30
0.0
 10
244.6069651112805
 20
198.1486643144902
 30
0.0
 10
244.5645305701588
 20
198.169103964776
 30
0.0
  0
SPLINE
  5
1AF
330
1F
100
AcDbEntity
  8
0
  6
Continuous
 62
     7
370
    18
100
AcDbSpline
210
0.0
220
0.0
230
1.0
 70
     8
 71
     3
 72
    13
 73
     9
 74
     0
 42
0.000000001
 43
0.00000001
 40
0.0
 40
0.0
 40
0.0
 40
0.0
 40
0.1252680539189757
 40
0.2504815402279641
 40
0.4996067709597839
 40
0.7491654120850778
 40
0.874566867328362
 40
1.0
 40
1.0
 40
1.0
 40
1.0
 10
244.7209205826815
 20
198.4599177520082
 30
0.0
 10
244.7392100800821
 20
198.4475584134738
 30
0.0
 10
244.7757811078546
 20
198.4228451202161
 30
0.0
 10
244.8240053567979
 20
198.3630979005357
 30
0.0
 10
244.8379343861379
 20
198.2793613208891
 30
0.0
 10
244.7981925906484
 20
198.2004425204094
 30
0.0
 10
244.7436571165307
 20
198.1445799760427
 30
0.0
 10
244.709101874845
 20
198.1197811924706
 30
0.0
 10
244.6918220720439
 20
198.1073802347887
 30
0.0
  0
SPLINE
  5
1B0
330
1F
100
AcDbEntity
  8
0
  6
Continuous
 62
     7
370
    18
100
AcDbSpline
210
0.0
220
0.0
230
1.0
 70
     8
 71
     3
 72
    14
 73
    10
 74
     0
 42
0.000000001
 43
0.00000001
 40
0.0
 40
0.0
 40
0.0
 40
0.0
 40
0.1252592045595136
 40
0.2504936922358938
 40
0.3755795502957524
 40
0.5008267323691312
 40
0.7498355071013486
 40
0.8748784146233172
 40
1.0
 40
1.0
 40
1.0
 40
1.0
 10
244.0806103675277
 20
198.4389870854726
 30
0.0
 10
244.1024601854683
 20
198.45073040861
 30
0.0
 10
244.146155509815
 20
198.4742147376233
 30
0.0
 10
244.2220286359603
 20
198.5019646556239
 30
0.0
 10
244.3051326195997
 20
198.5216688905856
 30
0.0
 10
244.4225380066864
 20
198.5336849509994
 30
0.0
 10
244.544542870091
 20
198.526535085412
 30
0.0
 10
244.6538736994796
 20
198.4958893037411
 30
0.0
 10
244.6985669362064
 20
198.4719107830366
 30
0.0
 10
244.7209205826815
 20
198.4599177520082
 30
0.0
  0
SPLINE
  5
1B1
330
1F
100
AcDbEntity
  8
0
  6
Continuous
 62
     7
370
    18
100
AcDbSpline
210
0.0
220
0.0
230
1.0
 70
     8
 71
     3
 72
    14
 73
    10
 74
     0
 42
0.000000001
 43
0.00000001
 40
0.0
 40
0.0
 40
0.0
 40
0.0
 40
0.1253233732874744
 40
0.2505851611274332
 40
0.4994209737320273
 40
0.6224847172287347
 40
0.7493850559434647
 40
0.8662476114089386
 40
1.0
 40
1.0
 40
1.0
 40
1.0
 10
242.1675529450095
 20
199.4471538484416
 30
0.0
 10
242.1902636786242
 20
199.4594558929633
 30
0.0
 10
242.2356739855197
 20
199.4840539366309
 30
0.0
 10
242.3413030430482
 20
199.5237729481593
 30
0.0
 10
242.4638608488576
 20
199.548830447748
 30
0.0
 10
242.5875583035429
 20
199.5480285885314
 30
0.0
 10
242.6709574097571
 20
199.5328948710251
 30
0.0
 10
242.7468683327937
 20
199.5083384194466
 30
0.0
 10
242.791800961194
 20
199.488139439135
 30
0.0
 10
242.8157813602753
 20
199.4773593083891
 30
0.0
  0
SPLINE
  5
1B2
330
1F
100
AcDbEntity
  8
0
  6
Continuous
 62
     7
370
    18
100
AcDbSpline
210
0.0
220
0.0
230
1.0
 70
     8
 71
     3
 72
    13
 73
     9
 74
     0
 42
0.000000001
 43
0.00000001
 40
0.0
 40
0.0
 40
0.0
 40
0.0
 40
0.1252052877721209
 40
0.2503107204223362
 40
0.4996753708246796
 40
0.7494960997303894
 40
0.8747169914880069
 40
1.0
 40
1.0
 40
1.0
 40
1.0
 10
242.0494352200099
 20
199.2234779120799
 30
0.0
 10
242.042962166358
 20
199.2325809800119
 30
0.0
 10
242.0300212215164
 20
199.2507798558953
 30
0.0
 10
242.0218664912326
 20
199.2902986045684
 30
0.0
 10
242.0373406513113
 20
199.3412369082476
 30
0.0
 10
242.0812458904368
 20
199.3886839420901
 30
0.0
 10
242.1277608750567
 20
199.4231602687877
 30
0.0
 10
242.1542867291778
 20
199.4391546665281
 30
0.0
 10
242.1675529450095
 20
199.4471538484416
 30
0.0
  0
SPLINE
  5
1B3
330
1F
100
AcDbEntity
  8
0
  6
Continuous
 62
     7
370
    18
100
AcDbSpline
210
0.0
220
0.0
230
1.0
 70
     8
 71
     3
 72
    13
 73
     9
 74
     0
 42
0.000000001
 43
0.00000001
 40
0.0
 40
0.0
 40
0.0
 40
0.0
 40
0.1252007697639438
 40
0.2503382630066595
 40
0.5000947961030323
 40
0.7496980833309274
 40
0.8748201749496911
 40
1.0
 40
1.0
 40
1.0
 40
1.0
 10
241.6999770756784
 20
199.1479943121545
 30
0.0
 10
241.7115978830015
 20
199.1543543714457
 30
0.0
 10
241.7348336244867
 20
199.1670712756515
 30
0.0
 10
241.7867272804006
 20
199.189416920381
 30
0.0
 10
241.8595564918271
 20
199.2113900792862
 30
0.0
 10
241.9387764062644
 20
199.222946088363
 30
0.0
 10
242.0025613901462
 20
199.225780128359
 30
0.0
 10
242.033808207642
 20
199.2242454355012
 30
0.0
 10
242.0494352200099
 20
199.2234779120799
 30
0.0
  0
SPLINE
  5
1B4
330
1F
100
AcDbEntity
  8
0
  6
Continuous
 62
     7
370
    18
100
AcDbSpline
210
0.0
220
0.0
230
1.0
 70
     8
 71
     3
 72
    14
 73
    10
 74
     0
 42
0.000000001
 43
0.00000001
 40
0.0
 40
0.0
 40
0.0
 40
0.0
 40
0.1361856719551987
 40
0.2505464033407886
 40
0.3771373985595159
 40
0.5005703119955361
 40
0.749603249324486
 40
0.8747633086575668
 40
1.0
 40
1.0
 40
1.0
 40
1.0
 10
241.7237121522246
 20
198.8494868949266
 30
0.0
 10
241.7036069041532
 20
198.8597955117428
 30
0.0
 10
241.6666184491986
 20
198.8787606997073
 30
0.0
 10
241.6195012207401
 20
198.9113138393293
 30
0.0
 10
241.5874220655426
 20
198.9476395648997
 30
0.0
 10
241.5715669562878
 20
199.0029365687056
 30
0.0
 10
241.5943304942366
 20
199.060737667494
 30
0.0
 10
241.6452818247041
 20
199.1135099181868
 30
0.0
 10
241.6817416059413
 20
199.1364971691412
 30
0.0
 10
241.6999770756784
 20
199.1479943121545
 30
0.0
  0
ARC
  5
1B5
330
1F
100
AcDbEntity
  8
0
  6
Continuous
 62
     7
370
    18
100
AcDbCircle
 10
232.4628833325
 20
179.6045821589
 30
0.0
 40
21.35718400739581
100
AcDbArc
 50
63.2952547609
 51
64.3027034591
  0
LINE
  5
1B6
330
1F
100
AcDbEntity
  8
0
  6
Continuous
 62
     7
370
    18
100
AcDbLine
 10
243.150297364
 20
199.3127233266
 30
0.0
 11
242.060652029
 21
198.6836844642
 31
0.0
  0
ARC
  5
1B7
330
1F
100
AcDbEntity
  8
0
  6
Continuous
 62
     7
370
    18
100
AcDbCircle
 10
233.5514990026
 20
180.2315440308
 30
0.0
 40
21.35950217819208
100
AcDbArc
 50
63.2952911084
 51
64.2954148463
  0
LINE
  5
1B8
330
1F
100
AcDbEntity
  8
0
  6
Continuous
 62
     7
370
    18
100
AcDbLine
 10
242.8245840578
 20
198.9868379785
 30
0.0
 11
242.9519452008
 21
199.0603620013
 31
0.0
  0
ARC
  5
1B9
330
1F
100
AcDbEntity
  8
0
  6
Continuous
 62
     7
370
    18
100
AcDbCircle
 10
232.6941381242
 20
179.1725237105
 30
0.0
 40
22.25383078762593
100
AcDbArc
 50
61.9354106646
 51
62.9207446305
  0
LINE
  5
1BA
330
1F
100
AcDbEntity
  8
0
  6
Continuous
 62
     7
370
    18
100
AcDbLine
 10
243.2911835543
 20
198.8832241
 30
0.0
 11
243.1638224112
 21
198.8097000771
 31
0.0
  0
ARC
  5
1BB
330
1F
100
AcDbEntity
  8
0
  6
Continuous
 62
     7
370
    18
100
AcDbCircle
 10
232.8214992672
 20
179.2460477333
 30
0.0
 40
22.25383078770399
100
AcDbArc
 50
61.9354106646
 51
62.9207446305
  0
SPLINE
  5
1BC
330
1F
100
AcDbEntity
  8
0
  6
Continuous
 62
     7
370
    18
100
AcDbSpline
210
0.0
220
0.0
230
1.0
 70
     8
 71
     3
 72
    14
 73
    10
 74
     0
 42
0.000000001
 43
0.00000001
 40
0.0
 40
0.0
 40
0.0
 40
0.0
 40
0.0625295071920553
 40
0.1250573703505801
 40
0.2501015862053629
 40
0.5000628335493967
 40
0.7856405501384438
 40
0.8928281916917018
 40
0.9999999999999999
 40
0.9999999999999999
 40
0.9999999999999999
 40
0.9999999999999999
 10
244.1683941456447
 20
198.7671911512852
 30
0.0
 10
244.146348412812
 20
198.7553462957065
 30
0.0
 10
244.1022575267757
 20
198.7316568959756
 30
0.0
 10
244.007842152093
 20
198.6883650327038
 30
0.0
 10
243.8351655923547
 20
198.6183896288564
 30
0.0
 10
243.5572396763834
 20
198.5272674151186
 30
0.0
 10
243.2667109374529
 20
198.4621450146247
 30
0.0
 10
243.0338095591593
 20
198.4244785366647
 30
0.0
 10
242.9317243053123
 20
198.4143077987859
 30
0.0
 10
242.8806854485535
 20
198.4092228054674
 30
0.0
  0
ARC
  5
1BD
330
1F
100
AcDbEntity
  8
0
  6
Continuous
 62
     7
370
    18
100
AcDbCircle
 10
232.5218839762
 20
178.284884972
 30
0.0
 40
23.56196226012541
100
AcDbArc
 50
60.3768671923
 51
60.6930397353
  0
SPLINE
  5
1BE
330
1F
100
AcDbEntity
  8
0
  6
Continuous
 62
     7
370
    18
100
AcDbSpline
210
0.0
220
0.0
230
1.0
 70
     8
 71
     3
 72
    14
 73
    10
 74
     0
 42
0.000000001
 43
0.00000001
 40
0.0
 40
0.0
 40
0.0
 40
0.0
 40
0.0625214085020478
 40
0.1250408910512817
 40
0.2500580106901045
 40
0.5000199454242307
 40
0.7499463862298534
 40
0.8749712433160682
 40
0.9999999999999999
 40
0.9999999999999999
 40
0.9999999999999999
 40
0.9999999999999999
 10
242.744308374408
 20
198.4572797698409
 30
0.0
 10
242.7746921837992
 20
198.4603465281193
 30
0.0
 10
242.8354588666178
 20
198.4664799502055
 30
0.0
 10
242.9553291569943
 20
198.4836890688817
 30
0.0
 10
243.1616960690023
 20
198.5209082434048
 30
0.0
 10
243.445479082528
 20
198.5918089068507
 30
0.0
 10
243.7139895601335
 20
198.6796439369964
 30
0.0
 10
243.9150818778996
 20
198.7618554081673
 30
0.0
 10
244.0084873874642
 20
198.8080497946791
 30
0.0
 10
244.0551908705781
 20
198.8311473481369
 30
0.0
  0
LINE
  5
1BF
330
1F
100
AcDbEntity
  8
0
  6
Continuous
 62
     7
370
    18
100
AcDbLine
 10
242.6401641064
 20
198.3971585636
 30
0.0
 11
242.7443083744
 21
198.4572797698
 31
0.0
  0
ARC
  5
1C0
330
1F
100
AcDbEntity
  8
0
  6
Continuous
 62
     7
370
    18
100
AcDbCircle
 10
231.5510456106
 20
177.8477086713
 30
0.0
 40
23.35055545143897
100
AcDbArc
 50
60.0171780769
 51
61.6473288561
  0
LINE
  5
1C1
330
1F
100
AcDbEntity
  8
0
  6
Continuous
 62
     7
370
    18
100
AcDbLine
 10
243.3476210637
 20
198.1469064104
 30
0.0
 11
243.2202599207
 21
198.0733823876
 31
0.0
  0
ARC
  5
1C2
330
1F
100
AcDbEntity
  8
0
  6
Continuous
 62
     7
370
    18
100
AcDbCircle
 10
231.6230020125
 20
177.8232707913
 30
0.0
 40
23.46309563287157
100
AcDbArc
 50
60.0195352872
 51
61.3274085716
  0
LINE
  5
1C3
330
1F
100
AcDbEntity
  8
0
  6
Continuous
 62
     7
370
    18
100
AcDbLine
 10
245.6520781676
 20
197.5165458606
 30
0.0
 11
245.9209516918
 21
197.6717632423
 31
0.0
  0
ARC
  5
1C4
330
1F
100
AcDbEntity
  8
0
  6
Continuous
 62
     7
370
    18
100
AcDbCircle
 10
230.3837571558
 20
175.1197363407
 30
0.0
 40
27.10606395608817
100
AcDbArc
 50
55.7170192331
 51
56.0409905837
  0
LINE
  5
1C5
330
1F
100
AcDbEntity
  8
0
  6
Continuous
 62
     7
370
    18
100
AcDbLine
 10
245.3978338466
 20
197.5289960314
 30
0.0
 11
245.5251949896
 21
197.6025200543
 31
0.0
  0
ARC
  5
1C6
330
1F
100
AcDbEntity
  8
0
  6
Continuous
 62
     7
370
    18
100
AcDbCircle
 10
230.2563960128
 20
175.0462123178
 30
0.0
 40
27.10606395606737
100
AcDbArc
 50
55.7170192331
 51
56.0409905837
  0
LINE
  5
1C7
330
1F
100
AcDbEntity
  8
0
  6
Continuous
 62
     7
370
    18
100
AcDbLine
 10
244.8171551187
 20
197.0345550439
 30
0.0
 11
245.5247170245
 21
197.4430218377
 31
0.0
  0
ARC
  5
1C8
330
1F
100
AcDbEntity
  8
0
  6
Continuous
 62
     7
370
    18
100
AcDbCircle
 10
229.4134241361
 20
174.4390481833
 30
0.0
 40
27.34651455806392
100
AcDbArc
 50
55.4470296421
 51
55.7170983419
  0
SPLINE
  5
1C9
330
1F
100
AcDbEntity
  8
0
  6
Continuous
 62
     7
370
    18
100
AcDbSpline
210
0.0
220
0.0
230
1.0
 70
     8
 71
     3
 72
     8
 73
     4
 74
     0
 42
0.000000001
 43
0.00000001
 40
0.0
 40
0.0
 40
0.0
 40
0.0
 40
1.0
 40
1.0
 40
1.0
 40
1.0
 10
246.0173200439977
 20
197.099290582254
 30
0.0
 10
245.652864383503
 20
197.0549444319216
 30
0.0
 10
245.2882441668818
 20
197.0090870984713
 30
0.0
 10
244.9234895156332
 20
196.9616974589835
 30
0.0
  0
LINE
  5
1CA
330
1F
100
AcDbEntity
  8
0
  6
Continuous
 62
     7
370
    18
100
AcDbLine
 10
246.144681187
 20
197.1728146051
 30
0.0
 11
246.017320044
 21
197.0992905823
 31
0.0
  0
ARC
  5
1CB
330
1F
100
AcDbEntity
  8
0
  6
Continuous
 62
     7
370
    18
100
AcDbCircle
 10
229.9553148223
 20
174.4974940114
 30
0.0
 40
27.86154603253605
100
AcDbArc
 50
54.4745233013
 51
55.4287863283
  0
LINE
  5
1CC
330
1F
100
AcDbEntity
  8
0
  6
Continuous
 62
     7
370
    18
100
AcDbLine
 10
246.0336686534
 20
197.5945090503
 30
0.0
 11
245.7647951292
 21
197.4392916687
 31
0.0
  0
ARC
  5
1CD
330
1F
100
AcDbEntity
  8
0
  6
Continuous
 62
     7
370
    18
100
AcDbCircle
 10
230.513504689
 20
175.0708243119
 30
0.0
 40
27.35309605283976
100
AcDbArc
 50
55.4308379582
 51
55.7170760351
  0
SPLINE
  5
1CE
330
1F
100
AcDbEntity
  8
0
  6
Continuous
 62
     7
370
    18
100
AcDbSpline
210
0.0
220
0.0
230
1.0
 70
     8
 71
     3
 72
     8
 73
     4
 74
     0
 42
0.000000001
 43
0.00000001
 40
0.0
 40
0.0
 40
0.0
 40
0.0
 40
1.0
 40
1.0
 40
1.0
 40
1.0
 10
246.7183572962952
 20
196.6770775567847
 30
0.0
 10
246.8581719048209
 20
196.7160433190952
 30
0.0
 10
246.9979737136983
 20
196.7549207346371
 30
0.0
 10
247.1377622842293
 20
196.7937101362511
 30
0.0
  0
ARC
  5
1CF
330
1F
100
AcDbEntity
  8
0
  6
Continuous
 62
     7
370
    18
100
AcDbCircle
 10
229.1331568908
 20
173.4047320802
 30
0.0
 40
29.1691847209416
100
AcDbArc
 50
52.9243400076
 51
53.8466521799
  0
SPLINE
  5
1D0
330
1F
100
AcDbEntity
  8
0
  6
Continuous
 62
     7
370
    18
100
AcDbSpline
210
0.0
220
0.0
230
1.0
 70
     8
 71
     3
 72
     8
 73
     4
 74
     0
 42
0.000000001
 43
0.00000001
 40
0.0
 40
0.0
 40
0.0
 40
0.0
 40
1.0
 40
1.0
 40
1.0
 40
1.0
 10
246.5724459484015
 20
197.2137690739063
 30
0.0
 10
246.4954651774157
 20
197.1283116334244
 30
0.0
 10
246.4184737591323
 20
197.042763798083
 30
0.0
 10
246.341471250102
 20
196.9571258904773
 30
0.0
  0
ARC
  5
1D1
330
1F
100
AcDbEntity
  8
0
  6
Continuous
 62
     7
370
    18
100
AcDbCircle
 10
229.8754622057
 20
174.1630632637
 30
0.0
 40
28.462682664383
100
AcDbArc
 50
54.0819726316
 51
54.3716110476
  0
SPLINE
  5
1D2
330
1F
100
AcDbEntity
  8
0
  6
Continuous
 62
     7
370
    18
100
AcDbSpline
210
0.0
220
0.0
230
1.0
 70
     8
 71
     3
 72
     8
 73
     4
 74
     0
 42
0.000000001
 43
0.00000001
 40
0.0
 40
0.0
 40
0.0
 40
0.0
 40
1.0
 40
1.0
 40
1.0
 40
1.0
 10
245.7113804019719
 20
196.4174340807784
 30
0.0
 10
245.9596390540075
 20
196.7121179257804
 30
0.0
 10
246.2077411961384
 20
197.0056050993371
 30
0.0
 10
246.4557084666268
 20
197.2978798477952
 30
0.0
  0
ARC
  5
1D3
330
1F
100
AcDbEntity
  8
0
  6
Continuous
 62
     7
370
    18
100
AcDbCircle
 10
228.3681828823
 20
172.963305588
 30
0.0
 40
29.16989275884888
100
AcDbArc
 50
53.2515967216
 51
53.5188598675
  0
SPLINE
  5
1D4
330
1F
100
AcDbEntity
  8
0
  6
Continuous
 62
     7
370
    18
100
AcDbSpline
210
0.0
220
0.0
230
1.0
 70
     8
 71
     3
 72
     8
 73
     4
 74
     0
 42
0.000000001
 43
0.00000001
 40
0.0
 40
0.0
 40
0.0
 40
0.0
 40
1.0
 40
1.0
 40
1.0
 40
1.0
 10
247.2540769322075
 20
196.7046454717367
 30
0.0
 10
246.7764274349151
 20
196.5830360952563
 30
0.0
 10
246.2985932726485
 20
196.4602529594005
 30
0.0
 10
245.8205959634767
 20
196.3362797506109
 30
0.0
  0
ARC
  5
1D5
330
1F
100
AcDbEntity
  8
0
  6
Continuous
 62
     7
370
    18
100
AcDbCircle
 10
229.0337033828
 20
173.0300991067
 30
0.0
 40
29.87417208679476
100
AcDbArc
 50
52.417446614
 51
52.6984155823
  0
LINE
  5
1D6
330
1F
100
AcDbEntity
  8
0
  6
Continuous
 62
     7
370
    18
100
AcDbLine
 10
247.1546300328
 20
196.6096121654
 30
0.0
 11
247.2819911758
 21
196.6831361883
 31
0.0
  0
ARC
  5
1D7
330
1F
100
AcDbEntity
  8
0
  6
Continuous
 62
     7
370
    18
100
AcDbCircle
 10
228.5158019323
 20
172.452255103
 30
0.0
 40
30.51202735310615
100
AcDbArc
 50
51.2831985572
 51
52.3476919448
  0
LINE
  5
1D8
330
1F
100
AcDbEntity
  8
0
  6
Continuous
 62
     7
370
    18
100
AcDbLine
 10
246.6379207459
 20
195.7036589032
 30
0.0
 11
247.6002049378
 21
196.2591737428
 31
0.0
  0
ARC
  5
1D9
330
1F
100
AcDbEntity
  8
0
  6
Continuous
 62
     7
370
    18
100
AcDbCircle
 10
227.1957447223
 20
171.448272193
 30
0.0
 40
31.08572008161013
100
AcDbArc
 50
51.0228519473
 51
51.2856917099
  0
LINE
  5
1DA
330
1F
100
AcDbEntity
  8
0
  6
Continuous
 62
     7
370
    18
100
AcDbLine
 10
247.8386307446
 20
196.2432534459
 30
0.0
 11
246.7489854096
 21
195.6142145835
 31
0.0
  0
ARC
  5
1DB
330
1F
100
AcDbEntity
  8
0
  6
Continuous
 62
     7
370
    18
100
AcDbCircle
 10
228.5726473826
 20
172.4356896485
 30
0.0
 40
30.62642990733159
100
AcDbArc
 50
51.0189028816
 51
52.346201387
  0
SPLINE
  5
1DC
330
1F
100
AcDbEntity
  8
0
  6
Continuous
 62
     7
370
    18
100
AcDbSpline
210
0.0
220
0.0
230
1.0
 70
     8
 71
     3
 72
    12
 73
     8
 74
     0
 42
0.000000001
 43
0.00000001
 40
0.0
 40
0.0
 40
0.0
 40
0.0
 40
0.2500523614628498
 40
0.5000624942199321
 40
0.7500048372617525
 40
0.8750030177057659
 40
1.0
 40
1.0
 40
1.0
 40
1.0
 10
240.5847954660902
 20
199.4385385471124
 30
0.0
 10
240.5857414560967
 20
199.4154358061108
 30
0.0
 10
240.5876332763514
 20
199.3692342256859
 30
0.0
 10
240.5797717347494
 20
199.2985435490966
 30
0.0
 10
240.5630907679389
 20
199.2389828785529
 30
0.0
 10
240.5401721604465
 20
199.1912907375143
 30
0.0
 10
240.5226209388134
 20
199.167897329002
 30
0.0
 10
240.5138453700557
 20
199.1562006808045
 30
0.0
  0
ARC
  5
1DD
330
1F
100
AcDbEntity
  8
0
  6
Continuous
 62
     7
370
    18
100
AcDbCircle
 10
233.1036955296
 20
181.3862669242
 30
0.0
 40
19.25307420569952
100
AcDbArc
 50
67.2587196399
 51
67.3636233846
  0
SPLINE
  5
1DE
330
1F
100
AcDbEntity
  8
0
  6
Continuous
 62
     7
370
    18
100
AcDbSpline
210
0.0
220
0.0
230
1.0
 70
     8
 71
     3
 72
    12
 73
     8
 74
     0
 42
0.000000001
 43
0.00000001
 40
0.0
 40
0.0
 40
0.0
 40
0.0
 40
0.1250082830565215
 40
0.2500160235234041
 40
0.4999468084770646
 40
0.7499551010695017
 40
1.0
 40
1.0
 40
1.0
 40
1.0
 10
240.5463681829947
 20
199.1426035437432
 30
0.0
 10
240.5689014525244
 20
199.1484302451898
 30
0.0
 10
240.6139678937799
 20
199.1600836227928
 30
0.0
 10
240.7072190392284
 20
199.1783245832998
 30
0.0
 10
240.8257188694731
 20
199.1957585316136
 30
0.0
 10
240.9690396247668
 20
199.2100588128417
 30
0.0
 10
241.0645305622445
 20
199.2153011693608
 30
0.0
 10
241.112279526185
 20
199.2179225395034
 30
0.0
  0
LINE
  5
1DF
330
1F
100
AcDbEntity
  8
0
  6
Continuous
 62
     7
370
    18
100
AcDbLine
 10
241.1122795262
 20
199.2179225395
 30
0.0
 11
241.1707447353
 21
199.2516737863
 31
0.0
  0
SPLINE
  5
1E0
330
1F
100
AcDbEntity
  8
0
  6
Continuous
 62
     7
370
    18
100
AcDbSpline
210
0.0
220
0.0
230
1.0
 70
     8
 71
     3
 72
    12
 73
     8
 74
     0
 42
0.000000001
 43
0.00000001
 40
0.0
 40
0.0
 40
0.0
 40
0.0
 40
0.2730398731117966
 40
0.500052237793093
 40
0.7500216239974863
 40
0.8742668658488879
 40
1.0
 40
1.0
 40
1.0
 40
1.0
 10
241.1707447353065
 20
199.2516737863138
 30
0.0
 10
241.1378669174131
 20
199.2552387660603
 30
0.0
 10
241.0776536371181
 20
199.2617677615494
 30
0.0
 10
240.9853790461147
 20
199.268053046557
 30
0.0
 10
240.9100457389214
 20
199.2702365029203
 30
0.0
 10
240.8464955957431
 20
199.2690553621086
 30
0.0
 10
240.8145393441428
 20
199.2672643651406
 30
0.0
 10
240.7984661151953
 20
199.2663635365744
 30
0.0
  0
LINE
  5
1E1
330
1F
100
AcDbEntity
  8
0
  6
Continuous
 62
     7
370
    18
100
AcDbLine
 10
240.7984661152
 20
199.2663635366
 30
0.0
 11
242.0073467469
 21
199.9642354706
 31
0.0
  0
ARC
  5
1E2
330
1F
100
AcDbEntity
  8
0
  6
Continuous
 62
     7
370
    18
100
AcDbCircle
 10
234.5411480202
 20
182.2129784577
 30
0.0
 40
19.25749851271151
100
AcDbArc
 50
67.1883230048
 51
67.4182138187
  0
LINE
  5
1E3
330
1F
100
AcDbEntity
  8
0
  6
Continuous
 62
     7
370
    18
100
AcDbLine
 10
241.9360625541
 20
199.9940495166
 30
0.0
 11
240.7271819225
 21
199.2961775825
 31
0.0
  0
SPLINE
  5
1E4
330
1F
100
AcDbEntity
  8
0
  6
Continuous
 62
     7
370
    18
100
AcDbSpline
210
0.0
220
0.0
230
1.0
 70
     8
 71
     3
 72
    11
 73
     7
 74
     0
 42
0.000000001
 43
0.00000001
 40
0.0
 40
0.0
 40
0.0
 40
0.0
 40
0.2500116510297191
 40
0.4999966599749747
 40
0.749984645926844
 40
1.0
 40
1.0
 40
1.0
 40
1.0
 10
240.7271819224592
 20
199.2961775825273
 30
0.0
 10
240.7234155294
 20
199.3115821440333
 30
0.0
 10
240.7158831446411
 20
199.3423896254833
 30
0.0
 10
240.6971431242948
 20
199.3871201517571
 30
0.0
 10
240.6734808135171
 20
199.4306510495478
 30
0.0
 10
240.6533344222237
 20
199.4584097059996
 30
0.0
 10
240.6432606752117
 20
199.4722897939227
 30
0.0
  0
LINE
  5
1E5
330
1F
100
AcDbEntity
  8
0
  6
Continuous
 62
     7
370
    18
100
AcDbLine
 10
240.6432606752
 20
199.4722897939
 30
0.0
 11
240.5847954661
 21
199.4385385471
 31
0.0
  0
SPLINE
  5
1E6
330
1F
100
AcDbEntity
  8
0
  6
Continuous
 62
     7
370
    18
100
AcDbSpline
210
0.0
220
0.0
230
1.0
 70
     8
 71
     3
 72
    12
 73
     8
 74
     0
 42
0.000000001
 43
0.00000001
 40
0.0
 40
0.0
 40
0.0
 40
0.0
 40
0.1659131409886944
 40
0.3317373426545913
 40
0.4999613640671388
 40
0.7349260071426961
 40
1.0
 40
1.0
 40
1.0
 40
1.0
 10
239.5806286468692
 20
200.0993898758885
 30
0.0
 10
239.5979614370589
 20
200.0959080223616
 30
0.0
 10
239.6326177260307
 20
200.0889461817885
 30
0.0
 10
239.6907032296603
 20
200.0828861625555
 30
0.0
 10
239.7604370308375
 20
200.0798911830072
 30
0.0
 10
239.8463224797148
 20
200.0816996006271
 30
0.0
 10
239.9120971939017
 20
200.0871499675721
 30
0.0
 10
239.9469648318514
 20
200.0900392453695
 30
0.0
  0
SPLINE
  5
1E7
330
1F
100
AcDbEntity
  8
0
  6
Continuous
 62
     7
370
    18
100
AcDbSpline
210
0.0
220
0.0
230
1.0
 70
     8
 71
     3
 72
     9
 73
     5
 74
     0
 42
0.000000001
 43
0.00000001
 40
0.0
 40
0.0
 40
0.0
 40
0.0
 40
0.4385520894958855
 40
0.9999999999999999
 40
0.9999999999999999
 40
0.9999999999999999
 40
0.9999999999999999
 10
239.9469648318514
 20
200.0900392453695
 30
0.0
 10
239.9705403768191
 20
200.09245981863
 30
0.0
 10
240.0242980615557
 20
200.0979792844323
 30
0.0
 10
240.0782032684786
 20
200.1046256852145
 30
0.0
 10
240.1084682342707
 20
200.1083572930461
 30
0.0
  0
SPLINE
  5
1E8
330
1F
100
AcDbEntity
  8
0
  6
Continuous
 62
     7
370
    18
100
AcDbSpline
210
0.0
220
0.0
230
1.0
 70
     8
 71
     3
 72
     8
 73
     4
 74
     0
 42
0.000000001
 43
0.00000001
 40
0.0
 40
0.0
 40
0.0
 40
0.0
 40
1.0
 40
1.0
 40
1.0
 40
1.0
 10
240.1084682342707
 20
200.1083572930461
 30
0.0
 10
240.1304429634217
 20
200.1110851424509
 30
0.0
 10
240.1524198509213
 20
200.1137999548796
 30
0.0
 10
240.1743988777003
 20
200.1165017367075
 30
0.0
  0
SPLINE
  5
1E9
330
1F
100
AcDbEntity
  8
0
  6
Continuous
 62
     7
370
    18
100
AcDbSpline
210
0.0
220
0.0
230
1.0
 70
     8
 71
     3
 72
     8
 73
     4
 74
     0
 42
0.000000001
 43
0.00000001
 40
0.0
 40
0.0
 40
0.0
 40
0.0
 40
1.0
 40
1.0
 40
1.0
 40
1.0
 10
240.1743988777003
 20
200.1165017367075
 30
0.0
 10
240.1742658234678
 20
200.1051933898572
 30
0.0
 10
240.1741354752144
 20
200.0938685605712
 30
0.0
 10
240.1740078058008
 20
200.0825272579877
 30
0.0
  0
SPLINE
  5
1EA
330
1F
100
AcDbEntity
  8
0
  6
Continuous
 62
     7
370
    18
100
AcDbSpline
210
0.0
220
0.0
230
1.0
 70
     8
 71
     3
 72
     9
 73
     5
 74
     0
 42
0.000000001
 43
0.00000001
 40
0.0
 40
0.0
 40
0.0
 40
0.0
 40
0.5626137001331277
 40
1.0
 40
1.0
 40
1.0
 40
1.0
 10
240.1740078058008
 20
200.0825272579877
 30
0.0
 10
240.173945076197
 20
200.0671075755752
 30
0.0
 10
240.1738335794385
 20
200.0397003467628
 30
0.0
 10
240.1774253294773
 20
200.0126593842829
 30
0.0
 10
240.1789963117368
 20
200.000832037759
 30
0.0
  0
SPLINE
  5
1EB
330
1F
100
AcDbEntity
  8
0
  6
Continuous
 62
     7
370
    18
100
AcDbSpline
210
0.0
220
0.0
230
1.0
 70
     8
 71
     3
 72
    11
 73
     7
 74
     0
 42
0.000000001
 43
0.00000001
 40
0.0
 40
0.0
 40
0.0
 40
0.0
 40
0.2650506269693922
 40
0.5001993084075
 40
0.753654824919431
 40
1.0
 40
1.0
 40
1.0
 40
1.0
 10
240.1789963117368
 20
200.000832037759
 30
0.0
 10
240.1821304238355
 20
199.9876767238472
 30
0.0
 10
240.1880450701133
 20
199.9628502256201
 30
0.0
 10
240.2069562656604
 20
199.9272098602427
 30
0.0
 10
240.2353112174208
 20
199.8946736979869
 30
0.0
 10
240.2651763102583
 20
199.8761598804947
 30
0.0
 10
240.2798964209896
 20
199.8670346638069
 30
0.0
  0
SPLINE
  5
1EC
330
1F
100
AcDbEntity
  8
0
  6
Continuous
 62
     7
370
    18
100
AcDbSpline
210
0.0
220
0.0
230
1.0
 70
     8
 71
     3
 72
     9
 73
     5
 74
     0
 42
0.000000001
 43
0.00000001
 40
0.0
 40
0.0
 40
0.0
 40
0.0
 40
0.499973730354759
 40
1.0
 40
1.0
 40
1.0
 40
1.0
 10
240.2798964209896
 20
199.8670346638069
 30
0.0
 10
240.2914949951769
 20
199.8618113714414
 30
0.0
 10
240.3146933623774
 20
199.8513642378254
 30
0.0
 10
240.3412788246269
 20
199.8426865873086
 30
0.0
 10
240.3545722541424
 20
199.8383475340915
 30
0.0
  0
SPLINE
  5
1ED
330
1F
100
AcDbEntity
  8
0
  6
Continuous
 62
     7
370
    18
100
AcDbSpline
210
0.0
220
0.0
230
1.0
 70
     8
 71
     3
 72
    12
 73
     8
 74
     0
 42
0.000000001
 43
0.00000001
 40
0.0
 40
0.0
 40
0.0
 40
0.0
 40
0.2066796017710893
 40
0.4060385628316832
 40
0.6019804998777761
 40
0.7986126436394758
 40
0.9999999999999999
 40
0.9999999999999999
 40
0.9999999999999999
 40
0.9999999999999999
 10
240.3545722541424
 20
199.8383475340915
 30
0.0
 10
240.3728440895707
 20
199.8337824531712
 30
0.0
 10
240.4087405676655
 20
199.8248139875837
 30
0.0
 10
240.4683465348467
 20
199.8164738632624
 30
0.0
 10
240.530559279067
 20
199.8125520269971
 30
0.0
 10
240.5957723016759
 20
199.8130251398982
 30
0.0
 10
240.6402777302187
 20
199.8170814033703
 30
0.0
 10
240.6627963017841
 20
199.8191337655714
 30
0.0
  0
SPLINE
  5
1EE
330
1F
100
AcDbEntity
  8
0
  6
Continuous
 62
     7
370
    18
100
AcDbSpline
210
0.0
220
0.0
230
1.0
 70
     8
 71
     3
 72
    12
 73
     8
 74
     0
 42
0.000000001
 43
0.00000001
 40
0.0
 40
0.0
 40
0.0
 40
0.0
 40
0.2016335697624546
 40
0.3988638463686918
 40
0.595274510803025
 40
0.7944934810685789
 40
1.0
 40
1.0
 40
1.0
 40
1.0
 10
240.6627963017841
 20
199.8191337655714
 30
0.0
 10
240.683388034561
 20
199.8218052098477
 30
0.0
 10
240.7241218158877
 20
199.8270897591449
 30
0.0
 10
240.7837964790619
 20
199.8395956025846
 30
0.0
 10
240.8408785481505
 20
199.8554175198194
 30
0.0
 10
240.8957044614181
 20
199.8746728232191
 30
0.0
 10
240.9290047614773
 20
199.8899310151657
 30
0.0
 10
240.9459135772727
 20
199.8976786317498
 30
0.0
  0
SPLINE
  5
1EF
330
1F
100
AcDbEntity
  8
0
  6
Continuous
 62
     7
370
    18
100
AcDbSpline
210
0.0
220
0.0
230
1.0
 70
     8
 71
     3
 72
     9
 73
     5
 74
     0
 42
0.000000001
 43
0.00000001
 40
0.0
 40
0.0
 40
0.0
 40
0.0
 40
0.4999867525151077
 40
1.0
 40
1.0
 40
1.0
 40
1.0
 10
240.9459135772727
 20
199.8976786317498
 30
0.0
 10
240.9607611036702
 20
199.9057176307469
 30
0.0
 10
240.9904569432555
 20
199.9217960547385
 30
0.0
 10
241.0163043725626
 20
199.9392510506316
 30
0.0
 10
241.0292284296297
 20
199.947978779813
 30
0.0
  0
SPLINE
  5
1F0
330
1F
100
AcDbEntity
  8
0
  6
Continuous
 62
     7
370
    18
100
AcDbSpline
210
0.0
220
0.0
230
1.0
 70
     8
 71
     3
 72
    11
 73
     7
 74
     0
 42
0.000000001
 43
0.00000001
 40
0.0
 40
0.0
 40
0.0
 40
0.0
 40
0.2588544349019026
 40
0.5001062178292411
 40
0.7476352788137774
 40
1.0
 40
1.0
 40
1.0
 40
1.0
 10
241.0292284296297
 20
199.947978779813
 30
0.0
 10
241.0441507041377
 20
199.9599680710094
 30
0.0
 10
241.0729805067581
 20
199.9831313561079
 30
0.0
 10
241.1037817933259
 20
200.0198718032141
 30
0.0
 10
241.1229605772383
 20
200.0570735144353
 30
0.0
 10
241.1243815686827
 20
200.0815447226139
 30
0.0
 10
241.1250989372967
 20
200.0938986862944
 30
0.0
  0
SPLINE
  5
1F1
330
1F
100
AcDbEntity
  8
0
  6
Continuous
 62
     7
370
    18
100
AcDbSpline
210
0.0
220
0.0
230
1.0
 70
     8
 71
     3
 72
    11
 73
     7
 74
     0
 42
0.000000001
 43
0.00000001
 40
0.0
 40
0.0
 40
0.0
 40
0.0
 40
0.2419842837649568
 40
0.4854477036654157
 40
0.7363117998967624
 40
1.0
 40
1.0
 40
1.0
 40
1.0
 10
241.1250989372967
 20
200.0938986862944
 30
0.0
 10
241.1234993369302
 20
200.1038631246355
 30
0.0
 10
241.1202903585924
 20
200.1238529092437
 30
0.0
 10
241.1024114476704
 20
200.1516358537977
 30
0.0
 10
241.0755554021111
 20
200.17769714676
 30
0.0
 10
241.0503915741601
 20
200.1926213418454
 30
0.0
 10
241.0374960831723
 20
200.2002694160414
 30
0.0
  0
SPLINE
  5
1F2
330
1F
100
AcDbEntity
  8
0
  6
Continuous
 62
     7
370
    18
100
AcDbSpline
210
0.0
220
0.0
230
1.0
 70
     8
 71
     3
 72
     9
 73
     5
 74
     0
 42
0.000000001
 43
0.00000001
 40
0.0
 40
0.0
 40
0.0
 40
0.0
 40
0.4999710108585811
 40
0.9999999999999999
 40
0.9999999999999999
 40
0.9999999999999999
 40
0.9999999999999999
 10
241.0374960831723
 20
200.2002694160414
 30
0.0
 10
241.0251589594644
 20
200.2058231912251
 30
0.0
 10
241.0004832813952
 20
200.2169313856265
 30
0.0
 10
240.9724823091657
 20
200.2260585679256
 30
0.0
 10
240.9584810113268
 20
200.2306224236643
 30
0.0
  0
SPLINE
  5
1F3
330
1F
100
AcDbEntity
  8
0
  6
Continuous
 62
     7
370
    18
100
AcDbSpline
210
0.0
220
0.0
230
1.0
 70
     8
 71
     3
 72
    12
 73
     8
 74
     0
 42
0.000000001
 43
0.00000001
 40
0.0
 40
0.0
 40
0.0
 40
0.0
 40
0.1653147942562296
 40
0.3311044323657157
 40
0.4999638610000532
 40
0.7356236607185449
 40
1.0
 40
1.0
 40
1.0
 40
1.0
 10
240.9584810113268
 20
200.2306224236643
 30
0.0
 10
240.9410016725829
 20
200.2350048752577
 30
0.0
 10
240.9059927881152
 20
200.2437823664298
 30
0.0
 10
240.8470547646948
 20
200.2519843499041
 30
0.0
 10
240.7761310039116
 20
200.2569289373238
 30
0.0
 10
240.688917676452
 20
200.2567718745768
 30
0.0
 10
240.6222296581284
 20
200.251887227415
 30
0.0
 10
240.586970738256
 20
200.2493046438084
 30
0.0
  0
SPLINE
  5
1F4
330
1F
100
AcDbEntity
  8
0
  6
Continuous
 62
     7
370
    18
100
AcDbSpline
210
0.0
220
0.0
230
1.0
 70
     8
 71
     3
 72
     9
 73
     5
 74
     0
 42
0.000000001
 43
0.00000001
 40
0.0
 40
0.0
 40
0.0
 40
0.0
 40
0.4459076788070791
 40
1.0
 40
1.0
 40
1.0
 40
1.0
 10
240.586970738256
 20
200.2493046438084
 30
0.0
 10
240.5631258212804
 20
200.2470403097123
 30
0.0
 10
240.5096508126432
 20
200.2419622762904
 30
0.0
 10
240.4560763763557
 20
200.2355392471863
 30
0.0
 10
240.4263911925966
 20
200.2319802960809
 30
0.0
  0
SPLINE
  5
1F5
330
1F
100
AcDbEntity
  8
0
  6
Continuous
 62
     7
370
    18
100
AcDbSpline
210
0.0
220
0.0
230
1.0
 70
     8
 71
     3
 72
     8
 73
     4
 74
     0
 42
0.000000001
 43
0.00000001
 40
0.0
 40
0.0
 40
0.0
 40
0.0
 40
1.0
 40
1.0
 40
1.0
 40
1.0
 10
240.4263911925966
 20
200.2319802960809
 30
0.0
 10
240.4044120795608
 20
200.2293041058647
 30
0.0
 10
240.3824350855206
 20
200.2266148989149
 30
0.0
 10
240.3604602295364
 20
200.2239126688164
 30
0.0
  0
SPLINE
  5
1F6
330
1F
100
AcDbEntity
  8
0
  6
Continuous
 62
     7
370
    18
100
AcDbSpline
210
0.0
220
0.0
230
1.0
 70
     8
 71
     3
 72
     8
 73
     4
 74
     0
 42
0.000000001
 43
0.00000001
 40
0.0
 40
0.0
 40
0.0
 40
0.0
 40
1.0
 40
1.0
 40
1.0
 40
1.0
 10
240.3604602295364
 20
200.2239126688164
 30
0.0
 10
240.3605840118438
 20
200.2355827097038
 30
0.0
 10
240.3607106798832
 20
200.2472351732602
 30
0.0
 10
240.3608402635292
 20
200.2588700495033
 30
0.0
  0
SPLINE
  5
1F7
330
1F
100
AcDbEntity
  8
0
  6
Continuous
 62
     7
370
    18
100
AcDbSpline
210
0.0
220
0.0
230
1.0
 70
     8
 71
     3
 72
     9
 73
     5
 74
     0
 42
0.000000001
 43
0.00000001
 40
0.0
 40
0.0
 40
0.0
 40
0.0
 40
0.5653679136173234
 40
1.0
 40
1.0
 40
1.0
 40
1.0
 10
240.3608402635292
 20
200.2588700495033
 30
0.0
 10
240.3609165262503
 20
200.2736302242891
 30
0.0
 10
240.3610514166806
 20
200.2997374271039
 30
0.0
 10
240.3578724633383
 20
200.3252135948085
 30
0.0
 10
240.3564907882147
 20
200.336286354731
 30
0.0
  0
SPLINE
  5
1F8
330
1F
100
AcDbEntity
  8
0
  6
Continuous
 62
     7
370
    18
100
AcDbSpline
210
0.0
220
0.0
230
1.0
 70
     8
 71
     3
 72
    11
 73
     7
 74
     0
 42
0.000000001
 43
0.00000001
 40
0.0
 40
0.0
 40
0.0
 40
0.0
 40
0.2657752790453595
 40
0.5001898434642064
 40
0.7521304110567342
 40
1.0
 40
1.0
 40
1.0
 40
1.0
 10
240.3564907882147
 20
200.336286354731
 30
0.0
 10
240.3535164804083
 20
200.3492202450828
 30
0.0
 10
240.3479188245187
 20
200.3735618641142
 30
0.0
 10
240.3297048698257
 20
200.4079237419925
 30
0.0
 10
240.3019020082002
 20
200.4387799604254
 30
0.0
 10
240.2726909071429
 20
200.4558058959877
 30
0.0
 10
240.2582043195516
 20
200.4642495252217
 30
0.0
  0
SPLINE
  5
1F9
330
1F
100
AcDbEntity
  8
0
  6
Continuous
 62
     7
370
    18
100
AcDbSpline
210
0.0
220
0.0
230
1.0
 70
     8
 71
     3
 72
     9
 73
     5
 74
     0
 42
0.000000001
 43
0.00000001
 40
0.0
 40
0.0
 40
0.0
 40
0.0
 40
0.571121925111643
 40
1.0
 40
1.0
 40
1.0
 40
1.0
 10
240.2582043195516
 20
200.4642495252217
 30
0.0
 10
240.2500913294506
 20
200.4677418775796
 30
0.0
 10
240.2358859737388
 20
200.47385677565
 30
0.0
 10
240.2194866141295
 20
200.4787442388102
 30
0.0
 10
240.2124532883508
 20
200.4808403646015
 30
0.0
  0
SPLINE
  5
1FA
330
1F
100
AcDbEntity
  8
0
  6
Continuous
 62
     7
370
    18
100
AcDbSpline
210
0.0
220
0.0
230
1.0
 70
     8
 71
     3
 72
     9
 73
     5
 74
     0
 42
0.000000001
 43
0.00000001
 40
0.0
 40
0.0
 40
0.0
 40
0.0
 40
0.5841372900566482
 40
1.0
 40
1.0
 40
1.0
 40
1.0
 10
240.2124532883508
 20
200.4808403646015
 30
0.0
 10
240.2028370574602
 20
200.4837835868102
 30
0.0
 10
240.1863747787213
 20
200.4888221663682
 30
0.0
 10
240.168267615046
 20
200.4927746994649
 30
0.0
 10
240.1607375208906
 20
200.4944184105896
 30
0.0
  0
SPLINE
  5
1FB
330
1F
100
AcDbEntity
  8
0
  6
Continuous
 62
     7
370
    18
100
AcDbSpline
210
0.0
220
0.0
230
1.0
 70
     8
 71
     3
 72
    11
 73
     7
 74
     0
 42
0.000000001
 43
0.00000001
 40
0.0
 40
0.0
 40
0.0
 40
0.0
 40
0.2580145459513455
 40
0.5000353574837703
 40
0.7444566353489194
 40
1.0
 40
1.0
 40
1.0
 40
1.0
 10
240.1607375208906
 20
200.4944184105896
 30
0.0
 10
240.1390106718986
 20
200.4977560293528
 30
0.0
 10
240.0969037718297
 20
200.5042243754889
 30
0.0
 10
240.0269923130587
 20
200.5069740946435
 30
0.0
 10
239.9533408879487
 20
200.5039428578948
 30
0.0
 10
239.9024005537742
 20
200.4970286886104
 30
0.0
 10
239.8763637838019
 20
200.4934946985391
 30
0.0
  0
SPLINE
  5
1FC
330
1F
100
AcDbEntity
  8
0
  6
Continuous
 62
     7
370
    18
100
AcDbSpline
210
0.0
220
0.0
230
1.0
 70
     8
 71
     3
 72
    11
 73
     7
 74
     0
 42
0.000000001
 43
0.00000001
 40
0.0
 40
0.0
 40
0.0
 40
0.0
 40
0.2542032456027102
 40
0.4999679421983434
 40
0.7430113819552739
 40
1.0
 40
1.0
 40
1.0
 40
1.0
 10
239.8763637838019
 20
200.4934946985391
 30
0.0
 10
239.8525166446618
 20
200.4893138170032
 30
0.0
 10
239.8056139977071
 20
200.481090842772
 30
0.0
 10
239.737640522676
 20
200.4631629014892
 30
0.0
 10
239.6726699896883
 20
200.4414162448218
 30
0.0
 10
239.6331664664736
 20
200.4242213967594
 30
0.0
 10
239.6128638565099
 20
200.4153842028793
 30
0.0
  0
SPLINE
  5
1FD
330
1F
100
AcDbEntity
  8
0
  6
Continuous
 62
     7
370
    18
100
AcDbSpline
210
0.0
220
0.0
230
1.0
 70
     8
 71
     3
 72
     9
 73
     5
 74
     0
 42
0.000000001
 43
0.00000001
 40
0.0
 40
0.0
 40
0.0
 40
0.0
 40
0.4999414085436683
 40
1.0
 40
1.0
 40
1.0
 40
1.0
 10
239.6128638565099
 20
200.4153842028793
 30
0.0
 10
239.5972220797707
 20
200.4073820654468
 30
0.0
 10
239.5659348599648
 20
200.3913759149343
 30
0.0
 10
239.538566953015
 20
200.3741970844413
 30
0.0
 10
239.5248813960145
 20
200.3656066626621
 30
0.0
  0
SPLINE
  5
1FE
330
1F
100
AcDbEntity
  8
0
  6
Continuous
 62
     7
370
    18
100
AcDbSpline
210
0.0
220
0.0
230
1.0
 70
     8
 71
     3
 72
    10
 73
     6
 74
     0
 42
0.000000001
 43
0.00000001
 40
0.0
 40
0.0
 40
0.0
 40
0.0
 40
0.4998053406029662
 40
0.7436664043185883
 40
1.0
 40
1.0
 40
1.0
 40
1.0
 10
239.5248813960145
 20
200.3656066626621
 30
0.0
 10
239.5075488044018
 20
200.3531479458636
 30
0.0
 10
239.4817594319501
 20
200.3346104706282
 30
0.0
 10
239.4556504535311
 20
200.3086611999344
 30
0.0
 10
239.4453514336235
 20
200.2956078728559
 30
0.0
 10
239.4400735188051
 20
200.2889184646369
 30
0.0
  0
SPLINE
  5
1FF
330
1F
100
AcDbEntity
  8
0
  6
Continuous
 62
     7
370
    18
100
AcDbSpline
210
0.0
220
0.0
230
1.0
 70
     8
 71
     3
 72
     9
 73
     5
 74
     0
 42
0.000000001
 43
0.00000001
 40
0.0
 40
0.0
 40
0.0
 40
0.0
 40
0.5041005066839607
 40
1.0
 40
1.0
 40
1.0
 40
1.0
 10
239.4400735188051
 20
200.2889184646369
 30
0.0
 10
239.4331059427265
 20
200.2781675320095
 30
0.0
 10
239.419284143331
 20
200.2568405694597
 30
0.0
 10
239.4164310148532
 20
200.2362935906257
 30
0.0
 10
239.4150161498868
 20
200.2261043542328
 30
0.0
  0
SPLINE
  5
200
330
1F
100
AcDbEntity
  8
0
  6
Continuous
 62
     7
370
    18
100
AcDbSpline
210
0.0
220
0.0
230
1.0
 70
     8
 71
     3
 72
    12
 73
     8
 74
     0
 42
0.000000001
 43
0.00000001
 40
0.0
 40
0.0
 40
0.0
 40
0.0
 40
0.1979963544303164
 40
0.3933082052223852
 40
0.5896701744738871
 40
0.7907583838883347
 40
1.0
 40
1.0
 40
1.0
 40
1.0
 10
239.4150161498868
 20
200.2261043542328
 30
0.0
 10
239.4155508904646
 20
200.2178451293712
 30
0.0
 10
239.4166131214209
 20
200.2014386610995
 30
0.0
 10
239.4280429001134
 20
200.1786685972846
 30
0.0
 10
239.446861118301
 20
200.1577565883166
 30
0.0
 10
239.4732464479048
 20
200.1385763467648
 30
0.0
 10
239.4963658444551
 20
200.1277402739358
 30
0.0
 10
239.508155238247
 20
200.1222145791166
 30
0.0
  0
SPLINE
  5
201
330
1F
100
AcDbEntity
  8
0
  6
Continuous
 62
     7
370
    18
100
AcDbSpline
210
0.0
220
0.0
230
1.0
 70
     8
 71
     3
 72
     9
 73
     5
 74
     0
 42
0.000000001
 43
0.00000001
 40
0.0
 40
0.0
 40
0.0
 40
0.0
 40
0.4999983150073206
 40
1.0
 40
1.0
 40
1.0
 40
1.0
 10
239.508155238247
 20
200.1222145791166
 30
0.0
 10
239.5195625199927
 20
200.1180542982934
 30
0.0
 10
239.5423771603692
 20
200.1097337086068
 30
0.0
 10
239.5678781227233
 20
200.1028378278743
 30
0.0
 10
239.5806286468692
 20
200.0993898758885
 30
0.0
  0
LWPOLYLINE
  5
202
330
1F
100
AcDbEntity
  8
0
  6
Continuous
 62
     7
370
    18
100
AcDbPolyline
 90
       76
 70
   128
 43
0.0
 10
262.5821088359
 20
167.7650128857
 10
262.5730664792
 20
168.4282746026
 10
262.545948514
 20
169.101308554
 10
262.5007822458
 20
169.7834370517
 10
262.4376131533
 20
170.4739732502
 10
262.3565048422
 20
171.172221838
 10
262.2575389819
 20
171.8774797381
 10
262.1408152225
 20
172.5890368154
 10
262.006451095
 20
173.3061765924
 10
261.8545818926
 20
174.02817697
 10
261.6853605348
 20
174.7543109551
 10
261.4989574132
 20
175.4838473924
 10
261.2955602199
 20
176.2160517004
 10
261.0753737586
 20
176.9501866114
 10
260.8386197384
 20
177.685512914
 10
260.5855365506
 20
178.4212901967
 10
260.3163790284
 20
179.1567775943
 10
260.0314181907
 20
179.8912345333
 10
259.7309409689
 20
180.6239214778
 10
259.4152499181
 20
181.3541006742
 10
259.0846629124
 20
182.0810368939
 10
258.7395128249
 20
182.8039981737
 10
258.3801471924
 20
183.5222565529
 10
258.0069278658
 20
184.2350888063
 10
257.6202306452
 20
184.9417771721
 10
257.220444902
 20
185.6416100751
 10
256.8079731864
 20
186.3338828429
 10
256.3832308227
 20
187.0178984155
 10
255.9466454902
 20
187.6929680472
 10
255.4986567936
 20
188.358412
 10
255.0397158193
 20
189.0135602284
 10
254.570284682
 20
189.6577530536
 10
254.0908360591
 20
190.290341828
 10
253.6018527148
 20
190.9106895883
 10
253.1038270138
 20
191.518171697
 10
252.5972604258
 20
192.1121764711
 10
252.0826630203
 20
192.692105798
 10
251.5605529535
 20
193.2573757382
 10
251.0314559457
 20
193.8074171127
 10
250.4959047529
 20
194.3416760765
 10
249.9544386298
 20
194.8596146761
 10
249.4076027867
 20
195.3607113912
 10
248.8559478412
 20
195.8444616599
 10
248.3000292628
 20
196.3103783866
 10
247.7404068146
 20
196.7579924328
 10
247.1776439888
 20
197.1868530891
 10
246.61230744
 20
197.5965285291
 10
246.0449664141
 20
197.9866062443
 10
245.4761921754
 20
198.3566934596
 10
244.9065574314
 20
198.7064175285
 10
244.3366357561
 20
199.0354263085
 10
243.7670010121
 20
199.3433885158
 10
243.1982267734
 20
199.6299940583
 10
242.6308857475
 20
199.8949543487
 10
242.0655491987
 20
200.1380025944
 10
241.5027863729
 20
200.3588940664
 10
240.9431639247
 20
200.5574063458
 10
240.3872453464
 20
200.7333395474
 10
239.8355904008
 20
200.8865165215
 10
239.2887545577
 20
201.0167830319
 10
238.7472884346
 20
201.1240079111
 10
238.2117372418
 20
201.2080831929
 10
237.6826402341
 20
201.2689242205
 10
237.1605301672
 20
201.3064697323
 10
236.6459327617
 20
201.320681923
 10
236.1393661737
 20
201.3115464822
 10
235.6413404727
 20
201.2790726085
 10
235.1523571284
 20
201.2232930003
 10
234.6729085055
 20
201.144263823
 10
234.2034773683
 20
201.0420646522
 10
233.744536394
 20
200.9167983939
 10
233.2965476973
 20
200.7685911806
 10
232.8599623648
 20
200.5975922443
 10
232.4352200011
 20
200.4039737665
 10
232.0227482856
 20
200.1879307047
 10
231.9226286893
 20
200.1310370103
  0
LWPOLYLINE
  5
203
330
1F
100
AcDbEntity
  8
0
  6
Continuous
 62
     7
370
    18
100
AcDbPolyline
 90
       26
 70
   128
 43
0.0
 10
257.3205644982
 20
156.1357548014
 10
257.6202306452
 20
156.317111216
 10
258.0069278658
 20
156.5773284744
 10
258.3801471924
 20
156.8592508654
 10
258.7395128249
 20
157.1625945171
 10
259.0846629124
 20
157.4870539883
 10
259.4152499181
 20
157.8323025756
 10
259.7309409689
 20
158.197992643
 10
260.0314181907
 20
158.5837559717
 10
260.3163790284
 20
158.9892041306
 10
260.5855365506
 20
159.4139288679
 10
260.8386197384
 20
159.8575025217
 10
261.0753737586
 20
160.319478451
 10
261.2955602199
 20
160.7993914851
 10
261.4989574132
 20
161.2967583923
 10
261.6853605348
 20
161.8110783664
 10
261.8545818926
 20
162.3418335306
 10
262.006451095
 20
162.8884894595
 10
262.1408152225
 20
163.4504957169
 10
262.2575389819
 20
164.0272864103
 10
262.3565048422
 20
164.6182807601
 10
262.4376131533
 20
165.2228836853
 10
262.5007822458
 20
165.840486402
 10
262.545948514
 20
166.4704670364
 10
262.5730664792
 20
167.1121912516
 10
262.5821088359
 20
167.7650128857
  0
ARC
  5
204
330
1F
100
AcDbEntity
  8
0
  6
Continuous
 62
     7
370
    18
100
AcDbCircle
 10
224.0436757415
 20
166.2540150576
 30
0.0
 40
38.57657829416853
100
AcDbArc
 50
2.5481883066
 51
57.4464351607
  0
ARC
  5
205
330
1F
100
AcDbEntity
  8
0
  6
Continuous
 62
     7
370
    18
100
AcDbCircle
 10
229.0054015603
 20
173.3309874468
 30
0.0
 40
29.16959689716611
100
AcDbArc
 50
53.0143249285
 51
53.7561316606
  0
SPLINE
  5
206
330
1F
100
AcDbEntity
  8
0
  6
Continuous
 62
     7
370
    18
100
AcDbSpline
210
0.0
220
0.0
230
1.0
 70
     8
 71
     3
 72
     8
 73
     4
 74
     0
 42
0.000000001
 43
0.00000001
 40
0.0
 40
0.0
 40
0.0
 40
0.0
 40
1.0
 40
1.0
 40
1.0
 40
1.0
 10
246.2511480980562
 20
196.8564972073841
 30
0.0
 10
246.1814461205878
 20
196.7768267627321
 30
0.0
 10
246.111733849847
 20
196.6970741284161
 30
0.0
 10
246.04201089886
 20
196.617239589254
 30
0.0
  0
SPLINE
  5
207
330
1F
100
AcDbEntity
  8
0
  6
Continuous
 62
     7
370
    18
100
AcDbSpline
210
0.0
220
0.0
230
1.0
 70
     8
 71
     3
 72
     9
 73
     5
 74
     0
 42
0.000000001
 43
0.00000001
 40
0.0
 40
0.0
 40
0.0
 40
0.0
 40
0.500017386775491
 40
1.0
 40
1.0
 40
1.0
 40
1.0
 10
246.04201089886
 20
196.617239589254
 30
0.0
 10
246.0161575349709
 20
196.5875597356425
 30
0.0
 10
245.9644526051565
 20
196.5282020924955
 30
0.0
 10
245.9076980812415
 20
196.4710736761887
 30
0.0
 10
245.8793218060621
 20
196.4425104613142
 30
0.0
  0
SPLINE
  5
208
330
1F
100
AcDbEntity
  8
0
  6
Continuous
 62
     7
370
    18
100
AcDbSpline
210
0.0
220
0.0
230
1.0
 70
     8
 71
     3
 72
     9
 73
     5
 74
     0
 42
0.000000001
 43
0.00000001
 40
0.0
 40
0.0
 40
0.0
 40
0.0
 40
0.5000058492839153
 40
1.0
 40
1.0
 40
1.0
 40
1.0
 10
245.8793218060621
 20
196.4425104613142
 30
0.0
 10
245.9207492390385
 20
196.4576949023005
 30
0.0
 10
246.0036031357193
 20
196.4880634290049
 30
0.0
 10
246.09168886057
 20
196.5122115585385
 30
0.0
 10
246.1357312077569
 20
196.5242854820561
 30
0.0
  0
SPLINE
  5
209
330
1F
100
AcDbEntity
  8
0
  6
Continuous
 62
     7
370
    18
100
AcDbSpline
210
0.0
220
0.0
230
1.0
 70
     8
 71
     3
 72
     8
 73
     4
 74
     0
 42
0.000000001
 43
0.00000001
 40
0.0
 40
0.0
 40
0.0
 40
0.0
 40
1.0
 40
1.0
 40
1.0
 40
1.0
 10
246.1357312077569
 20
196.5242854820561
 30
0.0
 10
246.2752612329758
 20
196.5600441485247
 30
0.0
 10
246.4147771059227
 20
196.5956993803379
 30
0.0
 10
246.5542782747518
 20
196.6312515912435
 30
0.0
  0
LINE
  5
20A
330
1F
100
AcDbEntity
  8
0
  6
Continuous
 62
     7
370
    18
100
AcDbLine
 10
245.6374339861
 20
197.3657676458
 30
0.0
 11
245.1450151223
 21
197.0815002865
 31
0.0
  0
SPLINE
  5
20B
330
1F
100
AcDbEntity
  8
0
  6
Continuous
 62
     7
370
    18
100
AcDbSpline
210
0.0
220
0.0
230
1.0
 70
     8
 71
     3
 72
     8
 73
     4
 74
     0
 42
0.000000001
 43
0.00000001
 40
0.0
 40
0.0
 40
0.0
 40
0.0
 40
1.0
 40
1.0
 40
1.0
 40
1.0
 10
245.1450151222936
 20
197.0815002864789
 30
0.0
 10
245.3988759146748
 20
197.1144332951895
 30
0.0
 10
245.6526713314427
 20
197.1466240558758
 30
0.0
 10
245.906391210625
 20
197.178079659926
 30
0.0
  0
ARC
  5
20C
330
1F
100
AcDbEntity
  8
0
  6
Continuous
 62
     7
370
    18
100
AcDbCircle
 10
229.8933736137
 20
174.5179484596
 30
0.0
 40
27.74704089766032
100
AcDbArc
 50
54.7526640416
 51
55.4299054591
  0
ARC
  5
20D
330
1F
100
AcDbEntity
  8
0
  6
Continuous
 62
     7
370
    18
100
AcDbCircle
 10
232.9524478466
 20
179.9415456781
 30
0.0
 40
21.27318688226189
100
AcDbArc
 50
63.6322180996
 51
64.2298155041
  0
SPLINE
  5
20E
330
1F
100
AcDbEntity
  8
0
  6
Continuous
 62
     7
370
    18
100
AcDbSpline
210
0.0
220
0.0
230
1.0
 70
     8
 71
     3
 72
    10
 73
     6
 74
     0
 42
0.000000001
 43
0.00000001
 40
0.0
 40
0.0
 40
0.0
 40
0.0
 40
0.5000536445255779
 40
0.7500961316391257
 40
1.0
 40
1.0
 40
1.0
 40
1.0
 10
242.2012324762096
 20
199.0990106200871
 30
0.0
 10
242.1822230709686
 20
199.1077669234138
 30
0.0
 10
242.153708367612
 20
199.1209016527068
 30
0.0
 10
242.1136988422658
 20
199.1371506278142
 30
0.0
 10
242.0910972640675
 20
199.1431950285977
 30
0.0
 10
242.0797996083071
 20
199.1462163910323
 30
0.0
  0
SPLINE
  5
20F
330
1F
100
AcDbEntity
  8
0
  6
Continuous
 62
     7
370
    18
100
AcDbSpline
210
0.0
220
0.0
230
1.0
 70
     8
 71
     3
 72
    12
 73
     8
 74
     0
 42
0.000000001
 43
0.00000001
 40
0.0
 40
0.0
 40
0.0
 40
0.0
 40
0.1253830850359256
 40
0.2506706057964055
 40
0.5000157950863782
 40
0.7495636610509213
 40
1.0
 40
1.0
 40
1.0
 40
1.0
 10
242.0797996083071
 20
199.1462163910323
 30
0.0
 10
242.0694110299934
 20
199.1482628002328
 30
0.0
 10
242.0486417913157
 20
199.1523540589051
 30
0.0
 10
242.0039337991278
 20
199.1555796301475
 30
0.0
 10
241.9453373010293
 20
199.1520393328372
 30
0.0
 10
241.8814083852103
 20
199.1330324387305
 30
0.0
 10
241.84753598805
 20
199.1149454651304
 30
0.0
 10
241.8305696938093
 20
199.1058859080352
 30
0.0
  0
SPLINE
  5
210
330
1F
100
AcDbEntity
  8
0
  6
Continuous
 62
     7
370
    18
100
AcDbSpline
210
0.0
220
0.0
230
1.0
 70
     8
 71
     3
 72
    13
 73
     9
 74
     0
 42
0.000000001
 43
0.00000001
 40
0.0
 40
0.0
 40
0.0
 40
0.0
 40
0.1255173544708094
 40
0.2508889025021078
 40
0.4982297896868115
 40
0.6232811013870913
 40
0.7488330144831568
 40
0.9999999999999999
 40
0.9999999999999999
 40
0.9999999999999999
 40
0.9999999999999999
 10
241.8305696938093
 20
199.1058859080352
 30
0.0
 10
241.817599082357
 20
199.0977843736394
 30
0.0
 10
241.791672926681
 20
199.0815907159439
 30
0.0
 10
241.754306362006
 20
199.0447507705564
 30
0.0
 10
241.7444734720943
 20
199.0016487435691
 30
0.0
 10
241.7770140921706
 20
198.9666505464963
 30
0.0
 10
241.8240813087104
 20
198.9373283311163
 30
0.0
 10
241.8638107674259
 20
198.9173843034444
 30
0.0
 10
241.8902992935353
 20
198.9040871704154
 30
0.0
  0
ARC
  5
211
330
1F
100
AcDbEntity
  8
0
  6
Continuous
 62
     7
370
    18
100
AcDbCircle
 10
232.6208483149
 20
179.7411980184
 30
0.0
 40
21.28706278701221
100
AcDbArc
 50
63.6323432829
 51
64.1860699991
  0
LINE
  5
212
330
1F
100
AcDbEntity
  8
0
  6
Continuous
 62
     7
370
    18
100
AcDbLine
 10
242.0750604831
 20
198.8136104085
 30
0.0
 11
242.4005389597
 21
199.0015051336
 31
0.0
  0
ARC
  5
213
330
1F
100
AcDbEntity
  8
0
  6
Continuous
 62
     7
370
    18
100
AcDbCircle
 10
233.4722682923
 20
180.2567691164
 30
0.0
 40
21.24964933847735
100
AcDbArc
 50
63.6319836974
 51
64.3041156584
  0
SPLINE
  5
214
330
1F
100
AcDbEntity
  8
0
  6
Continuous
 62
     7
370
    18
100
AcDbSpline
210
0.0
220
0.0
230
1.0
 70
     8
 71
     3
 72
    10
 73
     6
 74
     0
 42
0.000000001
 43
0.00000001
 40
0.0
 40
0.0
 40
0.0
 40
0.0
 40
0.5000531111181513
 40
0.7500396633881943
 40
0.9999999999999999
 40
0.9999999999999999
 40
0.9999999999999999
 40
0.9999999999999999
 10
242.6859963441751
 20
199.4050017344738
 30
0.0
 10
242.6672126884803
 20
199.4136567641347
 30
0.0
 10
242.6390387075945
 20
199.4266386162404
 30
0.0
 10
242.5977316560411
 20
199.4414977755195
 30
0.0
 10
242.5745913257234
 20
199.4466815742416
 30
0.0
 10
242.563021767268
 20
199.4492733376914
 30
0.0
  0
SPLINE
  5
215
330
1F
100
AcDbEntity
  8
0
  6
Continuous
 62
     7
370
    18
100
AcDbSpline
210
0.0
220
0.0
230
1.0
 70
     8
 71
     3
 72
    12
 73
     8
 74
     0
 42
0.000000001
 43
0.00000001
 40
0.0
 40
0.0
 40
0.0
 40
0.0
 40
0.1252997320042475
 40
0.250503249059003
 40
0.4996764479660483
 40
0.749572968765088
 40
1.0
 40
1.0
 40
1.0
 40
1.0
 10
242.563021767268
 20
199.4492733376914
 30
0.0
 10
242.5509180028153
 20
199.45113354784
 30
0.0
 10
242.5267197681286
 20
199.4548525397221
 30
0.0
 10
242.4752145035381
 20
199.4562825015928
 30
0.0
 10
242.4095524292907
 20
199.4485948716359
 30
0.0
 10
242.3387733096209
 20
199.4261522220091
 30
0.0
 10
242.3003396988675
 20
199.4056791453206
 30
0.0
 10
242.2811025172447
 20
199.3954317528194
 30
0.0
  0
SPLINE
  5
216
330
1F
100
AcDbEntity
  8
0
  6
Continuous
 62
     7
370
    18
100
AcDbSpline
210
0.0
220
0.0
230
1.0
 70
     8
 71
     3
 72
    14
 73
    10
 74
     0
 42
0.000000001
 43
0.00000001
 40
0.0
 40
0.0
 40
0.0
 40
0.0
 40
0.1253821129444647
 40
0.2506631766960488
 40
0.4987886708364437
 40
0.6237903358567215
 40
0.749067064772834
 40
0.8643951699124538
 40
1.0
 40
1.0
 40
1.0
 40
1.0
 10
242.2811025172447
 20
199.3954317528194
 30
0.0
 10
242.2672890555791
 20
199.3868869359046
 30
0.0
 10
242.2396732649295
 20
199.3698041885985
 30
0.0
 10
242.1992215116831
 20
199.3308225156087
 30
0.0
 10
242.1851462816367
 20
199.2863471635153
 30
0.0
 10
242.2068104584102
 20
199.2462321784334
 30
0.0
 10
242.2385960700817
 20
199.2214820173475
 30
0.0
 10
242.2763554174409
 20
199.198354852271
 30
0.0
 10
242.3045450219981
 20
199.1843537797434
 30
0.0
 10
242.3197787597805
 20
199.1767875626606
 30
0.0
  0
ARC
  5
217
330
1F
100
AcDbEntity
  8
0
  6
Continuous
 62
     7
370
    18
100
AcDbCircle
 10
233.0835163023
 20
180.0226158928
 30
0.0
 40
21.2647792497952
100
AcDbArc
 50
63.6321375612
 51
64.2563418265
  0
LINE
  5
218
330
1F
100
AcDbEntity
  8
0
  6
Continuous
 62
     7
370
    18
100
AcDbLine
 10
242.5279001028
 20
199.0750291565
 30
0.0
 11
242.909983532
 21
199.2956012251
 31
0.0
  0
SPLINE
  5
219
330
1F
100
AcDbEntity
  8
0
  6
Continuous
 62
     7
370
    18
100
AcDbSpline
210
0.0
220
0.0
230
1.0
 70
     8
 71
     3
 72
    12
 73
     8
 74
     0
 42
0.000000001
 43
0.00000001
 40
0.0
 40
0.0
 40
0.0
 40
0.0
 40
0.1628792690120967
 40
0.3287077006792596
 40
0.4999288839325438
 40
0.7344768656120684
 40
1.0
 40
1.0
 40
1.0
 40
1.0
 10
239.7058698261573
 20
200.1796037180266
 30
0.0
 10
239.7171649596318
 20
200.1772857190746
 30
0.0
 10
239.739959741164
 20
200.1726077504768
 30
0.0
 10
239.7786335700911
 20
200.1685467179605
 30
0.0
 10
239.8252084540993
 20
200.1664484919714
 30
0.0
 10
239.8824502209312
 20
200.1673095427388
 30
0.0
 10
239.9261448700316
 20
200.170437509288
 30
0.0
 10
239.9493454505338
 20
200.1720983680253
 30
0.0
  0
SPLINE
  5
21A
330
1F
100
AcDbEntity
  8
0
  6
Continuous
 62
     7
370
    18
100
AcDbSpline
210
0.0
220
0.0
230
1.0
 70
     8
 71
     3
 72
     9
 73
     5
 74
     0
 42
0.000000001
 43
0.00000001
 40
0.0
 40
0.0
 40
0.0
 40
0.0
 40
0.4379526720759877
 40
1.0
 40
1.0
 40
1.0
 40
1.0
 10
239.9493454505338
 20
200.1720983680253
 30
0.0
 10
239.972264677566
 20
200.1742893252338
 30
0.0
 10
240.0245973347082
 20
200.1792920512089
 30
0.0
 10
240.0771861124331
 20
200.1860702890597
 30
0.0
 10
240.1067434944322
 20
200.1898799795318
 30
0.0
  0
SPLINE
  5
21B
330
1F
100
AcDbEntity
  8
0
  6
Continuous
 62
     7
370
    18
100
AcDbSpline
210
0.0
220
0.0
230
1.0
 70
     8
 71
     3
 72
     8
 73
     4
 74
     0
 42
0.000000001
 43
0.00000001
 40
0.0
 40
0.0
 40
0.0
 40
0.0
 40
1.0
 40
1.0
 40
1.0
 40
1.0
 10
240.1067434944322
 20
200.1898799795318
 30
0.0
 10
240.1306711786121
 20
200.1929999704044
 30
0.0
 10
240.1546014537133
 20
200.1961046650261
 30
0.0
 10
240.1785342955756
 20
200.1991940713251
 30
0.0
  0
SPLINE
  5
21C
330
1F
100
AcDbEntity
  8
0
  6
Continuous
 62
     7
370
    18
100
AcDbSpline
210
0.0
220
0.0
230
1.0
 70
     8
 71
     3
 72
     8
 73
     4
 74
     0
 42
0.000000001
 43
0.00000001
 40
0.0
 40
0.0
 40
0.0
 40
0.0
 40
1.0
 40
1.0
 40
1.0
 40
1.0
 10
240.1785342955756
 20
200.1991940713252
 30
0.0
 10
240.1785557528424
 20
200.2090499900581
 30
0.0
 10
240.1785793715963
 20
200.2188930343889
 30
0.0
 10
240.1786051705082
 20
200.2287231981889
 30
0.0
  0
SPLINE
  5
21D
330
1F
100
AcDbEntity
  8
0
  6
Continuous
 62
     7
370
    18
100
AcDbSpline
210
0.0
220
0.0
230
1.0
 70
     8
 71
     3
 72
    10
 73
     6
 74
     0
 42
0.000000001
 43
0.00000001
 40
0.0
 40
0.0
 40
0.0
 40
0.0
 40
0.5000357412079474
 40
0.7607413395971735
 40
1.0
 40
1.0
 40
1.0
 40
1.0
 10
240.1786051705082
 20
200.2287231981889
 30
0.0
 10
240.1786809968399
 20
200.2426056652918
 30
0.0
 10
240.1787963570439
 20
200.2637260887944
 30
0.0
 10
240.1772666415803
 20
200.2911568354472
 30
0.0
 10
240.1747189368088
 20
200.3045436647504
 30
0.0
 10
240.1734997287954
 20
200.3109499523796
 30
0.0
  0
SPLINE
  5
21E
330
1F
100
AcDbEntity
  8
0
  6
Continuous
 62
     7
370
    18
100
AcDbSpline
210
0.0
220
0.0
230
1.0
 70
     8
 71
     3
 72
    11
 73
     7
 74
     0
 42
0.000000001
 43
0.00000001
 40
0.0
 40
0.0
 40
0.0
 40
0.0
 40
0.267045058748583
 40
0.5006359291548209
 40
0.7525133320295206
 40
0.9999999999999999
 40
0.9999999999999999
 40
0.9999999999999999
 40
0.9999999999999999
 10
240.1734997287954
 20
200.3109499523796
 30
0.0
 10
240.1694622351315
 20
200.3235891875797
 30
0.0
 10
240.1618930466157
 20
200.3472842721766
 30
0.0
 10
240.1337835019017
 20
200.3785692682431
 30
0.0
 10
240.0894272792048
 20
200.4033878304575
 30
0.0
 10
240.0440726716917
 20
200.4110972332358
 30
0.0
 10
240.0215947615939
 20
200.4149180415739
 30
0.0
  0
SPLINE
  5
21F
330
1F
100
AcDbEntity
  8
0
  6
Continuous
 62
     7
370
    18
100
AcDbSpline
210
0.0
220
0.0
230
1.0
 70
     8
 71
     3
 72
    11
 73
     7
 74
     0
 42
0.000000001
 43
0.00000001
 40
0.0
 40
0.0
 40
0.0
 40
0.0
 40
0.2566664260408009
 40
0.4999504544435184
 40
0.7389110270659136
 40
1.0
 40
1.0
 40
1.0
 40
1.0
 10
240.0215947615939
 20
200.4149180415739
 30
0.0
 10
240.0112666717909
 20
200.4158354147742
 30
0.0
 10
239.9911489911491
 20
200.4176223300148
 30
0.0
 10
239.9590955435157
 20
200.4176166069037
 30
0.0
 10
239.925720535139
 20
200.4154726192463
 30
0.0
 10
239.9029268856125
 20
200.412512507465
 30
0.0
 10
239.8910257238232
 20
200.4109669555259
 30
0.0
  0
SPLINE
  5
220
330
1F
100
AcDbEntity
  8
0
  6
Continuous
 62
     7
370
    18
100
AcDbSpline
210
0.0
220
0.0
230
1.0
 70
     8
 71
     3
 72
    11
 73
     7
 74
     0
 42
0.000000001
 43
0.00000001
 40
0.0
 40
0.0
 40
0.0
 40
0.0
 40
0.259971658403419
 40
0.4999815106780375
 40
0.7389264859663284
 40
1.0
 40
1.0
 40
1.0
 40
1.0
 10
239.8910257238232
 20
200.4109669555259
 30
0.0
 10
239.8776760675132
 20
200.4088118764149
 30
0.0
 10
239.8520018022111
 20
200.404667194967
 30
0.0
 10
239.8146279207032
 20
200.3958098773228
 30
0.0
 10
239.7787139230694
 20
200.3847556747494
 30
0.0
 10
239.756230442078
 20
200.3759048405564
 30
0.0
 10
239.7444911933993
 20
200.3712835746748
 30
0.0
  0
SPLINE
  5
221
330
1F
100
AcDbEntity
  8
0
  6
Continuous
 62
     7
370
    18
100
AcDbSpline
210
0.0
220
0.0
230
1.0
 70
     8
 71
     3
 72
     9
 73
     5
 74
     0
 42
0.000000001
 43
0.00000001
 40
0.0
 40
0.0
 40
0.0
 40
0.0
 40
0.4999292861821706
 40
0.9999999999999999
 40
0.9999999999999999
 40
0.9999999999999999
 40
0.9999999999999999
 10
239.7444911933993
 20
200.3712835746748
 30
0.0
 10
239.732078443915
 20
200.3654859329104
 30
0.0
 10
239.7072494334381
 20
200.3538890092559
 30
0.0
 10
239.6865931762006
 20
200.3408801778446
 30
0.0
 10
239.6762635868991
 20
200.3343748422348
 30
0.0
  0
SPLINE
  5
222
330
1F
100
AcDbEntity
  8
0
  6
Continuous
 62
     7
370
    18
100
AcDbSpline
210
0.0
220
0.0
230
1.0
 70
     8
 71
     3
 72
    11
 73
     7
 74
     0
 42
0.000000001
 43
0.00000001
 40
0.0
 40
0.0
 40
0.0
 40
0.0
 40
0.263859191318544
 40
0.5121293191935221
 40
0.7541565283634422
 40
1.0
 40
1.0
 40
1.0
 40
1.0
 10
239.6762635868991
 20
200.3343748422348
 30
0.0
 10
239.6654834993688
 20
200.3262468010245
 30
0.0
 10
239.6445602226007
 20
200.3104709313625
 30
0.0
 10
239.624118843325
 20
200.2861449166951
 30
0.0
 10
239.6130940835547
 20
200.2624561121594
 30
0.0
 10
239.6145679908817
 20
200.2478012108018
 30
0.0
 10
239.6153107092052
 20
200.2404164427312
 30
0.0
  0
SPLINE
  5
223
330
1F
100
AcDbEntity
  8
0
  6
Continuous
 62
     7
370
    18
100
AcDbSpline
210
0.0
220
0.0
230
1.0
 70
     8
 71
     3
 72
    10
 73
     6
 74
     0
 42
0.000000001
 43
0.00000001
 40
0.0
 40
0.0
 40
0.0
 40
0.0
 40
0.329236362475845
 40
0.6586801767522377
 40
1.0
 40
1.0
 40
1.0
 40
1.0
 10
239.6153107092052
 20
200.2404164427312
 30
0.0
 10
239.6180196214204
 20
200.23389486178
 30
0.0
 10
239.6234391527362
 20
200.2208475906299
 30
0.0
 10
239.6426574932992
 20
200.2038212976142
 30
0.0
 10
239.6616052456006
 20
200.1948832999571
 30
0.0
 10
239.6712468586886
 20
200.1903351765797
 30
0.0
  0
SPLINE
  5
224
330
1F
100
AcDbEntity
  8
0
  6
Continuous
 62
     7
370
    18
100
AcDbSpline
210
0.0
220
0.0
230
1.0
 70
     8
 71
     3
 72
     9
 73
     5
 74
     0
 42
0.000000001
 43
0.00000001
 40
0.0
 40
0.0
 40
0.0
 40
0.0
 40
0.491815255273601
 40
1.0
 40
1.0
 40
1.0
 40
1.0
 10
239.6712468586886
 20
200.1903351765797
 30
0.0
 10
239.6765243913059
 20
200.1883526173511
 30
0.0
 10
239.6872551129757
 20
200.1843215117532
 30
0.0
 10
239.6995975751619
 20
200.1811933845505
 30
0.0
 10
239.7058698261573
 20
200.1796037180266
 30
0.0
  0
SPLINE
  5
225
330
1F
100
AcDbEntity
  8
0
  6
Continuous
 62
     7
370
    18
100
AcDbSpline
210
0.0
220
0.0
230
1.0
 70
     8
 71
     3
 72
     9
 73
     5
 74
     0
 42
0.000000001
 43
0.00000001
 40
0.0
 40
0.0
 40
0.0
 40
0.0
 40
0.5001259451608758
 40
0.9999999999999999
 40
0.9999999999999999
 40
0.9999999999999999
 40
0.9999999999999999
 10
240.4604704214703
 20
199.9232964013071
 30
0.0
 10
240.4704601461641
 20
199.9199298880685
 30
0.0
 10
240.4904345641891
 20
199.9131985571482
 30
0.0
 10
240.5148147006792
 20
199.9097387906574
 30
0.0
 10
240.5270016983641
 20
199.9080093431529
 30
0.0
  0
SPLINE
  5
226
330
1F
100
AcDbEntity
  8
0
  6
Continuous
 62
     7
370
    18
100
AcDbSpline
210
0.0
220
0.0
230
1.0
 70
     8
 71
     3
 72
    13
 73
     9
 74
     0
 42
0.000000001
 43
0.00000001
 40
0.0
 40
0.0
 40
0.0
 40
0.0
 40
0.1275202850263782
 40
0.2510512815932231
 40
0.374262896878337
 40
0.5008528185932613
 40
0.7487078401520095
 40
1.0
 40
1.0
 40
1.0
 40
1.0
 10
240.5270016983641
 20
199.9080093431529
 30
0.0
 10
240.541300355885
 20
199.9066235821521
 30
0.0
 10
240.5694503580196
 20
199.9038954116875
 30
0.0
 10
240.6146160770059
 20
199.9044263902754
 30
0.0
 10
240.6605476297462
 20
199.9086185460784
 30
0.0
 10
240.7210582345147
 20
199.9191671382753
 30
0.0
 10
240.795222684146
 20
199.9401324848936
 30
0.0
 10
240.8390104721511
 20
199.9656229281979
 30
0.0
 10
240.8610551279814
 20
199.9784559137221
 30
0.0
  0
SPLINE
  5
227
330
1F
100
AcDbEntity
  8
0
  6
Continuous
 62
     7
370
    18
100
AcDbSpline
210
0.0
220
0.0
230
1.0
 70
     8
 71
     3
 72
    11
 73
     7
 74
     0
 42
0.000000001
 43
0.00000001
 40
0.0
 40
0.0
 40
0.0
 40
0.0
 40
0.260516198942197
 40
0.5001077885290856
 40
0.7451553107168646
 40
1.0
 40
1.0
 40
1.0
 40
1.0
 10
240.8610551279814
 20
199.9784559137221
 30
0.0
 10
240.871178467231
 20
199.9858315700438
 30
0.0
 10
240.8906120411323
 20
199.9999904714365
 30
0.0
 10
240.9119230598976
 20
200.0226164524644
 30
0.0
 10
240.9254884960359
 20
200.0457185321384
 30
0.0
 10
240.9273838024249
 20
200.0610391780893
 30
0.0
 10
240.9283500282565
 20
200.068849632358
 30
0.0
  0
SPLINE
  5
228
330
1F
100
AcDbEntity
  8
0
  6
Continuous
 62
     7
370
    18
100
AcDbSpline
210
0.0
220
0.0
230
1.0
 70
     8
 71
     3
 72
     9
 73
     5
 74
     0
 42
0.000000001
 43
0.00000001
 40
0.0
 40
0.0
 40
0.0
 40
0.0
 40
0.5000503487307972
 40
1.0
 40
1.0
 40
1.0
 40
1.0
 10
240.9283500282565
 20
200.068849632358
 30
0.0
 10
240.9281913853915
 20
200.0750666080178
 30
0.0
 10
240.9278741316081
 20
200.087499307396
 30
0.0
 10
240.9204397035221
 20
200.0985955522639
 30
0.0
 10
240.9167228637932
 20
200.104143116016
 30
0.0
  0
SPLINE
  5
229
330
1F
100
AcDbEntity
  8
0
  6
Continuous
 62
     7
370
    18
100
AcDbSpline
210
0.0
220
0.0
230
1.0
 70
     8
 71
     3
 72
    10
 73
     6
 74
     0
 42
0.000000001
 43
0.00000001
 40
0.0
 40
0.0
 40
0.0
 40
0.0
 40
0.2576471601692144
 40
0.5003372476337622
 40
1.0
 40
1.0
 40
1.0
 40
1.0
 10
240.9167228637932
 20
200.104143116016
 30
0.0
 10
240.9126508749299
 20
200.108920197226
 30
0.0
 10
240.9047432865099
 20
200.1181970379362
 30
0.0
 10
240.8823567456458
 20
200.1346515820628
 30
0.0
 10
240.8587312012134
 20
200.1435288647675
 30
0.0
 10
240.842829322856
 20
200.1495039850496
 30
0.0
  0
SPLINE
  5
22A
330
1F
100
AcDbEntity
  8
0
  6
Continuous
 62
     7
370
    18
100
AcDbSpline
210
0.0
220
0.0
230
1.0
 70
     8
 71
     3
 72
    10
 73
     6
 74
     0
 42
0.000000001
 43
0.00000001
 40
0.0
 40
0.0
 40
0.0
 40
0.0
 40
0.2557271040182058
 40
0.5002302308461651
 40
1.0
 40
1.0
 40
1.0
 40
1.0
 10
240.842829322856
 20
200.1495039850496
 30
0.0
 10
240.83276405977
 20
200.1524825480237
 30
0.0
 10
240.8130753025052
 20
200.1583089435082
 30
0.0
 10
240.7690872022359
 20
200.1666537347883
 30
0.0
 10
240.73250542272
 20
200.1687359744886
 30
0.0
 10
240.7079412237514
 20
200.1701341719238
 30
0.0
  0
SPLINE
  5
22B
330
1F
100
AcDbEntity
  8
0
  6
Continuous
 62
     7
370
    18
100
AcDbSpline
210
0.0
220
0.0
230
1.0
 70
     8
 71
     3
 72
    10
 73
     6
 74
     0
 42
0.000000001
 43
0.00000001
 40
0.0
 40
0.0
 40
0.0
 40
0.0
 40
0.2485559973814947
 40
0.5000134175975802
 40
1.0
 40
1.0
 40
1.0
 40
1.0
 10
240.7079412237514
 20
200.1701341719238
 30
0.0
 10
240.6936166822606
 20
200.1704206335177
 30
0.0
 10
240.6648003872537
 20
200.1709969006046
 30
0.0
 10
240.6057096243844
 20
200.1693089077861
 30
0.0
 10
240.5606494056175
 20
200.1655741118569
 30
0.0
 10
240.5306677906136
 20
200.1630890992064
 30
0.0
  0
SPLINE
  5
22C
330
1F
100
AcDbEntity
  8
0
  6
Continuous
 62
     7
370
    18
100
AcDbSpline
210
0.0
220
0.0
230
1.0
 70
     8
 71
     3
 72
    10
 73
     6
 74
     0
 42
0.000000001
 43
0.00000001
 40
0.0
 40
0.0
 40
0.0
 40
0.0
 40
0.5001250245317268
 40
0.8557735512859628
 40
1.0
 40
1.0
 40
1.0
 40
1.0
 10
240.5306677906136
 20
200.1630890992064
 30
0.0
 10
240.5009983632168
 20
200.1598209240566
 30
0.0
 10
240.4502304351937
 20
200.1542286866821
 30
0.0
 10
240.3908344701255
 20
200.147305865709
 30
0.0
 10
240.3612191595145
 20
200.142706728867
 30
0.0
 10
240.3526744007516
 20
200.1413797627126
 30
0.0
  0
SPLINE
  5
22D
330
1F
100
AcDbEntity
  8
0
  6
Continuous
 62
     7
370
    18
100
AcDbSpline
210
0.0
220
0.0
230
1.0
 70
     8
 71
     3
 72
     9
 73
     5
 74
     0
 42
0.000000001
 43
0.00000001
 40
0.0
 40
0.0
 40
0.0
 40
0.0
 40
0.4999435002129505
 40
1.0
 40
1.0
 40
1.0
 40
1.0
 10
240.3526744007516
 20
200.1413797627126
 30
0.0
 10
240.3521286564939
 20
200.1271339641056
 30
0.0
 10
240.3510370446268
 20
200.0986391469893
 30
0.0
 10
240.3520636504128
 20
200.0702523613666
 30
0.0
 10
240.3525770113089
 20
200.056057364708
 30
0.0
  0
SPLINE
  5
22E
330
1F
100
AcDbEntity
  8
0
  6
Continuous
 62
     7
370
    18
100
AcDbSpline
210
0.0
220
0.0
230
1.0
 70
     8
 71
     3
 72
    11
 73
     7
 74
     0
 42
0.000000001
 43
0.00000001
 40
0.0
 40
0.0
 40
0.0
 40
0.0
 40
0.268493789700798
 40
0.5003960024258545
 40
0.7612366297223725
 40
1.0
 40
1.0
 40
1.0
 40
1.0
 10
240.3525770113089
 20
200.056057364708
 30
0.0
 10
240.3539518961705
 20
200.0443417576738
 30
0.0
 10
240.3565142902179
 20
200.0225072007837
 30
0.0
 10
240.3684108275344
 20
199.990538329446
 30
0.0
 10
240.3883965984441
 20
199.9613354872522
 30
0.0
 10
240.4137556167484
 20
199.9452341759646
 30
0.0
 10
240.4258748245743
 20
199.9375392748678
 30
0.0
  0
SPLINE
  5
22F
330
1F
100
AcDbEntity
  8
0
  6
Continuous
 62
     7
370
    18
100
AcDbSpline
210
0.0
220
0.0
230
1.0
 70
     8
 71
     3
 72
     8
 73
     4
 74
     0
 42
0.000000001
 43
0.00000001
 40
0.0
 40
0.0
 40
0.0
 40
0.0
 40
1.0
 40
1.0
 40
1.0
 40
1.0
 10
240.4258748245743
 20
199.9375392748678
 30
0.0
 10
240.4291953385926
 20
199.9357827491353
 30
0.0
 10
240.4325160993565
 20
199.9340245713102
 30
0.0
 10
240.4358371059943
 20
199.932264741706
 30
0.0
  0
SPLINE
  5
230
330
1F
100
AcDbEntity
  8
0
  6
Continuous
 62
     7
370
    18
100
AcDbSpline
210
0.0
220
0.0
230
1.0
 70
     8
 71
     3
 72
     8
 73
     4
 74
     0
 42
0.000000001
 43
0.00000001
 40
0.0
 40
0.0
 40
0.0
 40
0.0
 40
1.0
 40
1.0
 40
1.0
 40
1.0
 10
240.4358371059943
 20
199.932264741706
 30
0.0
 10
240.4440471295405
 20
199.9292825782755
 30
0.0
 10
240.4522582373903
 20
199.9262931305045
 30
0.0
 10
240.4604704214703
 20
199.9232964013071
 30
0.0
  0
INSERT
  5
236
330
1F
100
AcDbEntity
  8
0
  6
Continuous
 62
     7
370
     0
100
AcDbBlockReference
  2
SW_NOTE_5
 10
236.4989219898
 20
144.106883813
 30
0.0
  0
ARC
  5
237
330
1F
100
AcDbEntity
  8
0
  6
Continuous
 62
     7
370
    18
100
AcDbCircle
 10
626.1235641005
 20
138.3256371846
 30
0.0
 40
460.08
100
AcDbArc
 50
179.9962296446
 51
183.1298816361
  0
ARC
  5
238
330
1F
100
AcDbEntity
  8
0
  6
Continuous
 62
     7
370
    18
100
AcDbCircle
 10
626.1235641005
 20
138.3861884206
 30
0.0
 40
460.08
100
AcDbArc
 50
176.8701183639
 51
180.0037703554
  0
LINE
  5
239
330
1F
100
AcDbEntity
  8
0
  6
Continuous
 62
     7
370
    18
100
AcDbLine
 10
166.7298513369
 20
163.5063610557
 30
0.0
 11
166.9935650967
 21
163.7559128026
 31
0.0
  0
LINE
  5
23A
330
1F
100
AcDbEntity
  8
0
  6
Continuous
 62
     7
370
    18
100
AcDbLine
 10
169.4935650967
 20
163.7559128026
 30
0.0
 11
166.9935650967
 21
163.7559128026
 31
0.0
  0
LINE
  5
23B
330
1F
100
AcDbEntity
  8
0
  6
Continuous
 62
     7
370
    18
100
AcDbLine
 10
169.4935650967
 20
163.7559128026
 30
0.0
 11
169.7435650967
 21
163.5059128026
 31
0.0
  0
LINE
  5
23C
330
1F
100
AcDbEntity
  8
0
  6
Continuous
 62
     7
370
    18
100
AcDbLine
 10
169.7435650967
 20
113.2059128026
 30
0.0
 11
169.7435650967
 21
163.5059128026
 31
0.0
  0
LINE
  5
23D
330
1F
100
AcDbEntity
  8
0
  6
Continuous
 62
     7
370
    18
100
AcDbLine
 10
169.7435650967
 20
113.2059128026
 30
0.0
 11
169.4935650967
 21
112.9559128026
 31
0.0
  0
LINE
  5
23E
330
1F
100
AcDbEntity
  8
0
  6
Continuous
 62
     7
370
    18
100
AcDbLine
 10
166.9935650967
 20
112.9559128026
 30
0.0
 11
169.4935650967
 21
112.9559128026
 31
0.0
  0
LINE
  5
23F
330
1F
100
AcDbEntity
  8
0
  6
Continuous
 62
     7
370
    18
100
AcDbLine
 10
166.9935650967
 20
112.9559128026
 30
0.0
 11
166.7298513369
 21
113.2054645494
 31
0.0
  0
HATCH
  5
240
330
1F
100
AcDbEntity
  8
0
  6
Continuous
 62
     7
370
    18
100
AcDbHatch
 10
0.0
 20
0.0
 30
0.0
210
0.0
220
0.0
230
1.0
  2
ANSI31
 70
     0
 71
     0
 91
        1
 92
        0
 93
        9
 72
     1
 10
166.7298513368537
 20
113.2054645493971
 11
166.9935650966581
 21
112.9559128025694
 72
     1
 10
166.9935650966581
 20
112.9559128025694
 11
169.4935650966581
 21
112.9559128025694
 72
     1
 10
169.4935650966581
 20
112.9559128025694
 11
169.7435650966581
 21
113.2059128025694
 72
     1
 10
169.7435650966581
 20
113.2059128025694
 11
169.7435650966581
 21
163.5059128025694
 72
     1
 10
169.7435650966581
 20
163.5059128025694
 11
169.4935650966581
 21
163.7559128025694
 72
     1
 10
169.4935650966581
 20
163.7559128025694
 11
166.9935650966581
 21
163.7559128025694
 72
     1
 10
166.9935650966581
 20
163.7559128025694
 11
166.7298513368536
 21
163.5063610557423
 72
     2
 10
626.1235641005128
 20
138.3861884205734
 40
460.08
 50
176.8701183639031
 51
180.0037703554499
 73
     1
 72
     2
 10
626.1235641005128
 20
138.3256371845654
 40
460.08
 50
179.9962296445509
 51
183.1298816360977
 73
     1
 97
        0
 75
     0
 76
     1
 52
0.0
 41
1.0
 77
     0
 78
     1
 53
45.0
 43
0.0
 44
0.0
 45
-2.245064030267288
 46
2.245064030267288
 79
     0
 98
        1
 10
0.0
 20
0.0
  0
DIMENSION
  5
241
330
1F
100
AcDbEntity
  8
0
  6
Continuous
 62
     7
370
    18
100
AcDbDimension
  2
_D_1
 10
626.1235641005
 20
138.3861884206
 30
0.0
 11
141.6886897142
 21
156.3620674369
 31
0.0
 70
   164
  1
<>
 71
     1
 42
-1.0
  3
SLDDIMSTYLE1
100
AcDbRadialDimension
 15
166.3746059389
 25
155.8361703489
 35
0.0
 40
0.0
  0
DIMENSION
  5
251
330
1F
100
AcDbEntity
  8
0
  6
Continuous
 62
     7
370
    18
100
AcDbDimension
  2
_D_2
 10
169.7435650967
 20
102.9559128026
 30
0.0
 11
188.5788369724
 21
102.9559128026
 31
0.0
 70
   160
  1
<>
 71
     2
 42
-1.0
  3
SLDDIMSTYLE2
100
AcDbAlignedDimension
 13
166.0435641005
 23
138.3861884206
 33
0.0
 14
169.7435650967
 24
113.2059128026
 34
0.0
100
AcDbRotatedDimension
  0
DIMENSION
  5
266
330
1F
100
AcDbEntity
  8
0
  6
Continuous
 62
     7
370
    18
100
AcDbDimension
  2
_D_3
 10
169.7446152643
 20
170.5664420738
 30
0.0
 11
188.5788369724
 21
170.5636407129
 31
0.0
 70
   160
  1
<>\PREF
 71
     2
 42
-1.0
  3
SLDDIMSTYLE3
100
AcDbAlignedDimension
 13
166.7298513369
 23
163.5063610557
 33
0.0
 14
169.7435650967
 24
163.5059128026
 34
0.0
 50
-0.0085220485
100
AcDbRotatedDimension
  0
MTEXT
  5
27A
330
1F
100
AcDbEntity
  8
0
  6
Continuous
 62
     7
370
     0
100
AcDbMText
 10
167.8235387749
 20
89.7427620676
 30
0.0
 40
2.1166666667
 41
0.0
 71
     2
 72
     1
  1
SECTION A-A
  7
SLDTEXTSTYLE0
 73
     1
 44
1.0
  0
ENDSEC
  0
SECTION
  2
OBJECTS
  0
DICTIONARY
  5
C
330
0
100
AcDbDictionary
281
     1
  3
ACAD_GROUP
350
D
  3
ACAD_LAYOUT
350
1A
  3
ACAD_MLINESTYLE
350
17
  3
ACAD_PLOTSETTINGS
350
19
  3
ACAD_PLOTSTYLENAME
350
E
  3
ACAD_SCALELIST
350
47
  0
DICTIONARY
  5
D
102
{ACAD_REACTORS
330
C
102
}
330
C
100
AcDbDictionary
281
     1
  0
DICTIONARY
  5
1A
102
{ACAD_REACTORS
330
C
102
}
330
C
100
AcDbDictionary
281
     1
  3
Layout1
350
1E
  3
Layout2
350
26
  3
Model
350
22
  0
DICTIONARY
  5
17
102
{ACAD_REACTORS
330
C
102
}
330
C
100
AcDbDictionary
281
     1
  3
Standard
350
18
  0
DICTIONARY
  5
19
102
{ACAD_REACTORS
330
C
102
}
330
C
100
AcDbDictionary
281
     1
  0
ACDBDICTIONARYWDFLT
  5
E
102
{ACAD_REACTORS
330
C
102
}
330
C
100
AcDbDictionary
281
     1
  3
Normal
350
F
100
AcDbDictionaryWithDefault
340
F
  0
DICTIONARY
  5
47
102
{ACAD_REACTORS
330
C
102
}
330
C
100
AcDbDictionary
281
     1
  3
A0
350
48
  3
A1
350
49
  3
A2
350
4A
  3
A3
350
4B
  3
A4
350
4C
  3
A5
350
4D
  3
A6
350
4E
  3
A7
350
4F
  3
A8
350
50
  3
A9
350
51
  3
B0
350
52
  3
B1
350
53
  3
B2
350
54
  3
B3
350
55
  3
B4
350
56
  3
B5
350
57
  3
B6
350
58
  3
B7
350
59
  3
B8
350
5A
  3
B9
350
5B
  3
C0
350
5C
  3
C1
350
5D
  3
C2
350
5E
  3
C3
350
5F
  3
C4
350
60
  3
C5
350
61
  3
C6
350
62
  3
C7
350
63
  3
C8
350
64
  3
C9
350
65
  3
D0
350
66
  3
D1
350
67
  3
D2
350
68
  0
LAYOUT
  5
1E
102
{ACAD_REACTORS
330
1A
102
}
330
1A
100
AcDbPlotSettings
  1

  2
none_device
  4

  6

 40
0.0
 41
0.0
 42
0.0
 43
0.0
 44
0.0
 45
0.0
 46
0.0
 47
0.0
 48
0.0
 49
0.0
140
0.0
141
0.0
142
1.0
143
1.0
 70
   688
 72
     1
 73
     0
 74
     5
  7

 75
    16
147
1.0
148
0.0
149
0.0
100
AcDbLayout
  1
Layout1
 70
     1
 71
     1
 10
0.0
 20
0.0
 11
420.0
 21
297.0
 12
0.0
 22
0.0
 32
0.0
 14
1.0000000000E+20
 24
1.0000000000E+20
 34
1.0000000000E+20
 15
-1.0000000000E+20
 25
-1.0000000000E+20
 35
-1.0000000000E+20
146
0.0
 13
0.0
 23
0.0
 33
0.0
 16
1.0
 26
0.0
 36
0.0
 17
0.0
 27
1.0
 37
0.0
 76
     0
330
1B
  0
LAYOUT
  5
26
102
{ACAD_REACTORS
330
1A
102
}
330
1A
100
AcDbPlotSettings
  1

  2
none_device
  4

  6

 40
0.0
 41
0.0
 42
0.0
 43
0.0
 44
0.0
 45
0.0
 46
0.0
 47
0.0
 48
0.0
 49
0.0
140
0.0
141
0.0
142
1.0
143
1.0
 70
   688
 72
     1
 73
     0
 74
     5
  7

 75
    16
147
1.0
148
0.0
149
0.0
100
AcDbLayout
  1
Layout2
 70
     1
 71
     2
 10
0.0
 20
0.0
 11
0.0
 21
0.0
 12
0.0
 22
0.0
 32
0.0
 14
0.0
 24
0.0
 34
0.0
 15
0.0
 25
0.0
 35
0.0
146
0.0
 13
0.0
 23
0.0
 33
0.0
 16
1.0
 26
0.0
 36
0.0
 17
0.0
 27
1.0
 37
0.0
 76
     0
330
23
  0
LAYOUT
  5
22
102
{ACAD_REACTORS
330
1A
102
}
330
1A
100
AcDbPlotSettings
  1

  2
none_device
  4
Letter_(8.50_x_11.00_Inches)
  6

 40
6.35
 41
6.35
 42
6.35000508
 43
6.35000508
 44
215.9
 45
279.4
 46
0.0
 47
0.0
 48
0.0
 49
0.0
140
0.0
141
0.0
142
1.0
143
1.0
 70
  1712
 72
     1
 73
     0
 74
     0
  7

 75
     0
147
1.0
148
0.0
149
0.0
100
AcDbLayout
  1
Model
 70
     1
 71
     0
 10
0.0
 20
0.0
 11
279.4
 21
215.9
 12
0.0
 22
0.0
 32
0.0
 14
0.0
 24
0.0
 34
0.0
 15
279.4
 25
215.9
 35
0.0
146
0.0
 13
0.0
 23
0.0
 33
0.0
 16
1.0
 26
0.0
 36
0.0
 17
0.0
 27
1.0
 37
0.0
 76
     0
330
1F
331
29
  0
MLINESTYLE
  5
18
102
{ACAD_REACTORS
330
17
102
}
330
17
100
AcDbMlineStyle
  2
Standard
 70
     0
  3

 62
   256
 51
90.0
 52
90.0
 71
     2
 49
0.5
 62
   256
  6
BYLAYER
 49
-0.5
 62
   256
  6
BYLAYER
  0
ACDBPLACEHOLDER
  5
F
102
{ACAD_REACTORS
330
E
102
}
330
E
  0
SCALE
  5
48
102
{ACAD_REACTORS
330
47
102
}
330
47
100
AcDbScale
 70
     0
300
1:1
140
1.0
141
1.0
290
     1
  0
SCALE
  5
49
102
{ACAD_REACTORS
330
47
102
}
330
47
100
AcDbScale
 70
     0
300
1:2
140
1.0
141
2.0
290
     0
  0
SCALE
  5
4A
102
{ACAD_REACTORS
330
47
102
}
330
47
100
AcDbScale
 70
     0
300
1:4
140
1.0
141
4.0
290
     0
  0
SCALE
  5
4B
102
{ACAD_REACTORS
330
47
102
}
330
47
100
AcDbScale
 70
     0
300
1:5
140
1.0
141
5.0
290
     0
  0
SCALE
  5
4C
102
{ACAD_REACTORS
330
47
102
}
330
47
100
AcDbScale
 70
     0
300
1:8
140
1.0
141
8.0
290
     0
  0
SCALE
  5
4D
102
{ACAD_REACTORS
330
47
102
}
330
47
100
AcDbScale
 70
     0
300
1:10
140
1.0
141
10.0
290
     0
  0
SCALE
  5
4E
102
{ACAD_REACTORS
330
47
102
}
330
47
100
AcDbScale
 70
     0
300
1:16
140
1.0
141
16.0
290
     0
  0
SCALE
  5
4F
102
{ACAD_REACTORS
330
47
102
}
330
47
100
AcDbScale
 70
     0
300
1:20
140
1.0
141
20.0
290
     0
  0
SCALE
  5
50
102
{ACAD_REACTORS
330
47
102
}
330
47
100
AcDbScale
 70
     0
300
1:30
140
1.0
141
30.0
290
     0
  0
SCALE
  5
51
102
{ACAD_REACTORS
330
47
102
}
330
47
100
AcDbScale
 70
     0
300
1:40
140
1.0
141
40.0
290
     0
  0
SCALE
  5
52
102
{ACAD_REACTORS
330
47
102
}
330
47
100
AcDbScale
 70
     0
300
1:50
140
1.0
141
50.0
290
     0
  0
SCALE
  5
53
102
{ACAD_REACTORS
330
47
102
}
330
47
100
AcDbScale
 70
     0
300
1:100
140
1.0
141
100.0
290
     0
  0
SCALE
  5
54
102
{ACAD_REACTORS
330
47
102
}
330
47
100
AcDbScale
 70
     0
300
2:1
140
2.0
141
1.0
290
     0
  0
SCALE
  5
55
102
{ACAD_REACTORS
330
47
102
}
330
47
100
AcDbScale
 70
     0
300
4:1
140
4.0
141
1.0
290
     0
  0
SCALE
  5
56
102
{ACAD_REACTORS
330
47
102
}
330
47
100
AcDbScale
 70
     0
300
8:1
140
8.0
141
1.0
290
     0
  0
SCALE
  5
57
102
{ACAD_REACTORS
330
47
102
}
330
47
100
AcDbScale
 70
     0
300
10:1
140
10.0
141
1.0
290
     0
  0
SCALE
  5
58
102
{ACAD_REACTORS
330
47
102
}
330
47
100
AcDbScale
 70
     0
300
100:1
140
100.0
141
1.0
290
     0
  0
SCALE
  5
59
102
{ACAD_REACTORS
330
47
102
}
330
47
100
AcDbScale
 70
     0
300
1/128" = 1'-0"
140
0.0078125
141
12.0
290
     0
  0
SCALE
  5
5A
102
{ACAD_REACTORS
330
47
102
}
330
47
100
AcDbScale
 70
     0
300
1/64" = 1'-0"
140
0.015625
141
12.0
290
     0
  0
SCALE
  5
5B
102
{ACAD_REACTORS
330
47
102
}
330
47
100
AcDbScale
 70
     0
300
1/32" = 1'-0"
140
0.03125
141
12.0
290
     0
  0
SCALE
  5
5C
102
{ACAD_REACTORS
330
47
102
}
330
47
100
AcDbScale
 70
     0
300
1/16" = 1'-0"
140
0.0625
141
12.0
290
     0
  0
SCALE
  5
5D
102
{ACAD_REACTORS
330
47
102
}
330
47
100
AcDbScale
 70
     0
300
3/32" = 1'-0"
140
0.09375
141
12.0
290
     0
  0
SCALE
  5
5E
102
{ACAD_REACTORS
330
47
102
}
330
47
100
AcDbScale
 70
     0
300
1/8" = 1'-0"
140
0.125
141
12.0
290
     0
  0
SCALE
  5
5F
102
{ACAD_REACTORS
330
47
102
}
330
47
100
AcDbScale
 70
     0
300
3/16" = 1'-0"
140
0.1875
141
12.0
290
     0
  0
SCALE
  5
60
102
{ACAD_REACTORS
330
47
102
}
330
47
100
AcDbScale
 70
     0
300
1/4" = 1'-0"
140
0.25
141
12.0
290
     0
  0
SCALE
  5
61
102
{ACAD_REACTORS
330
47
102
}
330
47
100
AcDbScale
 70
     0
300
3/8" = 1'-0"
140
0.375
141
12.0
290
     0
  0
SCALE
  5
62
102
{ACAD_REACTORS
330
47
102
}
330
47
100
AcDbScale
 70
     0
300
1/2" = 1'-0"
140
0.5
141
12.0
290
     0
  0
SCALE
  5
63
102
{ACAD_REACTORS
330
47
102
}
330
47
100
AcDbScale
 70
     0
300
3/4" = 1'-0"
140
0.75
141
12.0
290
     0
  0
SCALE
  5
64
102
{ACAD_REACTORS
330
47
102
}
330
47
100
AcDbScale
 70
     0
300
1" = 1'-0"
140
1.0
141
12.0
290
     0
  0
SCALE
  5
65
102
{ACAD_REACTORS
330
47
102
}
330
47
100
AcDbScale
 70
     0
300
1-1/2" = 1'-0"
140
1.5
141
12.0
290
     0
  0
SCALE
  5
66
102
{ACAD_REACTORS
330
47
102
}
330
47
100
AcDbScale
 70
     0
300
3" = 1'-0"
140
3.0
141
12.0
290
     0
  0
SCALE
  5
67
102
{ACAD_REACTORS
330
47
102
}
330
47
100
AcDbScale
 70
     0
300
6" = 1'-0"
140
6.0
141
12.0
290
     0
  0
SCALE
  5
68
102
{ACAD_REACTORS
330
47
102
}
330
47
100
AcDbScale
 70
     0
300
1'-0" = 1'-0"
140
12.0
141
12.0
290
     0
  0
ENDSEC
  0
EOF
