  0
SECTION
  2
HEADER
  9
$ACADVER
  1
AC1015
  9
$ACADMAINTVER
 70
     6
  9
$DWGCODEPAGE
  3
ANSI_1252
  9
$INSBASE
 10
0.0
 20
0.0
 30
0.0
  9
$EXTMIN
 10
0.0
 20
0.0
 30
0.0
  9
$EXTMAX
 10
279.4
 20
215.9
 30
0.0
  9
$LIMMIN
 10
0.0
 20
0.0
  9
$LIMMAX
 10
279.4
 20
215.9
  9
$ORTHOMODE
 70
     0
  9
$REGENMODE
 70
     1
  9
$FILLMODE
 70
     1
  9
$QTEXTMODE
 70
     0
  9
$MIRRTEXT
 70
     1
  9
$LTSCALE
 40
1.0
  9
$ATTMODE
 70
     1
  9
$TEXTSIZE
 40
2.8222222222
  9
$TRACEWID
 40
1.0
  9
$TEXTSTYLE
  7
Standard
  9
$CLAYER
  8
0
  9
$CELTYPE
  6
ByLayer
  9
$CECOLOR
 62
   256
  9
$CELTSCALE
 40
1.0
  9
$DISPSILH
 70
     0
  9
$DIMSCALE
 40
1.0
  9
$DIMASZ
 40
3.175
  9
$DIMEXO
 40
1.27
  9
$DIMDLI
 40
3.75
  9
$DIMRND
 40
0.0
  9
$DIMDLE
 40
0.0
  9
$DIMEXE
 40
1.778
  9
$DIMTP
 40
0.0
  9
$DIMTM
 40
0.0
  9
$DIMTXT
 40
2.8222222222
  9
$DIMCEN
 40
2.5
  9
$DIMTSZ
 40
0.0
  9
$DIMTOL
 70
     0
  9
$DIMLIM
 70
     0
  9
$DIMTIH
 70
     1
  9
$DIMTOH
 70
     1
  9
$DIMSE1
 70
     0
  9
$DIMSE2
 70
     0
  9
$DIMTAD
 70
     0
  9
$DIMZIN
 70
     1
  9
$DIMBLK
  1

  9
$DIMASO
 70
     1
  9
$DIMSHO
 70
     1
  9
$DIMPOST
  1

  9
$DIMAPOST
  1

  9
$DIMALT
 70
     0
  9
$DIMALTD
 70
     3
  9
$DIMALTF
 40
0.0393700787
  9
$DIMLFAC
 40
1.0
  9
$DIMTOFL
 70
     1
  9
$DIMTVP
 40
0.0
  9
$DIMTIX
 70
     0
  9
$DIMSOXD
 70
     0
  9
$DIMSAH
 70
     0
  9
$DIMBLK1
  1

  9
$DIMBLK2
  1

  9
$DIMSTYLE
  2
ISO-25
  9
$DIMCLRD
 70
     0
  9
$DIMCLRE
 70
     0
  9
$DIMCLRT
 70
     0
  9
$DIMTFAC
 40
1.0
  9
$DIMGAP
 40
2.54
  9
$DIMJUST
 70
     0
  9
$DIMSD1
 70
     0
  9
$DIMSD2
 70
     0
  9
$DIMTOLJ
 70
     0
  9
$DIMTZIN
 70
     1
  9
$DIMALTZ
 70
     0
  9
$DIMALTTZ
 70
     0
  9
$DIMUPT
 70
     0
  9
$DIMDEC
 70
     1
  9
$DIMTDEC
 70
     1
  9
$DIMALTU
 70
     2
  9
$DIMALTTD
 70
     3
  9
$DIMTXSTY
  7
Standard
  9
$DIMAUNIT
 70
     0
  9
$DIMADEC
 70
     0
  9
$DIMALTRND
 40
0.0
  9
$DIMAZIN
 70
     0
  9
$DIMDSEP
 70
    44
  9
$DIMATFIT
 70
     3
  9
$DIMFRAC
 70
     0
  9
$DIMLDRBLK
  1

  9
$DIMLUNIT
 70
     2
  9
$DIMLWD
 70
    -2
  9
$DIMLWE
 70
    -2
  9
$DIMTMOVE
 70
     0
  9
$LUNITS
 70
     2
  9
$LUPREC
 70
     1
  9
$SKETCHINC
 40
1.0
  9
$FILLETRAD
 40
10.0
  9
$AUNITS
 70
     0
  9
$AUPREC
 70
     0
  9
$MENU
  1
.
  9
$ELEVATION
 40
0.0
  9
$PELEVATION
 40
0.0
  9
$THICKNESS
 40
0.0
  9
$LIMCHECK
 70
     0
  9
$CHAMFERA
 40
0.0
  9
$CHAMFERB
 40
0.0
  9
$CHAMFERC
 40
0.0
  9
$CHAMFERD
 40
0.0
  9
$SKPOLY
 70
     0
  9
$TDCREATE
 40
2457638.720333287
  9
$TDUCREATE
 40
2457638.386999954
  9
$TDUPDATE
 40
2457638.72033581
  9
$TDUUPDATE
 40
2457638.387002477
  9
$TDINDWG
 40
0.0000000116
  9
$TDUSRTIMER
 40
0.0000000116
  9
$USRTIMER
 70
     1
  9
$ANGBASE
 50
0.0
  9
$ANGDIR
 70
     0
  9
$PDMODE
 70
     0
  9
$PDSIZE
 40
-1.0
  9
$PLINEWID
 40
0.0
  9
$SPLFRAME
 70
     0
  9
$SPLINETYPE
 70
     6
  9
$SPLINESEGS
 70
     8
  9
$HANDSEED
  5
39C
  9
$SURFTAB1
 70
     6
  9
$SURFTAB2
 70
     6
  9
$SURFTYPE
 70
     6
  9
$SURFU
 70
     6
  9
$SURFV
 70
     6
  9
$UCSBASE
  2

  9
$UCSNAME
  2

  9
$UCSORG
 10
0.0
 20
0.0
 30
0.0
  9
$UCSXDIR
 10
1.0
 20
0.0
 30
0.0
  9
$UCSYDIR
 10
0.0
 20
1.0
 30
0.0
  9
$UCSORTHOREF
  2

  9
$UCSORTHOVIEW
 70
     0
  9
$UCSORGTOP
 10
0.0
 20
0.0
 30
0.0
  9
$UCSORGBOTTOM
 10
0.0
 20
0.0
 30
0.0
  9
$UCSORGLEFT
 10
0.0
 20
0.0
 30
0.0
  9
$UCSORGRIGHT
 10
0.0
 20
0.0
 30
0.0
  9
$UCSORGFRONT
 10
0.0
 20
0.0
 30
0.0
  9
$UCSORGBACK
 10
0.0
 20
0.0
 30
0.0
  9
$PUCSBASE
  2

  9
$PUCSNAME
  2

  9
$PUCSORG
 10
0.0
 20
0.0
 30
0.0
  9
$PUCSXDIR
 10
1.0
 20
0.0
 30
0.0
  9
$PUCSYDIR
 10
0.0
 20
1.0
 30
0.0
  9
$PUCSORTHOREF
  2

  9
$PUCSORTHOVIEW
 70
     0
  9
$PUCSORGTOP
 10
0.0
 20
0.0
 30
0.0
  9
$PUCSORGBOTTOM
 10
0.0
 20
0.0
 30
0.0
  9
$PUCSORGLEFT
 10
0.0
 20
0.0
 30
0.0
  9
$PUCSORGRIGHT
 10
0.0
 20
0.0
 30
0.0
  9
$PUCSORGFRONT
 10
0.0
 20
0.0
 30
0.0
  9
$PUCSORGBACK
 10
0.0
 20
0.0
 30
0.0
  9
$USERI1
 70
     0
  9
$USERI2
 70
     0
  9
$USERI3
 70
     0
  9
$USERI4
 70
     0
  9
$USERI5
 70
     0
  9
$USERR1
 40
0.0
  9
$USERR2
 40
0.0
  9
$USERR3
 40
0.0
  9
$USERR4
 40
0.0
  9
$USERR5
 40
0.0
  9
$WORLDVIEW
 70
     1
  9
$SHADEDGE
 70
     3
  9
$SHADEDIF
 70
    70
  9
$TILEMODE
 70
     1
  9
$MAXACTVP
 70
    64
  9
$PINSBASE
 10
0.0
 20
0.0
 30
0.0
  9
$PLIMCHECK
 70
     0
  9
$PEXTMIN
 10
1.0000000000E+20
 20
1.0000000000E+20
 30
1.0000000000E+20
  9
$PEXTMAX
 10
-1.0000000000E+20
 20
-1.0000000000E+20
 30
-1.0000000000E+20
  9
$PLIMMIN
 10
0.0
 20
0.0
  9
$PLIMMAX
 10
420.0
 20
297.0
  9
$UNITMODE
 70
     0
  9
$VISRETAIN
 70
     1
  9
$PLINEGEN
 70
     0
  9
$PSLTSCALE
 70
     1
  9
$TREEDEPTH
 70
  3020
  9
$CMLSTYLE
  2
Standard
  9
$CMLJUST
 70
     0
  9
$CMLSCALE
 40
20.0
  9
$PROXYGRAPHICS
 70
     1
  9
$MEASUREMENT
 70
     1
  9
$CELWEIGHT
370
    -1
  9
$ENDCAPS
280
     0
  9
$JOINSTYLE
280
     0
  9
$LWDISPLAY
290
     1
  9
$INSUNITS
 70
     4
  9
$HYPERLINKBASE
  1

  9
$STYLESHEET
  1

  9
$XEDIT
290
     1
  9
$CEPSNTYPE
380
     0
  9
$PSTYLEMODE
290
     1
  9
$FINGERPRINTGUID
  2
{4BA840F5-94A7-43B6-AC47-AFAAE6CF7FE5}
  9
$VERSIONGUID
  2
{FAEB1C32-E019-11D5-929B-00C0DF256EC4}
  9
$EXTNAMES
290
     1
  9
$PSVPSCALE
 40
0.0
  9
$OLESTARTUP
290
     0
  0
ENDSEC
  0
SECTION
  2
CLASSES
  0
CLASS
  1
ACDBDICTIONARYWDFLT
  2
AcDbDictionaryWithDefault
  3
ObjectDBX Classes
 90
        0
280
     0
281
     0
  0
CLASS
  1
VISUALSTYLE
  2
AcDbVisualStyle
  3
ObjectDBX Classes
 90
     4095
280
     0
281
     0
  0
CLASS
  1
MATERIAL
  2
AcDbMaterial
  3
ObjectDBX Classes
 90
     1153
280
     0
281
     0
  0
CLASS
  1
SCALE
  2
AcDbScale
  3
ObjectDBX Classes
 90
     1153
280
     0
281
     0
  0
CLASS
  1
TABLESTYLE
  2
AcDbTableStyle
  3
ObjectDBX Classes
 90
     4095
280
     0
281
     0
  0
CLASS
  1
MLEADERSTYLE
  2
AcDbMLeaderStyle
  3
ACDB_MLEADERSTYLE_CLASS
 90
     4095
280
     0
281
     0
  0
CLASS
  1
SUN
  2
AcDbSun
  3
SCENEOE
 90
     1153
280
     0
281
     0
  0
CLASS
  1
ACDBPLACEHOLDER
  2
AcDbPlaceHolder
  3
ObjectDBX Classes
 90
        0
280
     0
281
     0
  0
CLASS
  1
LAYOUT
  2
AcDbLayout
  3
ObjectDBX Classes
 90
        0
280
     0
281
     0
  0
ENDSEC
  0
SECTION
  2
TABLES
  0
TABLE
  2
VPORT
  5
8
330
0
100
AcDbSymbolTable
 70
     1
  0
VPORT
  5
29
330
8
100
AcDbSymbolTableRecord
100
AcDbViewportTableRecord
  2
*Active
 70
     0
 10
0.0
 20
0.0
 11
1.0
 21
1.0
 12
139.7
 22
107.95
 13
0.0
 23
0.0
 14
10.0
 24
10.0
 15
10.0
 25
10.0
 16
0.0
 26
0.0
 36
1.0
 17
0.0
 27
0.0
 37
0.0
 40
215.9
 41
1.2941176471
 42
50.0
 43
0.0
 44
0.0
 50
0.0
 51
0.0
 71
     0
 72
  2000
 73
     1
 74
     3
 75
     0
 76
     0
 77
     0
 78
     0
281
     0
 65
     1
110
0.0
120
0.0
130
0.0
111
1.0
121
0.0
131
0.0
112
0.0
122
1.0
132
0.0
 79
     0
146
0.0
  0
ENDTAB
  0
TABLE
  2
LTYPE
  5
5
330
0
100
AcDbSymbolTable
 70
     6
  0
LTYPE
  5
14
330
5
100
AcDbSymbolTableRecord
100
AcDbLinetypeTableRecord
  2
ByBlock
 70
     0
  3

 72
    65
 73
     0
 40
0.0
  0
LTYPE
  5
15
330
5
100
AcDbSymbolTableRecord
100
AcDbLinetypeTableRecord
  2
ByLayer
 70
     0
  3

 72
    65
 73
     0
 40
0.0
  0
LTYPE
  5
16
330
5
100
AcDbSymbolTableRecord
100
AcDbLinetypeTableRecord
  2
Continuous
 70
     0
  3
Solid line
 72
    65
 73
     0
 40
0.0
  0
LTYPE
  5
6E
330
5
100
AcDbSymbolTableRecord
100
AcDbLinetypeTableRecord
  2
HIDDEN
 70
     0
  3
Hidden __ __ __ __ __ __ __ __ __ __ __ __ __ __
 72
    65
 73
     2
 40
1.905
 49
1.27
 74
     0
 49
-0.635
 74
     0
  0
LTYPE
  5
6F
330
5
100
AcDbSymbolTableRecord
100
AcDbLinetypeTableRecord
  2
PHANTOM
 70
     0
  3
Phantom ______  __  __  ______  __  __  ______
 72
    65
 73
     6
 40
12.7
 49
6.35
 74
     0
 49
-1.27
 74
     0
 49
1.27
 74
     0
 49
-1.27
 74
     0
 49
1.27
 74
     0
 49
-1.27
 74
     0
  0
LTYPE
  5
70
330
5
100
AcDbSymbolTableRecord
100
AcDbLinetypeTableRecord
  2
CENTER
 70
     0
  3
Center ____ _ ____ _ ____ _ ____ _ ____ _ ____
 72
    65
 73
     4
 40
10.16
 49
6.35
 74
     0
 49
-1.27
 74
     0
 49
1.27
 74
     0
 49
-1.27
 74
     0
  0
LTYPE
  5
71
330
5
100
AcDbSymbolTableRecord
100
AcDbLinetypeTableRecord
  2
CENTERX2
 70
     0
  3
Center (2x) ________  __  ________  __  _____
 72
    65
 73
     4
 40
20.32
 49
12.7
 74
     0
 49
-2.54
 74
     0
 49
2.54
 74
     0
 49
-2.54
 74
     0
  0
LTYPE
  5
72
330
5
100
AcDbSymbolTableRecord
100
AcDbLinetypeTableRecord
  2
DOT2
 70
     0
  3
Dot (.5x) ........................................
 72
    65
 73
     2
 40
0.635
 49
0.0
 74
     0
 49
-0.635
 74
     0
  0
ENDTAB
  0
TABLE
  2
LAYER
  5
2
330
0
100
AcDbSymbolTable
 70
     2
  0
LAYER
  5
10
330
2
100
AcDbSymbolTableRecord
100
AcDbLayerTableRecord
  2
0
 70
     0
 62
     7
  6
Continuous
370
    -3
390
F
  0
LAYER
  5
73
330
2
100
AcDbSymbolTableRecord
100
AcDbLayerTableRecord
  2
FORMAT
 70
     0
 62
     7
  6
Continuous
370
    -3
390
F
  0
ENDTAB
  0
TABLE
  2
STYLE
  5
3
330
0
100
AcDbSymbolTable
 70
     3
  0
STYLE
  5
11
330
3
100
AcDbSymbolTableRecord
100
AcDbTextStyleTableRecord
  2
Standard
 70
     0
 40
0.0
 41
1.0
 50
0.0
 71
     0
 42
2.8222222222
  3
txt
  4

  0
STYLE
  5
9A
330
3
100
AcDbSymbolTableRecord
100
AcDbTextStyleTableRecord
  2
SLDTEXTSTYLE0
 70
     0
 40
0.0
 41
0.75
 50
0.0
 71
     0
 42
2.8222222222
  3
TXT
  4

  0
STYLE
  5
A6
330
3
100
AcDbSymbolTableRecord
100
AcDbTextStyleTableRecord
  2
SLDTEXTSTYLE1
 70
     0
 40
0.0
 41
0.6
 50
0.0
 71
     0
 42
2.8222222222
  3
TXT
  4

  0
ENDTAB
  0
TABLE
  2
VIEW
  5
6
330
0
100
AcDbSymbolTable
 70
     0
  0
ENDTAB
  0
TABLE
  2
UCS
  5
7
330
0
100
AcDbSymbolTable
 70
     0
  0
ENDTAB
  0
TABLE
  2
APPID
  5
9
330
0
100
AcDbSymbolTable
 70
     1
  0
APPID
  5
12
330
9
100
AcDbSymbolTableRecord
100
AcDbRegAppTableRecord
  2
ACAD
 70
     0
  0
ENDTAB
  0
TABLE
  2
DIMSTYLE
  5
A
330
0
100
AcDbSymbolTable
 70
     4
100
AcDbDimStyleTable
  0
DIMSTYLE
105
27
330
A
100
AcDbSymbolTableRecord
100
AcDbDimStyleTableRecord
  2
ISO-25
 70
     0
 41
2.5
 42
0.625
 43
3.75
 44
1.25
 73
     0
 74
     0
 77
     1
 78
     8
140
2.5
141
2.5
143
0.0393700787
147
0.625
171
     3
172
     1
178
     0
271
     2
272
     2
274
     3
278
    44
283
     0
284
     8
340
11
  0
DIMSTYLE
105
164
330
A
100
AcDbSymbolTableRecord
100
AcDbDimStyleTableRecord
  2
SLDDIMSTYLE0
 70
     0
 41
3.175
 44
0.0
 45
0.000000001
146
3.175
147
0.0
173
     1
178
     0
271
     0
272
     0
276
     2
340
11
  0
DIMSTYLE
105
197
102
{ACAD_REACTORS
330
196
330
1D5
330
2EB
102
}
330
A
100
AcDbSymbolTableRecord
100
AcDbDimStyleTableRecord
  2
SLDDIMSTYLE1
 70
     0
 41
3.175
 44
0.0
 45
0.000000001
 78
     4
 79
     1
140
2.1166666667
143
0.0393700787
147
0.5291666667
148
0.000000001
170
     1
173
     1
178
     0
271
     1
272
     1
276
     2
284
    12
340
9A
  0
DIMSTYLE
105
2C4
102
{ACAD_REACTORS
330
2C3
330
2D7
102
}
330
A
100
AcDbSymbolTableRecord
100
AcDbDimStyleTableRecord
  2
SLDDIMSTYLE2
 70
     0
 41
3.175
 44
0.0
 45
0.000000001
 78
     4
 79
     1
140
2.1166666667
143
0.0393700787
147
0.5291666667
148
0.000000001
170
     1
172
     1
173
     1
178
     0
271
     1
272
     1
276
     2
284
    12
289
     0
340
9A
  0
ENDTAB
  0
TABLE
  2
BLOCK_RECORD
  5
1
330
0
100
AcDbSymbolTable
 70
    10
  0
BLOCK_RECORD
  5
1F
330
1
100
AcDbSymbolTableRecord
100
AcDbBlockTableRecord
  2
*Model_Space
340
22
  0
BLOCK_RECORD
  5
1B
330
1
100
AcDbSymbolTableRecord
100
AcDbBlockTableRecord
  2
*Paper_Space
340
1E
  0
BLOCK_RECORD
  5
23
330
1
100
AcDbSymbolTableRecord
100
AcDbBlockTableRecord
  2
*Paper_Space0
340
26
  0
BLOCK_RECORD
  5
74
330
1
100
AcDbSymbolTableRecord
100
AcDbBlockTableRecord
  2
Third Angle Projection Block
340
0
102
{BLKREFS
331
99
102
}
  0
BLOCK_RECORD
  5
AC
330
1
100
AcDbSymbolTableRecord
100
AcDbBlockTableRecord
  2
SW_NOTE_0
340
0
102
{BLKREFS
331
B1
102
}
  0
BLOCK_RECORD
  5
B2
330
1
100
AcDbSymbolTableRecord
100
AcDbBlockTableRecord
  2
SW_NOTE_1
340
0
102
{BLKREFS
331
B7
102
}
  0
BLOCK_RECORD
  5
B9
330
1
100
AcDbSymbolTableRecord
100
AcDbBlockTableRecord
  2
SW_NOTE_2
340
0
102
{BLKREFS
331
BE
102
}
  0
BLOCK_RECORD
  5
198
330
1
100
AcDbSymbolTableRecord
100
AcDbBlockTableRecord
  2
_D
340
0
  0
BLOCK_RECORD
  5
1D6
330
1
100
AcDbSymbolTableRecord
100
AcDbBlockTableRecord
  2
_D_1
340
0
  0
BLOCK_RECORD
  5
2C5
330
1
100
AcDbSymbolTableRecord
100
AcDbBlockTableRecord
  2
_D_2
340
0
  0
BLOCK_RECORD
  5
2D8
330
1
100
AcDbSymbolTableRecord
100
AcDbBlockTableRecord
  2
_D_3
340
0
  0
BLOCK_RECORD
  5
2EC
330
1
100
AcDbSymbolTableRecord
100
AcDbBlockTableRecord
  2
_D_4
340
0
  0
ENDTAB
  0
ENDSEC
  0
SECTION
  2
BLOCKS
  0
BLOCK
  5
20
330
1F
100
AcDbEntity
  8
0
100
AcDbBlockBegin
  2
*Model_Space
 70
     0
 10
0.0
 20
0.0
 30
0.0
  3
*Model_Space
  1

  0
ENDBLK
  5
21
330
1F
100
AcDbEntity
  8
0
100
AcDbBlockEnd
  0
BLOCK
  5
1C
330
1B
100
AcDbEntity
 67
     1
  8
0
100
AcDbBlockBegin
  2
*Paper_Space
 70
     0
 10
0.0
 20
0.0
 30
0.0
  3
*Paper_Space
  1

  0
ENDBLK
  5
1D
330
1B
100
AcDbEntity
 67
     1
  8
0
100
AcDbBlockEnd
  0
BLOCK
  5
24
330
23
100
AcDbEntity
  8
0
100
AcDbBlockBegin
  2
*Paper_Space0
 70
     0
 10
0.0
 20
0.0
 30
0.0
  3
*Paper_Space0
  1

  0
ENDBLK
  5
25
330
23
100
AcDbEntity
  8
0
100
AcDbBlockEnd
  0
BLOCK
  5
75
330
74
100
AcDbEntity
  8
0
100
AcDbBlockBegin
  2
Third Angle Projection Block
 70
     0
 10
0.0
 20
0.0
 30
0.0
  3
Third Angle Projection Block
  1

  0
CIRCLE
  5
77
330
74
100
AcDbEntity
  8
0
  6
Continuous
 62
     7
370
    30
100
AcDbCircle
 10
101.4766388944
 20
18.9404083667
 30
0.0
 40
1.768227153674871
  0
CIRCLE
  5
78
330
74
100
AcDbEntity
  8
0
  6
Continuous
 62
     7
370
    30
100
AcDbCircle
 10
101.4766388944
 20
18.9404083667
 30
0.0
 40
3.901228248531818
  0
LINE
  5
79
330
74
100
AcDbEntity
  8
0
  6
CENTERX2
 62
     7
370
     0
100
AcDbLine
 10
110.1367822585
 20
18.9404083667
 30
0.0
 11
119.4527334874
 21
18.9404083667
 31
0.0
  0
LINE
  5
7A
330
74
100
AcDbEntity
  8
0
  6
Continuous
 62
     7
370
    30
100
AcDbLine
 10
111.0016388944
 20
20.7086355204
 30
0.0
 11
111.0016388944
 21
17.172181213
 31
0.0
  0
LINE
  5
7B
330
74
100
AcDbEntity
  8
0
  6
Continuous
 62
     7
370
    30
100
AcDbLine
 10
111.0016388944
 20
17.172181213
 30
0.0
 11
118.6216388944
 21
15.1304083667
 31
0.0
  0
LINE
  5
7C
330
74
100
AcDbEntity
  8
0
  6
Continuous
 62
     7
370
    30
100
AcDbLine
 10
118.6216388944
 20
15.1304083667
 30
0.0
 11
118.6216388944
 21
22.7504083667
 31
0.0
  0
LINE
  5
7D
330
74
100
AcDbEntity
  8
0
  6
Continuous
 62
     7
370
    30
100
AcDbLine
 10
118.6216388944
 20
22.7504083667
 30
0.0
 11
111.0016388944
 21
20.7086355204
 31
0.0
  0
LINE
  5
7E
330
74
100
AcDbEntity
  8
0
  6
CENTERX2
 62
     7
370
     0
100
AcDbLine
 10
96.6025854619
 20
18.9404083667
 30
0.0
 11
106.3506923269
 21
18.9404083667
 31
0.0
  0
LINE
  5
7F
330
74
100
AcDbEntity
  8
0
  6
CENTERX2
 62
     7
370
     0
100
AcDbLine
 10
101.4766388944
 20
23.8144617992
 30
0.0
 11
101.4766388944
 21
14.0663549342
 31
0.0
  0
POINT
  5
80
330
74
100
AcDbEntity
  8
0
  6
Continuous
 62
     7
370
     0
100
AcDbPoint
 10
101.4766388944
 20
18.9404083667
 30
0.0
  0
ENDBLK
  5
76
330
74
100
AcDbEntity
  8
0
100
AcDbBlockEnd
  0
BLOCK
  5
AD
330
AC
100
AcDbEntity
  8
0
100
AcDbBlockBegin
  2
SW_NOTE_0
 70
     0
 10
0.0
 20
0.0
 30
0.0
  3
SW_NOTE_0
  1

  0
MTEXT
  5
AF
330
AC
100
AcDbEntity
  8
0
  6
Continuous
 62
     0
370
     0
100
AcDbMText
 10
19.90725
 20
1.9645392354
 30
0.0
 40
1.524
 41
0.0
 71
     2
 72
     1
  1
VALUES IN PARENTHESIS ARE CALCULATED
  7
SLDTEXTSTYLE0
 73
     1
 44
1.0
  0
MTEXT
  5
B0
330
AC
100
AcDbEntity
  8
0
  6
Continuous
 62
     0
370
     0
100
AcDbMText
 10
19.8778795174
 20
-0.5594606586
 30
0.0
 40
1.524
 41
0.0
 71
     2
 72
     1
  1
AND MAY CONTAIN ROUNDOFF ERRORS
  7
SLDTEXTSTYLE0
 73
     1
 44
1.0
  0
ENDBLK
  5
AE
330
AC
100
AcDbEntity
  8
0
100
AcDbBlockEnd
  0
BLOCK
  5
B3
330
B2
100
AcDbEntity
  8
0
100
AcDbBlockBegin
  2
SW_NOTE_1
 70
     0
 10
0.0
 20
0.0
 30
0.0
  3
SW_NOTE_1
  1

  0
MTEXT
  5
B5
330
B2
100
AcDbEntity
  8
0
  6
Continuous
 62
     0
370
     0
100
AcDbMText
 10
0.0
 20
2.7285267159
 30
0.0
 40
2.1166666667
 41
0.0
 71
     1
 72
     1
  1
DRAWING
  7
SLDTEXTSTYLE0
 73
     1
 44
1.0
  0
MTEXT
  5
B6
330
B2
100
AcDbEntity
  8
0
  6
Continuous
 62
     0
370
     0
100
AcDbMText
 10
0.0
 20
-0.0936954723
 30
0.0
 40
2.1166666667
 41
0.0
 71
     1
 72
     1
  1
PROJECTION
  7
SLDTEXTSTYLE0
 73
     1
 44
1.0
  0
ENDBLK
  5
B4
330
B2
100
AcDbEntity
  8
0
100
AcDbBlockEnd
  0
BLOCK
  5
BA
330
B9
100
AcDbEntity
  8
0
100
AcDbBlockBegin
  2
SW_NOTE_2
 70
     0
 10
0.0
 20
0.0
 30
0.0
  3
SW_NOTE_2
  1

  0
MTEXT
  5
BC
330
B9
100
AcDbEntity
  8
0
  6
Continuous
 62
     0
370
     0
100
AcDbMText
 10
25.052734375
 20
4.0927900738
 30
0.0
 40
3.175
 41
0.0
 71
     2
 72
     1
  1
FOR INFORMATION ONLY
  7
SLDTEXTSTYLE0
 73
     1
 44
1.0
  0
MTEXT
  5
BD
330
B9
100
AcDbEntity
  8
0
  6
Continuous
 62
     0
370
     0
100
AcDbMText
 10
25.3768468589
 20
-0.1405432084
 30
0.0
 40
3.175
 41
0.0
 71
     2
 72
     1
  1
NOT FOR MANUFACTURING PURPOSES
  7
SLDTEXTSTYLE0
 73
     1
 44
1.0
  0
ENDBLK
  5
BB
330
B9
100
AcDbEntity
  8
0
100
AcDbBlockEnd
  0
BLOCK
  5
199
330
198
100
AcDbEntity
  8
0
100
AcDbBlockBegin
  2
_D
 70
     0
 10
0.0
 20
0.0
 30
0.0
  3
_D
  1

  0
SOLID
  5
19B
330
198
100
AcDbEntity
  8
0
  6
Continuous
 62
     7
370
     0
100
AcDbTrace
 10
212.2306701164
 20
121.3536118613
 30
0.0
 11
215.4056701164
 21
120.8456118613
 31
0.0
 12
215.4056701164
 22
121.8616118613
 32
0.0
 13
215.4056701164
 23
121.8616118613
 33
0.0
  0
SOLID
  5
19C
330
198
100
AcDbEntity
  8
0
  6
Continuous
 62
     7
370
     0
100
AcDbTrace
 10
222.2306701164
 20
121.3536118613
 30
0.0
 11
219.0556701164
 21
121.8616118613
 31
0.0
 12
219.0556701164
 22
120.8456118613
 32
0.0
 13
219.0556701164
 23
120.8456118613
 33
0.0
  0
LINE
  5
19D
330
198
100
AcDbEntity
  8
0
  6
Continuous
 62
     7
370
     0
100
AcDbLine
 10
236.377345102
 20
121.3536116285
 30
0.0
 11
235.7335256479
 21
121.3536116285
 31
0.0
  0
LINE
  5
19E
330
198
100
AcDbEntity
  8
0
  6
Continuous
 62
     7
370
     0
100
AcDbLine
 10
235.7335256479
 20
121.3536116285
 30
0.0
 11
235.7335256479
 21
117.990463552
 31
0.0
  0
LINE
  5
19F
330
198
100
AcDbEntity
  8
0
  6
Continuous
 62
     7
370
     0
100
AcDbLine
 10
235.7335256479
 20
117.990463552
 30
0.0
 11
236.377345102
 21
117.990463552
 31
0.0
  0
LINE
  5
1A0
330
198
100
AcDbEntity
  8
0
  6
Continuous
 62
     7
370
     0
100
AcDbLine
 10
244.1345366483
 20
121.3536116285
 30
0.0
 11
244.7783561024
 21
121.3536116285
 31
0.0
  0
LINE
  5
1A1
330
198
100
AcDbEntity
  8
0
  6
Continuous
 62
     7
370
     0
100
AcDbLine
 10
244.7783561024
 20
121.3536116285
 30
0.0
 11
244.7783561024
 21
117.990463552
 31
0.0
  0
LINE
  5
1A2
330
198
100
AcDbEntity
  8
0
  6
Continuous
 62
     7
370
     0
100
AcDbLine
 10
244.7783561024
 20
117.990463552
 30
0.0
 11
244.1345366483
 21
117.990463552
 31
0.0
  0
LINE
  5
1A3
330
198
100
AcDbEntity
  8
0
  6
Continuous
 62
     7
370
     0
100
AcDbLine
 10
212.2306701164
 20
134.3726328888
 30
0.0
 11
212.2306701164
 21
119.5756118613
 31
0.0
  0
LINE
  5
1A4
330
198
100
AcDbEntity
  8
0
  6
Continuous
 62
     7
370
     0
100
AcDbLine
 10
222.2306701164
 20
134.3726328888
 30
0.0
 11
222.2306701164
 21
119.5756118613
 31
0.0
  0
LINE
  5
1A5
330
198
100
AcDbEntity
  8
0
  6
Continuous
 62
     7
370
     0
100
AcDbLine
 10
212.2306701164
 20
121.3536118613
 30
0.0
 11
222.2306701164
 21
121.3536118613
 31
0.0
  0
LINE
  5
1A6
330
198
100
AcDbEntity
  8
0
  6
Continuous
 62
     7
370
     0
100
AcDbLine
 10
222.2306701164
 20
121.3536118613
 30
0.0
 11
232.8846823595
 21
121.3536118613
 31
0.0
  0
MTEXT
  5
1A7
330
198
100
AcDbEntity
  8
0
  6
Continuous
 62
     7
370
     0
100
AcDbMText
 10
234.9015577489
 20
124.5113512749
 30
0.0
 40
2.1166666667
 41
0.0
 71
     1
 72
     1
  1

  7
SLDTEXTSTYLE0
 73
     1
 44
1.0
  0
MTEXT
  5
1A8
330
198
100
AcDbEntity
  8
0
  6
Continuous
 62
     7
370
     0
100
AcDbMText
 10
234.8741194533
 20
124.5113512749
 30
0.0
 40
2.1166666667
 41
0.0
 71
     1
 72
     1
  1
10.0mm
  7
SLDTEXTSTYLE0
 73
     1
 44
1.0
  0
MTEXT
  5
1A9
330
198
100
AcDbEntity
  8
0
  6
Continuous
 62
     7
370
     0
100
AcDbMText
 10
236.377345102
 20
120.7189901514
 30
0.0
 40
2.1166666667
 41
0.0
 71
     1
 72
     1
  1
0.39in
  7
SLDTEXTSTYLE0
 73
     1
 44
1.0
  0
MTEXT
  5
1AA
330
198
100
AcDbEntity
  8
0
  6
Continuous
 62
     7
370
     0
100
AcDbMText
 10
247.2252613658
 20
124.5113512749
 30
0.0
 40
2.1166666667
 41
0.0
 71
     1
 72
     1
  1

  7
SLDTEXTSTYLE0
 73
     1
 44
1.0
  0
ENDBLK
  5
19A
330
198
100
AcDbEntity
  8
0
100
AcDbBlockEnd
  0
BLOCK
  5
1D7
330
1D6
100
AcDbEntity
  8
0
100
AcDbBlockBegin
  2
_D_1
 70
     0
 10
0.0
 20
0.0
 30
0.0
  3
_D_1
  1

  0
SOLID
  5
1D9
330
1D6
100
AcDbEntity
  8
0
  6
Continuous
 62
     7
370
     0
100
AcDbTrace
 10
42.3471857091
 20
145.6426328888
 30
0.0
 11
41.8391857091
 21
142.4676328888
 31
0.0
 12
42.8551857091
 22
142.4676328888
 32
0.0
 13
42.8551857091
 23
142.4676328888
 33
0.0
  0
SOLID
  5
1DA
330
1D6
100
AcDbEntity
  8
0
  6
Continuous
 62
     7
370
     0
100
AcDbTrace
 10
42.3471857091
 20
135.6426328888
 30
0.0
 11
42.8551857091
 21
138.8176328888
 31
0.0
 12
41.8391857091
 22
138.8176328888
 32
0.0
 13
41.8391857091
 23
138.8176328888
 33
0.0
  0
LINE
  5
1DB
330
1D6
100
AcDbEntity
  8
0
  6
Continuous
 62
     7
370
     0
100
AcDbLine
 10
50.5085992304
 20
160.8138613779
 30
0.0
 11
49.8647797763
 21
160.8138613779
 31
0.0
  0
LINE
  5
1DC
330
1D6
100
AcDbEntity
  8
0
  6
Continuous
 62
     7
370
     0
100
AcDbLine
 10
49.8647797763
 20
160.8138613779
 30
0.0
 11
49.8647797763
 21
157.4507133015
 31
0.0
  0
LINE
  5
1DD
330
1D6
100
AcDbEntity
  8
0
  6
Continuous
 62
     7
370
     0
100
AcDbLine
 10
49.8647797763
 20
157.4507133015
 30
0.0
 11
50.5085992304
 21
157.4507133015
 31
0.0
  0
LINE
  5
1DE
330
1D6
100
AcDbEntity
  8
0
  6
Continuous
 62
     7
370
     0
100
AcDbLine
 10
58.2657907766
 20
160.8138613779
 30
0.0
 11
58.9096102308
 21
160.8138613779
 31
0.0
  0
LINE
  5
1DF
330
1D6
100
AcDbEntity
  8
0
  6
Continuous
 62
     7
370
     0
100
AcDbLine
 10
58.9096102308
 20
160.8138613779
 30
0.0
 11
58.9096102308
 21
157.4507133015
 31
0.0
  0
LINE
  5
1E0
330
1D6
100
AcDbEntity
  8
0
  6
Continuous
 62
     7
370
     0
100
AcDbLine
 10
58.9096102308
 20
157.4507133015
 30
0.0
 11
58.2657907766
 21
157.4507133015
 31
0.0
  0
LINE
  5
1E1
330
1D6
100
AcDbEntity
  8
0
  6
Continuous
 62
     7
370
     0
100
AcDbLine
 10
25.3802082824
 20
145.6426328888
 30
0.0
 11
44.1251857091
 21
145.6426328888
 31
0.0
  0
LINE
  5
1E2
330
1D6
100
AcDbEntity
  8
0
  6
Continuous
 62
     7
370
     0
100
AcDbLine
 10
25.3802082824
 20
135.6426328888
 30
0.0
 11
44.1251857091
 21
135.6426328888
 31
0.0
  0
LINE
  5
1E3
330
1D6
100
AcDbEntity
  8
0
  6
Continuous
 62
     7
370
     0
100
AcDbLine
 10
46.1571857091
 20
160.8138616108
 30
0.0
 11
42.3471857091
 21
160.8138616108
 31
0.0
  0
LINE
  5
1E4
330
1D6
100
AcDbEntity
  8
0
  6
Continuous
 62
     7
370
     0
100
AcDbLine
 10
42.3471857091
 20
160.8138616108
 30
0.0
 11
42.3471857091
 21
145.6426328888
 31
0.0
  0
LINE
  5
1E5
330
1D6
100
AcDbEntity
  8
0
  6
Continuous
 62
     7
370
     0
100
AcDbLine
 10
42.3471857091
 20
145.6426328888
 30
0.0
 11
42.3471857091
 21
135.6426328888
 31
0.0
  0
MTEXT
  5
1E6
330
1D6
100
AcDbEntity
  8
0
  6
Continuous
 62
     7
370
     0
100
AcDbMText
 10
49.0328118772
 20
163.9716010244
 30
0.0
 40
2.1166666667
 41
0.0
 71
     1
 72
     1
  1

  7
SLDTEXTSTYLE0
 73
     1
 44
1.0
  0
MTEXT
  5
1E7
330
1D6
100
AcDbEntity
  8
0
  6
Continuous
 62
     7
370
     0
100
AcDbMText
 10
49.0053735816
 20
163.9716010244
 30
0.0
 40
2.1166666667
 41
0.0
 71
     1
 72
     1
  1
10.0mm
  7
SLDTEXTSTYLE0
 73
     1
 44
1.0
  0
MTEXT
  5
1E8
330
1D6
100
AcDbEntity
  8
0
  6
Continuous
 62
     7
370
     0
100
AcDbMText
 10
50.5085992304
 20
160.1792399009
 30
0.0
 40
2.1166666667
 41
0.0
 71
     1
 72
     1
  1
0.39in
  7
SLDTEXTSTYLE0
 73
     1
 44
1.0
  0
MTEXT
  5
1E9
330
1D6
100
AcDbEntity
  8
0
  6
Continuous
 62
     7
370
     0
100
AcDbMText
 10
61.3565154941
 20
163.9716010244
 30
0.0
 40
2.1166666667
 41
0.0
 71
     1
 72
     1
  1

  7
SLDTEXTSTYLE0
 73
     1
 44
1.0
  0
ENDBLK
  5
1D8
330
1D6
100
AcDbEntity
  8
0
100
AcDbBlockEnd
  0
BLOCK
  5
2C6
330
2C5
100
AcDbEntity
  8
0
100
AcDbBlockBegin
  2
_D_2
 70
     0
 10
0.0
 20
0.0
 30
0.0
  3
_D_2
  1

  0
SOLID
  5
2C8
330
2C5
100
AcDbEntity
  8
0
  6
Continuous
 62
     7
370
     0
100
AcDbTrace
 10
81.4174762179
 20
67.9269401279
 30
0.0
 11
78.2424762179
 21
68.4349401279
 31
0.0
 12
78.2424762179
 22
67.4189401279
 32
0.0
 13
78.2424762179
 23
67.4189401279
 33
0.0
  0
SOLID
  5
2C9
330
2C5
100
AcDbEntity
  8
0
  6
Continuous
 62
     7
370
     0
100
AcDbTrace
 10
84.4184762179
 20
67.9269401279
 30
0.0
 11
87.5934762179
 21
67.4189401279
 31
0.0
 12
87.5934762179
 22
68.4349401279
 32
0.0
 13
87.5934762179
 23
68.4349401279
 33
0.0
  0
LINE
  5
2CA
330
2C5
100
AcDbEntity
  8
0
  6
Continuous
 62
     7
370
     0
100
AcDbLine
 10
103.5439051069
 20
67.9269398951
 30
0.0
 11
102.9000856528
 21
67.9269398951
 31
0.0
  0
LINE
  5
2CB
330
2C5
100
AcDbEntity
  8
0
  6
Continuous
 62
     7
370
     0
100
AcDbLine
 10
102.9000856528
 20
67.9269398951
 30
0.0
 11
102.9000856528
 21
64.5637918186
 31
0.0
  0
LINE
  5
2CC
330
2C5
100
AcDbEntity
  8
0
  6
Continuous
 62
     7
370
     0
100
AcDbLine
 10
102.9000856528
 20
64.5637918186
 30
0.0
 11
103.5439051069
 21
64.5637918186
 31
0.0
  0
LINE
  5
2CD
330
2C5
100
AcDbEntity
  8
0
  6
Continuous
 62
     7
370
     0
100
AcDbLine
 10
111.3010966532
 20
67.9269398951
 30
0.0
 11
111.9449161073
 21
67.9269398951
 31
0.0
  0
LINE
  5
2CE
330
2C5
100
AcDbEntity
  8
0
  6
Continuous
 62
     7
370
     0
100
AcDbLine
 10
111.9449161073
 20
67.9269398951
 30
0.0
 11
111.9449161073
 21
64.5637918186
 31
0.0
  0
LINE
  5
2CF
330
2C5
100
AcDbEntity
  8
0
  6
Continuous
 62
     7
370
     0
100
AcDbLine
 10
111.9449161073
 20
64.5637918186
 30
0.0
 11
111.3010966532
 21
64.5637918186
 31
0.0
  0
LINE
  5
2D0
330
2C5
100
AcDbEntity
  8
0
  6
Continuous
 62
     7
370
     0
100
AcDbLine
 10
81.4174762179
 20
82.6569401279
 30
0.0
 11
81.4174762179
 21
66.1489401279
 31
0.0
  0
LINE
  5
2D1
330
2C5
100
AcDbEntity
  8
0
  6
Continuous
 62
     7
370
     0
100
AcDbLine
 10
84.4184762179
 20
82.6569401279
 30
0.0
 11
84.4184762179
 21
66.1489401279
 31
0.0
  0
LINE
  5
2D2
330
2C5
100
AcDbEntity
  8
0
  6
Continuous
 62
     7
370
     0
100
AcDbLine
 10
81.4174762179
 20
67.9269401279
 30
0.0
 11
75.0674762179
 21
67.9269401279
 31
0.0
  0
LINE
  5
2D3
330
2C5
100
AcDbEntity
  8
0
  6
Continuous
 62
     7
370
     0
100
AcDbLine
 10
84.4184762179
 20
67.9269401279
 30
0.0
 11
101.8268908093
 21
67.9269401279
 31
0.0
  0
MTEXT
  5
2D4
330
2C5
100
AcDbEntity
  8
0
  6
Continuous
 62
     7
370
     0
100
AcDbMText
 10
102.8226705115
 20
71.0846795415
 30
0.0
 40
2.1166666667
 41
0.0
 71
     1
 72
     1
  1
3.0mm
  7
SLDTEXTSTYLE0
 73
     1
 44
1.0
  0
MTEXT
  5
2D5
330
2C5
100
AcDbEntity
  8
0
  6
Continuous
 62
     7
370
     0
100
AcDbMText
 10
103.5439051069
 20
67.292318418
 30
0.0
 40
2.1166666667
 41
0.0
 71
     1
 72
     1
  1
0.12in
  7
SLDTEXTSTYLE0
 73
     1
 44
1.0
  0
MTEXT
  5
2D6
330
2C5
100
AcDbEntity
  8
0
  6
Continuous
 62
     7
370
     0
100
AcDbMText
 10
112.5887350958
 20
71.0846795415
 30
0.0
 40
2.1166666667
 41
0.0
 71
     1
 72
     1
  1
X5
  7
SLDTEXTSTYLE0
 73
     1
 44
1.0
  0
ENDBLK
  5
2C7
330
2C5
100
AcDbEntity
  8
0
100
AcDbBlockEnd
  0
BLOCK
  5
2D9
330
2D8
100
AcDbEntity
  8
0
100
AcDbBlockBegin
  2
_D_3
 70
     0
 10
0.0
 20
0.0
 30
0.0
  3
_D_3
  1

  0
SOLID
  5
2DB
330
2D8
100
AcDbEntity
  8
0
  6
Continuous
 62
     7
370
     0
100
AcDbTrace
 10
67.3864762179
 20
73.9269401279
 30
0.0
 11
64.2114762179
 21
74.4349401279
 31
0.0
 12
64.2114762179
 22
73.4189401279
 32
0.0
 13
64.2114762179
 23
73.4189401279
 33
0.0
  0
SOLID
  5
2DC
330
2D8
100
AcDbEntity
  8
0
  6
Continuous
 62
     7
370
     0
100
AcDbTrace
 10
69.3874762179
 20
73.9269401279
 30
0.0
 11
72.5624762179
 21
73.4189401279
 31
0.0
 12
72.5624762179
 22
74.4349401279
 32
0.0
 13
72.5624762179
 23
74.4349401279
 33
0.0
  0
LINE
  5
2DD
330
2D8
100
AcDbEntity
  8
0
  6
Continuous
 62
     7
370
     0
100
AcDbLine
 10
49.7583271645
 20
73.9269398951
 30
0.0
 11
49.1145077104
 21
73.9269398951
 31
0.0
  0
LINE
  5
2DE
330
2D8
100
AcDbEntity
  8
0
  6
Continuous
 62
     7
370
     0
100
AcDbLine
 10
49.1145077104
 20
73.9269398951
 30
0.0
 11
49.1145077104
 21
70.5637918186
 31
0.0
  0
LINE
  5
2DF
330
2D8
100
AcDbEntity
  8
0
  6
Continuous
 62
     7
370
     0
100
AcDbLine
 10
49.1145077104
 20
70.5637918186
 30
0.0
 11
49.7583271645
 21
70.5637918186
 31
0.0
  0
LINE
  5
2E0
330
2D8
100
AcDbEntity
  8
0
  6
Continuous
 62
     7
370
     0
100
AcDbLine
 10
57.5155187108
 20
73.9269398951
 30
0.0
 11
58.1593381649
 21
73.9269398951
 31
0.0
  0
LINE
  5
2E1
330
2D8
100
AcDbEntity
  8
0
  6
Continuous
 62
     7
370
     0
100
AcDbLine
 10
58.1593381649
 20
73.9269398951
 30
0.0
 11
58.1593381649
 21
70.5637918186
 31
0.0
  0
LINE
  5
2E2
330
2D8
100
AcDbEntity
  8
0
  6
Continuous
 62
     7
370
     0
100
AcDbLine
 10
58.1593381649
 20
70.5637918186
 30
0.0
 11
57.5155187108
 21
70.5637918186
 31
0.0
  0
LINE
  5
2E3
330
2D8
100
AcDbEntity
  8
0
  6
Continuous
 62
     7
370
     0
100
AcDbLine
 10
67.3864762179
 20
82.6569401279
 30
0.0
 11
67.3864762179
 21
72.1489401279
 31
0.0
  0
LINE
  5
2E4
330
2D8
100
AcDbEntity
  8
0
  6
Continuous
 62
     7
370
     0
100
AcDbLine
 10
69.3874762179
 20
82.6569401279
 30
0.0
 11
69.3874762179
 21
72.1489401279
 31
0.0
  0
LINE
  5
2E5
330
2D8
100
AcDbEntity
  8
0
  6
Continuous
 62
     7
370
     0
100
AcDbLine
 10
67.3864762179
 20
73.9269401279
 30
0.0
 11
60.7925951785
 21
73.9269401279
 31
0.0
  0
LINE
  5
2E6
330
2D8
100
AcDbEntity
  8
0
  6
Continuous
 62
     7
370
     0
100
AcDbLine
 10
69.3874762179
 20
73.9269401279
 30
0.0
 11
75.7374762179
 21
73.9269401279
 31
0.0
  0
MTEXT
  5
2E7
330
2D8
100
AcDbEntity
  8
0
  6
Continuous
 62
     7
370
     0
100
AcDbMText
 10
48.4981265519
 20
77.0846795415
 30
0.0
 40
2.1166666667
 41
0.0
 71
     1
 72
     1
  1

  7
SLDTEXTSTYLE0
 73
     1
 44
1.0
  0
MTEXT
  5
2E8
330
2D8
100
AcDbEntity
  8
0
  6
Continuous
 62
     7
370
     0
100
AcDbMText
 10
49.0370925691
 20
77.0846795415
 30
0.0
 40
2.1166666667
 41
0.0
 71
     1
 72
     1
  1
2.0mm
  7
SLDTEXTSTYLE0
 73
     1
 44
1.0
  0
MTEXT
  5
2E9
330
2D8
100
AcDbEntity
  8
0
  6
Continuous
 62
     7
370
     0
100
AcDbMText
 10
49.7583271645
 20
73.292318418
 30
0.0
 40
2.1166666667
 41
0.0
 71
     1
 72
     1
  1
0.08in
  7
SLDTEXTSTYLE0
 73
     1
 44
1.0
  0
MTEXT
  5
2EA
330
2D8
100
AcDbEntity
  8
0
  6
Continuous
 62
     7
370
     0
100
AcDbMText
 10
60.390657619
 20
77.0846795415
 30
0.0
 40
2.1166666667
 41
0.0
 71
     1
 72
     1
  1

  7
SLDTEXTSTYLE0
 73
     1
 44
1.0
  0
ENDBLK
  5
2DA
330
2D8
100
AcDbEntity
  8
0
100
AcDbBlockEnd
  0
BLOCK
  5
2ED
330
2EC
100
AcDbEntity
  8
0
100
AcDbBlockBegin
  2
_D_4
 70
     0
 10
0.0
 20
0.0
 30
0.0
  3
_D_4
  1

  0
SOLID
  5
2EF
330
2EC
100
AcDbEntity
  8
0
  6
Continuous
 62
     7
370
     0
100
AcDbTrace
 10
66.9854762179
 20
100.3334275621
 30
0.0
 11
70.1604762179
 21
99.8254275621
 31
0.0
 12
70.1604762179
 22
100.8414275621
 32
0.0
 13
70.1604762179
 23
100.8414275621
 33
0.0
  0
SOLID
  5
2F0
330
2EC
100
AcDbEntity
  8
0
  6
Continuous
 62
     7
370
     0
100
AcDbTrace
 10
85.0194762179
 20
100.3334275621
 30
0.0
 11
81.8444762179
 21
100.8414275621
 31
0.0
 12
81.8444762179
 22
99.8254275621
 32
0.0
 13
81.8444762179
 23
99.8254275621
 33
0.0
  0
LINE
  5
2F1
330
2EC
100
AcDbEntity
  8
0
  6
Continuous
 62
     7
370
     0
100
AcDbLine
 10
102.0411913766
 20
100.3334273293
 30
0.0
 11
101.3973719224
 21
100.3334273293
 31
0.0
  0
LINE
  5
2F2
330
2EC
100
AcDbEntity
  8
0
  6
Continuous
 62
     7
370
     0
100
AcDbLine
 10
101.3973719224
 20
100.3334273293
 30
0.0
 11
101.3973719224
 21
96.9702792528
 31
0.0
  0
LINE
  5
2F3
330
2EC
100
AcDbEntity
  8
0
  6
Continuous
 62
     7
370
     0
100
AcDbLine
 10
101.3973719224
 20
96.9702792528
 30
0.0
 11
102.0411913766
 21
96.9702792528
 31
0.0
  0
LINE
  5
2F4
330
2EC
100
AcDbEntity
  8
0
  6
Continuous
 62
     7
370
     0
100
AcDbLine
 10
109.7983829228
 20
100.3334273293
 30
0.0
 11
110.442202377
 21
100.3334273293
 31
0.0
  0
LINE
  5
2F5
330
2EC
100
AcDbEntity
  8
0
  6
Continuous
 62
     7
370
     0
100
AcDbLine
 10
110.442202377
 20
100.3334273293
 30
0.0
 11
110.442202377
 21
96.9702792528
 31
0.0
  0
LINE
  5
2F6
330
2EC
100
AcDbEntity
  8
0
  6
Continuous
 62
     7
370
     0
100
AcDbLine
 10
110.442202377
 20
96.9702792528
 30
0.0
 11
109.7983829228
 21
96.9702792528
 31
0.0
  0
LINE
  5
2F7
330
2EC
100
AcDbEntity
  8
0
  6
Continuous
 62
     7
370
     0
100
AcDbLine
 10
66.9854762179
 20
95.1969401279
 30
0.0
 11
66.9854762179
 21
102.1114275621
 31
0.0
  0
LINE
  5
2F8
330
2EC
100
AcDbEntity
  8
0
  6
Continuous
 62
     7
370
     0
100
AcDbLine
 10
85.0194762179
 20
95.1969401279
 30
0.0
 11
85.0194762179
 21
102.1114275621
 31
0.0
  0
LINE
  5
2F9
330
2EC
100
AcDbEntity
  8
0
  6
Continuous
 62
     7
370
     0
100
AcDbLine
 10
66.9854762179
 20
100.3334275621
 30
0.0
 11
85.0194762179
 21
100.3334275621
 31
0.0
  0
LINE
  5
2FA
330
2EC
100
AcDbEntity
  8
0
  6
Continuous
 62
     7
370
     0
100
AcDbLine
 10
85.0194762179
 20
100.3334275621
 30
0.0
 11
98.548528634
 21
100.3334275621
 31
0.0
  0
MTEXT
  5
2FB
330
2EC
100
AcDbEntity
  8
0
  6
Continuous
 62
     7
370
     0
100
AcDbMText
 10
100.5654040234
 20
103.4911669758
 30
0.0
 40
2.1166666667
 41
0.0
 71
     1
 72
     1
  1

  7
SLDTEXTSTYLE0
 73
     1
 44
1.0
  0
MTEXT
  5
2FC
330
2EC
100
AcDbEntity
  8
0
  6
Continuous
 62
     7
370
     0
100
AcDbMText
 10
100.5379657278
 20
103.4911669758
 30
0.0
 40
2.1166666667
 41
0.0
 71
     1
 72
     1
  1
18.0mm
  7
SLDTEXTSTYLE0
 73
     1
 44
1.0
  0
MTEXT
  5
2FD
330
2EC
100
AcDbEntity
  8
0
  6
Continuous
 62
     7
370
     0
100
AcDbMText
 10
102.0411913766
 20
99.6988058523
 30
0.0
 40
2.1166666667
 41
0.0
 71
     1
 72
     1
  1
0.71in
  7
SLDTEXTSTYLE0
 73
     1
 44
1.0
  0
MTEXT
  5
2FE
330
2EC
100
AcDbEntity
  8
0
  6
Continuous
 62
     7
370
     0
100
AcDbMText
 10
112.8891076403
 20
103.4911669758
 30
0.0
 40
2.1166666667
 41
0.0
 71
     1
 72
     1
  1

  7
SLDTEXTSTYLE0
 73
     1
 44
1.0
  0
ENDBLK
  5
2EE
330
2EC
100
AcDbEntity
  8
0
100
AcDbBlockEnd
  0
ENDSEC
  0
SECTION
  2
ENTITIES
  0
LINE
  5
81
330
1F
100
AcDbEntity
  8
0
  6
Continuous
 62
     7
370
     0
100
AcDbLine
 10
1.5793501011
 20
214.6453799966
 30
0.0
 11
277.9892068491
 21
214.6453799966
 31
0.0
  0
LINE
  5
82
330
1F
100
AcDbEntity
  8
0
  6
Continuous
 62
     7
370
     0
100
AcDbLine
 10
1.5793501011
 20
214.6453799966
 30
0.0
 11
1.5793501011
 21
0.9031642596
 31
0.0
  0
LINE
  5
83
330
1F
100
AcDbEntity
  8
0
  6
Continuous
 62
     7
370
     0
100
AcDbLine
 10
277.9892068491
 20
0.9031642596
 30
0.0
 11
1.5793501011
 21
0.9031642596
 31
0.0
  0
LINE
  5
84
330
1F
100
AcDbEntity
  8
0
  6
Continuous
 62
     7
370
     0
100
AcDbLine
 10
277.9892068491
 20
0.9031642596
 30
0.0
 11
277.9892068491
 21
214.6453799966
 31
0.0
  0
LINE
  5
85
330
1F
100
AcDbEntity
  8
0
  6
Continuous
 62
     7
370
     0
100
AcDbLine
 10
215.7427640041
 20
12.2958890132
 30
0.0
 11
171.6327596684
 21
12.2958890132
 31
0.0
  0
LINE
  5
86
330
1F
100
AcDbEntity
  8
0
  6
Continuous
 62
     7
370
     0
100
AcDbLine
 10
171.6327596684
 20
12.2958890132
 30
0.0
 11
171.6327596684
 21
26.1661402506
 31
0.0
  0
LINE
  5
87
330
1F
100
AcDbEntity
  8
0
  6
Continuous
 62
     7
370
     0
100
AcDbLine
 10
171.6327596684
 20
0.9031642596
 30
0.0
 11
171.6327596684
 21
26.1661402506
 31
0.0
  0
LINE
  5
88
330
1F
100
AcDbEntity
  8
0
  6
Continuous
 62
     7
370
     0
100
AcDbLine
 10
215.7427640041
 20
17.1604579552
 30
0.0
 11
277.9892068491
 21
17.1604579552
 31
0.0
  0
LINE
  5
89
330
1F
100
AcDbEntity
  8
0
  6
Continuous
 62
     7
370
     0
100
AcDbLine
 10
215.7427640041
 20
35.2394508358
 30
0.0
 11
215.7427640041
 21
0.9031642596
 31
0.0
  0
LINE
  5
8A
330
1F
100
AcDbEntity
  8
0
  6
Continuous
 62
     7
370
     0
100
AcDbLine
 10
215.7427640041
 20
26.1661402506
 30
0.0
 11
171.6327596684
 21
26.1661402506
 31
0.0
  0
LINE
  5
8B
330
1F
100
AcDbEntity
  8
0
  6
Continuous
 62
     7
370
     0
100
AcDbLine
 10
215.7427640041
 20
9.1409200612
 30
0.0
 11
277.9892068491
 21
9.1409200612
 31
0.0
  0
LINE
  5
8C
330
1F
100
AcDbEntity
  8
0
  6
Continuous
 62
     7
370
     0
100
AcDbLine
 10
215.7427640041
 20
16.9216824031
 30
0.0
 11
171.6327596684
 21
16.9216824031
 31
0.0
  0
LINE
  5
8D
330
1F
100
AcDbEntity
  8
0
  6
Continuous
 62
     7
370
     0
100
AcDbLine
 10
215.7427640041
 20
21.4874005542
 30
0.0
 11
171.6327596684
 21
21.4874005542
 31
0.0
  0
LINE
  5
8E
330
1F
100
AcDbEntity
  8
0
  6
Continuous
 62
     7
370
     0
100
AcDbLine
 10
186.1338100705
 20
26.1661402506
 30
0.0
 11
186.1338100705
 21
12.2958890132
 31
0.0
  0
LINE
  5
8F
330
1F
100
AcDbEntity
  8
0
  6
Continuous
 62
     7
370
     0
100
AcDbLine
 10
198.2145906188
 20
26.1661402506
 30
0.0
 11
198.2145906188
 21
12.2958890132
 31
0.0
  0
LINE
  5
90
330
1F
100
AcDbEntity
  8
0
  6
Continuous
 62
     7
370
     0
100
AcDbLine
 10
253.7490408369
 20
9.1409200612
 30
0.0
 11
253.7490408369
 21
0.9031642596
 31
0.0
  0
LINE
  5
91
330
1F
100
AcDbEntity
  8
0
  6
Continuous
 62
     7
370
     0
100
AcDbLine
 10
171.6327596684
 20
12.2958890132
 30
0.0
 11
171.6327596684
 21
7.5627342528
 31
0.0
  0
LINE
  5
92
330
1F
100
AcDbEntity
  8
0
  6
Continuous
 62
     7
370
     0
100
AcDbLine
 10
171.6327596684
 20
7.5627342528
 30
0.0
 11
215.7427640041
 21
7.5627342528
 31
0.0
  0
LINE
  5
93
330
1F
100
AcDbEntity
  8
0
  6
Continuous
 62
     7
370
     0
100
AcDbLine
 10
171.6327596684
 20
7.5627342528
 30
0.0
 11
171.6327596684
 21
35.2394508358
 31
0.0
  0
LINE
  5
94
330
1F
100
AcDbEntity
  8
0
  6
Continuous
 62
     7
370
     0
100
AcDbLine
 10
171.6327596684
 20
35.2394508358
 30
0.0
 11
215.7427640041
 21
35.2394508358
 31
0.0
  0
LINE
  5
95
330
1F
100
AcDbEntity
  8
0
  6
Continuous
 62
     7
370
     0
100
AcDbLine
 10
270.1683598194
 20
17.1604579552
 30
0.0
 11
270.1683598194
 21
9.1409200612
 31
0.0
  0
LINE
  5
96
330
1F
100
AcDbEntity
  8
0
  6
Continuous
 62
     7
370
     0
100
AcDbLine
 10
215.7427640041
 20
35.2394508358
 30
0.0
 11
277.9892068491
 21
35.2394508358
 31
0.0
  0
LINE
  5
97
330
1F
100
AcDbEntity
  8
0
  6
Continuous
 62
     7
370
     0
100
AcDbLine
 10
277.9892068491
 20
35.2394508358
 30
0.0
 11
277.9892068491
 21
50.0331356147
 31
0.0
  0
LINE
  5
98
330
1F
100
AcDbEntity
  8
0
  6
Continuous
 62
     7
370
     0
100
AcDbLine
 10
215.7427640041
 20
24.8927335446
 30
0.0
 11
277.9892068491
 21
24.8927335446
 31
0.0
  0
INSERT
  5
99
330
1F
100
AcDbEntity
  8
0
  6
Continuous
 62
     7
100
AcDbBlockReference
  2
Third Angle Projection Block
 10
117.7262204235
 20
15.5162339489
 30
0.0
 41
0.8
 42
0.8
 43
0.8
  0
MTEXT
  5
9B
330
1F
100
AcDbEntity
  8
0
  6
Continuous
 62
     7
370
     0
100
AcDbMText
 10
274.1458225539
 20
13.2559386876
 30
0.0
 40
3.175
 41
0.0
 71
     2
 72
     1
  1
A
  7
SLDTEXTSTYLE0
 73
     1
 44
1.0
  0
MTEXT
  5
9C
330
1F
100
AcDbEntity
  8
0
  6
Continuous
 62
     7
370
     0
100
AcDbMText
 10
234.7523759103
 20
5.1306563898
 30
0.0
 40
3.175
 41
0.0
 71
     2
 72
     1
  1
PK4HQP2
  7
SLDTEXTSTYLE0
 73
     1
 44
1.0
  0
MTEXT
  5
9D
330
1F
100
AcDbEntity
  8
0
  6
Continuous
 62
     7
370
     0
100
AcDbMText
 10
216.4199766059
 20
16.8243178599
 30
0.0
 40
2.1166666667
 41
0.0
 71
     1
 72
     1
  1
MATERIAL
  7
SLDTEXTSTYLE0
 73
     1
 44
1.0
  0
MTEXT
  5
9E
330
1F
100
AcDbEntity
  8
0
  6
Continuous
 62
     7
370
     0
100
AcDbMText
 10
174.230946566
 20
20.054553926
 30
0.0
 40
1.8520833333
 41
0.0
 71
     1
 72
     1
  1
DRAWN
  7
SLDTEXTSTYLE0
 73
     1
 44
1.0
  0
MTEXT
  5
9F
330
1F
100
AcDbEntity
  8
0
  6
Continuous
 62
     7
370
     0
100
AcDbMText
 10
172.3960124543
 20
15.5787169747
 30
0.0
 40
1.8520833333
 41
0.0
 71
     1
 72
     1
  1
APPROVAL
  7
SLDTEXTSTYLE0
 73
     1
 44
1.0
  0
MTEXT
  5
A0
330
1F
100
AcDbEntity
  8
0
  6
Continuous
 62
     7
370
     0
100
AcDbMText
 10
271.7160653675
 20
16.1671746307
 30
0.0
 40
2.1166666667
 41
0.0
 71
     1
 72
     1
  1
REV
  7
SLDTEXTSTYLE0
 73
     1
 44
1.0
  0
MTEXT
  5
A1
330
1F
100
AcDbEntity
  8
0
  6
Continuous
 62
     7
370
     0
100
AcDbMText
 10
190.2958696448
 20
20.3177146903
 30
0.0
 40
2.1166666667
 41
0.0
 71
     1
 72
     1
  1
MK
  7
SLDTEXTSTYLE0
 73
     1
 44
1.0
  0
MTEXT
  5
A2
330
1F
100
AcDbEntity
  8
0
  6
Continuous
 62
     7
370
     0
100
AcDbMText
 10
190.2958696448
 20
15.841877739
 30
0.0
 40
2.1166666667
 41
0.0
 71
     1
 72
     1
  1
SS
  7
SLDTEXTSTYLE0
 73
     1
 44
1.0
  0
MTEXT
  5
A3
330
1F
100
AcDbEntity
  8
0
  6
Continuous
 62
     7
370
     0
100
AcDbMText
 10
199.8662436873
 20
20.3177146903
 30
0.0
 40
2.1166666667
 41
0.0
 71
     1
 72
     1
  1
SEP/7/16
  7
SLDTEXTSTYLE0
 73
     1
 44
1.0
  0
MTEXT
  5
A4
330
1F
100
AcDbEntity
  8
0
  6
Continuous
 62
     7
370
     0
100
AcDbMText
 10
203.6145073853
 20
24.8221395769
 30
0.0
 40
2.1166666667
 41
0.0
 71
     1
 72
     1
  1
DATE
  7
SLDTEXTSTYLE0
 73
     1
 44
1.0
  0
MTEXT
  5
A5
330
1F
100
AcDbEntity
  8
0
  6
Continuous
 62
     7
370
     0
100
AcDbMText
 10
199.8662436873
 20
15.841877739
 30
0.0
 40
2.1166666667
 41
0.0
 71
     1
 72
     1
  1
SEP/7/16
  7
SLDTEXTSTYLE0
 73
     1
 44
1.0
  0
MTEXT
  5
A7
330
1F
100
AcDbEntity
  8
0
  6
Continuous
 62
     7
370
     0
100
AcDbMText
 10
229.402906477
 20
27.7957480569
 30
0.0
 40
2.1166666667
 41
0.0
 71
     1
 72
     1
  1
w w w . t h o r  l a b s . c o m
  7
SLDTEXTSTYLE1
 73
     1
 44
1.0
  0
MTEXT
  5
A8
330
1F
100
AcDbEntity
  8
0
  6
Continuous
 62
     7
370
     0
100
AcDbMText
 10
216.7004035316
 20
8.3494791871
 30
0.0
 40
2.1166666667
 41
0.0
 71
     1
 72
     1
  1
ITEM #
  7
SLDTEXTSTYLE0
 73
     1
 44
1.0
  0
MTEXT
  5
A9
330
1F
100
AcDbEntity
  8
0
  6
Continuous
 62
     7
370
     0
100
AcDbMText
 10
254.5318000914
 20
8.3494791871
 30
0.0
 40
2.1166666667
 41
0.0
 71
     1
 72
     1
  1
APPROX WEIGHT
  7
SLDTEXTSTYLE0
 73
     1
 44
1.0
  0
MTEXT
  5
AA
330
1F
100
AcDbEntity
  8
0
  6
Continuous
 62
     7
370
     0
100
AcDbMText
 10
243.4273448343
 20
13.8247651814
 30
0.0
 40
3.175
 41
0.0
 71
     2
 72
     1
  1
N/A
  7
SLDTEXTSTYLE0
 73
     1
 44
1.0
  0
MTEXT
  5
AB
330
1F
100
AcDbEntity
  8
0
  6
Continuous
 62
     7
370
     0
100
AcDbMText
 10
266.1553537756
 20
5.1306563898
 30
0.0
 40
3.175
 41
0.0
 71
     2
 72
     1
  1
13.85 g
  7
SLDTEXTSTYLE0
 73
     1
 44
1.0
  0
INSERT
  5
B1
330
1F
100
AcDbEntity
  8
0
  6
Continuous
 62
     7
370
     0
100
AcDbBlockReference
  2
SW_NOTE_0
 10
174.8430140051
 20
4.4558554801
 30
0.0
  0
INSERT
  5
B7
330
1F
100
AcDbEntity
  8
0
  6
Continuous
 62
     7
370
     0
100
AcDbBlockReference
  2
SW_NOTE_1
 10
174.5483650337
 20
30.4835322715
 30
0.0
  0
MTEXT
  5
B8
330
1F
100
AcDbEntity
  8
0
  6
Continuous
 62
     7
370
     0
100
AcDbMText
 10
187.9273588276
 20
24.8221395769
 30
0.0
 40
2.1166666667
 41
0.0
 71
     1
 72
     1
  1
NAME
  7
SLDTEXTSTYLE0
 73
     1
 44
1.0
  0
INSERT
  5
BE
330
1F
100
AcDbEntity
  8
0
  6
Continuous
 62
     7
370
     0
100
AcDbBlockReference
  2
SW_NOTE_2
 10
58.6204667508
 20
8.1776609732
 30
0.0
  0
MTEXT
  5
BF
330
1F
100
AcDbEntity
  8
0
  6
Continuous
 62
     7
370
     0
100
AcDbMText
 10
247.9526769634
 20
22.4581719825
 30
0.0
 40
3.175
 41
0.0
 71
     2
 72
     1
  1
PIEZO ACTUATOR STACK
  7
SLDTEXTSTYLE0
 73
     1
 44
1.0
  0
MTEXT
  5
C0
330
1F
100
AcDbEntity
  8
0
  6
Continuous
 62
     7
370
     0
100
AcDbMText
 10
177.6925831922
 20
10.7142101515
 30
0.0
 40
1.5875
 41
0.0
 71
     1
 72
     1
  1
COPYRIGHT © 2016 BY THORLABS
  7
SLDTEXTSTYLE0
 73
     1
 44
1.0
  0
LINE
  5
C1
330
1F
100
AcDbEntity
  8
0
  6
Continuous
 62
     7
370
     0
100
AcDbLine
 10
73.9204255345
 20
145.6436328888
 30
0.0
 11
73.9204255345
 21
145.7286328888
 31
0.0
  0
LINE
  5
C2
330
1F
100
AcDbEntity
  8
0
  6
Continuous
 62
     7
370
     0
100
AcDbLine
 10
72.8204255345
 20
145.7286328888
 30
0.0
 11
72.8204255345
 21
145.6436328888
 31
0.0
  0
ARC
  5
C3
330
1F
100
AcDbEntity
  8
0
  6
Continuous
 62
     7
370
     0
100
AcDbCircle
 10
67.8594255345
 20
144.5282162221
 30
0.0
 40
1.320416666666688
100
AcDbArc
 50
65.3839683651
 51
90.0
  0
ARC
  5
C4
330
1F
100
AcDbEntity
  8
0
  6
Continuous
 62
     7
370
     0
100
AcDbCircle
 10
67.8594255345
 20
144.5282162221
 30
0.0
 40
1.320416666666688
100
AcDbArc
 50
90.0
 51
114.6160316349
  0
LINE
  5
C5
330
1F
100
AcDbEntity
  8
0
  6
Continuous
 62
     7
370
     0
100
AcDbLine
 10
68.4094255345
 20
145.6436328888
 30
0.0
 11
68.4094255345
 21
145.7286328888
 31
0.0
  0
LINE
  5
C6
330
1F
100
AcDbEntity
  8
0
  6
Continuous
 62
     7
370
     0
100
AcDbLine
 10
67.3094255345
 20
145.7286328888
 30
0.0
 11
67.3094255345
 21
145.6436328888
 31
0.0
  0
ARC
  5
C7
330
1F
100
AcDbEntity
  8
0
  6
Continuous
 62
     7
370
     0
100
AcDbCircle
 10
73.3704255345
 20
144.5282162221
 30
0.0
 40
1.320416666666688
100
AcDbArc
 50
65.3839683651
 51
90.0
  0
ARC
  5
C8
330
1F
100
AcDbEntity
  8
0
  6
Continuous
 62
     7
370
     0
100
AcDbCircle
 10
73.3704255345
 20
144.5282162221
 30
0.0
 40
1.320416666666688
100
AcDbArc
 50
90.0
 51
114.6160316349
  0
LINE
  5
C9
330
1F
100
AcDbEntity
  8
0
  6
Continuous
 62
     7
370
     0
100
AcDbLine
 10
79.9404255345
 20
145.6436328888
 30
0.0
 11
79.9404255345
 21
145.7286328888
 31
0.0
  0
LINE
  5
CA
330
1F
100
AcDbEntity
  8
0
  6
Continuous
 62
     7
370
     0
100
AcDbLine
 10
78.8404255345
 20
145.7286328888
 30
0.0
 11
78.8404255345
 21
145.6436328888
 31
0.0
  0
ARC
  5
CB
330
1F
100
AcDbEntity
  8
0
  6
Continuous
 62
     7
370
     0
100
AcDbCircle
 10
79.3904255345
 20
144.5282162221
 30
0.0
 40
1.320416666666685
100
AcDbArc
 50
65.3839683651
 51
67.9335002142
  0
ARC
  5
CC
330
1F
100
AcDbEntity
  8
0
  6
Continuous
 62
     7
370
     0
100
AcDbCircle
 10
79.3904255345
 20
144.5282162221
 30
0.0
 40
1.320416666666681
100
AcDbArc
 50
103.6181663752
 51
114.6160316349
  0
SPLINE
  5
CD
330
1F
100
AcDbEntity
  8
0
  6
Continuous
 62
     7
370
     0
100
AcDbSpline
210
0.0
220
0.0
230
1.0
 70
     8
 71
     3
 72
    21
 73
    17
 74
     0
 42
0.000000001
 43
0.00000001
 40
0.0
 40
0.0
 40
0.0
 40
0.0
 40
0.0928362200323353
 40
0.180633066985587
 40
0.2573458234475947
 40
0.3239955981889681
 40
0.3985219310666742
 40
0.4578333525110354
 40
0.5058302785173815
 40
0.5644740154409408
 40
0.637880442300565
 40
0.7263131274087571
 40
0.8030474295319928
 40
0.8895113406876722
 40
0.9863823880333338
 40
1.0
 40
1.0
 40
1.0
 40
1.0
 10
79.88819955537463
 20
145.749986756868
 30
0.0
 10
79.9884169864243
 20
145.8835361573188
 30
0.0
 10
80.18341180557587
 20
146.1433855758873
 30
0.0
 10
80.49118094151095
 20
146.4895199872163
 30
0.0
 10
80.78511968051403
 20
146.78361117233
 30
0.0
 10
81.07855237156812
 20
147.0434767140154
 30
0.0
 10
81.36290096450841
 20
147.2654597803953
 30
0.0
 10
81.63280761207183
 20
147.4502279282486
 30
0.0
 10
81.88750374581416
 20
147.6058302111161
 30
0.0
 10
82.17242015848736
 20
147.7598614994438
 30
0.0
 10
82.53314528219505
 20
147.9250835638744
 30
0.0
 10
82.93696489179361
 20
148.0713780352503
 30
0.0
 10
83.37386337099288
 20
148.1905240653352
 30
0.0
 10
83.8336832473697
 20
148.2772453149462
 30
0.0
 10
84.18631543366975
 20
148.3166786301441
 30
0.0
 10
84.3848177969663
 20
148.3243241410929
 30
0.0
 10
84.40928300610778
 20
148.3252664423394
 30
0.0
  0
SPLINE
  5
CE
330
1F
100
AcDbEntity
  8
0
  6
Continuous
 62
     7
370
     0
100
AcDbSpline
210
0.0
220
0.0
230
1.0
 70
     8
 71
     3
 72
    21
 73
    17
 74
     0
 42
0.000000001
 43
0.00000001
 40
0.0
 40
0.0
 40
0.0
 40
0.0
 40
0.0793624450898797
 40
0.1573133502913406
 40
0.2255742352164
 40
0.2851893049173487
 40
0.3518483187942975
 40
0.4042901241999236
 40
0.4490501266529676
 40
0.5057313842702441
 40
0.5760237105593004
 40
0.6606043766139659
 40
0.734139698842959
 40
0.8171359060102396
 40
0.9105607107942904
 40
1.0
 40
1.0
 40
1.0
 40
1.0
 10
84.40564072506417
 20
149.0234451399892
 30
0.0
 10
84.23453601477992
 20
149.0137901124728
 30
0.0
 10
83.8953698613813
 20
148.9946517816913
 30
0.0
 10
83.41496139166081
 20
148.911286872038
 30
0.0
 10
82.98224790068274
 20
148.8104329848806
 30
0.0
 10
82.58084081605313
 20
148.6865622274551
 30
0.0
 10
82.22036925569992
 20
148.5486632975588
 30
0.0
 10
81.89871435498097
 20
148.4014100013252
 30
0.0
 10
81.60424141309382
 20
148.2477331682247
 30
0.0
 10
81.28518930657765
 20
148.0588297183593
 30
0.0
 10
80.90819287472318
 20
147.8007470849355
 30
0.0
 10
80.52373138123824
 20
147.4914774604808
 30
0.0
 10
80.14312940666935
 20
147.1361843380612
 30
0.0
 10
79.77537770939999
 20
146.7412001171324
 30
0.0
 10
79.41174533172635
 20
146.2965261949304
 30
0.0
 10
79.19027508781825
 20
145.9697742913208
 30
0.0
 10
79.08195343339622
 20
145.8099591118187
 30
0.0
  0
LINE
  5
CF
330
1F
100
AcDbEntity
  8
0
  6
Continuous
 62
     7
370
     0
100
AcDbLine
 10
84.4092319993
 20
148.3263261463
 30
0.0
 11
159.6807239805
 21
148.3263261463
 31
0.0
  0
LINE
  5
D0
330
1F
100
AcDbEntity
  8
0
  6
Continuous
 62
     7
370
     0
100
AcDbLine
 10
159.2137961804
 20
149.0245943108
 30
0.0
 11
84.4055880469
 21
149.0245943108
 31
0.0
  0
LINE
  5
D1
330
1F
100
AcDbEntity
  8
0
  6
Continuous
 62
     7
370
     0
100
AcDbLine
 10
78.9311855557
 20
145.7586328888
 30
0.0
 11
76.5568817759
 21
145.7586328888
 31
0.0
  0
LINE
  5
D2
330
1F
100
AcDbEntity
  8
0
  6
Continuous
 62
     7
370
     0
100
AcDbLine
 10
82.2154256422
 20
145.7586328888
 30
0.0
 11
79.894882056
 21
145.7586328888
 31
0.0
  0
LINE
  5
D3
330
1F
100
AcDbEntity
  8
0
  6
Continuous
 62
     7
370
     0
100
AcDbLine
 10
76.2039692932
 20
145.7586328888
 30
0.0
 11
73.8042265508
 21
145.7586328888
 31
0.0
  0
LINE
  5
D4
330
1F
100
AcDbEntity
  8
0
  6
Continuous
 62
     7
370
     0
100
AcDbLine
 10
72.9111855557
 20
145.7586328888
 30
0.0
 11
70.5368817759
 21
145.7586328888
 31
0.0
  0
LINE
  5
D5
330
1F
100
AcDbEntity
  8
0
  6
Continuous
 62
     7
370
     0
100
AcDbLine
 10
70.2106306776
 20
145.7586328888
 30
0.0
 11
68.2932265508
 21
145.7586328888
 31
0.0
  0
ARC
  5
D6
330
1F
100
AcDbEntity
  8
0
  6
Continuous
 62
     7
370
     0
100
AcDbCircle
 10
70.3604255345
 20
144.5282162221
 30
0.0
 40
1.320416666666688
100
AcDbArc
 50
65.3839683651
 51
90.0
  0
ARC
  5
D7
330
1F
100
AcDbEntity
  8
0
  6
Continuous
 62
     7
370
     0
100
AcDbCircle
 10
70.3604255345
 20
144.5282162221
 30
0.0
 40
1.320416666666688
100
AcDbArc
 50
90.0
 51
114.6160316349
  0
ARC
  5
D8
330
1F
100
AcDbEntity
  8
0
  6
Continuous
 62
     7
370
     0
100
AcDbCircle
 10
76.3804255345
 20
144.5282162221
 30
0.0
 40
1.320416666666688
100
AcDbArc
 50
65.3839683651
 51
90.0
  0
ARC
  5
D9
330
1F
100
AcDbEntity
  8
0
  6
Continuous
 62
     7
370
     0
100
AcDbCircle
 10
76.3804255345
 20
144.5282162221
 30
0.0
 40
1.320416666666688
100
AcDbArc
 50
90.0
 51
114.6160316349
  0
ARC
  5
DA
330
1F
100
AcDbEntity
  8
0
  6
Continuous
 62
     7
370
     0
100
AcDbCircle
 10
82.3914255345
 20
144.5282162221
 30
0.0
 40
1.320416666666688
100
AcDbArc
 50
65.3839683651
 51
90.0
  0
ARC
  5
DB
330
1F
100
AcDbEntity
  8
0
  6
Continuous
 62
     7
370
     0
100
AcDbCircle
 10
82.3914255345
 20
144.5282162221
 30
0.0
 40
1.320416666666688
100
AcDbArc
 50
90.0
 51
114.6160316349
  0
LINE
  5
DC
330
1F
100
AcDbEntity
  8
0
  6
Continuous
 62
     7
370
     0
100
AcDbLine
 10
82.9414255345
 20
145.6436328888
 30
0.0
 11
82.9414255345
 21
145.7286328888
 31
0.0
  0
LINE
  5
DD
330
1F
100
AcDbEntity
  8
0
  6
Continuous
 62
     7
370
     0
100
AcDbLine
 10
81.8414255345
 20
145.7286328888
 30
0.0
 11
81.8414255345
 21
145.6436328888
 31
0.0
  0
LINE
  5
DE
330
1F
100
AcDbEntity
  8
0
  6
Continuous
 62
     7
370
     0
100
AcDbLine
 10
70.9104255345
 20
145.6436328888
 30
0.0
 11
70.9104255345
 21
145.7286328888
 31
0.0
  0
LINE
  5
DF
330
1F
100
AcDbEntity
  8
0
  6
Continuous
 62
     7
370
     0
100
AcDbLine
 10
69.8104255345
 20
145.7286328888
 30
0.0
 11
69.8104255345
 21
145.6436328888
 31
0.0
  0
LINE
  5
E0
330
1F
100
AcDbEntity
  8
0
  6
Continuous
 62
     7
370
     0
100
AcDbLine
 10
76.9304255345
 20
145.6436328888
 30
0.0
 11
76.9304255345
 21
145.7286328888
 31
0.0
  0
LINE
  5
E1
330
1F
100
AcDbEntity
  8
0
  6
Continuous
 62
     7
370
     0
100
AcDbLine
 10
75.8304255345
 20
145.7286328888
 30
0.0
 11
75.8304255345
 21
145.6436328888
 31
0.0
  0
LINE
  5
E2
330
1F
100
AcDbEntity
  8
0
  6
Continuous
 62
     7
370
     0
100
AcDbLine
 10
67.3094255345
 20
135.6416328888
 30
0.0
 11
67.3094255345
 21
135.5566328888
 31
0.0
  0
LINE
  5
E3
330
1F
100
AcDbEntity
  8
0
  6
Continuous
 62
     7
370
     0
100
AcDbLine
 10
68.4094255345
 20
135.5566328888
 30
0.0
 11
68.4094255345
 21
135.6416328888
 31
0.0
  0
LINE
  5
E4
330
1F
100
AcDbEntity
  8
0
  6
Continuous
 62
     7
370
     0
100
AcDbLine
 10
72.8204255345
 20
135.6416328888
 30
0.0
 11
72.8204255345
 21
135.5566328888
 31
0.0
  0
LINE
  5
E5
330
1F
100
AcDbEntity
  8
0
  6
Continuous
 62
     7
370
     0
100
AcDbLine
 10
73.9204255345
 20
135.5566328888
 30
0.0
 11
73.9204255345
 21
135.6416328888
 31
0.0
  0
ARC
  5
E6
330
1F
100
AcDbEntity
  8
0
  6
Continuous
 62
     7
370
     0
100
AcDbCircle
 10
73.3704255345
 20
136.7570495554
 30
0.0
 40
1.320416666666681
100
AcDbArc
 50
245.3839683651
 51
294.6160316349
  0
ARC
  5
E7
330
1F
100
AcDbEntity
  8
0
  6
Continuous
 62
     7
370
     0
100
AcDbCircle
 10
67.8594255345
 20
136.7570495554
 30
0.0
 40
1.320416666666687
100
AcDbArc
 50
245.3839683651
 51
294.6160316349
  0
LINE
  5
E8
330
1F
100
AcDbEntity
  8
0
  6
Continuous
 62
     7
370
     0
100
AcDbLine
 10
78.8404255345
 20
135.6416328888
 30
0.0
 11
78.8404255345
 21
135.5566328888
 31
0.0
  0
LINE
  5
E9
330
1F
100
AcDbEntity
  8
0
  6
Continuous
 62
     7
370
     0
100
AcDbLine
 10
79.9404255345
 20
135.5566328888
 30
0.0
 11
79.9404255345
 21
135.6416328888
 31
0.0
  0
ARC
  5
EA
330
1F
100
AcDbEntity
  8
0
  6
Continuous
 62
     7
370
     0
100
AcDbCircle
 10
79.3904255345
 20
136.7570495554
 30
0.0
 40
1.320416666666681
100
AcDbArc
 50
292.0614343588
 51
294.6160316349
  0
ARC
  5
EB
330
1F
100
AcDbEntity
  8
0
  6
Continuous
 62
     7
370
     0
100
AcDbCircle
 10
79.3904255345
 20
136.7570495554
 30
0.0
 40
1.320416666666681
100
AcDbArc
 50
245.3839683651
 51
256.3852059722
  0
SPLINE
  5
EC
330
1F
100
AcDbEntity
  8
0
  6
Continuous
 62
     7
370
     0
100
AcDbSpline
210
0.0
220
0.0
230
1.0
 70
     8
 71
     3
 72
    21
 73
    17
 74
     0
 42
0.000000001
 43
0.00000001
 40
0.0
 40
0.0
 40
0.0
 40
0.0
 40
0.0870854532020623
 40
0.1761700624345794
 40
0.2529405035109912
 40
0.3183931323511575
 40
0.3732540714860391
 40
0.4180225207780552
 40
0.456142915469153
 40
0.5113522496143675
 40
0.5804796809387834
 40
0.6636834696320857
 40
0.7356901114094061
 40
0.8164603177284636
 40
0.9071795582550084
 40
1.0
 40
1.0
 40
1.0
 40
1.0
 10
79.08188711279234
 20
135.4752580381948
 30
0.0
 10
79.18727966756575
 20
135.319604743277
 30
0.0
 10
79.40048419566858
 20
135.0047249364256
 30
0.0
 10
79.7449307996688
 20
134.5805181033358
 30
0.0
 10
80.08224630273533
 20
134.2123327111621
 30
0.0
 10
80.38887136680611
 20
133.9172884203235
 30
0.0
 10
80.65881658222848
 20
133.6846596233868
 30
0.0
 10
80.89308742888889
 20
133.5015802026231
 30
0.0
 10
81.13525468602222
 20
133.3278436382363
 30
0.0
 10
81.42957198837689
 20
133.1370889478702
 30
0.0
 10
81.82070118917234
 20
132.9182029848496
 30
0.0
 10
82.26148154133311
 20
132.7165980567652
 30
0.0
 10
82.7408686565292
 20
132.5433204869124
 30
0.0
 10
83.24861042897099
 20
132.406796855331
 30
0.0
 10
83.80994980733983
 20
132.298927726
 30
0.0
 10
84.2055868332812
 20
132.2744748231808
 30
0.0
 10
84.40567001455328
 20
132.2621084007617
 30
0.0
  0
SPLINE
  5
ED
330
1F
100
AcDbEntity
  8
0
  6
Continuous
 62
     7
370
     0
100
AcDbSpline
210
0.0
220
0.0
230
1.0
 70
     8
 71
     3
 72
    21
 73
    17
 74
     0
 42
0.000000001
 43
0.00000001
 40
0.0
 40
0.0
 40
0.0
 40
0.0
 40
0.0115722265314154
 40
0.103949428378522
 40
0.1835747525073937
 40
0.2510744847598766
 40
0.3071233545220929
 40
0.3520652677736469
 40
0.3929209789585805
 40
0.4532619229588808
 40
0.5282943144218128
 40
0.619064955638677
 40
0.6984678526025819
 40
0.7886860151505383
 40
0.8910717404065467
 40
1.0
 40
1.0
 40
1.0
 40
1.0
 10
84.4092754803465
 20
132.9598187148357
 30
0.0
 10
84.3884853651243
 20
132.9606219415453
 30
0.0
 10
84.20173473529488
 20
132.9678370575897
 30
0.0
 10
83.87295354745336
 20
133.0031183535058
 30
0.0
 10
83.44886465186127
 20
133.0791765118331
 30
0.0
 10
83.09454915360703
 20
133.1692080341566
 30
0.0
 10
82.80582888966694
 20
133.2613659610781
 30
0.0
 10
82.56703549852928
 20
133.3511369227796
 30
0.0
 10
82.32526232857704
 20
133.4541554244862
 30
0.0
 10
82.04031568803286
 20
133.5931421751293
 30
0.0
 10
81.68744863629335
 20
133.7958558606908
 30
0.0
 10
81.32375908906506
 20
134.0460079654503
 30
0.0
 10
80.95960484152423
 20
134.3408563425462
 30
0.0
 10
80.60333834874797
 20
134.676391807351
 30
0.0
 10
80.2354451673324
 20
135.0756800489824
 30
0.0
 10
80.00642022426781
 20
135.3790446444677
 30
0.0
 10
79.88836230931585
 20
135.5354232080162
 30
0.0
  0
LINE
  5
EE
330
1F
100
AcDbEntity
  8
0
  6
Continuous
 62
     7
370
     0
100
AcDbLine
 10
84.4055880469
 20
132.2606714668
 30
0.0
 11
159.2137961804
 21
132.2606714668
 31
0.0
  0
LINE
  5
EF
330
1F
100
AcDbEntity
  8
0
  6
Continuous
 62
     7
370
     0
100
AcDbLine
 10
159.6807239805
 20
132.9589396312
 30
0.0
 11
84.4092319993
 21
132.9589396312
 31
0.0
  0
LINE
  5
F0
330
1F
100
AcDbEntity
  8
0
  6
Continuous
 62
     7
370
     0
100
AcDbLine
 10
76.5568817759
 20
135.5266328888
 30
0.0
 11
78.946465537
 21
135.5266328888
 31
0.0
  0
LINE
  5
F1
330
1F
100
AcDbEntity
  8
0
  6
Continuous
 62
     7
370
     0
100
AcDbLine
 10
79.8952335495
 20
135.5266328888
 30
0.0
 11
82.2154256422
 21
135.5266328888
 31
0.0
  0
LINE
  5
F2
330
1F
100
AcDbEntity
  8
0
  6
Continuous
 62
     7
370
     0
100
AcDbLine
 10
73.848760581
 20
135.5266328888
 30
0.0
 11
76.2039692932
 21
135.5266328888
 31
0.0
  0
LINE
  5
F3
330
1F
100
AcDbEntity
  8
0
  6
Continuous
 62
     7
370
     0
100
AcDbLine
 10
70.5368817759
 20
135.5266328888
 30
0.0
 11
72.926465537
 21
135.5266328888
 31
0.0
  0
LINE
  5
F4
330
1F
100
AcDbEntity
  8
0
  6
Continuous
 62
     7
370
     0
100
AcDbLine
 10
68.337760581
 20
135.5266328888
 30
0.0
 11
70.2106306776
 21
135.5266328888
 31
0.0
  0
ARC
  5
F5
330
1F
100
AcDbEntity
  8
0
  6
Continuous
 62
     7
370
     0
100
AcDbCircle
 10
70.3604255345
 20
136.7570495554
 30
0.0
 40
1.320416666666687
100
AcDbArc
 50
245.3839683651
 51
294.6160316349
  0
ARC
  5
F6
330
1F
100
AcDbEntity
  8
0
  6
Continuous
 62
     7
370
     0
100
AcDbCircle
 10
76.3804255345
 20
136.7570495554
 30
0.0
 40
1.320416666666687
100
AcDbArc
 50
245.3839683651
 51
294.6160316349
  0
ARC
  5
F7
330
1F
100
AcDbEntity
  8
0
  6
Continuous
 62
     7
370
     0
100
AcDbCircle
 10
82.3914255345
 20
136.7570495554
 30
0.0
 40
1.320416666666681
100
AcDbArc
 50
245.3839683651
 51
294.6160316349
  0
LINE
  5
F8
330
1F
100
AcDbEntity
  8
0
  6
Continuous
 62
     7
370
     0
100
AcDbLine
 10
81.8414255345
 20
135.6416328888
 30
0.0
 11
81.8414255345
 21
135.5566328888
 31
0.0
  0
LINE
  5
F9
330
1F
100
AcDbEntity
  8
0
  6
Continuous
 62
     7
370
     0
100
AcDbLine
 10
82.9414255345
 20
135.5566328888
 30
0.0
 11
82.9414255345
 21
135.6416328888
 31
0.0
  0
LINE
  5
FA
330
1F
100
AcDbEntity
  8
0
  6
Continuous
 62
     7
370
     0
100
AcDbLine
 10
69.8104255345
 20
135.6416328888
 30
0.0
 11
69.8104255345
 21
135.5566328888
 31
0.0
  0
LINE
  5
FB
330
1F
100
AcDbEntity
  8
0
  6
Continuous
 62
     7
370
     0
100
AcDbLine
 10
70.9104255345
 20
135.5566328888
 30
0.0
 11
70.9104255345
 21
135.6416328888
 31
0.0
  0
LINE
  5
FC
330
1F
100
AcDbEntity
  8
0
  6
Continuous
 62
     7
370
     0
100
AcDbLine
 10
75.8304255345
 20
135.6416328888
 30
0.0
 11
75.8304255345
 21
135.5566328888
 31
0.0
  0
LINE
  5
FD
330
1F
100
AcDbEntity
  8
0
  6
Continuous
 62
     7
370
     0
100
AcDbLine
 10
76.9304255345
 20
135.5566328888
 30
0.0
 11
76.9304255345
 21
135.6416328888
 31
0.0
  0
LINE
  5
FE
330
1F
100
AcDbEntity
  8
0
  6
Continuous
 62
     7
370
     0
100
AcDbLine
 10
83.8914255345
 20
135.6426328888
 30
0.0
 11
80.8914255345
 21
135.6426328888
 31
0.0
  0
LINE
  5
FF
330
1F
100
AcDbEntity
  8
0
  6
Continuous
 62
     7
370
     0
100
AcDbLine
 10
83.8914255345
 20
145.6426328888
 30
0.0
 11
80.8914255345
 21
145.6426328888
 31
0.0
  0
LINE
  5
100
330
1F
100
AcDbEntity
  8
0
  6
Continuous
 62
     7
370
     0
100
AcDbLine
 10
80.8914255345
 20
145.6426328888
 30
0.0
 11
80.8914255345
 21
135.6426328888
 31
0.0
  0
LINE
  5
101
330
1F
100
AcDbEntity
  8
0
  6
Continuous
 62
     7
370
     0
100
AcDbLine
 10
83.8914255345
 20
145.6426328888
 30
0.0
 11
83.8914255345
 21
135.6426328888
 31
0.0
  0
LINE
  5
102
330
1F
100
AcDbEntity
  8
0
  6
Continuous
 62
     7
370
     0
100
AcDbLine
 10
66.8594255345
 20
135.6426328888
 30
0.0
 11
68.8594255345
 21
135.6426328888
 31
0.0
  0
LINE
  5
103
330
1F
100
AcDbEntity
  8
0
  6
Continuous
 62
     7
370
     0
100
AcDbLine
 10
66.8594255345
 20
135.6426328888
 30
0.0
 11
66.8594255345
 21
145.6426328888
 31
0.0
  0
LINE
  5
104
330
1F
100
AcDbEntity
  8
0
  6
Continuous
 62
     7
370
     0
100
AcDbLine
 10
66.8594255345
 20
145.6426328888
 30
0.0
 11
68.8594255345
 21
145.6426328888
 31
0.0
  0
LINE
  5
105
330
1F
100
AcDbEntity
  8
0
  6
Continuous
 62
     7
370
     0
100
AcDbLine
 10
68.8594255345
 20
135.6426328888
 30
0.0
 11
68.8594255345
 21
145.6426328888
 31
0.0
  0
LINE
  5
106
330
1F
100
AcDbEntity
  8
0
  6
Continuous
 62
     7
370
     0
100
AcDbLine
 10
68.8604255345
 20
135.6426328888
 30
0.0
 11
71.8604255345
 21
135.6426328888
 31
0.0
  0
LINE
  5
107
330
1F
100
AcDbEntity
  8
0
  6
Continuous
 62
     7
370
     0
100
AcDbLine
 10
68.8604255345
 20
135.6426328888
 30
0.0
 11
68.8604255345
 21
145.6426328888
 31
0.0
  0
LINE
  5
108
330
1F
100
AcDbEntity
  8
0
  6
Continuous
 62
     7
370
     0
100
AcDbLine
 10
68.8604255345
 20
145.6426328888
 30
0.0
 11
71.8604255345
 21
145.6426328888
 31
0.0
  0
LINE
  5
109
330
1F
100
AcDbEntity
  8
0
  6
Continuous
 62
     7
370
     0
100
AcDbLine
 10
71.8604255345
 20
135.6426328888
 30
0.0
 11
71.8604255345
 21
145.6426328888
 31
0.0
  0
LINE
  5
10A
330
1F
100
AcDbEntity
  8
0
  6
Continuous
 62
     7
370
     0
100
AcDbLine
 10
77.8904255345
 20
145.6426328888
 30
0.0
 11
80.8904255345
 21
145.6426328888
 31
0.0
  0
LINE
  5
10B
330
1F
100
AcDbEntity
  8
0
  6
Continuous
 62
     7
370
     0
100
AcDbLine
 10
80.8904255345
 20
135.6426328888
 30
0.0
 11
80.8904255345
 21
145.6426328888
 31
0.0
  0
LINE
  5
10C
330
1F
100
AcDbEntity
  8
0
  6
Continuous
 62
     7
370
     0
100
AcDbLine
 10
77.8904255345
 20
135.6426328888
 30
0.0
 11
77.8904255345
 21
145.6426328888
 31
0.0
  0
LINE
  5
10D
330
1F
100
AcDbEntity
  8
0
  6
Continuous
 62
     7
370
     0
100
AcDbLine
 10
77.8904255345
 20
135.6426328888
 30
0.0
 11
80.8904255345
 21
135.6426328888
 31
0.0
  0
LINE
  5
10E
330
1F
100
AcDbEntity
  8
0
  6
Continuous
 62
     7
370
     0
100
AcDbLine
 10
71.8704255345
 20
145.6426328888
 30
0.0
 11
74.8704255345
 21
145.6426328888
 31
0.0
  0
LINE
  5
10F
330
1F
100
AcDbEntity
  8
0
  6
Continuous
 62
     7
370
     0
100
AcDbLine
 10
74.8704255345
 20
135.6426328888
 30
0.0
 11
74.8704255345
 21
145.6426328888
 31
0.0
  0
LINE
  5
110
330
1F
100
AcDbEntity
  8
0
  6
Continuous
 62
     7
370
     0
100
AcDbLine
 10
71.8704255345
 20
135.6426328888
 30
0.0
 11
74.8704255345
 21
135.6426328888
 31
0.0
  0
LINE
  5
111
330
1F
100
AcDbEntity
  8
0
  6
Continuous
 62
     7
370
     0
100
AcDbLine
 10
71.8704255345
 20
135.6426328888
 30
0.0
 11
71.8704255345
 21
145.6426328888
 31
0.0
  0
LINE
  5
112
330
1F
100
AcDbEntity
  8
0
  6
Continuous
 62
     7
370
     0
100
AcDbLine
 10
74.8804255345
 20
145.6426328888
 30
0.0
 11
77.8804255345
 21
145.6426328888
 31
0.0
  0
LINE
  5
113
330
1F
100
AcDbEntity
  8
0
  6
Continuous
 62
     7
370
     0
100
AcDbLine
 10
74.8804255345
 20
135.6426328888
 30
0.0
 11
74.8804255345
 21
145.6426328888
 31
0.0
  0
LINE
  5
114
330
1F
100
AcDbEntity
  8
0
  6
Continuous
 62
     7
370
     0
100
AcDbLine
 10
74.8804255345
 20
135.6426328888
 30
0.0
 11
77.8804255345
 21
135.6426328888
 31
0.0
  0
LINE
  5
115
330
1F
100
AcDbEntity
  8
0
  6
Continuous
 62
     7
370
     0
100
AcDbLine
 10
77.8804255345
 20
135.6426328888
 30
0.0
 11
77.8804255345
 21
145.6426328888
 31
0.0
  0
LINE
  5
116
330
1F
100
AcDbEntity
  8
0
  6
Continuous
 62
     7
370
     0
100
AcDbLine
 10
72.8204255345
 20
145.6436328888
 30
0.0
 11
73.9204255345
 21
145.6436328888
 31
0.0
  0
LINE
  5
117
330
1F
100
AcDbEntity
  8
0
  6
Continuous
 62
     7
370
     0
100
AcDbLine
 10
72.8204255345
 20
145.7286328888
 30
0.0
 11
73.9204255345
 21
145.7286328888
 31
0.0
  0
LINE
  5
118
330
1F
100
AcDbEntity
  8
0
  6
Continuous
 62
     7
370
     0
100
AcDbLine
 10
67.3094255345
 20
145.7286328888
 30
0.0
 11
68.4094255345
 21
145.7286328888
 31
0.0
  0
LINE
  5
119
330
1F
100
AcDbEntity
  8
0
  6
Continuous
 62
     7
370
     0
100
AcDbLine
 10
67.3094255345
 20
145.6436328888
 30
0.0
 11
68.4094255345
 21
145.6436328888
 31
0.0
  0
LINE
  5
11A
330
1F
100
AcDbEntity
  8
0
  6
Continuous
 62
     7
370
     0
100
AcDbLine
 10
78.8404255345
 20
145.6436328888
 30
0.0
 11
79.9404255345
 21
145.6436328888
 31
0.0
  0
LINE
  5
11B
330
1F
100
AcDbEntity
  8
0
  6
Continuous
 62
     7
370
     0
100
AcDbLine
 10
78.8404255345
 20
145.7286328888
 30
0.0
 11
79.9404255345
 21
145.7286328888
 31
0.0
  0
SPLINE
  5
11C
330
1F
100
AcDbEntity
  8
0
  6
Continuous
 62
     7
370
     0
100
AcDbSpline
210
0.0
220
0.0
230
1.0
 70
     8
 71
     3
 72
    27
 73
    23
 74
     0
 42
0.000000001
 43
0.00000001
 40
0.0
 40
0.0
 40
0.0
 40
0.0
 40
0.0057605963584951
 40
0.0619175891014471
 40
0.1197029329707611
 40
0.1757586917270783
 40
0.2335475488547532
 40
0.2877344009759982
 40
0.3436360292446246
 40
0.3954737359657802
 40
0.448905077241457
 40
0.4992801755209862
 40
0.5511267417965898
 40
0.6013770512095192
 40
0.6530353970633657
 40
0.7042162842543797
 40
0.7568032910362575
 40
0.8094330669469595
 40
0.8635108054510537
 40
0.9175667536761496
 40
0.9731356221430741
 40
0.9999999999999999
 40
0.9999999999999999
 40
0.9999999999999999
 40
0.9999999999999999
 10
79.07988642007352
 20
145.8114074636694
 30
0.0
 10
79.07970585901467
 20
145.8114259308769
 30
0.0
 10
79.07776510414233
 20
145.8116244250769
 30
0.0
 10
79.08544750695418
 20
145.8108365346102
 30
0.0
 10
79.10386027912365
 20
145.8089690965837
 30
0.0
 10
79.13559637751322
 20
145.8058232000877
 30
0.0
 10
79.17731875552597
 20
145.801824731152
 30
0.0
 10
79.2288151658525
 20
145.7970928131449
 30
0.0
 10
79.28642283617846
 20
145.7920483235373
 30
0.0
 10
79.34979726231414
 20
145.7867827888452
 30
0.0
 10
79.41497935038501
 20
145.7816527024916
 30
0.0
 10
79.48208139766129
 20
145.7766527432859
 30
0.0
 10
79.54783236681388
 20
145.7720083657413
 30
0.0
 10
79.61222423932318
 20
145.7676877022089
 30
0.0
 10
79.67273880463243
 20
145.7638181442222
 30
0.0
 10
79.72883256143595
 20
145.7603861689644
 30
0.0
 10
79.77845088251095
 20
145.7574675879786
 30
0.0
 10
79.820611311505
 20
145.7550695103954
 30
0.0
 10
79.85377262946585
 20
145.7532344283705
 30
0.0
 10
79.87624618915953
 20
145.752014967533
 30
0.0
 10
79.88746934977803
 20
145.751413677851
 30
0.0
 10
79.88656493056295
 20
145.7514621332523
 30
0.0
 10
79.88627018711153
 20
145.7514779245048
 30
0.0
  0
SPLINE
  5
11D
330
1F
100
AcDbEntity
  8
0
  6
Continuous
 62
     7
370
     0
100
AcDbSpline
210
0.0
220
0.0
230
1.0
 70
     8
 71
     3
 72
    18
 73
    14
 74
     0
 42
0.000000001
 43
0.00000001
 40
0.0
 40
0.0
 40
0.0
 40
0.0
 40
0.0260876408996585
 40
0.0797532872897213
 40
0.1630465082398174
 40
0.2487595269342159
 40
0.344201463686041
 40
0.4423819473754257
 40
0.5759265757533611
 40
0.7148476034100505
 40
0.8497013064084395
 40
0.9885881375494415
 40
1.0
 40
1.0
 40
1.0
 40
1.0
 10
84.4472600804407
 20
148.6754602285586
 30
0.0
 10
84.44709897659257
 20
148.6807325920096
 30
0.0
 10
84.44660646132321
 20
148.6968508879727
 30
0.0
 10
84.44444701213202
 20
148.7296193334075
 30
0.0
 10
84.44008806152002
 20
148.7732361454831
 30
0.0
 10
84.43391389270224
 20
148.821962082914
 30
0.0
 10
84.42729662171786
 20
148.8688672680372
 30
0.0
 10
84.42025133231071
 20
148.9170214123993
 30
0.0
 10
84.41382858802551
 20
148.9615061993161
 30
0.0
 10
84.40899393565671
 20
148.9971137883988
 30
0.0
 10
84.4063351948095
 20
149.017994490823
 30
0.0
 10
84.40532522606502
 20
149.0262671342491
 30
0.0
 10
84.4055699772488
 20
149.0242828990399
 30
0.0
 10
84.40558856068938
 20
149.0241322402502
 30
0.0
  0
SPLINE
  5
11E
330
1F
100
AcDbEntity
  8
0
  6
Continuous
 62
     7
370
     0
100
AcDbSpline
210
0.0
220
0.0
230
1.0
 70
     8
 71
     3
 72
    18
 73
    14
 74
     0
 42
0.000000001
 43
0.00000001
 40
0.0
 40
0.0
 40
0.0
 40
0.0
 40
0.0260884026540703
 40
0.1070868398272364
 40
0.1906783526735279
 40
0.2767117849580702
 40
0.3718022055614383
 40
0.4695995837566189
 40
0.5988324414999435
 40
0.7325610436398744
 40
0.8619465617537532
 40
0.9950832967908446
 40
1.0
 40
1.0
 40
1.0
 40
1.0
 10
84.4472600804407
 20
148.6754602285586
 30
0.0
 10
84.44738652224169
 20
148.6701878788583
 30
0.0
 10
84.44790553649746
 20
148.6485461066363
 30
0.0
 10
84.44872640983877
 20
148.6101783783729
 30
0.0
 10
84.44874403580496
 20
148.5616689300787
 30
0.0
 10
84.44706881739847
 20
148.5138519442248
 30
0.0
 10
84.44323384132156
 20
148.4684943259309
 30
0.0
 10
84.43664901335268
 20
148.4232278396742
 30
0.0
 10
84.42760457107161
 20
148.382473575531
 30
0.0
 10
84.41791106917906
 20
148.350363673485
 30
0.0
 10
84.41131790171511
 20
148.3319147018134
 30
0.0
 10
84.40845882701879
 20
148.3244938057287
 30
0.0
 10
84.40920364373702
 20
148.3264687178702
 30
0.0
 10
84.40923017000681
 20
148.3265390533648
 30
0.0
  0
LINE
  5
11F
330
1F
100
AcDbEntity
  8
0
  6
Continuous
 62
     7
370
     0
100
AcDbLine
 10
159.2137963205
 20
149.0245941012
 30
0.0
 11
159.6807239803
 21
148.3263261466
 31
0.0
  0
SPLINE
  5
120
330
1F
100
AcDbEntity
  8
0
  6
Continuous
 62
     7
370
     0
100
AcDbSpline
210
0.0
220
0.0
230
1.0
 70
     8
 71
     3
 72
    14
 73
    10
 74
     0
 42
0.000000001
 43
0.00000001
 40
0.0
 40
0.0
 40
0.0
 40
0.0
 40
0.0000404517691324
 40
0.0000404517691324
 40
0.0000404517691324
 40
0.0000809563990268
 40
0.0000809563990268
 40
0.0000809563990268
 40
0.000094010390063
 40
0.000094010390063
 40
0.000094010390063
 40
0.000094010390063
 10
76.47963483036332
 20
145.6436328887694
 30
0.0
 10
76.47963483036332
 20
145.6571168118136
 30
0.0
 10
76.481907254134
 20
145.6707881050386
 30
0.0
 10
76.48627600377856
 20
145.68351587347
 30
0.0
 10
76.49064786862249
 20
145.6962527176187
 30
0.0
 10
76.49724849475864
 20
145.7084101483392
 30
0.0
 10
76.50554098074247
 20
145.7188771228493
 30
0.0
 10
76.50825026484283
 20
145.7222968461597
 30
0.0
 10
76.51115262251099
 20
145.7255612516885
 30
0.0
 10
76.51421996001412
 20
145.7286328887704
 30
0.0
  0
SPLINE
  5
121
330
1F
100
AcDbEntity
  8
0
  6
Continuous
 62
     7
370
     0
100
AcDbSpline
210
0.0
220
0.0
230
1.0
 70
     8
 71
     3
 72
    29
 73
    25
 74
     0
 42
0.000000001
 43
0.00000001
 40
0.0
 40
0.0
 40
0.0
 40
0.0
 40
0.0000553986491994
 40
0.0000553986491994
 40
0.0000553986491994
 40
0.0000744703661968
 40
0.0000744703661968
 40
0.0000744703661968
 40
0.0000938210300496
 40
0.0000938210300496
 40
0.0000938210300496
 40
0.0001072543096201
 40
0.0001072543096201
 40
0.0001072543096201
 40
0.0001207016259442
 40
0.0001207016259442
 40
0.0001207016259442
 40
0.0001387455774108
 40
0.0001387455774108
 40
0.0001387455774108
 40
0.0001702186759774
 40
0.0001702186759774
 40
0.0001702186759774
 40
0.0002135383638965
 40
0.0002135383638965
 40
0.0002135383638965
 40
0.0002135383638965
 10
76.64818811073738
 20
145.7286328887701
 30
0.0
 10
76.63562072609024
 20
145.7359824706931
 30
0.0
 10
76.62169588449699
 20
145.7429215625901
 30
0.0
 10
76.60586091352043
 20
145.7486469472066
 30
0.0
 10
76.6003594765521
 20
145.7506360788971
 30
0.0
 10
76.59456947826997
 20
145.7524865309336
 30
0.0
 10
76.58854031245068
 20
145.7540628096098
 30
0.0
 10
76.58246208547857
 20
145.7556519149443
 30
0.0
 10
76.57598525647282
 20
145.7569904709115
 30
0.0
 10
76.56958739520847
 20
145.7577923498351
 30
0.0
 10
76.56512723850649
 20
145.7583513656541
 30
0.0
 10
76.56061682050485
 20
145.7586521144868
 30
0.0
 10
76.55644257577771
 20
145.7586318876041
 30
0.0
 10
76.55226324724445
 20
145.7586116360871
 30
0.0
 10
76.54832675172923
 20
145.7582697756472
 30
0.0
 10
76.54488622942068
 20
145.7576763646001
 30
0.0
 10
76.5402785182063
 20
145.7568816402847
 30
0.0
 10
76.53640774872014
 20
145.7556303055959
 30
0.0
 10
76.53322488944222
 20
145.7541550097139
 30
0.0
 10
76.52768967183904
 20
145.7515893657369
 30
0.0
 10
76.5239389878187
 20
145.7482987274656
 30
0.0
 10
76.52116849805087
 20
145.744761761774
 30
0.0
 10
76.51734676812372
 20
145.7398827227708
 30
0.0
 10
76.51530483097216
 20
145.7344054250524
 30
0.0
 10
76.51421996001312
 20
145.7286328887694
 30
0.0
  0
SPLINE
  5
122
330
1F
100
AcDbEntity
  8
0
  6
Continuous
 62
     7
370
     0
100
AcDbSpline
210
0.0
220
0.0
230
1.0
 70
     8
 71
     3
 72
    14
 73
    10
 74
     0
 42
0.000000001
 43
0.00000001
 40
0.0000000000000019
 40
0.0000000000000019
 40
0.0000000000000019
 40
0.0000000000000019
 40
0.0000389338800372
 40
0.0000389338800372
 40
0.0000389338800372
 40
0.0000777809519151
 40
0.0000777809519151
 40
0.0000777809519151
 40
0.0000939650131498
 40
0.0000939650131498
 40
0.0000939650131498
 40
0.0000939650131498
 10
76.64818811073931
 20
145.7286328887694
 30
0.0
 10
76.65631972091278
 20
145.7195905516056
 30
0.0
 10
76.66303294723345
 20
145.7087680501856
 30
0.0
 10
76.6679516990585
 20
145.6971433089218
 30
0.0
 10
76.67286349573047
 20
145.6855350051321
 30
0.0
 10
76.67612994405965
 20
145.6728119158205
 30
0.0
 10
76.67759988795619
 20
145.6599705829566
 30
0.0
 10
76.67821900235388
 20
145.6545620404399
 30
0.0
 10
76.67852979009274
 20
145.6490912471372
 30
0.0
 10
76.67852979009274
 20
145.6436328887694
 30
0.0
  0
SPLINE
  5
123
330
1F
100
AcDbEntity
  8
0
  6
Continuous
 62
     7
370
     0
100
AcDbSpline
210
0.0
220
0.0
230
1.0
 70
     8
 71
     3
 72
    14
 73
    10
 74
     0
 42
0.000000001
 43
0.00000001
 40
0.0
 40
0.0
 40
0.0
 40
0.0
 40
0.0000404517691324
 40
0.0000404517691324
 40
0.0000404517691324
 40
0.0000809563990268
 40
0.0000809563990268
 40
0.0000809563990268
 40
0.0000940103900621
 40
0.0000940103900621
 40
0.0000940103900621
 40
0.0000940103900621
 10
70.45963483036334
 20
145.6436328887694
 30
0.0
 10
70.45963483036334
 20
145.6571168118136
 30
0.0
 10
70.461907254134
 20
145.6707881050386
 30
0.0
 10
70.46627600377856
 20
145.68351587347
 30
0.0
 10
70.47064786862249
 20
145.6962527176187
 30
0.0
 10
70.47724849475865
 20
145.7084101483392
 30
0.0
 10
70.48554098074247
 20
145.7188771228493
 30
0.0
 10
70.48825026484265
 20
145.7222968461594
 30
0.0
 10
70.49115262251061
 20
145.725561251688
 30
0.0
 10
70.4942199600135
 20
145.7286328887698
 30
0.0
  0
SPLINE
  5
124
330
1F
100
AcDbEntity
  8
0
  6
Continuous
 62
     7
370
     0
100
AcDbSpline
210
0.0
220
0.0
230
1.0
 70
     8
 71
     3
 72
    29
 73
    25
 74
     0
 42
0.000000001
 43
0.00000001
 40
0.0
 40
0.0
 40
0.0
 40
0.0
 40
0.0000553986491987
 40
0.0000553986491987
 40
0.0000553986491987
 40
0.0000744703661961
 40
0.0000744703661961
 40
0.0000744703661961
 40
0.000093821030049
 40
0.000093821030049
 40
0.000093821030049
 40
0.0001072543096193
 40
0.0001072543096193
 40
0.0001072543096193
 40
0.0001207016259434
 40
0.0001207016259434
 40
0.0001207016259434
 40
0.00013874557741
 40
0.00013874557741
 40
0.00013874557741
 40
0.0001702186759765
 40
0.0001702186759765
 40
0.0001702186759765
 40
0.0002135383638959
 40
0.0002135383638959
 40
0.0002135383638959
 40
0.0002135383638959
 10
70.62818811073637
 20
145.7286328887705
 30
0.0
 10
70.61562072608929
 20
145.7359824706934
 30
0.0
 10
70.60169588449689
 20
145.7429215625902
 30
0.0
 10
70.58586091352052
 20
145.7486469472066
 30
0.0
 10
70.58035947655218
 20
145.750636078897
 30
0.0
 10
70.57456947827005
 20
145.7524865309336
 30
0.0
 10
70.56854031245072
 20
145.7540628096098
 30
0.0
 10
70.56246208547859
 20
145.7556519149443
 30
0.0
 10
70.55598525647282
 20
145.7569904709115
 30
0.0
 10
70.54958739520845
 20
145.7577923498351
 30
0.0
 10
70.54512723850647
 20
145.7583513656541
 30
0.0
 10
70.54061682050484
 20
145.7586521144868
 30
0.0
 10
70.5364425757777
 20
145.7586318876041
 30
0.0
 10
70.53226324724444
 20
145.7586116360871
 30
0.0
 10
70.52832675172921
 20
145.7582697756472
 30
0.0
 10
70.52488622942069
 20
145.7576763646001
 30
0.0
 10
70.5202785182063
 20
145.7568816402847
 30
0.0
 10
70.51640774872013
 20
145.7556303055959
 30
0.0
 10
70.51322488944223
 20
145.7541550097139
 30
0.0
 10
70.50768967183905
 20
145.7515893657369
 30
0.0
 10
70.50393898781869
 20
145.7482987274656
 30
0.0
 10
70.50116849805086
 20
145.7447617617739
 30
0.0
 10
70.49734676812372
 20
145.7398827227707
 30
0.0
 10
70.49530483097216
 20
145.7344054250524
 30
0.0
 10
70.49421996001311
 20
145.7286328887694
 30
0.0
  0
SPLINE
  5
125
330
1F
100
AcDbEntity
  8
0
  6
Continuous
 62
     7
370
     0
100
AcDbSpline
210
0.0
220
0.0
230
1.0
 70
     8
 71
     3
 72
    14
 73
    10
 74
     0
 42
0.000000001
 43
0.00000001
 40
0.0000000000000029
 40
0.0000000000000029
 40
0.0000000000000029
 40
0.0000000000000029
 40
0.0000389338800372
 40
0.0000389338800372
 40
0.0000389338800372
 40
0.0000777809519151
 40
0.0000777809519151
 40
0.0000777809519151
 40
0.0000939650131498
 40
0.0000939650131498
 40
0.0000939650131498
 40
0.0000939650131498
 10
70.62818811073932
 20
145.7286328887694
 30
0.0
 10
70.63631972091278
 20
145.7195905516056
 30
0.0
 10
70.64303294723344
 20
145.7087680501856
 30
0.0
 10
70.64795169905851
 20
145.6971433089218
 30
0.0
 10
70.65286349573047
 20
145.6855350051321
 30
0.0
 10
70.65612994405966
 20
145.6728119158205
 30
0.0
 10
70.6575998879562
 20
145.6599705829566
 30
0.0
 10
70.65821900235389
 20
145.6545620404399
 30
0.0
 10
70.65852979009274
 20
145.6490912471372
 30
0.0
 10
70.65852979009274
 20
145.6436328887694
 30
0.0
  0
ARC
  5
126
330
1F
100
AcDbEntity
  8
0
  6
Continuous
 62
     7
370
     0
100
AcDbCircle
 10
67.8590363572
 20
145.6436328887
 30
0.0
 40
0.1151947465247787
100
AcDbArc
 50
359.5026118872
 51
0.0000000137
  0
ARC
  5
127
330
1F
100
AcDbEntity
  8
0
  6
Continuous
 62
     7
370
     0
100
AcDbCircle
 10
67.7815545497
 20
145.6431328888
 30
0.0
 40
0.0369379685190656
100
AcDbArc
 50
179.2244087633
 51
180.7755912366
  0
LINE
  5
128
330
1F
100
AcDbEntity
  8
0
  6
Continuous
 62
     7
370
     0
100
AcDbLine
 10
70.2584192944
 20
145.7286328888
 30
0.0
 11
70.49421996
 21
145.7286328888
 31
0.0
  0
LINE
  5
129
330
1F
100
AcDbEntity
  8
0
  6
Continuous
 62
     7
370
     0
100
AcDbLine
 10
69.8104255345
 20
145.7286328888
 30
0.0
 11
70.1215474105
 21
145.7286328888
 31
0.0
  0
LINE
  5
12A
330
1F
100
AcDbEntity
  8
0
  6
Continuous
 62
     7
370
     0
100
AcDbLine
 10
75.8304255345
 20
145.7286328888
 30
0.0
 11
76.1126629584
 21
145.7286328888
 31
0.0
  0
LINE
  5
12B
330
1F
100
AcDbEntity
  8
0
  6
Continuous
 62
     7
370
     0
100
AcDbLine
 10
76.2466311091
 20
145.7286328888
 30
0.0
 11
76.51421996
 21
145.7286328888
 31
0.0
  0
LINE
  5
12C
330
1F
100
AcDbEntity
  8
0
  6
Continuous
 62
     7
370
     0
100
AcDbLine
 10
76.2812162387
 20
145.6436328888
 30
0.0
 11
76.4796348304
 21
145.6436328888
 31
0.0
  0
LINE
  5
12D
330
1F
100
AcDbEntity
  8
0
  6
Continuous
 62
     7
370
     0
100
AcDbLine
 10
70.2933874831
 20
145.6436328888
 30
0.0
 11
70.4596348304
 21
145.6436328888
 31
0.0
  0
LINE
  5
12E
330
1F
100
AcDbEntity
  8
0
  6
Continuous
 62
     7
370
     0
100
AcDbLine
 10
82.2581774923
 20
145.7286328888
 30
0.0
 11
82.9414255345
 21
145.7286328888
 31
0.0
  0
LINE
  5
12F
330
1F
100
AcDbEntity
  8
0
  6
Continuous
 62
     7
370
     0
100
AcDbLine
 10
81.8414255345
 20
145.7286328888
 30
0.0
 11
82.1241550769
 21
145.7286328888
 31
0.0
  0
LINE
  5
130
330
1F
100
AcDbEntity
  8
0
  6
Continuous
 62
     7
370
     0
100
AcDbLine
 10
82.2927702843
 20
145.6436328888
 30
0.0
 11
82.9414255345
 21
145.6436328888
 31
0.0
  0
LINE
  5
131
330
1F
100
AcDbEntity
  8
0
  6
Continuous
 62
     7
370
     0
100
AcDbLine
 10
81.8414255345
 20
145.6436328888
 30
0.0
 11
82.0937947608
 21
145.6436328888
 31
0.0
  0
LINE
  5
132
330
1F
100
AcDbEntity
  8
0
  6
Continuous
 62
     7
370
     0
100
AcDbLine
 10
69.8104255345
 20
145.6436328888
 30
0.0
 11
70.0901815145
 21
145.6436328888
 31
0.0
  0
LINE
  5
133
330
1F
100
AcDbEntity
  8
0
  6
Continuous
 62
     7
370
     0
100
AcDbLine
 10
75.8304255345
 20
145.6436328888
 30
0.0
 11
76.082321279
 21
145.6436328888
 31
0.0
  0
LINE
  5
134
330
1F
100
AcDbEntity
  8
0
  6
Continuous
 62
     7
370
     0
100
AcDbLine
 10
84.4924255345
 20
135.6426328888
 30
0.0
 11
83.8924255345
 21
135.6426328888
 31
0.0
  0
LINE
  5
135
330
1F
100
AcDbEntity
  8
0
  6
Continuous
 62
     7
370
     0
100
AcDbLine
 10
84.4924255345
 20
145.6426328888
 30
0.0
 11
83.8924255345
 21
145.6426328888
 31
0.0
  0
LINE
  5
136
330
1F
100
AcDbEntity
  8
0
  6
Continuous
 62
     7
370
     0
100
AcDbLine
 10
84.4924255345
 20
145.6426328888
 30
0.0
 11
84.4924255345
 21
135.6426328888
 31
0.0
  0
LINE
  5
137
330
1F
100
AcDbEntity
  8
0
  6
Continuous
 62
     7
370
     0
100
AcDbLine
 10
83.8924255345
 20
145.6426328888
 30
0.0
 11
83.8924255345
 21
135.6426328888
 31
0.0
  0
LINE
  5
138
330
1F
100
AcDbEntity
  8
0
  6
Continuous
 62
     7
370
     0
100
AcDbLine
 10
67.3094255345
 20
135.5566328888
 30
0.0
 11
68.4094255345
 21
135.5566328888
 31
0.0
  0
LINE
  5
139
330
1F
100
AcDbEntity
  8
0
  6
Continuous
 62
     7
370
     0
100
AcDbLine
 10
67.3094255345
 20
135.6416328888
 30
0.0
 11
68.4094255345
 21
135.6416328888
 31
0.0
  0
LINE
  5
13A
330
1F
100
AcDbEntity
  8
0
  6
Continuous
 62
     7
370
     0
100
AcDbLine
 10
72.8204255345
 20
135.6416328888
 30
0.0
 11
73.9204255345
 21
135.6416328888
 31
0.0
  0
LINE
  5
13B
330
1F
100
AcDbEntity
  8
0
  6
Continuous
 62
     7
370
     0
100
AcDbLine
 10
72.8204255345
 20
135.5566328888
 30
0.0
 11
73.9204255345
 21
135.5566328888
 31
0.0
  0
LINE
  5
13C
330
1F
100
AcDbEntity
  8
0
  6
Continuous
 62
     7
370
     0
100
AcDbLine
 10
78.8404255345
 20
135.5566328888
 30
0.0
 11
79.9404255345
 21
135.5566328888
 31
0.0
  0
LINE
  5
13D
330
1F
100
AcDbEntity
  8
0
  6
Continuous
 62
     7
370
     0
100
AcDbLine
 10
78.8404255345
 20
135.6416328888
 30
0.0
 11
79.9404255345
 21
135.6416328888
 31
0.0
  0
SPLINE
  5
13E
330
1F
100
AcDbEntity
  8
0
  6
Continuous
 62
     7
370
     0
100
AcDbSpline
210
0.0
220
0.0
230
1.0
 70
     8
 71
     3
 72
    27
 73
    23
 74
     0
 42
0.000000001
 43
0.00000001
 40
0.0
 40
0.0
 40
0.0
 40
0.0
 40
0.0056565426680418
 40
0.0618197531631762
 40
0.1196114950771575
 40
0.1756734603769371
 40
0.2334687159382668
 40
0.2876615676759722
 40
0.3435693854225996
 40
0.3954128316607477
 40
0.4488500889020523
 40
0.4992307647572665
 40
0.5510830715308004
 40
0.6013389447026803
 40
0.6530030102145248
 40
0.7041895641988889
 40
0.7567823934609282
 40
0.8094179965872291
 40
0.8635017226266282
 40
0.9175636559743888
 40
0.9731386770758528
 40
0.9999999999999999
 40
0.9999999999999999
 40
0.9999999999999999
 40
0.9999999999999999
 10
79.0798775070652
 20
135.4738574024511
 30
0.0
 10
79.07970049991137
 20
135.4738392987771
 30
0.0
 10
79.0777660075544
 20
135.4736414456501
 30
0.0
 10
79.08545009985104
 20
135.4744295086114
 30
0.0
 10
79.103859599953
 20
135.4762966113635
 30
0.0
 10
79.13559656373175
 20
135.4794425965324
 30
0.0
 10
79.17731870852153
 20
135.4834410415704
 30
0.0
 10
79.22881517856669
 20
135.4881729656967
 30
0.0
 10
79.28642283300779
 20
135.4932174536767
 30
0.0
 10
79.3497972631662
 20
135.4984829887809
 30
0.0
 10
79.41497935016912
 20
135.5036130750251
 30
0.0
 10
79.48208139771798
 20
135.5086130342589
 30
0.0
 10
79.54783236680524
 20
135.5132574117963
 30
0.0
 10
79.61222423930316
 20
135.517578075329
 30
0.0
 10
79.67273880472416
 20
135.5214476333215
 30
0.0
 10
79.72883256108969
 20
135.5248796085559
 30
0.0
 10
79.77845088384476
 20
135.5277981896318
 30
0.0
 10
79.82061130646889
 20
135.5301962668734
 30
0.0
 10
79.85377264883252
 20
135.532031350206
 30
0.0
 10
79.87624611612625
 20
135.533250806093
 30
0.0
 10
79.88746907356717
 20
135.5338520848896
 30
0.0
 10
79.88656484060546
 20
135.5338036394671
 30
0.0
 10
79.886270202435
 20
135.5337878538551
 30
0.0
  0
SPLINE
  5
13F
330
1F
100
AcDbEntity
  8
0
  6
Continuous
 62
     7
370
     0
100
AcDbSpline
210
0.0
220
0.0
230
1.0
 70
     8
 71
     3
 72
    18
 73
    14
 74
     0
 42
0.000000001
 43
0.00000001
 40
0.0
 40
0.0
 40
0.0
 40
0.0
 40
0.0260868887612663
 40
0.0797509879055223
 40
0.1630418074108245
 40
0.2487523548947297
 40
0.3441915399395207
 40
0.4423691929662431
 40
0.575909971090237
 40
0.714826993484868
 40
0.8496768084871131
 40
0.9885596353519768
 40
0.9999999999999999
 40
0.9999999999999999
 40
0.9999999999999999
 40
0.9999999999999999
 10
84.4472600804407
 20
132.6098055489802
 30
0.0
 10
84.44709897659254
 20
132.604533185529
 30
0.0
 10
84.44660646132311
 20
132.5884148895653
 30
0.0
 10
84.44444701213315
 20
132.5556464441405
 30
0.0
 10
84.44008806151322
 20
132.5120296320003
 30
0.0
 10
84.43391389272925
 20
132.4633036948454
 30
0.0
 10
84.42729662160308
 20
132.4163985085645
 30
0.0
 10
84.42025133281837
 20
132.3682443692844
 30
0.0
 10
84.41382858531452
 20
132.3237595560886
 30
0.0
 10
84.40899394598834
 20
132.2881520734935
 30
0.0
 10
84.40633515711117
 20
132.2672709789246
 30
0.0
 10
84.4053252128692
 20
132.258998532855
 30
0.0
 10
84.40557005637899
 20
132.2609835191712
 30
0.0
 10
84.40558869022388
 20
132.2611345867946
 30
0.0
  0
SPLINE
  5
140
330
1F
100
AcDbEntity
  8
0
  6
Continuous
 62
     7
370
     0
100
AcDbSpline
210
0.0
220
0.0
230
1.0
 70
     8
 71
     3
 72
    18
 73
    14
 74
     0
 42
0.000000001
 43
0.00000001
 40
0.0
 40
0.0
 40
0.0
 40
0.0
 40
0.026087880368179
 40
0.1070846959648342
 40
0.1906745353216335
 40
0.276706245229818
 40
0.3717947621372872
 40
0.4695901824436903
 40
0.5988204529646699
 40
0.7325463778781305
 40
0.8619293057134212
 40
0.9950633753731366
 40
1.0
 40
1.0
 40
1.0
 40
1.0
 10
84.4472600804407
 20
132.6098055489802
 30
0.0
 10
84.44738652224163
 20
132.6150778986807
 30
0.0
 10
84.44790553649717
 20
132.6367196709033
 30
0.0
 10
84.44872640984326
 20
132.6750873991542
 30
0.0
 10
84.44874403578791
 20
132.7235968475047
 30
0.0
 10
84.44706881746687
 20
132.7714138331352
 30
0.0
 10
84.44323384103309
 20
132.816771452362
 30
0.0
 10
84.43664901461048
 20
132.8620379345764
 30
0.0
 10
84.42760456458237
 20
132.9027922189729
 30
0.0
 10
84.41791109375569
 20
132.9349020398022
 30
0.0
 10
84.411317812381
 20
132.9533513092748
 30
0.0
 10
84.40845881693465
 20
132.9607719941547
 30
0.0
 10
84.4092038446108
 20
132.9587965264799
 30
0.0
 10
84.40923048257328
 20
132.9587258949644
 30
0.0
  0
LINE
  5
141
330
1F
100
AcDbEntity
  8
0
  6
Continuous
 62
     7
370
     0
100
AcDbLine
 10
159.2137963205
 20
132.2606716764
 30
0.0
 11
159.6807239803
 21
132.9589396309
 31
0.0
  0
ARC
  5
142
330
1F
100
AcDbEntity
  8
0
  6
Continuous
 62
     7
370
     0
100
AcDbCircle
 10
82.3914255345
 20
135.6416328888
 30
0.0
 40
0.1150000000000091
100
AcDbArc
 50
179.5017695513
 51
180.0
  0
ARC
  5
143
330
1F
100
AcDbEntity
  8
0
  6
Continuous
 62
     7
370
     0
100
AcDbCircle
 10
82.3914255345
 20
135.6416328888
 30
0.0
 40
0.1150043477438955
100
AcDbArc
 50
0.0
 51
0.4982116126
  0
SPLINE
  5
144
330
1F
100
AcDbEntity
  8
0
  6
Continuous
 62
     7
370
     0
100
AcDbSpline
210
0.0
220
0.0
230
1.0
 70
     8
 71
     3
 72
    14
 73
    10
 74
     0
 42
0.000000001
 43
0.00000001
 40
0.0000000000000007
 40
0.0000000000000007
 40
0.0000000000000007
 40
0.0000000000000007
 40
0.0000389338800372
 40
0.0000389338800372
 40
0.0000389338800372
 40
0.0000777809519151
 40
0.0000777809519151
 40
0.0000777809519151
 40
0.0000939650131498
 40
0.0000939650131498
 40
0.0000939650131498
 40
0.0000939650131498
 10
82.25817749229745
 20
135.5566328887694
 30
0.0
 10
82.26720948664858
 20
135.5656752259332
 30
0.0
 10
82.27485118119756
 20
135.5764977273532
 30
0.0
 10
82.280502613118
 20
135.588122468617
 30
0.0
 10
82.28614605386998
 20
135.5997307724067
 30
0.0
 10
82.2899646739035
 20
135.6124538617184
 30
0.0
 10
82.29168260146506
 20
135.6252951945822
 30
0.0
 10
82.29240616220099
 20
135.6307037370989
 30
0.0
 10
82.29277028429061
 20
135.6361745304017
 30
0.0
 10
82.29277028429061
 20
135.6416328887694
 30
0.0
  0
SPLINE
  5
145
330
1F
100
AcDbEntity
  8
0
  6
Continuous
 62
     7
370
     0
100
AcDbSpline
210
0.0
220
0.0
230
1.0
 70
     8
 71
     3
 72
    29
 73
    25
 74
     0
 42
0.000000001
 43
0.00000001
 40
0.0000000000000001
 40
0.0000000000000001
 40
0.0000000000000001
 40
0.0000000000000001
 40
0.0000553986492001
 40
0.0000553986492001
 40
0.0000553986492001
 40
0.0000744703661974
 40
0.0000744703661974
 40
0.0000744703661974
 40
0.0000938210300503
 40
0.0000938210300503
 40
0.0000938210300503
 40
0.0001072543096207
 40
0.0001072543096207
 40
0.0001072543096207
 40
0.0001207016259448
 40
0.0001207016259448
 40
0.0001207016259448
 40
0.0001387455774115
 40
0.0001387455774115
 40
0.0001387455774115
 40
0.0001702186759782
 40
0.0001702186759782
 40
0.0001702186759782
 40
0.0002135383638984
 40
0.0002135383638984
 40
0.0002135383638984
 40
0.0002135383638984
 10
82.25817749229631
 20
135.556632888769
 30
0.0
 10
82.25677894699994
 20
135.549283306846
 30
0.0
 10
82.253918786388
 20
135.5423442149487
 30
0.0
 10
82.24755205611582
 20
135.5366188303322
 30
0.0
 10
82.24534010603786
 20
135.5346296986417
 30
0.0
 10
82.24265695955557
 20
135.5327792466052
 30
0.0
 10
82.23930129693717
 20
135.5312029679289
 30
0.0
 10
82.23591832827323
 20
135.5296138625945
 30
0.0
 10
82.23174412263081
 20
135.5282753066273
 30
0.0
 10
82.22673015923617
 20
135.5274734277038
 30
0.0
 10
82.22323476264748
 20
135.5269144118847
 30
0.0
 10
82.21924573753665
 20
135.526613663052
 30
0.0
 10
82.21503468084619
 20
135.5266338899347
 30
0.0
 10
82.21081849551636
 20
135.5266541414517
 30
0.0
 10
82.20628586056627
 20
135.5269960018917
 30
0.0
 10
82.20181850188396
 20
135.5275894129387
 30
0.0
 10
82.19583560252937
 20
135.5283841372541
 30
0.0
 10
82.18980980321413
 20
135.5296354719429
 30
0.0
 10
82.18412002500747
 20
135.5311107678249
 30
0.0
 10
82.17422509791899
 20
135.5336764118018
 30
0.0
 10
82.16497522441824
 20
135.5369670500732
 30
0.0
 10
82.15645239968507
 20
135.5405040157649
 30
0.0
 10
82.14469565734841
 20
135.5453830547681
 30
0.0
 10
82.13401665727719
 20
135.5508603524864
 30
0.0
 10
82.12415507686062
 20
135.5566328887694
 30
0.0
  0
SPLINE
  5
146
330
1F
100
AcDbEntity
  8
0
  6
Continuous
 62
     7
370
     0
100
AcDbSpline
210
0.0
220
0.0
230
1.0
 70
     8
 71
     3
 72
    14
 73
    10
 74
     0
 42
0.000000001
 43
0.00000001
 40
0.0
 40
0.0
 40
0.0
 40
0.0
 40
0.0000404517691324
 40
0.0000404517691324
 40
0.0000404517691324
 40
0.0000809563990268
 40
0.0000809563990268
 40
0.0000809563990268
 40
0.0000940103900616
 40
0.0000940103900616
 40
0.0000940103900616
 40
0.0000940103900616
 10
82.09379476080504
 20
135.6416328887694
 30
0.0
 10
82.09379476080504
 20
135.6281489657253
 30
0.0
 10
82.09572841192912
 20
135.6144776725002
 30
0.0
 10
82.09950152994011
 20
135.6017499040688
 30
0.0
 10
82.10327733842685
 20
135.5890130599201
 30
0.0
 10
82.10901144610251
 20
135.5768556291997
 30
0.0
 10
82.11638594869022
 20
135.5663886546895
 30
0.0
 10
82.11879531334273
 20
135.5629689313789
 30
0.0
 10
82.12139123407673
 20
135.5597045258497
 30
0.0
 10
82.12415507686238
 20
135.5566328887675
 30
0.0
  0
SPLINE
  5
147
330
1F
100
AcDbEntity
  8
0
  6
Continuous
 62
     7
370
     0
100
AcDbSpline
210
0.0
220
0.0
230
1.0
 70
     8
 71
     3
 72
    14
 73
    10
 74
     0
 42
0.000000001
 43
0.00000001
 40
0.0
 40
0.0
 40
0.0
 40
0.0
 40
0.0000389338800372
 40
0.0000389338800372
 40
0.0000389338800372
 40
0.0000777809519151
 40
0.0000777809519151
 40
0.0000777809519151
 40
0.0000939650131498
 40
0.0000939650131498
 40
0.0000939650131498
 40
0.0000939650131498
 10
76.24663110908212
 20
135.5566328887694
 30
0.0
 10
76.25566078907308
 20
135.5656752259332
 30
0.0
 10
76.2633007750761
 20
135.5764977273532
 30
0.0
 10
76.26895101235537
 20
135.588122468617
 30
0.0
 10
76.27459326015541
 20
135.5997307724067
 30
0.0
 10
76.27841115848408
 20
135.6124538617184
 30
0.0
 10
76.28012876072249
 20
135.6252951945822
 30
0.0
 10
76.28085218443805
 20
135.6307037370989
 30
0.0
 10
76.28121623873164
 20
135.6361745304017
 30
0.0
 10
76.28121623873164
 20
135.6416328887694
 30
0.0
  0
SPLINE
  5
148
330
1F
100
AcDbEntity
  8
0
  6
Continuous
 62
     7
370
     0
100
AcDbSpline
210
0.0
220
0.0
230
1.0
 70
     8
 71
     3
 72
    29
 73
    25
 74
     0
 42
0.000000001
 43
0.00000001
 40
0.0000000000000011
 40
0.0000000000000011
 40
0.0000000000000011
 40
0.0000000000000011
 40
0.0000553986491994
 40
0.0000553986491994
 40
0.0000553986491994
 40
0.0000744703661967
 40
0.0000744703661967
 40
0.0000744703661967
 40
0.0000938210300496
 40
0.0000938210300496
 40
0.0000938210300496
 40
0.00010725430962
 40
0.00010725430962
 40
0.00010725430962
 40
0.0001207016259441
 40
0.0001207016259441
 40
0.0001207016259441
 40
0.0001387455774107
 40
0.0001387455774107
 40
0.0001387455774107
 40
0.0001702186759774
 40
0.0001702186759774
 40
0.0001702186759774
 40
0.0002135383638974
 40
0.0002135383638974
 40
0.0002135383638974
 40
0.0002135383638974
 10
76.24663110907987
 20
135.5566328887687
 30
0.0
 10
76.24524985349304
 20
135.5492833068457
 30
0.0
 10
76.24240741932391
 20
135.5423442149487
 30
0.0
 10
76.23605744712577
 20
135.5366188303322
 30
0.0
 10
76.23385131919223
 20
135.5346296986418
 30
0.0
 10
76.2311739124727
 20
135.5327792466053
 30
0.0
 10
76.22782361348831
 20
135.531202967929
 30
0.0
 10
76.22444605210393
 20
135.5296138625945
 30
0.0
 10
76.22027698671225
 20
135.5282753066273
 30
0.0
 10
76.2152671285229
 20
135.5274734277038
 30
0.0
 10
76.21177459380604
 20
135.5269144118847
 30
0.0
 10
76.20778796689915
 20
135.526613663052
 30
0.0
 10
76.20357856267117
 20
135.5266338899347
 30
0.0
 10
76.19936403181637
 20
135.5266541414517
 30
0.0
 10
76.19483234227253
 20
135.5269960018917
 30
0.0
 10
76.19036525766388
 20
135.5275894129387
 30
0.0
 10
76.1843827253618
 20
135.5283841372541
 30
0.0
 10
76.17835614287304
 20
135.5296354719429
 30
0.0
 10
76.17266491836891
 20
135.5311107678249
 30
0.0
 10
76.16276747606673
 20
135.5336764118018
 30
0.0
 10
76.15351311969154
 20
135.5369670500732
 30
0.0
 10
76.14498513824299
 20
135.5405040157649
 30
0.0
 10
76.13322128251663
 20
135.5453830547681
 30
0.0
 10
76.12253368088363
 20
135.5508603524864
 30
0.0
 10
76.11266295835593
 20
135.5566328887694
 30
0.0
  0
SPLINE
  5
149
330
1F
100
AcDbEntity
  8
0
  6
Continuous
 62
     7
370
     0
100
AcDbSpline
210
0.0
220
0.0
230
1.0
 70
     8
 71
     3
 72
    14
 73
    10
 74
     0
 42
0.000000001
 43
0.00000001
 40
0.0
 40
0.0
 40
0.0
 40
0.0
 40
0.0000404517691324
 40
0.0000404517691324
 40
0.0000404517691324
 40
0.0000809563990268
 40
0.0000809563990268
 40
0.0000809563990268
 40
0.0000940103900616
 40
0.0000940103900616
 40
0.0000940103900616
 40
0.0000940103900616
 10
76.08232127900231
 20
135.6416328887694
 30
0.0
 10
76.08232127900231
 20
135.6281489657253
 30
0.0
 10
76.0842536388037
 20
135.6144776725002
 30
0.0
 10
76.08802433500655
 20
135.6017499040688
 30
0.0
 10
76.09179771995824
 20
135.5890130599201
 30
0.0
 10
76.09752820505972
 20
135.5768556291997
 30
0.0
 10
76.10489834283855
 20
135.5663886546895
 30
0.0
 10
76.10730628144005
 20
135.562968931379
 30
0.0
 10
76.10990069071634
 20
135.55970452585
 30
0.0
 10
76.1126629583573
 20
135.5566328887679
 30
0.0
  0
ARC
  5
14A
330
1F
100
AcDbEntity
  8
0
  6
Continuous
 62
     7
370
     0
100
AcDbCircle
 10
67.8590363571
 20
135.6416328888
 30
0.0
 40
0.1151947465356926
100
AcDbArc
 50
359.9999999863
 51
0.4973881128
  0
ARC
  5
14B
330
1F
100
AcDbEntity
  8
0
  6
Continuous
 62
     7
370
     0
100
AcDbCircle
 10
67.7815545497
 20
135.6421328888
 30
0.0
 40
0.0369379685184688
100
AcDbArc
 50
179.2244087633
 51
180.7755912366
  0
SPLINE
  5
14C
330
1F
100
AcDbEntity
  8
0
  6
Continuous
 62
     7
370
     0
100
AcDbSpline
210
0.0
220
0.0
230
1.0
 70
     8
 71
     3
 72
    14
 73
    10
 74
     0
 42
0.000000001
 43
0.00000001
 40
0.0
 40
0.0
 40
0.0
 40
0.0
 40
0.0000389338800372
 40
0.0000389338800372
 40
0.0000389338800372
 40
0.0000777809519151
 40
0.0000777809519151
 40
0.0000777809519151
 40
0.0000939650131496
 40
0.0000939650131496
 40
0.0000939650131496
 40
0.0000939650131496
 10
70.25841929441113
 20
135.5566328887694
 30
0.0
 10
70.26756711194632
 20
135.5656752259332
 30
0.0
 10
70.27529263580249
 20
135.5764977273532
 30
0.0
 10
70.28100215212
 20
135.588122468617
 30
0.0
 10
70.28670359513725
 20
135.5997307724067
 30
0.0
 10
70.2905566091267
 20
135.6124538617184
 30
0.0
 10
70.29229004630264
 20
135.6252951945822
 30
0.0
 10
70.2930201394141
 20
135.6307037370989
 30
0.0
 10
70.29338748312733
 20
135.6361745304015
 30
0.0
 10
70.29338748312735
 20
135.6416328887692
 30
0.0
  0
SPLINE
  5
14D
330
1F
100
AcDbEntity
  8
0
  6
Continuous
 62
     7
370
     0
100
AcDbSpline
210
0.0
220
0.0
230
1.0
 70
     8
 71
     3
 72
    29
 73
    25
 74
     0
 42
0.000000001
 43
0.00000001
 40
0.0000000000000006
 40
0.0000000000000006
 40
0.0000000000000006
 40
0.0000000000000006
 40
0.0000553986492
 40
0.0000553986492
 40
0.0000553986492
 40
0.0000744703661974
 40
0.0000744703661974
 40
0.0000744703661974
 40
0.0000938210300502
 40
0.0000938210300502
 40
0.0000938210300502
 40
0.0001072543096207
 40
0.0001072543096207
 40
0.0001072543096207
 40
0.0001207016259448
 40
0.0001207016259448
 40
0.0001207016259448
 40
0.0001387455774114
 40
0.0001387455774114
 40
0.0001387455774114
 40
0.0001702186759782
 40
0.0001702186759782
 40
0.0001702186759782
 40
0.0002135383638984
 40
0.0002135383638984
 40
0.0002135383638984
 40
0.0002135383638984
 10
70.25841929440996
 20
135.556632888769
 30
0.0
 10
70.25604179633338
 20
135.549283306846
 30
0.0
 10
70.25218040882031
 20
135.5423442149487
 30
0.0
 10
70.24487344884622
 20
135.5366188303322
 30
0.0
 10
70.24233484111613
 20
135.5346296986417
 30
0.0
 10
70.23933052361595
 20
135.5327792466052
 30
0.0
 10
70.23567619597841
 20
135.531202967929
 30
0.0
 10
70.2319921319674
 20
135.5296138625945
 30
0.0
 10
70.22753334875239
 20
135.5282753066273
 30
0.0
 10
70.22229500143806
 20
135.5274734277038
 30
0.0
 10
70.21864317953758
 20
135.5269144118847
 30
0.0
 10
70.21452489604282
 20
135.526613663052
 30
0.0
 10
70.21022729103467
 20
135.5266338899347
 30
0.0
 10
70.20592445198011
 20
135.5266541414517
 30
0.0
 10
70.20134595428223
 20
135.5269960018917
 30
0.0
 10
70.1968707251924
 20
135.5275894129387
 30
0.0
 10
70.19087728541348
 20
135.5283841372541
 30
0.0
 10
70.18490630597746
 20
135.5296354719429
 30
0.0
 10
70.17930840826175
 20
135.5311107678249
 30
0.0
 10
70.16957326785139
 20
135.5336764118018
 30
0.0
 10
70.16059375509303
 20
135.5369670500732
 30
0.0
 10
70.15237828725617
 20
135.5405040157649
 30
0.0
 10
70.14104552592913
 20
135.5453830547681
 30
0.0
 10
70.13087312086817
 20
135.5508603524864
 30
0.0
 10
70.12154741054519
 20
135.5566328887694
 30
0.0
  0
SPLINE
  5
14E
330
1F
100
AcDbEntity
  8
0
  6
Continuous
 62
     7
370
     0
100
AcDbSpline
210
0.0
220
0.0
230
1.0
 70
     8
 71
     3
 72
    14
 73
    10
 74
     0
 42
0.000000001
 43
0.00000001
 40
0.0
 40
0.0
 40
0.0
 40
0.0
 40
0.0000404517691324
 40
0.0000404517691324
 40
0.0000404517691324
 40
0.0000809563990268
 40
0.0000809563990268
 40
0.0000809563990268
 40
0.0000940103900615
 40
0.0000940103900615
 40
0.0000940103900615
 40
0.0000940103900615
 10
70.09018151452938
 20
135.6416328887694
 30
0.0
 10
70.09018151452938
 20
135.6281489657253
 30
0.0
 10
70.09218513397761
 20
135.6144776725002
 30
0.0
 10
70.0960892216014
 20
135.6017499040688
 30
0.0
 10
70.09999609309072
 20
135.5890130599201
 30
0.0
 10
70.10592595170002
 20
135.5768556291997
 30
0.0
 10
70.11353551200486
 20
135.5663886546895
 30
0.0
 10
70.11602167366779
 20
135.5629689313794
 30
0.0
 10
70.1186989181056
 20
135.5597045258507
 30
0.0
 10
70.12154741054557
 20
135.556632888769
 30
0.0
  0
LINE
  5
14F
330
1F
100
AcDbEntity
  8
0
  6
Continuous
 62
     7
370
     0
100
AcDbLine
 10
70.6281881107
 20
135.5566328888
 30
0.0
 11
70.9104255345
 21
135.5566328888
 31
0.0
  0
LINE
  5
150
330
1F
100
AcDbEntity
  8
0
  6
Continuous
 62
     7
370
     0
100
AcDbLine
 10
69.8104255345
 20
135.5566328888
 30
0.0
 11
70.1215474105
 21
135.5566328888
 31
0.0
  0
LINE
  5
151
330
1F
100
AcDbEntity
  8
0
  6
Continuous
 62
     7
370
     0
100
AcDbLine
 10
70.2584192944
 20
135.5566328888
 30
0.0
 11
70.49421996
 21
135.5566328888
 31
0.0
  0
LINE
  5
152
330
1F
100
AcDbEntity
  8
0
  6
Continuous
 62
     7
370
     0
100
AcDbLine
 10
70.2933874831
 20
135.6416328888
 30
0.0
 11
70.4596348304
 21
135.6416328888
 31
0.0
  0
LINE
  5
153
330
1F
100
AcDbEntity
  8
0
  6
Continuous
 62
     7
370
     0
100
AcDbLine
 10
76.2466311091
 20
135.5566328888
 30
0.0
 11
76.51421996
 21
135.5566328888
 31
0.0
  0
LINE
  5
154
330
1F
100
AcDbEntity
  8
0
  6
Continuous
 62
     7
370
     0
100
AcDbLine
 10
76.6481881107
 20
135.5566328888
 30
0.0
 11
76.9304255345
 21
135.5566328888
 31
0.0
  0
LINE
  5
155
330
1F
100
AcDbEntity
  8
0
  6
Continuous
 62
     7
370
     0
100
AcDbLine
 10
75.8304255345
 20
135.5566328888
 30
0.0
 11
76.1126629584
 21
135.5566328888
 31
0.0
  0
LINE
  5
156
330
1F
100
AcDbEntity
  8
0
  6
Continuous
 62
     7
370
     0
100
AcDbLine
 10
76.2812162387
 20
135.6416328888
 30
0.0
 11
76.4796348304
 21
135.6416328888
 31
0.0
  0
LINE
  5
157
330
1F
100
AcDbEntity
  8
0
  6
Continuous
 62
     7
370
     0
100
AcDbLine
 10
82.2581774923
 20
135.5566328888
 30
0.0
 11
82.9414255345
 21
135.5566328888
 31
0.0
  0
LINE
  5
158
330
1F
100
AcDbEntity
  8
0
  6
Continuous
 62
     7
370
     0
100
AcDbLine
 10
81.8414255345
 20
135.5566328888
 30
0.0
 11
82.1241550769
 21
135.5566328888
 31
0.0
  0
LINE
  5
159
330
1F
100
AcDbEntity
  8
0
  6
Continuous
 62
     7
370
     0
100
AcDbLine
 10
82.2927702843
 20
135.6416328888
 30
0.0
 11
82.9414255345
 21
135.6416328888
 31
0.0
  0
LINE
  5
15A
330
1F
100
AcDbEntity
  8
0
  6
Continuous
 62
     7
370
     0
100
AcDbLine
 10
81.8414255345
 20
135.6416328888
 30
0.0
 11
82.0937947608
 21
135.6416328888
 31
0.0
  0
LINE
  5
15B
330
1F
100
AcDbEntity
  8
0
  6
Continuous
 62
     7
370
     0
100
AcDbLine
 10
70.6585297901
 20
135.6416328888
 30
0.0
 11
70.9104255345
 21
135.6416328888
 31
0.0
  0
LINE
  5
15C
330
1F
100
AcDbEntity
  8
0
  6
Continuous
 62
     7
370
     0
100
AcDbLine
 10
69.8104255345
 20
135.6416328888
 30
0.0
 11
70.0901815145
 21
135.6416328888
 31
0.0
  0
LINE
  5
15D
330
1F
100
AcDbEntity
  8
0
  6
Continuous
 62
     7
370
     0
100
AcDbLine
 10
76.6785297901
 20
135.6416328888
 30
0.0
 11
76.9304255345
 21
135.6416328888
 31
0.0
  0
LINE
  5
15E
330
1F
100
AcDbEntity
  8
0
  6
Continuous
 62
     7
370
     0
100
AcDbLine
 10
75.8304255345
 20
135.6416328888
 30
0.0
 11
76.082321279
 21
135.6416328888
 31
0.0
  0
LINE
  5
15F
330
1F
100
AcDbEntity
  8
0
  6
Continuous
 62
     7
370
     0
100
AcDbLine
 10
66.4584255345
 20
145.6426328888
 30
0.0
 11
66.8584255345
 21
145.6426328888
 31
0.0
  0
LINE
  5
160
330
1F
100
AcDbEntity
  8
0
  6
Continuous
 62
     7
370
     0
100
AcDbLine
 10
66.4584255345
 20
135.6426328888
 30
0.0
 11
66.8584255345
 21
135.6426328888
 31
0.0
  0
LINE
  5
161
330
1F
100
AcDbEntity
  8
0
  6
Continuous
 62
     7
370
     0
100
AcDbLine
 10
66.4584255345
 20
135.6426328888
 30
0.0
 11
66.4584255345
 21
145.6426328888
 31
0.0
  0
LINE
  5
162
330
1F
100
AcDbEntity
  8
0
  6
Continuous
 62
     7
370
     0
100
AcDbLine
 10
66.8584255345
 20
135.6426328888
 30
0.0
 11
66.8584255345
 21
145.6426328888
 31
0.0
  0
MTEXT
  5
163
330
1F
100
AcDbEntity
  8
0
  6
Continuous
 62
     7
370
     0
100
AcDbMText
 10
151.8397438666
 20
160.3324899865
 30
0.0
 40
2.1166666667
 41
0.0
 71
     1
 72
     1
  1
NEGATIVE WIRE(~75mm LONG)
  7
SLDTEXTSTYLE0
 73
     1
 44
1.0
  0
LEADER
  5
165
330
1F
100
AcDbEntity
  8
0
  6
Continuous
 62
     7
370
     0
100
AcDbLeader
  3
SLDDIMSTYLE0
 76
     3
 10
133.981826843
 20
149.0245943108
 30
0.0
 10
144.9558690745
 20
159.3679458239
 30
0.0
 10
151.3058690745
 20
159.3679458239
 30
0.0
  0
MTEXT
  5
166
330
1F
100
AcDbEntity
  8
0
  6
Continuous
 62
     7
370
     0
100
AcDbMText
 10
80.3224664016
 20
155.487637853
 30
0.0
 40
2.1166666667
 41
0.0
 71
     1
 72
     1
  1
SCREEN-PRINTED ELECTRODE
  7
SLDTEXTSTYLE0
 73
     1
 44
1.0
  0
LEADER
  5
167
330
1F
100
AcDbEntity
  8
0
  6
Continuous
 62
     7
370
     0
100
AcDbLeader
  3
SLDDIMSTYLE0
 76
     3
 10
67.8015670934
 20
145.6426328888
 30
0.0
 10
73.3983069977
 20
154.5146726862
 30
0.0
 10
79.7483069977
 20
154.5146726862
 30
0.0
  0
MTEXT
  5
168
330
1F
100
AcDbEntity
  8
0
  6
Continuous
 62
     7
370
     0
100
AcDbMText
 10
80.8093914901
 20
126.0060785892
 30
0.0
 40
2.1166666667
 41
0.0
 71
     1
 72
     1
  1
SCREEN-PRINTED ELECTRODE
  7
SLDTEXTSTYLE0
 73
     1
 44
1.0
  0
LEADER
  5
169
330
1F
100
AcDbEntity
  8
0
  6
Continuous
 62
     7
370
     0
100
AcDbLeader
  3
SLDDIMSTYLE0
 76
     3
 10
68.2512981973
 20
135.6426328888
 30
0.0
 10
73.8497742664
 20
125.0564334086
 30
0.0
 10
80.1997742664
 20
125.0564334086
 30
0.0
  0
MTEXT
  5
16A
330
1F
100
AcDbEntity
  8
0
  6
Continuous
 62
     7
370
     0
100
AcDbMText
 10
152.8314422211
 20
122.0042781505
 30
0.0
 40
2.1166666667
 41
0.0
 71
     1
 72
     1
  1
POSITIVE WIRE(~75mm LONG)
  7
SLDTEXTSTYLE0
 73
     1
 44
1.0
  0
LEADER
  5
16B
330
1F
100
AcDbEntity
  8
0
  6
Continuous
 62
     7
370
     0
100
AcDbLeader
  3
SLDDIMSTYLE0
 76
     3
 10
133.3600457136
 20
132.2606714668
 30
0.0
 10
145.9716704289
 20
120.993227991
 30
0.0
 10
152.3216704289
 20
120.993227991
 30
0.0
  0
SPLINE
  5
16C
330
1F
100
AcDbEntity
  8
0
  6
Continuous
 62
     7
370
     0
100
AcDbSpline
210
0.0
220
0.0
230
1.0
 70
    24
 71
     3
 72
    22
 73
    18
 74
     0
 42
0.000000001
 43
0.00000001
 40
0.0
 40
0.0
 40
0.0
 40
0.0
 40
0.0831703379428796
 40
0.16616215706121
 40
0.238920224718987
 40
0.3023020241284027
 40
0.3569660601768142
 40
0.4033995968486375
 40
0.4419486910728381
 40
0.475921515835643
 40
0.5322654314723847
 40
0.6028052246926768
 40
0.6877463561691063
 40
0.7613512083385007
 40
0.8440959676328096
 40
0.9369215323707133
 40
1.0
 40
1.0
 40
1.0
 40
1.0
 10
213.850670116356
 20
145.7766206215604
 30
0.0
 10
213.8506701163557
 20
145.911690408597
 30
0.0
 10
213.850670116355
 20
146.181540065613
 30
0.0
 10
213.8506701163549
 20
146.5467336453723
 30
0.0
 10
213.8506701163551
 20
146.8654886720427
 30
0.0
 10
213.8506701163554
 20
147.12737704248
 30
0.0
 10
213.8506701163558
 20
147.3403466096778
 30
0.0
 10
213.850670116356
 20
147.5109387861128
 30
0.0
 10
213.8506701163562
 20
147.648432582733
 30
0.0
 10
213.8506701163563
 20
147.789769248253
 30
0.0
 10
213.8506701163563
 20
147.953898469507
 30
0.0
 10
213.8506701163563
 20
148.1459483128361
 30
0.0
 10
213.8506701163563
 20
148.319927170636
 30
0.0
 10
213.8506701163563
 20
148.4661464630135
 30
0.0
 10
213.8506701163563
 20
148.5778817247223
 30
0.0
 10
213.8506701163563
 20
148.6499418818127
 30
0.0
 10
213.8506701163563
 20
148.6652183822283
 30
0.0
 10
213.8506701163563
 20
148.6713992245216
 30
0.0
  0
SPLINE
  5
16D
330
1F
100
AcDbEntity
  8
0
  6
Continuous
 62
     7
370
     0
100
AcDbSpline
210
0.0
220
0.0
230
1.0
 70
    24
 71
     3
 72
    22
 73
    18
 74
     0
 42
0.000000001
 43
0.00000001
 40
0.0
 40
0.0
 40
0.0
 40
0.0
 40
0.0630715375430197
 40
0.1558975247630546
 40
0.2386426606581574
 40
0.3122478478293836
 40
0.397189365903079
 40
0.4677294801750299
 40
0.5240736522529459
 40
0.5580466316381396
 40
0.5965959013129533
 40
0.6430296493202813
 40
0.6976939341641178
 40
0.7610760220465956
 40
0.8338344208521721
 40
0.9168266176957705
 40
1.0
 40
1.0
 40
1.0
 40
1.0
 10
213.0106701163563
 20
148.6713965073877
 30
0.0
 10
213.0106701163563
 20
148.6652162614741
 30
0.0
 10
213.0106701163563
 20
148.6499401943623
 30
0.0
 10
213.0106701163563
 20
148.5778815898417
 30
0.0
 10
213.0106701163563
 20
148.4661464930294
 30
0.0
 10
213.0106701163563
 20
148.3199271616133
 30
0.0
 10
213.0106701163563
 20
148.1459483149427
 30
0.0
 10
213.0106701163563
 20
147.9538984690945
 30
0.0
 10
213.0106701163563
 20
147.7897692483121
 30
0.0
 10
213.0106701163562
 20
147.6484325827128
 30
0.0
 10
213.0106701163561
 20
147.5109387861495
 30
0.0
 10
213.010670116356
 20
147.3403466095195
 30
0.0
 10
213.0106701163558
 20
147.1273770432272
 30
0.0
 10
213.0106701163555
 20
146.8654886685746
 30
0.0
 10
213.0106701163554
 20
146.546733661285
 30
0.0
 10
213.0106701163555
 20
146.1815359224296
 30
0.0
 10
213.0106701163559
 20
145.9116818969758
 30
0.0
 10
213.0106701163561
 20
145.7766077610416
 30
0.0
  0
LINE
  5
16E
330
1F
100
AcDbEntity
  8
0
  6
Continuous
 62
     7
370
     0
100
AcDbLine
 10
221.5806701164
 20
145.6436328888
 30
0.0
 11
221.5806701164
 21
145.7286328888
 31
0.0
  0
LINE
  5
16F
330
1F
100
AcDbEntity
  8
0
  6
Continuous
 62
     7
370
     0
100
AcDbLine
 10
220.4806701164
 20
145.7286328888
 30
0.0
 11
220.4806701164
 21
145.6436328888
 31
0.0
  0
ARC
  5
170
330
1F
100
AcDbEntity
  8
0
  6
Continuous
 62
     7
370
     0
100
AcDbCircle
 10
221.0306701164
 20
144.5282162221
 30
0.0
 40
1.320416666666687
100
AcDbArc
 50
65.3839683651
 51
114.6160316349
  0
LINE
  5
171
330
1F
100
AcDbEntity
  8
0
  6
Continuous
 62
     7
370
     0
100
AcDbLine
 10
220.5523350699
 20
145.7586328888
 30
0.0
 11
213.8763879378
 21
145.7586328888
 31
0.0
  0
LINE
  5
172
330
1F
100
AcDbEntity
  8
0
  6
Continuous
 62
     7
370
     0
100
AcDbLine
 10
212.8806701164
 20
145.7286328888
 30
0.0
 11
212.8806701164
 21
145.6436328888
 31
0.0
  0
ARC
  5
173
330
1F
100
AcDbEntity
  8
0
  6
Continuous
 62
     7
370
     0
100
AcDbCircle
 10
213.4306701164
 20
144.5282162221
 30
0.0
 40
1.320416666666687
100
AcDbArc
 50
108.0097408119
 51
114.6160316349
  0
ARC
  5
174
330
1F
100
AcDbEntity
  8
0
  6
Continuous
 62
     7
370
     0
100
AcDbCircle
 10
213.4306701164
 20
144.5282162221
 30
0.0
 40
1.320416666666675
100
AcDbArc
 50
65.3839683651
 51
71.9649852169
  0
LINE
  5
175
330
1F
100
AcDbEntity
  8
0
  6
Continuous
 62
     7
370
     0
100
AcDbLine
 10
213.9806701164
 20
145.6436328888
 30
0.0
 11
213.9806701164
 21
145.7286328888
 31
0.0
  0
SPLINE
  5
176
330
1F
100
AcDbEntity
  8
0
  6
Continuous
 62
     7
370
     0
100
AcDbSpline
210
0.0
220
0.0
230
1.0
 70
    24
 71
     3
 72
    22
 73
    18
 74
     0
 42
0.000000001
 43
0.00000001
 40
0.0
 40
0.0
 40
0.0
 40
0.0
 40
0.0831727820314017
 40
0.1661643799098103
 40
0.2389222536088129
 40
0.3023038840547396
 40
0.356967774379513
 40
0.4034011872686041
 40
0.441950178728459
 40
0.4759229129263602
 40
0.5322666783612542
 40
0.6028062835362716
 40
0.687747188576279
 40
0.7613518445295526
 40
0.8440963832425357
 40
0.9369217005256708
 40
1.0
 40
1.0
 40
1.0
 40
1.0
 10
213.0106701163561
 20
135.5086580164973
 30
0.0
 10
213.0106701163559
 20
135.373583880563
 30
0.0
 10
213.0106701163555
 20
135.1037298551092
 30
0.0
 10
213.0106701163554
 20
134.7385321162539
 30
0.0
 10
213.0106701163555
 20
134.4197771089641
 30
0.0
 10
213.0106701163558
 20
134.1578887343122
 30
0.0
 10
213.010670116356
 20
133.9449191680178
 30
0.0
 10
213.0106701163561
 20
133.774326991394
 30
0.0
 10
213.0106701163562
 20
133.6368331948125
 30
0.0
 10
213.0106701163563
 20
133.4954965292828
 30
0.0
 10
213.0106701163563
 20
133.331367308033
 30
0.0
 10
213.0106701163563
 20
133.1393174647023
 30
0.0
 10
213.0106701163563
 20
132.9653386069029
 30
0.0
 10
213.0106701163563
 20
132.8191193145253
 30
0.0
 10
213.0106701163563
 20
132.7073840528166
 30
0.0
 10
213.0106701163563
 20
132.6353238957261
 30
0.0
 10
213.0106701163563
 20
132.6200473953106
 30
0.0
 10
213.0106701163563
 20
132.6138665530173
 30
0.0
  0
SPLINE
  5
177
330
1F
100
AcDbEntity
  8
0
  6
Continuous
 62
     7
370
     0
100
AcDbSpline
210
0.0
220
0.0
230
1.0
 70
    24
 71
     3
 72
    22
 73
    18
 74
     0
 42
0.000000001
 43
0.00000001
 40
0.0
 40
0.0
 40
0.0
 40
0.0
 40
0.0630717056810999
 40
0.1558979403594814
 40
0.2386432968390997
 40
0.312248680229284
 40
0.3971904247426756
 40
0.4677307270626206
 40
0.5240750493445562
 40
0.5580481192959631
 40
0.5965974917366085
 40
0.6430313635284587
 40
0.6976957940980405
 40
0.7610780509464506
 40
0.8338366437136062
 40
0.9168290618003254
 40
1.0
 40
1.0
 40
1.0
 40
1.0
 10
213.8506701163563
 20
132.6138692701511
 30
0.0
 10
213.8506701163563
 20
132.6200495160647
 30
0.0
 10
213.8506701163563
 20
132.6353255831765
 30
0.0
 10
213.8506701163563
 20
132.7073841876971
 30
0.0
 10
213.8506701163563
 20
132.8191192845094
 30
0.0
 10
213.8506701163563
 20
132.9653386159254
 30
0.0
 10
213.8506701163563
 20
133.1393174625966
 30
0.0
 10
213.8506701163563
 20
133.3313673084431
 30
0.0
 10
213.8506701163563
 20
133.4954965292297
 30
0.0
 10
213.8506701163562
 20
133.6368331948193
 30
0.0
 10
213.850670116356
 20
133.7743269914214
 30
0.0
 10
213.8506701163558
 20
133.9449191678626
 30
0.0
 10
213.8506701163554
 20
134.1578887350582
 30
0.0
 10
213.8506701163551
 20
134.4197771054963
 30
0.0
 10
213.8506701163549
 20
134.7385321321665
 30
0.0
 10
213.850670116355
 20
135.1037257119258
 30
0.0
 10
213.8506701163557
 20
135.3735753689419
 30
0.0
 10
213.850670116356
 20
135.5086451559784
 30
0.0
  0
ARC
  5
178
330
1F
100
AcDbEntity
  8
0
  6
Continuous
 62
     7
370
     0
100
AcDbCircle
 10
221.0306701164
 20
136.7570495554
 30
0.0
 40
1.320416666666687
100
AcDbArc
 50
245.3839683651
 51
270.0
  0
ARC
  5
179
330
1F
100
AcDbEntity
  8
0
  6
Continuous
 62
     7
370
     0
100
AcDbCircle
 10
221.0306701164
 20
136.7570495554
 30
0.0
 40
1.320416666666675
100
AcDbArc
 50
270.0
 51
294.6160316349
  0
LINE
  5
17A
330
1F
100
AcDbEntity
  8
0
  6
Continuous
 62
     7
370
     0
100
AcDbLine
 10
220.4806701164
 20
135.6416328888
 30
0.0
 11
220.4806701164
 21
135.5566328888
 31
0.0
  0
LINE
  5
17B
330
1F
100
AcDbEntity
  8
0
  6
Continuous
 62
     7
370
     0
100
AcDbLine
 10
221.5806701164
 20
135.5566328888
 30
0.0
 11
221.5806701164
 21
135.6416328888
 31
0.0
  0
LINE
  5
17C
330
1F
100
AcDbEntity
  8
0
  6
Continuous
 62
     7
370
     0
100
AcDbLine
 10
213.8763879378
 20
135.5266328888
 30
0.0
 11
220.5849522949
 21
135.5266328888
 31
0.0
  0
ARC
  5
17D
330
1F
100
AcDbEntity
  8
0
  6
Continuous
 62
     7
370
     0
100
AcDbCircle
 10
213.4306701164
 20
136.7570495554
 30
0.0
 40
1.320416666666687
100
AcDbArc
 50
245.3839683651
 51
252.0210090106
  0
ARC
  5
17E
330
1F
100
AcDbEntity
  8
0
  6
Continuous
 62
     7
370
     0
100
AcDbCircle
 10
213.4306701164
 20
136.7570495554
 30
0.0
 40
1.320416666666675
100
AcDbArc
 50
288.0593671595
 51
290.4963612366
  0
LINE
  5
17F
330
1F
100
AcDbEntity
  8
0
  6
Continuous
 62
     7
370
     0
100
AcDbLine
 10
212.8806701164
 20
135.6416328888
 30
0.0
 11
212.8806701164
 21
135.5566328888
 31
0.0
  0
LWPOLYLINE
  5
180
330
1F
100
AcDbEntity
  8
0
  6
Continuous
 62
     7
370
     0
100
AcDbPolyline
 90
       23
 70
   128
 43
0.0
 10
213.8506701164
 20
148.6754602286
 10
213.8336571653
 20
148.7738226662
 10
213.7839966001
 20
148.8642163642
 10
213.7057116246
 20
148.9393181626
 10
213.6051444218
 20
148.9930437604
 10
213.4904423484
 20
149.0210406292
 10
213.3708978843
 20
149.0210406292
 10
213.2561958109
 20
148.9930437604
 10
213.1556286081
 20
148.9393181626
 10
213.0773436326
 20
148.8642163642
 10
213.0276830674
 20
148.7738226662
 10
213.0106701164
 20
148.6754602286
 10
213.0276830674
 20
148.5770977909
 10
213.0773436326
 20
148.4867040929
 10
213.1556286081
 20
148.4116022945
 10
213.2561958109
 20
148.3578766967
 10
213.3708978843
 20
148.3298798279
 10
213.4904423484
 20
148.3298798279
 10
213.6051444218
 20
148.3578766967
 10
213.7057116246
 20
148.4116022945
 10
213.7839966001
 20
148.4867040929
 10
213.8336571653
 20
148.5770977909
 10
213.8506701164
 20
148.6754602286
  0
SPLINE
  5
181
330
1F
100
AcDbEntity
  8
0
  6
Continuous
 62
     7
370
     0
100
AcDbSpline
210
0.0
220
0.0
230
1.0
 70
     8
 71
     3
 72
    26
 73
    22
 74
     0
 42
0.000000001
 43
0.00000001
 40
0.0
 40
0.0
 40
0.0
 40
0.0
 40
0.0505498841916435
 40
0.1008683720625545
 40
0.1525968067656708
 40
0.20384713500108
 40
0.2565054906179033
 40
0.3092066733917159
 40
0.3633577833210892
 40
0.4174870734069176
 40
0.4731313364297786
 40
0.5282225773496106
 40
0.5848973627034775
 40
0.6401964767259243
 40
0.6971332821151647
 40
0.751798039282043
 40
0.8081238508325449
 40
0.8614680734964996
 40
0.9164530313171174
 40
0.9682141912394515
 40
1.0
 40
1.0
 40
1.0
 40
1.0
 10
213.0108231370781
 20
145.7766170013481
 30
0.0
 10
213.0119348691611
 20
145.7750615684783
 30
0.0
 10
213.0141532442806
 20
145.7719578228628
 30
0.0
 10
213.0314681046795
 20
145.7676910557776
 30
0.0
 10
213.0583725610282
 20
145.7638172698305
 30
0.0
 10
213.0956390911335
 20
145.7603863183687
 30
0.0
 10
213.1418063347646
 20
145.7574678993243
 30
0.0
 10
213.196459485234
 20
145.7550680999508
 30
0.0
 10
213.2578470463087
 20
145.7532399185789
 30
0.0
 10
213.3250196338819
 20
145.7519942459899
 30
0.0
 10
213.3954836337114
 20
145.7513690681878
 30
0.0
 10
213.4679986658022
 20
145.7513766394689
 30
0.0
 10
213.5393507962816
 20
145.7520313495304
 30
0.0
 10
213.6083662145332
 20
145.753349213239
 30
0.0
 10
213.6715232752586
 20
145.7553018281029
 30
0.0
 10
213.7280654391961
 20
145.757912356731
 30
0.0
 10
213.774853842325
 20
145.7610876343459
 30
0.0
 10
213.8118574672586
 20
145.7648529512454
 30
0.0
 10
213.8365154193669
 20
145.7690512230189
 30
0.0
 10
213.8494409154688
 20
145.7730338035368
 30
0.0
 10
213.8493635204132
 20
145.7756493026011
 30
0.0
 10
213.8493340751266
 20
145.7766443806318
 30
0.0
  0
LINE
  5
182
330
1F
100
AcDbEntity
  8
0
  6
Continuous
 62
     7
370
     0
100
AcDbLine
 10
220.4806701164
 20
145.6436328888
 30
0.0
 11
221.5806701164
 21
145.6436328888
 31
0.0
  0
LINE
  5
183
330
1F
100
AcDbEntity
  8
0
  6
Continuous
 62
     7
370
     0
100
AcDbLine
 10
220.4806701164
 20
145.7286328888
 30
0.0
 11
221.5806701164
 21
145.7286328888
 31
0.0
  0
SPLINE
  5
184
330
1F
100
AcDbEntity
  8
0
  6
Continuous
 62
     7
370
     0
100
AcDbSpline
210
0.0
220
0.0
230
1.0
 70
     8
 71
     3
 72
    14
 73
    10
 74
     0
 42
0.000000001
 43
0.00000001
 40
0.0
 40
0.0
 40
0.0
 40
0.0
 40
0.0000404517691324
 40
0.0000404517691324
 40
0.0000404517691324
 40
0.0000809563990268
 40
0.0000809563990268
 40
0.0000809563990268
 40
0.0000940103900621
 40
0.0000940103900621
 40
0.0000940103900621
 40
0.0000940103900621
 10
213.893180573018
 20
145.6436328887694
 30
0.0
 10
213.893180573018
 20
145.6571168118136
 30
0.0
 10
213.8944405679448
 20
145.6707881050386
 30
0.0
 10
213.8968035473972
 20
145.68351587347
 30
0.0
 10
213.8991682118059
 20
145.6962527176187
 30
0.0
 10
213.9027027430451
 20
145.7084101483392
 30
0.0
 10
213.906961231339
 20
145.7188771228493
 30
0.0
 10
213.9083525456744
 20
145.7222968461594
 30
0.0
 10
213.9098271646353
 20
145.7255612516881
 30
0.0
 10
213.911363888365
 20
145.7286328887698
 30
0.0
  0
SPLINE
  5
185
330
1F
100
AcDbEntity
  8
0
  6
Continuous
 62
     7
370
     0
100
AcDbSpline
210
0.0
220
0.0
230
1.0
 70
     8
 71
     3
 72
    29
 73
    25
 74
     0
 42
0.000000001
 43
0.00000001
 40
0.0
 40
0.0
 40
0.0
 40
0.0
 40
0.0000553986492001
 40
0.0000553986492001
 40
0.0000553986492001
 40
0.0000744703661974
 40
0.0000744703661974
 40
0.0000744703661974
 40
0.0000938210300502
 40
0.0000938210300502
 40
0.0000938210300502
 40
0.0001072543096207
 40
0.0001072543096207
 40
0.0001072543096207
 40
0.0001207016259448
 40
0.0001207016259448
 40
0.0001207016259448
 40
0.0001387455774115
 40
0.0001387455774115
 40
0.0001387455774115
 40
0.0001702186759782
 40
0.0001702186759782
 40
0.0001702186759782
 40
0.0002135383638979
 40
0.0002135383638979
 40
0.0002135383638979
 40
0.0002135383638979
 10
213.9642851079338
 20
145.7286328887698
 30
0.0
 10
213.9474023100395
 20
145.7359824706928
 30
0.0
 10
213.9300937889512
 20
145.7429215625901
 30
0.0
 10
213.9137326806523
 20
145.7486469472066
 30
0.0
 10
213.9080484513493
 20
145.7506360788971
 30
0.0
 10
213.9024449095066
 20
145.7524865309336
 30
0.0
 10
213.8972090041671
 20
145.7540628096099
 30
0.0
 10
213.8919304926762
 20
145.7556519149443
 30
0.0
 10
213.8869131417058
 20
145.7569904709115
 30
0.0
 10
213.8829069493023
 20
145.757792349835
 30
0.0
 10
213.8801141025743
 20
145.7583513656541
 30
0.0
 10
213.87777428334
 20
145.7586521144868
 30
0.0
 10
213.8761627991586
 20
145.7586318876041
 30
0.0
 10
213.8745493523531
 20
145.7586116360871
 30
0.0
 10
213.8736284778097
 20
145.7582697756472
 30
0.0
 10
213.8733631305162
 20
145.7576763646001
 30
0.0
 10
213.8730077647926
 20
145.7568816402847
 30
0.0
 10
213.8737756242085
 20
145.7556303055959
 30
0.0
 10
213.8751908564303
 20
145.7541550097139
 30
0.0
 10
213.8776520454502
 20
145.7515893657369
 30
0.0
 10
213.8820343377156
 20
145.7482987274656
 30
0.0
 10
213.8870742677506
 20
145.744761761774
 30
0.0
 10
213.8940265588831
 20
145.7398827227708
 30
0.0
 10
213.9024315079147
 20
145.7344054250524
 30
0.0
 10
213.9113638883649
 20
145.7286328887694
 30
0.0
  0
SPLINE
  5
186
330
1F
100
AcDbEntity
  8
0
  6
Continuous
 62
     7
370
     0
100
AcDbSpline
210
0.0
220
0.0
230
1.0
 70
     8
 71
     3
 72
    14
 73
    10
 74
     0
 42
0.000000001
 43
0.00000001
 40
0.000000000000001
 40
0.000000000000001
 40
0.000000000000001
 40
0.000000000000001
 40
0.0000389338800372
 40
0.0000389338800372
 40
0.0000389338800372
 40
0.0000777809519151
 40
0.0000777809519151
 40
0.0000777809519151
 40
0.0000939650131498
 40
0.0000939650131498
 40
0.0000939650131498
 40
0.0000939650131498
 10
213.964285107934
 20
145.7286328887694
 30
0.0
 10
213.9665404710402
 20
145.7195905516056
 30
0.0
 10
213.968204964513
 20
145.7087680501856
 30
0.0
 10
213.9693686456904
 20
145.6971433089218
 30
0.0
 10
213.9705306814136
 20
145.6855350051321
 30
0.0
 10
213.9712334756358
 20
145.6728119158205
 30
0.0
 10
213.971550276189
 20
145.6599705829566
 30
0.0
 10
213.9716837069846
 20
145.6545620404399
 30
0.0
 10
213.9717497238049
 20
145.6490912471371
 30
0.0
 10
213.9717497238049
 20
145.6436328887694
 30
0.0
  0
LINE
  5
187
330
1F
100
AcDbEntity
  8
0
  6
Continuous
 62
     7
370
     0
100
AcDbLine
 10
212.8806701164
 20
145.6436328888
 30
0.0
 11
213.893180573
 21
145.6436328888
 31
0.0
  0
LINE
  5
188
330
1F
100
AcDbEntity
  8
0
  6
Continuous
 62
     7
370
     0
100
AcDbLine
 10
212.8806701164
 20
145.7286328888
 30
0.0
 11
213.9113638884
 21
145.7286328888
 31
0.0
  0
LINE
  5
189
330
1F
100
AcDbEntity
  8
0
  6
Continuous
 62
     7
370
     0
100
AcDbLine
 10
222.2306701164
 20
145.6426328888
 30
0.0
 11
212.2306701164
 21
145.6426328888
 31
0.0
  0
LINE
  5
18A
330
1F
100
AcDbEntity
  8
0
  6
Continuous
 62
     7
370
     0
100
AcDbLine
 10
212.2306701164
 20
145.6426328888
 30
0.0
 11
212.2306701164
 21
135.6426328888
 31
0.0
  0
LINE
  5
18B
330
1F
100
AcDbEntity
  8
0
  6
Continuous
 62
     7
370
     0
100
AcDbLine
 10
222.2306701164
 20
135.6426328888
 30
0.0
 11
222.2306701164
 21
145.6426328888
 31
0.0
  0
LINE
  5
18C
330
1F
100
AcDbEntity
  8
0
  6
Continuous
 62
     7
370
     0
100
AcDbLine
 10
212.2306701164
 20
135.6426328888
 30
0.0
 11
222.2306701164
 21
135.6426328888
 31
0.0
  0
LWPOLYLINE
  5
18D
330
1F
100
AcDbEntity
  8
0
  6
Continuous
 62
     7
370
     0
100
AcDbPolyline
 90
       23
 70
   128
 43
0.0
 10
213.8506701164
 20
132.609805549
 10
213.8336571653
 20
132.5114431113
 10
213.7839966001
 20
132.4210494134
 10
213.7057116246
 20
132.345947615
 10
213.6051444218
 20
132.2922220171
 10
213.4904423484
 20
132.2642251483
 10
213.3708978843
 20
132.2642251483
 10
213.2561958109
 20
132.2922220171
 10
213.1556286081
 20
132.345947615
 10
213.0773436326
 20
132.4210494134
 10
213.0276830674
 20
132.5114431113
 10
213.0106701164
 20
132.609805549
 10
213.0276830674
 20
132.7081679866
 10
213.0773436326
 20
132.7985616846
 10
213.1556286081
 20
132.873663483
 10
213.2561958109
 20
132.9273890808
 10
213.3708978843
 20
132.9553859497
 10
213.4904423484
 20
132.9553859497
 10
213.6051444218
 20
132.9273890808
 10
213.7057116246
 20
132.873663483
 10
213.7839966001
 20
132.7985616846
 10
213.8336571653
 20
132.7081679866
 10
213.8506701164
 20
132.609805549
  0
SPLINE
  5
18E
330
1F
100
AcDbEntity
  8
0
  6
Continuous
 62
     7
370
     0
100
AcDbSpline
210
0.0
220
0.0
230
1.0
 70
     8
 71
     3
 72
    26
 73
    22
 74
     0
 42
0.000000001
 43
0.00000001
 40
0.0
 40
0.0
 40
0.0
 40
0.0
 40
0.0505498841916442
 40
0.1008683720625549
 40
0.152596806765671
 40
0.2038471350010801
 40
0.2565054906179029
 40
0.3092066733917165
 40
0.3633577833210906
 40
0.4174870734069186
 40
0.4731313364297792
 40
0.528222577349611
 40
0.5848973627034775
 40
0.6401964767259252
 40
0.6971332821151666
 40
0.7517980392820446
 40
0.808123850832546
 40
0.8614680734965006
 40
0.916453031317118
 40
0.9682141912394517
 40
1.0
 40
1.0
 40
1.0
 40
1.0
 10
213.0108231370781
 20
135.5086487761908
 30
0.0
 10
213.0119348691611
 20
135.5102042090605
 30
0.0
 10
213.0141532442806
 20
135.513307954676
 30
0.0
 10
213.0314681046795
 20
135.5175747217613
 30
0.0
 10
213.0583725610282
 20
135.5214485077083
 30
0.0
 10
213.0956390911335
 20
135.5248794591701
 30
0.0
 10
213.1418063347646
 20
135.5277978782146
 30
0.0
 10
213.196459485234
 20
135.5301976775879
 30
0.0
 10
213.2578470463087
 20
135.53202585896
 30
0.0
 10
213.3250196338819
 20
135.5332715315489
 30
0.0
 10
213.3954836337114
 20
135.533896709351
 30
0.0
 10
213.4679986658022
 20
135.5338891380699
 30
0.0
 10
213.5393507962816
 20
135.5332344280084
 30
0.0
 10
213.6083662145332
 20
135.5319165642997
 30
0.0
 10
213.6715232752586
 20
135.5299639494359
 30
0.0
 10
213.7280654391961
 20
135.5273534208078
 30
0.0
 10
213.774853842325
 20
135.5241781431929
 30
0.0
 10
213.8118574672586
 20
135.5204128262935
 30
0.0
 10
213.8365154193669
 20
135.5162145545199
 30
0.0
 10
213.8494409154688
 20
135.512231974002
 30
0.0
 10
213.8493635204132
 20
135.5096164749378
 30
0.0
 10
213.8493340751266
 20
135.508621396907
 30
0.0
  0
LINE
  5
18F
330
1F
100
AcDbEntity
  8
0
  6
Continuous
 62
     7
370
     0
100
AcDbLine
 10
220.4806701164
 20
135.5566328888
 30
0.0
 11
221.5806701164
 21
135.5566328888
 31
0.0
  0
LINE
  5
190
330
1F
100
AcDbEntity
  8
0
  6
Continuous
 62
     7
370
     0
100
AcDbLine
 10
220.4806701164
 20
135.6416328888
 30
0.0
 11
221.5806701164
 21
135.6416328888
 31
0.0
  0
LINE
  5
191
330
1F
100
AcDbEntity
  8
0
  6
Continuous
 62
     7
370
     0
100
AcDbLine
 10
221.0306701164
 20
135.6416328888
 30
0.0
 11
221.0306701164
 21
135.6426328888
 31
0.0
  0
SPLINE
  5
192
330
1F
100
AcDbEntity
  8
0
  6
Continuous
 62
     7
370
     0
100
AcDbSpline
210
0.0
220
0.0
230
1.0
 70
     8
 71
     3
 72
    12
 73
     8
 74
     0
 42
0.000000001
 43
0.00000001
 40
0.0
 40
0.0
 40
0.0
 40
0.0
 40
0.0042003888528228
 40
0.1305536073105058
 40
0.2997718507778309
 40
0.5940543553554362
 40
0.9999999999999999
 40
0.9999999999999999
 40
0.9999999999999999
 40
0.9999999999999999
 10
213.8763872695293
 20
135.5266618328705
 30
0.0
 10
213.8763118149735
 20
135.5266522242583
 30
0.0
 10
213.8739665881896
 20
135.5263535759617
 30
0.0
 10
213.8727812852425
 20
135.5276262823422
 30
0.0
 10
213.874952044706
 20
135.5317152839484
 30
0.0
 10
213.887990020926
 20
135.5414361550474
 30
0.0
 10
213.902786104532
 20
135.5510559641473
 30
0.0
 10
213.9113638883649
 20
135.5566328887694
 30
0.0
  0
SPLINE
  5
193
330
1F
100
AcDbEntity
  8
0
  6
Continuous
 62
     7
370
     0
100
AcDbSpline
210
0.0
220
0.0
230
1.0
 70
     8
 71
     3
 72
    14
 73
    10
 74
     0
 42
0.000000001
 43
0.00000001
 40
0.0
 40
0.0
 40
0.0
 40
0.0
 40
0.0000404517691324
 40
0.0000404517691324
 40
0.0000404517691324
 40
0.0000809563990268
 40
0.0000809563990268
 40
0.0000809563990268
 40
0.0000940103900621
 40
0.0000940103900621
 40
0.0000940103900621
 40
0.0000940103900621
 10
213.893180573018
 20
135.6416328887694
 30
0.0
 10
213.893180573018
 20
135.6281489657253
 30
0.0
 10
213.8944405679448
 20
135.6144776725002
 30
0.0
 10
213.8968035473972
 20
135.6017499040688
 30
0.0
 10
213.8991682118059
 20
135.5890130599201
 30
0.0
 10
213.9027027430451
 20
135.5768556291997
 30
0.0
 10
213.906961231339
 20
135.5663886546895
 30
0.0
 10
213.9083525456744
 20
135.5629689313794
 30
0.0
 10
213.9098271646353
 20
135.5597045258507
 30
0.0
 10
213.911363888365
 20
135.556632888769
 30
0.0
  0
LINE
  5
194
330
1F
100
AcDbEntity
  8
0
  6
Continuous
 62
     7
370
     0
100
AcDbLine
 10
212.8806701164
 20
135.5566328888
 30
0.0
 11
213.9113638884
 21
135.5566328888
 31
0.0
  0
LINE
  5
195
330
1F
100
AcDbEntity
  8
0
  6
Continuous
 62
     7
370
     0
100
AcDbLine
 10
212.8806701164
 20
135.6416328888
 30
0.0
 11
213.893180573
 21
135.6416328888
 31
0.0
  0
DIMENSION
  5
196
330
1F
100
AcDbEntity
  8
0
  6
Continuous
 62
     7
370
     0
100
AcDbDimension
  2
_D
 10
222.2306701164
 20
121.3536118613
 30
0.0
 11
240.2559406423
 21
121.3536118613
 31
0.0
 70
   160
  1
<>
 71
     2
 42
-1.0
  3
SLDDIMSTYLE1
100
AcDbAlignedDimension
 13
212.2306701164
 23
135.6426328888
 33
0.0
 14
222.2306701164
 24
135.6426328888
 34
0.0
100
AcDbRotatedDimension
  0
LINE
  5
1AB
330
1F
100
AcDbEntity
  8
0
  6
Continuous
 62
     7
370
     0
100
AcDbLine
 10
23.4602082824
 20
145.6436328888
 30
0.0
 11
23.4602082824
 21
145.7286328888
 31
0.0
  0
LINE
  5
1AC
330
1F
100
AcDbEntity
  8
0
  6
Continuous
 62
     7
370
     0
100
AcDbLine
 10
22.3602082824
 20
145.7286328888
 30
0.0
 11
22.3602082824
 21
145.6436328888
 31
0.0
  0
ARC
  5
1AD
330
1F
100
AcDbEntity
  8
0
  6
Continuous
 62
     7
370
     0
100
AcDbCircle
 10
22.9102082824
 20
144.5282162221
 30
0.0
 40
1.320416666666688
100
AcDbArc
 50
65.3839683651
 51
90.0
  0
ARC
  5
1AE
330
1F
100
AcDbEntity
  8
0
  6
Continuous
 62
     7
370
     0
100
AcDbCircle
 10
22.9102082824
 20
144.5282162221
 30
0.0
 40
1.320416666666688
100
AcDbArc
 50
90.0
 51
114.6160316349
  0
LINE
  5
1AF
330
1F
100
AcDbEntity
  8
0
  6
Continuous
 62
     7
370
     0
100
AcDbLine
 10
22.455013995
 20
145.7586328888
 30
0.0
 11
15.7654025698
 21
145.7586328888
 31
0.0
  0
LINE
  5
1B0
330
1F
100
AcDbEntity
  8
0
  6
Continuous
 62
     7
370
     0
100
AcDbLine
 10
14.7602082824
 20
145.7286328888
 30
0.0
 11
14.7602082824
 21
145.6436328888
 31
0.0
  0
ARC
  5
1B1
330
1F
100
AcDbEntity
  8
0
  6
Continuous
 62
     7
370
     0
100
AcDbCircle
 10
15.3102082824
 20
144.5282162221
 30
0.0
 40
1.320416666666688
100
AcDbArc
 50
65.3839683651
 51
90.0
  0
ARC
  5
1B2
330
1F
100
AcDbEntity
  8
0
  6
Continuous
 62
     7
370
     0
100
AcDbCircle
 10
15.3102082824
 20
144.5282162221
 30
0.0
 40
1.320416666666688
100
AcDbArc
 50
90.0
 51
114.6160316349
  0
LINE
  5
1B3
330
1F
100
AcDbEntity
  8
0
  6
Continuous
 62
     7
370
     0
100
AcDbLine
 10
15.8602082824
 20
145.6436328888
 30
0.0
 11
15.8602082824
 21
145.7286328888
 31
0.0
  0
SPLINE
  5
1B4
330
1F
100
AcDbEntity
  8
0
  6
Continuous
 62
     7
370
     0
100
AcDbSpline
210
0.0
220
0.0
230
1.0
 70
    24
 71
     3
 72
    22
 73
    18
 74
     0
 42
0.000000001
 43
0.00000001
 40
0.0
 40
0.0
 40
0.0
 40
0.0
 40
0.0831727820314014
 40
0.16616437990981
 40
0.2389222536088126
 40
0.3023038840547393
 40
0.3569677743795128
 40
0.4034011872686039
 40
0.4419501787284588
 40
0.47592291292636
 40
0.5322666783612541
 40
0.6028062835362715
 40
0.687747188576279
 40
0.7613518445295525
 40
0.8440963832425357
 40
0.9369217005256709
 40
1.0
 40
1.0
 40
1.0
 40
1.0
 10
23.33020828242607
 20
145.7766077610416
 30
0.0
 10
23.33020828242628
 20
145.9116818969758
 30
0.0
 10
23.33020828242669
 20
146.1815359224296
 30
0.0
 10
23.33020828242677
 20
146.5467336612849
 30
0.0
 10
23.33020828242665
 20
146.8654886685747
 30
0.0
 10
23.33020828242643
 20
147.1273770432266
 30
0.0
 10
23.33020828242621
 20
147.340346609521
 30
0.0
 10
23.33020828242603
 20
147.5109387861449
 30
0.0
 10
23.33020828242592
 20
147.6484325827264
 30
0.0
 10
23.33020828242583
 20
147.789769248256
 30
0.0
 10
23.33020828242585
 20
147.9538984695058
 30
0.0
 10
23.33020828242584
 20
148.1459483128365
 30
0.0
 10
23.33020828242584
 20
148.3199271706359
 30
0.0
 10
23.33020828242584
 20
148.4661464630135
 30
0.0
 10
23.33020828242584
 20
148.5778817247223
 30
0.0
 10
23.33020828242584
 20
148.6499418818127
 30
0.0
 10
23.33020828242584
 20
148.6652183822283
 30
0.0
 10
23.33020828242584
 20
148.6713992245216
 30
0.0
  0
SPLINE
  5
1B5
330
1F
100
AcDbEntity
  8
0
  6
Continuous
 62
     7
370
     0
100
AcDbSpline
210
0.0
220
0.0
230
1.0
 70
    24
 71
     3
 72
    22
 73
    18
 74
     0
 42
0.000000001
 43
0.00000001
 40
0.0
 40
0.0
 40
0.0
 40
0.0
 40
0.0630717056810999
 40
0.1558979403594814
 40
0.2386432968390997
 40
0.312248680229284
 40
0.3971904247426756
 40
0.4677307270626206
 40
0.5240750493445562
 40
0.5580481192959631
 40
0.5965974917366085
 40
0.6430313635284587
 40
0.6976957940980405
 40
0.7610780509464506
 40
0.8338366437136062
 40
0.9168290618003254
 40
1.0
 40
1.0
 40
1.0
 40
1.0
 10
22.49020828242584
 20
148.6713965073877
 30
0.0
 10
22.49020828242584
 20
148.6652162614741
 30
0.0
 10
22.49020828242584
 20
148.6499401943623
 30
0.0
 10
22.49020828242584
 20
148.5778815898417
 30
0.0
 10
22.49020828242584
 20
148.4661464930294
 30
0.0
 10
22.49020828242584
 20
148.3199271616134
 30
0.0
 10
22.49020828242584
 20
148.1459483149423
 30
0.0
 10
22.49020828242585
 20
147.9538984690957
 30
0.0
 10
22.49020828242583
 20
147.7897692483092
 30
0.0
 10
22.49020828242595
 20
147.6484325827195
 30
0.0
 10
22.49020828242613
 20
147.5109387861174
 30
0.0
 10
22.49020828242639
 20
147.3403466096762
 30
0.0
 10
22.49020828242672
 20
147.1273770424806
 30
0.0
 10
22.49020828242706
 20
146.8654886720425
 30
0.0
 10
22.49020828242723
 20
146.5467336453723
 30
0.0
 10
22.49020828242712
 20
146.181540065613
 30
0.0
 10
22.4902082824265
 20
145.911690408597
 30
0.0
 10
22.49020828242618
 20
145.7766206215604
 30
0.0
  0
ARC
  5
1B6
330
1F
100
AcDbEntity
  8
0
  6
Continuous
 62
     7
370
     0
100
AcDbCircle
 10
22.9102082824
 20
136.7570495554
 30
0.0
 40
1.320416666666682
100
AcDbArc
 50
245.3839683651
 51
294.6160316349
  0
LINE
  5
1B7
330
1F
100
AcDbEntity
  8
0
  6
Continuous
 62
     7
370
     0
100
AcDbLine
 10
22.3602082824
 20
135.6416328888
 30
0.0
 11
22.3602082824
 21
135.5566328888
 31
0.0
  0
LINE
  5
1B8
330
1F
100
AcDbEntity
  8
0
  6
Continuous
 62
     7
370
     0
100
AcDbLine
 10
23.4602082824
 20
135.5566328888
 30
0.0
 11
23.4602082824
 21
135.6416328888
 31
0.0
  0
LINE
  5
1B9
330
1F
100
AcDbEntity
  8
0
  6
Continuous
 62
     7
370
     0
100
AcDbLine
 10
15.7654025698
 20
135.5266328888
 30
0.0
 11
22.455013995
 21
135.5266328888
 31
0.0
  0
LINE
  5
1BA
330
1F
100
AcDbEntity
  8
0
  6
Continuous
 62
     7
370
     0
100
AcDbLine
 10
14.7602082824
 20
135.6416328888
 30
0.0
 11
14.7602082824
 21
135.5566328888
 31
0.0
  0
ARC
  5
1BB
330
1F
100
AcDbEntity
  8
0
  6
Continuous
 62
     7
370
     0
100
AcDbCircle
 10
15.3102082824
 20
136.7570495554
 30
0.0
 40
1.320416666666682
100
AcDbArc
 50
245.3839683651
 51
294.6160316349
  0
LINE
  5
1BC
330
1F
100
AcDbEntity
  8
0
  6
Continuous
 62
     7
370
     0
100
AcDbLine
 10
15.8602082824
 20
135.5566328888
 30
0.0
 11
15.8602082824
 21
135.6416328888
 31
0.0
  0
SPLINE
  5
1BD
330
1F
100
AcDbEntity
  8
0
  6
Continuous
 62
     7
370
     0
100
AcDbSpline
210
0.0
220
0.0
230
1.0
 70
    24
 71
     3
 72
    22
 73
    18
 74
     0
 42
0.000000001
 43
0.00000001
 40
0.0
 40
0.0
 40
0.0
 40
0.0
 40
0.0831703379428796
 40
0.16616215706121
 40
0.238920224718987
 40
0.3023020241284027
 40
0.3569660601768142
 40
0.4033995968486375
 40
0.4419486910728381
 40
0.475921515835643
 40
0.5322654314723847
 40
0.6028052246926768
 40
0.6877463561691063
 40
0.7613512083385007
 40
0.8440959676328096
 40
0.9369215323707133
 40
1.0
 40
1.0
 40
1.0
 40
1.0
 10
22.49020828242618
 20
135.5086451559784
 30
0.0
 10
22.4902082824265
 20
135.3735753689419
 30
0.0
 10
22.49020828242712
 20
135.1037257119258
 30
0.0
 10
22.49020828242724
 20
134.7385321321665
 30
0.0
 10
22.49020828242706
 20
134.4197771054962
 30
0.0
 10
22.49020828242672
 20
134.1578887350588
 30
0.0
 10
22.49020828242639
 20
133.944919167861
 30
0.0
 10
22.49020828242613
 20
133.7743269914261
 30
0.0
 10
22.49020828242595
 20
133.6368331948059
 30
0.0
 10
22.49020828242583
 20
133.4954965292858
 30
0.0
 10
22.49020828242585
 20
133.3313673080318
 30
0.0
 10
22.49020828242584
 20
133.1393174647027
 30
0.0
 10
22.49020828242584
 20
132.9653386069028
 30
0.0
 10
22.49020828242584
 20
132.8191193145253
 30
0.0
 10
22.49020828242584
 20
132.7073840528166
 30
0.0
 10
22.49020828242584
 20
132.6353238957261
 30
0.0
 10
22.49020828242584
 20
132.6200473953105
 30
0.0
 10
22.49020828242584
 20
132.6138665530172
 30
0.0
  0
SPLINE
  5
1BE
330
1F
100
AcDbEntity
  8
0
  6
Continuous
 62
     7
370
     0
100
AcDbSpline
210
0.0
220
0.0
230
1.0
 70
    24
 71
     3
 72
    22
 73
    18
 74
     0
 42
0.000000001
 43
0.00000001
 40
0.0
 40
0.0
 40
0.0
 40
0.0
 40
0.0630715375430196
 40
0.1558975247630546
 40
0.2386426606581573
 40
0.3122478478293836
 40
0.397189365903079
 40
0.4677294801750299
 40
0.5240736522529458
 40
0.5580466316381395
 40
0.5965959013129531
 40
0.6430296493202812
 40
0.6976939341641176
 40
0.7610760220465955
 40
0.8338344208521719
 40
0.9168266176957703
 40
1.0
 40
1.0
 40
1.0
 40
1.0
 10
23.33020828242584
 20
132.6138692701512
 30
0.0
 10
23.33020828242584
 20
132.6200495160647
 30
0.0
 10
23.33020828242584
 20
132.6353255831765
 30
0.0
 10
23.33020828242584
 20
132.7073841876971
 30
0.0
 10
23.33020828242584
 20
132.8191192845094
 30
0.0
 10
23.33020828242584
 20
132.9653386159256
 30
0.0
 10
23.33020828242584
 20
133.1393174625961
 30
0.0
 10
23.33020828242584
 20
133.3313673084443
 30
0.0
 10
23.33020828242583
 20
133.4954965292267
 30
0.0
 10
23.33020828242592
 20
133.636833194826
 30
0.0
 10
23.33020828242603
 20
133.7743269913893
 30
0.0
 10
23.33020828242621
 20
133.9449191680194
 30
0.0
 10
23.33020828242643
 20
134.1578887343117
 30
0.0
 10
23.33020828242665
 20
134.4197771089643
 30
0.0
 10
23.33020828242677
 20
134.7385321162538
 30
0.0
 10
23.33020828242669
 20
135.1037298551092
 30
0.0
 10
23.33020828242628
 20
135.373583880563
 30
0.0
 10
23.33020828242607
 20
135.5086580164973
 30
0.0
  0
LINE
  5
1BF
330
1F
100
AcDbEntity
  8
0
  6
Continuous
 62
     7
370
     0
100
AcDbLine
 10
22.3602082824
 20
145.7286328888
 30
0.0
 11
23.4602082824
 21
145.7286328888
 31
0.0
  0
LINE
  5
1C0
330
1F
100
AcDbEntity
  8
0
  6
Continuous
 62
     7
370
     0
100
AcDbLine
 10
22.3602082824
 20
145.6436328888
 30
0.0
 11
23.4602082824
 21
145.6436328888
 31
0.0
  0
SPLINE
  5
1C1
330
1F
100
AcDbEntity
  8
0
  6
Continuous
 62
     7
370
     0
100
AcDbSpline
210
0.0
220
0.0
230
1.0
 70
     8
 71
     3
 72
    14
 73
    10
 74
     0
 42
0.000000001
 43
0.00000001
 40
0.0
 40
0.0
 40
0.0
 40
0.0
 40
0.0000404517691324
 40
0.0000404517691324
 40
0.0000404517691324
 40
0.0000809563990268
 40
0.0000809563990268
 40
0.0000809563990268
 40
0.0000940103900615
 40
0.0000940103900615
 40
0.0000940103900615
 40
0.0000940103900615
 10
15.78923664238414
 20
145.6436328887694
 30
0.0
 10
15.78923664238414
 20
145.6571168118136
 30
0.0
 10
15.79038211302624
 20
145.6707881050386
 30
0.0
 10
15.79252178385205
 20
145.68351587347
 30
0.0
 10
15.79466298040074
 20
145.6962527176187
 30
0.0
 10
15.79785823919951
 20
145.7084101483392
 30
0.0
 10
15.80168088264771
 20
145.7188771228493
 30
0.0
 10
15.80292979969563
 20
145.7222968461594
 30
0.0
 10
15.80425103690181
 20
145.725561251688
 30
0.0
 10
15.80562451336021
 20
145.7286328887698
 30
0.0
  0
SPLINE
  5
1C2
330
1F
100
AcDbEntity
  8
0
  6
Continuous
 62
     7
370
     0
100
AcDbSpline
210
0.0
220
0.0
230
1.0
 70
     8
 71
     3
 72
    29
 73
    25
 74
     0
 42
0.000000001
 43
0.00000001
 40
0.0000000000000006
 40
0.0000000000000006
 40
0.0000000000000006
 40
0.0000000000000006
 40
0.0000553986492
 40
0.0000553986492
 40
0.0000553986492
 40
0.0000744703661974
 40
0.0000744703661974
 40
0.0000744703661974
 40
0.0000938210300502
 40
0.0000938210300502
 40
0.0000938210300502
 40
0.0001072543096207
 40
0.0001072543096207
 40
0.0001072543096207
 40
0.0001207016259448
 40
0.0001207016259448
 40
0.0001207016259448
 40
0.0001387455774114
 40
0.0001387455774114
 40
0.0001387455774114
 40
0.0001702186759782
 40
0.0001702186759782
 40
0.0001702186759782
 40
0.0002135383638984
 40
0.0002135383638984
 40
0.0002135383638984
 40
0.0002135383638984
 10
15.85066616882684
 20
145.7286328887698
 30
0.0
 10
15.83389320556496
 20
145.7359824706928
 30
0.0
 10
15.81678019567589
 20
145.7429215625901
 30
0.0
 10
15.80081681711551
 20
145.7486469472066
 30
0.0
 10
15.79527076836807
 20
145.7506360788971
 30
0.0
 10
15.78983265908388
 20
145.7524865309336
 30
0.0
 10
15.78480065492546
 20
145.7540628096099
 30
0.0
 10
15.77972770382144
 20
145.7556519149443
 30
0.0
 10
15.77496146256166
 20
145.7569904709115
 30
0.0
 10
15.77125348145175
 20
145.757792349835
 30
0.0
 10
15.7686685274937
 20
145.7583513656541
 30
0.0
 10
15.76656452738896
 20
145.7586521144868
 30
0.0
 10
15.76520053658578
 20
145.7586318876041
 30
0.0
 10
15.76383488458033
 20
145.7586116360871
 30
0.0
 10
15.76317902762465
 20
145.7582697756472
 30
0.0
 10
15.7631737954158
 20
145.7576763646001
 30
0.0
 10
15.76316678819271
 20
145.7568816402847
 30
0.0
 10
15.76428360064097
 20
145.7556303055959
 30
0.0
 10
15.76602716005986
 20
145.7541550097139
 30
0.0
 10
15.76905933331824
 20
145.7515893657369
 30
0.0
 10
15.77397186788825
 20
145.7482987274656
 30
0.0
 10
15.77949866844659
 20
145.744761761774
 30
0.0
 10
15.78712256922417
 20
145.7398827227708
 30
0.0
 10
15.79613402781981
 20
145.7344054250524
 30
0.0
 10
15.80562451336006
 20
145.7286328887694
 30
0.0
  0
SPLINE
  5
1C3
330
1F
100
AcDbEntity
  8
0
  6
Continuous
 62
     7
370
     0
100
AcDbSpline
210
0.0
220
0.0
230
1.0
 70
     8
 71
     3
 72
    14
 73
    10
 74
     0
 42
0.000000001
 43
0.00000001
 40
0.0
 40
0.0
 40
0.0
 40
0.0
 40
0.0000389338800372
 40
0.0000389338800372
 40
0.0000389338800372
 40
0.0000777809519151
 40
0.0000777809519151
 40
0.0000777809519151
 40
0.0000939650131496
 40
0.0000939650131496
 40
0.0000939650131496
 40
0.0000939650131496
 10
15.85066616882701
 20
145.7286328887694
 30
0.0
 10
15.85239273160961
 20
145.7195905516056
 30
0.0
 10
15.85361023530516
 20
145.7087680501856
 30
0.0
 10
15.85444345799696
 20
145.6971433089218
 30
0.0
 10
15.85527550250543
 20
145.6855350051321
 30
0.0
 10
15.85575515016382
 20
145.6728119158205
 30
0.0
 10
15.85597156008578
 20
145.6599705829566
 30
0.0
 10
15.85606270812129
 20
145.65456204044
 30
0.0
 10
15.85610744862943
 20
145.6490912471372
 30
0.0
 10
15.85610744862944
 20
145.6436328887696
 30
0.0
  0
LINE
  5
1C4
330
1F
100
AcDbEntity
  8
0
  6
Continuous
 62
     7
370
     0
100
AcDbLine
 10
14.7602082824
 20
145.7286328888
 30
0.0
 11
15.8056245134
 21
145.7286328888
 31
0.0
  0
LINE
  5
1C5
330
1F
100
AcDbEntity
  8
0
  6
Continuous
 62
     7
370
     0
100
AcDbLine
 10
14.7602082824
 20
145.6436328888
 30
0.0
 11
15.7892366424
 21
145.6436328888
 31
0.0
  0
SPLINE
  5
1C6
330
1F
100
AcDbEntity
  8
0
  6
Continuous
 62
     7
370
     0
100
AcDbSpline
210
0.0
220
0.0
230
1.0
 70
     8
 71
     3
 72
    18
 73
    14
 74
     0
 42
0.000000001
 43
0.00000001
 40
0.0
 40
0.0
 40
0.0
 40
0.0
 40
0.1250000000000005
 40
0.1250000000000005
 40
0.2500000000000009
 40
0.2500000000000009
 40
0.4999999999999992
 40
0.4999999999999992
 40
0.7499999999999974
 40
0.7499999999999974
 40
0.8749999999999988
 40
0.8749999999999988
 40
1.0
 40
1.0
 40
1.0
 40
1.0
 10
22.49020828242584
 20
148.6754602285586
 30
0.0
 10
22.49020828242584
 20
148.7258308819999
 30
0.0
 10
22.50390374518256
 20
148.7762705514464
 30
0.0
 10
22.55221869130846
 20
148.8643507327136
 30
0.0
 10
22.58668379453884
 20
148.9026447218467
 30
0.0
 10
22.70714761956423
 20
148.9941799317255
 30
0.0
 10
22.80881333294317
 20
149.0246547116566
 30
0.0
 10
23.01220429494827
 20
149.0245337311343
 30
0.0
 10
23.11311431793596
 20
148.994119919399
 30
0.0
 10
23.23313456223392
 20
148.9031872798463
 30
0.0
 10
23.26763829252818
 20
148.8652200337368
 30
0.0
 10
23.31662817461773
 20
148.7762097297707
 30
0.0
 10
23.33020828242585
 20
148.725830882
 30
0.0
 10
23.33020828242584
 20
148.6754602285586
 30
0.0
  0
LINE
  5
1C7
330
1F
100
AcDbEntity
  8
0
  6
Continuous
 62
     7
370
     0
100
AcDbLine
 10
22.3602082824
 20
135.5566328888
 30
0.0
 11
23.4602082824
 21
135.5566328888
 31
0.0
  0
LINE
  5
1C8
330
1F
100
AcDbEntity
  8
0
  6
Continuous
 62
     7
370
     0
100
AcDbLine
 10
22.3602082824
 20
135.6416328888
 30
0.0
 11
23.4602082824
 21
135.6416328888
 31
0.0
  0
LWPOLYLINE
  5
1C9
330
1F
100
AcDbEntity
  8
0
  6
Continuous
 62
     7
370
     0
100
AcDbPolyline
 90
        9
 70
   128
 43
0.0
 10
22.9035238756
 20
135.6416328888
 10
22.9035238795
 20
135.6417578903
 10
22.9035238914
 20
135.6418828917
 10
22.9035239111
 20
135.6420078928
 10
22.9035239387
 20
135.6421328935
 10
22.9035239743
 20
135.6422578936
 10
22.9035240177
 20
135.6423828929
 10
22.9035240691
 20
135.6425078914
 10
22.9035241283
 20
135.6426328888
  0
ARC
  5
1CA
330
1F
100
AcDbEntity
  8
0
  6
Continuous
 62
     7
370
     0
100
AcDbCircle
 10
22.2825100176
 20
135.6421328888
 30
0.0
 40
0.6343828686955578
100
AcDbArc
 50
359.9548413204
 51
0.0451586796
  0
LINE
  5
1CB
330
1F
100
AcDbEntity
  8
0
  6
Continuous
 62
     7
370
     0
100
AcDbLine
 10
14.7602082824
 20
135.5566328888
 30
0.0
 11
15.8056245134
 21
135.5566328888
 31
0.0
  0
LINE
  5
1CC
330
1F
100
AcDbEntity
  8
0
  6
Continuous
 62
     7
370
     0
100
AcDbLine
 10
14.7602082824
 20
135.6416328888
 30
0.0
 11
15.7892366424
 21
135.6416328888
 31
0.0
  0
LINE
  5
1CD
330
1F
100
AcDbEntity
  8
0
  6
Continuous
 62
     7
370
     0
100
AcDbLine
 10
15.8506661688
 20
135.5566328888
 30
0.0
 11
15.8602082824
 21
135.5566328888
 31
0.0
  0
SPLINE
  5
1CE
330
1F
100
AcDbEntity
  8
0
  6
Continuous
 62
     7
370
     0
100
AcDbSpline
210
0.0
220
0.0
230
1.0
 70
     8
 71
     3
 72
    10
 73
     6
 74
     0
 42
0.000000001
 43
0.00000001
 40
0.0
 40
0.0
 40
0.0
 40
0.0
 40
0.1483987274661201
 40
0.5062983001437453
 40
1.0
 40
1.0
 40
1.0
 40
1.0
 10
15.76659384534306
 20
135.5285715728269
 30
0.0
 10
15.76973734850822
 20
135.5293570065307
 30
0.0
 10
15.7804621730144
 20
135.5320367043683
 30
0.0
 10
15.80761544760822
 20
135.5415342293237
 30
0.0
 10
15.83044910600354
 20
135.5510919556214
 30
0.0
 10
15.84368654038426
 20
135.5566328887694
 30
0.0
  0
LINE
  5
1CF
330
1F
100
AcDbEntity
  8
0
  6
Continuous
 62
     7
370
     0
100
AcDbLine
 10
15.8561074486
 20
135.6416328888
 30
0.0
 11
15.8602082824
 21
135.6416328888
 31
0.0
  0
SPLINE
  5
1D0
330
1F
100
AcDbEntity
  8
0
  6
Continuous
 62
     7
370
     0
100
AcDbSpline
210
0.0
220
0.0
230
1.0
 70
     8
 71
     3
 72
    18
 73
    14
 74
     0
 42
0.000000001
 43
0.00000001
 40
0.0
 40
0.0
 40
0.0
 40
0.0
 40
0.1250000000000005
 40
0.1250000000000005
 40
0.2500000000000009
 40
0.2500000000000009
 40
0.4999999999999992
 40
0.4999999999999992
 40
0.7499999999999974
 40
0.7499999999999974
 40
0.8749999999999988
 40
0.8749999999999988
 40
1.0
 40
1.0
 40
1.0
 40
1.0
 10
22.49020828242584
 20
132.6098055489802
 30
0.0
 10
22.49020828242584
 20
132.5594348955389
 30
0.0
 10
22.50390374518256
 20
132.5089952260924
 30
0.0
 10
22.55221869130846
 20
132.4209150448253
 30
0.0
 10
22.58668379453884
 20
132.3826210556921
 30
0.0
 10
22.70714761956423
 20
132.2910858458133
 30
0.0
 10
22.80881333294317
 20
132.2606110658822
 30
0.0
 10
23.01220429494827
 20
132.2607320464045
 30
0.0
 10
23.11311431793596
 20
132.2911458581399
 30
0.0
 10
23.23313456223392
 20
132.3820784976926
 30
0.0
 10
23.26763829252818
 20
132.420045743802
 30
0.0
 10
23.31662817461773
 20
132.5090560477681
 30
0.0
 10
23.33020828242585
 20
132.5594348955388
 30
0.0
 10
23.33020828242584
 20
132.6098055489802
 30
0.0
  0
LINE
  5
1D1
330
1F
100
AcDbEntity
  8
0
  6
Continuous
 62
     7
370
     0
100
AcDbLine
 10
14.1102082824
 20
135.6426328888
 30
0.0
 11
24.1102082824
 21
135.6426328888
 31
0.0
  0
LINE
  5
1D2
330
1F
100
AcDbEntity
  8
0
  6
Continuous
 62
     7
370
     0
100
AcDbLine
 10
24.1102082824
 20
135.6426328888
 30
0.0
 11
24.1102082824
 21
145.6426328888
 31
0.0
  0
LINE
  5
1D3
330
1F
100
AcDbEntity
  8
0
  6
Continuous
 62
     7
370
     0
100
AcDbLine
 10
24.1102082824
 20
145.6426328888
 30
0.0
 11
14.1102082824
 21
145.6426328888
 31
0.0
  0
LINE
  5
1D4
330
1F
100
AcDbEntity
  8
0
  6
Continuous
 62
     7
370
     0
100
AcDbLine
 10
14.1102082824
 20
145.6426328888
 30
0.0
 11
14.1102082824
 21
135.6426328888
 31
0.0
  0
DIMENSION
  5
1D5
330
1F
100
AcDbEntity
  8
0
  6
Continuous
 62
     7
370
     0
100
AcDbDimension
  2
_D_1
 10
42.3471857091
 20
135.6426328888
 30
0.0
 11
42.3471857091
 21
160.8138616108
 31
0.0
 70
   160
  1
<>
 71
     2
 42
-1.0
  3
SLDDIMSTYLE1
100
AcDbAlignedDimension
 13
24.1102082824
 23
145.6426328888
 33
0.0
 14
24.1102082824
 24
135.6426328888
 34
0.0
 50
90.0
100
AcDbRotatedDimension
  0
LINE
  5
1EA
330
1F
100
AcDbEntity
  8
0
  6
Continuous
 62
     7
370
     0
100
AcDbLine
 10
84.5510673131
 20
180.2501000647
 30
0.0
 11
159.5510673131
 21
180.2501000647
 31
0.0
  0
LINE
  5
1EB
330
1F
100
AcDbEntity
  8
0
  6
Continuous
 62
     7
370
     0
100
AcDbLine
 10
83.9552756328
 20
180.2501000647
 30
0.0
 11
84.5510673131
 21
180.2501000647
 31
0.0
  0
LINE
  5
1EC
330
1F
100
AcDbEntity
  8
0
  6
Continuous
 62
     7
370
     0
100
AcDbLine
 10
84.5510673131
 20
181.0901000647
 30
0.0
 11
83.9552756328
 21
181.0901000647
 31
0.0
  0
LINE
  5
1ED
330
1F
100
AcDbEntity
  8
0
  6
Continuous
 62
     7
370
     0
100
AcDbLine
 10
159.5510673131
 20
181.0901000647
 30
0.0
 11
84.5510673131
 21
181.0901000647
 31
0.0
  0
SPLINE
  5
1EE
330
1F
100
AcDbEntity
  8
0
  6
Continuous
 62
     7
370
     0
100
AcDbSpline
210
0.0
220
0.0
230
1.0
 70
    24
 71
     3
 72
    22
 73
    18
 74
     0
 42
0.000000001
 43
0.00000001
 40
0.0
 40
0.0
 40
0.0
 40
0.0
 40
0.0831727820314014
 40
0.16616437990981
 40
0.2389222536088126
 40
0.3023038840547393
 40
0.3569677743795128
 40
0.4034011872686039
 40
0.4419501787284588
 40
0.47592291292636
 40
0.5322666783612541
 40
0.6028062835362715
 40
0.687747188576279
 40
0.7613518445295525
 40
0.8440963832425357
 40
0.9369217005256709
 40
1.0
 40
1.0
 40
1.0
 40
1.0
 10
79.58702764611971
 20
180.2501000647157
 30
0.0
 10
79.68292618978978
 20
180.2501000647155
 30
0.0
 10
79.87451437109142
 20
180.2501000647151
 30
0.0
 10
80.1801002900856
 20
180.250100064715
 30
0.0
 10
80.47829079325486
 20
180.2501000647151
 30
0.0
 10
80.753790408678
 20
180.2501000647153
 30
0.0
 10
81.00274286628543
 20
180.2501000647155
 30
0.0
 10
81.2224183062619
 20
180.2501000647157
 30
0.0
 10
81.41533891574676
 20
180.2501000647158
 30
0.0
 10
81.62953149084251
 20
180.2501000647159
 30
0.0
 10
81.90476312723035
 20
180.2501000647159
 30
0.0
 10
82.28067504386729
 20
180.2501000647159
 30
0.0
 10
82.70297154218626
 20
180.2501000647159
 30
0.0
 10
83.16112476099919
 20
180.2501000647159
 30
0.0
 10
83.64489609361165
 20
180.2501000647159
 30
0.0
 10
84.11556219543304
 20
180.2501000647159
 30
0.0
 10
84.42571844641584
 20
180.2501000647159
 30
0.0
 10
84.55120706104987
 20
180.2501000647159
 30
0.0
  0
SPLINE
  5
1EF
330
1F
100
AcDbEntity
  8
0
  6
Continuous
 62
     7
370
     0
100
AcDbSpline
210
0.0
220
0.0
230
1.0
 70
    24
 71
     3
 72
    20
 73
    16
 74
     0
 42
0.000000001
 43
0.00000001
 40
0.0
 40
0.0
 40
0.0
 40
0.0
 40
0.0768602211024169
 40
0.1765085770364713
 40
0.259775238113025
 40
0.3278537508605616
 40
0.3813542525440645
 40
0.427057943409467
 40
0.4849753880450108
 40
0.5568925507467618
 40
0.6436526185790731
 40
0.7193074819248592
 40
0.8049731934964263
 40
0.9017867659055875
 40
1.0
 40
1.0
 40
1.0
 40
1.0
 10
84.5511947130966
 20
181.0901000647159
 30
0.0
 10
84.39829095024122
 20
181.0901000647159
 30
0.0
 10
84.04714929051113
 20
181.0901000647159
 30
0.0
 10
83.53604121206986
 20
181.0901000647159
 30
0.0
 10
83.05125085098207
 20
181.0901000647159
 30
0.0
 10
82.66479637102691
 20
181.0901000647159
 30
0.0
 10
82.35671503424997
 20
181.0901000647159
 30
0.0
 10
82.07396384330322
 20
181.0901000647159
 30
0.0
 10
81.76652830260326
 20
181.0901000647159
 30
0.0
 10
81.40159917124844
 20
181.0901000647158
 30
0.0
 10
81.02753078575981
 20
181.0901000647154
 30
0.0
 10
80.6551635704711
 20
181.0901000647149
 30
0.0
 10
80.29315814904426
 20
181.0901000647145
 30
0.0
 10
79.92686898096743
 20
181.0901000647145
 30
0.0
 10
79.70112608400437
 20
181.0901000647152
 30
0.0
 10
79.58744458358879
 20
181.0901000647156
 30
0.0
  0
LINE
  5
1F0
330
1F
100
AcDbEntity
  8
0
  6
Continuous
 62
     7
370
     0
100
AcDbLine
 10
80.994306268
 20
184.7602562147
 30
0.0
 11
79.5928990357
 21
181.2112075756
 31
0.0
  0
LINE
  5
1F1
330
1F
100
AcDbEntity
  8
0
  6
Continuous
 62
     7
370
     0
100
AcDbLine
 10
80.995306268
 20
184.7627887038
 30
0.0
 11
80.994306268
 21
184.7602562147
 31
0.0
  0
LINE
  5
1F2
330
1F
100
AcDbEntity
  8
0
  6
Continuous
 62
     7
370
     0
100
AcDbLine
 10
82.1975909753
 20
187.8075617047
 30
0.0
 11
80.995306268
 21
184.7627887038
 31
0.0
  0
LINE
  5
1F3
330
1F
100
AcDbEntity
  8
0
  6
Continuous
 62
     7
370
     0
100
AcDbLine
 10
80.9950024109
 20
184.1795466799
 30
0.0
 11
82.3965664988
 21
187.7289925539
 31
0.0
  0
SPLINE
  5
1F4
330
1F
100
AcDbEntity
  8
0
  6
Continuous
 62
     7
370
     0
100
AcDbSpline
210
0.0
220
0.0
230
1.0
 70
    24
 71
     3
 72
     9
 73
     5
 74
     0
 42
0.000000001
 43
0.00000001
 40
0.0
 40
0.0
 40
0.0
 40
0.0
 40
0.0111480792740845
 40
1.0
 40
1.0
 40
1.0
 40
1.0
 10
80.99397089477822
 20
184.1769343763992
 30
0.0
 10
80.99397472791955
 20
184.1769440837881
 30
0.0
 10
80.99431856664164
 20
184.1778148516281
 30
0.0
 10
80.99466240536368
 20
184.178685619468
 30
0.0
 10
80.99500241094442
 20
184.179546679919
 30
0.0
  0
LINE
  5
1F5
330
1F
100
AcDbEntity
  8
0
  6
Continuous
 62
     7
370
     0
100
AcDbLine
 10
79.7918745591
 20
181.1326384248
 30
0.0
 11
80.9939708948
 21
184.1769343764
 31
0.0
  0
LINE
  5
1F6
330
1F
100
AcDbEntity
  8
0
  6
Continuous
 62
     7
370
     0
100
AcDbLine
 10
77.9841666928
 20
184.7733745449
 30
0.0
 11
76.7823480695
 21
187.8078667499
 31
0.0
  0
LINE
  5
1F7
330
1F
100
AcDbEntity
  8
0
  6
Continuous
 62
     7
370
     0
100
AcDbLine
 10
77.9941593544
 20
184.7481439044
 30
0.0
 11
77.9841666928
 21
184.7733745449
 31
0.0
  0
LINE
  5
1F8
330
1F
100
AcDbEntity
  8
0
  6
Continuous
 62
     7
370
     0
100
AcDbLine
 10
79.3950124247
 20
181.2111062518
 30
0.0
 11
77.9941593544
 21
184.7481439044
 31
0.0
  0
LINE
  5
1F9
330
1F
100
AcDbEntity
  8
0
  6
Continuous
 62
     7
370
     0
100
AcDbLine
 10
77.9942988416
 20
184.1668255846
 30
0.0
 11
79.1961174649
 21
181.1323333796
 31
0.0
  0
LINE
  5
1FA
330
1F
100
AcDbEntity
  8
0
  6
Continuous
 62
     7
370
     0
100
AcDbLine
 10
77.9843061801
 20
184.192056225
 30
0.0
 11
77.9942988416
 21
184.1668255846
 31
0.0
  0
LINE
  5
1FB
330
1F
100
AcDbEntity
  8
0
  6
Continuous
 62
     7
370
     0
100
AcDbLine
 10
76.5834531098
 20
187.7290938776
 30
0.0
 11
77.9843061801
 21
184.192056225
 31
0.0
  0
LINE
  5
1FC
330
1F
100
AcDbEntity
  8
0
  6
Continuous
 62
     7
370
     0
100
AcDbLine
 10
74.9742988416
 20
184.7481253754
 30
0.0
 11
73.5734531098
 21
181.2111062518
 31
0.0
  0
LINE
  5
1FD
330
1F
100
AcDbEntity
  8
0
  6
Continuous
 62
     7
370
     0
100
AcDbLine
 10
74.9842988416
 20
184.7733745449
 30
0.0
 11
74.9742988416
 21
184.7481253754
 31
0.0
  0
LINE
  5
1FE
330
1F
100
AcDbEntity
  8
0
  6
Continuous
 62
     7
370
     0
100
AcDbLine
 10
76.1861174649
 20
187.8078667499
 30
0.0
 11
74.9842988416
 21
184.7733745449
 31
0.0
  0
LINE
  5
1FF
330
1F
100
AcDbEntity
  8
0
  6
Continuous
 62
     7
370
     0
100
AcDbLine
 10
74.9841593544
 20
184.192056225
 30
0.0
 11
76.3850124247
 21
187.7290938776
 31
0.0
  0
LINE
  5
200
330
1F
100
AcDbEntity
  8
0
  6
Continuous
 62
     7
370
     0
100
AcDbLine
 10
74.9741593544
 20
184.1668070556
 30
0.0
 11
74.9841593544
 21
184.192056225
 31
0.0
  0
LINE
  5
201
330
1F
100
AcDbEntity
  8
0
  6
Continuous
 62
     7
370
     0
100
AcDbLine
 10
73.7723480695
 20
181.1323333796
 30
0.0
 11
74.9741593544
 21
184.1668070556
 31
0.0
  0
LINE
  5
202
330
1F
100
AcDbEntity
  8
0
  6
Continuous
 62
     7
370
     0
100
AcDbLine
 10
71.9641666928
 20
184.7733745449
 30
0.0
 11
70.7623480695
 21
187.8078667499
 31
0.0
  0
LINE
  5
203
330
1F
100
AcDbEntity
  8
0
  6
Continuous
 62
     7
370
     0
100
AcDbLine
 10
71.9741666928
 20
184.7481253754
 30
0.0
 11
71.9641666928
 21
184.7733745449
 31
0.0
  0
LINE
  5
204
330
1F
100
AcDbEntity
  8
0
  6
Continuous
 62
     7
370
     0
100
AcDbLine
 10
73.3750124247
 20
181.2111062518
 30
0.0
 11
71.9741666928
 21
184.7481253754
 31
0.0
  0
LINE
  5
205
330
1F
100
AcDbEntity
  8
0
  6
Continuous
 62
     7
370
     0
100
AcDbLine
 10
71.9743061801
 20
184.1668070556
 30
0.0
 11
73.1761174649
 21
181.1323333796
 31
0.0
  0
LINE
  5
206
330
1F
100
AcDbEntity
  8
0
  6
Continuous
 62
     7
370
     0
100
AcDbLine
 10
71.9643061801
 20
184.192056225
 30
0.0
 11
71.9743061801
 21
184.1668070556
 31
0.0
  0
LINE
  5
207
330
1F
100
AcDbEntity
  8
0
  6
Continuous
 62
     7
370
     0
100
AcDbLine
 10
70.5634531098
 20
187.7290938776
 30
0.0
 11
71.9643061801
 21
184.192056225
 31
0.0
  0
LINE
  5
208
330
1F
100
AcDbEntity
  8
0
  6
Continuous
 62
     7
370
     0
100
AcDbLine
 10
68.9632813439
 20
184.0512171405
 30
0.0
 11
68.0302801963
 21
181.2160277276
 31
0.0
  0
LINE
  5
209
330
1F
100
AcDbEntity
  8
0
  6
Continuous
 62
     7
370
     0
100
AcDbLine
 10
68.9642920874
 20
184.0542885722
 30
0.0
 11
68.9632813439
 21
184.0512171405
 31
0.0
  0
LINE
  5
20A
330
1F
100
AcDbEntity
  8
0
  6
Continuous
 62
     7
370
     0
100
AcDbLine
 10
70.1939793696
 20
187.7910432081
 30
0.0
 11
68.9642920874
 21
184.0542885722
 31
0.0
  0
LINE
  5
20B
330
1F
100
AcDbEntity
  8
0
  6
Continuous
 62
     7
370
     0
100
AcDbLine
 10
68.9641841906
 20
183.3695907459
 30
0.0
 11
70.3971853382
 21
187.7241724019
 31
0.0
  0
LINE
  5
20C
330
1F
100
AcDbEntity
  8
0
  6
Continuous
 62
     7
370
     0
100
AcDbLine
 10
68.9631734471
 20
183.3665193141
 30
0.0
 11
68.9641841906
 21
183.3695907459
 31
0.0
  0
LINE
  5
20D
330
1F
100
AcDbEntity
  8
0
  6
Continuous
 62
     7
370
     0
100
AcDbLine
 10
68.2334861649
 20
181.1491569213
 30
0.0
 11
68.9631734471
 21
183.3665193141
 31
0.0
  0
LWPOLYLINE
  5
20E
330
1F
100
AcDbEntity
  8
0
  6
Continuous
 62
     7
370
     0
100
AcDbPolyline
 90
       23
 70
   128
 43
0.0
 10
159.5510673131
 20
181.0901000647
 10
159.4852929316
 20
181.0730871136
 10
159.4248471993
 20
181.0234265485
 10
159.37462707
 20
180.945141573
 10
159.3387010799
 20
180.8445743702
 10
159.3199797389
 20
180.7298722968
 10
159.3199797389
 20
180.6103278326
 10
159.3387010799
 20
180.4956257593
 10
159.37462707
 20
180.3950585565
 10
159.4248471993
 20
180.3167735809
 10
159.4852929316
 20
180.2671130158
 10
159.5510673131
 20
180.2501000647
 10
159.6168416946
 20
180.2671130158
 10
159.6772874269
 20
180.3167735809
 10
159.7275075562
 20
180.3950585565
 10
159.7634335464
 20
180.4956257593
 10
159.7821548873
 20
180.6103278326
 10
159.7821548873
 20
180.7298722968
 10
159.7634335464
 20
180.8445743702
 10
159.7275075562
 20
180.945141573
 10
159.6772874269
 20
181.0234265485
 10
159.6168416946
 20
181.0730871136
 10
159.5510673131
 20
181.0901000647
  0
SPLINE
  5
20F
330
1F
100
AcDbEntity
  8
0
  6
Continuous
 62
     7
370
     0
100
AcDbSpline
210
0.0
220
0.0
230
1.0
 70
     8
 71
     3
 72
    18
 73
    14
 74
     0
 42
0.000000001
 43
0.00000001
 40
0.0
 40
0.0
 40
0.0
 40
0.0
 40
0.1250000000000005
 40
0.1250000000000005
 40
0.2500000000000009
 40
0.2500000000000009
 40
0.4999999999999992
 40
0.4999999999999992
 40
0.7499999999999974
 40
0.7499999999999974
 40
0.8749999999999988
 40
0.8749999999999988
 40
1.0
 40
1.0
 40
1.0
 40
1.0
 10
84.55106731312412
 20
181.0901000647159
 30
0.0
 10
84.54933502258666
 20
181.0901000647159
 30
0.0
 10
84.5437008687715
 20
181.0764046019592
 30
0.0
 10
84.53195374541178
 20
181.0280896558333
 30
0.0
 10
84.52613709547272
 20
180.9936245526029
 30
0.0
 10
84.51293180192955
 20
180.8731607275775
 30
0.0
 10
84.50933139841612
 20
180.7714950141986
 30
0.0
 10
84.5093462274085
 20
180.5681040521935
 30
0.0
 10
84.51294245195143
 20
180.4671940292058
 30
0.0
 10
84.52605783574185
 20
180.3471737849078
 30
0.0
 10
84.5318322072866
 20
180.3126700546136
 30
0.0
 10
84.54371453051402
 20
180.263680172524
 30
0.0
 10
84.54933502259027
 20
180.2501000647159
 30
0.0
 10
84.55106731312375
 20
180.2501000647159
 30
0.0
  0
SPLINE
  5
210
330
1F
100
AcDbEntity
  8
0
  6
Continuous
 62
     7
370
     0
100
AcDbSpline
210
0.0
220
0.0
230
1.0
 70
     8
 71
     3
 72
    25
 73
    21
 74
     0
 42
0.000000001
 43
0.00000001
 40
0.0
 40
0.0
 40
0.0
 40
0.0
 40
0.0605734768192714
 40
0.1233551902753065
 40
0.1778370943998685
 40
0.2338016033803775
 40
0.2901351257970485
 40
0.3479747233043268
 40
0.4067014867472358
 40
0.4670324027363557
 40
0.5275108420018274
 40
0.5897429388242365
 40
0.6501123538486789
 40
0.7123482342850606
 40
0.7707049247866743
 40
0.8309083485269781
 40
0.8867351199487833
 40
0.9442781608129022
 40
0.9985297717518274
 40
1.0
 40
1.0
 40
1.0
 40
1.0
 10
79.49423276723066
 20
181.0793843895161
 30
0.0
 10
79.47095897976412
 20
181.0724498822701
 30
0.0
 10
79.42356294717504
 20
181.0583280668201
 30
0.0
 10
79.3615875401401
 20
181.0221261058331
 30
0.0
 10
79.30809870262085
 20
180.9777471810937
 30
0.0
 10
79.26427236107904
 20
180.9269715259427
 30
0.0
 10
79.22847803673322
 20
180.8686722763771
 30
0.0
 10
79.20206424740051
 20
180.8043004615405
 30
0.0
 10
79.18595451839246
 20
180.7349319512678
 30
0.0
 10
79.18120923831141
 20
180.6627770792552
 30
0.0
 10
79.18846139062022
 20
180.5894168894956
 30
0.0
 10
79.20787529826018
 20
180.5182730358525
 30
0.0
 10
79.23934670889362
 20
180.450860688027
 30
0.0
 10
79.28114008284274
 20
180.3912067413117
 30
0.0
 10
79.33261951921531
 20
180.3398696003141
 30
0.0
 10
79.3902272454802
 20
180.2999654572078
 30
0.0
 10
79.45361740797519
 20
180.2705926654319
 30
0.0
 10
79.51873690645876
 20
180.2546666950185
 30
0.0
 10
79.56422878963673
 20
180.2482245163884
 30
0.0
 10
79.586429227975
 20
180.250200937305
 30
0.0
 10
79.58701498953712
 20
180.2502530854377
 30
0.0
  0
SPLINE
  5
211
330
1F
100
AcDbEntity
  8
0
  6
Continuous
 62
     7
370
     0
100
AcDbSpline
210
0.0
220
0.0
230
1.0
 70
     8
 71
     3
 72
     9
 73
     5
 74
     0
 42
0.000000001
 43
0.00000001
 40
0.0
 40
0.0
 40
0.0
 40
0.0
 40
0.2731822502235414
 40
1.0
 40
1.0
 40
1.0
 40
1.0
 10
79.58741180401123
 20
181.0887535802918
 30
0.0
 10
79.5788474545563
 20
181.0891743839481
 30
0.0
 10
79.54749714007598
 20
181.0907147609523
 30
0.0
 10
79.51665174666245
 20
181.0841533438962
 30
0.0
 10
79.49423276723066
 20
181.0793843895161
 30
0.0
  0
ARC
  5
212
330
1F
100
AcDbEntity
  8
0
  6
Continuous
 62
     7
370
     0
100
AcDbCircle
 10
82.4952327672
 20
188.2701000647
 30
0.0
 40
0.5500000000000059
100
AcDbArc
 50
255.9794927308
 51
240.9255108438
  0
SPLINE
  5
213
330
1F
100
AcDbEntity
  8
0
  6
Continuous
 62
     7
370
     0
100
AcDbSpline
210
0.0
220
0.0
230
1.0
 70
     8
 71
     3
 72
    29
 73
    25
 74
     0
 42
0.000000001
 43
0.00000001
 40
0.0000000000000001
 40
0.0000000000000001
 40
0.0000000000000001
 40
0.0000000000000001
 40
0.0000553986492001
 40
0.0000553986492001
 40
0.0000553986492001
 40
0.0000744703661974
 40
0.0000744703661974
 40
0.0000744703661974
 40
0.0000938210300503
 40
0.0000938210300503
 40
0.0000938210300503
 40
0.0001072543096207
 40
0.0001072543096207
 40
0.0001072543096207
 40
0.0001207016259448
 40
0.0001207016259448
 40
0.0001207016259448
 40
0.0001387455774115
 40
0.0001387455774115
 40
0.0001387455774115
 40
0.0001702186759782
 40
0.0001702186759782
 40
0.0001702186759782
 40
0.0002135383638984
 40
0.0002135383638984
 40
0.0002135383638984
 40
0.0002135383638984
 10
82.36198472497935
 20
187.7364850731384
 30
0.0
 10
82.36058617968298
 20
187.7533678710328
 30
0.0
 10
82.35772601907104
 20
187.7706763921211
 30
0.0
 10
82.35135928879886
 20
187.7870375004199
 30
0.0
 10
82.3491473387209
 20
187.7927217297229
 30
0.0
 10
82.3464641922386
 20
187.7983252715656
 30
0.0
 10
82.34310852962021
 20
187.8035611769051
 30
0.0
 10
82.33972556095627
 20
187.8088396883961
 30
0.0
 10
82.33555135531385
 20
187.8138570393664
 30
0.0
 10
82.3305373919192
 20
187.8178632317699
 30
0.0
 10
82.32704199533052
 20
187.8206560784979
 30
0.0
 10
82.32305297021969
 20
187.8229958977322
 30
0.0
 10
82.31884191352923
 20
187.8246073819136
 30
0.0
 10
82.31462572819942
 20
187.8262208287191
 30
0.0
 10
82.31009309324931
 20
187.8271417032625
 30
0.0
 10
82.30562573456699
 20
187.827407050556
 30
0.0
 10
82.29964283521241
 20
187.8277624162797
 30
0.0
 10
82.29361703589717
 20
187.8269945568638
 30
0.0
 10
82.2879272576905
 20
187.825579324642
 30
0.0
 10
82.27803233060203
 20
187.823118135622
 30
0.0
 10
82.26878245710128
 20
187.8187358433566
 30
0.0
 10
82.2602596323681
 20
187.8136959133217
 30
0.0
 10
82.24850289003143
 20
187.8067436221891
 30
0.0
 10
82.23782388996023
 20
187.7983386731575
 30
0.0
 10
82.22796230954366
 20
187.7894062927074
 30
0.0
  0
ARC
  5
214
330
1F
100
AcDbEntity
  8
0
  6
Continuous
 62
     7
370
     0
100
AcDbCircle
 10
76.4842327672
 20
188.2701000647
 30
0.0
 40
0.5500000000001095
100
AcDbArc
 50
299.1331634087
 51
240.866836591
  0
SPLINE
  5
215
330
1F
100
AcDbEntity
  8
0
  6
Continuous
 62
     7
370
     0
100
AcDbSpline
210
0.0
220
0.0
230
1.0
 70
     8
 71
     3
 72
    29
 73
    25
 74
     0
 42
0.000000001
 43
0.00000001
 40
0.0
 40
0.0
 40
0.0
 40
0.0
 40
0.0000553986491994
 40
0.0000553986491994
 40
0.0000553986491994
 40
0.0000744703661968
 40
0.0000744703661968
 40
0.0000744703661968
 40
0.0000938210300496
 40
0.0000938210300496
 40
0.0000938210300496
 40
0.0001072543096201
 40
0.0001072543096201
 40
0.0001072543096201
 40
0.0001207016259442
 40
0.0001207016259442
 40
0.0001207016259442
 40
0.0001387455774108
 40
0.0001387455774108
 40
0.0001387455774108
 40
0.0001702186759774
 40
0.0001702186759774
 40
0.0001702186759774
 40
0.0002135383638965
 40
0.0002135383638965
 40
0.0002135383638965
 40
0.0002135383638965
 10
76.75199534342042
 20
187.7896802453992
 30
0.0
 10
76.73942795877328
 20
187.8010400709618
 30
0.0
 10
76.72550311718004
 20
187.8117107882567
 30
0.0
 10
76.70966814620346
 20
187.8192920027563
 30
0.0
 10
76.70416670923514
 20
187.8219258928831
 30
0.0
 10
76.69837671095301
 20
187.8241786414536
 30
0.0
 10
76.69234754513371
 20
187.825703218725
 30
0.0
 10
76.6862693181616
 20
187.8272402019445
 30
0.0
 10
76.67979248915586
 20
187.8280454904241
 30
0.0
 10
76.67339462789151
 20
187.82753875801
 30
0.0
 10
76.66893447118953
 20
187.8271854984003
 30
0.0
 10
76.66442405318789
 20
187.8261641244069
 30
0.0
 10
76.66024980846076
 20
187.8244595538818
 30
0.0
 10
76.6560704799275
 20
187.8227529073628
 30
0.0
 10
76.65213398441226
 20
187.8203245761304
 30
0.0
 10
76.64869346210374
 20
187.8174626695933
 30
0.0
 10
76.64408575088935
 20
187.8136298681571
 30
0.0
 10
76.64021498140316
 20
187.8089483076208
 30
0.0
 10
76.63703212212528
 20
187.8040242985733
 30
0.0
 10
76.6314969045221
 20
187.7954610982625
 30
0.0
 10
76.62774622050173
 20
187.7859376002361
 30
0.0
 10
76.62497573073391
 20
187.7764316114586
 30
0.0
 10
76.62115400080675
 20
187.7633186513532
 30
0.0
 10
76.61911206365518
 20
187.7498830753175
 30
0.0
 10
76.61802719269615
 20
187.7366218067575
 30
0.0
  0
ARC
  5
216
330
1F
100
AcDbEntity
  8
0
  6
Continuous
 62
     7
370
     0
100
AcDbCircle
 10
76.4842327672
 20
188.2701000647
 30
0.0
 40
0.5500000000000996
100
AcDbArc
 50
255.9208184782
 51
284.079181522
  0
SPLINE
  5
217
330
1F
100
AcDbEntity
  8
0
  6
Continuous
 62
     7
370
     0
100
AcDbSpline
210
0.0
220
0.0
230
1.0
 70
     8
 71
     3
 72
    29
 73
    25
 74
     0
 42
0.000000001
 43
0.00000001
 40
0.0000000000000011
 40
0.0000000000000011
 40
0.0000000000000011
 40
0.0000000000000011
 40
0.0000553986491994
 40
0.0000553986491994
 40
0.0000553986491994
 40
0.0000744703661967
 40
0.0000744703661967
 40
0.0000744703661967
 40
0.0000938210300496
 40
0.0000938210300496
 40
0.0000938210300496
 40
0.00010725430962
 40
0.00010725430962
 40
0.00010725430962
 40
0.0001207016259441
 40
0.0001207016259441
 40
0.0001207016259441
 40
0.0001387455774107
 40
0.0001387455774107
 40
0.0001387455774107
 40
0.0001702186759774
 40
0.0001702186759774
 40
0.0001702186759774
 40
0.0002135383638974
 40
0.0002135383638974
 40
0.0002135383638974
 40
0.0002135383638974
 10
76.35043834176288
 20
187.7366218067579
 30
0.0
 10
76.34905708617609
 20
187.7535060279922
 30
0.0
 10
76.34621465200695
 20
187.7708174689772
 30
0.0
 10
76.33986467980881
 20
187.7871850886026
 30
0.0
 10
76.33765855187524
 20
187.7928715800918
 30
0.0
 10
76.33498114515572
 20
187.7984778666959
 30
0.0
 10
76.33163084617136
 20
187.8037172056856
 30
0.0
 10
76.32825328478697
 20
187.8089991787673
 30
0.0
 10
76.32408421939529
 20
187.8140208017385
 30
0.0
 10
76.31907436120592
 20
187.8180321266343
 30
0.0
 10
76.3155818264891
 20
187.8208285513892
 30
0.0
 10
76.31159519958219
 20
187.8231724543925
 30
0.0
 10
76.30738579535421
 20
187.8247882500983
 30
0.0
 10
76.3031712644994
 20
187.8264060136791
 30
0.0
 10
76.29863957495559
 20
187.827331529424
 30
0.0
 10
76.29417249034692
 20
187.8276014514159
 30
0.0
 10
76.28818995804481
 20
187.8279629437935
 30
0.0
 10
76.28216337555607
 20
187.8272012555525
 30
0.0
 10
76.27647215105193
 20
187.8257918507398
 30
0.0
 10
76.26657470874977
 20
187.8233407959967
 30
0.0
 10
76.25732035237458
 20
187.8189679784427
 30
0.0
 10
76.24879237092603
 20
187.8139367789234
 30
0.0
 10
76.23702851519967
 20
187.8069965310308
 30
0.0
 10
76.22634091356667
 20
187.7986025223294
 30
0.0
 10
76.21647019103895
 20
187.7896802454003
 30
0.0
  0
ARC
  5
218
330
1F
100
AcDbEntity
  8
0
  6
Continuous
 62
     7
370
     0
100
AcDbCircle
 10
70.4642327672
 20
188.2701000647
 30
0.0
 40
0.5500000000000576
100
AcDbArc
 50
259.3117039278
 51
284.0791815219
  0
SPLINE
  5
219
330
1F
100
AcDbEntity
  8
0
  6
Continuous
 62
     7
370
     0
100
AcDbSpline
210
0.0
220
0.0
230
1.0
 70
     8
 71
     3
 72
    29
 73
    25
 74
     0
 42
0.000000001
 43
0.00000001
 40
0.0000000000000006
 40
0.0000000000000006
 40
0.0000000000000006
 40
0.0000000000000006
 40
0.0000553986492
 40
0.0000553986492
 40
0.0000553986492
 40
0.0000744703661974
 40
0.0000744703661974
 40
0.0000744703661974
 40
0.0000938210300502
 40
0.0000938210300502
 40
0.0000938210300502
 40
0.0001072543096207
 40
0.0001072543096207
 40
0.0001072543096207
 40
0.0001207016259448
 40
0.0001207016259448
 40
0.0001207016259448
 40
0.0001387455774114
 40
0.0001387455774114
 40
0.0001387455774114
 40
0.0001702186759782
 40
0.0001702186759782
 40
0.0001702186759782
 40
0.0002135383638984
 40
0.0002135383638984
 40
0.0002135383638984
 40
0.0002135383638984
 10
70.36222652709299
 20
187.7296421783149
 30
0.0
 10
70.35984902901642
 20
187.7464151415768
 30
0.0
 10
70.35598764150333
 20
187.7635281514659
 30
0.0
 10
70.34868068152926
 20
187.7794915300262
 30
0.0
 10
70.34614207379917
 20
187.7850375787737
 30
0.0
 10
70.34313775629899
 20
187.7904756880579
 30
0.0
 10
70.33948342866145
 20
187.7955076922163
 30
0.0
 10
70.33579936465043
 20
187.8005806433203
 30
0.0
 10
70.33134058143543
 20
187.8053468845801
 30
0.0
 10
70.32610223412108
 20
187.80905486569
 30
0.0
 10
70.3224504122206
 20
187.811639819648
 30
0.0
 10
70.31833212872584
 20
187.8137438197528
 30
0.0
 10
70.31403452371771
 20
187.815107810556
 30
0.0
 10
70.30973168466315
 20
187.8164734625614
 30
0.0
 10
70.30515318696528
 20
187.8171293195171
 30
0.0
 10
70.30067795787542
 20
187.8171345517259
 30
0.0
 10
70.2946845180965
 20
187.817141558949
 30
0.0
 10
70.28871353866049
 20
187.8160247465008
 30
0.0
 10
70.28311564094477
 20
187.8142811870819
 30
0.0
 10
70.27338050053443
 20
187.8112490138235
 30
0.0
 10
70.26440098777609
 20
187.8063364792535
 30
0.0
 10
70.25618551993921
 20
187.8008096786951
 30
0.0
 10
70.24485275861217
 20
187.7931857779176
 30
0.0
 10
70.23468035355121
 20
187.7841743193219
 30
0.0
 10
70.22535464322823
 20
187.7746838337817
 30
0.0
  0
ARC
  5
21A
330
1F
100
AcDbEntity
  8
0
  6
Continuous
 62
     7
370
     0
100
AcDbCircle
 10
70.4642327672
 20
188.2701000647
 30
0.0
 40
0.5500000000001576
100
AcDbArc
 50
299.1331634086
 51
244.2577220407
  0
SPLINE
  5
21B
330
1F
100
AcDbEntity
  8
0
  6
Continuous
 62
     7
370
     0
100
AcDbSpline
210
0.0
220
0.0
230
1.0
 70
     8
 71
     3
 72
    29
 73
    25
 74
     0
 42
0.000000001
 43
0.00000001
 40
0.0
 40
0.0
 40
0.0
 40
0.0
 40
0.0000553986491987
 40
0.0000553986491987
 40
0.0000553986491987
 40
0.0000744703661961
 40
0.0000744703661961
 40
0.0000744703661961
 40
0.000093821030049
 40
0.000093821030049
 40
0.000093821030049
 40
0.0001072543096193
 40
0.0001072543096193
 40
0.0001072543096193
 40
0.0001207016259434
 40
0.0001207016259434
 40
0.0001207016259434
 40
0.00013874557741
 40
0.00013874557741
 40
0.00013874557741
 40
0.0001702186759765
 40
0.0001702186759765
 40
0.0001702186759765
 40
0.0002135383638959
 40
0.0002135383638959
 40
0.0002135383638959
 40
0.0002135383638959
 10
70.7319953434194
 20
187.7896802453985
 30
0.0
 10
70.71942795877233
 20
187.8010400709609
 30
0.0
 10
70.70550311717993
 20
187.8117107882568
 30
0.0
 10
70.68966814620356
 20
187.8192920027563
 30
0.0
 10
70.68416670923521
 20
187.8219258928831
 30
0.0
 10
70.67837671095309
 20
187.8241786414536
 30
0.0
 10
70.67234754513376
 20
187.825703218725
 30
0.0
 10
70.66626931816164
 20
187.8272402019445
 30
0.0
 10
70.65979248915585
 20
187.8280454904241
 30
0.0
 10
70.65339462789149
 20
187.82753875801
 30
0.0
 10
70.6489344711895
 20
187.8271854984003
 30
0.0
 10
70.64442405318785
 20
187.8261641244069
 30
0.0
 10
70.64024980846074
 20
187.8244595538818
 30
0.0
 10
70.63607047992748
 20
187.8227529073628
 30
0.0
 10
70.63213398441226
 20
187.8203245761304
 30
0.0
 10
70.62869346210373
 20
187.8174626695933
 30
0.0
 10
70.62408575088934
 20
187.8136298681571
 30
0.0
 10
70.62021498140317
 20
187.8089483076208
 30
0.0
 10
70.61703212212525
 20
187.8040242985733
 30
0.0
 10
70.61149690452207
 20
187.7954610982624
 30
0.0
 10
70.60774622050172
 20
187.785937600236
 30
0.0
 10
70.6049757307339
 20
187.7764316114586
 30
0.0
 10
70.60115400080674
 20
187.7633186513532
 30
0.0
 10
70.59911206365518
 20
187.7498830753174
 30
0.0
 10
70.59802719269615
 20
187.7366218067575
 30
0.0
  0
ARC
  5
21C
330
1F
100
AcDbEntity
  8
0
  6
Continuous
 62
     7
370
     0
100
AcDbCircle
 10
73.4742327672
 20
180.6701000647
 30
0.0
 40
0.5500000000000266
100
AcDbArc
 50
75.9208184781
 51
104.0791815218
  0
SPLINE
  5
21D
330
1F
100
AcDbEntity
  8
0
  6
Continuous
 62
     7
370
     0
100
AcDbSpline
210
0.0
220
0.0
230
1.0
 70
     8
 71
     3
 72
    29
 73
    25
 74
     0
 42
0.000000001
 43
0.00000001
 40
0.0
 40
0.0
 40
0.0
 40
0.0
 40
0.0000553986492
 40
0.0000553986492
 40
0.0000553986492
 40
0.0000744703661974
 40
0.0000744703661974
 40
0.0000744703661974
 40
0.0000938210300502
 40
0.0000938210300502
 40
0.0000938210300502
 40
0.0001072543096207
 40
0.0001072543096207
 40
0.0001072543096207
 40
0.0001207016259448
 40
0.0001207016259448
 40
0.0001207016259448
 40
0.0001387455774115
 40
0.0001387455774115
 40
0.0001387455774115
 40
0.0001702186759782
 40
0.0001702186759782
 40
0.0001702186759782
 40
0.0002135383638979
 40
0.0002135383638979
 40
0.0002135383638979
 40
0.0002135383638979
 10
73.6080271926973
 20
181.2035783226741
 30
0.0
 10
73.60940844828401
 20
181.1866941014397
 30
0.0
 10
73.61225088245432
 20
181.1693826604547
 30
0.0
 10
73.61860085465253
 20
181.1530150408291
 30
0.0
 10
73.62080698258609
 20
181.1473285493399
 30
0.0
 10
73.6234843893056
 20
181.1417222627358
 30
0.0
 10
73.62683468828999
 20
181.1364829237462
 30
0.0
 10
73.63021224967436
 20
181.1312009506645
 30
0.0
 10
73.63438131506602
 20
181.1261793276933
 30
0.0
 10
73.63939117325535
 20
181.1221680027975
 30
0.0
 10
73.6428837079722
 20
181.1193715780426
 30
0.0
 10
73.64687033487911
 20
181.1170276750393
 30
0.0
 10
73.65107973910709
 20
181.1154118793335
 30
0.0
 10
73.6552942699619
 20
181.1137941157527
 30
0.0
 10
73.65982595950571
 20
181.1128686000078
 30
0.0
 10
73.66429304411437
 20
181.1125986780158
 30
0.0
 10
73.67027557641647
 20
181.1122371856383
 30
0.0
 10
73.6763021589052
 20
181.1129988738792
 30
0.0
 10
73.68199338340935
 20
181.114408278692
 30
0.0
 10
73.69189082571151
 20
181.1168593334351
 30
0.0
 10
73.7011451820867
 20
181.121232150989
 30
0.0
 10
73.70967316353524
 20
181.1262633505084
 30
0.0
 10
73.72143701926161
 20
181.133203598401
 30
0.0
 10
73.73212462089462
 20
181.1415976071024
 30
0.0
 10
73.74199534342235
 20
181.1505198840314
 30
0.0
  0
ARC
  5
21E
330
1F
100
AcDbEntity
  8
0
  6
Continuous
 62
     7
370
     0
100
AcDbCircle
 10
73.4742327672
 20
180.6701000647
 30
0.0
 40
0.5500000000000489
100
AcDbArc
 50
119.133163409
 51
60.8668365912
  0
SPLINE
  5
21F
330
1F
100
AcDbEntity
  8
0
  6
Continuous
 62
     7
370
     0
100
AcDbSpline
210
0.0
220
0.0
230
1.0
 70
     8
 71
     3
 72
    29
 73
    25
 74
     0
 42
0.000000001
 43
0.00000001
 40
0.0000000000000006
 40
0.0000000000000006
 40
0.0000000000000006
 40
0.0000000000000006
 40
0.0000553986492001
 40
0.0000553986492001
 40
0.0000553986492001
 40
0.0000744703661974
 40
0.0000744703661974
 40
0.0000744703661974
 40
0.0000938210300502
 40
0.0000938210300502
 40
0.0000938210300502
 40
0.0001072543096207
 40
0.0001072543096207
 40
0.0001072543096207
 40
0.0001207016259448
 40
0.0001207016259448
 40
0.0001207016259448
 40
0.0001387455774115
 40
0.0001387455774115
 40
0.0001387455774115
 40
0.0001702186759782
 40
0.0001702186759782
 40
0.0001702186759782
 40
0.0002135383638984
 40
0.0002135383638984
 40
0.0002135383638984
 40
0.0002135383638984
 10
73.20647019103995
 20
181.1505198840321
 30
0.0
 10
73.21903757568715
 20
181.1391600584692
 30
0.0
 10
73.23296241728117
 20
181.1284893411751
 30
0.0
 10
73.24879738825793
 20
181.1209081266754
 30
0.0
 10
73.25429882522624
 20
181.1182742365487
 30
0.0
 10
73.26008882350834
 20
181.1160214879781
 30
0.0
 10
73.26611798932764
 20
181.1144969107068
 30
0.0
 10
73.27219621629972
 20
181.1129599274873
 30
0.0
 10
73.27867304530545
 20
181.1121546390077
 30
0.0
 10
73.28507090656977
 20
181.1126613714218
 30
0.0
 10
73.28953106327175
 20
181.1130146310315
 30
0.0
 10
73.2940414812734
 20
181.1140360050249
 30
0.0
 10
73.29821572600054
 20
181.11574057555
 30
0.0
 10
73.30239505453379
 20
181.117447222069
 30
0.0
 10
73.30633155004902
 20
181.1198755533014
 30
0.0
 10
73.30977207235756
 20
181.1227374598384
 30
0.0
 10
73.31437978357194
 20
181.1265702612747
 30
0.0
 10
73.31825055305812
 20
181.131251821811
 30
0.0
 10
73.32143341233602
 20
181.1361758308584
 30
0.0
 10
73.3269686299392
 20
181.1447390311693
 30
0.0
 10
73.33071931395955
 20
181.1542625291957
 30
0.0
 10
73.33348980372739
 20
181.1637685179731
 30
0.0
 10
73.33731153365456
 20
181.1768814780785
 30
0.0
 10
73.33935347080612
 20
181.1903170541143
 30
0.0
 10
73.34043834176516
 20
181.2035783226743
 30
0.0
  0
ARC
  5
220
330
1F
100
AcDbEntity
  8
0
  6
Continuous
 62
     7
370
     0
100
AcDbCircle
 10
67.9632327672
 20
180.6701000647
 30
0.0
 40
0.5500000000000386
100
AcDbArc
 50
79.3117039277
 51
64.2577220408
  0
SPLINE
  5
221
330
1F
100
AcDbEntity
  8
0
  6
Continuous
 62
     7
370
     0
100
AcDbSpline
210
0.0
220
0.0
230
1.0
 70
     8
 71
     3
 72
    29
 73
    25
 74
     0
 42
0.000000001
 43
0.00000001
 40
0.0
 40
0.0
 40
0.0
 40
0.0
 40
0.0000553986492001
 40
0.0000553986492001
 40
0.0000553986492001
 40
0.0000744703661974
 40
0.0000744703661974
 40
0.0000744703661974
 40
0.0000938210300502
 40
0.0000938210300502
 40
0.0000938210300502
 40
0.0001072543096207
 40
0.0001072543096207
 40
0.0001072543096207
 40
0.0001207016259449
 40
0.0001207016259449
 40
0.0001207016259449
 40
0.0001387455774115
 40
0.0001387455774115
 40
0.0001387455774115
 40
0.0001702186759782
 40
0.0001702186759782
 40
0.0001702186759782
 40
0.0002135383638979
 40
0.0002135383638979
 40
0.0002135383638979
 40
0.0002135383638979
 10
68.0652390073683
 20
181.2105579511169
 30
0.0
 10
68.06761650544486
 20
181.193784987855
 30
0.0
 10
68.07147789295797
 20
181.176671977966
 30
0.0
 10
68.07878485293206
 20
181.1607085994056
 30
0.0
 10
68.08132346066215
 20
181.1551625506581
 30
0.0
 10
68.08432777816235
 20
181.1497244413739
 30
0.0
 10
68.08798210579988
 20
181.1446924372155
 30
0.0
 10
68.09166616981088
 20
181.1396194861115
 30
0.0
 10
68.09612495302589
 20
181.1348532448517
 30
0.0
 10
68.10136330034022
 20
181.1311452637418
 30
0.0
 10
68.10501512224072
 20
181.1285603097838
 30
0.0
 10
68.10913340573546
 20
181.126456309679
 30
0.0
 10
68.1134310107436
 20
181.1250923188758
 30
0.0
 10
68.11773384979816
 20
181.1237266668704
 30
0.0
 10
68.12231234749605
 20
181.1230708099147
 30
0.0
 10
68.1267875765859
 20
181.1230655777059
 30
0.0
 10
68.1327810163648
 20
181.1230585704828
 30
0.0
 10
68.13875199580083
 20
181.124175382931
 30
0.0
 10
68.14434989351653
 20
181.1259189423499
 30
0.0
 10
68.15408503392689
 20
181.1289511156083
 30
0.0
 10
68.16306454668525
 20
181.1338636501783
 30
0.0
 10
68.17128001452214
 20
181.1393904507366
 30
0.0
 10
68.18261277584915
 20
181.1470143515142
 30
0.0
 10
68.1927851809101
 20
181.1560258101099
 30
0.0
 10
68.2021108912331
 20
181.1655162956501
 30
0.0
  0
ARC
  5
222
330
1F
100
AcDbEntity
  8
0
  6
Continuous
 62
     7
370
     0
100
AcDbCircle
 10
79.4942327672
 20
180.6701000647
 30
0.0
 40
0.5500000000000335
100
AcDbArc
 50
75.9794927308
 51
104.0791815218
  0
SPLINE
  5
223
330
1F
100
AcDbEntity
  8
0
  6
Continuous
 62
     7
370
     0
100
AcDbSpline
210
0.0
220
0.0
230
1.0
 70
     8
 71
     3
 72
    29
 73
    25
 74
     0
 42
0.000000001
 43
0.00000001
 40
0.0
 40
0.0
 40
0.0
 40
0.0
 40
0.0000553986492001
 40
0.0000553986492001
 40
0.0000553986492001
 40
0.0000744703661974
 40
0.0000744703661974
 40
0.0000744703661974
 40
0.0000938210300502
 40
0.0000938210300502
 40
0.0000938210300502
 40
0.0001072543096207
 40
0.0001072543096207
 40
0.0001072543096207
 40
0.0001207016259448
 40
0.0001207016259448
 40
0.0001207016259448
 40
0.0001387455774115
 40
0.0001387455774115
 40
0.0001387455774115
 40
0.0001702186759782
 40
0.0001702186759782
 40
0.0001702186759782
 40
0.0002135383638979
 40
0.0002135383638979
 40
0.0002135383638979
 40
0.0002135383638979
 10
79.62748080948195
 20
181.2037150562934
 30
0.0
 10
79.62887935477833
 20
181.186832258399
 30
0.0
 10
79.63173951539027
 20
181.1695237373107
 30
0.0
 10
79.63810624566244
 20
181.1531626290119
 30
0.0
 10
79.6403181957404
 20
181.1474783997089
 30
0.0
 10
79.6430013422227
 20
181.1418748578662
 30
0.0
 10
79.64635700484111
 20
181.1366389525267
 30
0.0
 10
79.64973997350504
 20
181.1313604410357
 30
0.0
 10
79.65391417914745
 20
181.1263430900654
 30
0.0
 10
79.65892814254211
 20
181.1223368976619
 30
0.0
 10
79.66242353913077
 20
181.1195440509339
 30
0.0
 10
79.66641256424161
 20
181.1172042316996
 30
0.0
 10
79.67062362093208
 20
181.1155927475182
 30
0.0
 10
79.67483980626189
 20
181.1139793007127
 30
0.0
 10
79.679372441212
 20
181.1130584261693
 30
0.0
 10
79.68383979989433
 20
181.1127930788758
 30
0.0
 10
79.68982269924891
 20
181.1124377131521
 30
0.0
 10
79.69584849856412
 20
181.113205572568
 30
0.0
 10
79.70153827677079
 20
181.1146208047898
 30
0.0
 10
79.71143320385927
 20
181.1170819938098
 30
0.0
 10
79.72068307736002
 20
181.1214642860751
 30
0.0
 10
79.7292059020932
 20
181.1265042161102
 30
0.0
 10
79.74096264442987
 20
181.1334565072427
 30
0.0
 10
79.75164164450108
 20
181.1418614562743
 30
0.0
 10
79.76150322491765
 20
181.1507938367244
 30
0.0
  0
ARC
  5
224
330
1F
100
AcDbEntity
  8
0
  6
Continuous
 62
     7
370
     0
100
AcDbCircle
 10
79.4942327672
 20
180.6701000647
 30
0.0
 40
0.5500000000000221
100
AcDbArc
 50
119.133163409
 51
309.1545843929
  0
LINE
  5
225
330
1F
100
AcDbEntity
  8
0
  6
Continuous
 62
     7
370
     0
100
AcDbLine
 10
79.8412384512
 20
181.0968166631
 30
0.0
 11
79.7615032249
 21
181.1507938367
 31
0.0
  0
SPLINE
  5
226
330
1F
100
AcDbEntity
  8
0
  6
Continuous
 62
     7
370
     0
100
AcDbSpline
210
0.0
220
0.0
230
1.0
 70
     8
 71
     3
 72
    29
 73
    25
 74
     0
 42
0.000000001
 43
0.00000001
 40
0.0000000000000006
 40
0.0000000000000006
 40
0.0000000000000006
 40
0.0000000000000006
 40
0.0000553986492001
 40
0.0000553986492001
 40
0.0000553986492001
 40
0.0000744703661974
 40
0.0000744703661974
 40
0.0000744703661974
 40
0.0000938210300502
 40
0.0000938210300502
 40
0.0000938210300502
 40
0.0001072543096207
 40
0.0001072543096207
 40
0.0001072543096207
 40
0.0001207016259448
 40
0.0001207016259448
 40
0.0001207016259448
 40
0.0001387455774115
 40
0.0001387455774115
 40
0.0001387455774115
 40
0.0001702186759782
 40
0.0001702186759782
 40
0.0001702186759782
 40
0.0002135383638984
 40
0.0002135383638984
 40
0.0002135383638984
 40
0.0002135383638984
 10
79.22647019103995
 20
181.1505198840321
 30
0.0
 10
79.23903757568715
 20
181.1391600584692
 30
0.0
 10
79.25296241728117
 20
181.1284893411751
 30
0.0
 10
79.26879738825792
 20
181.1209081266754
 30
0.0
 10
79.27429882522624
 20
181.1182742365487
 30
0.0
 10
79.28008882350835
 20
181.1160214879781
 30
0.0
 10
79.28611798932764
 20
181.1144969107068
 30
0.0
 10
79.29219621629971
 20
181.1129599274873
 30
0.0
 10
79.29867304530545
 20
181.1121546390077
 30
0.0
 10
79.30507090656977
 20
181.1126613714218
 30
0.0
 10
79.30953106327175
 20
181.1130146310315
 30
0.0
 10
79.31404148127339
 20
181.1140360050249
 30
0.0
 10
79.31821572600053
 20
181.11574057555
 30
0.0
 10
79.32239505453379
 20
181.117447222069
 30
0.0
 10
79.326331550049
 20
181.1198755533014
 30
0.0
 10
79.32977207235756
 20
181.1227374598385
 30
0.0
 10
79.33437978357193
 20
181.1265702612747
 30
0.0
 10
79.3382505530581
 20
181.131251821811
 30
0.0
 10
79.34143341233602
 20
181.1361758308584
 30
0.0
 10
79.3469686299392
 20
181.1447390311693
 30
0.0
 10
79.35071931395954
 20
181.1542625291957
 30
0.0
 10
79.35348980372737
 20
181.1637685179731
 30
0.0
 10
79.35731153365455
 20
181.1768814780785
 30
0.0
 10
79.35935347080611
 20
181.1903170541143
 30
0.0
 10
79.36043834176516
 20
181.2035783226743
 30
0.0
  0
LINE
  5
227
330
1F
100
AcDbEntity
  8
0
  6
Continuous
 62
     7
370
     0
100
AcDbLine
 10
83.9952327672
 20
189.4701000647
 30
0.0
 11
80.9952327672
 21
189.4701000647
 31
0.0
  0
LINE
  5
228
330
1F
100
AcDbEntity
  8
0
  6
Continuous
 62
     7
370
     0
100
AcDbLine
 10
83.9952327672
 20
179.4701000647
 30
0.0
 11
80.9952327672
 21
179.4701000647
 31
0.0
  0
LINE
  5
229
330
1F
100
AcDbEntity
  8
0
  6
Continuous
 62
     7
370
     0
100
AcDbLine
 10
83.9952327672
 20
189.4701000647
 30
0.0
 11
83.9952327672
 21
181.0901000647
 31
0.0
  0
LINE
  5
22A
330
1F
100
AcDbEntity
  8
0
  6
Continuous
 62
     7
370
     0
100
AcDbLine
 10
83.9952327672
 20
180.2501000647
 30
0.0
 11
83.9952327672
 21
179.4701000647
 31
0.0
  0
LINE
  5
22B
330
1F
100
AcDbEntity
  8
0
  6
Continuous
 62
     7
370
     0
100
AcDbLine
 10
80.9952327672
 20
189.4701000647
 30
0.0
 11
80.9952327672
 21
184.7625915529
 31
0.0
  0
LINE
  5
22C
330
1F
100
AcDbEntity
  8
0
  6
Continuous
 62
     7
370
     0
100
AcDbLine
 10
80.9952327672
 20
184.1801410657
 30
0.0
 11
80.9952327672
 21
181.0901000647
 31
0.0
  0
LINE
  5
22D
330
1F
100
AcDbEntity
  8
0
  6
Continuous
 62
     7
370
     0
100
AcDbLine
 10
80.9952327672
 20
180.2501000647
 30
0.0
 11
80.9952327672
 21
179.4701000647
 31
0.0
  0
LINE
  5
22E
330
1F
100
AcDbEntity
  8
0
  6
Continuous
 62
     7
370
     0
100
AcDbLine
 10
77.9942327672
 20
189.4701000647
 30
0.0
 11
80.9942327672
 21
189.4701000647
 31
0.0
  0
LINE
  5
22F
330
1F
100
AcDbEntity
  8
0
  6
Continuous
 62
     7
370
     0
100
AcDbLine
 10
77.9942327672
 20
184.7479475604
 30
0.0
 11
77.9942327672
 21
189.4701000647
 31
0.0
  0
LINE
  5
230
330
1F
100
AcDbEntity
  8
0
  6
Continuous
 62
     7
370
     0
100
AcDbLine
 10
80.9942327672
 20
184.7600590637
 30
0.0
 11
80.9942327672
 21
189.4701000647
 31
0.0
  0
LINE
  5
231
330
1F
100
AcDbEntity
  8
0
  6
Continuous
 62
     7
370
     0
100
AcDbLine
 10
74.9842327672
 20
189.4701000647
 30
0.0
 11
77.9842327672
 21
189.4701000647
 31
0.0
  0
LINE
  5
232
330
1F
100
AcDbEntity
  8
0
  6
Continuous
 62
     7
370
     0
100
AcDbLine
 10
77.9842327672
 20
184.7731967299
 30
0.0
 11
77.9842327672
 21
189.4701000647
 31
0.0
  0
LINE
  5
233
330
1F
100
AcDbEntity
  8
0
  6
Continuous
 62
     7
370
     0
100
AcDbLine
 10
74.9842327672
 20
184.7731967299
 30
0.0
 11
74.9842327672
 21
189.4701000647
 31
0.0
  0
LINE
  5
234
330
1F
100
AcDbEntity
  8
0
  6
Continuous
 62
     7
370
     0
100
AcDbLine
 10
74.9842327672
 20
179.4701000647
 30
0.0
 11
77.9842327672
 21
179.4701000647
 31
0.0
  0
LINE
  5
235
330
1F
100
AcDbEntity
  8
0
  6
Continuous
 62
     7
370
     0
100
AcDbLine
 10
77.9842327672
 20
179.4701000647
 30
0.0
 11
77.9842327672
 21
184.192252569
 31
0.0
  0
LINE
  5
236
330
1F
100
AcDbEntity
  8
0
  6
Continuous
 62
     7
370
     0
100
AcDbLine
 10
74.9842327672
 20
179.4701000647
 30
0.0
 11
74.9842327672
 21
184.192252569
 31
0.0
  0
LINE
  5
237
330
1F
100
AcDbEntity
  8
0
  6
Continuous
 62
     7
370
     0
100
AcDbLine
 10
77.9942327672
 20
179.4701000647
 30
0.0
 11
80.9942327672
 21
179.4701000647
 31
0.0
  0
LINE
  5
238
330
1F
100
AcDbEntity
  8
0
  6
Continuous
 62
     7
370
     0
100
AcDbLine
 10
77.9942327672
 20
179.4701000647
 30
0.0
 11
77.9942327672
 21
184.1670033995
 31
0.0
  0
LINE
  5
239
330
1F
100
AcDbEntity
  8
0
  6
Continuous
 62
     7
370
     0
100
AcDbLine
 10
80.9942327672
 20
179.4701000647
 30
0.0
 11
80.9942327672
 21
180.2501000647
 31
0.0
  0
LINE
  5
23A
330
1F
100
AcDbEntity
  8
0
  6
Continuous
 62
     7
370
     0
100
AcDbLine
 10
80.9942327672
 20
181.0901000647
 30
0.0
 11
80.9942327672
 21
184.1776085766
 31
0.0
  0
LINE
  5
23B
330
1F
100
AcDbEntity
  8
0
  6
Continuous
 62
     7
370
     0
100
AcDbLine
 10
71.9742327672
 20
189.4701000647
 30
0.0
 11
74.9742327672
 21
189.4701000647
 31
0.0
  0
LINE
  5
23C
330
1F
100
AcDbEntity
  8
0
  6
Continuous
 62
     7
370
     0
100
AcDbLine
 10
71.9742327672
 20
184.7479475604
 30
0.0
 11
71.9742327672
 21
189.4701000647
 31
0.0
  0
LINE
  5
23D
330
1F
100
AcDbEntity
  8
0
  6
Continuous
 62
     7
370
     0
100
AcDbLine
 10
74.9742327672
 20
184.7479475604
 30
0.0
 11
74.9742327672
 21
189.4701000647
 31
0.0
  0
LINE
  5
23E
330
1F
100
AcDbEntity
  8
0
  6
Continuous
 62
     7
370
     0
100
AcDbLine
 10
68.9642327672
 20
189.4701000647
 30
0.0
 11
71.9642327672
 21
189.4701000647
 31
0.0
  0
LINE
  5
23F
330
1F
100
AcDbEntity
  8
0
  6
Continuous
 62
     7
370
     0
100
AcDbLine
 10
71.9642327672
 20
184.7731967299
 30
0.0
 11
71.9642327672
 21
189.4701000647
 31
0.0
  0
LINE
  5
240
330
1F
100
AcDbEntity
  8
0
  6
Continuous
 62
     7
370
     0
100
AcDbLine
 10
68.9642327672
 20
184.0540953737
 30
0.0
 11
68.9642327672
 21
189.4701000647
 31
0.0
  0
LINE
  5
241
330
1F
100
AcDbEntity
  8
0
  6
Continuous
 62
     7
370
     0
100
AcDbLine
 10
68.9642327672
 20
179.4701000647
 30
0.0
 11
71.9642327672
 21
179.4701000647
 31
0.0
  0
LINE
  5
242
330
1F
100
AcDbEntity
  8
0
  6
Continuous
 62
     7
370
     0
100
AcDbLine
 10
71.9642327672
 20
179.4701000647
 30
0.0
 11
71.9642327672
 21
184.192252569
 31
0.0
  0
LINE
  5
243
330
1F
100
AcDbEntity
  8
0
  6
Continuous
 62
     7
370
     0
100
AcDbLine
 10
68.9642327672
 20
179.4701000647
 30
0.0
 11
68.9642327672
 21
183.3697512971
 31
0.0
  0
LINE
  5
244
330
1F
100
AcDbEntity
  8
0
  6
Continuous
 62
     7
370
     0
100
AcDbLine
 10
71.9742327672
 20
179.4701000647
 30
0.0
 11
74.9742327672
 21
179.4701000647
 31
0.0
  0
LINE
  5
245
330
1F
100
AcDbEntity
  8
0
  6
Continuous
 62
     7
370
     0
100
AcDbLine
 10
71.9742327672
 20
179.4701000647
 30
0.0
 11
71.9742327672
 21
184.1670033995
 31
0.0
  0
LINE
  5
246
330
1F
100
AcDbEntity
  8
0
  6
Continuous
 62
     7
370
     0
100
AcDbLine
 10
74.9742327672
 20
179.4701000647
 30
0.0
 11
74.9742327672
 21
184.1670033995
 31
0.0
  0
LINE
  5
247
330
1F
100
AcDbEntity
  8
0
  6
Continuous
 62
     7
370
     0
100
AcDbLine
 10
66.9632327672
 20
179.4701000647
 30
0.0
 11
68.9632327672
 21
179.4701000647
 31
0.0
  0
LINE
  5
248
330
1F
100
AcDbEntity
  8
0
  6
Continuous
 62
     7
370
     0
100
AcDbLine
 10
66.9632327672
 20
179.4701000647
 30
0.0
 11
66.9632327672
 21
189.4701000647
 31
0.0
  0
LINE
  5
249
330
1F
100
AcDbEntity
  8
0
  6
Continuous
 62
     7
370
     0
100
AcDbLine
 10
66.9632327672
 20
189.4701000647
 30
0.0
 11
68.9632327672
 21
189.4701000647
 31
0.0
  0
LINE
  5
24A
330
1F
100
AcDbEntity
  8
0
  6
Continuous
 62
     7
370
     0
100
AcDbLine
 10
68.9632327672
 20
184.0510565892
 30
0.0
 11
68.9632327672
 21
189.4701000647
 31
0.0
  0
LINE
  5
24B
330
1F
100
AcDbEntity
  8
0
  6
Continuous
 62
     7
370
     0
100
AcDbLine
 10
68.9632327672
 20
179.4701000647
 30
0.0
 11
68.9632327672
 21
183.3667125127
 31
0.0
  0
LINE
  5
24C
330
1F
100
AcDbEntity
  8
0
  6
Continuous
 62
     7
370
     0
100
AcDbLine
 10
84.5962327672
 20
189.4701000647
 30
0.0
 11
83.9962327672
 21
189.4701000647
 31
0.0
  0
LINE
  5
24D
330
1F
100
AcDbEntity
  8
0
  6
Continuous
 62
     7
370
     0
100
AcDbLine
 10
84.5962327672
 20
189.4701000647
 30
0.0
 11
84.5962327672
 21
181.0901000647
 31
0.0
  0
LINE
  5
24E
330
1F
100
AcDbEntity
  8
0
  6
Continuous
 62
     7
370
     0
100
AcDbLine
 10
84.5962327672
 20
180.2501000647
 30
0.0
 11
84.5962327672
 21
179.4701000647
 31
0.0
  0
LINE
  5
24F
330
1F
100
AcDbEntity
  8
0
  6
Continuous
 62
     7
370
     0
100
AcDbLine
 10
84.5962327672
 20
179.4701000647
 30
0.0
 11
83.9962327672
 21
179.4701000647
 31
0.0
  0
LINE
  5
250
330
1F
100
AcDbEntity
  8
0
  6
Continuous
 62
     7
370
     0
100
AcDbLine
 10
83.9962327672
 20
189.4701000647
 30
0.0
 11
83.9962327672
 21
181.0901000647
 31
0.0
  0
LINE
  5
251
330
1F
100
AcDbEntity
  8
0
  6
Continuous
 62
     7
370
     0
100
AcDbLine
 10
83.9962327672
 20
180.2501000647
 30
0.0
 11
83.9962327672
 21
179.4701000647
 31
0.0
  0
LINE
  5
252
330
1F
100
AcDbEntity
  8
0
  6
Continuous
 62
     7
370
     0
100
AcDbLine
 10
66.5622327672
 20
179.4701000647
 30
0.0
 11
66.9622327672
 21
179.4701000647
 31
0.0
  0
LINE
  5
253
330
1F
100
AcDbEntity
  8
0
  6
Continuous
 62
     7
370
     0
100
AcDbLine
 10
66.5622327672
 20
179.4701000647
 30
0.0
 11
66.5622327672
 21
189.4701000647
 31
0.0
  0
LINE
  5
254
330
1F
100
AcDbEntity
  8
0
  6
Continuous
 62
     7
370
     0
100
AcDbLine
 10
66.5622327672
 20
189.4701000647
 30
0.0
 11
66.9622327672
 21
189.4701000647
 31
0.0
  0
LINE
  5
255
330
1F
100
AcDbEntity
  8
0
  6
Continuous
 62
     7
370
     0
100
AcDbLine
 10
66.9622327672
 20
179.4701000647
 30
0.0
 11
66.9622327672
 21
189.4701000647
 31
0.0
  0
LINE
  5
256
330
1F
100
AcDbEntity
  8
0
  6
CENTERX2
 62
     7
370
     0
100
AcDbLine
 10
69.2153663249
 20
184.4701000647
 30
0.0
 11
69.4939329101
 21
184.4701000647
 31
0.0
  0
LINE
  5
257
330
1F
100
AcDbEntity
  8
0
  6
Continuous
 62
     7
370
     0
100
AcDbLine
 10
84.9743107638
 20
92.3069401279
 30
0.0
 11
159.9743107638
 21
92.3069401279
 31
0.0
  0
LINE
  5
258
330
1F
100
AcDbEntity
  8
0
  6
Continuous
 62
     7
370
     0
100
AcDbLine
 10
84.3785190834
 20
92.3069401279
 30
0.0
 11
84.9743107638
 21
92.3069401279
 31
0.0
  0
LINE
  5
259
330
1F
100
AcDbEntity
  8
0
  6
Continuous
 62
     7
370
     0
100
AcDbLine
 10
84.9743107638
 20
93.1469401279
 30
0.0
 11
84.3785190834
 21
93.1469401279
 31
0.0
  0
LINE
  5
25A
330
1F
100
AcDbEntity
  8
0
  6
Continuous
 62
     7
370
     0
100
AcDbLine
 10
159.9743107638
 20
93.1469401279
 30
0.0
 11
84.9743107638
 21
93.1469401279
 31
0.0
  0
SPLINE
  5
25B
330
1F
100
AcDbEntity
  8
0
  6
Continuous
 62
     7
370
     0
100
AcDbSpline
210
0.0
220
0.0
230
1.0
 70
    24
 71
     3
 72
    22
 73
    18
 74
     0
 42
0.000000001
 43
0.00000001
 40
0.0
 40
0.0
 40
0.0
 40
0.0
 40
0.0831703379428796
 40
0.16616215706121
 40
0.238920224718987
 40
0.3023020241284027
 40
0.3569660601768142
 40
0.4033995968486375
 40
0.4419486910728381
 40
0.475921515835643
 40
0.5322654314723847
 40
0.6028052246926768
 40
0.6877463561691063
 40
0.7613512083385007
 40
0.8440959676328096
 40
0.9369215323707133
 40
1.0
 40
1.0
 40
1.0
 40
1.0
 10
80.0102804859713
 20
92.30694012790045
 30
0.0
 10
80.10617598179829
 20
92.30694012790075
 30
0.0
 10
80.29776114104111
 20
92.30694012790137
 30
0.0
 10
80.60334376173753
 20
92.3069401279015
 30
0.0
 10
80.90153423933305
 20
92.3069401279013
 30
0.0
 10
81.17703386031776
 20
92.30694012790099
 30
0.0
 10
81.42598631673347
 20
92.30694012790065
 30
0.0
 10
81.64566175695933
 20
92.30694012790039
 30
0.0
 10
81.83858236639324
 20
92.3069401279002
 30
0.0
 10
82.05277494150177
 20
92.30694012790008
 30
0.0
 10
82.32800657788411
 20
92.3069401279001
 30
0.0
 10
82.70391849452322
 20
92.30694012790009
 30
0.0
 10
83.12621499284148
 20
92.30694012790009
 30
0.0
 10
83.58436821165458
 20
92.30694012790009
 30
0.0
 10
84.06813954426698
 20
92.30694012790009
 30
0.0
 10
84.53880564608862
 20
92.30694012790009
 30
0.0
 10
84.84896189707162
 20
92.30694012790009
 30
0.0
 10
84.97445051170588
 20
92.30694012790009
 30
0.0
  0
SPLINE
  5
25C
330
1F
100
AcDbEntity
  8
0
  6
Continuous
 62
     7
370
     0
100
AcDbSpline
210
0.0
220
0.0
230
1.0
 70
    24
 71
     3
 72
    20
 73
    16
 74
     0
 42
0.000000001
 43
0.00000001
 40
0.0
 40
0.0
 40
0.0
 40
0.0
 40
0.0768599992885945
 40
0.1765080676437518
 40
0.2597744884179408
 40
0.3278528046951599
 40
0.381353151979571
 40
0.4270567109469882
 40
0.4849739884364198
 40
0.5568909435897432
 40
0.6436507610379124
 40
0.7193054060484767
 40
0.8049708703941479
 40
0.9017841634054194
 40
1.0
 40
1.0
 40
1.0
 40
1.0
 10
84.97443816375169
 20
93.14694012790011
 30
0.0
 10
84.82153440089638
 20
93.14694012790011
 30
0.0
 10
84.47039274116634
 20
93.14694012790011
 30
0.0
 10
83.9592846627254
 20
93.14694012790011
 30
0.0
 10
83.47449430163684
 20
93.14694012790011
 30
0.0
 10
83.08803982168378
 20
93.14694012790011
 30
0.0
 10
82.77995848490116
 20
93.14694012790011
 30
0.0
 10
82.49720729397309
 20
93.14694012790011
 30
0.0
 10
82.18977175318011
 20
93.1469401279001
 30
0.0
 10
81.82484262230643
 20
93.14694012790015
 30
0.0
 10
81.45077423468076
 20
93.14694012790045
 30
0.0
 10
81.07840702695555
 20
93.14694012790078
 30
0.0
 10
80.71640157320955
 20
93.146940127901
 30
0.0
 10
80.3501087791289
 20
93.14694012790102
 30
0.0
 10
80.1243626066879
 20
93.14694012790056
 30
0.0
 10
80.01067779853064
 20
93.14694012790032
 30
0.0
  0
LINE
  5
25D
330
1F
100
AcDbEntity
  8
0
  6
Continuous
 62
     7
370
     0
100
AcDbLine
 10
69.3864168977
 20
90.0305208785
 30
0.0
 11
68.6567296156
 21
92.2478832713
 31
0.0
  0
LINE
  5
25E
330
1F
100
AcDbEntity
  8
0
  6
Continuous
 62
     7
370
     0
100
AcDbLine
 10
69.3874276412
 20
90.0274494467
 30
0.0
 11
69.3864168977
 21
90.0305208785
 31
0.0
  0
LINE
  5
25F
330
1F
100
AcDbEntity
  8
0
  6
Continuous
 62
     7
370
     0
100
AcDbLine
 10
70.8204287888
 20
85.6728677908
 30
0.0
 11
69.3874276412
 21
90.0274494467
 31
0.0
  0
LINE
  5
260
330
1F
100
AcDbEntity
  8
0
  6
Continuous
 62
     7
370
     0
100
AcDbLine
 10
69.3875355381
 20
89.3427516204
 30
0.0
 11
70.6172228202
 21
85.6059969845
 31
0.0
  0
LINE
  5
261
330
1F
100
AcDbEntity
  8
0
  6
Continuous
 62
     7
370
     0
100
AcDbLine
 10
69.3865247945
 20
89.3458230522
 30
0.0
 11
69.3875355381
 21
89.3427516204
 31
0.0
  0
LINE
  5
262
330
1F
100
AcDbEntity
  8
0
  6
Continuous
 62
     7
370
     0
100
AcDbLine
 10
68.453523647
 20
92.181012465
 30
0.0
 11
69.3865247945
 21
89.3458230522
 31
0.0
  0
LINE
  5
263
330
1F
100
AcDbEntity
  8
0
  6
Continuous
 62
     7
370
     0
100
AcDbLine
 10
72.3875496308
 20
89.2049839676
 30
0.0
 11
70.9866965604
 21
85.667946315
 31
0.0
  0
LINE
  5
264
330
1F
100
AcDbEntity
  8
0
  6
Continuous
 62
     7
370
     0
100
AcDbLine
 10
72.3975496308
 20
89.230233137
 30
0.0
 11
72.3875496308
 21
89.2049839676
 31
0.0
  0
LINE
  5
265
330
1F
100
AcDbEntity
  8
0
  6
Continuous
 62
     7
370
     0
100
AcDbLine
 10
73.5993609156
 20
92.264706813
 30
0.0
 11
72.3975496308
 21
89.230233137
 31
0.0
  0
LINE
  5
266
330
1F
100
AcDbEntity
  8
0
  6
Continuous
 62
     7
370
     0
100
AcDbLine
 10
72.3974101435
 20
88.6489148172
 30
0.0
 11
73.7982558753
 21
92.1859339408
 31
0.0
  0
LINE
  5
267
330
1F
100
AcDbEntity
  8
0
  6
Continuous
 62
     7
370
     0
100
AcDbLine
 10
72.3874101435
 20
88.6236656478
 30
0.0
 11
72.3974101435
 21
88.6489148172
 31
0.0
  0
LINE
  5
268
330
1F
100
AcDbEntity
  8
0
  6
Continuous
 62
     7
370
     0
100
AcDbLine
 10
71.1855915202
 20
85.5891734428
 30
0.0
 11
72.3874101435
 21
88.6236656478
 31
0.0
  0
LINE
  5
269
330
1F
100
AcDbEntity
  8
0
  6
Continuous
 62
     7
370
     0
100
AcDbLine
 10
75.397402805
 20
89.230233137
 30
0.0
 11
74.1955915202
 21
92.264706813
 31
0.0
  0
LINE
  5
26A
330
1F
100
AcDbEntity
  8
0
  6
Continuous
 62
     7
370
     0
100
AcDbLine
 10
75.407402805
 20
89.2049839676
 30
0.0
 11
75.397402805
 21
89.230233137
 31
0.0
  0
LINE
  5
26B
330
1F
100
AcDbEntity
  8
0
  6
Continuous
 62
     7
370
     0
100
AcDbLine
 10
76.8082558753
 20
85.667946315
 30
0.0
 11
75.407402805
 21
89.2049839676
 31
0.0
  0
LINE
  5
26C
330
1F
100
AcDbEntity
  8
0
  6
Continuous
 62
     7
370
     0
100
AcDbLine
 10
75.4075422923
 20
88.6236656478
 30
0.0
 11
76.6093609156
 21
85.5891734428
 31
0.0
  0
LINE
  5
26D
330
1F
100
AcDbEntity
  8
0
  6
Continuous
 62
     7
370
     0
100
AcDbLine
 10
75.3975422923
 20
88.6489148172
 30
0.0
 11
75.4075422923
 21
88.6236656478
 31
0.0
  0
LINE
  5
26E
330
1F
100
AcDbEntity
  8
0
  6
Continuous
 62
     7
370
     0
100
AcDbLine
 10
73.9966965604
 20
92.1859339408
 30
0.0
 11
75.3975422923
 21
88.6489148172
 31
0.0
  0
LINE
  5
26F
330
1F
100
AcDbEntity
  8
0
  6
Continuous
 62
     7
370
     0
100
AcDbLine
 10
78.4075496308
 20
89.2049839676
 30
0.0
 11
77.0066965604
 21
85.667946315
 31
0.0
  0
LINE
  5
270
330
1F
100
AcDbEntity
  8
0
  6
Continuous
 62
     7
370
     0
100
AcDbLine
 10
78.4175422923
 20
89.230214608
 30
0.0
 11
78.4075496308
 21
89.2049839676
 31
0.0
  0
LINE
  5
271
330
1F
100
AcDbEntity
  8
0
  6
Continuous
 62
     7
370
     0
100
AcDbLine
 10
79.6193609156
 20
92.264706813
 30
0.0
 11
78.4175422923
 21
89.230214608
 31
0.0
  0
LINE
  5
272
330
1F
100
AcDbEntity
  8
0
  6
Continuous
 62
     7
370
     0
100
AcDbLine
 10
78.417402805
 20
88.6488962882
 30
0.0
 11
79.8182558753
 21
92.1859339408
 31
0.0
  0
LINE
  5
273
330
1F
100
AcDbEntity
  8
0
  6
Continuous
 62
     7
370
     0
100
AcDbLine
 10
78.4074101435
 20
88.6236656478
 30
0.0
 11
78.417402805
 21
88.6488962882
 31
0.0
  0
LINE
  5
274
330
1F
100
AcDbEntity
  8
0
  6
Continuous
 62
     7
370
     0
100
AcDbLine
 10
77.2055915202
 20
85.5891734428
 30
0.0
 11
78.4074101435
 21
88.6236656478
 31
0.0
  0
LINE
  5
275
330
1F
100
AcDbEntity
  8
0
  6
Continuous
 62
     7
370
     0
100
AcDbLine
 10
81.4174102551
 20
89.2196096772
 30
0.0
 11
80.2151180098
 21
92.2644017678
 31
0.0
  0
LINE
  5
276
330
1F
100
AcDbEntity
  8
0
  6
Continuous
 62
     7
370
     0
100
AcDbLine
 10
81.4184102551
 20
89.217077188
 30
0.0
 11
81.4174102551
 21
89.2196096772
 31
0.0
  0
LINE
  5
277
330
1F
100
AcDbEntity
  8
0
  6
Continuous
 62
     7
370
     0
100
AcDbLine
 10
82.8198099495
 20
85.6680476388
 30
0.0
 11
81.4184102551
 21
89.217077188
 31
0.0
  0
LINE
  5
278
330
1F
100
AcDbEntity
  8
0
  6
Continuous
 62
     7
370
     0
100
AcDbLine
 10
81.4185497187
 20
88.6342514888
 30
0.0
 11
82.620834426
 21
85.589478488
 31
0.0
  0
LINE
  5
279
330
1F
100
AcDbEntity
  8
0
  6
Continuous
 62
     7
370
     0
100
AcDbLine
 10
81.4175497187
 20
88.6367839779
 30
0.0
 11
81.4185497187
 21
88.6342514888
 31
0.0
  0
LINE
  5
27A
330
1F
100
AcDbEntity
  8
0
  6
Continuous
 62
     7
370
     0
100
AcDbLine
 10
80.0161424863
 20
92.185832617
 30
0.0
 11
81.4175497187
 21
88.6367839779
 31
0.0
  0
LINE
  5
27B
330
1F
100
AcDbEntity
  8
0
  6
Continuous
 62
     7
370
     0
100
AcDbLine
 10
67.3864762179
 20
83.9269401279
 30
0.0
 11
69.3864762179
 21
83.9269401279
 31
0.0
  0
LINE
  5
27C
330
1F
100
AcDbEntity
  8
0
  6
Continuous
 62
     7
370
     0
100
AcDbLine
 10
67.3864762179
 20
83.9269401279
 30
0.0
 11
67.3864762179
 21
93.9269401279
 31
0.0
  0
LINE
  5
27D
330
1F
100
AcDbEntity
  8
0
  6
Continuous
 62
     7
370
     0
100
AcDbLine
 10
67.3864762179
 20
93.9269401279
 30
0.0
 11
69.3864762179
 21
93.9269401279
 31
0.0
  0
LINE
  5
27E
330
1F
100
AcDbEntity
  8
0
  6
Continuous
 62
     7
370
     0
100
AcDbLine
 10
69.3864762179
 20
83.9269401279
 30
0.0
 11
69.3864762179
 21
89.3459836034
 31
0.0
  0
LINE
  5
27F
330
1F
100
AcDbEntity
  8
0
  6
Continuous
 62
     7
370
     0
100
AcDbLine
 10
69.3864762179
 20
90.03032768
 30
0.0
 11
69.3864762179
 21
93.9269401279
 31
0.0
  0
LINE
  5
280
330
1F
100
AcDbEntity
  8
0
  6
Continuous
 62
     7
370
     0
100
AcDbLine
 10
69.3874762179
 20
83.9269401279
 30
0.0
 11
69.3874762179
 21
89.3429448189
 31
0.0
  0
LINE
  5
281
330
1F
100
AcDbEntity
  8
0
  6
Continuous
 62
     7
370
     0
100
AcDbLine
 10
69.3874762179
 20
90.0272888955
 30
0.0
 11
69.3874762179
 21
93.9269401279
 31
0.0
  0
LINE
  5
282
330
1F
100
AcDbEntity
  8
0
  6
Continuous
 62
     7
370
     0
100
AcDbLine
 10
69.3874762179
 20
93.9269401279
 30
0.0
 11
72.3874762179
 21
93.9269401279
 31
0.0
  0
LINE
  5
283
330
1F
100
AcDbEntity
  8
0
  6
Continuous
 62
     7
370
     0
100
AcDbLine
 10
72.3874762179
 20
83.9269401279
 30
0.0
 11
72.3874762179
 21
88.6238434627
 31
0.0
  0
LINE
  5
284
330
1F
100
AcDbEntity
  8
0
  6
Continuous
 62
     7
370
     0
100
AcDbLine
 10
72.3874762179
 20
89.2047876236
 30
0.0
 11
72.3874762179
 21
93.9269401279
 31
0.0
  0
LINE
  5
285
330
1F
100
AcDbEntity
  8
0
  6
Continuous
 62
     7
370
     0
100
AcDbLine
 10
69.3874762179
 20
83.9269401279
 30
0.0
 11
72.3874762179
 21
83.9269401279
 31
0.0
  0
LINE
  5
286
330
1F
100
AcDbEntity
  8
0
  6
Continuous
 62
     7
370
     0
100
AcDbLine
 10
72.3974762179
 20
83.9269401279
 30
0.0
 11
72.3974762179
 21
88.6490926322
 31
0.0
  0
LINE
  5
287
330
1F
100
AcDbEntity
  8
0
  6
Continuous
 62
     7
370
     0
100
AcDbLine
 10
72.3974762179
 20
89.2300367931
 30
0.0
 11
72.3974762179
 21
93.9269401279
 31
0.0
  0
LINE
  5
288
330
1F
100
AcDbEntity
  8
0
  6
Continuous
 62
     7
370
     0
100
AcDbLine
 10
72.3974762179
 20
93.9269401279
 30
0.0
 11
75.3974762179
 21
93.9269401279
 31
0.0
  0
LINE
  5
289
330
1F
100
AcDbEntity
  8
0
  6
Continuous
 62
     7
370
     0
100
AcDbLine
 10
75.3974762179
 20
83.9269401279
 30
0.0
 11
75.3974762179
 21
88.6490926322
 31
0.0
  0
LINE
  5
28A
330
1F
100
AcDbEntity
  8
0
  6
Continuous
 62
     7
370
     0
100
AcDbLine
 10
75.3974762179
 20
89.2300367931
 30
0.0
 11
75.3974762179
 21
93.9269401279
 31
0.0
  0
LINE
  5
28B
330
1F
100
AcDbEntity
  8
0
  6
Continuous
 62
     7
370
     0
100
AcDbLine
 10
72.3974762179
 20
83.9269401279
 30
0.0
 11
75.3974762179
 21
83.9269401279
 31
0.0
  0
LINE
  5
28C
330
1F
100
AcDbEntity
  8
0
  6
Continuous
 62
     7
370
     0
100
AcDbLine
 10
75.4074762179
 20
83.9269401279
 30
0.0
 11
78.4074762179
 21
83.9269401279
 31
0.0
  0
LINE
  5
28D
330
1F
100
AcDbEntity
  8
0
  6
Continuous
 62
     7
370
     0
100
AcDbLine
 10
75.4074762179
 20
83.9269401279
 30
0.0
 11
75.4074762179
 21
88.6238434627
 31
0.0
  0
LINE
  5
28E
330
1F
100
AcDbEntity
  8
0
  6
Continuous
 62
     7
370
     0
100
AcDbLine
 10
75.4074762179
 20
89.2047876236
 30
0.0
 11
75.4074762179
 21
93.9269401279
 31
0.0
  0
LINE
  5
28F
330
1F
100
AcDbEntity
  8
0
  6
Continuous
 62
     7
370
     0
100
AcDbLine
 10
75.4074762179
 20
93.9269401279
 30
0.0
 11
78.4074762179
 21
93.9269401279
 31
0.0
  0
LINE
  5
290
330
1F
100
AcDbEntity
  8
0
  6
Continuous
 62
     7
370
     0
100
AcDbLine
 10
78.4074762179
 20
83.9269401279
 30
0.0
 11
78.4074762179
 21
88.6238434627
 31
0.0
  0
LINE
  5
291
330
1F
100
AcDbEntity
  8
0
  6
Continuous
 62
     7
370
     0
100
AcDbLine
 10
78.4074762179
 20
89.2047876236
 30
0.0
 11
78.4074762179
 21
93.9269401279
 31
0.0
  0
LINE
  5
292
330
1F
100
AcDbEntity
  8
0
  6
Continuous
 62
     7
370
     0
100
AcDbLine
 10
78.4174762179
 20
83.9269401279
 30
0.0
 11
81.4174762179
 21
83.9269401279
 31
0.0
  0
LINE
  5
293
330
1F
100
AcDbEntity
  8
0
  6
Continuous
 62
     7
370
     0
100
AcDbLine
 10
78.4174762179
 20
83.9269401279
 30
0.0
 11
78.4174762179
 21
88.6490926322
 31
0.0
  0
LINE
  5
294
330
1F
100
AcDbEntity
  8
0
  6
Continuous
 62
     7
370
     0
100
AcDbLine
 10
78.4174762179
 20
89.2300367931
 30
0.0
 11
78.4174762179
 21
93.9269401279
 31
0.0
  0
LINE
  5
295
330
1F
100
AcDbEntity
  8
0
  6
Continuous
 62
     7
370
     0
100
AcDbLine
 10
78.4174762179
 20
93.9269401279
 30
0.0
 11
81.4174762179
 21
93.9269401279
 31
0.0
  0
LINE
  5
296
330
1F
100
AcDbEntity
  8
0
  6
Continuous
 62
     7
370
     0
100
AcDbLine
 10
81.4174762179
 20
83.9269401279
 30
0.0
 11
81.4174762179
 21
88.6369811289
 31
0.0
  0
LINE
  5
297
330
1F
100
AcDbEntity
  8
0
  6
Continuous
 62
     7
370
     0
100
AcDbLine
 10
81.4174762179
 20
89.219431616
 30
0.0
 11
81.4174762179
 21
92.3069401279
 31
0.0
  0
LINE
  5
298
330
1F
100
AcDbEntity
  8
0
  6
Continuous
 62
     7
370
     0
100
AcDbLine
 10
81.4174762179
 20
93.1469401279
 30
0.0
 11
81.4174762179
 21
93.9269401279
 31
0.0
  0
LINE
  5
299
330
1F
100
AcDbEntity
  8
0
  6
Continuous
 62
     7
370
     0
100
AcDbLine
 10
84.4184762179
 20
93.9269401279
 30
0.0
 11
81.4184762179
 21
93.9269401279
 31
0.0
  0
LINE
  5
29A
330
1F
100
AcDbEntity
  8
0
  6
Continuous
 62
     7
370
     0
100
AcDbLine
 10
84.4184762179
 20
93.9269401279
 30
0.0
 11
84.4184762179
 21
93.1469401279
 31
0.0
  0
LINE
  5
29B
330
1F
100
AcDbEntity
  8
0
  6
Continuous
 62
     7
370
     0
100
AcDbLine
 10
84.4184762179
 20
92.3069401279
 30
0.0
 11
84.4184762179
 21
83.9269401279
 31
0.0
  0
LINE
  5
29C
330
1F
100
AcDbEntity
  8
0
  6
Continuous
 62
     7
370
     0
100
AcDbLine
 10
84.4184762179
 20
83.9269401279
 30
0.0
 11
81.4184762179
 21
83.9269401279
 31
0.0
  0
LINE
  5
29D
330
1F
100
AcDbEntity
  8
0
  6
Continuous
 62
     7
370
     0
100
AcDbLine
 10
81.4184762179
 20
93.9269401279
 30
0.0
 11
81.4184762179
 21
93.1469401279
 31
0.0
  0
LINE
  5
29E
330
1F
100
AcDbEntity
  8
0
  6
Continuous
 62
     7
370
     0
100
AcDbLine
 10
81.4184762179
 20
92.3069401279
 30
0.0
 11
81.4184762179
 21
89.2168991269
 31
0.0
  0
LINE
  5
29F
330
1F
100
AcDbEntity
  8
0
  6
Continuous
 62
     7
370
     0
100
AcDbLine
 10
81.4184762179
 20
88.6344486398
 30
0.0
 11
81.4184762179
 21
83.9269401279
 31
0.0
  0
LINE
  5
2A0
330
1F
100
AcDbEntity
  8
0
  6
Continuous
 62
     7
370
     0
100
AcDbLine
 10
85.0194762179
 20
93.9269401279
 30
0.0
 11
84.4194762179
 21
93.9269401279
 31
0.0
  0
LINE
  5
2A1
330
1F
100
AcDbEntity
  8
0
  6
Continuous
 62
     7
370
     0
100
AcDbLine
 10
85.0194762179
 20
93.9269401279
 30
0.0
 11
85.0194762179
 21
93.1469401279
 31
0.0
  0
LINE
  5
2A2
330
1F
100
AcDbEntity
  8
0
  6
Continuous
 62
     7
370
     0
100
AcDbLine
 10
85.0194762179
 20
92.3069401279
 30
0.0
 11
85.0194762179
 21
83.9269401279
 31
0.0
  0
LINE
  5
2A3
330
1F
100
AcDbEntity
  8
0
  6
Continuous
 62
     7
370
     0
100
AcDbLine
 10
85.0194762179
 20
83.9269401279
 30
0.0
 11
84.4194762179
 21
83.9269401279
 31
0.0
  0
LINE
  5
2A4
330
1F
100
AcDbEntity
  8
0
  6
Continuous
 62
     7
370
     0
100
AcDbLine
 10
84.4194762179
 20
93.9269401279
 30
0.0
 11
84.4194762179
 21
93.1469401279
 31
0.0
  0
LINE
  5
2A5
330
1F
100
AcDbEntity
  8
0
  6
Continuous
 62
     7
370
     0
100
AcDbLine
 10
84.4194762179
 20
92.3069401279
 30
0.0
 11
84.4194762179
 21
83.9269401279
 31
0.0
  0
LWPOLYLINE
  5
2A6
330
1F
100
AcDbEntity
  8
0
  6
Continuous
 62
     7
370
     0
100
AcDbPolyline
 90
       23
 70
   128
 43
0.0
 10
159.9743107638
 20
92.3069401279
 10
159.9085363823
 20
92.323953079
 10
159.84809065
 20
92.3736136441
 10
159.7978705207
 20
92.4518986196
 10
159.7619445305
 20
92.5524658224
 10
159.7432231896
 20
92.6671678958
 10
159.7432231896
 20
92.78671236
 10
159.7619445305
 20
92.9014144334
 10
159.7978705207
 20
93.0019816362
 10
159.84809065
 20
93.0802666117
 10
159.9085363823
 20
93.1299271768
 10
159.9743107638
 20
93.1469401279
 10
160.0400851453
 20
93.1299271768
 10
160.1005308776
 20
93.0802666117
 10
160.1507510069
 20
93.0019816362
 10
160.186676997
 20
92.9014144334
 10
160.205398338
 20
92.78671236
 10
160.205398338
 20
92.6671678958
 10
160.186676997
 20
92.5524658224
 10
160.1507510069
 20
92.4518986196
 10
160.1005308776
 20
92.3736136441
 10
160.0400851453
 20
92.323953079
 10
159.9743107638
 20
92.3069401279
  0
SPLINE
  5
2A7
330
1F
100
AcDbEntity
  8
0
  6
Continuous
 62
     7
370
     0
100
AcDbSpline
210
0.0
220
0.0
230
1.0
 70
     8
 71
     3
 72
    18
 73
    14
 74
     0
 42
0.000000001
 43
0.00000001
 40
0.0
 40
0.0
 40
0.0
 40
0.0
 40
0.1250000000000005
 40
0.1250000000000005
 40
0.2500000000000009
 40
0.2500000000000009
 40
0.4999999999999992
 40
0.4999999999999992
 40
0.7499999999999974
 40
0.7499999999999974
 40
0.8749999999999988
 40
0.8749999999999988
 40
1.0
 40
1.0
 40
1.0
 40
1.0
 10
84.97431076377944
 20
92.30694012790009
 30
0.0
 10
84.972578473242
 20
92.30694012790009
 30
0.0
 10
84.96694431942682
 20
92.3206355906568
 30
0.0
 10
84.9551971960671
 20
92.36895053678272
 30
0.0
 10
84.94938054612804
 20
92.4034156400131
 30
0.0
 10
84.93617525258487
 20
92.52387946503848
 30
0.0
 10
84.93257484907144
 20
92.62554517841743
 30
0.0
 10
84.93258967806383
 20
92.82893614042254
 30
0.0
 10
84.93618590260675
 20
92.92984616341022
 30
0.0
 10
84.94930128639717
 20
93.04986640770818
 30
0.0
 10
84.95507565794192
 20
93.08437013800244
 30
0.0
 10
84.96695798116934
 20
93.13336002009198
 30
0.0
 10
84.97257847324559
 20
93.14694012790011
 30
0.0
 10
84.97431076377906
 20
93.14694012790011
 30
0.0
  0
SPLINE
  5
2A8
330
1F
100
AcDbEntity
  8
0
  6
Continuous
 62
     7
370
     0
100
AcDbSpline
210
0.0
220
0.0
230
1.0
 70
     8
 71
     3
 72
    25
 73
    21
 74
     0
 42
0.000000001
 43
0.00000001
 40
0.0
 40
0.0
 40
0.0
 40
0.0
 40
0.0605530208901434
 40
0.123313532685841
 40
0.1777770380321243
 40
0.2337226475521841
 40
0.2900371458909485
 40
0.3478572107121479
 40
0.406564141869146
 40
0.4668746838429955
 40
0.5273326992739386
 40
0.5895437800439607
 40
0.6498928080518361
 40
0.712107671158084
 40
0.770444654349044
 40
0.83062774712877
 40
0.8864356656047049
 40
0.943959273931226
 40
0.9981925638628932
 40
1.0
 40
1.0
 40
1.0
 40
1.0
 10
79.91747621788598
 20
92.31765580309987
 30
0.0
 10
79.89420243041945
 20
92.32459031034593
 30
0.0
 10
79.84680639783038
 20
92.3387121257959
 30
0.0
 10
79.78483099079543
 20
92.37491408678305
 30
0.0
 10
79.73134215327617
 20
92.41929301152196
 30
0.0
 10
79.6875158117344
 20
92.47006866667454
 30
0.0
 10
79.65172148738839
 20
92.52836791623393
 30
0.0
 10
79.6253076980565
 20
92.59273973109458
 30
0.0
 10
79.60919796904523
 20
92.66210824127508
 30
0.0
 10
79.60445268897656
 20
92.7342631136423
 30
0.0
 10
79.61170484123834
 20
92.80762330205526
 30
0.0
 10
79.63111874905701
 20
92.87876716081462
 30
0.0
 10
79.6625901590322
 20
92.94617948979634
 30
0.0
 10
79.7043835354424
 20
93.00583350695972
 30
0.0
 10
79.75586296303224
 20
93.0571703965585
 30
0.0
 10
79.813470721798
 20
93.09707546997589
 30
0.0
 10
79.8768607695129
 20
93.12644497626403
 30
0.0
 10
79.94198069361437
 20
93.14238312964831
 30
0.0
 10
79.9876072244789
 20
93.14881491776381
 30
0.0
 10
80.00994190289806
 20
93.14681643894797
 30
0.0
 10
80.01066224518691
 20
93.14675198362977
 30
0.0
  0
SPLINE
  5
2A9
330
1F
100
AcDbEntity
  8
0
  6
Continuous
 62
     7
370
     0
100
AcDbSpline
210
0.0
220
0.0
230
1.0
 70
     8
 71
     3
 72
     9
 73
     5
 74
     0
 42
0.000000001
 43
0.00000001
 40
0.0
 40
0.0
 40
0.0
 40
0.0
 40
0.2700162241028269
 40
1.0
 40
1.0
 40
1.0
 40
1.0
 10
80.01024794282469
 20
92.30827616912975
 30
0.0
 10
80.00181970665587
 20
92.30786434494104
 30
0.0
 10
79.970605892757
 20
92.30633916181515
 30
0.0
 10
79.93989481002245
 20
92.31288063430893
 30
0.0
 10
79.91747621788598
 20
92.31765580309987
 30
0.0
  0
ARC
  5
2AA
330
1F
100
AcDbEntity
  8
0
  6
Continuous
 62
     7
370
     0
100
AcDbCircle
 10
70.8874762179
 20
85.1269401279
 30
0.0
 40
0.550000000000152
100
AcDbArc
 50
115.7422779593
 51
60.8668365914
  0
SPLINE
  5
2AB
330
1F
100
AcDbEntity
  8
0
  6
Continuous
 62
     7
370
     0
100
AcDbSpline
210
0.0
220
0.0
230
1.0
 70
     8
 71
     3
 72
    29
 73
    25
 74
     0
 42
0.000000001
 43
0.00000001
 40
0.0000000000000006
 40
0.0000000000000006
 40
0.0000000000000006
 40
0.0000000000000006
 40
0.0000553986492
 40
0.0000553986492
 40
0.0000553986492
 40
0.0000744703661974
 40
0.0000744703661974
 40
0.0000744703661974
 40
0.0000938210300502
 40
0.0000938210300502
 40
0.0000938210300502
 40
0.0001072543096207
 40
0.0001072543096207
 40
0.0001072543096207
 40
0.0001207016259448
 40
0.0001207016259448
 40
0.0001207016259448
 40
0.0001387455774114
 40
0.0001387455774114
 40
0.0001387455774114
 40
0.0001702186759782
 40
0.0001702186759782
 40
0.0001702186759782
 40
0.0002135383638984
 40
0.0002135383638984
 40
0.0002135383638984
 40
0.0002135383638984
 10
70.78546997774832
 20
85.6673980143011
 30
0.0
 10
70.78309247967174
 20
85.65062505103923
 30
0.0
 10
70.77923109215867
 20
85.63351204115014
 30
0.0
 10
70.77192413218458
 20
85.61754866258977
 30
0.0
 10
70.76938552445449
 20
85.61200261384234
 30
0.0
 10
70.7663812069543
 20
85.60656450455814
 30
0.0
 10
70.76272687931677
 20
85.60153250039971
 30
0.0
 10
70.75904281530576
 20
85.59645954929569
 30
0.0
 10
70.75458403209075
 20
85.59169330803591
 30
0.0
 10
70.74934568477642
 20
85.587985326926
 30
0.0
 10
70.74569386287594
 20
85.58540037296795
 30
0.0
 10
70.74157557938118
 20
85.58329637286322
 30
0.0
 10
70.73727797437303
 20
85.58193238206003
 30
0.0
 10
70.73297513531847
 20
85.58056673005458
 30
0.0
 10
70.72839663762059
 20
85.57991087309891
 30
0.0
 10
70.72392140853076
 20
85.57990564089006
 30
0.0
 10
70.71792796875184
 20
85.57989863366697
 30
0.0
 10
70.71195698931582
 20
85.58101544611525
 30
0.0
 10
70.7063590916001
 20
85.58275900553413
 30
0.0
 10
70.69662395118975
 20
85.58579117879249
 30
0.0
 10
70.68764443843139
 20
85.59070371336252
 30
0.0
 10
70.67942897059453
 20
85.59623051392084
 30
0.0
 10
70.66809620926749
 20
85.60385441469843
 30
0.0
 10
70.65792380420653
 20
85.61286587329406
 30
0.0
 10
70.64859809388355
 20
85.62235635883432
 30
0.0
  0
ARC
  5
2AC
330
1F
100
AcDbEntity
  8
0
  6
Continuous
 62
     7
370
     0
100
AcDbCircle
 10
70.8874762179
 20
85.1269401279
 30
0.0
 40
0.5500000000000576
100
AcDbArc
 50
75.9208184781
 51
100.6882960722
  0
SPLINE
  5
2AD
330
1F
100
AcDbEntity
  8
0
  6
Continuous
 62
     7
370
     0
100
AcDbSpline
210
0.0
220
0.0
230
1.0
 70
     8
 71
     3
 72
    29
 73
    25
 74
     0
 42
0.000000001
 43
0.00000001
 40
0.0
 40
0.0
 40
0.0
 40
0.0
 40
0.0000553986491987
 40
0.0000553986491987
 40
0.0000553986491987
 40
0.0000744703661961
 40
0.0000744703661961
 40
0.0000744703661961
 40
0.000093821030049
 40
0.000093821030049
 40
0.000093821030049
 40
0.0001072543096193
 40
0.0001072543096193
 40
0.0001072543096193
 40
0.0001207016259434
 40
0.0001207016259434
 40
0.0001207016259434
 40
0.00013874557741
 40
0.00013874557741
 40
0.00013874557741
 40
0.0001702186759765
 40
0.0001702186759765
 40
0.0001702186759765
 40
0.0002135383638959
 40
0.0002135383638959
 40
0.0002135383638959
 40
0.0002135383638959
 10
71.15523879407473
 20
85.60735994721746
 30
0.0
 10
71.14267140942765
 20
85.59600012165508
 30
0.0
 10
71.12874656783525
 20
85.58532940435923
 30
0.0
 10
71.11291159685888
 20
85.57774818985972
 30
0.0
 10
71.10741015989053
 20
85.57511429973293
 30
0.0
 10
71.10162016160841
 20
85.57286155116236
 30
0.0
 10
71.09559099578908
 20
85.57133697389101
 30
0.0
 10
71.08951276881695
 20
85.56979999067151
 30
0.0
 10
71.08303593981118
 20
85.56899470219193
 30
0.0
 10
71.07663807854681
 20
85.56950143460605
 30
0.0
 10
71.07217792184483
 20
85.56985469421573
 30
0.0
 10
71.0676675038432
 20
85.57087606820909
 30
0.0
 10
71.06349325911606
 20
85.57258063873425
 30
0.0
 10
71.0593139305828
 20
85.57428728525319
 30
0.0
 10
71.05537743506757
 20
85.5767156164856
 30
0.0
 10
71.05193691275905
 20
85.57957752302269
 30
0.0
 10
71.04732920154466
 20
85.58341032445892
 30
0.0
 10
71.04345843205849
 20
85.58809188499522
 30
0.0
 10
71.04027557278059
 20
85.59301589404272
 30
0.0
 10
71.0347403551774
 20
85.60157909435357
 30
0.0
 10
71.03098967115704
 20
85.61110259237998
 30
0.0
 10
71.02821918138922
 20
85.62060858115743
 30
0.0
 10
71.02439745146208
 20
85.6337215412628
 30
0.0
 10
71.02235551431052
 20
85.64715711729856
 30
0.0
 10
71.02127064335147
 20
85.66041838585853
 30
0.0
  0
ARC
  5
2AE
330
1F
100
AcDbEntity
  8
0
  6
Continuous
 62
     7
370
     0
100
AcDbCircle
 10
68.3864762179
 20
92.7269401279
 30
0.0
 40
0.5500000000000664
100
AcDbArc
 50
295.7422779592
 51
280.6882960723
  0
SPLINE
  5
2AF
330
1F
100
AcDbEntity
  8
0
  6
Continuous
 62
     7
370
     0
100
AcDbSpline
210
0.0
220
0.0
230
1.0
 70
     8
 71
     3
 72
    29
 73
    25
 74
     0
 42
0.000000001
 43
0.00000001
 40
0.0
 40
0.0
 40
0.0
 40
0.0
 40
0.0000553986492001
 40
0.0000553986492001
 40
0.0000553986492001
 40
0.0000744703661974
 40
0.0000744703661974
 40
0.0000744703661974
 40
0.0000938210300502
 40
0.0000938210300502
 40
0.0000938210300502
 40
0.0001072543096207
 40
0.0001072543096207
 40
0.0001072543096207
 40
0.0001207016259449
 40
0.0001207016259449
 40
0.0001207016259449
 40
0.0001387455774115
 40
0.0001387455774115
 40
0.0001387455774115
 40
0.0001702186759782
 40
0.0001702186759782
 40
0.0001702186759782
 40
0.0002135383638979
 40
0.0002135383638979
 40
0.0002135383638979
 40
0.0002135383638979
 10
68.48848245802363
 20
92.18648224149909
 30
0.0
 10
68.49085995610018
 20
92.20325520476099
 30
0.0
 10
68.49472134361329
 20
92.22036821465007
 30
0.0
 10
68.50202830358737
 20
92.23633159321045
 30
0.0
 10
68.50456691131747
 20
92.24187764195787
 30
0.0
 10
68.50757122881765
 20
92.24731575124208
 30
0.0
 10
68.5112255564552
 20
92.25234775540049
 30
0.0
 10
68.5149096204662
 20
92.25742070650452
 30
0.0
 10
68.51936840368123
 20
92.26218694776429
 30
0.0
 10
68.52460675099555
 20
92.2658949288742
 30
0.0
 10
68.52825857289604
 20
92.26847988283225
 30
0.0
 10
68.53237685639078
 20
92.27058388293699
 30
0.0
 10
68.53667446139895
 20
92.27194787374017
 30
0.0
 10
68.5409773004535
 20
92.27331352574562
 30
0.0
 10
68.54555579815136
 20
92.2739693827013
 30
0.0
 10
68.55003102724122
 20
92.27397461491013
 30
0.0
 10
68.55602446702014
 20
92.27398162213322
 30
0.0
 10
68.56199544645615
 20
92.27286480968496
 30
0.0
 10
68.56759334417187
 20
92.27112125026608
 30
0.0
 10
68.57732848458221
 20
92.2680890770077
 30
0.0
 10
68.58630799734057
 20
92.26317654243769
 30
0.0
 10
68.59452346517745
 20
92.25764974187935
 30
0.0
 10
68.60585622650447
 20
92.25002584110176
 30
0.0
 10
68.61602863156543
 20
92.24101438250614
 30
0.0
 10
68.62535434188841
 20
92.23152389696588
 30
0.0
  0
ARC
  5
2B0
330
1F
100
AcDbEntity
  8
0
  6
Continuous
 62
     7
370
     0
100
AcDbCircle
 10
76.9074762179
 20
85.1269401279
 30
0.0
 40
0.5500000000000996
100
AcDbArc
 50
75.920818478
 51
104.0791815218
  0
SPLINE
  5
2B1
330
1F
100
AcDbEntity
  8
0
  6
Continuous
 62
     7
370
     0
100
AcDbSpline
210
0.0
220
0.0
230
1.0
 70
     8
 71
     3
 72
    29
 73
    25
 74
     0
 42
0.000000001
 43
0.00000001
 40
0.0
 40
0.0
 40
0.0
 40
0.0
 40
0.0000553986491994
 40
0.0000553986491994
 40
0.0000553986491994
 40
0.0000744703661968
 40
0.0000744703661968
 40
0.0000744703661968
 40
0.0000938210300496
 40
0.0000938210300496
 40
0.0000938210300496
 40
0.0001072543096201
 40
0.0001072543096201
 40
0.0001072543096201
 40
0.0001207016259442
 40
0.0001207016259442
 40
0.0001207016259442
 40
0.0001387455774108
 40
0.0001387455774108
 40
0.0001387455774108
 40
0.0001702186759774
 40
0.0001702186759774
 40
0.0001702186759774
 40
0.0002135383638965
 40
0.0002135383638965
 40
0.0002135383638965
 40
0.0002135383638965
 10
77.17523879407574
 20
85.60735994721684
 30
0.0
 10
77.1626714094286
 20
85.5960001216542
 30
0.0
 10
77.14874656783535
 20
85.58532940435927
 30
0.0
 10
77.13291159685879
 20
85.57774818985966
 30
0.0
 10
77.12741015989046
 20
85.5751142997329
 30
0.0
 10
77.12162016160833
 20
85.57286155116233
 30
0.0
 10
77.11559099578903
 20
85.571336973891
 30
0.0
 10
77.10951276881693
 20
85.56979999067151
 30
0.0
 10
77.10303593981118
 20
85.56899470219193
 30
0.0
 10
77.09663807854683
 20
85.56950143460605
 30
0.0
 10
77.09217792184485
 20
85.56985469421572
 30
0.0
 10
77.0876675038432
 20
85.57087606820909
 30
0.0
 10
77.08349325911607
 20
85.57258063873424
 30
0.0
 10
77.07931393058281
 20
85.57428728525318
 30
0.0
 10
77.0753774350676
 20
85.57671561648559
 30
0.0
 10
77.07193691275904
 20
85.57957752302268
 30
0.0
 10
77.06732920154467
 20
85.58341032445891
 30
0.0
 10
77.0634584320585
 20
85.5880918849952
 30
0.0
 10
77.06027557278058
 20
85.5930158940427
 30
0.0
 10
77.0547403551774
 20
85.60157909435354
 30
0.0
 10
77.05098967115705
 20
85.61110259237994
 30
0.0
 10
77.04821918138923
 20
85.62060858115738
 30
0.0
 10
77.04439745146207
 20
85.63372154126277
 30
0.0
 10
77.04235551431051
 20
85.64715711729856
 30
0.0
 10
77.04127064335148
 20
85.66041838585853
 30
0.0
  0
ARC
  5
2B2
330
1F
100
AcDbEntity
  8
0
  6
Continuous
 62
     7
370
     0
100
AcDbCircle
 10
76.9074762179
 20
85.1269401279
 30
0.0
 40
0.5500000000000971
100
AcDbArc
 50
119.133163409
 51
60.8668365913
  0
SPLINE
  5
2B3
330
1F
100
AcDbEntity
  8
0
  6
Continuous
 62
     7
370
     0
100
AcDbSpline
210
0.0
220
0.0
230
1.0
 70
     8
 71
     3
 72
    29
 73
    25
 74
     0
 42
0.000000001
 43
0.00000001
 40
0.0000000000000011
 40
0.0000000000000011
 40
0.0000000000000011
 40
0.0000000000000011
 40
0.0000553986491994
 40
0.0000553986491994
 40
0.0000553986491994
 40
0.0000744703661967
 40
0.0000744703661967
 40
0.0000744703661967
 40
0.0000938210300496
 40
0.0000938210300496
 40
0.0000938210300496
 40
0.00010725430962
 40
0.00010725430962
 40
0.00010725430962
 40
0.0001207016259441
 40
0.0001207016259441
 40
0.0001207016259441
 40
0.0001387455774107
 40
0.0001387455774107
 40
0.0001387455774107
 40
0.0001702186759774
 40
0.0001702186759774
 40
0.0001702186759774
 40
0.0002135383638974
 40
0.0002135383638974
 40
0.0002135383638974
 40
0.0002135383638974
 10
76.77368179241823
 20
85.66041838585805
 30
0.0
 10
76.7723005368314
 20
85.64353416462384
 30
0.0
 10
76.76945810266227
 20
85.62622272363878
 30
0.0
 10
76.76310813046413
 20
85.6098551040134
 30
0.0
 10
76.76090200253059
 20
85.60416861252418
 30
0.0
 10
76.75822459581106
 20
85.59856232592008
 30
0.0
 10
76.75487429682667
 20
85.59332298693045
 30
0.0
 10
76.75149673544229
 20
85.58804101384872
 30
0.0
 10
76.74732767005061
 20
85.58301939087751
 30
0.0
 10
76.74231781186126
 20
85.57900806598168
 30
0.0
 10
76.7388252771444
 20
85.57621164122679
 30
0.0
 10
76.7348386502375
 20
85.57386773822348
 30
0.0
 10
76.73062924600953
 20
85.57225194251774
 30
0.0
 10
76.72641471515473
 20
85.57063417893691
 30
0.0
 10
76.7218830256109
 20
85.56970866319199
 30
0.0
 10
76.71741594100224
 20
85.56943874120005
 30
0.0
 10
76.71143340870016
 20
85.56907724882251
 30
0.0
 10
76.7054068262114
 20
85.56983893706347
 30
0.0
 10
76.69971560170727
 20
85.57124834187623
 30
0.0
 10
76.68981815940509
 20
85.57369939661929
 30
0.0
 10
76.6805638030299
 20
85.57807221417323
 30
0.0
 10
76.67203582158135
 20
85.58310341369263
 30
0.0
 10
76.66027196585499
 20
85.59004366158524
 30
0.0
 10
76.649584364222
 20
85.59843767028661
 30
0.0
 10
76.63971364169429
 20
85.60735994721564
 30
0.0
  0
ARC
  5
2B4
330
1F
100
AcDbEntity
  8
0
  6
Continuous
 62
     7
370
     0
100
AcDbCircle
 10
73.8974762179
 20
92.7269401279
 30
0.0
 40
0.5500000000000489
100
AcDbArc
 50
299.1331634088
 51
240.866836591
  0
SPLINE
  5
2B5
330
1F
100
AcDbEntity
  8
0
  6
Continuous
 62
     7
370
     0
100
AcDbSpline
210
0.0
220
0.0
230
1.0
 70
     8
 71
     3
 72
    29
 73
    25
 74
     0
 42
0.000000001
 43
0.00000001
 40
0.0
 40
0.0
 40
0.0
 40
0.0
 40
0.0000553986492
 40
0.0000553986492
 40
0.0000553986492
 40
0.0000744703661974
 40
0.0000744703661974
 40
0.0000744703661974
 40
0.0000938210300502
 40
0.0000938210300502
 40
0.0000938210300502
 40
0.0001072543096207
 40
0.0001072543096207
 40
0.0001072543096207
 40
0.0001207016259448
 40
0.0001207016259448
 40
0.0001207016259448
 40
0.0001387455774115
 40
0.0001387455774115
 40
0.0001387455774115
 40
0.0001702186759782
 40
0.0001702186759782
 40
0.0001702186759782
 40
0.0002135383638979
 40
0.0002135383638979
 40
0.0002135383638979
 40
0.0002135383638979
 10
74.03127064335263
 20
92.19346186994191
 30
0.0
 10
74.03265189893932
 20
92.21034609117633
 30
0.0
 10
74.03549433310963
 20
92.22765753216133
 30
0.0
 10
74.04184430530786
 20
92.24402515178689
 30
0.0
 10
74.04405043324141
 20
92.2497116432761
 30
0.0
 10
74.04672783996094
 20
92.25531792988018
 30
0.0
 10
74.0500781389453
 20
92.2605572688698
 30
0.0
 10
74.05345570032968
 20
92.2658392419515
 30
0.0
 10
74.05762476572134
 20
92.2708608649227
 30
0.0
 10
74.06263462391068
 20
92.27487218981851
 30
0.0
 10
74.06612715862752
 20
92.2776686145734
 30
0.0
 10
74.07011378553443
 20
92.28001251757672
 30
0.0
 10
74.07432318976241
 20
92.28162831328247
 30
0.0
 10
74.0785377206172
 20
92.28324607686328
 30
0.0
 10
74.08306941016103
 20
92.28417159260823
 30
0.0
 10
74.0875364947697
 20
92.28444151460016
 30
0.0
 10
74.09351902707179
 20
92.28480300697771
 30
0.0
 10
74.09954560956054
 20
92.28404131873674
 30
0.0
 10
74.10523683406467
 20
92.28263191392398
 30
0.0
 10
74.11513427636683
 20
92.28018085918093
 30
0.0
 10
74.12438863274201
 20
92.27580804162697
 30
0.0
 10
74.13291661419056
 20
92.27077684210761
 30
0.0
 10
74.14468046991693
 20
92.263836594215
 30
0.0
 10
74.15536807154994
 20
92.2554425855136
 30
0.0
 10
74.16523879407767
 20
92.24652030858456
 30
0.0
  0
ARC
  5
2B6
330
1F
100
AcDbEntity
  8
0
  6
Continuous
 62
     7
370
     0
100
AcDbCircle
 10
73.8974762179
 20
92.7269401279
 30
0.0
 40
0.5500000000000541
100
AcDbArc
 50
255.9208184782
 51
284.0791815219
  0
SPLINE
  5
2B7
330
1F
100
AcDbEntity
  8
0
  6
Continuous
 62
     7
370
     0
100
AcDbSpline
210
0.0
220
0.0
230
1.0
 70
     8
 71
     3
 72
    29
 73
    25
 74
     0
 42
0.000000001
 43
0.00000001
 40
0.0000000000000006
 40
0.0000000000000006
 40
0.0000000000000006
 40
0.0000000000000006
 40
0.0000553986492001
 40
0.0000553986492001
 40
0.0000553986492001
 40
0.0000744703661974
 40
0.0000744703661974
 40
0.0000744703661974
 40
0.0000938210300502
 40
0.0000938210300502
 40
0.0000938210300502
 40
0.0001072543096207
 40
0.0001072543096207
 40
0.0001072543096207
 40
0.0001207016259448
 40
0.0001207016259448
 40
0.0001207016259448
 40
0.0001387455774115
 40
0.0001387455774115
 40
0.0001387455774115
 40
0.0001702186759782
 40
0.0001702186759782
 40
0.0001702186759782
 40
0.0002135383638984
 40
0.0002135383638984
 40
0.0002135383638984
 40
0.0002135383638984
 10
73.62971364169529
 20
92.24652030858394
 30
0.0
 10
73.64228102634249
 20
92.25788013414677
 30
0.0
 10
73.6562058679365
 20
92.2685508514409
 30
0.0
 10
73.67204083891326
 20
92.27613206594059
 30
0.0
 10
73.67754227588158
 20
92.27876595606733
 30
0.0
 10
73.68333227416367
 20
92.28101870463789
 30
0.0
 10
73.68936143998296
 20
92.28254328190921
 30
0.0
 10
73.69543966695505
 20
92.2840802651287
 30
0.0
 10
73.70191649596077
 20
92.28488555360828
 30
0.0
 10
73.70831435722509
 20
92.28437882119415
 30
0.0
 10
73.71277451392707
 20
92.28402556158449
 30
0.0
 10
73.71728493192872
 20
92.28300418759113
 30
0.0
 10
73.72145917665586
 20
92.28129961706597
 30
0.0
 10
73.72563850518911
 20
92.27959297054704
 30
0.0
 10
73.72957500070434
 20
92.27716463931463
 30
0.0
 10
73.73301552301288
 20
92.27430273277754
 30
0.0
 10
73.73762323422727
 20
92.27046993134132
 30
0.0
 10
73.74149400371344
 20
92.26578837080504
 30
0.0
 10
73.74467686299134
 20
92.26086436175754
 30
0.0
 10
73.75021208059452
 20
92.25230116144671
 30
0.0
 10
73.75396276461488
 20
92.24277766342033
 30
0.0
 10
73.7567332543827
 20
92.23327167464289
 30
0.0
 10
73.76055498430988
 20
92.22015871453749
 30
0.0
 10
73.76259692146145
 20
92.20672313850167
 30
0.0
 10
73.76368179242048
 20
92.19346186994169
 30
0.0
  0
ARC
  5
2B8
330
1F
100
AcDbEntity
  8
0
  6
Continuous
 62
     7
370
     0
100
AcDbCircle
 10
82.9184762179
 20
85.1269401279
 30
0.0
 40
0.5500000000000068
100
AcDbArc
 50
119.0744891562
 51
104.0205072692
  0
SPLINE
  5
2B9
330
1F
100
AcDbEntity
  8
0
  6
Continuous
 62
     7
370
     0
100
AcDbSpline
210
0.0
220
0.0
230
1.0
 70
     8
 71
     3
 72
    29
 73
    25
 74
     0
 42
0.000000001
 43
0.00000001
 40
0.0000000000000001
 40
0.0000000000000001
 40
0.0000000000000001
 40
0.0000000000000001
 40
0.0000553986492001
 40
0.0000553986492001
 40
0.0000553986492001
 40
0.0000744703661974
 40
0.0000744703661974
 40
0.0000744703661974
 40
0.0000938210300503
 40
0.0000938210300503
 40
0.0000938210300503
 40
0.0001072543096207
 40
0.0001072543096207
 40
0.0001072543096207
 40
0.0001207016259448
 40
0.0001207016259448
 40
0.0001207016259448
 40
0.0001387455774115
 40
0.0001387455774115
 40
0.0001387455774115
 40
0.0001702186759782
 40
0.0001702186759782
 40
0.0001702186759782
 40
0.0002135383638984
 40
0.0002135383638984
 40
0.0002135383638984
 40
0.0002135383638984
 10
82.78522817563467
 20
85.66055511947759
 30
0.0
 10
82.7838296303383
 20
85.64367232158321
 30
0.0
 10
82.78096946972636
 20
85.62636380049493
 30
0.0
 10
82.77460273945418
 20
85.61000269219608
 30
0.0
 10
82.77239078937622
 20
85.6043184628931
 30
0.0
 10
82.76970764289393
 20
85.59871492105039
 30
0.0
 10
82.76635198027553
 20
85.59347901571087
 30
0.0
 10
82.76296901161159
 20
85.58820050421994
 30
0.0
 10
82.75879480596917
 20
85.58318315324958
 30
0.0
 10
82.75378084257453
 20
85.57917696084604
 30
0.0
 10
82.75028544598584
 20
85.57638411411808
 30
0.0
 10
82.74629642087501
 20
85.57404429488383
 30
0.0
 10
82.74208536418455
 20
85.57243281070241
 30
0.0
 10
82.73786917885472
 20
85.57081936389693
 30
0.0
 10
82.73333654390463
 20
85.56989848935346
 30
0.0
 10
82.72886918522232
 20
85.56963314206
 30
0.0
 10
82.72288628586773
 20
85.56927777633635
 30
0.0
 10
82.71686048655249
 20
85.57004563575225
 30
0.0
 10
82.71117070834583
 20
85.57146086797405
 30
0.0
 10
82.70127578125735
 20
85.57392205699398
 30
0.0
 10
82.6920259077566
 20
85.57830434925935
 30
0.0
 10
82.68350308302342
 20
85.58334427929437
 30
0.0
 10
82.67174634068677
 20
85.59029657042689
 30
0.0
 10
82.66106734061555
 20
85.5987015194585
 30
0.0
 10
82.65120576019898
 20
85.60763389990862
 30
0.0
  0
ARC
  5
2BA
330
1F
100
AcDbEntity
  8
0
  6
Continuous
 62
     7
370
     0
100
AcDbCircle
 10
79.9174762179
 20
92.7269401279
 30
0.0
 40
0.5500000000000008
100
AcDbArc
 50
50.8454156071
 51
240.866836591
  0
LINE
  5
2BB
330
1F
100
AcDbEntity
  8
0
  6
Continuous
 62
     7
370
     0
100
AcDbLine
 10
80.2644819018
 20
92.3002235295
 30
0.0
 11
80.1847466756
 21
92.2462463559
 31
0.0
  0
SPLINE
  5
2BC
330
1F
100
AcDbEntity
  8
0
  6
Continuous
 62
     7
370
     0
100
AcDbSpline
210
0.0
220
0.0
230
1.0
 70
     8
 71
     3
 72
    29
 73
    25
 74
     0
 42
0.000000001
 43
0.00000001
 40
0.0
 40
0.0
 40
0.0
 40
0.0
 40
0.0000553986492001
 40
0.0000553986492001
 40
0.0000553986492001
 40
0.0000744703661974
 40
0.0000744703661974
 40
0.0000744703661974
 40
0.0000938210300502
 40
0.0000938210300502
 40
0.0000938210300502
 40
0.0001072543096207
 40
0.0001072543096207
 40
0.0001072543096207
 40
0.0001207016259448
 40
0.0001207016259448
 40
0.0001207016259448
 40
0.0001387455774115
 40
0.0001387455774115
 40
0.0001387455774115
 40
0.0001702186759782
 40
0.0001702186759782
 40
0.0001702186759782
 40
0.0002135383638979
 40
0.0002135383638979
 40
0.0002135383638979
 40
0.0002135383638979
 10
80.05072426013729
 20
92.19332513632261
 30
0.0
 10
80.05212280543365
 20
92.21020793421698
 30
0.0
 10
80.0549829660456
 20
92.22751645530528
 30
0.0
 10
80.06134969631776
 20
92.24387756360412
 30
0.0
 10
80.06356164639574
 20
92.24956179290709
 30
0.0
 10
80.06624479287802
 20
92.25516533474982
 30
0.0
 10
80.06960045549643
 20
92.26040124008932
 30
0.0
 10
80.07298342416036
 20
92.26567975158027
 30
0.0
 10
80.07715762980277
 20
92.27069710255061
 30
0.0
 10
80.08217159319743
 20
92.27470329495416
 30
0.0
 10
80.08566698978612
 20
92.27749614168211
 30
0.0
 10
80.08965601489695
 20
92.27983596091637
 30
0.0
 10
80.0938670715874
 20
92.2814474450978
 30
0.0
 10
80.0980832569172
 20
92.28306089190328
 30
0.0
 10
80.10261589186732
 20
92.28398176644674
 30
0.0
 10
80.10708325054964
 20
92.28424711374021
 30
0.0
 10
80.11306614990423
 20
92.28460247946386
 30
0.0
 10
80.11909194921945
 20
92.28383462004795
 30
0.0
 10
80.12478172742613
 20
92.28241938782615
 30
0.0
 10
80.13467665451459
 20
92.27995819880623
 30
0.0
 10
80.14392652801533
 20
92.27557590654084
 30
0.0
 10
80.15244935274852
 20
92.27053597650584
 30
0.0
 10
80.16420609508519
 20
92.26358368537332
 30
0.0
 10
80.17488509515641
 20
92.2551787363417
 30
0.0
 10
80.18474667557297
 20
92.24624635589159
 30
0.0
  0
ARC
  5
2BD
330
1F
100
AcDbEntity
  8
0
  6
Continuous
 62
     7
370
     0
100
AcDbCircle
 10
79.9174762179
 20
92.7269401279
 30
0.0
 40
0.5500000000000508
100
AcDbArc
 50
255.9208184782
 51
284.0205072692
  0
SPLINE
  5
2BE
330
1F
100
AcDbEntity
  8
0
  6
Continuous
 62
     7
370
     0
100
AcDbSpline
210
0.0
220
0.0
230
1.0
 70
     8
 71
     3
 72
    29
 73
    25
 74
     0
 42
0.000000001
 43
0.00000001
 40
0.0000000000000006
 40
0.0000000000000006
 40
0.0000000000000006
 40
0.0000000000000006
 40
0.0000553986492001
 40
0.0000553986492001
 40
0.0000553986492001
 40
0.0000744703661974
 40
0.0000744703661974
 40
0.0000744703661974
 40
0.0000938210300502
 40
0.0000938210300502
 40
0.0000938210300502
 40
0.0001072543096207
 40
0.0001072543096207
 40
0.0001072543096207
 40
0.0001207016259448
 40
0.0001207016259448
 40
0.0001207016259448
 40
0.0001387455774115
 40
0.0001387455774115
 40
0.0001387455774115
 40
0.0001702186759782
 40
0.0001702186759782
 40
0.0001702186759782
 40
0.0002135383638984
 40
0.0002135383638984
 40
0.0002135383638984
 40
0.0002135383638984
 10
79.64971364169529
 20
92.24652030858394
 30
0.0
 10
79.66228102634247
 20
92.25788013414677
 30
0.0
 10
79.6762058679365
 20
92.2685508514409
 30
0.0
 10
79.69204083891326
 20
92.27613206594059
 30
0.0
 10
79.69754227588157
 20
92.27876595606733
 30
0.0
 10
79.70333227416367
 20
92.28101870463789
 30
0.0
 10
79.70936143998296
 20
92.28254328190921
 30
0.0
 10
79.71543966695505
 20
92.2840802651287
 30
0.0
 10
79.72191649596077
 20
92.28488555360828
 30
0.0
 10
79.72831435722509
 20
92.28437882119415
 30
0.0
 10
79.73277451392707
 20
92.28402556158449
 30
0.0
 10
79.73728493192873
 20
92.28300418759113
 30
0.0
 10
79.74145917665584
 20
92.28129961706597
 30
0.0
 10
79.7456385051891
 20
92.27959297054704
 30
0.0
 10
79.74957500070434
 20
92.27716463931463
 30
0.0
 10
79.75301552301286
 20
92.27430273277754
 30
0.0
 10
79.75762323422725
 20
92.27046993134132
 30
0.0
 10
79.76149400371344
 20
92.26578837080504
 30
0.0
 10
79.76467686299134
 20
92.26086436175756
 30
0.0
 10
79.77021208059452
 20
92.25230116144671
 30
0.0
 10
79.77396276461486
 20
92.24277766342033
 30
0.0
 10
79.77673325438269
 20
92.23327167464289
 30
0.0
 10
79.78055498430986
 20
92.22015871453749
 30
0.0
 10
79.78259692146145
 20
92.20672313850167
 30
0.0
 10
79.78368179242048
 20
92.19346186994167
 30
0.0
  0
LINE
  5
2BF
330
1F
100
AcDbEntity
  8
0
  6
Continuous
 62
     7
370
     0
100
AcDbLine
 10
66.9854762179
 20
83.9269401279
 30
0.0
 11
67.3854762179
 21
83.9269401279
 31
0.0
  0
LINE
  5
2C0
330
1F
100
AcDbEntity
  8
0
  6
Continuous
 62
     7
370
     0
100
AcDbLine
 10
66.9854762179
 20
83.9269401279
 30
0.0
 11
66.9854762179
 21
93.9269401279
 31
0.0
  0
LINE
  5
2C1
330
1F
100
AcDbEntity
  8
0
  6
Continuous
 62
     7
370
     0
100
AcDbLine
 10
66.9854762179
 20
93.9269401279
 30
0.0
 11
67.3854762179
 21
93.9269401279
 31
0.0
  0
LINE
  5
2C2
330
1F
100
AcDbEntity
  8
0
  6
Continuous
 62
     7
370
     0
100
AcDbLine
 10
67.3854762179
 20
83.9269401279
 30
0.0
 11
67.3854762179
 21
93.9269401279
 31
0.0
  0
DIMENSION
  5
2C3
330
1F
100
AcDbEntity
  8
0
  6
Continuous
 62
     7
370
     0
100
AcDbDimension
  2
_D_2
 10
84.4184762179
 20
67.9269401279
 30
0.0
 11
109.062917329
 21
67.9269401279
 31
0.0
 70
   160
  1
<>X5
 71
     2
 42
-1.0
  3
SLDDIMSTYLE2
100
AcDbAlignedDimension
 13
81.4174762179
 23
83.9269401279
 33
0.0
 14
84.4184762179
 24
83.9269401279
 34
0.0
100
AcDbRotatedDimension
  0
DIMENSION
  5
2D7
330
1F
100
AcDbEntity
  8
0
  6
Continuous
 62
     7
370
     0
100
AcDbDimension
  2
_D_3
 10
69.3874762179
 20
73.9269401279
 30
0.0
 11
53.6369231705
 21
73.9269401279
 31
0.0
 70
   160
  1
<>
 71
     2
 42
-1.0
  3
SLDDIMSTYLE2
100
AcDbAlignedDimension
 13
67.3864762179
 23
83.9269401279
 33
0.0
 14
69.3874762179
 24
83.9269401279
 34
0.0
100
AcDbRotatedDimension
  0
DIMENSION
  5
2EB
330
1F
100
AcDbEntity
  8
0
  6
Continuous
 62
     7
370
     0
100
AcDbDimension
  2
_D_4
 10
85.0194762179
 20
100.3334275621
 30
0.0
 11
105.9197869169
 21
100.3334275621
 31
0.0
 70
   160
  1
<>
 71
     2
 42
-1.0
  3
SLDDIMSTYLE1
100
AcDbAlignedDimension
 13
66.9854762179
 23
93.9269401279
 33
0.0
 14
85.0194762179
 24
93.9269401279
 34
0.0
100
AcDbRotatedDimension
  0
LWPOLYLINE
  5
2FF
330
1F
100
AcDbEntity
  8
0
  6
Continuous
 62
     7
370
     0
100
AcDbPolyline
 90
        3
 70
   128
 43
0.0
 10
256.5953559466
 20
167.226209264
 10
259.7576500817
 20
165.7789268425
 10
262.7417020892
 20
164.4132198959
  0
LINE
  5
300
330
1F
100
AcDbEntity
  8
0
  6
Continuous
 62
     7
370
     0
100
AcDbLine
 10
262.9056286191
 20
164.7035220456
 30
0.0
 11
262.8755765809
 21
164.6770186391
 31
0.0
  0
LINE
  5
301
330
1F
100
AcDbEntity
  8
0
  6
Continuous
 62
     7
370
     0
100
AcDbLine
 10
263.6031581915
 20
163.8520186391
 30
0.0
 11
263.6332102297
 21
163.8785220456
 31
0.0
  0
LWPOLYLINE
  5
302
330
1F
100
AcDbEntity
  8
0
  6
Continuous
 62
     7
370
     0
100
AcDbPolyline
 90
        3
 70
   128
 43
0.0
 10
256.6569363448
 20
162.3732677991
 10
259.6692633255
 20
163.1962220606
 10
262.8026147171
 20
164.0522387083
  0
LWPOLYLINE
  5
303
330
1F
100
AcDbEntity
  8
0
  6
Continuous
 62
     7
370
     0
100
AcDbPolyline
 90
        3
 70
   128
 43
0.0
 10
256.5800574736
 20
162.0057451963
 10
259.5747967888
 20
160.4329929089
 10
262.7412019261
 20
158.7700865597
  0
LINE
  5
304
330
1F
100
AcDbEntity
  8
0
  6
Continuous
 62
     7
370
     0
100
AcDbLine
 10
255.796479584
 20
167.9571560478
 30
0.0
 11
255.7664275458
 21
167.9306526413
 31
0.0
  0
LINE
  5
305
330
1F
100
AcDbEntity
  8
0
  6
Continuous
 62
     7
370
     0
100
AcDbLine
 10
256.4940091564
 20
167.1056526413
 30
0.0
 11
256.5240611946
 21
167.1321560478
 31
0.0
  0
LINE
  5
306
330
1F
100
AcDbEntity
  8
0
  6
Continuous
 62
     7
370
     0
100
AcDbLine
 10
262.9056286191
 20
159.0278116151
 30
0.0
 11
262.8755765809
 21
159.0013082086
 31
0.0
  0
LINE
  5
307
330
1F
100
AcDbEntity
  8
0
  6
Continuous
 62
     7
370
     0
100
AcDbLine
 10
263.6031581915
 20
158.1763082086
 30
0.0
 11
263.6332102297
 21
158.2028116151
 31
0.0
  0
LWPOLYLINE
  5
308
330
1F
100
AcDbEntity
  8
0
  6
Continuous
 62
     7
370
     0
100
AcDbPolyline
 90
        3
 70
   128
 43
0.0
 10
256.6569362992
 20
156.6975573565
 10
259.6584549688
 20
157.5175588371
 10
262.8026147189
 20
158.3765282754
  0
SPLINE
  5
309
330
1F
100
AcDbEntity
  8
0
  6
Continuous
 62
     7
370
     0
100
AcDbSpline
210
0.0
220
0.0
230
1.0
 70
     8
 71
     3
 72
    21
 73
    17
 74
     0
 42
0.000000001
 43
0.00000001
 40
0.0
 40
0.0
 40
0.0
 40
0.0
 40
0.0931964278778495
 40
0.1847012684328974
 40
0.2633400022849044
 40
0.3302359858512008
 40
0.3862094675435019
 40
0.4318286386073761
 40
0.4705459979612147
 40
0.5264475241969406
 40
0.5963782794217205
 40
0.6805309813891389
 40
0.7534032072904077
 40
0.835257918918926
 40
0.9271115884659695
 40
1.0
 40
1.0
 40
1.0
 40
1.0
 10
255.7401058738977
 20
156.7163110985716
 30
0.0
 10
255.6846590504624
 20
156.5638235670992
 30
0.0
 10
255.5747718063667
 20
156.2616162709134
 30
0.0
 10
255.4284919637026
 20
155.8037455491063
 30
0.0
 10
255.3040865726477
 20
155.3772789352562
 30
0.0
 10
255.2050958884633
 20
155.0032074335664
 30
0.0
 10
255.1275620046437
 20
154.6832138245983
 30
0.0
 10
255.0669506579364
 20
154.4121691664246
 30
0.0
 10
255.0098653298874
 20
154.1379236494474
 30
0.0
 10
254.9476981781975
 20
153.8121935414557
 30
0.0
 10
254.8769832626611
 20
153.3910163084829
 30
0.0
 10
254.8126202198742
 20
152.9310031565599
 30
0.0
 10
254.7581455223577
 20
152.4452664187606
 30
0.0
 10
254.7160965365605
 20
151.9456424022459
 30
0.0
 10
254.6870049802375
 20
151.4496733851184
 30
0.0
 10
254.6807031892017
 20
151.1265628556142
 30
0.0
 10
254.6779150276378
 20
150.9836059796847
 30
0.0
  0
SPLINE
  5
30A
330
1F
100
AcDbEntity
  8
0
  6
Continuous
 62
     7
370
     0
100
AcDbSpline
210
0.0
220
0.0
230
1.0
 70
     8
 71
     3
 72
    25
 73
    21
 74
     0
 42
0.000000001
 43
0.00000001
 40
0.0
 40
0.0
 40
0.0
 40
0.0
 40
0.0376785768575099
 40
0.1158651975489022
 40
0.1818865765296683
 40
0.2363553199222032
 40
0.2797371170111114
 40
0.3187492723887401
 40
0.3487084353271201
 40
0.3782748068881302
 40
0.407484039804518
 40
0.4383184278573372
 40
0.4797976418873121
 40
0.5332570315613262
 40
0.5991498281330605
 40
0.6613255228102534
 40
0.7325360977270672
 40
0.8135884570364712
 40
0.9055390087963637
 40
1.0
 40
1.0
 40
1.0
 40
1.0
 10
255.5010386198703
 20
150.9444717159977
 30
0.0
 10
255.5021891464999
 20
151.0141169496641
 30
0.0
 10
255.5057271250105
 20
151.2282826488522
 30
0.0
 10
255.520451190945
 20
151.5710691616104
 30
0.0
 10
255.544674149775
 20
151.9491602001588
 30
0.0
 10
255.571271238514
 20
152.2632001029121
 30
0.0
 10
255.5978773068013
 20
152.526161940415
 30
0.0
 10
255.6227989631153
 20
152.7421513226057
 30
0.0
 10
255.6469012804362
 20
152.9313745743901
 30
0.0
 10
255.6703387774908
 20
153.101447609219
 30
0.0
 10
255.6957140379022
 20
153.2727029877542
 30
0.0
 10
255.7264056986494
 20
153.4659586778512
 30
0.0
 10
255.7672630587508
 20
153.7039320023354
 30
0.0
 10
255.8241108087015
 20
154.0052327671016
 30
0.0
 10
255.8944647153108
 20
154.3400510232923
 30
0.0
 10
255.9783984001431
 20
154.7001109818647
 30
0.0
 10
256.0755373355499
 20
155.0783213173803
 30
0.0
 10
256.1941994177954
 20
155.4954443859095
 30
0.0
 10
256.332021220361
 20
155.9367727949396
 30
0.0
 10
256.4349441199797
 20
156.2266252104226
 30
0.0
 10
256.4870986108497
 20
156.3735031667659
 30
0.0
  0
LWPOLYLINE
  5
30B
330
1F
100
AcDbEntity
  8
0
  6
Continuous
 62
     7
370
     0
100
AcDbPolyline
 90
        3
 70
   128
 43
0.0
 10
256.5803348028
 20
156.3304519814
 10
259.4217006466
 20
154.8416384749
 10
262.7465657559
 20
153.0994818976
  0
LINE
  5
30C
330
1F
100
AcDbEntity
  8
0
  6
Continuous
 62
     7
370
     0
100
AcDbLine
 10
255.796479584
 20
162.7613354194
 30
0.0
 11
255.7664275458
 21
162.734832013
 31
0.0
  0
LINE
  5
30D
330
1F
100
AcDbEntity
  8
0
  6
Continuous
 62
     7
370
     0
100
AcDbLine
 10
256.4940091564
 20
161.909832013
 30
0.0
 11
256.5240611946
 21
161.9363354194
 31
0.0
  0
LINE
  5
30E
330
1F
100
AcDbEntity
  8
0
  6
Continuous
 62
     7
370
     0
100
AcDbLine
 10
262.9056286191
 20
153.360586466
 30
0.0
 11
262.8755765809
 21
153.3340830595
 31
0.0
  0
LINE
  5
30F
330
1F
100
AcDbEntity
  8
0
  6
Continuous
 62
     7
370
     0
100
AcDbLine
 10
263.6031581915
 20
152.5090830595
 30
0.0
 11
263.6332102297
 21
152.535586466
 31
0.0
  0
LINE
  5
310
330
1F
100
AcDbEntity
  8
0
  6
Continuous
 62
     7
370
     0
100
AcDbLine
 10
254.6765483597
 20
150.9824758848
 30
0.0
 11
254.6765483597
 21
80.3300732036
 31
0.0
  0
LINE
  5
311
330
1F
100
AcDbEntity
  8
0
  6
Continuous
 62
     7
370
     0
100
AcDbLine
 10
255.5001667481
 20
80.1688853427
 30
0.0
 11
255.5001667481
 21
150.9444547034
 31
0.0
  0
LINE
  5
312
330
1F
100
AcDbEntity
  8
0
  6
Continuous
 62
     7
370
     0
100
AcDbLine
 10
255.796479584
 20
157.0856249889
 30
0.0
 11
255.7664275458
 21
157.0591215825
 31
0.0
  0
LINE
  5
313
330
1F
100
AcDbEntity
  8
0
  6
Continuous
 62
     7
370
     0
100
AcDbLine
 10
256.4940091564
 20
156.2341215825
 30
0.0
 11
256.5240611946
 21
156.260624989
 31
0.0
  0
LINE
  5
314
330
1F
100
AcDbEntity
  8
0
  6
Continuous
 62
     7
370
     0
100
AcDbLine
 10
260.3566150424
 20
151.3345798755
 30
0.0
 11
260.3566150424
 21
85.2073481046
 31
0.0
  0
LINE
  5
315
330
1F
100
AcDbEntity
  8
0
  6
Continuous
 62
     7
370
     0
100
AcDbLine
 10
261.1802334308
 20
85.3103063572
 30
0.0
 11
261.1802334308
 21
151.2308137121
 31
0.0
  0
LINE
  5
316
330
1F
100
AcDbEntity
  8
0
  6
Continuous
 62
     7
370
     0
100
AcDbLine
 10
255.0381267266
 20
168.6291982503
 30
0.0
 11
264.3922701939
 21
167.4506869489
 31
0.0
  0
LINE
  5
317
330
1F
100
AcDbEntity
  8
0
  6
Continuous
 62
     7
370
     0
100
AcDbLine
 10
255.039062141
 20
168.6300232082
 30
0.0
 11
255.0381267266
 21
168.6291982503
 31
0.0
  0
LINE
  5
318
330
1F
100
AcDbEntity
  8
0
  6
Continuous
 62
     7
370
     0
100
AcDbLine
 10
267.927804099
 20
170.5687347706
 30
0.0
 11
267.9268686846
 21
170.5688526217
 31
0.0
  0
LINE
  5
319
330
1F
100
AcDbEntity
  8
0
  6
Continuous
 62
     7
370
     0
100
AcDbLine
 10
264.3922701939
 20
167.4506869489
 30
0.0
 11
267.927804099
 21
170.5687347706
 31
0.0
  0
LINE
  5
31A
330
1F
100
AcDbEntity
  8
0
  6
Continuous
 62
     7
370
     0
100
AcDbLine
 10
255.0381267266
 20
166.7435801671
 30
0.0
 11
258.6419696444
 21
166.2895386376
 31
0.0
  0
LINE
  5
31B
330
1F
100
AcDbEntity
  8
0
  6
Continuous
 62
     7
370
     0
100
AcDbLine
 10
255.0381267266
 20
168.6291982503
 30
0.0
 11
255.0381267266
 21
166.7435801671
 31
0.0
  0
LINE
  5
31C
330
1F
100
AcDbEntity
  8
0
  6
Continuous
 62
     7
370
     0
100
AcDbLine
 10
264.3922701939
 20
167.4506869489
 30
0.0
 11
264.3922701939
 21
165.5650688657
 31
0.0
  0
LINE
  5
31D
330
1F
100
AcDbEntity
  8
0
  6
Continuous
 62
     7
370
     0
100
AcDbLine
 10
259.3232191813
 20
166.2037092636
 30
0.0
 11
264.3922701939
 21
165.5650688657
 31
0.0
  0
LINE
  5
31E
330
1F
100
AcDbEntity
  8
0
  6
Continuous
 62
     7
370
     0
100
AcDbLine
 10
267.927804099
 20
170.5687347706
 30
0.0
 11
267.927804099
 21
168.6831166873
 31
0.0
  0
LINE
  5
31F
330
1F
100
AcDbEntity
  8
0
  6
Continuous
 62
     7
370
     0
100
AcDbLine
 10
264.3922701939
 20
165.5650688657
 30
0.0
 11
267.927804099
 21
168.6831166873
 31
0.0
  0
SPLINE
  5
320
330
1F
100
AcDbEntity
  8
0
  6
Continuous
 62
     7
370
     0
100
AcDbSpline
210
0.0
220
0.0
230
1.0
 70
     8
 71
     3
 72
    29
 73
    25
 74
     0
 42
0.000000001
 43
0.00000001
 40
0.0000000000000006
 40
0.0000000000000006
 40
0.0000000000000006
 40
0.0000000000000006
 40
0.0000553986492
 40
0.0000553986492
 40
0.0000553986492
 40
0.0000744703661974
 40
0.0000744703661974
 40
0.0000744703661974
 40
0.0000938210300502
 40
0.0000938210300502
 40
0.0000938210300502
 40
0.0001072543096207
 40
0.0001072543096207
 40
0.0001072543096207
 40
0.0001207016259448
 40
0.0001207016259448
 40
0.0001207016259448
 40
0.0001387455774114
 40
0.0001387455774114
 40
0.0001387455774114
 40
0.0001702186759782
 40
0.0001702186759782
 40
0.0001702186759782
 40
0.0002135383638984
 40
0.0002135383638984
 40
0.0002135383638984
 40
0.0002135383638984
 10
262.7338153254694
 20
164.4243846173321
 30
0.0
 10
262.7469065263339
 20
164.4223577965483
 30
0.0
 10
262.7604609418324
 20
164.4218179180158
 30
0.0
 10
262.7733690860168
 20
164.4250404814386
 30
0.0
 10
262.7778536753295
 20
164.4261600748735
 30
0.0
 10
262.7822863271815
 20
164.4277747054574
 30
0.0
 10
262.7864360373936
 20
164.4301355199888
 30
0.0
 10
262.7906195150577
 20
164.4325155451849
 30
0.0
 10
262.7946046745114
 20
164.4357402512438
 30
0.0
 10
262.7977896662268
 20
164.4399919930074
 30
0.0
 10
262.8000100273067
 20
164.4429560201625
 30
0.0
 10
262.8018718084206
 20
164.4464970413628
 30
0.0
 10
262.8031548562697
 20
164.4503944212029
 30
0.0
 10
262.8044394667407
 20
164.4542965476558
 30
0.0
 10
262.8051738306641
 20
164.4586424969189
 30
0.0
 10
262.805388527435
 20
164.4630461951486
 30
0.0
 10
262.8056760595682
 20
164.4689438373954
 30
0.0
 10
262.8050737908034
 20
164.4750951205442
 30
0.0
 10
262.8039644361697
 20
164.4810383538837
 30
0.0
 10
262.802035189929
 20
164.4913740573905
 30
0.0
 10
262.7986033509312
 20
164.5014450077087
 30
0.0
 10
262.7946840086098
 20
164.5109448075752
 30
0.0
 10
262.7892775032265
 20
164.5240492304371
 30
0.0
 10
262.7827845727504
 20
164.5364097241052
 30
0.0
 10
262.7759479361933
 20
164.5481204569819
 30
0.0
  0
LINE
  5
321
330
1F
100
AcDbEntity
  8
0
  6
Continuous
 62
     7
370
     0
100
AcDbLine
 10
259.3260617039
 20
166.2024083303
 30
0.0
 11
262.8119691925
 21
164.6070180696
 31
0.0
  0
LINE
  5
322
330
1F
100
AcDbEntity
  8
0
  6
Continuous
 62
     7
370
     0
100
AcDbLine
 10
255.0381267266
 20
166.7426373581
 30
0.0
 11
258.6448121675
 21
166.2882377043
 31
0.0
  0
LINE
  5
323
330
1F
100
AcDbEntity
  8
0
  6
Continuous
 62
     7
370
     0
100
AcDbLine
 10
255.039062141
 20
166.743462316
 30
0.0
 11
255.0381267266
 21
166.7426373581
 31
0.0
  0
LINE
  5
324
330
1F
100
AcDbEntity
  8
0
  6
Continuous
 62
     7
370
     0
100
AcDbLine
 10
267.927804099
 20
168.6821738783
 30
0.0
 11
267.9268686846
 21
168.6822917294
 31
0.0
  0
LINE
  5
325
330
1F
100
AcDbEntity
  8
0
  6
Continuous
 62
     7
370
     0
100
AcDbLine
 10
264.3922701939
 20
165.5641260566
 30
0.0
 11
267.927804099
 21
168.6821738783
 31
0.0
  0
LINE
  5
326
330
1F
100
AcDbEntity
  8
0
  6
Continuous
 62
     7
370
     0
100
AcDbLine
 10
259.3260617039
 20
166.2024083303
 30
0.0
 11
264.3922701939
 21
165.5641260566
 31
0.0
  0
LINE
  5
327
330
1F
100
AcDbEntity
  8
0
  6
Continuous
 62
     7
370
     0
100
AcDbLine
 10
264.3922701939
 20
165.5641260566
 30
0.0
 11
264.3922701939
 21
162.7356989318
 31
0.0
  0
LINE
  5
328
330
1F
100
AcDbEntity
  8
0
  6
Continuous
 62
     7
370
     0
100
AcDbLine
 10
259.9987194293
 20
163.289234298
 30
0.0
 11
264.3922701939
 21
162.7356989318
 31
0.0
  0
LINE
  5
329
330
1F
100
AcDbEntity
  8
0
  6
Continuous
 62
     7
370
     0
100
AcDbLine
 10
267.927804099
 20
168.6821738783
 30
0.0
 11
267.927804099
 21
165.8537467535
 31
0.0
  0
LINE
  5
32A
330
1F
100
AcDbEntity
  8
0
  6
Continuous
 62
     7
370
     0
100
AcDbLine
 10
264.3922701939
 20
162.7356989318
 30
0.0
 11
267.927804099
 21
165.8537467535
 31
0.0
  0
ARC
  5
32B
330
1F
100
AcDbEntity
  8
0
  6
Continuous
 62
     7
370
     0
100
AcDbCircle
 10
263.2530898144
 20
164.3279139228
 30
0.0
 40
0.5281596252984243
100
AcDbArc
 50
169.4755889093
 51
193.8763214608
  0
LWPOLYLINE
  5
32C
330
1F
100
AcDbEntity
  8
0
  6
Continuous
 62
     7
370
     0
100
AcDbPolyline
 90
       22
 70
   128
 43
0.0
 10
262.7899757948
 20
164.0686876799
 10
262.8671867227
 20
163.9533981894
 10
262.9682041542
 20
163.8580094913
 10
263.0865665183
 20
163.7886231154
 10
263.2147027765
 20
163.7496773552
 10
263.3444167044
 20
163.7436633728
 10
263.4674111618
 20
163.7709658521
 10
263.5758188189
 20
163.8298383923
 10
263.6627053895
 20
163.9165152167
 10
263.7225131817
 20
164.0254520496
 10
263.7514165952
 20
164.1496807561
 10
263.7475668256
 20
164.2812550577
 10
263.7112101233
 20
164.4117588158
 10
263.6446720414
 20
164.5328443688
 10
263.5522086826
 20
164.63676649
 10
263.4397344575
 20
164.7168778098
 10
263.3144437702
 20
164.7680540147
 10
263.1843508286
 20
164.7870216232
 10
263.0577770163
 20
164.7725673739
 10
262.9428186161
 20
164.7256158316
 10
262.8468289322
 20
164.6491702476
 10
262.7759479362
 20
164.548120457
  0
SPLINE
  5
32D
330
1F
100
AcDbEntity
  8
0
  6
Continuous
 62
     7
370
     0
100
AcDbSpline
210
0.0
220
0.0
230
1.0
 70
     8
 71
     3
 72
    29
 73
    25
 74
     0
 42
0.000000001
 43
0.00000001
 40
0.0
 40
0.0
 40
0.0
 40
0.0
 40
0.0000553986491987
 40
0.0000553986491987
 40
0.0000553986491987
 40
0.0000744703661961
 40
0.0000744703661961
 40
0.0000744703661961
 40
0.000093821030049
 40
0.000093821030049
 40
0.000093821030049
 40
0.0001072543096193
 40
0.0001072543096193
 40
0.0001072543096193
 40
0.0001207016259434
 40
0.0001207016259434
 40
0.0001207016259434
 40
0.00013874557741
 40
0.00013874557741
 40
0.00013874557741
 40
0.0001702186759765
 40
0.0001702186759765
 40
0.0001702186759765
 40
0.0002135383638959
 40
0.0002135383638959
 40
0.0002135383638959
 40
0.0002135383638959
 10
262.7899757947687
 20
164.0686876799365
 30
0.0
 10
262.7980034689684
 20
164.0769059207399
 30
0.0
 10
262.8055316715496
 20
164.0866131891661
 30
0.0
 10
262.8105990192149
 20
164.0988638859765
 30
0.0
 10
262.8123595335739
 20
164.1031200627906
 30
0.0
 10
262.8138125533148
 20
164.1077364567628
 30
0.0
 10
262.8146813660967
 20
164.1127496444269
 30
0.0
 10
262.8155572486721
 20
164.1178036259211
 30
0.0
 10
262.8158372760686
 20
164.1233977665595
 30
0.0
 10
262.8150797642862
 20
164.1292394173111
 30
0.0
 10
262.814551678241
 20
164.1333118216153
 30
0.0
 10
262.8134899395848
 20
164.1375908796438
 30
0.0
 10
262.8119026111435
 20
164.141733587716
 30
0.0
 10
262.8103133494974
 20
164.1458813411859
 30
0.0
 10
262.8081627195417
 20
164.14998548005
 30
0.0
 10
262.8056954535955
 20
164.1537515429124
 30
0.0
 10
262.8023911736202
 20
164.1587952335293
 30
0.0
 10
262.7984543883513
 20
164.163386529339
 30
0.0
 10
262.794369995506
 20
164.1674276621866
 30
0.0
 10
262.7872669472082
 20
164.1744554782858
 30
0.0
 10
262.7795219468411
 20
164.1801400488471
 30
0.0
 10
262.7718804147713
 20
164.1849752259874
 30
0.0
 10
262.7613393645428
 20
164.1916450723788
 30
0.0
 10
262.7507080511415
 20
164.1968614746296
 30
0.0
 10
262.7403441700495
 20
164.201247060684
 30
0.0
  0
ARC
  5
32E
330
1F
100
AcDbEntity
  8
0
  6
Continuous
 62
     7
370
     0
100
AcDbCircle
 10
263.2309408514
 20
164.257087134
 30
0.0
 40
0.5523877069661995
100
AcDbArc
 50
316.7388304918
 51
126.0804137281
  0
LINE
  5
32F
330
1F
100
AcDbEntity
  8
0
  6
Continuous
 62
     7
370
     0
100
AcDbLine
 10
255.0381267266
 20
166.7426373581
 30
0.0
 11
255.0381267266
 21
163.9142102332
 31
0.0
  0
LINE
  5
330
330
1F
100
AcDbEntity
  8
0
  6
Continuous
 62
     7
370
     0
100
AcDbLine
 10
259.4552959265
 20
163.3576992239
 30
0.0
 11
262.7304705313
 21
164.2524617734
 31
0.0
  0
LINE
  5
331
330
1F
100
AcDbEntity
  8
0
  6
Continuous
 62
     7
370
     0
100
AcDbLine
 10
255.0381267266
 20
163.9142102332
 30
0.0
 11
259.4552959265
 21
163.3576992239
 31
0.0
  0
LINE
  5
332
330
1F
100
AcDbEntity
  8
0
  6
Continuous
 62
     7
370
     0
100
AcDbLine
 10
255.0381267266
 20
163.9047821428
 30
0.0
 11
259.4316774912
 21
163.3512467766
 31
0.0
  0
LINE
  5
333
330
1F
100
AcDbEntity
  8
0
  6
Continuous
 62
     7
370
     0
100
AcDbLine
 10
255.0474808701
 20
163.9130317219
 30
0.0
 11
255.0381267266
 21
163.9047821428
 31
0.0
  0
LINE
  5
334
330
1F
100
AcDbEntity
  8
0
  6
Continuous
 62
     7
370
     0
100
AcDbLine
 10
267.927804099
 20
165.8443186631
 30
0.0
 11
267.9184499555
 21
165.8454971744
 31
0.0
  0
LINE
  5
335
330
1F
100
AcDbEntity
  8
0
  6
Continuous
 62
     7
370
     0
100
AcDbLine
 10
264.3922701939
 20
162.7262708414
 30
0.0
 11
267.927804099
 21
165.8443186631
 31
0.0
  0
LINE
  5
336
330
1F
100
AcDbEntity
  8
0
  6
Continuous
 62
     7
370
     0
100
AcDbLine
 10
259.975100994
 20
163.2827818507
 30
0.0
 11
264.3922701939
 21
162.7262708414
 31
0.0
  0
LINE
  5
337
330
1F
100
AcDbEntity
  8
0
  6
Continuous
 62
     7
370
     0
100
AcDbLine
 10
264.3922701939
 20
162.7262708414
 30
0.0
 11
264.3922701939
 21
159.8978437166
 31
0.0
  0
LINE
  5
338
330
1F
100
AcDbEntity
  8
0
  6
Continuous
 62
     7
370
     0
100
AcDbLine
 10
259.975100994
 20
160.4543547259
 30
0.0
 11
264.3922701939
 21
159.8978437166
 31
0.0
  0
LINE
  5
339
330
1F
100
AcDbEntity
  8
0
  6
Continuous
 62
     7
370
     0
100
AcDbLine
 10
256.6663927413
 20
162.1919946265
 30
0.0
 11
259.975100994
 21
160.4543547259
 31
0.0
  0
LINE
  5
33A
330
1F
100
AcDbEntity
  8
0
  6
Continuous
 62
     7
370
     0
100
AcDbLine
 10
267.927804099
 20
165.8443186631
 30
0.0
 11
267.927804099
 21
163.0158915382
 31
0.0
  0
LINE
  5
33B
330
1F
100
AcDbEntity
  8
0
  6
Continuous
 62
     7
370
     0
100
AcDbLine
 10
264.3922701939
 20
159.8978437166
 30
0.0
 11
267.927804099
 21
163.0158915382
 31
0.0
  0
SPLINE
  5
33C
330
1F
100
AcDbEntity
  8
0
  6
Continuous
 62
     7
370
     0
100
AcDbSpline
210
0.0
220
0.0
230
1.0
 70
     8
 71
     3
 72
    29
 73
    25
 74
     0
 42
0.000000001
 43
0.00000001
 40
0.0000000000000011
 40
0.0000000000000011
 40
0.0000000000000011
 40
0.0000000000000011
 40
0.0000553986491994
 40
0.0000553986491994
 40
0.0000553986491994
 40
0.0000744703661967
 40
0.0000744703661967
 40
0.0000744703661967
 40
0.0000938210300496
 40
0.0000938210300496
 40
0.0000938210300496
 40
0.00010725430962
 40
0.00010725430962
 40
0.00010725430962
 40
0.0001207016259441
 40
0.0001207016259441
 40
0.0001207016259441
 40
0.0001387455774107
 40
0.0001387455774107
 40
0.0001387455774107
 40
0.0001702186759774
 40
0.0001702186759774
 40
0.0001702186759774
 40
0.0002135383638974
 40
0.0002135383638974
 40
0.0002135383638974
 40
0.0002135383638974
 10
262.7403441700496
 20
158.7778218182848
 30
0.0
 10
262.7535394432177
 20
158.7748426191962
 30
0.0
 10
262.7672794740104
 20
158.7733186769092
 30
0.0
 10
262.7805657510865
 20
158.7755913433378
 30
0.0
 10
262.7851817125547
 20
158.7763809204785
 30
0.0
 10
262.7897716798846
 20
158.7776675167354
 30
0.0
 10
262.7941153340724
 20
158.7797172556596
 30
0.0
 10
262.7984943338932
 20
158.7817836739316
 30
0.0
 10
262.8027183810638
 20
158.7847051343839
 30
0.0
 10
262.8061871249084
 20
158.7887057051266
 30
0.0
 10
262.8086052988055
 20
158.7914946328124
 30
0.0
 10
262.8106914885327
 20
158.7948832541636
 30
0.0
 10
262.8122100783002
 20
158.7986678020182
 30
0.0
 10
262.8137305175558
 20
158.8024569590678
 30
0.0
 10
262.8147171241793
 20
158.806726997587
 30
0.0
 10
262.8151794155707
 20
158.8110918231362
 30
0.0
 10
262.8157985382031
 20
158.8169374052391
 30
0.0
 10
262.8155284577167
 20
158.8230992596596
 30
0.0
 10
262.8147316760956
 20
158.8290911018411
 30
0.0
 10
262.8133460164512
 20
158.8395113395652
 30
0.0
 10
262.8104190364934
 20
158.8497778086701
 30
0.0
 10
262.8069632864942
 20
158.8595138420528
 30
0.0
 10
262.8021962798276
 20
158.872944135347
 30
0.0
 10
262.796280920841
 20
158.8857175938336
 30
0.0
 10
262.7899757947709
 20
158.8978752051177
 30
0.0
  0
SPLINE
  5
33D
330
1F
100
AcDbEntity
  8
0
  6
Continuous
 62
     7
370
     0
100
AcDbSpline
210
0.0
220
0.0
230
1.0
 70
     8
 71
     3
 72
     9
 73
     5
 74
     0
 42
0.000000001
 43
0.00000001
 40
0.0
 40
0.0
 40
0.0
 40
0.0
 40
0.5937219222243024
 40
1.0
 40
1.0
 40
1.0
 40
1.0
 10
259.9987194292843
 20
160.4419509923212
 30
0.0
 10
260.0001831617664
 20
160.4438083820264
 30
0.0
 10
260.0026485120043
 20
160.4469367652572
 30
0.0
 10
260.0002556685174
 20
160.4500451477508
 30
0.0
 10
259.9992835086651
 20
160.4513080154154
 30
0.0
  0
LINE
  5
33E
330
1F
100
AcDbEntity
  8
0
  6
Continuous
 62
     7
370
     0
100
AcDbLine
 10
259.9987194293
 20
160.4419509923
 30
0.0
 11
262.8303353603
 21
158.9548664719
 31
0.0
  0
SPLINE
  5
33F
330
1F
100
AcDbEntity
  8
0
  6
Continuous
 62
     7
370
     0
100
AcDbSpline
210
0.0
220
0.0
230
1.0
 70
     8
 71
     3
 72
     8
 73
     4
 74
     0
 42
0.000000001
 43
0.00000001
 40
0.0
 40
0.0
 40
0.0
 40
0.0
 40
0.0000404517691324
 40
0.0000404517691324
 40
0.0000404517691324
 40
0.0000404517691324
 10
256.5926239728796
 20
162.0133086005445
 30
0.0
 10
256.58785668617
 20
162.009104248857
 30
0.0
 10
256.5842036230925
 20
162.0065145954296
 30
0.0
 10
256.5819176554739
 20
162.0058221278224
 30
0.0
  0
SPLINE
  5
340
330
1F
100
AcDbEntity
  8
0
  6
Continuous
 62
     7
370
     0
100
AcDbSpline
210
0.0
220
0.0
230
1.0
 70
     8
 71
     3
 72
     9
 73
     5
 74
     0
 42
0.000000001
 43
0.00000001
 40
0.0
 40
0.0
 40
0.0
 40
0.0
 40
0.6596733924492636
 40
1.0
 40
1.0
 40
1.0
 40
1.0
 10
256.5808232921314
 20
162.0071730967877
 30
0.0
 10
256.5798413481505
 20
162.0074062295822
 30
0.0
 10
256.5783528176262
 20
162.0077596359758
 30
0.0
 10
256.5792907419432
 20
162.0118671277368
 30
0.0
 10
256.5796099425442
 20
162.0132650164734
 30
0.0
  0
SPLINE
  5
341
330
1F
100
AcDbEntity
  8
0
  6
Continuous
 62
     7
370
     0
100
AcDbSpline
210
0.0
220
0.0
230
1.0
 70
     8
 71
     3
 72
    29
 73
    25
 74
     0
 42
0.000000001
 43
0.00000001
 40
0.0
 40
0.0
 40
0.0
 40
0.0
 40
0.0000553986492
 40
0.0000553986492
 40
0.0000553986492
 40
0.0000744703661974
 40
0.0000744703661974
 40
0.0000744703661974
 40
0.0000938210300502
 40
0.0000938210300502
 40
0.0000938210300502
 40
0.0001072543096207
 40
0.0001072543096207
 40
0.0001072543096207
 40
0.0001207016259448
 40
0.0001207016259448
 40
0.0001207016259448
 40
0.0001387455774115
 40
0.0001387455774115
 40
0.0001387455774115
 40
0.0001702186759782
 40
0.0001702186759782
 40
0.0001702186759782
 40
0.0002135383638979
 40
0.0002135383638979
 40
0.0002135383638979
 40
0.0002135383638979
 10
256.6292415672651
 20
162.1333184033068
 30
0.0
 10
256.6108493548815
 20
162.1317143328144
 30
0.0
 10
256.5922026451543
 20
162.1289109910255
 30
0.0
 10
256.5748679097916
 20
162.1230679199905
 30
0.0
 10
256.5688454198167
 20
162.1210379013029
 30
0.0
 10
256.5629469853039
 20
162.1185973454577
 30
0.0
 10
256.5574887337753
 20
162.115564624075
 30
0.0
 10
256.5519860667968
 20
162.1125072245176
 30
0.0
 10
256.5468155176251
 20
162.1087510277618
 30
0.0
 10
256.5427797597561
 20
162.104250397653
 30
0.0
 10
256.5399663019825
 20
162.1011128623558
 30
0.0
 10
256.5376674507164
 20
162.0975366911561
 30
0.0
 10
256.5361631635149
 20
162.0937647569789
 30
0.0
 10
256.5346570442443
 20
162.089988228969
 30
0.0
 10
256.533912169456
 20
162.0859313778899
 30
0.0
 10
256.5338694830398
 20
162.0819366091452
 30
0.0
 10
256.5338123153599
 20
162.0765866247264
 30
0.0
 10
256.5349672230901
 20
162.071205114586
 30
0.0
 10
256.5368071964334
 20
162.0661332810268
 30
0.0
 10
256.5400070403315
 20
162.0573130034253
 30
0.0
 10
256.5452608529249
 20
162.0490986078193
 30
0.0
 10
256.551217615349
 20
162.0415682600706
 30
0.0
 10
256.5594346235795
 20
162.0311805821635
 30
0.0
 10
256.5692230169245
 20
162.0218228189209
 30
0.0
 10
256.5796099425442
 20
162.0132650164732
 30
0.0
  0
SPLINE
  5
342
330
1F
100
AcDbEntity
  8
0
  6
Continuous
 62
     7
370
     0
100
AcDbSpline
210
0.0
220
0.0
230
1.0
 70
     8
 71
     3
 72
    14
 73
    10
 74
     0
 42
0.000000001
 43
0.00000001
 40
0.000000000000001
 40
0.000000000000001
 40
0.000000000000001
 40
0.000000000000001
 40
0.0000389338800372
 40
0.0000389338800372
 40
0.0000389338800372
 40
0.0000777809519151
 40
0.0000777809519151
 40
0.0000777809519151
 40
0.0000939650131498
 40
0.0000939650131498
 40
0.0000939650131498
 40
0.0000939650131498
 10
256.6292415672655
 20
162.133318403308
 30
0.0
 10
256.6345568660492
 20
162.1443842242248
 30
0.0
 10
256.6399475085042
 20
162.1547646952208
 30
0.0
 10
256.6451514123046
 20
162.163578616811
 30
0.0
 10
256.6503479577448
 20
162.172380075448
 30
0.0
 10
256.6555073104918
 20
162.1798634586978
 30
0.0
 10
256.6603453925274
 20
162.1854492760002
 30
0.0
 10
256.6623831071997
 20
162.1878019235555
 30
0.0
 10
256.6643794265688
 20
162.1898431526518
 30
0.0
 10
256.6663092476763
 20
162.1915450948937
 30
0.0
  0
LINE
  5
343
330
1F
100
AcDbEntity
  8
0
  6
Continuous
 62
     7
370
     0
100
AcDbLine
 10
255.0381267266
 20
161.0669269276
 30
0.0
 11
259.41855959
 21
160.5150442616
 31
0.0
  0
LINE
  5
344
330
1F
100
AcDbEntity
  8
0
  6
Continuous
 62
     7
370
     0
100
AcDbLine
 10
255.0474808701
 20
161.0751765067
 30
0.0
 11
255.0381267266
 21
161.0669269276
 31
0.0
  0
LINE
  5
345
330
1F
100
AcDbEntity
  8
0
  6
Continuous
 62
     7
370
     0
100
AcDbLine
 10
267.927804099
 20
163.0064634478
 30
0.0
 11
267.9184499555
 21
163.0076419591
 31
0.0
  0
LINE
  5
346
330
1F
100
AcDbEntity
  8
0
  6
Continuous
 62
     7
370
     0
100
AcDbLine
 10
264.3922701939
 20
159.8884156261
 30
0.0
 11
267.927804099
 21
163.0064634478
 31
0.0
  0
LINE
  5
347
330
1F
100
AcDbEntity
  8
0
  6
Continuous
 62
     7
370
     0
100
AcDbLine
 10
259.9987194293
 20
160.4419509923
 30
0.0
 11
264.3922701939
 21
159.8884156261
 31
0.0
  0
LINE
  5
348
330
1F
100
AcDbEntity
  8
0
  6
Continuous
 62
     7
370
     0
100
AcDbLine
 10
264.3922701939
 20
159.8884156261
 30
0.0
 11
264.3922701939
 21
157.0599885013
 31
0.0
  0
LINE
  5
349
330
1F
100
AcDbEntity
  8
0
  6
Continuous
 62
     7
370
     0
100
AcDbLine
 10
259.9987194293
 20
157.6135238675
 30
0.0
 11
264.3922701939
 21
157.0599885013
 31
0.0
  0
LINE
  5
34A
330
1F
100
AcDbEntity
  8
0
  6
Continuous
 62
     7
370
     0
100
AcDbLine
 10
267.927804099
 20
163.0064634478
 30
0.0
 11
267.927804099
 21
160.178036323
 31
0.0
  0
LINE
  5
34B
330
1F
100
AcDbEntity
  8
0
  6
Continuous
 62
     7
370
     0
100
AcDbLine
 10
264.3922701939
 20
157.0599885013
 30
0.0
 11
267.927804099
 21
160.178036323
 31
0.0
  0
LWPOLYLINE
  5
34C
330
1F
100
AcDbEntity
  8
0
  6
Continuous
 62
     7
370
     0
100
AcDbPolyline
 90
       25
 70
   128
 43
0.0
 10
256.6357704118
 20
167.3582866631
 10
256.6436328624
 20
167.4867909989
 10
256.619356926
 20
167.6172584904
 10
256.5644622117
 20
167.7415222185
 10
256.4823849831
 20
167.8518036034
 10
256.3782630572
 20
167.9411993227
 10
256.2586141904
 20
168.0041134415
 10
256.1309280845
 20
168.0366077027
 10
256.0031975511
 20
168.0366480518
 10
255.8834181831
 20
168.0042319631
 10
255.7790878511
 20
167.9413885976
 10
255.6967373574
 20
167.8520517835
 10
255.6415216246
 20
167.7418137684
 10
255.616897011
 20
167.6175751598
 10
255.6244049522
 20
167.4871129652
 10
255.663575471
 20
167.358593772
 10
255.7319565967
 20
167.240062541
 10
255.8252678523
 20
167.1389390128
 10
255.9376682005
 20
167.0615532523
 10
256.0621216776
 20
167.0127494029
 10
256.1908378259
 20
166.995582456
 10
256.3157593558
 20
167.0111270172
 10
256.4290665108
 20
167.058410038
 10
256.5236665634
 20
167.1344717268
 10
256.5936378011
 20
167.2345508234
  0
ARC
  5
34D
330
1F
100
AcDbEntity
  8
0
  6
Continuous
 62
     7
370
     0
100
AcDbCircle
 10
256.117717006
 20
167.4993431297
 30
0.0
 40
0.5592728754416546
100
AcDbArc
 50
351.5455536164
 51
125.056508584
  0
LWPOLYLINE
  5
34E
330
1F
100
AcDbEntity
  8
0
  6
Continuous
 62
     7
370
     0
100
AcDbPolyline
 90
        3
 70
   128
 43
0.0
 10
256.5240611946
 20
167.1321560478
 10
256.5296895245
 20
167.1372089245
 10
256.6083603897
 20
167.2334135087
  0
LWPOLYLINE
  5
34F
330
1F
100
AcDbEntity
  8
0
  6
Continuous
 62
     7
370
     0
100
AcDbPolyline
 90
       22
 70
   128
 43
0.0
 10
262.7899757948
 20
158.3929772494
 10
262.8661871707
 20
158.2788722806
 10
262.9657441527
 20
158.1841564481
 10
263.0824186021
 20
158.1147550351
 10
263.2089115368
 20
158.0750096921
 10
263.3373097447
 20
158.0674068294
 10
263.4595808226
 20
158.0924220709
 10
263.5680756715
 20
158.1484904999
 10
263.656007013
 20
158.2321045577
 10
263.7178739916
 20
158.3380334718
 10
263.7498063
 20
158.459650485
 10
263.7498063
 20
158.5893474156
 10
263.7178739916
 20
158.7190106142
 10
263.656007013
 20
158.8405285417
 10
263.5680756715
 20
158.9462992149
 10
263.4595808226
 20
159.0297057761
 10
263.3373097447
 20
159.0855304332
 10
263.2089115368
 20
159.1102808778
 10
263.0824186021
 20
159.1024087585
 10
262.9657441527
 20
159.0624065433
 10
262.8661871707
 20
158.9927767122
 10
262.7899757948
 20
158.8978752051
  0
SPLINE
  5
350
330
1F
100
AcDbEntity
  8
0
  6
Continuous
 62
     7
370
     0
100
AcDbSpline
210
0.0
220
0.0
230
1.0
 70
     8
 71
     3
 72
    29
 73
    25
 74
     0
 42
0.000000001
 43
0.00000001
 40
0.0
 40
0.0
 40
0.0
 40
0.0
 40
0.0000553986491994
 40
0.0000553986491994
 40
0.0000553986491994
 40
0.0000744703661968
 40
0.0000744703661968
 40
0.0000744703661968
 40
0.0000938210300496
 40
0.0000938210300496
 40
0.0000938210300496
 40
0.0001072543096201
 40
0.0001072543096201
 40
0.0001072543096201
 40
0.0001207016259442
 40
0.0001207016259442
 40
0.0001207016259442
 40
0.0001387455774108
 40
0.0001387455774108
 40
0.0001387455774108
 40
0.0001702186759774
 40
0.0001702186759774
 40
0.0001702186759774
 40
0.0002135383638965
 40
0.0002135383638965
 40
0.0002135383638965
 40
0.0002135383638965
 10
262.7899757947695
 20
158.3929772494427
 30
0.0
 10
262.7980034689693
 20
158.4011954902462
 30
0.0
 10
262.8055316715496
 20
158.4109027586732
 30
0.0
 10
262.8105990192149
 20
158.4231534554838
 30
0.0
 10
262.8123595335739
 20
158.4274096322978
 30
0.0
 10
262.8138125533148
 20
158.43202602627
 30
0.0
 10
262.8146813660967
 20
158.4370392139341
 30
0.0
 10
262.8155572486721
 20
158.4420931954283
 30
0.0
 10
262.8158372760686
 20
158.4476873360667
 30
0.0
 10
262.8150797642862
 20
158.4535289868183
 30
0.0
 10
262.814551678241
 20
158.4576013911224
 30
0.0
 10
262.8134899395848
 20
158.461880449151
 30
0.0
 10
262.8119026111435
 20
158.4660231572232
 30
0.0
 10
262.8103133494974
 20
158.470170910693
 30
0.0
 10
262.8081627195417
 20
158.4742750495571
 30
0.0
 10
262.8056954535955
 20
158.4780411124195
 30
0.0
 10
262.8023911736202
 20
158.4830848030365
 30
0.0
 10
262.7984543883514
 20
158.4876760988462
 30
0.0
 10
262.794369995506
 20
158.4917172316937
 30
0.0
 10
262.7872669472083
 20
158.4987450477929
 30
0.0
 10
262.7795219468412
 20
158.5044296183542
 30
0.0
 10
262.7718804147713
 20
158.5092647954946
 30
0.0
 10
262.7613393645428
 20
158.515934641886
 30
0.0
 10
262.7507080511416
 20
158.5211510441368
 30
0.0
 10
262.7403441700495
 20
158.5255366301911
 30
0.0
  0
ARC
  5
351
330
1F
100
AcDbEntity
  8
0
  6
Continuous
 62
     7
370
     0
100
AcDbCircle
 10
263.2472883896
 20
158.6516792242
 30
0.0
 40
0.522402522787275
100
AcDbArc
 50
166.0269024181
 51
193.973097582
  0
LWPOLYLINE
  5
352
330
1F
100
AcDbEntity
  8
0
  6
Continuous
 62
     7
370
     0
100
AcDbPolyline
 90
       15
 70
   128
 43
0.0
 10
263.6332102297
 20
158.2028116151
 10
263.6385427127
 20
158.2075943859
 10
263.7174812621
 20
158.3040223156
 10
263.7670163543
 20
158.4208781881
 10
263.7838973151
 20
158.5504934935
 10
263.7670163543
 20
158.6843624013
 10
263.7174812621
 20
158.8136999438
 10
263.6385427127
 20
158.9300185182
 10
263.5353809425
 20
159.0256848742
 10
263.4147658043
 20
159.0944210353
 10
263.2846125048
 20
159.1317162831
 10
263.1534621798
 20
159.1351231671
 10
263.0299213935
 20
159.104418115
 10
262.9220973443
 20
159.0416161048
 10
262.9056286191
 20
159.0278116151
  0
LINE
  5
353
330
1F
100
AcDbEntity
  8
0
  6
Continuous
 62
     7
370
     0
100
AcDbLine
 10
255.0381267266
 20
161.0669269276
 30
0.0
 11
255.0381267266
 21
158.2384998027
 31
0.0
  0
LINE
  5
354
330
1F
100
AcDbEntity
  8
0
  6
Continuous
 62
     7
370
     0
100
AcDbLine
 10
259.4552959265
 20
157.6819887934
 30
0.0
 11
262.7304705313
 21
158.5767513429
 31
0.0
  0
LINE
  5
355
330
1F
100
AcDbEntity
  8
0
  6
Continuous
 62
     7
370
     0
100
AcDbLine
 10
255.0381267266
 20
158.2384998027
 30
0.0
 11
259.4552959265
 21
157.6819887934
 31
0.0
  0
LINE
  5
356
330
1F
100
AcDbEntity
  8
0
  6
Continuous
 62
     7
370
     0
100
AcDbLine
 10
255.0381267266
 20
163.9047821428
 30
0.0
 11
255.0381267266
 21
161.076355018
 31
0.0
  0
LINE
  5
357
330
1F
100
AcDbEntity
  8
0
  6
Continuous
 62
     7
370
     0
100
AcDbLine
 10
255.0381267266
 20
161.076355018
 30
0.0
 11
259.3949411544
 21
160.5274479952
 31
0.0
  0
LINE
  5
358
330
1F
100
AcDbEntity
  8
0
  6
Continuous
 62
     7
370
     0
100
AcDbLine
 10
255.0474808701
 20
158.2373212914
 30
0.0
 11
255.0381267266
 21
158.2290717123
 31
0.0
  0
LINE
  5
359
330
1F
100
AcDbEntity
  8
0
  6
Continuous
 62
     7
370
     0
100
AcDbLine
 10
267.927804099
 20
160.1686082326
 30
0.0
 11
267.9184499555
 21
160.1697867439
 31
0.0
  0
LINE
  5
35A
330
1F
100
AcDbEntity
  8
0
  6
Continuous
 62
     7
370
     0
100
AcDbLine
 10
264.3922701939
 20
157.0505604109
 30
0.0
 11
267.927804099
 21
160.1686082326
 31
0.0
  0
LINE
  5
35B
330
1F
100
AcDbEntity
  8
0
  6
Continuous
 62
     7
370
     0
100
AcDbLine
 10
259.975100994
 20
157.6070714202
 30
0.0
 11
264.3922701939
 21
157.0505604109
 31
0.0
  0
LINE
  5
35C
330
1F
100
AcDbEntity
  8
0
  6
Continuous
 62
     7
370
     0
100
AcDbLine
 10
255.0381267266
 20
158.2290717123
 30
0.0
 11
259.4316774912
 21
157.6755363461
 31
0.0
  0
LINE
  5
35D
330
1F
100
AcDbEntity
  8
0
  6
Continuous
 62
     7
370
     0
100
AcDbLine
 10
264.3922701939
 20
157.0505604109
 30
0.0
 11
264.3922701939
 21
154.2221332861
 31
0.0
  0
LINE
  5
35E
330
1F
100
AcDbEntity
  8
0
  6
Continuous
 62
     7
370
     0
100
AcDbLine
 10
259.9864302678
 20
154.7772169411
 30
0.0
 11
264.3922701939
 21
154.2221332861
 31
0.0
  0
LINE
  5
35F
330
1F
100
AcDbEntity
  8
0
  6
Continuous
 62
     7
370
     0
100
AcDbLine
 10
267.927804099
 20
160.1686082326
 30
0.0
 11
267.927804099
 21
157.3401811077
 31
0.0
  0
LINE
  5
360
330
1F
100
AcDbEntity
  8
0
  6
Continuous
 62
     7
370
     0
100
AcDbLine
 10
264.3922701939
 20
154.2221332861
 30
0.0
 11
267.927804099
 21
157.3401811077
 31
0.0
  0
SPLINE
  5
361
330
1F
100
AcDbEntity
  8
0
  6
Continuous
 62
     7
370
     0
100
AcDbSpline
210
0.0
220
0.0
230
1.0
 70
     8
 71
     3
 72
    25
 73
    21
 74
     0
 42
0.000000001
 43
0.00000001
 40
0.0
 40
0.0
 40
0.0
 40
0.0
 40
0.0437126711115774
 40
0.0958281643008411
 40
0.1494390245072682
 40
0.2223602623567291
 40
0.2982172505642664
 40
0.3718533007047215
 40
0.4476916161113806
 40
0.5145212860829744
 40
0.582911281058898
 40
0.6408772149283952
 40
0.7000590277864871
 40
0.7503341165245362
 40
0.8016616078724477
 40
0.847057465261991
 40
0.8934893730111516
 40
0.9389359842247573
 40
0.985755001230103
 40
1.0
 40
1.0
 40
1.0
 40
1.0
 10
254.6768521164734
 20
150.9836153080275
 30
0.0
 10
254.6772295062472
 20
150.9799465578454
 30
0.0
 10
254.6780568308723
 20
150.9719038190631
 30
0.0
 10
254.6910999191735
 20
150.9601408243631
 30
0.0
 10
254.7161701989709
 20
150.946422834243
 30
0.0
 10
254.7571464321329
 20
150.9314637788804
 30
0.0
 10
254.8145732594291
 20
150.9161592928078
 30
0.0
 10
254.8824837043096
 20
150.9024269981193
 30
0.0
 10
254.9546561149091
 20
150.8914533375551
 30
0.0
 10
255.0295330163495
 20
150.8831535404256
 30
0.0
 10
255.1005170280845
 20
150.8777776919008
 30
0.0
 10
255.1693493866031
 20
150.8746723089196
 30
0.0
 10
255.2308552072132
 20
150.8736282754173
 30
0.0
 10
255.2879779368204
 20
150.8743020432597
 30
0.0
 10
255.3374327725556
 20
150.8764953456543
 30
0.0
 10
255.3816951693002
 20
150.8803660369483
 30
0.0
 10
255.4194863297259
 20
150.8859939427698
 30
0.0
 10
255.4515864519705
 20
150.8941918069008
 30
0.0
 10
255.4709361292872
 20
150.9028333303571
 30
0.0
 10
255.4792841542561
 20
150.9091794889183
 30
0.0
 10
255.4812315794935
 20
150.9106599192461
 30
0.0
  0
SPLINE
  5
362
330
1F
100
AcDbEntity
  8
0
  6
Continuous
 62
     7
370
     0
100
AcDbSpline
210
0.0
220
0.0
230
1.0
 70
     8
 71
     3
 72
    10
 73
     6
 74
     0
 42
0.000000001
 43
0.00000001
 40
0.0
 40
0.0
 40
0.0
 40
0.0
 40
0.3703289764800256
 40
0.8523737422300187
 40
0.9999999999999999
 40
0.9999999999999999
 40
0.9999999999999999
 40
0.9999999999999999
 10
255.4994848729045
 20
150.9445202783279
 30
0.0
 10
255.4992683287514
 20
150.9400166551411
 30
0.0
 10
255.4987699163618
 20
150.9296508172156
 30
0.0
 10
255.4905667028866
 20
150.9187499308917
 30
0.0
 10
255.4830045296446
 20
150.9121963946376
 30
0.0
 10
255.4812315794935
 20
150.9106599192461
 30
0.0
  0
SPLINE
  5
363
330
1F
100
AcDbEntity
  8
0
  6
Continuous
 62
     7
370
     0
100
AcDbSpline
210
0.0
220
0.0
230
1.0
 70
     8
 71
     3
 72
    22
 73
    18
 74
     0
 42
0.000000001
 43
0.00000001
 40
0.0
 40
0.0
 40
0.0
 40
0.0
 40
0.0685566371723489
 40
0.1396125411170012
 40
0.2012747789421541
 40
0.2646150185680354
 40
0.3283729050186179
 40
0.3938353567172732
 40
0.46030189661351
 40
0.5285840051357281
 40
0.597033079469757
 40
0.667466931154675
 40
0.735792612615656
 40
0.8062307465683906
 40
0.8722784404994308
 40
0.9404162541866266
 40
1.0
 40
1.0
 40
1.0
 40
1.0
 10
256.4936352414926
 20
156.581248191881
 30
0.0
 10
256.4864941777984
 20
156.6034310190468
 30
0.0
 10
256.4719517193325
 20
156.6486053595267
 30
0.0
 10
256.4362107368503
 20
156.7096472861723
 30
0.0
 10
256.3930030349844
 20
156.7638122855205
 30
0.0
 10
256.3440562468015
 20
156.8098368955548
 30
0.0
 10
256.2882947704414
 20
156.8493721609294
 30
0.0
 10
256.2271482529998
 20
156.8810395173122
 30
0.0
 10
256.1616801963671
 20
156.903891669639
 30
0.0
 10
256.0940126849975
 20
156.916717098869
 30
0.0
 10
256.025654996834
 20
156.9187569974623
 30
0.0
 10
255.959798092105
 20
156.9094539880027
 30
0.0
 10
255.8978583445705
 20
156.8886921213933
 30
0.0
 10
255.8434133945457
 20
156.8575959922481
 30
0.0
 10
255.7972784954303
 20
156.8164867159762
 30
0.0
 10
255.7616052078785
 20
156.7696854054835
 30
0.0
 10
255.7465347490405
 20
156.7334577545961
 30
0.0
 10
255.7395041866812
 20
156.7165570907589
 30
0.0
  0
SPLINE
  5
364
330
1F
100
AcDbEntity
  8
0
  6
Continuous
 62
     7
370
     0
100
AcDbSpline
210
0.0
220
0.0
230
1.0
 70
     8
 71
     3
 72
    11
 73
     7
 74
     0
 42
0.000000001
 43
0.00000001
 40
0.0
 40
0.0
 40
0.0
 40
0.0
 40
0.1276817195349571
 40
0.4170445660495579
 40
0.7041655103359513
 40
1.0
 40
1.0
 40
1.0
 40
1.0
 10
256.4850238557879
 20
156.3742666858943
 30
0.0
 10
256.4883466498572
 20
156.3822143037356
 30
0.0
 10
256.499199833976
 20
156.4081734688048
 30
0.0
 10
256.5061795446089
 20
156.4568529142955
 30
0.0
 10
256.5071831565403
 20
156.5185270724222
 30
0.0
 10
256.4981959907985
 20
156.5601338505946
 30
0.0
 10
256.4936352414926
 20
156.581248191881
 30
0.0
  0
SPLINE
  5
365
330
1F
100
AcDbEntity
  8
0
  6
Continuous
 62
     7
370
     0
100
AcDbSpline
210
0.0
220
0.0
230
1.0
 70
     8
 71
     3
 72
    29
 73
    25
 74
     0
 42
0.000000001
 43
0.00000001
 40
0.0000000000000001
 40
0.0000000000000001
 40
0.0000000000000001
 40
0.0000000000000001
 40
0.0000553986492001
 40
0.0000553986492001
 40
0.0000553986492001
 40
0.0000744703661974
 40
0.0000744703661974
 40
0.0000744703661974
 40
0.0000938210300503
 40
0.0000938210300503
 40
0.0000938210300503
 40
0.0001072543096207
 40
0.0001072543096207
 40
0.0001072543096207
 40
0.0001207016259448
 40
0.0001207016259448
 40
0.0001207016259448
 40
0.0001387455774115
 40
0.0001387455774115
 40
0.0001387455774115
 40
0.0001702186759782
 40
0.0001702186759782
 40
0.0001702186759782
 40
0.0002135383638984
 40
0.0002135383638984
 40
0.0002135383638984
 40
0.0002135383638984
 10
262.7402162674604
 20
153.1100976483415
 30
0.0
 10
262.7534102092159
 20
153.1071349178896
 30
0.0
 10
262.7671475086951
 20
153.1056280323662
 30
0.0
 10
262.780427694983
 20
153.1079172658257
 30
0.0
 10
262.7850415403697
 20
153.108712598738
 30
0.0
 10
262.7896289402104
 20
153.1100049299684
 30
0.0
 10
262.7939693825127
 20
153.1120601304347
 30
0.0
 10
262.7983451443118
 20
153.1141320546913
 30
0.0
 10
262.8025651953914
 20
153.1170588648785
 30
0.0
 10
262.8060291382292
 20
153.1210639109159
 30
0.0
 10
262.8084439651886
 20
153.1238559584748
 30
0.0
 10
262.8105263348995
 20
153.1272473221512
 30
0.0
 10
262.8120408916053
 20
153.1310339360804
 30
0.0
 10
262.8135572928874
 20
153.1348251617209
 30
0.0
 10
262.8145395580645
 20
153.1390966385485
 30
0.0
 10
262.8149975702173
 20
153.1434622616301
 30
0.0
 10
262.8156109618898
 20
153.1493089118266
 30
0.0
 10
262.8153351087978
 20
153.1554707551439
 30
0.0
 10
262.8145328761346
 20
153.1614619205098
 30
0.0
 10
262.8131377367423
 20
153.1718809812037
 30
0.0
 10
262.8102018940035
 20
153.1821443404195
 30
0.0
 10
262.8067379773547
 20
153.1918765409055
 30
0.0
 10
262.8019597052687
 20
153.205301546941
 30
0.0
 10
262.7960341125403
 20
153.2180681851276
 30
0.0
 10
262.7897195354915
 20
153.230218367858
 30
0.0
  0
LINE
  5
366
330
1F
100
AcDbEntity
  8
0
  6
Continuous
 62
     7
370
     0
100
AcDbLine
 10
259.9887991945
 20
154.7759756753
 30
0.0
 11
262.8300049932
 21
153.2872460117
 31
0.0
  0
ARC
  5
367
330
1F
100
AcDbEntity
  8
0
  6
Continuous
 62
     7
370
     0
100
AcDbCircle
 10
256.1222973477
 20
162.2594609974
 30
0.0
 40
0.5224025227807947
100
AcDbArc
 50
346.0269024178
 51
13.973097582
  0
LWPOLYLINE
  5
368
330
1F
100
AcDbEntity
  8
0
  6
Continuous
 62
     7
370
     0
100
AcDbPolyline
 90
       22
 70
   128
 43
0.0
 10
256.5796099425
 20
162.5181629721
 10
256.5033985666
 20
162.632267941
 10
256.4038415846
 20
162.7269837735
 10
256.2871671352
 20
162.7963851865
 10
256.1606742005
 20
162.8361305295
 10
256.0322759926
 20
162.8437333922
 10
255.9100049147
 20
162.8187181507
 10
255.8015100659
 20
162.7626497217
 10
255.7135787244
 20
162.6790356639
 10
255.6517117457
 20
162.5731067498
 10
255.6197794373
 20
162.4514897366
 10
255.6197794373
 20
162.321792806
 10
255.6517117457
 20
162.1921296074
 10
255.7135787244
 20
162.0706116799
 10
255.8015100659
 20
161.9648410067
 10
255.9100049147
 20
161.8814344455
 10
256.0322759926
 20
161.8256097884
 10
256.1606742005
 20
161.8008593438
 10
256.2871671352
 20
161.8087314631
 10
256.4038415846
 20
161.8487336783
 10
256.5033985666
 20
161.9183635093
 10
256.5796099425
 20
162.0132650165
  0
LINE
  5
369
330
1F
100
AcDbEntity
  8
0
  6
Continuous
 62
     7
370
     0
100
AcDbLine
 10
255.0381267266
 20
155.3997017784
 30
0.0
 11
255.039062141
 21
155.4005267364
 31
0.0
  0
LINE
  5
36A
330
1F
100
AcDbEntity
  8
0
  6
Continuous
 62
     7
370
     0
100
AcDbLine
 10
267.9268686846
 20
157.3393561498
 30
0.0
 11
267.927804099
 21
157.3392382987
 31
0.0
  0
LINE
  5
36B
330
1F
100
AcDbEntity
  8
0
  6
Continuous
 62
     7
370
     0
100
AcDbLine
 10
267.927804099
 20
157.3392382987
 30
0.0
 11
264.3922701939
 21
154.221190477
 31
0.0
  0
LINE
  5
36C
330
1F
100
AcDbEntity
  8
0
  6
Continuous
 62
     7
370
     0
100
AcDbLine
 10
264.3922701939
 20
154.221190477
 30
0.0
 11
259.9887991945
 21
154.7759756753
 31
0.0
  0
LINE
  5
36D
330
1F
100
AcDbEntity
  8
0
  6
Continuous
 62
     7
370
     0
100
AcDbLine
 10
259.4071653509
 20
154.8492546517
 30
0.0
 11
256.1297646467
 21
155.2621683281
 31
0.0
  0
LINE
  5
36E
330
1F
100
AcDbEntity
  8
0
  6
Continuous
 62
     7
370
     0
100
AcDbLine
 10
255.3030171378
 20
155.3663287236
 30
0.0
 11
255.0381267266
 21
155.3997017784
 31
0.0
  0
LINE
  5
36F
330
1F
100
AcDbEntity
  8
0
  6
Continuous
 62
     7
370
     0
100
AcDbLine
 10
267.927804099
 20
154.5108111739
 30
0.0
 11
267.927804099
 21
157.3392382987
 31
0.0
  0
LINE
  5
370
330
1F
100
AcDbEntity
  8
0
  6
Continuous
 62
     7
370
     0
100
AcDbLine
 10
267.927804099
 20
154.5108111739
 30
0.0
 11
264.3922701939
 21
151.3927633522
 31
0.0
  0
LINE
  5
371
330
1F
100
AcDbEntity
  8
0
  6
Continuous
 62
     7
370
     0
100
AcDbLine
 10
264.3922701939
 20
151.3927633522
 30
0.0
 11
264.3922701939
 21
154.221190477
 31
0.0
  0
LINE
  5
372
330
1F
100
AcDbEntity
  8
0
  6
Continuous
 62
     7
370
     0
100
AcDbLine
 10
264.3922701939
 20
151.3927633522
 30
0.0
 11
255.5959525644
 21
152.500995204
 31
0.0
  0
LINE
  5
373
330
1F
100
AcDbEntity
  8
0
  6
Continuous
 62
     7
370
     0
100
AcDbLine
 10
255.0381267266
 20
154.2711129945
 30
0.0
 11
255.0381267266
 21
155.3997017784
 31
0.0
  0
ARC
  5
374
330
1F
100
AcDbEntity
  8
0
  6
Continuous
 62
     7
370
     0
100
AcDbCircle
 10
256.1178688575
 20
162.3399997281
 30
0.0
 40
0.5299196448104155
100
AcDbArc
 50
26.375707339
 51
127.3359074684
  0
LINE
  5
375
330
1F
100
AcDbEntity
  8
0
  6
Continuous
 62
     7
370
     0
100
AcDbLine
 10
256.5240611946
 20
161.9363354194
 30
0.0
 11
256.5926239729
 21
162.0133086005
 31
0.0
  0
ARC
  5
376
330
1F
100
AcDbEntity
  8
0
  6
Continuous
 62
     7
370
     0
100
AcDbCircle
 10
256.1522380265
 20
162.285080516
 30
0.0
 40
0.5225113352558963
100
AcDbArc
 50
349.6878252382
 51
10.3121747618
  0
LWPOLYLINE
  5
377
330
1F
100
AcDbEntity
  8
0
  6
Continuous
 62
     7
370
     0
100
AcDbPolyline
 90
       25
 70
   128
 43
0.0
 10
262.7402162675
 20
153.1100976483
 10
262.724899218
 20
152.983212061
 10
262.7417865117
 20
152.8524686616
 10
262.7898210488
 20
152.7260516403
 10
262.8659959946
 20
152.6118743673
 10
262.9655429995
 20
152.5170840372
 10
263.082230685
 20
152.4476142734
 10
263.2087547113
 20
152.4078136989
 10
263.3371950099
 20
152.4001737241
 10
263.4595115587
 20
152.4251725911
 10
263.5680476659
 20
152.4812454372
 10
263.6560092592
 20
152.5648822508
 10
263.717890176
 20
152.6708475893
 10
263.7498168349
 20
152.7925083034
 10
263.7497907119
 20
152.922248755
 10
263.717813442
 20
153.0519475358
 10
263.6558867177
 20
153.173485846
 10
263.5678869877
 20
153.2792557098
 10
263.4593228017
 20
153.362636214
 10
263.3369899899
 20
153.4184079602
 10
263.2085462619
 20
153.443079785
 10
263.0820318546
 20
153.4351072976
 10
262.9653662345
 20
153.3949895544
 10
262.8658523598
 20
153.32523782
 10
262.7897195355
 20
153.2302183679
  0
LWPOLYLINE
  5
378
330
1F
100
AcDbEntity
  8
0
  6
Continuous
 62
     7
370
     0
100
AcDbPolyline
 90
       15
 70
   128
 43
0.0
 10
263.6332102297
 20
152.535586466
 10
263.642218681
 20
152.5437617939
 10
263.7198872679
 20
152.6408400616
 10
263.768157821
 20
152.7579695723
 10
263.78388015
 20
152.8875063236
 10
263.7660281984
 20
153.0209966025
 10
263.7157670044
 20
153.1497286846
 10
263.6363766694
 20
153.2653013706
 10
263.5330382955
 20
153.3601722581
 10
263.41249586
 20
153.4281499673
 10
263.2826160967
 20
153.4647981971
 10
263.1518751039
 20
153.4677252429
 10
263.0288051846
 20
153.4367400827
 10
262.9214380188
 20
153.3738648425
 10
262.9056286191
 20
153.360586466
  0
LINE
  5
379
330
1F
100
AcDbEntity
  8
0
  6
Continuous
 62
     7
370
     0
100
AcDbLine
 10
255.0381267266
 20
158.2290717123
 30
0.0
 11
255.0381267266
 21
155.4006445875
 31
0.0
  0
LINE
  5
37A
330
1F
100
AcDbEntity
  8
0
  6
Continuous
 62
     7
370
     0
100
AcDbLine
 10
255.0381267266
 20
155.4006445875
 30
0.0
 11
255.3032816288
 21
155.3672382099
 31
0.0
  0
LINE
  5
37B
330
1F
100
AcDbEntity
  8
0
  6
Continuous
 62
     7
370
     0
100
AcDbLine
 10
256.1300228117
 20
155.2630786114
 30
0.0
 11
259.4047964241
 21
154.8504959174
 31
0.0
  0
LWPOLYLINE
  5
37C
330
1F
100
AcDbEntity
  8
0
  6
Continuous
 62
     7
370
     0
100
AcDbPolyline
 90
       23
 70
   128
 43
0.0
 10
255.4812315795
 20
80.1999817985
 10
255.4305410476
 20
80.2333295971
 10
255.3521288442
 20
80.2679857465
 10
255.2523474594
 20
80.3011426114
 10
255.1392805879
 20
80.3301140199
 10
255.0220882349
 20
80.3525528808
 10
254.9102646281
 20
80.366641331
 10
254.8128690509
 20
80.3712380081
 10
254.7377919139
 20
80.3659705166
 10
254.6911155201
 20
80.3512655973
 10
254.6766213134
 20
80.3283145554
 10
254.6954835282
 20
80.2989767478
 10
254.7461740601
 20
80.2656289492
 10
254.8245862636
 20
80.2309727998
 10
254.9243676483
 20
80.1978159349
 10
255.0374345199
 20
80.1688445263
 10
255.1546268728
 20
80.1464056655
 10
255.2664504796
 20
80.1323172152
 10
255.3638460568
 20
80.1277205382
 10
255.4389231938
 20
80.1329880297
 10
255.4855995876
 20
80.147692949
 10
255.5000937943
 20
80.1706439909
 10
255.4812315795
 20
80.1999817985
  0
ARC
  5
37D
330
1F
100
AcDbEntity
  8
0
  6
Continuous
 62
     7
370
     0
100
AcDbCircle
 10
256.1221973104
 20
156.5837424759
 30
0.0
 40
0.5225015538199623
100
AcDbArc
 50
346.0869006036
 51
13.971309726
  0
LWPOLYLINE
  5
37E
330
1F
100
AcDbEntity
  8
0
  6
Continuous
 62
     7
370
     0
100
AcDbPolyline
 90
       14
 70
   128
 43
0.0
 10
256.5796099425
 20
156.8424525417
 10
256.503381296
 20
156.9565780278
 10
256.4037990916
 20
157.0513055918
 10
256.2870954562
 20
157.1207069236
 10
256.1605740225
 20
157.160438698
 10
256.0321528478
 20
157.1680143919
 10
255.9098688805
 20
157.1429598976
 10
255.8013749858
 20
157.0868431939
 10
255.7134610084
 20
157.0031762177
 10
255.6516288455
 20
156.8971950771
 10
255.6197481228
 20
156.7755323619
 10
255.6198140234
 20
156.6458020574
 10
255.6518224228
 20
156.5161230411
 10
255.6563056912
 20
156.5045104624
  0
LWPOLYLINE
  5
37F
330
1F
100
AcDbEntity
  8
0
  6
Continuous
 62
     7
370
     0
100
AcDbPolyline
 90
        3
 70
   128
 43
0.0
 10
256.4208992197
 20
156.1821530887
 10
256.5037437919
 20
156.242976592
 10
256.5798662018
 20
156.3379862741
  0
ARC
  5
380
330
1F
100
AcDbEntity
  8
0
  6
Continuous
 62
     7
370
     0
100
AcDbCircle
 10
256.1178717052
 20
156.664301492
 30
0.0
 40
0.5299116762144007
100
AcDbArc
 50
26.3746628738
 51
127.3369519336
  0
LINE
  5
381
330
1F
100
AcDbEntity
  8
0
  6
Continuous
 62
     7
370
     0
100
AcDbLine
 10
256.5240611946
 20
156.260624989
 30
0.0
 11
256.592909306
 21
156.3380086244
 31
0.0
  0
ARC
  5
382
330
1F
100
AcDbEntity
  8
0
  6
Continuous
 62
     7
370
     0
100
AcDbCircle
 10
256.1521376445
 20
156.6093640817
 30
0.0
 40
0.5226111706538461
100
AcDbArc
 50
349.7473580456
 51
10.3108522843
  0
LINE
  5
383
330
1F
100
AcDbEntity
  8
0
  6
Continuous
 62
     7
370
     0
100
AcDbLine
 10
267.927804099
 20
153.9441829399
 30
0.0
 11
267.927804099
 21
154.5098683648
 31
0.0
  0
LINE
  5
384
330
1F
100
AcDbEntity
  8
0
  6
Continuous
 62
     7
370
     0
100
AcDbLine
 10
267.927804099
 20
153.9441829399
 30
0.0
 11
264.3922701939
 21
150.8261351182
 31
0.0
  0
LINE
  5
385
330
1F
100
AcDbEntity
  8
0
  6
Continuous
 62
     7
370
     0
100
AcDbLine
 10
264.3922701939
 20
150.8261351182
 30
0.0
 11
264.3922701939
 21
151.3918205432
 31
0.0
  0
LINE
  5
386
330
1F
100
AcDbEntity
  8
0
  6
Continuous
 62
     7
370
     0
100
AcDbLine
 10
267.927804099
 20
154.5098683648
 30
0.0
 11
264.3922701939
 21
151.3918205432
 31
0.0
  0
LINE
  5
387
330
1F
100
AcDbEntity
  8
0
  6
Continuous
 62
     7
370
     0
100
AcDbLine
 10
264.3922701939
 20
150.8261351182
 30
0.0
 11
255.5455446121
 21
151.9407177751
 31
0.0
  0
LINE
  5
388
330
1F
100
AcDbEntity
  8
0
  6
Continuous
 62
     7
370
     0
100
AcDbLine
 10
264.3922701939
 20
151.3918205432
 30
0.0
 11
255.5958583138
 21
152.5000642695
 31
0.0
  0
LINE
  5
389
330
1F
100
AcDbEntity
  8
0
  6
Continuous
 62
     7
370
     0
100
AcDbLine
 10
267.9268686846
 20
154.509986216
 30
0.0
 11
267.927804099
 21
154.5098683648
 31
0.0
  0
LINE
  5
38A
330
1F
100
AcDbEntity
  8
0
  6
Continuous
 62
     7
370
     0
100
AcDbLine
 10
264.3922701939
 20
162.7356989318
 30
0.0
 11
260.0062508099
 21
163.2882854332
 31
0.0
  0
LINE
  5
38B
330
1F
100
AcDbEntity
  8
0
  6
Continuous
 62
     7
370
     0
100
AcDbLine
 10
259.9987194293
 20
163.289234298
 30
0.0
 11
255.0381267266
 21
163.9142102332
 31
0.0
  0
LINE
  5
38C
330
1F
100
AcDbEntity
  8
0
  6
Continuous
 62
     7
370
     0
100
AcDbLine
 10
264.3922701939
 20
162.7262708414
 30
0.0
 11
255.0381267266
 21
163.9047821428
 31
0.0
  0
LINE
  5
38D
330
1F
100
AcDbEntity
  8
0
  6
Continuous
 62
     7
370
     0
100
AcDbLine
 10
264.3922701939
 20
157.0599885013
 30
0.0
 11
260.0062508142
 21
157.6125750022
 31
0.0
  0
LINE
  5
38E
330
1F
100
AcDbEntity
  8
0
  6
Continuous
 62
     7
370
     0
100
AcDbLine
 10
259.9987194293
 20
157.6135238675
 30
0.0
 11
255.0381267266
 21
158.2384998027
 31
0.0
  0
LINE
  5
38F
330
1F
100
AcDbEntity
  8
0
  6
Continuous
 62
     7
370
     0
100
AcDbLine
 10
264.3922701939
 20
157.0505604109
 30
0.0
 11
255.0381267266
 21
158.2290717123
 31
0.0
  0
LWPOLYLINE
  5
390
330
1F
100
AcDbEntity
  8
0
  6
Continuous
 62
     7
370
     0
100
AcDbPolyline
 90
        3
 70
   128
 43
0.0
 10
261.1612982623
 20
85.2093297562
 10
261.1801604771
 20
85.3040173118
 10
261.1802288696
 20
85.3117628688
  0
LWPOLYLINE
  5
391
330
1F
100
AcDbEntity
  8
0
  6
Continuous
 62
     7
370
     0
100
AcDbPolyline
 90
       11
 70
   128
 43
0.0
 10
260.3566155318
 20
85.2079559683
 10
260.3711822029
 20
85.1226106261
 10
260.4178585967
 20
85.0426195613
 10
260.4929357337
 20
84.9801443561
 10
260.5903313109
 20
84.9402463801
 10
260.7021549177
 20
84.9261579299
 10
260.8193472706
 20
84.939020368
 10
260.9324141422
 20
84.9777916562
 10
261.0321955269
 20
85.0393307752
 10
261.1106077304
 20
85.1186521917
 10
261.1612982623
 20
85.2093297562
  0
LINE
  5
392
330
1F
100
AcDbEntity
  8
0
  6
Continuous
 62
     7
370
     0
100
AcDbLine
 10
267.927804099
 20
170.9468011963
 30
0.0
 11
258.5736606317
 21
172.1253124977
 31
0.0
  0
LINE
  5
393
330
1F
100
AcDbEntity
  8
0
  6
Continuous
 62
     7
370
     0
100
AcDbLine
 10
264.3922701939
 20
167.8287533746
 30
0.0
 11
267.927804099
 21
170.9468011963
 31
0.0
  0
LINE
  5
394
330
1F
100
AcDbEntity
  8
0
  6
Continuous
 62
     7
370
     0
100
AcDbLine
 10
255.0381267266
 20
169.007264676
 30
0.0
 11
264.3922701939
 21
167.8287533746
 31
0.0
  0
LINE
  5
395
330
1F
100
AcDbEntity
  8
0
  6
Continuous
 62
     7
370
     0
100
AcDbLine
 10
258.5736606317
 20
172.1253124977
 30
0.0
 11
255.0381267266
 21
169.007264676
 31
0.0
  0
LINE
  5
396
330
1F
100
AcDbEntity
  8
0
  6
Continuous
 62
     7
370
     0
100
AcDbLine
 10
255.0381267266
 20
169.007264676
 30
0.0
 11
255.0381267266
 21
168.6301410594
 31
0.0
  0
LINE
  5
397
330
1F
100
AcDbEntity
  8
0
  6
Continuous
 62
     7
370
     0
100
AcDbLine
 10
264.3922701939
 20
167.8287533746
 30
0.0
 11
264.3922701939
 21
167.4516297579
 31
0.0
  0
LINE
  5
398
330
1F
100
AcDbEntity
  8
0
  6
Continuous
 62
     7
370
     0
100
AcDbLine
 10
255.0381267266
 20
168.6301410594
 30
0.0
 11
264.3922701939
 21
167.4516297579
 31
0.0
  0
LINE
  5
399
330
1F
100
AcDbEntity
  8
0
  6
Continuous
 62
     7
370
     0
100
AcDbLine
 10
267.927804099
 20
170.9468011963
 30
0.0
 11
267.927804099
 21
170.5696775796
 31
0.0
  0
LINE
  5
39A
330
1F
100
AcDbEntity
  8
0
  6
Continuous
 62
     7
370
     0
100
AcDbLine
 10
264.3922701939
 20
167.4516297579
 30
0.0
 11
267.927804099
 21
170.5696775796
 31
0.0
  0
OLE2FRAME
  5
39B
330
1F
100
AcDbEntity
  8
0
100
AcDbOle2Frame
 70
     2
  3
Paintbrush Picture
 10
229.0524259344
 20
33.6996298005
 30
0.0
 11
265.1686468101
 21
28.5554797105
 31
0.0
 71
     2
 72
     0
 73
     1
 90
     7296
310
8055E6312779ADA16C40BC4424788DD940400000000000000000235EFFC6B292
310
7040BC4424788DD940400000000000000000235EFFC6B29270406E0516EB338E
310
3C400000000000000000E6312779ADA16C406E0516EB338E3C40000000000000
310
00000000000001000000000100000100000001000000000001000000001C0000
310
D0CF11E0A1B11AE1000000000000000000000000000000003E000300FEFF0900
310
0600000000000000000000000100000001000000000000000010000002000000
310
01000000FEFFFFFF0000000000000000FFFFFFFFFFFFFFFFFFFFFFFFFFFFFFFF
310
FFFFFFFFFFFFFFFFFFFFFFFFFFFFFFFFFFFFFFFFFFFFFFFFFFFFFFFFFFFFFFFF
310
FFFFFFFFFFFFFFFFFFFFFFFFFFFFFFFFFFFFFFFFFFFFFFFFFFFFFFFFFFFFFFFF
310
FFFFFFFFFFFFFFFFFFFFFFFFFFFFFFFFFFFFFFFFFFFFFFFFFFFFFFFFFFFFFFFF
310
FFFFFFFFFFFFFFFFFFFFFFFFFFFFFFFFFFFFFFFFFFFFFFFFFFFFFFFFFFFFFFFF
310
FFFFFFFFFFFFFFFFFFFFFFFFFFFFFFFFFFFFFFFFFFFFFFFFFFFFFFFFFFFFFFFF
310
FFFFFFFFFFFFFFFFFFFFFFFFFFFFFFFFFFFFFFFFFFFFFFFFFFFFFFFFFFFFFFFF
310
FFFFFFFFFFFFFFFFFFFFFFFFFFFFFFFFFFFFFFFFFFFFFFFFFFFFFFFFFFFFFFFF
310
FFFFFFFFFFFFFFFFFFFFFFFFFFFFFFFFFFFFFFFFFFFFFFFFFFFFFFFFFFFFFFFF
310
FFFFFFFFFFFFFFFFFFFFFFFFFFFFFFFFFFFFFFFFFFFFFFFFFFFFFFFFFFFFFFFF
310
FFFFFFFFFFFFFFFFFFFFFFFFFFFFFFFFFFFFFFFFFFFFFFFFFFFFFFFFFFFFFFFF
310
FFFFFFFFFFFFFFFFFFFFFFFFFFFFFFFFFFFFFFFFFFFFFFFFFFFFFFFFFFFFFFFF
310
FFFFFFFFFFFFFFFFFFFFFFFFFFFFFFFFFFFFFFFFFFFFFFFFFFFFFFFFFFFFFFFF
310
FFFFFFFFFFFFFFFFFFFFFFFFFFFFFFFFFFFFFFFFFFFFFFFFFFFFFFFFFFFFFFFF
310
FDFFFFFFFEFFFFFFFEFFFFFFFEFFFFFF05000000060000000700000008000000
310
090000000A0000000B0000000C000000FEFFFFFFFFFFFFFFFFFFFFFFFFFFFFFF
310
FFFFFFFFFFFFFFFFFFFFFFFFFFFFFFFFFFFFFFFFFFFFFFFFFFFFFFFFFFFFFFFF
310
FFFFFFFFFFFFFFFFFFFFFFFFFFFFFFFFFFFFFFFFFFFFFFFFFFFFFFFFFFFFFFFF
310
FFFFFFFFFFFFFFFFFFFFFFFFFFFFFFFFFFFFFFFFFFFFFFFFFFFFFFFFFFFFFFFF
310
FFFFFFFFFFFFFFFFFFFFFFFFFFFFFFFFFFFFFFFFFFFFFFFFFFFFFFFFFFFFFFFF
310
FFFFFFFFFFFFFFFFFFFFFFFFFFFFFFFFFFFFFFFFFFFFFFFFFFFFFFFFFFFFFFFF
310
FFFFFFFFFFFFFFFFFFFFFFFFFFFFFFFFFFFFFFFFFFFFFFFFFFFFFFFFFFFFFFFF
310
FFFFFFFFFFFFFFFFFFFFFFFFFFFFFFFFFFFFFFFFFFFFFFFFFFFFFFFFFFFFFFFF
310
FFFFFFFFFFFFFFFFFFFFFFFFFFFFFFFFFFFFFFFFFFFFFFFFFFFFFFFFFFFFFFFF
310
FFFFFFFFFFFFFFFFFFFFFFFFFFFFFFFFFFFFFFFFFFFFFFFFFFFFFFFFFFFFFFFF
310
FFFFFFFFFFFFFFFFFFFFFFFFFFFFFFFFFFFFFFFFFFFFFFFFFFFFFFFFFFFFFFFF
310
FFFFFFFFFFFFFFFFFFFFFFFFFFFFFFFFFFFFFFFFFFFFFFFFFFFFFFFFFFFFFFFF
310
FFFFFFFFFFFFFFFFFFFFFFFFFFFFFFFFFFFFFFFFFFFFFFFFFFFFFFFFFFFFFFFF
310
FFFFFFFFFFFFFFFFFFFFFFFFFFFFFFFFFFFFFFFFFFFFFFFFFFFFFFFFFFFFFFFF
310
FFFFFFFFFFFFFFFFFFFFFFFFFFFFFFFFFFFFFFFFFFFFFFFFFFFFFFFFFFFFFFFF
310
52006F006F007400200045006E00740072007900000000000000000000000000
310
0000000000000000000000000000000000000000000000000000000000000000
310
16000500FFFFFFFFFFFFFFFF020000000A00030000000000C000000000000046
310
000000000000000000000000606F5F761F08D20103000000C000000000000000
310
01004F006C006500000000000000000000000000000000000000000000000000
310
0000000000000000000000000000000000000000000000000000000000000000
310
0A000200FFFFFFFFFFFFFFFFFFFFFFFF00000000000000000000000000000000
310
0000000000000000000000000000000000000000000000001400000000000000
310
010043006F006D0070004F0062006A0000000000000000000000000000000000
310
0000000000000000000000000000000000000000000000000000000000000000
310
120002010100000003000000FFFFFFFF00000000000000000000000000000000
310
0000000000000000000000000000000000000000010000004D00000000000000
310
01004F006C006500310030004E00610074006900760065000000000000000000
310
0000000000000000000000000000000000000000000000000000000000000000
310
1A000200FFFFFFFFFFFFFFFFFFFFFFFF00000000000000000000000000000000
310
000000000000000000000000000000000000000004000000E411000000000000
310
FEFFFFFF02000000FEFFFFFFFFFFFFFFFFFFFFFFFFFFFFFFFFFFFFFFFFFFFFFF
310
FFFFFFFFFFFFFFFFFFFFFFFFFFFFFFFFFFFFFFFFFFFFFFFFFFFFFFFFFFFFFFFF
310
FFFFFFFFFFFFFFFFFFFFFFFFFFFFFFFFFFFFFFFFFFFFFFFFFFFFFFFFFFFFFFFF
310
FFFFFFFFFFFFFFFFFFFFFFFFFFFFFFFFFFFFFFFFFFFFFFFFFFFFFFFFFFFFFFFF
310
FFFFFFFFFFFFFFFFFFFFFFFFFFFFFFFFFFFFFFFFFFFFFFFFFFFFFFFFFFFFFFFF
310
FFFFFFFFFFFFFFFFFFFFFFFFFFFFFFFFFFFFFFFFFFFFFFFFFFFFFFFFFFFFFFFF
310
FFFFFFFFFFFFFFFFFFFFFFFFFFFFFFFFFFFFFFFFFFFFFFFFFFFFFFFFFFFFFFFF
310
FFFFFFFFFFFFFFFFFFFFFFFFFFFFFFFFFFFFFFFFFFFFFFFFFFFFFFFFFFFFFFFF
310
FFFFFFFFFFFFFFFFFFFFFFFFFFFFFFFFFFFFFFFFFFFFFFFFFFFFFFFFFFFFFFFF
310
FFFFFFFFFFFFFFFFFFFFFFFFFFFFFFFFFFFFFFFFFFFFFFFFFFFFFFFFFFFFFFFF
310
FFFFFFFFFFFFFFFFFFFFFFFFFFFFFFFFFFFFFFFFFFFFFFFFFFFFFFFFFFFFFFFF
310
FFFFFFFFFFFFFFFFFFFFFFFFFFFFFFFFFFFFFFFFFFFFFFFFFFFFFFFFFFFFFFFF
310
FFFFFFFFFFFFFFFFFFFFFFFFFFFFFFFFFFFFFFFFFFFFFFFFFFFFFFFFFFFFFFFF
310
FFFFFFFFFFFFFFFFFFFFFFFFFFFFFFFFFFFFFFFFFFFFFFFFFFFFFFFFFFFFFFFF
310
FFFFFFFFFFFFFFFFFFFFFFFFFFFFFFFFFFFFFFFFFFFFFFFFFFFFFFFFFFFFFFFF
310
FFFFFFFFFFFFFFFFFFFFFFFFFFFFFFFFFFFFFFFFFFFFFFFFFFFFFFFFFFFFFFFF
310
0100000200000000000000000000000000000000000000000000000000000000
310
0000000000000000000000000000000000000000000000000000000000000000
310
0100FEFF030A0000FFFFFFFF0A00030000000000C00000000000004607000000
310
5042727573680007000000504272757368000700000050427275736800F439B2
310
7100000000000000000000000000000000000000000000000000000000000000
310
0000000000000000000000000000000000000000000000000000000000000000
310
0000000000000000000000000000000000000000000000000000000000000000
310
0000000000000000000000000000000000000000000000000000000000000000
310
0000000000000000000000000000000000000000000000000000000000000000
310
0000000000000000000000000000000000000000000000000000000000000000
310
0000000000000000000000000000000000000000000000000000000000000000
310
0000000000000000000000000000000000000000000000000000000000000000
310
0000000000000000000000000000000000000000000000000000000000000000
310
0000000000000000000000000000000000000000000000000000000000000000
310
0000000000000000000000000000000000000000000000000000000000000000
310
0000000000000000000000000000000000000000000000000000000000000000
310
E0110000424DDE11000000000000360400002800000096000000170000000100
310
08000000000000000000E7240000E72400000001000000010000000000FF0101
310
01FF020202FF030303FF040404FF050505FF060606FF070707FF080808FF0909
310
09FF0A0A0AFF0B0B0BFF0C0C0CFF0D0D0DFF0E0E0EFF0F0F0FFF101010FF1111
310
11FF121212FF131313FF141414FF151515FF161616FF171717FF181818FF1919
310
19FF1A1A1AFF1B1B1BFF1C1C1CFF1D1D1DFF1E1E1EFF1F1F1FFF202020FF2121
310
21FF222222FF232323FF242424FF252525FF262626FF272727FF282828FF2929
310
29FF2A2A2AFF2B2B2BFF2C2C2CFF2D2D2DFF2E2E2EFF2F2F2FFF303030FF3131
310
31FF323232FF333333FF343434FF353535FF363636FF373737FF383838FF3939
310
39FF3A3A3AFF3B3B3BFF3C3C3CFF3D3D3DFF3E3E3EFF3F3F3FFF404040FF4141
310
41FF424242FF434343FF444444FF454545FF464646FF474747FF484848FF4949
310
49FF4A4A4AFF4B4B4BFF4C4C4CFF4D4D4DFF4E4E4EFF4F4F4FFF505050FF5151
310
51FF525252FF535353FF545454FF555555FF565656FF575757FF585858FF5959
310
59FF5A5A5AFF5B5B5BFF5C5C5CFF5D5D5DFF5E5E5EFF5F5F5FFF606060FF6161
310
61FF626262FF636363FF646464FF656565FF666666FF676767FF686868FF6969
310
69FF6A6A6AFF6B6B6BFF6C6C6CFF6D6D6DFF6E6E6EFF6F6F6FFF707070FF7171
310
71FF727272FF737373FF747474FF757575FF767676FF777777FF787878FF7979
310
79FF7A7A7AFF7B7B7BFF7C7C7CFF7D7D7DFF7E7E7EFF7F7F7FFF808080FF8181
310
81FF828282FF838383FF848484FF858585FF868686FF878787FF888888FF8989
310
89FF8A8A8AFF8B8B8BFF8C8C8CFF8D8D8DFF8E8E8EFF8F8F8FFF909090FF9191
310
91FF929292FF939393FF949494FF959595FF969696FF979797FF989898FF9999
310
99FF9A9A9AFF9B9B9BFF9C9C9CFF9D9D9DFF9E9E9EFF9F9F9FFFA0A0A0FFA1A1
310
A1FFA2A2A2FFA3A3A3FFA4A4A4FFA5A5A5FFA6A6A6FFA7A7A7FFA8A8A8FFA9A9
310
A9FFAAAAAAFFABABABFFACACACFFADADADFFAEAEAEFFAFAFAFFFB0B0B0FFB1B1
310
B1FFB2B2B2FFB3B3B3FFB4B4B4FFB5B5B5FFB6B6B6FFB7B7B7FFB8B8B8FFB9B9
310
B9FFBABABAFFBBBBBBFFBCBCBCFFBDBDBDFFBEBEBEFFBFBFBFFFC0C0C0FFC1C1
310
C1FFC2C2C2FFC3C3C3FFC4C4C4FFC5C5C5FFC6C6C6FFC7C7C7FFC8C8C8FFC9C9
310
C9FFCACACAFFCBCBCBFFCCCCCCFFCDCDCDFFCECECEFFCFCFCFFFD0D0D0FFD1D1
310
D1FFD2D2D2FFD3D3D3FFD4D4D4FFD5D5D5FFD6D6D6FFD7D7D7FFD8D8D8FFD9D9
310
D9FFDADADAFFDBDBDBFFDCDCDCFFDDDDDDFFDEDEDEFFDFDFDFFFE0E0E0FFE1E1
310
E1FFE2E2E2FFE3E3E3FFE4E4E4FFE5E5E5FFE6E6E6FFE7E7E7FFE8E8E8FFE9E9
310
E9FFEAEAEAFFEBEBEBFFECECECFFEDEDEDFFEEEEEEFFEFEFEFFFF0F0F0FFF1F1
310
F1FFF2F2F2FFF3F3F3FFF4F4F4FFF5F5F5FFF6F6F6FFF7F7F7FFF8F8F8FFF9F9
310
F9FFFAFAFAFFFBFBFBFFFCFCFCFFFDFDFDFFFEFEFEFFFFFFFFFFFFFFFFFFFFFF
310
C94E4E4E4F4E4EFFFFFFFFFFC94E4E4E4E4E72FFFFFFFFFFFFFF734E4D4E4E4E
310
C9FFFFFFFFFFAA683516171616265B9BE9FFFFFFFFFF4E4E4E4D4E4EFFFFFFFF
310
FFFFFFFF4E4E4F4E4D4E4E4E4F4E4E4F4D4E4E4E4E4E4D4E4F4E4D4E4E4EAAFF
310
FFFFFFFFFFEA4E4F4F4E4E4E4E4E4D4D4F4F4E4E4E4E4E5B7FAAFFFFFFFFFFFF
310
C9744E1716171616164D8DEAFFFFFFFF0000FFFFFFFFFFFFBA161617161716FF
310
FFFFFFFFB917171616174FFFFFFFFFFFFFFF4E1716161616B9FFFFFFB9341717
310
1716171617171616268CFFFFFFFF161617161617FFFFFFFFFFFFFFB917161717
310
1617167F807F7F7F7F7F7F807F7F807F7F807F7F7F414EFFFFFFFFFFFF8C167F
310
7F807F7F7F7E7F7F807F807F7F807F4E3417258EFFFFEA4E162674AABAEAEBBA
310
AA74341680FFFFFF0000FFFFFFFFFFFFB9171717171617FFFFFFFFFFBB161616
310
16164EFFFFFFFFFFFFFF4E1717171717B9FFFF9C171617171716161616171616
310
171766FFFFFF161717161617FFFFFFFFFFFFFF8E16171717161616FFFFFFFFFF
310
FFFFFFFFFFFFFFFFFFFFFFFFFFAA16D9FFFFFFFFFF3467FFFFFFFFEAFFFFFFFF
310
FFFFFFFFFFFFFFFFFFCA671667EB26278DFFFFFFFFFFFFFFFFFFFF8C2541EAFF
310
0000FFFFFFFFFFFFB9171717171716FFFFFFFFFFBA16171617174EFFFFFFFFFF
310
FFFF4E1717161616BAFF9B1617161616171716171617161616161667FFFF1616
310
16161716FFFFFFFFFFFFFF7F16161617174017FFFFFFFFFFFFFFFFFFFFFFFFFF
310
FFFFFFFFFFFF344E7F7F7F7E7417DAFFFFFFFF80FFFFFFFFFFFFFFFFFFFFFFFF
310
FFFFFF9B163425CAFFFFFFFFFFFFFFFFFFFFFFFFCA2667FF0000FFFFFFFFFFFF
310
BA171717171617FFFFFFFFFFB916171716164EFFFFFFFFFFFFFF4F1716161717
310
B9C91716171616161716161617171616161617168DFF161716161717FFFFFFFF
310
FFFFFF7F17171716164F16FFFFFFFFFFFFFFFFFFFFFFFFFFFFFFFFFFFFFF9B16
310
17161617174EFFFFFFFFFF34FFFFFFFFD9BABABABABADAFFFFFFFFFF7F16AAFF
310
FFFFFFFFFFFFFFFFFFFFFFFFFF9C16BA0000FFFFFFFFFFFFB9161717161717FF
310
FFFFFFFFB917161716174DFFFFFFFFFFFFFF4E1616161616BA4E161617171716
310
419BEAEAAA4E16161617161726E9171717161616FFFFFFFFFFFFFF4F16161717
310
164E16FFFFFFFFFFBAB9B9B9B9B9BABABACAFFFFFFFFFFFFFFFFFFFFFFFFFFFF
310
FFFFBA16FFFFFFFF7F1617161617174DEAFFFFFFEA41FFFFFFFFFFAA4D16174E
310
9BFFFFFFFFFF34730000FFFFFFFFFFFFB9161617171617FFFFFFFFFFBA161616
310
16164EFFFFFFFFFFFFFF4F16161717169B1617161716175BFFFFFFFFFFFF7417
310
16171616168D171717161617FFFFFFFFFFFFEA2616171717167416FFFFFFFFFF
310
16171616171717171717EAFFFFFFFFFFFFFFFFFFFFFFFFFFFFFF6716FFFFFFFF
310
7F4EFFFFFFFFBA2573FFFFFFFFBAFFFFFFFFAA167FB9BB9B269BFFFFFFFF664F
310
0000FFFFFFFFFFFFB9171616161616FFFFFFFFFFBA16161717164EFFFFFFFFFF
310
FFFF4E16161616174E161617171626EAFFFFFFFFFFFFFF4E16161616164E1716
310
16161617FFFFFFFFFFFF671616161716347F16FFFFFFFFFF16B9FFFFFFFFFFFF
310
D9168DFFFFFFFFFFFFFFFFFFFFFFFFFFFFEA1716FFFFFFFF7F4EFFFFFFFFFF7F
310
4EFFFFFFFFFFFFFFFFFF5B66FFFFFFEA347FFFFFFFFF7F4D0000FFFFFFFFFFFF
310
B9171616171617FFFFFFFFFFBA17161716174EFFFFFFFFFFFFFF4D1716161617
310
17161716161673FFFFFFFFFFFFFFFF9B1617161717161616171616174F4E4E4E
310
4E341616171616167E7F16FFFFFFFFFF16BAFFFFFFFFFFFFFF5B41FFFFFFFF34
310
1616171616BAFFFFFF9B1716FFFFFFFF7F4EFFFFFFFFFF4E4EFFFFFFFF734E4E
310
4E4E267EDA9B67164EEAFFFFFFFF744D0000FFFFFFFFFFFFBA171717161617FF
310
FFFFFFFFBA1616171616347F7F7F7F80807F331616161717161717161716B9FF
310
FFFFFFFFFFFFFFE9161616161616171716161716171616161616171616171734
310
EA7F16FFFFFFFFFF16BAFFFFFFFFFFFFFFAA17C9FFFFFF7326BABA5B25FFFFFF
310
FF401716FFFFFFFF7F264F4E4E4E4217AAFFFFFFEA16677F73261616164173CA
310
FFFFFFFFFFFF417F0000FFFFFFFFFFFFBA171616171617FFFFFFFFFFBA161616
310
17171616161616161616161717161616161616161617EAFFFFFFFFFFFFFFFFFF
310
261717161716161617161616161617161617161616174EEAFF8016FFFFFFFFFF
310
17BAFFFFFFFFFFFFFFFF3467FFFFFFC916C9FF3467FFFFFFDA166716FFFFFFFF
310
9C4D4E4E4E4E67AAFFFFFFFF6834FF7F262567AAEAFFFFFFFFFFFFFFFF9B17D9
310
0000FFFFFFFFFFFFB9161616161616FFFFFFFFFFBA1617161717171616161616
310
1716171716161716161617171716FFFFFFFFFFFFFFFFFFFF4E17161716171616
310
1617171616161716171717161616169BFF7F17FFFFFFFFFF17B9FFFFFFFFFFFF
310
FFFF7326FFFFFFFF3473DA16AAFFFFFF7317AA16FFFFFFFFFFFFFFFFFFFFFFFF
310
FFFFEA6725BA4E167FEAFFFFFFFFFFFFFFFFFFFF9C167FFF0000FFFFFFFFFFFF
310
B9161717171716FFFFFFFFFFBA16161716171616171717161617161716161616
310
171617171617EAFFFFFFFFFFFFFFFFFF26161717161616161616161617171616
310
1616161616171616AA8016FFFFFFFFFF16BAFFFFFFFFFFFFFFFFDA179BFFFFFF
310
74348D26FFFFFFFF2566B917FFFFFFFFD8BAB9BAB9BADAFFFFEA41169B7425C9
310
FFFFFFFFFFFFFFFFFFFFAB4F1680FFFF0000FFFFFFFFFFFFBA161717171617FF
310
FFFFFFFFBA17161717161617171617161616161617171616171716171617BBFF
310
FFFFFFFFFFFFFFE9171616161617161617161716FFFFFFFFFFD9671616161617
310
348017FFFFFFFFFF16BAFFFFFFFFFFFFFFFFFF4E5AFFFFFFC916265AFFFFFFAA
310
16AABA16FFFFFFFF7F1617161616179BFFFFEB4127168DFFFFFFFFFFFFFFD99B
310
6734175AC9FFFFFF0000FFFFFFFFFFFFB9161617171617FFFFFFFFFFBB161616
310
1616347F807F7F7F7F8033171716171617171616161672FFFFFFFFFFFFFFFF9C
310
171617171617161716161617FFFFFFFFFFFFFF4117161616174E17FFFFFFFFFF
310
16BAFFFFFFFFFFFFFFFFFF9B16DAFFFFFF34169BFFFFFF5A26FFB917FFFFFFFF
310
7F4EFFFFFFEA5B26FFFFFFEA2616EAFFFFFFFFDA743416331617414E4E4E4ECA
310
0000FFFFFFFFFFFFBA161716161616FFFFFFFFFFBA17171616164EFFFFFFFFFF
310
FFFF4E16161717174E161717171626EBFFFFFFFFFFFFFF4E16161617165B1616
310
16171617FFFFFFFFFFFFFF6716161616161617FFFFFFFFFF16BAFFFFFFFFFFFF
310
FFFFFFEA268CFFFFFF7316EAFFFFEB1774FFB916FFFFFFFF7F4EFFFFFFFF7316
310
FFFFFFFF6826FFFFFFFFEB264D9CEABA257F807F7F6616BA0000FFFFFFFFFFFF
310
BA161716161616FFFFFFFFFFBA16171616164DFFFFFFFFFFFFFF4E1617161617
310
9B1617171717165BEBFFFFFFFFFF671616161617179B171616161616FFFFFFFF
310
FFFFFF3417161617171617FFFFFFFFFF17BAFFFFFFFFFFFFFFFFFFFF6734FFFF
310
FFEBCAFFFFFF8D17C9FFBA17FFFFFFFF7F357F808066174FFFFFFFFF7F16FFFF
310
FFFFD91673B99B415BFFFFFFFFBA16DA00009B7F7F7F807F671617161616167F
310
80807F7E6617161616164EFFFFFFFFFFFFFF4E1616161617B94E171716161616
310
349BC9D9AA4E16171616161634FF161617161717B9B9BAB9BA9B411716171716
310
163416FFFFFFFFFF16B9FFFFFFFFFFFFFFFFFFFFC917CAFFFFFFFFFFFFFF3342
310
FFFFBA17FFFFFFFF9B4E4E4F4E4E66EAFFFFFFFF5B16C9FFFFFFFFAA4E164E73
310
EAFFFFFFFF8D26FF00004E161716161616171617171616171717171617161616
310
17174EFFFFFFFFFFFFFF4E1717171616B9D92616171716171716171717171716
310
16171716AAFF161717171617161617171616161617161716166717FFFFFFFFFF
310
17B9FFFFFFFFFFFFFFFFFFFFFF3467FFFFFFFFFFFFCA168CFFFFBB17FFFFFFFF
310
FFFFFFFFFFFFFFFFFFFFFFEA26265BFFFFFFFFFFFFFFFFFFFFFFFFFFEA3467FF
310
00004D16161616161617161717161617161616171617171616164EFFFFFFFFFF
310
FFFF4D1617161616BAFF9B1616161616161716161616171717161766FFFF1616
310
16171617161617161716171616171717667F16FFFFFFFFFF17BAFFFFFFFFFFFF
310
FFFFFFFFFF8C26EAFFFFFFFFFF6617EAFFFFBA17FFFFFFFFFFFFFFFFFFFFFFFF
310
FFFFEA5A25BA269BFFFFFFFFFFFFFFFFFFFFFFFF6616DAFF00004E1616171616
310
1616161616161716161617171616171616174EFFFFFFFFFFFFFF4D1717171716
310
B9FFFF9C161616161616161716161717171667FFFFFF17161717171716161617
310
1716161616161641E97E16FFFFFFFFFF16B9FFFFFFFFFFFFFFFFFFFFFFEA169B
310
FFFFFFFFEA265BFFFFFFB916FFFFFFFFFFFFFFFFFFFFFFFFFF9B3416AAFF9B17
310
67EAFFFFFFFFFFFFFFFFEA5B169BFFFF00004D17161716161616161717171616
310
161717161716171716174EFFFFFFFFFFFFFF4D1616161616BAFFFFFFBB411616
310
161716161616171634ABFFFFFFFF161716161617171716171617171617267FFF
310
FF7F164E4E4E4E4F17BAFFFFFFFFFFFFFFFFFFFFFFFF66344D4E4E4F4117AAFF
310
FFFFBA174E4E4E4D4E4D4D4E4E4E4E4116174EBBFFFFFFCA342666ABEAFFFFEA
310
AA6725269CFFFFFF0000724F4E4D4D4D4E4D4D4E4E4E4D4E4E4E4E4E4E4E4E4D
310
4E4E74FFFFFFFFFFFFFF734E4E4E4D4ECAFFFFFFFFFFAA663416171717265B9B
310
FFFFFFFFFFFF7F8080807F80807F7F7F7F7F807FBAFFFFFFFF9B4E4E4F4D4D4E
310
4DC9FFFFFFFFFFFFFFFFFFFFFFFFBA4E4E4E4E4D4E4EFFFFFFFFC94E4E4E4F4E
310
4E4E4D4E4E5A807F9CD9FFFFFFFFFFFFFF9B5B2617171716174E8DEAFFFFFFFF
310
0000000000000000000000000000000000000000000000000000000000000000
  1
OLE
  0
ENDSEC
  0
SECTION
  2
OBJECTS
  0
DICTIONARY
  5
C
330
0
100
AcDbDictionary
281
     1
  3
ACAD_GROUP
350
D
  3
ACAD_LAYOUT
350
1A
  3
ACAD_MLINESTYLE
350
17
  3
ACAD_PLOTSETTINGS
350
19
  3
ACAD_PLOTSTYLENAME
350
E
  3
ACAD_SCALELIST
350
47
  0
DICTIONARY
  5
D
102
{ACAD_REACTORS
330
C
102
}
330
C
100
AcDbDictionary
281
     1
  0
DICTIONARY
  5
1A
102
{ACAD_REACTORS
330
C
102
}
330
C
100
AcDbDictionary
281
     1
  3
Layout1
350
1E
  3
Layout2
350
26
  3
Model
350
22
  0
DICTIONARY
  5
17
102
{ACAD_REACTORS
330
C
102
}
330
C
100
AcDbDictionary
281
     1
  3
Standard
350
18
  0
DICTIONARY
  5
19
102
{ACAD_REACTORS
330
C
102
}
330
C
100
AcDbDictionary
281
     1
  0
ACDBDICTIONARYWDFLT
  5
E
102
{ACAD_REACTORS
330
C
102
}
330
C
100
AcDbDictionary
281
     1
  3
Normal
350
F
100
AcDbDictionaryWithDefault
340
F
  0
DICTIONARY
  5
47
102
{ACAD_REACTORS
330
C
102
}
330
C
100
AcDbDictionary
281
     1
  3
A0
350
48
  3
A1
350
49
  3
A2
350
4A
  3
A3
350
4B
  3
A4
350
4C
  3
A5
350
4D
  3
A6
350
4E
  3
A7
350
4F
  3
A8
350
50
  3
A9
350
51
  3
B0
350
52
  3
B1
350
53
  3
B2
350
54
  3
B3
350
55
  3
B4
350
56
  3
B5
350
57
  3
B6
350
58
  3
B7
350
59
  3
B8
350
5A
  3
B9
350
5B
  3
C0
350
5C
  3
C1
350
5D
  3
C2
350
5E
  3
C3
350
5F
  3
C4
350
60
  3
C5
350
61
  3
C6
350
62
  3
C7
350
63
  3
C8
350
64
  3
C9
350
65
  3
D0
350
66
  3
D1
350
67
  3
D2
350
68
  0
LAYOUT
  5
1E
102
{ACAD_REACTORS
330
1A
102
}
330
1A
100
AcDbPlotSettings
  1

  2
none_device
  4

  6

 40
0.0
 41
0.0
 42
0.0
 43
0.0
 44
0.0
 45
0.0
 46
0.0
 47
0.0
 48
0.0
 49
0.0
140
0.0
141
0.0
142
1.0
143
1.0
 70
   688
 72
     1
 73
     0
 74
     5
  7

 75
    16
147
1.0
148
0.0
149
0.0
100
AcDbLayout
  1
Layout1
 70
     1
 71
     1
 10
0.0
 20
0.0
 11
420.0
 21
297.0
 12
0.0
 22
0.0
 32
0.0
 14
1.0000000000E+20
 24
1.0000000000E+20
 34
1.0000000000E+20
 15
-1.0000000000E+20
 25
-1.0000000000E+20
 35
-1.0000000000E+20
146
0.0
 13
0.0
 23
0.0
 33
0.0
 16
1.0
 26
0.0
 36
0.0
 17
0.0
 27
1.0
 37
0.0
 76
     0
330
1B
  0
LAYOUT
  5
26
102
{ACAD_REACTORS
330
1A
102
}
330
1A
100
AcDbPlotSettings
  1

  2
none_device
  4

  6

 40
0.0
 41
0.0
 42
0.0
 43
0.0
 44
0.0
 45
0.0
 46
0.0
 47
0.0
 48
0.0
 49
0.0
140
0.0
141
0.0
142
1.0
143
1.0
 70
   688
 72
     1
 73
     0
 74
     5
  7

 75
    16
147
1.0
148
0.0
149
0.0
100
AcDbLayout
  1
Layout2
 70
     1
 71
     2
 10
0.0
 20
0.0
 11
0.0
 21
0.0
 12
0.0
 22
0.0
 32
0.0
 14
0.0
 24
0.0
 34
0.0
 15
0.0
 25
0.0
 35
0.0
146
0.0
 13
0.0
 23
0.0
 33
0.0
 16
1.0
 26
0.0
 36
0.0
 17
0.0
 27
1.0
 37
0.0
 76
     0
330
23
  0
LAYOUT
  5
22
102
{ACAD_REACTORS
330
1A
102
}
330
1A
100
AcDbPlotSettings
  1

  2
none_device
  4
Letter_(8.50_x_11.00_Inches)
  6

 40
6.35
 41
6.35
 42
6.35000508
 43
6.35000508
 44
215.9
 45
279.4
 46
0.0
 47
0.0
 48
0.0
 49
0.0
140
0.0
141
0.0
142
1.0
143
1.0
 70
  1712
 72
     1
 73
     0
 74
     0
  7

 75
     0
147
1.0
148
0.0
149
0.0
100
AcDbLayout
  1
Model
 70
     1
 71
     0
 10
0.0
 20
0.0
 11
279.4
 21
215.9
 12
0.0
 22
0.0
 32
0.0
 14
0.0
 24
0.0
 34
0.0
 15
279.4
 25
215.9
 35
0.0
146
0.0
 13
0.0
 23
0.0
 33
0.0
 16
1.0
 26
0.0
 36
0.0
 17
0.0
 27
1.0
 37
0.0
 76
     0
330
1F
331
29
  0
MLINESTYLE
  5
18
102
{ACAD_REACTORS
330
17
102
}
330
17
100
AcDbMlineStyle
  2
Standard
 70
     0
  3

 62
   256
 51
90.0
 52
90.0
 71
     2
 49
0.5
 62
   256
  6
BYLAYER
 49
-0.5
 62
   256
  6
BYLAYER
  0
ACDBPLACEHOLDER
  5
F
102
{ACAD_REACTORS
330
E
102
}
330
E
  0
SCALE
  5
48
102
{ACAD_REACTORS
330
47
102
}
330
47
100
AcDbScale
 70
     0
300
1:1
140
1.0
141
1.0
290
     1
  0
SCALE
  5
49
102
{ACAD_REACTORS
330
47
102
}
330
47
100
AcDbScale
 70
     0
300
1:2
140
1.0
141
2.0
290
     0
  0
SCALE
  5
4A
102
{ACAD_REACTORS
330
47
102
}
330
47
100
AcDbScale
 70
     0
300
1:4
140
1.0
141
4.0
290
     0
  0
SCALE
  5
4B
102
{ACAD_REACTORS
330
47
102
}
330
47
100
AcDbScale
 70
     0
300
1:5
140
1.0
141
5.0
290
     0
  0
SCALE
  5
4C
102
{ACAD_REACTORS
330
47
102
}
330
47
100
AcDbScale
 70
     0
300
1:8
140
1.0
141
8.0
290
     0
  0
SCALE
  5
4D
102
{ACAD_REACTORS
330
47
102
}
330
47
100
AcDbScale
 70
     0
300
1:10
140
1.0
141
10.0
290
     0
  0
SCALE
  5
4E
102
{ACAD_REACTORS
330
47
102
}
330
47
100
AcDbScale
 70
     0
300
1:16
140
1.0
141
16.0
290
     0
  0
SCALE
  5
4F
102
{ACAD_REACTORS
330
47
102
}
330
47
100
AcDbScale
 70
     0
300
1:20
140
1.0
141
20.0
290
     0
  0
SCALE
  5
50
102
{ACAD_REACTORS
330
47
102
}
330
47
100
AcDbScale
 70
     0
300
1:30
140
1.0
141
30.0
290
     0
  0
SCALE
  5
51
102
{ACAD_REACTORS
330
47
102
}
330
47
100
AcDbScale
 70
     0
300
1:40
140
1.0
141
40.0
290
     0
  0
SCALE
  5
52
102
{ACAD_REACTORS
330
47
102
}
330
47
100
AcDbScale
 70
     0
300
1:50
140
1.0
141
50.0
290
     0
  0
SCALE
  5
53
102
{ACAD_REACTORS
330
47
102
}
330
47
100
AcDbScale
 70
     0
300
1:100
140
1.0
141
100.0
290
     0
  0
SCALE
  5
54
102
{ACAD_REACTORS
330
47
102
}
330
47
100
AcDbScale
 70
     0
300
2:1
140
2.0
141
1.0
290
     0
  0
SCALE
  5
55
102
{ACAD_REACTORS
330
47
102
}
330
47
100
AcDbScale
 70
     0
300
4:1
140
4.0
141
1.0
290
     0
  0
SCALE
  5
56
102
{ACAD_REACTORS
330
47
102
}
330
47
100
AcDbScale
 70
     0
300
8:1
140
8.0
141
1.0
290
     0
  0
SCALE
  5
57
102
{ACAD_REACTORS
330
47
102
}
330
47
100
AcDbScale
 70
     0
300
10:1
140
10.0
141
1.0
290
     0
  0
SCALE
  5
58
102
{ACAD_REACTORS
330
47
102
}
330
47
100
AcDbScale
 70
     0
300
100:1
140
100.0
141
1.0
290
     0
  0
SCALE
  5
59
102
{ACAD_REACTORS
330
47
102
}
330
47
100
AcDbScale
 70
     0
300
1/128" = 1'-0"
140
0.0078125
141
12.0
290
     0
  0
SCALE
  5
5A
102
{ACAD_REACTORS
330
47
102
}
330
47
100
AcDbScale
 70
     0
300
1/64" = 1'-0"
140
0.015625
141
12.0
290
     0
  0
SCALE
  5
5B
102
{ACAD_REACTORS
330
47
102
}
330
47
100
AcDbScale
 70
     0
300
1/32" = 1'-0"
140
0.03125
141
12.0
290
     0
  0
SCALE
  5
5C
102
{ACAD_REACTORS
330
47
102
}
330
47
100
AcDbScale
 70
     0
300
1/16" = 1'-0"
140
0.0625
141
12.0
290
     0
  0
SCALE
  5
5D
102
{ACAD_REACTORS
330
47
102
}
330
47
100
AcDbScale
 70
     0
300
3/32" = 1'-0"
140
0.09375
141
12.0
290
     0
  0
SCALE
  5
5E
102
{ACAD_REACTORS
330
47
102
}
330
47
100
AcDbScale
 70
     0
300
1/8" = 1'-0"
140
0.125
141
12.0
290
     0
  0
SCALE
  5
5F
102
{ACAD_REACTORS
330
47
102
}
330
47
100
AcDbScale
 70
     0
300
3/16" = 1'-0"
140
0.1875
141
12.0
290
     0
  0
SCALE
  5
60
102
{ACAD_REACTORS
330
47
102
}
330
47
100
AcDbScale
 70
     0
300
1/4" = 1'-0"
140
0.25
141
12.0
290
     0
  0
SCALE
  5
61
102
{ACAD_REACTORS
330
47
102
}
330
47
100
AcDbScale
 70
     0
300
3/8" = 1'-0"
140
0.375
141
12.0
290
     0
  0
SCALE
  5
62
102
{ACAD_REACTORS
330
47
102
}
330
47
100
AcDbScale
 70
     0
300
1/2" = 1'-0"
140
0.5
141
12.0
290
     0
  0
SCALE
  5
63
102
{ACAD_REACTORS
330
47
102
}
330
47
100
AcDbScale
 70
     0
300
3/4" = 1'-0"
140
0.75
141
12.0
290
     0
  0
SCALE
  5
64
102
{ACAD_REACTORS
330
47
102
}
330
47
100
AcDbScale
 70
     0
300
1" = 1'-0"
140
1.0
141
12.0
290
     0
  0
SCALE
  5
65
102
{ACAD_REACTORS
330
47
102
}
330
47
100
AcDbScale
 70
     0
300
1-1/2" = 1'-0"
140
1.5
141
12.0
290
     0
  0
SCALE
  5
66
102
{ACAD_REACTORS
330
47
102
}
330
47
100
AcDbScale
 70
     0
300
3" = 1'-0"
140
3.0
141
12.0
290
     0
  0
SCALE
  5
67
102
{ACAD_REACTORS
330
47
102
}
330
47
100
AcDbScale
 70
     0
300
6" = 1'-0"
140
6.0
141
12.0
290
     0
  0
SCALE
  5
68
102
{ACAD_REACTORS
330
47
102
}
330
47
100
AcDbScale
 70
     0
300
1'-0" = 1'-0"
140
12.0
141
12.0
290
     0
  0
ENDSEC
  0
EOF
