  0
SECTION
  2
HEADER
  9
$ACADVER
  1
AC1015
  9
$ACADMAINTVER
 70
     6
  9
$DWGCODEPAGE
  3
ANSI_1252
  9
$INSBASE
 10
0.0
 20
0.0
 30
0.0
  9
$EXTMIN
 10
0.0
 20
0.0
 30
0.0
  9
$EXTMAX
 10
279.4
 20
215.9
 30
0.0
  9
$LIMMIN
 10
0.0
 20
0.0
  9
$LIMMAX
 10
279.4
 20
215.9
  9
$ORTHOMODE
 70
     0
  9
$REGENMODE
 70
     1
  9
$FILLMODE
 70
     1
  9
$QTEXTMODE
 70
     0
  9
$MIRRTEXT
 70
     1
  9
$LTSCALE
 40
1.0
  9
$ATTMODE
 70
     1
  9
$TEXTSIZE
 40
2.8222222222
  9
$TRACEWID
 40
1.0
  9
$TEXTSTYLE
  7
Standard
  9
$CLAYER
  8
0
  9
$CELTYPE
  6
ByLayer
  9
$CECOLOR
 62
   256
  9
$CELTSCALE
 40
1.0
  9
$DISPSILH
 70
     0
  9
$DIMSCALE
 40
1.0
  9
$DIMASZ
 40
3.175
  9
$DIMEXO
 40
1.27
  9
$DIMDLI
 40
3.75
  9
$DIMRND
 40
0.0
  9
$DIMDLE
 40
0.0
  9
$DIMEXE
 40
1.778
  9
$DIMTP
 40
0.0
  9
$DIMTM
 40
0.0
  9
$DIMTXT
 40
2.8222222222
  9
$DIMCEN
 40
2.5
  9
$DIMTSZ
 40
0.0
  9
$DIMTOL
 70
     0
  9
$DIMLIM
 70
     0
  9
$DIMTIH
 70
     1
  9
$DIMTOH
 70
     1
  9
$DIMSE1
 70
     0
  9
$DIMSE2
 70
     0
  9
$DIMTAD
 70
     1
  9
$DIMZIN
 70
     1
  9
$DIMBLK
  1

  9
$DIMASO
 70
     1
  9
$DIMSHO
 70
     1
  9
$DIMPOST
  1

  9
$DIMAPOST
  1

  9
$DIMALT
 70
     0
  9
$DIMALTD
 70
     3
  9
$DIMALTF
 40
0.0393700787
  9
$DIMLFAC
 40
1.0
  9
$DIMTOFL
 70
     1
  9
$DIMTVP
 40
0.0
  9
$DIMTIX
 70
     0
  9
$DIMSOXD
 70
     0
  9
$DIMSAH
 70
     0
  9
$DIMBLK1
  1

  9
$DIMBLK2
  1

  9
$DIMSTYLE
  2
ISO-25
  9
$DIMCLRD
 70
     0
  9
$DIMCLRE
 70
     0
  9
$DIMCLRT
 70
     0
  9
$DIMTFAC
 40
1.0
  9
$DIMGAP
 40
2.54
  9
$DIMJUST
 70
     0
  9
$DIMSD1
 70
     0
  9
$DIMSD2
 70
     0
  9
$DIMTOLJ
 70
     0
  9
$DIMTZIN
 70
     1
  9
$DIMALTZ
 70
     0
  9
$DIMALTTZ
 70
     0
  9
$DIMUPT
 70
     0
  9
$DIMDEC
 70
     1
  9
$DIMTDEC
 70
     1
  9
$DIMALTU
 70
     2
  9
$DIMALTTD
 70
     3
  9
$DIMTXSTY
  7
Standard
  9
$DIMAUNIT
 70
     0
  9
$DIMADEC
 70
     0
  9
$DIMALTRND
 40
0.0
  9
$DIMAZIN
 70
     0
  9
$DIMDSEP
 70
    44
  9
$DIMATFIT
 70
     3
  9
$DIMFRAC
 70
     0
  9
$DIMLDRBLK
  1

  9
$DIMLUNIT
 70
     2
  9
$DIMLWD
 70
    -2
  9
$DIMLWE
 70
    -2
  9
$DIMTMOVE
 70
     0
  9
$LUNITS
 70
     2
  9
$LUPREC
 70
     1
  9
$SKETCHINC
 40
1.0
  9
$FILLETRAD
 40
10.0
  9
$AUNITS
 70
     0
  9
$AUPREC
 70
     0
  9
$MENU
  1
.
  9
$ELEVATION
 40
0.0
  9
$PELEVATION
 40
0.0
  9
$THICKNESS
 40
0.0
  9
$LIMCHECK
 70
     0
  9
$CHAMFERA
 40
10.0
  9
$CHAMFERB
 40
10.0
  9
$CHAMFERC
 40
20.0
  9
$CHAMFERD
 40
0.0
  9
$SKPOLY
 70
     0
  9
$TDCREATE
 40
2455757.482471447
  9
$TDUCREATE
 40
2455757.649138113
  9
$TDUPDATE
 40
2455757.482471458
  9
$TDUUPDATE
 40
2455757.649138125
  9
$TDINDWG
 40
0.0000000116
  9
$TDUSRTIMER
 40
0.0000000116
  9
$USRTIMER
 70
     1
  9
$ANGBASE
 50
0.0
  9
$ANGDIR
 70
     0
  9
$PDMODE
 70
     0
  9
$PDSIZE
 40
-1.0
  9
$PLINEWID
 40
0.0
  9
$SPLFRAME
 70
     0
  9
$SPLINETYPE
 70
     6
  9
$SPLINESEGS
 70
     8
  9
$HANDSEED
  5
222
  9
$SURFTAB1
 70
     6
  9
$SURFTAB2
 70
     6
  9
$SURFTYPE
 70
     6
  9
$SURFU
 70
     6
  9
$SURFV
 70
     6
  9
$UCSBASE
  2

  9
$UCSNAME
  2

  9
$UCSORG
 10
0.0
 20
0.0
 30
0.0
  9
$UCSXDIR
 10
1.0
 20
0.0
 30
0.0
  9
$UCSYDIR
 10
0.0
 20
1.0
 30
0.0
  9
$UCSORTHOREF
  2

  9
$UCSORTHOVIEW
 70
     0
  9
$UCSORGTOP
 10
0.0
 20
0.0
 30
0.0
  9
$UCSORGBOTTOM
 10
0.0
 20
0.0
 30
0.0
  9
$UCSORGLEFT
 10
0.0
 20
0.0
 30
0.0
  9
$UCSORGRIGHT
 10
0.0
 20
0.0
 30
0.0
  9
$UCSORGFRONT
 10
0.0
 20
0.0
 30
0.0
  9
$UCSORGBACK
 10
0.0
 20
0.0
 30
0.0
  9
$PUCSBASE
  2

  9
$PUCSNAME
  2

  9
$PUCSORG
 10
0.0
 20
0.0
 30
0.0
  9
$PUCSXDIR
 10
1.0
 20
0.0
 30
0.0
  9
$PUCSYDIR
 10
0.0
 20
1.0
 30
0.0
  9
$PUCSORTHOREF
  2

  9
$PUCSORTHOVIEW
 70
     0
  9
$PUCSORGTOP
 10
0.0
 20
0.0
 30
0.0
  9
$PUCSORGBOTTOM
 10
0.0
 20
0.0
 30
0.0
  9
$PUCSORGLEFT
 10
0.0
 20
0.0
 30
0.0
  9
$PUCSORGRIGHT
 10
0.0
 20
0.0
 30
0.0
  9
$PUCSORGFRONT
 10
0.0
 20
0.0
 30
0.0
  9
$PUCSORGBACK
 10
0.0
 20
0.0
 30
0.0
  9
$USERI1
 70
     0
  9
$USERI2
 70
     0
  9
$USERI3
 70
     0
  9
$USERI4
 70
     0
  9
$USERI5
 70
     0
  9
$USERR1
 40
0.0
  9
$USERR2
 40
0.0
  9
$USERR3
 40
0.0
  9
$USERR4
 40
0.0
  9
$USERR5
 40
0.0
  9
$WORLDVIEW
 70
     1
  9
$SHADEDGE
 70
     3
  9
$SHADEDIF
 70
    70
  9
$TILEMODE
 70
     1
  9
$MAXACTVP
 70
    64
  9
$PINSBASE
 10
0.0
 20
0.0
 30
0.0
  9
$PLIMCHECK
 70
     0
  9
$PEXTMIN
 10
1.0000000000E+20
 20
1.0000000000E+20
 30
1.0000000000E+20
  9
$PEXTMAX
 10
-1.0000000000E+20
 20
-1.0000000000E+20
 30
-1.0000000000E+20
  9
$PLIMMIN
 10
0.0
 20
0.0
  9
$PLIMMAX
 10
420.0
 20
297.0
  9
$UNITMODE
 70
     0
  9
$VISRETAIN
 70
     1
  9
$PLINEGEN
 70
     0
  9
$PSLTSCALE
 70
     1
  9
$TREEDEPTH
 70
  3020
  9
$CMLSTYLE
  2
Standard
  9
$CMLJUST
 70
     0
  9
$CMLSCALE
 40
20.0
  9
$PROXYGRAPHICS
 70
     1
  9
$MEASUREMENT
 70
     1
  9
$CELWEIGHT
370
    -1
  9
$ENDCAPS
280
     0
  9
$JOINSTYLE
280
     0
  9
$LWDISPLAY
290
     1
  9
$INSUNITS
 70
     4
  9
$HYPERLINKBASE
  1

  9
$STYLESHEET
  1

  9
$XEDIT
290
     1
  9
$CEPSNTYPE
380
     0
  9
$PSTYLEMODE
290
     1
  9
$FINGERPRINTGUID
  2
{8B3634BC-FF37-41FD-9B57-3974D1FEC77B}
  9
$VERSIONGUID
  2
{FAEB1C32-E019-11D5-929B-00C0DF256EC4}
  9
$EXTNAMES
290
     1
  9
$PSVPSCALE
 40
0.0
  9
$OLESTARTUP
290
     0
  0
ENDSEC
  0
SECTION
  2
CLASSES
  0
CLASS
  1
ACDBDICTIONARYWDFLT
  2
AcDbDictionaryWithDefault
  3
ObjectDBX Classes
 90
        0
280
     0
281
     0
  0
CLASS
  1
VISUALSTYLE
  2
AcDbVisualStyle
  3
ObjectDBX Classes
 90
     4095
280
     0
281
     0
  0
CLASS
  1
MATERIAL
  2
AcDbMaterial
  3
ObjectDBX Classes
 90
     1153
280
     0
281
     0
  0
CLASS
  1
ACDBPLACEHOLDER
  2
AcDbPlaceHolder
  3
ObjectDBX Classes
 90
        0
280
     0
281
     0
  0
CLASS
  1
LAYOUT
  2
AcDbLayout
  3
ObjectDBX Classes
 90
        0
280
     0
281
     0
  0
ENDSEC
  0
SECTION
  2
TABLES
  0
TABLE
  2
VPORT
  5
8
330
0
100
AcDbSymbolTable
 70
     1
  0
VPORT
  5
29
330
8
100
AcDbSymbolTableRecord
100
AcDbViewportTableRecord
  2
*Active
 70
     0
 10
0.0
 20
0.0
 11
1.0
 21
1.0
 12
139.7
 22
107.95
 13
0.0
 23
0.0
 14
10.0
 24
10.0
 15
10.0
 25
10.0
 16
0.0
 26
0.0
 36
1.0
 17
0.0
 27
0.0
 37
0.0
 40
215.9
 41
1.2941176471
 42
50.0
 43
0.0
 44
0.0
 50
0.0
 51
0.0
 71
     0
 72
  2000
 73
     1
 74
     3
 75
     0
 76
     0
 77
     0
 78
     0
281
     0
 65
     1
110
0.0
120
0.0
130
0.0
111
1.0
121
0.0
131
0.0
112
0.0
122
1.0
132
0.0
 79
     0
146
0.0
  0
ENDTAB
  0
TABLE
  2
LTYPE
  5
5
330
0
100
AcDbSymbolTable
 70
     6
  0
LTYPE
  5
14
330
5
100
AcDbSymbolTableRecord
100
AcDbLinetypeTableRecord
  2
ByBlock
 70
     0
  3

 72
    65
 73
     0
 40
0.0
  0
LTYPE
  5
15
330
5
100
AcDbSymbolTableRecord
100
AcDbLinetypeTableRecord
  2
ByLayer
 70
     0
  3

 72
    65
 73
     0
 40
0.0
  0
LTYPE
  5
16
330
5
100
AcDbSymbolTableRecord
100
AcDbLinetypeTableRecord
  2
Continuous
 70
     0
  3
Solid line
 72
    65
 73
     0
 40
0.0
  0
LTYPE
  5
3F
330
5
100
AcDbSymbolTableRecord
100
AcDbLinetypeTableRecord
  2
HIDDEN
 70
     0
  3
Hidden __ __ __ __ __ __ __ __ __ __ __ __ __ __
 72
    65
 73
     2
 40
1.905
 49
1.27
 74
     0
 49
-0.635
 74
     0
  0
LTYPE
  5
40
330
5
100
AcDbSymbolTableRecord
100
AcDbLinetypeTableRecord
  2
PHANTOM
 70
     0
  3
Phantom ______  __  __  ______  __  __  ______
 72
    65
 73
     6
 40
12.7
 49
6.35
 74
     0
 49
-1.27
 74
     0
 49
1.27
 74
     0
 49
-1.27
 74
     0
 49
1.27
 74
     0
 49
-1.27
 74
     0
  0
LTYPE
  5
41
330
5
100
AcDbSymbolTableRecord
100
AcDbLinetypeTableRecord
  2
CENTER
 70
     0
  3
Center ____ _ ____ _ ____ _ ____ _ ____ _ ____
 72
    65
 73
     4
 40
10.16
 49
6.35
 74
     0
 49
-1.27
 74
     0
 49
1.27
 74
     0
 49
-1.27
 74
     0
  0
LTYPE
  5
42
330
5
100
AcDbSymbolTableRecord
100
AcDbLinetypeTableRecord
  2
CENTERX2
 70
     0
  3
Center (2x) ________  __  ________  __  _____
 72
    65
 73
     4
 40
20.32
 49
12.7
 74
     0
 49
-2.54
 74
     0
 49
2.54
 74
     0
 49
-2.54
 74
     0
  0
LTYPE
  5
43
330
5
100
AcDbSymbolTableRecord
100
AcDbLinetypeTableRecord
  2
DOT2
 70
     0
  3
Dot (.5x) ........................................
 72
    65
 73
     2
 40
0.635
 49
0.0
 74
     0
 49
-0.635
 74
     0
  0
ENDTAB
  0
TABLE
  2
LAYER
  5
2
330
0
100
AcDbSymbolTable
 70
     2
  0
LAYER
  5
10
330
2
100
AcDbSymbolTableRecord
100
AcDbLayerTableRecord
  2
0
 70
     0
 62
     7
  6
Continuous
370
    -3
390
F
  0
LAYER
  5
44
330
2
100
AcDbSymbolTableRecord
100
AcDbLayerTableRecord
  2
FORMAT
 70
     0
 62
     7
  6
Continuous
370
    -3
390
F
  0
ENDTAB
  0
TABLE
  2
STYLE
  5
3
330
0
100
AcDbSymbolTable
 70
     5
  0
STYLE
  5
11
330
3
100
AcDbSymbolTableRecord
100
AcDbTextStyleTableRecord
  2
Standard
 70
     0
 40
0.0
 41
1.0
 50
0.0
 71
     0
 42
2.5
  3
txt
  4

  0
STYLE
  5
6B
330
3
100
AcDbSymbolTableRecord
100
AcDbTextStyleTableRecord
  2
SLDTEXTSTYLE0
 70
     0
 40
0.0
 41
0.75
 50
0.0
 71
     0
 42
0.2
  3
TXT
  4

  0
STYLE
  5
75
330
3
100
AcDbSymbolTableRecord
100
AcDbTextStyleTableRecord
  2
SLDTEXTSTYLE1
 70
     0
 40
0.0
 41
0.6
 50
0.0
 71
     0
 42
0.2
  3
TXT
  4

  0
STYLE
  5
9E
330
3
100
AcDbSymbolTableRecord
100
AcDbTextStyleTableRecord
  2
SLDTEXTSTYLE2
 70
     0
 40
0.0
 41
0.75
 50
0.0
 71
     0
 42
0.2
  3
TXT
  4
bigfont
  0
STYLE
  5
B2
330
3
100
AcDbSymbolTableRecord
100
AcDbTextStyleTableRecord
  2
SLDTEXTSTYLE3
 70
     0
 40
0.0
 41
0.7
 50
0.0
 71
     0
 42
0.2
  3
TXT
  4

  0
ENDTAB
  0
TABLE
  2
VIEW
  5
6
330
0
100
AcDbSymbolTable
 70
     0
  0
ENDTAB
  0
TABLE
  2
UCS
  5
7
330
0
100
AcDbSymbolTable
 70
     0
  0
ENDTAB
  0
TABLE
  2
APPID
  5
9
330
0
100
AcDbSymbolTable
 70
     1
  0
APPID
  5
12
330
9
100
AcDbSymbolTableRecord
100
AcDbRegAppTableRecord
  2
ACAD
 70
     0
  0
ENDTAB
  0
TABLE
  2
DIMSTYLE
  5
A
330
0
100
AcDbSymbolTable
 70
     4
100
AcDbDimStyleTable
  0
DIMSTYLE
105
27
330
A
100
AcDbSymbolTableRecord
100
AcDbDimStyleTableRecord
  2
ISO-25
 70
     0
 41
2.5
 42
0.625
 43
3.75
 44
1.25
 73
     0
 74
     0
 77
     1
 78
     8
140
2.5
141
2.5
143
0.0393700787
147
0.625
171
     3
172
     1
178
     0
271
     2
272
     2
274
     3
278
    44
283
     0
284
     8
340
11
  0
DIMSTYLE
105
1E9
102
{ACAD_REACTORS
330
1E8
102
}
330
A
100
AcDbSymbolTableRecord
100
AcDbDimStyleTableRecord
  2
SLDDIMSTYLE0
 70
     0
 41
3.175
 44
0.0
 45
0.000000001
 78
     4
 79
     1
140
2.1166666667
141
0.0
143
0.0393700787
147
0.5291666667
148
0.000000001
170
     1
173
     1
178
     0
271
     1
272
     1
276
     2
284
    12
340
6B
  0
DIMSTYLE
105
1FA
102
{ACAD_REACTORS
330
1F9
102
}
330
A
100
AcDbSymbolTableRecord
100
AcDbDimStyleTableRecord
  2
SLDDIMSTYLE1
 70
     0
 41
3.175
 44
0.0
 45
0.000000001
 78
    12
 79
     3
140
2.1166666667
143
0.0393700787
147
0.5291666667
148
0.000000001
170
     1
172
     1
173
     1
178
     0
271
     1
272
     1
276
     2
284
    12
289
     0
340
6B
  0
DIMSTYLE
105
20E
102
{ACAD_REACTORS
330
20D
102
}
330
A
100
AcDbSymbolTableRecord
100
AcDbDimStyleTableRecord
  2
SLDDIMSTYLE2
 70
     0
 41
3.175
 44
0.0
 45
0.000000001
 78
     4
 79
     1
140
2.1166666667
143
0.0393700787
147
0.5291666667
148
0.000000001
170
     1
172
     1
173
     1
178
     0
271
     1
272
     1
276
     2
284
    12
289
     0
340
6B
  0
ENDTAB
  0
TABLE
  2
BLOCK_RECORD
  5
1
330
0
100
AcDbSymbolTable
 70
    11
  0
BLOCK_RECORD
  5
1F
330
1
100
AcDbSymbolTableRecord
100
AcDbBlockTableRecord
  2
*Model_Space
340
22
  0
BLOCK_RECORD
  5
1B
330
1
100
AcDbSymbolTableRecord
100
AcDbBlockTableRecord
  2
*Paper_Space
340
1E
  0
BLOCK_RECORD
  5
23
330
1
100
AcDbSymbolTableRecord
100
AcDbBlockTableRecord
  2
*Paper_Space0
340
26
  0
BLOCK_RECORD
  5
45
330
1
100
AcDbSymbolTableRecord
100
AcDbBlockTableRecord
  2
Third Angle Projection Block
340
0
102
{BLKREFS
331
6A
102
}
  0
BLOCK_RECORD
  5
7B
330
1
100
AcDbSymbolTableRecord
100
AcDbBlockTableRecord
  2
SW_NOTE_0
340
0
102
{BLKREFS
331
80
102
}
  0
BLOCK_RECORD
  5
81
330
1
100
AcDbSymbolTableRecord
100
AcDbBlockTableRecord
  2
SW_NOTE_1
340
0
102
{BLKREFS
331
86
102
}
  0
BLOCK_RECORD
  5
88
330
1
100
AcDbSymbolTableRecord
100
AcDbBlockTableRecord
  2
SW_NOTE_2
340
0
102
{BLKREFS
331
8D
102
}
  0
BLOCK_RECORD
  5
8F
330
1
100
AcDbSymbolTableRecord
100
AcDbBlockTableRecord
  2
SW_NOTE_3
340
0
102
{BLKREFS
331
95
102
}
  0
BLOCK_RECORD
  5
96
330
1
100
AcDbSymbolTableRecord
100
AcDbBlockTableRecord
  2
SW_NOTE_4
340
0
102
{BLKREFS
331
B5
102
}
  0
BLOCK_RECORD
  5
BA
330
1
100
AcDbSymbolTableRecord
100
AcDbBlockTableRecord
  2
SW_CENTERMARKSYMBOL_0
340
0
102
{BLKREFS
331
C1
102
}
  0
BLOCK_RECORD
  5
1EA
330
1
100
AcDbSymbolTableRecord
100
AcDbBlockTableRecord
  2
*D8
340
0
  0
BLOCK_RECORD
  5
1FB
330
1
100
AcDbSymbolTableRecord
100
AcDbBlockTableRecord
  2
*D9
340
0
  0
BLOCK_RECORD
  5
20F
330
1
100
AcDbSymbolTableRecord
100
AcDbBlockTableRecord
  2
*D10
340
0
  0
ENDTAB
  0
ENDSEC
  0
SECTION
  2
BLOCKS
  0
BLOCK
  5
20
330
1F
100
AcDbEntity
  8
0
100
AcDbBlockBegin
  2
*Model_Space
 70
     0
 10
0.0
 20
0.0
 30
0.0
  3
*Model_Space
  1

  0
ENDBLK
  5
21
330
1F
100
AcDbEntity
  8
0
100
AcDbBlockEnd
  0
BLOCK
  5
1C
330
1B
100
AcDbEntity
 67
     1
  8
0
100
AcDbBlockBegin
  2
*Paper_Space
 70
     0
 10
0.0
 20
0.0
 30
0.0
  3
*Paper_Space
  1

  0
ENDBLK
  5
1D
330
1B
100
AcDbEntity
 67
     1
  8
0
100
AcDbBlockEnd
  0
BLOCK
  5
24
330
23
100
AcDbEntity
  8
0
100
AcDbBlockBegin
  2
*Paper_Space0
 70
     0
 10
0.0
 20
0.0
 30
0.0
  3
*Paper_Space0
  1

  0
ENDBLK
  5
25
330
23
100
AcDbEntity
  8
0
100
AcDbBlockEnd
  0
BLOCK
  5
46
330
45
100
AcDbEntity
  8
0
100
AcDbBlockBegin
  2
Third Angle Projection Block
 70
     0
 10
0.0
 20
0.0
 30
0.0
  3
Third Angle Projection Block
  1

  0
CIRCLE
  5
48
330
45
100
AcDbEntity
  8
0
  6
Continuous
 62
     7
370
    30
100
AcDbCircle
 10
101.4766388944
 20
18.9404083667
 30
0.0
 40
1.768227153674871
  0
CIRCLE
  5
49
330
45
100
AcDbEntity
  8
0
  6
Continuous
 62
     7
370
    30
100
AcDbCircle
 10
101.4766388944
 20
18.9404083667
 30
0.0
 40
3.901228248531818
  0
LINE
  5
4A
330
45
100
AcDbEntity
  8
0
  6
CENTERX2
 62
     7
370
     0
100
AcDbLine
 10
110.1367822585
 20
18.9404083667
 30
0.0
 11
119.4527334874
 21
18.9404083667
 31
0.0
  0
LINE
  5
4B
330
45
100
AcDbEntity
  8
0
  6
Continuous
 62
     7
370
    30
100
AcDbLine
 10
111.0016388944
 20
20.7086355204
 30
0.0
 11
111.0016388944
 21
17.172181213
 31
0.0
  0
LINE
  5
4C
330
45
100
AcDbEntity
  8
0
  6
Continuous
 62
     7
370
    30
100
AcDbLine
 10
111.0016388944
 20
17.172181213
 30
0.0
 11
118.6216388944
 21
15.1304083667
 31
0.0
  0
LINE
  5
4D
330
45
100
AcDbEntity
  8
0
  6
Continuous
 62
     7
370
    30
100
AcDbLine
 10
118.6216388944
 20
15.1304083667
 30
0.0
 11
118.6216388944
 21
22.7504083667
 31
0.0
  0
LINE
  5
4E
330
45
100
AcDbEntity
  8
0
  6
Continuous
 62
     7
370
    30
100
AcDbLine
 10
118.6216388944
 20
22.7504083667
 30
0.0
 11
111.0016388944
 21
20.7086355204
 31
0.0
  0
LINE
  5
4F
330
45
100
AcDbEntity
  8
0
  6
CENTERX2
 62
     7
370
     0
100
AcDbLine
 10
96.6025854619
 20
18.9404083667
 30
0.0
 11
106.3506923269
 21
18.9404083667
 31
0.0
  0
LINE
  5
50
330
45
100
AcDbEntity
  8
0
  6
CENTERX2
 62
     7
370
     0
100
AcDbLine
 10
101.4766388944
 20
23.8144617992
 30
0.0
 11
101.4766388944
 21
14.0663549342
 31
0.0
  0
POINT
  5
51
330
45
100
AcDbEntity
  8
0
  6
Continuous
 62
     7
370
     0
100
AcDbPoint
 10
101.4766388944
 20
18.9404083667
 30
0.0
  0
ENDBLK
  5
47
330
45
100
AcDbEntity
  8
0
100
AcDbBlockEnd
  0
BLOCK
  5
7C
330
7B
100
AcDbEntity
  8
0
100
AcDbBlockBegin
  2
SW_NOTE_0
 70
     0
 10
0.0
 20
0.0
 30
0.0
  3
SW_NOTE_0
  1

  0
MTEXT
  5
7E
330
7B
100
AcDbEntity
  8
0
  6
Continuous
 62
     0
370
     0
100
AcDbMText
 10
19.90725
 20
1.9645392354
 30
0.0
 40
1.524
 41
0.0
 71
     2
 72
     1
  1
VALUES IN PARENTHESIS ARE CALCULATED
  7
SLDTEXTSTYLE0
 73
     1
 44
1.0
  0
MTEXT
  5
7F
330
7B
100
AcDbEntity
  8
0
  6
Continuous
 62
     0
370
     0
100
AcDbMText
 10
19.8778795174
 20
-0.5594606586
 30
0.0
 40
1.524
 41
0.0
 71
     2
 72
     1
  1
AND MAY CONTAIN ROUNDOFF ERRORS
  7
SLDTEXTSTYLE0
 73
     1
 44
1.0
  0
ENDBLK
  5
7D
330
7B
100
AcDbEntity
  8
0
100
AcDbBlockEnd
  0
BLOCK
  5
82
330
81
100
AcDbEntity
  8
0
100
AcDbBlockBegin
  2
SW_NOTE_1
 70
     0
 10
0.0
 20
0.0
 30
0.0
  3
SW_NOTE_1
  1

  0
MTEXT
  5
84
330
81
100
AcDbEntity
  8
0
  6
Continuous
 62
     0
370
     0
100
AcDbMText
 10
0.0
 20
2.7285267159
 30
0.0
 40
2.1166666667
 41
0.0
 71
     1
 72
     1
  1
DRAWING
  7
SLDTEXTSTYLE0
 73
     1
 44
1.0
  0
MTEXT
  5
85
330
81
100
AcDbEntity
  8
0
  6
Continuous
 62
     0
370
     0
100
AcDbMText
 10
0.0
 20
-0.0936954723
 30
0.0
 40
2.1166666667
 41
0.0
 71
     1
 72
     1
  1
PROJECTION
  7
SLDTEXTSTYLE0
 73
     1
 44
1.0
  0
ENDBLK
  5
83
330
81
100
AcDbEntity
  8
0
100
AcDbBlockEnd
  0
BLOCK
  5
89
330
88
100
AcDbEntity
  8
0
100
AcDbBlockBegin
  2
SW_NOTE_2
 70
     0
 10
0.0
 20
0.0
 30
0.0
  3
SW_NOTE_2
  1

  0
MTEXT
  5
8B
330
88
100
AcDbEntity
  8
0
  6
Continuous
 62
     0
370
     0
100
AcDbMText
 10
25.052734375
 20
4.0927900738
 30
0.0
 40
3.175
 41
0.0
 71
     2
 72
     1
  1
FOR INFORMATION ONLY
  7
SLDTEXTSTYLE0
 73
     1
 44
1.0
  0
MTEXT
  5
8C
330
88
100
AcDbEntity
  8
0
  6
Continuous
 62
     0
370
     0
100
AcDbMText
 10
25.3768468589
 20
-0.1405432084
 30
0.0
 40
3.175
 41
0.0
 71
     2
 72
     1
  1
NOT FOR MANUFACTURING PURPOSES
  7
SLDTEXTSTYLE0
 73
     1
 44
1.0
  0
ENDBLK
  5
8A
330
88
100
AcDbEntity
  8
0
100
AcDbBlockEnd
  0
BLOCK
  5
90
330
8F
100
AcDbEntity
  8
0
100
AcDbBlockBegin
  2
SW_NOTE_3
 70
     0
 10
0.0
 20
0.0
 30
0.0
  3
SW_NOTE_3
  1

  0
MTEXT
  5
92
330
8F
100
AcDbEntity
  8
0
  6
Continuous
 62
     0
370
     0
100
AcDbMText
 10
1.9016927083
 20
3.4106583948
 30
0.0
 40
2.6458333333
 41
0.0
 71
     2
 72
     1
  1
%%c
  7
SLDTEXTSTYLE0
 73
     1
 44
1.0
  0
MTEXT
  5
93
330
8F
100
AcDbEntity
  8
0
  6
Continuous
 62
     0
370
     0
100
AcDbMText
 10
32.3124233385
 20
3.4106583948
 30
0.0
 40
2.6458333333
 41
0.0
 71
     2
 72
     1
  1
50.8mm, f= 150.0mm BROADBAND
  7
SLDTEXTSTYLE0
 73
     1
 44
1.0
  0
MTEXT
  5
94
330
8F
100
AcDbEntity
  8
0
  6
Continuous
 62
     0
370
     0
100
AcDbMText
 10
30.7935863187
 20
-0.1171193403
 30
0.0
 40
2.6458333333
 41
0.0
 71
     2
 72
     1
  1
MIRROR 750-1100nm
  7
SLDTEXTSTYLE0
 73
     1
 44
1.0
  0
ENDBLK
  5
91
330
8F
100
AcDbEntity
  8
0
100
AcDbBlockEnd
  0
BLOCK
  5
97
330
96
100
AcDbEntity
  8
0
100
AcDbBlockBegin
  2
SW_NOTE_4
 70
     0
 10
0.0
 20
0.0
 30
0.0
  3
SW_NOTE_4
  1

  0
MTEXT
  5
99
330
96
100
AcDbEntity
  8
0
  6
Continuous
 62
     0
370
     0
100
AcDbMText
 10
0.0
 20
3.0695925553
 30
0.0
 40
2.38125
 41
0.0
 71
     1
 72
     1
  1
NOTES/SPECIFICATIONS:
  7
SLDTEXTSTYLE0
 73
     1
 44
1.0
  0
MTEXT
  5
9A
330
96
100
AcDbEntity
  8
0
  6
Continuous
 62
     0
370
     0
100
AcDbMText
 10
9.9999997765
 20
-3.2804073679
 30
0.0
 40
2.38125
 41
0.0
 71
     1
 72
     1
  1
CLEAR APERTURE: >90% DIAMETER
  7
SLDTEXTSTYLE0
 73
     1
 44
1.0
  0
MTEXT
  5
9B
330
96
100
AcDbEntity
  8
0
  6
Continuous
 62
     0
370
     0
100
AcDbMText
 10
0.0
 20
-3.2804073679
 30
0.0
 40
2.38125
 41
0.0
 71
     1
 72
     1
  1
1.
  7
SLDTEXTSTYLE0
 73
     1
 44
1.0
  0
MTEXT
  5
9C
330
96
100
AcDbEntity
  8
0
  6
Continuous
 62
     0
370
     0
100
AcDbMText
 10
9.9999997765
 20
-6.5976282029
 30
0.0
 40
2.38125
 41
0.0
 71
     1
 72
     1
  1
SURFACE ACCURACY
  7
SLDTEXTSTYLE0
 73
     1
 44
1.0
  0
MTEXT
  5
9D
330
96
100
AcDbEntity
  8
0
  6
Continuous
 62
     0
370
     0
100
AcDbMText
 10
42.9582651705
 20
-6.6891910621
 30
0.0
 40
2.286
 41
0.0
 71
     1
 72
     1
  1
:
  7
SLDTEXTSTYLE0
 73
     1
 44
1.0
  0
MTEXT
  5
9F
330
96
100
AcDbEntity
  8
0
  6
Continuous
 62
     0
370
     0
100
AcDbMText
 10
44.6957833081
 20
-6.5976282029
 30
0.0
 40
2.38125
 41
0.0
 71
     1
 72
     1
  1
\M+183C9/
  7
SLDTEXTSTYLE2
 73
     1
 44
1.0
  0
MTEXT
  5
A0
330
96
100
AcDbEntity
  8
0
  6
Continuous
 62
     0
370
     0
100
AcDbMText
 10
47.7715637535
 20
-6.6891910621
 30
0.0
 40
2.286
 41
0.0
 71
     1
 72
     1
  1
4
  7
SLDTEXTSTYLE0
 73
     1
 44
1.0
  0
MTEXT
  5
A1
330
96
100
AcDbEntity
  8
0
  6
Continuous
 62
     0
370
     0
100
AcDbMText
 10
50.3052156419
 20
-6.5976282029
 30
0.0
 40
2.38125
 41
0.0
 71
     1
 72
     1
  1
AT 632.8nm OVER CLEAR APERTURE
  7
SLDTEXTSTYLE0
 73
     1
 44
1.0
  0
MTEXT
  5
A2
330
96
100
AcDbEntity
  8
0
  6
Continuous
 62
     0
370
     0
100
AcDbMText
 10
0.0
 20
-6.5976282029
 30
0.0
 40
2.38125
 41
0.0
 71
     1
 72
     1
  1
2.
  7
SLDTEXTSTYLE0
 73
     1
 44
1.0
  0
MTEXT
  5
A3
330
96
100
AcDbEntity
  8
0
  6
Continuous
 62
     0
370
     0
100
AcDbMText
 10
9.9999997765
 20
-9.7726281646
 30
0.0
 40
2.38125
 41
0.0
 71
     1
 72
     1
  1
SURFACE QUALITY: 20-10 SCRATCH-DIG
  7
SLDTEXTSTYLE0
 73
     1
 44
1.0
  0
MTEXT
  5
A4
330
96
100
AcDbEntity
  8
0
  6
Continuous
 62
     0
370
     0
100
AcDbMText
 10
0.0
 20
-9.7726281646
 30
0.0
 40
2.38125
 41
0.0
 71
     1
 72
     1
  1
3.
  7
SLDTEXTSTYLE0
 73
     1
 44
1.0
  0
MTEXT
  5
A5
330
96
100
AcDbEntity
  8
0
  6
Continuous
 62
     0
370
     0
100
AcDbMText
 10
9.9999997765
 20
-12.9476281262
 30
0.0
 40
2.38125
 41
0.0
 71
     1
 72
     1
  1
BACK SURFACE: FINE GROUND
  7
SLDTEXTSTYLE0
 73
     1
 44
1.0
  0
MTEXT
  5
A6
330
96
100
AcDbEntity
  8
0
  6
Continuous
 62
     0
370
     0
100
AcDbMText
 10
0.0
 20
-12.9476281262
 30
0.0
 40
2.38125
 41
0.0
 71
     1
 72
     1
  1
4.
  7
SLDTEXTSTYLE0
 73
     1
 44
1.0
  0
MTEXT
  5
A7
330
96
100
AcDbEntity
  8
0
  6
Continuous
 62
     0
370
     0
100
AcDbMText
 10
9.9999997765
 20
-16.1226280878
 30
0.0
 40
2.38125
 41
0.0
 71
     1
 72
     1
  1
THICKNESS TOLERANCE:
  7
SLDTEXTSTYLE0
 73
     1
 44
1.0
  0
MTEXT
  5
A8
330
96
100
AcDbEntity
  8
0
  6
Continuous
 62
     0
370
     0
100
AcDbMText
 10
46.741804108
 20
-16.1226280878
 30
0.0
 40
2.38125
 41
0.0
 71
     1
 72
     1
  1
%%p
  7
SLDTEXTSTYLE0
 73
     1
 44
1.0
  0
MTEXT
  5
A9
330
96
100
AcDbEntity
  8
0
  6
Continuous
 62
     0
370
     0
100
AcDbMText
 10
49.0119289607
 20
-16.1226280878
 30
0.0
 40
2.38125
 41
0.0
 71
     1
 72
     1
  1
0.2 mm
  7
SLDTEXTSTYLE0
 73
     1
 44
1.0
  0
MTEXT
  5
AA
330
96
100
AcDbEntity
  8
0
  6
Continuous
 62
     0
370
     0
100
AcDbMText
 10
0.0
 20
-16.1226280878
 30
0.0
 40
2.38125
 41
0.0
 71
     1
 72
     1
  1
5.
  7
SLDTEXTSTYLE0
 73
     1
 44
1.0
  0
MTEXT
  5
AB
330
96
100
AcDbEntity
  8
0
  6
Continuous
 62
     0
370
     0
100
AcDbMText
 10
9.9999997765
 20
-19.2976280495
 30
0.0
 40
2.38125
 41
0.0
 71
     1
 72
     1
  1
DIAMETER TOLERANCE: + 0.0/-0.2 mm
  7
SLDTEXTSTYLE0
 73
     1
 44
1.0
  0
MTEXT
  5
AC
330
96
100
AcDbEntity
  8
0
  6
Continuous
 62
     0
370
     0
100
AcDbMText
 10
0.0
 20
-19.2976280495
 30
0.0
 40
2.38125
 41
0.0
 71
     1
 72
     1
  1
6.
  7
SLDTEXTSTYLE0
 73
     1
 44
1.0
  0
MTEXT
  5
AD
330
96
100
AcDbEntity
  8
0
  6
Continuous
 62
     0
370
     0
100
AcDbMText
 10
9.9999997765
 20
-22.4726280111
 30
0.0
 40
2.38125
 41
0.0
 71
     1
 72
     1
  1
COATING: BROADBAND HR, DIELECTRIC
  7
SLDTEXTSTYLE0
 73
     1
 44
1.0
  0
MTEXT
  5
AE
330
96
100
AcDbEntity
  8
0
  6
Continuous
 62
     0
370
     0
100
AcDbMText
 10
0.0
 20
-22.4726280111
 30
0.0
 40
2.38125
 41
0.0
 71
     1
 72
     1
  1
7.
  7
SLDTEXTSTYLE0
 73
     1
 44
1.0
  0
MTEXT
  5
AF
330
96
100
AcDbEntity
  8
0
  6
Continuous
 62
     0
370
     0
100
AcDbMText
 10
10.0
 20
-25.6476279727
 30
0.0
 40
2.38125
 41
0.0
 71
     1
 72
     1
  1
Rs and Rp >99% OVER WAVELENGTH RANGE
  7
SLDTEXTSTYLE0
 73
     1
 44
1.0
  0
MTEXT
  5
B0
330
96
100
AcDbEntity
  8
0
  6
Continuous
 62
     0
370
     0
100
AcDbMText
 10
10.0
 20
-28.8226279343
 30
0.0
 40
2.38125
 41
0.0
 71
     1
 72
     1
  1
AOI: 0
  7
SLDTEXTSTYLE0
 73
     1
 44
1.0
  0
MTEXT
  5
B1
330
96
100
AcDbEntity
  8
0
  6
Continuous
 62
     0
370
     0
100
AcDbMText
 10
19.344201535
 20
-28.8226279343
 30
0.0
 40
2.38125
 41
0.0
 71
     1
 72
     1
  1
%%d
  7
SLDTEXTSTYLE0
 73
     1
 44
1.0
  0
MTEXT
  5
B3
330
96
100
AcDbEntity
  8
0
  6
Continuous
 62
     0
370
     0
100
AcDbMText
 10
21.7505871639
 20
-28.8226279343
 30
0.0
 40
2.38125
 41
0.0
 71
     1
 72
     1
  1
TO 45
  7
SLDTEXTSTYLE3
 73
     1
 44
1.0
  0
MTEXT
  5
B4
330
96
100
AcDbEntity
  8
0
  6
Continuous
 62
     0
370
     0
100
AcDbMText
 10
30.2459171414
 20
-28.8226279343
 30
0.0
 40
2.38125
 41
0.0
 71
     1
 72
     1
  1
%%d
  7
SLDTEXTSTYLE0
 73
     1
 44
1.0
  0
ENDBLK
  5
98
330
96
100
AcDbEntity
  8
0
100
AcDbBlockEnd
  0
BLOCK
  5
BB
330
BA
100
AcDbEntity
  8
0
100
AcDbBlockBegin
  2
SW_CENTERMARKSYMBOL_0
 70
     0
 10
0.0
 20
0.0
 30
0.0
  3
SW_CENTERMARKSYMBOL_0
  1

  0
LINE
  5
BD
330
BA
100
AcDbEntity
  8
0
  6
Continuous
 62
     0
370
     0
100
AcDbLine
 10
0.0
 20
0.0
 30
0.0
 11
0.0
 21
2.0
 31
0.0
  0
LINE
  5
BE
330
BA
100
AcDbEntity
  8
0
  6
Continuous
 62
     0
370
     0
100
AcDbLine
 10
0.0
 20
0.0
 30
0.0
 11
-2.0
 21
0.0
 31
0.0
  0
LINE
  5
BF
330
BA
100
AcDbEntity
  8
0
  6
Continuous
 62
     0
370
     0
100
AcDbLine
 10
0.0
 20
0.0
 30
0.0
 11
0.0
 21
-2.0
 31
0.0
  0
LINE
  5
C0
330
BA
100
AcDbEntity
  8
0
  6
Continuous
 62
     0
370
     0
100
AcDbLine
 10
0.0
 20
0.0
 30
0.0
 11
2.0
 21
0.0
 31
0.0
  0
ENDBLK
  5
BC
330
BA
100
AcDbEntity
  8
0
100
AcDbBlockEnd
  0
BLOCK
  5
1EB
330
1EA
100
AcDbEntity
  8
0
100
AcDbBlockBegin
  2
*D8
 70
     1
 10
0.0
 20
0.0
 30
0.0
  3
*D8
  1

  0
SOLID
  5
1ED
330
1EA
100
AcDbEntity
  8
0
  6
Continuous
 62
     7
370
     0
100
AcDbTrace
 10
133.489523893
 20
88.5372668991
 30
0.0
 11
136.628346716
 21
87.8397855117
 31
0.0
 12
136.6892733106
 22
88.8539570702
 32
0.0
 13
136.6892733106
 23
88.8539570702
 33
0.0
  0
LINE
  5
1EE
330
1EA
100
AcDbEntity
  8
0
  6
Continuous
 62
     7
370
     0
100
AcDbLine
 10
161.661310594
 20
85.2869520466
 30
0.0
 11
161.661310594
 21
82.428423517
 31
0.0
  0
LINE
  5
1EF
330
1EA
100
AcDbEntity
  8
0
  6
Continuous
 62
     7
370
     0
100
AcDbLine
 10
161.661310594
 20
82.428423517
 30
0.0
 11
162.0904911597
 21
82.428423517
 31
0.0
  0
LINE
  5
1F0
330
1EA
100
AcDbEntity
  8
0
  6
Continuous
 62
     7
370
     0
100
AcDbLine
 10
161.661310594
 20
85.2869520466
 30
0.0
 11
162.0904911597
 21
85.2869520466
 31
0.0
  0
LINE
  5
1F1
330
1EA
100
AcDbEntity
  8
0
  6
Continuous
 62
     7
370
     0
100
AcDbLine
 10
172.6986406729
 20
85.2869520466
 30
0.0
 11
172.6986406729
 21
82.428423517
 31
0.0
  0
LINE
  5
1F2
330
1EA
100
AcDbEntity
  8
0
  6
Continuous
 62
     7
370
     0
100
AcDbLine
 10
172.6986406729
 20
82.428423517
 30
0.0
 11
172.2694601072
 21
82.428423517
 31
0.0
  0
LINE
  5
1F3
330
1EA
100
AcDbEntity
  8
0
  6
Continuous
 62
     7
370
     0
100
AcDbLine
 10
172.6986406729
 20
85.2869520466
 30
0.0
 11
172.2694601072
 21
85.2869520466
 31
0.0
  0
LINE
  5
1F4
330
1EA
100
AcDbEntity
  8
0
  6
Continuous
 62
     7
370
     0
100
AcDbLine
 10
133.489523893
 20
88.5372668991
 30
0.0
 11
155.4054494625
 21
87.2206625225
 31
0.0
  0
LINE
  5
1F5
330
1EA
100
AcDbEntity
  8
0
  6
Continuous
 62
     7
370
     0
100
AcDbLine
 10
155.4054494625
 20
87.2206625225
 30
0.0
 11
159.2154494625
 21
87.2206625225
 31
0.0
  0
MTEXT
  5
1F6
330
1EA
100
AcDbEntity
  8
0
  6
Continuous
 62
     7
370
     0
100
AcDbMText
 10
160.8029494625
 20
88.2677017516
 30
0.0
 40
2.1166666667
 41
0.0
 71
     1
 72
     1
  1
R
  7
SLDTEXTSTYLE0
 73
     1
 44
1.0
  0
MTEXT
  5
1F7
330
1EA
100
AcDbEntity
  8
0
  6
Continuous
 62
     7
370
     0
100
AcDbMText
 10
162.5157567373
 20
88.2677017516
 30
0.0
 40
2.1166666667
 41
0.0
 71
     1
 72
     1
  1
300.0mm
  7
SLDTEXTSTYLE0
 73
     1
 44
1.0
  0
MTEXT
  5
1F8
330
1EA
100
AcDbEntity
  8
0
  6
Continuous
 62
     7
370
     0
100
AcDbMText
 10
162.5196717254
 20
84.9047270109
 30
0.0
 40
2.1166666667
 41
0.0
 71
     1
 72
     1
  1
11.81in
  7
SLDTEXTSTYLE0
 73
     1
 44
1.0
  0
ENDBLK
  5
1EC
330
1EA
100
AcDbEntity
  8
0
100
AcDbBlockEnd
  0
BLOCK
  5
1FC
330
1FB
100
AcDbEntity
  8
0
100
AcDbBlockBegin
  2
*D9
 70
     1
 10
0.0
 20
0.0
 30
0.0
  3
*D9
  1

  0
SOLID
  5
1FE
330
1FB
100
AcDbEntity
  8
0
  6
Continuous
 62
     7
370
     0
100
AcDbTrace
 10
143.0294180367
 20
153.9274031008
 30
0.0
 11
146.2044180367
 21
153.4194031008
 31
0.0
 12
146.2044180367
 22
154.4354031008
 32
0.0
 13
146.2044180367
 23
154.4354031008
 33
0.0
  0
SOLID
  5
1FF
330
1FB
100
AcDbEntity
  8
0
  6
Continuous
 62
     7
370
     0
100
AcDbTrace
 10
132.9690894885
 20
153.9274031008
 30
0.0
 11
129.7940894885
 21
154.4354031008
 31
0.0
 12
129.7940894885
 22
153.4194031008
 32
0.0
 13
129.7940894885
 23
153.4194031008
 33
0.0
  0
LINE
  5
200
330
1FB
100
AcDbEntity
  8
0
  6
Continuous
 62
     7
370
     0
100
AcDbLine
 10
149.9475918228
 20
153.6751799952
 30
0.0
 11
149.9475918228
 21
150.8166514656
 31
0.0
  0
LINE
  5
201
330
1FB
100
AcDbEntity
  8
0
  6
Continuous
 62
     7
370
     0
100
AcDbLine
 10
149.9475918228
 20
150.8166514656
 30
0.0
 11
150.3767723885
 21
150.8166514656
 31
0.0
  0
LINE
  5
202
330
1FB
100
AcDbEntity
  8
0
  6
Continuous
 62
     7
370
     0
100
AcDbLine
 10
149.9475918228
 20
153.6751799952
 30
0.0
 11
150.3767723885
 21
153.6751799952
 31
0.0
  0
LINE
  5
203
330
1FB
100
AcDbEntity
  8
0
  6
Continuous
 62
     7
370
     0
100
AcDbLine
 10
159.4208841731
 20
153.6751799952
 30
0.0
 11
159.4208841731
 21
150.8166514656
 31
0.0
  0
LINE
  5
204
330
1FB
100
AcDbEntity
  8
0
  6
Continuous
 62
     7
370
     0
100
AcDbLine
 10
159.4208841731
 20
150.8166514656
 30
0.0
 11
158.9917036073
 21
150.8166514656
 31
0.0
  0
LINE
  5
205
330
1FB
100
AcDbEntity
  8
0
  6
Continuous
 62
     7
370
     0
100
AcDbLine
 10
159.4208841731
 20
153.6751799952
 30
0.0
 11
158.9917036073
 21
153.6751799952
 31
0.0
  0
LINE
  5
206
330
1FB
100
AcDbEntity
  8
0
  6
Continuous
 62
     7
370
     0
100
AcDbLine
 10
143.0294180367
 20
132.9974031008
 30
0.0
 11
143.0294180367
 21
155.7054031008
 31
0.0
  0
LINE
  5
207
330
1FB
100
AcDbEntity
  8
0
  6
Continuous
 62
     7
370
     0
100
AcDbLine
 10
132.9690894885
 20
132.998054527
 30
0.0
 11
132.9690894885
 21
155.7054031008
 31
0.0
  0
LINE
  5
208
330
1FB
100
AcDbEntity
  8
0
  6
Continuous
 62
     7
370
     0
100
AcDbLine
 10
143.0294180367
 20
153.9274031008
 30
0.0
 11
147.0723054389
 21
153.9274031008
 31
0.0
  0
LINE
  5
209
330
1FB
100
AcDbEntity
  8
0
  6
Continuous
 62
     7
370
     0
100
AcDbLine
 10
132.9690894885
 20
153.9274031008
 30
0.0
 11
126.6190894885
 21
153.9274031008
 31
0.0
  0
MTEXT
  5
20A
330
1FB
100
AcDbEntity
  8
0
  6
Continuous
 62
     7
370
     0
100
AcDbMText
 10
149.3025975404
 20
156.6559297002
 30
0.0
 40
2.1166666667
 41
0.0
 71
     1
 72
     1
  1
10.1mm
  7
SLDTEXTSTYLE0
 73
     1
 44
1.0
  0
MTEXT
  5
20B
330
1FB
100
AcDbEntity
  8
0
  6
Continuous
 62
     7
370
     0
100
AcDbMText
 10
161.0729953045
 20
156.6559297002
 30
0.0
 40
2.1166666667
 41
0.0
 71
     1
 72
     1
  1
REF
  7
SLDTEXTSTYLE0
 73
     1
 44
1.0
  0
MTEXT
  5
20C
330
1FB
100
AcDbEntity
  8
0
  6
Continuous
 62
     7
370
     0
100
AcDbMText
 10
150.8059529542
 20
153.2929549595
 30
0.0
 40
2.1166666667
 41
0.0
 71
     1
 72
     1
  1
0.40in
  7
SLDTEXTSTYLE0
 73
     1
 44
1.0
  0
ENDBLK
  5
1FD
330
1FB
100
AcDbEntity
  8
0
100
AcDbBlockEnd
  0
BLOCK
  5
210
330
20F
100
AcDbEntity
  8
0
100
AcDbBlockBegin
  2
*D10
 70
     1
 10
0.0
 20
0.0
 30
0.0
  3
*D10
  1

  0
SOLID
  5
212
330
20F
100
AcDbEntity
  8
0
  6
Continuous
 62
     7
370
     0
100
AcDbTrace
 10
143.0294180367
 20
141.9274031008
 30
0.0
 11
146.2044180367
 21
141.4194031008
 31
0.0
 12
146.2044180367
 22
142.4354031008
 32
0.0
 13
146.2044180367
 23
142.4354031008
 33
0.0
  0
SOLID
  5
213
330
20F
100
AcDbEntity
  8
0
  6
Continuous
 62
     7
370
     0
100
AcDbTrace
 10
134.0294180367
 20
141.9274031008
 30
0.0
 11
130.8544180367
 21
142.4354031008
 31
0.0
 12
130.8544180367
 22
141.4194031008
 32
0.0
 13
130.8544180367
 23
141.4194031008
 33
0.0
  0
LINE
  5
214
330
20F
100
AcDbEntity
  8
0
  6
Continuous
 62
     7
370
     0
100
AcDbLine
 10
152.6342523767
 20
141.6751799952
 30
0.0
 11
152.6342523767
 21
138.8166514656
 31
0.0
  0
LINE
  5
215
330
20F
100
AcDbEntity
  8
0
  6
Continuous
 62
     7
370
     0
100
AcDbLine
 10
152.6342523767
 20
138.8166514656
 30
0.0
 11
153.0634329424
 21
138.8166514656
 31
0.0
  0
LINE
  5
216
330
20F
100
AcDbEntity
  8
0
  6
Continuous
 62
     7
370
     0
100
AcDbLine
 10
152.6342523767
 20
141.6751799952
 30
0.0
 11
153.0634329424
 21
141.6751799952
 31
0.0
  0
LINE
  5
217
330
20F
100
AcDbEntity
  8
0
  6
Continuous
 62
     7
370
     0
100
AcDbLine
 10
162.107544727
 20
141.6751799952
 30
0.0
 11
162.107544727
 21
138.8166514656
 31
0.0
  0
LINE
  5
218
330
20F
100
AcDbEntity
  8
0
  6
Continuous
 62
     7
370
     0
100
AcDbLine
 10
162.107544727
 20
138.8166514656
 30
0.0
 11
161.6783641613
 21
138.8166514656
 31
0.0
  0
LINE
  5
219
330
20F
100
AcDbEntity
  8
0
  6
Continuous
 62
     7
370
     0
100
AcDbLine
 10
162.107544727
 20
141.6751799952
 30
0.0
 11
161.6783641613
 21
141.6751799952
 31
0.0
  0
LINE
  5
21A
330
20F
100
AcDbEntity
  8
0
  6
Continuous
 62
     7
370
     0
100
AcDbLine
 10
143.0294180367
 20
132.9974031008
 30
0.0
 11
143.0294180367
 21
143.7054031008
 31
0.0
  0
LINE
  5
21B
330
20F
100
AcDbEntity
  8
0
  6
Continuous
 62
     7
370
     0
100
AcDbLine
 10
134.0294180367
 20
107.7974031008
 30
0.0
 11
134.0294180367
 21
143.7054031008
 31
0.0
  0
LINE
  5
21C
330
20F
100
AcDbEntity
  8
0
  6
Continuous
 62
     7
370
     0
100
AcDbLine
 10
143.0294180367
 20
141.9274031008
 30
0.0
 11
149.7589659928
 21
141.9274031008
 31
0.0
  0
LINE
  5
21D
330
20F
100
AcDbEntity
  8
0
  6
Continuous
 62
     7
370
     0
100
AcDbLine
 10
134.0294180367
 20
141.9274031008
 30
0.0
 11
127.6794180367
 21
141.9274031008
 31
0.0
  0
MTEXT
  5
21E
330
20F
100
AcDbEntity
  8
0
  6
Continuous
 62
     7
370
     0
100
AcDbMText
 10
152.7712769587
 20
144.6559297002
 30
0.0
 40
2.1166666667
 41
0.0
 71
     1
 72
     1
  1
9.0mm
  7
SLDTEXTSTYLE0
 73
     1
 44
1.0
  0
MTEXT
  5
21F
330
20F
100
AcDbEntity
  8
0
  6
Continuous
 62
     7
370
     0
100
AcDbMText
 10
153.4926135082
 20
141.2929549595
 30
0.0
 40
2.1166666667
 41
0.0
 71
     1
 72
     1
  1
0.35in
  7
SLDTEXTSTYLE0
 73
     1
 44
1.0
  0
ENDBLK
  5
211
330
20F
100
AcDbEntity
  8
0
100
AcDbBlockEnd
  0
ENDSEC
  0
SECTION
  2
ENTITIES
  0
LINE
  5
52
330
1F
100
AcDbEntity
  8
0
  6
Continuous
 62
     7
370
     0
100
AcDbLine
 10
1.5793501011
 20
214.6453799966
 30
0.0
 11
277.9892068491
 21
214.6453799966
 31
0.0
  0
LINE
  5
53
330
1F
100
AcDbEntity
  8
0
  6
Continuous
 62
     7
370
     0
100
AcDbLine
 10
1.5793501011
 20
214.6453799966
 30
0.0
 11
1.5793501011
 21
0.9031642596
 31
0.0
  0
LINE
  5
54
330
1F
100
AcDbEntity
  8
0
  6
Continuous
 62
     7
370
     0
100
AcDbLine
 10
277.9892068491
 20
0.9031642596
 30
0.0
 11
1.5793501011
 21
0.9031642596
 31
0.0
  0
LINE
  5
55
330
1F
100
AcDbEntity
  8
0
  6
Continuous
 62
     7
370
     0
100
AcDbLine
 10
277.9892068491
 20
0.9031642596
 30
0.0
 11
277.9892068491
 21
214.6453799966
 31
0.0
  0
LINE
  5
56
330
1F
100
AcDbEntity
  8
0
  6
Continuous
 62
     7
370
     0
100
AcDbLine
 10
215.7427640041
 20
12.2958890132
 30
0.0
 11
171.6327596684
 21
12.2958890132
 31
0.0
  0
LINE
  5
57
330
1F
100
AcDbEntity
  8
0
  6
Continuous
 62
     7
370
     0
100
AcDbLine
 10
171.6327596684
 20
12.2958890132
 30
0.0
 11
171.6327596684
 21
26.1661402506
 31
0.0
  0
LINE
  5
58
330
1F
100
AcDbEntity
  8
0
  6
Continuous
 62
     7
370
     0
100
AcDbLine
 10
171.6327596684
 20
0.9031642596
 30
0.0
 11
171.6327596684
 21
26.1661402506
 31
0.0
  0
LINE
  5
59
330
1F
100
AcDbEntity
  8
0
  6
Continuous
 62
     7
370
     0
100
AcDbLine
 10
215.7427640041
 20
17.1604579552
 30
0.0
 11
277.9892068491
 21
17.1604579552
 31
0.0
  0
LINE
  5
5A
330
1F
100
AcDbEntity
  8
0
  6
Continuous
 62
     7
370
     0
100
AcDbLine
 10
215.7427640041
 20
35.2394508358
 30
0.0
 11
215.7427640041
 21
0.9031642596
 31
0.0
  0
LINE
  5
5B
330
1F
100
AcDbEntity
  8
0
  6
Continuous
 62
     7
370
     0
100
AcDbLine
 10
215.7427640041
 20
26.1661402506
 30
0.0
 11
171.6327596684
 21
26.1661402506
 31
0.0
  0
LINE
  5
5C
330
1F
100
AcDbEntity
  8
0
  6
Continuous
 62
     7
370
     0
100
AcDbLine
 10
215.7427640041
 20
9.1409200612
 30
0.0
 11
277.9892068491
 21
9.1409200612
 31
0.0
  0
LINE
  5
5D
330
1F
100
AcDbEntity
  8
0
  6
Continuous
 62
     7
370
     0
100
AcDbLine
 10
215.7427640041
 20
16.9216824031
 30
0.0
 11
171.6327596684
 21
16.9216824031
 31
0.0
  0
LINE
  5
5E
330
1F
100
AcDbEntity
  8
0
  6
Continuous
 62
     7
370
     0
100
AcDbLine
 10
215.7427640041
 20
21.4874005542
 30
0.0
 11
171.6327596684
 21
21.4874005542
 31
0.0
  0
LINE
  5
5F
330
1F
100
AcDbEntity
  8
0
  6
Continuous
 62
     7
370
     0
100
AcDbLine
 10
186.1338100705
 20
26.1661402506
 30
0.0
 11
186.1338100705
 21
12.2958890132
 31
0.0
  0
LINE
  5
60
330
1F
100
AcDbEntity
  8
0
  6
Continuous
 62
     7
370
     0
100
AcDbLine
 10
198.2145906188
 20
26.1661402506
 30
0.0
 11
198.2145906188
 21
12.2958890132
 31
0.0
  0
LINE
  5
61
330
1F
100
AcDbEntity
  8
0
  6
Continuous
 62
     7
370
     0
100
AcDbLine
 10
253.7490408369
 20
9.1409200612
 30
0.0
 11
253.7490408369
 21
0.9031642596
 31
0.0
  0
LINE
  5
62
330
1F
100
AcDbEntity
  8
0
  6
Continuous
 62
     7
370
     0
100
AcDbLine
 10
171.6327596684
 20
12.2958890132
 30
0.0
 11
171.6327596684
 21
7.5627342528
 31
0.0
  0
LINE
  5
63
330
1F
100
AcDbEntity
  8
0
  6
Continuous
 62
     7
370
     0
100
AcDbLine
 10
171.6327596684
 20
7.5627342528
 30
0.0
 11
215.7427640041
 21
7.5627342528
 31
0.0
  0
LINE
  5
64
330
1F
100
AcDbEntity
  8
0
  6
Continuous
 62
     7
370
     0
100
AcDbLine
 10
171.6327596684
 20
7.5627342528
 30
0.0
 11
171.6327596684
 21
35.2394508358
 31
0.0
  0
LINE
  5
65
330
1F
100
AcDbEntity
  8
0
  6
Continuous
 62
     7
370
     0
100
AcDbLine
 10
171.6327596684
 20
35.2394508358
 30
0.0
 11
215.7427640041
 21
35.2394508358
 31
0.0
  0
LINE
  5
66
330
1F
100
AcDbEntity
  8
0
  6
Continuous
 62
     7
370
     0
100
AcDbLine
 10
270.1683598194
 20
17.1604579552
 30
0.0
 11
270.1683598194
 21
9.1409200612
 31
0.0
  0
LINE
  5
67
330
1F
100
AcDbEntity
  8
0
  6
Continuous
 62
     7
370
     0
100
AcDbLine
 10
215.7427640041
 20
35.2394508358
 30
0.0
 11
277.9892068491
 21
35.2394508358
 31
0.0
  0
LINE
  5
68
330
1F
100
AcDbEntity
  8
0
  6
Continuous
 62
     7
370
     0
100
AcDbLine
 10
277.9892068491
 20
35.2394508358
 30
0.0
 11
277.9892068491
 21
50.0331356147
 31
0.0
  0
LINE
  5
69
330
1F
100
AcDbEntity
  8
0
  6
Continuous
 62
     7
370
     0
100
AcDbLine
 10
215.7427640041
 20
24.8927335446
 30
0.0
 11
277.9892068491
 21
24.8927335446
 31
0.0
  0
INSERT
  5
6A
330
1F
100
AcDbEntity
  8
0
  6
Continuous
 62
     7
100
AcDbBlockReference
  2
Third Angle Projection Block
 10
117.7262204235
 20
15.5162339489
 30
0.0
 41
0.8
 42
0.8
 43
0.8
  0
MTEXT
  5
6C
330
1F
100
AcDbEntity
  8
0
  6
Continuous
 62
     7
370
     0
100
AcDbMText
 10
273.7514466724
 20
13.1125292762
 30
0.0
 40
3.175
 41
0.0
 71
     2
 72
     1
  1
A
  7
SLDTEXTSTYLE0
 73
     1
 44
1.0
  0
MTEXT
  5
6D
330
1F
100
AcDbEntity
  8
0
  6
Continuous
 62
     7
370
     0
100
AcDbMText
 10
234.6006100378
 20
5.1306563898
 30
0.0
 40
3.175
 41
0.0
 71
     2
 72
     1
  1
CM508-150-E03
  7
SLDTEXTSTYLE0
 73
     1
 44
1.0
  0
MTEXT
  5
6E
330
1F
100
AcDbEntity
  8
0
  6
Continuous
 62
     7
370
     0
100
AcDbMText
 10
216.4199766059
 20
16.8243178599
 30
0.0
 40
2.1166666667
 41
0.0
 71
     1
 72
     1
  1
MATERIAL
  7
SLDTEXTSTYLE0
 73
     1
 44
1.0
  0
MTEXT
  5
6F
330
1F
100
AcDbEntity
  8
0
  6
Continuous
 62
     7
370
     0
100
AcDbMText
 10
174.230946566
 20
20.054553926
 30
0.0
 40
1.8520833333
 41
0.0
 71
     1
 72
     1
  1
DRAWN
  7
SLDTEXTSTYLE0
 73
     1
 44
1.0
  0
MTEXT
  5
70
330
1F
100
AcDbEntity
  8
0
  6
Continuous
 62
     7
370
     0
100
AcDbMText
 10
172.3960124543
 20
15.5787169747
 30
0.0
 40
1.8520833333
 41
0.0
 71
     1
 72
     1
  1
APPROVAL
  7
SLDTEXTSTYLE0
 73
     1
 44
1.0
  0
MTEXT
  5
71
330
1F
100
AcDbEntity
  8
0
  6
Continuous
 62
     7
370
     0
100
AcDbMText
 10
271.321689486
 20
16.0237652193
 30
0.0
 40
2.1166666667
 41
0.0
 71
     1
 72
     1
  1
REV
  7
SLDTEXTSTYLE0
 73
     1
 44
1.0
  0
MTEXT
  5
72
330
1F
100
AcDbEntity
  8
0
  6
Continuous
 62
     7
370
     0
100
AcDbMText
 10
190.2958696448
 20
20.3177146903
 30
0.0
 40
2.1166666667
 41
0.0
 71
     1
 72
     1
  1
MG
  7
SLDTEXTSTYLE0
 73
     1
 44
1.0
  0
MTEXT
  5
73
330
1F
100
AcDbEntity
  8
0
  6
Continuous
 62
     7
370
     0
100
AcDbMText
 10
199.8662436873
 20
20.3177146903
 30
0.0
 40
2.1166666667
 41
0.0
 71
     1
 72
     1
  1
15/JUN/11
  7
SLDTEXTSTYLE0
 73
     1
 44
1.0
  0
MTEXT
  5
74
330
1F
100
AcDbEntity
  8
0
  6
Continuous
 62
     7
370
     0
100
AcDbMText
 10
203.6145073853
 20
24.8221395769
 30
0.0
 40
2.1166666667
 41
0.0
 71
     1
 72
     1
  1
DATE
  7
SLDTEXTSTYLE0
 73
     1
 44
1.0
  0
MTEXT
  5
76
330
1F
100
AcDbEntity
  8
0
  6
Continuous
 62
     7
370
     0
100
AcDbMText
 10
229.402906477
 20
27.7957480569
 30
0.0
 40
2.1166666667
 41
0.0
 71
     1
 72
     1
  1
w w w . t h o r  l a b s . c o m
  7
SLDTEXTSTYLE1
 73
     1
 44
1.0
  0
MTEXT
  5
77
330
1F
100
AcDbEntity
  8
0
  6
Continuous
 62
     7
370
     0
100
AcDbMText
 10
216.7004035316
 20
8.3494791871
 30
0.0
 40
2.1166666667
 41
0.0
 71
     1
 72
     1
  1
ITEM #
  7
SLDTEXTSTYLE0
 73
     1
 44
1.0
  0
MTEXT
  5
78
330
1F
100
AcDbEntity
  8
0
  6
Continuous
 62
     7
370
     0
100
AcDbMText
 10
254.5318000914
 20
8.3494791871
 30
0.0
 40
2.1166666667
 41
0.0
 71
     1
 72
     1
  1
APPROX WEIGHT
  7
SLDTEXTSTYLE0
 73
     1
 44
1.0
  0
MTEXT
  5
79
330
1F
100
AcDbEntity
  8
0
  6
Continuous
 62
     7
370
     0
100
AcDbMText
 10
243.7058359879
 20
13.1125292762
 30
0.0
 40
3.175
 41
0.0
 71
     2
 72
     1
  1
N-BK7
  7
SLDTEXTSTYLE0
 73
     1
 44
1.0
  0
MTEXT
  5
7A
330
1F
100
AcDbEntity
  8
0
  6
Continuous
 62
     7
370
     0
100
AcDbMText
 10
266.1678480997
 20
5.1306563898
 30
0.0
 40
3.175
 41
0.0
 71
     2
 72
     1
  1
0.05 kg
  7
SLDTEXTSTYLE0
 73
     1
 44
1.0
  0
INSERT
  5
80
330
1F
100
AcDbEntity
  8
0
  6
Continuous
 62
     7
370
     0
100
AcDbBlockReference
  2
SW_NOTE_0
 10
174.8430140051
 20
4.4558554801
 30
0.0
  0
INSERT
  5
86
330
1F
100
AcDbEntity
  8
0
  6
Continuous
 62
     7
370
     0
100
AcDbBlockReference
  2
SW_NOTE_1
 10
174.5483650337
 20
30.4835322715
 30
0.0
  0
MTEXT
  5
87
330
1F
100
AcDbEntity
  8
0
  6
Continuous
 62
     7
370
     0
100
AcDbMText
 10
187.9273588276
 20
24.8221395769
 30
0.0
 40
2.1166666667
 41
0.0
 71
     1
 72
     1
  1
NAME
  7
SLDTEXTSTYLE0
 73
     1
 44
1.0
  0
INSERT
  5
8D
330
1F
100
AcDbEntity
  8
0
  6
Continuous
 62
     7
370
     0
100
AcDbBlockReference
  2
SW_NOTE_2
 10
58.6204667508
 20
8.1776609732
 30
0.0
  0
MTEXT
  5
8E
330
1F
100
AcDbEntity
  8
0
  6
Continuous
 62
     7
370
     0
100
AcDbMText
 10
179.1174811218
 20
10.6680638482
 30
0.0
 40
1.5875
 41
0.0
 71
     1
 72
     1
  1
COPYRIGHT © 2010 BY THORLABS
  7
SLDTEXTSTYLE0
 73
     1
 44
1.0
  0
INSERT
  5
95
330
1F
100
AcDbEntity
  8
0
  6
Continuous
 62
     7
370
     0
100
AcDbBlockReference
  2
SW_NOTE_3
 10
216.0264972891
 20
20.5867261075
 30
0.0
  0
INSERT
  5
B5
330
1F
100
AcDbEntity
  8
0
  6
Continuous
 62
     7
370
     0
100
AcDbBlockReference
  2
SW_NOTE_4
 10
10.752047532
 20
52.5785051551
 30
0.0
  0
MTEXT
  5
B6
330
1F
100
AcDbEntity
  8
0
  6
Continuous
 62
     7
370
     0
100
AcDbMText
 10
199.9238357082
 20
15.7738905532
 30
0.0
 40
2.1166666667
 41
0.0
 71
     1
 72
     1
  1
13/JUL/11
  7
SLDTEXTSTYLE0
 73
     1
 44
1.0
  0
MTEXT
  5
B7
330
1F
100
AcDbEntity
  8
0
  6
Continuous
 62
     7
370
     0
100
AcDbMText
 10
190.3534616657
 20
15.7738905532
 30
0.0
 40
2.1166666667
 41
0.0
 71
     1
 72
     1
  1
PM
  7
SLDTEXTSTYLE0
 73
     1
 44
1.0
  0
CIRCLE
  5
B8
330
1F
100
AcDbEntity
  8
0
  6
Continuous
 62
     7
370
     0
100
AcDbCircle
 10
58.4797693327
 20
106.5274031008
 30
0.0
 40
25.39999999999999
  0
CIRCLE
  5
B9
330
1F
100
AcDbEntity
  8
0
  6
Continuous
 62
     7
370
     0
100
AcDbCircle
 10
58.4797693327
 20
106.5274031008
 30
0.0
 40
25.20065142620113
  0
INSERT
  5
C1
330
1F
100
AcDbEntity
  8
0
  6
Continuous
 62
     7
370
     0
100
AcDbBlockReference
  2
SW_CENTERMARKSYMBOL_0
 10
58.4797693327
 20
106.5274031008
 30
0.0
  0
LINE
  5
C2
330
1F
100
AcDbEntity
  8
0
  6
PHANTOM
 62
     7
370
    30
100
AcDbLine
 10
58.4797693327
 20
139.6244655023
 30
0.0
 11
58.4797693327
 21
74.2686995165
 31
0.0
  0
LINE
  5
C3
330
1F
100
AcDbEntity
  8
0
  6
Continuous
 62
     7
370
    30
100
AcDbLine
 10
58.4797693327
 20
139.6244655023
 30
0.0
 11
49.5897693327
 21
139.6244655023
 31
0.0
  0
SOLID
  5
C4
330
1F
100
AcDbEntity
  8
0
  6
Continuous
 62
     7
370
    30
100
AcDbTrace
 10
49.5897693327
 20
139.6244655023
 30
0.0
 11
53.3997693327
 21
138.9894655023
 31
0.0
 12
53.3997693327
 22
140.2594655023
 32
0.0
 13
53.3997693327
 23
140.2594655023
 33
0.0
  0
LINE
  5
C5
330
1F
100
AcDbEntity
  8
0
  6
Continuous
 62
     7
370
    30
100
AcDbLine
 10
58.4797693327
 20
74.2686995165
 30
0.0
 11
49.5897693327
 21
74.2686995165
 31
0.0
  0
SOLID
  5
C6
330
1F
100
AcDbEntity
  8
0
  6
Continuous
 62
     7
370
    30
100
AcDbTrace
 10
49.5897693327
 20
74.2686995165
 30
0.0
 11
53.3997693327
 21
73.6336995165
 31
0.0
 12
53.3997693327
 22
74.9036995165
 32
0.0
 13
53.3997693327
 23
74.9036995165
 33
0.0
  0
MTEXT
  5
C7
330
1F
100
AcDbEntity
  8
0
  6
Continuous
 62
     7
100
AcDbMText
 10
46.7543392327
 20
141.3739757901
 30
0.0
 40
2.6458333333
 41
0.0
 71
     1
 72
     1
  1
A
  7
SLDTEXTSTYLE0
 73
     1
 44
1.0
  0
MTEXT
  5
C8
330
1F
100
AcDbEntity
  8
0
  6
Continuous
 62
     7
100
AcDbMText
 10
46.7543392327
 20
76.0182098043
 30
0.0
 40
2.6458333333
 41
0.0
 71
     1
 72
     1
  1
A
  7
SLDTEXTSTYLE0
 73
     1
 44
1.0
  0
LINE
  5
C9
330
1F
100
AcDbEntity
  8
0
  6
Continuous
 62
     7
370
     0
100
AcDbLine
 10
221.7251420869
 20
182.5380825255
 30
0.0
 11
221.7360019919
 21
182.3974307077
 31
0.0
  0
LINE
  5
CA
330
1F
100
AcDbEntity
  8
0
  6
Continuous
 62
     7
370
     0
100
AcDbLine
 10
237.8198488038
 20
154.5363720446
 30
0.0
 11
237.9362194164
 21
154.4566302617
 31
0.0
  0
LINE
  5
CB
330
1F
100
AcDbEntity
  8
0
  6
Continuous
 62
     7
370
     0
100
AcDbLine
 10
233.7518015607
 20
200.0895704862
 30
0.0
 11
226.9089873922
 21
196.1392979506
 31
0.0
  0
LINE
  5
CC
330
1F
100
AcDbEntity
  8
0
  6
Continuous
 62
     7
370
     0
100
AcDbLine
 10
252.3069232011
 20
152.1440157417
 30
0.0
 11
259.1497373696
 21
156.0942882772
 31
0.0
  0
LINE
  5
CD
330
1F
100
AcDbEntity
  8
0
  6
Continuous
 62
     7
370
     0
100
AcDbLine
 10
264.4112817073
 20
167.7235463615
 30
0.0
 11
264.4112817073
 21
167.8868279839
 31
0.0
  0
LINE
  5
CE
330
1F
100
AcDbEntity
  8
0
  6
Continuous
 62
     7
370
     0
100
AcDbLine
 10
246.5950869248
 20
198.7487264957
 30
0.0
 11
246.4536885535
 21
198.8303805758
 31
0.0
  0
LWPOLYLINE
  5
CF
330
1F
100
AcDbEntity
  8
0
  6
Continuous
 62
     7
370
     0
100
AcDbPolyline
 90
       46
 70
   128
 43
0.0
 10
257.5684675388
 20
163.773273826
 10
257.5557569904
 20
163.000471473
 10
257.5176433358
 20
162.243438222
 10
257.4541805205
 20
161.5032455689
 10
257.365458369
 20
160.7809411738
 10
257.2516024577
 20
160.0775473776
 10
257.1127739368
 20
159.3940597557
 10
256.9491693025
 20
158.7314457083
 10
256.761020119
 20
158.0906430916
 10
256.5485926904
 20
157.4725588899
 10
256.3121876839
 20
156.8780679324
 10
256.0521397044
 20
156.3080116545
 10
255.7688168207
 20
155.7631969072
 10
255.4626200447
 20
155.2443948147
 10
255.1339827638
 20
154.7523396834
 10
254.7833701271
 20
154.2877279624
 10
254.4112783877
 20
153.8512172576
 10
254.0182341998
 20
153.4434254011
 10
253.6047938736
 20
153.0649295766
 10
253.1715425875
 20
152.7162655027
 10
252.7190935604
 20
152.3979266743
 10
252.2480871832
 20
152.1103636646
 10
251.7591901128
 20
151.8539834866
 10
251.2530943283
 20
151.6291490181
 10
250.7305161517
 20
151.4361784869
 10
250.192195234
 20
151.2753450213
 10
249.6388935082
 20
151.1468762631
 10
249.0713941112
 20
151.0509540454
 10
248.4905002747
 20
150.9877141355
 10
247.897034189
 20
150.9572460423
 10
247.2918358392
 20
150.95959289
 10
246.6757618156
 20
150.9947513569
 10
246.0496841023
 20
151.0626716801
 10
245.4144888422
 20
151.1632577261
 10
244.7710750832
 20
151.2963671265
 10
244.1203535054
 20
151.4618114798
 10
243.4632451327
 20
151.659356618
 10
242.8006800282
 20
151.8887229382
 10
242.133595979
 20
152.1495857979
 10
241.4629371677
 20
152.441575975
 10
240.7896528371
 20
152.7642801899
 10
240.1146959457
 20
153.1172416909
 10
239.4390218196
 20
153.4999609006
 10
238.7635868
 20
153.9118961227
 10
238.0893468896
 20
154.3524643088
 10
237.9362194164
 20
154.4566302617
  0
LWPOLYLINE
  5
D0
330
1F
100
AcDbEntity
  8
0
  6
Continuous
 62
     7
370
     0
100
AcDbPolyline
 90
       88
 70
   128
 43
0.0
 10
221.7251420869
 20
182.5380825255
 10
221.6760375714
 20
183.323667714
 10
221.6506209727
 20
184.1180662641
 10
221.6506209727
 20
184.8983443222
 10
221.6760375714
 20
185.6633974921
 10
221.7268347944
 20
186.4121429265
 10
221.8029407439
 20
187.14352086
 10
221.9042477005
 20
187.8564961089
 10
222.0306122755
 20
188.5500595365
 10
222.1818556139
 20
189.2232294812
 10
222.3577636478
 20
189.8750531464
 10
222.558087399
 20
190.5046079486
 10
222.7825433316
 20
191.1110028232
 10
223.0308137534
 20
191.6933794861
 10
223.3025472653
 20
192.2509136484
 10
223.5973592589
 20
192.7828161827
 10
223.9148324608
 20
193.2883342405
 10
224.2545175232
 20
193.7667523175
 10
224.61593366
 20
194.2173932665
 10
224.9985693268
 20
194.6396192555
 10
225.4018829459
 20
195.0328326708
 10
225.8253036717
 20
195.396476963
 10
226.2682321997
 20
195.730037434
 10
226.7300416141
 20
196.0330419665
 10
227.2100782752
 20
196.3050616912
 10
227.7076627448
 20
196.5457115949
 10
228.2220907478
 20
196.7546510643
 10
228.7526341689
 20
196.9315843691
 10
229.2985420831
 20
197.07626108
 10
229.8590418189
 20
197.1884764232
 10
230.4333400515
 20
197.2680715706
 10
231.0206239261
 20
197.3149338639
 10
231.620062208
 20
197.328996975
 10
232.2308064593
 20
197.310240999
 10
232.8519922398
 20
197.258692483
 10
233.4827403305
 20
197.1744243881
 10
234.1221579781
 20
197.0575559863
 10
234.7693401584
 20
196.9082526918
 10
235.4233708573
 20
196.7267258268
 10
236.0833243675
 20
196.5132323222
 10
236.7482665987
 20
196.2680743542
 10
237.4172563995
 20
195.9915989165
 10
238.0893468896
 20
195.6841973292
 10
238.7635868
 20
195.3463046847
 10
239.4390218196
 20
194.9783992325
 10
240.1146959457
 20
194.5810017014
 10
240.7896528371
 20
194.1546745634
 10
241.4629371677
 20
193.7000212366
 10
242.133595979
 20
193.2176852322
 10
242.8006800282
 20
192.7083492428
 10
243.4632451327
 20
192.1727341765
 10
244.1203535054
 20
191.6115981365
 10
244.7710750832
 20
191.0257353482
 10
245.4144888422
 20
190.4159750349
 10
246.0496841023
 20
189.7831802439
 10
246.6757618156
 20
189.1282466258
 10
247.2918358392
 20
188.4521011656
 10
247.897034189
 20
187.7557008718
 10
248.4905002747
 20
187.0400314211
 10
249.0713941112
 20
186.3061057634
 10
249.6388935082
 20
185.5549626887
 10
250.192195234
 20
184.7876653557
 10
250.7305161517
 20
184.0052997883
 10
251.2530943283
 20
183.2089733372
 10
251.7591901128
 20
182.3998131136
 10
252.2480871832
 20
181.5789643932
 10
252.7190935604
 20
180.7475889957
 10
253.1715425875
 20
179.9068636399
 10
253.6047938736
 20
179.0579782786
 10
254.0182341998
 20
178.2021344141
 10
254.4112783877
 20
177.3405433977
 10
254.7833701271
 20
176.474424715
 10
255.1339827638
 20
175.6050042603
 10
255.4626200447
 20
174.7335126009
 10
255.7688168207
 20
173.861183236
 10
256.0521397044
 20
172.98925085
 10
256.3121876839
 20
172.1189495659
 10
256.5485926904
 20
171.2515111977
 10
256.761020119
 20
170.3881635075
 10
256.9491693025
 20
169.5301284674
 10
257.1127739368
 20
168.6786205301
 10
257.2516024577
 20
167.8348449097
 10
257.365458369
 20
166.9999958764
 10
257.4541805205
 20
166.1752550656
 10
257.5176433358
 20
165.3617898057
 10
257.5557569904
 20
164.5607514657
 10
257.5684675388
 20
163.773273826
 10
257.5684675388
 20
163.773273826
  0
LWPOLYLINE
  5
D1
330
1F
100
AcDbEntity
  8
0
  6
Continuous
 62
     7
370
     0
100
AcDbPolyline
 90
      167
 70
   128
 43
0.0
 10
257.2980157977
 20
163.7798951519
 10
257.2852526298
 20
164.5659408755
 10
257.2469814091
 20
165.3655966362
 10
257.1832569587
 20
166.1777169348
 10
257.0941705634
 20
167.0011384169
 10
256.9798498385
 20
167.8346815391
 10
256.8404585475
 20
168.6771522589
 10
256.6761963668
 20
169.5273437451
 10
256.4872986006
 20
170.3840381066
 10
256.2740358431
 20
171.246008137
 10
256.0367135912
 20
172.1120190725
 10
255.7756718066
 20
172.9808303608
 10
255.4912844292
 20
173.8511974381
 10
255.1839588412
 20
174.7218735119
 10
254.8541352835
 20
175.5916113471
 10
254.5022862252
 20
176.4591650528
 10
254.1289156867
 20
177.3232918665
 10
253.7345585177
 20
178.1827539348
 10
253.3197796311
 20
179.0363200868
 10
252.8851731935
 20
179.8827675971
 10
252.4313617746
 20
180.7208839377
 10
251.9589954547
 20
181.5494685151
 10
251.4687508942
 20
182.36733439
 10
250.9613303637
 20
183.1733099771
 10
250.437460738
 20
183.9662407245
 10
249.8978924556
 20
184.7449907662
 10
249.3433984426
 20
185.5084445505
 10
248.7747730065
 20
186.2555084372
 10
248.1928306976
 20
186.9851122643
 10
247.5984051429
 20
187.6962108815
 10
246.992347851
 20
188.3877856469
 10
246.3755269934
 20
189.0588458862
 10
245.7488261598
 20
189.7084303121
 10
245.1131430933
 20
190.3356084012
 10
244.4693884036
 20
190.939481727
 10
243.8184842632
 20
191.5191852466
 10
243.161363086
 20
192.0738885404
 10
242.4989661918
 20
192.6027970013
 10
241.8322424576
 20
193.105152973
 10
241.1621469589
 20
193.5802368353
 10
240.489639601
 20
194.0273680353
 10
239.8156837442
 20
194.4459060619
 10
239.1412448237
 20
194.8352513632
 10
238.4672889669
 20
195.1948462059
 10
237.794781609
 20
195.524175474
 10
237.1246861103
 20
195.8227674062
 10
236.4579623761
 20
196.0901942727
 10
235.7955654819
 20
196.326072987
 10
235.1384443047
 20
196.5300656551
 10
234.4875401643
 20
196.7018800594
 10
233.8437854746
 20
196.8412700776
 10
233.2081024081
 20
196.9480360346
 10
232.5814015745
 20
197.0220249894
 10
231.9645807169
 20
197.0631309535
 10
231.3585234251
 20
197.0712950429
 10
230.7640978703
 20
197.0465055628
 10
230.1821555615
 20
196.9887980237
 10
229.6135301253
 20
196.8982550911
 10
229.0590361124
 20
196.7750064671
 10
228.5194678299
 20
196.6192287039
 10
227.9955982043
 20
196.4311449518
 10
227.4881776737
 20
196.2110246389
 10
226.9979331132
 20
195.9591830855
 10
226.5255667934
 20
195.6759810522
 10
226.0717553744
 20
195.361824223
 10
225.6371489369
 20
195.0171626248
 10
225.2223700502
 20
194.6424899818
 10
224.8280128812
 20
194.2383430091
 10
224.4546423427
 20
193.8053006433
 10
224.1027932844
 20
193.3439832133
 10
223.7729697268
 20
192.8550515521
 10
223.4656441388
 20
192.3392060494
 10
223.1812567614
 20
191.797185649
 10
222.9202149768
 20
191.2297667899
 10
222.6828927248
 20
190.6377622941
 10
222.4696299673
 20
190.0220202025
 10
222.2807322011
 20
189.3834225595
 10
222.1164700205
 20
188.7228841501
 10
221.9770787294
 20
188.0413511894
 10
221.8627580045
 20
187.3397999666
 10
221.7736716092
 20
186.6192354472
 10
221.7099471589
 20
185.8806898328
 10
221.6716759381
 20
185.125221083
 10
221.6589127702
 20
184.3539113995
 10
221.6716759381
 20
183.5678656759
 10
221.7099471589
 20
182.7682099152
 10
221.7736716092
 20
181.9560896165
 10
221.8627580045
 20
181.1326681344
 10
221.9770787294
 20
180.2991250122
 10
222.1164700205
 20
179.4566542925
 10
222.2807322011
 20
178.6064628062
 10
222.4696299673
 20
177.7497684447
 10
222.6828927248
 20
176.8877984144
 10
222.9202149768
 20
176.0217874789
 10
223.1812567614
 20
175.1529761906
 10
223.4656441388
 20
174.2826091133
 10
223.7729697268
 20
173.4119330395
 10
224.1027932844
 20
172.5421952042
 10
224.4546423427
 20
171.6746414986
 10
224.8280128812
 20
170.8105146849
 10
225.2223700502
 20
169.9510526165
 10
225.6371489369
 20
169.0974864645
 10
226.0717553744
 20
168.2510389543
 10
226.5255667934
 20
167.4129226137
 10
226.9979331132
 20
166.5843380362
 10
227.4881776737
 20
165.7664721614
 10
227.9955982043
 20
164.9604965742
 10
228.5194678299
 20
164.1675658269
 10
229.0590361124
 20
163.3888157851
 10
229.6135301253
 20
162.6253620008
 10
230.1821555615
 20
161.8782981142
 10
230.7640978703
 20
161.1486942871
 10
231.3585234251
 20
160.4375956698
 10
231.9645807169
 20
159.7460209045
 10
232.5814015745
 20
159.0749606652
 10
233.2081024081
 20
158.4253762393
 10
233.8437854746
 20
157.7981981501
 10
234.4875401643
 20
157.1943248244
 10
235.1384443047
 20
156.6146213048
 10
235.7955654819
 20
156.059918011
 10
236.4579623761
 20
155.5310095501
 10
237.1246861103
 20
155.0286535784
 10
237.794781609
 20
154.553569716
 10
238.4672889669
 20
154.106438516
 10
239.1412448237
 20
153.6879004895
 10
239.8156837442
 20
153.2985551882
 10
240.489639601
 20
152.9389603454
 10
241.1621469589
 20
152.6096310774
 10
241.8322424576
 20
152.3110391451
 10
242.4989661918
 20
152.0436122786
 10
243.161363086
 20
151.8077335644
 10
243.8184842632
 20
151.6037408963
 10
244.4693884036
 20
151.4319264919
 10
245.1131430933
 20
151.2925364738
 10
245.7488261598
 20
151.1857705167
 10
246.3755269934
 20
151.1117815619
 10
246.992347851
 20
151.0706755979
 10
247.5984051429
 20
151.0625115084
 10
248.1928306976
 20
151.0873009886
 10
248.7747730065
 20
151.1450085277
 10
249.3433984426
 20
151.2355514602
 10
249.8978924556
 20
151.3588000843
 10
250.437460738
 20
151.5145778475
 10
250.9613303637
 20
151.7026615996
 10
251.4687508942
 20
151.9227819124
 10
251.9589954547
 20
152.1746234658
 10
252.4313617746
 20
152.4578254992
 10
252.8851731935
 20
152.7719823283
 10
253.3197796311
 20
153.1166439266
 10
253.7345585177
 20
153.4913165695
 10
254.1289156867
 20
153.8954635423
 10
254.5022862252
 20
154.3285059081
 10
254.8541352835
 20
154.789823338
 10
255.1839588412
 20
155.2787549993
 10
255.4912844292
 20
155.794600502
 10
255.7756718066
 20
156.3366209024
 10
256.0367135912
 20
156.9040397615
 10
256.2740358431
 20
157.4960442572
 10
256.4872986006
 20
158.1117863489
 10
256.6761963668
 20
158.7503839919
 10
256.8404585475
 20
159.4109224012
 10
256.9798498385
 20
160.092455362
 10
257.0941705634
 20
160.7940065848
 10
257.1832569587
 20
161.5145711042
 10
257.2469814091
 20
162.2531167186
 10
257.2852526298
 20
163.0085854684
 10
257.2980157977
 20
163.7798951519
  0
LWPOLYLINE
  5
D2
330
1F
100
AcDbEntity
  8
0
  6
Continuous
 62
     7
370
     0
100
AcDbPolyline
 90
       86
 70
   128
 43
0.0
 10
259.1497373696
 20
156.0942882772
 10
259.3286831477
 20
156.2005442614
 10
259.7904925621
 20
156.5035487938
 10
260.2334210901
 20
156.8371092649
 10
260.6568418159
 20
157.200753557
 10
261.0601554349
 20
157.5939669724
 10
261.4427911018
 20
158.0161929613
 10
261.8042072385
 20
158.4668339103
 10
262.143892301
 20
158.9452519873
 10
262.4613655029
 20
159.4507700451
 10
262.7561774965
 20
159.9826725794
 10
263.0279110084
 20
160.5402067417
 10
263.2761814302
 20
161.1225834046
 10
263.5006373628
 20
161.7289782793
 10
263.700961114
 20
162.3585330814
 10
263.8768691478
 20
163.0103567466
 10
264.0281124863
 20
163.6835266913
 10
264.1544770613
 20
164.3770901189
 10
264.2557840179
 20
165.0900653678
 10
264.3318899674
 20
165.8214433013
 10
264.3826871904
 20
166.5701887357
 10
264.408103789
 20
167.3352419056
 10
264.408103789
 20
168.1155199638
 10
264.3826871904
 20
168.9099185138
 10
264.3318899674
 20
169.7173131735
 10
264.2557840179
 20
170.5365611659
 10
264.1544770613
 20
171.3665029372
 10
264.0281124863
 20
172.2059637976
 10
263.8768691478
 20
173.053755584
 10
263.700961114
 20
173.9086783421
 10
263.5006373628
 20
174.7695220242
 10
263.2761814302
 20
175.6350682024
 10
263.0279110084
 20
176.5040917928
 10
262.7561774965
 20
177.3753627898
 10
262.4613655029
 20
178.2476480067
 10
262.143892301
 20
179.1197128213
 10
261.8042072385
 20
179.9903229234
 10
261.4427911018
 20
180.8582460617
 10
261.0601554349
 20
181.7222537881
 10
260.6568418159
 20
182.5811231962
 10
260.2334210901
 20
183.4336386525
 10
259.7904925621
 20
184.2785935166
 10
259.3286831477
 20
185.1147918495
 10
258.8486464866
 20
185.9410501059
 10
258.351062017
 20
186.7561988096
 10
257.836634014
 20
187.5590842089
 10
257.3060905929
 20
188.3485699091
 10
256.7601826787
 20
189.1235384816
 10
256.1996829429
 20
189.882893045
 10
255.6253847103
 20
190.6255588179
 10
255.0381008357
 20
191.3504846398
 10
254.4386625538
 20
192.0566444595
 10
253.8279183025
 20
192.7430387865
 10
253.206732522
 20
193.4086961065
 10
252.5759844312
 20
194.052674256
 10
251.9365667836
 20
194.6740617559
 10
251.2893846034
 20
195.2719791018
 10
250.6353539045
 20
195.8455800084
 10
249.9754003942
 20
196.3940526078
 10
249.3104581631
 20
196.9166205984
 10
248.6414683623
 20
197.4125443437
 10
247.9693778722
 20
197.881121919
 10
247.2951379618
 20
198.3216901052
 10
246.6197029421
 20
198.7336253272
 10
245.9440288161
 20
199.1163445369
 10
245.2690719247
 20
199.4693060379
 10
244.5957875941
 20
199.7920102528
 10
243.9251287828
 20
200.0840004299
 10
243.2580447336
 20
200.3448632896
 10
242.5954796291
 20
200.5742296098
 10
241.9383712563
 20
200.771774748
 10
241.2876496786
 20
200.9372191014
 10
240.6442359196
 20
201.0703285017
 10
240.0090406595
 20
201.1709145477
 10
239.3829629462
 20
201.2388348709
 10
238.7668889226
 20
201.2739933379
 10
238.1616905727
 20
201.2763401856
 10
237.5682244871
 20
201.2458720923
 10
236.9873306506
 20
201.1826321824
 10
236.4198312535
 20
201.0867099647
 10
235.8665295278
 20
200.9582412065
 10
235.3282086101
 20
200.7974077409
 10
234.8056304335
 20
200.6044372097
 10
234.299534649
 20
200.3796027412
 10
233.8106375786
 20
200.1232225633
 10
233.7518015607
 20
200.0895704862
  0
ARC
  5
D3
330
1F
100
AcDbEntity
  8
0
  6
Continuous
 62
     7
370
     0
100
AcDbCircle
 10
225.8017732705
 20
166.1715176116
 30
0.0
 40
38.64759282808932
100
AcDbArc
 50
2.5438153591
 51
57.4508081082
  0
SPLINE
  5
D4
330
1F
100
AcDbEntity
  8
0
  6
Continuous
 62
     7
370
     0
100
AcDbSpline
210
0.0
220
0.0
230
1.0
 70
     8
 71
     3
 72
    23
 73
    19
 74
     0
 42
0.00000001
 43
0.00000001
 40
0.0
 40
0.0
 40
0.0
 40
0.0
 40
0.0658282446781908
 40
0.1289383166014421
 40
0.1908583237191151
 40
0.2511862310452458
 40
0.3109740177800717
 40
0.3700498785126962
 40
0.42967230953493
 40
0.4895072568266747
 40
0.5499752717322416
 40
0.6100748076115783
 40
0.6709148653422593
 40
0.7329088543890384
 40
0.7967107088217865
 40
0.8618253836021725
 40
0.9298919770519397
 40
0.9999999999999999
 40
0.9999999999999999
 40
0.9999999999999999
 40
0.9999999999999999
 10
230.9501690383409
 20
105.0412696818362
 30
0.0
 10
230.9649237082727
 20
105.0375444195828
 30
0.0
 10
230.9938237999024
 20
105.0302477182019
 30
0.0
 10
231.0353308859018
 20
105.015129158455
 30
0.0
 10
231.0743522061512
 20
104.9974291292512
 30
0.0
 10
231.1114071101215
 20
104.9773817623367
 30
0.0
 10
231.1454198238085
 20
104.953672501992
 30
0.0
 10
231.1775627357062
 20
104.9277491134146
 30
0.0
 10
231.2066207686688
 20
104.8983631084025
 30
0.0
 10
231.2334357867756
 20
104.8665618560347
 30
0.0
 10
231.2578341607079
 20
104.8326781619427
 30
0.0
 10
231.2783656315929
 20
104.7960529124818
 30
0.0
 10
231.2960836943055
 20
104.7576489199573
 30
0.0
 10
231.3111919737744
 20
104.7171876425711
 30
0.0
 10
231.3220487493381
 20
104.6743570928686
 30
0.0
 10
231.3298116867014
 20
104.6294890796934
 30
0.0
 10
231.3349345923076
 20
104.5827394890521
 30
0.0
 10
231.3355275642648
 20
104.5508057402679
 30
0.0
 10
231.3358284306081
 20
104.5346029669152
 30
0.0
  0
SPLINE
  5
D5
330
1F
100
AcDbEntity
  8
0
  6
Continuous
 62
     7
370
     0
100
AcDbSpline
210
0.0
220
0.0
230
1.0
 70
     8
 71
     3
 72
    15
 73
    11
 74
     0
 42
0.00000001
 43
0.00000001
 40
0.0
 40
0.0
 40
0.0
 40
0.0
 40
0.121951202249343
 40
0.2407868053279228
 40
0.3585498723707455
 40
0.4790658414002754
 40
0.6015185447735328
 40
0.7275505189308986
 40
0.8599320866628425
 40
1.0
 40
1.0
 40
1.0
 40
1.0
 10
231.2304615102022
 20
105.4487433193437
 30
0.0
 10
231.2295758656261
 20
105.4274128095095
 30
0.0
 10
231.2278272028479
 20
105.3852967399319
 30
0.0
 10
231.2143645650666
 20
105.3237155854693
 30
0.0
 10
231.191615385531
 20
105.2653743663702
 30
0.0
 10
231.1608670365701
 20
105.21006838922
 30
0.0
 10
231.1209939722985
 20
105.1589936912807
 30
0.0
 10
231.0721057118848
 20
105.1134814799656
 30
0.0
 10
231.0149843394304
 20
105.073096271954
 30
0.0
 10
230.9721767017729
 20
105.0520762178196
 30
0.0
 10
230.9501690383409
 20
105.0412696818362
 30
0.0
  0
SPLINE
  5
D6
330
1F
100
AcDbEntity
  8
0
  6
Continuous
 62
     7
370
     0
100
AcDbSpline
210
0.0
220
0.0
230
1.0
 70
     8
 71
     3
 72
    19
 73
    15
 74
     0
 42
0.00000001
 43
0.00000001
 40
0.0
 40
0.0
 40
0.0
 40
0.0
 40
0.0920539892768598
 40
0.181007904784901
 40
0.2691300759875103
 40
0.3571374727068746
 40
0.44354901358482
 40
0.5264334456319731
 40
0.6074529357589966
 40
0.6883846385144212
 40
0.7678538499318547
 40
0.8455305897600626
 40
0.9225294439554589
 40
0.9999999999999999
 40
0.9999999999999999
 40
0.9999999999999999
 40
0.9999999999999999
 10
230.6460043735752
 20
105.9710504365124
 30
0.0
 10
230.6728129392845
 20
105.970181100659
 30
0.0
 10
230.7255272469147
 20
105.9684717053073
 30
0.0
 10
230.8029522803534
 20
105.9548954815367
 30
0.0
 10
230.8770089171841
 20
105.932616627063
 30
0.0
 10
230.947101229165
 20
105.9017341621456
 30
0.0
 10
231.0120233139862
 20
105.8639966046492
 30
0.0
 10
231.0694740079884
 20
105.8187704402442
 30
0.0
 10
231.118685272961
 20
105.7668380719885
 30
0.0
 10
231.1587012892753
 20
105.7087672705569
 30
0.0
 10
231.1903883606719
 20
105.6469392207736
 30
0.0
 10
231.2138358409642
 20
105.5827590233151
 30
0.0
 10
231.2278460623565
 20
105.5163005601203
 30
0.0
 10
231.2295879212207
 20
105.4713081971939
 30
0.0
 10
231.2304615102022
 20
105.4487433193437
 30
0.0
  0
SPLINE
  5
D7
330
1F
100
AcDbEntity
  8
0
  6
Continuous
 62
     7
370
     0
100
AcDbSpline
210
0.0
220
0.0
230
1.0
 70
     8
 71
     3
 72
    23
 73
    19
 74
     0
 42
0.00000001
 43
0.00000001
 40
0.0
 40
0.0
 40
0.0
 40
0.0
 40
0.071036323012058
 40
0.139343339603417
 40
0.2049584727025958
 40
0.2683315830770486
 40
0.3301292609669972
 40
0.3906639764805662
 40
0.4508614486151503
 40
0.5105872658343568
 40
0.5703738539616984
 40
0.6294550091547371
 40
0.6879935230805727
 40
0.747580994103786
 40
0.8078387614769678
 40
0.870034038822401
 40
0.9338104563665486
 40
1.0
 40
1.0
 40
1.0
 40
1.0
 10
230.0450836556348
 20
105.4442158344825
 30
0.0
 10
230.0492042885166
 20
105.4645835468019
 30
0.0
 10
230.0572872342925
 20
105.5045364178731
 30
0.0
 10
230.0737548270467
 20
105.5622392507229
 30
0.0
 10
230.0938368528672
 20
105.6164057786561
 30
0.0
 10
230.1179486995993
 20
105.6667876598765
 30
0.0
 10
230.1449512464228
 20
105.713987845341
 30
0.0
 10
230.1761006432882
 20
105.7574464681998
 30
0.0
 10
230.2106665924133
 20
105.7974218961258
 30
0.0
 10
230.248710491316
 20
105.833792197597
 30
0.0
 10
230.2897158721375
 20
105.8662749449453
 30
0.0
 10
230.3334762019442
 20
105.8942955765561
 30
0.0
 10
230.379632355953
 20
105.9180470997865
 30
0.0
 10
230.4282275480218
 20
105.9371950298666
 30
0.0
 10
230.4792233026779
 20
105.9527651982727
 30
0.0
 10
230.5327647002582
 20
105.9630804734344
 30
0.0
 10
230.5886093935312
 20
105.970058237197
 30
0.0
 10
230.6266373538241
 20
105.9707156346931
 30
0.0
 10
230.6460043735752
 20
105.9710504365124
 30
0.0
  0
LINE
  5
D8
330
1F
100
AcDbEntity
  8
0
  6
Continuous
 62
     7
370
     0
100
AcDbLine
 10
230.3085009566
 20
105.4178741044
 30
0.0
 11
230.0450836556
 21
105.4442158345
 31
0.0
  0
SPLINE
  5
D9
330
1F
100
AcDbEntity
  8
0
  6
Continuous
 62
     7
370
     0
100
AcDbSpline
210
0.0
220
0.0
230
1.0
 70
     8
 71
     3
 72
    19
 73
    15
 74
     0
 42
0.00000001
 43
0.00000001
 40
0.0
 40
0.0
 40
0.0
 40
0.0
 40
0.1277971582348374
 40
0.246795252716655
 40
0.3622843155839156
 40
0.4776524647273048
 40
0.5362368417287119
 40
0.5955904355162847
 40
0.6563437591396387
 40
0.7190851405078744
 40
0.7843491651281217
 40
0.8528755346365584
 40
0.9245512555167001
 40
1.0
 40
1.0
 40
1.0
 40
1.0
 10
230.6542361642319
 20
105.7339748655989
 30
0.0
 10
230.6321907833592
 20
105.7331152798459
 30
0.0
 10
230.5896178856605
 20
105.7314552923619
 30
0.0
 10
230.5286655965939
 20
105.7160969648044
 30
0.0
 10
230.4734318176754
 20
105.6912451923518
 30
0.0
 10
230.432539390689
 20
105.6621010012046
 30
0.0
 10
230.4035021717762
 20
105.6342375058904
 30
0.0
 10
230.3836682131709
 20
105.610619980476
 30
0.0
 10
230.3659278611927
 20
105.5845393448167
 30
0.0
 10
230.3502308364124
 20
105.5560048952782
 30
0.0
 10
230.3367892099111
 20
105.5249018767304
 30
0.0
 10
230.3246719569547
 20
105.4916156092773
 30
0.0
 10
230.3152920789155
 20
105.4556131795438
 30
0.0
 10
230.310803038059
 20
105.4306670449193
 30
0.0
 10
230.3085009566498
 20
105.417874104381
 30
0.0
  0
SPLINE
  5
DA
330
1F
100
AcDbEntity
  8
0
  6
Continuous
 62
     7
370
     0
100
AcDbSpline
210
0.0
220
0.0
230
1.0
 70
     8
 71
     3
 72
    23
 73
    19
 74
     0
 42
0.00000001
 43
0.00000001
 40
0.0
 40
0.0
 40
0.0
 40
0.0
 40
0.0650933507070886
 40
0.1273042315324059
 40
0.1881220215801464
 40
0.2471305161007633
 40
0.3060769160082417
 40
0.3656782273658526
 40
0.426103348162582
 40
0.4878414950797362
 40
0.5503167167998647
 40
0.611805223513785
 40
0.6727373158544525
 40
0.7348834089993249
 40
0.797680202933678
 40
0.8624746871088678
 40
0.929775403385968
 40
1.0
 40
1.0
 40
1.0
 40
1.0
 10
230.9670442091872
 20
105.4400999391541
 30
0.0
 10
230.9668495569586
 20
105.4505408796445
 30
0.0
 10
230.9664688721098
 20
105.4709604139159
 30
0.0
 10
230.9622278716778
 20
105.5008976071019
 30
0.0
 10
230.9552137777644
 20
105.5292640195925
 30
0.0
 10
230.9457335321868
 20
105.556362526707
 30
0.0
 10
230.9333087287802
 20
105.582051109206
 30
0.0
 10
230.917900997406
 20
105.6062983192741
 30
0.0
 10
230.9002971412712
 20
105.6295960309418
 30
0.0
 10
230.879516412187
 20
105.6507403708862
 30
0.0
 10
230.8572620543095
 20
105.670591766014
 30
0.0
 10
230.8327225422662
 20
105.6873107119442
 30
0.0
 10
230.8070657742274
 20
105.7021630376519
 30
0.0
 10
230.7793868932422
 20
105.7133862469799
 30
0.0
 10
230.7503692266391
 20
105.7226135548834
 30
0.0
 10
230.7197647271434
 20
105.7290796785617
 30
0.0
 10
230.6875622245165
 20
105.7334221141628
 30
0.0
 10
230.6655011950846
 20
105.7337880219718
 30
0.0
 10
230.6542361642319
 20
105.7339748655989
 30
0.0
  0
SPLINE
  5
DB
330
1F
100
AcDbEntity
  8
0
  6
Continuous
 62
     7
370
     0
100
AcDbSpline
210
0.0
220
0.0
230
1.0
 70
     8
 71
     3
 72
    19
 73
    15
 74
     0
 42
0.00000001
 43
0.00000001
 40
0.0
 40
0.0
 40
0.0
 40
0.0
 40
0.1297890756576308
 40
0.2546053700922405
 40
0.3784354924817365
 40
0.502919582675045
 40
0.5650179669759711
 40
0.6248477746307949
 40
0.6834480871906743
 40
0.7427645197557697
 40
0.8027569578129469
 40
0.8652203742489508
 40
0.9307788121001257
 40
1.0
 40
1.0
 40
1.0
 40
1.0
 10
230.5817964064528
 20
105.1252339465347
 30
0.0
 10
230.6060220749447
 20
105.1261588732199
 30
0.0
 10
230.6535452217183
 20
105.1279732886458
 30
0.0
 10
230.7228247571225
 20
105.1430495612378
 30
0.0
 10
230.7884814376768
 20
105.1667866656704
 30
0.0
 10
230.8392054646331
 20
105.1951084751931
 30
0.0
 10
230.8768206891396
 20
105.221746675305
 30
0.0
 10
230.9005400934377
 20
105.245764791355
 30
0.0
 10
230.9219243599734
 20
105.2712528644985
 30
0.0
 10
230.9378787706031
 20
105.3004886075212
 30
0.0
 10
230.9516623970696
 20
105.3315522904483
 30
0.0
 10
230.9601978766995
 20
105.3656675946176
 30
0.0
 10
230.9664226464004
 20
105.4020052652524
 30
0.0
 10
230.9668333016242
 20
105.4271737231605
 30
0.0
 10
230.9670442091872
 20
105.4400999391541
 30
0.0
  0
SPLINE
  5
DC
330
1F
100
AcDbEntity
  8
0
  6
Continuous
 62
     7
370
     0
100
AcDbSpline
210
0.0
220
0.0
230
1.0
 70
     8
 71
     3
 72
     9
 73
     5
 74
     0
 42
0.00000001
 43
0.00000001
 40
0.0
 40
0.0
 40
0.0
 40
0.0
 40
0.5660412240200516
 40
0.9999999999999999
 40
0.9999999999999999
 40
0.9999999999999999
 40
0.9999999999999999
 10
230.5439301694319
 20
105.1281150732645
 30
0.0
 10
230.5510576062863
 20
105.1273362391384
 30
0.0
 10
230.5636493338
 20
105.1259603073279
 30
0.0
 10
230.576304559987
 20
105.1254537650162
 30
0.0
 10
230.5817964064528
 20
105.1252339465347
 30
0.0
  0
LINE
  5
DD
330
1F
100
AcDbEntity
  8
0
  6
Continuous
 62
     7
370
     0
100
AcDbLine
 10
230.5167652603
 20
104.8910395024
 30
0.0
 11
230.5439301694
 21
105.1281150733
 31
0.0
  0
SPLINE
  5
DE
330
1F
100
AcDbEntity
  8
0
  6
Continuous
 62
     7
370
     0
100
AcDbSpline
210
0.0
220
0.0
230
1.0
 70
     8
 71
     3
 72
    11
 73
     7
 74
     0
 42
0.00000001
 43
0.00000001
 40
0.0
 40
0.0
 40
0.0
 40
0.0
 40
0.209402552629139
 40
0.4444010364151541
 40
0.7082720668673809
 40
1.0
 40
1.0
 40
1.0
 40
1.0
 10
230.6871633268588
 20
104.9190275905839
 30
0.0
 10
230.6750716430198
 20
104.918707243793
 30
0.0
 10
230.64941027088
 20
104.9180273932177
 30
0.0
 10
230.6089080381999
 20
104.9120245702536
 30
0.0
 10
230.564044955175
 20
104.9036192101784
 30
0.0
 10
230.5330432844001
 20
104.8953705960271
 30
0.0
 10
230.5167652602647
 20
104.8910395023511
 30
0.0
  0
SPLINE
  5
DF
330
1F
100
AcDbEntity
  8
0
  6
Continuous
 62
     7
370
     0
100
AcDbSpline
210
0.0
220
0.0
230
1.0
 70
     8
 71
     3
 72
    23
 73
    19
 74
     0
 42
0.00000001
 43
0.00000001
 40
0.0
 40
0.0
 40
0.0
 40
0.0
 40
0.0670509921880465
 40
0.1311799203918651
 40
0.1937216912651209
 40
0.2544994837594224
 40
0.314762713969885
 40
0.3751170680683986
 40
0.4360228218750032
 40
0.4982967466743274
 40
0.5605706714736507
 40
0.621619123462455
 40
0.6819734775609687
 40
0.7428529083782511
 40
0.8042715696802855
 40
0.8674725557694044
 40
0.9322728234051278
 40
1.0
 40
1.0
 40
1.0
 40
1.0
 10
231.0724111295932
 20
104.5366609145794
 30
0.0
 10
231.0721024905089
 20
104.5502574525221
 30
0.0
 10
231.0714986627476
 20
104.5768579949859
 30
0.0
 10
231.0665347103941
 20
104.6159018840724
 30
0.0
 10
231.0578727230023
 20
104.6529650659407
 30
0.0
 10
231.045865138019
 20
104.6882620385905
 30
0.0
 10
231.0305219087965
 20
104.7217409836318
 30
0.0
 10
231.0120797992704
 20
104.753678739851
 30
0.0
 10
230.9895235874581
 20
104.7833753909201
 30
0.0
 10
230.9641345819416
 20
104.8111499043289
 30
0.0
 10
230.9364425840515
 20
104.836738200164
 30
0.0
 10
230.906137945841
 20
104.8585043392804
 30
0.0
 10
230.8742460769471
 20
104.877289226563
 30
0.0
 10
230.8403868994053
 20
104.8924572884476
 30
0.0
 10
230.804700997963
 20
104.9044962659405
 30
0.0
 10
230.7672223921574
 20
104.9131489153674
 30
0.0
 10
230.7277708927263
 20
104.918115021928
 30
0.0
 10
230.7008970213586
 20
104.9187189550165
 30
0.0
 10
230.6871633268588
 20
104.9190275905839
 30
0.0
  0
SPLINE
  5
E0
330
1F
100
AcDbEntity
  8
0
  6
Continuous
 62
     7
370
     0
100
AcDbSpline
210
0.0
220
0.0
230
1.0
 70
     8
 71
     3
 72
    23
 73
    19
 74
     0
 42
0.00000001
 43
0.00000001
 40
0.0
 40
0.0
 40
0.0
 40
0.0
 40
0.0694611184111805
 40
0.1356576792112482
 40
0.1996202009683168
 40
0.2616514289943396
 40
0.322052934607597
 40
0.3823401897046092
 40
0.4432232029819952
 40
0.5049299582480397
 40
0.5668204626337178
 40
0.6276001402177062
 40
0.6874756430229486
 40
0.7473511458281904
 40
0.8081741791096781
 40
0.870133448924472
 40
0.9337207833931579
 40
1.0
 40
1.0
 40
1.0
 40
1.0
 10
230.6674070292827
 20
104.1271293294077
 30
0.0
 10
230.6823863542377
 20
104.127342898229
 30
0.0
 10
230.7116410006649
 20
104.1277599984903
 30
0.0
 10
230.7542698459119
 20
104.1340180979123
 30
0.0
 10
230.794838710104
 20
104.1426110644946
 30
0.0
 10
230.8327687819853
 20
104.156085327328
 30
0.0
 10
230.8685882174458
 20
104.1725533679805
 30
0.0
 10
230.9020929515449
 20
104.192904372468
 30
0.0
 10
230.9335123218841
 20
104.2168015446625
 30
0.0
 10
230.9622266044218
 20
104.244407435215
 30
0.0
 10
230.9879057158635
 20
104.2747747944949
 30
0.0
 10
231.0107765725104
 20
104.3068504762342
 30
0.0
 10
231.0296876982837
 20
104.3409081726903
 30
0.0
 10
231.0456269295409
 20
104.3764681712377
 30
0.0
 10
231.0573921667736
 20
104.4141051042519
 30
0.0
 10
231.0660052700617
 20
104.4533496583633
 30
0.0
 10
231.0716339776437
 20
104.4943793138735
 30
0.0
 10
231.0721485237618
 20
104.522373625056
 30
0.0
 10
231.0724111295932
 20
104.5366609145794
 30
0.0
  0
SPLINE
  5
E1
330
1F
100
AcDbEntity
  8
0
  6
Continuous
 62
     7
370
     0
100
AcDbSpline
210
0.0
220
0.0
230
1.0
 70
     8
 71
     3
 72
    23
 73
    19
 74
     0
 42
0.00000001
 43
0.00000001
 40
0.0
 40
0.0
 40
0.0
 40
0.0
 40
0.0825664818430914
 40
0.1597600173463223
 40
0.2331545001529429
 40
0.3013562791316536
 40
0.365752014327157
 40
0.4264371723179339
 40
0.4841852540351051
 40
0.5395491542935731
 40
0.5931555898196889
 40
0.6470483404201374
 40
0.7014463748055866
 40
0.7569996743770372
 40
0.8138396236591051
 40
0.8730579525107802
 40
0.9349625940127595
 40
1.0
 40
1.0
 40
1.0
 40
1.0
 10
230.2821592265483
 20
104.4959135508286
 30
0.0
 10
230.2856708946427
 20
104.4800858793164
 30
0.0
 10
230.2924657118997
 20
104.4494605090826
 30
0.0
 10
230.3055397703236
 20
104.4055864842418
 30
0.0
 10
230.3193488469963
 20
104.3648615789253
 30
0.0
 10
230.33646787879
 20
104.3281967106564
 30
0.0
 10
230.3531723329948
 20
104.2940924386352
 30
0.0
 10
230.3728025963241
 20
104.263957919306
 30
0.0
 10
230.3937779136745
 20
104.2370069025502
 30
0.0
 10
230.4164860485597
 20
104.2133394639674
 30
0.0
 10
230.4411886712719
 20
104.1929589090227
 30
0.0
 10
230.4675564409083
 20
104.1751248244329
 30
0.0
 10
230.4961470121641
 20
104.1602309622749
 30
0.0
 10
230.5267414882595
 20
104.1484386534756
 30
0.0
 10
230.5590821899697
 20
104.1388926791129
 30
0.0
 10
230.5933448732327
 20
104.1318832433158
 30
0.0
 10
230.6297107134879
 20
104.1277076350688
 30
0.0
 10
230.654636544993
 20
104.1273252436026
 30
0.0
 10
230.6674070292827
 20
104.1271293294077
 30
0.0
  0
LINE
  5
E2
330
1F
100
AcDbEntity
  8
0
  6
Continuous
 62
     7
370
     0
100
AcDbLine
 10
230.0187419255
 20
104.4695718207
 30
0.0
 11
230.2821592265
 21
104.4959135508
 31
0.0
  0
SPLINE
  5
E3
330
1F
100
AcDbEntity
  8
0
  6
Continuous
 62
     7
370
     0
100
AcDbSpline
210
0.0
220
0.0
230
1.0
 70
     8
 71
     3
 72
    23
 73
    19
 74
     0
 42
0.00000001
 43
0.00000001
 40
0.0
 40
0.0
 40
0.0
 40
0.0
 40
0.067794399401336
 40
0.1334641369291907
 40
0.1969337335573705
 40
0.258480621611127
 40
0.3197865376803734
 40
0.3804313677830994
 40
0.4409901724489917
 40
0.5028674288973124
 40
0.5648063393097802
 40
0.6255263416925381
 40
0.6856036068581814
 40
0.7460408460006117
 40
0.8073467620698586
 40
0.8697170363588133
 40
0.9337895409055552
 40
0.9999999999999999
 40
0.9999999999999999
 40
0.9999999999999999
 40
0.9999999999999999
 10
230.6579404700274
 20
103.8900537584942
 30
0.0
 10
230.6363715066003
 20
103.8904600301444
 30
0.0
 10
230.5939095464136
 20
103.8912598409786
 30
0.0
 10
230.5317540044998
 20
103.8995925073586
 30
0.0
 10
230.4722057641678
 20
103.9114175176327
 30
0.0
 10
230.4157356993835
 20
103.9296471929234
 30
0.0
 10
230.361687861018
 20
103.9518779866116
 30
0.0
 10
230.3109776225357
 20
103.9803189335054
 30
0.0
 10
230.2626931759484
 20
104.0129680384423
 30
0.0
 10
230.2177410001601
 20
104.0507580956011
 30
0.0
 10
230.1763707397979
 20
104.0924684399949
 30
0.0
 10
230.1394635190458
 20
104.1374821404484
 30
0.0
 10
230.1077710372917
 20
104.1856992531295
 30
0.0
 10
230.0798279024823
 20
104.2363983578074
 30
0.0
 10
230.0572426226106
 20
104.2905351584945
 30
0.0
 10
230.0396564065767
 20
104.3476448548285
 30
0.0
 10
230.0262466805891
 20
104.4075154965028
 30
0.0
 10
230.0212707291478
 20
104.4486613105462
 30
0.0
 10
230.0187419255333
 20
104.4695718207271
 30
0.0
  0
SPLINE
  5
E4
330
1F
100
AcDbEntity
  8
0
  6
Continuous
 62
     7
370
     0
100
AcDbSpline
210
0.0
220
0.0
230
1.0
 70
     8
 71
     3
 72
    23
 73
    19
 74
     0
 42
0.00000001
 43
0.00000001
 40
0.0
 40
0.0
 40
0.0
 40
0.0
 40
0.0635034414546181
 40
0.1248046405781817
 40
0.1849202801139815
 40
0.2443762015685232
 40
0.3037746372808734
 40
0.3641325964146207
 40
0.4253755063553636
 40
0.4883879977208414
 40
0.5517433281320234
 40
0.6138598322814828
 40
0.6756404471380691
 40
0.7377369491926125
 40
0.8004171140764984
 40
0.8646584058363332
 40
0.9309845230655541
 40
1.0
 40
1.0
 40
1.0
 40
1.0
 10
231.3358284306081
 20
104.5346029669152
 30
0.0
 10
231.3353270785094
 20
104.5124822838481
 30
0.0
 10
231.3343417607526
 20
104.4690080431408
 30
0.0
 10
231.3250009174071
 20
104.405143394111
 30
0.0
 10
231.3097358830449
 20
104.343952474462
 30
0.0
 10
231.2886111227634
 20
104.2852274913752
 30
0.0
 10
231.2618427089473
 20
104.2287287777321
 30
0.0
 10
231.2282527646025
 20
104.1752536262118
 30
0.0
 10
231.1888368193973
 20
104.1243673565884
 30
0.0
 10
231.1442110865615
 20
104.0765571858847
 30
0.0
 10
231.0953193250124
 20
104.0326181677166
 30
0.0
 10
231.0422247430369
 20
103.9945711789624
 30
0.0
 10
230.9859778118627
 20
103.9622610768178
 30
0.0
 10
230.9264869994345
 20
103.9359123478596
 30
0.0
 10
230.8639100143664
 20
103.9152113579906
 30
0.0
 10
230.7981846053018
 20
103.9003722270106
 30
0.0
 10
230.7291073868513
 20
103.8916511171227
 30
0.0
 10
230.6819749635742
 20
103.8905932185041
 30
0.0
 10
230.6579404700274
 20
103.8900537584942
 30
0.0
  0
LINE
  5
E5
330
1F
100
AcDbEntity
  8
0
  6
Continuous
 62
     7
370
     0
100
AcDbLine
 10
226.9367595037
 20
104.1534710595
 30
0.0
 11
228.1484790883
 21
104.1534710595
 31
0.0
  0
LINE
  5
E6
330
1F
100
AcDbEntity
  8
0
  6
Continuous
 62
     7
370
     0
100
AcDbLine
 10
226.9367595037
 20
104.8646977722
 30
0.0
 11
226.9367595037
 21
104.1534710595
 31
0.0
  0
LINE
  5
E7
330
1F
100
AcDbEntity
  8
0
  6
Continuous
 62
     7
370
     0
100
AcDbLine
 10
228.0167704378
 20
104.8646977722
 30
0.0
 11
226.9367595037
 21
104.8646977722
 31
0.0
  0
LINE
  5
E8
330
1F
100
AcDbEntity
  8
0
  6
Continuous
 62
     7
370
     0
100
AcDbLine
 10
228.0167704378
 20
105.1017733432
 30
0.0
 11
228.0167704378
 21
104.8646977722
 31
0.0
  0
LINE
  5
E9
330
1F
100
AcDbEntity
  8
0
  6
Continuous
 62
     7
370
     0
100
AcDbLine
 10
226.9367595037
 20
105.1017733432
 30
0.0
 11
228.0167704378
 21
105.1017733432
 31
0.0
  0
LINE
  5
EA
330
1F
100
AcDbEntity
  8
0
  6
Continuous
 62
     7
370
     0
100
AcDbLine
 10
226.9367595037
 20
105.7339748656
 30
0.0
 11
226.9367595037
 21
105.1017733432
 31
0.0
  0
LINE
  5
EB
330
1F
100
AcDbEntity
  8
0
  6
Continuous
 62
     7
370
     0
100
AcDbLine
 10
228.0957956281
 20
105.7339748656
 30
0.0
 11
226.9367595037
 21
105.7339748656
 31
0.0
  0
LINE
  5
EC
330
1F
100
AcDbEntity
  8
0
  6
Continuous
 62
     7
370
     0
100
AcDbLine
 10
228.0957956281
 20
105.9710504365
 30
0.0
 11
228.0957956281
 21
105.7339748656
 31
0.0
  0
LINE
  5
ED
330
1F
100
AcDbEntity
  8
0
  6
Continuous
 62
     7
370
     0
100
AcDbLine
 10
226.6470004725
 20
105.9710504365
 30
0.0
 11
228.0957956281
 21
105.9710504365
 31
0.0
  0
LINE
  5
EE
330
1F
100
AcDbEntity
  8
0
  6
Continuous
 62
     7
370
     0
100
AcDbLine
 10
226.6470004725
 20
103.9163954886
 30
0.0
 11
226.6470004725
 21
105.9710504365
 31
0.0
  0
LINE
  5
EF
330
1F
100
AcDbEntity
  8
0
  6
Continuous
 62
     7
370
     0
100
AcDbLine
 10
228.1484790883
 20
103.9163954886
 30
0.0
 11
226.6470004725
 21
103.9163954886
 31
0.0
  0
LINE
  5
F0
330
1F
100
AcDbEntity
  8
0
  6
Continuous
 62
     7
370
     0
100
AcDbLine
 10
228.1484790883
 20
104.1534710595
 30
0.0
 11
228.1484790883
 21
103.9163954886
 31
0.0
  0
SPLINE
  5
F1
330
1F
100
AcDbEntity
  8
0
  6
Continuous
 62
     7
370
     0
100
AcDbSpline
210
0.0
220
0.0
230
1.0
 70
     8
 71
     3
 72
    31
 73
    27
 74
     0
 42
0.00000001
 43
0.00000001
 40
0.0
 40
0.0
 40
0.0
 40
0.0
 40
0.0628739462114324
 40
0.1228366299919129
 40
0.1796565674430314
 40
0.233960012230862
 40
0.285595018695559
 40
0.3345131060783805
 40
0.3809048259061763
 40
0.4248945919393346
 40
0.4665290347654874
 40
0.5064882940692463
 40
0.5450315536447542
 40
0.5818311798231344
 40
0.617448279949443
 40
0.6520669127690458
 40
0.6858797142465107
 40
0.7191745547913923
 40
0.7521816462063928
 40
0.7852401639180908
 40
0.8186564497770833
 40
0.8525477406533113
 40
0.8876263422585189
 40
0.923635078068751
 40
0.9610218444769891
 40
1.0
 40
1.0
 40
1.0
 40
1.0
 10
225.3299139674671
 20
104.9297289184376
 30
0.0
 10
225.3296436032311
 20
104.9005039350947
 30
0.0
 10
225.3291153934777
 20
104.8434071775069
 30
0.0
 10
225.3259776772014
 20
104.7599350666282
 30
0.0
 10
225.3200094577245
 20
104.6806271973456
 30
0.0
 10
225.3126654546187
 20
104.6053018984051
 30
0.0
 10
225.3015555162022
 20
104.5341602529032
 30
0.0
 10
225.289583955612
 20
104.4668999988095
 30
0.0
 10
225.2747780922867
 20
104.4038265569132
 30
0.0
 10
225.2575031258377
 20
104.3449122837503
 30
0.0
 10
225.2380475908977
 20
104.2898456618606
 30
0.0
 10
225.2167115862567
 20
104.2382105283273
 30
0.0
 10
225.1930799124532
 20
104.1900421660879
 30
0.0
 10
225.1664492016218
 20
104.1458103851879
 30
0.0
 10
225.1380379294228
 20
104.1049280827898
 30
0.0
 10
225.1076380134942
 20
104.067241900187
 30
0.0
 10
225.0746049400288
 20
104.0332942504783
 30
0.0
 10
225.0389720878562
 20
104.0032756780608
 30
0.0
 10
225.001461817535
 20
103.9762351745065
 30
0.0
 10
224.9613279601696
 20
103.9530826934439
 30
0.0
 10
224.9187461753985
 20
103.933901265023
 30
0.0
 10
224.8740009685224
 20
103.9175020966847
 30
0.0
 10
224.8266383348653
 20
103.9054857479881
 30
0.0
 10
224.7770317717485
 20
103.8962874208295
 30
0.0
 10
224.7249985023703
 20
103.8908707796816
 30
0.0
 10
224.6894932783756
 20
103.8903298563721
 30
0.0
 10
224.6713707149297
 20
103.8900537584942
 30
0.0
  0
SPLINE
  5
F2
330
1F
100
AcDbEntity
  8
0
  6
Continuous
 62
     7
370
     0
100
AcDbSpline
210
0.0
220
0.0
230
1.0
 70
     8
 71
     3
 72
    27
 73
    23
 74
     0
 42
0.00000001
 43
0.00000001
 40
0.0
 40
0.0
 40
0.0
 40
0.0
 40
0.0567243372181507
 40
0.1114372357370107
 40
0.1643678222229016
 40
0.2164353724620897
 40
0.2676414903219248
 40
0.317359779969028
 40
0.3674730633322805
 40
0.4182103970528082
 40
0.4714042826470201
 40
0.5279657201290493
 40
0.5880611158232137
 40
0.6521342629937144
 40
0.6863448363353055
 40
0.7232636803169652
 40
0.7626102507715419
 40
0.8047389366452182
 40
0.84943033879095
 40
0.8967112583864923
 40
0.9468896380534765
 40
1.0
 40
1.0
 40
1.0
 40
1.0
 10
224.6713707149297
 20
105.9710504365124
 30
0.0
 10
224.697757904039
 20
105.9702746718276
 30
0.0
 10
224.7495965954618
 20
105.9687506509876
 30
0.0
 10
224.8252813526398
 20
105.9563210135622
 30
0.0
 10
224.896609358285
 20
105.9350582030547
 30
0.0
 10
224.9635342711118
 20
105.906373754408
 30
0.0
 10
225.0249120201033
 20
105.8699389838301
 30
0.0
 10
225.0797249369365
 20
105.8256469691815
 30
0.0
 10
225.1273817757653
 20
105.7739627678692
 30
0.0
 10
225.1673624359376
 20
105.7142739390547
 30
0.0
 10
225.2023095236559
 20
105.6482270992422
 30
0.0
 10
225.233355749231
 20
105.5755258058496
 30
0.0
 10
225.2614206354056
 20
105.496251528886
 30
0.0
 10
225.2813360895893
 20
105.4252899842107
 30
0.0
 10
225.2955417667061
 20
105.3640334609155
 30
0.0
 10
225.3049447962724
 20
105.313510813335
 30
0.0
 10
225.3127511959268
 20
105.2589965921661
 30
0.0
 10
225.3187319530567
 20
105.2006226819846
 30
0.0
 10
225.3236390231684
 20
105.1384545543251
 30
0.0
 10
225.3274285285265
 20
105.0724535021219
 30
0.0
 10
225.3293520905007
 20
105.0024545669742
 30
0.0
 10
225.3297231640138
 20
104.9544252589451
 30
0.0
 10
225.3299139674671
 20
104.9297289184376
 30
0.0
  0
SPLINE
  5
F3
330
1F
100
AcDbEntity
  8
0
  6
Continuous
 62
     7
370
     0
100
AcDbSpline
210
0.0
220
0.0
230
1.0
 70
     8
 71
     3
 72
    31
 73
    27
 74
     0
 42
0.00000001
 43
0.00000001
 40
0.0
 40
0.0
 40
0.0
 40
0.0
 40
0.0631144583947934
 40
0.1236146457694899
 40
0.1809737111859575
 40
0.2352614550083221
 40
0.2871007018338719
 40
0.3360307363034435
 40
0.3823823485850661
 40
0.4263340836597072
 40
0.4682106947981602
 40
0.5082496012618051
 40
0.546628336606585
 40
0.5836495392304462
 40
0.6189943150301618
 40
0.653583018620596
 40
0.6871561361903314
 40
0.7204221919788074
 40
0.7532302188118172
 40
0.7862601560778999
 40
0.8195039834988841
 40
0.8535452747120185
 40
0.8883082803397299
 40
0.9239958607406952
 40
0.961350304754645
 40
1.0
 40
1.0
 40
1.0
 40
1.0
 10
224.0128274623923
 20
104.9297289184376
 30
0.0
 10
224.0130928553807
 20
104.9590918236398
 30
0.0
 10
224.0136126484848
 20
105.016601389873
 30
0.0
 10
224.0168367562502
 20
105.1007482165192
 30
0.0
 10
224.022465787155
 20
105.1806589735586
 30
0.0
 10
224.0308683806577
 20
105.2562642622325
 30
0.0
 10
224.0408186256002
 20
105.3277347385349
 30
0.0
 10
224.0537540067988
 20
105.3949684067253
 30
0.0
 10
224.0683081911426
 20
105.4581161163698
 30
0.0
 10
224.085770600566
 20
105.5171120462108
 30
0.0
 10
224.1049560719115
 20
105.572463453851
 30
0.0
 10
224.1267226012296
 20
105.6240815431363
 30
0.0
 10
224.1512128994237
 20
105.6719115867425
 30
0.0
 10
224.1772234205595
 20
105.7164496090481
 30
0.0
 10
224.2061234117928
 20
105.7570028605073
 30
0.0
 10
224.236168527602
 20
105.7947094313704
 30
0.0
 10
224.2695422676123
 20
105.8281864745562
 30
0.0
 10
224.3048568801228
 20
105.8582953574194
 30
0.0
 10
224.3426323819586
 20
105.8848646918921
 30
0.0
 10
224.3826689032111
 20
105.9077908228255
 30
0.0
 10
224.4248123942379
 20
105.9280329433758
 30
0.0
 10
224.4698660633729
 20
105.9432712064379
 30
0.0
 10
224.5168946051036
 20
105.9556936212003
 30
0.0
 10
224.5662600207563
 20
105.9648317001214
 30
0.0
 10
224.6180167102575
 20
105.9702189060386
 30
0.0
 10
224.6533851322442
 20
105.9707701284046
 30
0.0
 10
224.6713707149297
 20
105.9710504365124
 30
0.0
  0
SPLINE
  5
F4
330
1F
100
AcDbEntity
  8
0
  6
Continuous
 62
     7
370
     0
100
AcDbSpline
210
0.0
220
0.0
230
1.0
 70
     8
 71
     3
 72
    15
 73
    11
 74
     0
 42
0.00000001
 43
0.00000001
 40
0.0
 40
0.0
 40
0.0
 40
0.0
 40
0.0974206681772145
 40
0.2008855880393207
 40
0.3111719701726506
 40
0.429797945825373
 40
0.5577399263645872
 40
0.6947152693641585
 40
0.8421299102060552
 40
1.0
 40
1.0
 40
1.0
 40
1.0
 10
224.2124483858177
 20
104.0880283237883
 30
0.0
 10
224.1961646288991
 20
104.1115178820363
 30
0.0
 10
224.1625868250788
 20
104.1599543566542
 30
0.0
 10
224.1232869170694
 20
104.242543038937
 30
0.0
 10
224.0882307033293
 20
104.3334615824366
 30
0.0
 10
224.0607180029173
 20
104.4344937981985
 30
0.0
 10
224.0391687001483
 20
104.544835583997
 30
0.0
 10
224.023604723352
 20
104.6647034539199
 30
0.0
 10
224.0147970447433
 20
104.7940456210931
 30
0.0
 10
224.0134988105655
 20
104.8834801623188
 30
0.0
 10
224.0128274623923
 20
104.9297289184376
 30
0.0
  0
SPLINE
  5
F5
330
1F
100
AcDbEntity
  8
0
  6
Continuous
 62
     7
370
     0
100
AcDbSpline
210
0.0
220
0.0
230
1.0
 70
     8
 71
     3
 72
    15
 73
    11
 74
     0
 42
0.00000001
 43
0.00000001
 40
0.0
 40
0.0
 40
0.0
 40
0.0
 40
0.1379032299933934
 40
0.2688733426002937
 40
0.3951781273461133
 40
0.5170892381308875
 40
0.6367430265135479
 40
0.756221816463797
 40
0.8766283594636795
 40
1.0
 40
1.0
 40
1.0
 40
1.0
 10
224.6713707149297
 20
103.8900537584942
 30
0.0
 10
224.647609932992
 20
103.8907315360554
 30
0.0
 10
224.601282948028
 20
103.8920530157511
 30
0.0
 10
224.5336258024425
 20
103.9010316563135
 30
0.0
 10
224.4701259625192
 20
103.9168344852663
 30
0.0
 10
224.4102478434728
 20
103.9380283071909
 30
0.0
 10
224.3546644917336
 20
103.9663762644716
 30
0.0
 10
224.3031105188985
 20
104.0008670900015
 30
0.0
 10
224.2545499850494
 20
104.0406983182956
 30
0.0
 10
224.2265955895636
 20
104.0721242431069
 30
0.0
 10
224.2124483858177
 20
104.0880283237883
 30
0.0
  0
SPLINE
  5
F6
330
1F
100
AcDbEntity
  8
0
  6
Continuous
 62
     7
370
     0
100
AcDbSpline
210
0.0
220
0.0
230
1.0
 70
     8
 71
     3
 72
    15
 73
    11
 74
     0
 42
0.00000001
 43
0.00000001
 40
0.0
 40
0.0
 40
0.0
 40
0.0
 40
0.1426572507006138
 40
0.2811689939054436
 40
0.416977192367974
 40
0.5508524927475579
 40
0.678364170261812
 40
0.7950324430070947
 40
0.9019981783473519
 40
1.0
 40
1.0
 40
1.0
 40
1.0
 10
221.0362119609233
 20
105.4573866995332
 30
0.0
 10
221.0691283568425
 20
105.4743387093317
 30
0.0
 10
221.1340046241064
 20
105.5077501168578
 30
0.0
 10
221.225660760968
 20
105.5654562107254
 30
0.0
 10
221.3112316242976
 20
105.6280119919925
 30
0.0
 10
221.3893006775295
 20
105.6954036107926
 30
0.0
 10
221.4592846090892
 20
105.7642899428158
 30
0.0
 10
221.5182610845046
 20
105.8337989576463
 30
0.0
 10
221.5676088462243
 20
105.9013827550604
 30
0.0
 10
221.5923675531275
 20
105.9485149587584
 30
0.0
 10
221.6042055162368
 20
105.9710504365124
 30
0.0
  0
LINE
  5
F7
330
1F
100
AcDbEntity
  8
0
  6
Continuous
 62
     7
370
     0
100
AcDbLine
 10
221.0362119609
 20
105.2145488752
 30
0.0
 11
221.0362119609
 21
105.4573866995
 31
0.0
  0
SPLINE
  5
F8
330
1F
100
AcDbEntity
  8
0
  6
Continuous
 62
     7
370
     0
100
AcDbSpline
210
0.0
220
0.0
230
1.0
 70
     8
 71
     3
 72
    15
 73
    11
 74
     0
 42
0.00000001
 43
0.00000001
 40
0.0
 40
0.0
 40
0.0
 40
0.0
 40
0.1116703001015866
 40
0.232094480856018
 40
0.3627434591045532
 40
0.5025575097108851
 40
0.6415251033312813
 40
0.7710984952996682
 40
0.8901617573732524
 40
1.0
 40
1.0
 40
1.0
 40
1.0
 10
221.5103631027502
 20
105.5174787713273
 30
0.0
 10
221.495195511252
 20
105.5028514954273
 30
0.0
 10
221.4636713345334
 20
105.4724503054667
 30
0.0
 10
221.4103830440503
 20
105.4294250302082
 30
0.0
 10
221.3509065016972
 20
105.3858170899589
 30
0.0
 10
221.2860140482217
 20
105.3438831802602
 30
0.0
 10
221.2198671696239
 20
105.3044069264839
 30
0.0
 10
221.155944727636
 20
105.2689041053341
 30
0.0
 10
221.0953139346521
 20
105.2388601046499
 30
0.0
 10
221.0553761038423
 20
105.2224319262172
 30
0.0
 10
221.0362119609233
 20
105.2145488751601
 30
0.0
  0
LINE
  5
F9
330
1F
100
AcDbEntity
  8
0
  6
Continuous
 62
     7
370
     0
100
AcDbLine
 10
221.5103631028
 20
103.9163954886
 30
0.0
 11
221.5103631028
 21
105.5174787713
 31
0.0
  0
LINE
  5
FA
330
1F
100
AcDbEntity
  8
0
  6
Continuous
 62
     7
370
     0
100
AcDbLine
 10
221.7737804038
 20
103.9163954886
 30
0.0
 11
221.5103631028
 21
103.9163954886
 31
0.0
  0
LINE
  5
FB
330
1F
100
AcDbEntity
  8
0
  6
Continuous
 62
     7
370
     0
100
AcDbLine
 10
221.7737804038
 20
105.9710504365
 30
0.0
 11
221.7737804038
 21
103.9163954886
 31
0.0
  0
LINE
  5
FC
330
1F
100
AcDbEntity
  8
0
  6
Continuous
 62
     7
370
     0
100
AcDbLine
 10
221.6042055162
 20
105.9710504365
 30
0.0
 11
221.7737804038
 21
105.9710504365
 31
0.0
  0
SPLINE
  5
FD
330
1F
100
AcDbEntity
  8
0
  6
Continuous
 62
     7
370
     0
100
AcDbSpline
210
0.0
220
0.0
230
1.0
 70
     8
 71
     3
 72
    23
 73
    19
 74
     0
 42
0.00000001
 43
0.00000001
 40
0.0
 40
0.0
 40
0.0
 40
0.0
 40
0.0635999003471699
 40
0.1252966507935535
 40
0.1855687201945882
 40
0.2446982110006627
 40
0.303716806189989
 40
0.3629196509481438
 40
0.4233003138688771
 40
0.4851773095450755
 40
0.5470834132243567
 40
0.608524799634247
 40
0.6699648532447271
 40
0.7322993779782991
 40
0.7956502934901157
 40
0.8610554709467161
 40
0.929122115173219
 40
1.0
 40
1.0
 40
1.0
 40
1.0
 10
219.640100265544
 20
104.5144350798062
 30
0.0
 10
219.639576779894
 20
104.492862813906
 30
0.0
 10
219.6385454732674
 20
104.4503638060055
 30
0.0
 10
219.6294840888435
 20
104.3879802498666
 30
0.0
 10
219.6157738130822
 20
104.3280523317698
 30
0.0
 10
219.595782648232
 20
104.2708332094245
 30
0.0
 10
219.5702489638853
 20
104.2162824340547
 30
0.0
 10
219.538663487653
 20
104.1644792193472
 30
0.0
 10
219.5013365573812
 20
104.1154768543172
 30
0.0
 10
219.4593692528149
 20
104.0691230241178
 30
0.0
 10
219.4124498313732
 20
104.0272211692247
 30
0.0
 10
219.3616917085154
 20
103.990296389533
 30
0.0
 10
219.3069044332497
 20
103.9593671786077
 30
0.0
 10
219.2487527625802
 20
103.9337579031578
 30
0.0
 10
219.1869582462811
 20
103.9139108096257
 30
0.0
 10
219.1216003169097
 20
103.900013636034
 30
0.0
 10
219.0527007234282
 20
103.8917384807395
 30
0.0
 10
219.0055893154674
 20
103.8906228566523
 30
0.0
 10
218.9815570130066
 20
103.8900537584942
 30
0.0
  0
SPLINE
  5
FE
330
1F
100
AcDbEntity
  8
0
  6
Continuous
 62
     7
370
     0
100
AcDbSpline
210
0.0
220
0.0
230
1.0
 70
     8
 71
     3
 72
    23
 73
    19
 74
     0
 42
0.00000001
 43
0.00000001
 40
0.0
 40
0.0
 40
0.0
 40
0.0
 40
0.0690130029109932
 40
0.1352355440560497
 40
0.1996111851157138
 40
0.2624185195032886
 40
0.3237234972102992
 40
0.3837653656042444
 40
0.4437730350956272
 40
0.5037949564977896
 40
0.5638225777168209
 40
0.6234843128834681
 40
0.6834691722744386
 40
0.7435907624559172
 40
0.8057272199738402
 40
0.8686162107352969
 40
0.933278202847215
 40
1.0
 40
1.0
 40
1.0
 40
1.0
 10
219.256498820941
 20
105.0433276295003
 30
0.0
 10
219.2718378077718
 20
105.0381207702948
 30
0.0
 10
219.3018955670612
 20
105.0279175852748
 30
0.0
 10
219.344388270803
 20
105.0080794491533
 30
0.0
 10
219.3843938741677
 20
104.9866892295216
 30
0.0
 10
219.4221379731672
 20
104.9635343037912
 30
0.0
 10
219.4562273401107
 20
104.9368926952964
 30
0.0
 10
219.4877992964224
 20
104.908339611954
 30
0.0
 10
219.516721099646
 20
104.8774726846737
 30
0.0
 10
219.5425977086562
 20
104.8440293869874
 30
0.0
 10
219.5657002498604
 20
104.8087116365798
 30
0.0
 10
219.5854778589696
 20
104.7714333271775
 30
0.0
 10
219.6022746025775
 20
104.7327250667544
 30
0.0
 10
219.6166296780864
 20
104.6924073577601
 30
0.0
 10
219.6271149260282
 20
104.6501962070784
 30
0.0
 10
219.6344513135213
 20
104.6062855972506
 30
0.0
 10
219.6391060445475
 20
104.560906952581
 30
0.0
 10
219.6397654127372
 20
104.5300867680027
 30
0.0
 10
219.640100265544
 20
104.5144350798062
 30
0.0
  0
SPLINE
  5
FF
330
1F
100
AcDbEntity
  8
0
  6
Continuous
 62
     7
370
     0
100
AcDbSpline
210
0.0
220
0.0
230
1.0
 70
     8
 71
     3
 72
    15
 73
    11
 74
     0
 42
0.00000001
 43
0.00000001
 40
0.0
 40
0.0
 40
0.0
 40
0.0
 40
0.1248350921668871
 40
0.2447781332833286
 40
0.3609889778410595
 40
0.4779641722472781
 40
0.5969221175582977
 40
0.7215907566966706
 40
0.8550978657574203
 40
1.0
 40
1.0
 40
1.0
 40
1.0
 10
219.5610750752395
 20
105.4462737821467
 30
0.0
 10
219.5603222520071
 20
105.4236869800977
 30
0.0
 10
219.5588461072601
 20
105.3793985100337
 30
0.0
 10
219.5438035321343
 20
105.315556312307
 30
0.0
 10
219.5203583920664
 20
105.2559564209448
 30
0.0
 10
219.4864730899841
 20
105.2017347062801
 30
0.0
 10
219.4435586151545
 20
105.1523311794883
 30
0.0
 10
219.3903051744489
 20
105.1093841518868
 30
0.0
 10
219.3275215177319
 20
105.0719247390157
 30
0.0
 10
219.2808103346176
 20
105.0531165990904
 30
0.0
 10
219.256498820941
 20
105.0433276295003
 30
0.0
  0
SPLINE
  5
100
330
1F
100
AcDbEntity
  8
0
  6
Continuous
 62
     7
370
     0
100
AcDbSpline
210
0.0
220
0.0
230
1.0
 70
     8
 71
     3
 72
    23
 73
    19
 74
     0
 42
0.00000001
 43
0.00000001
 40
0.0
 40
0.0
 40
0.0
 40
0.0
 40
0.0732007449685416
 40
0.1425867913224124
 40
0.2096247814680876
 40
0.274882926768208
 40
0.3379306095315751
 40
0.4004618221882003
 40
0.4625006206857345
 40
0.5250054581372535
 40
0.5866888527108447
 40
0.6468127657705337
 40
0.7052153157505644
 40
0.7628810210075593
 40
0.8207275416930105
 40
0.8792954957245831
 40
0.9385111654136069
 40
0.9999999999999999
 40
0.9999999999999999
 40
0.9999999999999999
 40
0.9999999999999999
 10
218.9782642967439
 20
105.9710504365124
 30
0.0
 10
218.9996862632186
 20
105.9705677190908
 30
0.0
 10
219.0414138366846
 20
105.9696274400227
 30
0.0
 10
219.1024367103095
 20
105.9625476354909
 30
0.0
 10
219.1603226861245
 20
105.9506814420402
 30
0.0
 10
219.2150376839077
 20
105.9338463008414
 30
0.0
 10
219.2666679636952
 20
105.9123215591374
 30
0.0
 10
219.3148742633373
 20
105.8858648260487
 30
0.0
 10
219.3601528374237
 20
105.8549124572918
 30
0.0
 10
219.4013463811955
 20
105.8190953348614
 30
0.0
 10
219.438827595909
 20
105.7802095874877
 30
0.0
 10
219.471301528128
 20
105.7385497901108
 30
0.0
 10
219.4991533862051
 20
105.6950880459254
 30
0.0
 10
219.5221687622407
 20
105.649560314829
 30
0.0
 10
219.5391956244536
 20
105.6014481578697
 30
0.0
 10
219.5521739154991
 20
105.5516580303599
 30
0.0
 10
219.5597019259204
 20
105.4995983285409
 30
0.0
 10
219.560611648026
 20
105.4642704017438
 30
0.0
 10
219.5610750752395
 20
105.4462737821467
 30
0.0
  0
SPLINE
  5
101
330
1F
100
AcDbEntity
  8
0
  6
Continuous
 62
     7
370
     0
100
AcDbSpline
210
0.0
220
0.0
230
1.0
 70
     8
 71
     3
 72
    23
 73
    19
 74
     0
 42
0.00000001
 43
0.00000001
 40
0.0
 40
0.0
 40
0.0
 40
0.0
 40
0.0621313717366117
 40
0.1219658247853497
 40
0.1805702366487598
 40
0.2385759705888209
 40
0.2960002420906481
 40
0.3543589964435931
 40
0.4137812280524365
 40
0.4750979653520684
 40
0.5372798973856026
 40
0.5989179536770425
 40
0.6612351129787322
 40
0.7243219805737479
 40
0.7892171825086325
 40
0.8563966620881328
 40
0.9265077687361052
 40
1.0
 40
1.0
 40
1.0
 40
1.0
 10
218.4020389507737
 20
105.452859214672
 30
0.0
 10
218.4024909530912
 20
105.4708591427554
 30
0.0
 10
218.403378247769
 20
105.5061935642143
 30
0.0
 10
218.411044675711
 20
105.558040845709
 30
0.0
 10
218.4233235645858
 20
105.6077235126269
 30
0.0
 10
218.4407501808338
 20
105.6551013407061
 30
0.0
 10
218.4625828748551
 20
105.7005642928786
 30
0.0
 10
218.4901320528286
 20
105.743279467664
 30
0.0
 10
218.5217981217886
 20
105.7844540823522
 30
0.0
 10
218.5588934168236
 20
105.8224237336962
 30
0.0
 10
218.59977179066
 20
105.8572002594197
 30
0.0
 10
218.6440494489493
 20
105.8881479517292
 30
0.0
 10
218.6920652049326
 20
105.9134556404063
 30
0.0
 10
218.7430184991826
 20
105.9346150007351
 30
0.0
 10
218.7971612705763
 20
105.9511805425987
 30
0.0
 10
218.8546842391119
 20
105.962462599478
 30
0.0
 10
218.9153846237419
 20
105.9696388246355
 30
0.0
 10
218.9569779688488
 20
105.9705725709028
 30
0.0
 10
218.9782642967439
 20
105.9710504365124
 30
0.0
  0
SPLINE
  5
102
330
1F
100
AcDbEntity
  8
0
  6
Continuous
 62
     7
370
     0
100
AcDbSpline
210
0.0
220
0.0
230
1.0
 70
     8
 71
     3
 72
    15
 73
    11
 74
     0
 42
0.00000001
 43
0.00000001
 40
0.0
 40
0.0
 40
0.0
 40
0.0
 40
0.1453591950554989
 40
0.2787017789350165
 40
0.4036022344180536
 40
0.5216687911804251
 40
0.6375206936077398
 40
0.7537041507630958
 40
0.8732127703640606
 40
1.0
 40
1.0
 40
1.0
 40
1.0
 10
218.7132006375977
 20
105.0433276295003
 30
0.0
 10
218.6882069871828
 20
105.0531052870906
 30
0.0
 10
218.6402858712875
 20
105.0718522990232
 30
0.0
 10
218.5756526405978
 20
105.109370346828
 30
0.0
 10
218.5209509420878
 20
105.1525299199858
 30
0.0
 10
218.4768524403057
 20
105.2023717833712
 30
0.0
 10
218.4432413646431
 20
105.2578655693755
 30
0.0
 10
218.4190400613295
 20
105.3183037342586
 30
0.0
 10
218.4048649335207
 20
105.3840229855577
 30
0.0
 10
218.4029993227225
 20
105.4294661548357
 30
0.0
 10
218.4020389507737
 20
105.452859214672
 30
0.0
  0
SPLINE
  5
103
330
1F
100
AcDbEntity
  8
0
  6
Continuous
 62
     7
370
     0
100
AcDbSpline
210
0.0
220
0.0
230
1.0
 70
     8
 71
     3
 72
    23
 73
    19
 74
     0
 42
0.00000001
 43
0.00000001
 40
0.0
 40
0.0
 40
0.0
 40
0.0
 40
0.0698340680322546
 40
0.1370265239564767
 40
0.2014822968650622
 40
0.2645399492437557
 40
0.3259725932884495
 40
0.3863863095292152
 40
0.4457607667910172
 40
0.5056119070745054
 40
0.5651144217391008
 40
0.6247503916637622
 40
0.6841789512645825
 40
0.7442191416569944
 40
0.8051791454666236
 40
0.8683948608225696
 40
0.9332039334133245
 40
1.0
 40
1.0
 40
1.0
 40
1.0
 10
218.3230137604693
 20
104.5214321018645
 30
0.0
 10
218.3233710715754
 20
104.5379026499796
 30
0.0
 10
218.3240721777865
 20
104.5702207150654
 30
0.0
 10
218.3283549980799
 20
104.61762252233
 30
0.0
 10
218.3368905766565
 20
104.6628014270589
 30
0.0
 10
218.3478849455181
 20
104.7060236682613
 30
0.0
 10
218.3618443539017
 20
104.7473973763066
 30
0.0
 10
218.3790659411716
 20
104.7865976432517
 30
0.0
 10
218.3999601633968
 20
104.8235297262677
 30
0.0
 10
218.4236973699219
 20
104.8584339408727
 30
0.0
 10
218.450577097104
 20
104.8910652465645
 30
0.0
 10
218.4801636867678
 20
104.921137884028
 30
0.0
 10
218.5125646109068
 20
104.948309797204
 30
0.0
 10
218.547051763206
 20
104.9733745958298
 30
0.0
 10
218.5850707214898
 20
104.9945592682193
 30
0.0
 10
218.6252075727573
 20
105.0140001523275
 30
0.0
 10
218.6681523758276
 20
105.03057962174
 30
0.0
 10
218.698034163779
 20
105.0390357363542
 30
0.0
 10
218.7132006375977
 20
105.0433276295003
 30
0.0
  0
SPLINE
  5
104
330
1F
100
AcDbEntity
  8
0
  6
Continuous
 62
     7
370
     0
100
AcDbSpline
210
0.0
220
0.0
230
1.0
 70
     8
 71
     3
 72
    23
 73
    19
 74
     0
 42
0.00000001
 43
0.00000001
 40
0.0
 40
0.0
 40
0.0
 40
0.0
 40
0.0704416310595481
 40
0.1380893247200281
 40
0.2031777335235315
 40
0.2661387238052539
 40
0.3279287813674604
 40
0.3891903607612971
 40
0.4502535751031184
 40
0.5123465781279282
 40
0.5738427205586503
 40
0.6339325568070916
 40
0.6934598075975581
 40
0.7524794354833053
 40
0.8123859308429278
 40
0.8730704652319968
 40
0.9351843065837714
 40
1.0
 40
1.0
 40
1.0
 40
1.0
 10
218.9815570130066
 20
103.8900537584942
 30
0.0
 10
218.9575271143602
 20
103.8906351213709
 30
0.0
 10
218.9104204186851
 20
103.8917747884378
 30
0.0
 10
218.8414578749784
 20
103.899880770883
 30
0.0
 10
218.7761934565671
 20
103.9144079405019
 30
0.0
 10
218.7144792880047
 20
103.9342752083009
 30
0.0
 10
218.6559805908965
 20
103.959191109618
 30
0.0
 10
218.6015612645056
 20
103.9908172342746
 30
0.0
 10
218.5504715904309
 20
104.0276952328584
 30
0.0
 10
218.5035195446423
 20
104.0698562626816
 30
0.0
 10
218.4612036390543
 20
104.1162051483838
 30
0.0
 10
218.4243687601484
 20
104.1659312025364
 30
0.0
 10
218.3929707901884
 20
104.2182691566855
 30
0.0
 10
218.3671309422674
 20
104.2735140525467
 30
0.0
 10
218.3474350859047
 20
104.3316663934718
 30
0.0
 10
218.3336123002936
 20
104.3925078548669
 30
0.0
 10
218.324534514633
 20
104.4559919446341
 30
0.0
 10
218.323527821427
 20
104.4993113471092
 30
0.0
 10
218.3230137604693
 20
104.5214321018645
 30
0.0
  0
SPLINE
  5
105
330
1F
100
AcDbEntity
  8
0
  6
Continuous
 62
     7
370
     0
100
AcDbSpline
210
0.0
220
0.0
230
1.0
 70
     8
 71
     3
 72
    15
 73
    11
 74
     0
 42
0.00000001
 43
0.00000001
 40
0.0
 40
0.0
 40
0.0
 40
0.0
 40
0.132461622242638
 40
0.26164950103549
 40
0.3875466984163659
 40
0.5107816292933464
 40
0.6326753605997106
 40
0.7546603541381373
 40
0.8765227798028644
 40
1.0
 40
1.0
 40
1.0
 40
1.0
 10
216.4790926533645
 20
104.6210367688107
 30
0.0
 10
216.4786262477053
 20
104.5982427162238
 30
0.0
 10
216.4777049634423
 20
104.5532179582223
 30
0.0
 10
216.4701548483633
 20
104.4868656538929
 30
0.0
 10
216.4577178281244
 20
104.4229299860427
 30
0.0
 10
216.4410680898669
 20
104.3612216214957
 30
0.0
 10
216.418572059099
 20
104.3020910160264
 30
0.0
 10
216.3912864794065
 20
104.245347172984
 30
0.0
 10
216.3598110327716
 20
104.1903979895814
 30
0.0
 10
216.3345693579755
 20
104.1565249893906
 30
0.0
 10
216.3218654518212
 20
104.1394770153928
 30
0.0
  0
SPLINE
  5
106
330
1F
100
AcDbEntity
  8
0
  6
Continuous
 62
     7
370
     0
100
AcDbSpline
210
0.0
220
0.0
230
1.0
 70
     8
 71
     3
 72
    23
 73
    19
 74
     0
 42
0.00000001
 43
0.00000001
 40
0.0
 40
0.0
 40
0.0
 40
0.0
 40
0.0619974190757221
 40
0.1220879540822937
 40
0.1813753107870036
 40
0.2395080083953663
 40
0.2978356978967516
 40
0.3568799706531185
 40
0.4172818251154289
 40
0.4796404090798165
 40
0.5425000674783568
 40
0.6049624196481908
 40
0.6669910330782646
 40
0.7302162430101637
 40
0.794172863251256
 40
0.8604581431502615
 40
0.9285781799847829
 40
1.0
 40
1.0
 40
1.0
 40
1.0
 10
215.87611398776
 20
105.2861654538735
 30
0.0
 10
215.896859207829
 20
105.285621912651
 30
0.0
 10
215.9377115773788
 20
105.2845515481615
 30
0.0
 10
215.997908958457
 20
105.2757571561569
 30
0.0
 10
216.0554677810576
 20
105.2608280927226
 30
0.0
 10
216.1108395317707
 20
105.2407208208035
 30
0.0
 10
216.1632940694428
 20
105.214065197022
 30
0.0
 10
216.2133627208112
 20
105.1817908966198
 30
0.0
 10
216.2608433414078
 20
105.1436318915698
 30
0.0
 10
216.3054675096238
 20
105.1003081635476
 30
0.0
 10
216.3459434048732
 20
105.0522142708878
 30
0.0
 10
216.3821706521623
 20
105.000918730096
 30
0.0
 10
216.4117590889152
 20
104.9453947455965
 30
0.0
 10
216.4366449949767
 20
104.8870920581124
 30
0.0
 10
216.4554144781842
 20
104.8250536078538
 30
0.0
 10
216.4696611710421
 20
104.7601598471347
 30
0.0
 10
216.4772784047463
 20
104.6915994557986
 30
0.0
 10
216.4784784389168
 20
104.6449257889716
 30
0.0
 10
216.4790926533645
 20
104.6210367688107
 30
0.0
  0
SPLINE
  5
107
330
1F
100
AcDbEntity
  8
0
  6
Continuous
 62
     7
370
     0
100
AcDbSpline
210
0.0
220
0.0
230
1.0
 70
     8
 71
     3
 72
    15
 73
    11
 74
     0
 42
0.00000001
 43
0.00000001
 40
0.0
 40
0.0
 40
0.0
 40
0.0
 40
0.1367294018595733
 40
0.2685149167908308
 40
0.3955294046848096
 40
0.5199999535658124
 40
0.640496476841269
 40
0.7612361017625323
 40
0.8801067171759528
 40
1.0
 40
1.0
 40
1.0
 40
1.0
 10
215.5097993035361
 20
105.1491061394392
 30
0.0
 10
215.5243339647564
 20
105.1600131529425
 30
0.0
 10
215.5528777402362
 20
105.1814328021435
 30
0.0
 10
215.5974009136845
 20
105.2094790093792
 30
0.0
 10
215.6425607217995
 20
105.2331200919334
 30
0.0
 10
215.6880942778374
 20
105.2524801505569
 30
0.0
 10
215.7343632744375
 20
105.2675616021682
 30
0.0
 10
215.7810885030562
 20
105.2780394983367
 30
0.0
 10
215.8284290552444
 20
105.2851210771047
 30
0.0
 10
215.8601736876561
 20
105.285816335646
 30
0.0
 10
215.87611398776
 20
105.2861654538735
 30
0.0
  0
LINE
  5
108
330
1F
100
AcDbEntity
  8
0
  6
Continuous
 62
     7
370
     0
100
AcDbLine
 10
215.6143430449
 20
105.6812914054
 30
0.0
 11
215.5097993035
 21
105.1491061394
 31
0.0
  0
LINE
  5
109
330
1F
100
AcDbEntity
  8
0
  6
Continuous
 62
     7
370
     0
100
AcDbLine
 10
216.373725733
 20
105.6812914054
 30
0.0
 11
215.6143430449
 21
105.6812914054
 31
0.0
  0
LINE
  5
10A
330
1F
100
AcDbEntity
  8
0
  6
Continuous
 62
     7
370
     0
100
AcDbLine
 10
216.373725733
 20
105.9447087064
 30
0.0
 11
216.373725733
 21
105.6812914054
 31
0.0
  0
LINE
  5
10B
330
1F
100
AcDbEntity
  8
0
  6
Continuous
 62
     7
370
     0
100
AcDbLine
 10
215.3990817192
 20
105.9447087064
 30
0.0
 11
216.373725733
 21
105.9447087064
 31
0.0
  0
LINE
  5
10C
330
1F
100
AcDbEntity
  8
0
  6
Continuous
 62
     7
370
     0
100
AcDbLine
 10
215.1883478784
 20
104.8910395024
 30
0.0
 11
215.3990817192
 21
105.9447087064
 31
0.0
  0
LINE
  5
10D
330
1F
100
AcDbEntity
  8
0
  6
Continuous
 62
     7
370
     0
100
AcDbLine
 10
215.4517651794
 20
104.8646977722
 30
0.0
 11
215.1883478784
 21
104.8910395024
 31
0.0
  0
SPLINE
  5
10E
330
1F
100
AcDbEntity
  8
0
  6
Continuous
 62
     7
370
     0
100
AcDbSpline
210
0.0
220
0.0
230
1.0
 70
     8
 71
     3
 72
    15
 73
    11
 74
     0
 42
0.00000001
 43
0.00000001
 40
0.0
 40
0.0
 40
0.0
 40
0.0
 40
0.1478596367312514
 40
0.283561321939547
 40
0.4123693961385312
 40
0.5342363558879457
 40
0.6526916293119823
 40
0.7686630594981229
 40
0.8836524018604046
 40
1.0
 40
1.0
 40
1.0
 40
1.0
 10
215.803262640448
 20
105.04908988296
 30
0.0
 10
215.7827778715826
 20
105.0484906634311
 30
0.0
 10
215.7434927206954
 20
105.0473414959805
 30
0.0
 10
215.6870439987647
 20
105.037673962272
 30
0.0
 10
215.6356566834648
 20
105.022057293092
 30
0.0
 10
215.5899125801831
 20
104.9987825476084
 30
0.0
 10
215.5490424843073
 20
104.970977041119
 30
0.0
 10
215.5121973415859
 20
104.939513849114
 30
0.0
 10
215.4790733263959
 20
104.9044142434878
 30
0.0
 10
215.4609034555122
 20
104.8779883144555
 30
0.0
 10
215.4517651794062
 20
104.8646977722496
 30
0.0
  0
SPLINE
  5
10F
330
1F
100
AcDbEntity
  8
0
  6
Continuous
 62
     7
370
     0
100
AcDbSpline
210
0.0
220
0.0
230
1.0
 70
     8
 71
     3
 72
    23
 73
    19
 74
     0
 42
0.00000001
 43
0.00000001
 40
0.0
 40
0.0
 40
0.0
 40
0.0
 40
0.0728659334565351
 40
0.1418868719641256
 40
0.2074526264147115
 40
0.2704376800000974
 40
0.3316408722476697
 40
0.3901075774931577
 40
0.4480692869488358
 40
0.505502951924537
 40
0.5624881528337238
 40
0.6190843288847293
 40
0.6764155306922391
 40
0.7354523604507931
 40
0.7962407694486783
 40
0.8604056780892032
 40
0.9283049272851064
 40
1.0
 40
1.0
 40
1.0
 40
1.0
 10
216.2156753523496
 20
104.605396366563
 30
0.0
 10
216.2153729617596
 20
104.622145974917
 30
0.0
 10
216.2147841371487
 20
104.6547613470564
 30
0.0
 10
216.2098252732724
 20
104.7022547517571
 30
0.0
 10
216.201459086112
 20
104.7469129250202
 30
0.0
 10
216.1906340232761
 20
104.7892280778628
 30
0.0
 10
216.17571303952
 20
104.8285389839071
 30
0.0
 10
216.1580159126148
 20
104.8654156128557
 30
0.0
 10
216.1363361883727
 20
104.8990753340751
 30
0.0
 10
216.1122160645619
 20
104.9305661893862
 30
0.0
 10
216.0846678380129
 20
104.9587964722713
 30
0.0
 10
216.0533193368141
 20
104.9826333705391
 30
0.0
 10
216.0194003441582
 20
105.003495470432
 30
0.0
 10
215.9822276967853
 20
105.0204133319926
 30
0.0
 10
215.9417795056373
 20
105.0329826674076
 30
0.0
 10
215.8984577142778
 20
105.0426536400055
 30
0.0
 10
215.8518127949509
 20
105.0477401755876
 30
0.0
 10
215.8197367605219
 20
105.0486318979846
 30
0.0
 10
215.803262640448
 20
105.04908988296
 30
0.0
  0
SPLINE
  5
110
330
1F
100
AcDbEntity
  8
0
  6
Continuous
 62
     7
370
     0
100
AcDbSpline
210
0.0
220
0.0
230
1.0
 70
     8
 71
     3
 72
    23
 73
    19
 74
     0
 42
0.00000001
 43
0.00000001
 40
0.0
 40
0.0
 40
0.0
 40
0.0
 40
0.0658010376094729
 40
0.1286767959489733
 40
0.1886758749524341
 40
0.2475984367338953
 40
0.304849420118827
 40
0.3617858992828986
 40
0.4195227063685901
 40
0.4786818154207406
 40
0.5387695030440189
 40
0.5987990560131542
 40
0.6601842815006784
 40
0.722951530610966
 40
0.7879926891048742
 40
0.8554037684344732
 40
0.9261530612840041
 40
1.0
 40
1.0
 40
1.0
 40
1.0
 10
215.8020278718495
 20
104.1271293294077
 30
0.0
 10
215.8176891509419
 20
104.1275077513727
 30
0.0
 10
215.8483154645577
 20
104.1282477720129
 30
0.0
 10
215.8928709493416
 20
104.1345065692705
 30
0.0
 10
215.9349572132112
 20
104.1448266008523
 30
0.0
 10
215.9743728797953
 20
104.1592687184124
 30
0.0
 10
216.0115800213662
 20
104.1772292004623
 30
0.0
 10
216.0453443136816
 20
104.2004847530166
 30
0.0
 10
216.0775067720434
 20
104.2266262919942
 30
0.0
 10
216.1059977349696
 20
104.2577920235864
 30
0.0
 10
216.1319325159942
 20
104.2917211282783
 30
0.0
 10
216.1543161817875
 20
104.3287561893253
 30
0.0
 10
216.1731600658838
 20
104.3683773903372
 30
0.0
 10
216.1890245566514
 20
104.4105771351988
 30
0.0
 10
216.2007393253662
 20
104.4555964964088
 30
0.0
 10
216.2093564840137
 20
104.5031959795502
 30
0.0
 10
216.2148883558771
 20
104.5534059055391
 30
0.0
 10
216.2154093001759
 20
104.5878204616533
 30
0.0
 10
216.2156753523496
 20
104.605396366563
 30
0.0
  0
SPLINE
  5
111
330
1F
100
AcDbEntity
  8
0
  6
Continuous
 62
     7
370
     0
100
AcDbSpline
210
0.0
220
0.0
230
1.0
 70
     8
 71
     3
 72
    23
 73
    19
 74
     0
 42
0.00000001
 43
0.00000001
 40
0.0
 40
0.0
 40
0.0
 40
0.0
 40
0.0773613371189759
 40
0.1504798322806804
 40
0.2199772368520742
 40
0.2866809968624409
 40
0.3496784941856623
 40
0.4106796250174851
 40
0.4694271135192905
 40
0.5267557014271295
 40
0.583141980834837
 40
0.6388244277786258
 40
0.6952634704038123
 40
0.7526958048985352
 40
0.8108491833348948
 40
0.8713563036360843
 40
0.934436430984128
 40
1.0
 40
1.0
 40
1.0
 40
1.0
 10
215.4254234493047
 20
104.4959135508286
 30
0.0
 10
215.4280316941348
 20
104.4810714316084
 30
0.0
 10
215.4331051359753
 20
104.4522012014117
 30
0.0
 10
215.4427731401265
 20
104.4104106868876
 30
0.0
 10
215.4553291254568
 20
104.3715861307975
 30
0.0
 10
215.469437157309
 20
104.3353912903106
 30
0.0
 10
215.486206933244
 20
104.3022088805445
 30
0.0
 10
215.504377124406
 20
104.2715149686073
 30
0.0
 10
215.5258051514423
 20
104.2443990926889
 30
0.0
 10
215.5483338448086
 20
104.2194430669044
 30
0.0
 10
215.5730608072015
 20
104.197452394663
 30
0.0
 10
215.6002246352946
 20
104.1789134993255
 30
0.0
 10
215.6290674404764
 20
104.1627394357472
 30
0.0
 10
215.6599405172413
 20
104.1494968310552
 30
0.0
 10
215.6928911821754
 20
104.1398039418407
 30
0.0
 10
215.7275000613737
 20
104.1321385304683
 30
0.0
 10
215.7642128067709
 20
104.1282759658304
 30
0.0
 10
215.7892616623863
 20
104.1275164291184
 30
0.0
 10
215.8020278718495
 20
104.1271293294077
 30
0.0
  0
LINE
  5
112
330
1F
100
AcDbEntity
  8
0
  6
Continuous
 62
     7
370
     0
100
AcDbLine
 10
215.1620061483
 20
104.4695718207
 30
0.0
 11
215.4254234493
 21
104.4959135508
 31
0.0
  0
SPLINE
  5
113
330
1F
100
AcDbEntity
  8
0
  6
Continuous
 62
     7
370
     0
100
AcDbSpline
210
0.0
220
0.0
230
1.0
 70
     8
 71
     3
 72
    23
 73
    19
 74
     0
 42
0.00000001
 43
0.00000001
 40
0.0
 40
0.0
 40
0.0
 40
0.0
 40
0.0692980234597528
 40
0.135560844101282
 40
0.1996709556470567
 40
0.2617162384956084
 40
0.3226619299471026
 40
0.3829069237782244
 40
0.4430320330728902
 40
0.503500787350163
 40
0.5637242810171083
 40
0.6239800220534739
 40
0.6836293869955233
 40
0.7438482724857305
 40
0.80519184622951
 40
0.8676487429597676
 40
0.9327780842312613
 40
1.0
 40
1.0
 40
1.0
 40
1.0
 10
215.8003815137182
 20
103.8900537584942
 30
0.0
 10
215.7782705008161
 20
103.8905022767866
 30
0.0
 10
215.7350169212292
 20
103.8913796685977
 30
0.0
 10
215.6716859849139
 20
103.8990072974294
 30
0.0
 10
215.6114507755103
 20
103.9111706758216
 30
0.0
 10
215.5542924223123
 20
103.9286167257912
 30
0.0
 10
215.5000387225399
 20
103.950661442601
 30
0.0
 10
215.4493203048047
 20
103.9786657919884
 30
0.0
 10
215.4012570056187
 20
104.0107010234506
 30
0.0
 10
215.3569060573851
 20
104.0477541365638
 30
0.0
 10
215.3164965689764
 20
104.089082602631
 30
0.0
 10
215.2802888466828
 20
104.1338107605278
 30
0.0
 10
215.2487728796352
 20
104.1819677762771
 30
0.0
 10
215.221963878969
 20
104.2332654889734
 30
0.0
 10
215.1996198148788
 20
104.2876547026845
 30
0.0
 10
215.1825257224265
 20
104.345506644561
 30
0.0
 10
215.1689857786647
 20
104.4062536979492
 30
0.0
 10
215.1643570861365
 20
104.4482444776975
 30
0.0
 10
215.1620061482897
 20
104.4695718207271
 30
0.0
  0
SPLINE
  5
114
330
1F
100
AcDbEntity
  8
0
  6
Continuous
 62
     7
370
     0
100
AcDbSpline
210
0.0
220
0.0
230
1.0
 70
     8
 71
     3
 72
    15
 73
    11
 74
     0
 42
0.00000001
 43
0.00000001
 40
0.0
 40
0.0
 40
0.0
 40
0.0
 40
0.1278926194654212
 40
0.2515785135038573
 40
0.3727928197023035
 40
0.4927776986078535
 40
0.6135900692425712
 40
0.7378086492801463
 40
0.8661799015391671
 40
0.9999999999999999
 40
0.9999999999999999
 40
0.9999999999999999
 40
0.9999999999999999
 10
216.3218654518212
 20
104.1394770153928
 30
0.0
 10
216.3057254952325
 20
104.1195766644677
 30
0.0
 10
216.273976467778
 20
104.0804305376243
 30
0.0
 10
216.2190033733095
 20
104.0296212079771
 30
0.0
 10
216.1599065173499
 20
103.9864402703793
 30
0.0
 10
216.0963342073313
 20
103.9513588879594
 30
0.0
 10
216.028713224745
 20
103.923168026519
 30
0.0
 10
215.9562128643567
 20
103.904408066786
 30
0.0
 10
215.8797091682957
 20
103.8918100107339
 30
0.0
 10
215.8271878966351
 20
103.8906472308499
 30
0.0
 10
215.8003815137182
 20
103.8900537584942
 30
0.0
  0
SPLINE
  5
115
330
1F
100
AcDbEntity
  8
0
  6
Continuous
 62
     7
370
     0
100
AcDbSpline
210
0.0
220
0.0
230
1.0
 70
     8
 71
     3
 72
    27
 73
    23
 74
     0
 42
0.00000001
 43
0.00000001
 40
0.0
 40
0.0
 40
0.0
 40
0.0
 40
0.0467628351215619
 40
0.091968696607212
 40
0.1358043853805056
 40
0.1782315801839235
 40
0.2194414332265379
 40
0.2601769432685921
 40
0.3002796061140319
 40
0.3405476414666171
 40
0.3803111902076692
 40
0.4196419535698123
 40
0.4590173240985177
 40
0.4981819588897615
 40
0.5376702145628715
 40
0.5779133315743612
 40
0.6186488416164155
 40
0.6607616027603175
 40
0.7452991770631804
 40
0.8297447416906314
 40
0.9146020866092538
 40
1.0
 40
1.0
 40
1.0
 40
1.0
 10
211.6955991027461
 20
105.7603165957004
 30
0.0
 10
211.6774735250505
 20
105.760053611571
 30
0.0
 10
211.6418258627224
 20
105.7595363993972
 30
0.0
 10
211.5894551584062
 20
105.7538755695321
 30
0.0
 10
211.5391610669316
 20
105.7455377195285
 30
0.0
 10
211.4913184284421
 20
105.7330343966856
 30
0.0
 10
211.4456654446034
 20
105.7174460045185
 30
0.0
 10
211.4024730282374
 20
105.6980356981012
 30
0.0
 10
211.361373765396
 20
105.6752845421551
 30
0.0
 10
211.3228263447911
 20
105.6490559132211
 30
0.0
 10
211.2871547226378
 20
105.6195698865516
 30
0.0
 10
211.2533908743584
 20
105.5883985428784
 30
0.0
 10
211.223155839266
 20
105.5540881219198
 30
0.0
 10
211.1952966649289
 20
105.5177699741504
 30
0.0
 10
211.170624609542
 20
105.4788023315984
 30
0.0
 10
211.1484156267131
 20
105.4377159807288
 30
0.0
 10
211.1288112817738
 20
105.3941741866494
 30
0.0
 10
211.1074412145699
 20
105.3328924094312
 30
0.0
 10
211.085651566818
 20
105.2539628976444
 30
0.0
 10
211.0667490205224
 20
105.1573787577006
 30
0.0
 10
211.0547085441873
 20
105.0592729412323
 30
0.0
 10
211.0533684346703
 20
104.9932851810723
 30
0.0
 10
211.0526962524564
 20
104.9601865438675
 30
0.0
  0
SPLINE
  5
116
330
1F
100
AcDbEntity
  8
0
  6
Continuous
 62
     7
370
     0
100
AcDbSpline
210
0.0
220
0.0
230
1.0
 70
     8
 71
     3
 72
    23
 73
    19
 74
     0
 42
0.00000001
 43
0.00000001
 40
0.0
 40
0.0
 40
0.0
 40
0.0
 40
0.0772311103286299
 40
0.1511651795217243
 40
0.2207847057253998
 40
0.2871495176777696
 40
0.3506324812950841
 40
0.4113067715078916
 40
0.4699644151376497
 40
0.5267072266832779
 40
0.5824983333641278
 40
0.6385087274080254
 40
0.6949179812139082
 40
0.7524203526591543
 40
0.8112509754155086
 40
0.8718561089908092
 40
0.9346441878526853
 40
1.0
 40
1.0
 40
1.0
 40
1.0
 10
212.2117323769222
 20
105.3380257350108
 30
0.0
 10
212.2060419618463
 20
105.3557973885829
 30
0.0
 10
212.1949040588323
 20
105.3905820134729
 30
0.0
 10
212.1751276225248
 20
105.4401562858195
 30
0.0
 10
212.153769730693
 20
105.48617740736
 30
0.0
 10
212.1303216208005
 20
105.5283325472028
 30
0.0
 10
212.1047324758867
 20
105.5666318027517
 30
0.0
 10
212.0775915459801
 20
105.6015406445254
 30
0.0
 10
212.0482485615978
 20
105.6324074936482
 30
0.0
 10
212.0173003835632
 20
105.6599440629068
 30
0.0
 10
211.9839478390596
 20
105.6834025847668
 30
0.0
 10
211.948972856568
 20
105.7041906956428
 30
0.0
 10
211.9116379890009
 20
105.7213896873797
 30
0.0
 10
211.8724803259277
 20
105.7359364813982
 30
0.0
 10
211.8311338648282
 20
105.7470081591008
 30
0.0
 10
211.7877669740027
 20
105.7547975211171
 30
0.0
 10
211.7423415502769
 20
105.7593056222309
 30
0.0
 10
211.7113866753898
 20
105.7599751326848
 30
0.0
 10
211.6955991027461
 20
105.7603165957004
 30
0.0
  0
LINE
  5
117
330
1F
100
AcDbEntity
  8
0
  6
Continuous
 62
     7
370
     0
100
AcDbLine
 10
212.501491408
 20
105.4001757545
 30
0.0
 11
212.2117323769
 21
105.338025735
 31
0.0
  0
SPLINE
  5
118
330
1F
100
AcDbEntity
  8
0
  6
Continuous
 62
     7
370
     0
100
AcDbSpline
210
0.0
220
0.0
230
1.0
 70
     8
 71
     3
 72
    23
 73
    19
 74
     0
 42
0.00000001
 43
0.00000001
 40
0.0
 40
0.0
 40
0.0
 40
0.0
 40
0.0686494919759957
 40
0.134937373785155
 40
0.1988418982006104
 40
0.2614093284183097
 40
0.3225167637069052
 40
0.3823768656987784
 40
0.4424709047536874
 40
0.5022278334792912
 40
0.5621014330908561
 40
0.62173160809488
 40
0.6818513124344153
 40
0.7420491672939588
 40
0.8039081304743815
 40
0.8671621602461707
 40
0.9323605979385298
 40
1.0
 40
1.0
 40
1.0
 40
1.0
 10
211.7095931468625
 20
105.9973921666139
 30
0.0
 10
211.7341690404719
 20
105.9969289231786
 30
0.0
 10
211.7824753927351
 20
105.9960183723385
 30
0.0
 10
211.8533563581568
 20
105.9885289120651
 30
0.0
 10
211.9212418164145
 20
105.9759848865193
 30
0.0
 10
211.9864259274148
 20
105.9595283112728
 30
0.0
 10
212.0482309841399
 20
105.9369958340995
 30
0.0
 10
212.1073279871758
 20
105.9102073084412
 30
0.0
 10
212.1631290383704
 20
105.8780241398426
 30
0.0
 10
212.216068317513
 20
105.8413307799807
 30
0.0
 10
212.2652840544218
 20
105.8000595577224
 30
0.0
 10
212.3114649710375
 20
105.7551964312762
 30
0.0
 10
212.3527280521795
 20
105.7056201497478
 30
0.0
 10
212.3907075667065
 20
105.6525305474889
 30
0.0
 10
212.4242085524426
 20
105.5951914528892
 30
0.0
 10
212.4544634767678
 20
105.5341028012853
 30
0.0
 10
212.4804818311278
 20
105.4688104683986
 30
0.0
 10
212.4944029464909
 20
105.4233325525615
 30
0.0
 10
212.5014914080387
 20
105.400175754469
 30
0.0
  0
SPLINE
  5
119
330
1F
100
AcDbEntity
  8
0
  6
Continuous
 62
     7
370
     0
100
AcDbSpline
210
0.0
220
0.0
230
1.0
 70
     8
 71
     3
 72
    31
 73
    27
 74
     0
 42
0.00000001
 43
0.00000001
 40
0.0
 40
0.0
 40
0.0
 40
0.0
 40
0.0494014326173349
 40
0.0976047534771127
 40
0.1442547055445423
 40
0.1894721438466749
 40
0.2339150059350921
 40
0.2772371111508619
 40
0.3198588355644323
 40
0.3619566544332702
 40
0.4034857542265475
 40
0.4439336363338552
 40
0.4836491750513743
 40
0.5228932833172718
 40
0.5618583840947368
 40
0.6007948668981946
 40
0.6401043361891355
 40
0.6796434268265384
 40
0.7193997691904886
 40
0.7588541926680972
 40
0.7983154646830742
 40
0.8378024081343659
 40
0.8774685864444087
 40
0.9176827969423332
 40
0.9583928898538524
 40
0.9999999999999999
 40
0.9999999999999999
 40
0.9999999999999999
 40
0.9999999999999999
 10
210.76293722134
 20
104.958951775269
 30
0.0
 10
210.7634020797142
 20
104.9850263110429
 30
0.0
 10
210.7643205224519
 20
105.0365430080577
 30
0.0
 10
210.7695051168099
 20
105.1125573898898
 30
0.0
 10
210.7790273373817
 20
105.1859205675447
 30
0.0
 10
210.7922509320605
 20
105.2566807977483
 30
0.0
 10
210.808984069511
 20
105.3248953861207
 30
0.0
 10
210.8296392519877
 20
105.3905975665158
 30
0.0
 10
210.8539551923029
 20
105.4537032736969
 30
0.0
 10
210.8818577593959
 20
105.5142820943517
 30
0.0
 10
210.9135323329661
 20
105.5716578090935
 30
0.0
 10
210.9480335565892
 20
105.6259119821484
 30
0.0
 10
210.9861844169374
 20
105.6761537841289
 30
0.0
 10
211.0268537977498
 20
105.7233430984982
 30
0.0
 10
211.0710574440672
 20
105.7666941702079
 30
0.0
 10
211.1186603773832
 20
105.806305199587
 30
0.0
 10
211.1692518998535
 20
105.8425374894241
 30
0.0
 10
211.2228246270244
 20
105.8750546737448
 30
0.0
 10
211.2786783009676
 20
105.9035868016519
 30
0.0
 10
211.3359833148682
 20
105.9290006165984
 30
0.0
 10
211.3949675951289
 20
105.9498306925173
 30
0.0
 10
211.4551634977153
 20
105.9671500632898
 30
0.0
 10
211.5167006189432
 20
105.9809378913178
 30
0.0
 10
211.5797227469739
 20
105.9901578549215
 30
0.0
 10
211.6441716483395
 20
105.9961662975549
 30
0.0
 10
211.6876281310831
 20
105.9969805858059
 30
0.0
 10
211.7095931468625
 20
105.9973921666139
 30
0.0
  0
SPLINE
  5
11A
330
1F
100
AcDbEntity
  8
0
  6
Continuous
 62
     7
370
     0
100
AcDbSpline
210
0.0
220
0.0
230
1.0
 70
     8
 71
     3
 72
    31
 73
    27
 74
     0
 42
0.00000001
 43
0.00000001
 40
0.0
 40
0.0
 40
0.0
 40
0.0
 40
0.0491959188678573
 40
0.0962478839423339
 40
0.1413486305545651
 40
0.18465611934875
 40
0.226058682310063
 40
0.2661730836384061
 40
0.3052898413966903
 40
0.3432450951047079
 40
0.3808772760868657
 40
0.4184957931350257
 40
0.4563187508918002
 40
0.494236737091876
 40
0.533023528957667
 40
0.572473194333944
 40
0.613078809089891
 40
0.6549344546107934
 40
0.6973967795046183
 40
0.7398840686663996
 40
0.7821947798191174
 40
0.8250615348667028
 40
0.8679874655774052
 40
0.9114105439600777
 40
0.9553719455228146
 40
1.0
 40
1.0
 40
1.0
 40
1.0
 10
211.7153554003222
 20
103.8900537584942
 30
0.0
 10
211.6887280104847
 20
103.8904406066576
 30
0.0
 10
211.6366336501041
 20
103.8911974441757
 30
0.0
 10
211.5603184155255
 20
103.8973533594649
 30
0.0
 10
211.4877351336522
 20
103.9080298365343
 30
0.0
 10
211.4190193521108
 20
103.9228632734367
 30
0.0
 10
211.3539397817578
 20
103.9412038960259
 30
0.0
 10
211.2927662898325
 20
103.9642780244307
 30
0.0
 10
211.2356060238126
 20
103.9919191702871
 30
0.0
 10
211.1819821911259
 20
104.0233542967409
 30
0.0
 10
211.1321225504762
 20
104.0590660159478
 30
0.0
 10
211.0848932762213
 20
104.0980905656666
 30
0.0
 10
211.0414409381054
 20
104.1415022486378
 30
0.0
 10
211.000679063327
 20
104.1882760747676
 30
0.0
 10
210.9634954603452
 20
104.2390290558052
 30
0.0
 10
210.9285221362775
 20
104.293071691186
 30
0.0
 10
210.8974661189218
 20
104.3513562098707
 30
0.0
 10
210.8691764962699
 20
104.4128020153963
 30
0.0
 10
210.8443460898043
 20
104.4768142019729
 30
0.0
 10
210.8223798652852
 20
104.5421283520985
 30
0.0
 10
210.8044212758763
 20
104.6088746112642
 30
0.0
 10
210.788960089273
 20
104.6764913213046
 30
0.0
 10
210.7777282863698
 20
104.7455474303514
 30
0.0
 10
210.7688105826104
 20
104.8155248062562
 30
0.0
 10
210.7639074497934
 20
104.8868524708715
 30
0.0
 10
210.7632622492444
 20
104.9347984063017
 30
0.0
 10
210.76293722134
 20
104.958951775269
 30
0.0
  0
SPLINE
  5
11B
330
1F
100
AcDbEntity
  8
0
  6
Continuous
 62
     7
370
     0
100
AcDbSpline
210
0.0
220
0.0
230
1.0
 70
     8
 71
     3
 72
    23
 73
    19
 74
     0
 42
0.00000001
 43
0.00000001
 40
0.0
 40
0.0
 40
0.0
 40
0.0
 40
0.0715783870982365
 40
0.140016209075356
 40
0.206197439946981
 40
0.2701561038056543
 40
0.3320010402688309
 40
0.3927550109285565
 40
0.4525790344906381
 40
0.512252798847904
 40
0.5715322524285594
 40
0.630151752872219
 40
0.6887691695485556
 40
0.7481639008503594
 40
0.8087033721996509
 40
0.8702562984804197
 40
0.9339000275070017
 40
1.0
 40
1.0
 40
1.0
 40
1.0
 10
212.5541748682417
 20
104.5741155620674
 30
0.0
 10
212.5469155956652
 20
104.5469572530171
 30
0.0
 10
212.5327155575252
 20
104.4938322297764
 30
0.0
 10
212.5046403572144
 20
104.4178044409236
 30
0.0
 10
212.4731293879578
 20
104.3464556040685
 30
0.0
 10
212.4374180509536
 20
104.2799736647122
 30
0.0
 10
212.3971154889051
 20
104.2187408527196
 30
0.0
 10
212.3532895568858
 20
104.161970208334
 30
0.0
 10
212.3042043714286
 20
104.1108522656828
 30
0.0
 10
212.2516609266268
 20
104.0642072493341
 30
0.0
 10
212.1952501144091
 20
104.0230664693794
 30
0.0
 10
212.1356520558974
 20
103.9875406511526
 30
0.0
 10
212.0731548352918
 20
103.9573153912634
 30
0.0
 10
212.0075058583094
 20
103.9324599934393
 30
0.0
 10
211.9386625641459
 20
103.9137541755348
 30
0.0
 10
211.866979428043
 20
103.9001202795558
 30
0.0
 10
211.7922474267129
 20
103.891722593702
 30
0.0
 10
211.741307532067
 20
103.8906170136613
 30
0.0
 10
211.7153554003222
 20
103.8900537584942
 30
0.0
  0
LINE
  5
11C
330
1F
100
AcDbEntity
  8
0
  6
Continuous
 62
     7
370
     0
100
AcDbLine
 10
212.2644158371
 20
104.6416162455
 30
0.0
 11
212.5541748682
 21
104.5741155621
 31
0.0
  0
SPLINE
  5
11D
330
1F
100
AcDbEntity
  8
0
  6
Continuous
 62
     7
370
     0
100
AcDbSpline
210
0.0
220
0.0
230
1.0
 70
     8
 71
     3
 72
    23
 73
    19
 74
     0
 42
0.00000001
 43
0.00000001
 40
0.0
 40
0.0
 40
0.0
 40
0.0
 40
0.0633358805656859
 40
0.1251107589802128
 40
0.1846884118917139
 40
0.2432104439678636
 40
0.3008880404131166
 40
0.358370115531299
 40
0.4157614077031932
 40
0.4743866229897766
 40
0.533966264972407
 40
0.5940075641988068
 40
0.6550724073076795
 40
0.7186100426051375
 40
0.7843747830517759
 40
0.8529914722129185
 40
0.9249004292977553
 40
0.9999999999999999
 40
0.9999999999999999
 40
0.9999999999999999
 40
0.9999999999999999
 10
211.688190491155
 20
104.1271293294077
 30
0.0
 10
211.706046596689
 20
104.1275038094995
 30
0.0
 10
211.7413187188388
 20
104.1282435400928
 30
0.0
 10
211.7930321286219
 20
104.1347184435843
 30
0.0
 10
211.8428831427425
 20
104.1442600608024
 30
0.0
 10
211.8902678231325
 20
104.1589837396663
 30
0.0
 10
211.9358235473102
 20
104.1770111593695
 30
0.0
 10
211.9791770641526
 20
104.1992421206784
 30
0.0
 10
212.0201920335645
 20
104.2259794786335
 30
0.0
 10
212.0593508817369
 20
104.2563372371381
 30
0.0
 10
212.09593148491
 20
104.2908791785986
 30
0.0
 10
212.1294556411542
 20
104.3293270163659
 30
0.0
 10
212.1595305970015
 20
104.3718560285024
 30
0.0
 10
212.1874176492721
 20
104.4177836864473
 30
0.0
 10
212.2108478985512
 20
104.4684820189815
 30
0.0
 10
212.2325498417117
 20
104.5224399319828
 30
0.0
 10
212.2506334684633
 20
104.5805442716956
 30
0.0
 10
212.2597557190259
 20
104.6209664850778
 30
0.0
 10
212.2644158371252
 20
104.6416162454525
 30
0.0
  0
SPLINE
  5
11E
330
1F
100
AcDbEntity
  8
0
  6
Continuous
 62
     7
370
     0
100
AcDbSpline
210
0.0
220
0.0
230
1.0
 70
     8
 71
     3
 72
    27
 73
    23
 74
     0
 42
0.00000001
 43
0.00000001
 40
0.0
 40
0.0
 40
0.0
 40
0.0
 40
0.1053432609984026
 40
0.2043754661654296
 40
0.2980686612490644
 40
0.3870699389029766
 40
0.4297257277325169
 40
0.4709012389537418
 40
0.5111216710274202
 40
0.5501787824700682
 40
0.5883543698960263
 40
0.6266830105708967
 40
0.6644516852874769
 40
0.7025148539501567
 40
0.7404811716294024
 40
0.777618121594641
 40
0.8147160450669567
 40
0.8515265100150813
 40
0.8880984508373161
 40
0.9251116757437154
 40
0.9621036957071507
 40
1.0
 40
1.0
 40
1.0
 40
1.0
 10
211.0526962524564
 20
104.9601865438675
 30
0.0
 10
211.0534543785929
 20
104.918570546639
 30
0.0
 10
211.0549252119532
 20
104.8378317432936
 30
0.0
 10
211.069438722054
 20
104.720827880828
 30
0.0
 10
211.0915665584343
 20
104.611694771135
 30
0.0
 10
211.1182716689595
 20
104.526549200893
 30
0.0
 10
211.1450595779889
 20
104.4637442251431
 30
0.0
 10
211.1667242928467
 20
104.4197609948682
 30
0.0
 10
211.1914537005638
 20
104.379061047322
 30
0.0
 10
211.2186326906375
 20
104.3414132425485
 30
0.0
 10
211.2486113569869
 20
104.3069273980842
 30
0.0
 10
211.2809720360974
 20
104.2754203226998
 30
0.0
 10
211.315721956462
 20
104.2465888441529
 30
0.0
 10
211.3532728723722
 20
104.2217826163491
 30
0.0
 10
211.3921794018672
 20
104.1997568491225
 30
0.0
 10
211.4319505758931
 20
104.1801711162857
 30
0.0
 10
211.4726114348174
 20
104.1636063702996
 30
0.0
 10
211.5143260280329
 20
104.1507385392005
 30
0.0
 10
211.5565085710623
 20
104.1396189441638
 30
0.0
 10
211.5996236611447
 20
104.1323551028001
 30
0.0
 10
211.6436590035326
 20
104.1282556195891
 30
0.0
 10
211.6732276471286
 20
104.1275077695904
 30
0.0
 10
211.688190491155
 20
104.1271293294077
 30
0.0
  0
SPLINE
  5
11F
330
1F
100
AcDbEntity
  8
0
  6
Continuous
 62
     7
370
     0
100
AcDbSpline
210
0.0
220
0.0
230
1.0
 70
     8
 71
     3
 72
    23
 73
    19
 74
     0
 42
0.00000001
 43
0.00000001
 40
0.0
 40
0.0
 40
0.0
 40
0.0
 40
0.0704642259291749
 40
0.137956965604269
 40
0.2035785636142838
 40
0.2676916802449431
 40
0.3301858648593746
 40
0.3915337640898202
 40
0.4526637734870348
 40
0.5131537880892133
 40
0.5734535531000283
 40
0.6329675593891928
 40
0.6923319074206212
 40
0.75147419157163
 40
0.8121874455294295
 40
0.872961717848316
 40
0.935420306759491
 40
1.0
 40
1.0
 40
1.0
 40
1.0
 10
226.3123781823464
 20
108.1574140349365
 30
0.0
 10
226.3275363670448
 20
108.1526688730739
 30
0.0
 10
226.3572135136747
 20
108.1433786534875
 30
0.0
 10
226.3998774949539
 20
108.1263788546864
 30
0.0
 10
226.439925943548
 20
108.1070221508261
 30
0.0
 10
226.4774460338739
 20
108.0852767333681
 30
0.0
 10
226.5121842474268
 20
108.0609412290354
 30
0.0
 10
226.5440425658965
 20
108.0339777001091
 30
0.0
 10
226.5732418810981
 20
108.0048034001732
 30
0.0
 10
226.5997300255923
 20
107.9734360756022
 30
0.0
 10
226.6229970815582
 20
107.9400775818237
 30
0.0
 10
226.6438647241243
 20
107.9054570037675
 30
0.0
 10
226.661096315611
 20
107.8691574333814
 30
0.0
 10
226.675220423652
 20
107.8312731134333
 30
0.0
 10
226.6862393277066
 20
107.7920381359648
 30
0.0
 10
226.6941521002491
 20
107.7513015962371
 30
0.0
 10
226.6986621785778
 20
107.7091583165255
 30
0.0
 10
226.6993395779392
 20
107.6805295282417
 30
0.0
 10
226.6996839327449
 20
107.6659761327305
 30
0.0
  0
SPLINE
  5
120
330
1F
100
AcDbEntity
  8
0
  6
Continuous
 62
     7
370
     0
100
AcDbSpline
210
0.0
220
0.0
230
1.0
 70
     8
 71
     3
 72
    15
 73
    11
 74
     0
 42
0.00000001
 43
0.00000001
 40
0.0
 40
0.0
 40
0.0
 40
0.0
 40
0.1158426906010177
 40
0.2305685484828844
 40
0.3473546045205441
 40
0.4682527467344622
 40
0.5923025714800838
 40
0.7199701656206967
 40
0.8556003811349103
 40
1.0
 40
1.0
 40
1.0
 40
1.0
 10
226.6206587424404
 20
108.5994611932023
 30
0.0
 10
226.619700045742
 20
108.5774278135498
 30
0.0
 10
226.6177918950848
 20
108.5335734767911
 30
0.0
 10
226.6026051507261
 20
108.4689733714223
 30
0.0
 10
226.5786358218932
 20
108.4062470713413
 30
0.0
 10
226.5447425123385
 20
108.3461571394862
 30
0.0
 10
226.5014226143231
 20
108.2898029074935
 30
0.0
 10
226.4477183113525
 20
108.2390910820691
 30
0.0
 10
226.3844013293751
 20
108.1939129819766
 30
0.0
 10
226.336881936506
 20
108.1698317265017
 30
0.0
 10
226.3123781823464
 20
108.1574140349365
 30
0.0
  0
SPLINE
  5
121
330
1F
100
AcDbEntity
  8
0
  6
Continuous
 62
     7
370
     0
100
AcDbSpline
210
0.0
220
0.0
230
1.0
 70
     8
 71
     3
 72
    23
 73
    19
 74
     0
 42
0.00000001
 43
0.00000001
 40
0.0
 40
0.0
 40
0.0
 40
0.0
 40
0.0587320371008649
 40
0.1146029008469815
 40
0.1676568100446119
 40
0.2179667070908431
 40
0.2657752056293755
 40
0.3111706510536958
 40
0.3537918046646693
 40
0.3947449080003065
 40
0.472805951082463
 40
0.549192366561607
 40
0.6247801075795548
 40
0.7026247640242256
 40
0.7797414321940388
 40
0.8540634639886252
 40
0.92715526641035
 40
0.9999999999999999
 40
0.9999999999999999
 40
0.9999999999999999
 40
0.9999999999999999
 10
225.9411244237284
 20
109.1320580486919
 30
0.0
 10
225.9602008201977
 20
109.131984867034
 30
0.0
 10
225.9974242927862
 20
109.1318420688153
 30
0.0
 10
226.0517782599034
 20
109.1282708332231
 30
0.0
 10
226.1032555255304
 20
109.1233861235543
 30
0.0
 10
226.1519669082725
 20
109.1170895829932
 30
0.0
 10
226.1977016344982
 20
109.1079534304999
 30
0.0
 10
226.2404170846437
 20
109.0968855924796
 30
0.0
 10
226.2803355489653
 20
109.0841191988978
 30
0.0
 10
226.3291297885863
 20
109.064671846365
 30
0.0
 10
226.3853598002046
 20
109.0347382370484
 30
0.0
 10
226.4455874844715
 20
108.9900725685315
 30
0.0
 10
226.4979879097812
 20
108.9364451226901
 30
0.0
 10
226.5411057537748
 20
108.874958219354
 30
0.0
 10
226.5766302069043
 20
108.8092786103744
 30
0.0
 10
226.6018166282925
 20
108.7406575546649
 30
0.0
 10
226.6179196716457
 20
108.6705890998226
 30
0.0
 10
226.6197467499161
 20
108.6231437205868
 30
0.0
 10
226.6206587424404
 20
108.5994611932023
 30
0.0
  0
LINE
  5
122
330
1F
100
AcDbEntity
  8
0
  6
Continuous
 62
     7
370
     0
100
AcDbLine
 10
225.1718635869
 20
109.1320580487
 30
0.0
 11
225.9411244237
 21
109.1320580487
 31
0.0
  0
LINE
  5
123
330
1F
100
AcDbEntity
  8
0
  6
Continuous
 62
     7
370
     0
100
AcDbLine
 10
225.1718635869
 20
107.0774031008
 30
0.0
 11
225.1718635869
 21
109.1320580487
 31
0.0
  0
LINE
  5
124
330
1F
100
AcDbEntity
  8
0
  6
Continuous
 62
     7
370
     0
100
AcDbLine
 10
225.9431823714
 20
107.0774031008
 30
0.0
 11
225.1718635869
 21
107.0774031008
 31
0.0
  0
SPLINE
  5
125
330
1F
100
AcDbEntity
  8
0
  6
Continuous
 62
     7
370
     0
100
AcDbSpline
210
0.0
220
0.0
230
1.0
 70
     8
 71
     3
 72
    23
 73
    19
 74
     0
 42
0.00000001
 43
0.00000001
 40
0.0
 40
0.0
 40
0.0
 40
0.0
 40
0.0642545754247028
 40
0.1273603868320974
 40
0.1894718420926419
 40
0.2517207629332009
 40
0.3120272840890018
 40
0.3686746571150508
 40
0.4226814918055488
 40
0.4740604252251504
 40
0.525773772273917
 40
0.5796221048577136
 40
0.6373752855308656
 40
0.698400381820801
 40
0.7643573310122576
 40
0.8363147679791493
 40
0.9146777942540475
 40
1.0
 40
1.0
 40
1.0
 40
1.0
 10
226.6996839327449
 20
107.6659761327305
 30
0.0
 10
226.6989741649847
 20
107.6426108598566
 30
0.0
 10
226.6975673189213
 20
107.5962980459909
 30
0.0
 10
226.6862687766558
 20
107.5281333723433
 30
0.0
 10
226.6671748392899
 20
107.4625647012774
 30
0.0
 10
226.6408936583648
 20
107.4006521989655
 30
0.0
 10
226.6095785733899
 20
107.3434049754502
 30
0.0
 10
226.5739878821563
 20
107.2923219496829
 30
0.0
 10
226.5350292209348
 20
107.2479287624772
 30
0.0
 10
226.4916055538707
 20
107.210586157125
 30
0.0
 10
226.4439969822464
 20
107.1788932130809
 30
0.0
 10
226.3908588385581
 20
107.1522056815507
 30
0.0
 10
226.3326019773226
 20
107.1286698362814
 30
0.0
 10
226.2680423603271
 20
107.1098685342617
 30
0.0
 10
226.1972093749602
 20
107.094932804444
 30
0.0
 10
226.1191417526851
 20
107.0852290364614
 30
0.0
 10
226.0337195543571
 20
107.078282439442
 30
0.0
 10
225.974204867033
 20
107.0777044054885
 30
0.0
 10
225.9431823713925
 20
107.0774031007752
 30
0.0
  0
LINE
  5
126
330
1F
100
AcDbEntity
  8
0
  6
Continuous
 62
     7
370
     0
100
AcDbLine
 10
221.9845142446
 20
107.3144786717
 30
0.0
 11
222.9591582583
 21
107.3144786717
 31
0.0
  0
LINE
  5
127
330
1F
100
AcDbEntity
  8
0
  6
Continuous
 62
     7
370
     0
100
AcDbLine
 10
221.9845142446
 20
109.1320580487
 30
0.0
 11
221.9845142446
 21
107.3144786717
 31
0.0
  0
LINE
  5
128
330
1F
100
AcDbEntity
  8
0
  6
Continuous
 62
     7
370
     0
100
AcDbLine
 10
221.6947552135
 20
109.1320580487
 30
0.0
 11
221.9845142446
 21
109.1320580487
 31
0.0
  0
LINE
  5
129
330
1F
100
AcDbEntity
  8
0
  6
Continuous
 62
     7
370
     0
100
AcDbLine
 10
221.6947552135
 20
107.0774031008
 30
0.0
 11
221.6947552135
 21
109.1320580487
 31
0.0
  0
LINE
  5
12A
330
1F
100
AcDbEntity
  8
0
  6
Continuous
 62
     7
370
     0
100
AcDbLine
 10
222.9591582583
 20
107.0774031008
 30
0.0
 11
221.6947552135
 21
107.0774031008
 31
0.0
  0
LINE
  5
12B
330
1F
100
AcDbEntity
  8
0
  6
Continuous
 62
     7
370
     0
100
AcDbLine
 10
222.9591582583
 20
107.3144786717
 30
0.0
 11
222.9591582583
 21
107.0774031008
 31
0.0
  0
SPLINE
  5
12C
330
1F
100
AcDbEntity
  8
0
  6
Continuous
 62
     7
370
     0
100
AcDbSpline
210
0.0
220
0.0
230
1.0
 70
     8
 71
     3
 72
    31
 73
    27
 74
     0
 42
0.00000001
 43
0.00000001
 40
0.0
 40
0.0
 40
0.0
 40
0.0
 40
0.0430989705688968
 40
0.0855867603450731
 40
0.1269076657436391
 40
0.1679674856215208
 40
0.208449558601066
 40
0.2490254246415441
 40
0.289280534171679
 40
0.3300098489827308
 40
0.370597724099577
 40
0.4104659863326995
 40
0.4500332158929483
 40
0.4896882096042475
 40
0.5291164230741915
 40
0.5690368070925096
 40
0.6097030542359448
 40
0.6507589174942197
 40
0.6925092624061777
 40
0.7342191213706863
 40
0.7767069111468624
 40
0.8195518402403216
 40
0.8633507288313336
 40
0.9078385251300618
 40
0.9533337036124183
 40
1.0
 40
1.0
 40
1.0
 40
1.0
 10
218.2979067989662
 20
109.1583997787934
 30
0.0
 10
218.3211045239764
 20
109.1579947028432
 30
0.0
 10
218.3671710101311
 20
109.1571902952711
 30
0.0
 10
218.4352761984515
 20
109.1510698279184
 30
0.0
 10
218.5016313229563
 20
109.1401458540039
 30
0.0
 10
218.5661710404811
 20
109.1255065039528
 30
0.0
 10
218.62907102853
 20
109.1063003133173
 30
0.0
 10
218.6903688497954
 20
109.0836279896956
 30
0.0
 10
218.7495279103449
 20
109.0555337882821
 30
0.0
 10
218.806941779638
 20
109.0240795341322
 30
0.0
 10
218.8619327294713
 20
108.988896590804
 30
0.0
 10
218.9136130864309
 20
108.9500300647042
 30
0.0
 10
218.9618590597302
 20
108.9077739016495
 30
0.0
 10
219.0073187236541
 20
108.8628226777869
 30
0.0
 10
219.0484751532087
 20
108.8136593520486
 30
0.0
 10
219.0870286251446
 20
108.7617815235657
 30
0.0
 10
219.1218712828062
 20
108.7062693143733
 30
0.0
 10
219.1531267556081
 20
108.6475775530411
 30
0.0
 10
219.1810723244583
 20
108.5866127230865
 30
0.0
 10
219.2049572094845
 20
108.5231221501244
 30
0.0
 10
219.2254667244312
 20
108.4578674480032
 30
0.0
 10
219.2426349187533
 20
108.3904623785965
 30
0.0
 10
219.2549535613891
 20
108.320929985584
 30
0.0
 10
219.2647630297068
 20
108.2495698771771
 30
0.0
 10
219.269926023899
 20
108.176148824539
 30
0.0
 10
219.2708487954222
 20
108.1265515951127
 30
0.0
 10
219.2713160441231
 20
108.1014378584709
 30
0.0
  0
SPLINE
  5
12D
330
1F
100
AcDbEntity
  8
0
  6
Continuous
 62
     7
370
     0
100
AcDbSpline
210
0.0
220
0.0
230
1.0
 70
     8
 71
     3
 72
    23
 73
    19
 74
     0
 42
0.00000001
 43
0.00000001
 40
0.0
 40
0.0
 40
0.0
 40
0.0
 40
0.0752263466908988
 40
0.1465747215268522
 40
0.2145002518264754
 40
0.2795299716530227
 40
0.3424029515883814
 40
0.4034960527288082
 40
0.4637616065030392
 40
0.5238643590795866
 40
0.5832517242549664
 40
0.6413020392831351
 40
0.6988977748564887
 40
0.7562952438113087
 40
0.814627804812969
 40
0.874324768339998
 40
0.9357832838625453
 40
1.0
 40
1.0
 40
1.0
 40
1.0
 10
217.3220280166124
 20
108.0775656655664
 30
0.0
 10
217.3227421356064
 20
108.118759726332
 30
0.0
 10
217.3241335602506
 20
108.1990242646339
 30
0.0
 10
217.3371343905849
 20
108.3158997747459
 30
0.0
 10
217.3582444020323
 20
108.4258643415835
 30
0.0
 10
217.3884230313293
 20
108.5289093981276
 30
0.0
 10
217.4266745306903
 20
108.6251964166789
 30
0.0
 10
217.4731765353303
 20
108.7149434244636
 30
0.0
 10
217.5293277948044
 20
108.7971345499653
 30
0.0
 10
217.5928491780829
 20
108.8725521993003
 30
0.0
 10
217.6637996455978
 20
108.9392269291338
 30
0.0
 10
217.7393417275023
 20
108.9984436418033
 30
0.0
 10
217.8204187074286
 20
109.0478373810676
 30
0.0
 10
217.9062814963016
 20
109.0886203258999
 30
0.0
 10
217.9972948880666
 20
109.1199322899873
 30
0.0
 10
218.0932033447771
 20
109.1418535140121
 30
0.0
 10
218.1939042929734
 20
109.1559948337684
 30
0.0
 10
218.2627357478375
 20
109.1575864864248
 30
0.0
 10
218.2979067989662
 20
109.1583997787934
 30
0.0
  0
SPLINE
  5
12E
330
1F
100
AcDbEntity
  8
0
  6
Continuous
 62
     7
370
     0
100
AcDbSpline
210
0.0
220
0.0
230
1.0
 70
     8
 71
     3
 72
    31
 73
    27
 74
     0
 42
0.00000001
 43
0.00000001
 40
0.0
 40
0.0
 40
0.0
 40
0.0
 40
0.0446969998899171
 40
0.0885335629185875
 40
0.1314091332352275
 40
0.1738139421467784
 40
0.2157145332694449
 40
0.2572471603264208
 40
0.2988479641797117
 40
0.3406041827148143
 40
0.3820294481091344
 40
0.4229697500404858
 40
0.4636322295306197
 40
0.5040475437003945
 40
0.5445912057564576
 40
0.5849639251690937
 40
0.6262652162680831
 40
0.6679794005009905
 40
0.7099427472053506
 40
0.7513818550852256
 40
0.7926185649779642
 40
0.8339484357458206
 40
0.8750080506311037
 40
0.9164455302232757
 40
0.957906613728307
 40
1.0
 40
1.0
 40
1.0
 40
1.0
 10
218.2966720303677
 20
107.0510613706737
 30
0.0
 10
218.2730574723702
 20
107.0514107509853
 30
0.0
 10
218.2262829469787
 20
107.052102785884
 30
0.0
 10
218.1571489387052
 20
107.0590104738139
 30
0.0
 10
218.0897348759001
 20
107.0695483923768
 30
0.0
 10
218.0242367432429
 20
107.0847619631384
 30
0.0
 10
217.9607440413331
 20
107.1046091410945
 30
0.0
 10
217.8991816437733
 20
107.1286315373034
 30
0.0
 10
217.8393330291136
 20
107.1565080998894
 30
0.0
 10
217.7819408196173
 20
107.1890370261217
 30
0.0
 10
217.727200354929
 20
107.2252056954992
 30
0.0
 10
217.6756421993989
 20
107.2648343151581
 30
0.0
 10
217.6272948627965
 20
107.3075576721969
 30
0.0
 10
217.5829341219566
 20
107.3540819327311
 30
0.0
 10
217.5411232721458
 20
107.4027205742668
 30
0.0
 10
217.5035340989781
 20
107.4552814649583
 30
0.0
 10
217.4689389987165
 20
107.5105725788261
 30
0.0
 10
217.4383616970784
 20
107.5691268982611
 30
0.0
 10
217.4107396810003
 20
107.6292044108982
 30
0.0
 10
217.3874675358144
 20
107.6908243339141
 30
0.0
 10
217.3670158304899
 20
107.7530785534359
 30
0.0
 10
217.3507281174299
 20
107.8163507784414
 30
0.0
 10
217.3377487921765
 20
107.88049505432
 30
0.0
 10
217.3290211364904
 20
107.9454046472369
 30
0.0
 10
217.322717957192
 20
108.0111762289867
 30
0.0
 10
217.3222591541442
 20
108.0553244886279
 30
0.0
 10
217.3220280166124
 20
108.0775656655664
 30
0.0
  0
SPLINE
  5
12F
330
1F
100
AcDbEntity
  8
0
  6
Continuous
 62
     7
370
     0
100
AcDbSpline
210
0.0
220
0.0
230
1.0
 70
     8
 71
     3
 72
    31
 73
    27
 74
     0
 42
0.00000001
 43
0.00000001
 40
0.0
 40
0.0
 40
0.0
 40
0.0
 40
0.0475595569054264
 40
0.0939621052432108
 40
0.1391115332408221
 40
0.1836263101269046
 40
0.2274570284004936
 40
0.2707025105518545
 40
0.3136105321155538
 40
0.3562604510849769
 40
0.3983661529550377
 40
0.4395565149792806
 40
0.4800453830214204
 40
0.5198884957050127
 40
0.5596577503171976
 40
0.5994212546627414
 40
0.6392077550883982
 40
0.6796683749857806
 40
0.7200198525128486
 40
0.7598588655624579
 40
0.7995598848323808
 40
0.8391991446364383
 40
0.8789560762302792
 40
0.918794269302466
 40
0.9590833628432752
 40
1.0
 40
1.0
 40
1.0
 40
1.0
 10
219.2713160441231
 20
108.1014378584709
 30
0.0
 10
219.2708879425715
 20
108.0759099957508
 30
0.0
 10
219.2700421541398
 20
108.0254753012412
 30
0.0
 10
219.2643192035243
 20
107.9509678264671
 30
0.0
 10
219.2542562671398
 20
107.8785993067678
 30
0.0
 10
219.2409094953283
 20
107.8081539523063
 30
0.0
 10
219.2230252285716
 20
107.739778415657
 30
0.0
 10
219.2017725258368
 20
107.6732766599668
 30
0.0
 10
219.1760661811756
 20
107.6090447829708
 30
0.0
 10
219.1470337189243
 20
107.546927972548
 30
0.0
 10
219.1141835001977
 20
107.4877805504077
 30
0.0
 10
219.0779474799107
 20
107.4320161032317
 30
0.0
 10
219.0382999871715
 20
107.3801562633584
 30
0.0
 10
218.9958432627948
 20
107.331564842925
 30
0.0
 10
218.9495858298115
 20
107.287110747414
 30
0.0
 10
218.9000972852741
 20
107.246378298412
 30
0.0
 10
218.8475679123599
 20
107.2089833426371
 30
0.0
 10
218.7918212390867
 20
107.1759386524339
 30
0.0
 10
218.7338577155423
 20
107.1469738011307
 30
0.0
 10
218.674824348479
 20
107.121276759664
 30
0.0
 10
218.6146772865936
 20
107.0993613000992
 30
0.0
 10
218.5532109656463
 20
107.0816009983829
 30
0.0
 10
218.4905930597263
 20
107.0681800360632
 30
0.0
 10
218.4269997830647
 20
107.0581302779196
 30
0.0
 10
218.3622226680898
 20
107.0523435926702
 30
0.0
 10
218.318634523449
 20
107.0514909743008
 30
0.0
 10
218.2966720303677
 20
107.0510613706737
 30
0.0
  0
LINE
  5
130
330
1F
100
AcDbEntity
  8
0
  6
Continuous
 62
     7
370
     0
100
AcDbLine
 10
215.0566392279
 20
108.8949824778
 30
0.0
 11
214.3980959753
 21
108.8949824778
 31
0.0
  0
LINE
  5
131
330
1F
100
AcDbEntity
  8
0
  6
Continuous
 62
     7
370
     0
100
AcDbLine
 10
215.0566392279
 20
109.1320580487
 30
0.0
 11
215.0566392279
 21
108.8949824778
 31
0.0
  0
LINE
  5
132
330
1F
100
AcDbEntity
  8
0
  6
Continuous
 62
     7
370
     0
100
AcDbLine
 10
213.4497936917
 20
109.1320580487
 30
0.0
 11
215.0566392279
 21
109.1320580487
 31
0.0
  0
LINE
  5
133
330
1F
100
AcDbEntity
  8
0
  6
Continuous
 62
     7
370
     0
100
AcDbLine
 10
213.4497936917
 20
108.8949824778
 30
0.0
 11
213.4497936917
 21
109.1320580487
 31
0.0
  0
LINE
  5
134
330
1F
100
AcDbEntity
  8
0
  6
Continuous
 62
     7
370
     0
100
AcDbLine
 10
214.1083369442
 20
108.8949824778
 30
0.0
 11
213.4497936917
 21
108.8949824778
 31
0.0
  0
LINE
  5
135
330
1F
100
AcDbEntity
  8
0
  6
Continuous
 62
     7
370
     0
100
AcDbLine
 10
214.1083369442
 20
107.0774031008
 30
0.0
 11
214.1083369442
 21
108.8949824778
 31
0.0
  0
LINE
  5
136
330
1F
100
AcDbEntity
  8
0
  6
Continuous
 62
     7
370
     0
100
AcDbLine
 10
214.3980959753
 20
107.0774031008
 30
0.0
 11
214.1083369442
 21
107.0774031008
 31
0.0
  0
LINE
  5
137
330
1F
100
AcDbEntity
  8
0
  6
Continuous
 62
     7
370
     0
100
AcDbLine
 10
214.3980959753
 20
108.8949824778
 30
0.0
 11
214.3980959753
 21
107.0774031008
 31
0.0
  0
CIRCLE
  5
138
330
1F
100
AcDbEntity
  8
0
  6
Continuous
 62
     7
370
     0
100
AcDbCircle
 10
221.049382826
 20
106.5274031008
 30
0.0
 40
25.19999999999999
  0
LINE
  5
139
330
1F
100
AcDbEntity
  8
0
  6
Continuous
 62
     7
370
     0
100
AcDbLine
 10
216.6634847641
 20
108.0520471145
 30
0.0
 11
215.6624990202
 21
108.0520471145
 31
0.0
  0
LINE
  5
13A
330
1F
100
AcDbEntity
  8
0
  6
Continuous
 62
     7
370
     0
100
AcDbLine
 10
216.6634847641
 20
107.0774031008
 30
0.0
 11
216.6634847641
 21
108.0520471145
 31
0.0
  0
LINE
  5
13B
330
1F
100
AcDbEntity
  8
0
  6
Continuous
 62
     7
370
     0
100
AcDbLine
 10
216.9532437952
 20
107.0774031008
 30
0.0
 11
216.6634847641
 21
107.0774031008
 31
0.0
  0
LINE
  5
13C
330
1F
100
AcDbEntity
  8
0
  6
Continuous
 62
     7
370
     0
100
AcDbLine
 10
216.9532437952
 20
109.1320580487
 30
0.0
 11
216.9532437952
 21
107.0774031008
 31
0.0
  0
LINE
  5
13D
330
1F
100
AcDbEntity
  8
0
  6
Continuous
 62
     7
370
     0
100
AcDbLine
 10
216.6634847641
 20
109.1320580487
 30
0.0
 11
216.9532437952
 21
109.1320580487
 31
0.0
  0
LINE
  5
13E
330
1F
100
AcDbEntity
  8
0
  6
Continuous
 62
     7
370
     0
100
AcDbLine
 10
216.6634847641
 20
108.2891226854
 30
0.0
 11
216.6634847641
 21
109.1320580487
 31
0.0
  0
LINE
  5
13F
330
1F
100
AcDbEntity
  8
0
  6
Continuous
 62
     7
370
     0
100
AcDbLine
 10
215.6624990202
 20
108.2891226854
 30
0.0
 11
216.6634847641
 21
108.2891226854
 31
0.0
  0
LINE
  5
140
330
1F
100
AcDbEntity
  8
0
  6
Continuous
 62
     7
370
     0
100
AcDbLine
 10
215.6624990202
 20
109.1320580487
 30
0.0
 11
215.6624990202
 21
108.2891226854
 31
0.0
  0
LINE
  5
141
330
1F
100
AcDbEntity
  8
0
  6
Continuous
 62
     7
370
     0
100
AcDbLine
 10
215.3727399891
 20
109.1320580487
 30
0.0
 11
215.6624990202
 21
109.1320580487
 31
0.0
  0
LINE
  5
142
330
1F
100
AcDbEntity
  8
0
  6
Continuous
 62
     7
370
     0
100
AcDbLine
 10
215.3727399891
 20
107.0774031008
 30
0.0
 11
215.3727399891
 21
109.1320580487
 31
0.0
  0
LINE
  5
143
330
1F
100
AcDbEntity
  8
0
  6
Continuous
 62
     7
370
     0
100
AcDbLine
 10
215.6624990202
 20
107.0774031008
 30
0.0
 11
215.3727399891
 21
107.0774031008
 31
0.0
  0
LINE
  5
144
330
1F
100
AcDbEntity
  8
0
  6
Continuous
 62
     7
370
     0
100
AcDbLine
 10
215.6624990202
 20
108.0520471145
 30
0.0
 11
215.6624990202
 21
107.0774031008
 31
0.0
  0
LINE
  5
145
330
1F
100
AcDbEntity
  8
0
  6
Continuous
 62
     7
370
     0
100
AcDbLine
 10
220.2266153498
 20
107.9993636543
 30
0.0
 11
219.9298592967
 21
107.9993636543
 31
0.0
  0
SPLINE
  5
146
330
1F
100
AcDbEntity
  8
0
  6
Continuous
 62
     7
370
     0
100
AcDbSpline
210
0.0
220
0.0
230
1.0
 70
     8
 71
     3
 72
    11
 73
     7
 74
     0
 42
0.00000001
 43
0.00000001
 40
0.0
 40
0.0
 40
0.0
 40
0.0
 40
0.1774946570818496
 40
0.4052256231013751
 40
0.6783881083348569
 40
0.9999999999999999
 40
0.9999999999999999
 40
0.9999999999999999
 40
0.9999999999999999
 10
220.3694369177292
 20
107.9898970950723
 30
0.0
 10
220.3610853370774
 20
107.9914031689015
 30
0.0
 10
220.3420184280832
 20
107.9948415806031
 30
0.0
 10
220.3096428641901
 20
107.9970872127673
 30
0.0
 10
220.2704158966449
 20
107.9994706508735
 30
0.0
 10
220.2419874447679
 20
107.9994012054812
 30
0.0
 10
220.2266153498352
 20
107.9993636543276
 30
0.0
  0
SPLINE
  5
147
330
1F
100
AcDbEntity
  8
0
  6
Continuous
 62
     7
370
     0
100
AcDbSpline
210
0.0
220
0.0
230
1.0
 70
     8
 71
     3
 72
    21
 73
    17
 74
     0
 42
0.00000001
 43
0.00000001
 40
0.0
 40
0.0
 40
0.0
 40
0.0
 40
0.0807814705861227
 40
0.1565412257955895
 40
0.227934986843486
 40
0.2943103173046012
 40
0.3568678635548113
 40
0.4147585592592751
 40
0.4676413968340161
 40
0.5167484215300129
 40
0.604729741894053
 40
0.6815706529393896
 40
0.7481095416219826
 40
0.8049410995352804
 40
0.9054060495000024
 40
1.0
 40
1.0
 40
1.0
 40
1.0
 10
220.8007827481412
 20
107.5112184683842
 30
0.0
 10
220.7915779615904
 20
107.5264394019981
 30
0.0
 10
220.7737405966676
 20
107.5559350720867
 30
0.0
 10
220.7479751620731
 20
107.5990120783381
 30
0.0
 10
220.7227130005713
 20
107.638671326198
 30
0.0
 10
220.6992827778808
 20
107.676046298553
 30
0.0
 10
220.6767336563038
 20
107.7104584712125
 30
0.0
 10
220.6552835131295
 20
107.7420273853598
 30
0.0
 10
220.6355226658232
 20
107.7711671839077
 30
0.0
 10
220.611046301667
 20
107.8050934927567
 30
0.0
 10
220.5825598790472
 20
107.8426332683183
 30
0.0
 10
220.5493181783749
 20
107.8812921483326
 30
0.0
 10
220.517662223535
 20
107.9121143584045
 30
0.0
 10
220.4786773309379
 20
107.9423388140676
 30
0.0
 10
220.4303886435089
 20
107.9706087119095
 30
0.0
 10
220.3893423476675
 20
107.9835979533375
 30
0.0
 10
220.3694369177292
 20
107.9898970950723
 30
0.0
  0
LINE
  5
148
330
1F
100
AcDbEntity
  8
0
  6
Continuous
 62
     7
370
     0
100
AcDbLine
 10
221.0567914376
 20
107.0774031008
 30
0.0
 11
220.8007827481
 21
107.5112184684
 31
0.0
  0
LINE
  5
149
330
1F
100
AcDbEntity
  8
0
  6
Continuous
 62
     7
370
     0
100
AcDbLine
 10
221.3889441906
 20
107.0774031008
 30
0.0
 11
221.0567914376
 21
107.0774031008
 31
0.0
  0
LINE
  5
14A
330
1F
100
AcDbEntity
  8
0
  6
Continuous
 62
     7
370
     0
100
AcDbLine
 10
221.0518523632
 20
107.644573477
 30
0.0
 11
221.3889441906
 21
107.0774031008
 31
0.0
  0
SPLINE
  5
14B
330
1F
100
AcDbEntity
  8
0
  6
Continuous
 62
     7
370
     0
100
AcDbSpline
210
0.0
220
0.0
230
1.0
 70
     8
 71
     3
 72
    11
 73
     7
 74
     0
 42
0.00000001
 43
0.00000001
 40
0.0
 40
0.0
 40
0.0
 40
0.0
 40
0.2295275697008571
 40
0.4714659343032296
 40
0.7281863484998701
 40
1.0
 40
1.0
 40
1.0
 40
1.0
 10
220.8353562688994
 20
107.9244543593514
 30
0.0
 10
220.8547660787713
 20
107.9054270734727
 30
0.0
 10
220.8946352071635
 20
107.8663436765381
 30
0.0
 10
220.9495765978515
 20
107.7997732026163
 30
0.0
 10
221.0028441630202
 20
107.7256700500449
 30
0.0
 10
221.0352082251918
 20
107.6721154505473
 30
0.0
 10
221.0518523631711
 20
107.644573477023
 30
0.0
  0
SPLINE
  5
14C
330
1F
100
AcDbEntity
  8
0
  6
Continuous
 62
     7
370
     0
100
AcDbSpline
210
0.0
220
0.0
230
1.0
 70
     8
 71
     3
 72
    11
 73
     7
 74
     0
 42
0.00000001
 43
0.00000001
 40
0.0
 40
0.0
 40
0.0
 40
0.0
 40
0.2930762433192213
 40
0.5565623371181898
 40
0.7919136092098108
 40
1.0
 40
1.0
 40
1.0
 40
1.0
 10
220.6756595301591
 20
108.0257053844291
 30
0.0
 10
220.692201377166
 20
108.0173488081939
 30
0.0
 10
220.7236149401561
 20
108.0014793690779
 30
0.0
 10
220.7671074073738
 20
107.9765962263715
 30
0.0
 10
220.8039744662983
 20
107.9511717862523
 30
0.0
 10
220.8253334216953
 20
107.9329874793547
 30
0.0
 10
220.8353562688994
 20
107.9244543593514
 30
0.0
  0
SPLINE
  5
14D
330
1F
100
AcDbEntity
  8
0
  6
Continuous
 62
     7
370
     0
100
AcDbSpline
210
0.0
220
0.0
230
1.0
 70
     8
 71
     3
 72
    23
 73
    19
 74
     0
 42
0.00000001
 43
0.00000001
 40
0.0
 40
0.0
 40
0.0
 40
0.0
 40
0.0614130692946597
 40
0.1212950233845471
 40
0.1792240423087202
 40
0.2359380947348319
 40
0.2922168332673612
 40
0.3481966394342069
 40
0.4044447389633588
 40
0.4620255339229974
 40
0.5203342118681488
 40
0.5803829016508381
 40
0.641825904813988
 40
0.7063632097966277
 40
0.7738513938275595
 40
0.8452662573568828
 40
0.920154675768406
 40
1.0
 40
1.0
 40
1.0
 40
1.0
 10
221.2206040716338
 20
108.5780585374948
 30
0.0
 10
221.220202011358
 20
108.5604826888695
 30
0.0
 10
221.2194079147412
 20
108.5257691825346
 30
0.0
 10
221.2133250547774
 20
108.4747310364673
 30
0.0
 10
221.2023186107986
 20
108.4259661402481
 30
0.0
 10
221.1882050158014
 20
108.3790474196583
 30
0.0
 10
221.1688878098732
 20
108.3346396379737
 30
0.0
 10
221.1465096652641
 20
108.2918357527205
 30
0.0
 10
221.1187863256974
 20
108.2518117008258
 30
0.0
 10
221.0877469813493
 20
108.2135017059597
 30
0.0
 10
221.052153177027
 20
108.1777262659319
 30
0.0
 10
221.0116917947939
 20
108.1457760706604
 30
0.0
 10
220.9667639190475
 20
108.1170368060577
 30
0.0
 10
220.9171579575285
 20
108.0923013996007
 30
0.0
 10
220.8634449247259
 20
108.0696920637706
 30
0.0
 10
220.8049508696257
 20
108.0514859371822
 30
0.0
 10
220.7419118693566
 20
108.0366192387621
 30
0.0
 10
220.6982103040828
 20
108.0294202096667
 30
0.0
 10
220.6756595301591
 20
108.0257053844291
 30
0.0
  0
SPLINE
  5
14E
330
1F
100
AcDbEntity
  8
0
  6
Continuous
 62
     7
370
     0
100
AcDbSpline
210
0.0
220
0.0
230
1.0
 70
     8
 71
     3
 72
    27
 73
    23
 74
     0
 42
0.00000001
 43
0.00000001
 40
0.0
 40
0.0
 40
0.0
 40
0.0
 40
0.0621127506505295
 40
0.1202119588785538
 40
0.1743851213884739
 40
0.2254437557784867
 40
0.2723582126361769
 40
0.3163881629634409
 40
0.3568694790582284
 40
0.3939783235063669
 40
0.4295893718770922
 40
0.4646830409549871
 40
0.5000363461428401
 40
0.535482747753064
 40
0.5713634671484438
 40
0.6079085322052602
 40
0.645662298533116
 40
0.6845173397035776
 40
0.7625786223763463
 40
0.8404972886541806
 40
0.9190729926935233
 40
1.0
 40
1.0
 40
1.0
 40
1.0
 10
220.5316031936665
 20
109.1320580486919
 30
0.0
 10
220.5525953578531
 20
109.1318935663986
 30
0.0
 10
220.593223234602
 20
109.1315752301719
 30
0.0
 10
220.6521420446356
 20
109.1293217712184
 30
0.0
 10
220.7071368472315
 20
109.1244639048622
 30
0.0
 10
220.7583087594314
 20
109.1192107994412
 30
0.0
 10
220.8056486894536
 20
109.1111479842304
 30
0.0
 10
220.8491077979815
 20
109.1019001173272
 30
0.0
 10
220.8887531836811
 20
109.090895015896
 30
0.0
 10
220.9247620854065
 20
109.0778971427218
 30
0.0
 10
220.9581704944292
 20
109.063191996434
 30
0.0
 10
220.9891375660824
 20
109.0450482200738
 30
0.0
 10
221.0189505616226
 20
109.0251665098608
 30
0.0
 10
221.0465030167779
 20
109.0018084674283
 30
0.0
 10
221.0725216302485
 20
108.9762335729687
 30
0.0
 10
221.0969822871658
 20
108.9480943179253
 30
0.0
 10
221.1195228669684
 20
108.9171465108329
 30
0.0
 10
221.1473239727527
 20
108.8728537808607
 30
0.0
 10
221.1771488910837
 20
108.8138651919045
 30
0.0
 10
221.2019977327301
 20
108.7383725795365
 30
0.0
 10
221.2180198213024
 20
108.6594045514834
 30
0.0
 10
221.2197342305566
 20
108.6054390522885
 30
0.0
 10
221.2206040716338
 20
108.5780585374948
 30
0.0
  0
LINE
  5
14F
330
1F
100
AcDbEntity
  8
0
  6
Continuous
 62
     7
370
     0
100
AcDbLine
 10
219.6401002655
 20
109.1320580487
 30
0.0
 11
220.5316031937
 21
109.1320580487
 31
0.0
  0
LINE
  5
150
330
1F
100
AcDbEntity
  8
0
  6
Continuous
 62
     7
370
     0
100
AcDbLine
 10
219.6401002655
 20
107.0774031008
 30
0.0
 11
219.6401002655
 21
109.1320580487
 31
0.0
  0
LINE
  5
151
330
1F
100
AcDbEntity
  8
0
  6
Continuous
 62
     7
370
     0
100
AcDbLine
 10
219.9298592967
 20
107.0774031008
 30
0.0
 11
219.6401002655
 21
107.0774031008
 31
0.0
  0
LINE
  5
152
330
1F
100
AcDbEntity
  8
0
  6
Continuous
 62
     7
370
     0
100
AcDbLine
 10
219.9298592967
 20
107.9993636543
 30
0.0
 11
219.9298592967
 21
107.0774031008
 31
0.0
  0
LINE
  5
153
330
1F
100
AcDbEntity
  8
0
  6
Continuous
 62
     7
370
     0
100
AcDbLine
 10
224.4112461302
 20
107.7096046232
 30
0.0
 11
223.5353836043
 21
107.7096046232
 31
0.0
  0
LINE
  5
154
330
1F
100
AcDbEntity
  8
0
  6
Continuous
 62
     7
370
     0
100
AcDbLine
 10
224.6450289848
 20
107.0774031008
 30
0.0
 11
224.4112461302
 21
107.7096046232
 31
0.0
  0
LINE
  5
155
330
1F
100
AcDbEntity
  8
0
  6
Continuous
 62
     7
370
     0
100
AcDbLine
 10
224.9524863659
 20
107.0774031008
 30
0.0
 11
224.6450289848
 21
107.0774031008
 31
0.0
  0
LINE
  5
156
330
1F
100
AcDbEntity
  8
0
  6
Continuous
 62
     7
370
     0
100
AcDbLine
 10
224.1367159118
 20
109.1320580487
 30
0.0
 11
224.9524863659
 21
107.0774031008
 31
0.0
  0
LINE
  5
157
330
1F
100
AcDbEntity
  8
0
  6
Continuous
 62
     7
370
     0
100
AcDbLine
 10
223.8099138227
 20
109.1320580487
 30
0.0
 11
224.1367159118
 21
109.1320580487
 31
0.0
  0
LINE
  5
158
330
1F
100
AcDbEntity
  8
0
  6
Continuous
 62
     7
370
     0
100
AcDbLine
 10
222.9941433686
 20
107.0774031008
 30
0.0
 11
223.8099138227
 21
109.1320580487
 31
0.0
  0
LINE
  5
159
330
1F
100
AcDbEntity
  8
0
  6
Continuous
 62
     7
370
     0
100
AcDbLine
 10
223.3016007497
 20
107.0774031008
 30
0.0
 11
222.9941433686
 21
107.0774031008
 31
0.0
  0
LINE
  5
15A
330
1F
100
AcDbEntity
  8
0
  6
Continuous
 62
     7
370
     0
100
AcDbLine
 10
223.5353836043
 20
107.7096046232
 30
0.0
 11
223.3016007497
 21
107.0774031008
 31
0.0
  0
SPLINE
  5
15B
330
1F
100
AcDbEntity
  8
0
  6
Continuous
 62
     7
370
     0
100
AcDbSpline
210
0.0
220
0.0
230
1.0
 70
     8
 71
     3
 72
    23
 73
    19
 74
     0
 42
0.00000001
 43
0.00000001
 40
0.0
 40
0.0
 40
0.0
 40
0.0
 40
0.0749313059818448
 40
0.1470775964339469
 40
0.2163644561730687
 40
0.2825027309006237
 40
0.3466877108244162
 40
0.4088355551310375
 40
0.4692619872876909
 40
0.5284320432534628
 40
0.5870013379727417
 40
0.644416393832067
 40
0.7021887902662974
 40
0.7597671795443349
 40
0.8184897928274489
 40
0.8776328274167843
 40
0.9380195662701677
 40
1.0
 40
1.0
 40
1.0
 40
1.0
 10
228.2135102345152
 20
108.1574140349365
 30
0.0
 10
228.2282831305157
 20
108.1506027811995
 30
0.0
 10
228.2572798496793
 20
108.1372334315635
 30
0.0
 10
228.2983575852314
 20
108.1144072782601
 30
0.0
 10
228.3366875690418
 20
108.0907035468844
 30
0.0
 10
228.3719601204582
 20
108.0654840529439
 30
0.0
 10
228.4040611862764
 20
108.0386957478631
 30
0.0
 10
228.4333496939124
 20
108.0106455666832
 30
0.0
 10
228.4600025356736
 20
107.9814911559961
 30
0.0
 10
228.4829442719331
 20
107.9502994049122
 30
0.0
 10
228.5035435973333
 20
107.91833122452
 30
0.0
 10
228.5215693787464
 20
107.8851398184148
 30
0.0
 10
228.5360833917631
 20
107.8505299942969
 30
0.0
 10
228.5488130864699
 20
107.8149189414649
 30
0.0
 10
228.5579693882751
 20
107.7779105614212
 30
0.0
 10
228.5651497757039
 20
107.7398786635219
 30
0.0
 10
228.5693379756091
 20
107.7006444867914
 30
0.0
 10
228.5697420841506
 20
107.674080463647
 30
0.0
 10
228.5699467699511
 20
107.6606254688036
 30
0.0
  0
SPLINE
  5
15C
330
1F
100
AcDbEntity
  8
0
  6
Continuous
 62
     7
370
     0
100
AcDbSpline
210
0.0
220
0.0
230
1.0
 70
     8
 71
     3
 72
    23
 73
    19
 74
     0
 42
0.00000001
 43
0.00000001
 40
0.0
 40
0.0
 40
0.0
 40
0.0
 40
0.0327432182311376
 40
0.0724096054938575
 40
0.1196114857927603
 40
0.1746729151985131
 40
0.2373450901947013
 40
0.3083524168429163
 40
0.3876300477623597
 40
0.4747836155862522
 40
0.5633323159904144
 40
0.6451362168299873
 40
0.7202025267224655
 40
0.7891341563324459
 40
0.8514970735699655
 40
0.9073306044315619
 40
0.9569686823424193
 40
1.0
 40
1.0
 40
1.0
 40
1.0
 10
227.4055599815584
 20
108.4331790219366
 30
0.0
 10
227.4126954585576
 20
108.4270972755886
 30
0.0
 10
227.4284751253844
 20
108.4136478690377
 30
0.0
 10
227.457835627986
 20
108.3958491541895
 30
0.0
 10
227.4942382968246
 20
108.3778658211862
 30
0.0
 10
227.5379263685748
 20
108.3599889965706
 30
0.0
 10
227.5888246763427
 20
108.3420016575547
 30
0.0
 10
227.6468511201517
 20
108.32348148008
 30
0.0
 10
227.7122267158815
 20
108.3050874812896
 30
0.0
 10
227.7829591442288
 20
108.2873618200406
 30
0.0
 10
227.854415389957
 20
108.2695649002712
 30
0.0
 10
227.922322846514
 20
108.2518358097671
 30
0.0
 10
227.9846733862829
 20
108.2350335107449
 30
0.0
 10
228.0413680856066
 20
108.2186456203407
 30
0.0
 10
228.0924656252653
 20
108.202718477584
 30
0.0
 10
228.1377884225863
 20
108.186918388304
 30
0.0
 10
228.1777031561408
 20
108.172386313961
 30
0.0
 10
228.2021556459704
 20
108.1621618131865
 30
0.0
 10
228.2135102345152
 20
108.1574140349365
 30
0.0
  0
SPLINE
  5
15D
330
1F
100
AcDbEntity
  8
0
  6
Continuous
 62
     7
370
     0
100
AcDbSpline
210
0.0
220
0.0
230
1.0
 70
     8
 71
     3
 72
    11
 73
     7
 74
     0
 42
0.00000001
 43
0.00000001
 40
0.0
 40
0.0
 40
0.0
 40
0.0
 40
0.2627412305282691
 40
0.5099565029432329
 40
0.7533267184204503
 40
1.0
 40
1.0
 40
1.0
 40
1.0
 10
227.3318854551808
 20
108.6146900059172
 30
0.0
 10
227.3326342607215
 20
108.5970126578708
 30
0.0
 10
227.334087623234
 20
108.562702555216
 30
0.0
 10
227.3489285794284
 20
108.5139582418355
 30
0.0
 10
227.3717540738902
 20
108.4695246418766
 30
0.0
 10
227.3942408227947
 20
108.4453485470535
 30
0.0
 10
227.4055599815584
 20
108.4331790219366
 30
0.0
  0
SPLINE
  5
15E
330
1F
100
AcDbEntity
  8
0
  6
Continuous
 62
     7
370
     0
100
AcDbSpline
210
0.0
220
0.0
230
1.0
 70
     8
 71
     3
 72
    23
 73
    19
 74
     0
 42
0.00000001
 43
0.00000001
 40
0.0
 40
0.0
 40
0.0
 40
0.0
 40
0.0915110363280375
 40
0.177142860314148
 40
0.257108485228235
 40
0.3311983993883849
 40
0.4005922945239581
 40
0.4656249598049642
 40
0.5269734913138602
 40
0.5854431157040231
 40
0.6413985080863308
 40
0.6950441672657243
 40
0.7467815514927477
 40
0.7969589345766993
 40
0.8475448623598797
 40
0.8974385414187385
 40
0.9476489188871287
 40
1.0
 40
1.0
 40
1.0
 40
1.0
 10
227.7669355913883
 20
108.9213242078799
 30
0.0
 10
227.748675878788
 20
108.9211865747984
 30
0.0
 10
227.7133295659461
 20
108.9209201510018
 30
0.0
 10
227.6622324623353
 20
108.9160635780917
 30
0.0
 10
227.6148720521002
 20
108.9094001877902
 30
0.0
 10
227.571329681773
 20
108.8995711204801
 30
0.0
 10
227.5317479904734
 20
108.8867048383693
 30
0.0
 10
227.4955395291656
 20
108.8718472349096
 30
0.0
 10
227.4637176300501
 20
108.8530187708434
 30
0.0
 10
227.4355404697552
 20
108.83204631073
 30
0.0
 10
227.4112341002195
 20
108.808841442147
 30
0.0
 10
227.3902856102614
 20
108.784389121056
 30
0.0
 10
227.3717582888975
 20
108.7594077742289
 30
0.0
 10
227.3573621515208
 20
108.7325319048754
 30
0.0
 10
227.3456415319105
 20
108.7047793429835
 30
0.0
 10
227.3380804443964
 20
108.6756284312853
 30
0.0
 10
227.3327270178074
 20
108.6456183859141
 30
0.0
 10
227.332169852515
 20
108.625141930165
 30
0.0
 10
227.3318854551808
 20
108.6146900059172
 30
0.0
  0
SPLINE
  5
15F
330
1F
100
AcDbEntity
  8
0
  6
Continuous
 62
     7
370
     0
100
AcDbSpline
210
0.0
220
0.0
230
1.0
 70
     8
 71
     3
 72
    23
 73
    19
 74
     0
 42
0.00000001
 43
0.00000001
 40
0.0
 40
0.0
 40
0.0
 40
0.0
 40
0.0671554674490462
 40
0.1314033464826141
 40
0.1927317719102091
 40
0.2512526591565257
 40
0.3077037298841914
 40
0.3626989162982003
 40
0.417778332785431
 40
0.4723043857981144
 40
0.5278725997916964
 40
0.5852299868117375
 40
0.6450565760102912
 40
0.707952356429442
 40
0.7744342720454286
 40
0.84494043137526
 40
0.9204035944750272
 40
1.0
 40
1.0
 40
1.0
 40
1.0
 10
228.2275042786316
 20
108.552539986459
 30
0.0
 10
228.2256631924473
 20
108.5672525977106
 30
0.0
 10
228.2220607324395
 20
108.596040817455
 30
0.0
 10
228.2131235073672
 20
108.6377160965246
 30
0.0
 10
228.2005953162311
 20
108.6764222203896
 30
0.0
 10
228.1859209649363
 20
108.7125201498584
 30
0.0
 10
228.1681325789798
 20
108.7456344267373
 30
0.0
 10
228.1473964682416
 20
108.7760830205271
 30
0.0
 10
228.1234601108816
 20
108.8035071948391
 30
0.0
 10
228.0969394145569
 20
108.8286316014935
 30
0.0
 10
228.0670273593519
 20
108.8505079463215
 30
0.0
 10
228.0338776427062
 20
108.8694972852371
 30
0.0
 10
227.9974343068412
 20
108.8855389283679
 30
0.0
 10
227.9577294582685
 20
108.8986775572896
 30
0.0
 10
227.9147552362035
 20
108.9088647362339
 30
0.0
 10
227.8684138952785
 20
108.9163586195411
 30
0.0
 10
227.8187233471426
 20
108.9201965727068
 30
0.0
 10
227.7845022407062
 20
108.9209417087475
 30
0.0
 10
227.7669355913883
 20
108.9213242078799
 30
0.0
  0
LINE
  5
160
330
1F
100
AcDbEntity
  8
0
  6
Continuous
 62
     7
370
     0
100
AcDbLine
 10
228.5172633097
 20
108.5525399865
 30
0.0
 11
228.2275042786
 21
108.5525399865
 31
0.0
  0
SPLINE
  5
161
330
1F
100
AcDbEntity
  8
0
  6
Continuous
 62
     7
370
     0
100
AcDbSpline
210
0.0
220
0.0
230
1.0
 70
     8
 71
     3
 72
    23
 73
    19
 74
     0
 42
0.00000001
 43
0.00000001
 40
0.0
 40
0.0
 40
0.0
 40
0.0
 40
0.1004750608070148
 40
0.1956443031597846
 40
0.286083379069932
 40
0.3729828804699542
 40
0.4150256681909619
 40
0.4560516735090279
 40
0.4959387495188998
 40
0.5355660888033517
 40
0.5740871099085042
 40
0.6125192874870976
 40
0.651080960134445
 40
0.6895131377130386
 40
0.7662374603277348
 40
0.8423504388672227
 40
0.9199744947371038
 40
1.0
 40
1.0
 40
1.0
 40
1.0
 10
227.7554110844689
 20
109.1583997787934
 30
0.0
 10
227.7919448522869
 20
109.1575626632982
 30
0.0
 10
227.8630831376398
 20
109.1559326381316
 30
0.0
 10
227.9664490769962
 20
109.1423711256734
 30
0.0
 10
228.0628612010267
 20
109.1190824401823
 30
0.0
 10
228.1384708966417
 20
109.0930130933261
 30
0.0
 10
228.1943682604041
 20
109.0666214167588
 30
0.0
 10
228.2340793040581
 20
109.0460282595151
 30
0.0
 10
228.2709390052436
 20
109.022218818362
 30
0.0
 10
228.3052791756153
 20
108.9964532782332
 30
0.0
 10
228.3374187888835
 20
108.9687434061357
 30
0.0
 10
228.366531784818
 20
108.9384300757914
 30
0.0
 10
228.3938823309018
 20
108.9065475231766
 30
0.0
 10
228.4260230338467
 20
108.8607741669475
 30
0.0
 10
228.4606775255131
 20
108.8001933889408
 30
0.0
 10
228.4906410506736
 20
108.7217085847807
 30
0.0
 10
228.5112263419644
 20
108.638874318006
 30
0.0
 10
228.5152306548109
 20
108.5816088686449
 30
0.0
 10
228.5172633097481
 20
108.552539986459
 30
0.0
  0
SPLINE
  5
162
330
1F
100
AcDbEntity
  8
0
  6
Continuous
 62
     7
370
     0
100
AcDbSpline
210
0.0
220
0.0
230
1.0
 70
     8
 71
     3
 72
    23
 73
    19
 74
     0
 42
0.00000001
 43
0.00000001
 40
0.0
 40
0.0
 40
0.0
 40
0.0
 40
0.0749954673898322
 40
0.1491654404266561
 40
0.2236642943382247
 40
0.3004120221906725
 40
0.3395704846106348
 40
0.3789205746932795
 40
0.4180957375990935
 40
0.4582296767501551
 40
0.4984267212184583
 40
0.5397075464534805
 40
0.5822159516458436
 40
0.6258238199943749
 40
0.7154812648736979
 40
0.8073840844133601
 40
0.9016341255073719
 40
1.0
 40
1.0
 40
1.0
 40
1.0
 10
227.0421264240643
 20
108.5957568874068
 30
0.0
 10
227.0431043285974
 20
108.6212293463326
 30
0.0
 10
227.0450493736175
 20
108.6718938822928
 30
0.0
 10
227.0623029889107
 20
108.7462409303675
 30
0.0
 10
227.0898228353891
 20
108.8177825661982
 30
0.0
 10
227.1211487783506
 20
108.8745805202905
 30
0.0
 10
227.1516984953018
 20
108.9175308789928
 30
0.0
 10
227.1770244426989
 20
108.9484629421839
 30
0.0
 10
227.2054324460608
 20
108.977055476135
 30
0.0
 10
227.2360476376363
 20
109.0037076133336
 30
0.0
 10
227.2694172949973
 20
109.0280211400012
 30
0.0
 10
227.3047135136161
 20
109.0509953115268
 30
0.0
 10
227.3432138194594
 20
109.0707421632727
 30
0.0
 10
227.3973124747652
 20
109.0958754484258
 30
0.0
 10
227.4696834403211
 20
109.1209733839627
 30
0.0
 10
227.5607894340876
 20
109.1428430512598
 30
0.0
 10
227.6566755010156
 20
109.1557216436477
 30
0.0
 10
227.7220336968074
 20
109.1574944399901
 30
0.0
 10
227.7554110844689
 20
109.1583997787934
 30
0.0
  0
SPLINE
  5
163
330
1F
100
AcDbEntity
  8
0
  6
Continuous
 62
     7
370
     0
100
AcDbSpline
210
0.0
220
0.0
230
1.0
 70
     8
 71
     3
 72
    15
 73
    11
 74
     0
 42
0.00000001
 43
0.00000001
 40
0.0
 40
0.0
 40
0.0
 40
0.0
 40
0.1448052410584837
 40
0.2795118010254855
 40
0.4063939211311608
 40
0.5275015404829168
 40
0.6453932904726503
 40
0.7618854106740865
 40
0.8789420729184871
 40
1.0
 40
1.0
 40
1.0
 40
1.0
 10
227.3454679097644
 20
108.1516517814768
 30
0.0
 10
227.3212853657664
 20
108.1647158883526
 30
0.0
 10
227.2746067623069
 20
108.1899330145764
 30
0.0
 10
227.2117825319129
 20
108.2350213068235
 30
0.0
 10
227.1588467400634
 20
108.2850551123213
 30
0.0
 10
227.1160227124607
 20
108.3399618799497
 30
0.0
 10
227.082463197767
 20
108.3988130044449
 30
0.0
 10
227.0598207399425
 20
108.4617085332717
 30
0.0
 10
227.0443125254655
 20
108.5275067950803
 30
0.0
 10
227.042863242423
 20
108.5727534160309
 30
0.0
 10
227.0421264240643
 20
108.5957568874068
 30
0.0
  0
SPLINE
  5
164
330
1F
100
AcDbEntity
  8
0
  6
Continuous
 62
     7
370
     0
100
AcDbSpline
210
0.0
220
0.0
230
1.0
 70
     8
 71
     3
 72
    23
 73
    19
 74
     0
 42
0.00000001
 43
0.00000001
 40
0.0
 40
0.0
 40
0.0
 40
0.0
 40
0.031200111153937
 40
0.0704867190162008
 40
0.1172148300204117
 40
0.1715755269954914
 40
0.2341219784876085
 40
0.3039626396728061
 40
0.3821556401561972
 40
0.4676462220680265
 40
0.5543353814021599
 40
0.6350744656665042
 40
0.7100366878785244
 40
0.7790924037748317
 40
0.8429656453505103
 40
0.9010012068505269
 40
0.953246256459026
 40
1.0
 40
1.0
 40
1.0
 40
1.0
 10
228.0612221073659
 20
107.9240427698186
 30
0.0
 10
228.053983459092
 20
107.92701327219
 30
0.0
 10
228.0376300376433
 20
107.9337241766787
 30
0.0
 10
228.0096010406745
 20
107.9426082587553
 30
0.0
 10
227.9763410861301
 20
107.9540962833922
 30
0.0
 10
227.9370511303319
 20
107.9659270790688
 30
0.0
 10
227.8919415096836
 20
107.9784424062694
 30
0.0
 10
227.8410873271681
 20
107.9926078591846
 30
0.0
 10
227.7845169992724
 20
108.0076720429996
 30
0.0
 10
227.7238349581829
 20
108.0237062258045
 30
0.0
 10
227.6625645884005
 20
108.0400105308535
 30
0.0
 10
227.6040279080266
 20
108.056330104572
 30
0.0
 10
227.5501713792476
 20
108.0728965623562
 30
0.0
 10
227.5005538443859
 20
108.0888477740028
 30
0.0
 10
227.4554311044086
 20
108.1048647952053
 30
0.0
 10
227.4146750906278
 20
108.1205091143417
 30
0.0
 10
227.378234990179
 20
108.1354633289367
 30
0.0
 10
227.3559787640457
 20
108.1464589335472
 30
0.0
 10
227.3454679097644
 20
108.1516517814768
 30
0.0
  0
SPLINE
  5
165
330
1F
100
AcDbEntity
  8
0
  6
Continuous
 62
     7
370
     0
100
AcDbSpline
210
0.0
220
0.0
230
1.0
 70
     8
 71
     3
 72
    15
 73
    11
 74
     0
 42
0.00000001
 43
0.00000001
 40
0.0
 40
0.0
 40
0.0
 40
0.0
 40
0.1177675192120368
 40
0.230176448544057
 40
0.3398429589695384
 40
0.4506252599208614
 40
0.5669428888721625
 40
0.6960213064547937
 40
0.8394383602270619
 40
1.0
 40
1.0
 40
1.0
 40
1.0
 10
228.2801877388346
 20
107.6466314246872
 30
0.0
 10
228.2794940437195
 20
107.6614839391157
 30
0.0
 10
228.2781382176051
 20
107.6905131574093
 30
0.0
 10
228.269302674321
 20
107.7327760729968
 30
0.0
 10
228.2525094757802
 20
107.7714589166463
 30
0.0
 10
228.2307183707991
 20
107.808140541722
 30
0.0
 10
228.2004032231298
 20
107.841677940693
 30
0.0
 10
228.1621034551782
 20
107.8725796623142
 30
0.0
 10
228.114975226946
 20
107.9005954623878
 30
0.0
 10
228.0798010948158
 20
107.9159385475168
 30
0.0
 10
228.0612221073659
 20
107.9240427698186
 30
0.0
  0
SPLINE
  5
166
330
1F
100
AcDbEntity
  8
0
  6
Continuous
 62
     7
370
     0
100
AcDbSpline
210
0.0
220
0.0
230
1.0
 70
     8
 71
     3
 72
    19
 73
    15
 74
     0
 42
0.00000001
 43
0.00000001
 40
0.0
 40
0.0
 40
0.0
 40
0.0
 40
0.1055838864195047
 40
0.2058681332620123
 40
0.300946717742213
 40
0.3930019285950097
 40
0.4809485116065868
 40
0.5628738662802266
 40
0.6414613436333616
 40
0.7177416181792268
 40
0.7917717603087844
 40
0.8627163930302565
 40
0.9317768462002763
 40
1.0
 40
1.0
 40
1.0
 40
1.0
 10
227.8109756714017
 20
107.2881369415872
 30
0.0
 10
227.8342032533035
 20
107.2885668593889
 30
0.0
 10
227.8794925402246
 20
107.289405115853
 30
0.0
 10
227.9450085559737
 20
107.2994746527703
 30
0.0
 10
228.0066593171649
 20
107.3137580203767
 30
0.0
 10
228.0632974388407
 20
107.3353638500911
 30
0.0
 10
228.114713988733
 20
107.3616001018847
 30
0.0
 10
228.1593635020483
 20
107.3933334636742
 30
0.0
 10
228.1974828814473
 20
107.4291199786681
 30
0.0
 10
228.2273331185666
 20
107.4699022438397
 30
0.0
 10
228.2507828688165
 20
107.5126352378279
 30
0.0
 10
228.2679856847656
 20
107.556560348395
 30
0.0
 10
228.2782330496646
 20
107.6014337710381
 30
0.0
 10
228.2795388304514
 20
107.6316269233037
 30
0.0
 10
228.2801877388346
 20
107.6466314246872
 30
0.0
  0
SPLINE
  5
167
330
1F
100
AcDbEntity
  8
0
  6
Continuous
 62
     7
370
     0
100
AcDbSpline
210
0.0
220
0.0
230
1.0
 70
     8
 71
     3
 72
    19
 73
    15
 74
     0
 42
0.00000001
 43
0.00000001
 40
0.0
 40
0.0
 40
0.0
 40
0.0
 40
0.0937964706969321
 40
0.1801880710186105
 40
0.2603631916661885
 40
0.3348466760639744
 40
0.4070930058327154
 40
0.4814483792884674
 40
0.5592709137563652
 40
0.6422698113109349
 40
0.7285859445716477
 40
0.8159775452756136
 40
0.9060351298875359
 40
1.0
 40
1.0
 40
1.0
 40
1.0
 10
227.2528602648763
 20
107.7886298135156
 30
0.0
 10
227.2560474461152
 20
107.7626134370112
 30
0.0
 10
227.2621701929004
 20
107.7126345768003
 30
0.0
 10
227.2792900044595
 20
107.6417970661119
 30
0.0
 10
227.3013243065596
 20
107.5781068741112
 30
0.0
 10
227.3287784395313
 20
107.5207187195109
 30
0.0
 10
227.3648933054023
 20
107.470320682826
 30
0.0
 10
227.4084055065075
 20
107.424862423377
 30
0.0
 10
227.4612487066069
 20
107.3854983233136
 30
0.0
 10
227.5208966335535
 20
107.3504668533225
 30
0.0
 10
227.5873277776795
 20
107.3229616087333
 30
0.0
 10
227.6582489487899
 20
107.3025715181692
 30
0.0
 10
227.733321914724
 20
107.29049022704
 30
0.0
 10
227.7847272618232
 20
107.2889323957038
 30
0.0
 10
227.8109756714017
 20
107.2881369415872
 30
0.0
  0
LINE
  5
168
330
1F
100
AcDbEntity
  8
0
  6
Continuous
 62
     7
370
     0
100
AcDbLine
 10
226.9631012338
 20
107.7886298135
 30
0.0
 11
227.2528602649
 21
107.7886298135
 31
0.0
  0
SPLINE
  5
169
330
1F
100
AcDbEntity
  8
0
  6
Continuous
 62
     7
370
     0
100
AcDbSpline
210
0.0
220
0.0
230
1.0
 70
     8
 71
     3
 72
    31
 73
    27
 74
     0
 42
0.00000001
 43
0.00000001
 40
0.0
 40
0.0
 40
0.0
 40
0.0
 40
0.0524925849212958
 40
0.1028254751380329
 40
0.1513973394924577
 40
0.1980330772483325
 40
0.2428758954632244
 40
0.2859991683849086
 40
0.3278486614843784
 40
0.3683945968796912
 40
0.4078519911389193
 40
0.4468375528599374
 40
0.4851660451611074
 40
0.5233414044713737
 40
0.5616022144094732
 40
0.5999198855663566
 40
0.6384964264110082
 40
0.6777905770472508
 40
0.7172899891758322
 40
0.7566052415928194
 40
0.7960678905323556
 40
0.8358862309537681
 40
0.8757136832726162
 40
0.9162634539474125
 40
0.9577596754778293
 40
1.0
 40
1.0
 40
1.0
 40
1.0
 10
227.8237349469196
 20
107.0510613706737
 30
0.0
 10
227.80136420169
 20
107.0512459842674
 30
0.0
 10
227.7575431075131
 20
107.0516076159248
 30
0.0
 10
227.6931529038505
 20
107.0559870893932
 30
0.0
 10
227.6314465948278
 20
107.0623222129964
 30
0.0
 10
227.5724847365872
 20
107.0717584501275
 30
0.0
 10
227.5164522276968
 20
107.084138280856
 30
0.0
 10
227.4631479368705
 20
107.0990040649636
 30
0.0
 10
227.4124455178689
 20
107.1161250801857
 30
0.0
 10
227.364522126588
 20
107.1362590973384
 30
0.0
 10
227.3195028631109
 20
107.1596526258936
 30
0.0
 10
227.2765782355735
 20
107.1848883242435
 30
0.0
 10
227.2364498755457
 20
107.2134941709838
 30
0.0
 10
227.1990333078298
 20
107.2450206688604
 30
0.0
 10
227.1633804762049
 20
107.2785570454471
 30
0.0
 10
227.1309690844427
 20
107.3154728988134
 30
0.0
 10
227.1006972280209
 20
107.3546886763923
 30
0.0
 10
227.0732566101044
 20
107.3965632959115
 30
0.0
 10
227.0487425955614
 20
107.4405488988189
 30
0.0
 10
227.0266975123719
 20
107.4859067942073
 30
0.0
 10
227.0081242213288
 20
107.5329660181848
 30
0.0
 10
226.9931559160813
 20
107.5814887344576
 30
0.0
 10
226.9804770036878
 20
107.6311502284053
 30
0.0
 10
226.9716844709707
 20
107.6823648386425
 30
0.0
 10
226.9652199047583
 20
107.7349717697854
 30
0.0
 10
226.9638116288516
 20
107.7706381522682
 30
0.0
 10
226.9631012337599
 20
107.7886298135156
 30
0.0
  0
SPLINE
  5
16A
330
1F
100
AcDbEntity
  8
0
  6
Continuous
 62
     7
370
     0
100
AcDbSpline
210
0.0
220
0.0
230
1.0
 70
     8
 71
     3
 72
    23
 73
    19
 74
     0
 42
0.00000001
 43
0.00000001
 40
0.0
 40
0.0
 40
0.0
 40
0.0
 40
0.0748159666505558
 40
0.1485345605139197
 40
0.2238723272963846
 40
0.3012971209351247
 40
0.3408936290197579
 40
0.38034006206544
 40
0.4201265887284643
 40
0.4599499070829665
 40
0.5008311555562169
 40
0.5419071755971084
 40
0.5844387941530512
 40
0.6280801713306066
 40
0.7172666799070602
 40
0.8078600064218678
 40
0.9019246558363443
 40
1.0
 40
1.0
 40
1.0
 40
1.0
 10
228.5699467699511
 20
107.6606254688036
 30
0.0
 10
228.568874484451
 20
107.6337729560064
 30
0.0
 10
228.5667456413359
 20
107.5804617930875
 30
0.0
 10
228.5484155343399
 20
107.5018786733861
 30
0.0
 10
228.5196199057207
 20
107.4257320690249
 30
0.0
 10
228.4858498983454
 20
107.3653055438895
 30
0.0
 10
228.4539270343579
 20
107.3191484602706
 30
0.0
 10
228.4271103227879
 20
107.2859728580514
 30
0.0
 10
228.397372131431
 20
107.2552969583446
 30
0.0
 10
228.3654445843742
 20
107.2261597434199
 30
0.0
 10
228.3310797943239
 20
107.1991557076901
 30
0.0
 10
228.2939880447831
 20
107.1742756557862
 30
0.0
 10
228.2545608216144
 20
107.1512605885964
 30
0.0
 10
228.1982597384064
 20
107.1232153814821
 30
0.0
 10
228.1234825465839
 20
107.0938774317329
 30
0.0
 10
228.0282314158412
 20
107.0694457807192
 30
0.0
 10
227.9278482611571
 20
107.0535963645905
 30
0.0
 10
227.8589189906208
 20
107.0519180462815
 30
0.0
 10
227.8237349469196
 20
107.0510613706737
 30
0.0
  0
LINE
  5
16B
330
1F
100
AcDbEntity
  8
0
  6
Continuous
 62
     7
370
     0
100
AcDbLine
 10
213.7049792021
 20
103.9163954886
 30
0.0
 11
213.1600346606
 21
105.6549496753
 31
0.0
  0
LINE
  5
16C
330
1F
100
AcDbEntity
  8
0
  6
Continuous
 62
     7
370
     0
100
AcDbLine
 10
214.0079090982
 20
103.9163954886
 30
0.0
 11
213.7049792021
 21
103.9163954886
 31
0.0
  0
LINE
  5
16D
330
1F
100
AcDbEntity
  8
0
  6
Continuous
 62
     7
370
     0
100
AcDbLine
 10
214.556146356
 20
105.6549496753
 30
0.0
 11
214.0079090982
 21
103.9163954886
 31
0.0
  0
LINE
  5
16E
330
1F
100
AcDbEntity
  8
0
  6
Continuous
 62
     7
370
     0
100
AcDbLine
 10
214.556146356
 20
103.9163954886
 30
0.0
 11
214.556146356
 21
105.6549496753
 31
0.0
  0
LINE
  5
16F
330
1F
100
AcDbEntity
  8
0
  6
Continuous
 62
     7
370
     0
100
AcDbLine
 10
214.8459053871
 20
103.9163954886
 30
0.0
 11
214.556146356
 21
103.9163954886
 31
0.0
  0
LINE
  5
170
330
1F
100
AcDbEntity
  8
0
  6
Continuous
 62
     7
370
     0
100
AcDbLine
 10
214.8459053871
 20
105.9710504365
 30
0.0
 11
214.8459053871
 21
103.9163954886
 31
0.0
  0
LINE
  5
171
330
1F
100
AcDbEntity
  8
0
  6
Continuous
 62
     7
370
     0
100
AcDbLine
 10
214.4137363776
 20
105.9710504365
 30
0.0
 11
214.8459053871
 21
105.9710504365
 31
0.0
  0
LINE
  5
172
330
1F
100
AcDbEntity
  8
0
  6
Continuous
 62
     7
370
     0
100
AcDbLine
 10
213.9589299438
 20
104.553947675
 30
0.0
 11
214.4137363776
 21
105.9710504365
 31
0.0
  0
SPLINE
  5
173
330
1F
100
AcDbEntity
  8
0
  6
Continuous
 62
     7
370
     0
100
AcDbSpline
210
0.0
220
0.0
230
1.0
 70
     8
 71
     3
 72
    15
 73
    11
 74
     0
 42
0.00000001
 43
0.00000001
 40
0.0
 40
0.0
 40
0.0
 40
0.0
 40
0.0892047702332451
 40
0.1898334556643485
 40
0.2992325919749813
 40
0.4192609378429071
 40
0.5492073901909386
 40
0.6890743636843492
 40
0.8395791979483176
 40
1.0
 40
1.0
 40
1.0
 40
1.0
 10
213.8580905082657
 20
104.2275571754196
 30
0.0
 10
213.8609588458323
 20
104.2373019637915
 30
0.0
 10
213.867062851603
 20
104.258039496622
 30
0.0
 10
213.8769584207108
 20
104.2906457121845
 30
0.0
 10
213.8874875879826
 20
104.3267281587363
 30
0.0
 10
213.9000877737865
 20
104.3656666378643
 30
0.0
 10
213.9132219762584
 20
104.4080719720831
 30
0.0
 10
213.9270080311105
 20
104.4539089451324
 30
0.0
 10
213.9429099769211
 20
104.5027199298079
 30
0.0
 10
213.9534776146359
 20
104.5365125247263
 30
0.0
 10
213.9589299438105
 20
104.5539476749585
 30
0.0
  0
SPLINE
  5
174
330
1F
100
AcDbEntity
  8
0
  6
Continuous
 62
     7
370
     0
100
AcDbSpline
210
0.0
220
0.0
230
1.0
 70
     8
 71
     3
 72
    15
 73
    11
 74
     0
 42
0.00000001
 43
0.00000001
 40
0.0
 40
0.0
 40
0.0
 40
0.0
 40
0.1625255217041868
 40
0.3143148980392372
 40
0.4549784905465745
 40
0.5845192373661998
 40
0.7045671033090736
 40
0.8134949897289286
 40
0.9116812596826069
 40
0.9999999999999999
 40
0.9999999999999999
 40
0.9999999999999999
 40
0.9999999999999999
 10
213.7654828633777
 20
104.5292523029883
 30
0.0
 10
213.7705378526796
 20
104.5129192428146
 30
0.0
 10
213.7803139077284
 20
104.4813320552187
 30
0.0
 10
213.7948106375189
 20
104.435717249801
 30
0.0
 10
213.8080002313147
 20
104.3933285127556
 30
0.0
 10
213.8198795374441
 20
104.3540309184966
 30
0.0
 10
213.8310901921162
 20
104.318019577783
 30
0.0
 10
213.8407968526357
 20
104.2849989910035
 30
0.0
 10
213.8500767358855
 20
104.2553360902828
 30
0.0
 10
213.8555151621382
 20
104.2364843469718
 30
0.0
 10
213.8580905082657
 20
104.2275571754196
 30
0.0
  0
LINE
  5
175
330
1F
100
AcDbEntity
  8
0
  6
Continuous
 62
     7
370
     0
100
AcDbLine
 10
213.3061489447
 20
105.9710504365
 30
0.0
 11
213.7654828634
 21
104.529252303
 31
0.0
  0
LINE
  5
176
330
1F
100
AcDbEntity
  8
0
  6
Continuous
 62
     7
370
     0
100
AcDbLine
 10
212.8702756295
 20
105.9710504365
 30
0.0
 11
213.3061489447
 21
105.9710504365
 31
0.0
  0
LINE
  5
177
330
1F
100
AcDbEntity
  8
0
  6
Continuous
 62
     7
370
     0
100
AcDbLine
 10
212.8702756295
 20
103.9163954886
 30
0.0
 11
212.8702756295
 21
105.9710504365
 31
0.0
  0
LINE
  5
178
330
1F
100
AcDbEntity
  8
0
  6
Continuous
 62
     7
370
     0
100
AcDbLine
 10
213.1600346606
 20
103.9163954886
 30
0.0
 11
212.8702756295
 21
103.9163954886
 31
0.0
  0
LINE
  5
179
330
1F
100
AcDbEntity
  8
0
  6
Continuous
 62
     7
370
     0
100
AcDbLine
 10
213.1600346606
 20
105.6549496753
 30
0.0
 11
213.1600346606
 21
103.9163954886
 31
0.0
  0
SPLINE
  5
17A
330
1F
100
AcDbEntity
  8
0
  6
Continuous
 62
     7
370
     0
100
AcDbSpline
210
0.0
220
0.0
230
1.0
 70
     8
 71
     3
 72
    31
 73
    27
 74
     0
 42
0.00000001
 43
0.00000001
 40
0.0
 40
0.0
 40
0.0
 40
0.0
 40
0.0628739462114324
 40
0.1228366299919128
 40
0.1796565674430314
 40
0.233960012230862
 40
0.2855950186955586
 40
0.3345131060783809
 40
0.3809048259061764
 40
0.4248945919393347
 40
0.4665290347654873
 40
0.5064882940692464
 40
0.5450315536447543
 40
0.5818311798231344
 40
0.617448279949443
 40
0.652066912769046
 40
0.6858797142465105
 40
0.7191745547913924
 40
0.7521816462063929
 40
0.7852401639180909
 40
0.8186564497770833
 40
0.8525477406533113
 40
0.887626342258519
 40
0.923635078068751
 40
0.9610218444769891
 40
1.0
 40
1.0
 40
1.0
 40
1.0
 10
218.0595964594543
 20
104.9297289184376
 30
0.0
 10
218.0593260952183
 20
104.9005039350947
 30
0.0
 10
218.0587978854649
 20
104.8434071775069
 30
0.0
 10
218.0556601691886
 20
104.7599350666282
 30
0.0
 10
218.0496919497117
 20
104.6806271973456
 30
0.0
 10
218.0423479466059
 20
104.6053018984051
 30
0.0
 10
218.0312380081894
 20
104.5341602529032
 30
0.0
 10
218.0192664475992
 20
104.4668999988095
 30
0.0
 10
218.0044605842739
 20
104.4038265569132
 30
0.0
 10
217.9871856178248
 20
104.3449122837503
 30
0.0
 10
217.9677300828849
 20
104.2898456618606
 30
0.0
 10
217.9463940782439
 20
104.2382105283273
 30
0.0
 10
217.9227624044404
 20
104.1900421660879
 30
0.0
 10
217.896131693609
 20
104.1458103851879
 30
0.0
 10
217.86772042141
 20
104.1049280827898
 30
0.0
 10
217.8373205054814
 20
104.067241900187
 30
0.0
 10
217.8042874320159
 20
104.0332942504783
 30
0.0
 10
217.7686545798434
 20
104.0032756780608
 30
0.0
 10
217.7311443095221
 20
103.9762351745065
 30
0.0
 10
217.6910104521568
 20
103.9530826934439
 30
0.0
 10
217.6484286673857
 20
103.933901265023
 30
0.0
 10
217.6036834605096
 20
103.9175020966847
 30
0.0
 10
217.5563208268524
 20
103.9054857479881
 30
0.0
 10
217.5067142637357
 20
103.8962874208295
 30
0.0
 10
217.4546809943575
 20
103.8908707796816
 30
0.0
 10
217.4191757703628
 20
103.8903298563721
 30
0.0
 10
217.4010532069169
 20
103.8900537584942
 30
0.0
  0
SPLINE
  5
17B
330
1F
100
AcDbEntity
  8
0
  6
Continuous
 62
     7
370
     0
100
AcDbSpline
210
0.0
220
0.0
230
1.0
 70
     8
 71
     3
 72
    27
 73
    23
 74
     0
 42
0.00000001
 43
0.00000001
 40
0.0
 40
0.0
 40
0.0
 40
0.0
 40
0.0567243372181508
 40
0.1114372357370108
 40
0.1643678222229016
 40
0.21643537246209
 40
0.2676414903219249
 40
0.3173597799690281
 40
0.3674730633322806
 40
0.4182103970528083
 40
0.4714042826470201
 40
0.5279657201290494
 40
0.5880611158232139
 40
0.6521342629937146
 40
0.6863448363353056
 40
0.7232636803169652
 40
0.762610250771542
 40
0.8047389366452182
 40
0.8494303387909499
 40
0.8967112583864923
 40
0.9468896380534765
 40
1.0
 40
1.0
 40
1.0
 40
1.0
 10
217.4010532069169
 20
105.9710504365124
 30
0.0
 10
217.4274403960262
 20
105.9702746718276
 30
0.0
 10
217.479279087449
 20
105.9687506509876
 30
0.0
 10
217.554963844627
 20
105.9563210135622
 30
0.0
 10
217.6262918502722
 20
105.9350582030547
 30
0.0
 10
217.6932167630989
 20
105.906373754408
 30
0.0
 10
217.7545945120905
 20
105.8699389838301
 30
0.0
 10
217.8094074289237
 20
105.8256469691815
 30
0.0
 10
217.8570642677525
 20
105.7739627678692
 30
0.0
 10
217.8970449279248
 20
105.7142739390547
 30
0.0
 10
217.931992015643
 20
105.6482270992422
 30
0.0
 10
217.9630382412182
 20
105.5755258058496
 30
0.0
 10
217.9911031273928
 20
105.496251528886
 30
0.0
 10
218.0110185815765
 20
105.4252899842107
 30
0.0
 10
218.0252242586933
 20
105.3640334609155
 30
0.0
 10
218.0346272882596
 20
105.313510813335
 30
0.0
 10
218.0424336879139
 20
105.2589965921661
 30
0.0
 10
218.0484144450439
 20
105.2006226819846
 30
0.0
 10
218.0533215151556
 20
105.1384545543251
 30
0.0
 10
218.0571110205137
 20
105.0724535021219
 30
0.0
 10
218.0590345824878
 20
105.0024545669742
 30
0.0
 10
218.059405656001
 20
104.9544252589451
 30
0.0
 10
218.0595964594543
 20
104.9297289184376
 30
0.0
  0
SPLINE
  5
17C
330
1F
100
AcDbEntity
  8
0
  6
Continuous
 62
     7
370
     0
100
AcDbSpline
210
0.0
220
0.0
230
1.0
 70
     8
 71
     3
 72
    31
 73
    27
 74
     0
 42
0.00000001
 43
0.00000001
 40
0.0
 40
0.0
 40
0.0
 40
0.0
 40
0.0631144583947934
 40
0.12361464576949
 40
0.1809737111859576
 40
0.2352614550083222
 40
0.287100701833872
 40
0.3360307363034436
 40
0.3823823485850662
 40
0.4263340836597073
 40
0.4682106947981602
 40
0.5082496012618052
 40
0.5466283366065849
 40
0.5836495392304463
 40
0.6189943150301618
 40
0.6535830186205963
 40
0.6871561361903312
 40
0.7204221919788076
 40
0.7532302188118171
 40
0.7862601560778999
 40
0.8195039834988841
 40
0.8535452747120184
 40
0.8883082803397299
 40
0.9239958607406951
 40
0.961350304754645
 40
1.0
 40
1.0
 40
1.0
 40
1.0
 10
216.7425099543795
 20
104.9297289184376
 30
0.0
 10
216.7427753473679
 20
104.9590918236398
 30
0.0
 10
216.743295140472
 20
105.016601389873
 30
0.0
 10
216.7465192482374
 20
105.1007482165192
 30
0.0
 10
216.7521482791422
 20
105.1806589735586
 30
0.0
 10
216.7605508726449
 20
105.2562642622325
 30
0.0
 10
216.7705011175874
 20
105.3277347385349
 30
0.0
 10
216.783436498786
 20
105.3949684067253
 30
0.0
 10
216.7979906831298
 20
105.4581161163698
 30
0.0
 10
216.8154530925531
 20
105.5171120462108
 30
0.0
 10
216.8346385638986
 20
105.572463453851
 30
0.0
 10
216.8564050932168
 20
105.6240815431363
 30
0.0
 10
216.8808953914109
 20
105.6719115867425
 30
0.0
 10
216.9069059125467
 20
105.7164496090481
 30
0.0
 10
216.93580590378
 20
105.7570028605073
 30
0.0
 10
216.9658510195891
 20
105.7947094313704
 30
0.0
 10
216.9992247595995
 20
105.8281864745562
 30
0.0
 10
217.03453937211
 20
105.8582953574194
 30
0.0
 10
217.0723148739457
 20
105.8848646918921
 30
0.0
 10
217.1123513951983
 20
105.9077908228255
 30
0.0
 10
217.1544948862251
 20
105.9280329433758
 30
0.0
 10
217.1995485553601
 20
105.9432712064379
 30
0.0
 10
217.2465770970908
 20
105.9556936212003
 30
0.0
 10
217.2959425127435
 20
105.9648317001214
 30
0.0
 10
217.3476992022447
 20
105.9702189060386
 30
0.0
 10
217.3830676242313
 20
105.9707701284046
 30
0.0
 10
217.4010532069169
 20
105.9710504365124
 30
0.0
  0
SPLINE
  5
17D
330
1F
100
AcDbEntity
  8
0
  6
Continuous
 62
     7
370
     0
100
AcDbSpline
210
0.0
220
0.0
230
1.0
 70
     8
 71
     3
 72
    15
 73
    11
 74
     0
 42
0.00000001
 43
0.00000001
 40
0.0
 40
0.0
 40
0.0
 40
0.0
 40
0.0974206681772145
 40
0.2008855880393207
 40
0.3111719701726504
 40
0.4297979458253723
 40
0.5577399263645877
 40
0.6947152693641585
 40
0.8421299102060552
 40
1.0
 40
1.0
 40
1.0
 40
1.0
 10
216.9421308778049
 20
104.0880283237883
 30
0.0
 10
216.9258471208863
 20
104.1115178820363
 30
0.0
 10
216.892269317066
 20
104.1599543566542
 30
0.0
 10
216.8529694090565
 20
104.242543038937
 30
0.0
 10
216.8179131953165
 20
104.3334615824366
 30
0.0
 10
216.7904004949045
 20
104.4344937981985
 30
0.0
 10
216.7688511921355
 20
104.544835583997
 30
0.0
 10
216.7532872153392
 20
104.6647034539199
 30
0.0
 10
216.7444795367305
 20
104.7940456210931
 30
0.0
 10
216.7431813025527
 20
104.8834801623188
 30
0.0
 10
216.7425099543795
 20
104.9297289184376
 30
0.0
  0
SPLINE
  5
17E
330
1F
100
AcDbEntity
  8
0
  6
Continuous
 62
     7
370
     0
100
AcDbSpline
210
0.0
220
0.0
230
1.0
 70
     8
 71
     3
 72
    15
 73
    11
 74
     0
 42
0.00000001
 43
0.00000001
 40
0.0
 40
0.0
 40
0.0
 40
0.0
 40
0.1379032299933934
 40
0.2688733426002937
 40
0.3951781273461133
 40
0.5170892381308875
 40
0.6367430265135471
 40
0.7562218164637977
 40
0.87662835946368
 40
1.0
 40
1.0
 40
1.0
 40
1.0
 10
217.4010532069169
 20
103.8900537584942
 30
0.0
 10
217.3772924249792
 20
103.8907315360554
 30
0.0
 10
217.3309654400152
 20
103.8920530157511
 30
0.0
 10
217.2633082944296
 20
103.9010316563135
 30
0.0
 10
217.1998084545064
 20
103.9168344852663
 30
0.0
 10
217.13993033546
 20
103.9380283071909
 30
0.0
 10
217.0843469837207
 20
103.9663762644716
 30
0.0
 10
217.0327930108857
 20
104.0008670900015
 30
0.0
 10
216.9842324770366
 20
104.0406983182956
 30
0.0
 10
216.9562780815508
 20
104.0721242431069
 30
0.0
 10
216.9421308778049
 20
104.0880283237883
 30
0.0
  0
LINE
  5
17F
330
1F
100
AcDbEntity
  8
0
  6
Continuous
 62
     7
370
     0
100
AcDbLine
 10
219.8508341064
 20
104.7593308518
 30
0.0
 11
220.6147442793
 21
104.7593308518
 31
0.0
  0
LINE
  5
180
330
1F
100
AcDbEntity
  8
0
  6
Continuous
 62
     7
370
     0
100
AcDbLine
 10
219.8508341064
 20
104.5222552809
 30
0.0
 11
219.8508341064
 21
104.7593308518
 31
0.0
  0
LINE
  5
181
330
1F
100
AcDbEntity
  8
0
  6
Continuous
 62
     7
370
     0
100
AcDbLine
 10
220.6147442793
 20
104.5222552809
 30
0.0
 11
219.8508341064
 21
104.5222552809
 31
0.0
  0
LINE
  5
182
330
1F
100
AcDbEntity
  8
0
  6
Continuous
 62
     7
370
     0
100
AcDbLine
 10
220.6147442793
 20
104.7593308518
 30
0.0
 11
220.6147442793
 21
104.5222552809
 31
0.0
  0
SPLINE
  5
183
330
1F
100
AcDbEntity
  8
0
  6
Continuous
 62
     7
370
     0
100
AcDbSpline
210
0.0
220
0.0
230
1.0
 70
     8
 71
     3
 72
    15
 73
    11
 74
     0
 42
0.00000001
 43
0.00000001
 40
0.0
 40
0.0
 40
0.0
 40
0.0
 40
0.1324616222426389
 40
0.2616495010354901
 40
0.3875466984163662
 40
0.5107816292933476
 40
0.6326753605997109
 40
0.7546603541381376
 40
0.8765227798028652
 40
1.0
 40
1.0
 40
1.0
 40
1.0
 10
223.7494101613774
 20
104.6210367688107
 30
0.0
 10
223.7489437557181
 20
104.5982427162238
 30
0.0
 10
223.7480224714551
 20
104.5532179582223
 30
0.0
 10
223.7404723563761
 20
104.4868656538929
 30
0.0
 10
223.7280353361372
 20
104.4229299860427
 30
0.0
 10
223.7113855978797
 20
104.3612216214957
 30
0.0
 10
223.6888895671118
 20
104.3020910160264
 30
0.0
 10
223.6616039874193
 20
104.245347172984
 30
0.0
 10
223.6301285407844
 20
104.1903979895814
 30
0.0
 10
223.6048868659883
 20
104.1565249893906
 30
0.0
 10
223.5921829598341
 20
104.1394770153928
 30
0.0
  0
SPLINE
  5
184
330
1F
100
AcDbEntity
  8
0
  6
Continuous
 62
     7
370
     0
100
AcDbSpline
210
0.0
220
0.0
230
1.0
 70
     8
 71
     3
 72
    23
 73
    19
 74
     0
 42
0.00000001
 43
0.00000001
 40
0.0
 40
0.0
 40
0.0
 40
0.0
 40
0.0619974190757218
 40
0.1220879540822929
 40
0.1813753107870036
 40
0.2395080083953656
 40
0.2978356978967513
 40
0.3568799706531183
 40
0.4172818251154284
 40
0.4796404090798159
 40
0.5425000674783568
 40
0.6049624196481905
 40
0.6669910330782646
 40
0.7302162430101639
 40
0.794172863251256
 40
0.8604581431502616
 40
0.9285781799847829
 40
1.0
 40
1.0
 40
1.0
 40
1.0
 10
223.1464314957728
 20
105.2861654538735
 30
0.0
 10
223.1671767158418
 20
105.285621912651
 30
0.0
 10
223.2080290853916
 20
105.2845515481615
 30
0.0
 10
223.2682264664698
 20
105.2757571561569
 30
0.0
 10
223.3257852890704
 20
105.2608280927226
 30
0.0
 10
223.3811570397835
 20
105.2407208208035
 30
0.0
 10
223.4336115774556
 20
105.214065197022
 30
0.0
 10
223.4836802288241
 20
105.1817908966198
 30
0.0
 10
223.5311608494206
 20
105.1436318915698
 30
0.0
 10
223.5757850176366
 20
105.1003081635476
 30
0.0
 10
223.616260912886
 20
105.0522142708878
 30
0.0
 10
223.6524881601751
 20
105.000918730096
 30
0.0
 10
223.6820765969281
 20
104.9453947455965
 30
0.0
 10
223.7069625029895
 20
104.8870920581124
 30
0.0
 10
223.725731986197
 20
104.8250536078538
 30
0.0
 10
223.739978679055
 20
104.7601598471347
 30
0.0
 10
223.7475959127591
 20
104.6915994557986
 30
0.0
 10
223.7487959469296
 20
104.6449257889716
 30
0.0
 10
223.7494101613774
 20
104.6210367688107
 30
0.0
  0
SPLINE
  5
185
330
1F
100
AcDbEntity
  8
0
  6
Continuous
 62
     7
370
     0
100
AcDbSpline
210
0.0
220
0.0
230
1.0
 70
     8
 71
     3
 72
    15
 73
    11
 74
     0
 42
0.00000001
 43
0.00000001
 40
0.0
 40
0.0
 40
0.0
 40
0.0
 40
0.1367294018595732
 40
0.2685149167908296
 40
0.3955294046848086
 40
0.519999953565812
 40
0.6404964768412694
 40
0.7612361017625326
 40
0.880106717175953
 40
1.0
 40
1.0
 40
1.0
 40
1.0
 10
222.7801168115489
 20
105.1491061394392
 30
0.0
 10
222.7946514727693
 20
105.1600131529425
 30
0.0
 10
222.8231952482491
 20
105.1814328021435
 30
0.0
 10
222.8677184216973
 20
105.2094790093792
 30
0.0
 10
222.9128782298123
 20
105.2331200919334
 30
0.0
 10
222.9584117858502
 20
105.2524801505569
 30
0.0
 10
223.0046807824504
 20
105.2675616021682
 30
0.0
 10
223.051406011069
 20
105.2780394983367
 30
0.0
 10
223.0987465632572
 20
105.2851210771047
 30
0.0
 10
223.1304911956689
 20
105.285816335646
 30
0.0
 10
223.1464314957728
 20
105.2861654538735
 30
0.0
  0
LINE
  5
186
330
1F
100
AcDbEntity
  8
0
  6
Continuous
 62
     7
370
     0
100
AcDbLine
 10
222.8846605529
 20
105.6812914054
 30
0.0
 11
222.7801168115
 21
105.1491061394
 31
0.0
  0
LINE
  5
187
330
1F
100
AcDbEntity
  8
0
  6
Continuous
 62
     7
370
     0
100
AcDbLine
 10
223.644043241
 20
105.6812914054
 30
0.0
 11
222.8846605529
 21
105.6812914054
 31
0.0
  0
LINE
  5
188
330
1F
100
AcDbEntity
  8
0
  6
Continuous
 62
     7
370
     0
100
AcDbLine
 10
223.644043241
 20
105.9447087064
 30
0.0
 11
223.644043241
 21
105.6812914054
 31
0.0
  0
LINE
  5
189
330
1F
100
AcDbEntity
  8
0
  6
Continuous
 62
     7
370
     0
100
AcDbLine
 10
222.6693992272
 20
105.9447087064
 30
0.0
 11
223.644043241
 21
105.9447087064
 31
0.0
  0
LINE
  5
18A
330
1F
100
AcDbEntity
  8
0
  6
Continuous
 62
     7
370
     0
100
AcDbLine
 10
222.4586653864
 20
104.8910395024
 30
0.0
 11
222.6693992272
 21
105.9447087064
 31
0.0
  0
LINE
  5
18B
330
1F
100
AcDbEntity
  8
0
  6
Continuous
 62
     7
370
     0
100
AcDbLine
 10
222.7220826874
 20
104.8646977722
 30
0.0
 11
222.4586653864
 21
104.8910395024
 31
0.0
  0
SPLINE
  5
18C
330
1F
100
AcDbEntity
  8
0
  6
Continuous
 62
     7
370
     0
100
AcDbSpline
210
0.0
220
0.0
230
1.0
 70
     8
 71
     3
 72
    15
 73
    11
 74
     0
 42
0.00000001
 43
0.00000001
 40
0.0
 40
0.0
 40
0.0
 40
0.0
 40
0.1478596367312524
 40
0.2835613219395479
 40
0.4123693961385312
 40
0.5342363558879448
 40
0.6526916293119828
 40
0.7686630594981232
 40
0.8836524018604038
 40
1.0
 40
1.0
 40
1.0
 40
1.0
 10
223.0735801484609
 20
105.04908988296
 30
0.0
 10
223.0530953795954
 20
105.0484906634311
 30
0.0
 10
223.0138102287082
 20
105.0473414959805
 30
0.0
 10
222.9573615067776
 20
105.037673962272
 30
0.0
 10
222.9059741914776
 20
105.022057293092
 30
0.0
 10
222.8602300881959
 20
104.9987825476084
 30
0.0
 10
222.8193599923202
 20
104.970977041119
 30
0.0
 10
222.7825148495987
 20
104.939513849114
 30
0.0
 10
222.7493908344088
 20
104.9044142434878
 30
0.0
 10
222.731220963525
 20
104.8779883144555
 30
0.0
 10
222.722082687419
 20
104.8646977722496
 30
0.0
  0
SPLINE
  5
18D
330
1F
100
AcDbEntity
  8
0
  6
Continuous
 62
     7
370
     0
100
AcDbSpline
210
0.0
220
0.0
230
1.0
 70
     8
 71
     3
 72
    23
 73
    19
 74
     0
 42
0.00000001
 43
0.00000001
 40
0.0
 40
0.0
 40
0.0
 40
0.0
 40
0.0728659334565351
 40
0.1418868719641257
 40
0.2074526264147114
 40
0.2704376800000974
 40
0.3316408722476697
 40
0.3901075774931579
 40
0.448069286948836
 40
0.5055029519245373
 40
0.5624881528337237
 40
0.6190843288847296
 40
0.6764155306922395
 40
0.7354523604507923
 40
0.7962407694486788
 40
0.8604056780892032
 40
0.9283049272851057
 40
1.0
 40
1.0
 40
1.0
 40
1.0
 10
223.4859928603624
 20
104.605396366563
 30
0.0
 10
223.4856904697725
 20
104.622145974917
 30
0.0
 10
223.4851016451615
 20
104.6547613470564
 30
0.0
 10
223.4801427812852
 20
104.7022547517571
 30
0.0
 10
223.4717765941248
 20
104.7469129250202
 30
0.0
 10
223.4609515312889
 20
104.7892280778628
 30
0.0
 10
223.4460305475328
 20
104.8285389839071
 30
0.0
 10
223.4283334206277
 20
104.8654156128557
 30
0.0
 10
223.4066536963855
 20
104.8990753340751
 30
0.0
 10
223.3825335725748
 20
104.9305661893862
 30
0.0
 10
223.3549853460257
 20
104.9587964722713
 30
0.0
 10
223.3236368448269
 20
104.9826333705391
 30
0.0
 10
223.2897178521711
 20
105.003495470432
 30
0.0
 10
223.2525452047982
 20
105.0204133319926
 30
0.0
 10
223.2120970136501
 20
105.0329826674076
 30
0.0
 10
223.1687752222906
 20
105.0426536400055
 30
0.0
 10
223.1221303029638
 20
105.0477401755876
 30
0.0
 10
223.0900542685348
 20
105.0486318979846
 30
0.0
 10
223.0735801484609
 20
105.04908988296
 30
0.0
  0
SPLINE
  5
18E
330
1F
100
AcDbEntity
  8
0
  6
Continuous
 62
     7
370
     0
100
AcDbSpline
210
0.0
220
0.0
230
1.0
 70
     8
 71
     3
 72
    23
 73
    19
 74
     0
 42
0.00000001
 43
0.00000001
 40
0.0
 40
0.0
 40
0.0
 40
0.0
 40
0.065801037609473
 40
0.1286767959489727
 40
0.188675874952433
 40
0.2475984367338943
 40
0.3048494201188272
 40
0.3617858992828988
 40
0.4195227063685889
 40
0.4786818154207403
 40
0.538769503044019
 40
0.5987990560131536
 40
0.6601842815006785
 40
0.7229515306109658
 40
0.7879926891048736
 40
0.8554037684344737
 40
0.9261530612840035
 40
1.0
 40
1.0
 40
1.0
 40
1.0
 10
223.0723453798624
 20
104.1271293294077
 30
0.0
 10
223.0880066589548
 20
104.1275077513727
 30
0.0
 10
223.1186329725705
 20
104.1282477720129
 30
0.0
 10
223.1631884573544
 20
104.1345065692705
 30
0.0
 10
223.205274721224
 20
104.1448266008523
 30
0.0
 10
223.2446903878081
 20
104.1592687184124
 30
0.0
 10
223.2818975293791
 20
104.1772292004623
 30
0.0
 10
223.3156618216944
 20
104.2004847530166
 30
0.0
 10
223.3478242800562
 20
104.2266262919942
 30
0.0
 10
223.3763152429825
 20
104.2577920235864
 30
0.0
 10
223.402250024007
 20
104.2917211282783
 30
0.0
 10
223.4246336898003
 20
104.3287561893253
 30
0.0
 10
223.4434775738966
 20
104.3683773903372
 30
0.0
 10
223.4593420646642
 20
104.4105771351988
 30
0.0
 10
223.471056833379
 20
104.4555964964088
 30
0.0
 10
223.4796739920265
 20
104.5031959795502
 30
0.0
 10
223.4852058638899
 20
104.5534059055391
 30
0.0
 10
223.4857268081888
 20
104.5878204616533
 30
0.0
 10
223.4859928603624
 20
104.605396366563
 30
0.0
  0
SPLINE
  5
18F
330
1F
100
AcDbEntity
  8
0
  6
Continuous
 62
     7
370
     0
100
AcDbSpline
210
0.0
220
0.0
230
1.0
 70
     8
 71
     3
 72
    23
 73
    19
 74
     0
 42
0.00000001
 43
0.00000001
 40
0.0
 40
0.0
 40
0.0
 40
0.0
 40
0.0773613371189766
 40
0.1504798322806808
 40
0.2199772368520749
 40
0.2866809968624412
 40
0.3496784941856629
 40
0.410679625017485
 40
0.469427113519291
 40
0.5267557014271297
 40
0.5831419808348368
 40
0.6388244277786262
 40
0.6952634704038116
 40
0.7526958048985345
 40
0.8108491833348943
 40
0.8713563036360842
 40
0.9344364309841282
 40
1.0
 40
1.0
 40
1.0
 40
1.0
 10
222.6957409573175
 20
104.4959135508286
 30
0.0
 10
222.6983492021476
 20
104.4810714316084
 30
0.0
 10
222.7034226439881
 20
104.4522012014117
 30
0.0
 10
222.7130906481393
 20
104.4104106868876
 30
0.0
 10
222.7256466334696
 20
104.3715861307975
 30
0.0
 10
222.7397546653219
 20
104.3353912903106
 30
0.0
 10
222.7565244412568
 20
104.3022088805446
 30
0.0
 10
222.7746946324188
 20
104.2715149686073
 30
0.0
 10
222.7961226594551
 20
104.2443990926889
 30
0.0
 10
222.8186513528214
 20
104.2194430669044
 30
0.0
 10
222.8433783152143
 20
104.197452394663
 30
0.0
 10
222.8705421433074
 20
104.1789134993255
 30
0.0
 10
222.8993849484893
 20
104.1627394357472
 30
0.0
 10
222.9302580252541
 20
104.1494968310552
 30
0.0
 10
222.9632086901882
 20
104.1398039418407
 30
0.0
 10
222.9978175693865
 20
104.1321385304683
 30
0.0
 10
223.0345303147837
 20
104.1282759658304
 30
0.0
 10
223.0595791703991
 20
104.1275164291184
 30
0.0
 10
223.0723453798624
 20
104.1271293294077
 30
0.0
  0
LINE
  5
190
330
1F
100
AcDbEntity
  8
0
  6
Continuous
 62
     7
370
     0
100
AcDbLine
 10
222.4323236563
 20
104.4695718207
 30
0.0
 11
222.6957409573
 21
104.4959135508
 31
0.0
  0
SPLINE
  5
191
330
1F
100
AcDbEntity
  8
0
  6
Continuous
 62
     7
370
     0
100
AcDbSpline
210
0.0
220
0.0
230
1.0
 70
     8
 71
     3
 72
    23
 73
    19
 74
     0
 42
0.00000001
 43
0.00000001
 40
0.0
 40
0.0
 40
0.0
 40
0.0
 40
0.0692980234597533
 40
0.135560844101282
 40
0.1996709556470566
 40
0.2617162384956088
 40
0.3226619299471025
 40
0.3829069237782243
 40
0.4430320330728903
 40
0.5035007873501627
 40
0.5637242810171079
 40
0.6239800220534739
 40
0.6836293869955231
 40
0.7438482724857304
 40
0.8051918462295101
 40
0.8676487429597673
 40
0.9327780842312611
 40
1.0
 40
1.0
 40
1.0
 40
1.0
 10
223.070699021731
 20
103.8900537584942
 30
0.0
 10
223.048588008829
 20
103.8905022767866
 30
0.0
 10
223.005334429242
 20
103.8913796685977
 30
0.0
 10
222.9420034929268
 20
103.8990072974294
 30
0.0
 10
222.8817682835231
 20
103.9111706758216
 30
0.0
 10
222.8246099303252
 20
103.9286167257912
 30
0.0
 10
222.7703562305527
 20
103.950661442601
 30
0.0
 10
222.7196378128175
 20
103.9786657919884
 30
0.0
 10
222.6715745136315
 20
104.0107010234506
 30
0.0
 10
222.6272235653979
 20
104.0477541365638
 30
0.0
 10
222.5868140769893
 20
104.089082602631
 30
0.0
 10
222.5506063546956
 20
104.1338107605278
 30
0.0
 10
222.519090387648
 20
104.1819677762771
 30
0.0
 10
222.4922813869819
 20
104.2332654889734
 30
0.0
 10
222.4699373228916
 20
104.2876547026845
 30
0.0
 10
222.4528432304393
 20
104.345506644561
 30
0.0
 10
222.4393032866775
 20
104.4062536979492
 30
0.0
 10
222.4346745941494
 20
104.4482444776975
 30
0.0
 10
222.4323236563026
 20
104.4695718207271
 30
0.0
  0
SPLINE
  5
192
330
1F
100
AcDbEntity
  8
0
  6
Continuous
 62
     7
370
     0
100
AcDbSpline
210
0.0
220
0.0
230
1.0
 70
     8
 71
     3
 72
    15
 73
    11
 74
     0
 42
0.00000001
 43
0.00000001
 40
0.0
 40
0.0
 40
0.0
 40
0.0
 40
0.1278926194654212
 40
0.2515785135038572
 40
0.3727928197023039
 40
0.4927776986078531
 40
0.6135900692425721
 40
0.7378086492801459
 40
0.866179901539168
 40
1.0
 40
1.0
 40
1.0
 40
1.0
 10
223.5921829598341
 20
104.1394770153928
 30
0.0
 10
223.5760430032453
 20
104.1195766644677
 30
0.0
 10
223.5442939757909
 20
104.0804305376243
 30
0.0
 10
223.4893208813223
 20
104.0296212079771
 30
0.0
 10
223.4302240253627
 20
103.9864402703793
 30
0.0
 10
223.3666517153441
 20
103.9513588879594
 30
0.0
 10
223.2990307327578
 20
103.923168026519
 30
0.0
 10
223.2265303723695
 20
103.904408066786
 30
0.0
 10
223.1500266763086
 20
103.8918100107339
 30
0.0
 10
223.097505404648
 20
103.8906472308499
 30
0.0
 10
223.070699021731
 20
103.8900537584942
 30
0.0
  0
LINE
  5
193
330
1F
100
AcDbEntity
  8
0
  6
Continuous
 62
     7
370
     0
100
AcDbLine
 10
225.5406478083
 20
104.7593308518
 30
0.0
 11
226.3045579812
 21
104.7593308518
 31
0.0
  0
LINE
  5
194
330
1F
100
AcDbEntity
  8
0
  6
Continuous
 62
     7
370
     0
100
AcDbLine
 10
225.5406478083
 20
104.5222552809
 30
0.0
 11
225.5406478083
 21
104.7593308518
 31
0.0
  0
LINE
  5
195
330
1F
100
AcDbEntity
  8
0
  6
Continuous
 62
     7
370
     0
100
AcDbLine
 10
226.3045579812
 20
104.5222552809
 30
0.0
 11
225.5406478083
 21
104.5222552809
 31
0.0
  0
LINE
  5
196
330
1F
100
AcDbEntity
  8
0
  6
Continuous
 62
     7
370
     0
100
AcDbLine
 10
226.3045579812
 20
104.7593308518
 30
0.0
 11
226.3045579812
 21
104.5222552809
 31
0.0
  0
SPLINE
  5
197
330
1F
100
AcDbEntity
  8
0
  6
Continuous
 62
     7
370
     0
100
AcDbSpline
210
0.0
220
0.0
230
1.0
 70
     8
 71
     3
 72
    31
 73
    27
 74
     0
 42
0.00000001
 43
0.00000001
 40
0.0
 40
0.0
 40
0.0
 40
0.0
 40
0.0628739462114324
 40
0.1228366299919129
 40
0.1796565674430315
 40
0.2339600122308621
 40
0.2855950186955591
 40
0.3345131060783806
 40
0.3809048259061764
 40
0.4248945919393348
 40
0.4665290347654876
 40
0.5064882940692463
 40
0.5450315536447548
 40
0.5818311798231349
 40
0.6174482799494435
 40
0.652066912769046
 40
0.685879714246511
 40
0.7191745547913925
 40
0.7521816462063932
 40
0.7852401639180917
 40
0.8186564497770835
 40
0.852547740653311
 40
0.8876263422585192
 40
0.9236350780687517
 40
0.9610218444769894
 40
1.0
 40
1.0
 40
1.0
 40
1.0
 10
229.7553246245184
 20
104.9297289184376
 30
0.0
 10
229.7550542602824
 20
104.9005039350947
 30
0.0
 10
229.7545260505291
 20
104.8434071775069
 30
0.0
 10
229.7513883342527
 20
104.7599350666282
 30
0.0
 10
229.7454201147758
 20
104.6806271973456
 30
0.0
 10
229.73807611167
 20
104.6053018984051
 30
0.0
 10
229.7269661732535
 20
104.5341602529032
 30
0.0
 10
229.7149946126633
 20
104.4668999988095
 30
0.0
 10
229.700188749338
 20
104.4038265569132
 30
0.0
 10
229.6829137828889
 20
104.3449122837503
 30
0.0
 10
229.663458247949
 20
104.2898456618606
 30
0.0
 10
229.642122243308
 20
104.2382105283273
 30
0.0
 10
229.6184905695045
 20
104.1900421660879
 30
0.0
 10
229.5918598586731
 20
104.1458103851879
 30
0.0
 10
229.5634485864741
 20
104.1049280827898
 30
0.0
 10
229.5330486705455
 20
104.067241900187
 30
0.0
 10
229.5000155970801
 20
104.0332942504783
 30
0.0
 10
229.4643827449075
 20
104.0032756780608
 30
0.0
 10
229.4268724745862
 20
103.9762351745065
 30
0.0
 10
229.3867386172209
 20
103.9530826934439
 30
0.0
 10
229.3441568324498
 20
103.933901265023
 30
0.0
 10
229.2994116255737
 20
103.9175020966847
 30
0.0
 10
229.2520489919166
 20
103.9054857479881
 30
0.0
 10
229.2024424287998
 20
103.8962874208295
 30
0.0
 10
229.1504091594216
 20
103.8908707796816
 30
0.0
 10
229.114903935427
 20
103.8903298563721
 30
0.0
 10
229.096781371981
 20
103.8900537584942
 30
0.0
  0
SPLINE
  5
198
330
1F
100
AcDbEntity
  8
0
  6
Continuous
 62
     7
370
     0
100
AcDbSpline
210
0.0
220
0.0
230
1.0
 70
     8
 71
     3
 72
    27
 73
    23
 74
     0
 42
0.00000001
 43
0.00000001
 40
0.0
 40
0.0
 40
0.0
 40
0.0
 40
0.0567243372181508
 40
0.1114372357370111
 40
0.1643678222229013
 40
0.2164353724620895
 40
0.2676414903219251
 40
0.3173597799690279
 40
0.3674730633322808
 40
0.4182103970528078
 40
0.4714042826470199
 40
0.5279657201290492
 40
0.5880611158232136
 40
0.6521342629937142
 40
0.6863448363353056
 40
0.7232636803169652
 40
0.7626102507715418
 40
0.8047389366452182
 40
0.8494303387909499
 40
0.8967112583864923
 40
0.9468896380534765
 40
1.0
 40
1.0
 40
1.0
 40
1.0
 10
229.096781371981
 20
105.9710504365124
 30
0.0
 10
229.1231685610903
 20
105.9702746718276
 30
0.0
 10
229.1750072525131
 20
105.9687506509876
 30
0.0
 10
229.2506920096911
 20
105.9563210135622
 30
0.0
 10
229.3220200153363
 20
105.9350582030546
 30
0.0
 10
229.388944928163
 20
105.906373754408
 30
0.0
 10
229.4503226771546
 20
105.8699389838301
 30
0.0
 10
229.5051355939878
 20
105.8256469691815
 30
0.0
 10
229.5527924328166
 20
105.7739627678692
 30
0.0
 10
229.5927730929889
 20
105.7142739390547
 30
0.0
 10
229.6277201807071
 20
105.6482270992422
 30
0.0
 10
229.6587664062823
 20
105.5755258058496
 30
0.0
 10
229.6868312924569
 20
105.496251528886
 30
0.0
 10
229.7067467466406
 20
105.4252899842107
 30
0.0
 10
229.7209524237574
 20
105.3640334609155
 30
0.0
 10
229.7303554533237
 20
105.313510813335
 30
0.0
 10
229.738161852978
 20
105.2589965921661
 30
0.0
 10
229.744142610108
 20
105.2006226819846
 30
0.0
 10
229.7490496802197
 20
105.1384545543251
 30
0.0
 10
229.7528391855778
 20
105.0724535021219
 30
0.0
 10
229.754762747552
 20
105.0024545669742
 30
0.0
 10
229.755133821065
 20
104.9544252589451
 30
0.0
 10
229.7553246245184
 20
104.9297289184376
 30
0.0
  0
SPLINE
  5
199
330
1F
100
AcDbEntity
  8
0
  6
Continuous
 62
     7
370
     0
100
AcDbSpline
210
0.0
220
0.0
230
1.0
 70
     8
 71
     3
 72
    31
 73
    27
 74
     0
 42
0.00000001
 43
0.00000001
 40
0.0
 40
0.0
 40
0.0
 40
0.0
 40
0.0631144583947934
 40
0.1236146457694899
 40
0.1809737111859575
 40
0.235261455008322
 40
0.2871007018338719
 40
0.3360307363034434
 40
0.3823823485850662
 40
0.426334083659707
 40
0.4682106947981599
 40
0.5082496012618049
 40
0.5466283366065846
 40
0.5836495392304459
 40
0.6189943150301614
 40
0.6535830186205956
 40
0.687156136190331
 40
0.7204221919788075
 40
0.7532302188118168
 40
0.7862601560778997
 40
0.8195039834988835
 40
0.8535452747120178
 40
0.8883082803397293
 40
0.9239958607406945
 40
0.9613503047546453
 40
1.0
 40
1.0
 40
1.0
 40
1.0
 10
228.4382381194436
 20
104.9297289184376
 30
0.0
 10
228.438503512432
 20
104.9590918236398
 30
0.0
 10
228.4390233055361
 20
105.016601389873
 30
0.0
 10
228.4422474133015
 20
105.1007482165192
 30
0.0
 10
228.4478764442063
 20
105.1806589735586
 30
0.0
 10
228.456279037709
 20
105.2562642622325
 30
0.0
 10
228.4662292826515
 20
105.3277347385349
 30
0.0
 10
228.4791646638501
 20
105.3949684067253
 30
0.0
 10
228.4937188481939
 20
105.4581161163698
 30
0.0
 10
228.5111812576172
 20
105.5171120462108
 30
0.0
 10
228.5303667289628
 20
105.572463453851
 30
0.0
 10
228.5521332582809
 20
105.6240815431363
 30
0.0
 10
228.5766235564749
 20
105.6719115867425
 30
0.0
 10
228.6026340776108
 20
105.7164496090481
 30
0.0
 10
228.6315340688441
 20
105.7570028605073
 30
0.0
 10
228.6615791846532
 20
105.7947094313704
 30
0.0
 10
228.6949529246636
 20
105.8281864745562
 30
0.0
 10
228.7302675371741
 20
105.8582953574194
 30
0.0
 10
228.7680430390099
 20
105.8848646918921
 30
0.0
 10
228.8080795602624
 20
105.9077908228255
 30
0.0
 10
228.8502230512892
 20
105.9280329433758
 30
0.0
 10
228.8952767204242
 20
105.9432712064379
 30
0.0
 10
228.9423052621549
 20
105.9556936212003
 30
0.0
 10
228.9916706778076
 20
105.9648317001214
 30
0.0
 10
229.0434273673088
 20
105.9702189060386
 30
0.0
 10
229.0787957892954
 20
105.9707701284046
 30
0.0
 10
229.096781371981
 20
105.9710504365124
 30
0.0
  0
SPLINE
  5
19A
330
1F
100
AcDbEntity
  8
0
  6
Continuous
 62
     7
370
     0
100
AcDbSpline
210
0.0
220
0.0
230
1.0
 70
     8
 71
     3
 72
    15
 73
    11
 74
     0
 42
0.00000001
 43
0.00000001
 40
0.0
 40
0.0
 40
0.0
 40
0.0
 40
0.0974206681772145
 40
0.2008855880393207
 40
0.3111719701726504
 40
0.4297979458253728
 40
0.5577399263645871
 40
0.6947152693641585
 40
0.8421299102060552
 40
1.0
 40
1.0
 40
1.0
 40
1.0
 10
228.637859042869
 20
104.0880283237883
 30
0.0
 10
228.6215752859504
 20
104.1115178820363
 30
0.0
 10
228.5879974821301
 20
104.1599543566542
 30
0.0
 10
228.5486975741206
 20
104.242543038937
 30
0.0
 10
228.5136413603805
 20
104.3334615824366
 30
0.0
 10
228.4861286599686
 20
104.4344937981985
 30
0.0
 10
228.4645793571996
 20
104.544835583997
 30
0.0
 10
228.4490153804033
 20
104.6647034539199
 30
0.0
 10
228.4402077017946
 20
104.7940456210931
 30
0.0
 10
228.4389094676168
 20
104.8834801623188
 30
0.0
 10
228.4382381194436
 20
104.9297289184376
 30
0.0
  0
SPLINE
  5
19B
330
1F
100
AcDbEntity
  8
0
  6
Continuous
 62
     7
370
     0
100
AcDbSpline
210
0.0
220
0.0
230
1.0
 70
     8
 71
     3
 72
    15
 73
    11
 74
     0
 42
0.00000001
 43
0.00000001
 40
0.0
 40
0.0
 40
0.0
 40
0.0
 40
0.1379032299933933
 40
0.2688733426002926
 40
0.3951781273461146
 40
0.5170892381308878
 40
0.6367430265135473
 40
0.7562218164637978
 40
0.87662835946368
 40
1.0
 40
1.0
 40
1.0
 40
1.0
 10
229.096781371981
 20
103.8900537584942
 30
0.0
 10
229.0730205900433
 20
103.8907315360554
 30
0.0
 10
229.0266936050793
 20
103.8920530157511
 30
0.0
 10
228.9590364594937
 20
103.9010316563135
 30
0.0
 10
228.8955366195705
 20
103.9168344852663
 30
0.0
 10
228.8356585005241
 20
103.9380283071909
 30
0.0
 10
228.7800751487848
 20
103.9663762644716
 30
0.0
 10
228.7285211759498
 20
104.0008670900015
 30
0.0
 10
228.6799606421007
 20
104.0406983182956
 30
0.0
 10
228.6520062466149
 20
104.0721242431069
 30
0.0
 10
228.637859042869
 20
104.0880283237883
 30
0.0
  0
CIRCLE
  5
19C
330
1F
100
AcDbEntity
  8
0
  6
Continuous
 62
     7
370
     0
100
AcDbCircle
 10
221.049382826
 20
106.5274031008
 30
0.0
 40
25.40000000000001
  0
SPLINE
  5
19D
330
1F
100
AcDbEntity
  8
0
  6
Continuous
 62
     7
370
     0
100
AcDbSpline
210
0.0
220
0.0
230
1.0
 70
     8
 71
     3
 72
    23
 73
    19
 74
     0
 42
0.00000001
 43
0.00000001
 40
0.0
 40
0.0
 40
0.0
 40
0.0
 40
0.1156291309254413
 40
0.2215410391198766
 40
0.3170478562190415
 40
0.4031508756396164
 40
0.4801812167162793
 40
0.5476493661481896
 40
0.6070358428421807
 40
0.6586524080635068
 40
0.7057228903536447
 40
0.7498040879796465
 40
0.7925868153452744
 40
0.8338739610102599
 40
0.8747683933034318
 40
0.9152226988916382
 40
0.9568807037304797
 40
1.0
 40
1.0
 40
1.0
 40
1.0
 10
229.4919073235035
 20
104.9305520975033
 30
0.0
 10
229.4916578719262
 20
104.9692485081197
 30
0.0
 10
229.4911799321441
 20
105.043389366479
 30
0.0
 10
229.4857783368058
 20
105.1493822716775
 30
0.0
 10
229.4773135514632
 20
105.2452441784376
 30
0.0
 10
229.465735069844
 20
105.3310634625482
 30
0.0
 10
229.4503472699191
 20
105.4067469554113
 30
0.0
 10
229.4316839676823
 20
105.4724557768962
 30
0.0
 10
229.4094438524666
 20
105.5280497922663
 30
0.0
 10
229.3830004348388
 20
105.5740874445006
 30
0.0
 10
229.353563620059
 20
105.6118508088337
 30
0.0
 10
229.3228140764428
 20
105.6445382865187
 30
0.0
 10
229.2899830622991
 20
105.6723379213597
 30
0.0
 10
229.2544889108496
 20
105.6946391985217
 30
0.0
 10
229.2174756653514
 20
105.7126310394392
 30
0.0
 10
229.1780928555003
 20
105.7250134825261
 30
0.0
 10
229.1367275831944
 20
105.7326208682499
 30
0.0
 10
229.1083391334708
 20
105.7335183764191
 30
0.0
 10
229.0939002452511
 20
105.7339748655989
 30
0.0
  0
SPLINE
  5
19E
330
1F
100
AcDbEntity
  8
0
  6
Continuous
 62
     7
370
     0
100
AcDbSpline
210
0.0
220
0.0
230
1.0
 70
     8
 71
     3
 72
    23
 73
    19
 74
     0
 42
0.00000001
 43
0.00000001
 40
0.0
 40
0.0
 40
0.0
 40
0.0
 40
0.0407818458722593
 40
0.0808695887215865
 40
0.1202681657882668
 40
0.1601868504553523
 40
0.2004597376386395
 40
0.2422651778979076
 40
0.2864592615494688
 40
0.3329520837492632
 40
0.3844305340495304
 40
0.4433891253601054
 40
0.5116814722136832
 40
0.589020025549008
 40
0.6762451906507723
 40
0.7737051914728237
 40
0.881567767781983
 40
1.0
 40
1.0
 40
1.0
 40
1.0
 10
229.096781371981
 20
104.1271293294077
 30
0.0
 10
229.1103870395579
 20
104.1276487574249
 30
0.0
 10
229.137366807582
 20
104.1286787728452
 30
0.0
 10
229.1770835122099
 20
104.1355395425296
 30
0.0
 10
229.2149219295854
 20
104.1483576412462
 30
0.0
 10
229.2512232678254
 20
104.1651173597966
 30
0.0
 10
229.2858001029857
 20
104.1868252194545
 30
0.0
 10
229.3184705931465
 20
104.2135680847662
 30
0.0
 10
229.3497564534218
 20
104.2448941195846
 30
0.0
 10
229.3797653331038
 20
104.2817636292348
 30
0.0
 10
229.4070873854528
 20
104.3266812261806
 30
0.0
 10
229.429753000596
 20
104.3820369861456
 30
0.0
 10
229.4491823856775
 20
104.4475557725847
 30
0.0
 10
229.4649875677592
 20
104.5237095506341
 30
0.0
 10
229.4769413043731
 20
104.6103591236346
 30
0.0
 10
229.4858914306469
 20
104.7075870845181
 30
0.0
 10
229.4911572142192
 20
104.8155229995292
 30
0.0
 10
229.4916496207229
 20
104.891033431333
 30
0.0
 10
229.4919073235035
 20
104.9305520975033
 30
0.0
  0
SPLINE
  5
19F
330
1F
100
AcDbEntity
  8
0
  6
Continuous
 62
     7
370
     0
100
AcDbSpline
210
0.0
220
0.0
230
1.0
 70
     8
 71
     3
 72
    23
 73
    19
 74
     0
 42
0.00000001
 43
0.00000001
 40
0.0
 40
0.0
 40
0.0
 40
0.0
 40
0.1184055081537694
 40
0.2266543328167019
 40
0.324092341928602
 40
0.4117048030053217
 40
0.4890259050064155
 40
0.5569093973430755
 40
0.6162333444927066
 40
0.6673492812770748
 40
0.7135123932013473
 40
0.7576965045209773
 40
0.7994925114422908
 40
0.8399760647439393
 40
0.8798857418167766
 40
0.919148659385742
 40
0.9592273564930833
 40
1.0
 40
1.0
 40
1.0
 40
1.0
 10
228.7016554204586
 20
104.9305520975033
 30
0.0
 10
228.7019169728915
 20
104.8910336096131
 30
0.0
 10
228.7024176421011
 20
104.815386482665
 30
0.0
 10
228.7076484200345
 20
104.7073115104717
 30
0.0
 10
228.7166529889455
 20
104.6098131332419
 30
0.0
 10
228.7285576171949
 20
104.5230263438492
 30
0.0
 10
228.7442765464672
 20
104.446833745999
 30
0.0
 10
228.7640135212998
 20
104.3814295018867
 30
0.0
 10
228.78626178631
 20
104.326028612309
 30
0.0
 10
228.8137935926688
 20
104.2813177286551
 30
0.0
 10
228.8439378797225
 20
104.2448718361228
 30
0.0
 10
228.875059795992
 20
104.2135271898912
 30
0.0
 10
228.9078915325867
 20
104.1868849583066
 30
0.0
 10
228.9422188663931
 20
104.1646707704888
 30
0.0
 10
228.9785744106978
 20
104.1478516469575
 30
0.0
 10
229.016560623667
 20
104.1356611087696
 30
0.0
 10
229.0561857707762
 20
104.1286456412157
 30
0.0
 10
229.0831722965356
 20
104.1276376505356
 30
0.0
 10
229.096781371981
 20
104.1271293294077
 30
0.0
  0
SPLINE
  5
1A0
330
1F
100
AcDbEntity
  8
0
  6
Continuous
 62
     7
370
     0
100
AcDbSpline
210
0.0
220
0.0
230
1.0
 70
     8
 71
     3
 72
    15
 73
    11
 74
     0
 42
0.00000001
 43
0.00000001
 40
0.0
 40
0.0
 40
0.0
 40
0.0
 40
0.0838881132795455
 40
0.1771540327539698
 40
0.2825136355617228
 40
0.3993998606601629
 40
0.5294908061912204
 40
0.6728021776758327
 40
0.82953576161967
 40
1.0
 40
1.0
 40
1.0
 40
1.0
 10
228.8206047954481
 20
105.5932112453691
 30
0.0
 10
228.8108143711234
 20
105.576842643928
 30
0.0
 10
228.7901390563061
 20
105.5422756040643
 30
0.0
 10
228.7670045812053
 20
105.4821966645749
 30
0.0
 10
228.7465685004476
 20
105.4135378724687
 30
0.0
 10
228.7297428304976
 20
105.3352428623617
 30
0.0
 10
228.717570638666
 20
105.2474459416885
 30
0.0
 10
228.707961163879
 20
105.150249069975
 30
0.0
 10
228.7029693994099
 20
105.0435165487598
 30
0.0
 10
228.702105497808
 20
104.9692458229608
 30
0.0
 10
228.7016554204586
 20
104.9305520975033
 30
0.0
  0
SPLINE
  5
1A1
330
1F
100
AcDbEntity
  8
0
  6
Continuous
 62
     7
370
     0
100
AcDbSpline
210
0.0
220
0.0
230
1.0
 70
     8
 71
     3
 72
    15
 73
    11
 74
     0
 42
0.00000001
 43
0.00000001
 40
0.0
 40
0.0
 40
0.0
 40
0.0
 40
0.1276647678962228
 40
0.2517385630080477
 40
0.3727533493873867
 40
0.4921467589723859
 40
0.6140696213092441
 40
0.737197324412108
 40
0.8656069906011162
 40
1.0
 40
1.0
 40
1.0
 40
1.0
 10
229.0939002452511
 20
105.7339748655989
 30
0.0
 10
229.0802920245308
 20
105.7336177035205
 30
0.0
 10
229.0534583570617
 20
105.7329134256696
 30
0.0
 10
229.0141703536788
 20
105.7261911007148
 30
0.0
 10
228.9769375744159
 20
105.7149498750714
 30
0.0
 10
228.9413334519782
 20
105.6997225434408
 30
0.0
 10
228.9082468242915
 20
105.679229562742
 30
0.0
 10
228.8763655579841
 20
105.6553025490793
 30
0.0
 10
228.8471828482188
 20
105.6261501535359
 30
0.0
 10
228.8295976033532
 20
105.6043562783142
 30
0.0
 10
228.8206047954481
 20
105.5932112453691
 30
0.0
  0
SPLINE
  5
1A2
330
1F
100
AcDbEntity
  8
0
  6
Continuous
 62
     7
370
     0
100
AcDbSpline
210
0.0
220
0.0
230
1.0
 70
     8
 71
     3
 72
    15
 73
    11
 74
     0
 42
0.00000001
 43
0.00000001
 40
0.0
 40
0.0
 40
0.0
 40
0.0
 40
0.1323768784386572
 40
0.2551949197670689
 40
0.3737221416536693
 40
0.4900113154474169
 40
0.6078124214239345
 40
0.7311098159015433
 40
0.8599973777575841
 40
1.0
 40
1.0
 40
1.0
 40
1.0
 10
226.1321019669642
 20
108.2870647377798
 30
0.0
 10
226.1478362103932
 20
108.2925764444856
 30
0.0
 10
226.1781685390961
 20
108.3032018616064
 30
0.0
 10
226.2188166968198
 20
108.327333252105
 30
0.0
 10
226.2534371122013
 20
108.3562908029308
 30
0.0
 10
226.2819370101196
 20
108.3905858331783
 30
0.0
 10
226.3038377694761
 20
108.4300348101346
 30
0.0
 10
226.3200765503609
 20
108.4738196578257
 30
0.0
 10
226.3289676432063
 20
108.5225524478902
 30
0.0
 10
226.3302381819485
 20
108.5563469255271
 30
0.0
 10
226.330899711324
 20
108.5739426421664
 30
0.0
  0
SPLINE
  5
1A3
330
1F
100
AcDbEntity
  8
0
  6
Continuous
 62
     7
370
     0
100
AcDbSpline
210
0.0
220
0.0
230
1.0
 70
     8
 71
     3
 72
    15
 73
    11
 74
     0
 42
0.00000001
 43
0.00000001
 40
0.0
 40
0.0
 40
0.0
 40
0.0
 40
0.1669801744060282
 40
0.3208066328848138
 40
0.4631345048703168
 40
0.5942480539785199
 40
0.7123671525397434
 40
0.8194549510427512
 40
0.9157522665813538
 40
1.0
 40
1.0
 40
1.0
 40
1.0
 10
225.8851482472627
 20
108.2627809553425
 30
0.0
 10
225.8990070603859
 20
108.2628357860435
 30
0.0
 10
225.925632970855
 20
108.2629411282053
 30
0.0
 10
225.9640402123507
 20
108.2644099122908
 30
0.0
 10
225.999488255267
 20
108.2656629954143
 30
0.0
 10
226.0318399818364
 20
108.2688081372279
 30
0.0
 10
226.0612556651266
 20
108.2718886639203
 30
0.0
 10
226.0876175871422
 20
108.2760355330447
 30
0.0
 10
226.111054870026
 20
108.2807081139899
 30
0.0
 10
226.1254055223098
 20
108.2850422840646
 30
0.0
 10
226.1321019669642
 20
108.2870647377798
 30
0.0
  0
LINE
  5
1A4
330
1F
100
AcDbEntity
  8
0
  6
Continuous
 62
     7
370
     0
100
AcDbLine
 10
225.461622618
 20
108.2627809553
 30
0.0
 11
225.8851482473
 21
108.2627809553
 31
0.0
  0
LINE
  5
1A5
330
1F
100
AcDbEntity
  8
0
  6
Continuous
 62
     7
370
     0
100
AcDbLine
 10
225.461622618
 20
108.8949824778
 30
0.0
 11
225.461622618
 21
108.2627809553
 31
0.0
  0
LINE
  5
1A6
330
1F
100
AcDbEntity
  8
0
  6
Continuous
 62
     7
370
     0
100
AcDbLine
 10
225.8530442637
 20
108.8949824778
 30
0.0
 11
225.461622618
 21
108.8949824778
 31
0.0
  0
SPLINE
  5
1A7
330
1F
100
AcDbEntity
  8
0
  6
Continuous
 62
     7
370
     0
100
AcDbSpline
210
0.0
220
0.0
230
1.0
 70
     8
 71
     3
 72
    23
 73
    19
 74
     0
 42
0.00000001
 43
0.00000001
 40
0.0
 40
0.0
 40
0.0
 40
0.0
 40
0.076010519206233
 40
0.1481357362434483
 40
0.217788177833154
 40
0.2867678984972345
 40
0.3540434632439188
 40
0.4186108400234796
 40
0.4836364388553443
 40
0.5502295626461522
 40
0.5869278113138146
 40
0.6291578250269657
 40
0.6772382242876696
 40
0.7300426397437304
 40
0.7888625661169236
 40
0.8537504514610937
 40
0.9241097665384561
 40
0.9999999999999999
 40
0.9999999999999999
 40
0.9999999999999999
 40
0.9999999999999999
 10
226.330899711324
 20
108.5739426421664
 30
0.0
 10
226.330367796917
 20
108.5908532643291
 30
0.0
 10
226.3293311570793
 20
108.6238101167565
 30
0.0
 10
226.3206294925008
 20
108.6716691805364
 30
0.0
 10
226.3055715834065
 20
108.7161932511106
 30
0.0
 10
226.2851790510075
 20
108.7573725614865
 30
0.0
 10
226.2593566866273
 20
108.7940074725041
 30
0.0
 10
226.2285367939816
 20
108.8255049206089
 30
0.0
 10
226.1916167380075
 20
108.8493156046111
 30
0.0
 10
226.157107544592
 20
108.8641687583557
 30
0.0
 10
226.1260692600876
 20
108.8734608074217
 30
0.0
 10
226.0983376429703
 20
108.8789585303658
 30
0.0
 10
226.0668817178552
 20
108.8838025710295
 30
0.0
 10
226.0315979718956
 20
108.8879208133321
 30
0.0
 10
225.9924730582526
 20
108.8911169487933
 30
0.0
 10
225.9493864262456
 20
108.8936560666096
 30
0.0
 10
225.902440640755
 20
108.8947341143911
 30
0.0
 10
225.8699196858028
 20
108.8948976287015
 30
0.0
 10
225.8530442637015
 20
108.8949824777784
 30
0.0
  0
SPLINE
  5
1A8
330
1F
100
AcDbEntity
  8
0
  6
Continuous
 62
     7
370
     0
100
AcDbSpline
210
0.0
220
0.0
230
1.0
 70
     8
 71
     3
 72
    19
 73
    15
 74
     0
 42
0.00000001
 43
0.00000001
 40
0.0
 40
0.0
 40
0.0
 40
0.0
 40
0.0801399024652513
 40
0.1562809906190948
 40
0.229406049012902
 40
0.3017986969723052
 40
0.3727428627695777
 40
0.442667609902629
 40
0.5133209646126967
 40
0.586547692363208
 40
0.6683225082295051
 40
0.7636766255259053
 40
0.8740807567185483
 40
1.0
 40
1.0
 40
1.0
 40
1.0
 10
226.4099249016284
 20
107.6700920280589
 30
0.0
 10
226.4093579513878
 20
107.6888005478315
 30
0.0
 10
226.4082523405433
 20
107.7252840711842
 30
0.0
 10
226.3977431303169
 20
107.77800461092
 30
0.0
 10
226.3803836348697
 20
107.8269035670164
 30
0.0
 10
226.3559465235575
 20
107.8713037380675
 30
0.0
 10
226.325973130922
 20
107.9112378692207
 30
0.0
 10
226.2897083524306
 20
107.9451129056254
 30
0.0
 10
226.2474233535373
 20
107.9719944222913
 30
0.0
 10
226.1989881751471
 20
107.9930912103295
 30
0.0
 10
226.1423771537237
 20
108.0081012116694
 30
0.0
 10
226.076027371412
 20
108.0182845883967
 30
0.0
 10
225.9988775426782
 20
108.0248556773053
 30
0.0
 10
225.9437464074884
 20
108.0254100175319
 30
0.0
 10
225.914371104094
 20
108.0257053844291
 30
0.0
  0
SPLINE
  5
1A9
330
1F
100
AcDbEntity
  8
0
  6
Continuous
 62
     7
370
     0
100
AcDbSpline
210
0.0
220
0.0
230
1.0
 70
     8
 71
     3
 72
    11
 73
     7
 74
     0
 42
0.00000001
 43
0.00000001
 40
0.0
 40
0.0
 40
0.0
 40
0.0
 40
0.3293954641291814
 40
0.6051903468527978
 40
0.8278865786947356
 40
1.0
 40
1.0
 40
1.0
 40
1.0
 10
225.9477098562538
 20
107.3144786716887
 30
0.0
 10
225.96705500698
 20
107.3147009200864
 30
0.0
 10
226.0025973861348
 20
107.3151092517107
 30
0.0
 10
226.0512124168687
 20
107.3163902078889
 30
0.0
 10
226.0905083919194
 20
107.3195191046639
 30
0.0
 10
226.1134551647501
 20
107.322888127708
 30
0.0
 10
226.1234585867747
 20
107.3243568204767
 30
0.0
  0
LINE
  5
1AA
330
1F
100
AcDbEntity
  8
0
  6
Continuous
 62
     7
370
     0
100
AcDbLine
 10
225.461622618
 20
107.3144786717
 30
0.0
 11
225.9477098563
 21
107.3144786717
 31
0.0
  0
LINE
  5
1AB
330
1F
100
AcDbEntity
  8
0
  6
Continuous
 62
     7
370
     0
100
AcDbLine
 10
225.461622618
 20
108.0257053844
 30
0.0
 11
225.461622618
 21
107.3144786717
 31
0.0
  0
LINE
  5
1AC
330
1F
100
AcDbEntity
  8
0
  6
Continuous
 62
     7
370
     0
100
AcDbLine
 10
225.9143711041
 20
108.0257053844
 30
0.0
 11
225.461622618
 21
108.0257053844
 31
0.0
  0
SPLINE
  5
1AD
330
1F
100
AcDbEntity
  8
0
  6
Continuous
 62
     7
370
     0
100
AcDbSpline
210
0.0
220
0.0
230
1.0
 70
     8
 71
     3
 72
    19
 73
    15
 74
     0
 42
0.00000001
 43
0.00000001
 40
0.0
 40
0.0
 40
0.0
 40
0.0
 40
0.0889709576989538
 40
0.1722707767733128
 40
0.2503120304637083
 40
0.3246551996215513
 40
0.3978444501802943
 40
0.4733008807185318
 40
0.551825888744447
 40
0.6347494834982523
 40
0.7217660118923853
 40
0.8103926655611188
 40
0.903175236799419
 40
1.0
 40
1.0
 40
1.0
 40
1.0
 10
226.1234585867747
 20
107.3243568204767
 30
0.0
 10
226.1378005242339
 20
107.3273713504059
 30
0.0
 10
226.1655702231384
 20
107.3332082597294
 30
0.0
 10
226.2047188356482
 20
107.3462356323975
 30
0.0
 10
226.2406131640541
 20
107.3611591821079
 30
0.0
 10
226.2726267270888
 20
107.3801253558606
 30
0.0
 10
226.3022705183774
 20
107.4019825718846
 30
0.0
 10
226.3280331792694
 20
107.4292832806905
 30
0.0
 10
226.3517618128505
 20
107.460301508429
 30
0.0
 10
226.3723205847642
 20
107.4957983416915
 30
0.0
 10
226.3889453370721
 20
107.5350672968152
 30
0.0
 10
226.4016513508262
 20
107.5775016407759
 30
0.0
 10
226.4084194992304
 20
107.6229525898037
 30
0.0
 10
226.4094160193073
 20
107.6541571346441
 30
0.0
 10
226.4099249016284
 20
107.6700920280589
 30
0.0
  0
SPLINE
  5
1AE
330
1F
100
AcDbEntity
  8
0
  6
Continuous
 62
     7
370
     0
100
AcDbSpline
210
0.0
220
0.0
230
1.0
 70
     8
 71
     3
 72
    23
 73
    19
 74
     0
 42
0.00000001
 43
0.00000001
 40
0.0
 40
0.0
 40
0.0
 40
0.0
 40
0.1156291309254414
 40
0.2215410391198768
 40
0.3170478562190418
 40
0.4031508756396168
 40
0.4801812167162797
 40
0.5476493661481898
 40
0.6070358428421809
 40
0.6586524080635074
 40
0.705722890353646
 40
0.7498040879796471
 40
0.7925868153452743
 40
0.8338739610102607
 40
0.874768393303433
 40
0.9152226988916382
 40
0.9568807037304802
 40
1.0
 40
1.0
 40
1.0
 40
1.0
 10
225.0664966664521
 20
104.9305520975033
 30
0.0
 10
225.0662472148749
 20
104.9692485081197
 30
0.0
 10
225.0657692750929
 20
105.043389366479
 30
0.0
 10
225.0603676797544
 20
105.1493822716775
 30
0.0
 10
225.0519028944119
 20
105.2452441784376
 30
0.0
 10
225.0403244127928
 20
105.3310634625482
 30
0.0
 10
225.0249366128679
 20
105.4067469554113
 30
0.0
 10
225.006273310631
 20
105.4724557768962
 30
0.0
 10
224.9840331954153
 20
105.5280497922663
 30
0.0
 10
224.9575897777875
 20
105.5740874445006
 30
0.0
 10
224.9281529630077
 20
105.6118508088337
 30
0.0
 10
224.8974034193915
 20
105.6445382865187
 30
0.0
 10
224.8645724052478
 20
105.6723379213597
 30
0.0
 10
224.8290782537983
 20
105.6946391985217
 30
0.0
 10
224.7920650083001
 20
105.7126310394392
 30
0.0
 10
224.752682198449
 20
105.7250134825261
 30
0.0
 10
224.7113169261432
 20
105.7326208682499
 30
0.0
 10
224.6829284764195
 20
105.7335183764191
 30
0.0
 10
224.6684895881999
 20
105.7339748655989
 30
0.0
  0
SPLINE
  5
1AF
330
1F
100
AcDbEntity
  8
0
  6
Continuous
 62
     7
370
     0
100
AcDbSpline
210
0.0
220
0.0
230
1.0
 70
     8
 71
     3
 72
    23
 73
    19
 74
     0
 42
0.00000001
 43
0.00000001
 40
0.0
 40
0.0
 40
0.0
 40
0.0
 40
0.0407818458722597
 40
0.0808695887215869
 40
0.1202681657882672
 40
0.1601868504553523
 40
0.2004597376386391
 40
0.2422651778979082
 40
0.2864592615494684
 40
0.3329520837492633
 40
0.3844305340495305
 40
0.4433891253601058
 40
0.5116814722136833
 40
0.5890200255490083
 40
0.6762451906507724
 40
0.7737051914728238
 40
0.881567767781983
 40
1.0
 40
1.0
 40
1.0
 40
1.0
 10
224.6713707149297
 20
104.1271293294077
 30
0.0
 10
224.6849763825066
 20
104.1276487574249
 30
0.0
 10
224.7119561505307
 20
104.1286787728452
 30
0.0
 10
224.7516728551587
 20
104.1355395425296
 30
0.0
 10
224.7895112725341
 20
104.1483576412462
 30
0.0
 10
224.8258126107741
 20
104.1651173597966
 30
0.0
 10
224.8603894459344
 20
104.1868252194545
 30
0.0
 10
224.8930599360952
 20
104.2135680847662
 30
0.0
 10
224.9243457963705
 20
104.2448941195846
 30
0.0
 10
224.9543546760525
 20
104.2817636292348
 30
0.0
 10
224.9816767284015
 20
104.3266812261806
 30
0.0
 10
225.0043423435447
 20
104.3820369861456
 30
0.0
 10
225.0237717286263
 20
104.4475557725847
 30
0.0
 10
225.0395769107079
 20
104.5237095506341
 30
0.0
 10
225.0515306473218
 20
104.6103591236346
 30
0.0
 10
225.0604807735956
 20
104.7075870845181
 30
0.0
 10
225.0657465571679
 20
104.8155229995292
 30
0.0
 10
225.0662389636716
 20
104.891033431333
 30
0.0
 10
225.0664966664521
 20
104.9305520975033
 30
0.0
  0
SPLINE
  5
1B0
330
1F
100
AcDbEntity
  8
0
  6
Continuous
 62
     7
370
     0
100
AcDbSpline
210
0.0
220
0.0
230
1.0
 70
     8
 71
     3
 72
    23
 73
    19
 74
     0
 42
0.00000001
 43
0.00000001
 40
0.0
 40
0.0
 40
0.0
 40
0.0
 40
0.1184055081537694
 40
0.2266543328167019
 40
0.3240923419286019
 40
0.4117048030053216
 40
0.4890259050064157
 40
0.5569093973430758
 40
0.6162333444927067
 40
0.6673492812770749
 40
0.7135123932013474
 40
0.757696504520978
 40
0.7994925114422909
 40
0.8399760647439395
 40
0.879885741816776
 40
0.9191486593857414
 40
0.959227356493083
 40
1.0
 40
1.0
 40
1.0
 40
1.0
 10
224.2762447634073
 20
104.9305520975033
 30
0.0
 10
224.2765063158402
 20
104.8910336096131
 30
0.0
 10
224.2770069850498
 20
104.815386482665
 30
0.0
 10
224.2822377629832
 20
104.7073115104717
 30
0.0
 10
224.2912423318942
 20
104.6098131332419
 30
0.0
 10
224.3031469601436
 20
104.5230263438492
 30
0.0
 10
224.3188658894159
 20
104.446833745999
 30
0.0
 10
224.3386028642485
 20
104.3814295018867
 30
0.0
 10
224.3608511292587
 20
104.326028612309
 30
0.0
 10
224.3883829356175
 20
104.2813177286551
 30
0.0
 10
224.4185272226713
 20
104.2448718361228
 30
0.0
 10
224.4496491389407
 20
104.2135271898912
 30
0.0
 10
224.4824808755354
 20
104.1868849583066
 30
0.0
 10
224.5168082093418
 20
104.1646707704888
 30
0.0
 10
224.5531637536465
 20
104.1478516469575
 30
0.0
 10
224.5911499666157
 20
104.1356611087696
 30
0.0
 10
224.6307751137249
 20
104.1286456412157
 30
0.0
 10
224.6577616394843
 20
104.1276376505356
 30
0.0
 10
224.6713707149297
 20
104.1271293294077
 30
0.0
  0
SPLINE
  5
1B1
330
1F
100
AcDbEntity
  8
0
  6
Continuous
 62
     7
370
     0
100
AcDbSpline
210
0.0
220
0.0
230
1.0
 70
     8
 71
     3
 72
    15
 73
    11
 74
     0
 42
0.00000001
 43
0.00000001
 40
0.0
 40
0.0
 40
0.0
 40
0.0
 40
0.0838881132795455
 40
0.1771540327539696
 40
0.2825136355617228
 40
0.3993998606601629
 40
0.5294908061912204
 40
0.6728021776758328
 40
0.8295357616196702
 40
1.0
 40
1.0
 40
1.0
 40
1.0
 10
224.3951941383968
 20
105.5932112453691
 30
0.0
 10
224.3854037140722
 20
105.576842643928
 30
0.0
 10
224.3647283992548
 20
105.5422756040643
 30
0.0
 10
224.341593924154
 20
105.4821966645749
 30
0.0
 10
224.3211578433963
 20
105.4135378724687
 30
0.0
 10
224.3043321734463
 20
105.3352428623617
 30
0.0
 10
224.2921599816147
 20
105.2474459416885
 30
0.0
 10
224.2825505068277
 20
105.150249069975
 30
0.0
 10
224.2775587423586
 20
105.0435165487598
 30
0.0
 10
224.2766948407566
 20
104.9692458229608
 30
0.0
 10
224.2762447634073
 20
104.9305520975033
 30
0.0
  0
SPLINE
  5
1B2
330
1F
100
AcDbEntity
  8
0
  6
Continuous
 62
     7
370
     0
100
AcDbSpline
210
0.0
220
0.0
230
1.0
 70
     8
 71
     3
 72
    15
 73
    11
 74
     0
 42
0.00000001
 43
0.00000001
 40
0.0
 40
0.0
 40
0.0
 40
0.0
 40
0.1276647678962251
 40
0.2517385630080496
 40
0.3727533493873896
 40
0.492146758972386
 40
0.614069621309245
 40
0.7371973244121095
 40
0.8656069906011175
 40
1.0
 40
1.0
 40
1.0
 40
1.0
 10
224.6684895881999
 20
105.7339748655989
 30
0.0
 10
224.6548813674795
 20
105.7336177035205
 30
0.0
 10
224.6280477000105
 20
105.7329134256696
 30
0.0
 10
224.5887596966275
 20
105.7261911007148
 30
0.0
 10
224.5515269173646
 20
105.7149498750714
 30
0.0
 10
224.5159227949269
 20
105.6997225434408
 30
0.0
 10
224.4828361672402
 20
105.679229562742
 30
0.0
 10
224.4509549009328
 20
105.6553025490793
 30
0.0
 10
224.4217721911675
 20
105.6261501535359
 30
0.0
 10
224.4041869463019
 20
105.6043562783142
 30
0.0
 10
224.3951941383968
 20
105.5932112453691
 30
0.0
  0
SPLINE
  5
1B3
330
1F
100
AcDbEntity
  8
0
  6
Continuous
 62
     7
370
     0
100
AcDbSpline
210
0.0
220
0.0
230
1.0
 70
     8
 71
     3
 72
    15
 73
    11
 74
     0
 42
0.00000001
 43
0.00000001
 40
0.0
 40
0.0
 40
0.0
 40
0.0
 40
0.1531481085926319
 40
0.2994334688329067
 40
0.4364263514567512
 40
0.5656705729563586
 40
0.6865083102878727
 40
0.7992685160630042
 40
0.9033947408013441
 40
1.0
 40
1.0
 40
1.0
 40
1.0
 10
224.1243682257908
 20
108.4866856612052
 30
0.0
 10
224.1167154722907
 20
108.5075507365463
 30
0.0
 10
224.1017528942494
 20
108.5483458984603
 30
0.0
 10
224.0794391825529
 20
108.607617824904
 30
0.0
 10
224.0590537351185
 20
108.6639048790305
 30
0.0
 10
224.0390641298996
 20
108.7163999851072
 30
0.0
 10
224.0210191562214
 20
108.7658656873138
 30
0.0
 10
224.0043866414519
 20
108.811967867237
 30
0.0
 10
223.9879372246852
 20
108.8543860926584
 30
0.0
 10
223.9780656982884
 20
108.8817926369747
 30
0.0
 10
223.9733148672401
 20
108.8949824777784
 30
0.0
  0
LINE
  5
1B4
330
1F
100
AcDbEntity
  8
0
  6
Continuous
 62
     7
370
     0
100
AcDbLine
 10
224.3239891492
 20
107.9466801941
 30
0.0
 11
224.1243682258
 21
108.4866856612
 31
0.0
  0
LINE
  5
1B5
330
1F
100
AcDbEntity
  8
0
  6
Continuous
 62
     7
370
     0
100
AcDbLine
 10
223.6226405853
 20
107.9466801941
 30
0.0
 11
224.3239891492
 21
107.9466801941
 31
0.0
  0
LINE
  5
1B6
330
1F
100
AcDbEntity
  8
0
  6
Continuous
 62
     7
370
     0
100
AcDbLine
 10
223.8329628365
 20
108.5154969285
 30
0.0
 11
223.6226405853
 21
107.9466801941
 31
0.0
  0
SPLINE
  5
1B7
330
1F
100
AcDbEntity
  8
0
  6
Continuous
 62
     7
370
     0
100
AcDbSpline
210
0.0
220
0.0
230
1.0
 70
     8
 71
     3
 72
    11
 73
     7
 74
     0
 42
0.00000001
 43
0.00000001
 40
0.0
 40
0.0
 40
0.0
 40
0.0
 40
0.247294050035337
 40
0.4956077709090489
 40
0.746359172773196
 40
1.0
 40
1.0
 40
1.0
 40
1.0
 10
223.9733148672401
 20
108.8949824777784
 30
0.0
 10
223.9654560756919
 20
108.8624574919026
 30
0.0
 10
223.9497060883361
 20
108.7972734094451
 30
0.0
 10
223.9167294494717
 20
108.7017699840756
 30
0.0
 10
223.8790053199352
 20
108.6071399806381
 30
0.0
 10
223.8483688316745
 20
108.5461610523954
 30
0.0
 10
223.832962836543
 20
108.5154969285038
 30
0.0
  0
SPLINE
  5
1B8
330
1F
100
AcDbEntity
  8
0
  6
Continuous
 62
     7
370
     0
100
AcDbSpline
210
0.0
220
0.0
230
1.0
 70
     8
 71
     3
 72
    23
 73
    19
 74
     0
 42
0.00000001
 43
0.00000001
 40
0.0
 40
0.0
 40
0.0
 40
0.0
 40
0.0603255293380428
 40
0.1181599905079977
 40
0.1741866762963808
 40
0.2295388181457999
 40
0.2834498146386372
 40
0.337826511950592
 40
0.3926321025334832
 40
0.4484655764151909
 40
0.5059654091573053
 40
0.5650585322290048
 40
0.6266544786228438
 40
0.6922320330373639
 40
0.7611310781257618
 40
0.8353098773394203
 40
0.9153255598322017
 40
1.0
 40
1.0
 40
1.0
 40
1.0
 10
220.9308450405173
 20
108.5718846945023
 30
0.0
 10
220.9304626129064
 20
108.5834177719024
 30
0.0
 10
220.9297135495602
 20
108.6060076825269
 30
0.0
 10
220.9257867117596
 20
108.63916339949
 30
0.0
 10
220.9181520067648
 20
108.6706689942637
 30
0.0
 10
220.9080703975539
 20
108.7006910089634
 30
0.0
 10
220.8945993218447
 20
108.7290095537944
 30
0.0
 10
220.8785962334682
 20
108.7558440661728
 30
0.0
 10
220.8594996086923
 20
108.7810458183971
 30
0.0
 10
220.837625523819
 20
108.8046915788671
 30
0.0
 10
220.8125100992469
 20
108.8262069100643
 30
0.0
 10
220.7838223798836
 20
108.8447699743289
 30
0.0
 10
220.7517886240865
 20
108.8605445742979
 30
0.0
 10
220.7163715978267
 20
108.8730643513474
 30
0.0
 10
220.6776828712082
 20
108.8830781350175
 30
0.0
 10
220.635502197834
 20
108.8897399823097
 30
0.0
 10
220.590022478931
 20
108.8945604728061
 30
0.0
 10
220.5585076711734
 20
108.8948391814159
 30
0.0
 10
220.5423045215203
 20
108.8949824777784
 30
0.0
  0
LINE
  5
1B9
330
1F
100
AcDbEntity
  8
0
  6
Continuous
 62
     7
370
     0
100
AcDbLine
 10
219.9298592967
 20
108.2364392252
 30
0.0
 11
220.4801545021
 21
108.2364392252
 31
0.0
  0
LINE
  5
1BA
330
1F
100
AcDbEntity
  8
0
  6
Continuous
 62
     7
370
     0
100
AcDbLine
 10
219.9298592967
 20
108.8949824778
 30
0.0
 11
219.9298592967
 21
108.2364392252
 31
0.0
  0
LINE
  5
1BB
330
1F
100
AcDbEntity
  8
0
  6
Continuous
 62
     7
370
     0
100
AcDbLine
 10
220.5423045215
 20
108.8949824778
 30
0.0
 11
219.9298592967
 21
108.8949824778
 31
0.0
  0
SPLINE
  5
1BC
330
1F
100
AcDbEntity
  8
0
  6
Continuous
 62
     7
370
     0
100
AcDbSpline
210
0.0
220
0.0
230
1.0
 70
     8
 71
     3
 72
    19
 73
    15
 74
     0
 42
0.00000001
 43
0.00000001
 40
0.0
 40
0.0
 40
0.0
 40
0.0
 40
0.1288602680417313
 40
0.2408921848092289
 40
0.3380442015575112
 40
0.4201204852136088
 40
0.494058456868551
 40
0.5660947835833202
 40
0.6368049543510104
 40
0.7091484493607203
 40
0.7819418055941268
 40
0.8542853006038366
 40
0.9261704072165587
 40
1.0
 40
1.0
 40
1.0
 40
1.0
 10
220.480154502062
 20
108.236439225241
 30
0.0
 10
220.5077483881099
 20
108.2368709577578
 30
0.0
 10
220.5593325699408
 20
108.2376780412041
 30
0.0
 10
220.6314648876504
 20
108.2445696855276
 30
0.0
 10
220.6929376717901
 20
108.2555208010194
 30
0.0
 10
220.7449661515455
 20
108.2714942855177
 30
0.0
 10
220.7886782870471
 20
108.2936707864201
 30
0.0
 10
220.8266955618243
 20
108.3206969967808
 30
0.0
 10
220.8582883957183
 20
108.3545501387275
 30
0.0
 10
220.8845703700012
 20
108.3927462018922
 30
0.0
 10
220.9049998877703
 20
108.4347790627849
 30
0.0
 10
220.9197367674944
 20
108.4789284205446
 30
0.0
 10
220.9293823115877
 20
108.5248232283837
 30
0.0
 10
220.9303531457832
 20
108.5560585992536
 30
0.0
 10
220.9308450405173
 20
108.5718846945023
 30
0.0
  0
SPLINE
  5
1BD
330
1F
100
AcDbEntity
  8
0
  6
Continuous
 62
     7
370
     0
100
AcDbSpline
210
0.0
220
0.0
230
1.0
 70
     8
 71
     3
 72
    23
 73
    19
 74
     0
 42
0.00000001
 43
0.00000001
 40
0.0
 40
0.0
 40
0.0
 40
0.0
 40
0.0718367171319505
 40
0.1395582629178172
 40
0.2049233526537264
 40
0.2678265586039221
 40
0.3285473200936659
 40
0.3887551463289839
 40
0.4480299679797879
 40
0.5086005276974233
 40
0.5693212891871666
 40
0.6285118954019238
 40
0.687493275539241
 40
0.747078295388978
 40
0.8077025413165653
 40
0.8697098126206608
 40
0.933428331305089
 40
1.0
 40
1.0
 40
1.0
 40
1.0
 10
218.9836149606708
 20
104.1271293294077
 30
0.0
 10
218.9985880741556
 20
104.1273829629935
 30
0.0
 10
219.0276765652759
 20
104.1278757007475
 30
0.0
 10
219.0700784777199
 20
104.1335062866263
 30
0.0
 10
219.1100306656682
 20
104.1420497273082
 30
0.0
 10
219.1477161681066
 20
104.1537641848478
 30
0.0
 10
219.1825802963958
 20
104.1697903381985
 30
0.0
 10
219.2151907986729
 20
104.1885214303129
 30
0.0
 10
219.245214111406
 20
104.2111593889712
 30
0.0
 10
219.2726417351934
 20
104.236995014054
 30
0.0
 10
219.2971943207233
 20
104.2655740572705
 30
0.0
 10
219.318226715051
 20
104.2964046004327
 30
0.0
 10
219.3365735210473
 20
104.3286196099263
 30
0.0
 10
219.3515528493675
 20
104.36291433535
 30
0.0
 10
219.3623853180165
 20
104.3993594954071
 30
0.0
 10
219.370744097569
 20
104.4372975404426
 30
0.0
 10
219.3757867019795
 20
104.4771197806224
 30
0.0
 10
219.3763798804542
 20
104.5042680160681
 30
0.0
 10
219.3766829645291
 20
104.5181393856018
 30
0.0
  0
SPLINE
  5
1BE
330
1F
100
AcDbEntity
  8
0
  6
Continuous
 62
     7
370
     0
100
AcDbSpline
210
0.0
220
0.0
230
1.0
 70
     8
 71
     3
 72
    19
 73
    15
 74
     0
 42
0.00000001
 43
0.00000001
 40
0.0
 40
0.0
 40
0.0
 40
0.0
 40
0.079823271279787
 40
0.1598568116661127
 40
0.2397327021152788
 40
0.3213646023254474
 40
0.4025836963489389
 40
0.483265588546352
 40
0.5660170116609762
 40
0.6530713596602558
 40
0.7418556865073695
 40
0.8285909050739395
 40
0.9142807452008549
 40
1.0
 40
1.0
 40
1.0
 40
1.0
 10
218.5864310614842
 20
104.5263711762585
 30
0.0
 10
218.5868865694241
 20
104.5094688796322
 30
0.0
 10
218.5877987851952
 20
104.4756197626368
 30
0.0
 10
218.5958008809071
 20
104.4253466509382
 30
0.0
 10
218.6093787798226
 20
104.3760097164685
 30
0.0
 10
218.6267812209907
 20
104.3275623571039
 30
0.0
 10
218.6513284464214
 20
104.2819599930343
 30
0.0
 10
218.6838808280986
 20
104.2412565278581
 30
0.0
 10
218.7247279700686
 20
104.2070355085081
 30
0.0
 10
218.7713776397568
 20
104.1781242926435
 30
0.0
 10
218.8222844233777
 20
104.1553686792685
 30
0.0
 10
218.8753307804481
 20
104.1394844879127
 30
0.0
 10
218.9291476119495
 20
104.1289890071262
 30
0.0
 10
218.9654571007994
 20
104.1277492928943
 30
0.0
 10
218.9836149606708
 20
104.1271293294077
 30
0.0
  0
SPLINE
  5
1BF
330
1F
100
AcDbEntity
  8
0
  6
Continuous
 62
     7
370
     0
100
AcDbSpline
210
0.0
220
0.0
230
1.0
 70
     8
 71
     3
 72
    23
 73
    19
 74
     0
 42
0.00000001
 43
0.00000001
 40
0.0
 40
0.0
 40
0.0
 40
0.0
 40
0.0709524654154269
 40
0.1390889271416602
 40
0.2035598239190671
 40
0.2664237811295191
 40
0.3275165661984789
 40
0.3878608717608968
 40
0.4478987850107178
 40
0.5088188285885856
 40
0.5694824568188307
 40
0.6290357116670982
 40
0.6883784585529115
 40
0.7480679615575835
 40
0.8086301697509072
 40
0.8702311456070247
 40
0.933682580472202
 40
1.0
 40
1.0
 40
1.0
 40
1.0
 10
218.9757947595469
 20
104.9173812324526
 30
0.0
 10
218.9610962903281
 20
104.9171156410001
 30
0.0
 10
218.9322827134875
 20
104.9165949990468
 30
0.0
 10
218.8904245509795
 20
104.911054920861
 30
0.0
 10
218.850797731251
 20
104.9025471982104
 30
0.0
 10
218.8137508927459
 20
104.8900950135786
 30
0.0
 10
218.7788208353979
 20
104.8745347433989
 30
0.0
 10
218.7466464181656
 20
104.8549688171337
 30
0.0
 10
218.716653651713
 20
104.832258359635
 30
0.0
 10
218.6897587077095
 20
104.8058617726239
 30
0.0
 10
218.6654924984583
 20
104.7771879024491
 30
0.0
 10
218.6445117617956
 20
104.7464496017276
 30
0.0
 10
218.6259774073667
 20
104.7143599069797
 30
0.0
 10
218.6119120772786
 20
104.6798658382993
 30
0.0
 10
218.6000070345154
 20
104.6440825259107
 30
0.0
 10
218.5925644996849
 20
104.606315454465
 30
0.0
 10
218.5872737874318
 20
104.5669937240883
 30
0.0
 10
218.5867160758766
 20
104.5401099377376
 30
0.0
 10
218.5864310614842
 20
104.5263711762585
 30
0.0
  0
SPLINE
  5
1C0
330
1F
100
AcDbEntity
  8
0
  6
Continuous
 62
     7
370
     0
100
AcDbSpline
210
0.0
220
0.0
230
1.0
 70
     8
 71
     3
 72
    23
 73
    19
 74
     0
 42
0.00000001
 43
0.00000001
 40
0.0
 40
0.0
 40
0.0
 40
0.0
 40
0.0666161804351809
 40
0.130423869924064
 40
0.1926709575700171
 40
0.2529685047960665
 40
0.312880382805784
 40
0.3722002559180861
 40
0.4319271071459047
 40
0.4924217452545999
 40
0.5527712209075776
 40
0.6132624068156192
 40
0.6735564905563718
 40
0.7343197960333021
 40
0.7968580801403251
 40
0.8617690047507051
 40
0.9288631073150267
 40
0.9999999999999999
 40
0.9999999999999999
 40
0.9999999999999999
 40
0.9999999999999999
 10
219.3766829645291
 20
104.5181393856018
 30
0.0
 10
219.376370227882
 20
104.532283033793
 30
0.0
 10
219.3757579393432
 20
104.5599740439935
 30
0.0
 10
219.3708434838686
 20
104.6006702999881
 30
0.0
 10
219.3620159976149
 20
104.6392758085189
 30
0.0
 10
219.3506638135418
 20
104.6763737864177
 30
0.0
 10
219.3352783581306
 20
104.7113188350749
 30
0.0
 10
219.3168102729855
 20
104.7446120247521
 30
0.0
 10
219.2941943716779
 20
104.7753758209473
 30
0.0
 10
219.2693942318263
 20
104.8046546594361
 30
0.0
 10
219.2413287783319
 20
104.8311587760397
 30
0.0
 10
219.2103357332936
 20
104.8540142771882
 30
0.0
 10
219.1773973365695
 20
104.8741995554817
 30
0.0
 10
219.1415171717853
 20
104.8896833680589
 30
0.0
 10
219.1034857275951
 20
104.9020862550015
 30
0.0
 10
219.0631223230794
 20
104.9110983811528
 30
0.0
 10
219.0202623847162
 20
104.916607254177
 30
0.0
 10
218.9909035172024
 20
104.9171182579818
 30
0.0
 10
218.9757947595469
 20
104.9173812324526
 30
0.0
  0
SPLINE
  5
1C1
330
1F
100
AcDbEntity
  8
0
  6
Continuous
 62
     7
370
     0
100
AcDbSpline
210
0.0
220
0.0
230
1.0
 70
     8
 71
     3
 72
    19
 73
    15
 74
     0
 42
0.00000001
 43
0.00000001
 40
0.0
 40
0.0
 40
0.0
 40
0.0
 40
0.0768426979287827
 40
0.1498390532852208
 40
0.2183793964454711
 40
0.2849970207005652
 40
0.3476576708142682
 40
0.4098471591145119
 40
0.4699357615076958
 40
0.5304196066566044
 40
0.6487517360264009
 40
0.7637748930771634
 40
0.8787494877784697
 40
0.9999999999999999
 40
0.9999999999999999
 40
0.9999999999999999
 40
0.9999999999999999
 10
218.9840265502037
 20
105.154456803366
 30
0.0
 10
218.9962526363285
 20
105.1546312210034
 30
0.0
 10
219.020092834808
 20
105.1549713258457
 30
0.0
 10
219.054578881171
 20
105.1594099053519
 30
0.0
 10
219.0871680748052
 20
105.1653380460413
 30
0.0
 10
219.1173788430447
 20
105.1743212321139
 30
0.0
 10
219.1455599676642
 20
105.1860019939006
 30
0.0
 10
219.1712530948904
 20
105.200401489822
 30
0.0
 10
219.1952270865621
 20
105.2169506428283
 30
0.0
 10
219.2232560257918
 20
105.2426933305878
 30
0.0
 10
219.2533341794796
 20
105.2788754241511
 30
0.0
 10
219.2791125853309
 20
105.3282707656637
 30
0.0
 10
219.2951765905868
 20
105.3823122025338
 30
0.0
 10
219.2968161929506
 20
105.419955213633
 30
0.0
 10
219.2976577742246
 20
105.4392767600884
 30
0.0
  0
SPLINE
  5
1C2
330
1F
100
AcDbEntity
  8
0
  6
Continuous
 62
     7
370
     0
100
AcDbSpline
210
0.0
220
0.0
230
1.0
 70
     8
 71
     3
 72
    19
 73
    15
 74
     0
 42
0.00000001
 43
0.00000001
 40
0.0
 40
0.0
 40
0.0
 40
0.0
 40
0.1273939413394724
 40
0.2461816112928118
 40
0.3612680043537856
 40
0.477140268037225
 40
0.5363265834357714
 40
0.5956719150436505
 40
0.6566189532057533
 40
0.7188356214960797
 40
0.7835815527063736
 40
0.8515878166889451
 40
0.9239265274809916
 40
1.0
 40
1.0
 40
1.0
 40
1.0
 10
218.6654562517887
 20
105.4516244460735
 30
0.0
 10
218.6662380713422
 20
105.4306545821776
 30
0.0
 10
218.6677488935635
 20
105.39013150213
 30
0.0
 10
218.6841792470438
 20
105.3325714358929
 30
0.0
 10
218.7098715516556
 20
105.2808663545576
 30
0.0
 10
218.7399912699577
 20
105.2433710265853
 30
0.0
 10
218.7688685156068
 20
105.2178235203326
 30
0.0
 10
218.7929705538855
 20
105.2007663581755
 30
0.0
 10
218.8193094208357
 20
105.1862851718822
 30
0.0
 10
218.8480759293909
 20
105.1750294806248
 30
0.0
 10
218.8785733534319
 20
105.1650576389858
 30
0.0
 10
218.9118535056898
 20
105.1594841044472
 30
0.0
 10
218.947134155998
 20
105.1549531520793
 30
0.0
 10
218.9715244928834
 20
105.1546250055171
 30
0.0
 10
218.9840265502037
 20
105.154456803366
 30
0.0
  0
SPLINE
  5
1C3
330
1F
100
AcDbEntity
  8
0
  6
Continuous
 62
     7
370
     0
100
AcDbSpline
210
0.0
220
0.0
230
1.0
 70
     8
 71
     3
 72
    19
 73
    15
 74
     0
 42
0.00000001
 43
0.00000001
 40
0.0
 40
0.0
 40
0.0
 40
0.0
 40
0.0762358674075237
 40
0.1486180999543649
 40
0.2182394281414515
 40
0.2842516902686069
 40
0.3482575207850561
 40
0.4106562042500674
 40
0.4728623729995132
 40
0.5341947480221281
 40
0.653476101422413
 40
0.7677667895221957
 40
0.8817126094674202
 40
1.0
 40
1.0
 40
1.0
 40
1.0
 10
218.9815570130066
 20
105.7339748655989
 30
0.0
 10
218.9694668915163
 20
105.7338063169585
 30
0.0
 10
218.9458977901836
 20
105.7334777396162
 30
0.0
 10
218.9115692996096
 20
105.7289262456354
 30
0.0
 10
218.8790755292168
 20
105.7232096617476
 30
0.0
 10
218.8487162549741
 20
105.7140356024169
 30
0.0
 10
218.8206176705596
 20
105.7020472395836
 30
0.0
 10
218.7944862854705
 20
105.6874571448997
 30
0.0
 10
218.7701281307722
 20
105.670761544714
 30
0.0
 10
218.7414029546841
 20
105.6450466653143
 30
0.0
 10
218.7113180653262
 20
105.6088637522492
 30
0.0
 10
218.6848141238945
 20
105.5602573129391
 30
0.0
 10
218.6684338305513
 20
105.5072598894837
 30
0.0
 10
218.6664610715366
 20
105.470399295264
 30
0.0
 10
218.6654562517887
 20
105.4516244460735
 30
0.0
  0
SPLINE
  5
1C4
330
1F
100
AcDbEntity
  8
0
  6
Continuous
 62
     7
370
     0
100
AcDbSpline
210
0.0
220
0.0
230
1.0
 70
     8
 71
     3
 72
    19
 73
    15
 74
     0
 42
0.00000001
 43
0.00000001
 40
0.0
 40
0.0
 40
0.0
 40
0.0
 40
0.1233861213626085
 40
0.2414346864233538
 40
0.3574485461509667
 40
0.4767139204528327
 40
0.5378895868739915
 40
0.5992703938301226
 40
0.6603520522565615
 40
0.7230069362990812
 40
0.7878755372012023
 40
0.855360105861051
 40
0.9253732137563339
 40
0.9999999999999999
 40
0.9999999999999999
 40
0.9999999999999999
 40
0.9999999999999999
 10
219.2976577742246
 20
105.4392767600884
 30
0.0
 10
219.2966437870351
 20
105.4592737333159
 30
0.0
 10
219.2946596766957
 20
105.4984026313417
 30
0.0
 10
219.2786349107224
 20
105.5545739281631
 30
0.0
 10
219.2516558139479
 20
105.6054483475806
 30
0.0
 10
219.2208359360521
 20
105.6426012155527
 30
0.0
 10
219.1923111662045
 20
105.6695162808996
 30
0.0
 10
219.167906771416
 20
105.6866495225515
 30
0.0
 10
219.1416719557182
 20
105.7012314269438
 30
0.0
 10
219.1135068698118
 20
105.7131395149787
 30
0.0
 10
219.0833707852036
 20
105.7227435119321
 30
0.0
 10
219.0511820669744
 20
105.7290441965532
 30
0.0
 10
219.0170759724495
 20
105.7334630881259
 30
0.0
 10
218.9936457890547
 20
105.7338006836027
 30
0.0
 10
218.9815570130066
 20
105.7339748655989
 30
0.0
  0
SPLINE
  5
1C5
330
1F
100
AcDbEntity
  8
0
  6
Continuous
 62
     7
370
     0
100
AcDbSpline
210
0.0
220
0.0
230
1.0
 70
     8
 71
     3
 72
    23
 73
    19
 74
     0
 42
0.00000001
 43
0.00000001
 40
0.0
 40
0.0
 40
0.0
 40
0.0
 40
0.0610549117432832
 40
0.1195453450847438
 40
0.1768063562451035
 40
0.2329564830316851
 40
0.2885834899465033
 40
0.3446666617213001
 40
0.4016615108374461
 40
0.4605400973082778
 40
0.5204770623221882
 40
0.5812128653554004
 40
0.6434307597220102
 40
0.7079608695212424
 40
0.7753707435336737
 40
0.8464136772813298
 40
0.9211518871893691
 40
1.0
 40
1.0
 40
1.0
 40
1.0
 10
218.2954372617692
 20
107.2881369415872
 30
0.0
 10
218.3198901818767
 20
107.2887489898884
 30
0.0
 10
218.3677689305164
 20
107.2899473787368
 30
0.0
 10
218.4380377885261
 20
107.2999786625538
 30
0.0
 10
218.5048010697192
 20
107.3170564956686
 30
0.0
 10
218.5687205175264
 20
107.3397909601441
 30
0.0
 10
218.6286405301699
 20
107.3705240805307
 30
0.0
 10
218.6859624655721
 20
107.4065123963269
 30
0.0
 10
218.7391237203819
 20
107.45048908743
 30
0.0
 10
218.7894292529838
 20
107.499888125802
 30
0.0
 10
218.834549927003
 20
107.5560392056867
 30
0.0
 10
218.8745850264541
 20
107.6175591470836
 30
0.0
 10
218.9071067232575
 20
107.6853705927195
 30
0.0
 10
218.935184819035
 20
107.7579797492801
 30
0.0
 10
218.9557452189953
 20
107.8367589574486
 30
0.0
 10
218.9709406144877
 20
107.9208126559722
 30
0.0
 10
218.9800976815146
 20
108.0104112191581
 30
0.0
 10
218.981061967882
 20
108.0719189702924
 30
0.0
 10
218.9815570130066
 20
108.103495806135
 30
0.0
  0
SPLINE
  5
1C6
330
1F
100
AcDbEntity
  8
0
  6
Continuous
 62
     7
370
     0
100
AcDbSpline
210
0.0
220
0.0
230
1.0
 70
     8
 71
     3
 72
    23
 73
    19
 74
     0
 42
0.00000001
 43
0.00000001
 40
0.0
 40
0.0
 40
0.0
 40
0.0
 40
0.0759644026221998
 40
0.1481252239748712
 40
0.2172006111446031
 40
0.2832999093723612
 40
0.347201868136241
 40
0.4092995407059241
 40
0.4704256161074027
 40
0.5315880640528347
 40
0.5917391729173698
 40
0.6502577442905727
 40
0.7073030399522857
 40
0.7642084640229153
 40
0.8211475320101305
 40
0.8791188121552541
 40
0.9384228183936666
 40
1.0
 40
1.0
 40
1.0
 40
1.0
 10
217.6117870477289
 20
108.0742729493037
 30
0.0
 10
217.6122310897123
 20
108.0446095087487
 30
0.0
 10
217.6130969402421
 20
107.9867678931446
 30
0.0
 10
217.6230027389587
 20
107.9024378934732
 30
0.0
 10
217.6380332064144
 20
107.8228682442344
 30
0.0
 10
217.6587511192137
 20
107.7478355742941
 30
0.0
 10
217.686601067586
 20
107.6780819456737
 30
0.0
 10
217.7198992867974
 20
107.6129370937816
 30
0.0
 10
217.759766935712
 20
107.5528340644153
 30
0.0
 10
217.8053244152005
 20
107.4979409894903
 30
0.0
 10
217.8554324199394
 20
107.4486291642116
 30
0.0
 10
217.9089779082084
 20
107.4055579079862
 30
0.0
 10
217.9659729167686
 20
107.3694887775385
 30
0.0
 10
218.0257855545701
 20
107.3397060104772
 30
0.0
 10
218.0888454278459
 20
107.3164578450655
 30
0.0
 10
218.154963671628
 20
107.3001335690459
 30
0.0
 10
218.2241888658656
 20
107.2899240595355
 30
0.0
 10
218.2713919114413
 20
107.288740069231
 30
0.0
 10
218.2954372617692
 20
107.2881369415872
 30
0.0
  0
SPLINE
  5
1C7
330
1F
100
AcDbEntity
  8
0
  6
Continuous
 62
     7
370
     0
100
AcDbSpline
210
0.0
220
0.0
230
1.0
 70
     8
 71
     3
 72
    23
 73
    19
 74
     0
 42
0.00000001
 43
0.00000001
 40
0.0
 40
0.0
 40
0.0
 40
0.0
 40
0.0559431333569187
 40
0.1103820356898407
 40
0.1640478588828499
 40
0.2167594775435861
 40
0.2696011346144475
 40
0.3230085051908687
 40
0.3775814436721363
 40
0.4334493367080539
 40
0.490921858049893
 40
0.5506247708713257
 40
0.6131168723098183
 40
0.6798607463518506
 40
0.7513577440202002
 40
0.8282611012589941
 40
0.9107950320656293
 40
1.0
 40
1.0
 40
1.0
 40
1.0
 10
218.2995531570976
 20
108.9213242078799
 30
0.0
 10
218.2764672372808
 20
108.9208657306218
 30
0.0
 10
218.230916145087
 20
108.9199611039048
 30
0.0
 10
218.1638595147305
 20
108.9099047733745
 30
0.0
 10
218.0992096524938
 20
108.894879241526
 30
0.0
 10
218.0368662286956
 20
108.8738727473677
 30
0.0
 10
217.9773624570623
 20
108.8460568477758
 30
0.0
 10
217.9203900536251
 20
108.8119444536728
 30
0.0
 10
217.8654433048196
 20
108.7724643916673
 30
0.0
 10
217.813388642532
 20
108.7266547389963
 30
0.0
 10
217.7648623113478
 20
108.6740306307017
 30
0.0
 10
217.7238381666202
 20
108.6119884195923
 30
0.0
 10
217.689261896629
 20
108.5420091835243
 30
0.0
 10
217.660391348128
 20
108.4642703036093
 30
0.0
 10
217.6383784051117
 20
108.3781697436016
 30
0.0
 10
217.6231647080752
 20
108.2840780346399
 30
0.0
 10
217.6135590901672
 20
108.1818960272285
 30
0.0
 10
217.6123928293129
 20
108.1110644375943
 30
0.0
 10
217.6117870477289
 20
108.0742729493037
 30
0.0
  0
SPLINE
  5
1C8
330
1F
100
AcDbEntity
  8
0
  6
Continuous
 62
     7
370
     0
100
AcDbSpline
210
0.0
220
0.0
230
1.0
 70
     8
 71
     3
 72
    31
 73
    27
 74
     0
 42
0.00000001
 43
0.00000001
 40
0.0
 40
0.0
 40
0.0
 40
0.0
 40
0.0508516157922844
 40
0.0997524678094164
 40
0.1474376477769319
 40
0.1940857839327041
 40
0.239170927084144
 40
0.2833398222454342
 40
0.3265771497238441
 40
0.368936281499902
 40
0.4105718726814497
 40
0.4510505934949118
 40
0.4908768629924158
 40
0.5300443324843861
 40
0.5689366633103304
 40
0.6075778621311337
 40
0.646420096450513
 40
0.6856793513063945
 40
0.7247985849801968
 40
0.7635130084045112
 40
0.802172526378755
 40
0.8407403615726128
 40
0.8796493769005862
 40
0.9190706128663402
 40
0.9590978622172246
 40
1.0
 40
1.0
 40
1.0
 40
1.0
 10
218.9815570130066
 20
108.103495806135
 30
0.0
 10
218.9813820642503
 20
108.1238102870066
 30
0.0
 10
218.9810388781014
 20
108.1636599469954
 30
0.0
 10
218.976493943284
 20
108.2223988017805
 30
0.0
 10
218.9706315605638
 20
108.2793105418593
 30
0.0
 10
218.9617059917329
 20
108.3343217307173
 30
0.0
 10
218.9494054254248
 20
108.3872045545127
 30
0.0
 10
218.9357784868057
 20
108.4383616112667
 30
0.0
 10
218.9187384766005
 20
108.4873520575935
 30
0.0
 10
218.8994042102542
 20
108.5343680153058
 30
0.0
 10
218.8777694935938
 20
108.5791681133958
 30
0.0
 10
218.8533684105658
 20
108.6213746692003
 30
0.0
 10
218.826484551812
 20
108.6608235929838
 30
0.0
 10
218.7978432751883
 20
108.698262796369
 30
0.0
 10
218.7658585887529
 20
108.7322432288567
 30
0.0
 10
218.7320705741386
 20
108.7642002396841
 30
0.0
 10
218.6957117377533
 20
108.7934735899817
 30
0.0
 10
218.6571449274469
 20
108.8200709264283
 30
0.0
 10
218.6169172634317
 20
108.8440127209705
 30
0.0
 10
218.5751116747609
 20
108.864503790673
 30
0.0
 10
218.5323941839575
 20
108.8825026209521
 30
0.0
 10
218.4880497606582
 20
108.8962994797719
 30
0.0
 10
218.442690715886
 20
108.9074268489041
 30
0.0
 10
218.3961336842187
 20
108.9158791221215
 30
0.0
 10
218.3482058583209
 20
108.920256102548
 30
0.0
 10
218.3158871846845
 20
108.9209656160337
 30
0.0
 10
218.2995531570976
 20
108.9213242078799
 30
0.0
  0
SPLINE
  5
1C9
330
1F
100
AcDbEntity
  8
0
  6
Continuous
 62
     7
370
     0
100
AcDbSpline
210
0.0
220
0.0
230
1.0
 70
     8
 71
     3
 72
    23
 73
    19
 74
     0
 42
0.00000001
 43
0.00000001
 40
0.0
 40
0.0
 40
0.0
 40
0.0
 40
0.1156291309254414
 40
0.2215410391198768
 40
0.3170478562190417
 40
0.4031508756396167
 40
0.4801812167162795
 40
0.5476493661481898
 40
0.6070358428421809
 40
0.6586524080635072
 40
0.705722890353646
 40
0.749804087979647
 40
0.7925868153452743
 40
0.8338739610102607
 40
0.8747683933034329
 40
0.9152226988916381
 40
0.9568807037304801
 40
1.0
 40
1.0
 40
1.0
 40
1.0
 10
217.7961791584393
 20
104.9305520975033
 30
0.0
 10
217.7959297068621
 20
104.9692485081197
 30
0.0
 10
217.7954517670801
 20
105.043389366479
 30
0.0
 10
217.7900501717416
 20
105.1493822716775
 30
0.0
 10
217.7815853863991
 20
105.2452441784376
 30
0.0
 10
217.7700069047799
 20
105.3310634625482
 30
0.0
 10
217.754619104855
 20
105.4067469554113
 30
0.0
 10
217.7359558026182
 20
105.4724557768962
 30
0.0
 10
217.7137156874025
 20
105.5280497922663
 30
0.0
 10
217.6872722697747
 20
105.5740874445006
 30
0.0
 10
217.6578354549949
 20
105.6118508088337
 30
0.0
 10
217.6270859113786
 20
105.6445382865187
 30
0.0
 10
217.594254897235
 20
105.6723379213597
 30
0.0
 10
217.5587607457855
 20
105.6946391985217
 30
0.0
 10
217.5217475002873
 20
105.7126310394392
 30
0.0
 10
217.4823646904362
 20
105.7250134825261
 30
0.0
 10
217.4409994181303
 20
105.7326208682499
 30
0.0
 10
217.4126109684067
 20
105.7335183764191
 30
0.0
 10
217.398172080187
 20
105.7339748655989
 30
0.0
  0
SPLINE
  5
1CA
330
1F
100
AcDbEntity
  8
0
  6
Continuous
 62
     7
370
     0
100
AcDbSpline
210
0.0
220
0.0
230
1.0
 70
     8
 71
     3
 72
    23
 73
    19
 74
     0
 42
0.00000001
 43
0.00000001
 40
0.0
 40
0.0
 40
0.0
 40
0.0
 40
0.1184055081537695
 40
0.226654332816702
 40
0.3240923419286021
 40
0.4117048030053219
 40
0.4890259050064157
 40
0.5569093973430758
 40
0.6162333444927074
 40
0.6673492812770747
 40
0.7135123932013476
 40
0.7576965045209786
 40
0.7994925114422912
 40
0.8399760647439397
 40
0.8798857418167761
 40
0.9191486593857416
 40
0.9592273564930831
 40
1.0
 40
1.0
 40
1.0
 40
1.0
 10
217.0059272553945
 20
104.9305520975033
 30
0.0
 10
217.0061888078274
 20
104.8910336096131
 30
0.0
 10
217.006689477037
 20
104.815386482665
 30
0.0
 10
217.0119202549704
 20
104.7073115104717
 30
0.0
 10
217.0209248238814
 20
104.6098131332419
 30
0.0
 10
217.0328294521308
 20
104.5230263438492
 30
0.0
 10
217.0485483814031
 20
104.446833745999
 30
0.0
 10
217.0682853562357
 20
104.3814295018867
 30
0.0
 10
217.0905336212459
 20
104.326028612309
 30
0.0
 10
217.1180654276047
 20
104.2813177286551
 30
0.0
 10
217.1482097146584
 20
104.2448718361228
 30
0.0
 10
217.1793316309279
 20
104.2135271898912
 30
0.0
 10
217.2121633675226
 20
104.1868849583066
 30
0.0
 10
217.246490701329
 20
104.1646707704888
 30
0.0
 10
217.2828462456337
 20
104.1478516469575
 30
0.0
 10
217.3208324586029
 20
104.1356611087696
 30
0.0
 10
217.3604576057121
 20
104.1286456412157
 30
0.0
 10
217.3874441314715
 20
104.1276376505356
 30
0.0
 10
217.4010532069169
 20
104.1271293294077
 30
0.0
  0
SPLINE
  5
1CB
330
1F
100
AcDbEntity
  8
0
  6
Continuous
 62
     7
370
     0
100
AcDbSpline
210
0.0
220
0.0
230
1.0
 70
     8
 71
     3
 72
    15
 73
    11
 74
     0
 42
0.00000001
 43
0.00000001
 40
0.0
 40
0.0
 40
0.0
 40
0.0
 40
0.0838881132795455
 40
0.1771540327539698
 40
0.2825136355617228
 40
0.3993998606601629
 40
0.5294908061912204
 40
0.6728021776758327
 40
0.82953576161967
 40
1.0
 40
1.0
 40
1.0
 40
1.0
 10
217.124876630384
 20
105.5932112453691
 30
0.0
 10
217.1150862060593
 20
105.576842643928
 30
0.0
 10
217.094410891242
 20
105.5422756040643
 30
0.0
 10
217.0712764161412
 20
105.4821966645749
 30
0.0
 10
217.0508403353835
 20
105.4135378724687
 30
0.0
 10
217.0340146654335
 20
105.3352428623617
 30
0.0
 10
217.0218424736019
 20
105.2474459416885
 30
0.0
 10
217.0122329988149
 20
105.150249069975
 30
0.0
 10
217.0072412343457
 20
105.0435165487598
 30
0.0
 10
217.0063773327439
 20
104.9692458229608
 30
0.0
 10
217.0059272553945
 20
104.9305520975033
 30
0.0
  0
SPLINE
  5
1CC
330
1F
100
AcDbEntity
  8
0
  6
Continuous
 62
     7
370
     0
100
AcDbSpline
210
0.0
220
0.0
230
1.0
 70
     8
 71
     3
 72
    15
 73
    11
 74
     0
 42
0.00000001
 43
0.00000001
 40
0.0
 40
0.0
 40
0.0
 40
0.0
 40
0.1276647678962251
 40
0.2517385630080496
 40
0.3727533493873896
 40
0.492146758972386
 40
0.614069621309245
 40
0.7371973244121095
 40
0.8656069906011175
 40
1.0
 40
1.0
 40
1.0
 40
1.0
 10
217.398172080187
 20
105.7339748655989
 30
0.0
 10
217.3845638594667
 20
105.7336177035205
 30
0.0
 10
217.3577301919977
 20
105.7329134256696
 30
0.0
 10
217.3184421886147
 20
105.7261911007148
 30
0.0
 10
217.2812094093518
 20
105.7149498750714
 30
0.0
 10
217.2456052869141
 20
105.6997225434408
 30
0.0
 10
217.2125186592274
 20
105.679229562742
 30
0.0
 10
217.18063739292
 20
105.6553025490793
 30
0.0
 10
217.1514546831547
 20
105.6261501535359
 30
0.0
 10
217.1338694382891
 20
105.6043562783142
 30
0.0
 10
217.124876630384
 20
105.5932112453691
 30
0.0
  0
SPLINE
  5
1CD
330
1F
100
AcDbEntity
  8
0
  6
Continuous
 62
     7
370
     0
100
AcDbSpline
210
0.0
220
0.0
230
1.0
 70
     8
 71
     3
 72
    23
 73
    19
 74
     0
 42
0.00000001
 43
0.00000001
 40
0.0
 40
0.0
 40
0.0
 40
0.0
 40
0.0407818458722597
 40
0.0808695887215869
 40
0.1202681657882671
 40
0.1601868504553522
 40
0.2004597376386391
 40
0.2422651778979079
 40
0.2864592615494684
 40
0.3329520837492633
 40
0.3844305340495303
 40
0.4433891253601058
 40
0.5116814722136833
 40
0.5890200255490083
 40
0.6762451906507723
 40
0.7737051914728237
 40
0.881567767781983
 40
1.0
 40
1.0
 40
1.0
 40
1.0
 10
217.4010532069169
 20
104.1271293294077
 30
0.0
 10
217.4146588744938
 20
104.1276487574249
 30
0.0
 10
217.4416386425179
 20
104.1286787728452
 30
0.0
 10
217.4813553471459
 20
104.1355395425296
 30
0.0
 10
217.5191937645213
 20
104.1483576412462
 30
0.0
 10
217.5554951027613
 20
104.1651173597966
 30
0.0
 10
217.5900719379216
 20
104.1868252194545
 30
0.0
 10
217.6227424280823
 20
104.2135680847662
 30
0.0
 10
217.6540282883577
 20
104.2448941195846
 30
0.0
 10
217.6840371680397
 20
104.2817636292348
 30
0.0
 10
217.7113592203887
 20
104.3266812261806
 30
0.0
 10
217.7340248355319
 20
104.3820369861456
 30
0.0
 10
217.7534542206135
 20
104.4475557725847
 30
0.0
 10
217.7692594026951
 20
104.5237095506341
 30
0.0
 10
217.781213139309
 20
104.6103591236346
 30
0.0
 10
217.7901632655828
 20
104.7075870845181
 30
0.0
 10
217.7954290491551
 20
104.8155229995292
 30
0.0
 10
217.7959214556587
 20
104.891033431333
 30
0.0
 10
217.7961791584393
 20
104.9305520975033
 30
0.0
  0
LINE
  5
1CE
330
1F
100
AcDbEntity
  8
0
  6
Continuous
 62
     7
370
     0
100
AcDbLine
 10
143.0291180367
 20
105.2199756538
 30
0.0
 11
143.0294180367
 21
105.2199756578
 31
0.0
  0
LINE
  5
1CF
330
1F
100
AcDbEntity
  8
0
  6
Continuous
 62
     7
370
     0
100
AcDbLine
 10
143.0294180367
 20
108.9985514553
 30
0.0
 11
143.0291180367
 21
108.9985514551
 31
0.0
  0
LINE
  5
1D0
330
1F
100
AcDbEntity
  8
0
  6
Continuous
 62
     7
370
     0
100
AcDbLine
 10
143.0291180367
 20
108.9985514551
 30
0.0
 11
143.0291180367
 21
108.1766279558
 31
0.0
  0
LINE
  5
1D1
330
1F
100
AcDbEntity
  8
0
  6
Continuous
 62
     7
370
     0
100
AcDbLine
 10
143.0291180367
 20
108.1766279558
 30
0.0
 11
143.0294180367
 21
108.1766279473
 31
0.0
  0
LINE
  5
1D2
330
1F
100
AcDbEntity
  8
0
  6
Continuous
 62
     7
370
     0
100
AcDbLine
 10
143.0294180367
 20
108.1766279473
 30
0.0
 11
143.0294180367
 21
107.6486596483
 31
0.0
  0
LINE
  5
1D3
330
1F
100
AcDbEntity
  8
0
  6
Continuous
 62
     7
370
     0
100
AcDbLine
 10
143.0294180367
 20
107.6486596483
 30
0.0
 11
143.0291180367
 21
107.6486596625
 31
0.0
  0
LINE
  5
1D4
330
1F
100
AcDbEntity
  8
0
  6
Continuous
 62
     7
370
     0
100
AcDbLine
 10
143.0291180367
 20
107.6486596625
 30
0.0
 11
143.0291180367
 21
107.0899572432
 31
0.0
  0
LINE
  5
1D5
330
1F
100
AcDbEntity
  8
0
  6
Continuous
 62
     7
370
     0
100
AcDbLine
 10
143.0291180367
 20
107.0899572432
 30
0.0
 11
143.0294180367
 21
107.0899572432
 31
0.0
  0
LINE
  5
1D6
330
1F
100
AcDbEntity
  8
0
  6
Continuous
 62
     7
370
     0
100
AcDbLine
 10
143.0294180367
 20
107.0899572432
 30
0.0
 11
143.0294180367
 21
105.464174049
 31
0.0
  0
LINE
  5
1D7
330
1F
100
AcDbEntity
  8
0
  6
Continuous
 62
     7
370
     0
100
AcDbLine
 10
143.0294180367
 20
105.464174049
 30
0.0
 11
143.0291180367
 21
105.464174044
 31
0.0
  0
LINE
  5
1D8
330
1F
100
AcDbEntity
  8
0
  6
Continuous
 62
     7
370
     0
100
AcDbLine
 10
143.0294180367
 20
105.2199756578
 30
0.0
 11
143.0294180367
 21
81.3274031008
 31
0.0
  0
LINE
  5
1D9
330
1F
100
AcDbEntity
  8
0
  6
Continuous
 62
     7
370
     0
100
AcDbLine
 10
143.0294180367
 20
81.3274031008
 30
0.0
 11
142.8294180367
 21
81.1274031008
 31
0.0
  0
LINE
  5
1DA
330
1F
100
AcDbEntity
  8
0
  6
Continuous
 62
     7
370
     0
100
AcDbLine
 10
142.8294180367
 20
81.1274031008
 30
0.0
 11
133.1522174348
 21
81.1274031008
 31
0.0
  0
LINE
  5
1DB
330
1F
100
AcDbEntity
  8
0
  6
Continuous
 62
     7
370
     0
100
AcDbLine
 10
133.1522174348
 20
81.1274031008
 30
0.0
 11
132.9690894885
 21
81.3267516746
 31
0.0
  0
ARC
  5
1DC
330
1F
100
AcDbEntity
  8
0
  6
Continuous
 62
     7
370
     0
100
AcDbCircle
 10
-165.9705819633
 20
106.5274031008
 30
0.0
 40
300.0
100
AcDbArc
 50
355.1813517129
 51
4.8186482871
  0
LINE
  5
1DD
330
1F
100
AcDbEntity
  8
0
  6
Continuous
 62
     7
370
     0
100
AcDbLine
 10
132.9690894885
 20
131.728054527
 30
0.0
 11
133.1522174348
 21
131.9274031008
 31
0.0
  0
LINE
  5
1DE
330
1F
100
AcDbEntity
  8
0
  6
Continuous
 62
     7
370
     0
100
AcDbLine
 10
133.1522174348
 20
131.9274031008
 30
0.0
 11
142.8294180367
 21
131.9274031008
 31
0.0
  0
LINE
  5
1DF
330
1F
100
AcDbEntity
  8
0
  6
Continuous
 62
     7
370
     0
100
AcDbLine
 10
142.8294180367
 20
131.9274031008
 30
0.0
 11
143.0294180367
 21
131.7274031008
 31
0.0
  0
LINE
  5
1E0
330
1F
100
AcDbEntity
  8
0
  6
Continuous
 62
     7
370
     0
100
AcDbLine
 10
143.0294180367
 20
131.7274031008
 30
0.0
 11
143.0294180367
 21
108.9985514553
 31
0.0
  0
LINE
  5
1E1
330
1F
100
AcDbEntity
  8
0
  6
Continuous
 62
     7
370
     0
100
AcDbLine
 10
143.0291180367
 20
105.464174044
 30
0.0
 11
143.0291180367
 21
105.2199756538
 31
0.0
  0
LINE
  5
1E2
330
1F
100
AcDbEntity
  8
0
  6
Continuous
 62
     7
370
     0
100
AcDbLine
 10
143.0291180367
 20
107.644573477
 30
0.0
 11
143.0294180367
 21
107.644573477
 31
0.0
  0
LINE
  5
1E3
330
1F
100
AcDbEntity
  8
0
  6
Continuous
 62
     7
370
     0
100
AcDbLine
 10
143.0294180367
 20
107.6486596483
 30
0.0
 11
143.0294180367
 21
107.644573477
 31
0.0
  0
LINE
  5
1E4
330
1F
100
AcDbEntity
  8
0
  6
Continuous
 62
     7
370
     0
100
AcDbLine
 10
143.0291180367
 20
108.5780585375
 30
0.0
 11
143.0294180367
 21
108.5780585375
 31
0.0
  0
LINE
  5
1E5
330
1F
100
AcDbEntity
  8
0
  6
Continuous
 62
     7
370
     0
100
AcDbLine
 10
132.9690894885
 20
131.728054527
 30
0.0
 11
132.9690894885
 21
81.3267516746
 31
0.0
  0
LINE
  5
1E6
330
1F
100
AcDbEntity
  8
0
  6
Continuous
 62
     7
370
     0
100
AcDbLine
 10
143.0294180367
 20
107.644573477
 30
0.0
 11
143.0294180367
 21
107.0899572432
 31
0.0
  0
HATCH
  5
1E7
330
1F
100
AcDbEntity
  8
0
  6
Continuous
 62
     7
370
     0
100
AcDbHatch
 10
0.0
 20
0.0
 30
0.0
210
0.0
220
0.0
230
1.0
  2
ANSI31
 70
     0
 71
     0
 91
        1
 92
        0
 93
       20
 72
     1
 10
143.0294180367357
 20
108.9985514552934
 11
143.0294180367357
 21
131.7274031007752
 72
     1
 10
143.0294180367357
 20
131.7274031007752
 11
142.8294180367357
 21
131.9274031007752
 72
     1
 10
142.8294180367357
 20
131.9274031007752
 11
133.1522174348412
 21
131.9274031007752
 72
     1
 10
133.1522174348412
 20
131.9274031007752
 11
132.9690894885105
 21
131.7280545269765
 72
     2
 10
-165.9705819632643
 20
106.5274031007752
 40
300.0
 50
355.1813517129222
 51
364.8186482870794
 73
     0
 72
     1
 10
132.9690894885106
 20
81.32675167457407
 11
133.1522174348412
 21
81.12740310077521
 72
     1
 10
133.1522174348412
 20
81.12740310077521
 11
142.8294180367357
 21
81.12740310077521
 72
     1
 10
142.8294180367357
 20
81.12740310077521
 11
143.0294180367357
 21
81.32740310077523
 72
     1
 10
143.0294180367357
 20
81.32740310077523
 11
143.0294180367357
 21
105.2199756577946
 72
     1
 10
143.0294180367357
 20
105.2199756577946
 11
143.0291180367357
 21
105.2199756538187
 72
     1
 10
143.0291180367357
 20
105.2199756538187
 11
143.0291180367357
 21
105.464174044046
 72
     1
 10
143.0291180367357
 20
105.464174044046
 11
143.0294180367357
 21
105.4641740490251
 72
     1
 10
143.0294180367357
 20
105.4641740490251
 11
143.0294180367357
 21
107.0899572432462
 72
     1
 10
143.0294180367357
 20
107.0899572432462
 11
143.0291180367357
 21
107.0899572432462
 72
     1
 10
143.0291180367357
 20
107.0899572432462
 11
143.029118036735
 21
107.6486596624766
 72
     1
 10
143.029118036735
 20
107.6486596624766
 11
143.0294180367357
 21
107.6486596483427
 72
     1
 10
143.0294180367357
 20
107.6486596483427
 11
143.0294180367357
 21
108.1766279473201
 72
     1
 10
143.0294180367357
 20
108.1766279473201
 11
143.0291180367357
 21
108.1766279557779
 72
     1
 10
143.0291180367357
 20
108.1766279557779
 11
143.0291180367357
 21
108.9985514550682
 72
     1
 10
143.0291180367357
 20
108.9985514550682
 11
143.0294180367357
 21
108.9985514552934
 97
        0
 75
     0
 76
     1
 52
0.0
 41
0.5
 77
     0
 78
     1
 53
45.0
 43
0.0
 44
0.0
 45
-1.122532015133644
 46
1.122532015133644
 79
     0
 98
        1
 10
0.0
 20
0.0
  0
DIMENSION
  5
1E8
330
1F
100
AcDbEntity
  8
0
  6
Continuous
 62
     7
370
     0
100
AcDbDimension
  2
*D8
 10
-165.9705819633
 20
106.5274031008
 30
0.0
 11
167.8230124217
 21
87.2206625225
 31
0.0
 70
   164
  1
<>
 71
     1
 42
-1.0
  3
SLDDIMSTYLE0
100
AcDbRadialDimension
 15
133.489523893
 25
88.5372668991
 35
0.0
 40
0.0
  0
DIMENSION
  5
1F9
330
1F
100
AcDbEntity
  8
0
  6
Continuous
 62
     7
370
     0
100
AcDbDimension
  2
*D9
 10
132.9690894885
 20
153.9274031008
 30
0.0
 11
157.3708985519
 21
153.9274031008
 31
0.0
 70
   160
  1
<> REF
 71
     2
 42
-1.0
  3
SLDDIMSTYLE1
100
AcDbAlignedDimension
 13
143.0294180367
 23
131.7274031008
 33
0.0
 14
132.9690894885
 24
131.728054527
 34
0.0
100
AcDbRotatedDimension
  0
DIMENSION
  5
20D
330
1F
100
AcDbEntity
  8
0
  6
Continuous
 62
     7
370
     0
100
AcDbDimension
  2
*D10
 10
134.0294180367
 20
141.9274031008
 30
0.0
 11
157.3708985519
 21
141.9274031008
 31
0.0
 70
   160
 71
     2
 42
-1.0
  3
SLDDIMSTYLE2
100
AcDbAlignedDimension
 13
143.0294180367
 23
131.7274031008
 33
0.0
 14
134.0294180367
 24
106.5274031008
 34
0.0
100
AcDbRotatedDimension
  0
MTEXT
  5
220
330
1F
100
AcDbEntity
  8
0
  6
Continuous
 62
     7
370
     0
100
AcDbMText
 10
137.8182097126
 20
74.542596401
 30
0.0
 40
2.1166666667
 41
0.0
 71
     2
 72
     1
  1
SECTION A-A
  7
SLDTEXTSTYLE0
 73
     1
 44
1.0
  0
OLE2FRAME
  5
221
330
1F
100
AcDbEntity
  8
0
100
AcDbOle2Frame
 70
     2
  3
Paintbrush Picture
 10
229.0524258301
 20
33.6996297921
 30
0.0
 11
265.1686469208
 21
28.555479607
 31
0.0
 71
     2
 72
     0
 73
     1
 90
     7296
310
80557333EF78ADA16C40002412788DD94040000000000000000041161DC7B292
310
7040002412788DD94040000000000000000041161DC7B2927040F6DD59E9338E
310
3C4000000000000000007333EF78ADA16C40F6DD59E9338E3C40000000000000
310
00000000000001000000000100000100000001000000000001000000001C0000
310
D0CF11E0A1B11AE1000000000000000000000000000000003E000300FEFF0900
310
0600000000000000000000000100000001000000000000000010000002000000
310
01000000FEFFFFFF0000000000000000FFFFFFFFFFFFFFFFFFFFFFFFFFFFFFFF
310
FFFFFFFFFFFFFFFFFFFFFFFFFFFFFFFFFFFFFFFFFFFFFFFFFFFFFFFFFFFFFFFF
310
FFFFFFFFFFFFFFFFFFFFFFFFFFFFFFFFFFFFFFFFFFFFFFFFFFFFFFFFFFFFFFFF
310
FFFFFFFFFFFFFFFFFFFFFFFFFFFFFFFFFFFFFFFFFFFFFFFFFFFFFFFFFFFFFFFF
310
FFFFFFFFFFFFFFFFFFFFFFFFFFFFFFFFFFFFFFFFFFFFFFFFFFFFFFFFFFFFFFFF
310
FFFFFFFFFFFFFFFFFFFFFFFFFFFFFFFFFFFFFFFFFFFFFFFFFFFFFFFFFFFFFFFF
310
FFFFFFFFFFFFFFFFFFFFFFFFFFFFFFFFFFFFFFFFFFFFFFFFFFFFFFFFFFFFFFFF
310
FFFFFFFFFFFFFFFFFFFFFFFFFFFFFFFFFFFFFFFFFFFFFFFFFFFFFFFFFFFFFFFF
310
FFFFFFFFFFFFFFFFFFFFFFFFFFFFFFFFFFFFFFFFFFFFFFFFFFFFFFFFFFFFFFFF
310
FFFFFFFFFFFFFFFFFFFFFFFFFFFFFFFFFFFFFFFFFFFFFFFFFFFFFFFFFFFFFFFF
310
FFFFFFFFFFFFFFFFFFFFFFFFFFFFFFFFFFFFFFFFFFFFFFFFFFFFFFFFFFFFFFFF
310
FFFFFFFFFFFFFFFFFFFFFFFFFFFFFFFFFFFFFFFFFFFFFFFFFFFFFFFFFFFFFFFF
310
FFFFFFFFFFFFFFFFFFFFFFFFFFFFFFFFFFFFFFFFFFFFFFFFFFFFFFFFFFFFFFFF
310
FFFFFFFFFFFFFFFFFFFFFFFFFFFFFFFFFFFFFFFFFFFFFFFFFFFFFFFFFFFFFFFF
310
FDFFFFFFFEFFFFFFFEFFFFFFFEFFFFFF05000000060000000700000008000000
310
090000000A0000000B0000000C000000FEFFFFFFFFFFFFFFFFFFFFFFFFFFFFFF
310
FFFFFFFFFFFFFFFFFFFFFFFFFFFFFFFFFFFFFFFFFFFFFFFFFFFFFFFFFFFFFFFF
310
FFFFFFFFFFFFFFFFFFFFFFFFFFFFFFFFFFFFFFFFFFFFFFFFFFFFFFFFFFFFFFFF
310
FFFFFFFFFFFFFFFFFFFFFFFFFFFFFFFFFFFFFFFFFFFFFFFFFFFFFFFFFFFFFFFF
310
FFFFFFFFFFFFFFFFFFFFFFFFFFFFFFFFFFFFFFFFFFFFFFFFFFFFFFFFFFFFFFFF
310
FFFFFFFFFFFFFFFFFFFFFFFFFFFFFFFFFFFFFFFFFFFFFFFFFFFFFFFFFFFFFFFF
310
FFFFFFFFFFFFFFFFFFFFFFFFFFFFFFFFFFFFFFFFFFFFFFFFFFFFFFFFFFFFFFFF
310
FFFFFFFFFFFFFFFFFFFFFFFFFFFFFFFFFFFFFFFFFFFFFFFFFFFFFFFFFFFFFFFF
310
FFFFFFFFFFFFFFFFFFFFFFFFFFFFFFFFFFFFFFFFFFFFFFFFFFFFFFFFFFFFFFFF
310
FFFFFFFFFFFFFFFFFFFFFFFFFFFFFFFFFFFFFFFFFFFFFFFFFFFFFFFFFFFFFFFF
310
FFFFFFFFFFFFFFFFFFFFFFFFFFFFFFFFFFFFFFFFFFFFFFFFFFFFFFFFFFFFFFFF
310
FFFFFFFFFFFFFFFFFFFFFFFFFFFFFFFFFFFFFFFFFFFFFFFFFFFFFFFFFFFFFFFF
310
FFFFFFFFFFFFFFFFFFFFFFFFFFFFFFFFFFFFFFFFFFFFFFFFFFFFFFFFFFFFFFFF
310
FFFFFFFFFFFFFFFFFFFFFFFFFFFFFFFFFFFFFFFFFFFFFFFFFFFFFFFFFFFFFFFF
310
FFFFFFFFFFFFFFFFFFFFFFFFFFFFFFFFFFFFFFFFFFFFFFFFFFFFFFFFFFFFFFFF
310
52006F006F007400200045006E00740072007900000000000000000000000000
310
0000000000000000000000000000000000000000000000000000000000000000
310
16000500FFFFFFFFFFFFFFFF020000000A00030000000000C000000000000046
310
000000000000000000000000307E268F3B42CC0103000000C000000000000000
310
01004F006C006500000000000000000000000000000000000000000000000000
310
0000000000000000000000000000000000000000000000000000000000000000
310
0A000200FFFFFFFFFFFFFFFFFFFFFFFF00000000000000000000000000000000
310
0000000000000000000000000000000000000000000000001400000000000000
310
010043006F006D0070004F0062006A0000000000000000000000000000000000
310
0000000000000000000000000000000000000000000000000000000000000000
310
120002010100000003000000FFFFFFFF00000000000000000000000000000000
310
0000000000000000000000000000000000000000010000004D00000000000000
310
01004F006C006500310030004E00610074006900760065000000000000000000
310
0000000000000000000000000000000000000000000000000000000000000000
310
1A000200FFFFFFFFFFFFFFFFFFFFFFFF00000000000000000000000000000000
310
000000000000000000000000000000000000000004000000E411000000000000
310
FEFFFFFF02000000FEFFFFFFFFFFFFFFFFFFFFFFFFFFFFFFFFFFFFFFFFFFFFFF
310
FFFFFFFFFFFFFFFFFFFFFFFFFFFFFFFFFFFFFFFFFFFFFFFFFFFFFFFFFFFFFFFF
310
FFFFFFFFFFFFFFFFFFFFFFFFFFFFFFFFFFFFFFFFFFFFFFFFFFFFFFFFFFFFFFFF
310
FFFFFFFFFFFFFFFFFFFFFFFFFFFFFFFFFFFFFFFFFFFFFFFFFFFFFFFFFFFFFFFF
310
FFFFFFFFFFFFFFFFFFFFFFFFFFFFFFFFFFFFFFFFFFFFFFFFFFFFFFFFFFFFFFFF
310
FFFFFFFFFFFFFFFFFFFFFFFFFFFFFFFFFFFFFFFFFFFFFFFFFFFFFFFFFFFFFFFF
310
FFFFFFFFFFFFFFFFFFFFFFFFFFFFFFFFFFFFFFFFFFFFFFFFFFFFFFFFFFFFFFFF
310
FFFFFFFFFFFFFFFFFFFFFFFFFFFFFFFFFFFFFFFFFFFFFFFFFFFFFFFFFFFFFFFF
310
FFFFFFFFFFFFFFFFFFFFFFFFFFFFFFFFFFFFFFFFFFFFFFFFFFFFFFFFFFFFFFFF
310
FFFFFFFFFFFFFFFFFFFFFFFFFFFFFFFFFFFFFFFFFFFFFFFFFFFFFFFFFFFFFFFF
310
FFFFFFFFFFFFFFFFFFFFFFFFFFFFFFFFFFFFFFFFFFFFFFFFFFFFFFFFFFFFFFFF
310
FFFFFFFFFFFFFFFFFFFFFFFFFFFFFFFFFFFFFFFFFFFFFFFFFFFFFFFFFFFFFFFF
310
FFFFFFFFFFFFFFFFFFFFFFFFFFFFFFFFFFFFFFFFFFFFFFFFFFFFFFFFFFFFFFFF
310
FFFFFFFFFFFFFFFFFFFFFFFFFFFFFFFFFFFFFFFFFFFFFFFFFFFFFFFFFFFFFFFF
310
FFFFFFFFFFFFFFFFFFFFFFFFFFFFFFFFFFFFFFFFFFFFFFFFFFFFFFFFFFFFFFFF
310
FFFFFFFFFFFFFFFFFFFFFFFFFFFFFFFFFFFFFFFFFFFFFFFFFFFFFFFFFFFFFFFF
310
0100000200000000000000000000000000000000000000000000000000000000
310
0000000000000000000000000000000000000000000000000000000000000000
310
0100FEFF030A0000FFFFFFFF0A00030000000000C00000000000004607000000
310
5042727573680007000000504272757368000700000050427275736800F439B2
310
7100000000000000000000000000000000000000000000000000000000000000
310
0000000000000000000000000000000000000000000000000000000000000000
310
0000000000000000000000000000000000000000000000000000000000000000
310
0000000000000000000000000000000000000000000000000000000000000000
310
0000000000000000000000000000000000000000000000000000000000000000
310
0000000000000000000000000000000000000000000000000000000000000000
310
0000000000000000000000000000000000000000000000000000000000000000
310
0000000000000000000000000000000000000000000000000000000000000000
310
0000000000000000000000000000000000000000000000000000000000000000
310
0000000000000000000000000000000000000000000000000000000000000000
310
0000000000000000000000000000000000000000000000000000000000000000
310
0000000000000000000000000000000000000000000000000000000000000000
310
E0110000424DDE11000000000000360400002800000096000000170000000100
310
08000000000000000000E7240000E72400000001000000010000000000FF0101
310
01FF020202FF030303FF040404FF050505FF060606FF070707FF080808FF0909
310
09FF0A0A0AFF0B0B0BFF0C0C0CFF0D0D0DFF0E0E0EFF0F0F0FFF101010FF1111
310
11FF121212FF131313FF141414FF151515FF161616FF171717FF181818FF1919
310
19FF1A1A1AFF1B1B1BFF1C1C1CFF1D1D1DFF1E1E1EFF1F1F1FFF202020FF2121
310
21FF222222FF232323FF242424FF252525FF262626FF272727FF282828FF2929
310
29FF2A2A2AFF2B2B2BFF2C2C2CFF2D2D2DFF2E2E2EFF2F2F2FFF303030FF3131
310
31FF323232FF333333FF343434FF353535FF363636FF373737FF383838FF3939
310
39FF3A3A3AFF3B3B3BFF3C3C3CFF3D3D3DFF3E3E3EFF3F3F3FFF404040FF4141
310
41FF424242FF434343FF444444FF454545FF464646FF474747FF484848FF4949
310
49FF4A4A4AFF4B4B4BFF4C4C4CFF4D4D4DFF4E4E4EFF4F4F4FFF505050FF5151
310
51FF525252FF535353FF545454FF555555FF565656FF575757FF585858FF5959
310
59FF5A5A5AFF5B5B5BFF5C5C5CFF5D5D5DFF5E5E5EFF5F5F5FFF606060FF6161
310
61FF626262FF636363FF646464FF656565FF666666FF676767FF686868FF6969
310
69FF6A6A6AFF6B6B6BFF6C6C6CFF6D6D6DFF6E6E6EFF6F6F6FFF707070FF7171
310
71FF727272FF737373FF747474FF757575FF767676FF777777FF787878FF7979
310
79FF7A7A7AFF7B7B7BFF7C7C7CFF7D7D7DFF7E7E7EFF7F7F7FFF808080FF8181
310
81FF828282FF838383FF848484FF858585FF868686FF878787FF888888FF8989
310
89FF8A8A8AFF8B8B8BFF8C8C8CFF8D8D8DFF8E8E8EFF8F8F8FFF909090FF9191
310
91FF929292FF939393FF949494FF959595FF969696FF979797FF989898FF9999
310
99FF9A9A9AFF9B9B9BFF9C9C9CFF9D9D9DFF9E9E9EFF9F9F9FFFA0A0A0FFA1A1
310
A1FFA2A2A2FFA3A3A3FFA4A4A4FFA5A5A5FFA6A6A6FFA7A7A7FFA8A8A8FFA9A9
310
A9FFAAAAAAFFABABABFFACACACFFADADADFFAEAEAEFFAFAFAFFFB0B0B0FFB1B1
310
B1FFB2B2B2FFB3B3B3FFB4B4B4FFB5B5B5FFB6B6B6FFB7B7B7FFB8B8B8FFB9B9
310
B9FFBABABAFFBBBBBBFFBCBCBCFFBDBDBDFFBEBEBEFFBFBFBFFFC0C0C0FFC1C1
310
C1FFC2C2C2FFC3C3C3FFC4C4C4FFC5C5C5FFC6C6C6FFC7C7C7FFC8C8C8FFC9C9
310
C9FFCACACAFFCBCBCBFFCCCCCCFFCDCDCDFFCECECEFFCFCFCFFFD0D0D0FFD1D1
310
D1FFD2D2D2FFD3D3D3FFD4D4D4FFD5D5D5FFD6D6D6FFD7D7D7FFD8D8D8FFD9D9
310
D9FFDADADAFFDBDBDBFFDCDCDCFFDDDDDDFFDEDEDEFFDFDFDFFFE0E0E0FFE1E1
310
E1FFE2E2E2FFE3E3E3FFE4E4E4FFE5E5E5FFE6E6E6FFE7E7E7FFE8E8E8FFE9E9
310
E9FFEAEAEAFFEBEBEBFFECECECFFEDEDEDFFEEEEEEFFEFEFEFFFF0F0F0FFF1F1
310
F1FFF2F2F2FFF3F3F3FFF4F4F4FFF5F5F5FFF6F6F6FFF7F7F7FFF8F8F8FFF9F9
310
F9FFFAFAFAFFFBFBFBFFFCFCFCFFFDFDFDFFFEFEFEFFFFFFFFFFFFFFFFFFFFFF
310
C94E4E4E4F4E4EFFFFFFFFFFC94E4E4E4E4E72FFFFFFFFFFFFFF734E4D4E4E4E
310
C9FFFFFFFFFFAA683516171616265B9BE9FFFFFFFFFF4E4E4E4D4E4EFFFFFFFF
310
FFFFFFFF4E4E4F4E4D4E4E4E4F4E4E4F4D4E4E4E4E4E4D4E4F4E4D4E4E4EAAFF
310
FFFFFFFFFFEA4E4F4F4E4E4E4E4E4D4D4F4F4E4E4E4E4E5B7FAAFFFFFFFFFFFF
310
C9744E1716171616164D8DEAFFFFFFFF0000FFFFFFFFFFFFBA161617161716FF
310
FFFFFFFFB917171616174FFFFFFFFFFFFFFF4E1716161616B9FFFFFFB9341717
310
1716171617171616268CFFFFFFFF161617161617FFFFFFFFFFFFFFB917161717
310
1617167F807F7F7F7F7F7F807F7F807F7F807F7F7F414EFFFFFFFFFFFF8C167F
310
7F807F7F7F7E7F7F807F807F7F807F4E3417258EFFFFEA4E162674AABAEAEBBA
310
AA74341680FFFFFF0000FFFFFFFFFFFFB9171717171617FFFFFFFFFFBB161616
310
16164EFFFFFFFFFFFFFF4E1717171717B9FFFF9C171617171716161616171616
310
171766FFFFFF161717161617FFFFFFFFFFFFFF8E16171717161616FFFFFFFFFF
310
FFFFFFFFFFFFFFFFFFFFFFFFFFAA16D9FFFFFFFFFF3467FFFFFFFFEAFFFFFFFF
310
FFFFFFFFFFFFFFFFFFCA671667EB26278DFFFFFFFFFFFFFFFFFFFF8C2541EAFF
310
0000FFFFFFFFFFFFB9171717171716FFFFFFFFFFBA16171617174EFFFFFFFFFF
310
FFFF4E1717161616BAFF9B1617161616171716171617161616161667FFFF1616
310
16161716FFFFFFFFFFFFFF7F16161617174017FFFFFFFFFFFFFFFFFFFFFFFFFF
310
FFFFFFFFFFFF344E7F7F7F7E7417DAFFFFFFFF80FFFFFFFFFFFFFFFFFFFFFFFF
310
FFFFFF9B163425CAFFFFFFFFFFFFFFFFFFFFFFFFCA2667FF0000FFFFFFFFFFFF
310
BA171717171617FFFFFFFFFFB916171716164EFFFFFFFFFFFFFF4F1716161717
310
B9C91716171616161716161617171616161617168DFF161716161717FFFFFFFF
310
FFFFFF7F17171716164F16FFFFFFFFFFFFFFFFFFFFFFFFFFFFFFFFFFFFFF9B16
310
17161617174EFFFFFFFFFF34FFFFFFFFD9BABABABABADAFFFFFFFFFF7F16AAFF
310
FFFFFFFFFFFFFFFFFFFFFFFFFF9C16BA0000FFFFFFFFFFFFB9161717161717FF
310
FFFFFFFFB917161716174DFFFFFFFFFFFFFF4E1616161616BA4E161617171716
310
419BEAEAAA4E16161617161726E9171717161616FFFFFFFFFFFFFF4F16161717
310
164E16FFFFFFFFFFBAB9B9B9B9B9BABABACAFFFFFFFFFFFFFFFFFFFFFFFFFFFF
310
FFFFBA16FFFFFFFF7F1617161617174DEAFFFFFFEA41FFFFFFFFFFAA4D16174E
310
9BFFFFFFFFFF34730000FFFFFFFFFFFFB9161617171617FFFFFFFFFFBA161616
310
16164EFFFFFFFFFFFFFF4F16161717169B1617161716175BFFFFFFFFFFFF7417
310
16171616168D171717161617FFFFFFFFFFFFEA2616171717167416FFFFFFFFFF
310
16171616171717171717EAFFFFFFFFFFFFFFFFFFFFFFFFFFFFFF6716FFFFFFFF
310
7F4EFFFFFFFFBA2573FFFFFFFFBAFFFFFFFFAA167FB9BB9B269BFFFFFFFF664F
310
0000FFFFFFFFFFFFB9171616161616FFFFFFFFFFBA16161717164EFFFFFFFFFF
310
FFFF4E16161616174E161617171626EAFFFFFFFFFFFFFF4E16161616164E1716
310
16161617FFFFFFFFFFFF671616161716347F16FFFFFFFFFF16B9FFFFFFFFFFFF
310
D9168DFFFFFFFFFFFFFFFFFFFFFFFFFFFFEA1716FFFFFFFF7F4EFFFFFFFFFF7F
310
4EFFFFFFFFFFFFFFFFFF5B66FFFFFFEA347FFFFFFFFF7F4D0000FFFFFFFFFFFF
310
B9171616171617FFFFFFFFFFBA17161716174EFFFFFFFFFFFFFF4D1716161617
310
17161716161673FFFFFFFFFFFFFFFF9B1617161717161616171616174F4E4E4E
310
4E341616171616167E7F16FFFFFFFFFF16BAFFFFFFFFFFFFFF5B41FFFFFFFF34
310
1616171616BAFFFFFF9B1716FFFFFFFF7F4EFFFFFFFFFF4E4EFFFFFFFF734E4E
310
4E4E267EDA9B67164EEAFFFFFFFF744D0000FFFFFFFFFFFFBA171717161617FF
310
FFFFFFFFBA1616171616347F7F7F7F80807F331616161717161717161716B9FF
310
FFFFFFFFFFFFFFE9161616161616171716161716171616161616171616171734
310
EA7F16FFFFFFFFFF16BAFFFFFFFFFFFFFFAA17C9FFFFFF7326BABA5B25FFFFFF
310
FF401716FFFFFFFF7F264F4E4E4E4217AAFFFFFFEA16677F73261616164173CA
310
FFFFFFFFFFFF417F0000FFFFFFFFFFFFBA171616171617FFFFFFFFFFBA161616
310
17171616161616161616161717161616161616161617EAFFFFFFFFFFFFFFFFFF
310
261717161716161617161616161617161617161616174EEAFF8016FFFFFFFFFF
310
17BAFFFFFFFFFFFFFFFF3467FFFFFFC916C9FF3467FFFFFFDA166716FFFFFFFF
310
9C4D4E4E4E4E67AAFFFFFFFF6834FF7F262567AAEAFFFFFFFFFFFFFFFF9B17D9
310
0000FFFFFFFFFFFFB9161616161616FFFFFFFFFFBA1617161717171616161616
310
1716171716161716161617171716FFFFFFFFFFFFFFFFFFFF4E17161716171616
310
1617171616161716171717161616169BFF7F17FFFFFFFFFF17B9FFFFFFFFFFFF
310
FFFF7326FFFFFFFF3473DA16AAFFFFFF7317AA16FFFFFFFFFFFFFFFFFFFFFFFF
310
FFFFEA6725BA4E167FEAFFFFFFFFFFFFFFFFFFFF9C167FFF0000FFFFFFFFFFFF
310
B9161717171716FFFFFFFFFFBA16161716171616171717161617161716161616
310
171617171617EAFFFFFFFFFFFFFFFFFF26161717161616161616161617171616
310
1616161616171616AA8016FFFFFFFFFF16BAFFFFFFFFFFFFFFFFDA179BFFFFFF
310
74348D26FFFFFFFF2566B917FFFFFFFFD8BAB9BAB9BADAFFFFEA41169B7425C9
310
FFFFFFFFFFFFFFFFFFFFAB4F1680FFFF0000FFFFFFFFFFFFBA161717171617FF
310
FFFFFFFFBA17161717161617171617161616161617171616171716171617BBFF
310
FFFFFFFFFFFFFFE9171616161617161617161716FFFFFFFFFFD9671616161617
310
348017FFFFFFFFFF16BAFFFFFFFFFFFFFFFFFF4E5AFFFFFFC916265AFFFFFFAA
310
16AABA16FFFFFFFF7F1617161616179BFFFFEB4127168DFFFFFFFFFFFFFFD99B
310
6734175AC9FFFFFF0000FFFFFFFFFFFFB9161617171617FFFFFFFFFFBB161616
310
1616347F807F7F7F7F8033171716171617171616161672FFFFFFFFFFFFFFFF9C
310
171617171617161716161617FFFFFFFFFFFFFF4117161616174E17FFFFFFFFFF
310
16BAFFFFFFFFFFFFFFFFFF9B16DAFFFFFF34169BFFFFFF5A26FFB917FFFFFFFF
310
7F4EFFFFFFEA5B26FFFFFFEA2616EAFFFFFFFFDA743416331617414E4E4E4ECA
310
0000FFFFFFFFFFFFBA161716161616FFFFFFFFFFBA17171616164EFFFFFFFFFF
310
FFFF4E16161717174E161717171626EBFFFFFFFFFFFFFF4E16161617165B1616
310
16171617FFFFFFFFFFFFFF6716161616161617FFFFFFFFFF16BAFFFFFFFFFFFF
310
FFFFFFEA268CFFFFFF7316EAFFFFEB1774FFB916FFFFFFFF7F4EFFFFFFFF7316
310
FFFFFFFF6826FFFFFFFFEB264D9CEABA257F807F7F6616BA0000FFFFFFFFFFFF
310
BA161716161616FFFFFFFFFFBA16171616164DFFFFFFFFFFFFFF4E1617161617
310
9B1617171717165BEBFFFFFFFFFF671616161617179B171616161616FFFFFFFF
310
FFFFFF3417161617171617FFFFFFFFFF17BAFFFFFFFFFFFFFFFFFFFF6734FFFF
310
FFEBCAFFFFFF8D17C9FFBA17FFFFFFFF7F357F808066174FFFFFFFFF7F16FFFF
310
FFFFD91673B99B415BFFFFFFFFBA16DA00009B7F7F7F807F671617161616167F
310
80807F7E6617161616164EFFFFFFFFFFFFFF4E1616161617B94E171716161616
310
349BC9D9AA4E16171616161634FF161617161717B9B9BAB9BA9B411716171716
310
163416FFFFFFFFFF16B9FFFFFFFFFFFFFFFFFFFFC917CAFFFFFFFFFFFFFF3342
310
FFFFBA17FFFFFFFF9B4E4E4F4E4E66EAFFFFFFFF5B16C9FFFFFFFFAA4E164E73
310
EAFFFFFFFF8D26FF00004E161716161616171617171616171717171617161616
310
17174EFFFFFFFFFFFFFF4E1717171616B9D92616171716171716171717171716
310
16171716AAFF161717171617161617171616161617161716166717FFFFFFFFFF
310
17B9FFFFFFFFFFFFFFFFFFFFFF3467FFFFFFFFFFFFCA168CFFFFBB17FFFFFFFF
310
FFFFFFFFFFFFFFFFFFFFFFEA26265BFFFFFFFFFFFFFFFFFFFFFFFFFFEA3467FF
310
00004D16161616161617161717161617161616171617171616164EFFFFFFFFFF
310
FFFF4D1617161616BAFF9B1616161616161716161616171717161766FFFF1616
310
16171617161617161716171616171717667F16FFFFFFFFFF17BAFFFFFFFFFFFF
310
FFFFFFFFFF8C26EAFFFFFFFFFF6617EAFFFFBA17FFFFFFFFFFFFFFFFFFFFFFFF
310
FFFFEA5A25BA269BFFFFFFFFFFFFFFFFFFFFFFFF6616DAFF00004E1616171616
310
1616161616161716161617171616171616174EFFFFFFFFFFFFFF4D1717171716
310
B9FFFF9C161616161616161716161717171667FFFFFF17161717171716161617
310
1716161616161641E97E16FFFFFFFFFF16B9FFFFFFFFFFFFFFFFFFFFFFEA169B
310
FFFFFFFFEA265BFFFFFFB916FFFFFFFFFFFFFFFFFFFFFFFFFF9B3416AAFF9B17
310
67EAFFFFFFFFFFFFFFFFEA5B169BFFFF00004D17161716161616161717171616
310
161717161716171716174EFFFFFFFFFFFFFF4D1616161616BAFFFFFFBB411616
310
161716161616171634ABFFFFFFFF161716161617171716171617171617267FFF
310
FF7F164E4E4E4E4F17BAFFFFFFFFFFFFFFFFFFFFFFFF66344D4E4E4F4117AAFF
310
FFFFBA174E4E4E4D4E4D4D4E4E4E4E4116174EBBFFFFFFCA342666ABEAFFFFEA
310
AA6725269CFFFFFF0000724F4E4D4D4D4E4D4D4E4E4E4D4E4E4E4E4E4E4E4E4D
310
4E4E74FFFFFFFFFFFFFF734E4E4E4D4ECAFFFFFFFFFFAA663416171717265B9B
310
FFFFFFFFFFFF7F8080807F80807F7F7F7F7F807FBAFFFFFFFF9B4E4E4F4D4D4E
310
4DC9FFFFFFFFFFFFFFFFFFFFFFFFBA4E4E4E4E4D4E4EFFFFFFFFC94E4E4E4F4E
310
4E4E4D4E4E5A807F9CD9FFFFFFFFFFFFFF9B5B2617171716174E8DEAFFFFFFFF
310
0000000000000000000000000000000000000000000000000000000000000000
  1
OLE
  0
ENDSEC
  0
SECTION
  2
OBJECTS
  0
DICTIONARY
  5
C
330
0
100
AcDbDictionary
281
     1
  3
ACAD_GROUP
350
D
  3
ACAD_LAYOUT
350
1A
  3
ACAD_MLINESTYLE
350
17
  3
ACAD_PLOTSETTINGS
350
19
  3
ACAD_PLOTSTYLENAME
350
E
  0
DICTIONARY
  5
D
102
{ACAD_REACTORS
330
C
102
}
330
C
100
AcDbDictionary
281
     1
  0
DICTIONARY
  5
1A
102
{ACAD_REACTORS
330
C
102
}
330
C
100
AcDbDictionary
281
     1
  3
Layout1
350
1E
  3
Layout2
350
26
  3
Model
350
22
  0
DICTIONARY
  5
17
102
{ACAD_REACTORS
330
C
102
}
330
C
100
AcDbDictionary
281
     1
  3
Standard
350
18
  0
DICTIONARY
  5
19
102
{ACAD_REACTORS
330
C
102
}
330
C
100
AcDbDictionary
281
     1
  0
ACDBDICTIONARYWDFLT
  5
E
102
{ACAD_REACTORS
330
C
102
}
330
C
100
AcDbDictionary
281
     1
  3
Normal
350
F
100
AcDbDictionaryWithDefault
340
F
  0
LAYOUT
  5
1E
102
{ACAD_REACTORS
330
1A
102
}
330
1A
100
AcDbPlotSettings
  1

  2
none_device
  4

  6

 40
0.0
 41
0.0
 42
0.0
 43
0.0
 44
0.0
 45
0.0
 46
0.0
 47
0.0
 48
0.0
 49
0.0
140
0.0
141
0.0
142
1.0
143
1.0
 70
   688
 72
     0
 73
     0
 74
     5
  7

 75
    16
147
1.0
148
0.0
149
0.0
100
AcDbLayout
  1
Layout1
 70
     1
 71
     1
 10
0.0
 20
0.0
 11
420.0
 21
297.0
 12
0.0
 22
0.0
 32
0.0
 14
1.0000000000E+20
 24
1.0000000000E+20
 34
1.0000000000E+20
 15
-1.0000000000E+20
 25
-1.0000000000E+20
 35
-1.0000000000E+20
146
0.0
 13
0.0
 23
0.0
 33
0.0
 16
1.0
 26
0.0
 36
0.0
 17
0.0
 27
1.0
 37
0.0
 76
     0
330
1B
  0
LAYOUT
  5
26
102
{ACAD_REACTORS
330
1A
102
}
330
1A
100
AcDbPlotSettings
  1

  2
none_device
  4

  6

 40
0.0
 41
0.0
 42
0.0
 43
0.0
 44
0.0
 45
0.0
 46
0.0
 47
0.0
 48
0.0
 49
0.0
140
0.0
141
0.0
142
1.0
143
1.0
 70
   688
 72
     0
 73
     0
 74
     5
  7

 75
    16
147
1.0
148
0.0
149
0.0
100
AcDbLayout
  1
Layout2
 70
     1
 71
     2
 10
0.0
 20
0.0
 11
0.0
 21
0.0
 12
0.0
 22
0.0
 32
0.0
 14
0.0
 24
0.0
 34
0.0
 15
0.0
 25
0.0
 35
0.0
146
0.0
 13
0.0
 23
0.0
 33
0.0
 16
1.0
 26
0.0
 36
0.0
 17
0.0
 27
1.0
 37
0.0
 76
     0
330
23
  0
LAYOUT
  5
22
102
{ACAD_REACTORS
330
1A
102
}
330
1A
100
AcDbPlotSettings
  1

  2
none_device
  4

  6

 40
0.0
 41
0.0
 42
0.0
 43
0.0
 44
0.0
 45
0.0
 46
0.0
 47
0.0
 48
0.0
 49
0.0
140
0.0
141
0.0
142
1.0
143
1.0
 70
  1712
 72
     0
 73
     0
 74
     0
  7

 75
     0
147
1.0
148
0.0
149
0.0
100
AcDbLayout
  1
Model
 70
     1
 71
     0
 10
0.0
 20
0.0
 11
279.4
 21
215.9
 12
0.0
 22
0.0
 32
0.0
 14
0.0
 24
0.0
 34
0.0
 15
279.4
 25
215.9
 35
0.0
146
0.0
 13
0.0
 23
0.0
 33
0.0
 16
1.0
 26
0.0
 36
0.0
 17
0.0
 27
1.0
 37
0.0
 76
     0
330
1F
331
29
  0
MLINESTYLE
  5
18
102
{ACAD_REACTORS
330
17
102
}
330
17
100
AcDbMlineStyle
  2
Standard
 70
     0
  3

 62
   256
 51
90.0
 52
90.0
 71
     2
 49
0.5
 62
   256
  6
BYLAYER
 49
-0.5
 62
   256
  6
BYLAYER
  0
ACDBPLACEHOLDER
  5
F
102
{ACAD_REACTORS
330
E
102
}
330
E
  0
ENDSEC
  0
EOF
