  0
SECTION
  2
HEADER
  9
$ACADVER
  1
AC1015
  9
$ACADMAINTVER
 70
     6
  9
$DWGCODEPAGE
  3
ANSI_1252
  9
$INSBASE
 10
0.0
 20
0.0
 30
0.0
  9
$EXTMIN
 10
0.0
 20
0.0
 30
0.0
  9
$EXTMAX
 10
11.0
 20
8.5
 30
0.0
  9
$LIMMIN
 10
0.0
 20
0.0
  9
$LIMMAX
 10
11.0
 20
8.5
  9
$ORTHOMODE
 70
     0
  9
$REGENMODE
 70
     1
  9
$FILLMODE
 70
     1
  9
$QTEXTMODE
 70
     0
  9
$MIRRTEXT
 70
     1
  9
$LTSCALE
 40
1.0
  9
$ATTMODE
 70
     1
  9
$TEXTSIZE
 40
0.1111111111
  9
$TRACEWID
 40
0.05
  9
$TEXTSTYLE
  7
Standard
  9
$CLAYER
  8
0
  9
$CELTYPE
  6
ByLayer
  9
$CECOLOR
 62
   256
  9
$CELTSCALE
 40
1.0
  9
$DISPSILH
 70
     0
  9
$DIMSCALE
 40
1.0
  9
$DIMASZ
 40
0.125
  9
$DIMEXO
 40
0.05
  9
$DIMDLI
 40
0.38
  9
$DIMRND
 40
0.0
  9
$DIMDLE
 40
0.0
  9
$DIMEXE
 40
0.07
  9
$DIMTP
 40
0.0
  9
$DIMTM
 40
0.0
  9
$DIMTXT
 40
0.1111111111
  9
$DIMCEN
 40
0.09
  9
$DIMTSZ
 40
0.0
  9
$DIMTOL
 70
     0
  9
$DIMLIM
 70
     0
  9
$DIMTIH
 70
     1
  9
$DIMTOH
 70
     1
  9
$DIMSE1
 70
     0
  9
$DIMSE2
 70
     0
  9
$DIMTAD
 70
     0
  9
$DIMZIN
 70
     1
  9
$DIMBLK
  1

  9
$DIMASO
 70
     1
  9
$DIMSHO
 70
     1
  9
$DIMPOST
  1

  9
$DIMAPOST
  1

  9
$DIMALT
 70
     0
  9
$DIMALTD
 70
     2
  9
$DIMALTF
 40
25.4
  9
$DIMLFAC
 40
1.0
  9
$DIMTOFL
 70
     0
  9
$DIMTVP
 40
0.0
  9
$DIMTIX
 70
     0
  9
$DIMSOXD
 70
     0
  9
$DIMSAH
 70
     0
  9
$DIMBLK1
  1

  9
$DIMBLK2
  1

  9
$DIMSTYLE
  2
Standard
  9
$DIMCLRD
 70
     0
  9
$DIMCLRE
 70
     0
  9
$DIMCLRT
 70
     0
  9
$DIMTFAC
 40
1.0
  9
$DIMGAP
 40
0.1
  9
$DIMJUST
 70
     0
  9
$DIMSD1
 70
     0
  9
$DIMSD2
 70
     0
  9
$DIMTOLJ
 70
     1
  9
$DIMTZIN
 70
     1
  9
$DIMALTZ
 70
     0
  9
$DIMALTTZ
 70
     0
  9
$DIMUPT
 70
     0
  9
$DIMDEC
 70
     2
  9
$DIMTDEC
 70
     2
  9
$DIMALTU
 70
     2
  9
$DIMALTTD
 70
     2
  9
$DIMTXSTY
  7
Standard
  9
$DIMAUNIT
 70
     0
  9
$DIMADEC
 70
     0
  9
$DIMALTRND
 40
0.0
  9
$DIMAZIN
 70
     0
  9
$DIMDSEP
 70
    46
  9
$DIMATFIT
 70
     3
  9
$DIMFRAC
 70
     0
  9
$DIMLDRBLK
  1

  9
$DIMLUNIT
 70
     2
  9
$DIMLWD
 70
    -2
  9
$DIMLWE
 70
    -2
  9
$DIMTMOVE
 70
     0
  9
$LUNITS
 70
     2
  9
$LUPREC
 70
     2
  9
$SKETCHINC
 40
0.1
  9
$FILLETRAD
 40
0.5
  9
$AUNITS
 70
     0
  9
$AUPREC
 70
     0
  9
$MENU
  1
.
  9
$ELEVATION
 40
0.0
  9
$PELEVATION
 40
0.0
  9
$THICKNESS
 40
0.0
  9
$LIMCHECK
 70
     0
  9
$CHAMFERA
 40
0.0
  9
$CHAMFERB
 40
0.0
  9
$CHAMFERC
 40
0.0
  9
$CHAMFERD
 40
0.0
  9
$SKPOLY
 70
     0
  9
$TDCREATE
 40
2458505.683403299
  9
$TDUCREATE
 40
2458505.891736632
  9
$TDUPDATE
 40
2458505.68340794
  9
$TDUUPDATE
 40
2458505.891741273
  9
$TDINDWG
 40
0.0000000116
  9
$TDUSRTIMER
 40
0.0000000116
  9
$USRTIMER
 70
     1
  9
$ANGBASE
 50
0.0
  9
$ANGDIR
 70
     0
  9
$PDMODE
 70
     0
  9
$PDSIZE
 40
-1.0
  9
$PLINEWID
 40
0.0
  9
$SPLFRAME
 70
     0
  9
$SPLINETYPE
 70
     6
  9
$SPLINESEGS
 70
     8
  9
$HANDSEED
  5
3AE
  9
$SURFTAB1
 70
     6
  9
$SURFTAB2
 70
     6
  9
$SURFTYPE
 70
     6
  9
$SURFU
 70
     6
  9
$SURFV
 70
     6
  9
$UCSBASE
  2

  9
$UCSNAME
  2

  9
$UCSORG
 10
0.0
 20
0.0
 30
0.0
  9
$UCSXDIR
 10
1.0
 20
0.0
 30
0.0
  9
$UCSYDIR
 10
0.0
 20
1.0
 30
0.0
  9
$UCSORTHOREF
  2

  9
$UCSORTHOVIEW
 70
     0
  9
$UCSORGTOP
 10
0.0
 20
0.0
 30
0.0
  9
$UCSORGBOTTOM
 10
0.0
 20
0.0
 30
0.0
  9
$UCSORGLEFT
 10
0.0
 20
0.0
 30
0.0
  9
$UCSORGRIGHT
 10
0.0
 20
0.0
 30
0.0
  9
$UCSORGFRONT
 10
0.0
 20
0.0
 30
0.0
  9
$UCSORGBACK
 10
0.0
 20
0.0
 30
0.0
  9
$PUCSBASE
  2

  9
$PUCSNAME
  2

  9
$PUCSORG
 10
0.0
 20
0.0
 30
0.0
  9
$PUCSXDIR
 10
1.0
 20
0.0
 30
0.0
  9
$PUCSYDIR
 10
0.0
 20
1.0
 30
0.0
  9
$PUCSORTHOREF
  2

  9
$PUCSORTHOVIEW
 70
     0
  9
$PUCSORGTOP
 10
0.0
 20
0.0
 30
0.0
  9
$PUCSORGBOTTOM
 10
0.0
 20
0.0
 30
0.0
  9
$PUCSORGLEFT
 10
0.0
 20
0.0
 30
0.0
  9
$PUCSORGRIGHT
 10
0.0
 20
0.0
 30
0.0
  9
$PUCSORGFRONT
 10
0.0
 20
0.0
 30
0.0
  9
$PUCSORGBACK
 10
0.0
 20
0.0
 30
0.0
  9
$USERI1
 70
     0
  9
$USERI2
 70
     0
  9
$USERI3
 70
     0
  9
$USERI4
 70
     0
  9
$USERI5
 70
     0
  9
$USERR1
 40
0.0
  9
$USERR2
 40
0.0
  9
$USERR3
 40
0.0
  9
$USERR4
 40
0.0
  9
$USERR5
 40
0.0
  9
$WORLDVIEW
 70
     1
  9
$SHADEDGE
 70
     3
  9
$SHADEDIF
 70
    70
  9
$TILEMODE
 70
     1
  9
$MAXACTVP
 70
    64
  9
$PINSBASE
 10
0.0
 20
0.0
 30
0.0
  9
$PLIMCHECK
 70
     0
  9
$PEXTMIN
 10
1.0000000000E+20
 20
1.0000000000E+20
 30
1.0000000000E+20
  9
$PEXTMAX
 10
-1.0000000000E+20
 20
-1.0000000000E+20
 30
-1.0000000000E+20
  9
$PLIMMIN
 10
0.0
 20
0.0
  9
$PLIMMAX
 10
12.0
 20
9.0
  9
$UNITMODE
 70
     0
  9
$VISRETAIN
 70
     1
  9
$PLINEGEN
 70
     0
  9
$PSLTSCALE
 70
     1
  9
$TREEDEPTH
 70
  3020
  9
$CMLSTYLE
  2
Standard
  9
$CMLJUST
 70
     0
  9
$CMLSCALE
 40
1.0
  9
$PROXYGRAPHICS
 70
     1
  9
$MEASUREMENT
 70
     0
  9
$CELWEIGHT
370
    -1
  9
$ENDCAPS
280
     0
  9
$JOINSTYLE
280
     0
  9
$LWDISPLAY
290
     1
  9
$INSUNITS
 70
     1
  9
$HYPERLINKBASE
  1

  9
$STYLESHEET
  1

  9
$XEDIT
290
     1
  9
$CEPSNTYPE
380
     0
  9
$PSTYLEMODE
290
     1
  9
$FINGERPRINTGUID
  2
{D22E657B-0251-4D76-A334-389A72FDB157}
  9
$VERSIONGUID
  2
{FAEB1C32-E019-11D5-929B-00C0DF256EC4}
  9
$EXTNAMES
290
     1
  9
$PSVPSCALE
 40
0.0
  9
$OLESTARTUP
290
     0
  0
ENDSEC
  0
SECTION
  2
CLASSES
  0
CLASS
  1
ACDBDICTIONARYWDFLT
  2
AcDbDictionaryWithDefault
  3
ObjectDBX Classes
 90
        0
280
     0
281
     0
  0
CLASS
  1
VISUALSTYLE
  2
AcDbVisualStyle
  3
ObjectDBX Classes
 90
     4095
280
     0
281
     0
  0
CLASS
  1
MATERIAL
  2
AcDbMaterial
  3
ObjectDBX Classes
 90
     1153
280
     0
281
     0
  0
CLASS
  1
SCALE
  2
AcDbScale
  3
ObjectDBX Classes
 90
     1153
280
     0
281
     0
  0
CLASS
  1
TABLESTYLE
  2
AcDbTableStyle
  3
ObjectDBX Classes
 90
     4095
280
     0
281
     0
  0
CLASS
  1
MLEADERSTYLE
  2
AcDbMLeaderStyle
  3
ACDB_MLEADERSTYLE_CLASS
 90
     4095
280
     0
281
     0
  0
CLASS
  1
SUN
  2
AcDbSun
  3
SCENEOE
 90
     1153
280
     0
281
     0
  0
CLASS
  1
ACDBPLACEHOLDER
  2
AcDbPlaceHolder
  3
ObjectDBX Classes
 90
        0
280
     0
281
     0
  0
CLASS
  1
LAYOUT
  2
AcDbLayout
  3
ObjectDBX Classes
 90
        0
280
     0
281
     0
  0
ENDSEC
  0
SECTION
  2
TABLES
  0
TABLE
  2
VPORT
  5
8
330
0
100
AcDbSymbolTable
 70
     1
  0
VPORT
  5
29
330
8
100
AcDbSymbolTableRecord
100
AcDbViewportTableRecord
  2
*Active
 70
     0
 10
0.0
 20
0.0
 11
1.0
 21
1.0
 12
5.5
 22
4.25
 13
0.0
 23
0.0
 14
0.5
 24
0.5
 15
0.5
 25
0.5
 16
0.0
 26
0.0
 36
1.0
 17
0.0
 27
0.0
 37
0.0
 40
8.5
 41
1.2941176471
 42
50.0
 43
0.0
 44
0.0
 50
0.0
 51
0.0
 71
     0
 72
  2000
 73
     1
 74
     3
 75
     0
 76
     0
 77
     0
 78
     0
281
     0
 65
     1
110
0.0
120
0.0
130
0.0
111
1.0
121
0.0
131
0.0
112
0.0
122
1.0
132
0.0
 79
     0
146
0.0
  0
ENDTAB
  0
TABLE
  2
LTYPE
  5
5
330
0
100
AcDbSymbolTable
 70
     6
  0
LTYPE
  5
14
330
5
100
AcDbSymbolTableRecord
100
AcDbLinetypeTableRecord
  2
ByBlock
 70
     0
  3

 72
    65
 73
     0
 40
0.0
  0
LTYPE
  5
15
330
5
100
AcDbSymbolTableRecord
100
AcDbLinetypeTableRecord
  2
ByLayer
 70
     0
  3

 72
    65
 73
     0
 40
0.0
  0
LTYPE
  5
16
330
5
100
AcDbSymbolTableRecord
100
AcDbLinetypeTableRecord
  2
Continuous
 70
     0
  3
Solid line
 72
    65
 73
     0
 40
0.0
  0
LTYPE
  5
6E
330
5
100
AcDbSymbolTableRecord
100
AcDbLinetypeTableRecord
  2
HIDDEN
 70
     0
  3
Hidden __ __ __ __ __ __ __ __ __ __ __ __ __ __
 72
    65
 73
     2
 40
0.075
 49
0.05
 74
     0
 49
-0.025
 74
     0
  0
LTYPE
  5
6F
330
5
100
AcDbSymbolTableRecord
100
AcDbLinetypeTableRecord
  2
PHANTOM
 70
     0
  3
Phantom ______  __  __  ______  __  __  ______
 72
    65
 73
     6
 40
0.5
 49
0.25
 74
     0
 49
-0.05
 74
     0
 49
0.05
 74
     0
 49
-0.05
 74
     0
 49
0.05
 74
     0
 49
-0.05
 74
     0
  0
LTYPE
  5
70
330
5
100
AcDbSymbolTableRecord
100
AcDbLinetypeTableRecord
  2
CENTER
 70
     0
  3
Center ____ _ ____ _ ____ _ ____ _ ____ _ ____
 72
    65
 73
     4
 40
0.4
 49
0.25
 74
     0
 49
-0.05
 74
     0
 49
0.05
 74
     0
 49
-0.05
 74
     0
  0
LTYPE
  5
71
330
5
100
AcDbSymbolTableRecord
100
AcDbLinetypeTableRecord
  2
CENTERX2
 70
     0
  3
Center (2x) ________  __  ________  __  _____
 72
    65
 73
     4
 40
0.8
 49
0.5
 74
     0
 49
-0.1
 74
     0
 49
0.1
 74
     0
 49
-0.1
 74
     0
  0
LTYPE
  5
72
330
5
100
AcDbSymbolTableRecord
100
AcDbLinetypeTableRecord
  2
DOT2
 70
     0
  3
Dot (.5x) ........................................
 72
    65
 73
     2
 40
0.025
 49
0.0
 74
     0
 49
-0.025
 74
     0
  0
ENDTAB
  0
TABLE
  2
LAYER
  5
2
330
0
100
AcDbSymbolTable
 70
     2
  0
LAYER
  5
10
330
2
100
AcDbSymbolTableRecord
100
AcDbLayerTableRecord
  2
0
 70
     0
 62
     7
  6
Continuous
370
    -3
390
F
  0
LAYER
  5
73
330
2
100
AcDbSymbolTableRecord
100
AcDbLayerTableRecord
  2
FORMAT
 70
     0
 62
     7
  6
Continuous
370
    -3
390
F
  0
ENDTAB
  0
TABLE
  2
STYLE
  5
3
330
0
100
AcDbSymbolTable
 70
     3
  0
STYLE
  5
11
330
3
100
AcDbSymbolTableRecord
100
AcDbTextStyleTableRecord
  2
Standard
 70
     0
 40
0.0
 41
1.0
 50
0.0
 71
     0
 42
0.1111111111
  3
txt
  4

  0
STYLE
  5
9D
330
3
100
AcDbSymbolTableRecord
100
AcDbTextStyleTableRecord
  2
SLDTEXTSTYLE0
 70
     0
 40
0.0
 41
0.75
 50
0.0
 71
     0
 42
0.1111111111
  3
TXT
  4

  0
STYLE
  5
B2
330
3
100
AcDbSymbolTableRecord
100
AcDbTextStyleTableRecord
  2
SLDTEXTSTYLE1
 70
     0
 40
0.0
 41
0.6
 50
0.0
 71
     0
 42
0.1111111111
  3
TXT
  4

  0
ENDTAB
  0
TABLE
  2
VIEW
  5
6
330
0
100
AcDbSymbolTable
 70
     0
  0
ENDTAB
  0
TABLE
  2
UCS
  5
7
330
0
100
AcDbSymbolTable
 70
     0
  0
ENDTAB
  0
TABLE
  2
APPID
  5
9
330
0
100
AcDbSymbolTable
 70
     1
  0
APPID
  5
12
330
9
100
AcDbSymbolTableRecord
100
AcDbRegAppTableRecord
  2
ACAD
 70
     0
  0
ENDTAB
  0
TABLE
  2
DIMSTYLE
  5
A
330
0
100
AcDbSymbolTable
 70
     6
100
AcDbDimStyleTable
  0
DIMSTYLE
105
27
330
A
100
AcDbSymbolTableRecord
100
AcDbDimStyleTableRecord
  2
Standard
 70
     0
178
     0
340
11
  0
DIMSTYLE
105
108
102
{ACAD_REACTORS
330
107
330
11C
102
}
330
A
100
AcDbSymbolTableRecord
100
AcDbDimStyleTableRecord
  2
SLDDIMSTYLE0
 70
     0
 41
0.125
 44
0.0
 45
0.000000001
 78
     4
 79
     1
140
0.0833333333
147
0.0208333333
148
0.000000001
170
     1
171
     1
173
     1
178
     0
271
     2
272
     2
274
     1
276
     2
284
    12
340
9D
  0
DIMSTYLE
105
131
102
{ACAD_REACTORS
330
130
102
}
330
A
100
AcDbSymbolTableRecord
100
AcDbDimStyleTableRecord
  2
SLDDIMSTYLE1
 70
     0
 41
0.125
 44
0.0
 45
0.000000001
 78
     8
 79
     2
140
0.0833333333
147
0.0208333333
148
0.000000001
170
     1
171
     1
173
     1
178
     0
271
     2
272
     2
274
     1
276
     2
284
    12
340
9D
  0
DIMSTYLE
105
14B
330
A
100
AcDbSymbolTableRecord
100
AcDbDimStyleTableRecord
  2
SLDDIMSTYLE2
 70
     0
 41
0.125
 44
0.0
 45
0.000000001
146
0.125
147
0.0
173
     1
178
     0
271
     0
272
     0
276
     2
340
11
  0
DIMSTYLE
105
16E
102
{ACAD_REACTORS
330
16D
102
}
330
A
100
AcDbSymbolTableRecord
100
AcDbDimStyleTableRecord
  2
SLDDIMSTYLE3
 70
     0
 41
0.125
 44
0.0
 78
    12
 79
     3
140
0.0833333333
147
0.0208333333
148
0.000000001
170
     1
171
     1
173
     1
178
     0
272
     0
274
     1
276
     2
284
    12
340
9D
  0
DIMSTYLE
105
17A
102
{ACAD_REACTORS
330
179
102
}
330
A
100
AcDbSymbolTableRecord
100
AcDbDimStyleTableRecord
  2
SLDDIMSTYLE4
 70
     0
 41
0.125
 44
0.0
 45
0.000000001
 78
     8
 79
     2
140
0.0833333333
147
0.0208333333
148
0.000000001
170
     1
171
     1
172
     1
173
     1
178
     0
271
     2
272
     2
274
     1
276
     2
284
    12
289
     0
340
9D
  0
ENDTAB
  0
TABLE
  2
BLOCK_RECORD
  5
1
330
0
100
AcDbSymbolTable
 70
    19
  0
BLOCK_RECORD
  5
1F
330
1
100
AcDbSymbolTableRecord
100
AcDbBlockTableRecord
  2
*Model_Space
340
22
  0
BLOCK_RECORD
  5
1B
330
1
100
AcDbSymbolTableRecord
100
AcDbBlockTableRecord
  2
*Paper_Space
340
1E
  0
BLOCK_RECORD
  5
23
330
1
100
AcDbSymbolTableRecord
100
AcDbBlockTableRecord
  2
*Paper_Space0
340
26
  0
BLOCK_RECORD
  5
74
330
1
100
AcDbSymbolTableRecord
100
AcDbBlockTableRecord
  2
Third Angle Projection Block
340
0
102
{BLKREFS
331
99
102
}
  0
BLOCK_RECORD
  5
9A
330
1
100
AcDbSymbolTableRecord
100
AcDbBlockTableRecord
  2
SW_NOTE_0
340
0
102
{BLKREFS
331
A8
102
}
  0
BLOCK_RECORD
  5
B8
330
1
100
AcDbSymbolTableRecord
100
AcDbBlockTableRecord
  2
SW_NOTE_1
340
0
102
{BLKREFS
331
BD
102
}
  0
BLOCK_RECORD
  5
BE
330
1
100
AcDbSymbolTableRecord
100
AcDbBlockTableRecord
  2
SW_NOTE_2
340
0
102
{BLKREFS
331
C3
102
}
  0
BLOCK_RECORD
  5
C5
330
1
100
AcDbSymbolTableRecord
100
AcDbBlockTableRecord
  2
SW_NOTE_3
340
0
102
{BLKREFS
331
CA
102
}
  0
BLOCK_RECORD
  5
CF
330
1
100
AcDbSymbolTableRecord
100
AcDbBlockTableRecord
  2
SW_TABLEANNOTATION_0
340
0
102
{BLKREFS
331
F6
102
}
  0
BLOCK_RECORD
  5
DE
330
1
100
AcDbSymbolTableRecord
100
AcDbBlockTableRecord
  2
SW_SYMBOL_C#_1
340
0
102
{BLKREFS
331
E3
102
}
  0
BLOCK_RECORD
  5
E6
330
1
100
AcDbSymbolTableRecord
100
AcDbBlockTableRecord
  2
SW_SYMBOL_C#_2
340
0
102
{BLKREFS
331
EB
102
}
  0
BLOCK_RECORD
  5
EE
330
1
100
AcDbSymbolTableRecord
100
AcDbBlockTableRecord
  2
SW_SYMBOL_C#_3
340
0
102
{BLKREFS
331
F3
102
}
  0
BLOCK_RECORD
  5
109
330
1
100
AcDbSymbolTableRecord
100
AcDbBlockTableRecord
  2
_D
340
0
  0
BLOCK_RECORD
  5
11D
330
1
100
AcDbSymbolTableRecord
100
AcDbBlockTableRecord
  2
_D_1
340
0
  0
BLOCK_RECORD
  5
132
330
1
100
AcDbSymbolTableRecord
100
AcDbBlockTableRecord
  2
_D_2
340
0
  0
BLOCK_RECORD
  5
145
330
1
100
AcDbSymbolTableRecord
100
AcDbBlockTableRecord
  2
SW_NOTE_4
340
0
102
{BLKREFS
331
14A
102
}
  0
BLOCK_RECORD
  5
14D
330
1
100
AcDbSymbolTableRecord
100
AcDbBlockTableRecord
  2
SW_NOTE_5
340
0
102
{BLKREFS
331
152
102
}
  0
BLOCK_RECORD
  5
154
330
1
100
AcDbSymbolTableRecord
100
AcDbBlockTableRecord
  2
SW_NOTE_6
340
0
102
{BLKREFS
331
159
102
}
  0
BLOCK_RECORD
  5
15B
330
1
100
AcDbSymbolTableRecord
100
AcDbBlockTableRecord
  2
SW_CENTERMARKSYMBOL_0
340
0
102
{BLKREFS
331
162
102
}
  0
BLOCK_RECORD
  5
16F
330
1
100
AcDbSymbolTableRecord
100
AcDbBlockTableRecord
  2
_D_3
340
0
  0
BLOCK_RECORD
  5
17B
330
1
100
AcDbSymbolTableRecord
100
AcDbBlockTableRecord
  2
_D_4
340
0
  0
ENDTAB
  0
ENDSEC
  0
SECTION
  2
BLOCKS
  0
BLOCK
  5
20
330
1F
100
AcDbEntity
  8
0
100
AcDbBlockBegin
  2
*Model_Space
 70
     0
 10
0.0
 20
0.0
 30
0.0
  3
*Model_Space
  1

  0
ENDBLK
  5
21
330
1F
100
AcDbEntity
  8
0
100
AcDbBlockEnd
  0
BLOCK
  5
1C
330
1B
100
AcDbEntity
 67
     1
  8
0
100
AcDbBlockBegin
  2
*Paper_Space
 70
     0
 10
0.0
 20
0.0
 30
0.0
  3
*Paper_Space
  1

  0
ENDBLK
  5
1D
330
1B
100
AcDbEntity
 67
     1
  8
0
100
AcDbBlockEnd
  0
BLOCK
  5
24
330
23
100
AcDbEntity
  8
0
100
AcDbBlockBegin
  2
*Paper_Space0
 70
     0
 10
0.0
 20
0.0
 30
0.0
  3
*Paper_Space0
  1

  0
ENDBLK
  5
25
330
23
100
AcDbEntity
  8
0
100
AcDbBlockEnd
  0
BLOCK
  5
75
330
74
100
AcDbEntity
  8
0
100
AcDbBlockBegin
  2
Third Angle Projection Block
 70
     0
 10
0.0
 20
0.0
 30
0.0
  3
Third Angle Projection Block
  1

  0
CIRCLE
  5
77
330
74
100
AcDbEntity
  8
0
  6
Continuous
 62
     7
370
    35
100
AcDbCircle
 10
3.9951432636
 20
0.7456853688
 30
0.0
 40
0.0696152422706639
  0
CIRCLE
  5
78
330
74
100
AcDbEntity
  8
0
  6
Continuous
 62
     7
370
    35
100
AcDbCircle
 10
3.9951432636
 20
0.7456853688
 30
0.0
 40
0.1535916633280245
  0
LINE
  5
79
330
74
100
AcDbEntity
  8
0
  6
CENTERX2
 62
     7
370
    18
100
AcDbLine
 10
4.3360937897
 20
0.7456853688
 30
0.0
 11
4.7028635231
 21
0.7456853688
 31
0.0
  0
LINE
  5
7A
330
74
100
AcDbEntity
  8
0
  6
Continuous
 62
     7
370
    35
100
AcDbLine
 10
4.3701432636
 20
0.815300611
 30
0.0
 11
4.3701432636
 21
0.6760701265
 31
0.0
  0
LINE
  5
7B
330
74
100
AcDbEntity
  8
0
  6
Continuous
 62
     7
370
    35
100
AcDbLine
 10
4.3701432636
 20
0.6760701265
 30
0.0
 11
4.6701432636
 21
0.5956853688
 31
0.0
  0
LINE
  5
7C
330
74
100
AcDbEntity
  8
0
  6
Continuous
 62
     7
370
    35
100
AcDbLine
 10
4.6701432636
 20
0.5956853688
 30
0.0
 11
4.6701432636
 21
0.8956853688
 31
0.0
  0
LINE
  5
7D
330
74
100
AcDbEntity
  8
0
  6
Continuous
 62
     7
370
    35
100
AcDbLine
 10
4.6701432636
 20
0.8956853688
 30
0.0
 11
4.3701432636
 21
0.815300611
 31
0.0
  0
LINE
  5
7E
330
74
100
AcDbEntity
  8
0
  6
CENTERX2
 62
     7
370
    18
100
AcDbLine
 10
3.8032513961
 20
0.7456853688
 30
0.0
 11
4.187035131
 21
0.7456853688
 31
0.0
  0
LINE
  5
7F
330
74
100
AcDbEntity
  8
0
  6
CENTERX2
 62
     7
370
    18
100
AcDbLine
 10
3.9951432636
 20
0.9375772362
 30
0.0
 11
3.9951432636
 21
0.5537935013
 31
0.0
  0
POINT
  5
80
330
74
100
AcDbEntity
  8
0
  6
Continuous
 62
     7
370
     0
100
AcDbPoint
 10
3.9951432636
 20
0.7456853688
 30
0.0
  0
ENDBLK
  5
76
330
74
100
AcDbEntity
  8
0
100
AcDbBlockEnd
  0
BLOCK
  5
9B
330
9A
100
AcDbEntity
  8
0
100
AcDbBlockBegin
  2
SW_NOTE_0
 70
     0
 10
0.0
 20
0.0
 30
0.0
  3
SW_NOTE_0
  1

  0
MTEXT
  5
9E
330
9A
100
AcDbEntity
  8
0
  6
Continuous
 62
     0
370
     0
100
AcDbMText
 10
0.0
 20
0.1074223116
 30
0.0
 40
0.0833333333
 41
0.0
 71
     1
 72
     1
  1
NOTES/SPECIFICATIONS:
  7
SLDTEXTSTYLE0
 73
     1
 44
1.0
  0
MTEXT
  5
9F
330
9A
100
AcDbEntity
  8
0
  6
Continuous
 62
     0
370
     0
100
AcDbMText
 10
0.0
 20
-0.1147999079
 30
0.0
 40
0.0833333333
 41
0.0
 71
     1
 72
     1
  1
1.  DESIGN WAVELENGTH: 633nm
  7
SLDTEXTSTYLE0
 73
     1
 44
1.0
  0
MTEXT
  5
A0
330
9A
100
AcDbEntity
  8
0
  6
Continuous
 62
     0
370
     0
100
AcDbMText
 10
0.0
 20
-0.2259110177
 30
0.0
 40
0.0833333333
 41
0.0
 71
     1
 72
     1
  1
2.  ACCEPTED BEAM SIZE: 2.5mm TO 5mm
  7
SLDTEXTSTYLE0
 73
     1
 44
1.0
  0
MTEXT
  5
A1
330
9A
100
AcDbEntity
  8
0
  6
Continuous
 62
     0
370
     0
100
AcDbMText
 10
0.0
 20
-0.3370221274
 30
0.0
 40
0.0833333333
 41
0.0
 71
     1
 72
     1
  1
3.  WEDGED FLAT:
  7
SLDTEXTSTYLE0
 73
     1
 44
1.0
  0
MTEXT
  5
A2
330
9A
100
AcDbEntity
  8
0
  6
Continuous
 62
     0
370
     0
100
AcDbMText
 10
0.3937007874
 20
-0.4481332372
 30
0.0
 40
0.0833333333
 41
0.0
 71
     1
 72
     1
  1
MATERIAL: UV GRADE FUSED SILICA
  7
SLDTEXTSTYLE0
 73
     1
 44
1.0
  0
MTEXT
  5
A3
330
9A
100
AcDbEntity
  8
0
  6
Continuous
 62
     0
370
     0
100
AcDbMText
 10
0.3937007874
 20
-0.559244347
 30
0.0
 40
0.0833333333
 41
0.0
 71
     1
 72
     1
  1
WEDGE ANGLE(REF): 83 arcsec
  7
SLDTEXTSTYLE0
 73
     1
 44
1.0
  0
MTEXT
  5
A4
330
9A
100
AcDbEntity
  8
0
  6
Continuous
 62
     0
370
     0
100
AcDbMText
 10
0.3937007874
 20
-0.6703554567
 30
0.0
 40
0.0833333333
 41
0.0
 71
     1
 72
     1
  1
THICKNESS: 1.30mm
  7
SLDTEXTSTYLE0
 73
     1
 44
1.0
  0
MTEXT
  5
A5
330
9A
100
AcDbEntity
  8
0
  6
Continuous
 62
     0
370
     0
100
AcDbMText
 10
1.4665403205
 20
-0.6703554567
 30
0.0
 40
0.0833333333
 41
0.0
 71
     1
 72
     1
  1
%%p
  7
SLDTEXTSTYLE0
 73
     1
 44
1.0
  0
MTEXT
  5
A6
330
9A
100
AcDbEntity
  8
0
  6
Continuous
 62
     0
370
     0
100
AcDbMText
 10
1.5459847761
 20
-0.6703554567
 30
0.0
 40
0.0833333333
 41
0.0
 71
     1
 72
     1
  1
0.25mm
  7
SLDTEXTSTYLE0
 73
     1
 44
1.0
  0
MTEXT
  5
A7
330
9A
100
AcDbEntity
  8
0
  6
Continuous
 62
     0
370
     0
100
AcDbMText
 10
0.3937007874
 20
-0.7814665665
 30
0.0
 40
0.0833333333
 41
0.0
 71
     1
 72
     1
  1
SURFACE QUALITY: 40-20 SCRATCH-DIG
  7
SLDTEXTSTYLE0
 73
     1
 44
1.0
  0
ENDBLK
  5
9C
330
9A
100
AcDbEntity
  8
0
100
AcDbBlockEnd
  0
BLOCK
  5
B9
330
B8
100
AcDbEntity
  8
0
100
AcDbBlockBegin
  2
SW_NOTE_1
 70
     0
 10
0.0
 20
0.0
 30
0.0
  3
SW_NOTE_1
  1

  0
MTEXT
  5
BB
330
B8
100
AcDbEntity
  8
0
  6
Continuous
 62
     0
370
     0
100
AcDbMText
 10
0.78375
 20
0.0773440644
 30
0.0
 40
0.06
 41
0.0
 71
     2
 72
     1
  1
VALUES IN PARENTHESIS ARE CALCULATED
  7
SLDTEXTSTYLE0
 73
     1
 44
1.0
  0
MTEXT
  5
BC
330
B8
100
AcDbEntity
  8
0
  6
Continuous
 62
     0
370
     0
100
AcDbMText
 10
0.7825936818
 20
-0.0220260102
 30
0.0
 40
0.06
 41
0.0
 71
     2
 72
     1
  1
AND MAY CONTAIN ROUNDOFF ERRORS
  7
SLDTEXTSTYLE0
 73
     1
 44
1.0
  0
ENDBLK
  5
BA
330
B8
100
AcDbEntity
  8
0
100
AcDbBlockEnd
  0
BLOCK
  5
BF
330
BE
100
AcDbEntity
  8
0
100
AcDbBlockBegin
  2
SW_NOTE_2
 70
     0
 10
0.0
 20
0.0
 30
0.0
  3
SW_NOTE_2
  1

  0
MTEXT
  5
C1
330
BE
100
AcDbEntity
  8
0
  6
Continuous
 62
     0
370
     0
100
AcDbMText
 10
0.0
 20
0.1074223116
 30
0.0
 40
0.0833333333
 41
0.0
 71
     1
 72
     1
  1
DRAWING
  7
SLDTEXTSTYLE0
 73
     1
 44
1.0
  0
MTEXT
  5
C2
330
BE
100
AcDbEntity
  8
0
  6
Continuous
 62
     0
370
     0
100
AcDbMText
 10
0.0
 20
-0.0036887981
 30
0.0
 40
0.0833333333
 41
0.0
 71
     1
 72
     1
  1
PROJECTION
  7
SLDTEXTSTYLE0
 73
     1
 44
1.0
  0
ENDBLK
  5
C0
330
BE
100
AcDbEntity
  8
0
100
AcDbBlockEnd
  0
BLOCK
  5
C6
330
C5
100
AcDbEntity
  8
0
100
AcDbBlockBegin
  2
SW_NOTE_3
 70
     0
 10
0.0
 20
0.0
 30
0.0
  3
SW_NOTE_3
  1

  0
MTEXT
  5
C8
330
C5
100
AcDbEntity
  8
0
  6
Continuous
 62
     0
370
     0
100
AcDbMText
 10
0.986328125
 20
0.1611334675
 30
0.0
 40
0.125
 41
0.0
 71
     2
 72
     1
  1
FOR INFORMATION ONLY
  7
SLDTEXTSTYLE0
 73
     1
 44
1.0
  0
MTEXT
  5
C9
330
C5
100
AcDbEntity
  8
0
  6
Continuous
 62
     0
370
     0
100
AcDbMText
 10
0.999088459
 20
-0.0055331972
 30
0.0
 40
0.125
 41
0.0
 71
     2
 72
     1
  1
NOT FOR MANUFACTURING PURPOSES
  7
SLDTEXTSTYLE0
 73
     1
 44
1.0
  0
ENDBLK
  5
C7
330
C5
100
AcDbEntity
  8
0
100
AcDbBlockEnd
  0
BLOCK
  5
D0
330
CF
100
AcDbEntity
  8
0
100
AcDbBlockBegin
  2
SW_TABLEANNOTATION_0
 70
     0
 10
0.0
 20
0.0
 30
0.0
  3
SW_TABLEANNOTATION_0
  1

  0
LINE
  5
D2
330
CF
100
AcDbEntity
  8
0
  6
Continuous
 62
     0
370
     0
100
AcDbLine
 10
0.0
 20
0.0
 30
0.0
 11
0.0
 21
-0.916885384
 31
0.0
  0
LINE
  5
D3
330
CF
100
AcDbEntity
  8
0
  6
Continuous
 62
     0
370
     0
100
AcDbLine
 10
0.0
 20
-0.916885384
 30
0.0
 11
3.516287512
 21
-0.916885384
 31
0.0
  0
LINE
  5
D4
330
CF
100
AcDbEntity
  8
0
  6
Continuous
 62
     0
370
     0
100
AcDbLine
 10
3.516287512
 20
-0.916885384
 30
0.0
 11
3.516287512
 21
0.0
 31
0.0
  0
LINE
  5
D5
330
CF
100
AcDbEntity
  8
0
  6
Continuous
 62
     0
370
     0
100
AcDbLine
 10
3.516287512
 20
0.0
 30
0.0
 11
0.0
 21
0.0
 31
0.0
  0
LINE
  5
D6
330
CF
100
AcDbEntity
  8
0
  6
Continuous
 62
     0
370
     0
100
AcDbLine
 10
1.0687200994
 20
0.0
 30
0.0
 11
1.0687200994
 21
-0.916885384
 31
0.0
  0
LINE
  5
D7
330
CF
100
AcDbEntity
  8
0
  6
Continuous
 62
     0
370
     0
100
AcDbLine
 10
2.1912692985
 20
0.0
 30
0.0
 11
2.1912692985
 21
-0.916885384
 31
0.0
  0
LINE
  5
D8
330
CF
100
AcDbEntity
  8
0
  6
Continuous
 62
     0
370
     0
100
AcDbLine
 10
0.0
 20
-0.229221346
 30
0.0
 11
3.516287512
 21
-0.229221346
 31
0.0
  0
LINE
  5
D9
330
CF
100
AcDbEntity
  8
0
  6
Continuous
 62
     0
370
     0
100
AcDbLine
 10
0.0
 20
-0.458442692
 30
0.0
 11
3.516287512
 21
-0.458442692
 31
0.0
  0
LINE
  5
DA
330
CF
100
AcDbEntity
  8
0
  6
Continuous
 62
     0
370
     0
100
AcDbLine
 10
0.0
 20
-0.687664038
 30
0.0
 11
3.516287512
 21
-0.687664038
 31
0.0
  0
MTEXT
  5
DB
330
CF
100
AcDbEntity
  8
0
  6
Continuous
 62
     0
370
     0
100
AcDbMText
 10
0.1636810518
 20
-0.0730152696
 30
0.0
 40
0.0833333333
 41
0.0
 71
     1
 72
     1
  1
PART NUMBER
  7
SLDTEXTSTYLE0
 73
     1
 44
1.0
  0
MTEXT
  5
DC
330
CF
100
AcDbEntity
  8
0
  6
Continuous
 62
     0
370
     0
100
AcDbMText
 10
1.2811520988
 20
-0.0730152696
 30
0.0
 40
0.0833333333
 41
0.0
 71
     1
 72
     1
  1
DESCRIPTION
  7
SLDTEXTSTYLE0
 73
     1
 44
1.0
  0
MTEXT
  5
DD
330
CF
100
AcDbEntity
  8
0
  6
Continuous
 62
     0
370
     0
100
AcDbMText
 10
2.5949821032
 20
-0.0730152696
 30
0.0
 40
0.0833333333
 41
0.0
 71
     1
 72
     1
  1
MATERIAL
  7
SLDTEXTSTYLE0
 73
     1
 44
1.0
  0
INSERT
  5
E3
330
CF
100
AcDbEntity
  8
0
  6
Continuous
 62
     0
370
     0
100
AcDbBlockReference
  2
SW_SYMBOL_C#_1
 10
0.4218137498
 20
-0.3981029376
 30
0.0
 41
0.0027037109
 42
0.0027037109
 43
0.0027037109
  0
MTEXT
  5
E4
330
CF
100
AcDbEntity
  8
0
  6
Continuous
 62
     0
370
     0
100
AcDbMText
 10
1.2911829563
 20
-0.3022366156
 30
0.0
 40
0.0833333333
 41
0.0
 71
     1
 72
     1
  1
SHEAR PLATE
  7
SLDTEXTSTYLE0
 73
     1
 44
1.0
  0
MTEXT
  5
E5
330
CF
100
AcDbEntity
  8
0
  6
Continuous
 62
     0
370
     0
100
AcDbMText
 10
2.2607228229
 20
-0.3022366156
 30
0.0
 40
0.0833333333
 41
0.0
 71
     1
 72
     1
  1
ANODIZED ALUMINUM
  7
SLDTEXTSTYLE0
 73
     1
 44
1.0
  0
INSERT
  5
EB
330
CF
100
AcDbEntity
  8
0
  6
Continuous
 62
     0
370
     0
100
AcDbBlockReference
  2
SW_SYMBOL_C#_2
 10
0.4218137498
 20
-0.6273242836
 30
0.0
 41
0.0027037109
 42
0.0027037109
 43
0.0027037109
  0
MTEXT
  5
EC
330
CF
100
AcDbEntity
  8
0
  6
Continuous
 62
     0
370
     0
100
AcDbMText
 10
1.0884051388
 20
-0.5314579616
 30
0.0
 40
0.0833333333
 41
0.0
 71
     1
 72
     1
  1
ALIGNMENT BALL (3)
  7
SLDTEXTSTYLE0
 73
     1
 44
1.0
  0
MTEXT
  5
ED
330
CF
100
AcDbEntity
  8
0
  6
Continuous
 62
     0
370
     0
100
AcDbMText
 10
2.4446734413
 20
-0.5314579616
 30
0.0
 40
0.0833333333
 41
0.0
 71
     1
 72
     1
  1
STAINLESS STEEL
  7
SLDTEXTSTYLE0
 73
     1
 44
1.0
  0
INSERT
  5
F3
330
CF
100
AcDbEntity
  8
0
  6
Continuous
 62
     0
370
     0
100
AcDbBlockReference
  2
SW_SYMBOL_C#_3
 10
0.4218137498
 20
-0.8565456296
 30
0.0
 41
0.0027037109
 42
0.0027037109
 43
0.0027037109
  0
MTEXT
  5
F4
330
CF
100
AcDbEntity
  8
0
  6
Continuous
 62
     0
370
     0
100
AcDbMText
 10
1.2531428657
 20
-0.7606793075
 30
0.0
 40
0.0833333333
 41
0.0
 71
     1
 72
     1
  1
WEDGED FLAT
  7
SLDTEXTSTYLE0
 73
     1
 44
1.0
  0
MTEXT
  5
F5
330
CF
100
AcDbEntity
  8
0
  6
Continuous
 62
     0
370
     0
100
AcDbMText
 10
2.2109543379
 20
-0.7606793075
 30
0.0
 40
0.0833333333
 41
0.0
 71
     1
 72
     1
  1
UV GRADE FUSED SILICA
  7
SLDTEXTSTYLE0
 73
     1
 44
1.0
  0
ENDBLK
  5
D1
330
CF
100
AcDbEntity
  8
0
100
AcDbBlockEnd
  0
BLOCK
  5
DF
330
DE
100
AcDbEntity
  8
0
100
AcDbBlockBegin
  2
SW_SYMBOL_C#_1
 70
     0
 10
0.0
 20
0.0
 30
0.0
  3
SW_SYMBOL_C#_1
  1

  0
CIRCLE
  5
E1
330
DE
100
AcDbEntity
  8
0
  6
Continuous
 62
     0
370
     0
100
AcDbCircle
 10
31.4960629921
 20
19.6850393701
 30
0.0
 40
31.49606299212599
  0
MTEXT
  5
E2
330
DE
100
AcDbEntity
  8
0
  6
Continuous
 62
     0
370
     0
100
AcDbMText
 10
31.4960629921
 20
19.6850393701
 30
0.0
 40
30.821835344
 41
0.0
 71
     5
 72
     1
  1
1
  7
SLDTEXTSTYLE0
 73
     1
 44
1.0
  0
ENDBLK
  5
E0
330
DE
100
AcDbEntity
  8
0
100
AcDbBlockEnd
  0
BLOCK
  5
E7
330
E6
100
AcDbEntity
  8
0
100
AcDbBlockBegin
  2
SW_SYMBOL_C#_2
 70
     0
 10
0.0
 20
0.0
 30
0.0
  3
SW_SYMBOL_C#_2
  1

  0
CIRCLE
  5
E9
330
E6
100
AcDbEntity
  8
0
  6
Continuous
 62
     0
370
     0
100
AcDbCircle
 10
31.4960629921
 20
19.6850393701
 30
0.0
 40
31.49606299212599
  0
MTEXT
  5
EA
330
E6
100
AcDbEntity
  8
0
  6
Continuous
 62
     0
370
     0
100
AcDbMText
 10
31.4960629921
 20
19.6850393701
 30
0.0
 40
30.821835344
 41
0.0
 71
     5
 72
     1
  1
2
  7
SLDTEXTSTYLE0
 73
     1
 44
1.0
  0
ENDBLK
  5
E8
330
E6
100
AcDbEntity
  8
0
100
AcDbBlockEnd
  0
BLOCK
  5
EF
330
EE
100
AcDbEntity
  8
0
100
AcDbBlockBegin
  2
SW_SYMBOL_C#_3
 70
     0
 10
0.0
 20
0.0
 30
0.0
  3
SW_SYMBOL_C#_3
  1

  0
CIRCLE
  5
F1
330
EE
100
AcDbEntity
  8
0
  6
Continuous
 62
     0
370
     0
100
AcDbCircle
 10
31.4960629921
 20
19.6850393701
 30
0.0
 40
31.49606299212599
  0
MTEXT
  5
F2
330
EE
100
AcDbEntity
  8
0
  6
Continuous
 62
     0
370
     0
100
AcDbMText
 10
31.4960629921
 20
19.6850393701
 30
0.0
 40
30.821835344
 41
0.0
 71
     5
 72
     1
  1
3
  7
SLDTEXTSTYLE0
 73
     1
 44
1.0
  0
ENDBLK
  5
F0
330
EE
100
AcDbEntity
  8
0
100
AcDbBlockEnd
  0
BLOCK
  5
10A
330
109
100
AcDbEntity
  8
0
100
AcDbBlockBegin
  2
_D
 70
     0
 10
0.0
 20
0.0
 30
0.0
  3
_D
  1

  0
SOLID
  5
10C
330
109
100
AcDbEntity
  8
0
  6
Continuous
 62
     7
370
    18
100
AcDbTrace
 10
1.5533849167
 20
3.288343262
 30
0.0
 11
1.5733849167
 21
3.413343262
 31
0.0
 12
1.5333849167
 22
3.413343262
 32
0.0
 13
1.5333849167
 23
3.413343262
 33
0.0
  0
SOLID
  5
10D
330
109
100
AcDbEntity
  8
0
  6
Continuous
 62
     7
370
    18
100
AcDbTrace
 10
1.5533849167
 20
5.288343262
 30
0.0
 11
1.5333849167
 21
5.163343262
 31
0.0
 12
1.5733849167
 22
5.163343262
 32
0.0
 13
1.5733849167
 23
5.163343262
 33
0.0
  0
LINE
  5
10E
330
109
100
AcDbEntity
  8
0
  6
Continuous
 62
     7
370
    18
100
AcDbLine
 10
1.3415021836
 20
4.2883432528
 30
0.0
 11
1.316154961
 21
4.2883432528
 31
0.0
  0
LINE
  5
10F
330
109
100
AcDbEntity
  8
0
  6
Continuous
 62
     7
370
    18
100
AcDbLine
 10
1.316154961
 20
4.2883432528
 30
0.0
 11
1.316154961
 21
4.1559358482
 31
0.0
  0
LINE
  5
110
330
109
100
AcDbEntity
  8
0
  6
Continuous
 62
     7
370
    18
100
AcDbLine
 10
1.316154961
 20
4.1559358482
 30
0.0
 11
1.3415021836
 21
4.1559358482
 31
0.0
  0
LINE
  5
111
330
109
100
AcDbEntity
  8
0
  6
Continuous
 62
     7
370
    18
100
AcDbLine
 10
1.7652676315
 20
4.2883432528
 30
0.0
 11
1.7906148541
 21
4.2883432528
 31
0.0
  0
LINE
  5
112
330
109
100
AcDbEntity
  8
0
  6
Continuous
 62
     7
370
    18
100
AcDbLine
 10
1.7906148541
 20
4.2883432528
 30
0.0
 11
1.7906148541
 21
4.1559358482
 31
0.0
  0
LINE
  5
113
330
109
100
AcDbEntity
  8
0
  6
Continuous
 62
     7
370
    18
100
AcDbLine
 10
1.7906148541
 20
4.1559358482
 30
0.0
 11
1.7652676315
 21
4.1559358482
 31
0.0
  0
LINE
  5
114
330
109
100
AcDbEntity
  8
0
  6
Continuous
 62
     7
370
    18
100
AcDbLine
 10
2.369526649
 20
3.288343262
 30
0.0
 11
1.4833849167
 21
3.288343262
 31
0.0
  0
LINE
  5
115
330
109
100
AcDbEntity
  8
0
  6
Continuous
 62
     7
370
    18
100
AcDbLine
 10
2.369526649
 20
5.288343262
 30
0.0
 11
1.4833849167
 21
5.288343262
 31
0.0
  0
LINE
  5
116
330
109
100
AcDbEntity
  8
0
  6
Continuous
 62
     7
370
    18
100
AcDbLine
 10
1.5533849167
 20
3.288343262
 30
0.0
 11
1.5533849167
 21
4.1390377151
 31
0.0
  0
LINE
  5
117
330
109
100
AcDbEntity
  8
0
  6
Continuous
 62
     7
370
    18
100
AcDbLine
 10
1.5533849167
 20
5.288343262
 30
0.0
 11
1.5533849167
 21
4.4376488088
 31
0.0
  0
MTEXT
  5
118
330
109
100
AcDbEntity
  8
0
  6
Continuous
 62
     7
370
    18
100
AcDbMText
 10
1.2918879862
 20
4.4126637113
 30
0.0
 40
0.0833333333
 41
0.0
 71
     1
 72
     1
  1

  7
SLDTEXTSTYLE0
 73
     1
 44
1.0
  0
MTEXT
  5
119
330
109
100
AcDbEntity
  8
0
  6
Continuous
 62
     7
370
    18
100
AcDbMText
 10
1.4006842774
 20
4.4126637113
 30
0.0
 40
0.0833333333
 41
0.0
 71
     1
 72
     1
  1
2.00in
  7
SLDTEXTSTYLE0
 73
     1
 44
1.0
  0
MTEXT
  5
11A
330
109
100
AcDbEntity
  8
0
  6
Continuous
 62
     7
370
    18
100
AcDbMText
 10
1.3415021836
 20
4.2633581553
 30
0.0
 40
0.0833333333
 41
0.0
 71
     1
 72
     1
  1
50.8mm
  7
SLDTEXTSTYLE0
 73
     1
 44
1.0
  0
MTEXT
  5
11B
330
109
100
AcDbEntity
  8
0
  6
Continuous
 62
     7
370
    18
100
AcDbMText
 10
1.8784620767
 20
4.4126637113
 30
0.0
 40
0.0833333333
 41
0.0
 71
     1
 72
     1
  1

  7
SLDTEXTSTYLE0
 73
     1
 44
1.0
  0
ENDBLK
  5
10B
330
109
100
AcDbEntity
  8
0
100
AcDbBlockEnd
  0
BLOCK
  5
11E
330
11D
100
AcDbEntity
  8
0
100
AcDbBlockBegin
  2
_D_1
 70
     0
 10
0.0
 20
0.0
 30
0.0
  3
_D_1
  1

  0
SOLID
  5
120
330
11D
100
AcDbEntity
  8
0
  6
Continuous
 62
     7
370
    18
100
AcDbTrace
 10
2.419526649
 20
2.9891240628
 30
0.0
 11
2.544526649
 21
2.9691240628
 31
0.0
 12
2.544526649
 22
3.0091240628
 32
0.0
 13
2.544526649
 23
3.0091240628
 33
0.0
  0
SOLID
  5
121
330
11D
100
AcDbEntity
  8
0
  6
Continuous
 62
     7
370
    18
100
AcDbTrace
 10
4.319526649
 20
2.9891240628
 30
0.0
 11
4.194526649
 21
3.0091240628
 31
0.0
 12
4.194526649
 22
2.9691240628
 32
0.0
 13
4.194526649
 23
2.9691240628
 33
0.0
  0
LINE
  5
122
330
11D
100
AcDbEntity
  8
0
  6
Continuous
 62
     7
370
    18
100
AcDbLine
 10
3.1576439158
 20
2.9891240536
 30
0.0
 11
3.1322966932
 21
2.9891240536
 31
0.0
  0
LINE
  5
123
330
11D
100
AcDbEntity
  8
0
  6
Continuous
 62
     7
370
    18
100
AcDbLine
 10
3.1322966932
 20
2.9891240536
 30
0.0
 11
3.1322966932
 21
2.856716649
 31
0.0
  0
LINE
  5
124
330
11D
100
AcDbEntity
  8
0
  6
Continuous
 62
     7
370
    18
100
AcDbLine
 10
3.1322966932
 20
2.856716649
 30
0.0
 11
3.1576439158
 21
2.856716649
 31
0.0
  0
LINE
  5
125
330
11D
100
AcDbEntity
  8
0
  6
Continuous
 62
     7
370
    18
100
AcDbLine
 10
3.5814093638
 20
2.9891240536
 30
0.0
 11
3.6067565864
 21
2.9891240536
 31
0.0
  0
LINE
  5
126
330
11D
100
AcDbEntity
  8
0
  6
Continuous
 62
     7
370
    18
100
AcDbLine
 10
3.6067565864
 20
2.9891240536
 30
0.0
 11
3.6067565864
 21
2.856716649
 31
0.0
  0
LINE
  5
127
330
11D
100
AcDbEntity
  8
0
  6
Continuous
 62
     7
370
    18
100
AcDbLine
 10
3.6067565864
 20
2.856716649
 30
0.0
 11
3.5814093638
 21
2.856716649
 31
0.0
  0
LINE
  5
128
330
11D
100
AcDbEntity
  8
0
  6
Continuous
 62
     7
370
    18
100
AcDbLine
 10
2.419526649
 20
3.238343262
 30
0.0
 11
2.419526649
 21
2.9191240628
 31
0.0
  0
LINE
  5
129
330
11D
100
AcDbEntity
  8
0
  6
Continuous
 62
     7
370
    18
100
AcDbLine
 10
4.319526649
 20
3.238343262
 30
0.0
 11
4.319526649
 21
2.9191240628
 31
0.0
  0
LINE
  5
12A
330
11D
100
AcDbEntity
  8
0
  6
Continuous
 62
     7
370
    18
100
AcDbLine
 10
2.419526649
 20
2.9891240628
 30
0.0
 11
3.0286184847
 21
2.9891240628
 31
0.0
  0
LINE
  5
12B
330
11D
100
AcDbEntity
  8
0
  6
Continuous
 62
     7
370
    18
100
AcDbLine
 10
4.319526649
 20
2.9891240628
 30
0.0
 11
3.7104348133
 21
2.9891240628
 31
0.0
  0
MTEXT
  5
12C
330
11D
100
AcDbEntity
  8
0
  6
Continuous
 62
     7
370
    18
100
AcDbMText
 10
3.1080297185
 20
3.1134445121
 30
0.0
 40
0.0833333333
 41
0.0
 71
     1
 72
     1
  1

  7
SLDTEXTSTYLE0
 73
     1
 44
1.0
  0
MTEXT
  5
12D
330
11D
100
AcDbEntity
  8
0
  6
Continuous
 62
     7
370
    18
100
AcDbMText
 10
3.2168260097
 20
3.1134445121
 30
0.0
 40
0.0833333333
 41
0.0
 71
     1
 72
     1
  1
1.90in
  7
SLDTEXTSTYLE0
 73
     1
 44
1.0
  0
MTEXT
  5
12E
330
11D
100
AcDbEntity
  8
0
  6
Continuous
 62
     7
370
    18
100
AcDbMText
 10
3.1576439158
 20
2.9641389561
 30
0.0
 40
0.0833333333
 41
0.0
 71
     1
 72
     1
  1
48.3mm
  7
SLDTEXTSTYLE0
 73
     1
 44
1.0
  0
MTEXT
  5
12F
330
11D
100
AcDbEntity
  8
0
  6
Continuous
 62
     7
370
    18
100
AcDbMText
 10
3.694603809
 20
3.1134445121
 30
0.0
 40
0.0833333333
 41
0.0
 71
     1
 72
     1
  1

  7
SLDTEXTSTYLE0
 73
     1
 44
1.0
  0
ENDBLK
  5
11F
330
11D
100
AcDbEntity
  8
0
100
AcDbBlockEnd
  0
BLOCK
  5
133
330
132
100
AcDbEntity
  8
0
100
AcDbBlockBegin
  2
_D_2
 70
     0
 10
0.0
 20
0.0
 30
0.0
  3
_D_2
  1

  0
SOLID
  5
135
330
132
100
AcDbEntity
  8
0
  6
Continuous
 62
     7
370
    18
100
AcDbTrace
 10
2.0258258616
 20
3.288343262
 30
0.0
 11
2.0458258616
 21
3.413343262
 31
0.0
 12
2.0058258616
 22
3.413343262
 32
0.0
 13
2.0058258616
 23
3.413343262
 33
0.0
  0
SOLID
  5
136
330
132
100
AcDbEntity
  8
0
  6
Continuous
 62
     7
370
    18
100
AcDbTrace
 10
2.0258258616
 20
4.148343262
 30
0.0
 11
2.0058258616
 21
4.023343262
 31
0.0
 12
2.0458258616
 22
4.023343262
 32
0.0
 13
2.0458258616
 23
4.023343262
 33
0.0
  0
LINE
  5
137
330
132
100
AcDbEntity
  8
0
  6
Continuous
 62
     7
370
    18
100
AcDbLine
 10
1.8139431284
 20
3.7183432528
 30
0.0
 11
1.7885959058
 21
3.7183432528
 31
0.0
  0
LINE
  5
138
330
132
100
AcDbEntity
  8
0
  6
Continuous
 62
     7
370
    18
100
AcDbLine
 10
1.7885959058
 20
3.7183432528
 30
0.0
 11
1.7885959058
 21
3.5859358482
 31
0.0
  0
LINE
  5
139
330
132
100
AcDbEntity
  8
0
  6
Continuous
 62
     7
370
    18
100
AcDbLine
 10
1.7885959058
 20
3.5859358482
 30
0.0
 11
1.8139431284
 21
3.5859358482
 31
0.0
  0
LINE
  5
13A
330
132
100
AcDbEntity
  8
0
  6
Continuous
 62
     7
370
    18
100
AcDbLine
 10
2.2377085764
 20
3.7183432528
 30
0.0
 11
2.263055799
 21
3.7183432528
 31
0.0
  0
LINE
  5
13B
330
132
100
AcDbEntity
  8
0
  6
Continuous
 62
     7
370
    18
100
AcDbLine
 10
2.263055799
 20
3.7183432528
 30
0.0
 11
2.263055799
 21
3.5859358482
 31
0.0
  0
LINE
  5
13C
330
132
100
AcDbEntity
  8
0
  6
Continuous
 62
     7
370
    18
100
AcDbLine
 10
2.263055799
 20
3.5859358482
 30
0.0
 11
2.2377085764
 21
3.5859358482
 31
0.0
  0
LINE
  5
13D
330
132
100
AcDbEntity
  8
0
  6
Continuous
 62
     7
370
    18
100
AcDbLine
 10
2.369526649
 20
3.288343262
 30
0.0
 11
1.9558258616
 21
3.288343262
 31
0.0
  0
LINE
  5
13E
330
132
100
AcDbEntity
  8
0
  6
Continuous
 62
     7
370
    18
100
AcDbLine
 10
3.269526649
 20
4.148343262
 30
0.0
 11
1.9558258616
 21
4.148343262
 31
0.0
  0
LINE
  5
13F
330
132
100
AcDbEntity
  8
0
  6
Continuous
 62
     7
370
    18
100
AcDbLine
 10
2.0258258616
 20
3.288343262
 30
0.0
 11
2.0258258616
 21
3.5690377151
 31
0.0
  0
LINE
  5
140
330
132
100
AcDbEntity
  8
0
  6
Continuous
 62
     7
370
    18
100
AcDbLine
 10
2.0258258616
 20
4.148343262
 30
0.0
 11
2.0258258616
 21
3.8676488088
 31
0.0
  0
MTEXT
  5
141
330
132
100
AcDbEntity
  8
0
  6
Continuous
 62
     7
370
    18
100
AcDbMText
 10
1.7643289311
 20
3.8426637113
 30
0.0
 40
0.0833333333
 41
0.0
 71
     1
 72
     1
  1

  7
SLDTEXTSTYLE0
 73
     1
 44
1.0
  0
MTEXT
  5
142
330
132
100
AcDbEntity
  8
0
  6
Continuous
 62
     7
370
    18
100
AcDbMText
 10
1.8731252223
 20
3.8426637113
 30
0.0
 40
0.0833333333
 41
0.0
 71
     1
 72
     1
  1
0.86in
  7
SLDTEXTSTYLE0
 73
     1
 44
1.0
  0
MTEXT
  5
143
330
132
100
AcDbEntity
  8
0
  6
Continuous
 62
     7
370
    18
100
AcDbMText
 10
1.8139431284
 20
3.6933581553
 30
0.0
 40
0.0833333333
 41
0.0
 71
     1
 72
     1
  1
21.8mm
  7
SLDTEXTSTYLE0
 73
     1
 44
1.0
  0
MTEXT
  5
144
330
132
100
AcDbEntity
  8
0
  6
Continuous
 62
     7
370
    18
100
AcDbMText
 10
2.3509030216
 20
3.8426637113
 30
0.0
 40
0.0833333333
 41
0.0
 71
     1
 72
     1
  1

  7
SLDTEXTSTYLE0
 73
     1
 44
1.0
  0
ENDBLK
  5
134
330
132
100
AcDbEntity
  8
0
100
AcDbBlockEnd
  0
BLOCK
  5
146
330
145
100
AcDbEntity
  8
0
100
AcDbBlockBegin
  2
SW_NOTE_4
 70
     0
 10
0.0
 20
0.0
 30
0.0
  3
SW_NOTE_4
  1

  0
CIRCLE
  5
148
330
145
100
AcDbEntity
  8
0
  6
Continuous
 62
     0
370
     0
100
AcDbCircle
 10
0.1758967381
 20
0.0
 30
0.0
 40
0.1758967381112541
  0
MTEXT
  5
149
330
145
100
AcDbEntity
  8
0
  6
Continuous
 62
     0
370
     0
100
AcDbMText
 10
0.1746380574
 20
0.0641091287
 30
0.0
 40
0.125
 41
0.0
 71
     2
 72
     1
  1
1
  7
SLDTEXTSTYLE0
 73
     1
 44
1.0
  0
ENDBLK
  5
147
330
145
100
AcDbEntity
  8
0
100
AcDbBlockEnd
  0
BLOCK
  5
14E
330
14D
100
AcDbEntity
  8
0
100
AcDbBlockBegin
  2
SW_NOTE_5
 70
     0
 10
0.0
 20
0.0
 30
0.0
  3
SW_NOTE_5
  1

  0
CIRCLE
  5
150
330
14D
100
AcDbEntity
  8
0
  6
Continuous
 62
     0
370
     0
100
AcDbCircle
 10
0.1758967381
 20
0.0
 30
0.0
 40
0.1758967381112544
  0
MTEXT
  5
151
330
14D
100
AcDbEntity
  8
0
  6
Continuous
 62
     0
370
     0
100
AcDbMText
 10
0.1746380574
 20
0.0641091287
 30
0.0
 40
0.125
 41
0.0
 71
     2
 72
     1
  1
3
  7
SLDTEXTSTYLE0
 73
     1
 44
1.0
  0
ENDBLK
  5
14F
330
14D
100
AcDbEntity
  8
0
100
AcDbBlockEnd
  0
BLOCK
  5
155
330
154
100
AcDbEntity
  8
0
100
AcDbBlockBegin
  2
SW_NOTE_6
 70
     0
 10
0.0
 20
0.0
 30
0.0
  3
SW_NOTE_6
  1

  0
CIRCLE
  5
157
330
154
100
AcDbEntity
  8
0
  6
Continuous
 62
     0
370
     0
100
AcDbCircle
 10
0.1758967381
 20
0.0
 30
0.0
 40
0.1758967381112534
  0
MTEXT
  5
158
330
154
100
AcDbEntity
  8
0
  6
Continuous
 62
     0
370
     0
100
AcDbMText
 10
0.1746380574
 20
0.0641091287
 30
0.0
 40
0.125
 41
0.0
 71
     2
 72
     1
  1
2
  7
SLDTEXTSTYLE0
 73
     1
 44
1.0
  0
ENDBLK
  5
156
330
154
100
AcDbEntity
  8
0
100
AcDbBlockEnd
  0
BLOCK
  5
15C
330
15B
100
AcDbEntity
  8
0
100
AcDbBlockBegin
  2
SW_CENTERMARKSYMBOL_0
 70
     0
 10
0.0
 20
0.0
 30
0.0
  3
SW_CENTERMARKSYMBOL_0
  1

  0
LINE
  5
15E
330
15B
100
AcDbEntity
  8
0
  6
Continuous
 62
     0
370
     0
100
AcDbLine
 10
0.0
 20
0.0
 30
0.0
 11
0.0
 21
0.05
 31
0.0
  0
LINE
  5
15F
330
15B
100
AcDbEntity
  8
0
  6
Continuous
 62
     0
370
     0
100
AcDbLine
 10
0.0
 20
0.0
 30
0.0
 11
-0.05
 21
0.0
 31
0.0
  0
LINE
  5
160
330
15B
100
AcDbEntity
  8
0
  6
Continuous
 62
     0
370
     0
100
AcDbLine
 10
0.0
 20
0.0
 30
0.0
 11
0.0
 21
-0.05
 31
0.0
  0
LINE
  5
161
330
15B
100
AcDbEntity
  8
0
  6
Continuous
 62
     0
370
     0
100
AcDbLine
 10
0.0
 20
0.0
 30
0.0
 11
0.05
 21
0.0
 31
0.0
  0
ENDBLK
  5
15D
330
15B
100
AcDbEntity
  8
0
100
AcDbBlockEnd
  0
BLOCK
  5
170
330
16F
100
AcDbEntity
  8
0
100
AcDbBlockBegin
  2
_D_3
 70
     0
 10
0.0
 20
0.0
 30
0.0
  3
_D_3
  1

  0
ARC
  5
172
330
16F
100
AcDbEntity
  8
0
  6
Continuous
 62
     7
370
    18
100
AcDbCircle
 10
7.4158879962
 20
5.160343262
 30
0.0
 40
1.05446840226757
100
AcDbArc
 50
90.0
 51
107.6508434081
  0
ARC
  5
173
330
16F
100
AcDbEntity
  8
0
  6
Continuous
 62
     7
370
    18
100
AcDbCircle
 10
7.4158879962
 20
5.160343262
 30
0.0
 40
1.05446840226757
100
AcDbArc
 50
117.5260108372
 51
135.0
  0
SOLID
  5
174
330
16F
100
AcDbEntity
  8
0
  6
Continuous
 62
     7
370
    18
100
AcDbTrace
 10
7.4158879962
 20
6.2148116642
 30
0.0
 11
7.2899262273
 21
6.2274066144
 31
0.0
 12
7.2922847087
 22
6.1874762053
 32
0.0
 13
7.2922847087
 23
6.1874762053
 33
0.0
  0
SOLID
  5
175
330
16F
100
AcDbEntity
  8
0
  6
Continuous
 62
     7
370
    18
100
AcDbTrace
 10
6.6702662384
 20
5.9059650197
 30
0.0
 11
6.7769960496
 21
5.9740366542
 31
0.0
 12
6.7504286848
 22
6.0039394154
 32
0.0
 13
6.7504286848
 23
6.0039394154
 33
0.0
  0
LINE
  5
176
330
16F
100
AcDbEntity
  8
0
  6
Continuous
 62
     7
370
    18
100
AcDbLine
 10
7.4158879962
 20
5.210343262
 30
0.0
 11
7.4158879962
 21
6.2848116642
 31
0.0
  0
LINE
  5
177
330
16F
100
AcDbEntity
  8
0
  6
Continuous
 62
     7
370
    18
100
AcDbLine
 10
7.2525326572
 20
5.323698601
 30
0.0
 11
6.6207687637
 21
5.9554624944
 31
0.0
  0
MTEXT
  5
178
330
16F
100
AcDbEntity
  8
0
  6
Continuous
 62
     7
370
    18
100
AcDbMText
 10
6.9285641101
 20
6.1757636413
 30
0.0
 40
0.0833333333
 41
0.0
 71
     1
 72
     1
  1
45°
  7
SLDTEXTSTYLE0
 73
     1
 44
1.0
  0
ENDBLK
  5
171
330
16F
100
AcDbEntity
  8
0
100
AcDbBlockEnd
  0
BLOCK
  5
17C
330
17B
100
AcDbEntity
  8
0
100
AcDbBlockBegin
  2
_D_4
 70
     0
 10
0.0
 20
0.0
 30
0.0
  3
_D_4
  1

  0
SOLID
  5
17E
330
17B
100
AcDbEntity
  8
0
  6
Continuous
 62
     7
370
    18
100
AcDbTrace
 10
7.4158879962
 20
3.1036276416
 30
0.0
 11
7.5408879962
 21
3.0836276416
 31
0.0
 12
7.5408879962
 22
3.1236276416
 32
0.0
 13
7.5408879962
 23
3.1236276416
 33
0.0
  0
SOLID
  5
17F
330
17B
100
AcDbEntity
  8
0
  6
Continuous
 62
     7
370
    18
100
AcDbTrace
 10
7.2878879962
 20
3.1036276416
 30
0.0
 11
7.1628879962
 21
3.1236276416
 31
0.0
 12
7.1628879962
 22
3.0836276416
 32
0.0
 13
7.1628879962
 23
3.0836276416
 33
0.0
  0
LINE
  5
180
330
17B
100
AcDbEntity
  8
0
  6
Continuous
 62
     7
370
    18
100
AcDbLine
 10
6.4643253735
 20
3.1036276324
 30
0.0
 11
6.4389781509
 21
3.1036276324
 31
0.0
  0
LINE
  5
181
330
17B
100
AcDbEntity
  8
0
  6
Continuous
 62
     7
370
    18
100
AcDbLine
 10
6.4389781509
 20
3.1036276324
 30
0.0
 11
6.4389781509
 21
2.9712202278
 31
0.0
  0
LINE
  5
182
330
17B
100
AcDbEntity
  8
0
  6
Continuous
 62
     7
370
    18
100
AcDbLine
 10
6.4389781509
 20
2.9712202278
 30
0.0
 11
6.4643253735
 21
2.9712202278
 31
0.0
  0
LINE
  5
183
330
17B
100
AcDbEntity
  8
0
  6
Continuous
 62
     7
370
    18
100
AcDbLine
 10
6.8265167228
 20
3.1036276324
 30
0.0
 11
6.8518639454
 21
3.1036276324
 31
0.0
  0
LINE
  5
184
330
17B
100
AcDbEntity
  8
0
  6
Continuous
 62
     7
370
    18
100
AcDbLine
 10
6.8518639454
 20
3.1036276324
 30
0.0
 11
6.8518639454
 21
2.9712202278
 31
0.0
  0
LINE
  5
185
330
17B
100
AcDbEntity
  8
0
  6
Continuous
 62
     7
370
    18
100
AcDbLine
 10
6.8518639454
 20
2.9712202278
 30
0.0
 11
6.8265167228
 21
2.9712202278
 31
0.0
  0
LINE
  5
186
330
17B
100
AcDbEntity
  8
0
  6
Continuous
 62
     7
370
    18
100
AcDbLine
 10
7.4158879962
 20
3.238343262
 30
0.0
 11
7.4158879962
 21
3.0336276416
 31
0.0
  0
LINE
  5
187
330
17B
100
AcDbEntity
  8
0
  6
Continuous
 62
     7
370
    18
100
AcDbLine
 10
7.2878879962
 20
3.238343262
 30
0.0
 11
7.2878879962
 21
3.0336276416
 31
0.0
  0
LINE
  5
188
330
17B
100
AcDbEntity
  8
0
  6
Continuous
 62
     7
370
    18
100
AcDbLine
 10
7.4158879962
 20
3.1036276416
 30
0.0
 11
7.6658879962
 21
3.1036276416
 31
0.0
  0
LINE
  5
189
330
17B
100
AcDbEntity
  8
0
  6
Continuous
 62
     7
370
    18
100
AcDbLine
 10
7.2878879962
 20
3.1036276416
 30
0.0
 11
6.9555421356
 21
3.1036276416
 31
0.0
  0
MTEXT
  5
18A
330
17B
100
AcDbEntity
  8
0
  6
Continuous
 62
     7
370
    18
100
AcDbMText
 10
6.4147111762
 20
3.2279480909
 30
0.0
 40
0.0833333333
 41
0.0
 71
     1
 72
     1
  1

  7
SLDTEXTSTYLE0
 73
     1
 44
1.0
  0
MTEXT
  5
18B
330
17B
100
AcDbEntity
  8
0
  6
Continuous
 62
     7
370
    18
100
AcDbMText
 10
6.492720418
 20
3.2279480909
 30
0.0
 40
0.0833333333
 41
0.0
 71
     1
 72
     1
  1
0.13in
  7
SLDTEXTSTYLE0
 73
     1
 44
1.0
  0
MTEXT
  5
18C
330
17B
100
AcDbEntity
  8
0
  6
Continuous
 62
     7
370
    18
100
AcDbMText
 10
6.4643253735
 20
3.0786425349
 30
0.0
 40
0.0833333333
 41
0.0
 71
     1
 72
     1
  1
3.3mm
  7
SLDTEXTSTYLE0
 73
     1
 44
1.0
  0
MTEXT
  5
18D
330
17B
100
AcDbEntity
  8
0
  6
Continuous
 62
     7
370
    18
100
AcDbMText
 10
6.9397111313
 20
3.2279480909
 30
0.0
 40
0.0833333333
 41
0.0
 71
     1
 72
     1
  1

  7
SLDTEXTSTYLE0
 73
     1
 44
1.0
  0
ENDBLK
  5
17D
330
17B
100
AcDbEntity
  8
0
100
AcDbBlockEnd
  0
ENDSEC
  0
SECTION
  2
ENTITIES
  0
LINE
  5
81
330
1F
100
AcDbEntity
  8
0
  6
Continuous
 62
     7
370
    18
100
AcDbLine
 10
0.0621791378
 20
8.4506055117
 30
0.0
 11
10.9444569626
 21
8.4506055117
 31
0.0
  0
LINE
  5
82
330
1F
100
AcDbEntity
  8
0
  6
Continuous
 62
     7
370
    18
100
AcDbLine
 10
0.0621791378
 20
8.4506055117
 30
0.0
 11
0.0621791378
 21
0.035557648
 31
0.0
  0
LINE
  5
83
330
1F
100
AcDbEntity
  8
0
  6
Continuous
 62
     7
370
    18
100
AcDbLine
 10
10.9444569626
 20
0.035557648
 30
0.0
 11
0.0621791378
 21
0.035557648
 31
0.0
  0
LINE
  5
84
330
1F
100
AcDbEntity
  8
0
  6
Continuous
 62
     7
370
    18
100
AcDbLine
 10
10.9444569626
 20
0.035557648
 30
0.0
 11
10.9444569626
 21
8.4506055117
 31
0.0
  0
LINE
  5
85
330
1F
100
AcDbEntity
  8
0
  6
Continuous
 62
     7
370
    18
100
AcDbLine
 10
8.4938096065
 20
0.4840901186
 30
0.0
 11
6.7571952625
 21
0.4840901186
 31
0.0
  0
LINE
  5
86
330
1F
100
AcDbEntity
  8
0
  6
Continuous
 62
     7
370
    18
100
AcDbLine
 10
6.7571952625
 20
0.4840901186
 30
0.0
 11
6.7571952625
 21
1.030163002
 31
0.0
  0
LINE
  5
87
330
1F
100
AcDbEntity
  8
0
  6
Continuous
 62
     7
370
    18
100
AcDbLine
 10
6.7571952625
 20
0.035557648
 30
0.0
 11
6.7571952625
 21
1.030163002
 31
0.0
  0
LINE
  5
88
330
1F
100
AcDbEntity
  8
0
  6
Continuous
 62
     7
370
    18
100
AcDbLine
 10
8.4938096065
 20
0.6756085809
 30
0.0
 11
10.9444569626
 21
0.6756085809
 31
0.0
  0
LINE
  5
89
330
1F
100
AcDbEntity
  8
0
  6
Continuous
 62
     7
370
    18
100
AcDbLine
 10
8.4938096065
 20
1.3873799542
 30
0.0
 11
8.4938096065
 21
0.035557648
 31
0.0
  0
LINE
  5
8A
330
1F
100
AcDbEntity
  8
0
  6
Continuous
 62
     7
370
    18
100
AcDbLine
 10
8.4938096065
 20
1.030163002
 30
0.0
 11
6.7571952625
 21
1.030163002
 31
0.0
  0
LINE
  5
8B
330
1F
100
AcDbEntity
  8
0
  6
Continuous
 62
     7
370
    18
100
AcDbLine
 10
8.4938096065
 20
0.3598787426
 30
0.0
 11
10.9444569626
 21
0.3598787426
 31
0.0
  0
LINE
  5
8C
330
1F
100
AcDbEntity
  8
0
  6
Continuous
 62
     7
370
    18
100
AcDbLine
 10
8.4938096065
 20
0.6662079686
 30
0.0
 11
6.7571952625
 21
0.6662079686
 31
0.0
  0
LINE
  5
8D
330
1F
100
AcDbEntity
  8
0
  6
Continuous
 62
     7
370
    18
100
AcDbLine
 10
8.4938096065
 20
0.8459606517
 30
0.0
 11
6.7571952625
 21
0.8459606517
 31
0.0
  0
LINE
  5
8E
330
1F
100
AcDbEntity
  8
0
  6
Continuous
 62
     7
370
    18
100
AcDbLine
 10
7.3281027587
 20
1.030163002
 30
0.0
 11
7.3281027587
 21
0.4840901186
 31
0.0
  0
LINE
  5
8F
330
1F
100
AcDbEntity
  8
0
  6
Continuous
 62
     7
370
    18
100
AcDbLine
 10
7.8037240401
 20
1.030163002
 30
0.0
 11
7.8037240401
 21
0.4840901186
 31
0.0
  0
LINE
  5
90
330
1F
100
AcDbEntity
  8
0
  6
Continuous
 62
     7
370
    18
100
AcDbLine
 10
9.990119718
 20
0.3598787426
 30
0.0
 11
9.990119718
 21
0.035557648
 31
0.0
  0
LINE
  5
91
330
1F
100
AcDbEntity
  8
0
  6
Continuous
 62
     7
370
    18
100
AcDbLine
 10
6.7571952625
 20
0.4840901186
 30
0.0
 11
6.7571952625
 21
0.297745443
 31
0.0
  0
LINE
  5
92
330
1F
100
AcDbEntity
  8
0
  6
Continuous
 62
     7
370
    18
100
AcDbLine
 10
6.7571952625
 20
0.297745443
 30
0.0
 11
8.4938096065
 21
0.297745443
 31
0.0
  0
LINE
  5
93
330
1F
100
AcDbEntity
  8
0
  6
Continuous
 62
     7
370
    18
100
AcDbLine
 10
6.7571952625
 20
0.297745443
 30
0.0
 11
6.7571952625
 21
1.3873799542
 31
0.0
  0
LINE
  5
94
330
1F
100
AcDbEntity
  8
0
  6
Continuous
 62
     7
370
    18
100
AcDbLine
 10
6.7571952625
 20
1.3873799542
 30
0.0
 11
8.4938096065
 21
1.3873799542
 31
0.0
  0
LINE
  5
95
330
1F
100
AcDbEntity
  8
0
  6
Continuous
 62
     7
370
    18
100
AcDbLine
 10
10.6365495992
 20
0.6756085809
 30
0.0
 11
10.6365495992
 21
0.3598787426
 31
0.0
  0
LINE
  5
96
330
1F
100
AcDbEntity
  8
0
  6
Continuous
 62
     7
370
    18
100
AcDbLine
 10
8.4938096065
 20
1.3873799542
 30
0.0
 11
10.9444569626
 21
1.3873799542
 31
0.0
  0
LINE
  5
97
330
1F
100
AcDbEntity
  8
0
  6
Continuous
 62
     7
370
    18
100
AcDbLine
 10
10.9444569626
 20
1.3873799542
 30
0.0
 11
10.9444569626
 21
1.9698084888
 31
0.0
  0
LINE
  5
98
330
1F
100
AcDbEntity
  8
0
  6
Continuous
 62
     7
370
    18
100
AcDbLine
 10
8.4938096065
 20
0.9800288797
 30
0.0
 11
10.9444569626
 21
0.9800288797
 31
0.0
  0
INSERT
  5
99
330
1F
100
AcDbEntity
  8
0
  6
Continuous
 62
     7
100
AcDbBlockReference
  2
Third Angle Projection Block
 10
4.6348905679
 20
0.6108753523
 30
0.0
 41
0.8
 42
0.8
 43
0.8
  0
INSERT
  5
A8
330
1F
100
AcDbEntity
  8
0
  6
Continuous
 62
     7
370
     0
100
AcDbBlockReference
  2
SW_NOTE_0
 10
0.2134499055
 20
1.5141724395
 30
0.0
  0
MTEXT
  5
A9
330
1F
100
AcDbEntity
  8
0
  6
Continuous
 62
     7
370
     0
100
AcDbMText
 10
10.7836923968
 20
0.5162413101
 30
0.0
 40
0.125
 41
0.0
 71
     2
 72
     1
  1
E
  7
SLDTEXTSTYLE0
 73
     1
 44
1.0
  0
MTEXT
  5
AA
330
1F
100
AcDbEntity
  8
0
  6
Continuous
 62
     7
370
     0
100
AcDbMText
 10
9.2422774454
 20
0.2019943461
 30
0.0
 40
0.125
 41
0.0
 71
     2
 72
     1
  1
SI050P
  7
SLDTEXTSTYLE0
 73
     1
 44
1.0
  0
MTEXT
  5
AB
330
1F
100
AcDbEntity
  8
0
  6
Continuous
 62
     7
370
     0
100
AcDbMText
 10
8.5204715199
 20
0.6623747189
 30
0.0
 40
0.0833333333
 41
0.0
 71
     1
 72
     1
  1
MATERIAL
  7
SLDTEXTSTYLE0
 73
     1
 44
1.0
  0
MTEXT
  5
AC
330
1F
100
AcDbEntity
  8
0
  6
Continuous
 62
     7
370
     0
100
AcDbMText
 10
6.8594860853
 20
0.7895493672
 30
0.0
 40
0.0729166667
 41
0.0
 71
     1
 72
     1
  1
DRAWN
  7
SLDTEXTSTYLE0
 73
     1
 44
1.0
  0
MTEXT
  5
AD
330
1F
100
AcDbEntity
  8
0
  6
Continuous
 62
     7
370
     0
100
AcDbMText
 10
6.7872445848
 20
0.613335314
 30
0.0
 40
0.0729166667
 41
0.0
 71
     1
 72
     1
  1
APPROVAL
  7
SLDTEXTSTYLE0
 73
     1
 44
1.0
  0
MTEXT
  5
AE
330
1F
100
AcDbEntity
  8
0
  6
Continuous
 62
     7
370
     0
100
AcDbMText
 10
10.681956279
 20
0.6308568984
 30
0.0
 40
0.0833333333
 41
0.0
 71
     1
 72
     1
  1
REV
  7
SLDTEXTSTYLE0
 73
     1
 44
1.0
  0
MTEXT
  5
AF
330
1F
100
AcDbEntity
  8
0
  6
Continuous
 62
     7
370
     0
100
AcDbMText
 10
7.4919633718
 20
0.7999100272
 30
0.0
 40
0.0833333333
 41
0.0
 71
     1
 72
     1
  1
DT
  7
SLDTEXTSTYLE0
 73
     1
 44
1.0
  0
MTEXT
  5
B0
330
1F
100
AcDbEntity
  8
0
  6
Continuous
 62
     7
370
     0
100
AcDbMText
 10
7.8687497515
 20
0.7999100272
 30
0.0
 40
0.0833333333
 41
0.0
 71
     1
 72
     1
  1
21/JAN/19
  7
SLDTEXTSTYLE0
 73
     1
 44
1.0
  0
MTEXT
  5
B1
330
1F
100
AcDbEntity
  8
0
  6
Continuous
 62
     7
370
     0
100
AcDbMText
 10
8.0163191884
 20
0.9772495896
 30
0.0
 40
0.0833333333
 41
0.0
 71
     1
 72
     1
  1
DATE
  7
SLDTEXTSTYLE0
 73
     1
 44
1.0
  0
MTEXT
  5
B3
330
1F
100
AcDbEntity
  8
0
  6
Continuous
 62
     7
370
     0
100
AcDbMText
 10
9.0316104912
 20
1.0943207896
 30
0.0
 40
0.0833333333
 41
0.0
 71
     1
 72
     1
  1
w w w . t h o r  l a b s . c o m
  7
SLDTEXTSTYLE1
 73
     1
 44
1.0
  0
MTEXT
  5
B4
330
1F
100
AcDbEntity
  8
0
  6
Continuous
 62
     7
370
     0
100
AcDbMText
 10
8.5315119501
 20
0.328719653
 30
0.0
 40
0.0833333333
 41
0.0
 71
     1
 72
     1
  1
ITEM #
  7
SLDTEXTSTYLE0
 73
     1
 44
1.0
  0
MTEXT
  5
B5
330
1F
100
AcDbEntity
  8
0
  6
Continuous
 62
     7
370
     0
100
AcDbMText
 10
10.0209370115
 20
0.328719653
 30
0.0
 40
0.0833333333
 41
0.0
 71
     1
 72
     1
  1
APPROX WEIGHT
  7
SLDTEXTSTYLE0
 73
     1
 44
1.0
  0
MTEXT
  5
B6
330
1F
100
AcDbEntity
  8
0
  6
Continuous
 62
     7
370
     0
100
AcDbMText
 10
9.5915495694
 20
0.5162413101
 30
0.0
 40
0.125
 41
0.0
 71
     2
 72
     1
  1
SEE TABLE
  7
SLDTEXTSTYLE0
 73
     1
 44
1.0
  0
MTEXT
  5
B7
330
1F
100
AcDbEntity
  8
0
  6
Continuous
 62
     7
370
     0
100
AcDbMText
 10
10.4790491378
 20
0.2019943461
 30
0.0
 40
0.125
 41
0.0
 71
     2
 72
     1
  1
0.02 kg
  7
SLDTEXTSTYLE0
 73
     1
 44
1.0
  0
INSERT
  5
BD
330
1F
100
AcDbEntity
  8
0
  6
Continuous
 62
     7
370
     0
100
AcDbBlockReference
  2
SW_NOTE_1
 10
6.8835832285
 20
0.1754273811
 30
0.0
  0
INSERT
  5
C3
330
1F
100
AcDbEntity
  8
0
  6
Continuous
 62
     7
370
     0
100
AcDbBlockReference
  2
SW_NOTE_2
 10
6.8719828753
 20
1.2001390658
 30
0.0
  0
MTEXT
  5
C4
330
1F
100
AcDbEntity
  8
0
  6
Continuous
 62
     7
370
     0
100
AcDbMText
 10
7.3987149145
 20
0.9772495896
 30
0.0
 40
0.0833333333
 41
0.0
 71
     1
 72
     1
  1
NAME
  7
SLDTEXTSTYLE0
 73
     1
 44
1.0
  0
INSERT
  5
CA
330
1F
100
AcDbEntity
  8
0
  6
Continuous
 62
     7
370
     0
100
AcDbBlockReference
  2
SW_NOTE_3
 10
2.3078923918
 20
0.3219551564
 30
0.0
  0
MTEXT
  5
CB
330
1F
100
AcDbEntity
  8
0
  6
Continuous
 62
     7
370
     0
100
AcDbMText
 10
7.0518693355
 20
0.4200025137
 30
0.0
 40
0.0625
 41
0.0
 71
     1
 72
     1
  1
COPYRIGHT © 2019 BY THORLABS
  7
SLDTEXTSTYLE0
 73
     1
 44
1.0
  0
MTEXT
  5
CC
330
1F
100
AcDbEntity
  8
0
  6
Continuous
 62
     7
370
     0
100
AcDbMText
 10
9.6970570791
 20
0.894553016
 30
0.0
 40
0.125
 41
0.0
 71
     2
 72
     1
  1
SHEAR-PLATE, 2.5-5mm BEAM
  7
SLDTEXTSTYLE0
 73
     1
 44
1.0
  0
MTEXT
  5
CD
330
1F
100
AcDbEntity
  8
0
  6
Continuous
 62
     7
370
     0
100
AcDbMText
 10
7.8684796863
 20
0.6231356927
 30
0.0
 40
0.0833333333
 41
0.0
 71
     1
 72
     1
  1
21/JAN/19
  7
SLDTEXTSTYLE0
 73
     1
 44
1.0
  0
MTEXT
  5
CE
330
1F
100
AcDbEntity
  8
0
  6
Continuous
 62
     7
370
     0
100
AcDbMText
 10
7.494345706
 20
0.623695974
 30
0.0
 40
0.0833333333
 41
0.0
 71
     1
 72
     1
  1
BW
  7
SLDTEXTSTYLE0
 73
     1
 44
1.0
  0
INSERT
  5
F6
330
1F
100
AcDbEntity
  8
0
  6
Continuous
 62
     7
370
     0
100
AcDbBlockReference
  2
SW_TABLEANNOTATION_0
 10
0.0639289603
 20
8.4525159771
 30
0.0
  0
ARC
  5
F7
330
1F
100
AcDbEntity
  8
0
  6
Continuous
 62
     7
370
    18
100
AcDbCircle
 10
3.369526649
 20
4.148343262
 30
0.0
 40
0.2500000000000001
100
AcDbArc
 50
289.1117321372
 51
250.8882678628
  0
LINE
  5
F8
330
1F
100
AcDbEntity
  8
0
  6
Continuous
 62
     7
370
    18
100
AcDbLine
 10
3.2876737987
 20
3.9121227848
 30
0.0
 11
3.4513794993
 21
3.9121227848
 31
0.0
  0
CIRCLE
  5
F9
330
1F
100
AcDbEntity
  8
0
  6
Continuous
 62
     7
370
    18
100
AcDbCircle
 10
3.369526649
 20
4.148343262
 30
0.0
 40
0.3549999999999995
  0
CIRCLE
  5
FA
330
1F
100
AcDbEntity
  8
0
  6
Continuous
 62
     7
370
    18
100
AcDbCircle
 10
3.369526649
 20
4.148343262
 30
0.0
 40
0.3500000000000001
  0
CIRCLE
  5
FB
330
1F
100
AcDbEntity
  8
0
  6
Continuous
 62
     7
370
    18
100
AcDbCircle
 10
4.069526649
 20
3.436343262
 30
0.0
 40
0.0934999999999997
  0
CIRCLE
  5
FC
330
1F
100
AcDbEntity
  8
0
  6
Continuous
 62
     7
370
    18
100
AcDbCircle
 10
4.069526649
 20
3.436343262
 30
0.0
 40
0.0985000000000005
  0
CIRCLE
  5
FD
330
1F
100
AcDbEntity
  8
0
  6
Continuous
 62
     7
370
    18
100
AcDbCircle
 10
2.669526649
 20
3.436343262
 30
0.0
 40
0.0935000000000001
  0
CIRCLE
  5
FE
330
1F
100
AcDbEntity
  8
0
  6
Continuous
 62
     7
370
    18
100
AcDbCircle
 10
2.669526649
 20
3.436343262
 30
0.0
 40
0.0985
  0
LINE
  5
FF
330
1F
100
AcDbEntity
  8
0
  6
Continuous
 62
     7
370
    18
100
AcDbLine
 10
2.4195266568
 20
3.288343274
 30
0.0
 11
4.3195266412
 21
3.288343274
 31
0.0
  0
LINE
  5
100
330
1F
100
AcDbEntity
  8
0
  6
Continuous
 62
     7
370
    18
100
AcDbLine
 10
2.4195266568
 20
5.2883432499
 30
0.0
 11
2.4195266568
 21
3.288343274
 31
0.0
  0
CIRCLE
  5
101
330
1F
100
AcDbEntity
  8
0
  6
Continuous
 62
     7
370
    18
100
AcDbCircle
 10
3.369526649
 20
5.087343262
 30
0.0
 40
0.0985000000000009
  0
LINE
  5
102
330
1F
100
AcDbEntity
  8
0
  6
Continuous
 62
     7
370
    18
100
AcDbLine
 10
4.3195266412
 20
3.288343274
 30
0.0
 11
4.3195266412
 21
5.2883432499
 31
0.0
  0
LINE
  5
103
330
1F
100
AcDbEntity
  8
0
  6
Continuous
 62
     7
370
    18
100
AcDbLine
 10
4.3195266412
 20
5.2883432499
 30
0.0
 11
2.4195266568
 21
5.2883432499
 31
0.0
  0
CIRCLE
  5
104
330
1F
100
AcDbEntity
  8
0
  6
Continuous
 62
     7
370
    18
100
AcDbCircle
 10
3.369526649
 20
5.087343262
 30
0.0
 40
0.0935000000000001
  0
CIRCLE
  5
105
330
1F
100
AcDbEntity
  8
0
  6
Continuous
 62
     7
370
    18
100
AcDbCircle
 10
3.369526649
 20
4.148343262
 30
0.0
 40
0.2561811023622051
  0
CIRCLE
  5
106
330
1F
100
AcDbEntity
  8
0
  6
Continuous
 62
     7
370
    18
100
AcDbCircle
 10
3.369526649
 20
4.148343262
 30
0.0
 40
0.2511811023622044
  0
DIMENSION
  5
107
330
1F
100
AcDbEntity
  8
0
  6
Continuous
 62
     7
370
    18
100
AcDbDimension
  2
_D
 10
1.5533849167
 20
5.288343262
 30
0.0
 11
1.5533849167
 21
4.288343262
 31
0.0
 70
   160
  1
<>
 71
     2
 42
-1.0
  3
SLDDIMSTYLE0
100
AcDbAlignedDimension
 13
2.419526649
 23
3.288343262
 33
0.0
 14
2.419526649
 24
5.288343262
 34
0.0
 50
90.0
100
AcDbRotatedDimension
  0
DIMENSION
  5
11C
330
1F
100
AcDbEntity
  8
0
  6
Continuous
 62
     7
370
    18
100
AcDbDimension
  2
_D_1
 10
4.319526649
 20
2.9891240628
 30
0.0
 11
3.369526649
 21
2.9891240628
 31
0.0
 70
   160
  1
<>
 71
     2
 42
-1.0
  3
SLDDIMSTYLE0
100
AcDbAlignedDimension
 13
2.419526649
 23
3.288343262
 33
0.0
 14
4.319526649
 24
3.288343262
 34
0.0
100
AcDbRotatedDimension
  0
DIMENSION
  5
130
330
1F
100
AcDbEntity
  8
0
  6
Continuous
 62
     7
370
    18
100
AcDbDimension
  2
_D_2
 10
2.0258258616
 20
4.148343262
 30
0.0
 11
2.0258258616
 21
3.718343262
 31
0.0
 70
   160
  1
<>
 71
     2
 42
-1.0
  3
SLDDIMSTYLE1
100
AcDbAlignedDimension
 13
2.419526649
 23
3.288343262
 33
0.0
 14
3.319526649
 24
4.148343262
 34
0.0
 50
90.0
100
AcDbRotatedDimension
  0
INSERT
  5
14A
102
{ACAD_REACTORS
330
14C
102
}
330
1F
100
AcDbEntity
  8
0
  6
Continuous
 62
     7
370
     0
100
AcDbBlockReference
  2
SW_NOTE_4
 10
5.0216443587
 20
4.7146743718
 30
0.0
  0
LEADER
  5
14C
330
1F
100
AcDbEntity
  8
0
  6
Continuous
 62
     7
370
     0
100
AcDbLeader
  3
SLDDIMSTYLE2
 73
     2
 76
     3
 10
4.319526649
 20
4.288343262
 30
0.0
 10
4.7755813666
 20
4.7146743718
 30
0.0
 10
5.0216443587
 20
4.7146743718
 30
0.0
340
14A
  0
INSERT
  5
152
102
{ACAD_REACTORS
330
153
102
}
330
1F
100
AcDbEntity
  8
0
  6
Continuous
 62
     7
370
     0
100
AcDbBlockReference
  2
SW_NOTE_5
 10
5.0216443587
 20
3.4253618517
 30
0.0
  0
LEADER
  5
153
330
1F
100
AcDbEntity
  8
0
  6
Continuous
 62
     7
370
     0
100
AcDbLeader
  3
SLDDIMSTYLE2
 73
     2
 76
     3
 10
3.61845344
 20
4.1252034107
 30
0.0
 10
4.7755813666
 20
3.4253618517
 30
0.0
 10
5.0216443587
 20
3.4253618517
 30
0.0
340
152
  0
INSERT
  5
159
102
{ACAD_REACTORS
330
15A
102
}
330
1F
100
AcDbEntity
  8
0
  6
Continuous
 62
     7
370
     0
100
AcDbBlockReference
  2
SW_NOTE_6
 10
4.5228032051
 20
6.1766626759
 30
0.0
  0
LEADER
  5
15A
330
1F
100
AcDbEntity
  8
0
  6
Continuous
 62
     7
370
     0
100
AcDbLeader
  3
SLDDIMSTYLE2
 73
     2
 76
     3
 10
3.430713293
 20
5.1580429408
 30
0.0
 10
4.276740213
 20
6.1766626759
 30
0.0
 10
4.5228032051
 20
6.1766626759
 30
0.0
340
159
  0
INSERT
  5
162
330
1F
100
AcDbEntity
  8
0
  6
Continuous
 62
     7
370
     0
100
AcDbBlockReference
  2
SW_CENTERMARKSYMBOL_0
 10
3.369526649
 20
4.148343262
 30
0.0
  0
LINE
  5
163
330
1F
100
AcDbEntity
  8
0
  6
Continuous
 62
     7
370
    18
100
AcDbLine
 10
7.4158879962
 20
4.9302013938
 30
0.0
 11
7.4160129962
 21
4.9302013938
 31
0.0
  0
LINE
  5
164
330
1F
100
AcDbEntity
  8
0
  6
Continuous
 62
     7
370
    18
100
AcDbLine
 10
7.4160129962
 20
4.9585366265
 30
0.0
 11
7.4158879962
 21
4.9585366265
 31
0.0
  0
ARC
  5
165
330
1F
100
AcDbEntity
  8
0
  6
Continuous
 62
     7
370
    18
100
AcDbCircle
 10
7.2941379962
 20
3.436093117
 30
0.0
 40
0.09375
100
AcDbArc
 50
93.8225537293
 51
180.0
  0
ARC
  5
166
330
1F
100
AcDbEntity
  8
0
  6
Continuous
 62
     7
370
    18
100
AcDbCircle
 10
7.2941379962
 20
3.436093117
 30
0.0
 40
0.0937500000000001
100
AcDbArc
 50
180.0
 51
266.1774462707
  0
ARC
  5
167
330
1F
100
AcDbEntity
  8
0
  6
Continuous
 62
     7
370
    18
100
AcDbCircle
 10
7.2941379962
 20
5.087593262
 30
0.0
 40
0.0937500000000002
100
AcDbArc
 50
183.114537996
 51
266.1774462707
  0
ARC
  5
168
330
1F
100
AcDbEntity
  8
0
  6
Continuous
 62
     7
370
    18
100
AcDbCircle
 10
7.2941379962
 20
5.087593262
 30
0.0
 40
0.0937499999999993
100
AcDbArc
 50
93.8225537293
 51
183.114537996
  0
LINE
  5
169
330
1F
100
AcDbEntity
  8
0
  6
Continuous
 62
     7
370
    18
100
AcDbLine
 10
7.2878879932
 20
3.288343274
 30
0.0
 11
7.4158879962
 21
3.288343274
 31
0.0
  0
LINE
  5
16A
330
1F
100
AcDbEntity
  8
0
  6
Continuous
 62
     7
370
    18
100
AcDbLine
 10
7.2878879932
 20
3.288343274
 30
0.0
 11
7.2878879932
 21
5.2883432499
 31
0.0
  0
LINE
  5
16B
330
1F
100
AcDbEntity
  8
0
  6
Continuous
 62
     7
370
    18
100
AcDbLine
 10
7.4158879962
 20
5.1603432285
 30
0.0
 11
7.2878879932
 21
5.2883432499
 31
0.0
  0
LINE
  5
16C
330
1F
100
AcDbEntity
  8
0
  6
Continuous
 62
     7
370
    18
100
AcDbLine
 10
7.4158879962
 20
3.288343274
 30
0.0
 11
7.4158879962
 21
5.1603432285
 31
0.0
  0
DIMENSION
  5
16D
330
1F
100
AcDbEntity
  8
0
  6
Continuous
 62
     7
370
    18
100
AcDbDimension
  2
_D_3
 10
7.4158879962
 20
5.160343262
 30
0.0
 11
7.0123604087
 21
6.1345450365
 31
0.0
 70
   162
  1
<>
 71
     1
 42
-1.0
  3
SLDDIMSTYLE3
100
AcDb2LineAngularDimension
 13
7.2878879962
 23
5.288343262
 33
0.0
 14
7.4158879962
 24
5.160343262
 34
0.0
 15
7.4158879962
 25
3.288343262
 35
0.0
 16
7.2541069296
 26
6.2023271859
 36
0.0
  0
DIMENSION
  5
179
330
1F
100
AcDbEntity
  8
0
  6
Continuous
 62
     7
370
    18
100
AcDbDimension
  2
_D_4
 10
7.2878879962
 20
3.1036276416
 30
0.0
 11
6.645421039
 21
3.1036276416
 31
0.0
 70
   160
  1
<>
 71
     2
 42
-1.0
  3
SLDDIMSTYLE4
100
AcDbAlignedDimension
 13
7.4158879962
 23
3.288343262
 33
0.0
 14
7.2878879962
 24
3.288343262
 34
0.0
100
AcDbRotatedDimension
  0
LINE
  5
18E
330
1F
100
AcDbEntity
  8
0
  6
Continuous
 62
     7
370
    18
100
AcDbLine
 10
10.5074778074
 20
6.1381460791
 30
0.0
 11
10.5083616908
 21
6.1386563342
 31
0.0
  0
LINE
  5
18F
330
1F
100
AcDbEntity
  8
0
  6
Continuous
 62
     7
370
    18
100
AcDbLine
 10
9.8752648407
 20
6.5039086985
 30
0.0
 11
9.8761487242
 21
6.5044189536
 31
0.0
  0
LINE
  5
190
330
1F
100
AcDbEntity
  8
0
  6
Continuous
 62
     7
370
    18
100
AcDbLine
 10
9.8769617624
 20
6.470987601
 30
0.0
 11
9.8778456459
 21
6.4714978561
 31
0.0
  0
LINE
  5
191
330
1F
100
AcDbEntity
  8
0
  6
Continuous
 62
     7
370
    18
100
AcDbLine
 10
9.7868572403
 20
6.5530630315
 30
0.0
 11
9.7859733568
 21
6.5525527764
 31
0.0
  0
LINE
  5
192
330
1F
100
AcDbEntity
  8
0
  6
Continuous
 62
     7
370
    18
100
AcDbLine
 10
9.7616564436
 20
6.5676340749
 30
0.0
 11
9.7607725601
 21
6.5671238198
 31
0.0
  0
LINE
  5
193
330
1F
100
AcDbEntity
  8
0
  6
Continuous
 62
     7
370
    18
100
AcDbLine
 10
9.7175063829
 20
6.5930984293
 30
0.0
 11
9.7166224994
 21
6.5925881742
 31
0.0
  0
LINE
  5
194
330
1F
100
AcDbEntity
  8
0
  6
Continuous
 62
     7
370
    18
100
AcDbLine
 10
9.6923055862
 20
6.6076694726
 30
0.0
 11
9.6914217027
 21
6.6071592176
 31
0.0
  0
LINE
  5
195
330
1F
100
AcDbEntity
  8
0
  6
Continuous
 62
     7
370
    18
100
AcDbLine
 10
9.6457480741
 20
6.6523937582
 30
0.0
 11
9.6448641906
 21
6.6518835031
 31
0.0
  0
LINE
  5
196
330
1F
100
AcDbEntity
  8
0
  6
Continuous
 62
     7
370
    18
100
AcDbLine
 10
9.6586918817
 20
6.5962677374
 30
0.0
 11
9.6595757652
 21
6.5967779925
 31
0.0
  0
LINE
  5
197
330
1F
100
AcDbEntity
  8
0
  6
Continuous
 62
     7
370
    18
100
AcDbLine
 10
9.574083616
 20
6.6698583522
 30
0.0
 11
9.5731997325
 21
6.6693480972
 31
0.0
  0
LINE
  5
198
330
1F
100
AcDbEntity
  8
0
  6
Continuous
 62
     7
370
    18
100
AcDbLine
 10
9.5900836754
 20
6.6360003474
 30
0.0
 11
9.5909675589
 21
6.6365106025
 31
0.0
  0
LINE
  5
199
330
1F
100
AcDbEntity
  8
0
  6
Continuous
 62
     7
370
    18
100
AcDbLine
 10
9.5001093681
 20
6.7125627765
 30
0.0
 11
9.4992254846
 21
6.7120525215
 31
0.0
  0
LINE
  5
19A
330
1F
100
AcDbEntity
  8
0
  6
Continuous
 62
     7
370
    18
100
AcDbLine
 10
9.5161094276
 20
6.6787047717
 30
0.0
 11
9.516993311
 21
6.6792150268
 31
0.0
  0
LINE
  5
19B
330
1F
100
AcDbEntity
  8
0
  6
Continuous
 62
     7
370
    18
100
AcDbLine
 10
9.4417550216
 20
6.7460439159
 30
0.0
 11
9.4426389051
 21
6.7465541709
 31
0.0
  0
LINE
  5
19C
330
1F
100
AcDbEntity
  8
0
  6
Continuous
 62
     7
370
    18
100
AcDbLine
 10
9.4304423823
 20
6.7762030476
 30
0.0
 11
9.4295584988
 21
6.7756927925
 31
0.0
  0
LINE
  5
19D
330
1F
100
AcDbEntity
  8
0
  6
Continuous
 62
     7
370
    18
100
AcDbLine
 10
9.4317631288
 20
6.7303266636
 30
0.0
 11
9.4308792453
 21
6.7298164085
 31
0.0
  0
SPLINE
  5
19E
330
1F
100
AcDbEntity
  8
0
  6
Continuous
 62
     7
370
    18
100
AcDbSpline
210
0.0
220
0.0
230
1.0
 70
     8
 71
     3
 72
    23
 73
    19
 74
     0
 42
0.000000001
 43
0.00000001
 40
0.0
 40
0.0
 40
0.0
 40
0.0
 40
0.0579411468644319
 40
0.1160101600015107
 40
0.1747221415238396
 40
0.2342052521829411
 40
0.2968623103841376
 40
0.3640922896711076
 40
0.4362187363142911
 40
0.5137329173488079
 40
0.5564459463267121
 40
0.604322896592816
 40
0.6574174460759841
 40
0.7157688753522277
 40
0.7788540302343855
 40
0.847511002364807
 40
0.9212332996991655
 40
1.0
 40
1.0
 40
1.0
 40
1.0
 10
9.456897600254749
 20
6.75253327019492
 30
0.0
 10
9.456881389487352
 20
6.751855700123157
 30
0.0
 10
9.456848932178147
 20
6.750499064697536
 30
0.0
 10
9.456584815836067
 20
6.748598668175726
 30
0.0
 10
9.456163866348264
 20
6.746807927096268
 30
0.0
 10
9.455566807503763
 20
6.745119272511797
 30
0.0
 10
9.454757449155032
 20
6.743542723757513
 30
0.0
 10
9.453743490745243
 20
6.742036470914004
 30
0.0
 10
9.45248801129562
 20
6.740636183187285
 30
0.0
 10
9.451284661565213
 20
6.739522056261121
 30
0.0
 10
9.450162960249395
 20
6.738655267284245
 30
0.0
 10
9.449160387066755
 20
6.737984834177828
 30
0.0
 10
9.448014699672184
 20
6.737298819643482
 30
0.0
 10
9.446729568079869
 20
6.736599581776598
 30
0.0
 10
9.4452988568729
 20
6.73589384315932
 30
0.0
 10
9.443741112000442
 20
6.735151760770594
 30
0.0
 10
9.442027060175583
 20
6.734423118435578
 30
0.0
 10
9.440836870903516
 20
6.733936797714179
 30
0.0
 10
9.440222090275746
 20
6.733685593502029
 30
0.0
  0
SPLINE
  5
19F
330
1F
100
AcDbEntity
  8
0
  6
Continuous
 62
     7
370
    18
100
AcDbSpline
210
0.0
220
0.0
230
1.0
 70
     8
 71
     3
 72
    23
 73
    19
 74
     0
 42
0.000000001
 43
0.00000001
 40
0.0
 40
0.0
 40
0.0
 40
0.0
 40
0.0746990601627196
 40
0.1455142091831453
 40
0.2133024209091377
 40
0.278567227460936
 40
0.3420354497055247
 40
0.4042008078067764
 40
0.4653635792336849
 40
0.5268663994662192
 40
0.587607564346273
 40
0.6466495451034467
 40
0.7046044435732217
 40
0.7621190800210087
 40
0.8194488701009592
 40
0.8780603438614819
 40
0.9378061912751064
 40
1.0
 40
1.0
 40
1.0
 40
1.0
 10
9.438404038285254
 20
6.782368315634816
 30
0.0
 10
9.439099052558664
 20
6.781953344457199
 30
0.0
 10
9.440452944456982
 20
6.781144978158972
 30
0.0
 10
9.442425818982525
 20
6.779732196337927
 30
0.0
 10
9.444287144617297
 20
6.778230799007796
 30
0.0
 10
9.446044370888222
 20
6.776622582971546
 30
0.0
 10
9.447688163533606
 20
6.774889431235759
 30
0.0
 10
9.449224144252772
 20
6.773058216111815
 30
0.0
 10
9.450647472609793
 20
6.771115507716724
 30
0.0
 10
9.451938741020172
 20
6.769077368971073
 30
0.0
 10
9.453103434798377
 20
6.766993291791975
 30
0.0
 10
9.454121753055292
 20
6.764897636935689
 30
0.0
 10
9.454982894446074
 20
6.762807475957588
 30
0.0
 10
9.455681610007368
 20
6.760729359191122
 30
0.0
 10
9.45623312028716
 20
6.758655963098255
 30
0.0
 10
9.456607228202772
 20
6.756600773775645
 30
0.0
 10
9.45686569918754
 20
6.754531036544744
 30
0.0
 10
9.45688682519616
 20
6.753208045409355
 30
0.0
 10
9.456897600254749
 20
6.75253327019492
 30
0.0
  0
SPLINE
  5
1A0
330
1F
100
AcDbEntity
  8
0
  6
Continuous
 62
     7
370
    18
100
AcDbSpline
210
0.0
220
0.0
230
1.0
 70
     8
 71
     3
 72
    23
 73
    19
 74
     0
 42
0.000000001
 43
0.00000001
 40
0.0
 40
0.0
 40
0.0
 40
0.0
 40
0.0706767817247838
 40
0.1374955954707304
 40
0.2014770772266693
 40
0.2628748693297376
 40
0.322556893578125
 40
0.3809762864578233
 40
0.4385150871552032
 40
0.4960860063759591
 40
0.553494619961451
 40
0.6117147729093011
 40
0.670636788125628
 40
0.7315812838711654
 40
0.7941788502708099
 40
0.8594421456840264
 40
0.9282061203037758
 40
1.0
 40
1.0
 40
1.0
 40
1.0
 10
9.419139911233698
 20
6.773913216924371
 30
0.0
 10
9.41921874149178
 20
6.774643217080405
 30
0.0
 10
9.41937209897371
 20
6.77606336955054
 30
0.0
 10
9.419754268482473
 20
6.77802769069668
 30
0.0
 10
9.420290150894957
 20
6.779751445257436
 30
0.0
 10
9.42093357673912
 20
6.781287372680182
 30
0.0
 10
9.421733284555312
 20
6.782585122242676
 30
0.0
 10
9.422665691738548
 20
6.783663675801554
 30
0.0
 10
9.42371287936931
 20
6.78455192929104
 30
0.0
 10
9.424913137388963
 20
6.785172910812602
 30
0.0
 10
9.426219815501838
 20
6.785599824266566
 30
0.0
 10
9.427645846860429
 20
6.785786265323821
 30
0.0
 10
9.429175448274947
 20
6.785775096738217
 30
0.0
 10
9.430813332603995
 20
6.785535664644502
 30
0.0
 10
9.432559976496416
 20
6.785068076565156
 30
0.0
 10
9.434412346298608
 20
6.784385430768261
 30
0.0
 10
9.43637262714676
 20
6.783492421424581
 30
0.0
 10
9.437717239622794
 20
6.782748363936337
 30
0.0
 10
9.438404038285254
 20
6.782368315634816
 30
0.0
  0
LINE
  5
1A1
330
1F
100
AcDbEntity
  8
0
  6
Continuous
 62
     7
370
    18
100
AcDbLine
 10
9.4268455621
 20
6.7685750193
 30
0.0
 11
9.4191399112
 21
6.7739132169
 31
0.0
  0
SPLINE
  5
1A2
330
1F
100
AcDbEntity
  8
0
  6
Continuous
 62
     7
370
    18
100
AcDbSpline
210
0.0
220
0.0
230
1.0
 70
     8
 71
     3
 72
    23
 73
    19
 74
     0
 42
0.000000001
 43
0.00000001
 40
0.0
 40
0.0
 40
0.0
 40
0.0
 40
0.0706879982102768
 40
0.1383416071740405
 40
0.2033454594014821
 40
0.2656683234700652
 40
0.3265875501582759
 40
0.3861242880926969
 40
0.4448968030791999
 40
0.5042045303178911
 40
0.5632784548307544
 40
0.6214196677827208
 40
0.6802431784534244
 40
0.7398263871153065
 40
0.80082507123057
 40
0.8642557558278195
 40
0.9306394239675699
 40
1.0
 40
1.0
 40
1.0
 40
1.0
 10
9.438235477173553
 20
6.774457242853688
 30
0.0
 10
9.437817704668795
 20
6.774687310176614
 30
0.0
 10
9.437000093175975
 20
6.775137568834628
 30
0.0
 10
9.435804773123758
 20
6.775670165265172
 30
0.0
 10
9.434670741342607
 20
6.776082270125038
 30
0.0
 10
9.433600979341612
 20
6.776337298797742
 30
0.0
 10
9.432603136483158
 20
6.776432490681741
 30
0.0
 10
9.43165452456252
 20
6.776432106313126
 30
0.0
 10
9.430780330059836
 20
6.776259820335111
 30
0.0
 10
9.429979533141449
 20
6.775941705043858
 30
0.0
 10
9.429238306137178
 20
6.775517764447254
 30
0.0
 10
9.428612570723619
 20
6.774916004244532
 30
0.0
 10
9.428061370649097
 20
6.774208134597977
 30
0.0
 10
9.427635990227202
 20
6.773329145111491
 30
0.0
 10
9.427280317361348
 20
6.772346578356139
 30
0.0
 10
9.427026785702742
 20
6.77122132664257
 30
0.0
 10
9.426887674942808
 20
6.769949745459169
 30
0.0
 10
9.426859803427103
 20
6.769039912299589
 30
0.0
 10
9.426845562054321
 20
6.768575019276487
 30
0.0
  0
SPLINE
  5
1A3
330
1F
100
AcDbEntity
  8
0
  6
Continuous
 62
     7
370
    18
100
AcDbSpline
210
0.0
220
0.0
230
1.0
 70
     8
 71
     3
 72
    23
 73
    19
 74
     0
 42
0.000000001
 43
0.00000001
 40
0.0
 40
0.0
 40
0.0
 40
0.0
 40
0.0617499482833057
 40
0.1211500402704788
 40
0.1793859407142494
 40
0.2367966179648673
 40
0.2942636170183557
 40
0.3531211477700185
 40
0.4132116206465783
 40
0.4750008486832696
 40
0.5375230809498751
 40
0.6000453132164856
 40
0.6624596554419343
 40
0.7260040706795327
 40
0.7903578941347811
 40
0.8577524244976187
 40
0.9272463363904403
 40
1.0
 40
1.0
 40
1.0
 40
1.0
 10
9.449191949434127
 20
6.756898227091456
 30
0.0
 10
9.449183583930502
 20
6.757293123370312
 30
0.0
 10
9.449167171267344
 20
6.758067888393049
 30
0.0
 10
9.449011416386938
 20
6.759277785663239
 30
0.0
 10
9.448794664079623
 20
6.760481543375815
 30
0.0
 10
9.448443969178783
 20
6.76170157259839
 30
0.0
 10
9.448027472105544
 20
6.762929728205583
 30
0.0
 10
9.447487827423291
 20
6.764166930171108
 30
0.0
 10
9.44687699389572
 20
6.76541817515162
 30
0.0
 10
9.446163392624916
 20
6.766654629191555
 30
0.0
 10
9.445389403922114
 20
6.767874168292838
 30
0.0
 10
9.444527916491083
 20
6.76901720948678
 30
0.0
 10
9.443619430383505
 20
6.770105140817105
 30
0.0
 10
9.442656058232297
 20
6.771120560467491
 30
0.0
 10
9.441630551933864
 20
6.772061940296833
 30
0.0
 10
9.440550120453976
 20
6.77293039518422
 30
0.0
 10
9.43941082353288
 20
6.773745961923114
 30
0.0
 10
9.438633199316943
 20
6.774216554503386
 30
0.0
 10
9.438235477173553
 20
6.774457242853688
 30
0.0
  0
SPLINE
  5
1A4
330
1F
100
AcDbEntity
  8
0
  6
Continuous
 62
     7
370
    18
100
AcDbSpline
210
0.0
220
0.0
230
1.0
 70
     8
 71
     3
 72
    23
 73
    19
 74
     0
 42
0.000000001
 43
0.00000001
 40
0.0
 40
0.0
 40
0.0
 40
0.0
 40
0.1114069722005864
 40
0.2145211916453912
 40
0.309409760521903
 40
0.3960776348968162
 40
0.4742727739618119
 40
0.5443607482092239
 40
0.6064049324812074
 40
0.660565665345594
 40
0.7097766937535565
 40
0.7560555340500273
 40
0.8007645578783295
 40
0.8431644975605274
 40
0.884290085959464
 40
0.923448912493093
 40
0.9623596182637248
 40
1.0
 40
1.0
 40
1.0
 40
1.0
 10
9.433034162869632
 20
6.74202003089973
 30
0.0
 10
9.433807528311247
 20
6.742325245596194
 30
0.0
 10
9.435296692524542
 20
6.742912955854356
 30
0.0
 10
9.437399626915434
 20
6.743846744230983
 30
0.0
 10
9.439320311061527
 20
6.744732301174842
 30
0.0
 10
9.4410281781787
 20
6.745622215144824
 30
0.0
 10
9.442537138602727
 20
6.746490301067849
 30
0.0
 10
9.443850920664557
 20
6.747330339721547
 30
0.0
 10
9.444980246825757
 20
6.748131549468397
 30
0.0
 10
9.445913130589556
 20
6.74895220632176
 30
0.0
 10
9.446694045924604
 20
6.749784580307921
 30
0.0
 10
9.447372051159217
 20
6.750637914603073
 30
0.0
 10
9.447916331877792
 20
6.751573583515929
 30
0.0
 10
9.448383406526819
 20
6.752535223541305
 30
0.0
 10
9.448745767345695
 20
6.753543576980285
 30
0.0
 10
9.449000787304605
 20
6.754611065897005
 30
0.0
 10
9.449165580868494
 20
6.755716311680945
 30
0.0
 10
9.449183257691365
 20
6.756508638030851
 30
0.0
 10
9.449191949434127
 20
6.756898227091456
 30
0.0
  0
SPLINE
  5
1A5
330
1F
100
AcDbEntity
  8
0
  6
Continuous
 62
     7
370
    18
100
AcDbSpline
210
0.0
220
0.0
230
1.0
 70
     8
 71
     3
 72
    19
 73
    15
 74
     0
 42
0.000000001
 43
0.00000001
 40
0.0
 40
0.0
 40
0.0
 40
0.0
 40
0.1003979870776413
 40
0.2039449444496903
 40
0.310974052816964
 40
0.4224561943354772
 40
0.4809901004231605
 40
0.5431933649474934
 40
0.6094612125659432
 40
0.6795231862930169
 40
0.753817084023963
 40
0.8316241673810527
 40
0.9138042553895507
 40
0.9999999999999999
 40
0.9999999999999999
 40
0.9999999999999999
 40
0.9999999999999999
 10
9.41917603147192
 20
6.730235565737159
 30
0.0
 10
9.419430571464053
 20
6.730902019190163
 30
0.0
 10
9.419947635063306
 20
6.73225582932528
 30
0.0
 10
9.42100701672939
 20
6.734031614866045
 30
0.0
 10
9.422249695381051
 20
6.735687172544618
 30
0.0
 10
9.423454921463778
 20
6.736932228627282
 30
0.0
 10
9.424560062022291
 20
6.737832771561434
 30
0.0
 10
9.425471822028689
 20
6.738524380032252
 30
0.0
 10
9.426498773608685
 20
6.739162714757178
 30
0.0
 10
9.42762234569927
 20
6.739780347804876
 30
0.0
 10
9.428835675743189
 20
6.740381343711667
 30
0.0
 10
9.43013872924161
 20
6.740971778481063
 30
0.0
 10
9.431547384159165
 20
6.741516968174451
 30
0.0
 10
9.43253075239697
 20
6.741849698191487
 30
0.0
 10
9.433034162869632
 20
6.74202003089973
 30
0.0
  0
SPLINE
  5
1A6
330
1F
100
AcDbEntity
  8
0
  6
Continuous
 62
     7
370
    18
100
AcDbSpline
210
0.0
220
0.0
230
1.0
 70
     8
 71
     3
 72
    11
 73
     7
 74
     0
 42
0.000000001
 43
0.00000001
 40
0.0
 40
0.0
 40
0.0
 40
0.0
 40
0.2526501895044204
 40
0.5022501643010268
 40
0.7504000252034044
 40
1.0
 40
1.0
 40
1.0
 40
1.0
 10
9.418369346151636
 20
6.724528128208683
 30
0.0
 10
9.418368277634915
 20
6.725057628021537
 30
0.0
 10
9.418366153501548
 20
6.726110235061035
 30
0.0
 10
9.418524084845169
 20
6.727580123731925
 30
0.0
 10
9.418762085367751
 20
6.728984524863035
 30
0.0
 10
9.41903778170492
 20
6.729817742963585
 30
0.0
 10
9.41917603147192
 20
6.730235565737159
 30
0.0
  0
LINE
  5
1A7
330
1F
100
AcDbEntity
  8
0
  6
Continuous
 62
     7
370
    18
100
AcDbLine
 10
9.4576681653
 20
6.7018414028
 30
0.0
 11
9.4183693462
 21
6.7245281282
 31
0.0
  0
LINE
  5
1A8
330
1F
100
AcDbEntity
  8
0
  6
Continuous
 62
     7
370
    18
100
AcDbLine
 10
9.4576681653
 20
6.7107396039
 30
0.0
 11
9.4576681653
 21
6.7018414028
 31
0.0
  0
LINE
  5
1A9
330
1F
100
AcDbEntity
  8
0
  6
Continuous
 62
     7
370
    18
100
AcDbLine
 10
9.4282662914
 20
6.7277129445
 30
0.0
 11
9.4576681653
 21
6.7107396039
 31
0.0
  0
SPLINE
  5
1AA
330
1F
100
AcDbEntity
  8
0
  6
Continuous
 62
     7
370
    18
100
AcDbSpline
210
0.0
220
0.0
230
1.0
 70
     8
 71
     3
 72
    17
 73
    13
 74
     0
 42
0.000000001
 43
0.00000001
 40
0.0
 40
0.0
 40
0.0
 40
0.0
 40
0.1242120814447472
 40
0.2373239094363998
 40
0.3395283395232217
 40
0.431296031844558
 40
0.5115054068527518
 40
0.5812109484595631
 40
0.6400004863247595
 40
0.6878180933733984
 40
0.8508973910548995
 40
1.0
 40
1.0
 40
1.0
 40
1.0
 10
9.440222090275746
 20
6.733685593502029
 30
0.0
 10
9.43969460636477
 20
6.733496630517337
 30
0.0
 10
9.438686777315763
 20
6.733135591287138
 30
0.0
 10
9.437272087575472
 20
6.7325655278589
 30
0.0
 10
9.43597950700084
 20
6.732075609374459
 30
0.0
 10
9.434826669256267
 20
6.731635791150601
 30
0.0
 10
9.433819874477871
 20
6.731229448894484
 30
0.0
 10
9.432972489191295
 20
6.730836906192282
 30
0.0
 10
9.432245591014397
 20
6.730525922810621
 30
0.0
 10
9.431159031901865
 20
6.730003521407253
 30
0.0
 10
9.429776857677288
 20
6.729174659282705
 30
0.0
 10
9.42875455704286
 20
6.728185419666921
 30
0.0
 10
9.428266291424373
 20
6.727712944470714
 30
0.0
  0
SPLINE
  5
1AB
330
1F
100
AcDbEntity
  8
0
  6
Continuous
 62
     7
370
    18
100
AcDbSpline
210
0.0
220
0.0
230
1.0
 70
     8
 71
     3
 72
    15
 73
    11
 74
     0
 42
0.000000001
 43
0.00000001
 40
0.0
 40
0.0
 40
0.0
 40
0.0
 40
0.1324702944791563
 40
0.2616666311771803
 40
0.3875720710229674
 40
0.5110290449571765
 40
0.632651311927356
 40
0.7546442917994715
 40
0.8765146957733942
 40
1.0
 40
1.0
 40
1.0
 40
1.0
 10
9.527789587804477
 20
6.685163855339133
 30
0.0
 10
9.527776070530152
 20
6.684401635143045
 30
0.0
 10
9.527749370056288
 20
6.682896032760943
 30
0.0
 10
9.527526688769225
 20
6.68078383900603
 30
0.0
 10
9.527169336847253
 20
6.678826876988616
 30
0.0
 10
9.526658055680267
 20
6.677046267024353
 30
0.0
 10
9.526023571786016
 20
6.675405911003149
 30
0.0
 10
9.525219697783623
 20
6.673957219392783
 30
0.0
 10
9.524300622752039
 20
6.672630934063164
 30
0.0
 10
9.523562013043199
 20
6.671913190514807
 30
0.0
 10
9.523190277470917
 20
6.671551956691978
 30
0.0
  0
SPLINE
  5
1AC
330
1F
100
AcDbEntity
  8
0
  6
Continuous
 62
     7
370
    18
100
AcDbSpline
210
0.0
220
0.0
230
1.0
 70
     8
 71
     3
 72
    23
 73
    19
 74
     0
 42
0.000000001
 43
0.00000001
 40
0.0
 40
0.0
 40
0.0
 40
0.0
 40
0.0619947470624109
 40
0.1220826922400536
 40
0.1813674937318418
 40
0.2394976858916857
 40
0.2978228615406394
 40
0.3566433919048761
 40
0.4170426431207698
 40
0.479398539506079
 40
0.5422554887298446
 40
0.6048200847029737
 40
0.6670423163124137
 40
0.7302648013147095
 40
0.794218665103304
 40
0.8604160236039574
 40
0.9285812581783045
 40
1.0
 40
1.0
 40
1.0
 40
1.0
 10
9.510150871472895
 20
6.71781442745111
 30
0.0
 10
9.510757720558066
 20
6.717445734155592
 30
0.0
 10
9.511952753582824
 20
6.716719687639386
 30
0.0
 10
9.51371373338352
 20
6.715406108772217
 30
0.0
 10
9.515397304407257
 20
6.713929581834789
 30
0.0
 10
9.517017719815488
 20
6.712316087705592
 30
0.0
 10
9.518547804550252
 20
6.710529113946519
 30
0.0
 10
9.52001996694169
 20
6.708607389829745
 30
0.0
 10
9.521405045090688
 20
6.706515928221819
 30
0.0
 10
9.52270915171972
 20
6.704299414931102
 30
0.0
 10
9.523901260878754
 20
6.701991195354468
 30
0.0
 10
9.524934344125395
 20
6.699637539813398
 30
0.0
 10
9.52582427260401
 20
6.69726052994272
 30
0.0
 10
9.52654524565163
 20
6.694868331917419
 30
0.0
 10
9.52710217274633
 20
6.6924546592375
 30
0.0
 10
9.527493303293951
 20
6.690031277010954
 30
0.0
 10
9.527741943016785
 20
6.687576384706935
 30
0.0
 10
9.527773461326012
 20
6.685980431606547
 30
0.0
 10
9.527789587804477
 20
6.685163855339133
 30
0.0
  0
SPLINE
  5
1AD
330
1F
100
AcDbEntity
  8
0
  6
Continuous
 62
     7
370
    18
100
AcDbSpline
210
0.0
220
0.0
230
1.0
 70
     8
 71
     3
 72
    15
 73
    11
 74
     0
 42
0.000000001
 43
0.00000001
 40
0.0
 40
0.0
 40
0.0
 40
0.0
 40
0.1367249672973545
 40
0.268506208012106
 40
0.3955165764289195
 40
0.5190328991683807
 40
0.6405081366651236
 40
0.7612438456226497
 40
0.8801106056901655
 40
1.0
 40
1.0
 40
1.0
 40
1.0
 10
9.499435200800468
 20
6.719370607168512
 30
0.0
 10
9.499860397092332
 20
6.719493529548479
 30
0.0
 10
9.500695415350124
 20
6.71973492965833
 30
0.0
 10
9.501997565111667
 20
6.719931382643178
 30
0.0
 10
9.503316308804225
 20
6.71996392092854
 30
0.0
 10
9.504644711160223
 20
6.719861526363096
 30
0.0
 10
9.506001188202013
 20
6.71957848141103
 30
0.0
 10
9.507370961112597
 20
6.719145292103835
 30
0.0
 10
9.508756002645523
 20
6.718584251136981
 30
0.0
 10
9.50968458943073
 20
6.718071767032662
 30
0.0
 10
9.510150871472895
 20
6.71781442745111
 30
0.0
  0
LINE
  5
1AE
330
1F
100
AcDbEntity
  8
0
  6
Continuous
 62
     7
370
    18
100
AcDbLine
 10
9.502493381
 20
6.7355823044
 30
0.0
 11
9.4994352008
 21
6.7193706072
 31
0.0
  0
LINE
  5
1AF
330
1F
100
AcDbEntity
  8
0
  6
Continuous
 62
     7
370
    18
100
AcDbLine
 10
9.5247073275
 20
6.722758466
 30
0.0
 11
9.502493381
 21
6.7355823044
 31
0.0
  0
LINE
  5
1B0
330
1F
100
AcDbEntity
  8
0
  6
Continuous
 62
     7
370
    18
100
AcDbLine
 10
9.5247073275
 20
6.7316566672
 30
0.0
 11
9.5247073275
 21
6.722758466
 31
0.0
  0
LINE
  5
1B1
330
1F
100
AcDbEntity
  8
0
  6
Continuous
 62
     7
370
    18
100
AcDbLine
 10
9.4961964194
 20
6.748115664
 30
0.0
 11
9.5247073275
 21
6.7316566672
 31
0.0
  0
LINE
  5
1B2
330
1F
100
AcDbEntity
  8
0
  6
Continuous
 62
     7
370
    18
100
AcDbLine
 10
9.4900318988
 20
6.7160815614
 30
0.0
 11
9.4961964194
 21
6.748115664
 31
0.0
  0
LINE
  5
1B3
330
1F
100
AcDbEntity
  8
0
  6
Continuous
 62
     7
370
    18
100
AcDbLine
 10
9.4977375496
 20
6.7107433638
 30
0.0
 11
9.4900318988
 21
6.7160815614
 31
0.0
  0
SPLINE
  5
1B4
330
1F
100
AcDbEntity
  8
0
  6
Continuous
 62
     7
370
    18
100
AcDbSpline
210
0.0
220
0.0
230
1.0
 70
     8
 71
     3
 72
    15
 73
    11
 74
     0
 42
0.000000001
 43
0.00000001
 40
0.0
 40
0.0
 40
0.0
 40
0.0
 40
0.1478244508077165
 40
0.2844705558819983
 40
0.4123032798653925
 40
0.5337014258803899
 40
0.6521285106906445
 40
0.7687181103834145
 40
0.8836800889140406
 40
1.0
 40
1.0
 40
1.0
 40
1.0
 10
9.508019777417818
 20
6.711036300822756
 30
0.0
 10
9.507420685568897
 20
6.711361265235177
 30
0.0
 10
9.506267804632387
 20
6.711986620557237
 30
0.0
 10
9.50461458508063
 20
6.712622032026507
 30
0.0
 10
9.50311711383825
 20
6.712946699742372
 30
0.0
 10
9.50177603640192
 20
6.712957652298665
 30
0.0
 10
9.500579309008367
 20
6.712706917625595
 30
0.0
 10
9.499509221897068
 20
6.712247432402135
 30
0.0
 10
9.498535863342681
 20
6.711624791571836
 30
0.0
 10
9.49800469374113
 20
6.711038320834505
 30
0.0
 10
9.497737549604048
 20
6.710743363783894
 30
0.0
  0
SPLINE
  5
1B5
330
1F
100
AcDbEntity
  8
0
  6
Continuous
 62
     7
370
    18
100
AcDbSpline
210
0.0
220
0.0
230
1.0
 70
     8
 71
     3
 72
    23
 73
    19
 74
     0
 42
0.000000001
 43
0.00000001
 40
0.0
 40
0.0
 40
0.0
 40
0.0
 40
0.0728659334565347
 40
0.141886871964127
 40
0.2074526264147116
 40
0.2704376800000976
 40
0.3316408722476732
 40
0.3901075774931603
 40
0.4480692869488377
 40
0.5055029519245372
 40
0.5624881528337253
 40
0.6190843288847314
 40
0.6764155306922396
 40
0.7354523604507925
 40
0.7962407694486813
 40
0.8604056780892053
 40
0.9283049272851076
 40
1.0
 40
1.0
 40
1.0
 40
1.0
 10
9.520083936983854
 20
6.689083902177913
 30
0.0
 10
9.52007509126154
 20
6.689654808232036
 30
0.0
 10
9.520057866588639
 20
6.690766494727528
 30
0.0
 10
9.519912806741202
 20
6.692454556846116
 30
0.0
 10
9.519668073700853
 20
6.694104385335886
 30
0.0
 10
9.519351412061683
 20
6.695716590405843
 30
0.0
 10
9.518914933932562
 20
6.697296481008594
 30
0.0
 10
9.518397246294228
 20
6.698841023308792
 30
0.0
 10
9.51776305717964
 20
6.700344153767337
 30
0.0
 10
9.517057479941093
 20
6.701815231712679
 30
0.0
 10
9.516251621655794
 20
6.703234058974121
 30
0.0
 10
9.515334595313723
 20
6.704568654244645
 30
0.0
 10
9.514342375316835
 20
6.705846169597357
 30
0.0
 10
9.513254977337924
 20
6.707045394186844
 30
0.0
 10
9.512071761064309
 20
6.708153040869553
 30
0.0
 10
9.510804484405359
 20
6.709211308271934
 30
0.0
 10
9.509439997488576
 20
6.710170832293143
 30
0.0
 10
9.508501688880646
 20
6.710742628585808
 30
0.0
 10
9.508019777417818
 20
6.711036300822756
 30
0.0
  0
SPLINE
  5
1B6
330
1F
100
AcDbEntity
  8
0
  6
Continuous
 62
     7
370
    18
100
AcDbSpline
210
0.0
220
0.0
230
1.0
 70
     8
 71
     3
 72
    23
 73
    19
 74
     0
 42
0.000000001
 43
0.00000001
 40
0.0
 40
0.0
 40
0.0
 40
0.0
 40
0.0657969014422157
 40
0.1286687074936917
 40
0.1886640150334355
 40
0.247387865831583
 40
0.3048931163760717
 40
0.3618260165874491
 40
0.4195591944128803
 40
0.478714584800727
 40
0.5387984953904678
 40
0.5988242749803306
 40
0.6602056418727802
 40
0.7229689455157925
 40
0.7880060156074504
 40
0.8554128575646768
 40
0.9261577032060917
 40
1.0
 40
1.0
 40
1.0
 40
1.0
 10
9.507983657179595
 20
6.679913448549362
 30
0.0
 10
9.508441741700556
 20
6.679661931510219
 30
0.0
 10
9.509337545939704
 20
6.679170078981761
 30
0.0
 10
9.510641597933017
 20
6.678626643042575
 30
0.0
 10
9.511868958809467
 20
6.678273640426496
 30
0.0
 10
9.513031278253107
 20
6.678064138177585
 30
0.0
 10
9.514109985794127
 20
6.678073249148987
 30
0.0
 10
9.515101885092035
 20
6.678280693504027
 30
0.0
 10
9.516041980988001
 20
6.678622865981048
 30
0.0
 10
9.516875621632726
 20
6.679193886345094
 30
0.0
 10
9.51763422624013
 20
6.679902211805085
 30
0.0
 10
9.518289022676402
 20
6.680775207980024
 30
0.0
 10
9.518840251815574
 20
6.681795399287711
 30
0.0
 10
9.519304331172144
 20
6.682952990860502
 30
0.0
 10
9.51964701872886
 20
6.68427591033943
 30
0.0
 10
9.51989909343943
 20
6.68573829464637
 30
0.0
 10
9.520060915255831
 20
6.687340961540546
 30
0.0
 10
9.520076154254204
 20
6.688494683342334
 30
0.0
 10
9.520083936983854
 20
6.689083902177913
 30
0.0
  0
SPLINE
  5
1B7
330
1F
100
AcDbEntity
  8
0
  6
Continuous
 62
     7
370
    18
100
AcDbSpline
210
0.0
220
0.0
230
1.0
 70
     8
 71
     3
 72
    23
 73
    19
 74
     0
 42
0.000000001
 43
0.00000001
 40
0.0
 40
0.0
 40
0.0
 40
0.0
 40
0.0773613371189801
 40
0.1504798322806849
 40
0.2199772368520772
 40
0.286680996862442
 40
0.3496784941856633
 40
0.4106796250174842
 40
0.4694271135192924
 40
0.526755701427132
 40
0.5831419808348354
 40
0.6388244277786285
 40
0.6952634704038122
 40
0.7526958048985354
 40
0.8108491833348935
 40
0.871356303636084
 40
0.9344364309841287
 40
1.0
 40
1.0
 40
1.0
 40
1.0
 10
9.496966984521986
 20
6.698730719919899
 30
0.0
 10
9.49704328256254
 20
6.698185309198818
 30
0.0
 10
9.49719169411763
 20
6.69712440052158
 30
0.0
 10
9.497474508738517
 20
6.695549457131517
 30
0.0
 10
9.497841804425974
 20
6.694025933538559
 30
0.0
 10
9.498254501567738
 20
6.692565031684859
 30
0.0
 10
9.498745061744296
 20
6.691160939964315
 30
0.0
 10
9.499276587759859
 20
6.689817260291732
 30
0.0
 10
9.499903414067317
 20
6.688539430509272
 30
0.0
 10
9.50056243776795
 20
6.687315973015684
 30
0.0
 10
9.50128576663557
 20
6.686155562184974
 30
0.0
 10
9.50208038025218
 20
6.685070600106218
 30
0.0
 10
9.502924108376954
 20
6.684037168525571
 30
0.0
 10
9.503827227300395
 20
6.683068475655284
 30
0.0
 10
9.504791121157446
 20
6.682184607076122
 30
0.0
 10
9.505803522155283
 20
6.68134122385065
 30
0.0
 10
9.506877466788408
 20
6.680590771894238
 30
0.0
 10
9.507610211881781
 20
6.680142110107315
 30
0.0
 10
9.507983657179595
 20
6.679913448549362
 30
0.0
  0
LINE
  5
1B8
330
1F
100
AcDbEntity
  8
0
  6
Continuous
 62
     7
370
    18
100
AcDbLine
 10
9.4892613337
 20
6.7022892773
 30
0.0
 11
9.4969669845
 21
6.6987307199
 31
0.0
  0
SPLINE
  5
1B9
330
1F
100
AcDbEntity
  8
0
  6
Continuous
 62
     7
370
    18
100
AcDbSpline
210
0.0
220
0.0
230
1.0
 70
     8
 71
     3
 72
    23
 73
    19
 74
     0
 42
0.000000001
 43
0.00000001
 40
0.0
 40
0.0
 40
0.0
 40
0.0
 40
0.0693182087024715
 40
0.1356003304878317
 40
0.1997291161327755
 40
0.2617924716337854
 40
0.3229211796962229
 40
0.3829790997934826
 40
0.4430077312381355
 40
0.5034940989540183
 40
0.5640370581785096
 40
0.6237053491018795
 40
0.6833720888094605
 40
0.7438094697850023
 40
0.805009300874773
 40
0.8676101914670348
 40
0.9327585037206161
 40
1.0
 40
1.0
 40
1.0
 40
1.0
 10
9.507935496861966
 20
6.671932869869289
 30
0.0
 10
9.5072887078554
 20
6.672321445587394
 30
0.0
 10
9.506023458728393
 20
6.673081577690929
 30
0.0
 10
9.504170631199607
 20
6.674408270589241
 30
0.0
 10
9.50240942431738
 20
6.675837970233466
 30
0.0
 10
9.500732938226358
 20
6.67738811791734
 30
0.0
 10
9.499157096822497
 20
6.67906985397467
 30
0.0
 10
9.497659817071217
 20
6.680848038385537
 30
0.0
 10
9.496274699606154
 20
6.682761155669115
 30
0.0
 10
9.494973842199395
 20
6.684759356485943
 30
0.0
 10
9.49378414342469
 20
6.68682979300737
 30
0.0
 10
9.492729972049764
 20
6.68895053221364
 30
0.0
 10
9.4918149717939
 20
6.691104108763247
 30
0.0
 10
9.491008490209033
 20
6.693290550186579
 30
0.0
 10
9.490381504693408
 20
6.695504157764667
 30
0.0
 10
9.489856330986052
 20
6.697751427041555
 30
0.0
 10
9.489466959167073
 20
6.70003225775164
 30
0.0
 10
9.489330594201366
 20
6.701529049003937
 30
0.0
 10
9.489261333701364
 20
6.70228927733675
 30
0.0
  0
SPLINE
  5
1BA
330
1F
100
AcDbEntity
  8
0
  6
Continuous
 62
     7
370
    18
100
AcDbSpline
210
0.0
220
0.0
230
1.0
 70
     8
 71
     3
 72
    15
 73
    11
 74
     0
 42
0.000000001
 43
0.00000001
 40
0.0
 40
0.0
 40
0.0
 40
0.0
 40
0.1278829696493919
 40
0.2515595312796911
 40
0.3727646915574451
 40
0.4930749058244777
 40
0.6136192248323005
 40
0.7378284322692578
 40
0.8661899985982143
 40
1.0
 40
1.0
 40
1.0
 40
1.0
 10
9.523190277470917
 20
6.671551956691978
 30
0.0
 10
9.522718084449007
 20
6.671152441467274
 30
0.0
 10
9.521789230078555
 20
6.670366552126877
 30
0.0
 10
9.52018193245516
 20
6.669576310870362
 30
0.0
 10
9.518448617700761
 20
6.669123527466329
 30
0.0
 10
9.5165994339569
 20
6.668981784549601
 30
0.0
 10
9.51461125408181
 20
6.669202670797962
 30
0.0
 10
9.51249455582372
 20
6.669784335500988
 30
0.0
 10
9.510255885461023
 20
6.670653071571463
 30
0.0
 10
9.5087196020474
 20
6.671500400720785
 30
0.0
 10
9.507935496861966
 20
6.671932869869289
 30
0.0
  0
SPLINE
  5
1BB
330
1F
100
AcDbEntity
  8
0
  6
Continuous
 62
     7
370
    18
100
AcDbSpline
210
0.0
220
0.0
230
1.0
 70
     8
 71
     3
 72
    15
 73
    11
 74
     0
 42
0.000000001
 43
0.00000001
 40
0.0
 40
0.0
 40
0.0
 40
0.0
 40
0.1324702944791563
 40
0.2616666311771806
 40
0.3875720710229665
 40
0.5110290449571765
 40
0.6326513119273571
 40
0.7546442917994712
 40
0.876514695773394
 40
1.0
 40
1.0
 40
1.0
 40
1.0
 10
9.601763835682453
 20
6.642459431028407
 30
0.0
 10
9.60175031840813
 20
6.641697210832318
 30
0.0
 10
9.601723617934265
 20
6.640191608450215
 30
0.0
 10
9.6015009366472
 20
6.638079414695304
 30
0.0
 10
9.60114358472523
 20
6.636122452677888
 30
0.0
 10
9.600632303558244
 20
6.634341842713628
 30
0.0
 10
9.599997819663994
 20
6.632701486692422
 30
0.0
 10
9.599193945661598
 20
6.631252795082056
 30
0.0
 10
9.598274870630014
 20
6.629926509752438
 30
0.0
 10
9.597536260921176
 20
6.62920876620408
 30
0.0
 10
9.597164525348894
 20
6.628847532381251
 30
0.0
  0
SPLINE
  5
1BC
330
1F
100
AcDbEntity
  8
0
  6
Continuous
 62
     7
370
    18
100
AcDbSpline
210
0.0
220
0.0
230
1.0
 70
     8
 71
     3
 72
    23
 73
    19
 74
     0
 42
0.000000001
 43
0.00000001
 40
0.0
 40
0.0
 40
0.0
 40
0.0
 40
0.0619947470624124
 40
0.122082692240055
 40
0.1813674937318431
 40
0.239497685891687
 40
0.2978228615406405
 40
0.3566433919048785
 40
0.4170426431207708
 40
0.47939853950608
 40
0.5422554887298455
 40
0.6048200847029735
 40
0.6670423163124143
 40
0.7302648013147106
 40
0.7942186651033051
 40
0.8604160236039577
 40
0.9285812581783047
 40
1.0
 40
1.0
 40
1.0
 40
1.0
 10
9.584125119350873
 20
6.675110003140383
 30
0.0
 10
9.584731968436044
 20
6.674741309844865
 30
0.0
 10
9.585927001460801
 20
6.67401526332866
 30
0.0
 10
9.587687981261496
 20
6.67270168446149
 30
0.0
 10
9.589371552285234
 20
6.671225157524064
 30
0.0
 10
9.590991967693464
 20
6.669611663394865
 30
0.0
 10
9.59252205242823
 20
6.667824689635792
 30
0.0
 10
9.593994214819668
 20
6.665902965519019
 30
0.0
 10
9.595379292968666
 20
6.663811503911092
 30
0.0
 10
9.596683399597696
 20
6.661594990620375
 30
0.0
 10
9.597875508756731
 20
6.659286771043742
 30
0.0
 10
9.59890859200337
 20
6.656933115502671
 30
0.0
 10
9.599798520481988
 20
6.654556105631993
 30
0.0
 10
9.600519493529607
 20
6.652163907606692
 30
0.0
 10
9.601076420624306
 20
6.649750234926774
 30
0.0
 10
9.601467551171929
 20
6.647326852700227
 30
0.0
 10
9.601716190894761
 20
6.644871960396208
 30
0.0
 10
9.60174770920399
 20
6.64327600729582
 30
0.0
 10
9.601763835682453
 20
6.642459431028407
 30
0.0
  0
SPLINE
  5
1BD
330
1F
100
AcDbEntity
  8
0
  6
Continuous
 62
     7
370
    18
100
AcDbSpline
210
0.0
220
0.0
230
1.0
 70
     8
 71
     3
 72
    15
 73
    11
 74
     0
 42
0.000000001
 43
0.00000001
 40
0.0
 40
0.0
 40
0.0
 40
0.0
 40
0.1367249672973517
 40
0.2685062080121072
 40
0.3955165764289175
 40
0.5190328991683869
 40
0.6405081366651262
 40
0.7612438456226569
 40
0.8801106056901651
 40
0.9999999999999999
 40
0.9999999999999999
 40
0.9999999999999999
 40
0.9999999999999999
 10
9.573409448678444
 20
6.676666182857785
 30
0.0
 10
9.573834644970308
 20
6.676789105237752
 30
0.0
 10
9.574669663228102
 20
6.677030505347604
 30
0.0
 10
9.575971812989645
 20
6.677226958332453
 30
0.0
 10
9.577290556682202
 20
6.677259496617812
 30
0.0
 10
9.5786189590382
 20
6.677157102052369
 30
0.0
 10
9.57997543607999
 20
6.676874057100305
 30
0.0
 10
9.581345208990573
 20
6.67644086779311
 30
0.0
 10
9.5827302505235
 20
6.675879826826255
 30
0.0
 10
9.583658837308707
 20
6.675367342721934
 30
0.0
 10
9.584125119350873
 20
6.675110003140383
 30
0.0
  0
LINE
  5
1BE
330
1F
100
AcDbEntity
  8
0
  6
Continuous
 62
     7
370
    18
100
AcDbLine
 10
9.5764676288
 20
6.69287788
 30
0.0
 11
9.5734094487
 21
6.6766661829
 31
0.0
  0
LINE
  5
1BF
330
1F
100
AcDbEntity
  8
0
  6
Continuous
 62
     7
370
    18
100
AcDbLine
 10
9.5986815754
 20
6.6800540417
 30
0.0
 11
9.5764676288
 21
6.69287788
 31
0.0
  0
LINE
  5
1C0
330
1F
100
AcDbEntity
  8
0
  6
Continuous
 62
     7
370
    18
100
AcDbLine
 10
9.5986815754
 20
6.6889522428
 30
0.0
 11
9.5986815754
 21
6.6800540417
 31
0.0
  0
LINE
  5
1C1
330
1F
100
AcDbEntity
  8
0
  6
Continuous
 62
     7
370
    18
100
AcDbLine
 10
9.5701706673
 20
6.7054112397
 30
0.0
 11
9.5986815754
 21
6.6889522428
 31
0.0
  0
LINE
  5
1C2
330
1F
100
AcDbEntity
  8
0
  6
Continuous
 62
     7
370
    18
100
AcDbLine
 10
9.5640061467
 20
6.6733771371
 30
0.0
 11
9.5701706673
 21
6.7054112397
 31
0.0
  0
LINE
  5
1C3
330
1F
100
AcDbEntity
  8
0
  6
Continuous
 62
     7
370
    18
100
AcDbLine
 10
9.5717117975
 20
6.6680389395
 30
0.0
 11
9.5640061467
 21
6.6733771371
 31
0.0
  0
SPLINE
  5
1C4
330
1F
100
AcDbEntity
  8
0
  6
Continuous
 62
     7
370
    18
100
AcDbSpline
210
0.0
220
0.0
230
1.0
 70
     8
 71
     3
 72
    15
 73
    11
 74
     0
 42
0.000000001
 43
0.00000001
 40
0.0
 40
0.0
 40
0.0
 40
0.0
 40
0.1478244508077092
 40
0.2844705558819915
 40
0.4123032798653901
 40
0.533701425880388
 40
0.652128510690643
 40
0.7687181103834134
 40
0.88368008891404
 40
0.9999999999999999
 40
0.9999999999999999
 40
0.9999999999999999
 40
0.9999999999999999
 10
9.581994025295794
 20
6.668331876512029
 30
0.0
 10
9.581394933446875
 20
6.66865684092445
 30
0.0
 10
9.580242052510362
 20
6.669282196246511
 30
0.0
 10
9.578588832958607
 20
6.66991760771578
 30
0.0
 10
9.577091361716226
 20
6.670242275431646
 30
0.0
 10
9.575750284279895
 20
6.670253227987939
 30
0.0
 10
9.574553556886345
 20
6.670002493314868
 30
0.0
 10
9.573483469775045
 20
6.669543008091409
 30
0.0
 10
9.572510111220659
 20
6.668920367261109
 30
0.0
 10
9.571978941619106
 20
6.668333896523778
 30
0.0
 10
9.571711797482026
 20
6.668038939473167
 30
0.0
  0
SPLINE
  5
1C5
330
1F
100
AcDbEntity
  8
0
  6
Continuous
 62
     7
370
    18
100
AcDbSpline
210
0.0
220
0.0
230
1.0
 70
     8
 71
     3
 72
    23
 73
    19
 74
     0
 42
0.000000001
 43
0.00000001
 40
0.0
 40
0.0
 40
0.0
 40
0.0
 40
0.0728659334565345
 40
0.1418868719641266
 40
0.207452626414711
 40
0.2704376800000962
 40
0.3316408722476725
 40
0.3901075774931594
 40
0.4480692869488353
 40
0.5055029519245361
 40
0.5624881528337241
 40
0.61908432888473
 40
0.676415530692238
 40
0.735452360450793
 40
0.7962407694486794
 40
0.8604056780892032
 40
0.9283049272851053
 40
0.9999999999999999
 40
0.9999999999999999
 40
0.9999999999999999
 40
0.9999999999999999
 10
9.594058184861831
 20
6.646379477867186
 30
0.0
 10
9.594049339139517
 20
6.646950383921309
 30
0.0
 10
9.594032114466614
 20
6.648062070416802
 30
0.0
 10
9.593887054619177
 20
6.649750132535389
 30
0.0
 10
9.593642321578828
 20
6.65139996102516
 30
0.0
 10
9.593325659939659
 20
6.653012166095117
 30
0.0
 10
9.59288918181054
 20
6.654592056697868
 30
0.0
 10
9.592371494172205
 20
6.656136598998065
 30
0.0
 10
9.591737305057617
 20
6.65763972945661
 30
0.0
 10
9.59103172781907
 20
6.659110807401952
 30
0.0
 10
9.59022586953377
 20
6.660529634663394
 30
0.0
 10
9.5893088431917
 20
6.661864229933919
 30
0.0
 10
9.58831662319481
 20
6.663141745286631
 30
0.0
 10
9.587229225215902
 20
6.664340969876117
 30
0.0
 10
9.586046008942287
 20
6.665448616558827
 30
0.0
 10
9.584778732283334
 20
6.666506883961208
 30
0.0
 10
9.583414245366553
 20
6.667466407982416
 30
0.0
 10
9.582475936758621
 20
6.668038204275081
 30
0.0
 10
9.581994025295794
 20
6.668331876512029
 30
0.0
  0
SPLINE
  5
1C6
330
1F
100
AcDbEntity
  8
0
  6
Continuous
 62
     7
370
    18
100
AcDbSpline
210
0.0
220
0.0
230
1.0
 70
     8
 71
     3
 72
    23
 73
    19
 74
     0
 42
0.000000001
 43
0.00000001
 40
0.0
 40
0.0
 40
0.0
 40
0.0
 40
0.0657969014422178
 40
0.1286687074936937
 40
0.1886640150334374
 40
0.2473878658315848
 40
0.3048931163760734
 40
0.3618260165874506
 40
0.4195591944128799
 40
0.4787145848007281
 40
0.5387984953904673
 40
0.5988242749803314
 40
0.6602056418727807
 40
0.7229689455157929
 40
0.7880060156074508
 40
0.8554128575646773
 40
0.9261577032060918
 40
1.0
 40
1.0
 40
1.0
 40
1.0
 10
9.581957905057571
 20
6.637209024238635
 30
0.0
 10
9.582415989578532
 20
6.636957507199493
 30
0.0
 10
9.583311793817682
 20
6.636465654671034
 30
0.0
 10
9.584615845810992
 20
6.635922218731849
 30
0.0
 10
9.585843206687443
 20
6.63556921611577
 30
0.0
 10
9.587005526131083
 20
6.635359713866859
 30
0.0
 10
9.588084233672102
 20
6.635368824838261
 30
0.0
 10
9.589076132970012
 20
6.6355762691933
 30
0.0
 10
9.590016228865977
 20
6.635918441670321
 30
0.0
 10
9.590849869510702
 20
6.636489462034367
 30
0.0
 10
9.591608474118106
 20
6.637197787494358
 30
0.0
 10
9.59226327055438
 20
6.638070783669296
 30
0.0
 10
9.592814499693551
 20
6.639090974976984
 30
0.0
 10
9.593278579050121
 20
6.640248566549776
 30
0.0
 10
9.593621266606835
 20
6.641571486028703
 30
0.0
 10
9.593873341317407
 20
6.643033870335644
 30
0.0
 10
9.594035163133809
 20
6.644636537229819
 30
0.0
 10
9.594050402132181
 20
6.645790259031608
 30
0.0
 10
9.594058184861831
 20
6.646379477867186
 30
0.0
  0
SPLINE
  5
1C7
330
1F
100
AcDbEntity
  8
0
  6
Continuous
 62
     7
370
    18
100
AcDbSpline
210
0.0
220
0.0
230
1.0
 70
     8
 71
     3
 72
    23
 73
    19
 74
     0
 42
0.000000001
 43
0.00000001
 40
0.0
 40
0.0
 40
0.0
 40
0.0
 40
0.0773613371189802
 40
0.1504798322806859
 40
0.2199772368520767
 40
0.2866809968624415
 40
0.3496784941856655
 40
0.4106796250174851
 40
0.4694271135192918
 40
0.5267557014271316
 40
0.583141980834837
 40
0.638824427778628
 40
0.6952634704038142
 40
0.752695804898535
 40
0.8108491833348959
 40
0.8713563036360864
 40
0.9344364309841284
 40
1.0
 40
1.0
 40
1.0
 40
1.0
 10
9.570941232399964
 20
6.656026295609172
 30
0.0
 10
9.571017530440518
 20
6.655480884888092
 30
0.0
 10
9.571165941995607
 20
6.654419976210854
 30
0.0
 10
9.571448756616494
 20
6.652845032820791
 30
0.0
 10
9.571816052303951
 20
6.651321509227833
 30
0.0
 10
9.572228749445713
 20
6.649860607374134
 30
0.0
 10
9.572719309622272
 20
6.648456515653589
 30
0.0
 10
9.573250835637834
 20
6.647112835981004
 30
0.0
 10
9.573877661945295
 20
6.645835006198547
 30
0.0
 10
9.574536685645928
 20
6.644611548704957
 30
0.0
 10
9.575260014513548
 20
6.643451137874247
 30
0.0
 10
9.576054628130155
 20
6.642366175795491
 30
0.0
 10
9.576898356254931
 20
6.641332744214845
 30
0.0
 10
9.577801475178372
 20
6.640364051344557
 30
0.0
 10
9.578765369035422
 20
6.639480182765396
 30
0.0
 10
9.57977777003326
 20
6.638636799539923
 30
0.0
 10
9.580851714666386
 20
6.637886347583511
 30
0.0
 10
9.581584459759759
 20
6.63743768579659
 30
0.0
 10
9.581957905057571
 20
6.637209024238635
 30
0.0
  0
LINE
  5
1C8
330
1F
100
AcDbEntity
  8
0
  6
Continuous
 62
     7
370
    18
100
AcDbLine
 10
9.5632355816
 20
6.659584853
 30
0.0
 11
9.5709412324
 21
6.6560262956
 31
0.0
  0
SPLINE
  5
1C9
330
1F
100
AcDbEntity
  8
0
  6
Continuous
 62
     7
370
    18
100
AcDbSpline
210
0.0
220
0.0
230
1.0
 70
     8
 71
     3
 72
    23
 73
    19
 74
     0
 42
0.000000001
 43
0.00000001
 40
0.0
 40
0.0
 40
0.0
 40
0.0
 40
0.0693182087024731
 40
0.1356003304878334
 40
0.1997291161327788
 40
0.2617924716337869
 40
0.3229211796962244
 40
0.3829790997934825
 40
0.4430077312381368
 40
0.5034940989540209
 40
0.5640370581785096
 40
0.6237053491018794
 40
0.6833720888094614
 40
0.7438094697850024
 40
0.8050093008747736
 40
0.8676101914670349
 40
0.9327585037206162
 40
1.0
 40
1.0
 40
1.0
 40
1.0
 10
9.581909744739944
 20
6.629228445558563
 30
0.0
 10
9.581262955733376
 20
6.629617021276667
 30
0.0
 10
9.57999770660637
 20
6.630377153380202
 30
0.0
 10
9.578144879077582
 20
6.631703846278515
 30
0.0
 10
9.576383672195357
 20
6.633133545922738
 30
0.0
 10
9.574707186104336
 20
6.634683693606614
 30
0.0
 10
9.573131344700474
 20
6.636365429663943
 30
0.0
 10
9.571634064949194
 20
6.638143614074811
 30
0.0
 10
9.570248947484131
 20
6.640056731358388
 30
0.0
 10
9.56894809007737
 20
6.642054932175215
 30
0.0
 10
9.567758391302668
 20
6.644125368696643
 30
0.0
 10
9.566704219927741
 20
6.646246107902915
 30
0.0
 10
9.565789219671876
 20
6.64839968445252
 30
0.0
 10
9.56498273808701
 20
6.650586125875853
 30
0.0
 10
9.564355752571387
 20
6.652799733453942
 30
0.0
 10
9.563830578864028
 20
6.655047002730829
 30
0.0
 10
9.56344120704505
 20
6.657327833440913
 30
0.0
 10
9.563304842079344
 20
6.65882462469321
 30
0.0
 10
9.563235581579342
 20
6.659584853026023
 30
0.0
  0
SPLINE
  5
1CA
330
1F
100
AcDbEntity
  8
0
  6
Continuous
 62
     7
370
    18
100
AcDbSpline
210
0.0
220
0.0
230
1.0
 70
     8
 71
     3
 72
    15
 73
    11
 74
     0
 42
0.000000001
 43
0.00000001
 40
0.0
 40
0.0
 40
0.0
 40
0.0
 40
0.1278829696493941
 40
0.2515595312796917
 40
0.3727646915574482
 40
0.4930749058244788
 40
0.6136192248323046
 40
0.7378284322692569
 40
0.8661899985982193
 40
1.0
 40
1.0
 40
1.0
 40
1.0
 10
9.597164525348894
 20
6.628847532381251
 30
0.0
 10
9.596692332326985
 20
6.628448017156548
 30
0.0
 10
9.595763477956533
 20
6.62766212781615
 30
0.0
 10
9.594156180333135
 20
6.626871886559634
 30
0.0
 10
9.592422865578738
 20
6.626419103155603
 30
0.0
 10
9.590573681834877
 20
6.626277360238875
 30
0.0
 10
9.588585501959788
 20
6.626498246487237
 30
0.0
 10
9.586468803701695
 20
6.62707991119026
 30
0.0
 10
9.584230133339
 20
6.627948647260737
 30
0.0
 10
9.582693849925375
 20
6.628795976410059
 30
0.0
 10
9.581909744739944
 20
6.629228445558563
 30
0.0
  0
SPLINE
  5
1CB
330
1F
100
AcDbEntity
  8
0
  6
Continuous
 62
     7
370
    18
100
AcDbSpline
210
0.0
220
0.0
230
1.0
 70
     8
 71
     3
 72
    31
 73
    27
 74
     0
 42
0.000000001
 43
0.00000001
 40
0.0
 40
0.0
 40
0.0
 40
0.0
 40
0.062872936983253
 40
0.1228346582660095
 40
0.1796536836655498
 40
0.2339562567955639
 40
0.2855473950458364
 40
0.3345189820567464
 40
0.3806227038405211
 40
0.4245295031767599
 40
0.4664416769228077
 40
0.5065145853718168
 40
0.5447930111054538
 40
0.581845653009279
 40
0.617462181423722
 40
0.6520802585584685
 40
0.68589251728597
 40
0.719186823394995
 40
0.7521933849929764
 40
0.7852513720621818
 40
0.8186671215359246
 40
0.8528356188434193
 40
0.8876281460368526
 40
0.923636303848835
 40
0.9610224701392116
 40
1.0
 40
1.0
 40
1.0
 40
1.0
 10
9.671114693068057
 20
6.61285161271581
 30
0.0
 10
9.67110682734343
 20
6.611868929848248
 30
0.0
 10
9.671091460102083
 20
6.609949065435792
 30
0.0
 10
9.670999074372517
 20
6.607182827833127
 30
0.0
 10
9.670826597661161
 20
6.604603014254532
 30
0.0
 10
9.670604483832392
 20
6.602188730140115
 30
0.0
 10
9.670304917728
 20
6.59995383631134
 30
0.0
 10
9.669932976046578
 20
6.59790517092127
 30
0.0
 10
9.669497774424903
 20
6.596032073330756
 30
0.0
 10
9.669008406621842
 20
6.594320760055789
 30
0.0
 10
9.668443848360011
 20
6.592778977009475
 30
0.0
 10
9.667804143689118
 20
6.59140907351934
 30
0.0
 10
9.667105784932438
 20
6.590188060986516
 30
0.0
 10
9.666336850123484
 20
6.589131063819099
 30
0.0
 10
9.665501311526926
 20
6.588230830814212
 30
0.0
 10
9.664612663818204
 20
6.587470371983502
 30
0.0
 10
9.663646199578963
 20
6.586881653260147
 30
0.0
 10
9.66260387476196
 20
6.58646936433924
 30
0.0
 10
9.66150663550748
 20
6.586189213662643
 30
0.0
 10
9.660332443726224
 20
6.586085556702383
 30
0.0
 10
9.659084026179578
 20
6.586154285395037
 30
0.0
 10
9.657772514761286
 20
6.586366497109811
 30
0.0
 10
9.656389202836777
 20
6.586750947592635
 30
0.0
 10
9.654941298507028
 20
6.587279333009167
 30
0.0
 10
9.653419355452321
 20
6.587974282603619
 30
0.0
 10
9.652380710694118
 20
6.588555701329179
 30
0.0
 10
9.6518505660165
 20
6.588852468862435
 30
0.0
  0
SPLINE
  5
1CC
330
1F
100
AcDbEntity
  8
0
  6
Continuous
 62
     7
370
    18
100
AcDbSpline
210
0.0
220
0.0
230
1.0
 70
     8
 71
     3
 72
    27
 73
    23
 74
     0
 42
0.000000001
 43
0.00000001
 40
0.0
 40
0.0
 40
0.0
 40
0.0
 40
0.0567196362764625
 40
0.1114280005485037
 40
0.164271091180387
 40
0.2163343264019023
 40
0.2672831525731984
 40
0.3174122530729432
 40
0.3673221138318768
 40
0.4182222313367408
 40
0.4714117085699801
 40
0.5279684586103852
 40
0.5880588739916046
 40
0.6522074888314343
 40
0.6864152270246868
 40
0.723277926551375
 40
0.7626212362197994
 40
0.8047464307438112
 40
0.8494584675399355
 40
0.896719818281155
 40
0.9468940394925561
 40
1.0
 40
1.0
 40
1.0
 40
1.0
 10
9.6518505660165
 20
6.659148257988241
 30
0.0
 10
9.65262255984535
 20
6.658676799791839
 30
0.0
 10
9.654139172687595
 20
6.657750601254332
 30
0.0
 10
9.656350629488465
 20
6.656048490292439
 30
0.0
 10
9.658441215786386
 20
6.654145047294637
 30
0.0
 10
9.660395079315224
 20
6.652047709492201
 30
0.0
 10
9.66218648680036
 20
6.649771710838587
 30
0.0
 10
9.66379301144645
 20
6.647352029299487
 30
0.0
 10
9.66517585153585
 20
6.644788822053006
 30
0.0
 10
9.666362330837218
 20
6.642102375812753
 30
0.0
 10
9.667380635463305
 20
6.639277028361957
 30
0.0
 10
9.668291284685974
 20
6.636297031218366
 30
0.0
 10
9.669107844567423
 20
6.633144692383642
 30
0.0
 10
9.6697055116443
 20
6.630406607597132
 30
0.0
 10
9.670124533500248
 20
6.628095446321635
 30
0.0
 10
9.670379645175979
 20
6.626238274103062
 30
0.0
 10
9.670615187368954
 20
6.624262971974689
 30
0.0
 10
9.670782142850245
 20
6.622193431827112
 30
0.0
 10
9.6709520336369
 20
6.619997587133574
 30
0.0
 10
9.671035910790534
 20
6.617717639733028
 30
0.0
 10
9.671099921426945
 20
6.61531691906935
 30
0.0
 10
9.671109676880699
 20
6.613688787033087
 30
0.0
 10
9.671114693068057
 20
6.61285161271581
 30
0.0
  0
SPLINE
  5
1CD
330
1F
100
AcDbEntity
  8
0
  6
Continuous
 62
     7
370
    18
100
AcDbSpline
210
0.0
220
0.0
230
1.0
 70
     8
 71
     3
 72
    31
 73
    27
 74
     0
 42
0.000000001
 43
0.00000001
 40
0.0
 40
0.0
 40
0.0
 40
0.0
 40
0.0631062077160515
 40
0.1235984861642909
 40
0.1809500532795177
 40
0.2352307003011597
 40
0.2870631704073544
 40
0.336276507045082
 40
0.3826220599819552
 40
0.4265680494373588
 40
0.468161059594326
 40
0.5081947319458063
 40
0.5465684502053744
 40
0.5834353656443692
 40
0.6191864383818928
 40
0.6535423560669018
 40
0.6873215086103883
 40
0.720583215672022
 40
0.7533869536543235
 40
0.7864125730603129
 40
0.8195275789583766
 40
0.8535644201015123
 40
0.8883228813126379
 40
0.9240057964313767
 40
0.9613553572612671
 40
1.0
 40
1.0
 40
1.0
 40
1.0
 10
9.632586438964944
 20
6.635093500377646
 30
0.0
 10
9.632594204514154
 20
6.636080891952045
 30
0.0
 10
9.632609413954894
 20
6.638014776244319
 30
0.0
 10
9.632703698190875
 20
6.640802822295197
 30
0.0
 10
9.632868465602657
 20
6.643407055406567
 30
0.0
 10
9.633113906566061
 20
6.645819382534857
 30
0.0
 10
9.633406760653491
 20
6.648068815898426
 30
0.0
 10
9.633781919131602
 20
6.650128767935774
 30
0.0
 10
9.634210036127595
 20
6.652018737050458
 30
0.0
 10
9.634717497554943
 20
6.653715379931977
 30
0.0
 10
9.635284444646029
 20
6.6552508038208
 30
0.0
 10
9.635916894497226
 20
6.656626777363089
 30
0.0
 10
9.636637101397607
 20
6.657821560127448
 30
0.0
 10
9.637384259360074
 20
6.6589085953811
 30
0.0
 10
9.638234339491094
 20
6.659785767040505
 30
0.0
 10
9.639127635126505
 20
6.660537227028601
 30
0.0
 10
9.64009134771365
 20
6.661125262715449
 30
0.0
 10
9.641129610319776
 20
6.661541952664345
 30
0.0
 10
9.642234374191352
 20
6.661801212025655
 30
0.0
 10
9.643402160912157
 20
6.661905586922629
 30
0.0
 10
9.644641388839586
 20
6.66185331146423
 30
0.0
 10
9.645955553347086
 20
6.661614167004423
 30
0.0
 10
9.647331862975694
 20
6.661237773731349
 30
0.0
 10
9.648775763969809
 20
6.660713327397686
 30
0.0
 10
9.650289830467967
 20
6.660021138055489
 30
0.0
 10
9.651324443592685
 20
6.659442505003446
 30
0.0
 10
9.6518505660165
 20
6.659148257988241
 30
0.0
  0
SPLINE
  5
1CE
330
1F
100
AcDbEntity
  8
0
  6
Continuous
 62
     7
370
    18
100
AcDbSpline
210
0.0
220
0.0
230
1.0
 70
     8
 71
     3
 72
    15
 73
    11
 74
     0
 42
0.000000001
 43
0.00000001
 40
0.0
 40
0.0
 40
0.0
 40
0.0
 40
0.0974206681772141
 40
0.2008855880393194
 40
0.3111719701726499
 40
0.4297979458253718
 40
0.5577399263645887
 40
0.6947152693641601
 40
0.8421299102060559
 40
1.0
 40
1.0
 40
1.0
 40
1.0
 10
9.638425877477447
 20
6.603289930900285
 30
0.0
 10
9.637949534638995
 20
6.604358391899891
 30
0.0
 10
9.636967295315438
 20
6.606561604218374
 30
0.0
 10
9.635817669352235
 20
6.61001510378883
 30
0.0
 10
9.6347921826392
 20
6.613678320892063
 30
0.0
 10
9.633987363587112
 20
6.617555787760918
 30
0.0
 10
9.633356989644602
 20
6.621647025640807
 30
0.0
 10
9.632901702273156
 20
6.625958978040797
 30
0.0
 10
9.632644054443505
 20
6.630476876054338
 30
0.0
 10
9.6326060776697
 20
6.633519886405995
 30
0.0
 10
9.632586438964944
 20
6.635093500377646
 30
0.0
  0
SPLINE
  5
1CF
330
1F
100
AcDbEntity
  8
0
  6
Continuous
 62
     7
370
    18
100
AcDbSpline
210
0.0
220
0.0
230
1.0
 70
     8
 71
     3
 72
    15
 73
    11
 74
     0
 42
0.000000001
 43
0.00000001
 40
0.0
 40
0.0
 40
0.0
 40
0.0
 40
0.1379032299933924
 40
0.2688733426002906
 40
0.3951781273461124
 40
0.5170892381308858
 40
0.6367430265135461
 40
0.7562218164637954
 40
0.8766283594636799
 40
1.0
 40
1.0
 40
1.0
 40
1.0
 10
9.6518505660165
 20
6.588852468862435
 30
0.0
 10
9.651155500475507
 20
6.589276616893603
 30
0.0
 10
9.649800313977396
 20
6.590103588813715
 30
0.0
 10
9.647821164022576
 20
6.59154942503891
 30
0.0
 10
9.645963626223317
 20
6.593155576231092
 30
0.0
 10
9.644212033312035
 20
6.594882673761987
 30
0.0
 10
9.642586073671978
 20
6.596778910483524
 30
0.0
 10
9.641077983992401
 20
6.598814607592144
 30
0.0
 10
9.63965746029839
 20
6.600980152023564
 30
0.0
 10
9.638839720500414
 20
6.602513786692626
 30
0.0
 10
9.638425877477447
 20
6.603289930900285
 30
0.0
  0
SPLINE
  5
1D0
330
1F
100
AcDbEntity
  8
0
  6
Continuous
 62
     7
370
    18
100
AcDbSpline
210
0.0
220
0.0
230
1.0
 70
     8
 71
     3
 72
    23
 73
    19
 74
     0
 42
0.000000001
 43
0.00000001
 40
0.0
 40
0.0
 40
0.0
 40
0.0
 40
0.0698823039034427
 40
0.1383882841653966
 40
0.2067582142303601
 40
0.2765984302165
 40
0.3471345171864638
 40
0.4179202738343021
 40
0.4902130565940819
 40
0.5664711022702207
 40
0.6078661527170738
 40
0.6522325532418385
 40
0.7005469750391917
 40
0.752522892715919
 40
0.808321340815731
 40
0.8684702740719038
 40
0.931979790540806
 40
1.0
 40
1.0
 40
1.0
 40
1.0
 10
9.767844691025687
 20
6.566381491596344
 30
0.0
 10
9.76735317701162
 20
6.56664701666916
 30
0.0
 10
9.766379829293376
 20
6.567172837330149
 30
0.0
 10
9.76495872223697
 20
6.567607884819718
 30
0.0
 10
9.763594124300754
 20
6.567812503597962
 30
0.0
 10
9.762307428106137
 20
6.567731756016118
 30
0.0
 10
9.761118980415171
 20
6.567381903964325
 30
0.0
 10
9.760098886771868
 20
6.566688079312242
 30
0.0
 10
9.759257882342387
 20
6.56567478553481
 30
0.0
 10
9.758719553580027
 20
6.564568653665349
 30
0.0
 10
9.758382843486023
 20
6.563507929719119
 30
0.0
 10
9.75813245748615
 20
6.562603745262725
 30
0.0
 10
9.757948109778829
 20
6.561555542436901
 30
0.0
 10
9.757796203266935
 20
6.560389975420297
 30
0.0
 10
9.757655164166819
 20
6.559118982622346
 30
0.0
 10
9.757584673593259
 20
6.557706465632211
 30
0.0
 10
9.75751298396221
 20
6.556195606650841
 30
0.0
 10
9.757513853312403
 20
6.555128403337059
 30
0.0
 10
9.75751430289429
 20
6.554576502293953
 30
0.0
  0
SPLINE
  5
1D1
330
1F
100
AcDbEntity
  8
0
  6
Continuous
 62
     7
370
    18
100
AcDbSpline
210
0.0
220
0.0
230
1.0
 70
     8
 71
     3
 72
    23
 73
    19
 74
     0
 42
0.000000001
 43
0.00000001
 40
0.0
 40
0.0
 40
0.0
 40
0.0
 40
0.0840520374929028
 40
0.1623146334137115
 40
0.2366600199015783
 40
0.3057775454542922
 40
0.369854882253864
 40
0.4308818052540365
 40
0.4880260023390453
 40
0.5427446849665448
 40
0.5951151179188187
 40
0.6466861713516491
 40
0.6997262587744729
 40
0.753413956654465
 40
0.8093158108836109
 40
0.8690272915375981
 40
0.9322090442192221
 40
1.0
 40
1.0
 40
1.0
 40
1.0
 10
9.77523729978172
 20
6.550865947003528
 30
0.0
 10
9.775234375851737
 20
6.551322060239786
 30
0.0
 10
9.775228729389884
 20
6.552202869973217
 30
0.0
 10
9.775137259936841
 20
6.553531153621527
 30
0.0
 10
9.775013958925213
 20
6.554792812333615
 30
0.0
 10
9.77482014878534
 20
6.556005239270658
 30
0.0
 10
9.774576041085052
 20
6.557157743426401
 30
0.0
 10
9.7742961619889
 20
6.55825141894202
 30
0.0
 10
9.773942301932907
 20
6.559298097237473
 30
0.0
 10
9.773536360427258
 20
6.560288891443646
 30
0.0
 10
9.773059143485616
 20
6.56122456203241
 30
0.0
 10
9.772523116974076
 20
6.562117775522024
 30
0.0
 10
9.771908551579779
 20
6.562957799537861
 30
0.0
 10
9.771222459058436
 20
6.56373694671223
 30
0.0
 10
9.77048346085363
 20
6.564502750246501
 30
0.0
 10
9.769659487331722
 20
6.565162981269392
 30
0.0
 10
9.768776142697266
 20
6.565828275051754
 30
0.0
 10
9.768162374840383
 20
6.566192809834744
 30
0.0
 10
9.767844691025687
 20
6.566381491596344
 30
0.0
  0
LINE
  5
1D2
330
1F
100
AcDbEntity
  8
0
  6
Continuous
 62
     7
370
    18
100
AcDbLine
 10
9.7752372998
 20
6.5185126437
 30
0.0
 11
9.7752372998
 21
6.550865947
 31
0.0
  0
LINE
  5
1D3
330
1F
100
AcDbEntity
  8
0
  6
Continuous
 62
     7
370
    18
100
AcDbLine
 10
9.7829429506
 20
6.5140642662
 30
0.0
 11
9.7752372998
 21
6.5185126437
 31
0.0
  0
LINE
  5
1D4
330
1F
100
AcDbEntity
  8
0
  6
Continuous
 62
     7
370
    18
100
AcDbLine
 10
9.7829429506
 20
6.5429973234
 30
0.0
 11
9.7829429506
 21
6.5140642662
 31
0.0
  0
SPLINE
  5
1D5
330
1F
100
AcDbEntity
  8
0
  6
Continuous
 62
     7
370
    18
100
AcDbSpline
210
0.0
220
0.0
230
1.0
 70
     8
 71
     3
 72
    23
 73
    19
 74
     0
 42
0.000000001
 43
0.00000001
 40
0.0
 40
0.0
 40
0.0
 40
0.0
 40
0.0585757660198504
 40
0.1150346943684879
 40
0.169763615231176
 40
0.2236478972929994
 40
0.2768730316667503
 40
0.3302884546297407
 40
0.3850366836323369
 40
0.4406848389014084
 40
0.4978802676984127
 40
0.5572232623162524
 40
0.6200374272436318
 40
0.6862557553842884
 40
0.7567477502249745
 40
0.8318929806595928
 40
0.9128343922551199
 40
1.0
 40
1.0
 40
1.0
 40
1.0
 10
9.793201098257297
 20
6.551743549278897
 30
0.0
 10
9.792839293917643
 20
6.551942631829492
 30
0.0
 10
9.792128760288103
 20
6.552333602394931
 30
0.0
 10
9.791090461465371
 20
6.552755152019158
 30
0.0
 10
9.7900933153854
 20
6.553078396214242
 30
0.0
 10
9.789154110660537
 20
6.553220019970553
 30
0.0
 10
9.788254187057074
 20
6.55325647400076
 30
0.0
 10
9.787406599201814
 20
6.55313713252319
 30
0.0
 10
9.786597588632088
 20
6.552900054442695
 30
0.0
 10
9.785851028619545
 20
6.552501368395297
 30
0.0
 10
9.785151568391317
 20
6.551976591062647
 30
0.0
 10
9.784564285684697
 20
6.551226871488415
 30
0.0
 10
9.78405716743687
 20
6.550308623463347
 30
0.0
 10
9.783653318160598
 20
6.549195551144468
 30
0.0
 10
9.783326409095388
 20
6.54792046051612
 30
0.0
 10
9.783101120496932
 20
6.546454595795668
 30
0.0
 10
9.782971327581661
 20
6.544800559117015
 30
0.0
 10
9.782952640229768
 20
6.543613057798694
 30
0.0
 10
9.782942950602344
 20
6.542997323402145
 30
0.0
  0
SPLINE
  5
1D6
330
1F
100
AcDbEntity
  8
0
  6
Continuous
 62
     7
370
    18
100
AcDbSpline
210
0.0
220
0.0
230
1.0
 70
     8
 71
     3
 72
    19
 73
    15
 74
     0
 42
0.000000001
 43
0.00000001
 40
0.0
 40
0.0
 40
0.0
 40
0.0
 40
0.1364148811765275
 40
0.2528973605082377
 40
0.3492204458013852
 40
0.4269322474132383
 40
0.4944524086148369
 40
0.5607020268402086
 40
0.6286260433619786
 40
0.698836431094077
 40
0.7714182240964009
 40
0.8441568540005466
 40
0.9199641120853101
 40
1.0
 40
1.0
 40
1.0
 40
1.0
 10
9.800665947489774
 20
6.535199156956065
 30
0.0
 10
9.800655383081242
 20
6.535988579444165
 30
0.0
 10
9.800635797893683
 20
6.537452077134775
 30
0.0
 10
9.800530601625642
 20
6.539516728213385
 30
0.0
 10
9.800319412623775
 20
6.541290488183307
 30
0.0
 10
9.800029552543519
 20
6.542809885224054
 30
0.0
 10
9.799584248673222
 20
6.544174454924994
 30
0.0
 10
9.799021584174467
 20
6.545464162408164
 30
0.0
 10
9.798314964529956
 20
6.546723462737215
 30
0.0
 10
9.797480606367477
 20
6.547944207011101
 30
0.0
 10
9.796535596772003
 20
6.549087233497489
 30
0.0
 10
9.795492091958495
 20
6.550101930476552
 30
0.0
 10
9.794376064400259
 20
6.551026018425366
 30
0.0
 10
9.793599774888115
 20
6.551500084575759
 30
0.0
 10
9.793201098257297
 20
6.551743549278897
 30
0.0
  0
LINE
  5
1D7
330
1F
100
AcDbEntity
  8
0
  6
Continuous
 62
     7
370
    18
100
AcDbLine
 10
9.8006659475
 20
6.5038329979
 30
0.0
 11
9.8006659475
 21
6.535199157
 31
0.0
  0
LINE
  5
1D8
330
1F
100
AcDbEntity
  8
0
  6
Continuous
 62
     7
370
    18
100
AcDbLine
 10
9.8083715983
 20
6.4993846204
 30
0.0
 11
9.8006659475
 21
6.5038329979
 31
0.0
  0
LINE
  5
1D9
330
1F
100
AcDbEntity
  8
0
  6
Continuous
 62
     7
370
    18
100
AcDbLine
 10
9.8083715983
 20
6.5340319911
 30
0.0
 11
9.8083715983
 21
6.4993846204
 31
0.0
  0
SPLINE
  5
1DA
330
1F
100
AcDbEntity
  8
0
  6
Continuous
 62
     7
370
    18
100
AcDbSpline
210
0.0
220
0.0
230
1.0
 70
     8
 71
     3
 72
    23
 73
    19
 74
     0
 42
0.000000001
 43
0.00000001
 40
0.0
 40
0.0
 40
0.0
 40
0.0
 40
0.0684858423217284
 40
0.1336315466164048
 40
0.1953270837667399
 40
0.2542221042059962
 40
0.3112724040630452
 40
0.3666124446917562
 40
0.4212564852255817
 40
0.4760702201722832
 40
0.5314280570704071
 40
0.5882286934627525
 40
0.6473050178610782
 40
0.7093984115158154
 40
0.7752829671512439
 40
0.8452284978288171
 40
0.9203967621689223
 40
1.0
 40
1.0
 40
1.0
 40
1.0
 10
9.79505527048601
 20
6.55868153947482
 30
0.0
 10
9.795573496982996
 20
6.55836877112901
 30
0.0
 10
9.796584675438893
 20
6.557758488530936
 30
0.0
 10
9.798054299682128
 20
6.556711526702381
 30
0.0
 10
9.799435509387347
 20
6.555603518501869
 30
0.0
 10
9.800720298798499
 20
6.554396451065229
 30
0.0
 10
9.801916221281253
 20
6.553124571041931
 30
0.0
 10
9.803024515014348
 20
6.551775412228008
 30
0.0
 10
9.804027002956493
 20
6.550335605083784
 30
0.0
 10
9.80495177527607
 20
6.548831149219444
 30
0.0
 10
9.805762604006757
 20
6.547238505534416
 30
0.0
 10
9.806463922412787
 20
6.545571958286655
 30
0.0
 10
9.807055677147872
 20
6.543829709777016
 30
0.0
 10
9.80753128023309
 20
6.54201379974447
 30
0.0
 10
9.807923306736846
 20
6.54011595821357
 30
0.0
 10
9.808174398601219
 20
6.538148632924202
 30
0.0
 10
9.808353122617877
 20
6.536091211779564
 30
0.0
 10
9.808365323210335
 20
6.534731386578576
 30
0.0
 10
9.808371598310398
 20
6.534031991099664
 30
0.0
  0
SPLINE
  5
1DB
330
1F
100
AcDbEntity
  8
0
  6
Continuous
 62
     7
370
    18
100
AcDbSpline
210
0.0
220
0.0
230
1.0
 70
     8
 71
     3
 72
    15
 73
    11
 74
     0
 42
0.000000001
 43
0.00000001
 40
0.0
 40
0.0
 40
0.0
 40
0.0
 40
0.142302946990994
 40
0.2753838759350553
 40
0.4024786494899635
 40
0.5233761876629234
 40
0.6412310342564421
 40
0.7583226851907713
 40
0.877553058040032
 40
1.0
 40
1.0
 40
1.0
 40
1.0
 10
9.78173894266162
 20
6.556956263488495
 30
0.0
 10
9.782166283273064
 20
6.557458436341671
 30
0.0
 10
9.782993270460693
 20
6.558430238469603
 30
0.0
 10
9.784433926122146
 20
6.559519754409351
 30
0.0
 10
9.785958782211067
 20
6.560276949684878
 30
0.0
 10
9.787588913154762
 20
6.560676216274119
 30
0.0
 10
9.789314387086247
 20
6.560720663537617
 30
0.0
 10
9.791140482281897
 20
6.560414337723859
 30
0.0
 10
9.793069343033997
 20
6.559735161897464
 30
0.0
 10
9.794387446964416
 20
6.559035849414999
 30
0.0
 10
9.79505527048601
 20
6.55868153947482
 30
0.0
  0
SPLINE
  5
1DC
330
1F
100
AcDbEntity
  8
0
  6
Continuous
 62
     7
370
    18
100
AcDbSpline
210
0.0
220
0.0
230
1.0
 70
     8
 71
     3
 72
    15
 73
    11
 74
     0
 42
0.000000001
 43
0.00000001
 40
0.0
 40
0.0
 40
0.0
 40
0.0
 40
0.1427448629824148
 40
0.2746346497965608
 40
0.3982435516696317
 40
0.5176044543884932
 40
0.6347051380894391
 40
0.7520881184911004
 40
0.8730810341089227
 40
0.9999999999999999
 40
0.9999999999999999
 40
0.9999999999999999
 40
0.9999999999999999
 10
9.770060065636615
 20
6.573110964095436
 30
0.0
 10
9.770792823863522
 20
6.572663058663141
 30
0.0
 10
9.772202617496912
 20
6.571801308902272
 30
0.0
 10
9.77420947059019
 20
6.570153264867588
 30
0.0
 10
9.776025658499538
 20
6.568351238920026
 30
0.0
 10
9.777619402884367
 20
6.566329778678922
 30
0.0
 10
9.778996180545029
 20
6.564155298683936
 30
0.0
 10
9.780151981135516
 20
6.561849797269432
 30
0.0
 10
9.781094805153153
 20
6.559422564004534
 30
0.0
 10
9.781520835568692
 20
6.557791361008465
 30
0.0
 10
9.78173894266162
 20
6.556956263488495
 30
0.0
  0
SPLINE
  5
1DD
330
1F
100
AcDbEntity
  8
0
  6
Continuous
 62
     7
370
    18
100
AcDbSpline
210
0.0
220
0.0
230
1.0
 70
     8
 71
     3
 72
    15
 73
    11
 74
     0
 42
0.000000001
 43
0.00000001
 40
0.0
 40
0.0
 40
0.0
 40
0.0
 40
0.1266319284235801
 40
0.2498443757728027
 40
0.3726046475920062
 40
0.4967509664038982
 40
0.6205941793274093
 40
0.7437520563069246
 40
0.8691668313601794
 40
1.0
 40
1.0
 40
1.0
 40
1.0
 10
9.75751430289429
 20
6.571552601685291
 30
0.0
 10
9.75785348099634
 20
6.571998432033876
 30
0.0
 10
9.758522678269395
 20
6.572878053836446
 30
0.0
 10
9.759764467477249
 20
6.573851564798408
 30
0.0
 10
9.761141316904496
 20
6.57457497910463
 30
0.0
 10
9.762680183493897
 20
6.574990189776084
 30
0.0
 10
9.76435289143879
 20
6.575095587036262
 30
0.0
 10
9.766158274871156
 20
6.574801442720343
 30
0.0
 10
9.768070577223076
 20
6.574178321783934
 30
0.0
 10
9.76938761982404
 20
6.573471730312152
 30
0.0
 10
9.770060065636615
 20
6.573110964095436
 30
0.0
  0
LINE
  5
1DE
330
1F
100
AcDbEntity
  8
0
  6
Continuous
 62
     7
370
    18
100
AcDbLine
 10
9.7575143029
 20
6.5794636586
 30
0.0
 11
9.7575143029
 21
6.5715526017
 31
0.0
  0
LINE
  5
1DF
330
1F
100
AcDbEntity
  8
0
  6
Continuous
 62
     7
370
    18
100
AcDbLine
 10
9.7498086521
 20
6.5839120362
 30
0.0
 11
9.7575143029
 21
6.5794636586
 31
0.0
  0
LINE
  5
1E0
330
1F
100
AcDbEntity
  8
0
  6
Continuous
 62
     7
370
    18
100
AcDbLine
 10
9.7498086521
 20
6.5331922896
 30
0.0
 11
9.7498086521
 21
6.5839120362
 31
0.0
  0
LINE
  5
1E1
330
1F
100
AcDbEntity
  8
0
  6
Continuous
 62
     7
370
    18
100
AcDbLine
 10
9.7575143029
 20
6.5287439121
 30
0.0
 11
9.7498086521
 21
6.5331922896
 31
0.0
  0
LINE
  5
1E2
330
1F
100
AcDbEntity
  8
0
  6
Continuous
 62
     7
370
    18
100
AcDbLine
 10
9.7575143029
 20
6.5545765023
 30
0.0
 11
9.7575143029
 21
6.5287439121
 31
0.0
  0
LINE
  5
1E3
330
1F
100
AcDbEntity
  8
0
  6
Continuous
 62
     7
370
    18
100
AcDbLine
 10
9.9076781733
 20
6.4500645359
 30
0.0
 11
9.943124167
 21
6.4296019993
 31
0.0
  0
LINE
  5
1E4
330
1F
100
AcDbEntity
  8
0
  6
Continuous
 62
     7
370
    18
100
AcDbLine
 10
9.9076781733
 20
6.4740896791
 30
0.0
 11
9.9076781733
 21
6.4500645359
 31
0.0
  0
LINE
  5
1E5
330
1F
100
AcDbEntity
  8
0
  6
Continuous
 62
     7
370
    18
100
AcDbLine
 10
9.9392713416
 20
6.4558513312
 30
0.0
 11
9.9076781733
 21
6.4740896791
 31
0.0
  0
LINE
  5
1E6
330
1F
100
AcDbEntity
  8
0
  6
Continuous
 62
     7
370
    18
100
AcDbLine
 10
9.9392713416
 20
6.4638597122
 30
0.0
 11
9.9392713416
 21
6.4558513312
 31
0.0
  0
LINE
  5
1E7
330
1F
100
AcDbEntity
  8
0
  6
Continuous
 62
     7
370
    18
100
AcDbLine
 10
9.9076781733
 20
6.4820980601
 30
0.0
 11
9.9392713416
 21
6.4638597122
 31
0.0
  0
LINE
  5
1E8
330
1F
100
AcDbEntity
  8
0
  6
Continuous
 62
     7
370
    18
100
AcDbLine
 10
9.9076781733
 20
6.5034537429
 30
0.0
 11
9.9076781733
 21
6.4820980601
 31
0.0
  0
LINE
  5
1E9
330
1F
100
AcDbEntity
  8
0
  6
Continuous
 62
     7
370
    18
100
AcDbLine
 10
9.9415830369
 20
6.4838808817
 30
0.0
 11
9.9076781733
 21
6.5034537429
 31
0.0
  0
LINE
  5
1EA
330
1F
100
AcDbEntity
  8
0
  6
Continuous
 62
     7
370
    18
100
AcDbLine
 10
9.9415830369
 20
6.4918892628
 30
0.0
 11
9.9415830369
 21
6.4838808817
 31
0.0
  0
LINE
  5
1EB
330
1F
100
AcDbEntity
  8
0
  6
Continuous
 62
     7
370
    18
100
AcDbLine
 10
9.8992019574
 20
6.5163553392
 30
0.0
 11
9.9415830369
 21
6.4918892628
 31
0.0
  0
LINE
  5
1EC
330
1F
100
AcDbEntity
  8
0
  6
Continuous
 62
     7
370
    18
100
AcDbLine
 10
9.8992019574
 20
6.4469493702
 30
0.0
 11
9.8992019574
 21
6.5163553392
 31
0.0
  0
LINE
  5
1ED
330
1F
100
AcDbEntity
  8
0
  6
Continuous
 62
     7
370
    18
100
AcDbLine
 10
9.943124167
 20
6.4215936183
 30
0.0
 11
9.8992019574
 21
6.4469493702
 31
0.0
  0
LINE
  5
1EE
330
1F
100
AcDbEntity
  8
0
  6
Continuous
 62
     7
370
    18
100
AcDbLine
 10
9.943124167
 20
6.4296019993
 30
0.0
 11
9.943124167
 21
6.4215936183
 31
0.0
  0
LINE
  5
1EF
330
1F
100
AcDbEntity
  8
0
  6
Continuous
 62
     7
370
    18
100
AcDbLine
 10
10.03303948
 20
6.3696866129
 30
0.0
 11
10.0170984149
 21
6.4376173216
 31
0.0
  0
LINE
  5
1F0
330
1F
100
AcDbEntity
  8
0
  6
Continuous
 62
     7
370
    18
100
AcDbLine
 10
10.0419009785
 20
6.3645709788
 30
0.0
 11
10.03303948
 21
6.3696866129
 31
0.0
  0
LINE
  5
1F1
330
1F
100
AcDbEntity
  8
0
  6
Continuous
 62
     7
370
    18
100
AcDbLine
 10
10.0579383643
 20
6.4140409206
 30
0.0
 11
10.0419009785
 21
6.3645709788
 31
0.0
  0
LINE
  5
1F2
330
1F
100
AcDbEntity
  8
0
  6
Continuous
 62
     7
370
    18
100
AcDbLine
 10
10.0579383643
 20
6.355312793
 30
0.0
 11
10.0579383643
 21
6.4140409206
 31
0.0
  0
LINE
  5
1F3
330
1F
100
AcDbEntity
  8
0
  6
Continuous
 62
     7
370
    18
100
AcDbLine
 10
10.0664145802
 20
6.3504195777
 30
0.0
 11
10.0579383643
 21
6.355312793
 31
0.0
  0
LINE
  5
1F4
330
1F
100
AcDbEntity
  8
0
  6
Continuous
 62
     7
370
    18
100
AcDbLine
 10
10.0664145802
 20
6.4198255467
 30
0.0
 11
10.0664145802
 21
6.3504195777
 31
0.0
  0
LINE
  5
1F5
330
1F
100
AcDbEntity
  8
0
  6
Continuous
 62
     7
370
    18
100
AcDbLine
 10
10.0537724968
 20
6.4271236661
 30
0.0
 11
10.0664145802
 21
6.4198255467
 31
0.0
  0
LINE
  5
1F6
330
1F
100
AcDbEntity
  8
0
  6
Continuous
 62
     7
370
    18
100
AcDbLine
 10
10.040468209
 20
6.3869345264
 30
0.0
 11
10.0537724968
 21
6.4271236661
 31
0.0
  0
SPLINE
  5
1F7
330
1F
100
AcDbEntity
  8
0
  6
Continuous
 62
     7
370
    18
100
AcDbSpline
210
0.0
220
0.0
230
1.0
 70
     8
 71
     3
 72
    15
 73
    11
 74
     0
 42
0.000000001
 43
0.00000001
 40
0.0
 40
0.0
 40
0.0
 40
0.0
 40
0.0892047702332417
 40
0.1898334556643491
 40
0.2992325919749821
 40
0.4192609378429105
 40
0.5492073901909384
 40
0.6890743636843468
 40
0.8395791979483163
 40
1.0
 40
1.0
 40
1.0
 40
1.0
 10
10.03751838958866
 20
6.377611993597505
 30
0.0
 10
10.03760229602776
 20
6.377892733087569
 30
0.0
 10
10.03778085429593
 20
6.378490164675598
 30
0.0
 10
10.038070325792
 20
6.379424489933453
 30
0.0
 10
10.03837833170549
 20
6.380465542117218
 30
0.0
 10
10.03874692037338
 20
6.381568097019279
 30
0.0
 10
10.03913113043728
 20
6.382778743782119
 30
0.0
 10
10.03953440890257
 20
6.384094302891326
 30
0.0
 10
10.03999958275909
 20
6.385474592266238
 30
0.0
 10
10.0403087140345
 20
6.386437643910837
 30
0.0
 10
10.04046820904343
 20
6.386934526442217
 30
0.0
  0
SPLINE
  5
1F8
330
1F
100
AcDbEntity
  8
0
  6
Continuous
 62
     7
370
    18
100
AcDbSpline
210
0.0
220
0.0
230
1.0
 70
     8
 71
     3
 72
    15
 73
    11
 74
     0
 42
0.000000001
 43
0.00000001
 40
0.0
 40
0.0
 40
0.0
 40
0.0
 40
0.1625255217041965
 40
0.3143148980392426
 40
0.4549784905465753
 40
0.5845192373662023
 40
0.7045671033090722
 40
0.8134949897289324
 40
0.911681259682611
 40
1.0
 40
1.0
 40
1.0
 40
1.0
 10
10.03480937172204
 20
6.389367097334252
 30
0.0
 10
10.03495724349171
 20
6.388730004193081
 30
0.0
 10
10.03524321888633
 20
6.387497903144525
 30
0.0
 10
10.03566728646798
 20
6.385712232121622
 30
0.0
 10
10.03605311687421
 20
6.38405761110787
 30
0.0
 10
10.03640061791029
 20
6.382529535557913
 30
0.0
 10
10.03672855912767
 20
6.381123760855654
 30
0.0
 10
10.03701250454929
 20
6.379844411653091
 30
0.0
 10
10.03728396561013
 20
6.378685691704047
 30
0.0
 10
10.03744305392193
 20
6.37795704261182
 30
0.0
 10
10.03751838958866
 20
6.377611993597505
 30
0.0
  0
LINE
  5
1F9
330
1F
100
AcDbEntity
  8
0
  6
Continuous
 62
     7
370
    18
100
AcDbLine
 10
10.0213726431
 20
6.4458277035
 30
0.0
 11
10.0348093717
 21
6.3893670973
 31
0.0
  0
LINE
  5
1FA
330
1F
100
AcDbEntity
  8
0
  6
Continuous
 62
     7
370
    18
100
AcDbLine
 10
10.008622199
 20
6.4531883782
 30
0.0
 11
10.0213726431
 21
6.4458277035
 31
0.0
  0
LINE
  5
1FB
330
1F
100
AcDbEntity
  8
0
  6
Continuous
 62
     7
370
    18
100
AcDbLine
 10
10.008622199
 20
6.3837824092
 30
0.0
 11
10.008622199
 21
6.4531883782
 31
0.0
  0
LINE
  5
1FC
330
1F
100
AcDbEntity
  8
0
  6
Continuous
 62
     7
370
    18
100
AcDbLine
 10
10.0170984149
 20
6.3788891939
 30
0.0
 11
10.008622199
 21
6.3837824092
 31
0.0
  0
LINE
  5
1FD
330
1F
100
AcDbEntity
  8
0
  6
Continuous
 62
     7
370
    18
100
AcDbLine
 10
10.0170984149
 20
6.4376173216
 30
0.0
 11
10.0170984149
 21
6.3788891939
 31
0.0
  0
LINE
  5
1FE
330
1F
100
AcDbEntity
  8
0
  6
Continuous
 62
     7
370
    18
100
AcDbLine
 10
10.1635057805
 20
6.3637759898
 30
0.0
 11
10.1719819964
 21
6.3588827746
 31
0.0
  0
LINE
  5
1FF
330
1F
100
AcDbEntity
  8
0
  6
Continuous
 62
     7
370
    18
100
AcDbLine
 10
10.1635057805
 20
6.2943700208
 30
0.0
 11
10.1635057805
 21
6.3637759898
 31
0.0
  0
LINE
  5
200
330
1F
100
AcDbEntity
  8
0
  6
Continuous
 62
     7
370
    18
100
AcDbLine
 10
10.1719819964
 20
6.2894768055
 30
0.0
 11
10.1635057805
 21
6.2943700208
 31
0.0
  0
LINE
  5
201
330
1F
100
AcDbEntity
  8
0
  6
Continuous
 62
     7
370
    18
100
AcDbLine
 10
10.1719819964
 20
6.3588827746
 30
0.0
 11
10.1719819964
 21
6.2894768055
 31
0.0
  0
LINE
  5
202
330
1F
100
AcDbEntity
  8
0
  6
Continuous
 62
     7
370
    18
100
AcDbLine
 10
10.2642090047
 20
6.236235287
 30
0.0
 11
10.2482679395
 21
6.3041659956
 31
0.0
  0
LINE
  5
203
330
1F
100
AcDbEntity
  8
0
  6
Continuous
 62
     7
370
    18
100
AcDbLine
 10
10.2730705031
 20
6.2311196528
 30
0.0
 11
10.2642090047
 21
6.236235287
 31
0.0
  0
LINE
  5
204
330
1F
100
AcDbEntity
  8
0
  6
Continuous
 62
     7
370
    18
100
AcDbLine
 10
10.2891078889
 20
6.2805895947
 30
0.0
 11
10.2730705031
 21
6.2311196528
 31
0.0
  0
LINE
  5
205
330
1F
100
AcDbEntity
  8
0
  6
Continuous
 62
     7
370
    18
100
AcDbLine
 10
10.2891078889
 20
6.2218614671
 30
0.0
 11
10.2891078889
 21
6.2805895947
 31
0.0
  0
LINE
  5
206
330
1F
100
AcDbEntity
  8
0
  6
Continuous
 62
     7
370
    18
100
AcDbLine
 10
10.2975841048
 20
6.2169682518
 30
0.0
 11
10.2891078889
 21
6.2218614671
 31
0.0
  0
LINE
  5
207
330
1F
100
AcDbEntity
  8
0
  6
Continuous
 62
     7
370
    18
100
AcDbLine
 10
10.2975841048
 20
6.2863742208
 30
0.0
 11
10.2975841048
 21
6.2169682518
 31
0.0
  0
LINE
  5
208
330
1F
100
AcDbEntity
  8
0
  6
Continuous
 62
     7
370
    18
100
AcDbLine
 10
10.2849420214
 20
6.2936723402
 30
0.0
 11
10.2975841048
 21
6.2863742208
 31
0.0
  0
LINE
  5
209
330
1F
100
AcDbEntity
  8
0
  6
Continuous
 62
     7
370
    18
100
AcDbLine
 10
10.2716377337
 20
6.2534832005
 30
0.0
 11
10.2849420214
 21
6.2936723402
 31
0.0
  0
SPLINE
  5
20A
330
1F
100
AcDbEntity
  8
0
  6
Continuous
 62
     7
370
    18
100
AcDbSpline
210
0.0
220
0.0
230
1.0
 70
     8
 71
     3
 72
    15
 73
    11
 74
     0
 42
0.000000001
 43
0.00000001
 40
0.0
 40
0.0
 40
0.0
 40
0.0
 40
0.0892047702332424
 40
0.1898334556643487
 40
0.2992325919749821
 40
0.4192609378429105
 40
0.5492073901909384
 40
0.6890743636843474
 40
0.8395791979483168
 40
1.0
 40
1.0
 40
1.0
 40
1.0
 10
10.26868791420734
 20
6.244160667626484
 30
0.0
 10
10.26877182064644
 20
6.244441407116548
 30
0.0
 10
10.26895037891461
 20
6.245038838704576
 30
0.0
 10
10.26923985041068
 20
6.245973163962432
 30
0.0
 10
10.26954785632417
 20
6.247014216146196
 30
0.0
 10
10.26991644499206
 20
6.248116771048259
 30
0.0
 10
10.27030065505596
 20
6.249327417811097
 30
0.0
 10
10.27070393352125
 20
6.250642976920306
 30
0.0
 10
10.27116910737776
 20
6.252023266295218
 30
0.0
 10
10.27147823865318
 20
6.252986317939815
 30
0.0
 10
10.27163773366211
 20
6.253483200471196
 30
0.0
  0
SPLINE
  5
20B
330
1F
100
AcDbEntity
  8
0
  6
Continuous
 62
     7
370
    18
100
AcDbSpline
210
0.0
220
0.0
230
1.0
 70
     8
 71
     3
 72
    15
 73
    11
 74
     0
 42
0.000000001
 43
0.00000001
 40
0.0
 40
0.0
 40
0.0
 40
0.0
 40
0.1625255217041972
 40
0.3143148980392433
 40
0.4549784905465757
 40
0.5845192373662027
 40
0.704567103309073
 40
0.8134949897289324
 40
0.911681259682611
 40
1.0
 40
1.0
 40
1.0
 40
1.0
 10
10.26597889634072
 20
6.255915771363232
 30
0.0
 10
10.26612676811039
 20
6.25527867822206
 30
0.0
 10
10.26641274350501
 20
6.254046577173503
 30
0.0
 10
10.26683681108666
 20
6.252260906150601
 30
0.0
 10
10.26722264149288
 20
6.250606285136849
 30
0.0
 10
10.26757014252897
 20
6.249078209586893
 30
0.0
 10
10.26789808374635
 20
6.247672434884633
 30
0.0
 10
10.26818202916797
 20
6.24639308568207
 30
0.0
 10
10.26845349022881
 20
6.245234365733027
 30
0.0
 10
10.26861257854061
 20
6.244505716640798
 30
0.0
 10
10.26868791420734
 20
6.244160667626483
 30
0.0
  0
LINE
  5
20C
330
1F
100
AcDbEntity
  8
0
  6
Continuous
 62
     7
370
    18
100
AcDbLine
 10
10.2525421677
 20
6.3123763776
 30
0.0
 11
10.2659788963
 21
6.2559157714
 31
0.0
  0
LINE
  5
20D
330
1F
100
AcDbEntity
  8
0
  6
Continuous
 62
     7
370
    18
100
AcDbLine
 10
10.2397917236
 20
6.3197370523
 30
0.0
 11
10.2525421677
 21
6.3123763776
 31
0.0
  0
LINE
  5
20E
330
1F
100
AcDbEntity
  8
0
  6
Continuous
 62
     7
370
    18
100
AcDbLine
 10
10.2397917236
 20
6.2503310833
 30
0.0
 11
10.2397917236
 21
6.3197370523
 31
0.0
  0
LINE
  5
20F
330
1F
100
AcDbEntity
  8
0
  6
Continuous
 62
     7
370
    18
100
AcDbLine
 10
10.2482679395
 20
6.245437868
 30
0.0
 11
10.2397917236
 21
6.2503310833
 31
0.0
  0
LINE
  5
210
330
1F
100
AcDbEntity
  8
0
  6
Continuous
 62
     7
370
    18
100
AcDbLine
 10
10.2482679395
 20
6.3041659956
 30
0.0
 11
10.2482679395
 21
6.245437868
 31
0.0
  0
LINE
  5
211
330
1F
100
AcDbEntity
  8
0
  6
Continuous
 62
     7
370
    18
100
AcDbLine
 10
10.4085454766
 20
6.2143092033
 30
0.0
 11
10.3892813496
 21
6.2254301471
 31
0.0
  0
LINE
  5
212
330
1F
100
AcDbEntity
  8
0
  6
Continuous
 62
     7
370
    18
100
AcDbLine
 10
10.4085454766
 20
6.2223175843
 30
0.0
 11
10.4085454766
 21
6.2143092033
 31
0.0
  0
LINE
  5
213
330
1F
100
AcDbEntity
  8
0
  6
Continuous
 62
     7
370
    18
100
AcDbLine
 10
10.3615410066
 20
6.2494526873
 30
0.0
 11
10.4085454766
 21
6.2223175843
 31
0.0
  0
LINE
  5
214
330
1F
100
AcDbEntity
  8
0
  6
Continuous
 62
     7
370
    18
100
AcDbLine
 10
10.3615410066
 20
6.2414443062
 30
0.0
 11
10.3615410066
 21
6.2494526873
 31
0.0
  0
LINE
  5
215
330
1F
100
AcDbEntity
  8
0
  6
Continuous
 62
     7
370
    18
100
AcDbLine
 10
10.3808051336
 20
6.2303233624
 30
0.0
 11
10.3615410066
 21
6.2414443062
 31
0.0
  0
LINE
  5
216
330
1F
100
AcDbEntity
  8
0
  6
Continuous
 62
     7
370
    18
100
AcDbLine
 10
10.3808051336
 20
6.1689257744
 30
0.0
 11
10.3808051336
 21
6.2303233624
 31
0.0
  0
LINE
  5
217
330
1F
100
AcDbEntity
  8
0
  6
Continuous
 62
     7
370
    18
100
AcDbLine
 10
10.3892813496
 20
6.1640325591
 30
0.0
 11
10.3808051336
 21
6.1689257744
 31
0.0
  0
LINE
  5
218
330
1F
100
AcDbEntity
  8
0
  6
Continuous
 62
     7
370
    18
100
AcDbLine
 10
10.3892813496
 20
6.2254301471
 30
0.0
 11
10.3892813496
 21
6.1640325591
 31
0.0
  0
LINE
  5
219
330
1F
100
AcDbEntity
  8
0
  6
Continuous
 62
     7
370
    18
100
AcDbLine
 10
10.4896594916
 20
6.1372291952
 30
0.0
 11
10.4809785943
 21
6.1422405705
 31
0.0
  0
SPLINE
  5
21A
330
1F
100
AcDbEntity
  8
0
  6
Continuous
 62
     7
370
    18
100
AcDbSpline
210
0.0
220
0.0
230
1.0
 70
     8
 71
     3
 72
    11
 73
     7
 74
     0
 42
0.000000001
 43
0.00000001
 40
0.0
 40
0.0
 40
0.0
 40
0.0
 40
0.1774946570818461
 40
0.4052256231013865
 40
0.67838810833485
 40
1.0
 40
1.0
 40
1.0
 40
1.0
 10
10.49383739912241
 20
6.13449756142715
 30
0.0
 10
10.49359309336096
 20
6.134689471113504
 30
0.0
 10
10.49303533598371
 20
6.135127606680572
 30
0.0
 10
10.49208826534894
 20
6.135750196074305
 30
0.0
 10
10.4909407730867
 20
6.136493141477082
 30
0.0
 10
10.49010916588895
 20
6.13697087223757
 30
0.0
 10
10.4896594915681
 20
6.137229195224494
 30
0.0
  0
SPLINE
  5
21B
330
1F
100
AcDbEntity
  8
0
  6
Continuous
 62
     7
370
    18
100
AcDbSpline
210
0.0
220
0.0
230
1.0
 70
     8
 71
     3
 72
    21
 73
    17
 74
     0
 42
0.000000001
 43
0.00000001
 40
0.0
 40
0.0
 40
0.0
 40
0.0
 40
0.0807565202394666
 40
0.1564928761205837
 40
0.2278645863309012
 40
0.2942194159581935
 40
0.3567576405439986
 40
0.4148044898400759
 40
0.4680257207328432
 40
0.5167566765914664
 40
0.6042176202059655
 40
0.6814453118756422
 40
0.7479519834168781
 40
0.8047659882074071
 40
0.9054352660002635
 40
1.0
 40
1.0
 40
1.0
 40
1.0
 10
10.50645540234118
 20
6.111043643306246
 30
0.0
 10
10.50618612156743
 20
6.111713244123788
 30
0.0
 10
10.50566429964343
 20
6.113010820560699
 30
0.0
 10
10.50491081668266
 20
6.114901105871505
 30
0.0
 10
10.50417105728081
 20
6.116667244430577
 30
0.0
 10
10.50348827693414
 20
6.118325951183629
 30
0.0
 10
10.50281917473218
 20
6.119868874550042
 30
0.0
 10
10.50221936937497
 20
6.121307680791647
 30
0.0
 10
10.50161700834996
 20
6.122621956242411
 30
0.0
 10
10.50092536421263
 20
6.124182421527038
 30
0.0
 10
10.5000806942907
 20
6.125925492924429
 30
0.0
 10
10.49909502421642
 20
6.127784224382708
 30
0.0
 10
10.49818876616398
 20
6.129375739682061
 30
0.0
 10
10.49704356781606
 20
6.131056190491304
 30
0.0
 10
10.49561957371858
 20
6.132811551809666
 30
0.0
 10
10.49441894362208
 20
6.133947396689333
 30
0.0
 10
10.49383739912241
 20
6.13449756142715
 30
0.0
  0
LINE
  5
21C
330
1F
100
AcDbEntity
  8
0
  6
Continuous
 62
     7
370
    18
100
AcDbLine
 10
10.5139443317
 20
6.0920661514
 30
0.0
 11
10.5064554023
 21
6.1110436433
 31
0.0
  0
LINE
  5
21D
330
1F
100
AcDbEntity
  8
0
  6
Continuous
 62
     7
370
    18
100
AcDbLine
 10
10.5236606758
 20
6.0864570253
 30
0.0
 11
10.5139443317
 21
6.0920661514
 31
0.0
  0
LINE
  5
21E
330
1F
100
AcDbEntity
  8
0
  6
Continuous
 62
     7
370
    18
100
AcDbLine
 10
10.5137998508
 20
6.1113084978
 30
0.0
 11
10.5236606758
 21
6.0864570253
 31
0.0
  0
SPLINE
  5
21F
330
1F
100
AcDbEntity
  8
0
  6
Continuous
 62
     7
370
    18
100
AcDbSpline
210
0.0
220
0.0
230
1.0
 70
     8
 71
     3
 72
    11
 73
     7
 74
     0
 42
0.000000001
 43
0.00000001
 40
0.0
 40
0.0
 40
0.0
 40
0.0
 40
0.2295426438440583
 40
0.4707541631011943
 40
0.728168497232973
 40
1.0
 40
1.0
 40
1.0
 40
1.0
 10
10.50746676901139
 20
6.124418846817289
 30
0.0
 10
10.50803551364848
 20
6.123448674775004
 30
0.0
 10
10.50920191524241
 20
6.121459011677196
 30
0.0
 10
10.5107936225567
 20
6.118277277882526
 30
0.0
 10
10.5123685979701
 20
6.114879564782393
 30
0.0
 10
10.5133141803171
 20
6.11252027656237
 30
0.0
 10
10.51379985077958
 20
6.111308497805512
 30
0.0
  0
SPLINE
  5
220
330
1F
100
AcDbEntity
  8
0
  6
Continuous
 62
     7
370
    18
100
AcDbSpline
210
0.0
220
0.0
230
1.0
 70
     8
 71
     3
 72
    11
 73
     7
 74
     0
 42
0.000000001
 43
0.00000001
 40
0.0
 40
0.0
 40
0.0
 40
0.0
 40
0.2931378033625625
 40
0.555909619387244
 40
0.791869901104762
 40
1.0
 40
1.0
 40
1.0
 40
1.0
 10
10.50279521820138
 20
6.130535921765304
 30
0.0
 10
10.5032806352019
 20
6.129976292438594
 30
0.0
 10
10.50420118511702
 20
6.12891500548604
 30
0.0
 10
10.50545385648578
 20
6.127315153495234
 30
0.0
 10
10.50655125231358
 20
6.125856302148247
 30
0.0
 10
10.50717461844752
 20
6.124877553235731
 30
0.0
 10
10.50746676901139
 20
6.124418846817289
 30
0.0
  0
SPLINE
  5
221
330
1F
100
AcDbEntity
  8
0
  6
Continuous
 62
     7
370
    18
100
AcDbSpline
210
0.0
220
0.0
230
1.0
 70
     8
 71
     3
 72
    23
 73
    19
 74
     0
 42
0.000000001
 43
0.00000001
 40
0.0
 40
0.0
 40
0.0
 40
0.0
 40
0.0614153619466867
 40
0.1212995515295254
 40
0.1792307330403279
 40
0.2359469026963515
 40
0.2922277422078003
 40
0.3482096381939256
 40
0.4044598375581918
 40
0.462042782104682
 40
0.5206936332154621
 40
0.5803701846851828
 40
0.6422200441272128
 40
0.7065528540690782
 40
0.7743053019200286
 40
0.8452659380071899
 40
0.9206237685683545
 40
1.0
 40
1.0
 40
1.0
 40
1.0
 10
10.51873628333655
 20
6.139991756292456
 30
0.0
 10
10.51872452192505
 20
6.139404836307971
 30
0.0
 10
10.51870129233079
 20
6.138245629089368
 30
0.0
 10
10.51852335389793
 20
6.136624287435839
 30
0.0
 10
10.51820138178381
 20
6.135162892077413
 30
0.0
 10
10.51778853858221
 20
6.133816292392002
 30
0.0
 10
10.51722339794299
 20
6.132642529166642
 30
0.0
 10
10.51656900626675
 20
6.131574106178269
 30
0.0
 10
10.51575716444591
 20
6.130691844115585
 30
0.0
 10
10.51485069953506
 20
6.129914324335966
 30
0.0
 10
10.51379664492307
 20
6.129330826941327
 30
0.0
 10
10.5126241787526
 20
6.128905991556111
 30
0.0
 10
10.51129805195423
 20
6.128726116706011
 30
0.0
 10
10.50986175907888
 20
6.12867665852514
 30
0.0
 10
10.50827828455625
 20
6.128869209401834
 30
0.0
 10
10.50657150869126
 20
6.129219144796306
 30
0.0
 10
10.5047282219864
 20
6.129793366951642
 30
0.0
 10
10.50345061251811
 20
6.130284154951133
 30
0.0
 10
10.50279521820138
 20
6.130535921765304
 30
0.0
  0
SPLINE
  5
222
330
1F
100
AcDbEntity
  8
0
  6
Continuous
 62
     7
370
    18
100
AcDbSpline
210
0.0
220
0.0
230
1.0
 70
     8
 71
     3
 72
    27
 73
    23
 74
     0
 42
0.000000001
 43
0.00000001
 40
0.0
 40
0.0
 40
0.0
 40
0.0
 40
0.0621037847913043
 40
0.1201946065074399
 40
0.1743599492228157
 40
0.2250078830566525
 40
0.2723159650400776
 40
0.3163395597264791
 40
0.3568150324191075
 40
0.3939185202750507
 40
0.4295244282576425
 40
0.4646130316301353
 40
0.4999612336345999
 40
0.5354025186231406
 40
0.5715684610701042
 40
0.6081082509152262
 40
0.645530039744227
 40
0.6843794722622699
 40
0.7626128937075266
 40
0.840520312571822
 40
0.9190846743554545
 40
1.0
 40
1.0
 40
1.0
 40
1.0
 10
10.49858119040885
 20
6.17034107308001
 30
0.0
 10
10.49919526950355
 20
6.169981042902245
 30
0.0
 10
10.50038374771626
 20
6.16928424663302
 30
0.0
 10
10.50210723883768
 20
6.168212819591298
 30
0.0
 10
10.50371214395622
 20
6.167123852582307
 30
0.0
 10
10.50520857786942
 20
6.166078514961639
 30
0.0
 10
10.50659397995486
 20
6.165010803171033
 30
0.0
 10
10.50786901046131
 20
6.163960406247027
 30
0.0
 10
10.50902877935644
 20
6.162919375568987
 30
0.0
 10
10.51008211121481
 20
6.161872159391424
 30
0.0
 10
10.5110594529075
 20
6.160811292989742
 30
0.0
 10
10.51196511702531
 20
6.159675328582876
 30
0.0
 10
10.51283799101613
 20
6.158500720455836
 30
0.0
 10
10.51364328019345
 20
6.157241291584064
 30
0.0
 10
10.51441725450342
 20
6.155940832671393
 30
0.0
 10
10.51512750992264
 20
6.15457533738942
 30
0.0
 10
10.5157950664186
 20
6.153156585790754
 30
0.0
 10
10.51660672693217
 20
6.151191588478628
 30
0.0
 10
10.51745919146309
 20
6.148693605769623
 30
0.0
 10
10.51819343361019
 20
6.145721305211263
 30
0.0
 10
10.51866031466525
 20
6.142783266599711
 30
0.0
 10
10.51871071279871
 20
6.140931359667187
 30
0.0
 10
10.51873628333655
 20
6.139991756292456
 30
0.0
  0
LINE
  5
223
330
1F
100
AcDbEntity
  8
0
  6
Continuous
 62
     7
370
    18
100
AcDbLine
 10
10.4725023784
 20
6.1853960508
 30
0.0
 11
10.4985811904
 21
6.1703410731
 31
0.0
  0
LINE
  5
224
330
1F
100
AcDbEntity
  8
0
  6
Continuous
 62
     7
370
    18
100
AcDbLine
 10
10.4725023784
 20
6.1159900818
 30
0.0
 11
10.4725023784
 21
6.1853960508
 31
0.0
  0
LINE
  5
225
330
1F
100
AcDbEntity
  8
0
  6
Continuous
 62
     7
370
    18
100
AcDbLine
 10
10.4809785943
 20
6.1110968665
 30
0.0
 11
10.4725023784
 21
6.1159900818
 31
0.0
  0
LINE
  5
226
330
1F
100
AcDbEntity
  8
0
  6
Continuous
 62
     7
370
    18
100
AcDbLine
 10
10.4809785943
 20
6.1422405705
 30
0.0
 11
10.4809785943
 21
6.1110968665
 31
0.0
  0
LWPOLYLINE
  5
227
330
1F
100
AcDbEntity
  8
0
  6
Continuous
 62
     7
370
    18
100
AcDbPolyline
 90
       79
 70
   128
 43
0.0
 10
9.8266617671
 20
7.1583893964
 10
9.8271306216
 20
7.1715538263
 10
9.8285341441
 20
7.184091552
 10
9.8308632324
 20
7.1959212617
 10
9.8341027814
 20
7.206966235
 10
9.8382317814
 20
7.217154841
 10
9.8432234542
 20
7.2264210029
 10
9.849045427
 20
7.2347046258
 10
9.855659942
 20
7.2419519875
 10
9.8630241015
 20
7.2481160859
 10
9.8710901461
 20
7.2531569445
 10
9.8798057645
 20
7.2570418714
 10
9.8891144325
 20
7.2597456713
 10
9.8989557798
 20
7.2612508091
 10
9.9092659816
 20
7.2615475235
 10
9.9199781721
 20
7.26063389
 10
9.9310228788
 20
7.2585158339
 10
9.9423284724
 20
7.2552070917
 10
9.9538216319
 20
7.2507291218
 10
9.9654278198
 20
7.2451109655
 10
9.9770717653
 20
7.2383890588
 10
9.9886779531
 20
7.2306069959
 10
10.0001711126
 20
7.2218152463
 10
10.0114767063
 20
7.2120708279
 10
10.0225214129
 20
7.2014369371
 10
10.0332336035
 20
7.1899825386
 10
10.0435438052
 20
7.1777819188
 10
10.0533851526
 20
7.1649142032
 10
10.0626938206
 20
7.1514628439
 10
10.0714094389
 20
7.1375150782
 10
10.0794754836
 20
7.1231613627
 10
10.0868396431
 20
7.1084947867
 10
10.0934541581
 20
7.0936104687
 10
10.0992761308
 20
7.078604939
 10
10.1042678037
 20
7.0635755144
 10
10.1083968037
 20
7.0486196664
 10
10.1116363527
 20
7.0338343894
 10
10.113965441
 20
7.0193155717
 10
10.1153689635
 20
7.0051573733
 10
10.1158378179
 20
6.9914516156
 10
10.1153689635
 20
6.9782871857
 10
10.113965441
 20
6.96574946
 10
10.1116363527
 20
6.9539197503
 10
10.1083968037
 20
6.942874777
 10
10.1042678037
 20
6.932686171
 10
10.0992761308
 20
6.9234200091
 10
10.0934541581
 20
6.9151363862
 10
10.0868396431
 20
6.9078890245
 10
10.0794754836
 20
6.9017249261
 10
10.0714094389
 20
6.8966840675
 10
10.0626938206
 20
6.8927991407
 10
10.0533851526
 20
6.8900953407
 10
10.0435438052
 20
6.8885902029
 10
10.0332336035
 20
6.8882934886
 10
10.0225214129
 20
6.8892071221
 10
10.0114767063
 20
6.8913251781
 10
10.0001711126
 20
6.8946339203
 10
9.9886779531
 20
6.8991118902
 10
9.9770717653
 20
6.9047300465
 10
9.9654278198
 20
6.9114519532
 10
9.9538216319
 20
6.9192340161
 10
9.9423284724
 20
6.9280257657
 10
9.9310228788
 20
6.9377701841
 10
9.9199781721
 20
6.9484040749
 10
9.9092659816
 20
6.9598584734
 10
9.8989557798
 20
6.9720590932
 10
9.8891144325
 20
6.9849268088
 10
9.8798057645
 20
6.9983781681
 10
9.8710901461
 20
7.0123259338
 10
9.8630241015
 20
7.0266796493
 10
9.855659942
 20
7.0413462253
 10
9.849045427
 20
7.0562305434
 10
9.8432234542
 20
7.071236073
 10
9.8382317814
 20
7.0862654976
 10
9.8341027814
 20
7.1012213456
 10
9.8308632324
 20
7.1160066226
 10
9.8285341441
 20
7.1305254403
 10
9.8271306216
 20
7.1446836387
 10
9.8266617671
 20
7.1583893964
  0
LINE
  5
228
330
1F
100
AcDbEntity
  8
0
  6
Continuous
 62
     7
370
    18
100
AcDbLine
 10
9.2994983504
 20
8.1649394573
 30
0.0
 11
10.6430012347
 21
7.3893517511
 31
0.0
  0
LINE
  5
229
330
1F
100
AcDbEntity
  8
0
  6
Continuous
 62
     7
370
    18
100
AcDbLine
 10
10.6430012347
 20
7.3893517511
 30
0.0
 11
10.6430012347
 21
5.8607873513
 31
0.0
  0
LINE
  5
22A
330
1F
100
AcDbEntity
  8
0
  6
Continuous
 62
     7
370
    18
100
AcDbLine
 10
9.2994983504
 20
6.6363750575
 30
0.0
 11
10.6430012347
 21
5.8607873513
 31
0.0
  0
LINE
  5
22B
330
1F
100
AcDbEntity
  8
0
  6
Continuous
 62
     7
370
    18
100
AcDbLine
 10
9.2994983504
 20
6.6363750575
 30
0.0
 11
9.2994983504
 21
8.1649394573
 31
0.0
  0
LINE
  5
22C
330
1F
100
AcDbEntity
  8
0
  6
Continuous
 62
     7
370
    18
100
AcDbLine
 10
10.4254979084
 20
6.1511335658
 30
0.0
 11
10.4609439022
 21
6.1306710291
 31
0.0
  0
LINE
  5
22D
330
1F
100
AcDbEntity
  8
0
  6
Continuous
 62
     7
370
    18
100
AcDbLine
 10
10.4254979084
 20
6.1751587089
 30
0.0
 11
10.4254979084
 21
6.1511335658
 31
0.0
  0
LINE
  5
22E
330
1F
100
AcDbEntity
  8
0
  6
Continuous
 62
     7
370
    18
100
AcDbLine
 10
10.4570910768
 20
6.156920361
 30
0.0
 11
10.4254979084
 21
6.1751587089
 31
0.0
  0
LINE
  5
22F
330
1F
100
AcDbEntity
  8
0
  6
Continuous
 62
     7
370
    18
100
AcDbLine
 10
10.4570910768
 20
6.164928742
 30
0.0
 11
10.4570910768
 21
6.156920361
 31
0.0
  0
LINE
  5
230
330
1F
100
AcDbEntity
  8
0
  6
Continuous
 62
     7
370
    18
100
AcDbLine
 10
10.4254979084
 20
6.1831670899
 30
0.0
 11
10.4570910768
 21
6.164928742
 31
0.0
  0
LINE
  5
231
330
1F
100
AcDbEntity
  8
0
  6
Continuous
 62
     7
370
    18
100
AcDbLine
 10
10.4254979084
 20
6.2045227727
 30
0.0
 11
10.4254979084
 21
6.1831670899
 31
0.0
  0
LINE
  5
232
330
1F
100
AcDbEntity
  8
0
  6
Continuous
 62
     7
370
    18
100
AcDbLine
 10
10.459402772
 20
6.1849499116
 30
0.0
 11
10.4254979084
 21
6.2045227727
 31
0.0
  0
LINE
  5
233
330
1F
100
AcDbEntity
  8
0
  6
Continuous
 62
     7
370
    18
100
AcDbLine
 10
10.459402772
 20
6.1929582926
 30
0.0
 11
10.459402772
 21
6.1849499116
 31
0.0
  0
LINE
  5
234
330
1F
100
AcDbEntity
  8
0
  6
Continuous
 62
     7
370
    18
100
AcDbLine
 10
10.4170216925
 20
6.217424369
 30
0.0
 11
10.459402772
 21
6.1929582926
 31
0.0
  0
LINE
  5
235
330
1F
100
AcDbEntity
  8
0
  6
Continuous
 62
     7
370
    18
100
AcDbLine
 10
10.4170216925
 20
6.1480184
 30
0.0
 11
10.4170216925
 21
6.217424369
 31
0.0
  0
LINE
  5
236
330
1F
100
AcDbEntity
  8
0
  6
Continuous
 62
     7
370
    18
100
AcDbLine
 10
10.4609439022
 20
6.1226626481
 30
0.0
 11
10.4170216925
 21
6.1480184
 31
0.0
  0
LINE
  5
237
330
1F
100
AcDbEntity
  8
0
  6
Continuous
 62
     7
370
    18
100
AcDbLine
 10
10.4609439022
 20
6.1306710291
 30
0.0
 11
10.4609439022
 21
6.1226626481
 31
0.0
  0
LINE
  5
238
330
1F
100
AcDbEntity
  8
0
  6
Continuous
 62
     7
370
    18
100
AcDbLine
 10
10.3191599271
 20
6.2125211757
 30
0.0
 11
10.3546059209
 21
6.1920586391
 31
0.0
  0
LINE
  5
239
330
1F
100
AcDbEntity
  8
0
  6
Continuous
 62
     7
370
    18
100
AcDbLine
 10
10.3191599271
 20
6.2365463188
 30
0.0
 11
10.3191599271
 21
6.2125211757
 31
0.0
  0
LINE
  5
23A
330
1F
100
AcDbEntity
  8
0
  6
Continuous
 62
     7
370
    18
100
AcDbLine
 10
10.3507530954
 20
6.218307971
 30
0.0
 11
10.3191599271
 21
6.2365463188
 31
0.0
  0
LINE
  5
23B
330
1F
100
AcDbEntity
  8
0
  6
Continuous
 62
     7
370
    18
100
AcDbLine
 10
10.3507530954
 20
6.226316352
 30
0.0
 11
10.3507530954
 21
6.218307971
 31
0.0
  0
LINE
  5
23C
330
1F
100
AcDbEntity
  8
0
  6
Continuous
 62
     7
370
    18
100
AcDbLine
 10
10.3191599271
 20
6.2445546999
 30
0.0
 11
10.3507530954
 21
6.226316352
 31
0.0
  0
LINE
  5
23D
330
1F
100
AcDbEntity
  8
0
  6
Continuous
 62
     7
370
    18
100
AcDbLine
 10
10.3191599271
 20
6.2659103826
 30
0.0
 11
10.3191599271
 21
6.2445546999
 31
0.0
  0
LINE
  5
23E
330
1F
100
AcDbEntity
  8
0
  6
Continuous
 62
     7
370
    18
100
AcDbLine
 10
10.3530647907
 20
6.2463375215
 30
0.0
 11
10.3191599271
 21
6.2659103826
 31
0.0
  0
LINE
  5
23F
330
1F
100
AcDbEntity
  8
0
  6
Continuous
 62
     7
370
    18
100
AcDbLine
 10
10.3530647907
 20
6.2543459025
 30
0.0
 11
10.3530647907
 21
6.2463375215
 31
0.0
  0
LINE
  5
240
330
1F
100
AcDbEntity
  8
0
  6
Continuous
 62
     7
370
    18
100
AcDbLine
 10
10.3106837112
 20
6.278811979
 30
0.0
 11
10.3530647907
 21
6.2543459025
 31
0.0
  0
LINE
  5
241
330
1F
100
AcDbEntity
  8
0
  6
Continuous
 62
     7
370
    18
100
AcDbLine
 10
10.3106837112
 20
6.20940601
 30
0.0
 11
10.3106837112
 21
6.278811979
 31
0.0
  0
LINE
  5
242
330
1F
100
AcDbEntity
  8
0
  6
Continuous
 62
     7
370
    18
100
AcDbLine
 10
10.3546059209
 20
6.184050258
 30
0.0
 11
10.3106837112
 21
6.20940601
 31
0.0
  0
LINE
  5
243
330
1F
100
AcDbEntity
  8
0
  6
Continuous
 62
     7
370
    18
100
AcDbLine
 10
10.3546059209
 20
6.1920586391
 30
0.0
 11
10.3546059209
 21
6.184050258
 31
0.0
  0
LINE
  5
244
330
1F
100
AcDbEntity
  8
0
  6
Continuous
 62
     7
370
    18
100
AcDbLine
 10
10.219082787
 20
6.2836417806
 30
0.0
 11
10.1934614981
 21
6.2984326359
 31
0.0
  0
LINE
  5
245
330
1F
100
AcDbEntity
  8
0
  6
Continuous
 62
     7
370
    18
100
AcDbLine
 10
10.2259215522
 20
6.2583381628
 30
0.0
 11
10.219082787
 21
6.2836417806
 31
0.0
  0
LINE
  5
246
330
1F
100
AcDbEntity
  8
0
  6
Continuous
 62
     7
370
    18
100
AcDbLine
 10
10.2349154915
 20
6.2531460722
 30
0.0
 11
10.2259215522
 21
6.2583381628
 31
0.0
  0
LINE
  5
247
330
1F
100
AcDbEntity
  8
0
  6
Continuous
 62
     7
370
    18
100
AcDbLine
 10
10.2110520541
 20
6.3363281103
 30
0.0
 11
10.2349154915
 21
6.2531460722
 31
0.0
  0
LINE
  5
248
330
1F
100
AcDbEntity
  8
0
  6
Continuous
 62
     7
370
    18
100
AcDbLine
 10
10.201492231
 20
6.3418468787
 30
0.0
 11
10.2110520541
 21
6.3363281103
 31
0.0
  0
LINE
  5
249
330
1F
100
AcDbEntity
  8
0
  6
Continuous
 62
     7
370
    18
100
AcDbLine
 10
10.1776287937
 20
6.2862169789
 30
0.0
 11
10.201492231
 21
6.3418468787
 31
0.0
  0
LINE
  5
24A
330
1F
100
AcDbEntity
  8
0
  6
Continuous
 62
     7
370
    18
100
AcDbLine
 10
10.186622733
 20
6.2810248882
 30
0.0
 11
10.1776287937
 21
6.2862169789
 31
0.0
  0
LINE
  5
24B
330
1F
100
AcDbEntity
  8
0
  6
Continuous
 62
     7
370
    18
100
AcDbLine
 10
10.1934614981
 20
6.2984326359
 30
0.0
 11
10.186622733
 21
6.2810248882
 31
0.0
  0
SPLINE
  5
24C
330
1F
100
AcDbEntity
  8
0
  6
Continuous
 62
     7
370
    18
100
AcDbSpline
210
0.0
220
0.0
230
1.0
 70
     8
 71
     3
 72
    23
 73
    19
 74
     0
 42
0.000000001
 43
0.00000001
 40
0.0
 40
0.0
 40
0.0
 40
0.0
 40
0.0568085774416421
 40
0.1138743061995227
 40
0.1705217881146937
 40
0.22753238754802
 40
0.2853338163942524
 40
0.343678406679814
 40
0.4031638464236856
 40
0.4640016976891356
 40
0.5258265021920403
 40
0.5890966672842429
 40
0.6532934596517426
 40
0.7191151703198085
 40
0.7867627456159788
 40
0.8557978498721194
 40
0.9268406513628026
 40
1.0
 40
1.0
 40
1.0
 40
1.0
 10
10.14254400225787
 20
6.369912391383243
 30
0.0
 10
10.14293059448159
 20
6.369297187162386
 30
0.0
 10
10.14370552888836
 20
6.368063993919813
 30
0.0
 10
10.14476987348639
 20
6.366154829786139
 30
0.0
 10
10.14575734078318
 20
6.364211331738676
 30
0.0
 10
10.14669697477648
 20
6.362240124456147
 30
0.0
 10
10.14753035693626
 20
6.360223812639094
 30
0.0
 10
10.14830734233383
 20
6.358172424727891
 30
0.0
 10
10.14900391082231
 20
6.356083278570845
 30
0.0
 10
10.1496323306506
 20
6.35395862070656
 30
0.0
 10
10.15016660947923
 20
6.351806012330112
 30
0.0
 10
10.15065401777143
 20
6.349626814080524
 30
0.0
 10
10.15104895796212
 20
6.347429016831078
 30
0.0
 10
10.15136940642305
 20
6.345210684649884
 30
0.0
 10
10.15164089102047
 20
6.342959501470065
 30
0.0
 10
10.15181508742355
 20
6.340695910526276
 30
0.0
 10
10.15192759310304
 20
6.338404854026814
 30
0.0
 10
10.15194066990542
 20
6.336889674092914
 30
0.0
 10
10.15194730427491
 20
6.336120964493688
 30
0.0
  0
SPLINE
  5
24D
330
1F
100
AcDbEntity
  8
0
  6
Continuous
 62
     7
370
    18
100
AcDbSpline
210
0.0
220
0.0
230
1.0
 70
     8
 71
     3
 72
    11
 73
     7
 74
     0
 42
0.000000001
 43
0.00000001
 40
0.0
 40
0.0
 40
0.0
 40
0.0
 40
0.2612129589999406
 40
0.5120481565985866
 40
0.7577925134560944
 40
0.9999999999999999
 40
0.9999999999999999
 40
0.9999999999999999
 40
0.9999999999999999
 10
10.13380290460822
 20
6.379922047478389
 30
0.0
 10
10.13463218790513
 20
6.379193028617419
 30
0.0
 10
10.13625780780203
 20
6.377763954174426
 30
0.0
 10
10.13855194881817
 20
6.375318528075317
 30
0.0
 10
10.14066805873456
 20
6.372717180367824
 30
0.0
 10
10.14192171675518
 20
6.370842792272994
 30
0.0
 10
10.14254400225787
 20
6.369912391383243
 30
0.0
  0
SPLINE
  5
24E
330
1F
100
AcDbEntity
  8
0
  6
Continuous
 62
     7
370
    18
100
AcDbSpline
210
0.0
220
0.0
230
1.0
 70
     8
 71
     3
 72
    15
 73
    11
 74
     0
 42
0.000000001
 43
0.00000001
 40
0.0
 40
0.0
 40
0.0
 40
0.0
 40
0.1579006741699971
 40
0.3068429927578538
 40
0.4456810446995552
 40
0.5745702240195034
 40
0.6946513602279512
 40
0.8061472401516251
 40
0.9077586887724007
 40
0.9999999999999999
 40
0.9999999999999999
 40
0.9999999999999999
 40
0.9999999999999999
 10
10.12318355457105
 20
6.387053515395139
 30
0.0
 10
10.12374549297558
 20
6.386728461947892
 30
0.0
 10
10.12483748870452
 20
6.386096796674242
 30
0.0
 10
10.12642246313992
 20
6.385114456922472
 30
0.0
 10
10.12790458433011
 20
6.384202829499819
 30
0.0
 10
10.12928088157385
 20
6.383289364062868
 30
0.0
 10
10.13055914153492
 20
6.382422939559614
 30
0.0
 10
10.13173327301141
 20
6.381554135745082
 30
0.0
 10
10.13280943600954
 20
6.380754481939979
 30
0.0
 10
10.13348259441843
 20
6.380190437682909
 30
0.0
 10
10.13380290460822
 20
6.379922047478389
 30
0.0
  0
LINE
  5
24F
330
1F
100
AcDbEntity
  8
0
  6
Continuous
 62
     7
370
    18
100
AcDbLine
 10
10.102631139
 20
6.3989181723
 30
0.0
 11
10.1231835546
 21
6.3870535154
 31
0.0
  0
LINE
  5
250
330
1F
100
AcDbEntity
  8
0
  6
Continuous
 62
     7
370
    18
100
AcDbLine
 10
10.102631139
 20
6.3295122033
 30
0.0
 11
10.102631139
 21
6.3989181723
 31
0.0
  0
LINE
  5
251
330
1F
100
AcDbEntity
  8
0
  6
Continuous
 62
     7
370
    18
100
AcDbLine
 10
10.124158801
 20
6.3170845486
 30
0.0
 11
10.102631139
 21
6.3295122033
 31
0.0
  0
SPLINE
  5
252
330
1F
100
AcDbEntity
  8
0
  6
Continuous
 62
     7
370
    18
100
AcDbSpline
210
0.0
220
0.0
230
1.0
 70
     8
 71
     3
 72
    27
 73
    23
 74
     0
 42
0.000000001
 43
0.00000001
 40
0.0
 40
0.0
 40
0.0
 40
0.0
 40
0.0705448498222794
 40
0.1372786169672313
 40
0.2002401813168831
 40
0.2603471513035002
 40
0.3169835805266445
 40
0.3701254960162121
 40
0.4196042158245999
 40
0.4660254160925956
 40
0.5099228771101213
 40
0.5518746116228237
 40
0.5918332769026645
 40
0.6301567736499494
 40
0.6686714112176136
 40
0.7086659988092269
 40
0.7506200671937266
 40
0.7950143457720112
 40
0.8419640617654018
 40
0.8917538081988116
 40
0.9442885369986657
 40
1.0
 40
1.0
 40
1.0
 40
1.0
 10
10.15194730427491
 20
6.336120964493688
 30
0.0
 10
10.15193108612805
 20
6.334850322721551
 30
0.0
 10
10.15189952599608
 20
6.332377683746785
 30
0.0
 10
10.15159020133482
 20
6.32893769892877
 30
0.0
 10
10.15110689369472
 20
6.325816298620372
 30
0.0
 10
10.15040780280944
 20
6.323057199185003
 30
0.0
 10
10.14954770759606
 20
6.320634219603206
 30
0.0
 10
10.14859509349064
 20
6.318510361779443
 30
0.0
 10
10.14752366833174
 20
6.316720555766942
 30
0.0
 10
10.14633637511464
 20
6.315268521009972
 30
0.0
 10
10.14506624091329
 20
6.314099068503993
 30
0.0
 10
10.14372757948821
 20
6.31318996697539
 30
0.0
 10
10.14234435560541
 20
6.312498849107874
 30
0.0
 10
10.14087273021708
 20
6.312076150179479
 30
0.0
 10
10.13929828540735
 20
6.311890445847407
 30
0.0
 10
10.13759197788131
 20
6.311922090400607
 30
0.0
 10
10.13572365745219
 20
6.312219481846201
 30
0.0
 10
10.13371099464093
 20
6.312706862289292
 30
0.0
 10
10.13153505122737
 20
6.313459373536881
 30
0.0
 10
10.12921166969282
 20
6.314426403837275
 30
0.0
 10
10.12673469835161
 20
6.315631537772759
 30
0.0
 10
10.12503406974241
 20
6.31659082747017
 30
0.0
 10
10.12415880100304
 20
6.31708454860341
 30
0.0
  0
LINE
  5
253
330
1F
100
AcDbEntity
  8
0
  6
Continuous
 62
     7
370
    18
100
AcDbLine
 10
9.9879132624
 20
6.4170931066
 30
0.0
 11
9.9622919735
 21
6.4318839619
 31
0.0
  0
LINE
  5
254
330
1F
100
AcDbEntity
  8
0
  6
Continuous
 62
     7
370
    18
100
AcDbLine
 10
9.9947520275
 20
6.3917894888
 30
0.0
 11
9.9879132624
 21
6.4170931066
 31
0.0
  0
LINE
  5
255
330
1F
100
AcDbEntity
  8
0
  6
Continuous
 62
     7
370
    18
100
AcDbLine
 10
10.0037459669
 20
6.3865973981
 30
0.0
 11
9.9947520275
 21
6.3917894888
 31
0.0
  0
LINE
  5
256
330
1F
100
AcDbEntity
  8
0
  6
Continuous
 62
     7
370
    18
100
AcDbLine
 10
9.9798825295
 20
6.4697794363
 30
0.0
 11
10.0037459669
 21
6.3865973981
 31
0.0
  0
LINE
  5
257
330
1F
100
AcDbEntity
  8
0
  6
Continuous
 62
     7
370
    18
100
AcDbLine
 10
9.9703227064
 20
6.4752982047
 30
0.0
 11
9.9798825295
 21
6.4697794363
 31
0.0
  0
LINE
  5
258
330
1F
100
AcDbEntity
  8
0
  6
Continuous
 62
     7
370
    18
100
AcDbLine
 10
9.946459269
 20
6.4196683049
 30
0.0
 11
9.9703227064
 21
6.4752982047
 31
0.0
  0
LINE
  5
259
330
1F
100
AcDbEntity
  8
0
  6
Continuous
 62
     7
370
    18
100
AcDbLine
 10
9.9554532083
 20
6.4144762142
 30
0.0
 11
9.946459269
 21
6.4196683049
 31
0.0
  0
LINE
  5
25A
330
1F
100
AcDbEntity
  8
0
  6
Continuous
 62
     7
370
    18
100
AcDbLine
 10
9.9622919735
 20
6.4318839619
 30
0.0
 11
9.9554532083
 21
6.4144762142
 31
0.0
  0
SPLINE
  5
25B
330
1F
100
AcDbEntity
  8
0
  6
Continuous
 62
     7
370
    18
100
AcDbSpline
210
0.0
220
0.0
230
1.0
 70
     8
 71
     3
 72
    23
 73
    19
 74
     0
 42
0.000000001
 43
0.00000001
 40
0.0
 40
0.0
 40
0.0
 40
0.0
 40
0.0704566919359964
 40
0.137942215327459
 40
0.2035567971151967
 40
0.267663058809511
 40
0.3301505615828461
 40
0.3914919015323506
 40
0.4521864543380016
 40
0.5126700013837516
 40
0.5729633191795123
 40
0.6329948591069363
 40
0.6923528599375409
 40
0.7514888206306592
 40
0.8116098011100288
 40
0.8729753007059771
 40
0.9354272115819273
 40
1.0
 40
1.0
 40
1.0
 40
1.0
 10
9.877084331487419
 20
6.49620022856101
 30
0.0
 10
9.877527749533861
 20
6.495783959182194
 30
0.0
 10
9.878395886625768
 20
6.494968974562437
 30
0.0
 10
9.87964390421376
 20
6.493674239507427
 30
0.0
 10
9.880815486575086
 20
6.492344101314087
 30
0.0
 10
9.881912833389068
 20
6.490975811399554
 30
0.0
 10
9.882929791521379
 20
6.489567576552193
 30
0.0
 10
9.883856758154097
 20
6.488120493931829
 30
0.0
 10
9.88471948646785
 20
6.486651479346376
 30
0.0
 10
9.885489020335807
 20
6.485146416306317
 30
0.0
 10
9.88617479710938
 20
6.483622923449882
 30
0.0
 10
9.886777570080014
 20
6.482095533624813
 30
0.0
 10
9.88728612322694
 20
6.480574065221905
 30
0.0
 10
9.887695713602605
 20
6.479061119266531
 30
0.0
 10
9.888024575899943
 20
6.47754793973567
 30
0.0
 10
9.888250503921526
 20
6.476039913930976
 30
0.0
 10
9.888384498009108
 20
6.474534848979228
 30
0.0
 10
9.88840408778207
 20
6.473556406499704
 30
0.0
 10
9.888414046209617
 20
6.473059016940345
 30
0.0
  0
SPLINE
  5
25C
330
1F
100
AcDbEntity
  8
0
  6
Continuous
 62
     7
370
    18
100
AcDbSpline
210
0.0
220
0.0
230
1.0
 70
     8
 71
     3
 72
    15
 73
    11
 74
     0
 42
0.000000001
 43
0.00000001
 40
0.0
 40
0.0
 40
0.0
 40
0.0
 40
0.1158295875216575
 40
0.2305424686501962
 40
0.3473153149035146
 40
0.4672171589244833
 40
0.5918251525040962
 40
0.7200018400675182
 40
0.855616714316189
 40
1.0
 40
1.0
 40
1.0
 40
1.0
 10
9.886102350963428
 20
6.505926530543673
 30
0.0
 10
9.886074295264125
 20
6.505198445383495
 30
0.0
 10
9.886018454348903
 20
6.503749294490307
 30
0.0
 10
9.88557437034185
 20
6.50182342747292
 30
0.0
 10
9.884874504276308
 20
6.500114662500899
 30
0.0
 10
9.883887837816504
 20
6.498655393184056
 30
0.0
 10
9.882630468062429
 20
6.497466588540597
 30
0.0
 10
9.8810430009046
 20
6.496679187115857
 30
0.0
 10
9.87919195941355
 20
6.496215555995031
 30
0.0
 10
9.877801389803981
 20
6.496205443268929
 30
0.0
 10
9.877084331487419
 20
6.49620022856101
 30
0.0
  0
SPLINE
  5
25D
330
1F
100
AcDbEntity
  8
0
  6
Continuous
 62
     7
370
    18
100
AcDbSpline
210
0.0
220
0.0
230
1.0
 70
     8
 71
     3
 72
    23
 73
    19
 74
     0
 42
0.000000001
 43
0.00000001
 40
0.0
 40
0.0
 40
0.0
 40
0.0
 40
0.0587091926504242
 40
0.1145583248299046
 40
0.1675915981453282
 40
0.2178819266220619
 40
0.2656718295366474
 40
0.310945339472663
 40
0.3539520014062909
 40
0.3948891755968526
 40
0.4729198560061289
 40
0.5489382800594228
 40
0.625093835912611
 40
0.7025647876113138
 40
0.7798271041064178
 40
0.8541202275563292
 40
0.927183600144177
 40
1.0
 40
1.0
 40
1.0
 40
1.0
 10
9.866224179862105
 20
6.535393004919801
 30
0.0
 10
9.86678221259773
 20
6.535068377258875
 30
0.0
 10
9.867871093103622
 20
6.534434936406592
 30
0.0
 10
9.869461120141569
 20
6.533396538155376
 30
0.0
 10
9.870966859944073
 20
6.532361793533237
 30
0.0
 10
9.87239216259059
 20
6.531327996867171
 30
0.0
 10
9.8737277866051
 20
6.530242660127376
 30
0.0
 10
9.874984446923305
 20
6.529162963226464
 30
0.0
 10
9.87615564486799
 20
6.528056125487522
 30
0.0
 10
9.877586131545403
 20
6.526571047794068
 30
0.0
 10
9.879230016510363
 20
6.524615748322611
 30
0.0
 10
9.88098702946392
 20
6.522079689507092
 30
0.0
 10
9.882517316331391
 20
6.5193855311278
 30
0.0
 10
9.88379716222007
 20
6.516577428342504
 30
0.0
 10
9.88480816136304
 20
6.513759513973596
 30
0.0
 10
9.885552627006254
 20
6.511014388640509
 30
0.0
 10
9.88602186548912
 20
6.508375458712427
 30
0.0
 10
9.886075552769304
 20
6.506741918078257
 30
0.0
 10
9.886102350963428
 20
6.505926530543673
 30
0.0
  0
LINE
  5
25E
330
1F
100
AcDbEntity
  8
0
  6
Continuous
 62
     7
370
    18
100
AcDbLine
 10
9.8437212715
 20
6.5483836574
 30
0.0
 11
9.8662241799
 21
6.5353930049
 31
0.0
  0
LINE
  5
25F
330
1F
100
AcDbEntity
  8
0
  6
Continuous
 62
     7
370
    18
100
AcDbLine
 10
9.8437212715
 20
6.4789776884
 30
0.0
 11
9.8437212715
 21
6.5483836574
 31
0.0
  0
LINE
  5
260
330
1F
100
AcDbEntity
  8
0
  6
Continuous
 62
     7
370
    18
100
AcDbLine
 10
9.8662843803
 20
6.465952283
 30
0.0
 11
9.8437212715
 21
6.4789776884
 31
0.0
  0
SPLINE
  5
261
330
1F
100
AcDbEntity
  8
0
  6
Continuous
 62
     7
370
    18
100
AcDbSpline
210
0.0
220
0.0
230
1.0
 70
     8
 71
     3
 72
    23
 73
    19
 74
     0
 42
0.000000001
 43
0.00000001
 40
0.0
 40
0.0
 40
0.0
 40
0.0
 40
0.0642665479584312
 40
0.1274461798182316
 40
0.1891017562790038
 40
0.251362275940341
 40
0.3116800339902287
 40
0.3686477590533376
 40
0.4221317262002525
 40
0.4735202330394787
 40
0.5252432158190506
 40
0.5796098773427357
 40
0.6368832354805298
 40
0.6979197025564187
 40
0.7638889414843453
 40
0.8362842685641498
 40
0.9146618961957456
 40
1.0
 40
1.0
 40
1.0
 40
1.0
 10
9.888414046209617
 20
6.473059016940345
 30
0.0
 10
9.888394874071453
 20
6.472280470755315
 30
0.0
 10
9.888356854046336
 20
6.470736545645808
 30
0.0
 10
9.888003756392445
 20
6.468647654485094
 30
0.0
 10
9.88746513285602
 20
6.466743103541386
 30
0.0
 10
9.88669383758007
 20
6.465103172112363
 30
0.0
 10
9.885774624746034
 20
6.463698627183541
 30
0.0
 10
9.884744191698951
 20
6.462562471226271
 30
0.0
 10
9.88360510103385
 20
6.461723303922921
 30
0.0
 10
9.882339544001168
 20
6.461195965975881
 30
0.0
 10
9.880940917631843
 20
6.460932698197042
 30
0.0
 10
9.879391554286363
 20
6.460912957118411
 30
0.0
 10
9.877681757744693
 20
6.461120154747737
 30
0.0
 10
9.875799893075841
 20
6.461567769811192
 30
0.0
 10
9.873722384068447
 20
6.462267689596533
 30
0.0
 10
9.871436733279495
 20
6.463237923911145
 30
0.0
 10
9.86893266731649
 20
6.464454517486229
 30
0.0
 10
9.86719181376879
 20
6.46543907478015
 30
0.0
 10
9.86628438025914
 20
6.465952282960041
 30
0.0
  0
SPLINE
  5
262
330
1F
100
AcDbEntity
  8
0
  6
Continuous
 62
     7
370
    18
100
AcDbSpline
210
0.0
220
0.0
230
1.0
 70
     8
 71
     3
 72
    23
 73
    19
 74
     0
 42
0.000000001
 43
0.00000001
 40
0.0
 40
0.0
 40
0.0
 40
0.0
 40
0.0698823039034415
 40
0.1383882841653966
 40
0.206758214230359
 40
0.2765984302164998
 40
0.3471345171864646
 40
0.4179202738343029
 40
0.490213056594082
 40
0.5664711022702205
 40
0.6078661527170743
 40
0.6522325532418384
 40
0.7005469750391916
 40
0.7525228927159189
 40
0.808321340815731
 40
0.8684702740719038
 40
0.931979790540806
 40
1.0
 40
1.0
 40
1.0
 40
1.0
 10
9.698493833640082
 20
6.606416889387651
 30
0.0
 10
9.698002319626015
 20
6.606682414460467
 30
0.0
 10
9.697028971907773
 20
6.607208235121456
 30
0.0
 10
9.695607864851366
 20
6.607643282611024
 30
0.0
 10
9.69424326691515
 20
6.607847901389269
 30
0.0
 10
9.692956570720535
 20
6.607767153807425
 30
0.0
 10
9.691768123029567
 20
6.607417301755631
 30
0.0
 10
9.690748029386263
 20
6.606723477103549
 30
0.0
 10
9.689907024956785
 20
6.605710183326116
 30
0.0
 10
9.689368696194423
 20
6.604604051456656
 30
0.0
 10
9.68903198610042
 20
6.603543327510425
 30
0.0
 10
9.688781600100546
 20
6.602639143054032
 30
0.0
 10
9.688597252393224
 20
6.601590940228208
 30
0.0
 10
9.688445345881332
 20
6.600425373211602
 30
0.0
 10
9.688304306781214
 20
6.599154380413652
 30
0.0
 10
9.688233816207655
 20
6.597741863423517
 30
0.0
 10
9.688162126576605
 20
6.596231004442147
 30
0.0
 10
9.688162995926799
 20
6.595163801128364
 30
0.0
 10
9.688163445508685
 20
6.594611900085259
 30
0.0
  0
SPLINE
  5
263
330
1F
100
AcDbEntity
  8
0
  6
Continuous
 62
     7
370
    18
100
AcDbSpline
210
0.0
220
0.0
230
1.0
 70
     8
 71
     3
 72
    23
 73
    19
 74
     0
 42
0.000000001
 43
0.00000001
 40
0.0
 40
0.0
 40
0.0
 40
0.0
 40
0.0840520374929027
 40
0.1623146334137115
 40
0.236660019901578
 40
0.3057775454542925
 40
0.3698548822538634
 40
0.4308818052540364
 40
0.4880260023390452
 40
0.5427446849665438
 40
0.5951151179188187
 40
0.6466861713516503
 40
0.6997262587744727
 40
0.7534139566544632
 40
0.8093158108836093
 40
0.8690272915375964
 40
0.9322090442192221
 40
1.0
 40
1.0
 40
1.0
 40
1.0
 10
9.705886442396118
 20
6.590901344794834
 30
0.0
 10
9.705883518466134
 20
6.591357458031093
 30
0.0
 10
9.70587787200428
 20
6.592238267764523
 30
0.0
 10
9.705786402551238
 20
6.593566551412834
 30
0.0
 10
9.70566310153961
 20
6.594828210124921
 30
0.0
 10
9.705469291399735
 20
6.596040637061965
 30
0.0
 10
9.705225183699449
 20
6.597193141217709
 30
0.0
 10
9.704945304603296
 20
6.598286816733326
 30
0.0
 10
9.704591444547303
 20
6.59933349502878
 30
0.0
 10
9.704185503041655
 20
6.600324289234952
 30
0.0
 10
9.703708286100012
 20
6.601259959823716
 30
0.0
 10
9.703172259588474
 20
6.60215317331333
 30
0.0
 10
9.702557694194175
 20
6.602993197329167
 30
0.0
 10
9.701871601672831
 20
6.603772344503537
 30
0.0
 10
9.701132603468027
 20
6.604538148037808
 30
0.0
 10
9.700308629946118
 20
6.605198379060698
 30
0.0
 10
9.699425285311664
 20
6.605863672843061
 30
0.0
 10
9.698811517454779
 20
6.60622820762605
 30
0.0
 10
9.698493833640082
 20
6.606416889387651
 30
0.0
  0
LINE
  5
264
330
1F
100
AcDbEntity
  8
0
  6
Continuous
 62
     7
370
    18
100
AcDbLine
 10
9.7058864424
 20
6.5585480415
 30
0.0
 11
9.7058864424
 21
6.5909013448
 31
0.0
  0
LINE
  5
265
330
1F
100
AcDbEntity
  8
0
  6
Continuous
 62
     7
370
    18
100
AcDbLine
 10
9.7135920932
 20
6.554099664
 30
0.0
 11
9.7058864424
 21
6.5585480415
 31
0.0
  0
LINE
  5
266
330
1F
100
AcDbEntity
  8
0
  6
Continuous
 62
     7
370
    18
100
AcDbLine
 10
9.7135920932
 20
6.5830327212
 30
0.0
 11
9.7135920932
 21
6.554099664
 31
0.0
  0
SPLINE
  5
267
330
1F
100
AcDbEntity
  8
0
  6
Continuous
 62
     7
370
    18
100
AcDbSpline
210
0.0
220
0.0
230
1.0
 70
     8
 71
     3
 72
    23
 73
    19
 74
     0
 42
0.000000001
 43
0.00000001
 40
0.0
 40
0.0
 40
0.0
 40
0.0
 40
0.0585757660198504
 40
0.1150346943684868
 40
0.1697636152311763
 40
0.2236478972929972
 40
0.2768730316667482
 40
0.3302884546297408
 40
0.3850366836323361
 40
0.4406848389014087
 40
0.4978802676984122
 40
0.557223262316252
 40
0.6200374272436313
 40
0.6862557553842882
 40
0.7567477502249743
 40
0.8318929806595926
 40
0.9128343922551198
 40
1.0
 40
1.0
 40
1.0
 40
1.0
 10
9.723850240871693
 20
6.591778947070204
 30
0.0
 10
9.72348843653204
 20
6.591978029620798
 30
0.0
 10
9.7227779029025
 20
6.592369000186238
 30
0.0
 10
9.721739604079767
 20
6.592790549810465
 30
0.0
 10
9.720742457999796
 20
6.593113794005547
 30
0.0
 10
9.719803253274932
 20
6.593255417761858
 30
0.0
 10
9.718903329671472
 20
6.593291871792066
 30
0.0
 10
9.718055741816212
 20
6.593172530314496
 30
0.0
 10
9.717246731246483
 20
6.592935452234001
 30
0.0
 10
9.716500171233942
 20
6.592536766186604
 30
0.0
 10
9.715800711005713
 20
6.592011988853953
 30
0.0
 10
9.715213428299093
 20
6.591262269279722
 30
0.0
 10
9.714706310051268
 20
6.590344021254653
 30
0.0
 10
9.714302460774993
 20
6.589230948935774
 30
0.0
 10
9.713975551709783
 20
6.587955858307426
 30
0.0
 10
9.713750263111327
 20
6.586489993586974
 30
0.0
 10
9.713620470196057
 20
6.584835956908321
 30
0.0
 10
9.713601782844163
 20
6.58364845559
 30
0.0
 10
9.71359209321674
 20
6.583032721193451
 30
0.0
  0
SPLINE
  5
268
330
1F
100
AcDbEntity
  8
0
  6
Continuous
 62
     7
370
    18
100
AcDbSpline
210
0.0
220
0.0
230
1.0
 70
     8
 71
     3
 72
    19
 73
    15
 74
     0
 42
0.000000001
 43
0.00000001
 40
0.0
 40
0.0
 40
0.0
 40
0.0
 40
0.1364148811765273
 40
0.2528973605082375
 40
0.3492204458013846
 40
0.4269322474132376
 40
0.4944524086148367
 40
0.5607020268402075
 40
0.6286260433619774
 40
0.6988364310940757
 40
0.7714182240963995
 40
0.8441568540005452
 40
0.9199641120853086
 40
1.0
 40
1.0
 40
1.0
 40
1.0
 10
9.731315090104172
 20
6.575234554747371
 30
0.0
 10
9.731304525695638
 20
6.576023977235471
 30
0.0
 10
9.73128494050808
 20
6.577487474926082
 30
0.0
 10
9.731179744240038
 20
6.579552126004692
 30
0.0
 10
9.730968555238173
 20
6.581325885974614
 30
0.0
 10
9.730678695157915
 20
6.582845283015361
 30
0.0
 10
9.730233391287618
 20
6.584209852716301
 30
0.0
 10
9.729670726788864
 20
6.585499560199469
 30
0.0
 10
9.728964107144353
 20
6.586758860528521
 30
0.0
 10
9.728129748981873
 20
6.587979604802408
 30
0.0
 10
9.727184739386399
 20
6.589122631288795
 30
0.0
 10
9.726141234572891
 20
6.590137328267859
 30
0.0
 10
9.725025207014655
 20
6.591061416216673
 30
0.0
 10
9.724248917502512
 20
6.591535482367065
 30
0.0
 10
9.723850240871693
 20
6.591778947070204
 30
0.0
  0
LINE
  5
269
330
1F
100
AcDbEntity
  8
0
  6
Continuous
 62
     7
370
    18
100
AcDbLine
 10
9.7313150901
 20
6.5438683957
 30
0.0
 11
9.7313150901
 21
6.5752345547
 31
0.0
  0
LINE
  5
26A
330
1F
100
AcDbEntity
  8
0
  6
Continuous
 62
     7
370
    18
100
AcDbLine
 10
9.7390207409
 20
6.5394200181
 30
0.0
 11
9.7313150901
 21
6.5438683957
 31
0.0
  0
LINE
  5
26B
330
1F
100
AcDbEntity
  8
0
  6
Continuous
 62
     7
370
    18
100
AcDbLine
 10
9.7390207409
 20
6.5740673889
 30
0.0
 11
9.7390207409
 21
6.5394200181
 31
0.0
  0
SPLINE
  5
26C
330
1F
100
AcDbEntity
  8
0
  6
Continuous
 62
     7
370
    18
100
AcDbSpline
210
0.0
220
0.0
230
1.0
 70
     8
 71
     3
 72
    23
 73
    19
 74
     0
 42
0.000000001
 43
0.00000001
 40
0.0
 40
0.0
 40
0.0
 40
0.0
 40
0.0684858423217285
 40
0.1336315466164039
 40
0.1953270837667381
 40
0.2542221042059964
 40
0.3112724040630445
 40
0.3666124446917546
 40
0.421256485225581
 40
0.4760702201722826
 40
0.5314280570704059
 40
0.5882286934627514
 40
0.6473050178610777
 40
0.7093984115158151
 40
0.7752829671512436
 40
0.8452284978288169
 40
0.9203967621689221
 40
1.0
 40
1.0
 40
1.0
 40
1.0
 10
9.725704413100406
 20
6.598716937266127
 30
0.0
 10
9.726222639597392
 20
6.598404168920315
 30
0.0
 10
9.72723381805329
 20
6.597793886322243
 30
0.0
 10
9.728703442296524
 20
6.596746924493687
 30
0.0
 10
9.730084652001745
 20
6.595638916293175
 30
0.0
 10
9.731369441412896
 20
6.594431848856535
 30
0.0
 10
9.732565363895649
 20
6.593159968833237
 30
0.0
 10
9.733673657628744
 20
6.591810810019314
 30
0.0
 10
9.734676145570889
 20
6.59037100287509
 30
0.0
 10
9.735600917890466
 20
6.58886654701075
 30
0.0
 10
9.736411746621153
 20
6.587273903325723
 30
0.0
 10
9.737113065027183
 20
6.585607356077961
 30
0.0
 10
9.737704819762268
 20
6.583865107568322
 30
0.0
 10
9.738180422847485
 20
6.582049197535776
 30
0.0
 10
9.738572449351244
 20
6.580151356004876
 30
0.0
 10
9.738823541215616
 20
6.578184030715508
 30
0.0
 10
9.739002265232273
 20
6.576126609570871
 30
0.0
 10
9.73901446582473
 20
6.574766784369882
 30
0.0
 10
9.739020740924795
 20
6.57406738889097
 30
0.0
  0
SPLINE
  5
26D
330
1F
100
AcDbEntity
  8
0
  6
Continuous
 62
     7
370
    18
100
AcDbSpline
210
0.0
220
0.0
230
1.0
 70
     8
 71
     3
 72
    15
 73
    11
 74
     0
 42
0.000000001
 43
0.00000001
 40
0.0
 40
0.0
 40
0.0
 40
0.0
 40
0.1423029469909947
 40
0.2753838759350548
 40
0.4024786494899639
 40
0.5233761876629224
 40
0.6412310342564409
 40
0.7583226851907686
 40
0.8775530580400307
 40
1.0
 40
1.0
 40
1.0
 40
1.0
 10
9.712388085276018
 20
6.596991661279801
 30
0.0
 10
9.71281542588746
 20
6.597493834132977
 30
0.0
 10
9.713642413075089
 20
6.59846563626091
 30
0.0
 10
9.715083068736542
 20
6.599555152200657
 30
0.0
 10
9.716607924825464
 20
6.600312347476184
 30
0.0
 10
9.718238055769158
 20
6.600711614065425
 30
0.0
 10
9.719963529700644
 20
6.600756061328923
 30
0.0
 10
9.721789624896292
 20
6.600449735515165
 30
0.0
 10
9.723718485648392
 20
6.599770559688771
 30
0.0
 10
9.725036589578812
 20
6.599071247206305
 30
0.0
 10
9.725704413100406
 20
6.598716937266127
 30
0.0
  0
SPLINE
  5
26E
330
1F
100
AcDbEntity
  8
0
  6
Continuous
 62
     7
370
    18
100
AcDbSpline
210
0.0
220
0.0
230
1.0
 70
     8
 71
     3
 72
    15
 73
    11
 74
     0
 42
0.000000001
 43
0.00000001
 40
0.0
 40
0.0
 40
0.0
 40
0.0
 40
0.1427448629824135
 40
0.2746346497965597
 40
0.3982435516696309
 40
0.5176044543884913
 40
0.6347051380894374
 40
0.7520881184910999
 40
0.8730810341089225
 40
1.0
 40
1.0
 40
1.0
 40
1.0
 10
9.700709208251011
 20
6.613146361886742
 30
0.0
 10
9.701441966477917
 20
6.612698456454448
 30
0.0
 10
9.70285176011131
 20
6.611836706693579
 30
0.0
 10
9.704858613204587
 20
6.610188662658893
 30
0.0
 10
9.706674801113934
 20
6.608386636711333
 30
0.0
 10
9.708268545498765
 20
6.606365176470228
 30
0.0
 10
9.709645323159426
 20
6.604190696475242
 30
0.0
 10
9.710801123749913
 20
6.601885195060738
 30
0.0
 10
9.711743947767548
 20
6.59945796179584
 30
0.0
 10
9.71216997818309
 20
6.597826758799772
 30
0.0
 10
9.712388085276018
 20
6.596991661279801
 30
0.0
  0
SPLINE
  5
26F
330
1F
100
AcDbEntity
  8
0
  6
Continuous
 62
     7
370
    18
100
AcDbSpline
210
0.0
220
0.0
230
1.0
 70
     8
 71
     3
 72
    15
 73
    11
 74
     0
 42
0.000000001
 43
0.00000001
 40
0.0
 40
0.0
 40
0.0
 40
0.0
 40
0.1266319284235808
 40
0.2498443757728012
 40
0.3726046475920056
 40
0.4967509664038974
 40
0.6205941793274083
 40
0.7437520563069234
 40
0.8691668313601795
 40
1.0
 40
1.0
 40
1.0
 40
1.0
 10
9.688163445508685
 20
6.611587999476598
 30
0.0
 10
9.688502623610736
 20
6.612033829825183
 30
0.0
 10
9.689171820883791
 20
6.612913451627752
 30
0.0
 10
9.690413610091644
 20
6.613886962589715
 30
0.0
 10
9.691790459518892
 20
6.614610376895937
 30
0.0
 10
9.693329326108294
 20
6.615025587567391
 30
0.0
 10
9.695002034053186
 20
6.615130984827568
 30
0.0
 10
9.696807417485553
 20
6.614836840511649
 30
0.0
 10
9.698719719837472
 20
6.614213719575239
 30
0.0
 10
9.700036762438435
 20
6.613507128103459
 30
0.0
 10
9.700709208251011
 20
6.613146361886742
 30
0.0
  0
LINE
  5
270
330
1F
100
AcDbEntity
  8
0
  6
Continuous
 62
     7
370
    18
100
AcDbLine
 10
9.6881634455
 20
6.6194990564
 30
0.0
 11
9.6881634455
 21
6.6115879995
 31
0.0
  0
LINE
  5
271
330
1F
100
AcDbEntity
  8
0
  6
Continuous
 62
     7
370
    18
100
AcDbLine
 10
9.6804577947
 20
6.623947434
 30
0.0
 11
9.6881634455
 21
6.6194990564
 31
0.0
  0
LINE
  5
272
330
1F
100
AcDbEntity
  8
0
  6
Continuous
 62
     7
370
    18
100
AcDbLine
 10
9.6804577947
 20
6.5732276874
 30
0.0
 11
9.6804577947
 21
6.623947434
 31
0.0
  0
LINE
  5
273
330
1F
100
AcDbEntity
  8
0
  6
Continuous
 62
     7
370
    18
100
AcDbLine
 10
9.6881634455
 20
6.5687793099
 30
0.0
 11
9.6804577947
 21
6.5732276874
 31
0.0
  0
LINE
  5
274
330
1F
100
AcDbEntity
  8
0
  6
Continuous
 62
     7
370
    18
100
AcDbLine
 10
9.6881634455
 20
6.5946119001
 30
0.0
 11
9.6881634455
 21
6.5687793099
 31
0.0
  0
LINE
  5
275
330
1F
100
AcDbEntity
  8
0
  6
Continuous
 62
     7
370
    18
100
AcDbLine
 10
9.6133223119
 20
6.6208823778
 30
0.0
 11
9.6210279627
 21
6.6164340003
 31
0.0
  0
LINE
  5
276
330
1F
100
AcDbEntity
  8
0
  6
Continuous
 62
     7
370
    18
100
AcDbLine
 10
9.6133223119
 20
6.6119841766
 30
0.0
 11
9.6133223119
 21
6.6208823778
 31
0.0
  0
LINE
  5
277
330
1F
100
AcDbEntity
  8
0
  6
Continuous
 62
     7
370
    18
100
AcDbLine
 10
9.6210279627
 20
6.6075357991
 30
0.0
 11
9.6133223119
 21
6.6119841766
 31
0.0
  0
LINE
  5
278
330
1F
100
AcDbEntity
  8
0
  6
Continuous
 62
     7
370
    18
100
AcDbLine
 10
9.6210279627
 20
6.6164340003
 30
0.0
 11
9.6210279627
 21
6.6075357991
 31
0.0
  0
LINE
  5
279
330
1F
100
AcDbEntity
  8
0
  6
Continuous
 62
     7
370
    18
100
AcDbLine
 10
9.5339541085
 20
6.6862767089
 30
0.0
 11
9.5563004958
 21
6.6733764141
 31
0.0
  0
LINE
  5
27A
330
1F
100
AcDbEntity
  8
0
  6
Continuous
 62
     7
370
    18
100
AcDbLine
 10
9.5339541085
 20
6.6782683279
 30
0.0
 11
9.5339541085
 21
6.6862767089
 31
0.0
  0
LINE
  5
27B
330
1F
100
AcDbEntity
  8
0
  6
Continuous
 62
     7
370
    18
100
AcDbLine
 10
9.5563004958
 20
6.665368033
 30
0.0
 11
9.5339541085
 21
6.6782683279
 31
0.0
  0
LINE
  5
27C
330
1F
100
AcDbEntity
  8
0
  6
Continuous
 62
     7
370
    18
100
AcDbLine
 10
9.5563004958
 20
6.6733764141
 30
0.0
 11
9.5563004958
 21
6.665368033
 31
0.0
  0
LINE
  5
27D
330
1F
100
AcDbEntity
  8
0
  6
Continuous
 62
     7
370
    18
100
AcDbLine
 10
9.4699972066
 20
6.7036221999
 30
0.0
 11
9.4777028575
 21
6.6991738224
 31
0.0
  0
LINE
  5
27E
330
1F
100
AcDbEntity
  8
0
  6
Continuous
 62
     7
370
    18
100
AcDbLine
 10
9.4699972066
 20
6.6947239987
 30
0.0
 11
9.4699972066
 21
6.7036221999
 31
0.0
  0
LINE
  5
27F
330
1F
100
AcDbEntity
  8
0
  6
Continuous
 62
     7
370
    18
100
AcDbLine
 10
9.4777028575
 20
6.6902756212
 30
0.0
 11
9.4699972066
 21
6.6947239987
 31
0.0
  0
LINE
  5
280
330
1F
100
AcDbEntity
  8
0
  6
Continuous
 62
     7
370
    18
100
AcDbLine
 10
9.4777028575
 20
6.6991738224
 30
0.0
 11
9.4777028575
 21
6.6902756212
 31
0.0
  0
LINE
  5
281
330
1F
100
AcDbEntity
  8
0
  6
Continuous
 62
     7
370
    18
100
AcDbLine
 10
10.7335109027
 20
7.4416018703
 30
0.0
 11
10.6430012347
 21
7.3893517511
 31
0.0
  0
LINE
  5
282
330
1F
100
AcDbEntity
  8
0
  6
Continuous
 62
     7
370
    18
100
AcDbLine
 10
10.7335109027
 20
7.4416018703
 30
0.0
 11
10.7335109027
 21
5.8085202465
 31
0.0
  0
LINE
  5
283
330
1F
100
AcDbEntity
  8
0
  6
Continuous
 62
     7
370
    18
100
AcDbLine
 10
10.6430012347
 20
5.8607873513
 30
0.0
 11
10.7335109027
 21
5.8085202465
 31
0.0
  0
LINE
  5
284
330
1F
100
AcDbEntity
  8
0
  6
Continuous
 62
     7
370
    18
100
AcDbLine
 10
9.3900080184
 20
8.2171895765
 30
0.0
 11
9.2994983504
 21
8.1649394573
 31
0.0
  0
LINE
  5
285
330
1F
100
AcDbEntity
  8
0
  6
Continuous
 62
     7
370
    18
100
AcDbLine
 10
9.3900080184
 20
8.2171895765
 30
0.0
 11
10.7335109027
 21
7.4416018703
 31
0.0
  0
LWPOLYLINE
  5
286
330
1F
100
AcDbEntity
  8
0
  6
Continuous
 62
     7
370
    18
100
AcDbPolyline
 90
       36
 70
   128
 43
0.0
 10
9.870855941
 20
7.1583893964
 10
9.8713352698
 20
7.1456114954
 10
9.8727695049
 20
7.1323801775
 10
9.8751474215
 20
7.1187989958
 10
9.878450409
 20
7.1049742413
 10
9.8826526173
 20
7.0910141115
 10
9.8877211582
 20
7.0770278634
 10
9.8936163636
 20
7.0631249583
 10
9.9002920955
 20
7.0494142053
 10
9.9076961073
 20
7.0360029096
 10
9.9157704525
 20
7.0229960328
 10
9.9244519384
 20
7.0104953714
 10
9.9336726206
 20
6.9985987599
 10
9.9433603348
 20
6.9873993056
 10
9.9534392615
 20
6.9769846592
 10
9.9638305194
 20
6.9674363296
 10
9.9744527829
 20
6.9588290453
 10
9.9852229183
 20
6.9512301701
 10
9.9960566347
 20
6.9446991753
 10
10.0068691435
 20
6.939287175
 10
10.0175758224
 20
6.9350365254
 10
10.0280928769
 20
6.9319804935
 10
10.0383379968
 20
6.930142997
 10
10.0482310003
 20
6.9295384167
 10
10.0576944611
 20
6.9301714843
 10
10.0666543149
 20
6.9320372452
 10
10.0750404385
 20
6.9351210973
 10
10.0827871993
 20
6.9393989052
 10
10.0898339683
 20
6.9448371894
 10
10.0961255951
 20
6.9513933879
 10
10.101612839
 20
6.9590161894
 10
10.106252755
 20
6.9676459354
 10
10.1100090294
 20
6.9772150862
 10
10.1128522644
 20
6.9876487504
 10
10.1147602077
 20
6.9988652704
 10
10.1153793351
 20
7.005002194
  0
ARC
  5
287
330
1F
100
AcDbEntity
  8
0
  6
Continuous
 62
     7
370
    18
100
AcDbCircle
 10
9.9441038964
 20
7.1711895314
 30
0.0
 40
0.0743579614816437
100
AcDbArc
 50
58.6600926968
 51
189.9123881985
  0
LWPOLYLINE
  5
288
330
1F
100
AcDbEntity
  8
0
  6
Continuous
 62
     7
370
    18
100
AcDbPolyline
 90
       36
 70
   128
 43
0.0
 10
10.0840086084
 20
6.9402235001
 10
10.0792318111
 20
6.9382245944
 10
10.0705503252
 20
6.9357473632
 10
10.061329643
 20
6.9344967249
 10
10.0516419288
 20
6.9344824672
 10
10.0415630021
 20
6.935704702
 10
10.0311717441
 20
6.9381538633
 10
10.0205494807
 20
6.9418107834
 10
10.0097793453
 20
6.9466468418
 10
9.9989456289
 20
6.9526241898
 10
9.98813312
 20
6.9596960465
 10
9.9774264412
 20
6.9678070651
 10
9.9669093867
 20
6.9768937659
 10
9.9566642667
 20
6.9868850331
 10
9.9467712633
 20
6.9977026714
 10
9.9373078024
 20
7.0092620183
 10
9.9283479487
 20
7.0214726062
 10
9.919961825
 20
7.0342388706
 10
9.9122150643
 20
7.0474608982
 10
9.9051682952
 20
7.0610352087
 10
9.8988766685
 20
7.0748555647
 10
9.8933894246
 20
7.0888138033
 10
9.8887495086
 20
7.1028006822
 10
9.8849932341
 20
7.1167067352
 10
9.8821499992
 20
7.1304231286
 10
9.8802420559
 20
7.143842513
 10
9.8792843365
 20
7.1568598634
 10
9.8792843365
 20
7.1693733016
 10
9.8802420559
 20
7.1812848928
 10
9.8821499992
 20
7.1925014127
 10
9.8849932341
 20
7.2029350769
 10
9.8887495086
 20
7.2125042278
 10
9.8933894246
 20
7.2211339737
 10
9.8988766685
 20
7.2287567753
 10
9.9051682952
 20
7.2353129737
 10
9.9109936552
 20
7.2399266631
  0
ARC
  5
289
330
1F
100
AcDbEntity
  8
0
  6
Continuous
 62
     7
370
    18
100
AcDbCircle
 10
10.152628932
 20
7.1796284545
 30
0.0
 40
0.2738320371736665
100
AcDbArc
 50
183.019309057
 51
236.9753144105
  0
LINE
  5
28A
330
1F
100
AcDbEntity
  8
0
  6
Continuous
 62
     7
370
    18
100
AcDbLine
 10
10.4732094852
 20
6.1163982858
 30
0.0
 11
10.4732094852
 21
6.1849878467
 31
0.0
  0
SPLINE
  5
28B
330
1F
100
AcDbEntity
  8
0
  6
Continuous
 62
     7
370
    18
100
AcDbSpline
210
0.0
220
0.0
230
1.0
 70
     8
 71
     3
 72
    10
 73
     6
 74
     0
 42
0.000000001
 43
0.00000001
 40
0.0
 40
0.0
 40
0.0
 40
0.0
 40
0.1397011331200977
 40
0.5693257522817636
 40
1.0
 40
1.0
 40
1.0
 40
1.0
 10
10.51484379599423
 20
6.130461602107557
 30
0.0
 10
10.51449464969432
 20
6.130097459411776
 30
0.0
 10
10.5130717694684
 20
6.128613464188665
 30
0.0
 10
10.50884735243993
 20
6.129128978187448
 30
0.0
 10
10.50528544939717
 20
6.130338584673354
 30
0.0
 10
10.50350232498257
 20
6.130944125821214
 30
0.0
  0
LINE
  5
28C
330
1F
100
AcDbEntity
  8
0
  6
Continuous
 62
     7
370
    18
100
AcDbLine
 10
10.5232404825
 20
6.0875160058
 30
0.0
 11
10.5146514385
 21
6.0924743554
 31
0.0
  0
LINE
  5
28D
330
1F
100
AcDbEntity
  8
0
  6
Continuous
 62
     7
370
    18
100
AcDbLine
 10
10.5146514385
 20
6.0924743554
 30
0.0
 11
10.5071625091
 21
6.1114518474
 31
0.0
  0
SPLINE
  5
28E
330
1F
100
AcDbEntity
  8
0
  6
Continuous
 62
     7
370
    18
100
AcDbSpline
210
0.0
220
0.0
230
1.0
 70
     8
 71
     3
 72
    21
 73
    17
 74
     0
 42
0.000000001
 43
0.00000001
 40
0.0
 40
0.0
 40
0.0
 40
0.0
 40
0.0807565202394666
 40
0.1564928761205837
 40
0.2278645863309012
 40
0.2942194159581935
 40
0.3567576405439986
 40
0.4148044898400759
 40
0.4680257207328432
 40
0.5167566765914664
 40
0.6042176202059655
 40
0.6814453118756422
 40
0.7479519834168781
 40
0.8047659882074071
 40
0.9054352660002635
 40
1.0
 40
1.0
 40
1.0
 40
1.0
 10
10.50716250912236
 20
6.111451847362158
 30
0.0
 10
10.50689322834862
 20
6.1121214481797
 30
0.0
 10
10.50637140642462
 20
6.113419024616611
 30
0.0
 10
10.50561792346384
 20
6.115309309927417
 30
0.0
 10
10.504878164062
 20
6.117075448486489
 30
0.0
 10
10.50419538371533
 20
6.11873415523954
 30
0.0
 10
10.50352628151337
 20
6.120277078605954
 30
0.0
 10
10.50292647615615
 20
6.121715884847559
 30
0.0
 10
10.50232411513115
 20
6.123030160298323
 30
0.0
 10
10.50163247099382
 20
6.124590625582949
 30
0.0
 10
10.50078780107188
 20
6.12633369698034
 30
0.0
 10
10.49980213099761
 20
6.128192428438618
 30
0.0
 10
10.49889587294517
 20
6.129783943737972
 30
0.0
 10
10.49775067459725
 20
6.131464394547216
 30
0.0
 10
10.49632668049977
 20
6.133219755865578
 30
0.0
 10
10.49512605040327
 20
6.134355600745245
 30
0.0
 10
10.49454450590359
 20
6.134905765483062
 30
0.0
  0
SPLINE
  5
28F
330
1F
100
AcDbEntity
  8
0
  6
Continuous
 62
     7
370
    18
100
AcDbSpline
210
0.0
220
0.0
230
1.0
 70
     8
 71
     3
 72
    11
 73
     7
 74
     0
 42
0.000000001
 43
0.00000001
 40
0.0
 40
0.0
 40
0.0
 40
0.0
 40
0.1774946570818461
 40
0.4052256231013865
 40
0.67838810833485
 40
1.0
 40
1.0
 40
1.0
 40
1.0
 10
10.49454450590359
 20
6.134905765483062
 30
0.0
 10
10.49430020014215
 20
6.135097675169416
 30
0.0
 10
10.49374244276489
 20
6.135535810736484
 30
0.0
 10
10.49279537213013
 20
6.136158400130216
 30
0.0
 10
10.49164787986788
 20
6.136901345532993
 30
0.0
 10
10.49081627267014
 20
6.13737907629348
 30
0.0
 10
10.49036659834929
 20
6.137637399280406
 30
0.0
  0
LINE
  5
290
330
1F
100
AcDbEntity
  8
0
  6
Continuous
 62
     7
370
    18
100
AcDbLine
 10
10.4903665983
 20
6.1376373993
 30
0.0
 11
10.4816857011
 21
6.1426487746
 31
0.0
  0
LINE
  5
291
330
1F
100
AcDbEntity
  8
0
  6
Continuous
 62
     7
370
    18
100
AcDbLine
 10
10.4809785943
 20
6.1119132746
 30
0.0
 11
10.4732094852
 21
6.1163982858
 31
0.0
  0
SPLINE
  5
292
330
1F
100
AcDbEntity
  8
0
  6
Continuous
 62
     7
370
    18
100
AcDbSpline
210
0.0
220
0.0
230
1.0
 70
     8
 71
     3
 72
     9
 73
     5
 74
     0
 42
0.000000001
 43
0.00000001
 40
0.0
 40
0.0
 40
0.0
 40
0.0
 40
0.4590142478265685
 40
1.0
 40
1.0
 40
1.0
 40
1.0
 10
10.50816570851395
 20
6.138755398728676
 30
0.0
 10
10.50894076543447
 20
6.139352679949543
 30
0.0
 10
10.51062929018984
 20
6.140653905834566
 30
0.0
 10
10.51084855504984
 20
6.14352915513754
 30
0.0
 10
10.51096717421505
 20
6.145084624044396
 30
0.0
  0
SPLINE
  5
293
330
1F
100
AcDbEntity
  8
0
  6
Continuous
 62
     7
370
    18
100
AcDbSpline
210
0.0
220
0.0
230
1.0
 70
     8
 71
     3
 72
    23
 73
    19
 74
     0
 42
0.000000001
 43
0.00000001
 40
0.0
 40
0.0
 40
0.0
 40
0.0
 40
0.0603272326790053
 40
0.1181633268525655
 40
0.1741915946005237
 40
0.2288671201359928
 40
0.2834295822545101
 40
0.3378078149372622
 40
0.3926149530011027
 40
0.4484500033868906
 40
0.5059514596840966
 40
0.5650462512987543
 40
0.6266439369048248
 40
0.6922233429555582
 40
0.7611243334651909
 40
0.8353052271782849
 40
0.9153231689797098
 40
1.0
 40
1.0
 40
1.0
 40
1.0
 10
10.51096717421505
 20
6.145084624044396
 30
0.0
 10
10.51095603718764
 20
6.145480660682236
 30
0.0
 10
10.51093422302261
 20
6.14625638011448
 30
0.0
 10
10.51081864884024
 20
6.147442791815013
 30
0.0
 10
10.51059875892543
 20
6.148630820944452
 30
0.0
 10
10.51029512089201
 20
6.149816242935288
 30
0.0
 10
10.50991067083826
 20
6.150999555955097
 30
0.0
 10
10.50943824254102
 20
6.152181115836576
 30
0.0
 10
10.50888027370314
 20
6.153354873373763
 30
0.0
 10
10.50824021802876
 20
6.154523027498299
 30
0.0
 10
10.50750557608993
 20
6.155673938139441
 30
0.0
 10
10.50666637049753
 20
6.156785451794936
 30
0.0
 10
10.50572930268161
 20
6.157859275471004
 30
0.0
 10
10.50469326007657
 20
6.158880285926521
 30
0.0
 10
10.50356151312294
 20
6.159871893982753
 30
0.0
 10
10.50232761707335
 20
6.160809243267655
 30
0.0
 10
10.50099721537194
 20
6.16174010336074
 30
0.0
 10
10.50007532412014
 20
6.162281714589626
 30
0.0
 10
10.49960133925463
 20
6.162560180759021
 30
0.0
  0
LINE
  5
294
330
1F
100
AcDbEntity
  8
0
  6
Continuous
 62
     7
370
    18
100
AcDbLine
 10
10.4996013393
 20
6.1625601808
 30
0.0
 11
10.4816857011
 21
6.1729026585
 31
0.0
  0
SPLINE
  5
295
330
1F
100
AcDbEntity
  8
0
  6
Continuous
 62
     7
370
    18
100
AcDbSpline
210
0.0
220
0.0
230
1.0
 70
     8
 71
     3
 72
    23
 73
    19
 74
     0
 42
0.000000001
 43
0.00000001
 40
0.0
 40
0.0
 40
0.0
 40
0.0
 40
0.0603272326790053
 40
0.1181633268525655
 40
0.1741915946005237
 40
0.2288671201359928
 40
0.2834295822545101
 40
0.3378078149372622
 40
0.3926149530011027
 40
0.4484500033868906
 40
0.5059514596840966
 40
0.5650462512987543
 40
0.6266439369048248
 40
0.6922233429555582
 40
0.7611243334651909
 40
0.8353052271782849
 40
0.9153231689797098
 40
1.0
 40
1.0
 40
1.0
 40
1.0
 10
10.51026006743386
 20
6.144676419988484
 30
0.0
 10
10.51024893040645
 20
6.145072456626324
 30
0.0
 10
10.51022711624142
 20
6.145848176058569
 30
0.0
 10
10.51011154205906
 20
6.147034587759101
 30
0.0
 10
10.50989165214424
 20
6.14822261688854
 30
0.0
 10
10.50958801411083
 20
6.149408038879377
 30
0.0
 10
10.50920356405707
 20
6.150591351899185
 30
0.0
 10
10.50873113575983
 20
6.151772911780665
 30
0.0
 10
10.50817316692195
 20
6.152946669317851
 30
0.0
 10
10.50753311124757
 20
6.154114823442387
 30
0.0
 10
10.50679846930874
 20
6.15526573408353
 30
0.0
 10
10.50595926371634
 20
6.156377247739025
 30
0.0
 10
10.50502219590042
 20
6.157451071415092
 30
0.0
 10
10.50398615329538
 20
6.158472081870609
 30
0.0
 10
10.50285440634175
 20
6.159463689926841
 30
0.0
 10
10.50162051029216
 20
6.160401039211744
 30
0.0
 10
10.50029010859075
 20
6.161331899304828
 30
0.0
 10
10.49936821733896
 20
6.161873510533714
 30
0.0
 10
10.49889423247344
 20
6.162151976703109
 30
0.0
  0
SPLINE
  5
296
330
1F
100
AcDbEntity
  8
0
  6
Continuous
 62
     7
370
    18
100
AcDbSpline
210
0.0
220
0.0
230
1.0
 70
     8
 71
     3
 72
    19
 73
    15
 74
     0
 42
0.000000001
 43
0.00000001
 40
0.0
 40
0.0
 40
0.0
 40
0.0
 40
0.128838042999503
 40
0.2408506371773564
 40
0.3379858977314476
 40
0.4208544298319369
 40
0.4947796491112446
 40
0.5659088810869701
 40
0.6370496543952365
 40
0.7093806720350374
 40
0.7821614733091781
 40
0.8536820657736254
 40
0.9261831408996601
 40
1.0
 40
1.0
 40
1.0
 40
1.0
 10
10.49707618048295
 20
6.140956012889239
 30
0.0
 10
10.49788341091334
 20
6.140504466409786
 30
0.0
 10
10.49939245248975
 20
6.139660342618714
 30
0.0
 10
10.5015020719764
 20
6.138676808903839
 30
0.0
 10
10.50330664343348
 20
6.138001333489002
 30
0.0
 10
10.50482921763716
 20
6.137678690020636
 30
0.0
 10
10.50610879280433
 20
6.137685029139392
 30
0.0
 10
10.50721780359692
 20
6.137955900816127
 30
0.0
 10
10.50815028800301
 20
6.138547906506558
 30
0.0
 10
10.50891717589956
 20
6.139401268263356
 30
0.0
 10
10.50951667294661
 20
6.140467640734878
 30
0.0
 10
10.5099355710916
 20
6.141720725935197
 30
0.0
 10
10.51021680462659
 20
6.143107072785216
 30
0.0
 10
10.51024556030166
 20
6.144150177500269
 30
0.0
 10
10.51026006743386
 20
6.144676419988484
 30
0.0
  0
LINE
  5
297
330
1F
100
AcDbEntity
  8
0
  6
Continuous
 62
     7
370
    18
100
AcDbLine
 10
10.4809785943
 20
6.1502489516
 30
0.0
 11
10.4970761805
 21
6.1409560129
 31
0.0
  0
LINE
  5
298
330
1F
100
AcDbEntity
  8
0
  6
Continuous
 62
     7
370
    18
100
AcDbLine
 10
10.4809785943
 20
6.1724944545
 30
0.0
 11
10.4809785943
 21
6.1502489516
 31
0.0
  0
LINE
  5
299
330
1F
100
AcDbEntity
  8
0
  6
Continuous
 62
     7
370
    18
100
AcDbLine
 10
10.4988942325
 20
6.1621519767
 30
0.0
 11
10.4809785943
 21
6.1724944545
 31
0.0
  0
LINE
  5
29A
330
1F
100
AcDbEntity
  8
0
  6
Continuous
 62
     7
370
    18
100
AcDbLine
 10
10.4996013393
 20
6.1625601808
 30
0.0
 11
10.4988942325
 21
6.1621519767
 31
0.0
  0
LINE
  5
29B
330
1F
100
AcDbEntity
  8
0
  6
Continuous
 62
     7
370
    18
100
AcDbLine
 10
10.5109671742
 20
6.145084624
 30
0.0
 11
10.5102600674
 21
6.14467642
 31
0.0
  0
LINE
  5
29C
330
1F
100
AcDbEntity
  8
0
  6
Continuous
 62
     7
370
    18
100
AcDbLine
 10
10.503502325
 20
6.1309441258
 30
0.0
 11
10.5027952182
 21
6.1305359218
 31
0.0
  0
LINE
  5
29D
330
1F
100
AcDbEntity
  8
0
  6
Continuous
 62
     7
370
    18
100
AcDbLine
 10
10.4816857011
 20
6.1729026585
 30
0.0
 11
10.4809785943
 21
6.1724944545
 31
0.0
  0
LINE
  5
29E
330
1F
100
AcDbEntity
  8
0
  6
Continuous
 62
     7
370
    18
100
AcDbLine
 10
10.4945445059
 20
6.1349057655
 30
0.0
 11
10.4938373991
 21
6.1344975614
 31
0.0
  0
LINE
  5
29F
330
1F
100
AcDbEntity
  8
0
  6
Continuous
 62
     7
370
    18
100
AcDbLine
 10
10.5071625091
 20
6.1114518474
 30
0.0
 11
10.5064554023
 21
6.1110436433
 31
0.0
  0
LINE
  5
2A0
330
1F
100
AcDbEntity
  8
0
  6
Continuous
 62
     7
370
    18
100
AcDbLine
 10
10.4732094852
 20
6.1163982858
 30
0.0
 11
10.4725023784
 21
6.1159900818
 31
0.0
  0
LINE
  5
2A1
330
1F
100
AcDbEntity
  8
0
  6
Continuous
 62
     7
370
    18
100
AcDbLine
 10
10.5146514385
 20
6.0924743554
 30
0.0
 11
10.5139443317
 21
6.0920661514
 31
0.0
  0
LINE
  5
2A2
330
1F
100
AcDbEntity
  8
0
  6
Continuous
 62
     7
370
    18
100
AcDbLine
 10
10.4903665983
 20
6.1376373993
 30
0.0
 11
10.4896594916
 21
6.1372291952
 31
0.0
  0
LINE
  5
2A3
330
1F
100
AcDbEntity
  8
0
  6
Continuous
 62
     7
370
    18
100
AcDbLine
 10
10.4177287993
 20
6.1484266041
 30
0.0
 11
10.4177287993
 21
6.217016165
 31
0.0
  0
LINE
  5
2A4
330
1F
100
AcDbEntity
  8
0
  6
Continuous
 62
     7
370
    18
100
AcDbLine
 10
10.459402772
 20
6.1857663197
 30
0.0
 11
10.4262050152
 21
6.2049309768
 31
0.0
  0
LINE
  5
2A5
330
1F
100
AcDbEntity
  8
0
  6
Continuous
 62
     7
370
    18
100
AcDbLine
 10
10.4570910768
 20
6.1577367691
 30
0.0
 11
10.4262050152
 21
6.1755669129
 31
0.0
  0
LINE
  5
2A6
330
1F
100
AcDbEntity
  8
0
  6
Continuous
 62
     7
370
    18
100
AcDbLine
 10
10.4609439022
 20
6.1234790562
 30
0.0
 11
10.4177287993
 21
6.1484266041
 31
0.0
  0
LINE
  5
2A7
330
1F
100
AcDbEntity
  8
0
  6
Continuous
 62
     7
370
    18
100
AcDbLine
 10
10.4816857011
 20
6.1426487746
 30
0.0
 11
10.4809785943
 21
6.1422405705
 31
0.0
  0
LINE
  5
2A8
330
1F
100
AcDbEntity
  8
0
  6
Continuous
 62
     7
370
    18
100
AcDbLine
 10
10.4262050152
 20
6.2049309768
 30
0.0
 11
10.4254979084
 21
6.2045227727
 31
0.0
  0
LINE
  5
2A9
330
1F
100
AcDbEntity
  8
0
  6
Continuous
 62
     7
370
    18
100
AcDbLine
 10
9.3900080184
 20
6.5841079527
 30
0.0
 11
9.2994983504
 21
6.6363750575
 31
0.0
  0
LINE
  5
2AA
330
1F
100
AcDbEntity
  8
0
  6
Continuous
 62
     7
370
    18
100
AcDbLine
 10
10.7335109027
 20
5.8085202465
 30
0.0
 11
9.3900080184
 21
6.5841079527
 31
0.0
  0
LINE
  5
2AB
330
1F
100
AcDbEntity
  8
0
  6
Continuous
 62
     7
370
    18
100
AcDbLine
 10
10.4262050152
 20
6.1755669129
 30
0.0
 11
10.4254979084
 21
6.1751587089
 31
0.0
  0
LINE
  5
2AC
330
1F
100
AcDbEntity
  8
0
  6
Continuous
 62
     7
370
    18
100
AcDbLine
 10
10.4177287993
 20
6.1484266041
 30
0.0
 11
10.4170216925
 21
6.1480184
 31
0.0
  0
LINE
  5
2AD
330
1F
100
AcDbEntity
  8
0
  6
Continuous
 62
     7
370
    18
100
AcDbLine
 10
10.3815122404
 20
6.1693339785
 30
0.0
 11
10.3815122404
 21
6.2307315664
 31
0.0
  0
LINE
  5
2AE
330
1F
100
AcDbEntity
  8
0
  6
Continuous
 62
     7
370
    18
100
AcDbLine
 10
10.3815122404
 20
6.2307315664
 30
0.0
 11
10.3622481134
 21
6.2418525103
 31
0.0
  0
LINE
  5
2AF
330
1F
100
AcDbEntity
  8
0
  6
Continuous
 62
     7
370
    18
100
AcDbLine
 10
10.3622481134
 20
6.2418525103
 30
0.0
 11
10.3622481134
 21
6.2490444832
 31
0.0
  0
LINE
  5
2B0
330
1F
100
AcDbEntity
  8
0
  6
Continuous
 62
     7
370
    18
100
AcDbLine
 10
10.4085454766
 20
6.2151256114
 30
0.0
 11
10.3899884563
 21
6.2258383512
 31
0.0
  0
LINE
  5
2B1
330
1F
100
AcDbEntity
  8
0
  6
Continuous
 62
     7
370
    18
100
AcDbLine
 10
10.3892813496
 20
6.1648489672
 30
0.0
 11
10.3815122404
 21
6.1693339785
 31
0.0
  0
LINE
  5
2B2
330
1F
100
AcDbEntity
  8
0
  6
Continuous
 62
     7
370
    18
100
AcDbLine
 10
10.3899884563
 20
6.2258383512
 30
0.0
 11
10.3892813496
 21
6.2254301471
 31
0.0
  0
LINE
  5
2B3
330
1F
100
AcDbEntity
  8
0
  6
Continuous
 62
     7
370
    18
100
AcDbLine
 10
10.3815122404
 20
6.2307315664
 30
0.0
 11
10.3808051336
 21
6.2303233624
 31
0.0
  0
LINE
  5
2B4
330
1F
100
AcDbEntity
  8
0
  6
Continuous
 62
     7
370
    18
100
AcDbLine
 10
10.3815122404
 20
6.1693339785
 30
0.0
 11
10.3808051336
 21
6.1689257744
 31
0.0
  0
LINE
  5
2B5
330
1F
100
AcDbEntity
  8
0
  6
Continuous
 62
     7
370
    18
100
AcDbLine
 10
10.3622481134
 20
6.2418525103
 30
0.0
 11
10.3615410066
 21
6.2414443062
 31
0.0
  0
LINE
  5
2B6
330
1F
100
AcDbEntity
  8
0
  6
Continuous
 62
     7
370
    18
100
AcDbLine
 10
10.311390818
 20
6.209814214
 30
0.0
 11
10.311390818
 21
6.2784037749
 31
0.0
  0
LINE
  5
2B7
330
1F
100
AcDbEntity
  8
0
  6
Continuous
 62
     7
370
    18
100
AcDbLine
 10
10.3530647907
 20
6.2471539296
 30
0.0
 11
10.3198670339
 21
6.2663185867
 31
0.0
  0
LINE
  5
2B8
330
1F
100
AcDbEntity
  8
0
  6
Continuous
 62
     7
370
    18
100
AcDbLine
 10
10.3507530954
 20
6.2191243791
 30
0.0
 11
10.3198670339
 21
6.2369545229
 31
0.0
  0
LINE
  5
2B9
330
1F
100
AcDbEntity
  8
0
  6
Continuous
 62
     7
370
    18
100
AcDbLine
 10
10.3546059209
 20
6.1848666661
 30
0.0
 11
10.311390818
 21
6.209814214
 31
0.0
  0
LINE
  5
2BA
330
1F
100
AcDbEntity
  8
0
  6
Continuous
 62
     7
370
    18
100
AcDbLine
 10
10.3198670339
 20
6.2663185867
 30
0.0
 11
10.3191599271
 21
6.2659103826
 31
0.0
  0
LINE
  5
2BB
330
1F
100
AcDbEntity
  8
0
  6
Continuous
 62
     7
370
    18
100
AcDbLine
 10
10.3198670339
 20
6.2369545229
 30
0.0
 11
10.3191599271
 21
6.2365463188
 31
0.0
  0
LINE
  5
2BC
330
1F
100
AcDbEntity
  8
0
  6
Continuous
 62
     7
370
    18
100
AcDbLine
 10
10.311390818
 20
6.209814214
 30
0.0
 11
10.3106837112
 21
6.20940601
 31
0.0
  0
LINE
  5
2BD
330
1F
100
AcDbEntity
  8
0
  6
Continuous
 62
     7
370
    18
100
AcDbLine
 10
10.2404988304
 20
6.2507392873
 30
0.0
 11
10.2404988304
 21
6.3193288482
 31
0.0
  0
SPLINE
  5
2BE
330
1F
100
AcDbEntity
  8
0
  6
Continuous
 62
     7
370
    18
100
AcDbSpline
210
0.0
220
0.0
230
1.0
 70
     8
 71
     3
 72
    15
 73
    11
 74
     0
 42
0.000000001
 43
0.00000001
 40
0.0
 40
0.0
 40
0.0
 40
0.0
 40
0.0892047702332424
 40
0.1898334556643487
 40
0.2992325919749821
 40
0.4192609378429105
 40
0.5492073901909384
 40
0.6890743636843474
 40
0.8395791979483168
 40
1.0
 40
1.0
 40
1.0
 40
1.0
 10
10.26939502098853
 20
6.244568871682394
 30
0.0
 10
10.26947892742762
 20
6.244849611172458
 30
0.0
 10
10.26965748569579
 20
6.245447042760488
 30
0.0
 10
10.26994695719187
 20
6.246381368018343
 30
0.0
 10
10.27025496310536
 20
6.247422420202107
 30
0.0
 10
10.27062355177325
 20
6.24852497510417
 30
0.0
 10
10.27100776183715
 20
6.249735621867009
 30
0.0
 10
10.27141104030244
 20
6.251051180976217
 30
0.0
 10
10.27187621415895
 20
6.252431470351129
 30
0.0
 10
10.27218534543437
 20
6.253394521995727
 30
0.0
 10
10.2723448404433
 20
6.253891404527107
 30
0.0
  0
LINE
  5
2BF
330
1F
100
AcDbEntity
  8
0
  6
Continuous
 62
     7
370
    18
100
AcDbLine
 10
10.2723448404
 20
6.2538914045
 30
0.0
 11
10.2854222255
 21
6.2933951243
 31
0.0
  0
LINE
  5
2C0
330
1F
100
AcDbEntity
  8
0
  6
Continuous
 62
     7
370
    18
100
AcDbLine
 10
10.2975841048
 20
6.2177846599
 30
0.0
 11
10.2898149957
 21
6.2222696711
 31
0.0
  0
LINE
  5
2C1
330
1F
100
AcDbEntity
  8
0
  6
Continuous
 62
     7
370
    18
100
AcDbLine
 10
10.2898149957
 20
6.2222696711
 30
0.0
 11
10.2898149957
 21
6.2809977987
 31
0.0
  0
LINE
  5
2C2
330
1F
100
AcDbEntity
  8
0
  6
Continuous
 62
     7
370
    18
100
AcDbLine
 10
10.2732934466
 20
6.2318073584
 30
0.0
 11
10.2649161114
 21
6.236643491
 31
0.0
  0
LINE
  5
2C3
330
1F
100
AcDbEntity
  8
0
  6
Continuous
 62
     7
370
    18
100
AcDbLine
 10
10.2649161114
 20
6.236643491
 30
0.0
 11
10.2489750463
 21
6.3045741997
 31
0.0
  0
LINE
  5
2C4
330
1F
100
AcDbEntity
  8
0
  6
Continuous
 62
     7
370
    18
100
AcDbLine
 10
10.2482679395
 20
6.2462542761
 30
0.0
 11
10.2404988304
 21
6.2507392873
 31
0.0
  0
LINE
  5
2C5
330
1F
100
AcDbEntity
  8
0
  6
Continuous
 62
     7
370
    18
100
AcDbLine
 10
10.2723448404
 20
6.2538914045
 30
0.0
 11
10.2716377337
 21
6.2534832005
 31
0.0
  0
LINE
  5
2C6
330
1F
100
AcDbEntity
  8
0
  6
Continuous
 62
     7
370
    18
100
AcDbLine
 10
10.2898149957
 20
6.2222696711
 30
0.0
 11
10.2891078889
 21
6.2218614671
 31
0.0
  0
LINE
  5
2C7
330
1F
100
AcDbEntity
  8
0
  6
Continuous
 62
     7
370
    18
100
AcDbLine
 10
10.2898149957
 20
6.2809977987
 30
0.0
 11
10.2891078889
 21
6.2805895947
 31
0.0
  0
LINE
  5
2C8
330
1F
100
AcDbEntity
  8
0
  6
Continuous
 62
     7
370
    18
100
AcDbLine
 10
10.2489750463
 20
6.3045741997
 30
0.0
 11
10.2482679395
 21
6.3041659956
 31
0.0
  0
LINE
  5
2C9
330
1F
100
AcDbEntity
  8
0
  6
Continuous
 62
     7
370
    18
100
AcDbLine
 10
10.2649161114
 20
6.236643491
 30
0.0
 11
10.2642090047
 21
6.236235287
 31
0.0
  0
LINE
  5
2CA
330
1F
100
AcDbEntity
  8
0
  6
Continuous
 62
     7
370
    18
100
AcDbLine
 10
10.2404988304
 20
6.2507392873
 30
0.0
 11
10.2397917236
 21
6.2503310833
 31
0.0
  0
LINE
  5
2CB
330
1F
100
AcDbEntity
  8
0
  6
Continuous
 62
     7
370
    18
100
AcDbLine
 10
10.1783359004
 20
6.2866251829
 30
0.0
 11
10.2019186371
 21
6.3416007197
 31
0.0
  0
LINE
  5
2CC
330
1F
100
AcDbEntity
  8
0
  6
Continuous
 62
     7
370
    18
100
AcDbLine
 10
10.2346347908
 20
6.2541245253
 30
0.0
 11
10.2266286589
 21
6.2587463669
 31
0.0
  0
LINE
  5
2CD
330
1F
100
AcDbEntity
  8
0
  6
Continuous
 62
     7
370
    18
100
AcDbLine
 10
10.2266286589
 20
6.2587463669
 30
0.0
 11
10.2197898938
 21
6.2840499847
 31
0.0
  0
LINE
  5
2CE
330
1F
100
AcDbEntity
  8
0
  6
Continuous
 62
     7
370
    18
100
AcDbLine
 10
10.2197898938
 20
6.2840499847
 30
0.0
 11
10.1941686049
 21
6.29884084
 31
0.0
  0
LINE
  5
2CF
330
1F
100
AcDbEntity
  8
0
  6
Continuous
 62
     7
370
    18
100
AcDbLine
 10
10.1868841727
 20
6.2816903704
 30
0.0
 11
10.1783359004
 21
6.2866251829
 31
0.0
  0
LINE
  5
2D0
330
1F
100
AcDbEntity
  8
0
  6
Continuous
 62
     7
370
    18
100
AcDbLine
 10
10.217237397
 20
6.2935318908
 30
0.0
 11
10.2113979585
 21
6.3151442393
 31
0.0
  0
SPLINE
  5
2D1
330
1F
100
AcDbEntity
  8
0
  6
Continuous
 62
     7
370
    18
100
AcDbSpline
210
0.0
220
0.0
230
1.0
 70
     8
 71
     3
 72
    15
 73
    11
 74
     0
 42
0.000000001
 43
0.00000001
 40
0.0
 40
0.0
 40
0.0
 40
0.0
 40
0.1531481085926297
 40
0.2994334688329042
 40
0.4364263514567499
 40
0.5656705729563594
 40
0.6865083102878743
 40
0.7992685160630044
 40
0.9033947408013443
 40
1.0
 40
1.0
 40
1.0
 40
1.0
 10
10.21139795848394
 20
6.315144239268948
 30
0.0
 10
10.21117409525984
 20
6.315978292208476
 30
0.0
 10
10.21073640038817
 20
6.317609023186272
 30
0.0
 10
10.2100836654684
 20
6.319988036773116
 30
0.0
 10
10.20948733736411
 20
6.322233658811325
 30
0.0
 10
10.20890258868866
 20
6.324344504690188
 30
0.0
 10
10.20837472561476
 20
6.326320178353205
 30
0.0
 10
10.20788818068931
 20
6.328158380224494
 30
0.0
 10
10.20740699186338
 20
6.329869046595586
 30
0.0
 10
10.20711822368001
 20
6.330961538316592
 30
0.0
 10
10.20697924934148
 20
6.331487317550671
 30
0.0
  0
LINE
  5
2D2
330
1F
100
AcDbEntity
  8
0
  6
Continuous
 62
     7
370
    18
100
AcDbLine
 10
10.269395021
 20
6.2445688717
 30
0.0
 11
10.2686879142
 21
6.2441606676
 31
0.0
  0
SPLINE
  5
2D3
330
1F
100
AcDbEntity
  8
0
  6
Continuous
 62
     7
370
    18
100
AcDbSpline
210
0.0
220
0.0
230
1.0
 70
     8
 71
     3
 72
    15
 73
    11
 74
     0
 42
0.000000001
 43
0.00000001
 40
0.0
 40
0.0
 40
0.0
 40
0.0
 40
0.1531481085926297
 40
0.2994334688329042
 40
0.4364263514567499
 40
0.5656705729563594
 40
0.6865083102878743
 40
0.7992685160630044
 40
0.9033947408013443
 40
1.0
 40
1.0
 40
1.0
 40
1.0
 10
10.21069085170275
 20
6.314736035213037
 30
0.0
 10
10.21046698847865
 20
6.315570088152564
 30
0.0
 10
10.21002929360698
 20
6.31720081913036
 30
0.0
 10
10.20937655868721
 20
6.319579832717205
 30
0.0
 10
10.20878023058292
 20
6.321825454755413
 30
0.0
 10
10.20819548190747
 20
6.323936300634276
 30
0.0
 10
10.20766761883357
 20
6.325911974297293
 30
0.0
 10
10.20718107390813
 20
6.327750176168583
 30
0.0
 10
10.20669988508219
 20
6.329460842539675
 30
0.0
 10
10.20641111689883
 20
6.33055333426068
 30
0.0
 10
10.2062721425603
 20
6.33107911349476
 30
0.0
  0
LINE
  5
2D4
330
1F
100
AcDbEntity
  8
0
  6
Continuous
 62
     7
370
    18
100
AcDbLine
 10
10.2165302902
 20
6.2931236867
 30
0.0
 11
10.2106908517
 21
6.3147360352
 31
0.0
  0
LINE
  5
2D5
330
1F
100
AcDbEntity
  8
0
  6
Continuous
 62
     7
370
    18
100
AcDbLine
 10
10.1960139949
 20
6.3049674919
 30
0.0
 11
10.2165302902
 21
6.2931236867
 31
0.0
  0
LINE
  5
2D6
330
1F
100
AcDbEntity
  8
0
  6
Continuous
 62
     7
370
    18
100
AcDbLine
 10
10.2021664755
 20
6.3206302936
 30
0.0
 11
10.1960139949
 21
6.3049674919
 31
0.0
  0
SPLINE
  5
2D7
330
1F
100
AcDbEntity
  8
0
  6
Continuous
 62
     7
370
    18
100
AcDbSpline
210
0.0
220
0.0
230
1.0
 70
     8
 71
     3
 72
    11
 73
     7
 74
     0
 42
0.000000001
 43
0.00000001
 40
0.0
 40
0.0
 40
0.0
 40
0.0
 40
0.2472885692344843
 40
0.4965585959218934
 40
0.7463647942382539
 40
1.0
 40
1.0
 40
1.0
 40
1.0
 10
10.2062721425603
 20
6.33107911349476
 30
0.0
 10
10.20604168759813
 20
6.330113690577335
 30
0.0
 10
10.20557893109955
 20
6.328175109065735
 30
0.0
 10
10.20462228423765
 20
6.325497898976746
 30
0.0
 10
10.20350998491053
 20
6.322947317141333
 30
0.0
 10
10.20261657694616
 20
6.32140654099668
 30
0.0
 10
10.20216647548243
 20
6.320630293609565
 30
0.0
  0
LINE
  5
2D8
330
1F
100
AcDbEntity
  8
0
  6
Continuous
 62
     7
370
    18
100
AcDbLine
 10
10.2069792493
 20
6.3314873176
 30
0.0
 11
10.2062721426
 21
6.3310791135
 31
0.0
  0
LINE
  5
2D9
330
1F
100
AcDbEntity
  8
0
  6
Continuous
 62
     7
370
    18
100
AcDbLine
 10
10.2113979585
 20
6.3151442393
 30
0.0
 11
10.2106908517
 21
6.3147360352
 31
0.0
  0
LINE
  5
2DA
330
1F
100
AcDbEntity
  8
0
  6
Continuous
 62
     7
370
    18
100
AcDbLine
 10
10.1783359004
 20
6.2866251829
 30
0.0
 11
10.1776287937
 21
6.2862169789
 31
0.0
  0
LINE
  5
2DB
330
1F
100
AcDbEntity
  8
0
  6
Continuous
 62
     7
370
    18
100
AcDbLine
 10
10.217237397
 20
6.2935318908
 30
0.0
 11
10.2165302902
 21
6.2931236867
 31
0.0
  0
LINE
  5
2DC
330
1F
100
AcDbEntity
  8
0
  6
Continuous
 62
     7
370
    18
100
AcDbLine
 10
10.2197898938
 20
6.2840499847
 30
0.0
 11
10.219082787
 21
6.2836417806
 31
0.0
  0
LINE
  5
2DD
330
1F
100
AcDbEntity
  8
0
  6
Continuous
 62
     7
370
    18
100
AcDbLine
 10
10.2266286589
 20
6.2587463669
 30
0.0
 11
10.2259215522
 21
6.2583381628
 31
0.0
  0
LINE
  5
2DE
330
1F
100
AcDbEntity
  8
0
  6
Continuous
 62
     7
370
    18
100
AcDbLine
 10
10.1941686049
 20
6.29884084
 30
0.0
 11
10.1934614981
 21
6.2984326359
 31
0.0
  0
LINE
  5
2DF
330
1F
100
AcDbEntity
  8
0
  6
Continuous
 62
     7
370
    18
100
AcDbLine
 10
10.1642128873
 20
6.2947782249
 30
0.0
 11
10.1642128873
 21
6.3633677858
 31
0.0
  0
LINE
  5
2E0
330
1F
100
AcDbEntity
  8
0
  6
Continuous
 62
     7
370
    18
100
AcDbLine
 10
10.1719819964
 20
6.2902932137
 30
0.0
 11
10.1642128873
 21
6.2947782249
 31
0.0
  0
LINE
  5
2E1
330
1F
100
AcDbEntity
  8
0
  6
Continuous
 62
     7
370
    18
100
AcDbLine
 10
10.1642128873
 20
6.2947782249
 30
0.0
 11
10.1635057805
 21
6.2943700208
 31
0.0
  0
LINE
  5
2E2
330
1F
100
AcDbEntity
  8
0
  6
Continuous
 62
     7
370
    18
100
AcDbLine
 10
10.1033382458
 20
6.3299204074
 30
0.0
 11
10.1033382458
 21
6.3985099683
 31
0.0
  0
SPLINE
  5
2E3
330
1F
100
AcDbEntity
  8
0
  6
Continuous
 62
     7
370
    18
100
AcDbSpline
210
0.0
220
0.0
230
1.0
 70
     8
 71
     3
 72
    11
 73
     7
 74
     0
 42
0.000000001
 43
0.00000001
 40
0.0
 40
0.0
 40
0.0
 40
0.0
 40
0.0147462595511479
 40
0.3423365009044478
 40
0.6709402737445083
 40
1.0
 40
1.0
 40
1.0
 40
1.0
 10
10.14430156270731
 20
6.313649767753081
 30
0.0
 10
10.14424247825304
 20
6.313586115953306
 30
0.0
 10
10.14287082429128
 20
6.312108430419859
 30
0.0
 10
10.13839858987276
 20
6.312082663892757
 30
0.0
 10
10.13180729762493
 20
6.313734706939615
 30
0.0
 10
10.12718077357651
 20
6.316239491902899
 30
0.0
 10
10.12486590778422
 20
6.317492752659321
 30
0.0
  0
LINE
  5
2E4
330
1F
100
AcDbEntity
  8
0
  6
Continuous
 62
     7
370
    18
100
AcDbLine
 10
10.1248659078
 20
6.3174927527
 30
0.0
 11
10.1033382458
 21
6.3299204074
 31
0.0
  0
SPLINE
  5
2E5
330
1F
100
AcDbEntity
  8
0
  6
Continuous
 62
     7
370
    18
100
AcDbSpline
210
0.0
220
0.0
230
1.0
 70
     8
 71
     3
 72
    15
 73
    11
 74
     0
 42
0.000000001
 43
0.00000001
 40
0.0
 40
0.0
 40
0.0
 40
0.0
 40
0.0977695964822331
 40
0.2008523784955812
 40
0.3104302888087521
 40
0.4285493214350529
 40
0.5551842864614315
 40
0.6918447589416411
 40
0.8400944459418304
 40
1.0
 40
1.0
 40
1.0
 40
1.0
 10
10.13839895703794
 20
6.322596584732395
 30
0.0
 10
10.1388423097049
 20
6.322926135134545
 30
0.0
 10
10.13975310857158
 20
6.323603145007628
 30
0.0
 10
10.14088835316771
 20
6.325048567420566
 30
0.0
 10
10.14187593415889
 20
6.326849545209933
 30
0.0
 10
10.14271818455043
 20
6.329009984325938
 30
0.0
 10
10.14337860424863
 20
6.33156642883731
 30
0.0
 10
10.14383513520042
 20
6.334532765248104
 30
0.0
 10
10.14412929738931
 20
6.33788409593627
 30
0.0
 10
10.14416149000711
 20
6.340314272885276
 30
0.0
 10
10.14417819515341
 20
6.341575321667558
 30
0.0
  0
SPLINE
  5
2E6
330
1F
100
AcDbEntity
  8
0
  6
Continuous
 62
     7
370
    18
100
AcDbSpline
210
0.0
220
0.0
230
1.0
 70
     8
 71
     3
 72
    23
 73
    19
 74
     0
 42
0.000000001
 43
0.00000001
 40
0.0
 40
0.0
 40
0.0
 40
0.0
 40
0.0912609520412069
 40
0.1774380523622645
 40
0.2586781753433991
 40
0.3347782543759343
 40
0.406498703543782
 40
0.4737257195372777
 40
0.5371521470015579
 40
0.5974031390993008
 40
0.6545219121410192
 40
0.7092765662779078
 40
0.7615100947779048
 40
0.8118413153607345
 40
0.8605996190280615
 40
0.9078026946136556
 40
0.9542577632202354
 40
1.0
 40
1.0
 40
1.0
 40
1.0
 10
10.14417819515341
 20
6.341575321667558
 30
0.0
 10
10.14416985847167
 20
6.342465641952986
 30
0.0
 10
10.14415364951768
 20
6.344196685667647
 30
0.0
 10
10.14400243632631
 20
6.346788617435091
 30
0.0
 10
10.14378324954812
 20
6.349264988973156
 30
0.0
 10
10.14345786398248
 20
6.351644535008023
 30
0.0
 10
10.1430429739651
 20
6.353916513174834
 30
0.0
 10
10.1425213506423
 20
6.356088169651326
 30
0.0
 10
10.14192459460054
 20
6.358153917670799
 30
0.0
 10
10.14122554713662
 20
6.360118280965089
 30
0.0
 10
10.14044215554643
 20
6.361975756821682
 30
0.0
 10
10.1396406396021
 20
6.363734627234514
 30
0.0
 10
10.1387974895333
 20
6.365399319148862
 30
0.0
 10
10.13790060951111
 20
6.366959673166085
 30
0.0
 10
10.13697601581568
 20
6.368430792186328
 30
0.0
 10
10.13600671304448
 20
6.369803475099517
 30
0.0
 10
10.1349953522326
 20
6.371075895927752
 30
0.0
 10
10.13428467758094
 20
6.371843605308231
 30
0.0
 10
10.13393208757786
 20
6.372224492191125
 30
0.0
  0
SPLINE
  5
2E7
330
1F
100
AcDbEntity
  8
0
  6
Continuous
 62
     7
370
    18
100
AcDbSpline
210
0.0
220
0.0
230
1.0
 70
     8
 71
     3
 72
    15
 73
    11
 74
     0
 42
0.000000001
 43
0.00000001
 40
0.0
 40
0.0
 40
0.0
 40
0.0
 40
0.0874250109285979
 40
0.1852478649797585
 40
0.2927383539894224
 40
0.4112061016770258
 40
0.541245594232324
 40
0.682780938524952
 40
0.8360339502048014
 40
1.0
 40
1.0
 40
1.0
 40
1.0
 10
10.13393208757786
 20
6.372224492191125
 30
0.0
 10
10.13365658762496
 20
6.372499959376525
 30
0.0
 10
10.13307282129155
 20
6.373083656277733
 30
0.0
 10
10.13212005802717
 20
6.373912897313457
 30
0.0
 10
10.13105676458594
 20
6.374783685603954
 30
0.0
 10
10.1298724604591
 20
6.375647723680395
 30
0.0
 10
10.12857313523281
 20
6.376573092441889
 30
0.0
 10
10.12715071234213
 20
6.377500756310367
 30
0.0
 10
10.12561265178089
 20
6.378436930302168
 30
0.0
 10
10.1245488738471
 20
6.379065753353781
 30
0.0
 10
10.1239990220669
 20
6.379390783102353
 30
0.0
  0
LINE
  5
2E8
330
1F
100
AcDbEntity
  8
0
  6
Continuous
 62
     7
370
    18
100
AcDbLine
 10
10.1239990221
 20
6.3793907831
 30
0.0
 11
10.1118144617
 21
6.3864247801
 31
0.0
  0
SPLINE
  5
2E9
330
1F
100
AcDbEntity
  8
0
  6
Continuous
 62
     7
370
    18
100
AcDbSpline
210
0.0
220
0.0
230
1.0
 70
     8
 71
     3
 72
    15
 73
    11
 74
     0
 42
0.000000001
 43
0.00000001
 40
0.0
 40
0.0
 40
0.0
 40
0.0
 40
0.0874250109285979
 40
0.1852478649797585
 40
0.2927383539894224
 40
0.4112061016770258
 40
0.541245594232324
 40
0.682780938524952
 40
0.8360339502048014
 40
1.0
 40
1.0
 40
1.0
 40
1.0
 10
10.13322498079668
 20
6.371816288135214
 30
0.0
 10
10.13294948084377
 20
6.372091755320613
 30
0.0
 10
10.13236571451037
 20
6.372675452221821
 30
0.0
 10
10.13141295124598
 20
6.373504693257546
 30
0.0
 10
10.13034965780476
 20
6.374375481548043
 30
0.0
 10
10.12916535367791
 20
6.375239519624484
 30
0.0
 10
10.12786602845162
 20
6.376164888385977
 30
0.0
 10
10.12644360556094
 20
6.377092552254456
 30
0.0
 10
10.12490554499971
 20
6.378028726246256
 30
0.0
 10
10.12384176706591
 20
6.378657549297869
 30
0.0
 10
10.12329191528572
 20
6.378982579046441
 30
0.0
  0
SPLINE
  5
2EA
330
1F
100
AcDbEntity
  8
0
  6
Continuous
 62
     7
370
    18
100
AcDbSpline
210
0.0
220
0.0
230
1.0
 70
     8
 71
     3
 72
    23
 73
    19
 74
     0
 42
0.000000001
 43
0.00000001
 40
0.0
 40
0.0
 40
0.0
 40
0.0
 40
0.0912609520412069
 40
0.1774380523622645
 40
0.2586781753433991
 40
0.3347782543759343
 40
0.406498703543782
 40
0.4737257195372777
 40
0.5371521470015579
 40
0.5974031390993008
 40
0.6545219121410192
 40
0.7092765662779078
 40
0.7615100947779048
 40
0.8118413153607345
 40
0.8605996190280615
 40
0.9078026946136556
 40
0.9542577632202354
 40
1.0
 40
1.0
 40
1.0
 40
1.0
 10
10.14347108837222
 20
6.341167117611646
 30
0.0
 10
10.14346275169048
 20
6.342057437897075
 30
0.0
 10
10.14344654273649
 20
6.343788481611736
 30
0.0
 10
10.14329532954512
 20
6.346380413379181
 30
0.0
 10
10.14307614276694
 20
6.348856784917245
 30
0.0
 10
10.1427507572013
 20
6.351236330952112
 30
0.0
 10
10.14233586718391
 20
6.353508309118922
 30
0.0
 10
10.14181424386112
 20
6.355679965595415
 30
0.0
 10
10.14121748781936
 20
6.357745713614888
 30
0.0
 10
10.14051844035543
 20
6.359710076909177
 30
0.0
 10
10.13973504876524
 20
6.361567552765771
 30
0.0
 10
10.13893353282091
 20
6.363326423178603
 30
0.0
 10
10.13809038275212
 20
6.36499111509295
 30
0.0
 10
10.13719350272993
 20
6.366551469110173
 30
0.0
 10
10.1362689090345
 20
6.368022588130416
 30
0.0
 10
10.13529960626329
 20
6.369395271043606
 30
0.0
 10
10.13428824545141
 20
6.37066769187184
 30
0.0
 10
10.13357757079975
 20
6.371435401252319
 30
0.0
 10
10.13322498079668
 20
6.371816288135214
 30
0.0
  0
SPLINE
  5
2EB
330
1F
100
AcDbEntity
  8
0
  6
Continuous
 62
     7
370
    18
100
AcDbSpline
210
0.0
220
0.0
230
1.0
 70
     8
 71
     3
 72
    15
 73
    11
 74
     0
 42
0.000000001
 43
0.00000001
 40
0.0
 40
0.0
 40
0.0
 40
0.0
 40
0.0977695964822331
 40
0.2008523784955812
 40
0.3104302888087521
 40
0.4285493214350529
 40
0.5551842864614315
 40
0.6918447589416411
 40
0.8400944459418304
 40
1.0
 40
1.0
 40
1.0
 40
1.0
 10
10.13769185025676
 20
6.322188380676485
 30
0.0
 10
10.13813520292372
 20
6.322517931078633
 30
0.0
 10
10.13904600179039
 20
6.323194940951717
 30
0.0
 10
10.14018124638653
 20
6.324640363364654
 30
0.0
 10
10.14116882737771
 20
6.326441341154022
 30
0.0
 10
10.14201107776924
 20
6.328601780270027
 30
0.0
 10
10.14267149746744
 20
6.331158224781399
 30
0.0
 10
10.14312802841924
 20
6.334124561192192
 30
0.0
 10
10.14342219060812
 20
6.33747589188036
 30
0.0
 10
10.14345438322592
 20
6.339906068829364
 30
0.0
 10
10.14347108837222
 20
6.341167117611646
 30
0.0
  0
SPLINE
  5
2EC
330
1F
100
AcDbEntity
  8
0
  6
Continuous
 62
     7
370
    18
100
AcDbSpline
210
0.0
220
0.0
230
1.0
 70
     8
 71
     3
 72
    15
 73
    11
 74
     0
 42
0.000000001
 43
0.00000001
 40
0.0
 40
0.0
 40
0.0
 40
0.0
 40
0.1779933312737979
 40
0.3367237259982473
 40
0.4762209971933655
 40
0.5976674382561524
 40
0.7073637327202694
 40
0.8092389540542927
 40
0.9070683407136616
 40
1.0
 40
1.0
 40
1.0
 40
1.0
 10
10.12349659663564
 20
6.325475212087246
 30
0.0
 10
10.12440003211672
 20
6.324969103930869
 30
0.0
 10
10.12610913076223
 20
6.324011660059494
 30
0.0
 10
10.12851974951273
 20
6.322849206612319
 30
0.0
 10
10.13062685864372
 20
6.322017185239558
 30
0.0
 10
10.13244361938013
 20
6.321547725591369
 30
0.0
 10
10.1340202363729
 20
6.321351889768102
 30
0.0
 10
10.13541128912084
 20
6.321394612854369
 30
0.0
 10
10.13665261950814
 20
6.321633556977059
 30
0.0
 10
10.13735142050277
 20
6.32200663230563
 30
0.0
 10
10.13769185025676
 20
6.322188380676485
 30
0.0
  0
LINE
  5
2ED
330
1F
100
AcDbEntity
  8
0
  6
Continuous
 62
     7
370
    18
100
AcDbLine
 10
10.1111073549
 20
6.3326273691
 30
0.0
 11
10.1234965966
 21
6.3254752121
 31
0.0
  0
LINE
  5
2EE
330
1F
100
AcDbEntity
  8
0
  6
Continuous
 62
     7
370
    18
100
AcDbLine
 10
10.1111073549
 20
6.386016576
 30
0.0
 11
10.1111073549
 21
6.3326273691
 31
0.0
  0
LINE
  5
2EF
330
1F
100
AcDbEntity
  8
0
  6
Continuous
 62
     7
370
    18
100
AcDbLine
 10
10.1232919153
 20
6.378982579
 30
0.0
 11
10.1111073549
 21
6.386016576
 31
0.0
  0
LINE
  5
2F0
330
1F
100
AcDbEntity
  8
0
  6
Continuous
 62
     7
370
    18
100
AcDbLine
 10
10.1339320876
 20
6.3722244922
 30
0.0
 11
10.1332249808
 21
6.3718162881
 31
0.0
  0
LINE
  5
2F1
330
1F
100
AcDbEntity
  8
0
  6
Continuous
 62
     7
370
    18
100
AcDbLine
 10
10.1441781952
 20
6.3415753217
 30
0.0
 11
10.1434710884
 21
6.3411671176
 31
0.0
  0
LINE
  5
2F2
330
1F
100
AcDbEntity
  8
0
  6
Continuous
 62
     7
370
    18
100
AcDbLine
 10
10.1239990221
 20
6.3793907831
 30
0.0
 11
10.1232919153
 21
6.378982579
 31
0.0
  0
LINE
  5
2F3
330
1F
100
AcDbEntity
  8
0
  6
Continuous
 62
     7
370
    18
100
AcDbLine
 10
10.1248659078
 20
6.3174927527
 30
0.0
 11
10.124158801
 21
6.3170845486
 31
0.0
  0
LINE
  5
2F4
330
1F
100
AcDbEntity
  8
0
  6
Continuous
 62
     7
370
    18
100
AcDbLine
 10
10.1118144617
 20
6.3864247801
 30
0.0
 11
10.1111073549
 21
6.386016576
 31
0.0
  0
LINE
  5
2F5
330
1F
100
AcDbEntity
  8
0
  6
Continuous
 62
     7
370
    18
100
AcDbLine
 10
10.138398957
 20
6.3225965847
 30
0.0
 11
10.1376918503
 21
6.3221883807
 31
0.0
  0
LINE
  5
2F6
330
1F
100
AcDbEntity
  8
0
  6
Continuous
 62
     7
370
    18
100
AcDbLine
 10
10.1033382458
 20
6.3299204074
 30
0.0
 11
10.102631139
 21
6.3295122033
 31
0.0
  0
LINE
  5
2F7
330
1F
100
AcDbEntity
  8
0
  6
Continuous
 62
     7
370
    18
100
AcDbLine
 10
10.0093293058
 20
6.3841906133
 30
0.0
 11
10.0093293058
 21
6.4527801742
 31
0.0
  0
SPLINE
  5
2F8
330
1F
100
AcDbEntity
  8
0
  6
Continuous
 62
     7
370
    18
100
AcDbSpline
210
0.0
220
0.0
230
1.0
 70
     8
 71
     3
 72
    15
 73
    11
 74
     0
 42
0.000000001
 43
0.00000001
 40
0.0
 40
0.0
 40
0.0
 40
0.0
 40
0.0892047702332417
 40
0.1898334556643491
 40
0.2992325919749821
 40
0.4192609378429105
 40
0.5492073901909384
 40
0.6890743636843468
 40
0.8395791979483163
 40
1.0
 40
1.0
 40
1.0
 40
1.0
 10
10.03822549636985
 20
6.378020197653416
 30
0.0
 10
10.03830940280894
 20
6.37830093714348
 30
0.0
 10
10.03848796107711
 20
6.378898368731508
 30
0.0
 10
10.03877743257319
 20
6.379832693989365
 30
0.0
 10
10.03908543848668
 20
6.380873746173128
 30
0.0
 10
10.03945402715457
 20
6.381976301075191
 30
0.0
 10
10.03983823721847
 20
6.38318694783803
 30
0.0
 10
10.04024151568376
 20
6.384502506947238
 30
0.0
 10
10.04070668954027
 20
6.38588279632215
 30
0.0
 10
10.04101582081569
 20
6.386845847966748
 30
0.0
 10
10.04117531582462
 20
6.387342730498128
 30
0.0
  0
LINE
  5
2F9
330
1F
100
AcDbEntity
  8
0
  6
Continuous
 62
     7
370
    18
100
AcDbLine
 10
10.0411753158
 20
6.3873427305
 30
0.0
 11
10.0542527009
 21
6.4268464502
 31
0.0
  0
LINE
  5
2FA
330
1F
100
AcDbEntity
  8
0
  6
Continuous
 62
     7
370
    18
100
AcDbLine
 10
10.0664145802
 20
6.3512359858
 30
0.0
 11
10.058645471
 21
6.3557209971
 31
0.0
  0
LINE
  5
2FB
330
1F
100
AcDbEntity
  8
0
  6
Continuous
 62
     7
370
    18
100
AcDbLine
 10
10.058645471
 20
6.3557209971
 30
0.0
 11
10.058645471
 21
6.4144491247
 31
0.0
  0
LINE
  5
2FC
330
1F
100
AcDbEntity
  8
0
  6
Continuous
 62
     7
370
    18
100
AcDbLine
 10
10.042123922
 20
6.3652586844
 30
0.0
 11
10.0337465868
 21
6.370094817
 31
0.0
  0
LINE
  5
2FD
330
1F
100
AcDbEntity
  8
0
  6
Continuous
 62
     7
370
    18
100
AcDbLine
 10
10.0337465868
 20
6.370094817
 30
0.0
 11
10.0178055217
 21
6.4380255256
 31
0.0
  0
LINE
  5
2FE
330
1F
100
AcDbEntity
  8
0
  6
Continuous
 62
     7
370
    18
100
AcDbLine
 10
10.0170984149
 20
6.3797056021
 30
0.0
 11
10.0093293058
 21
6.3841906133
 31
0.0
  0
LINE
  5
2FF
330
1F
100
AcDbEntity
  8
0
  6
Continuous
 62
     7
370
    18
100
AcDbLine
 10
10.0411753158
 20
6.3873427305
 30
0.0
 11
10.040468209
 21
6.3869345264
 31
0.0
  0
LINE
  5
300
330
1F
100
AcDbEntity
  8
0
  6
Continuous
 62
     7
370
    18
100
AcDbLine
 10
10.058645471
 20
6.4144491247
 30
0.0
 11
10.0579383643
 21
6.4140409206
 31
0.0
  0
LINE
  5
301
330
1F
100
AcDbEntity
  8
0
  6
Continuous
 62
     7
370
    18
100
AcDbLine
 10
10.058645471
 20
6.3557209971
 30
0.0
 11
10.0579383643
 21
6.355312793
 31
0.0
  0
LINE
  5
302
330
1F
100
AcDbEntity
  8
0
  6
Continuous
 62
     7
370
    18
100
AcDbLine
 10
10.0178055217
 20
6.4380255256
 30
0.0
 11
10.0170984149
 21
6.4376173216
 31
0.0
  0
LINE
  5
303
330
1F
100
AcDbEntity
  8
0
  6
Continuous
 62
     7
370
    18
100
AcDbLine
 10
10.0337465868
 20
6.370094817
 30
0.0
 11
10.03303948
 21
6.3696866129
 31
0.0
  0
LINE
  5
304
330
1F
100
AcDbEntity
  8
0
  6
Continuous
 62
     7
370
    18
100
AcDbLine
 10
10.0093293058
 20
6.3841906133
 30
0.0
 11
10.008622199
 21
6.3837824092
 31
0.0
  0
LINE
  5
305
330
1F
100
AcDbEntity
  8
0
  6
Continuous
 62
     7
370
    18
100
AcDbLine
 10
9.9471663758
 20
6.4200765089
 30
0.0
 11
9.9707491125
 21
6.4750520457
 31
0.0
  0
LINE
  5
306
330
1F
100
AcDbEntity
  8
0
  6
Continuous
 62
     7
370
    18
100
AcDbLine
 10
10.0034652662
 20
6.3875758513
 30
0.0
 11
9.9954591343
 21
6.3921976928
 31
0.0
  0
LINE
  5
307
330
1F
100
AcDbEntity
  8
0
  6
Continuous
 62
     7
370
    18
100
AcDbLine
 10
9.9954591343
 20
6.3921976928
 30
0.0
 11
9.9886203692
 21
6.4175013107
 31
0.0
  0
LINE
  5
308
330
1F
100
AcDbEntity
  8
0
  6
Continuous
 62
     7
370
    18
100
AcDbLine
 10
9.9886203692
 20
6.4175013107
 30
0.0
 11
9.9629990802
 21
6.432292166
 31
0.0
  0
LINE
  5
309
330
1F
100
AcDbEntity
  8
0
  6
Continuous
 62
     7
370
    18
100
AcDbLine
 10
9.955714648
 20
6.4151416964
 30
0.0
 11
9.9471663758
 21
6.4200765089
 31
0.0
  0
LINE
  5
30A
330
1F
100
AcDbEntity
  8
0
  6
Continuous
 62
     7
370
    18
100
AcDbLine
 10
9.9860678724
 20
6.4269832168
 30
0.0
 11
9.9802284339
 21
6.4485955652
 31
0.0
  0
SPLINE
  5
30B
330
1F
100
AcDbEntity
  8
0
  6
Continuous
 62
     7
370
    18
100
AcDbSpline
210
0.0
220
0.0
230
1.0
 70
     8
 71
     3
 72
    15
 73
    11
 74
     0
 42
0.000000001
 43
0.00000001
 40
0.0
 40
0.0
 40
0.0
 40
0.0
 40
0.1531481085926292
 40
0.2994334688329039
 40
0.436426351456749
 40
0.5656705729563586
 40
0.6865083102878738
 40
0.7992685160630044
 40
0.9033947408013441
 40
1.0
 40
1.0
 40
1.0
 40
1.0
 10
9.980228433865257
 20
6.448595565239969
 30
0.0
 10
9.980004570641158
 20
6.449429618179496
 30
0.0
 10
9.979566875769493
 20
6.451060349157292
 30
0.0
 10
9.978914140849717
 20
6.453439362744137
 30
0.0
 10
9.978317812745427
 20
6.455684984782345
 30
0.0
 10
9.977733064069977
 20
6.457795830661208
 30
0.0
 10
9.97720520099608
 20
6.459771504324226
 30
0.0
 10
9.976718656070638
 20
6.461609706195515
 30
0.0
 10
9.9762374672447
 20
6.463320372566607
 30
0.0
 10
9.975948699061336
 20
6.464412864287613
 30
0.0
 10
9.975809724722806
 20
6.464938643521692
 30
0.0
  0
LINE
  5
30C
330
1F
100
AcDbEntity
  8
0
  6
Continuous
 62
     7
370
    18
100
AcDbLine
 10
10.0382254964
 20
6.3780201977
 30
0.0
 11
10.0375183896
 21
6.3776119936
 31
0.0
  0
SPLINE
  5
30D
330
1F
100
AcDbEntity
  8
0
  6
Continuous
 62
     7
370
    18
100
AcDbSpline
210
0.0
220
0.0
230
1.0
 70
     8
 71
     3
 72
    15
 73
    11
 74
     0
 42
0.000000001
 43
0.00000001
 40
0.0
 40
0.0
 40
0.0
 40
0.0
 40
0.1531481085926292
 40
0.2994334688329039
 40
0.436426351456749
 40
0.5656705729563586
 40
0.6865083102878738
 40
0.7992685160630044
 40
0.9033947408013441
 40
1.0
 40
1.0
 40
1.0
 40
1.0
 10
9.97952132708407
 20
6.448187361184059
 30
0.0
 10
9.979297463859972
 20
6.449021414123584
 30
0.0
 10
9.978859768988306
 20
6.450652145101381
 30
0.0
 10
9.978207034068532
 20
6.453031158688226
 30
0.0
 10
9.97761070596424
 20
6.455276780726434
 30
0.0
 10
9.977025957288792
 20
6.457387626605297
 30
0.0
 10
9.976498094214895
 20
6.459363300268314
 30
0.0
 10
9.97601154928945
 20
6.461201502139603
 30
0.0
 10
9.975530360463512
 20
6.462912168510695
 30
0.0
 10
9.975241592280149
 20
6.464004660231701
 30
0.0
 10
9.975102617941621
 20
6.46453043946578
 30
0.0
  0
LINE
  5
30E
330
1F
100
AcDbEntity
  8
0
  6
Continuous
 62
     7
370
    18
100
AcDbLine
 10
9.9853607656
 20
6.4265750127
 30
0.0
 11
9.9795213271
 21
6.4481873612
 31
0.0
  0
LINE
  5
30F
330
1F
100
AcDbEntity
  8
0
  6
Continuous
 62
     7
370
    18
100
AcDbLine
 10
9.9648444703
 20
6.4384188179
 30
0.0
 11
9.9853607656
 21
6.4265750127
 31
0.0
  0
LINE
  5
310
330
1F
100
AcDbEntity
  8
0
  6
Continuous
 62
     7
370
    18
100
AcDbLine
 10
9.9709969509
 20
6.4540816196
 30
0.0
 11
9.9648444703
 21
6.4384188179
 31
0.0
  0
SPLINE
  5
311
330
1F
100
AcDbEntity
  8
0
  6
Continuous
 62
     7
370
    18
100
AcDbSpline
210
0.0
220
0.0
230
1.0
 70
     8
 71
     3
 72
    11
 73
     7
 74
     0
 42
0.000000001
 43
0.00000001
 40
0.0
 40
0.0
 40
0.0
 40
0.0
 40
0.2472885692344847
 40
0.4965585959218939
 40
0.7463647942382549
 40
1.0
 40
1.0
 40
1.0
 40
1.0
 10
9.975102617941621
 20
6.46453043946578
 30
0.0
 10
9.974872162979452
 20
6.463565016548356
 30
0.0
 10
9.974409406480872
 20
6.461626435036756
 30
0.0
 10
9.973452759618969
 20
6.458949224947767
 30
0.0
 10
9.972340460291846
 20
6.456398643112354
 30
0.0
 10
9.971447052327477
 20
6.454857866967702
 30
0.0
 10
9.970996950863755
 20
6.454081619580585
 30
0.0
  0
LINE
  5
312
330
1F
100
AcDbEntity
  8
0
  6
Continuous
 62
     7
370
    18
100
AcDbLine
 10
9.9758097247
 20
6.4649386435
 30
0.0
 11
9.9751026179
 21
6.4645304395
 31
0.0
  0
LINE
  5
313
330
1F
100
AcDbEntity
  8
0
  6
Continuous
 62
     7
370
    18
100
AcDbLine
 10
9.9802284339
 20
6.4485955652
 30
0.0
 11
9.9795213271
 21
6.4481873612
 31
0.0
  0
LINE
  5
314
330
1F
100
AcDbEntity
  8
0
  6
Continuous
 62
     7
370
    18
100
AcDbLine
 10
9.9471663758
 20
6.4200765089
 30
0.0
 11
9.946459269
 21
6.4196683049
 31
0.0
  0
LINE
  5
315
330
1F
100
AcDbEntity
  8
0
  6
Continuous
 62
     7
370
    18
100
AcDbLine
 10
9.9860678724
 20
6.4269832168
 30
0.0
 11
9.9853607656
 21
6.4265750127
 31
0.0
  0
LINE
  5
316
330
1F
100
AcDbEntity
  8
0
  6
Continuous
 62
     7
370
    18
100
AcDbLine
 10
9.9886203692
 20
6.4175013107
 30
0.0
 11
9.9879132624
 21
6.4170931066
 31
0.0
  0
LINE
  5
317
330
1F
100
AcDbEntity
  8
0
  6
Continuous
 62
     7
370
    18
100
AcDbLine
 10
9.9954591343
 20
6.3921976928
 30
0.0
 11
9.9947520275
 21
6.3917894888
 31
0.0
  0
LINE
  5
318
330
1F
100
AcDbEntity
  8
0
  6
Continuous
 62
     7
370
    18
100
AcDbLine
 10
9.9629990802
 20
6.432292166
 30
0.0
 11
9.9622919735
 21
6.4318839619
 31
0.0
  0
LINE
  5
319
330
1F
100
AcDbEntity
  8
0
  6
Continuous
 62
     7
370
    18
100
AcDbLine
 10
9.8999090641
 20
6.4473575742
 30
0.0
 11
9.8999090641
 21
6.5159471351
 31
0.0
  0
LINE
  5
31A
330
1F
100
AcDbEntity
  8
0
  6
Continuous
 62
     7
370
    18
100
AcDbLine
 10
9.9415830369
 20
6.4846972898
 30
0.0
 11
9.90838528
 21
6.5038619469
 31
0.0
  0
LINE
  5
31B
330
1F
100
AcDbEntity
  8
0
  6
Continuous
 62
     7
370
    18
100
AcDbLine
 10
9.9392713416
 20
6.4566677393
 30
0.0
 11
9.90838528
 21
6.4744978831
 31
0.0
  0
LINE
  5
31C
330
1F
100
AcDbEntity
  8
0
  6
Continuous
 62
     7
370
    18
100
AcDbLine
 10
9.943124167
 20
6.4224100264
 30
0.0
 11
9.8999090641
 21
6.4473575742
 31
0.0
  0
LINE
  5
31D
330
1F
100
AcDbEntity
  8
0
  6
Continuous
 62
     7
370
    18
100
AcDbLine
 10
9.90838528
 20
6.5038619469
 30
0.0
 11
9.9076781733
 21
6.5034537429
 31
0.0
  0
LINE
  5
31E
330
1F
100
AcDbEntity
  8
0
  6
Continuous
 62
     7
370
    18
100
AcDbLine
 10
9.90838528
 20
6.4744978831
 30
0.0
 11
9.9076781733
 21
6.4740896791
 31
0.0
  0
LINE
  5
31F
330
1F
100
AcDbEntity
  8
0
  6
Continuous
 62
     7
370
    18
100
AcDbLine
 10
9.8999090641
 20
6.4473575742
 30
0.0
 11
9.8992019574
 21
6.4469493702
 31
0.0
  0
LINE
  5
320
330
1F
100
AcDbEntity
  8
0
  6
Continuous
 62
     7
370
    18
100
AcDbLine
 10
9.8444283782
 20
6.4793858925
 30
0.0
 11
9.8444283782
 21
6.5479754534
 31
0.0
  0
SPLINE
  5
321
330
1F
100
AcDbEntity
  8
0
  6
Continuous
 62
     7
370
    18
100
AcDbSpline
210
0.0
220
0.0
230
1.0
 70
     8
 71
     3
 72
     9
 73
     5
 74
     0
 42
0.000000001
 43
0.00000001
 40
0.0
 40
0.0
 40
0.0
 40
0.0
 40
0.4038165270956739
 40
1.0
 40
1.0
 40
1.0
 40
1.0
 10
9.882785127889296
 20
6.497798123672536
 30
0.0
 10
9.882198231643416
 20
6.497455351608602
 30
0.0
 10
9.88074485812722
 20
6.496606520416877
 30
0.0
 10
9.878894557138175
 20
6.496607718399487
 30
0.0
 10
9.877791438268604
 20
6.496608432616922
 30
0.0
  0
SPLINE
  5
322
330
1F
100
AcDbEntity
  8
0
  6
Continuous
 62
     7
370
    18
100
AcDbSpline
210
0.0
220
0.0
230
1.0
 70
     8
 71
     3
 72
    10
 73
     6
 74
     0
 42
0.000000001
 43
0.00000001
 40
0.0
 40
0.0
 40
0.0
 40
0.0
 40
0.2411943785815188
 40
0.6200734639607056
 40
1.0
 40
1.0
 40
1.0
 40
1.0
 10
9.88416682028511
 20
6.462521726402287
 30
0.0
 10
9.883056050864077
 20
6.461997452271887
 30
0.0
 10
9.880200434383244
 20
6.460649624523938
 30
0.0
 10
9.873953589288611
 20
6.462642303319604
 30
0.0
 10
9.86931432246165
 20
6.465119952406598
 30
0.0
 10
9.866991487040327
 20
6.466360487015953
 30
0.0
  0
LINE
  5
323
330
1F
100
AcDbEntity
  8
0
  6
Continuous
 62
     7
370
    18
100
AcDbLine
 10
9.866991487
 20
6.466360487
 30
0.0
 11
9.8444283782
 21
6.4793858925
 31
0.0
  0
SPLINE
  5
324
330
1F
100
AcDbEntity
  8
0
  6
Continuous
 62
     7
370
    18
100
AcDbSpline
210
0.0
220
0.0
230
1.0
 70
     8
 71
     3
 72
     9
 73
     5
 74
     0
 42
0.000000001
 43
0.00000001
 40
0.0
 40
0.0
 40
0.0
 40
0.0
 40
0.2972916703248965
 40
1.0
 40
1.0
 40
1.0
 40
1.0
 10
9.87594551464854
 20
6.504548803688738
 30
0.0
 10
9.87643275524255
 20
6.504834599803359
 30
0.0
 10
9.878071686442597
 20
6.505795932202307
 30
0.0
 10
9.878225297836149
 20
6.508479894197635
 30
0.0
 10
9.87833324184193
 20
6.510365936648281
 30
0.0
  0
SPLINE
  5
325
330
1F
100
AcDbEntity
  8
0
  6
Continuous
 62
     7
370
    18
100
AcDbSpline
210
0.0
220
0.0
230
1.0
 70
     8
 71
     3
 72
    23
 73
    19
 74
     0
 42
0.000000001
 43
0.00000001
 40
0.0
 40
0.0
 40
0.0
 40
0.0
 40
0.0759917916873421
 40
0.1480992384688295
 40
0.2183194139888901
 40
0.2870085041191561
 40
0.3537649922415741
 40
0.418754083045484
 40
0.4837636608299581
 40
0.5503403773656034
 40
0.5870295842959881
 40
0.6292491933521548
 40
0.6773177465342536
 40
0.7301091520056675
 40
0.7889145862889017
 40
0.8537864845156152
 40
0.9241284644212688
 40
1.0
 40
1.0
 40
1.0
 40
1.0
 10
9.87833324184193
 20
6.510365936648281
 30
0.0
 10
9.878317720348404
 20
6.510946129471808
 30
0.0
 10
9.87828747074749
 20
6.51207685837583
 30
0.0
 10
9.87803170555841
 20
6.513845608955263
 30
0.0
 10
9.877591713540268
 20
6.515605291316446
 30
0.0
 10
9.877013140064264
 20
6.517339501964337
 30
0.0
 10
9.876247951060842
 20
6.5190094025185
 30
0.0
 10
9.875339666316902
 20
6.520587861272069
 30
0.0
 10
9.87425929598535
 20
6.52202044706283
 30
0.0
 10
9.8732493004141
 20
6.523104548377411
 30
0.0
 10
9.872341425383818
 20
6.523942641868544
 30
0.0
 10
9.87153018322982
 20
6.524596648221747
 30
0.0
 10
9.870610020658901
 20
6.525291486246905
 30
0.0
 10
9.869577876090304
 20
6.526026441662081
 30
0.0
 10
9.868433369779465
 20
6.526795116942984
 30
0.0
 10
9.867172971964466
 20
6.52760849991905
 30
0.0
 10
9.865799683974721
 20
6.528437698586338
 30
0.0
 10
9.864848360259911
 20
6.528992409557621
 30
0.0
 10
9.864354709650145
 20
6.52928025417345
 30
0.0
  0
LINE
  5
326
330
1F
100
AcDbEntity
  8
0
  6
Continuous
 62
     7
370
    18
100
AcDbLine
 10
9.8643547097
 20
6.5292802542
 30
0.0
 11
9.8529045941
 21
6.5358902652
 31
0.0
  0
SPLINE
  5
327
330
1F
100
AcDbEntity
  8
0
  6
Continuous
 62
     7
370
    18
100
AcDbSpline
210
0.0
220
0.0
230
1.0
 70
     8
 71
     3
 72
    10
 73
     6
 74
     0
 42
0.000000001
 43
0.00000001
 40
0.0
 40
0.0
 40
0.0
 40
0.0
 40
0.2327047756780034
 40
0.6161010935288663
 40
1.0
 40
1.0
 40
1.0
 40
1.0
 10
9.877584717777792
 20
6.471755134692269
 30
0.0
 10
9.878080831022883
 20
6.471948512442921
 30
0.0
 10
9.879394323244629
 20
6.472460492668916
 30
0.0
 10
9.880408577109833
 20
6.474996738240185
 30
0.0
 10
9.880566116031988
 20
6.477331383455403
 30
0.0
 10
9.880644937088116
 20
6.478499470674911
 30
0.0
  0
SPLINE
  5
328
330
1F
100
AcDbEntity
  8
0
  6
Continuous
 62
     7
370
    18
100
AcDbSpline
210
0.0
220
0.0
230
1.0
 70
     8
 71
     3
 72
    19
 73
    15
 74
     0
 42
0.000000001
 43
0.00000001
 40
0.0
 40
0.0
 40
0.0
 40
0.0
 40
0.0801171945698666
 40
0.1562367079050306
 40
0.2293410460817586
 40
0.3019517190328914
 40
0.3732332809350858
 40
0.4427388184259717
 40
0.5128783538514354
 40
0.5860843325765315
 40
0.667835977289547
 40
0.763743588503143
 40
0.8741164363352616
 40
1.0
 40
1.0
 40
1.0
 40
1.0
 10
9.880644937088116
 20
6.478499470674912
 30
0.0
 10
9.880628200892744
 20
6.479141007894747
 30
0.0
 10
9.880595563603313
 20
6.480392070962593
 30
0.0
 10
9.880290243651292
 20
6.482350549545958
 30
0.0
 10
9.879774303316978
 20
6.484297182359993
 30
0.0
 10
9.879084875552094
 20
6.486216493065105
 30
0.0
 10
9.878191121804914
 20
6.48807154463956
 30
0.0
 10
9.877126291182782
 20
6.489816112095085
 30
0.0
 10
9.875902001606832
 20
6.491440394531305
 30
0.0
 10
9.87448597746444
 20
6.492964769565301
 30
0.0
 10
9.872826908252254
 20
6.494432655904546
 30
0.0
 10
9.870881298993964
 20
6.495896236507661
 30
0.0
 10
9.868620781072382
 20
6.497425097671774
 30
0.0
 10
9.867008008613698
 20
6.498374621476479
 30
0.0
 10
9.866148681481821
 20
6.49888055246715
 30
0.0
  0
LINE
  5
329
330
1F
100
AcDbEntity
  8
0
  6
Continuous
 62
     7
370
    18
100
AcDbLine
 10
9.8661486815
 20
6.4988805525
 30
0.0
 11
9.8529045941
 21
6.5065262014
 31
0.0
  0
SPLINE
  5
32A
330
1F
100
AcDbEntity
  8
0
  6
Continuous
 62
     7
370
    18
100
AcDbSpline
210
0.0
220
0.0
230
1.0
 70
     8
 71
     3
 72
    23
 73
    19
 74
     0
 42
0.000000001
 43
0.00000001
 40
0.0
 40
0.0
 40
0.0
 40
0.0
 40
0.0759917916873421
 40
0.1480992384688295
 40
0.2183194139888901
 40
0.2870085041191561
 40
0.3537649922415741
 40
0.418754083045484
 40
0.4837636608299581
 40
0.5503403773656034
 40
0.5870295842959881
 40
0.6292491933521548
 40
0.6773177465342536
 40
0.7301091520056675
 40
0.7889145862889017
 40
0.8537864845156152
 40
0.9241284644212688
 40
1.0
 40
1.0
 40
1.0
 40
1.0
 10
9.877626135060744
 20
6.509957732592371
 30
0.0
 10
9.877610613567217
 20
6.510537925415896
 30
0.0
 10
9.877580363966302
 20
6.511668654319918
 30
0.0
 10
9.877324598777225
 20
6.513437404899351
 30
0.0
 10
9.87688460675908
 20
6.515197087260536
 30
0.0
 10
9.876306033283075
 20
6.516931297908425
 30
0.0
 10
9.875540844279655
 20
6.518601198462589
 30
0.0
 10
9.874632559535717
 20
6.520179657216158
 30
0.0
 10
9.873552189204165
 20
6.52161224300692
 30
0.0
 10
9.872542193632915
 20
6.522696344321499
 30
0.0
 10
9.871634318602633
 20
6.523534437812634
 30
0.0
 10
9.870823076448636
 20
6.524188444165835
 30
0.0
 10
9.869902913877715
 20
6.524883282190994
 30
0.0
 10
9.868870769309117
 20
6.52561823760617
 30
0.0
 10
9.867726262998278
 20
6.526386912887074
 30
0.0
 10
9.866465865183281
 20
6.527200295863138
 30
0.0
 10
9.865092577193536
 20
6.528029494530426
 30
0.0
 10
9.864141253478724
 20
6.528584205501709
 30
0.0
 10
9.863647602868959
 20
6.528872050117538
 30
0.0
  0
SPLINE
  5
32B
330
1F
100
AcDbEntity
  8
0
  6
Continuous
 62
     7
370
    18
100
AcDbSpline
210
0.0
220
0.0
230
1.0
 70
     8
 71
     3
 72
    15
 73
    11
 74
     0
 42
0.000000001
 43
0.00000001
 40
0.0
 40
0.0
 40
0.0
 40
0.0
 40
0.1323094633054691
 40
0.2550649574979176
 40
0.3743679525391931
 40
0.4905979041316614
 40
0.6083390179302166
 40
0.7301746177729393
 40
0.86006867642799
 40
1.0
 40
1.0
 40
1.0
 40
1.0
 10
9.871810776707056
 20
6.503624170315781
 30
0.0
 10
9.87227123557478
 20
6.503544278381216
 30
0.0
 10
9.87315890391378
 20
6.503390263449966
 30
0.0
 10
9.8743480497308
 20
6.503524274896414
 30
0.0
 10
9.875372032852276
 20
6.503901639103361
 30
0.0
 10
9.876204810442266
 20
6.504585369193657
 30
0.0
 10
9.876846595617206
 20
6.505540102412879
 30
0.0
 10
9.877309977426497
 20
6.50675531921605
 30
0.0
 10
9.877569132791642
 20
6.508250041819911
 30
0.0
 10
9.877606668868125
 20
6.509374558658521
 30
0.0
 10
9.877626135060744
 20
6.509957732592371
 30
0.0
  0
SPLINE
  5
32C
330
1F
100
AcDbEntity
  8
0
  6
Continuous
 62
     7
370
    18
100
AcDbSpline
210
0.0
220
0.0
230
1.0
 70
     8
 71
     3
 72
    15
 73
    11
 74
     0
 42
0.000000001
 43
0.00000001
 40
0.0
 40
0.0
 40
0.0
 40
0.0
 40
0.1669801744060321
 40
0.3208066328848166
 40
0.4631345048703157
 40
0.5942480539785189
 40
0.7123671525397418
 40
0.8194549510427509
 40
0.9157522665813522
 40
1.0
 40
1.0
 40
1.0
 40
1.0
 10
9.86458672906272
 20
6.506974221333384
 30
0.0
 10
9.864992135899342
 20
6.506742037121944
 30
0.0
 10
9.865771014006684
 20
6.506295958805485
 30
0.0
 10
9.86689452711994
 20
6.505696983820563
 30
0.0
 10
9.867931475869836
 20
6.505140695029302
 30
0.0
 10
9.868877849200015
 20
6.504700607804057
 30
0.0
 10
9.86973833552043
 20
6.504307919404032
 30
0.0
 10
9.870509491269237
 20
6.504002821349871
 30
0.0
 10
9.87119509360967
 20
6.503764870702007
 30
0.0
 10
9.871614888038968
 20
6.503668936221122
 30
0.0
 10
9.871810776707056
 20
6.503624170315781
 30
0.0
  0
LINE
  5
32D
330
1F
100
AcDbEntity
  8
0
  6
Continuous
 62
     7
370
    18
100
AcDbLine
 10
9.8521974874
 20
6.5141263783
 30
0.0
 11
9.8645867291
 21
6.5069742213
 31
0.0
  0
LINE
  5
32E
330
1F
100
AcDbEntity
  8
0
  6
Continuous
 62
     7
370
    18
100
AcDbLine
 10
9.8521974874
 20
6.5354820611
 30
0.0
 11
9.8521974874
 21
6.5141263783
 31
0.0
  0
LINE
  5
32F
330
1F
100
AcDbEntity
  8
0
  6
Continuous
 62
     7
370
    18
100
AcDbLine
 10
9.8636476029
 20
6.5288720501
 30
0.0
 11
9.8521974874
 21
6.5354820611
 31
0.0
  0
LINE
  5
330
330
1F
100
AcDbEntity
  8
0
  6
Continuous
 62
     7
370
    18
100
AcDbLine
 10
9.8643547097
 20
6.5292802542
 30
0.0
 11
9.8636476029
 21
6.5288720501
 31
0.0
  0
LINE
  5
331
330
1F
100
AcDbEntity
  8
0
  6
Continuous
 62
     7
370
    18
100
AcDbLine
 10
9.8783332418
 20
6.5103659366
 30
0.0
 11
9.8776261351
 21
6.5099577326
 31
0.0
  0
LINE
  5
332
330
1F
100
AcDbEntity
  8
0
  6
Continuous
 62
     7
370
    18
100
AcDbLine
 10
9.8777914383
 20
6.4966084326
 30
0.0
 11
9.8770843315
 21
6.4962002286
 31
0.0
  0
LINE
  5
333
330
1F
100
AcDbEntity
  8
0
  6
Continuous
 62
     7
370
    18
100
AcDbLine
 10
9.8529045941
 20
6.5358902652
 30
0.0
 11
9.8521974874
 21
6.5354820611
 31
0.0
  0
LINE
  5
334
330
1F
100
AcDbEntity
  8
0
  6
Continuous
 62
     7
370
    18
100
AcDbLine
 10
9.8661486815
 20
6.4988805525
 30
0.0
 11
9.8654415747
 21
6.4984723484
 31
0.0
  0
LINE
  5
335
330
1F
100
AcDbEntity
  8
0
  6
Continuous
 62
     7
370
    18
100
AcDbLine
 10
9.8806449371
 20
6.4784994707
 30
0.0
 11
9.8799378303
 21
6.4780912666
 31
0.0
  0
SPLINE
  5
336
330
1F
100
AcDbEntity
  8
0
  6
Continuous
 62
     7
370
    18
100
AcDbSpline
210
0.0
220
0.0
230
1.0
 70
     8
 71
     3
 72
    19
 73
    15
 74
     0
 42
0.000000001
 43
0.00000001
 40
0.0
 40
0.0
 40
0.0
 40
0.0
 40
0.0801171945698666
 40
0.1562367079050306
 40
0.2293410460817586
 40
0.3019517190328914
 40
0.3732332809350858
 40
0.4427388184259717
 40
0.5128783538514354
 40
0.5860843325765315
 40
0.667835977289547
 40
0.763743588503143
 40
0.8741164363352616
 40
1.0
 40
1.0
 40
1.0
 40
1.0
 10
9.87993783030693
 20
6.478091266619
 30
0.0
 10
9.879921094111559
 20
6.478732803838836
 30
0.0
 10
9.879888456822126
 20
6.479983866906681
 30
0.0
 10
9.879583136870105
 20
6.481942345490047
 30
0.0
 10
9.879067196535793
 20
6.483888978304081
 30
0.0
 10
9.878377768770909
 20
6.485808289009195
 30
0.0
 10
9.877484015023725
 20
6.487663340583649
 30
0.0
 10
9.876419184401596
 20
6.489407908039174
 30
0.0
 10
9.875194894825647
 20
6.491032190475393
 30
0.0
 10
9.873778870683253
 20
6.492556565509389
 30
0.0
 10
9.872119801471069
 20
6.494024451848635
 30
0.0
 10
9.87017419221278
 20
6.495488032451749
 30
0.0
 10
9.867913674291193
 20
6.497016893615863
 30
0.0
 10
9.866300901832512
 20
6.497966417420567
 30
0.0
 10
9.865441574700634
 20
6.498472348411239
 30
0.0
  0
SPLINE
  5
337
330
1F
100
AcDbEntity
  8
0
  6
Continuous
 62
     7
370
    18
100
AcDbSpline
210
0.0
220
0.0
230
1.0
 70
     8
 71
     3
 72
    19
 73
    15
 74
     0
 42
0.000000001
 43
0.00000001
 40
0.0
 40
0.0
 40
0.0
 40
0.0
 40
0.0889746355187116
 40
0.1722778979832331
 40
0.2510888193166931
 40
0.3254350616209111
 40
0.3979644757227705
 40
0.4734240254266163
 40
0.5519522794648651
 40
0.6356010187551772
 40
0.7218551388160774
 40
0.8102538553165373
 40
0.9031712343244956
 40
1.0
 40
1.0
 40
1.0
 40
1.0
 10
9.871557935039503
 20
6.471249988169294
 30
0.0
 10
9.871977533572528
 20
6.471109414436653
 30
0.0
 10
9.872789984816018
 20
6.470837227346142
 30
0.0
 10
9.873937890243022
 20
6.470618341770715
 30
0.0
 10
9.87499396640737
 20
6.47050658277167
 30
0.0
 10
9.875932312598293
 20
6.470604505769952
 30
0.0
 10
9.876789476128556
 20
6.470856952468322
 30
0.0
 10
9.877542131223201
 20
6.471339483526654
 30
0.0
 10
9.878240731660567
 20
6.471986290542329
 30
0.0
 10
9.878829814594877
 20
6.472852236975633
 30
0.0
 10
9.879332078626437
 20
6.473879984565015
 30
0.0
 10
9.879675216040148
 20
6.475119661612963
 30
0.0
 10
9.879899270837678
 20
6.476519190503779
 30
0.0
 10
9.879924801721113
 20
6.477560088960794
 30
0.0
 10
9.87993783030693
 20
6.478091266619
 30
0.0
  0
SPLINE
  5
338
330
1F
100
AcDbEntity
  8
0
  6
Continuous
 62
     7
370
    18
100
AcDbSpline
210
0.0
220
0.0
230
1.0
 70
     8
 71
     3
 72
    11
 73
     7
 74
     0
 42
0.000000001
 43
0.00000001
 40
0.0
 40
0.0
 40
0.0
 40
0.0
 40
0.3293005127679522
 40
0.6051256922032391
 40
0.8275907258822829
 40
1.0
 40
1.0
 40
1.0
 40
1.0
 10
9.866416821132619
 20
6.473884207510852
 30
0.0
 10
9.866982876795134
 20
6.473555902495205
 30
0.0
 10
9.86802306595769
 20
6.47295260613779
 30
0.0
 10
9.869443282414442
 20
6.472214272327561
 30
0.0
 10
9.870595791912667
 20
6.471619239469039
 30
0.0
 10
9.871265519740728
 20
6.471362211315857
 30
0.0
 10
9.871557935039503
 20
6.471249988169294
 30
0.0
  0
LINE
  5
339
330
1F
100
AcDbEntity
  8
0
  6
Continuous
 62
     7
370
    18
100
AcDbLine
 10
9.8521974874
 20
6.4820928542
 30
0.0
 11
9.8664168211
 21
6.4738842075
 31
0.0
  0
LINE
  5
33A
330
1F
100
AcDbEntity
  8
0
  6
Continuous
 62
     7
370
    18
100
AcDbLine
 10
9.8521974874
 20
6.5061179973
 30
0.0
 11
9.8521974874
 21
6.4820928542
 31
0.0
  0
LINE
  5
33B
330
1F
100
AcDbEntity
  8
0
  6
Continuous
 62
     7
370
    18
100
AcDbLine
 10
9.8654415747
 20
6.4984723484
 30
0.0
 11
9.8521974874
 21
6.5061179973
 31
0.0
  0
LINE
  5
33C
330
1F
100
AcDbEntity
  8
0
  6
Continuous
 62
     7
370
    18
100
AcDbLine
 10
9.866991487
 20
6.466360487
 30
0.0
 11
9.8662843803
 21
6.465952283
 31
0.0
  0
LINE
  5
33D
330
1F
100
AcDbEntity
  8
0
  6
Continuous
 62
     7
370
    18
100
AcDbLine
 10
9.8444283782
 20
6.4793858925
 30
0.0
 11
9.8437212715
 21
6.4789776884
 31
0.0
  0
LINE
  5
33E
330
1F
100
AcDbEntity
  8
0
  6
Continuous
 62
     7
370
    18
100
AcDbLine
 10
9.8529045941
 20
6.5065262014
 30
0.0
 11
9.8521974874
 21
6.5061179973
 31
0.0
  0
LINE
  5
33F
330
1F
100
AcDbEntity
  8
0
  6
Continuous
 62
     7
370
    18
100
AcDbLine
 10
9.7505157589
 20
6.5336004937
 30
0.0
 11
9.7505157589
 21
6.5835038321
 31
0.0
  0
SPLINE
  5
340
330
1F
100
AcDbEntity
  8
0
  6
Continuous
 62
     7
370
    18
100
AcDbSpline
210
0.0
220
0.0
230
1.0
 70
     8
 71
     3
 72
     9
 73
     5
 74
     0
 42
0.000000001
 43
0.00000001
 40
0.0
 40
0.0
 40
0.0
 40
0.0
 40
0.9884647936363985
 40
1.0
 40
1.0
 40
1.0
 40
1.0
 10
9.758221409675475
 20
6.571960805741203
 30
0.0
 10
9.758950804519568
 20
6.573017607317081
 30
0.0
 10
9.759688711270309
 20
6.57408674157728
 30
0.0
 10
9.760847037216132
 20
6.574427364499994
 30
0.0
 10
9.760860398744954
 20
6.5744312936557
 30
0.0
  0
SPLINE
  5
341
330
1F
100
AcDbEntity
  8
0
  6
Continuous
 62
     7
370
    18
100
AcDbSpline
210
0.0
220
0.0
230
1.0
 70
     8
 71
     3
 72
     9
 73
     5
 74
     0
 42
0.000000001
 43
0.00000001
 40
0.0
 40
0.0
 40
0.0
 40
0.0
 40
0.9496622280634247
 40
1.0
 40
1.0
 40
1.0
 40
1.0
 10
9.782446049442807
 20
6.557364467544406
 30
0.0
 10
9.783249625634879
 20
6.558441970545225
 30
0.0
 10
9.784095796166174
 20
6.559576587642734
 30
0.0
 10
9.785371160960821
 20
6.559968720682916
 30
0.0
 10
9.78543535998299
 20
6.559988459786461
 30
0.0
  0
LINE
  5
342
330
1F
100
AcDbEntity
  8
0
  6
Continuous
 62
     7
370
    18
100
AcDbLine
 10
9.8083715983
 20
6.5002010285
 30
0.0
 11
9.8013730543
 21
6.5042412019
 31
0.0
  0
LINE
  5
343
330
1F
100
AcDbEntity
  8
0
  6
Continuous
 62
     7
370
    18
100
AcDbLine
 10
9.8013730543
 20
6.5042412019
 30
0.0
 11
9.8013730543
 21
6.535607361
 31
0.0
  0
SPLINE
  5
344
330
1F
100
AcDbEntity
  8
0
  6
Continuous
 62
     7
370
    18
100
AcDbSpline
210
0.0
220
0.0
230
1.0
 70
     8
 71
     3
 72
    19
 73
    15
 74
     0
 42
0.000000001
 43
0.00000001
 40
0.0
 40
0.0
 40
0.0
 40
0.0
 40
0.1364148811765275
 40
0.2528973605082377
 40
0.3492204458013852
 40
0.4269322474132383
 40
0.4944524086148369
 40
0.5607020268402086
 40
0.6286260433619786
 40
0.698836431094077
 40
0.7714182240964009
 40
0.8441568540005466
 40
0.9199641120853101
 40
1.0
 40
1.0
 40
1.0
 40
1.0
 10
9.801373054270961
 20
6.535607361011976
 30
0.0
 10
9.801362489862427
 20
6.536396783500077
 30
0.0
 10
9.80134290467487
 20
6.537860281190687
 30
0.0
 10
9.801237708406829
 20
6.539924932269296
 30
0.0
 10
9.801026519404962
 20
6.541698692239219
 30
0.0
 10
9.800736659324704
 20
6.543218089279965
 30
0.0
 10
9.800291355454409
 20
6.544582658980906
 30
0.0
 10
9.799728690955654
 20
6.545872366464075
 30
0.0
 10
9.799022071311143
 20
6.547131666793127
 30
0.0
 10
9.798187713148664
 20
6.548352411067012
 30
0.0
 10
9.797242703553188
 20
6.5494954375534
 30
0.0
 10
9.796199198739682
 20
6.550510134532464
 30
0.0
 10
9.795083171181444
 20
6.551434222481277
 30
0.0
 10
9.794306881669302
 20
6.551908288631671
 30
0.0
 10
9.793908205038484
 20
6.552151753334809
 30
0.0
  0
SPLINE
  5
345
330
1F
100
AcDbEntity
  8
0
  6
Continuous
 62
     7
370
    18
100
AcDbSpline
210
0.0
220
0.0
230
1.0
 70
     8
 71
     3
 72
     9
 73
     5
 74
     0
 42
0.000000001
 43
0.00000001
 40
0.0
 40
0.0
 40
0.0
 40
0.0
 40
0.6579658467861216
 40
1.0
 40
1.0
 40
1.0
 40
1.0
 10
9.793908205038484
 20
6.552151753334809
 30
0.0
 10
9.792099670197473
 20
6.553034132588234
 30
0.0
 10
9.789350994335582
 20
6.554375204100889
 30
0.0
 10
9.787614834340275
 20
6.553030802330847
 30
0.0
 10
9.787021008326438
 20
6.55257097100985
 30
0.0
  0
LINE
  5
346
330
1F
100
AcDbEntity
  8
0
  6
Continuous
 62
     7
370
    18
100
AcDbLine
 10
9.7829429506
 20
6.5148806743
 30
0.0
 11
9.7759444066
 21
6.5189208478
 31
0.0
  0
LINE
  5
347
330
1F
100
AcDbEntity
  8
0
  6
Continuous
 62
     7
370
    18
100
AcDbLine
 10
9.7759444066
 20
6.5189208478
 30
0.0
 11
9.7759444066
 21
6.5512741511
 31
0.0
  0
SPLINE
  5
348
330
1F
100
AcDbEntity
  8
0
  6
Continuous
 62
     7
370
    18
100
AcDbSpline
210
0.0
220
0.0
230
1.0
 70
     8
 71
     3
 72
    23
 73
    19
 74
     0
 42
0.000000001
 43
0.00000001
 40
0.0
 40
0.0
 40
0.0
 40
0.0
 40
0.0840520374929028
 40
0.1623146334137115
 40
0.2366600199015783
 40
0.3057775454542922
 40
0.369854882253864
 40
0.4308818052540365
 40
0.4880260023390453
 40
0.5427446849665448
 40
0.5951151179188187
 40
0.6466861713516491
 40
0.6997262587744729
 40
0.753413956654465
 40
0.8093158108836109
 40
0.8690272915375981
 40
0.9322090442192221
 40
1.0
 40
1.0
 40
1.0
 40
1.0
 10
9.775944406562907
 20
6.551274151059439
 30
0.0
 10
9.775941482632923
 20
6.551730264295697
 30
0.0
 10
9.77593583617107
 20
6.552611074029128
 30
0.0
 10
9.775844366718028
 20
6.553939357677439
 30
0.0
 10
9.7757210657064
 20
6.555201016389526
 30
0.0
 10
9.775527255566525
 20
6.556413443326569
 30
0.0
 10
9.775283147866238
 20
6.557565947482312
 30
0.0
 10
9.775003268770085
 20
6.558659622997931
 30
0.0
 10
9.774649408714094
 20
6.559706301293385
 30
0.0
 10
9.774243467208445
 20
6.560697095499557
 30
0.0
 10
9.773766250266801
 20
6.561632766088322
 30
0.0
 10
9.773230223755263
 20
6.562525979577935
 30
0.0
 10
9.772615658360964
 20
6.563366003593772
 30
0.0
 10
9.77192956583962
 20
6.564145150768142
 30
0.0
 10
9.771190567634816
 20
6.564910954302412
 30
0.0
 10
9.770366594112907
 20
6.565571185325304
 30
0.0
 10
9.769483249478453
 20
6.566236479107666
 30
0.0
 10
9.76886948162157
 20
6.566601013890655
 30
0.0
 10
9.768551797806872
 20
6.566789695652256
 30
0.0
  0
SPLINE
  5
349
330
1F
100
AcDbEntity
  8
0
  6
Continuous
 62
     7
370
    18
100
AcDbSpline
210
0.0
220
0.0
230
1.0
 70
     8
 71
     3
 72
     9
 73
     5
 74
     0
 42
0.000000001
 43
0.00000001
 40
0.0
 40
0.0
 40
0.0
 40
0.0
 40
0.6809082185157729
 40
1.0
 40
1.0
 40
1.0
 40
1.0
 10
9.768551797806872
 20
6.566789695652256
 30
0.0
 10
9.766769556768928
 20
6.567548232530286
 30
0.0
 10
9.764152109968494
 20
6.568662240053479
 30
0.0
 10
9.762205174615197
 20
6.567819177506076
 30
0.0
 10
9.761583923544878
 20
6.567550163175922
 30
0.0
  0
LINE
  5
34A
330
1F
100
AcDbEntity
  8
0
  6
Continuous
 62
     7
370
    18
100
AcDbLine
 10
9.7575143029
 20
6.5295603202
 30
0.0
 11
9.7505157589
 21
6.5336004937
 31
0.0
  0
LINE
  5
34B
330
1F
100
AcDbEntity
  8
0
  6
Continuous
 62
     7
370
    18
100
AcDbLine
 10
9.7824460494
 20
6.5573644675
 30
0.0
 11
9.7817389427
 21
6.5569562635
 31
0.0
  0
LINE
  5
34C
330
1F
100
AcDbEntity
  8
0
  6
Continuous
 62
     7
370
    18
100
AcDbLine
 10
9.793908205
 20
6.5521517533
 30
0.0
 11
9.7932010983
 21
6.5517435493
 31
0.0
  0
LINE
  5
34D
330
1F
100
AcDbEntity
  8
0
  6
Continuous
 62
     7
370
    18
100
AcDbLine
 10
9.8013730543
 20
6.535607361
 30
0.0
 11
9.8006659475
 21
6.535199157
 31
0.0
  0
LINE
  5
34E
330
1F
100
AcDbEntity
  8
0
  6
Continuous
 62
     7
370
    18
100
AcDbLine
 10
9.8013730543
 20
6.5042412019
 30
0.0
 11
9.8006659475
 21
6.5038329979
 31
0.0
  0
LINE
  5
34F
330
1F
100
AcDbEntity
  8
0
  6
Continuous
 62
     7
370
    18
100
AcDbLine
 10
9.7582214097
 20
6.5719608057
 30
0.0
 11
9.7575143029
 21
6.5715526017
 31
0.0
  0
LINE
  5
350
330
1F
100
AcDbEntity
  8
0
  6
Continuous
 62
     7
370
    18
100
AcDbLine
 10
9.7685517978
 20
6.5667896957
 30
0.0
 11
9.767844691
 21
6.5663814916
 31
0.0
  0
LINE
  5
351
330
1F
100
AcDbEntity
  8
0
  6
Continuous
 62
     7
370
    18
100
AcDbLine
 10
9.7759444066
 20
6.5512741511
 30
0.0
 11
9.7752372998
 21
6.550865947
 31
0.0
  0
LINE
  5
352
330
1F
100
AcDbEntity
  8
0
  6
Continuous
 62
     7
370
    18
100
AcDbLine
 10
9.7759444066
 20
6.5189208478
 30
0.0
 11
9.7752372998
 21
6.5185126437
 31
0.0
  0
LINE
  5
353
330
1F
100
AcDbEntity
  8
0
  6
Continuous
 62
     7
370
    18
100
AcDbLine
 10
9.7505157589
 20
6.5336004937
 30
0.0
 11
9.7498086521
 21
6.5331922896
 31
0.0
  0
LINE
  5
354
330
1F
100
AcDbEntity
  8
0
  6
Continuous
 62
     7
370
    18
100
AcDbLine
 10
9.6811649015
 20
6.5736358914
 30
0.0
 11
9.6811649015
 21
6.6235392299
 31
0.0
  0
SPLINE
  5
355
330
1F
100
AcDbEntity
  8
0
  6
Continuous
 62
     7
370
    18
100
AcDbSpline
210
0.0
220
0.0
230
1.0
 70
     8
 71
     3
 72
     9
 73
     5
 74
     0
 42
0.000000001
 43
0.00000001
 40
0.0
 40
0.0
 40
0.0
 40
0.0
 40
0.988464793636192
 40
1.0
 40
1.0
 40
1.0
 40
1.0
 10
9.688870552289872
 20
6.611996203532509
 30
0.0
 10
9.689599947133967
 20
6.613053005108391
 30
0.0
 10
9.690337853884708
 20
6.614122139368594
 30
0.0
 10
9.69149617983053
 20
6.614462762291301
 30
0.0
 10
9.69150954135935
 20
6.614466691447006
 30
0.0
  0
SPLINE
  5
356
330
1F
100
AcDbEntity
  8
0
  6
Continuous
 62
     7
370
    18
100
AcDbSpline
210
0.0
220
0.0
230
1.0
 70
     8
 71
     3
 72
     9
 73
     5
 74
     0
 42
0.000000001
 43
0.00000001
 40
0.0
 40
0.0
 40
0.0
 40
0.0
 40
0.9496622280634812
 40
1.0
 40
1.0
 40
1.0
 40
1.0
 10
9.713095192057203
 20
6.597399865335713
 30
0.0
 10
9.713898768249276
 20
6.598477368336531
 30
0.0
 10
9.71474493878057
 20
6.599611985434039
 30
0.0
 10
9.716020303575217
 20
6.600004118474223
 30
0.0
 10
9.716084502597386
 20
6.600023857577767
 30
0.0
  0
LINE
  5
357
330
1F
100
AcDbEntity
  8
0
  6
Continuous
 62
     7
370
    18
100
AcDbLine
 10
9.7390207409
 20
6.5402364263
 30
0.0
 11
9.7320221969
 21
6.5442765997
 31
0.0
  0
LINE
  5
358
330
1F
100
AcDbEntity
  8
0
  6
Continuous
 62
     7
370
    18
100
AcDbLine
 10
9.7320221969
 20
6.5442765997
 30
0.0
 11
9.7320221969
 21
6.5756427588
 31
0.0
  0
SPLINE
  5
359
330
1F
100
AcDbEntity
  8
0
  6
Continuous
 62
     7
370
    18
100
AcDbSpline
210
0.0
220
0.0
230
1.0
 70
     8
 71
     3
 72
    19
 73
    15
 74
     0
 42
0.000000001
 43
0.00000001
 40
0.0
 40
0.0
 40
0.0
 40
0.0
 40
0.1364148811765273
 40
0.2528973605082375
 40
0.3492204458013846
 40
0.4269322474132376
 40
0.4944524086148367
 40
0.5607020268402075
 40
0.6286260433619774
 40
0.6988364310940757
 40
0.7714182240963995
 40
0.8441568540005452
 40
0.9199641120853086
 40
1.0
 40
1.0
 40
1.0
 40
1.0
 10
9.732022196885358
 20
6.575642758803283
 30
0.0
 10
9.732011632476825
 20
6.576432181291383
 30
0.0
 10
9.731992047289266
 20
6.577895678981993
 30
0.0
 10
9.731886851021224
 20
6.579960330060604
 30
0.0
 10
9.731675662019358
 20
6.581734090030525
 30
0.0
 10
9.731385801939101
 20
6.583253487071272
 30
0.0
 10
9.730940498068804
 20
6.584618056772212
 30
0.0
 10
9.730377833570051
 20
6.58590776425538
 30
0.0
 10
9.72967121392554
 20
6.587167064584433
 30
0.0
 10
9.72883685576306
 20
6.588387808858318
 30
0.0
 10
9.727891846167585
 20
6.589530835344706
 30
0.0
 10
9.72684834135408
 20
6.59054553232377
 30
0.0
 10
9.725732313795842
 20
6.591469620272584
 30
0.0
 10
9.7249560242837
 20
6.591943686422977
 30
0.0
 10
9.72455734765288
 20
6.592187151126115
 30
0.0
  0
SPLINE
  5
35A
330
1F
100
AcDbEntity
  8
0
  6
Continuous
 62
     7
370
    18
100
AcDbSpline
210
0.0
220
0.0
230
1.0
 70
     8
 71
     3
 72
     9
 73
     5
 74
     0
 42
0.000000001
 43
0.00000001
 40
0.0
 40
0.0
 40
0.0
 40
0.0
 40
0.6579658467865254
 40
1.0
 40
1.0
 40
1.0
 40
1.0
 10
9.72455734765288
 20
6.592187151126115
 30
0.0
 10
9.722748812811869
 20
6.59306953037954
 30
0.0
 10
9.720000136949979
 20
6.594410601892196
 30
0.0
 10
9.718263976954674
 20
6.593066200122153
 30
0.0
 10
9.717670150940837
 20
6.592606368801158
 30
0.0
  0
LINE
  5
35B
330
1F
100
AcDbEntity
  8
0
  6
Continuous
 62
     7
370
    18
100
AcDbLine
 10
9.7135920932
 20
6.5549160721
 30
0.0
 11
9.7065935492
 21
6.5589562456
 31
0.0
  0
LINE
  5
35C
330
1F
100
AcDbEntity
  8
0
  6
Continuous
 62
     7
370
    18
100
AcDbLine
 10
9.7065935492
 20
6.5589562456
 30
0.0
 11
9.7065935492
 21
6.5913095489
 31
0.0
  0
SPLINE
  5
35D
330
1F
100
AcDbEntity
  8
0
  6
Continuous
 62
     7
370
    18
100
AcDbSpline
210
0.0
220
0.0
230
1.0
 70
     8
 71
     3
 72
    23
 73
    19
 74
     0
 42
0.000000001
 43
0.00000001
 40
0.0
 40
0.0
 40
0.0
 40
0.0
 40
0.0840520374929027
 40
0.1623146334137115
 40
0.236660019901578
 40
0.3057775454542925
 40
0.3698548822538634
 40
0.4308818052540364
 40
0.4880260023390452
 40
0.5427446849665438
 40
0.5951151179188187
 40
0.6466861713516503
 40
0.6997262587744727
 40
0.7534139566544632
 40
0.8093158108836093
 40
0.8690272915375964
 40
0.9322090442192221
 40
1.0
 40
1.0
 40
1.0
 40
1.0
 10
9.706593549177303
 20
6.591309548850746
 30
0.0
 10
9.70659062524732
 20
6.591765662087004
 30
0.0
 10
9.706584978785466
 20
6.592646471820434
 30
0.0
 10
9.706493509332423
 20
6.593974755468746
 30
0.0
 10
9.706370208320795
 20
6.595236414180833
 30
0.0
 10
9.706176398180922
 20
6.596448841117875
 30
0.0
 10
9.705932290480634
 20
6.597601345273619
 30
0.0
 10
9.705652411384483
 20
6.598695020789238
 30
0.0
 10
9.70529855132849
 20
6.599741699084691
 30
0.0
 10
9.70489260982284
 20
6.600732493290862
 30
0.0
 10
9.704415392881199
 20
6.601668163879628
 30
0.0
 10
9.703879366369659
 20
6.602561377369241
 30
0.0
 10
9.703264800975361
 20
6.603401401385079
 30
0.0
 10
9.702578708454018
 20
6.604180548559448
 30
0.0
 10
9.701839710249212
 20
6.604946352093719
 30
0.0
 10
9.701015736727305
 20
6.60560658311661
 30
0.0
 10
9.700132392092849
 20
6.606271876898972
 30
0.0
 10
9.699518624235967
 20
6.606636411681962
 30
0.0
 10
9.69920094042127
 20
6.606825093443561
 30
0.0
  0
SPLINE
  5
35E
330
1F
100
AcDbEntity
  8
0
  6
Continuous
 62
     7
370
    18
100
AcDbSpline
210
0.0
220
0.0
230
1.0
 70
     8
 71
     3
 72
     9
 73
     5
 74
     0
 42
0.000000001
 43
0.00000001
 40
0.0
 40
0.0
 40
0.0
 40
0.0
 40
0.6809082185157244
 40
1.0
 40
1.0
 40
1.0
 40
1.0
 10
9.69920094042127
 20
6.606825093443561
 30
0.0
 10
9.697418699383325
 20
6.607583630321591
 30
0.0
 10
9.69480125258289
 20
6.608697637844785
 30
0.0
 10
9.692854317229592
 20
6.607854575297382
 30
0.0
 10
9.692233066159273
 20
6.607585560967228
 30
0.0
  0
LINE
  5
35F
330
1F
100
AcDbEntity
  8
0
  6
Continuous
 62
     7
370
    18
100
AcDbLine
 10
9.6881634455
 20
6.569595718
 30
0.0
 11
9.6811649015
 21
6.5736358914
 31
0.0
  0
LINE
  5
360
330
1F
100
AcDbEntity
  8
0
  6
Continuous
 62
     7
370
    18
100
AcDbLine
 10
9.7130951921
 20
6.5973998653
 30
0.0
 11
9.7123880853
 21
6.5969916613
 31
0.0
  0
LINE
  5
361
330
1F
100
AcDbEntity
  8
0
  6
Continuous
 62
     7
370
    18
100
AcDbLine
 10
9.7245573477
 20
6.5921871511
 30
0.0
 11
9.7238502409
 21
6.5917789471
 31
0.0
  0
LINE
  5
362
330
1F
100
AcDbEntity
  8
0
  6
Continuous
 62
     7
370
    18
100
AcDbLine
 10
9.7320221969
 20
6.5756427588
 30
0.0
 11
9.7313150901
 21
6.5752345547
 31
0.0
  0
LINE
  5
363
330
1F
100
AcDbEntity
  8
0
  6
Continuous
 62
     7
370
    18
100
AcDbLine
 10
9.7320221969
 20
6.5442765997
 30
0.0
 11
9.7313150901
 21
6.5438683957
 31
0.0
  0
LINE
  5
364
330
1F
100
AcDbEntity
  8
0
  6
Continuous
 62
     7
370
    18
100
AcDbLine
 10
9.6888705523
 20
6.6119962035
 30
0.0
 11
9.6881634455
 21
6.6115879995
 31
0.0
  0
LINE
  5
365
330
1F
100
AcDbEntity
  8
0
  6
Continuous
 62
     7
370
    18
100
AcDbLine
 10
9.6992009404
 20
6.6068250934
 30
0.0
 11
9.6984938336
 21
6.6064168894
 31
0.0
  0
LINE
  5
366
330
1F
100
AcDbEntity
  8
0
  6
Continuous
 62
     7
370
    18
100
AcDbLine
 10
9.7065935492
 20
6.5913095489
 30
0.0
 11
9.7058864424
 21
6.5909013448
 31
0.0
  0
LINE
  5
367
330
1F
100
AcDbEntity
  8
0
  6
Continuous
 62
     7
370
    18
100
AcDbLine
 10
9.7065935492
 20
6.5589562456
 30
0.0
 11
9.7058864424
 21
6.5585480415
 31
0.0
  0
SPLINE
  5
368
330
1F
100
AcDbEntity
  8
0
  6
Continuous
 62
     7
370
    18
100
AcDbSpline
210
0.0
220
0.0
230
1.0
 70
     8
 71
     3
 72
    12
 73
     8
 74
     0
 42
0.000000001
 43
0.00000001
 40
0.0
 40
0.0
 40
0.0
 40
0.0
 40
0.2471857709918684
 40
0.4942828086206669
 40
0.7410846441047898
 40
0.9260925042386651
 40
1.0
 40
1.0
 40
1.0
 40
1.0
 10
9.633293545746131
 20
6.635501704433557
 30
0.0
 10
9.633335238784824
 20
6.638096068319808
 30
0.0
 10
9.633418609895479
 20
6.643283864782097
 30
0.0
 10
9.634298077185274
 20
6.650605400730706
 30
0.0
 10
9.636127723942694
 20
6.65641368510276
 30
0.0
 10
9.638276126569421
 20
6.660088900247485
 30
0.0
 10
9.640084422962593
 20
6.660843312217568
 30
0.0
 10
9.640600601918266
 20
6.661058659427425
 30
0.0
  0
SPLINE
  5
369
330
1F
100
AcDbEntity
  8
0
  6
Continuous
 62
     7
370
    18
100
AcDbSpline
210
0.0
220
0.0
230
1.0
 70
     8
 71
     3
 72
    10
 73
     6
 74
     0
 42
0.000000001
 43
0.00000001
 40
0.0
 40
0.0
 40
0.0
 40
0.0
 40
0.2344019857847999
 40
0.6168516049505074
 40
1.0
 40
1.0
 40
1.0
 40
1.0
 10
9.66455922052966
 20
6.587765118974666
 30
0.0
 10
9.663834092923958
 20
6.587316182357566
 30
0.0
 10
9.661925849161115
 20
6.586134762021674
 30
0.0
 10
9.657630357254662
 20
6.586708091348736
 30
0.0
 10
9.654249596178346
 20
6.588409294821544
 30
0.0
 10
9.652557672797688
 20
6.589260672918346
 30
0.0
  0
SPLINE
  5
36A
330
1F
100
AcDbEntity
  8
0
  6
Continuous
 62
     7
370
    18
100
AcDbSpline
210
0.0
220
0.0
230
1.0
 70
     8
 71
     3
 72
    15
 73
    11
 74
     0
 42
0.000000001
 43
0.00000001
 40
0.0
 40
0.0
 40
0.0
 40
0.0
 40
0.1379032299933924
 40
0.2688733426002906
 40
0.3951781273461124
 40
0.5170892381308858
 40
0.6367430265135461
 40
0.7562218164637954
 40
0.8766283594636799
 40
1.0
 40
1.0
 40
1.0
 40
1.0
 10
9.652557672797688
 20
6.589260672918347
 30
0.0
 10
9.651862607256694
 20
6.589684820949514
 30
0.0
 10
9.650507420758581
 20
6.590511792869626
 30
0.0
 10
9.648528270803762
 20
6.591957629094821
 30
0.0
 10
9.646670733004504
 20
6.593563780287003
 30
0.0
 10
9.64491914009322
 20
6.595290877817899
 30
0.0
 10
9.643293180453165
 20
6.597187114539436
 30
0.0
 10
9.641785090773586
 20
6.599222811648055
 30
0.0
 10
9.640364567079576
 20
6.601388356079474
 30
0.0
 10
9.6395468272816
 20
6.602921990748536
 30
0.0
 10
9.639132984258634
 20
6.603698134956196
 30
0.0
  0
SPLINE
  5
36B
330
1F
100
AcDbEntity
  8
0
  6
Continuous
 62
     7
370
    18
100
AcDbSpline
210
0.0
220
0.0
230
1.0
 70
     8
 71
     3
 72
    15
 73
    11
 74
     0
 42
0.000000001
 43
0.00000001
 40
0.0
 40
0.0
 40
0.0
 40
0.0
 40
0.0974206681772141
 40
0.2008855880393194
 40
0.3111719701726499
 40
0.4297979458253718
 40
0.5577399263645887
 40
0.6947152693641601
 40
0.8421299102060559
 40
1.0
 40
1.0
 40
1.0
 40
1.0
 10
9.639132984258634
 20
6.603698134956196
 30
0.0
 10
9.638656641420182
 20
6.604766595955803
 30
0.0
 10
9.637674402096625
 20
6.606969808274286
 30
0.0
 10
9.63652477613342
 20
6.610423307844741
 30
0.0
 10
9.635499289420387
 20
6.614086524947975
 30
0.0
 10
9.634694470368297
 20
6.617963991816829
 30
0.0
 10
9.634064096425789
 20
6.622055229696719
 30
0.0
 10
9.633608809054342
 20
6.626367182096708
 30
0.0
 10
9.633351161224693
 20
6.63088508011025
 30
0.0
 10
9.633313184450886
 20
6.633928090461907
 30
0.0
 10
9.633293545746131
 20
6.635501704433557
 30
0.0
  0
SPLINE
  5
36C
330
1F
100
AcDbEntity
  8
0
  6
Continuous
 62
     7
370
    18
100
AcDbSpline
210
0.0
220
0.0
230
1.0
 70
     8
 71
     3
 72
    11
 73
     7
 74
     0
 42
0.000000001
 43
0.00000001
 40
0.0
 40
0.0
 40
0.0
 40
0.0
 40
0.1493949139838282
 40
0.3193908560959936
 40
0.659530026843229
 40
1.0
 40
1.0
 40
1.0
 40
1.0
 10
9.659442005511304
 20
6.596794618813586
 30
0.0
 10
9.660168132588995
 20
6.597301576886488
 30
0.0
 10
9.661720517089869
 20
6.59838540075031
 30
0.0
 10
9.663172425324163
 20
6.602856350659724
 30
0.0
 10
9.664007825823315
 20
6.609339813862354
 30
0.0
 10
9.664080029595576
 20
6.614936365362307
 30
0.0
 10
9.664116149028622
 20
6.617736001182698
 30
0.0
  0
SPLINE
  5
36D
330
1F
100
AcDbEntity
  8
0
  6
Continuous
 62
     7
370
    18
100
AcDbSpline
210
0.0
220
0.0
230
1.0
 70
     8
 71
     3
 72
    23
 73
    19
 74
     0
 42
0.000000001
 43
0.00000001
 40
0.0
 40
0.0
 40
0.0
 40
0.0
 40
0.1156341026995446
 40
0.2215505648509135
 40
0.3170614885131583
 40
0.4031682101561656
 40
0.4802018633519436
 40
0.5476729137517649
 40
0.6070619439212039
 40
0.6586807285305007
 40
0.7057532347379953
 40
0.7501195176610335
 40
0.792590568079876
 40
0.8338794889926727
 40
0.8747756796479279
 40
0.9156225135228682
 40
0.9568788497046059
 40
1.0
 40
1.0
 40
1.0
 40
1.0
 10
9.664116149028622
 20
6.617736001182698
 30
0.0
 10
9.664108852006036
 20
6.619047373341716
 30
0.0
 10
9.664094871186903
 20
6.621559912772362
 30
0.0
 10
9.663936859053022
 20
6.625231555966359
 30
0.0
 10
9.663689245755204
 20
6.628612707075976
 30
0.0
 10
9.663350531847586
 20
6.631707191608093
 30
0.0
 10
9.662900438374857
 20
6.634523649817059
 30
0.0
 10
9.662354363290195
 20
6.637058383843559
 30
0.0
 10
9.661704163217697
 20
6.639312136123113
 30
0.0
 10
9.66092944512015
 20
6.641313155394117
 30
0.0
 10
9.660070462642569
 20
6.643091632781656
 30
0.0
 10
9.659157815733566
 20
6.644707041602714
 30
0.0
 10
9.65820916611121
 20
6.646208617342506
 30
0.0
 10
9.657170302313725
 20
6.647555289048803
 30
0.0
 10
9.656085388054155
 20
6.648794202152623
 30
0.0
 10
9.654931166193995
 20
6.649870618233249
 30
0.0
 10
9.65372254019039
 20
6.650831540918308
 30
0.0
 10
9.652895864966208
 20
6.651337939780299
 30
0.0
 10
9.652473392241836
 20
6.651596735133763
 30
0.0
  0
SPLINE
  5
36E
330
1F
100
AcDbEntity
  8
0
  6
Continuous
 62
     7
370
    18
100
AcDbSpline
210
0.0
220
0.0
230
1.0
 70
     8
 71
     3
 72
     9
 73
     5
 74
     0
 42
0.000000001
 43
0.00000001
 40
0.0
 40
0.0
 40
0.0
 40
0.0
 40
0.6920350322429197
 40
1.0
 40
1.0
 40
1.0
 40
1.0
 10
9.652473392241836
 20
6.651596735133763
 30
0.0
 10
9.650671587088995
 20
6.652408608743589
 30
0.0
 10
9.648067954225205
 20
6.653581777112241
 30
0.0
 10
9.646328110671142
 20
6.652449253039356
 30
0.0
 10
9.645792299807113
 20
6.652100475299764
 30
0.0
  0
LINE
  5
36F
330
1F
100
AcDbEntity
  8
0
  6
Continuous
 62
     7
370
    18
100
AcDbLine
 10
9.6811649015
 20
6.5736358914
 30
0.0
 11
9.6804577947
 21
6.5732276874
 31
0.0
  0
SPLINE
  5
370
330
1F
100
AcDbEntity
  8
0
  6
Continuous
 62
     7
370
    18
100
AcDbSpline
210
0.0
220
0.0
230
1.0
 70
     8
 71
     3
 72
    23
 73
    19
 74
     0
 42
0.000000001
 43
0.00000001
 40
0.0
 40
0.0
 40
0.0
 40
0.0
 40
0.1156341026995446
 40
0.2215505648509135
 40
0.3170614885131583
 40
0.4031682101561656
 40
0.4802018633519436
 40
0.5476729137517649
 40
0.6070619439212039
 40
0.6586807285305007
 40
0.7057532347379953
 40
0.7501195176610335
 40
0.792590568079876
 40
0.8338794889926727
 40
0.8747756796479279
 40
0.9156225135228682
 40
0.9568788497046059
 40
1.0
 40
1.0
 40
1.0
 40
1.0
 10
9.663409042247435
 20
6.617327797126787
 30
0.0
 10
9.66340174522485
 20
6.618639169285804
 30
0.0
 10
9.663387764405716
 20
6.62115170871645
 30
0.0
 10
9.663229752271835
 20
6.624823351910448
 30
0.0
 10
9.662982138974018
 20
6.628204503020064
 30
0.0
 10
9.662643425066399
 20
6.631298987552181
 30
0.0
 10
9.66219333159367
 20
6.634115445761147
 30
0.0
 10
9.661647256509008
 20
6.636650179787648
 30
0.0
 10
9.66099705643651
 20
6.638903932067202
 30
0.0
 10
9.660222338338963
 20
6.640904951338206
 30
0.0
 10
9.659363355861384
 20
6.642683428725745
 30
0.0
 10
9.65845070895238
 20
6.644298837546802
 30
0.0
 10
9.657502059330024
 20
6.645800413286594
 30
0.0
 10
9.656463195532538
 20
6.647147084992892
 30
0.0
 10
9.655378281272968
 20
6.648385998096711
 30
0.0
 10
9.654224059412808
 20
6.649462414177338
 30
0.0
 10
9.653015433409204
 20
6.650423336862397
 30
0.0
 10
9.652188758185021
 20
6.650929735724387
 30
0.0
 10
9.651766285460651
 20
6.651188531077852
 30
0.0
  0
SPLINE
  5
371
330
1F
100
AcDbEntity
  8
0
  6
Continuous
 62
     7
370
    18
100
AcDbSpline
210
0.0
220
0.0
230
1.0
 70
     8
 71
     3
 72
    23
 73
    19
 74
     0
 42
0.000000001
 43
0.00000001
 40
0.0
 40
0.0
 40
0.0
 40
0.0
 40
0.0407861577516997
 40
0.0808781390926995
 40
0.1202808817853034
 40
0.1602037870694768
 40
0.2004809323198157
 40
0.2425508656877319
 40
0.2867496219958774
 40
0.3332473598987213
 40
0.3843802392510082
 40
0.4437238495442145
 40
0.5116298421176319
 40
0.5889765724864078
 40
0.6762109599366941
 40
0.7736812652401788
 40
0.8815552458988715
 40
1.0
 40
1.0
 40
1.0
 40
1.0
 10
9.6518505660165
 20
6.596860849902083
 30
0.0
 10
9.652248570903577
 20
6.59664862826291
 30
0.0
 10
9.65303780667353
 20
6.596227796976081
 30
0.0
 10
9.6541995779639
 20
6.595788942497059
 30
0.0
 10
9.655306627519973
 20
6.595582603479354
 30
0.0
 10
9.656367871472638
 20
6.595537034132467
 30
0.0
 10
9.65738404263006
 20
6.595681689041524
 30
0.0
 10
9.658331297734946
 20
6.596054715480399
 30
0.0
 10
9.659251900103637
 20
6.596578866446543
 30
0.0
 10
9.660124298085151
 20
6.597320441062783
 30
0.0
 10
9.660934992196104
 20
6.598362228494574
 30
0.0
 10
9.661584583150663
 20
6.599859850841716
 30
0.0
 10
9.662162462275075
 20
6.601735186035213
 30
0.0
 10
9.662620778622694
 20
6.604040100620882
 30
0.0
 10
9.66297149712769
 20
6.606764204438251
 30
0.0
 10
9.663232983527873
 20
6.609897738493818
 30
0.0
 10
9.663387122214232
 20
6.613454774152157
 30
0.0
 10
9.663401511540076
 20
6.615997205957247
 30
0.0
 10
9.663409042247435
 20
6.617327797126787
 30
0.0
  0
SPLINE
  5
372
330
1F
100
AcDbEntity
  8
0
  6
Continuous
 62
     7
370
    18
100
AcDbSpline
210
0.0
220
0.0
230
1.0
 70
     8
 71
     3
 72
    23
 73
    19
 74
     0
 42
0.000000001
 43
0.00000001
 40
0.0
 40
0.0
 40
0.0
 40
0.0
 40
0.1184055081537719
 40
0.226654332816702
 40
0.324092341928604
 40
0.4117048030053215
 40
0.4890259050064171
 40
0.5569093973430758
 40
0.6162333444927071
 40
0.6673492812770764
 40
0.7135123932013491
 40
0.7576965045209799
 40
0.7994925114422922
 40
0.8399760647439396
 40
0.8798857418167766
 40
0.9191486593857426
 40
0.9592273564930835
 40
1.0
 40
1.0
 40
1.0
 40
1.0
 10
9.640292089785566
 20
6.630672929723889
 30
0.0
 10
9.640299740884076
 20
6.629333583609561
 30
0.0
 10
9.640314386778979
 20
6.626769778895687
 30
0.0
 10
9.640467400829765
 20
6.623030687675576
 30
0.0
 10
9.640730808220056
 20
6.619585143698667
 30
0.0
 10
9.641079049994936
 20
6.61645246187677
 30
0.0
 10
9.641538870134992
 20
6.613613237607401
 30
0.0
 10
9.642116228705328
 20
6.611070588991178
 30
0.0
 10
9.642767049136912
 20
6.60882344372182
 30
0.0
 10
9.643572427088339
 20
6.606848181264096
 30
0.0
 10
9.64445422699054
 20
6.605107991646616
 30
0.0
 10
9.645364625125806
 20
6.603523612037548
 30
0.0
 10
9.646325040015256
 20
6.602069205307989
 30
0.0
 10
9.647329205067802
 20
6.600739120872373
 30
0.0
 10
9.64839270062685
 20
6.599557030213568
 30
0.0
 10
9.649503897545241
 20
6.59850375513927
 30
0.0
 10
9.65066303760993
 20
6.597597616268782
 30
0.0
 10
9.651452464665642
 20
6.597107839939733
 30
0.0
 10
9.6518505660165
 20
6.596860849902084
 30
0.0
  0
SPLINE
  5
373
330
1F
100
AcDbEntity
  8
0
  6
Continuous
 62
     7
370
    18
100
AcDbSpline
210
0.0
220
0.0
230
1.0
 70
     8
 71
     3
 72
    15
 73
    11
 74
     0
 42
0.000000001
 43
0.00000001
 40
0.0
 40
0.0
 40
0.0
 40
0.0
 40
0.0838887288335153
 40
0.1771553326743518
 40
0.2825157085895154
 40
0.3999935157252225
 40
0.5294873536901311
 40
0.6727997767645404
 40
0.8295345107876441
 40
1.0
 40
1.0
 40
1.0
 40
1.0
 10
9.643771672734255
 20
6.651048746525392
 30
0.0
 10
9.643485264602097
 20
6.650661160165066
 30
0.0
 10
9.6428804309297
 20
6.649842659377674
 30
0.0
 10
9.642203909290332
 20
6.648203696203685
 30
0.0
 10
9.641603969357073
 20
6.64622664436833
 30
0.0
 10
9.641116699720142
 20
6.643862009610944
 30
0.0
 10
9.64075614204559
 20
6.641105319595703
 30
0.0
 10
9.640476892137965
 20
6.637987514061936
 30
0.0
 10
9.640330429178421
 20
6.634466739720334
 30
0.0
 10
9.640305222181864
 20
6.631972423863925
 30
0.0
 10
9.640292089785566
 20
6.630672929723889
 30
0.0
  0
SPLINE
  5
374
330
1F
100
AcDbEntity
  8
0
  6
Continuous
 62
     7
370
    18
100
AcDbSpline
210
0.0
220
0.0
230
1.0
 70
     8
 71
     3
 72
    15
 73
    11
 74
     0
 42
0.000000001
 43
0.00000001
 40
0.0
 40
0.0
 40
0.0
 40
0.0
 40
0.1276828691364362
 40
0.2517742563342023
 40
0.3728062010709587
 40
0.4927364553926362
 40
0.6140149012905313
 40
0.7371600623355257
 40
0.8655879353818473
 40
1.0
 40
1.0
 40
1.0
 40
1.0
 10
9.651766285460651
 20
6.651188531077852
 30
0.0
 10
9.651368157848433
 20
6.65140642597571
 30
0.0
 10
9.650583101214213
 20
6.651836086792687
 30
0.0
 10
9.64943455926532
 20
6.652270243936589
 30
0.0
 10
9.64834114392485
 20
6.652527818063117
 30
0.0
 10
9.647310131881374
 20
6.652584020684863
 30
0.0
 10
9.646331317793308
 20
6.652480410495602
 30
0.0
 10
9.645403513912703
 20
6.652202719424928
 30
0.0
 10
9.644548965328374
 20
6.651713078140747
 30
0.0
 10
9.644034673302627
 20
6.651273526220643
 30
0.0
 10
9.643771672734255
 20
6.651048746525392
 30
0.0
  0
LINE
  5
375
330
1F
100
AcDbEntity
  8
0
  6
Continuous
 62
     7
370
    18
100
AcDbLine
 10
9.6524733922
 20
6.6515967351
 30
0.0
 11
9.6517662855
 21
6.6511885311
 31
0.0
  0
LINE
  5
376
330
1F
100
AcDbEntity
  8
0
  6
Continuous
 62
     7
370
    18
100
AcDbLine
 10
9.664116149
 20
6.6177360012
 30
0.0
 11
9.6634090422
 21
6.6173277971
 31
0.0
  0
LINE
  5
377
330
1F
100
AcDbEntity
  8
0
  6
Continuous
 62
     7
370
    18
100
AcDbLine
 10
9.6332935457
 20
6.6355017044
 30
0.0
 11
9.632586439
 21
6.6350935004
 31
0.0
  0
LINE
  5
378
330
1F
100
AcDbEntity
  8
0
  6
Continuous
 62
     7
370
    18
100
AcDbLine
 10
9.6525576728
 20
6.5892606729
 30
0.0
 11
9.651850566
 21
6.5888524689
 31
0.0
  0
LINE
  5
379
330
1F
100
AcDbEntity
  8
0
  6
Continuous
 62
     7
370
    18
100
AcDbLine
 10
9.6391329843
 20
6.603698135
 30
0.0
 11
9.6384258775
 21
6.6032899309
 31
0.0
  0
SPLINE
  5
37A
330
1F
100
AcDbEntity
  8
0
  6
Continuous
 62
     7
370
    18
100
AcDbSpline
210
0.0
220
0.0
230
1.0
 70
     8
 71
     3
 72
    10
 73
     6
 74
     0
 42
0.000000001
 43
0.00000001
 40
0.0
 40
0.0
 40
0.0
 40
0.0
 40
0.2256238419939202
 40
0.6123885177071016
 40
1.0
 40
1.0
 40
1.0
 40
1.0
 10
9.590765279011396
 20
6.636642373487864
 30
0.0
 10
9.591395558861409
 20
6.637012667311492
 30
0.0
 10
9.593106265228604
 20
6.638017719276583
 30
0.0
 10
9.594495661375147
 20
6.641666535016452
 30
0.0
 10
9.59467534938875
 20
6.6450793889304
 30
0.0
 10
9.594765291643018
 20
6.646787681923098
 30
0.0
  0
SPLINE
  5
37B
330
1F
100
AcDbEntity
  8
0
  6
Continuous
 62
     7
370
    18
100
AcDbSpline
210
0.0
220
0.0
230
1.0
 70
     8
 71
     3
 72
    23
 73
    19
 74
     0
 42
0.000000001
 43
0.00000001
 40
0.0
 40
0.0
 40
0.0
 40
0.0
 40
0.0728659334565345
 40
0.1418868719641266
 40
0.207452626414711
 40
0.2704376800000962
 40
0.3316408722476725
 40
0.3901075774931594
 40
0.4480692869488353
 40
0.5055029519245361
 40
0.5624881528337241
 40
0.61908432888473
 40
0.676415530692238
 40
0.735452360450793
 40
0.7962407694486794
 40
0.8604056780892032
 40
0.9283049272851053
 40
0.9999999999999999
 40
0.9999999999999999
 40
0.9999999999999999
 40
0.9999999999999999
 10
9.594765291643018
 20
6.646787681923098
 30
0.0
 10
9.594756445920703
 20
6.647358587977221
 30
0.0
 10
9.594739221247801
 20
6.648470274472713
 30
0.0
 10
9.594594161400366
 20
6.6501583365913
 30
0.0
 10
9.594349428360015
 20
6.65180816508107
 30
0.0
 10
9.594032766720845
 20
6.653420370151028
 30
0.0
 10
9.593596288591728
 20
6.65500026075378
 30
0.0
 10
9.59307860095339
 20
6.656544803053976
 30
0.0
 10
9.592444411838803
 20
6.658047933512522
 30
0.0
 10
9.591738834600255
 20
6.659519011457864
 30
0.0
 10
9.590932976314956
 20
6.660937838719306
 30
0.0
 10
9.590015949972885
 20
6.66227243398983
 30
0.0
 10
9.589023729975999
 20
6.663549949342542
 30
0.0
 10
9.587936331997089
 20
6.664749173932029
 30
0.0
 10
9.586753115723473
 20
6.665856820614738
 30
0.0
 10
9.585485839064521
 20
6.666915088017119
 30
0.0
 10
9.58412135214774
 20
6.667874612038327
 30
0.0
 10
9.58318304353981
 20
6.668446408330993
 30
0.0
 10
9.58270113207698
 20
6.668740080567941
 30
0.0
  0
SPLINE
  5
37C
330
1F
100
AcDbEntity
  8
0
  6
Continuous
 62
     7
370
    18
100
AcDbSpline
210
0.0
220
0.0
230
1.0
 70
     8
 71
     3
 72
    10
 73
     6
 74
     0
 42
0.000000001
 43
0.00000001
 40
0.0
 40
0.0
 40
0.0
 40
0.0
 40
0.3541859796743475
 40
0.7075920715653959
 40
1.0
 40
1.0
 40
1.0
 40
1.0
 10
9.58270113207698
 20
6.668740080567941
 30
0.0
 10
9.581571256625379
 20
6.669319903113572
 30
0.0
 10
9.579313993613038
 20
6.67047827148428
 30
0.0
 10
9.57618662960538
 20
6.670956001907881
 30
0.0
 10
9.574817517334544
 20
6.669922460381774
 30
0.0
 10
9.574197618617099
 20
6.669454499440871
 30
0.0
  0
LINE
  5
37D
330
1F
100
AcDbEntity
  8
0
  6
Continuous
 62
     7
370
    18
100
AcDbLine
 10
9.5724189043
 20
6.6684471435
 30
0.0
 11
9.5647132534
 21
6.6737853412
 31
0.0
  0
LINE
  5
37E
330
1F
100
AcDbEntity
  8
0
  6
Continuous
 62
     7
370
    18
100
AcDbLine
 10
9.5647132534
 20
6.6737853412
 30
0.0
 11
9.5707363757
 21
6.7050846632
 31
0.0
  0
LINE
  5
37F
330
1F
100
AcDbEntity
  8
0
  6
Continuous
 62
     7
370
    18
100
AcDbLine
 10
9.5986815754
 20
6.6808704498
 30
0.0
 11
9.5771747356
 21
6.6932860841
 31
0.0
  0
SPLINE
  5
380
330
1F
100
AcDbEntity
  8
0
  6
Continuous
 62
     7
370
    18
100
AcDbSpline
210
0.0
220
0.0
230
1.0
 70
     8
 71
     3
 72
    11
 73
     7
 74
     0
 42
0.000000001
 43
0.00000001
 40
0.0
 40
0.0
 40
0.0
 40
0.0
 40
0.1467193155844462
 40
0.4782073597053231
 40
0.7390992104112111
 40
1.0
 40
1.0
 40
1.0
 40
1.0
 10
9.595955201868955
 20
6.628107018415543
 30
0.0
 10
9.595465631592377
 20
6.627770429905831
 30
0.0
 10
9.593869958190956
 20
6.626673375289026
 30
0.0
 10
9.590552177086375
 20
6.626592192241159
 30
0.0
 10
9.586488344291578
 20
6.627590728940023
 30
0.0
 10
9.583907363849626
 20
6.628954668267729
 30
0.0
 10
9.582616851521129
 20
6.629636649614475
 30
0.0
  0
SPLINE
  5
381
330
1F
100
AcDbEntity
  8
0
  6
Continuous
 62
     7
370
    18
100
AcDbSpline
210
0.0
220
0.0
230
1.0
 70
     8
 71
     3
 72
    12
 73
     8
 74
     0
 42
0.000000001
 43
0.00000001
 40
0.0
 40
0.0
 40
0.0
 40
0.0
 40
0.1913151682268208
 40
0.3823626264911419
 40
0.5734238585590065
 40
0.7982171789553069
 40
1.0
 40
1.0
 40
1.0
 40
1.0
 10
9.582616851521129
 20
6.629636649614475
 30
0.0
 10
9.580873562132634
 20
6.630752502914803
 30
0.0
 10
9.577389422764607
 20
6.632982648086494
 30
0.0
 10
9.572444703610495
 20
6.638100022164359
 30
0.0
 10
9.568137363267317
 20
6.644673988321699
 30
0.0
 10
9.565024889946132
 20
6.652099178167118
 30
0.0
 10
9.564388106296219
 20
6.656914108486546
 30
0.0
 10
9.564086889259462
 20
6.659191709431842
 30
0.0
  0
LINE
  5
382
330
1F
100
AcDbEntity
  8
0
  6
Continuous
 62
     7
370
    18
100
AcDbLine
 10
9.5771747356
 20
6.6932860841
 30
0.0
 11
9.5764676288
 21
6.69287788
 31
0.0
  0
LINE
  5
383
330
1F
100
AcDbEntity
  8
0
  6
Continuous
 62
     7
370
    18
100
AcDbLine
 10
9.5647132534
 20
6.6737853412
 30
0.0
 11
9.5640061467
 21
6.6733771371
 31
0.0
  0
LINE
  5
384
330
1F
100
AcDbEntity
  8
0
  6
Continuous
 62
     7
370
    18
100
AcDbLine
 10
9.6140294187
 20
6.6123923807
 30
0.0
 11
9.6140294187
 21
6.6204741737
 31
0.0
  0
LINE
  5
385
330
1F
100
AcDbEntity
  8
0
  6
Continuous
 62
     7
370
    18
100
AcDbLine
 10
9.6210279627
 20
6.6083522072
 30
0.0
 11
9.6140294187
 21
6.6123923807
 31
0.0
  0
LINE
  5
386
330
1F
100
AcDbEntity
  8
0
  6
Continuous
 62
     7
370
    18
100
AcDbLine
 10
9.5827011321
 20
6.6687400806
 30
0.0
 11
9.5819940253
 21
6.6683318765
 31
0.0
  0
LINE
  5
387
330
1F
100
AcDbEntity
  8
0
  6
Continuous
 62
     7
370
    18
100
AcDbLine
 10
9.5947652916
 20
6.6467876819
 30
0.0
 11
9.5940581849
 21
6.6463794779
 31
0.0
  0
LINE
  5
388
330
1F
100
AcDbEntity
  8
0
  6
Continuous
 62
     7
370
    18
100
AcDbLine
 10
9.6140294187
 20
6.6123923807
 30
0.0
 11
9.6133223119
 21
6.6119841766
 31
0.0
  0
LINE
  5
389
330
1F
100
AcDbEntity
  8
0
  6
Continuous
 62
     7
370
    18
100
AcDbLine
 10
9.5826168515
 20
6.6296366496
 30
0.0
 11
9.5819097447
 21
6.6292284456
 31
0.0
  0
SPLINE
  5
38A
330
1F
100
AcDbEntity
  8
0
  6
Continuous
 62
     7
370
    18
100
AcDbSpline
210
0.0
220
0.0
230
1.0
 70
     8
 71
     3
 72
    10
 73
     6
 74
     0
 42
0.000000001
 43
0.00000001
 40
0.0
 40
0.0
 40
0.0
 40
0.0
 40
0.2256238419938535
 40
0.612388517707061
 40
1.0
 40
1.0
 40
1.0
 40
1.0
 10
9.516791031133419
 20
6.679346797798591
 30
0.0
 10
9.517421310983432
 20
6.679717091622217
 30
0.0
 10
9.519132017350628
 20
6.680722143587309
 30
0.0
 10
9.52052141349717
 20
6.684370959327179
 30
0.0
 10
9.520701101510772
 20
6.687783813241126
 30
0.0
 10
9.52079104376504
 20
6.689492106233824
 30
0.0
  0
SPLINE
  5
38B
330
1F
100
AcDbEntity
  8
0
  6
Continuous
 62
     7
370
    18
100
AcDbSpline
210
0.0
220
0.0
230
1.0
 70
     8
 71
     3
 72
    23
 73
    19
 74
     0
 42
0.000000001
 43
0.00000001
 40
0.0
 40
0.0
 40
0.0
 40
0.0
 40
0.0728659334565347
 40
0.141886871964127
 40
0.2074526264147116
 40
0.2704376800000976
 40
0.3316408722476732
 40
0.3901075774931603
 40
0.4480692869488377
 40
0.5055029519245372
 40
0.5624881528337253
 40
0.6190843288847314
 40
0.6764155306922396
 40
0.7354523604507925
 40
0.7962407694486813
 40
0.8604056780892053
 40
0.9283049272851076
 40
1.0
 40
1.0
 40
1.0
 40
1.0
 10
9.52079104376504
 20
6.689492106233824
 30
0.0
 10
9.520782198042726
 20
6.690063012287948
 30
0.0
 10
9.520764973369824
 20
6.691174698783439
 30
0.0
 10
9.520619913522387
 20
6.692862760902027
 30
0.0
 10
9.52037518048204
 20
6.694512589391796
 30
0.0
 10
9.520058518842868
 20
6.696124794461754
 30
0.0
 10
9.519622040713749
 20
6.697704685064506
 30
0.0
 10
9.519104353075415
 20
6.699249227364702
 30
0.0
 10
9.518470163960826
 20
6.700752357823249
 30
0.0
 10
9.51776458672228
 20
6.702223435768591
 30
0.0
 10
9.51695872843698
 20
6.703642263030032
 30
0.0
 10
9.51604170209491
 20
6.704976858300557
 30
0.0
 10
9.51504948209802
 20
6.706254373653269
 30
0.0
 10
9.513962084119111
 20
6.707453598242755
 30
0.0
 10
9.512778867845496
 20
6.708561244925464
 30
0.0
 10
9.511511591186546
 20
6.709619512327846
 30
0.0
 10
9.510147104269763
 20
6.710579036349054
 30
0.0
 10
9.50920879566183
 20
6.711150832641719
 30
0.0
 10
9.508726884199003
 20
6.711444504878668
 30
0.0
  0
SPLINE
  5
38C
330
1F
100
AcDbEntity
  8
0
  6
Continuous
 62
     7
370
    18
100
AcDbSpline
210
0.0
220
0.0
230
1.0
 70
     8
 71
     3
 72
    10
 73
     6
 74
     0
 42
0.000000001
 43
0.00000001
 40
0.0
 40
0.0
 40
0.0
 40
0.0
 40
0.3541859796743735
 40
0.7075920715654431
 40
1.0
 40
1.0
 40
1.0
 40
1.0
 10
9.508726884199003
 20
6.711444504878668
 30
0.0
 10
9.507597008747403
 20
6.712024327424299
 30
0.0
 10
9.505339745735062
 20
6.713182695795006
 30
0.0
 10
9.502212381727402
 20
6.713660426218609
 30
0.0
 10
9.500843269456569
 20
6.7126268846925
 30
0.0
 10
9.500223370739121
 20
6.712158923751598
 30
0.0
  0
LINE
  5
38D
330
1F
100
AcDbEntity
  8
0
  6
Continuous
 62
     7
370
    18
100
AcDbLine
 10
9.4984446564
 20
6.7111515678
 30
0.0
 11
9.4907390056
 21
6.7164897655
 31
0.0
  0
LINE
  5
38E
330
1F
100
AcDbEntity
  8
0
  6
Continuous
 62
     7
370
    18
100
AcDbLine
 10
9.4907390056
 20
6.7164897655
 30
0.0
 11
9.4967621278
 21
6.7477890875
 31
0.0
  0
LINE
  5
38F
330
1F
100
AcDbEntity
  8
0
  6
Continuous
 62
     7
370
    18
100
AcDbLine
 10
9.5247073275
 20
6.7235748741
 30
0.0
 11
9.5032004878
 21
6.7359905084
 31
0.0
  0
SPLINE
  5
390
330
1F
100
AcDbEntity
  8
0
  6
Continuous
 62
     7
370
    18
100
AcDbSpline
210
0.0
220
0.0
230
1.0
 70
     8
 71
     3
 72
    11
 73
     7
 74
     0
 42
0.000000001
 43
0.00000001
 40
0.0
 40
0.0
 40
0.0
 40
0.0
 40
0.1467193155845132
 40
0.4782073597053671
 40
0.7390992104112315
 40
1.0
 40
1.0
 40
1.0
 40
1.0
 10
9.52198095399098
 20
6.670811442726269
 30
0.0
 10
9.521491383714402
 20
6.670474854216558
 30
0.0
 10
9.51989571031298
 20
6.669377799599753
 30
0.0
 10
9.516577929208397
 20
6.669296616551885
 30
0.0
 10
9.5125140964136
 20
6.670295153250749
 30
0.0
 10
9.509933115971648
 20
6.671659092578456
 30
0.0
 10
9.508642603643153
 20
6.672341073925201
 30
0.0
  0
SPLINE
  5
391
330
1F
100
AcDbEntity
  8
0
  6
Continuous
 62
     7
370
    18
100
AcDbSpline
210
0.0
220
0.0
230
1.0
 70
     8
 71
     3
 72
    12
 73
     8
 74
     0
 42
0.000000001
 43
0.00000001
 40
0.0
 40
0.0
 40
0.0
 40
0.0
 40
0.191315168226818
 40
0.3823626264911367
 40
0.5734238585590067
 40
0.7982171789553018
 40
1.0
 40
1.0
 40
1.0
 40
1.0
 10
9.508642603643153
 20
6.672341073925201
 30
0.0
 10
9.506899314254657
 20
6.67345692722553
 30
0.0
 10
9.50341517488663
 20
6.675687072397221
 30
0.0
 10
9.498470455732518
 20
6.680804446475085
 30
0.0
 10
9.49416311538934
 20
6.687378412632426
 30
0.0
 10
9.491050642068156
 20
6.694803602477846
 30
0.0
 10
9.49041385841824
 20
6.699618532797271
 30
0.0
 10
9.490112641381486
 20
6.701896133742569
 30
0.0
  0
LINE
  5
392
330
1F
100
AcDbEntity
  8
0
  6
Continuous
 62
     7
370
    18
100
AcDbLine
 10
9.5346612152
 20
6.6786765319
 30
0.0
 11
9.5346612152
 21
6.6858685049
 31
0.0
  0
LINE
  5
393
330
1F
100
AcDbEntity
  8
0
  6
Continuous
 62
     7
370
    18
100
AcDbLine
 10
9.5563004958
 20
6.6661844411
 30
0.0
 11
9.5346612152
 21
6.6786765319
 31
0.0
  0
LINE
  5
394
330
1F
100
AcDbEntity
  8
0
  6
Continuous
 62
     7
370
    18
100
AcDbLine
 10
9.5032004878
 20
6.7359905084
 30
0.0
 11
9.502493381
 21
6.7355823044
 31
0.0
  0
LINE
  5
395
330
1F
100
AcDbEntity
  8
0
  6
Continuous
 62
     7
370
    18
100
AcDbLine
 10
9.5346612152
 20
6.6786765319
 30
0.0
 11
9.5339541085
 21
6.6782683279
 31
0.0
  0
LINE
  5
396
330
1F
100
AcDbEntity
  8
0
  6
Continuous
 62
     7
370
    18
100
AcDbLine
 10
9.4907390056
 20
6.7164897655
 30
0.0
 11
9.4900318988
 21
6.7160815614
 31
0.0
  0
LINE
  5
397
330
1F
100
AcDbEntity
  8
0
  6
Continuous
 62
     7
370
    18
100
AcDbLine
 10
9.5087268842
 20
6.7114445049
 30
0.0
 11
9.5080197774
 21
6.7110363008
 31
0.0
  0
LINE
  5
398
330
1F
100
AcDbEntity
  8
0
  6
Continuous
 62
     7
370
    18
100
AcDbLine
 10
9.5207910438
 20
6.6894921062
 30
0.0
 11
9.520083937
 21
6.6890839022
 31
0.0
  0
LINE
  5
399
330
1F
100
AcDbEntity
  8
0
  6
Continuous
 62
     7
370
    18
100
AcDbLine
 10
9.5086426036
 20
6.6723410739
 30
0.0
 11
9.5079354969
 21
6.6719328699
 31
0.0
  0
LINE
  5
39A
330
1F
100
AcDbEntity
  8
0
  6
Continuous
 62
     7
370
    18
100
AcDbLine
 10
9.4576681653
 20
6.7026578109
 30
0.0
 11
9.4190764529
 21
6.7249363323
 31
0.0
  0
SPLINE
  5
39B
330
1F
100
AcDbEntity
  8
0
  6
Continuous
 62
     7
370
    18
100
AcDbSpline
210
0.0
220
0.0
230
1.0
 70
     8
 71
     3
 72
    11
 73
     7
 74
     0
 42
0.000000001
 43
0.00000001
 40
0.0
 40
0.0
 40
0.0
 40
0.0
 40
0.2526501895044204
 40
0.5022501643010268
 40
0.7504000252034044
 40
1.0
 40
1.0
 40
1.0
 40
1.0
 10
9.419076452932822
 20
6.724936332264594
 30
0.0
 10
9.419075384416102
 20
6.725465832077449
 30
0.0
 10
9.419073260282735
 20
6.726518439116947
 30
0.0
 10
9.419231191626356
 20
6.727988327787837
 30
0.0
 10
9.419469192148936
 20
6.729392728918947
 30
0.0
 10
9.419744888486107
 20
6.730225947019497
 30
0.0
 10
9.419883138253105
 20
6.730643769793071
 30
0.0
  0
SPLINE
  5
39C
330
1F
100
AcDbEntity
  8
0
  6
Continuous
 62
     7
370
    18
100
AcDbSpline
210
0.0
220
0.0
230
1.0
 70
     8
 71
     3
 72
    10
 73
     6
 74
     0
 42
0.000000001
 43
0.00000001
 40
0.0
 40
0.0
 40
0.0
 40
0.0
 40
0.4529436235618556
 40
0.9062538558726277
 40
1.0
 40
1.0
 40
1.0
 40
1.0
 10
9.419883138253105
 20
6.730643769793071
 30
0.0
 10
9.420713190604376
 20
6.732372092172187
 30
0.0
 10
9.422373967144287
 20
6.735830135819978
 30
0.0
 10
9.42516786692898
 20
6.738555534425843
 30
0.0
 10
9.427061205170101
 20
6.739375272531398
 30
0.0
 10
9.427385656483127
 20
6.73951574669439
 30
0.0
  0
SPLINE
  5
39D
330
1F
100
AcDbEntity
  8
0
  6
Continuous
 62
     7
370
    18
100
AcDbSpline
210
0.0
220
0.0
230
1.0
 70
     8
 71
     3
 72
    10
 73
     6
 74
     0
 42
0.000000001
 43
0.00000001
 40
0.0
 40
0.0
 40
0.0
 40
0.0
 40
0.2210740555659196
 40
0.6118144917636186
 40
1.0
 40
1.0
 40
1.0
 40
1.0
 10
9.442415952274953
 20
6.746747712098156
 30
0.0
 10
9.443254806831904
 20
6.747126319178478
 30
0.0
 10
9.445576306625762
 20
6.74817410064624
 30
0.0
 10
9.448822752584444
 20
6.751081926046592
 30
0.0
 10
9.449541073718432
 20
6.755236138142759
 30
0.0
 10
9.449899056215314
 20
6.757306431147368
 30
0.0
  0
SPLINE
  5
39E
330
1F
100
AcDbEntity
  8
0
  6
Continuous
 62
     7
370
    18
100
AcDbSpline
210
0.0
220
0.0
230
1.0
 70
     8
 71
     3
 72
    23
 73
    19
 74
     0
 42
0.000000001
 43
0.00000001
 40
0.0
 40
0.0
 40
0.0
 40
0.0
 40
0.0617499482833057
 40
0.1211500402704788
 40
0.1793859407142494
 40
0.2367966179648673
 40
0.2942636170183557
 40
0.3531211477700185
 40
0.4132116206465783
 40
0.4750008486832696
 40
0.5375230809498751
 40
0.6000453132164856
 40
0.6624596554419343
 40
0.7260040706795327
 40
0.7903578941347811
 40
0.8577524244976187
 40
0.9272463363904403
 40
1.0
 40
1.0
 40
1.0
 40
1.0
 10
9.449899056215314
 20
6.757306431147368
 30
0.0
 10
9.449890690711687
 20
6.757701327426223
 30
0.0
 10
9.449874278048531
 20
6.758476092448961
 30
0.0
 10
9.449718523168125
 20
6.75968598971915
 30
0.0
 10
9.44950177086081
 20
6.760889747431726
 30
0.0
 10
9.44915107595997
 20
6.762109776654301
 30
0.0
 10
9.448734578886732
 20
6.763337932261495
 30
0.0
 10
9.448194934204478
 20
6.76457513422702
 30
0.0
 10
9.447584100676908
 20
6.765826379207532
 30
0.0
 10
9.446870499406101
 20
6.767062833247466
 30
0.0
 10
9.4460965107033
 20
6.768282372348749
 30
0.0
 10
9.44523502327227
 20
6.76942541354269
 30
0.0
 10
9.444326537164692
 20
6.770513344873017
 30
0.0
 10
9.443363165013482
 20
6.771528764523403
 30
0.0
 10
9.442337658715052
 20
6.772470144352743
 30
0.0
 10
9.441257227235162
 20
6.773338599240131
 30
0.0
 10
9.440117930314067
 20
6.774154165979026
 30
0.0
 10
9.43934030609813
 20
6.774624758559297
 30
0.0
 10
9.43894258395474
 20
6.774865446909599
 30
0.0
  0
SPLINE
  5
39F
330
1F
100
AcDbEntity
  8
0
  6
Continuous
 62
     7
370
    18
100
AcDbSpline
210
0.0
220
0.0
230
1.0
 70
     8
 71
     3
 72
     9
 73
     5
 74
     0
 42
0.000000001
 43
0.00000001
 40
0.0
 40
0.0
 40
0.0
 40
0.0
 40
0.5282238001612244
 40
1.0
 40
1.0
 40
1.0
 40
1.0
 10
9.43894258395474
 20
6.774865446909599
 30
0.0
 10
9.437248838703432
 20
6.775736447153938
 30
0.0
 10
9.434042346964908
 20
6.777385369909923
 30
0.0
 10
9.431579275815055
 20
6.776449308868
 30
0.0
 10
9.430417257468044
 20
6.776007697546824
 30
0.0
  0
LINE
  5
3A0
330
1F
100
AcDbEntity
  8
0
  6
Continuous
 62
     7
370
    18
100
AcDbLine
 10
9.4269583783
 20
6.7693949264
 30
0.0
 11
9.419847018
 21
6.774321421
 31
0.0
  0
SPLINE
  5
3A1
330
1F
100
AcDbEntity
  8
0
  6
Continuous
 62
     7
370
    18
100
AcDbSpline
210
0.0
220
0.0
230
1.0
 70
     8
 71
     3
 72
    10
 73
     6
 74
     0
 42
0.000000001
 43
0.00000001
 40
0.0
 40
0.0
 40
0.0
 40
0.0
 40
0.4096433648338085
 40
0.8184611817235393
 40
0.9999999999999999
 40
0.9999999999999999
 40
0.9999999999999999
 40
0.9999999999999999
 10
9.419847018014885
 20
6.774321420980282
 30
0.0
 10
9.42011863130464
 20
6.77619266634815
 30
0.0
 10
9.42066131050608
 20
6.779931385992006
 30
0.0
 10
9.422442610264577
 20
6.783713910214507
 30
0.0
 10
9.424374995395231
 20
6.784577049441337
 30
0.0
 10
9.424969217416594
 20
6.784842470825486
 30
0.0
  0
SPLINE
  5
3A2
330
1F
100
AcDbEntity
  8
0
  6
Continuous
 62
     7
370
    18
100
AcDbSpline
210
0.0
220
0.0
230
1.0
 70
     8
 71
     3
 72
     9
 73
     5
 74
     0
 42
0.000000001
 43
0.00000001
 40
0.0
 40
0.0
 40
0.0
 40
0.0
 40
0.3667981622244254
 40
1.0
 40
1.0
 40
1.0
 40
1.0
 10
9.448804686344387
 20
6.737897668344971
 30
0.0
 10
9.447886614288016
 20
6.737351237914083
 30
0.0
 10
9.445383679020285
 20
6.735861507356073
 30
0.0
 10
9.442656225584756
 20
6.734779148913139
 30
0.0
 10
9.440929197056931
 20
6.734093797557941
 30
0.0
  0
SPLINE
  5
3A3
330
1F
100
AcDbEntity
  8
0
  6
Continuous
 62
     7
370
    18
100
AcDbSpline
210
0.0
220
0.0
230
1.0
 70
     8
 71
     3
 72
     9
 73
     5
 74
     0
 42
0.000000001
 43
0.00000001
 40
0.0
 40
0.0
 40
0.0
 40
0.0
 40
0.7535910860183967
 40
1.0
 40
1.0
 40
1.0
 40
1.0
 10
9.440929197056931
 20
6.734093797557941
 30
0.0
 10
9.438488360290672
 20
6.733349243274718
 30
0.0
 10
9.435249419688075
 20
6.732361234927701
 30
0.0
 10
9.43251453094017
 20
6.730467144178439
 30
0.0
 10
9.431840629973939
 20
6.730000423333931
 30
0.0
  0
LINE
  5
3A4
330
1F
100
AcDbEntity
  8
0
  6
Continuous
 62
     7
370
    18
100
AcDbLine
 10
9.438942584
 20
6.7748654469
 30
0.0
 11
9.4382354772
 21
6.7744572429
 31
0.0
  0
LINE
  5
3A5
330
1F
100
AcDbEntity
  8
0
  6
Continuous
 62
     7
370
    18
100
AcDbLine
 10
9.4498990562
 20
6.7573064311
 30
0.0
 11
9.4491919494
 21
6.7568982271
 31
0.0
  0
LINE
  5
3A6
330
1F
100
AcDbEntity
  8
0
  6
Continuous
 62
     7
370
    18
100
AcDbLine
 10
9.4409291971
 20
6.7340937976
 30
0.0
 11
9.4402220903
 21
6.7336855935
 31
0.0
  0
LINE
  5
3A7
330
1F
100
AcDbEntity
  8
0
  6
Continuous
 62
     7
370
    18
100
AcDbLine
 10
9.419847018
 20
6.774321421
 30
0.0
 11
9.4191399112
 21
6.7739132169
 31
0.0
  0
LINE
  5
3A8
330
1F
100
AcDbEntity
  8
0
  6
Continuous
 62
     7
370
    18
100
AcDbLine
 10
9.4707043134
 20
6.6951322028
 30
0.0
 11
9.4707043134
 21
6.7032139958
 31
0.0
  0
LINE
  5
3A9
330
1F
100
AcDbEntity
  8
0
  6
Continuous
 62
     7
370
    18
100
AcDbLine
 10
9.4777028575
 20
6.6910920293
 30
0.0
 11
9.4707043134
 21
6.6951322028
 31
0.0
  0
LINE
  5
3AA
330
1F
100
AcDbEntity
  8
0
  6
Continuous
 62
     7
370
    18
100
AcDbLine
 10
9.4707043134
 20
6.6951322028
 30
0.0
 11
9.4699972066
 21
6.6947239987
 31
0.0
  0
LINE
  5
3AB
330
1F
100
AcDbEntity
  8
0
  6
Continuous
 62
     7
370
    18
100
AcDbLine
 10
9.4190764529
 20
6.7249363323
 30
0.0
 11
9.4183693462
 21
6.7245281282
 31
0.0
  0
LINE
  5
3AC
330
1F
100
AcDbEntity
  8
0
  6
Continuous
 62
     7
370
    18
100
AcDbLine
 10
9.4198831383
 20
6.7306437698
 30
0.0
 11
9.4191760315
 21
6.7302355657
 31
0.0
  0
OLE2FRAME
  5
3AD
330
1F
100
AcDbEntity
  8
0
100
AcDbOle2Frame
 70
     2
  3
Paintbrush Picture
 10
9.0178120406
 20
1.3267570784
 30
0.0
 11
10.4397105087
 21
1.1242314806
 31
0.0
 71
     2
 72
     0
 73
     1
 90
     7296
310
8055C64EE7A81E092240C05F59A1653AF53F0000000000000000FD155DBC21E1
310
2440C05F59A1653AF53F0000000000000000FD155DBC21E12440A1732426DAFC
310
F13F0000000000000000C64EE7A81E092240A1732426DAFCF13F000000000000
310
00000000000001000000000100000100000001000000000001000000001C0000
310
D0CF11E0A1B11AE1000000000000000000000000000000003E000300FEFF0900
310
0600000000000000000000000100000001000000000000000010000002000000
310
01000000FEFFFFFF0000000000000000FFFFFFFFFFFFFFFFFFFFFFFFFFFFFFFF
310
FFFFFFFFFFFFFFFFFFFFFFFFFFFFFFFFFFFFFFFFFFFFFFFFFFFFFFFFFFFFFFFF
310
FFFFFFFFFFFFFFFFFFFFFFFFFFFFFFFFFFFFFFFFFFFFFFFFFFFFFFFFFFFFFFFF
310
FFFFFFFFFFFFFFFFFFFFFFFFFFFFFFFFFFFFFFFFFFFFFFFFFFFFFFFFFFFFFFFF
310
FFFFFFFFFFFFFFFFFFFFFFFFFFFFFFFFFFFFFFFFFFFFFFFFFFFFFFFFFFFFFFFF
310
FFFFFFFFFFFFFFFFFFFFFFFFFFFFFFFFFFFFFFFFFFFFFFFFFFFFFFFFFFFFFFFF
310
FFFFFFFFFFFFFFFFFFFFFFFFFFFFFFFFFFFFFFFFFFFFFFFFFFFFFFFFFFFFFFFF
310
FFFFFFFFFFFFFFFFFFFFFFFFFFFFFFFFFFFFFFFFFFFFFFFFFFFFFFFFFFFFFFFF
310
FFFFFFFFFFFFFFFFFFFFFFFFFFFFFFFFFFFFFFFFFFFFFFFFFFFFFFFFFFFFFFFF
310
FFFFFFFFFFFFFFFFFFFFFFFFFFFFFFFFFFFFFFFFFFFFFFFFFFFFFFFFFFFFFFFF
310
FFFFFFFFFFFFFFFFFFFFFFFFFFFFFFFFFFFFFFFFFFFFFFFFFFFFFFFFFFFFFFFF
310
FFFFFFFFFFFFFFFFFFFFFFFFFFFFFFFFFFFFFFFFFFFFFFFFFFFFFFFFFFFFFFFF
310
FFFFFFFFFFFFFFFFFFFFFFFFFFFFFFFFFFFFFFFFFFFFFFFFFFFFFFFFFFFFFFFF
310
FFFFFFFFFFFFFFFFFFFFFFFFFFFFFFFFFFFFFFFFFFFFFFFFFFFFFFFFFFFFFFFF
310
FDFFFFFFFEFFFFFFFEFFFFFFFEFFFFFF05000000060000000700000008000000
310
090000000A0000000B0000000C000000FEFFFFFFFFFFFFFFFFFFFFFFFFFFFFFF
310
FFFFFFFFFFFFFFFFFFFFFFFFFFFFFFFFFFFFFFFFFFFFFFFFFFFFFFFFFFFFFFFF
310
FFFFFFFFFFFFFFFFFFFFFFFFFFFFFFFFFFFFFFFFFFFFFFFFFFFFFFFFFFFFFFFF
310
FFFFFFFFFFFFFFFFFFFFFFFFFFFFFFFFFFFFFFFFFFFFFFFFFFFFFFFFFFFFFFFF
310
FFFFFFFFFFFFFFFFFFFFFFFFFFFFFFFFFFFFFFFFFFFFFFFFFFFFFFFFFFFFFFFF
310
FFFFFFFFFFFFFFFFFFFFFFFFFFFFFFFFFFFFFFFFFFFFFFFFFFFFFFFFFFFFFFFF
310
FFFFFFFFFFFFFFFFFFFFFFFFFFFFFFFFFFFFFFFFFFFFFFFFFFFFFFFFFFFFFFFF
310
FFFFFFFFFFFFFFFFFFFFFFFFFFFFFFFFFFFFFFFFFFFFFFFFFFFFFFFFFFFFFFFF
310
FFFFFFFFFFFFFFFFFFFFFFFFFFFFFFFFFFFFFFFFFFFFFFFFFFFFFFFFFFFFFFFF
310
FFFFFFFFFFFFFFFFFFFFFFFFFFFFFFFFFFFFFFFFFFFFFFFFFFFFFFFFFFFFFFFF
310
FFFFFFFFFFFFFFFFFFFFFFFFFFFFFFFFFFFFFFFFFFFFFFFFFFFFFFFFFFFFFFFF
310
FFFFFFFFFFFFFFFFFFFFFFFFFFFFFFFFFFFFFFFFFFFFFFFFFFFFFFFFFFFFFFFF
310
FFFFFFFFFFFFFFFFFFFFFFFFFFFFFFFFFFFFFFFFFFFFFFFFFFFFFFFFFFFFFFFF
310
FFFFFFFFFFFFFFFFFFFFFFFFFFFFFFFFFFFFFFFFFFFFFFFFFFFFFFFFFFFFFFFF
310
FFFFFFFFFFFFFFFFFFFFFFFFFFFFFFFFFFFFFFFFFFFFFFFFFFFFFFFFFFFFFFFF
310
52006F006F007400200045006E00740072007900000000000000000000000000
310
0000000000000000000000000000000000000000000000000000000000000000
310
16000500FFFFFFFFFFFFFFFF020000000A00030000000000C000000000000046
310
000000000000000000000000E0ECC3A3CFB1D40103000000C000000000000000
310
01004F006C006500000000000000000000000000000000000000000000000000
310
0000000000000000000000000000000000000000000000000000000000000000
310
0A000200FFFFFFFFFFFFFFFFFFFFFFFF00000000000000000000000000000000
310
0000000000000000000000000000000000000000000000001400000000000000
310
010043006F006D0070004F0062006A0000000000000000000000000000000000
310
0000000000000000000000000000000000000000000000000000000000000000
310
120002010100000003000000FFFFFFFF00000000000000000000000000000000
310
0000000000000000000000000000000000000000010000004D00000000000000
310
01004F006C006500310030004E00610074006900760065000000000000000000
310
0000000000000000000000000000000000000000000000000000000000000000
310
1A000200FFFFFFFFFFFFFFFFFFFFFFFF00000000000000000000000000000000
310
000000000000000000000000000000000000000004000000E411000000000000
310
FEFFFFFF02000000FEFFFFFFFFFFFFFFFFFFFFFFFFFFFFFFFFFFFFFFFFFFFFFF
310
FFFFFFFFFFFFFFFFFFFFFFFFFFFFFFFFFFFFFFFFFFFFFFFFFFFFFFFFFFFFFFFF
310
FFFFFFFFFFFFFFFFFFFFFFFFFFFFFFFFFFFFFFFFFFFFFFFFFFFFFFFFFFFFFFFF
310
FFFFFFFFFFFFFFFFFFFFFFFFFFFFFFFFFFFFFFFFFFFFFFFFFFFFFFFFFFFFFFFF
310
FFFFFFFFFFFFFFFFFFFFFFFFFFFFFFFFFFFFFFFFFFFFFFFFFFFFFFFFFFFFFFFF
310
FFFFFFFFFFFFFFFFFFFFFFFFFFFFFFFFFFFFFFFFFFFFFFFFFFFFFFFFFFFFFFFF
310
FFFFFFFFFFFFFFFFFFFFFFFFFFFFFFFFFFFFFFFFFFFFFFFFFFFFFFFFFFFFFFFF
310
FFFFFFFFFFFFFFFFFFFFFFFFFFFFFFFFFFFFFFFFFFFFFFFFFFFFFFFFFFFFFFFF
310
FFFFFFFFFFFFFFFFFFFFFFFFFFFFFFFFFFFFFFFFFFFFFFFFFFFFFFFFFFFFFFFF
310
FFFFFFFFFFFFFFFFFFFFFFFFFFFFFFFFFFFFFFFFFFFFFFFFFFFFFFFFFFFFFFFF
310
FFFFFFFFFFFFFFFFFFFFFFFFFFFFFFFFFFFFFFFFFFFFFFFFFFFFFFFFFFFFFFFF
310
FFFFFFFFFFFFFFFFFFFFFFFFFFFFFFFFFFFFFFFFFFFFFFFFFFFFFFFFFFFFFFFF
310
FFFFFFFFFFFFFFFFFFFFFFFFFFFFFFFFFFFFFFFFFFFFFFFFFFFFFFFFFFFFFFFF
310
FFFFFFFFFFFFFFFFFFFFFFFFFFFFFFFFFFFFFFFFFFFFFFFFFFFFFFFFFFFFFFFF
310
FFFFFFFFFFFFFFFFFFFFFFFFFFFFFFFFFFFFFFFFFFFFFFFFFFFFFFFFFFFFFFFF
310
FFFFFFFFFFFFFFFFFFFFFFFFFFFFFFFFFFFFFFFFFFFFFFFFFFFFFFFFFFFFFFFF
310
0100000200000000000000000000000000000000000000000000000000000000
310
0000000000000000000000000000000000000000000000000000000000000000
310
0100FEFF030A0000FFFFFFFF0A00030000000000C00000000000004607000000
310
5042727573680007000000504272757368000700000050427275736800F439B2
310
7100000000000000000000000000000000000000000000000000000000000000
310
0000000000000000000000000000000000000000000000000000000000000000
310
0000000000000000000000000000000000000000000000000000000000000000
310
0000000000000000000000000000000000000000000000000000000000000000
310
0000000000000000000000000000000000000000000000000000000000000000
310
0000000000000000000000000000000000000000000000000000000000000000
310
0000000000000000000000000000000000000000000000000000000000000000
310
0000000000000000000000000000000000000000000000000000000000000000
310
0000000000000000000000000000000000000000000000000000000000000000
310
0000000000000000000000000000000000000000000000000000000000000000
310
0000000000000000000000000000000000000000000000000000000000000000
310
0000000000000000000000000000000000000000000000000000000000000000
310
E0110000424DDE11000000000000360400002800000096000000170000000100
310
08000000000000000000E7240000E72400000001000000010000000000FF0101
310
01FF020202FF030303FF040404FF050505FF060606FF070707FF080808FF0909
310
09FF0A0A0AFF0B0B0BFF0C0C0CFF0D0D0DFF0E0E0EFF0F0F0FFF101010FF1111
310
11FF121212FF131313FF141414FF151515FF161616FF171717FF181818FF1919
310
19FF1A1A1AFF1B1B1BFF1C1C1CFF1D1D1DFF1E1E1EFF1F1F1FFF202020FF2121
310
21FF222222FF232323FF242424FF252525FF262626FF272727FF282828FF2929
310
29FF2A2A2AFF2B2B2BFF2C2C2CFF2D2D2DFF2E2E2EFF2F2F2FFF303030FF3131
310
31FF323232FF333333FF343434FF353535FF363636FF373737FF383838FF3939
310
39FF3A3A3AFF3B3B3BFF3C3C3CFF3D3D3DFF3E3E3EFF3F3F3FFF404040FF4141
310
41FF424242FF434343FF444444FF454545FF464646FF474747FF484848FF4949
310
49FF4A4A4AFF4B4B4BFF4C4C4CFF4D4D4DFF4E4E4EFF4F4F4FFF505050FF5151
310
51FF525252FF535353FF545454FF555555FF565656FF575757FF585858FF5959
310
59FF5A5A5AFF5B5B5BFF5C5C5CFF5D5D5DFF5E5E5EFF5F5F5FFF606060FF6161
310
61FF626262FF636363FF646464FF656565FF666666FF676767FF686868FF6969
310
69FF6A6A6AFF6B6B6BFF6C6C6CFF6D6D6DFF6E6E6EFF6F6F6FFF707070FF7171
310
71FF727272FF737373FF747474FF757575FF767676FF777777FF787878FF7979
310
79FF7A7A7AFF7B7B7BFF7C7C7CFF7D7D7DFF7E7E7EFF7F7F7FFF808080FF8181
310
81FF828282FF838383FF848484FF858585FF868686FF878787FF888888FF8989
310
89FF8A8A8AFF8B8B8BFF8C8C8CFF8D8D8DFF8E8E8EFF8F8F8FFF909090FF9191
310
91FF929292FF939393FF949494FF959595FF969696FF979797FF989898FF9999
310
99FF9A9A9AFF9B9B9BFF9C9C9CFF9D9D9DFF9E9E9EFF9F9F9FFFA0A0A0FFA1A1
310
A1FFA2A2A2FFA3A3A3FFA4A4A4FFA5A5A5FFA6A6A6FFA7A7A7FFA8A8A8FFA9A9
310
A9FFAAAAAAFFABABABFFACACACFFADADADFFAEAEAEFFAFAFAFFFB0B0B0FFB1B1
310
B1FFB2B2B2FFB3B3B3FFB4B4B4FFB5B5B5FFB6B6B6FFB7B7B7FFB8B8B8FFB9B9
310
B9FFBABABAFFBBBBBBFFBCBCBCFFBDBDBDFFBEBEBEFFBFBFBFFFC0C0C0FFC1C1
310
C1FFC2C2C2FFC3C3C3FFC4C4C4FFC5C5C5FFC6C6C6FFC7C7C7FFC8C8C8FFC9C9
310
C9FFCACACAFFCBCBCBFFCCCCCCFFCDCDCDFFCECECEFFCFCFCFFFD0D0D0FFD1D1
310
D1FFD2D2D2FFD3D3D3FFD4D4D4FFD5D5D5FFD6D6D6FFD7D7D7FFD8D8D8FFD9D9
310
D9FFDADADAFFDBDBDBFFDCDCDCFFDDDDDDFFDEDEDEFFDFDFDFFFE0E0E0FFE1E1
310
E1FFE2E2E2FFE3E3E3FFE4E4E4FFE5E5E5FFE6E6E6FFE7E7E7FFE8E8E8FFE9E9
310
E9FFEAEAEAFFEBEBEBFFECECECFFEDEDEDFFEEEEEEFFEFEFEFFFF0F0F0FFF1F1
310
F1FFF2F2F2FFF3F3F3FFF4F4F4FFF5F5F5FFF6F6F6FFF7F7F7FFF8F8F8FFF9F9
310
F9FFFAFAFAFFFBFBFBFFFCFCFCFFFDFDFDFFFEFEFEFFFFFFFFFFFFFFFFFFFFFF
310
C94E4E4E4F4E4EFFFFFFFFFFC94E4E4E4E4E72FFFFFFFFFFFFFF734E4D4E4E4E
310
C9FFFFFFFFFFAA683516171616265B9BE9FFFFFFFFFF4E4E4E4D4E4EFFFFFFFF
310
FFFFFFFF4E4E4F4E4D4E4E4E4F4E4E4F4D4E4E4E4E4E4D4E4F4E4D4E4E4EAAFF
310
FFFFFFFFFFEA4E4F4F4E4E4E4E4E4D4D4F4F4E4E4E4E4E5B7FAAFFFFFFFFFFFF
310
C9744E1716171616164D8DEAFFFFFFFF0000FFFFFFFFFFFFBA161617161716FF
310
FFFFFFFFB917171616174FFFFFFFFFFFFFFF4E1716161616B9FFFFFFB9341717
310
1716171617171616268CFFFFFFFF161617161617FFFFFFFFFFFFFFB917161717
310
1617167F807F7F7F7F7F7F807F7F807F7F807F7F7F414EFFFFFFFFFFFF8C167F
310
7F807F7F7F7E7F7F807F807F7F807F4E3417258EFFFFEA4E162674AABAEAEBBA
310
AA74341680FFFFFF0000FFFFFFFFFFFFB9171717171617FFFFFFFFFFBB161616
310
16164EFFFFFFFFFFFFFF4E1717171717B9FFFF9C171617171716161616171616
310
171766FFFFFF161717161617FFFFFFFFFFFFFF8E16171717161616FFFFFFFFFF
310
FFFFFFFFFFFFFFFFFFFFFFFFFFAA16D9FFFFFFFFFF3467FFFFFFFFEAFFFFFFFF
310
FFFFFFFFFFFFFFFFFFCA671667EB26278DFFFFFFFFFFFFFFFFFFFF8C2541EAFF
310
0000FFFFFFFFFFFFB9171717171716FFFFFFFFFFBA16171617174EFFFFFFFFFF
310
FFFF4E1717161616BAFF9B1617161616171716171617161616161667FFFF1616
310
16161716FFFFFFFFFFFFFF7F16161617174017FFFFFFFFFFFFFFFFFFFFFFFFFF
310
FFFFFFFFFFFF344E7F7F7F7E7417DAFFFFFFFF80FFFFFFFFFFFFFFFFFFFFFFFF
310
FFFFFF9B163425CAFFFFFFFFFFFFFFFFFFFFFFFFCA2667FF0000FFFFFFFFFFFF
310
BA171717171617FFFFFFFFFFB916171716164EFFFFFFFFFFFFFF4F1716161717
310
B9C91716171616161716161617171616161617168DFF161716161717FFFFFFFF
310
FFFFFF7F17171716164F16FFFFFFFFFFFFFFFFFFFFFFFFFFFFFFFFFFFFFF9B16
310
17161617174EFFFFFFFFFF34FFFFFFFFD9BABABABABADAFFFFFFFFFF7F16AAFF
310
FFFFFFFFFFFFFFFFFFFFFFFFFF9C16BA0000FFFFFFFFFFFFB9161717161717FF
310
FFFFFFFFB917161716174DFFFFFFFFFFFFFF4E1616161616BA4E161617171716
310
419BEAEAAA4E16161617161726E9171717161616FFFFFFFFFFFFFF4F16161717
310
164E16FFFFFFFFFFBAB9B9B9B9B9BABABACAFFFFFFFFFFFFFFFFFFFFFFFFFFFF
310
FFFFBA16FFFFFFFF7F1617161617174DEAFFFFFFEA41FFFFFFFFFFAA4D16174E
310
9BFFFFFFFFFF34730000FFFFFFFFFFFFB9161617171617FFFFFFFFFFBA161616
310
16164EFFFFFFFFFFFFFF4F16161717169B1617161716175BFFFFFFFFFFFF7417
310
16171616168D171717161617FFFFFFFFFFFFEA2616171717167416FFFFFFFFFF
310
16171616171717171717EAFFFFFFFFFFFFFFFFFFFFFFFFFFFFFF6716FFFFFFFF
310
7F4EFFFFFFFFBA2573FFFFFFFFBAFFFFFFFFAA167FB9BB9B269BFFFFFFFF664F
310
0000FFFFFFFFFFFFB9171616161616FFFFFFFFFFBA16161717164EFFFFFFFFFF
310
FFFF4E16161616174E161617171626EAFFFFFFFFFFFFFF4E16161616164E1716
310
16161617FFFFFFFFFFFF671616161716347F16FFFFFFFFFF16B9FFFFFFFFFFFF
310
D9168DFFFFFFFFFFFFFFFFFFFFFFFFFFFFEA1716FFFFFFFF7F4EFFFFFFFFFF7F
310
4EFFFFFFFFFFFFFFFFFF5B66FFFFFFEA347FFFFFFFFF7F4D0000FFFFFFFFFFFF
310
B9171616171617FFFFFFFFFFBA17161716174EFFFFFFFFFFFFFF4D1716161617
310
17161716161673FFFFFFFFFFFFFFFF9B1617161717161616171616174F4E4E4E
310
4E341616171616167E7F16FFFFFFFFFF16BAFFFFFFFFFFFFFF5B41FFFFFFFF34
310
1616171616BAFFFFFF9B1716FFFFFFFF7F4EFFFFFFFFFF4E4EFFFFFFFF734E4E
310
4E4E267EDA9B67164EEAFFFFFFFF744D0000FFFFFFFFFFFFBA171717161617FF
310
FFFFFFFFBA1616171616347F7F7F7F80807F331616161717161717161716B9FF
310
FFFFFFFFFFFFFFE9161616161616171716161716171616161616171616171734
310
EA7F16FFFFFFFFFF16BAFFFFFFFFFFFFFFAA17C9FFFFFF7326BABA5B25FFFFFF
310
FF401716FFFFFFFF7F264F4E4E4E4217AAFFFFFFEA16677F73261616164173CA
310
FFFFFFFFFFFF417F0000FFFFFFFFFFFFBA171616171617FFFFFFFFFFBA161616
310
17171616161616161616161717161616161616161617EAFFFFFFFFFFFFFFFFFF
310
261717161716161617161616161617161617161616174EEAFF8016FFFFFFFFFF
310
17BAFFFFFFFFFFFFFFFF3467FFFFFFC916C9FF3467FFFFFFDA166716FFFFFFFF
310
9C4D4E4E4E4E67AAFFFFFFFF6834FF7F262567AAEAFFFFFFFFFFFFFFFF9B17D9
310
0000FFFFFFFFFFFFB9161616161616FFFFFFFFFFBA1617161717171616161616
310
1716171716161716161617171716FFFFFFFFFFFFFFFFFFFF4E17161716171616
310
1617171616161716171717161616169BFF7F17FFFFFFFFFF17B9FFFFFFFFFFFF
310
FFFF7326FFFFFFFF3473DA16AAFFFFFF7317AA16FFFFFFFFFFFFFFFFFFFFFFFF
310
FFFFEA6725BA4E167FEAFFFFFFFFFFFFFFFFFFFF9C167FFF0000FFFFFFFFFFFF
310
B9161717171716FFFFFFFFFFBA16161716171616171717161617161716161616
310
171617171617EAFFFFFFFFFFFFFFFFFF26161717161616161616161617171616
310
1616161616171616AA8016FFFFFFFFFF16BAFFFFFFFFFFFFFFFFDA179BFFFFFF
310
74348D26FFFFFFFF2566B917FFFFFFFFD8BAB9BAB9BADAFFFFEA41169B7425C9
310
FFFFFFFFFFFFFFFFFFFFAB4F1680FFFF0000FFFFFFFFFFFFBA161717171617FF
310
FFFFFFFFBA17161717161617171617161616161617171616171716171617BBFF
310
FFFFFFFFFFFFFFE9171616161617161617161716FFFFFFFFFFD9671616161617
310
348017FFFFFFFFFF16BAFFFFFFFFFFFFFFFFFF4E5AFFFFFFC916265AFFFFFFAA
310
16AABA16FFFFFFFF7F1617161616179BFFFFEB4127168DFFFFFFFFFFFFFFD99B
310
6734175AC9FFFFFF0000FFFFFFFFFFFFB9161617171617FFFFFFFFFFBB161616
310
1616347F807F7F7F7F8033171716171617171616161672FFFFFFFFFFFFFFFF9C
310
171617171617161716161617FFFFFFFFFFFFFF4117161616174E17FFFFFFFFFF
310
16BAFFFFFFFFFFFFFFFFFF9B16DAFFFFFF34169BFFFFFF5A26FFB917FFFFFFFF
310
7F4EFFFFFFEA5B26FFFFFFEA2616EAFFFFFFFFDA743416331617414E4E4E4ECA
310
0000FFFFFFFFFFFFBA161716161616FFFFFFFFFFBA17171616164EFFFFFFFFFF
310
FFFF4E16161717174E161717171626EBFFFFFFFFFFFFFF4E16161617165B1616
310
16171617FFFFFFFFFFFFFF6716161616161617FFFFFFFFFF16BAFFFFFFFFFFFF
310
FFFFFFEA268CFFFFFF7316EAFFFFEB1774FFB916FFFFFFFF7F4EFFFFFFFF7316
310
FFFFFFFF6826FFFFFFFFEB264D9CEABA257F807F7F6616BA0000FFFFFFFFFFFF
310
BA161716161616FFFFFFFFFFBA16171616164DFFFFFFFFFFFFFF4E1617161617
310
9B1617171717165BEBFFFFFFFFFF671616161617179B171616161616FFFFFFFF
310
FFFFFF3417161617171617FFFFFFFFFF17BAFFFFFFFFFFFFFFFFFFFF6734FFFF
310
FFEBCAFFFFFF8D17C9FFBA17FFFFFFFF7F357F808066174FFFFFFFFF7F16FFFF
310
FFFFD91673B99B415BFFFFFFFFBA16DA00009B7F7F7F807F671617161616167F
310
80807F7E6617161616164EFFFFFFFFFFFFFF4E1616161617B94E171716161616
310
349BC9D9AA4E16171616161634FF161617161717B9B9BAB9BA9B411716171716
310
163416FFFFFFFFFF16B9FFFFFFFFFFFFFFFFFFFFC917CAFFFFFFFFFFFFFF3342
310
FFFFBA17FFFFFFFF9B4E4E4F4E4E66EAFFFFFFFF5B16C9FFFFFFFFAA4E164E73
310
EAFFFFFFFF8D26FF00004E161716161616171617171616171717171617161616
310
17174EFFFFFFFFFFFFFF4E1717171616B9D92616171716171716171717171716
310
16171716AAFF161717171617161617171616161617161716166717FFFFFFFFFF
310
17B9FFFFFFFFFFFFFFFFFFFFFF3467FFFFFFFFFFFFCA168CFFFFBB17FFFFFFFF
310
FFFFFFFFFFFFFFFFFFFFFFEA26265BFFFFFFFFFFFFFFFFFFFFFFFFFFEA3467FF
310
00004D16161616161617161717161617161616171617171616164EFFFFFFFFFF
310
FFFF4D1617161616BAFF9B1616161616161716161616171717161766FFFF1616
310
16171617161617161716171616171717667F16FFFFFFFFFF17BAFFFFFFFFFFFF
310
FFFFFFFFFF8C26EAFFFFFFFFFF6617EAFFFFBA17FFFFFFFFFFFFFFFFFFFFFFFF
310
FFFFEA5A25BA269BFFFFFFFFFFFFFFFFFFFFFFFF6616DAFF00004E1616171616
310
1616161616161716161617171616171616174EFFFFFFFFFFFFFF4D1717171716
310
B9FFFF9C161616161616161716161717171667FFFFFF17161717171716161617
310
1716161616161641E97E16FFFFFFFFFF16B9FFFFFFFFFFFFFFFFFFFFFFEA169B
310
FFFFFFFFEA265BFFFFFFB916FFFFFFFFFFFFFFFFFFFFFFFFFF9B3416AAFF9B17
310
67EAFFFFFFFFFFFFFFFFEA5B169BFFFF00004D17161716161616161717171616
310
161717161716171716174EFFFFFFFFFFFFFF4D1616161616BAFFFFFFBB411616
310
161716161616171634ABFFFFFFFF161716161617171716171617171617267FFF
310
FF7F164E4E4E4E4F17BAFFFFFFFFFFFFFFFFFFFFFFFF66344D4E4E4F4117AAFF
310
FFFFBA174E4E4E4D4E4D4D4E4E4E4E4116174EBBFFFFFFCA342666ABEAFFFFEA
310
AA6725269CFFFFFF0000724F4E4D4D4D4E4D4D4E4E4E4D4E4E4E4E4E4E4E4E4D
310
4E4E74FFFFFFFFFFFFFF734E4E4E4D4ECAFFFFFFFFFFAA663416171717265B9B
310
FFFFFFFFFFFF7F8080807F80807F7F7F7F7F807FBAFFFFFFFF9B4E4E4F4D4D4E
310
4DC9FFFFFFFFFFFFFFFFFFFFFFFFBA4E4E4E4E4D4E4EFFFFFFFFC94E4E4E4F4E
310
4E4E4D4E4E5A807F9CD9FFFFFFFFFFFFFF9B5B2617171716174E8DEAFFFFFFFF
310
0000000000000000000000000000000000000000000000000000000000000000
  1
OLE
  0
ENDSEC
  0
SECTION
  2
OBJECTS
  0
DICTIONARY
  5
C
330
0
100
AcDbDictionary
281
     1
  3
ACAD_GROUP
350
D
  3
ACAD_LAYOUT
350
1A
  3
ACAD_MLINESTYLE
350
17
  3
ACAD_PLOTSETTINGS
350
19
  3
ACAD_PLOTSTYLENAME
350
E
  3
ACAD_SCALELIST
350
47
  0
DICTIONARY
  5
D
102
{ACAD_REACTORS
330
C
102
}
330
C
100
AcDbDictionary
281
     1
  0
DICTIONARY
  5
1A
102
{ACAD_REACTORS
330
C
102
}
330
C
100
AcDbDictionary
281
     1
  3
Layout1
350
1E
  3
Layout2
350
26
  3
Model
350
22
  0
DICTIONARY
  5
17
102
{ACAD_REACTORS
330
C
102
}
330
C
100
AcDbDictionary
281
     1
  3
Standard
350
18
  0
DICTIONARY
  5
19
102
{ACAD_REACTORS
330
C
102
}
330
C
100
AcDbDictionary
281
     1
  0
ACDBDICTIONARYWDFLT
  5
E
102
{ACAD_REACTORS
330
C
102
}
330
C
100
AcDbDictionary
281
     1
  3
Normal
350
F
100
AcDbDictionaryWithDefault
340
F
  0
DICTIONARY
  5
47
102
{ACAD_REACTORS
330
C
102
}
330
C
100
AcDbDictionary
281
     1
  3
A0
350
48
  3
A1
350
49
  3
A2
350
4A
  3
A3
350
4B
  3
A4
350
4C
  3
A5
350
4D
  3
A6
350
4E
  3
A7
350
4F
  3
A8
350
50
  3
A9
350
51
  3
B0
350
52
  3
B1
350
53
  3
B2
350
54
  3
B3
350
55
  3
B4
350
56
  3
B5
350
57
  3
B6
350
58
  3
B7
350
59
  3
B8
350
5A
  3
B9
350
5B
  3
C0
350
5C
  3
C1
350
5D
  3
C2
350
5E
  3
C3
350
5F
  3
C4
350
60
  3
C5
350
61
  3
C6
350
62
  3
C7
350
63
  3
C8
350
64
  3
C9
350
65
  3
D0
350
66
  3
D1
350
67
  3
D2
350
68
  0
LAYOUT
  5
1E
102
{ACAD_REACTORS
330
1A
102
}
330
1A
100
AcDbPlotSettings
  1

  2
none_device
  4

  6

 40
0.0
 41
0.0
 42
0.0
 43
0.0
 44
0.0
 45
0.0
 46
0.0
 47
0.0
 48
0.0
 49
0.0
140
0.0
141
0.0
142
1.0
143
1.0
 70
   688
 72
     0
 73
     0
 74
     5
  7

 75
    16
147
1.0
148
0.0
149
0.0
100
AcDbLayout
  1
Layout1
 70
     1
 71
     1
 10
0.0
 20
0.0
 11
12.0
 21
9.0
 12
0.0
 22
0.0
 32
0.0
 14
1.0000000000E+20
 24
1.0000000000E+20
 34
1.0000000000E+20
 15
-1.0000000000E+20
 25
-1.0000000000E+20
 35
-1.0000000000E+20
146
0.0
 13
0.0
 23
0.0
 33
0.0
 16
1.0
 26
0.0
 36
0.0
 17
0.0
 27
1.0
 37
0.0
 76
     0
330
1B
  0
LAYOUT
  5
26
102
{ACAD_REACTORS
330
1A
102
}
330
1A
100
AcDbPlotSettings
  1

  2
none_device
  4

  6

 40
0.0
 41
0.0
 42
0.0
 43
0.0
 44
0.0
 45
0.0
 46
0.0
 47
0.0
 48
0.0
 49
0.0
140
0.0
141
0.0
142
1.0
143
1.0
 70
   688
 72
     0
 73
     0
 74
     5
  7

 75
    16
147
1.0
148
0.0
149
0.0
100
AcDbLayout
  1
Layout2
 70
     1
 71
     2
 10
0.0
 20
0.0
 11
0.0
 21
0.0
 12
0.0
 22
0.0
 32
0.0
 14
0.0
 24
0.0
 34
0.0
 15
0.0
 25
0.0
 35
0.0
146
0.0
 13
0.0
 23
0.0
 33
0.0
 16
1.0
 26
0.0
 36
0.0
 17
0.0
 27
1.0
 37
0.0
 76
     0
330
23
  0
LAYOUT
  5
22
102
{ACAD_REACTORS
330
1A
102
}
330
1A
100
AcDbPlotSettings
  1

  2
none_device
  4
Letter_(8.50_x_11.00_Inches)
  6

 40
6.35
 41
6.35
 42
6.35000508
 43
6.35000508
 44
215.9
 45
279.4
 46
0.0
 47
0.0
 48
0.0
 49
0.0
140
0.0
141
0.0
142
1.0
143
1.0
 70
  1712
 72
     0
 73
     0
 74
     0
  7

 75
     0
147
1.0
148
0.0
149
0.0
100
AcDbLayout
  1
Model
 70
     1
 71
     0
 10
0.0
 20
0.0
 11
11.0
 21
8.5
 12
0.0
 22
0.0
 32
0.0
 14
0.0
 24
0.0
 34
0.0
 15
11.0
 25
8.5
 35
0.0
146
0.0
 13
0.0
 23
0.0
 33
0.0
 16
1.0
 26
0.0
 36
0.0
 17
0.0
 27
1.0
 37
0.0
 76
     0
330
1F
331
29
  0
MLINESTYLE
  5
18
102
{ACAD_REACTORS
330
17
102
}
330
17
100
AcDbMlineStyle
  2
Standard
 70
     0
  3

 62
   256
 51
90.0
 52
90.0
 71
     2
 49
0.5
 62
   256
  6
BYLAYER
 49
-0.5
 62
   256
  6
BYLAYER
  0
ACDBPLACEHOLDER
  5
F
102
{ACAD_REACTORS
330
E
102
}
330
E
  0
SCALE
  5
48
102
{ACAD_REACTORS
330
47
102
}
330
47
100
AcDbScale
 70
     0
300
1:1
140
1.0
141
1.0
290
     1
  0
SCALE
  5
49
102
{ACAD_REACTORS
330
47
102
}
330
47
100
AcDbScale
 70
     0
300
1:2
140
1.0
141
2.0
290
     0
  0
SCALE
  5
4A
102
{ACAD_REACTORS
330
47
102
}
330
47
100
AcDbScale
 70
     0
300
1:4
140
1.0
141
4.0
290
     0
  0
SCALE
  5
4B
102
{ACAD_REACTORS
330
47
102
}
330
47
100
AcDbScale
 70
     0
300
1:5
140
1.0
141
5.0
290
     0
  0
SCALE
  5
4C
102
{ACAD_REACTORS
330
47
102
}
330
47
100
AcDbScale
 70
     0
300
1:8
140
1.0
141
8.0
290
     0
  0
SCALE
  5
4D
102
{ACAD_REACTORS
330
47
102
}
330
47
100
AcDbScale
 70
     0
300
1:10
140
1.0
141
10.0
290
     0
  0
SCALE
  5
4E
102
{ACAD_REACTORS
330
47
102
}
330
47
100
AcDbScale
 70
     0
300
1:16
140
1.0
141
16.0
290
     0
  0
SCALE
  5
4F
102
{ACAD_REACTORS
330
47
102
}
330
47
100
AcDbScale
 70
     0
300
1:20
140
1.0
141
20.0
290
     0
  0
SCALE
  5
50
102
{ACAD_REACTORS
330
47
102
}
330
47
100
AcDbScale
 70
     0
300
1:30
140
1.0
141
30.0
290
     0
  0
SCALE
  5
51
102
{ACAD_REACTORS
330
47
102
}
330
47
100
AcDbScale
 70
     0
300
1:40
140
1.0
141
40.0
290
     0
  0
SCALE
  5
52
102
{ACAD_REACTORS
330
47
102
}
330
47
100
AcDbScale
 70
     0
300
1:50
140
1.0
141
50.0
290
     0
  0
SCALE
  5
53
102
{ACAD_REACTORS
330
47
102
}
330
47
100
AcDbScale
 70
     0
300
1:100
140
1.0
141
100.0
290
     0
  0
SCALE
  5
54
102
{ACAD_REACTORS
330
47
102
}
330
47
100
AcDbScale
 70
     0
300
2:1
140
2.0
141
1.0
290
     0
  0
SCALE
  5
55
102
{ACAD_REACTORS
330
47
102
}
330
47
100
AcDbScale
 70
     0
300
4:1
140
4.0
141
1.0
290
     0
  0
SCALE
  5
56
102
{ACAD_REACTORS
330
47
102
}
330
47
100
AcDbScale
 70
     0
300
8:1
140
8.0
141
1.0
290
     0
  0
SCALE
  5
57
102
{ACAD_REACTORS
330
47
102
}
330
47
100
AcDbScale
 70
     0
300
10:1
140
10.0
141
1.0
290
     0
  0
SCALE
  5
58
102
{ACAD_REACTORS
330
47
102
}
330
47
100
AcDbScale
 70
     0
300
100:1
140
100.0
141
1.0
290
     0
  0
SCALE
  5
59
102
{ACAD_REACTORS
330
47
102
}
330
47
100
AcDbScale
 70
     0
300
1/128" = 1'-0"
140
0.0078125
141
12.0
290
     0
  0
SCALE
  5
5A
102
{ACAD_REACTORS
330
47
102
}
330
47
100
AcDbScale
 70
     0
300
1/64" = 1'-0"
140
0.015625
141
12.0
290
     0
  0
SCALE
  5
5B
102
{ACAD_REACTORS
330
47
102
}
330
47
100
AcDbScale
 70
     0
300
1/32" = 1'-0"
140
0.03125
141
12.0
290
     0
  0
SCALE
  5
5C
102
{ACAD_REACTORS
330
47
102
}
330
47
100
AcDbScale
 70
     0
300
1/16" = 1'-0"
140
0.0625
141
12.0
290
     0
  0
SCALE
  5
5D
102
{ACAD_REACTORS
330
47
102
}
330
47
100
AcDbScale
 70
     0
300
3/32" = 1'-0"
140
0.09375
141
12.0
290
     0
  0
SCALE
  5
5E
102
{ACAD_REACTORS
330
47
102
}
330
47
100
AcDbScale
 70
     0
300
1/8" = 1'-0"
140
0.125
141
12.0
290
     0
  0
SCALE
  5
5F
102
{ACAD_REACTORS
330
47
102
}
330
47
100
AcDbScale
 70
     0
300
3/16" = 1'-0"
140
0.1875
141
12.0
290
     0
  0
SCALE
  5
60
102
{ACAD_REACTORS
330
47
102
}
330
47
100
AcDbScale
 70
     0
300
1/4" = 1'-0"
140
0.25
141
12.0
290
     0
  0
SCALE
  5
61
102
{ACAD_REACTORS
330
47
102
}
330
47
100
AcDbScale
 70
     0
300
3/8" = 1'-0"
140
0.375
141
12.0
290
     0
  0
SCALE
  5
62
102
{ACAD_REACTORS
330
47
102
}
330
47
100
AcDbScale
 70
     0
300
1/2" = 1'-0"
140
0.5
141
12.0
290
     0
  0
SCALE
  5
63
102
{ACAD_REACTORS
330
47
102
}
330
47
100
AcDbScale
 70
     0
300
3/4" = 1'-0"
140
0.75
141
12.0
290
     0
  0
SCALE
  5
64
102
{ACAD_REACTORS
330
47
102
}
330
47
100
AcDbScale
 70
     0
300
1" = 1'-0"
140
1.0
141
12.0
290
     0
  0
SCALE
  5
65
102
{ACAD_REACTORS
330
47
102
}
330
47
100
AcDbScale
 70
     0
300
1-1/2" = 1'-0"
140
1.5
141
12.0
290
     0
  0
SCALE
  5
66
102
{ACAD_REACTORS
330
47
102
}
330
47
100
AcDbScale
 70
     0
300
3" = 1'-0"
140
3.0
141
12.0
290
     0
  0
SCALE
  5
67
102
{ACAD_REACTORS
330
47
102
}
330
47
100
AcDbScale
 70
     0
300
6" = 1'-0"
140
6.0
141
12.0
290
     0
  0
SCALE
  5
68
102
{ACAD_REACTORS
330
47
102
}
330
47
100
AcDbScale
 70
     0
300
1'-0" = 1'-0"
140
12.0
141
12.0
290
     0
  0
ENDSEC
  0
EOF
