  0
SECTION
  2
HEADER
  9
$ACADVER
  1
AC1014
  9
$ACADMAINTVER
 70
     9
  9
$DWGCODEPAGE
  3
ANSI_1252
  9
$INSBASE
 10
0.0
 20
0.0
 30
0.0
  9
$EXTMIN
 10
0.0
 20
0.0
 30
0.0
  9
$EXTMAX
 10
279.4
 20
215.9
 30
0.0
  9
$LIMMIN
 10
0.0
 20
0.0
  9
$LIMMAX
 10
279.4
 20
215.9
  9
$ORTHOMODE
 70
     0
  9
$REGENMODE
 70
     1
  9
$FILLMODE
 70
     1
  9
$QTEXTMODE
 70
     0
  9
$MIRRTEXT
 70
     1
  9
$DRAGMODE
 70
     2
  9
$LTSCALE
 40
1.0
  9
$OSMODE
 70
    37
  9
$ATTMODE
 70
     1
  9
$TEXTSIZE
 40
2.8222222222
  9
$TRACEWID
 40
1.0
  9
$TEXTSTYLE
  7
STANDARD
  9
$CLAYER
  8
0
  9
$CELTYPE
  6
BYLAYER
  9
$CECOLOR
 62
   256
  9
$CELTSCALE
 40
1.0
  9
$DELOBJ
 70
     1
  9
$DISPSILH
 70
     0
  9
$DIMSCALE
 40
1.0
  9
$DIMASZ
 40
3.175
  9
$DIMEXO
 40
1.27
  9
$DIMDLI
 40
3.75
  9
$DIMRND
 40
0.0
  9
$DIMDLE
 40
0.0
  9
$DIMEXE
 40
1.778
  9
$DIMTP
 40
0.0
  9
$DIMTM
 40
0.0
  9
$DIMTXT
 40
2.8222222222
  9
$DIMCEN
 40
2.5
  9
$DIMTSZ
 40
0.0
  9
$DIMTOL
 70
     0
  9
$DIMLIM
 70
     0
  9
$DIMTIH
 70
     1
  9
$DIMTOH
 70
     1
  9
$DIMSE1
 70
     0
  9
$DIMSE2
 70
     0
  9
$DIMTAD
 70
     0
  9
$DIMZIN
 70
     1
  9
$DIMBLK
  1

  9
$DIMASO
 70
     1
  9
$DIMSHO
 70
     1
  9
$DIMPOST
  1

  9
$DIMAPOST
  1

  9
$DIMALT
 70
     0
  9
$DIMALTD
 70
     3
  9
$DIMALTF
 40
0.0393700787
  9
$DIMLFAC
 40
1.0
  9
$DIMTOFL
 70
     1
  9
$DIMTVP
 40
0.0
  9
$DIMTIX
 70
     0
  9
$DIMSOXD
 70
     0
  9
$DIMSAH
 70
     0
  9
$DIMBLK1
  1

  9
$DIMBLK2
  1

  9
$DIMSTYLE
  2
ISO-25
  9
$DIMCLRD
 70
     0
  9
$DIMCLRE
 70
     0
  9
$DIMCLRT
 70
     0
  9
$DIMTFAC
 40
1.0
  9
$DIMGAP
 40
2.54
  9
$DIMJUST
 70
     0
  9
$DIMSD1
 70
     0
  9
$DIMSD2
 70
     0
  9
$DIMTOLJ
 70
     0
  9
$DIMTZIN
 70
     1
  9
$DIMALTZ
 70
     0
  9
$DIMALTTZ
 70
     0
  9
$DIMFIT
 70
     3
  9
$DIMUPT
 70
     0
  9
$DIMUNIT
 70
     2
  9
$DIMDEC
 70
     1
  9
$DIMTDEC
 70
     1
  9
$DIMALTU
 70
     2
  9
$DIMALTTD
 70
     3
  9
$DIMTXSTY
  7
STANDARD
  9
$DIMAUNIT
 70
     0
  9
$LUNITS
 70
     2
  9
$LUPREC
 70
     1
  9
$SKETCHINC
 40
1.0
  9
$FILLETRAD
 40
10.0
  9
$AUNITS
 70
     0
  9
$AUPREC
 70
     0
  9
$MENU
  1
.
  9
$ELEVATION
 40
0.0
  9
$PELEVATION
 40
0.0
  9
$THICKNESS
 40
0.0
  9
$LIMCHECK
 70
     0
  9
$CHAMFERA
 40
0.0
  9
$CHAMFERB
 40
0.0
  9
$CHAMFERC
 40
0.0
  9
$CHAMFERD
 40
0.0
  9
$SKPOLY
 70
     0
  9
$TDCREATE
 40
2457780.442148033
  9
$TDUPDATE
 40
2457780.442193877
  9
$TDINDWG
 40
0.0000000116
  9
$TDUSRTIMER
 40
0.0000000116
  9
$USRTIMER
 70
     1
  9
$ANGBASE
 50
0.0
  9
$ANGDIR
 70
     0
  9
$PDMODE
 70
     0
  9
$PDSIZE
 40
-1.0
  9
$PLINEWID
 40
0.0
  9
$COORDS
 70
     1
  9
$SPLFRAME
 70
     0
  9
$SPLINETYPE
 70
     6
  9
$SPLINESEGS
 70
     8
  9
$ATTDIA
 70
     0
  9
$ATTREQ
 70
     1
  9
$HANDLING
 70
     1
  9
$HANDSEED
  5
4B6
  9
$SURFTAB1
 70
     6
  9
$SURFTAB2
 70
     6
  9
$SURFTYPE
 70
     6
  9
$SURFU
 70
     6
  9
$SURFV
 70
     6
  9
$UCSNAME
  2

  9
$UCSORG
 10
0.0
 20
0.0
 30
0.0
  9
$UCSXDIR
 10
1.0
 20
0.0
 30
0.0
  9
$UCSYDIR
 10
0.0
 20
1.0
 30
0.0
  9
$PUCSNAME
  2

  9
$PUCSORG
 10
0.0
 20
0.0
 30
0.0
  9
$PUCSXDIR
 10
1.0
 20
0.0
 30
0.0
  9
$PUCSYDIR
 10
0.0
 20
1.0
 30
0.0
  9
$USERI1
 70
     0
  9
$USERI2
 70
     0
  9
$USERI3
 70
     0
  9
$USERI4
 70
     0
  9
$USERI5
 70
     0
  9
$USERR1
 40
0.0
  9
$USERR2
 40
0.0
  9
$USERR3
 40
0.0
  9
$USERR4
 40
0.0
  9
$USERR5
 40
0.0
  9
$WORLDVIEW
 70
     1
  9
$SHADEDGE
 70
     3
  9
$SHADEDIF
 70
    70
  9
$TILEMODE
 70
     1
  9
$MAXACTVP
 70
    64
  9
$PINSBASE
 10
0.0
 20
0.0
 30
0.0
  9
$PLIMCHECK
 70
     0
  9
$PEXTMIN
 10
1.0000000000E+20
 20
1.0000000000E+20
 30
1.0000000000E+20
  9
$PEXTMAX
 10
-1.0000000000E+20
 20
-1.0000000000E+20
 30
-1.0000000000E+20
  9
$PLIMMIN
 10
0.0
 20
0.0
  9
$PLIMMAX
 10
420.0
 20
297.0
  9
$UNITMODE
 70
     0
  9
$VISRETAIN
 70
     1
  9
$PLINEGEN
 70
     0
  9
$PSLTSCALE
 70
     1
  9
$TREEDEPTH
 70
  3020
  9
$PICKSTYLE
 70
     1
  9
$CMLSTYLE
  2
STANDARD
  9
$CMLJUST
 70
     0
  9
$CMLSCALE
 40
20.0
  9
$PROXYGRAPHICS
 70
     1
  9
$MEASUREMENT
 70
     1
  0
ENDSEC
  0
SECTION
  2
CLASSES
  0
CLASS
  1
ACDBDICTIONARYWDFLT
  2
AcDbDictionaryWithDefault
  3
ObjectDBX Classes
 90
        0
280
     0
281
     0
  0
CLASS
  1
VISUALSTYLE
  2
AcDbVisualStyle
  3
ObjectDBX Classes
 90
     4095
280
     0
281
     0
  0
CLASS
  1
MATERIAL
  2
AcDbMaterial
  3
ObjectDBX Classes
 90
     1153
280
     0
281
     0
  0
CLASS
  1
SCALE
  2
AcDbScale
  3
ObjectDBX Classes
 90
     1153
280
     0
281
     0
  0
CLASS
  1
SUN
  2
AcDbSun
  3
SCENEOE
 90
     1153
280
     0
281
     0
  0
CLASS
  1
XRECORD
  2
AcDbXrecord
  3
ObjectDBX Classes
 90
        0
280
     0
281
     0
  0
CLASS
  1
LWPOLYLINE
  2
AcDbPolyline
  3
ObjectDBX Classes
 90
        0
280
     0
281
     1
  0
CLASS
  1
HATCH
  2
AcDbHatch
  3
ObjectDBX Classes
 90
        0
280
     0
281
     1
  0
ENDSEC
  0
SECTION
  2
TABLES
  0
TABLE
  2
VPORT
  5
8
330
0
100
AcDbSymbolTable
 70
     1
  0
VPORT
  5
29
330
8
100
AcDbSymbolTableRecord
100
AcDbViewportTableRecord
  2
*ACTIVE
 70
     0
 10
0.0
 20
0.0
 11
1.0
 21
1.0
 12
139.7
 22
107.95
 13
0.0
 23
0.0
 14
10.0
 24
10.0
 15
10.0
 25
10.0
 16
0.0
 26
0.0
 36
1.0
 17
0.0
 27
0.0
 37
0.0
 40
215.9
 41
1.2941176471
 42
50.0
 43
0.0
 44
0.0
 50
0.0
 51
0.0
 71
     0
 72
  2000
 73
     1
 74
     3
 75
     0
 76
     0
 77
     0
 78
     0
  0
ENDTAB
  0
TABLE
  2
LTYPE
  5
5
330
0
100
AcDbSymbolTable
 70
     6
  0
LTYPE
  5
14
330
5
100
AcDbSymbolTableRecord
100
AcDbLinetypeTableRecord
  2
BYBLOCK
 70
     0
  3

 72
    65
 73
     0
 40
0.0
  0
LTYPE
  5
15
330
5
100
AcDbSymbolTableRecord
100
AcDbLinetypeTableRecord
  2
BYLAYER
 70
     0
  3

 72
    65
 73
     0
 40
0.0
  0
LTYPE
  5
16
330
5
100
AcDbSymbolTableRecord
100
AcDbLinetypeTableRecord
  2
CONTINUOUS
 70
     0
  3
Solid line
 72
    65
 73
     0
 40
0.0
  0
LTYPE
  5
6A
330
5
100
AcDbSymbolTableRecord
100
AcDbLinetypeTableRecord
  2
HIDDEN
 70
     0
  3
Hidden __ __ __ __ __ __ __ __ __ __ __ __ __ __
 72
    65
 73
     2
 40
1.905
 49
1.27
 74
     0
 49
-0.635
 74
     0
  0
LTYPE
  5
6B
330
5
100
AcDbSymbolTableRecord
100
AcDbLinetypeTableRecord
  2
PHANTOM
 70
     0
  3
Phantom ______  __  __  ______  __  __  ______
 72
    65
 73
     6
 40
12.7
 49
6.35
 74
     0
 49
-1.27
 74
     0
 49
1.27
 74
     0
 49
-1.27
 74
     0
 49
1.27
 74
     0
 49
-1.27
 74
     0
  0
LTYPE
  5
6C
330
5
100
AcDbSymbolTableRecord
100
AcDbLinetypeTableRecord
  2
CENTER
 70
     0
  3
Center ____ _ ____ _ ____ _ ____ _ ____ _ ____
 72
    65
 73
     4
 40
10.16
 49
6.35
 74
     0
 49
-1.27
 74
     0
 49
1.27
 74
     0
 49
-1.27
 74
     0
  0
LTYPE
  5
6D
330
5
100
AcDbSymbolTableRecord
100
AcDbLinetypeTableRecord
  2
CENTERX2
 70
     0
  3
Center (2x) ________  __  ________  __  _____
 72
    65
 73
     4
 40
20.32
 49
12.7
 74
     0
 49
-2.54
 74
     0
 49
2.54
 74
     0
 49
-2.54
 74
     0
  0
LTYPE
  5
6E
330
5
100
AcDbSymbolTableRecord
100
AcDbLinetypeTableRecord
  2
DOT2
 70
     0
  3
Dot (.5x) ........................................
 72
    65
 73
     2
 40
0.635
 49
0.0
 74
     0
 49
-0.635
 74
     0
  0
ENDTAB
  0
TABLE
  2
LAYER
  5
2
330
0
100
AcDbSymbolTable
 70
     2
  0
LAYER
  5
10
330
2
100
AcDbSymbolTableRecord
100
AcDbLayerTableRecord
  2
0
 70
     0
 62
     7
  6
CONTINUOUS
  0
LAYER
  5
6F
330
2
100
AcDbSymbolTableRecord
100
AcDbLayerTableRecord
  2
FORMAT
 70
     0
 62
     7
  6
CONTINUOUS
  0
ENDTAB
  0
TABLE
  2
STYLE
  5
3
330
0
100
AcDbSymbolTable
 70
     4
  0
STYLE
  5
11
330
3
100
AcDbSymbolTableRecord
100
AcDbTextStyleTableRecord
  2
STANDARD
 70
     0
 40
0.0
 41
1.0
 50
0.0
 71
     0
 42
2.8222222222
  3
txt
  4

  0
STYLE
  5
96
330
3
100
AcDbSymbolTableRecord
100
AcDbTextStyleTableRecord
  2
SLDTEXTSTYLE0
 70
     0
 40
0.0
 41
0.75
 50
0.0
 71
     0
 42
2.8222222222
  3
TXT
  4

  0
STYLE
  5
A1
330
3
100
AcDbSymbolTableRecord
100
AcDbTextStyleTableRecord
  2
SLDTEXTSTYLE1
 70
     0
 40
0.0
 41
0.6
 50
0.0
 71
     0
 42
2.8222222222
  3
TXT
  4

  0
STYLE
  5
149
330
3
100
AcDbSymbolTableRecord
100
AcDbTextStyleTableRecord
  2
SLDTEXTSTYLE2
 70
     0
 40
0.0
 41
0.6964285714
 50
0.0
 71
     0
 42
2.8222222222
  3
TXT
  4

  0
ENDTAB
  0
TABLE
  2
VIEW
  5
6
330
0
100
AcDbSymbolTable
 70
     0
  0
ENDTAB
  0
TABLE
  2
UCS
  5
7
330
0
100
AcDbSymbolTable
 70
     0
  0
ENDTAB
  0
TABLE
  2
APPID
  5
9
330
0
100
AcDbSymbolTable
 70
     1
  0
APPID
  5
12
330
9
100
AcDbSymbolTableRecord
100
AcDbRegAppTableRecord
  2
ACAD
 70
     0
  0
ENDTAB
  0
TABLE
  2
DIMSTYLE
  5
A
330
0
100
AcDbSymbolTable
 70
     5
  0
DIMSTYLE
105
27
330
A
100
AcDbSymbolTableRecord
100
AcDbDimStyleTableRecord
  2
ISO-25
 70
     0
  3

  4

  5

  6

  7

 40
1.0
 41
2.5
 42
0.625
 43
3.75
 44
1.25
 45
0.0
 46
0.0
 47
0.0
 48
0.0
140
2.5
141
2.5
142
0.0
143
0.0393700787
144
1.0
145
0.0
146
1.0
147
0.625
 71
     0
 72
     0
 73
     0
 74
     0
 75
     0
 76
     0
 77
     1
 78
     8
170
     0
171
     3
172
     1
173
     0
174
     0
175
     0
176
     0
177
     0
178
     0
270
     2
271
     2
272
     2
273
     2
274
     3
340
11
275
     0
280
     0
281
     0
282
     0
283
     0
284
     8
285
     0
286
     0
287
     3
288
     0
  0
DIMSTYLE
105
102
102
{ACAD_REACTORS
330
101
330
116
102
}
330
A
100
AcDbSymbolTableRecord
100
AcDbDimStyleTableRecord
  2
SLDDIMSTYLE0
 70
     0
  3

  4

  5

  6

  7

 40
1.0
 41
3.175
 42
0.0625
 43
0.38
 44
0.0
 45
0.000000001
 46
0.0
 47
0.0
 48
0.0
140
2.1166666667
141
0.09
142
0.0
143
0.0393700787
144
1.0
145
0.0
146
1.0
147
0.5291666667
 71
     0
 72
     0
 73
     1
 74
     1
 75
     0
 76
     0
 77
     0
 78
    12
170
     1
171
     2
172
     1
173
     1
174
     0
175
     0
176
     0
177
     0
178
     0
270
     2
271
     1
272
     1
273
     2
274
     2
340
96
275
     0
280
     0
281
     0
282
     0
283
     1
284
    12
285
     0
286
     0
288
     0
  0
DIMSTYLE
105
12B
102
{ACAD_REACTORS
330
12A
330
1BD
330
1D1
330
1E5
330
20E
330
222
330
236
330
32E
330
342
102
}
330
A
100
AcDbSymbolTableRecord
100
AcDbDimStyleTableRecord
  2
SLDDIMSTYLE1
 70
     0
  3

  4

  5

  6

  7

 40
1.0
 41
3.175
 42
0.0625
 43
0.38
 44
0.0
 45
0.000000001
 46
0.0
 47
0.0
 48
0.0
140
2.1166666667
141
0.09
142
0.0
143
0.0393700787
144
1.0
145
0.0
146
1.0
147
0.5291666667
 71
     0
 72
     0
 73
     1
 74
     1
 75
     0
 76
     0
 77
     0
 78
    12
170
     1
171
     2
172
     0
173
     1
174
     0
175
     0
176
     0
177
     0
178
     0
270
     2
271
     1
272
     1
273
     2
274
     2
340
96
275
     0
280
     0
281
     0
282
     0
283
     1
284
    12
285
     0
286
     0
287
     3
288
     0
  0
DIMSTYLE
105
140
330
A
100
AcDbSymbolTableRecord
100
AcDbDimStyleTableRecord
  2
SLDDIMSTYLE2
 70
     0
  3

  4

  5

  6

  7

 40
1.0
 41
3.175
 42
0.0625
 43
0.38
 44
0.0
 45
0.000000001
 46
0.0
 47
0.0
 48
0.0
140
0.18
141
0.09
142
0.0
143
25.4
144
1.0
145
0.0
146
3.175
147
0.0
 71
     0
 72
     0
 73
     1
 74
     1
 75
     0
 76
     0
 77
     0
 78
     0
170
     0
171
     2
172
     0
173
     1
174
     0
175
     0
176
     0
177
     0
178
     0
270
     2
271
     0
272
     0
273
     2
274
     2
340
11
275
     0
280
     0
281
     0
282
     0
283
     1
284
     0
285
     0
286
     0
287
     3
288
     0
  0
DIMSTYLE
105
1FA
102
{ACAD_REACTORS
330
1F9
102
}
330
A
100
AcDbSymbolTableRecord
100
AcDbDimStyleTableRecord
  2
SLDDIMSTYLE3
 70
     0
  3

  4

  5

  6

  7

 40
1.0
 41
3.175
 42
0.0625
 43
0.38
 44
0.0
 45
0.000000001
 46
0.0
 47
0.0
 48
0.0
140
2.1166666667
141
0.09
142
0.0
143
0.0393700787
144
1.0
145
0.0
146
1.0
147
0.5291666667
 71
     0
 72
     0
 73
     1
 74
     1
 75
     0
 76
     0
 77
     0
 78
     4
170
     1
171
     2
172
     0
173
     1
174
     0
175
     0
176
     0
177
     0
178
     0
270
     2
271
     1
272
     1
273
     2
274
     2
340
96
275
     0
280
     0
281
     0
282
     0
283
     1
284
    12
285
     0
286
     0
287
     3
288
     0
  0
ENDTAB
  0
TABLE
  2
BLOCK_RECORD
  5
1
330
0
100
AcDbSymbolTable
 70
    19
  0
BLOCK_RECORD
  5
1F
330
1
100
AcDbSymbolTableRecord
100
AcDbBlockTableRecord
  2
*MODEL_SPACE
  0
BLOCK_RECORD
  5
1B
330
1
100
AcDbSymbolTableRecord
100
AcDbBlockTableRecord
  2
*PAPER_SPACE
  0
BLOCK_RECORD
  5
23
330
1
100
AcDbSymbolTableRecord
100
AcDbBlockTableRecord
  2
*PAPER_SPACE0
  0
BLOCK_RECORD
  5
70
330
1
100
AcDbSymbolTableRecord
100
AcDbBlockTableRecord
  2
THIRD_ANGLE_PROJECTION_BLO
  0
BLOCK_RECORD
  5
A6
330
1
100
AcDbSymbolTableRecord
100
AcDbBlockTableRecord
  2
SW_NOTE_0
  0
BLOCK_RECORD
  5
AC
330
1
100
AcDbSymbolTableRecord
100
AcDbBlockTableRecord
  2
SW_NOTE_1
  0
BLOCK_RECORD
  5
B3
330
1
100
AcDbSymbolTableRecord
100
AcDbBlockTableRecord
  2
SW_NOTE_2
  0
BLOCK_RECORD
  5
103
330
1
100
AcDbSymbolTableRecord
100
AcDbBlockTableRecord
  2
_D
  0
BLOCK_RECORD
  5
117
330
1
100
AcDbSymbolTableRecord
100
AcDbBlockTableRecord
  2
_D_1
  0
BLOCK_RECORD
  5
12C
330
1
100
AcDbSymbolTableRecord
100
AcDbBlockTableRecord
  2
_D_2
  0
BLOCK_RECORD
  5
144
330
1
100
AcDbSymbolTableRecord
100
AcDbBlockTableRecord
  2
SW_NOTE_3
  0
BLOCK_RECORD
  5
1BE
330
1
100
AcDbSymbolTableRecord
100
AcDbBlockTableRecord
  2
_D_3
  0
BLOCK_RECORD
  5
1D2
330
1
100
AcDbSymbolTableRecord
100
AcDbBlockTableRecord
  2
_D_4
  0
BLOCK_RECORD
  5
1E6
330
1
100
AcDbSymbolTableRecord
100
AcDbBlockTableRecord
  2
_D_5
  0
BLOCK_RECORD
  5
1FB
330
1
100
AcDbSymbolTableRecord
100
AcDbBlockTableRecord
  2
_D_6
  0
BLOCK_RECORD
  5
20F
330
1
100
AcDbSymbolTableRecord
100
AcDbBlockTableRecord
  2
_D_7
  0
BLOCK_RECORD
  5
223
330
1
100
AcDbSymbolTableRecord
100
AcDbBlockTableRecord
  2
_D_8
  0
BLOCK_RECORD
  5
237
330
1
100
AcDbSymbolTableRecord
100
AcDbBlockTableRecord
  2
_D_9
  0
BLOCK_RECORD
  5
32F
330
1
100
AcDbSymbolTableRecord
100
AcDbBlockTableRecord
  2
_D_10
  0
BLOCK_RECORD
  5
343
330
1
100
AcDbSymbolTableRecord
100
AcDbBlockTableRecord
  2
_D_11
  0
BLOCK_RECORD
  5
356
330
1
100
AcDbSymbolTableRecord
100
AcDbBlockTableRecord
  2
SW_NOTE_4
  0
ENDTAB
  0
ENDSEC
  0
SECTION
  2
BLOCKS
  0
BLOCK
  5
20
330
1F
100
AcDbEntity
  8
0
100
AcDbBlockBegin
  2
*MODEL_SPACE
 70
     0
 10
0.0
 20
0.0
 30
0.0
  3
*MODEL_SPACE
  1

  0
ENDBLK
  5
21
330
1F
100
AcDbEntity
  8
0
100
AcDbBlockEnd
  0
BLOCK
  5
1C
330
1B
100
AcDbEntity
 67
     1
  8
0
100
AcDbBlockBegin
  2
*PAPER_SPACE
 70
     0
 10
0.0
 20
0.0
 30
0.0
  3
*PAPER_SPACE
  1

  0
ENDBLK
  5
1D
330
1B
100
AcDbEntity
 67
     1
  8
0
100
AcDbBlockEnd
  0
BLOCK
  5
24
330
23
100
AcDbEntity
  8
0
100
AcDbBlockBegin
  2
*PAPER_SPACE0
 70
     0
 10
0.0
 20
0.0
 30
0.0
  3
*PAPER_SPACE0
  1
*PAPER_SPACE0
  0
ENDBLK
  5
25
330
23
100
AcDbEntity
  8
0
100
AcDbBlockEnd
  0
BLOCK
  5
71
330
70
100
AcDbEntity
  8
0
100
AcDbBlockBegin
  2
THIRD_ANGLE_PROJECTION_BLO
 70
     0
 10
0.0
 20
0.0
 30
0.0
  3
THIRD_ANGLE_PROJECTION_BLO
  1
THIRD_ANGLE_PROJECTION_BLO
  0
CIRCLE
  5
73
330
70
100
AcDbEntity
  8
0
  6
CONTINUOUS
 62
     7
100
AcDbCircle
 10
101.4766388944
 20
18.9404083667
 30
0.0
 40
1.768227153674871
  0
CIRCLE
  5
74
330
70
100
AcDbEntity
  8
0
  6
CONTINUOUS
 62
     7
100
AcDbCircle
 10
101.4766388944
 20
18.9404083667
 30
0.0
 40
3.901228248531818
  0
LINE
  5
75
330
70
100
AcDbEntity
  8
0
  6
CENTERX2
 62
     7
100
AcDbLine
 10
110.1367822585
 20
18.9404083667
 30
0.0
 11
119.4527334874
 21
18.9404083667
 31
0.0
  0
LINE
  5
76
330
70
100
AcDbEntity
  8
0
  6
CONTINUOUS
 62
     7
100
AcDbLine
 10
111.0016388944
 20
20.7086355204
 30
0.0
 11
111.0016388944
 21
17.172181213
 31
0.0
  0
LINE
  5
77
330
70
100
AcDbEntity
  8
0
  6
CONTINUOUS
 62
     7
100
AcDbLine
 10
111.0016388944
 20
17.172181213
 30
0.0
 11
118.6216388944
 21
15.1304083667
 31
0.0
  0
LINE
  5
78
330
70
100
AcDbEntity
  8
0
  6
CONTINUOUS
 62
     7
100
AcDbLine
 10
118.6216388944
 20
15.1304083667
 30
0.0
 11
118.6216388944
 21
22.7504083667
 31
0.0
  0
LINE
  5
79
330
70
100
AcDbEntity
  8
0
  6
CONTINUOUS
 62
     7
100
AcDbLine
 10
118.6216388944
 20
22.7504083667
 30
0.0
 11
111.0016388944
 21
20.7086355204
 31
0.0
  0
LINE
  5
7A
330
70
100
AcDbEntity
  8
0
  6
CENTERX2
 62
     7
100
AcDbLine
 10
96.6025854619
 20
18.9404083667
 30
0.0
 11
106.3506923269
 21
18.9404083667
 31
0.0
  0
LINE
  5
7B
330
70
100
AcDbEntity
  8
0
  6
CENTERX2
 62
     7
100
AcDbLine
 10
101.4766388944
 20
23.8144617992
 30
0.0
 11
101.4766388944
 21
14.0663549342
 31
0.0
  0
POINT
  5
7C
330
70
100
AcDbEntity
  8
0
  6
CONTINUOUS
 62
     7
100
AcDbPoint
 10
101.4766388944
 20
18.9404083667
 30
0.0
  0
ENDBLK
  5
72
330
70
100
AcDbEntity
  8
0
100
AcDbBlockEnd
  0
BLOCK
  5
A7
330
A6
100
AcDbEntity
  8
0
100
AcDbBlockBegin
  2
SW_NOTE_0
 70
     0
 10
0.0
 20
0.0
 30
0.0
  3
SW_NOTE_0
  1
SW_NOTE_0
  0
MTEXT
  5
A9
330
A6
100
AcDbEntity
  8
0
  6
CONTINUOUS
 62
     0
100
AcDbMText
 10
19.90725
 20
1.9645392354
 30
0.0
 40
1.524
 41
0.0
 71
     2
 72
     1
  1
VALUES IN PARENTHESIS ARE CALCULATED
  7
SLDTEXTSTYLE0
  0
MTEXT
  5
AA
330
A6
100
AcDbEntity
  8
0
  6
CONTINUOUS
 62
     0
100
AcDbMText
 10
19.8778795174
 20
-0.5594606586
 30
0.0
 40
1.524
 41
0.0
 71
     2
 72
     1
  1
AND MAY CONTAIN ROUNDOFF ERRORS
  7
SLDTEXTSTYLE0
  0
ENDBLK
  5
A8
330
A6
100
AcDbEntity
  8
0
100
AcDbBlockEnd
  0
BLOCK
  5
AD
330
AC
100
AcDbEntity
  8
0
100
AcDbBlockBegin
  2
SW_NOTE_1
 70
     0
 10
0.0
 20
0.0
 30
0.0
  3
SW_NOTE_1
  1
SW_NOTE_1
  0
MTEXT
  5
AF
330
AC
100
AcDbEntity
  8
0
  6
CONTINUOUS
 62
     0
100
AcDbMText
 10
0.0
 20
2.7285267159
 30
0.0
 40
2.1166666667
 41
0.0
 71
     1
 72
     1
  1
DRAWING
  7
SLDTEXTSTYLE0
  0
MTEXT
  5
B0
330
AC
100
AcDbEntity
  8
0
  6
CONTINUOUS
 62
     0
100
AcDbMText
 10
0.0
 20
-0.0936954723
 30
0.0
 40
2.1166666667
 41
0.0
 71
     1
 72
     1
  1
PROJECTION
  7
SLDTEXTSTYLE0
  0
ENDBLK
  5
AE
330
AC
100
AcDbEntity
  8
0
100
AcDbBlockEnd
  0
BLOCK
  5
B4
330
B3
100
AcDbEntity
  8
0
100
AcDbBlockBegin
  2
SW_NOTE_2
 70
     0
 10
0.0
 20
0.0
 30
0.0
  3
SW_NOTE_2
  1
SW_NOTE_2
  0
MTEXT
  5
B6
330
B3
100
AcDbEntity
  8
0
  6
CONTINUOUS
 62
     0
100
AcDbMText
 10
25.052734375
 20
4.0927900738
 30
0.0
 40
3.175
 41
0.0
 71
     2
 72
     1
  1
FOR INFORMATION ONLY
  7
SLDTEXTSTYLE0
  0
MTEXT
  5
B7
330
B3
100
AcDbEntity
  8
0
  6
CONTINUOUS
 62
     0
100
AcDbMText
 10
25.3768468589
 20
-0.1405432084
 30
0.0
 40
3.175
 41
0.0
 71
     2
 72
     1
  1
NOT FOR MANUFACTURING PURPOSES
  7
SLDTEXTSTYLE0
  0
ENDBLK
  5
B5
330
B3
100
AcDbEntity
  8
0
100
AcDbBlockEnd
  0
BLOCK
  5
104
330
103
100
AcDbEntity
  8
0
100
AcDbBlockBegin
  2
_D
 70
     0
 10
0.0
 20
0.0
 30
0.0
  3
_D
  1
_D
  0
SOLID
  5
106
330
103
100
AcDbEntity
  8
0
  6
CONTINUOUS
 62
     7
100
AcDbTrace
 10
69.5334896803
 20
119.27743575
 30
0.0
 11
66.3584896803
 21
119.78543575
 31
0.0
 12
66.3584896803
 22
118.76943575
 32
0.0
 13
66.3584896803
 23
118.76943575
 33
0.0
  0
SOLID
  5
107
330
103
100
AcDbEntity
  8
0
  6
CONTINUOUS
 62
     7
100
AcDbTrace
 10
73.9334896803
 20
119.27743575
 30
0.0
 11
77.1084896803
 21
118.76943575
 31
0.0
 12
77.1084896803
 22
119.78543575
 32
0.0
 13
77.1084896803
 23
119.78543575
 33
0.0
  0
LINE
  5
108
330
103
100
AcDbEntity
  8
0
  6
CONTINUOUS
 62
     7
100
AcDbLine
 10
83.6998676709
 20
119.2774355172
 30
0.0
 11
83.2706547111
 21
119.2774355172
 31
0.0
  0
LINE
  5
109
330
103
100
AcDbEntity
  8
0
  6
CONTINUOUS
 62
     7
100
AcDbLine
 10
83.2706547111
 20
119.2774355172
 30
0.0
 11
83.2706547111
 21
115.9142874407
 31
0.0
  0
LINE
  5
10A
330
103
100
AcDbEntity
  8
0
  6
CONTINUOUS
 62
     7
100
AcDbLine
 10
83.2706547111
 20
115.9142874407
 30
0.0
 11
83.6998676709
 21
115.9142874407
 31
0.0
  0
LINE
  5
10B
330
103
100
AcDbEntity
  8
0
  6
CONTINUOUS
 62
     7
100
AcDbLine
 10
92.5300916601
 20
119.2774355172
 30
0.0
 11
92.9593046198
 21
119.2774355172
 31
0.0
  0
LINE
  5
10C
330
103
100
AcDbEntity
  8
0
  6
CONTINUOUS
 62
     7
100
AcDbLine
 10
92.9593046198
 20
119.2774355172
 30
0.0
 11
92.9593046198
 21
115.9142874407
 31
0.0
  0
LINE
  5
10D
330
103
100
AcDbEntity
  8
0
  6
CONTINUOUS
 62
     7
100
AcDbLine
 10
92.9593046198
 20
115.9142874407
 30
0.0
 11
92.5300916601
 21
115.9142874407
 31
0.0
  0
LINE
  5
10E
330
103
100
AcDbEntity
  8
0
  6
CONTINUOUS
 62
     7
100
AcDbLine
 10
69.5334896803
 20
88.6414219223
 30
0.0
 11
69.5334896803
 21
121.05543575
 31
0.0
  0
LINE
  5
10F
330
103
100
AcDbEntity
  8
0
  6
CONTINUOUS
 62
     7
100
AcDbLine
 10
73.9334896803
 20
100.2023723061
 30
0.0
 11
73.9334896803
 21
121.05543575
 31
0.0
  0
LINE
  5
110
330
103
100
AcDbEntity
  8
0
  6
CONTINUOUS
 62
     7
100
AcDbLine
 10
69.5334896803
 20
119.27743575
 30
0.0
 11
63.1834896803
 21
119.27743575
 31
0.0
  0
LINE
  5
111
330
103
100
AcDbEntity
  8
0
  6
CONTINUOUS
 62
     7
100
AcDbLine
 10
73.9334896803
 20
119.27743575
 30
0.0
 11
80.9595091604
 21
119.27743575
 31
0.0
  0
MTEXT
  5
112
330
103
100
AcDbEntity
  8
0
  6
CONTINUOUS
 62
     7
100
AcDbMText
 10
82.9761832797
 20
122.4351751637
 30
0.0
 40
2.1166666667
 41
0.0
 71
     1
 72
     1
  1

  7
SLDTEXTSTYLE0
  0
MTEXT
  5
113
330
103
100
AcDbEntity
  8
0
  6
CONTINUOUS
 62
     7
100
AcDbMText
 10
83.5151492969
 20
122.4351751637
 30
0.0
 40
2.1166666667
 41
0.0
 71
     1
 72
     1
  1
4.4mm
  7
SLDTEXTSTYLE0
  0
MTEXT
  5
114
330
103
100
AcDbEntity
  8
0
  6
CONTINUOUS
 62
     7
100
AcDbMText
 10
84.2363838923
 20
118.6428140402
 30
0.0
 40
2.1166666667
 41
0.0
 71
     1
 72
     1
  1
0.17in
  7
SLDTEXTSTYLE0
  0
MTEXT
  5
115
330
103
100
AcDbEntity
  8
0
  6
CONTINUOUS
 62
     7
100
AcDbMText
 10
94.8687143468
 20
122.4351751637
 30
0.0
 40
2.1166666667
 41
0.0
 71
     1
 72
     1
  1

  7
SLDTEXTSTYLE0
  0
ENDBLK
  5
105
330
103
100
AcDbEntity
  8
0
100
AcDbBlockEnd
  0
BLOCK
  5
118
330
117
100
AcDbEntity
  8
0
100
AcDbBlockBegin
  2
_D_1
 70
     0
 10
0.0
 20
0.0
 30
0.0
  3
_D_1
  1
_D_1
  0
SOLID
  5
11A
330
117
100
AcDbEntity
  8
0
  6
CONTINUOUS
 62
     7
100
AcDbTrace
 10
52.8514896803
 20
131.3956364509
 30
0.0
 11
49.6764896803
 21
131.9036364509
 31
0.0
 12
49.6764896803
 22
130.8876364509
 32
0.0
 13
49.6764896803
 23
130.8876364509
 33
0.0
  0
SOLID
  5
11B
330
117
100
AcDbEntity
  8
0
  6
CONTINUOUS
 62
     7
100
AcDbTrace
 10
73.9334896803
 20
131.3956364509
 30
0.0
 11
77.1084896803
 21
130.8876364509
 31
0.0
 12
77.1084896803
 22
131.9036364509
 32
0.0
 13
77.1084896803
 23
131.9036364509
 33
0.0
  0
LINE
  5
11C
330
117
100
AcDbEntity
  8
0
  6
CONTINUOUS
 62
     7
100
AcDbLine
 10
58.9773779185
 20
131.3956362181
 30
0.0
 11
58.5481649588
 21
131.3956362181
 31
0.0
  0
LINE
  5
11D
330
117
100
AcDbEntity
  8
0
  6
CONTINUOUS
 62
     7
100
AcDbLine
 10
58.5481649588
 20
131.3956362181
 30
0.0
 11
58.5481649588
 21
128.0324881416
 31
0.0
  0
LINE
  5
11E
330
117
100
AcDbEntity
  8
0
  6
CONTINUOUS
 62
     7
100
AcDbLine
 10
58.5481649588
 20
128.0324881416
 30
0.0
 11
58.9773779185
 21
128.0324881416
 31
0.0
  0
LINE
  5
11F
330
117
100
AcDbEntity
  8
0
  6
CONTINUOUS
 62
     7
100
AcDbLine
 10
67.8076019077
 20
131.3956362181
 30
0.0
 11
68.2368148674
 21
131.3956362181
 31
0.0
  0
LINE
  5
120
330
117
100
AcDbEntity
  8
0
  6
CONTINUOUS
 62
     7
100
AcDbLine
 10
68.2368148674
 20
131.3956362181
 30
0.0
 11
68.2368148674
 21
128.0324881416
 31
0.0
  0
LINE
  5
121
330
117
100
AcDbEntity
  8
0
  6
CONTINUOUS
 62
     7
100
AcDbLine
 10
68.2368148674
 20
128.0324881416
 30
0.0
 11
67.8076019077
 21
128.0324881416
 31
0.0
  0
LINE
  5
122
330
117
100
AcDbEntity
  8
0
  6
CONTINUOUS
 62
     7
100
AcDbLine
 10
52.8514896803
 20
105.4728723061
 30
0.0
 11
52.8514896803
 21
133.1736364509
 31
0.0
  0
LINE
  5
123
330
117
100
AcDbEntity
  8
0
  6
CONTINUOUS
 62
     7
100
AcDbLine
 10
73.9334896803
 20
100.2023723061
 30
0.0
 11
73.9334896803
 21
133.1736364509
 31
0.0
  0
LINE
  5
124
330
117
100
AcDbEntity
  8
0
  6
CONTINUOUS
 62
     7
100
AcDbLine
 10
52.8514896803
 20
131.3956364509
 30
0.0
 11
46.5014896803
 21
131.3956364509
 31
0.0
  0
LINE
  5
125
330
117
100
AcDbEntity
  8
0
  6
CONTINUOUS
 62
     7
100
AcDbLine
 10
73.9334896803
 20
131.3956364509
 30
0.0
 11
80.2834896803
 21
131.3956364509
 31
0.0
  0
MTEXT
  5
126
330
117
100
AcDbEntity
  8
0
  6
CONTINUOUS
 62
     7
100
AcDbMText
 10
58.0381067868
 20
134.5533758645
 30
0.0
 40
2.1166666667
 41
0.0
 71
     1
 72
     1
  1

  7
SLDTEXTSTYLE0
  0
MTEXT
  5
127
330
117
100
AcDbEntity
  8
0
  6
CONTINUOUS
 62
     7
100
AcDbMText
 10
58.0106684912
 20
134.5533758645
 30
0.0
 40
2.1166666667
 41
0.0
 71
     1
 72
     1
  1
21.1mm
  7
SLDTEXTSTYLE0
  0
MTEXT
  5
128
330
117
100
AcDbEntity
  8
0
  6
CONTINUOUS
 62
     7
100
AcDbMText
 10
59.51389414
 20
130.7610147411
 30
0.0
 40
2.1166666667
 41
0.0
 71
     1
 72
     1
  1
0.83in
  7
SLDTEXTSTYLE0
  0
MTEXT
  5
129
330
117
100
AcDbEntity
  8
0
  6
CONTINUOUS
 62
     7
100
AcDbMText
 10
70.3618104037
 20
134.5533758645
 30
0.0
 40
2.1166666667
 41
0.0
 71
     1
 72
     1
  1

  7
SLDTEXTSTYLE0
  0
ENDBLK
  5
119
330
117
100
AcDbEntity
  8
0
100
AcDbBlockEnd
  0
BLOCK
  5
12D
330
12C
100
AcDbEntity
  8
0
100
AcDbBlockBegin
  2
_D_2
 70
     0
 10
0.0
 20
0.0
 30
0.0
  3
_D_2
  1
_D_2
  0
SOLID
  5
12F
330
12C
100
AcDbEntity
  8
0
  6
CONTINUOUS
 62
     7
100
AcDbTrace
 10
61.2334896803
 20
45.8849361777
 30
0.0
 11
64.4084896803
 21
45.3769361777
 31
0.0
 12
64.4084896803
 22
46.3929361777
 32
0.0
 13
64.4084896803
 23
46.3929361777
 33
0.0
  0
SOLID
  5
130
330
12C
100
AcDbEntity
  8
0
  6
CONTINUOUS
 62
     7
100
AcDbTrace
 10
73.9334896803
 20
45.8849361777
 30
0.0
 11
70.7584896803
 21
46.3929361777
 31
0.0
 12
70.7584896803
 22
45.3769361777
 32
0.0
 13
70.7584896803
 23
45.3769361777
 33
0.0
  0
LINE
  5
131
330
12C
100
AcDbEntity
  8
0
  6
CONTINUOUS
 62
     7
100
AcDbLine
 10
44.2895004633
 20
45.8849359449
 30
0.0
 11
43.8602875036
 21
45.8849359449
 31
0.0
  0
LINE
  5
132
330
12C
100
AcDbEntity
  8
0
  6
CONTINUOUS
 62
     7
100
AcDbLine
 10
43.8602875036
 20
45.8849359449
 30
0.0
 11
43.8602875036
 21
42.5217878685
 31
0.0
  0
LINE
  5
133
330
12C
100
AcDbEntity
  8
0
  6
CONTINUOUS
 62
     7
100
AcDbLine
 10
43.8602875036
 20
42.5217878685
 30
0.0
 11
44.2895004633
 21
42.5217878685
 31
0.0
  0
LINE
  5
134
330
12C
100
AcDbEntity
  8
0
  6
CONTINUOUS
 62
     7
100
AcDbLine
 10
53.1197244525
 20
45.8849359449
 30
0.0
 11
53.5489374122
 21
45.8849359449
 31
0.0
  0
LINE
  5
135
330
12C
100
AcDbEntity
  8
0
  6
CONTINUOUS
 62
     7
100
AcDbLine
 10
53.5489374122
 20
45.8849359449
 30
0.0
 11
53.5489374122
 21
42.5217878685
 31
0.0
  0
LINE
  5
136
330
12C
100
AcDbEntity
  8
0
  6
CONTINUOUS
 62
     7
100
AcDbLine
 10
53.5489374122
 20
42.5217878685
 30
0.0
 11
53.1197244525
 21
42.5217878685
 31
0.0
  0
LINE
  5
137
330
12C
100
AcDbEntity
  8
0
  6
CONTINUOUS
 62
     7
100
AcDbLine
 10
61.2334896803
 20
56.1078723061
 30
0.0
 11
61.2334896803
 21
44.1069361777
 31
0.0
  0
LINE
  5
138
330
12C
100
AcDbEntity
  8
0
  6
CONTINUOUS
 62
     7
100
AcDbLine
 10
73.9334896803
 20
71.3733723061
 30
0.0
 11
73.9334896803
 21
44.1069361777
 31
0.0
  0
LINE
  5
139
330
12C
100
AcDbEntity
  8
0
  6
CONTINUOUS
 62
     7
100
AcDbLine
 10
61.2334896803
 20
45.8849361777
 30
0.0
 11
56.0756692378
 21
45.8849361777
 31
0.0
  0
LINE
  5
13A
330
12C
100
AcDbEntity
  8
0
  6
CONTINUOUS
 62
     7
100
AcDbLine
 10
73.9334896803
 20
45.8849361777
 30
0.0
 11
61.2334896803
 21
45.8849361777
 31
0.0
  0
MTEXT
  5
13B
330
12C
100
AcDbEntity
  8
0
  6
CONTINUOUS
 62
     7
100
AcDbMText
 10
43.3502293316
 20
49.0426755914
 30
0.0
 40
2.1166666667
 41
0.0
 71
     1
 72
     1
  1

  7
SLDTEXTSTYLE0
  0
MTEXT
  5
13C
330
12C
100
AcDbEntity
  8
0
  6
CONTINUOUS
 62
     7
100
AcDbMText
 10
43.322791036
 20
49.0426755914
 30
0.0
 40
2.1166666667
 41
0.0
 71
     1
 72
     1
  1
12.7mm
  7
SLDTEXTSTYLE0
  0
MTEXT
  5
13D
330
12C
100
AcDbEntity
  8
0
  6
CONTINUOUS
 62
     7
100
AcDbMText
 10
44.8260166848
 20
45.2503144679
 30
0.0
 40
2.1166666667
 41
0.0
 71
     1
 72
     1
  1
0.50in
  7
SLDTEXTSTYLE0
  0
MTEXT
  5
13E
330
12C
100
AcDbEntity
  8
0
  6
CONTINUOUS
 62
     7
100
AcDbMText
 10
55.6739329485
 20
49.0426755914
 30
0.0
 40
2.1166666667
 41
0.0
 71
     1
 72
     1
  1

  7
SLDTEXTSTYLE0
  0
ENDBLK
  5
12E
330
12C
100
AcDbEntity
  8
0
100
AcDbBlockEnd
  0
BLOCK
  5
145
330
144
100
AcDbEntity
  8
0
100
AcDbBlockBegin
  2
SW_NOTE_3
 70
     0
 10
0.0
 20
0.0
 30
0.0
  3
SW_NOTE_3
  1
SW_NOTE_3
  0
MTEXT
  5
147
330
144
100
AcDbEntity
  8
0
  6
CONTINUOUS
 62
     0
100
AcDbMText
 10
-0.6883483926
 20
3.8993853335
 30
0.0
 40
2.1166666667
 41
0.0
 71
     3
 72
     1
  1
POWER SUPPLY CONNECTION
  7
SLDTEXTSTYLE0
  0
MTEXT
  5
148
330
144
100
AcDbEntity
  8
0
  6
CONTINUOUS
 62
     0
100
AcDbMText
 10
-22.5558653036
 20
1.0771631453
 30
0.0
 40
2.1166666667
 41
0.0
 71
     3
 72
     1
  1
%%p
  7
SLDTEXTSTYLE0
  0
MTEXT
  5
14A
330
144
100
AcDbEntity
  8
0
  6
CONTINUOUS
 62
     0
100
AcDbMText
 10
-1.0249555313
 20
1.0771631453
 30
0.0
 40
2.1166666667
 41
0.0
 71
     3
 72
     1
  1
12 VDC, 200 mA
  7
SLDTEXTSTYLE2
  0
ENDBLK
  5
146
330
144
100
AcDbEntity
  8
0
100
AcDbBlockEnd
  0
BLOCK
  5
1BF
330
1BE
100
AcDbEntity
  8
0
100
AcDbBlockBegin
  2
_D_3
 70
     0
 10
0.0
 20
0.0
 30
0.0
  3
_D_3
  1
_D_3
  0
SOLID
  5
1C1
330
1BE
100
AcDbEntity
  8
0
  6
CONTINUOUS
 62
     7
100
AcDbTrace
 10
145.8651716978
 20
135.3778723061
 30
0.0
 11
149.0401716978
 21
134.8698723061
 31
0.0
 12
149.0401716978
 22
135.8858723061
 32
0.0
 13
149.0401716978
 23
135.8858723061
 33
0.0
  0
SOLID
  5
1C2
330
1BE
100
AcDbEntity
  8
0
  6
CONTINUOUS
 62
     7
100
AcDbTrace
 10
216.0551716978
 20
135.3778723061
 30
0.0
 11
212.8801716978
 21
135.8858723061
 31
0.0
 12
212.8801716978
 22
134.8698723061
 32
0.0
 13
212.8801716978
 23
134.8698723061
 33
0.0
  0
LINE
  5
1C3
330
1BE
100
AcDbEntity
  8
0
  6
CONTINUOUS
 62
     7
100
AcDbLine
 10
176.545059936
 20
135.3778720733
 30
0.0
 11
176.1158469763
 21
135.3778720733
 31
0.0
  0
LINE
  5
1C4
330
1BE
100
AcDbEntity
  8
0
  6
CONTINUOUS
 62
     7
100
AcDbLine
 10
176.1158469763
 20
135.3778720733
 30
0.0
 11
176.1158469763
 21
132.0147239968
 31
0.0
  0
LINE
  5
1C5
330
1BE
100
AcDbEntity
  8
0
  6
CONTINUOUS
 62
     7
100
AcDbLine
 10
176.1158469763
 20
132.0147239968
 30
0.0
 11
176.545059936
 21
132.0147239968
 31
0.0
  0
LINE
  5
1C6
330
1BE
100
AcDbEntity
  8
0
  6
CONTINUOUS
 62
     7
100
AcDbLine
 10
185.3752839252
 20
135.3778720733
 30
0.0
 11
185.8044968849
 21
135.3778720733
 31
0.0
  0
LINE
  5
1C7
330
1BE
100
AcDbEntity
  8
0
  6
CONTINUOUS
 62
     7
100
AcDbLine
 10
185.8044968849
 20
135.3778720733
 30
0.0
 11
185.8044968849
 21
132.0147239968
 31
0.0
  0
LINE
  5
1C8
330
1BE
100
AcDbEntity
  8
0
  6
CONTINUOUS
 62
     7
100
AcDbLine
 10
185.8044968849
 20
132.0147239968
 30
0.0
 11
185.3752839252
 21
132.0147239968
 31
0.0
  0
LINE
  5
1C9
330
1BE
100
AcDbEntity
  8
0
  6
CONTINUOUS
 62
     7
100
AcDbLine
 10
145.8651716978
 20
86.8013906289
 30
0.0
 11
145.8651716978
 21
137.1558723061
 31
0.0
  0
LINE
  5
1CA
330
1BE
100
AcDbEntity
  8
0
  6
CONTINUOUS
 62
     7
100
AcDbLine
 10
216.0551716978
 20
88.7850723061
 30
0.0
 11
216.0551716978
 21
137.1558723061
 31
0.0
  0
LINE
  5
1CB
330
1BE
100
AcDbEntity
  8
0
  6
CONTINUOUS
 62
     7
100
AcDbLine
 10
145.8651716978
 20
135.3778723061
 30
0.0
 11
173.5891146851
 21
135.3778723061
 31
0.0
  0
LINE
  5
1CC
330
1BE
100
AcDbEntity
  8
0
  6
CONTINUOUS
 62
     7
100
AcDbLine
 10
216.0551716978
 20
135.3778723061
 30
0.0
 11
188.3312287105
 21
135.3778723061
 31
0.0
  0
MTEXT
  5
1CD
330
1BE
100
AcDbEntity
  8
0
  6
CONTINUOUS
 62
     7
100
AcDbMText
 10
175.6057888044
 20
138.5356117197
 30
0.0
 40
2.1166666667
 41
0.0
 71
     1
 72
     1
  1

  7
SLDTEXTSTYLE0
  0
MTEXT
  5
1CE
330
1BE
100
AcDbEntity
  8
0
  6
CONTINUOUS
 62
     7
100
AcDbMText
 10
175.5783505087
 20
138.5356117197
 30
0.0
 40
2.1166666667
 41
0.0
 71
     1
 72
     1
  1
70.2mm
  7
SLDTEXTSTYLE0
  0
MTEXT
  5
1CF
330
1BE
100
AcDbEntity
  8
0
  6
CONTINUOUS
 62
     7
100
AcDbMText
 10
177.0815761575
 20
134.7432505962
 30
0.0
 40
2.1166666667
 41
0.0
 71
     1
 72
     1
  1
2.76in
  7
SLDTEXTSTYLE0
  0
MTEXT
  5
1D0
330
1BE
100
AcDbEntity
  8
0
  6
CONTINUOUS
 62
     7
100
AcDbMText
 10
187.9294924212
 20
138.5356117197
 30
0.0
 40
2.1166666667
 41
0.0
 71
     1
 72
     1
  1

  7
SLDTEXTSTYLE0
  0
ENDBLK
  5
1C0
330
1BE
100
AcDbEntity
  8
0
100
AcDbBlockEnd
  0
BLOCK
  5
1D3
330
1D2
100
AcDbEntity
  8
0
100
AcDbBlockBegin
  2
_D_4
 70
     0
 10
0.0
 20
0.0
 30
0.0
  3
_D_4
  1
_D_4
  0
SOLID
  5
1D5
330
1D2
100
AcDbEntity
  8
0
  6
CONTINUOUS
 62
     7
100
AcDbTrace
 10
157.8951716978
 20
49.3778723061
 30
0.0
 11
161.0701716978
 21
48.8698723061
 31
0.0
 12
161.0701716978
 22
49.8858723061
 32
0.0
 13
161.0701716978
 23
49.8858723061
 33
0.0
  0
SOLID
  5
1D6
330
1D2
100
AcDbEntity
  8
0
  6
CONTINUOUS
 62
     7
100
AcDbTrace
 10
211.2351716978
 20
49.3778723061
 30
0.0
 11
208.0601716978
 21
49.8858723061
 31
0.0
 12
208.0601716978
 22
48.8698723061
 32
0.0
 13
208.0601716978
 23
48.8698723061
 33
0.0
  0
LINE
  5
1D7
330
1D2
100
AcDbEntity
  8
0
  6
CONTINUOUS
 62
     7
100
AcDbLine
 10
180.150059936
 20
49.3778720733
 30
0.0
 11
179.7208469763
 21
49.3778720733
 31
0.0
  0
LINE
  5
1D8
330
1D2
100
AcDbEntity
  8
0
  6
CONTINUOUS
 62
     7
100
AcDbLine
 10
179.7208469763
 20
49.3778720733
 30
0.0
 11
179.7208469763
 21
46.0147239968
 31
0.0
  0
LINE
  5
1D9
330
1D2
100
AcDbEntity
  8
0
  6
CONTINUOUS
 62
     7
100
AcDbLine
 10
179.7208469763
 20
46.0147239968
 30
0.0
 11
180.150059936
 21
46.0147239968
 31
0.0
  0
LINE
  5
1DA
330
1D2
100
AcDbEntity
  8
0
  6
CONTINUOUS
 62
     7
100
AcDbLine
 10
188.9802839252
 20
49.3778720733
 30
0.0
 11
189.4094968849
 21
49.3778720733
 31
0.0
  0
LINE
  5
1DB
330
1D2
100
AcDbEntity
  8
0
  6
CONTINUOUS
 62
     7
100
AcDbLine
 10
189.4094968849
 20
49.3778720733
 30
0.0
 11
189.4094968849
 21
46.0147239968
 31
0.0
  0
LINE
  5
1DC
330
1D2
100
AcDbEntity
  8
0
  6
CONTINUOUS
 62
     7
100
AcDbLine
 10
189.4094968849
 20
46.0147239968
 30
0.0
 11
188.9802839252
 21
46.0147239968
 31
0.0
  0
LINE
  5
1DD
330
1D2
100
AcDbEntity
  8
0
  6
CONTINUOUS
 62
     7
100
AcDbLine
 10
157.8951716978
 20
66.1028723061
 30
0.0
 11
157.8951716978
 21
47.5998723061
 31
0.0
  0
LINE
  5
1DE
330
1D2
100
AcDbEntity
  8
0
  6
CONTINUOUS
 62
     7
100
AcDbLine
 10
211.2351716978
 20
66.1028723061
 30
0.0
 11
211.2351716978
 21
47.5998723061
 31
0.0
  0
LINE
  5
1DF
330
1D2
100
AcDbEntity
  8
0
  6
CONTINUOUS
 62
     7
100
AcDbLine
 10
157.8951716978
 20
49.3778723061
 30
0.0
 11
177.1941146851
 21
49.3778723061
 31
0.0
  0
LINE
  5
1E0
330
1D2
100
AcDbEntity
  8
0
  6
CONTINUOUS
 62
     7
100
AcDbLine
 10
211.2351716978
 20
49.3778723061
 30
0.0
 11
191.9362287105
 21
49.3778723061
 31
0.0
  0
MTEXT
  5
1E1
330
1D2
100
AcDbEntity
  8
0
  6
CONTINUOUS
 62
     7
100
AcDbMText
 10
179.2107888044
 20
52.5356117197
 30
0.0
 40
2.1166666667
 41
0.0
 71
     1
 72
     1
  1

  7
SLDTEXTSTYLE0
  0
MTEXT
  5
1E2
330
1D2
100
AcDbEntity
  8
0
  6
CONTINUOUS
 62
     7
100
AcDbMText
 10
179.1833505087
 20
52.5356117197
 30
0.0
 40
2.1166666667
 41
0.0
 71
     1
 72
     1
  1
53.3mm
  7
SLDTEXTSTYLE0
  0
MTEXT
  5
1E3
330
1D2
100
AcDbEntity
  8
0
  6
CONTINUOUS
 62
     7
100
AcDbMText
 10
180.6865761575
 20
48.7432505962
 30
0.0
 40
2.1166666667
 41
0.0
 71
     1
 72
     1
  1
2.10in
  7
SLDTEXTSTYLE0
  0
MTEXT
  5
1E4
330
1D2
100
AcDbEntity
  8
0
  6
CONTINUOUS
 62
     7
100
AcDbMText
 10
191.5344924212
 20
52.5356117197
 30
0.0
 40
2.1166666667
 41
0.0
 71
     1
 72
     1
  1

  7
SLDTEXTSTYLE0
  0
ENDBLK
  5
1D4
330
1D2
100
AcDbEntity
  8
0
100
AcDbBlockEnd
  0
BLOCK
  5
1E7
330
1E6
100
AcDbEntity
  8
0
100
AcDbBlockBegin
  2
_D_5
 70
     0
 10
0.0
 20
0.0
 30
0.0
  3
_D_5
  1
_D_5
  0
SOLID
  5
1E9
330
1E6
100
AcDbEntity
  8
0
  6
CONTINUOUS
 62
     7
100
AcDbTrace
 10
135.8651716978
 20
107.3778723061
 30
0.0
 11
135.3571716978
 21
104.2028723061
 31
0.0
 12
136.3731716978
 22
104.2028723061
 32
0.0
 13
136.3731716978
 23
104.2028723061
 33
0.0
  0
SOLID
  5
1EA
330
1E6
100
AcDbEntity
  8
0
  6
CONTINUOUS
 62
     7
100
AcDbTrace
 10
135.8651716978
 20
64.1978723061
 30
0.0
 11
136.3731716978
 21
67.3728723061
 31
0.0
 12
135.3571716978
 22
67.3728723061
 32
0.0
 13
135.3571716978
 23
67.3728723061
 33
0.0
  0
LINE
  5
1EB
330
1E6
100
AcDbEntity
  8
0
  6
CONTINUOUS
 62
     7
100
AcDbLine
 10
131.450059936
 20
85.7878720733
 30
0.0
 11
131.0208469763
 21
85.7878720733
 31
0.0
  0
LINE
  5
1EC
330
1E6
100
AcDbEntity
  8
0
  6
CONTINUOUS
 62
     7
100
AcDbLine
 10
131.0208469763
 20
85.7878720733
 30
0.0
 11
131.0208469763
 21
82.4247239968
 31
0.0
  0
LINE
  5
1ED
330
1E6
100
AcDbEntity
  8
0
  6
CONTINUOUS
 62
     7
100
AcDbLine
 10
131.0208469763
 20
82.4247239968
 30
0.0
 11
131.450059936
 21
82.4247239968
 31
0.0
  0
LINE
  5
1EE
330
1E6
100
AcDbEntity
  8
0
  6
CONTINUOUS
 62
     7
100
AcDbLine
 10
140.2802839252
 20
85.7878720733
 30
0.0
 11
140.7094968849
 21
85.7878720733
 31
0.0
  0
LINE
  5
1EF
330
1E6
100
AcDbEntity
  8
0
  6
CONTINUOUS
 62
     7
100
AcDbLine
 10
140.7094968849
 20
85.7878720733
 30
0.0
 11
140.7094968849
 21
82.4247239968
 31
0.0
  0
LINE
  5
1F0
330
1E6
100
AcDbEntity
  8
0
  6
CONTINUOUS
 62
     7
100
AcDbLine
 10
140.7094968849
 20
82.4247239968
 30
0.0
 11
140.2802839252
 21
82.4247239968
 31
0.0
  0
LINE
  5
1F1
330
1E6
100
AcDbEntity
  8
0
  6
CONTINUOUS
 62
     7
100
AcDbLine
 10
159.8001716978
 20
107.3778723061
 30
0.0
 11
134.0871716978
 21
107.3778723061
 31
0.0
  0
LINE
  5
1F2
330
1E6
100
AcDbEntity
  8
0
  6
CONTINUOUS
 62
     7
100
AcDbLine
 10
159.8001716978
 20
64.1978723061
 30
0.0
 11
134.0871716978
 21
64.1978723061
 31
0.0
  0
LINE
  5
1F3
330
1E6
100
AcDbEntity
  8
0
  6
CONTINUOUS
 62
     7
100
AcDbLine
 10
135.8651716978
 20
107.3778723061
 30
0.0
 11
135.8651716978
 21
89.5802331968
 31
0.0
  0
LINE
  5
1F4
330
1E6
100
AcDbEntity
  8
0
  6
CONTINUOUS
 62
     7
100
AcDbLine
 10
135.8651716978
 20
64.1978723061
 30
0.0
 11
135.8651716978
 21
81.9955114154
 31
0.0
  0
MTEXT
  5
1F5
330
1E6
100
AcDbEntity
  8
0
  6
CONTINUOUS
 62
     7
100
AcDbMText
 10
130.5107888044
 20
88.9456117197
 30
0.0
 40
2.1166666667
 41
0.0
 71
     1
 72
     1
  1

  7
SLDTEXTSTYLE0
  0
MTEXT
  5
1F6
330
1E6
100
AcDbEntity
  8
0
  6
CONTINUOUS
 62
     7
100
AcDbMText
 10
130.4833505087
 20
88.9456117197
 30
0.0
 40
2.1166666667
 41
0.0
 71
     1
 72
     1
  1
43.2mm
  7
SLDTEXTSTYLE0
  0
MTEXT
  5
1F7
330
1E6
100
AcDbEntity
  8
0
  6
CONTINUOUS
 62
     7
100
AcDbMText
 10
131.9865761575
 20
85.1532505962
 30
0.0
 40
2.1166666667
 41
0.0
 71
     1
 72
     1
  1
1.70in
  7
SLDTEXTSTYLE0
  0
MTEXT
  5
1F8
330
1E6
100
AcDbEntity
  8
0
  6
CONTINUOUS
 62
     7
100
AcDbMText
 10
142.8344924212
 20
88.9456117197
 30
0.0
 40
2.1166666667
 41
0.0
 71
     1
 72
     1
  1

  7
SLDTEXTSTYLE0
  0
ENDBLK
  5
1E8
330
1E6
100
AcDbEntity
  8
0
100
AcDbBlockEnd
  0
BLOCK
  5
1FC
330
1FB
100
AcDbEntity
  8
0
100
AcDbBlockBegin
  2
_D_6
 70
     0
 10
0.0
 20
0.0
 30
0.0
  3
_D_6
  1
_D_6
  0
SOLID
  5
1FE
330
1FB
100
AcDbEntity
  8
0
  6
CONTINUOUS
 62
     7
100
AcDbTrace
 10
123.8651716978
 20
59.3778723061
 30
0.0
 11
124.3731716978
 21
62.5528723061
 31
0.0
 12
123.3571716978
 22
62.5528723061
 32
0.0
 13
123.3571716978
 23
62.5528723061
 33
0.0
  0
SOLID
  5
1FF
330
1FB
100
AcDbEntity
  8
0
  6
CONTINUOUS
 62
     7
100
AcDbTrace
 10
123.8651716978
 20
107.3778723061
 30
0.0
 11
123.3571716978
 21
104.2028723061
 31
0.0
 12
124.3731716978
 22
104.2028723061
 32
0.0
 13
124.3731716978
 23
104.2028723061
 33
0.0
  0
LINE
  5
200
330
1FB
100
AcDbEntity
  8
0
  6
CONTINUOUS
 62
     7
100
AcDbLine
 10
119.450059936
 20
83.3778720733
 30
0.0
 11
119.0208469763
 21
83.3778720733
 31
0.0
  0
LINE
  5
201
330
1FB
100
AcDbEntity
  8
0
  6
CONTINUOUS
 62
     7
100
AcDbLine
 10
119.0208469763
 20
83.3778720733
 30
0.0
 11
119.0208469763
 21
80.0147239968
 31
0.0
  0
LINE
  5
202
330
1FB
100
AcDbEntity
  8
0
  6
CONTINUOUS
 62
     7
100
AcDbLine
 10
119.0208469763
 20
80.0147239968
 30
0.0
 11
119.450059936
 21
80.0147239968
 31
0.0
  0
LINE
  5
203
330
1FB
100
AcDbEntity
  8
0
  6
CONTINUOUS
 62
     7
100
AcDbLine
 10
128.2802839252
 20
83.3778720733
 30
0.0
 11
128.7094968849
 21
83.3778720733
 31
0.0
  0
LINE
  5
204
330
1FB
100
AcDbEntity
  8
0
  6
CONTINUOUS
 62
     7
100
AcDbLine
 10
128.7094968849
 20
83.3778720733
 30
0.0
 11
128.7094968849
 21
80.0147239968
 31
0.0
  0
LINE
  5
205
330
1FB
100
AcDbEntity
  8
0
  6
CONTINUOUS
 62
     7
100
AcDbLine
 10
128.7094968849
 20
80.0147239968
 30
0.0
 11
128.2802839252
 21
80.0147239968
 31
0.0
  0
LINE
  5
206
330
1FB
100
AcDbEntity
  8
0
  6
CONTINUOUS
 62
     7
100
AcDbLine
 10
189.6451716978
 20
59.3778723061
 30
0.0
 11
122.0871716978
 21
59.3778723061
 31
0.0
  0
LINE
  5
207
330
1FB
100
AcDbEntity
  8
0
  6
CONTINUOUS
 62
     7
100
AcDbLine
 10
159.8001716978
 20
107.3778723061
 30
0.0
 11
122.0871716978
 21
107.3778723061
 31
0.0
  0
LINE
  5
208
330
1FB
100
AcDbEntity
  8
0
  6
CONTINUOUS
 62
     7
100
AcDbLine
 10
123.8651716978
 20
59.3778723061
 30
0.0
 11
123.8651716978
 21
79.5855114154
 31
0.0
  0
LINE
  5
209
330
1FB
100
AcDbEntity
  8
0
  6
CONTINUOUS
 62
     7
100
AcDbLine
 10
123.8651716978
 20
107.3778723061
 30
0.0
 11
123.8651716978
 21
87.1702331968
 31
0.0
  0
MTEXT
  5
20A
330
1FB
100
AcDbEntity
  8
0
  6
CONTINUOUS
 62
     7
100
AcDbMText
 10
118.5107888044
 20
86.5356117197
 30
0.0
 40
2.1166666667
 41
0.0
 71
     1
 72
     1
  1

  7
SLDTEXTSTYLE0
  0
MTEXT
  5
20B
330
1FB
100
AcDbEntity
  8
0
  6
CONTINUOUS
 62
     7
100
AcDbMText
 10
118.4833505087
 20
86.5356117197
 30
0.0
 40
2.1166666667
 41
0.0
 71
     1
 72
     1
  1
48.0mm
  7
SLDTEXTSTYLE0
  0
MTEXT
  5
20C
330
1FB
100
AcDbEntity
  8
0
  6
CONTINUOUS
 62
     7
100
AcDbMText
 10
119.9865761575
 20
82.7432505962
 30
0.0
 40
2.1166666667
 41
0.0
 71
     1
 72
     1
  1
1.89in
  7
SLDTEXTSTYLE0
  0
MTEXT
  5
20D
330
1FB
100
AcDbEntity
  8
0
  6
CONTINUOUS
 62
     7
100
AcDbMText
 10
130.8344924212
 20
86.5356117197
 30
0.0
 40
2.1166666667
 41
0.0
 71
     1
 72
     1
  1

  7
SLDTEXTSTYLE0
  0
ENDBLK
  5
1FD
330
1FB
100
AcDbEntity
  8
0
100
AcDbBlockEnd
  0
BLOCK
  5
210
330
20F
100
AcDbEntity
  8
0
100
AcDbBlockBegin
  2
_D_7
 70
     0
 10
0.0
 20
0.0
 30
0.0
  3
_D_7
  1
_D_7
  0
SOLID
  5
212
330
20F
100
AcDbEntity
  8
0
  6
CONTINUOUS
 62
     7
100
AcDbTrace
 10
195.9951716978
 20
117.3778723061
 30
0.0
 11
199.1701716978
 21
116.8698723061
 31
0.0
 12
199.1701716978
 22
117.8858723061
 32
0.0
 13
199.1701716978
 23
117.8858723061
 33
0.0
  0
SOLID
  5
213
330
20F
100
AcDbEntity
  8
0
  6
CONTINUOUS
 62
     7
100
AcDbTrace
 10
211.2351716978
 20
117.3778723061
 30
0.0
 11
208.0601716978
 21
117.8858723061
 31
0.0
 12
208.0601716978
 22
116.8698723061
 32
0.0
 13
208.0601716978
 23
116.8698723061
 33
0.0
  0
LINE
  5
214
330
20F
100
AcDbEntity
  8
0
  6
CONTINUOUS
 62
     7
100
AcDbLine
 10
176.2999917136
 20
117.3778720733
 30
0.0
 11
175.8707787539
 21
117.3778720733
 31
0.0
  0
LINE
  5
215
330
20F
100
AcDbEntity
  8
0
  6
CONTINUOUS
 62
     7
100
AcDbLine
 10
175.8707787539
 20
117.3778720733
 30
0.0
 11
175.8707787539
 21
114.0147239968
 31
0.0
  0
LINE
  5
216
330
20F
100
AcDbEntity
  8
0
  6
CONTINUOUS
 62
     7
100
AcDbLine
 10
175.8707787539
 20
114.0147239968
 30
0.0
 11
176.2999917136
 21
114.0147239968
 31
0.0
  0
LINE
  5
217
330
20F
100
AcDbEntity
  8
0
  6
CONTINUOUS
 62
     7
100
AcDbLine
 10
185.1302157028
 20
117.3778720733
 30
0.0
 11
185.5594286625
 21
117.3778720733
 31
0.0
  0
LINE
  5
218
330
20F
100
AcDbEntity
  8
0
  6
CONTINUOUS
 62
     7
100
AcDbLine
 10
185.5594286625
 20
117.3778720733
 30
0.0
 11
185.5594286625
 21
114.0147239968
 31
0.0
  0
LINE
  5
219
330
20F
100
AcDbEntity
  8
0
  6
CONTINUOUS
 62
     7
100
AcDbLine
 10
185.5594286625
 20
114.0147239968
 30
0.0
 11
185.1302157028
 21
114.0147239968
 31
0.0
  0
LINE
  5
21A
330
20F
100
AcDbEntity
  8
0
  6
CONTINUOUS
 62
     7
100
AcDbLine
 10
195.9951716978
 20
87.0578723061
 30
0.0
 11
195.9951716978
 21
119.1558723061
 31
0.0
  0
LINE
  5
21B
330
20F
100
AcDbEntity
  8
0
  6
CONTINUOUS
 62
     7
100
AcDbLine
 10
211.2351716978
 20
105.4728723061
 30
0.0
 11
211.2351716978
 21
119.1558723061
 31
0.0
  0
LINE
  5
21C
330
20F
100
AcDbEntity
  8
0
  6
CONTINUOUS
 62
     7
100
AcDbLine
 10
195.9951716978
 20
117.3778723061
 30
0.0
 11
188.0861604881
 21
117.3778723061
 31
0.0
  0
LINE
  5
21D
330
20F
100
AcDbEntity
  8
0
  6
CONTINUOUS
 62
     7
100
AcDbLine
 10
211.2351716978
 20
117.3778723061
 30
0.0
 11
195.9951716978
 21
117.3778723061
 31
0.0
  0
MTEXT
  5
21E
330
20F
100
AcDbEntity
  8
0
  6
CONTINUOUS
 62
     7
100
AcDbMText
 10
175.360720582
 20
120.5356117197
 30
0.0
 40
2.1166666667
 41
0.0
 71
     1
 72
     1
  1

  7
SLDTEXTSTYLE0
  0
MTEXT
  5
21F
330
20F
100
AcDbEntity
  8
0
  6
CONTINUOUS
 62
     7
100
AcDbMText
 10
175.3332822863
 20
120.5356117197
 30
0.0
 40
2.1166666667
 41
0.0
 71
     1
 72
     1
  1
15.2mm
  7
SLDTEXTSTYLE0
  0
MTEXT
  5
220
330
20F
100
AcDbEntity
  8
0
  6
CONTINUOUS
 62
     7
100
AcDbMText
 10
176.8365079351
 20
116.7432505962
 30
0.0
 40
2.1166666667
 41
0.0
 71
     1
 72
     1
  1
0.60in
  7
SLDTEXTSTYLE0
  0
MTEXT
  5
221
330
20F
100
AcDbEntity
  8
0
  6
CONTINUOUS
 62
     7
100
AcDbMText
 10
187.6844241988
 20
120.5356117197
 30
0.0
 40
2.1166666667
 41
0.0
 71
     1
 72
     1
  1

  7
SLDTEXTSTYLE0
  0
ENDBLK
  5
211
330
20F
100
AcDbEntity
  8
0
100
AcDbBlockEnd
  0
BLOCK
  5
224
330
223
100
AcDbEntity
  8
0
100
AcDbBlockBegin
  2
_D_8
 70
     0
 10
0.0
 20
0.0
 30
0.0
  3
_D_8
  1
_D_8
  0
SOLID
  5
226
330
223
100
AcDbEntity
  8
0
  6
CONTINUOUS
 62
     7
100
AcDbTrace
 10
195.9951716978
 20
126.3186909749
 30
0.0
 11
199.1701716978
 21
125.8106909749
 31
0.0
 12
199.1701716978
 22
126.8266909749
 32
0.0
 13
199.1701716978
 23
126.8266909749
 33
0.0
  0
SOLID
  5
227
330
223
100
AcDbEntity
  8
0
  6
CONTINUOUS
 62
     7
100
AcDbTrace
 10
216.0551716978
 20
126.3186909749
 30
0.0
 11
212.8801716978
 21
126.8266909749
 31
0.0
 12
212.8801716978
 22
125.8106909749
 32
0.0
 13
212.8801716978
 23
125.8106909749
 33
0.0
  0
LINE
  5
228
330
223
100
AcDbEntity
  8
0
  6
CONTINUOUS
 62
     7
100
AcDbLine
 10
233.640059936
 20
126.3186907421
 30
0.0
 11
233.2108469763
 21
126.3186907421
 31
0.0
  0
LINE
  5
229
330
223
100
AcDbEntity
  8
0
  6
CONTINUOUS
 62
     7
100
AcDbLine
 10
233.2108469763
 20
126.3186907421
 30
0.0
 11
233.2108469763
 21
122.9555426656
 31
0.0
  0
LINE
  5
22A
330
223
100
AcDbEntity
  8
0
  6
CONTINUOUS
 62
     7
100
AcDbLine
 10
233.2108469763
 20
122.9555426656
 30
0.0
 11
233.640059936
 21
122.9555426656
 31
0.0
  0
LINE
  5
22B
330
223
100
AcDbEntity
  8
0
  6
CONTINUOUS
 62
     7
100
AcDbLine
 10
242.4702839252
 20
126.3186907421
 30
0.0
 11
242.8994968849
 21
126.3186907421
 31
0.0
  0
LINE
  5
22C
330
223
100
AcDbEntity
  8
0
  6
CONTINUOUS
 62
     7
100
AcDbLine
 10
242.8994968849
 20
126.3186907421
 30
0.0
 11
242.8994968849
 21
122.9555426656
 31
0.0
  0
LINE
  5
22D
330
223
100
AcDbEntity
  8
0
  6
CONTINUOUS
 62
     7
100
AcDbLine
 10
242.8994968849
 20
122.9555426656
 30
0.0
 11
242.4702839252
 21
122.9555426656
 31
0.0
  0
LINE
  5
22E
330
223
100
AcDbEntity
  8
0
  6
CONTINUOUS
 62
     7
100
AcDbLine
 10
195.9951716978
 20
87.0578723061
 30
0.0
 11
195.9951716978
 21
128.0966909749
 31
0.0
  0
LINE
  5
22F
330
223
100
AcDbEntity
  8
0
  6
CONTINUOUS
 62
     7
100
AcDbLine
 10
216.0551716978
 20
92.1378723061
 30
0.0
 11
216.0551716978
 21
128.0966909749
 31
0.0
  0
LINE
  5
230
330
223
100
AcDbEntity
  8
0
  6
CONTINUOUS
 62
     7
100
AcDbLine
 10
195.9951716978
 20
126.3186909749
 30
0.0
 11
216.0551716978
 21
126.3186909749
 31
0.0
  0
LINE
  5
231
330
223
100
AcDbEntity
  8
0
  6
CONTINUOUS
 62
     7
100
AcDbLine
 10
216.0551716978
 20
126.3186909749
 30
0.0
 11
230.6841146851
 21
126.3186909749
 31
0.0
  0
MTEXT
  5
232
330
223
100
AcDbEntity
  8
0
  6
CONTINUOUS
 62
     7
100
AcDbMText
 10
232.7007888044
 20
129.4764303885
 30
0.0
 40
2.1166666667
 41
0.0
 71
     1
 72
     1
  1

  7
SLDTEXTSTYLE0
  0
MTEXT
  5
233
330
223
100
AcDbEntity
  8
0
  6
CONTINUOUS
 62
     7
100
AcDbMText
 10
232.6733505087
 20
129.4764303885
 30
0.0
 40
2.1166666667
 41
0.0
 71
     1
 72
     1
  1
20.1mm
  7
SLDTEXTSTYLE0
  0
MTEXT
  5
234
330
223
100
AcDbEntity
  8
0
  6
CONTINUOUS
 62
     7
100
AcDbMText
 10
234.1765761575
 20
125.684069265
 30
0.0
 40
2.1166666667
 41
0.0
 71
     1
 72
     1
  1
0.79in
  7
SLDTEXTSTYLE0
  0
MTEXT
  5
235
330
223
100
AcDbEntity
  8
0
  6
CONTINUOUS
 62
     7
100
AcDbMText
 10
245.0244924212
 20
129.4764303885
 30
0.0
 40
2.1166666667
 41
0.0
 71
     1
 72
     1
  1

  7
SLDTEXTSTYLE0
  0
ENDBLK
  5
225
330
223
100
AcDbEntity
  8
0
100
AcDbBlockEnd
  0
BLOCK
  5
238
330
237
100
AcDbEntity
  8
0
100
AcDbBlockBegin
  2
_D_9
 70
     0
 10
0.0
 20
0.0
 30
0.0
  3
_D_9
  1
_D_9
  0
SOLID
  5
23A
330
237
100
AcDbEntity
  8
0
  6
CONTINUOUS
 62
     7
100
AcDbTrace
 10
238.0551716978
 20
59.3778723061
 30
0.0
 11
238.5631716978
 21
62.5528723061
 31
0.0
 12
237.5471716978
 22
62.5528723061
 32
0.0
 13
237.5471716978
 23
62.5528723061
 33
0.0
  0
SOLID
  5
23B
330
237
100
AcDbEntity
  8
0
  6
CONTINUOUS
 62
     7
100
AcDbTrace
 10
238.0551716978
 20
85.7878723061
 30
0.0
 11
237.5471716978
 21
82.6128723061
 31
0.0
 12
238.5631716978
 22
82.6128723061
 32
0.0
 13
238.5631716978
 23
82.6128723061
 33
0.0
  0
LINE
  5
23C
330
237
100
AcDbEntity
  8
0
  6
CONTINUOUS
 62
     7
100
AcDbLine
 10
233.640059936
 20
72.5828720733
 30
0.0
 11
233.2108469763
 21
72.5828720733
 31
0.0
  0
LINE
  5
23D
330
237
100
AcDbEntity
  8
0
  6
CONTINUOUS
 62
     7
100
AcDbLine
 10
233.2108469763
 20
72.5828720733
 30
0.0
 11
233.2108469763
 21
69.2197239968
 31
0.0
  0
LINE
  5
23E
330
237
100
AcDbEntity
  8
0
  6
CONTINUOUS
 62
     7
100
AcDbLine
 10
233.2108469763
 20
69.2197239968
 30
0.0
 11
233.640059936
 21
69.2197239968
 31
0.0
  0
LINE
  5
23F
330
237
100
AcDbEntity
  8
0
  6
CONTINUOUS
 62
     7
100
AcDbLine
 10
242.4702839252
 20
72.5828720733
 30
0.0
 11
242.8994968849
 21
72.5828720733
 31
0.0
  0
LINE
  5
240
330
237
100
AcDbEntity
  8
0
  6
CONTINUOUS
 62
     7
100
AcDbLine
 10
242.8994968849
 20
72.5828720733
 30
0.0
 11
242.8994968849
 21
69.2197239968
 31
0.0
  0
LINE
  5
241
330
237
100
AcDbEntity
  8
0
  6
CONTINUOUS
 62
     7
100
AcDbLine
 10
242.8994968849
 20
69.2197239968
 30
0.0
 11
242.4702839252
 21
69.2197239968
 31
0.0
  0
LINE
  5
242
330
237
100
AcDbEntity
  8
0
  6
CONTINUOUS
 62
     7
100
AcDbLine
 10
202.3451716978
 20
59.3778723061
 30
0.0
 11
239.8331716978
 21
59.3778723061
 31
0.0
  0
LINE
  5
243
330
237
100
AcDbEntity
  8
0
  6
CONTINUOUS
 62
     7
100
AcDbLine
 10
197.2651716978
 20
85.7878723061
 30
0.0
 11
239.8331716978
 21
85.7878723061
 31
0.0
  0
LINE
  5
244
330
237
100
AcDbEntity
  8
0
  6
CONTINUOUS
 62
     7
100
AcDbLine
 10
238.0551716978
 20
59.3778723061
 30
0.0
 11
238.0551716978
 21
68.7905114154
 31
0.0
  0
LINE
  5
245
330
237
100
AcDbEntity
  8
0
  6
CONTINUOUS
 62
     7
100
AcDbLine
 10
238.0551716978
 20
85.7878723061
 30
0.0
 11
238.0551716978
 21
76.3752331968
 31
0.0
  0
MTEXT
  5
246
330
237
100
AcDbEntity
  8
0
  6
CONTINUOUS
 62
     7
100
AcDbMText
 10
232.7007888044
 20
75.7406117197
 30
0.0
 40
2.1166666667
 41
0.0
 71
     1
 72
     1
  1

  7
SLDTEXTSTYLE0
  0
MTEXT
  5
247
330
237
100
AcDbEntity
  8
0
  6
CONTINUOUS
 62
     7
100
AcDbMText
 10
232.6733505087
 20
75.7406117197
 30
0.0
 40
2.1166666667
 41
0.0
 71
     1
 72
     1
  1
26.4mm
  7
SLDTEXTSTYLE0
  0
MTEXT
  5
248
330
237
100
AcDbEntity
  8
0
  6
CONTINUOUS
 62
     7
100
AcDbMText
 10
234.1765761575
 20
71.9482505962
 30
0.0
 40
2.1166666667
 41
0.0
 71
     1
 72
     1
  1
1.04in
  7
SLDTEXTSTYLE0
  0
MTEXT
  5
249
330
237
100
AcDbEntity
  8
0
  6
CONTINUOUS
 62
     7
100
AcDbMText
 10
245.0244924212
 20
75.7406117197
 30
0.0
 40
2.1166666667
 41
0.0
 71
     1
 72
     1
  1

  7
SLDTEXTSTYLE0
  0
ENDBLK
  5
239
330
237
100
AcDbEntity
  8
0
100
AcDbBlockEnd
  0
BLOCK
  5
330
330
32F
100
AcDbEntity
  8
0
100
AcDbBlockBegin
  2
_D_10
 70
     0
 10
0.0
 20
0.0
 30
0.0
  3
_D_10
  1
_D_10
  0
SOLID
  5
332
330
32F
100
AcDbEntity
  8
0
  6
CONTINUOUS
 62
     7
100
AcDbTrace
 10
129.8651716978
 20
196.309014717
 30
0.0
 11
129.3571716978
 21
193.134014717
 31
0.0
 12
130.3731716978
 22
193.134014717
 32
0.0
 13
130.3731716978
 23
193.134014717
 33
0.0
  0
SOLID
  5
333
330
32F
100
AcDbEntity
  8
0
  6
CONTINUOUS
 62
     7
100
AcDbTrace
 10
129.8651716978
 20
177.259014717
 30
0.0
 11
130.3731716978
 21
180.434014717
 31
0.0
 12
129.3571716978
 22
180.434014717
 32
0.0
 13
129.3571716978
 23
180.434014717
 33
0.0
  0
LINE
  5
334
330
32F
100
AcDbEntity
  8
0
  6
CONTINUOUS
 62
     7
100
AcDbLine
 10
125.450059936
 20
186.7840144841
 30
0.0
 11
125.0208469763
 21
186.7840144841
 31
0.0
  0
LINE
  5
335
330
32F
100
AcDbEntity
  8
0
  6
CONTINUOUS
 62
     7
100
AcDbLine
 10
125.0208469763
 20
186.7840144841
 30
0.0
 11
125.0208469763
 21
183.4208664077
 31
0.0
  0
LINE
  5
336
330
32F
100
AcDbEntity
  8
0
  6
CONTINUOUS
 62
     7
100
AcDbLine
 10
125.0208469763
 20
183.4208664077
 30
0.0
 11
125.450059936
 21
183.4208664077
 31
0.0
  0
LINE
  5
337
330
32F
100
AcDbEntity
  8
0
  6
CONTINUOUS
 62
     7
100
AcDbLine
 10
134.2802839252
 20
186.7840144841
 30
0.0
 11
134.7094968849
 21
186.7840144841
 31
0.0
  0
LINE
  5
338
330
32F
100
AcDbEntity
  8
0
  6
CONTINUOUS
 62
     7
100
AcDbLine
 10
134.7094968849
 20
186.7840144841
 30
0.0
 11
134.7094968849
 21
183.4208664077
 31
0.0
  0
LINE
  5
339
330
32F
100
AcDbEntity
  8
0
  6
CONTINUOUS
 62
     7
100
AcDbLine
 10
134.7094968849
 20
183.4208664077
 30
0.0
 11
134.2802839252
 21
183.4208664077
 31
0.0
  0
LINE
  5
33A
330
32F
100
AcDbEntity
  8
0
  6
CONTINUOUS
 62
     7
100
AcDbLine
 10
159.8001716978
 20
196.309014717
 30
0.0
 11
128.0871716978
 21
196.309014717
 31
0.0
  0
LINE
  5
33B
330
32F
100
AcDbEntity
  8
0
  6
CONTINUOUS
 62
     7
100
AcDbLine
 10
159.8001716978
 20
177.259014717
 30
0.0
 11
128.0871716978
 21
177.259014717
 31
0.0
  0
LINE
  5
33C
330
32F
100
AcDbEntity
  8
0
  6
CONTINUOUS
 62
     7
100
AcDbLine
 10
129.8651716978
 20
196.309014717
 30
0.0
 11
129.8651716978
 21
190.5763756076
 31
0.0
  0
LINE
  5
33D
330
32F
100
AcDbEntity
  8
0
  6
CONTINUOUS
 62
     7
100
AcDbLine
 10
129.8651716978
 20
177.259014717
 30
0.0
 11
129.8651716978
 21
182.9916538263
 31
0.0
  0
MTEXT
  5
33E
330
32F
100
AcDbEntity
  8
0
  6
CONTINUOUS
 62
     7
100
AcDbMText
 10
124.5107888044
 20
189.9417541306
 30
0.0
 40
2.1166666667
 41
0.0
 71
     1
 72
     1
  1

  7
SLDTEXTSTYLE0
  0
MTEXT
  5
33F
330
32F
100
AcDbEntity
  8
0
  6
CONTINUOUS
 62
     7
100
AcDbMText
 10
124.4833505087
 20
189.9417541306
 30
0.0
 40
2.1166666667
 41
0.0
 71
     1
 72
     1
  1
19.1mm
  7
SLDTEXTSTYLE0
  0
MTEXT
  5
340
330
32F
100
AcDbEntity
  8
0
  6
CONTINUOUS
 62
     7
100
AcDbMText
 10
125.9865761575
 20
186.1493930071
 30
0.0
 40
2.1166666667
 41
0.0
 71
     1
 72
     1
  1
0.75in
  7
SLDTEXTSTYLE0
  0
MTEXT
  5
341
330
32F
100
AcDbEntity
  8
0
  6
CONTINUOUS
 62
     7
100
AcDbMText
 10
136.8344924212
 20
189.9417541306
 30
0.0
 40
2.1166666667
 41
0.0
 71
     1
 72
     1
  1

  7
SLDTEXTSTYLE0
  0
ENDBLK
  5
331
330
32F
100
AcDbEntity
  8
0
100
AcDbBlockEnd
  0
BLOCK
  5
344
330
343
100
AcDbEntity
  8
0
100
AcDbBlockBegin
  2
_D_11
 70
     0
 10
0.0
 20
0.0
 30
0.0
  3
_D_11
  1
_D_11
  0
SOLID
  5
346
330
343
100
AcDbEntity
  8
0
  6
CONTINUOUS
 62
     7
100
AcDbTrace
 10
111.8651716978
 20
169.893014717
 30
0.0
 11
112.3731716978
 21
173.068014717
 31
0.0
 12
111.3571716978
 22
173.068014717
 32
0.0
 13
111.3571716978
 23
173.068014717
 33
0.0
  0
SOLID
  5
347
330
343
100
AcDbEntity
  8
0
  6
CONTINUOUS
 62
     7
100
AcDbTrace
 10
111.8651716978
 20
196.309014717
 30
0.0
 11
111.3571716978
 21
193.134014717
 31
0.0
 12
112.3731716978
 22
193.134014717
 32
0.0
 13
112.3731716978
 23
193.134014717
 33
0.0
  0
LINE
  5
348
330
343
100
AcDbEntity
  8
0
  6
CONTINUOUS
 62
     7
100
AcDbLine
 10
107.450059936
 20
183.1010144841
 30
0.0
 11
107.0208469763
 21
183.1010144841
 31
0.0
  0
LINE
  5
349
330
343
100
AcDbEntity
  8
0
  6
CONTINUOUS
 62
     7
100
AcDbLine
 10
107.0208469763
 20
183.1010144841
 30
0.0
 11
107.0208469763
 21
179.7378664077
 31
0.0
  0
LINE
  5
34A
330
343
100
AcDbEntity
  8
0
  6
CONTINUOUS
 62
     7
100
AcDbLine
 10
107.0208469763
 20
179.7378664077
 30
0.0
 11
107.450059936
 21
179.7378664077
 31
0.0
  0
LINE
  5
34B
330
343
100
AcDbEntity
  8
0
  6
CONTINUOUS
 62
     7
100
AcDbLine
 10
116.2802839252
 20
183.1010144841
 30
0.0
 11
116.7094968849
 21
183.1010144841
 31
0.0
  0
LINE
  5
34C
330
343
100
AcDbEntity
  8
0
  6
CONTINUOUS
 62
     7
100
AcDbLine
 10
116.7094968849
 20
183.1010144841
 30
0.0
 11
116.7094968849
 21
179.7378664077
 31
0.0
  0
LINE
  5
34D
330
343
100
AcDbEntity
  8
0
  6
CONTINUOUS
 62
     7
100
AcDbLine
 10
116.7094968849
 20
179.7378664077
 30
0.0
 11
116.2802839252
 21
179.7378664077
 31
0.0
  0
LINE
  5
34E
330
343
100
AcDbEntity
  8
0
  6
CONTINUOUS
 62
     7
100
AcDbLine
 10
179.7391716978
 20
169.893014717
 30
0.0
 11
110.0871716978
 21
169.893014717
 31
0.0
  0
LINE
  5
34F
330
343
100
AcDbEntity
  8
0
  6
CONTINUOUS
 62
     7
100
AcDbLine
 10
159.8001716978
 20
196.309014717
 30
0.0
 11
110.0871716978
 21
196.309014717
 31
0.0
  0
LINE
  5
350
330
343
100
AcDbEntity
  8
0
  6
CONTINUOUS
 62
     7
100
AcDbLine
 10
111.8651716978
 20
169.893014717
 30
0.0
 11
111.8651716978
 21
179.3086538263
 31
0.0
  0
LINE
  5
351
330
343
100
AcDbEntity
  8
0
  6
CONTINUOUS
 62
     7
100
AcDbLine
 10
111.8651716978
 20
196.309014717
 30
0.0
 11
111.8651716978
 21
186.8933756076
 31
0.0
  0
MTEXT
  5
352
330
343
100
AcDbEntity
  8
0
  6
CONTINUOUS
 62
     7
100
AcDbMText
 10
106.5107888044
 20
186.2587541306
 30
0.0
 40
2.1166666667
 41
0.0
 71
     1
 72
     1
  1

  7
SLDTEXTSTYLE0
  0
MTEXT
  5
353
330
343
100
AcDbEntity
  8
0
  6
CONTINUOUS
 62
     7
100
AcDbMText
 10
106.4833505087
 20
186.2587541306
 30
0.0
 40
2.1166666667
 41
0.0
 71
     1
 72
     1
  1
26.4mm
  7
SLDTEXTSTYLE0
  0
MTEXT
  5
354
330
343
100
AcDbEntity
  8
0
  6
CONTINUOUS
 62
     7
100
AcDbMText
 10
107.9865761575
 20
182.4663930071
 30
0.0
 40
2.1166666667
 41
0.0
 71
     1
 72
     1
  1
1.04in
  7
SLDTEXTSTYLE0
  0
MTEXT
  5
355
330
343
100
AcDbEntity
  8
0
  6
CONTINUOUS
 62
     7
100
AcDbMText
 10
118.8344924212
 20
186.2587541306
 30
0.0
 40
2.1166666667
 41
0.0
 71
     1
 72
     1
  1

  7
SLDTEXTSTYLE0
  0
ENDBLK
  5
345
330
343
100
AcDbEntity
  8
0
100
AcDbBlockEnd
  0
BLOCK
  5
357
330
356
100
AcDbEntity
  8
0
100
AcDbBlockBegin
  2
SW_NOTE_4
 70
     0
 10
0.0
 20
0.0
 30
0.0
  3
SW_NOTE_4
  1
SW_NOTE_4
  0
MTEXT
  5
359
330
356
100
AcDbEntity
  8
0
  6
CONTINUOUS
 62
     0
100
AcDbMText
 10
-1.1304629547
 20
3.8569481435
 30
0.0
 40
2.1166666667
 41
0.0
 71
     3
 72
     1
  1
SM1T1 THREADED COUPLER
  7
SLDTEXTSTYLE0
  0
MTEXT
  5
35A
330
356
100
AcDbEntity
  8
0
  6
CONTINUOUS
 62
     0
100
AcDbMText
 10
-0.9173254036
 20
1.0347259553
 30
0.0
 40
2.1166666667
 41
0.0
 71
     3
 72
     1
  1
AND INCLUDED RETAINING RING
  7
SLDTEXTSTYLE0
  0
ENDBLK
  5
358
330
356
100
AcDbEntity
  8
0
100
AcDbBlockEnd
  0
ENDSEC
  0
SECTION
  2
ENTITIES
  0
LINE
  5
7D
330
1F
100
AcDbEntity
  8
0
  6
CONTINUOUS
 62
     7
100
AcDbLine
 10
1.5793501011
 20
214.6453799966
 30
0.0
 11
277.9892068491
 21
214.6453799966
 31
0.0
  0
LINE
  5
7E
330
1F
100
AcDbEntity
  8
0
  6
CONTINUOUS
 62
     7
100
AcDbLine
 10
1.5793501011
 20
214.6453799966
 30
0.0
 11
1.5793501011
 21
0.9031642596
 31
0.0
  0
LINE
  5
7F
330
1F
100
AcDbEntity
  8
0
  6
CONTINUOUS
 62
     7
100
AcDbLine
 10
277.9892068491
 20
0.9031642596
 30
0.0
 11
1.5793501011
 21
0.9031642596
 31
0.0
  0
LINE
  5
80
330
1F
100
AcDbEntity
  8
0
  6
CONTINUOUS
 62
     7
100
AcDbLine
 10
277.9892068491
 20
0.9031642596
 30
0.0
 11
277.9892068491
 21
214.6453799966
 31
0.0
  0
LINE
  5
81
330
1F
100
AcDbEntity
  8
0
  6
CONTINUOUS
 62
     7
100
AcDbLine
 10
215.7427640041
 20
12.2958890132
 30
0.0
 11
171.6327596684
 21
12.2958890132
 31
0.0
  0
LINE
  5
82
330
1F
100
AcDbEntity
  8
0
  6
CONTINUOUS
 62
     7
100
AcDbLine
 10
171.6327596684
 20
12.2958890132
 30
0.0
 11
171.6327596684
 21
26.1661402506
 31
0.0
  0
LINE
  5
83
330
1F
100
AcDbEntity
  8
0
  6
CONTINUOUS
 62
     7
100
AcDbLine
 10
171.6327596684
 20
0.9031642596
 30
0.0
 11
171.6327596684
 21
26.1661402506
 31
0.0
  0
LINE
  5
84
330
1F
100
AcDbEntity
  8
0
  6
CONTINUOUS
 62
     7
100
AcDbLine
 10
215.7427640041
 20
17.1604579552
 30
0.0
 11
277.9892068491
 21
17.1604579552
 31
0.0
  0
LINE
  5
85
330
1F
100
AcDbEntity
  8
0
  6
CONTINUOUS
 62
     7
100
AcDbLine
 10
215.7427640041
 20
35.2394508358
 30
0.0
 11
215.7427640041
 21
0.9031642596
 31
0.0
  0
LINE
  5
86
330
1F
100
AcDbEntity
  8
0
  6
CONTINUOUS
 62
     7
100
AcDbLine
 10
215.7427640041
 20
26.1661402506
 30
0.0
 11
171.6327596684
 21
26.1661402506
 31
0.0
  0
LINE
  5
87
330
1F
100
AcDbEntity
  8
0
  6
CONTINUOUS
 62
     7
100
AcDbLine
 10
215.7427640041
 20
9.1409200612
 30
0.0
 11
277.9892068491
 21
9.1409200612
 31
0.0
  0
LINE
  5
88
330
1F
100
AcDbEntity
  8
0
  6
CONTINUOUS
 62
     7
100
AcDbLine
 10
215.7427640041
 20
16.9216824031
 30
0.0
 11
171.6327596684
 21
16.9216824031
 31
0.0
  0
LINE
  5
89
330
1F
100
AcDbEntity
  8
0
  6
CONTINUOUS
 62
     7
100
AcDbLine
 10
215.7427640041
 20
21.4874005542
 30
0.0
 11
171.6327596684
 21
21.4874005542
 31
0.0
  0
LINE
  5
8A
330
1F
100
AcDbEntity
  8
0
  6
CONTINUOUS
 62
     7
100
AcDbLine
 10
186.1338100705
 20
26.1661402506
 30
0.0
 11
186.1338100705
 21
12.2958890132
 31
0.0
  0
LINE
  5
8B
330
1F
100
AcDbEntity
  8
0
  6
CONTINUOUS
 62
     7
100
AcDbLine
 10
198.2145906188
 20
26.1661402506
 30
0.0
 11
198.2145906188
 21
12.2958890132
 31
0.0
  0
LINE
  5
8C
330
1F
100
AcDbEntity
  8
0
  6
CONTINUOUS
 62
     7
100
AcDbLine
 10
253.7490408369
 20
9.1409200612
 30
0.0
 11
253.7490408369
 21
0.9031642596
 31
0.0
  0
LINE
  5
8D
330
1F
100
AcDbEntity
  8
0
  6
CONTINUOUS
 62
     7
100
AcDbLine
 10
171.6327596684
 20
12.2958890132
 30
0.0
 11
171.6327596684
 21
7.5627342528
 31
0.0
  0
LINE
  5
8E
330
1F
100
AcDbEntity
  8
0
  6
CONTINUOUS
 62
     7
100
AcDbLine
 10
171.6327596684
 20
7.5627342528
 30
0.0
 11
215.7427640041
 21
7.5627342528
 31
0.0
  0
LINE
  5
8F
330
1F
100
AcDbEntity
  8
0
  6
CONTINUOUS
 62
     7
100
AcDbLine
 10
171.6327596684
 20
7.5627342528
 30
0.0
 11
171.6327596684
 21
35.2394508358
 31
0.0
  0
LINE
  5
90
330
1F
100
AcDbEntity
  8
0
  6
CONTINUOUS
 62
     7
100
AcDbLine
 10
171.6327596684
 20
35.2394508358
 30
0.0
 11
215.7427640041
 21
35.2394508358
 31
0.0
  0
LINE
  5
91
330
1F
100
AcDbEntity
  8
0
  6
CONTINUOUS
 62
     7
100
AcDbLine
 10
270.1683598194
 20
17.1604579552
 30
0.0
 11
270.1683598194
 21
9.1409200612
 31
0.0
  0
LINE
  5
92
330
1F
100
AcDbEntity
  8
0
  6
CONTINUOUS
 62
     7
100
AcDbLine
 10
215.7427640041
 20
35.2394508358
 30
0.0
 11
277.9892068491
 21
35.2394508358
 31
0.0
  0
LINE
  5
93
330
1F
100
AcDbEntity
  8
0
  6
CONTINUOUS
 62
     7
100
AcDbLine
 10
277.9892068491
 20
35.2394508358
 30
0.0
 11
277.9892068491
 21
50.0331356147
 31
0.0
  0
LINE
  5
94
330
1F
100
AcDbEntity
  8
0
  6
CONTINUOUS
 62
     7
100
AcDbLine
 10
215.7427640041
 20
24.8927335446
 30
0.0
 11
277.9892068491
 21
24.8927335446
 31
0.0
  0
INSERT
  5
95
330
1F
100
AcDbEntity
  8
0
  6
CONTINUOUS
 62
     7
100
AcDbBlockReference
  2
THIRD_ANGLE_PROJECTION_BLO
 10
117.7262204235
 20
15.5162339489
 30
0.0
 41
0.8
 42
0.8
 43
0.8
  0
MTEXT
  5
97
330
1F
100
AcDbEntity
  8
0
  6
CONTINUOUS
 62
     7
100
AcDbMText
 10
274.1458225539
 20
13.2559386876
 30
0.0
 40
3.175
 41
0.0
 71
     2
 72
     1
  1
A
  7
SLDTEXTSTYLE0
  0
MTEXT
  5
98
330
1F
100
AcDbEntity
  8
0
  6
CONTINUOUS
 62
     7
100
AcDbMText
 10
234.4888957731
 20
5.1306563898
 30
0.0
 40
3.175
 41
0.0
 71
     2
 72
     1
  1
PDA015A
  7
SLDTEXTSTYLE0
  0
MTEXT
  5
99
330
1F
100
AcDbEntity
  8
0
  6
CONTINUOUS
 62
     7
100
AcDbMText
 10
216.4199766059
 20
16.8243178599
 30
0.0
 40
2.1166666667
 41
0.0
 71
     1
 72
     1
  1
MATERIAL
  7
SLDTEXTSTYLE0
  0
MTEXT
  5
9A
330
1F
100
AcDbEntity
  8
0
  6
CONTINUOUS
 62
     7
100
AcDbMText
 10
174.230946566
 20
20.054553926
 30
0.0
 40
1.8520833333
 41
0.0
 71
     1
 72
     1
  1
DRAWN
  7
SLDTEXTSTYLE0
  0
MTEXT
  5
9B
330
1F
100
AcDbEntity
  8
0
  6
CONTINUOUS
 62
     7
100
AcDbMText
 10
172.3960124543
 20
15.5787169747
 30
0.0
 40
1.8520833333
 41
0.0
 71
     1
 72
     1
  1
APPROVAL
  7
SLDTEXTSTYLE0
  0
MTEXT
  5
9C
330
1F
100
AcDbEntity
  8
0
  6
CONTINUOUS
 62
     7
100
AcDbMText
 10
271.7160653675
 20
16.1671746307
 30
0.0
 40
2.1166666667
 41
0.0
 71
     1
 72
     1
  1
REV
  7
SLDTEXTSTYLE0
  0
MTEXT
  5
9D
330
1F
100
AcDbEntity
  8
0
  6
CONTINUOUS
 62
     7
100
AcDbMText
 10
190.2958696448
 20
15.8418778554
 30
0.0
 40
2.1166666667
 41
0.0
 71
     1
 72
     1
  1
JV
  7
SLDTEXTSTYLE0
  0
MTEXT
  5
9E
330
1F
100
AcDbEntity
  8
0
  6
CONTINUOUS
 62
     7
100
AcDbMText
 10
199.8662436873
 20
20.3177148067
 30
0.0
 40
2.1166666667
 41
0.0
 71
     1
 72
     1
  1
01/03/17
  7
SLDTEXTSTYLE0
  0
MTEXT
  5
9F
330
1F
100
AcDbEntity
  8
0
  6
CONTINUOUS
 62
     7
100
AcDbMText
 10
203.6145073853
 20
24.8221395769
 30
0.0
 40
2.1166666667
 41
0.0
 71
     1
 72
     1
  1
DATE
  7
SLDTEXTSTYLE0
  0
MTEXT
  5
A0
330
1F
100
AcDbEntity
  8
0
  6
CONTINUOUS
 62
     7
100
AcDbMText
 10
199.8662436873
 20
15.8418778554
 30
0.0
 40
2.1166666667
 41
0.0
 71
     1
 72
     1
  1
01/03/17
  7
SLDTEXTSTYLE0
  0
MTEXT
  5
A2
330
1F
100
AcDbEntity
  8
0
  6
CONTINUOUS
 62
     7
100
AcDbMText
 10
229.402906477
 20
27.7957480569
 30
0.0
 40
2.1166666667
 41
0.0
 71
     1
 72
     1
  1
w w w . t h o r  l a b s . c o m
  7
SLDTEXTSTYLE1
  0
MTEXT
  5
A3
330
1F
100
AcDbEntity
  8
0
  6
CONTINUOUS
 62
     7
100
AcDbMText
 10
216.7004035316
 20
8.3494791871
 30
0.0
 40
2.1166666667
 41
0.0
 71
     1
 72
     1
  1
ITEM #
  7
SLDTEXTSTYLE0
  0
MTEXT
  5
A4
330
1F
100
AcDbEntity
  8
0
  6
CONTINUOUS
 62
     7
100
AcDbMText
 10
254.5318000914
 20
8.3494791871
 30
0.0
 40
2.1166666667
 41
0.0
 71
     1
 72
     1
  1
APPROX WEIGHT
  7
SLDTEXTSTYLE0
  0
MTEXT
  5
A5
330
1F
100
AcDbEntity
  8
0
  6
CONTINUOUS
 62
     7
100
AcDbMText
 10
243.4273448343
 20
13.8247651814
 30
0.0
 40
3.175
 41
0.0
 71
     2
 72
     1
  1
N/A
  7
SLDTEXTSTYLE0
  0
INSERT
  5
AB
330
1F
100
AcDbEntity
  8
0
  6
CONTINUOUS
 62
     7
100
AcDbBlockReference
  2
SW_NOTE_0
 10
174.8430140051
 20
4.4558554801
 30
0.0
  0
INSERT
  5
B1
330
1F
100
AcDbEntity
  8
0
  6
CONTINUOUS
 62
     7
100
AcDbBlockReference
  2
SW_NOTE_1
 10
174.5483650337
 20
30.4835322715
 30
0.0
  0
MTEXT
  5
B2
330
1F
100
AcDbEntity
  8
0
  6
CONTINUOUS
 62
     7
100
AcDbMText
 10
187.9273588276
 20
24.8221395769
 30
0.0
 40
2.1166666667
 41
0.0
 71
     1
 72
     1
  1
NAME
  7
SLDTEXTSTYLE0
  0
INSERT
  5
B8
330
1F
100
AcDbEntity
  8
0
  6
CONTINUOUS
 62
     7
100
AcDbBlockReference
  2
SW_NOTE_2
 10
58.6204667508
 20
8.1776609732
 30
0.0
  0
MTEXT
  5
B9
330
1F
100
AcDbEntity
  8
0
  6
CONTINUOUS
 62
     7
100
AcDbMText
 10
246.8821873392
 20
22.7968299375
 30
0.0
 40
3.175
 41
0.0
 71
     2
 72
     1
  1
Si AMPLIFIED DETECTOR
  7
SLDTEXTSTYLE0
  0
MTEXT
  5
BA
330
1F
100
AcDbEntity
  8
0
  6
CONTINUOUS
 62
     7
100
AcDbMText
 10
177.6925831922
 20
10.7142101515
 30
0.0
 40
1.5875
 41
0.0
 71
     1
 72
     1
  1
COPYRIGHT © 2017 BY THORLABS
  7
SLDTEXTSTYLE0
  0
MTEXT
  5
BB
330
1F
100
AcDbEntity
  8
0
  6
CONTINUOUS
 62
     7
100
AcDbMText
 10
190.2958696448
 20
20.3177148067
 30
0.0
 40
2.1166666667
 41
0.0
 71
     1
 72
     1
  1
AS
  7
SLDTEXTSTYLE0
  0
MTEXT
  5
BC
330
1F
100
AcDbEntity
  8
0
  6
CONTINUOUS
 62
     7
100
AcDbMText
 10
263.7508728422
 20
5.1306563898
 30
0.0
 40
3.175
 41
0.0
 71
     2
 72
     1
  1
70
  7
SLDTEXTSTYLE0
  0
MTEXT
  5
BD
330
1F
100
AcDbEntity
  8
0
  6
CONTINUOUS
 62
     7
100
AcDbMText
 10
275.6133051828
 20
5.1306563898
 30
0.0
 40
3.175
 41
0.0
 71
     2
 72
     1
  1
g
  7
SLDTEXTSTYLE0
  0
LINE
  5
BE
330
1F
100
AcDbEntity
  8
0
  6
CONTINUOUS
 62
     7
100
AcDbLine
 10
52.8360291921
 20
101.1929723309
 30
0.0
 11
52.8360291921
 21
101.1929723309
 31
0.0
  0
LINE
  5
BF
330
1F
100
AcDbEntity
  8
0
  6
CONTINUOUS
 62
     7
100
AcDbLine
 10
52.8360291921
 20
105.3077725219
 30
0.0
 11
52.8360291921
 21
105.3077725219
 31
0.0
  0
LINE
  5
C0
330
1F
100
AcDbEntity
  8
0
  6
CONTINUOUS
 62
     7
100
AcDbLine
 10
52.8360291921
 20
66.2679707157
 30
0.0
 11
52.8360291921
 21
66.2679707157
 31
0.0
  0
LINE
  5
C1
330
1F
100
AcDbEntity
  8
0
  6
CONTINUOUS
 62
     7
100
AcDbLine
 10
52.8360291921
 20
70.3827717798
 30
0.0
 11
52.8360291921
 21
70.3827717798
 31
0.0
  0
LINE
  5
C2
330
1F
100
AcDbEntity
  8
0
  6
CONTINUOUS
 62
     7
100
AcDbLine
 10
55.9034900345
 20
64.1978716003
 30
0.0
 11
55.9034900345
 21
59.6278717267
 31
0.0
  0
LINE
  5
C3
330
1F
100
AcDbEntity
  8
0
  6
CONTINUOUS
 62
     7
100
AcDbLine
 10
66.5634892486
 20
59.6278717267
 30
0.0
 11
66.5634892486
 21
64.1978716003
 31
0.0
  0
LINE
  5
C4
330
1F
100
AcDbEntity
  8
0
  6
CONTINUOUS
 62
     7
100
AcDbLine
 10
55.9034900345
 20
59.6278717267
 30
0.0
 11
56.1534896098
 21
59.37787122
 31
0.0
  0
LINE
  5
C5
330
1F
100
AcDbEntity
  8
0
  6
CONTINUOUS
 62
     7
100
AcDbLine
 10
66.3134906046
 20
59.37787122
 30
0.0
 11
66.5634892486
 21
59.6278717267
 31
0.0
  0
LINE
  5
C6
330
1F
100
AcDbEntity
  8
0
  6
CONTINUOUS
 62
     7
100
AcDbLine
 10
58.2402547427
 20
81.7313899743
 30
0.0
 11
57.5549317129
 21
81.7313899743
 31
0.0
  0
LINE
  5
C7
330
1F
100
AcDbEntity
  8
0
  6
CONTINUOUS
 62
     7
100
AcDbLine
 10
57.5549317129
 20
79.7313915091
 30
0.0
 11
58.2402547427
 21
79.7313915091
 31
0.0
  0
LINE
  5
C8
330
1F
100
AcDbEntity
  8
0
  6
CONTINUOUS
 62
     7
100
AcDbLine
 10
67.6296095901
 20
79.7313915091
 30
0.0
 11
68.3149326198
 21
79.7313915091
 31
0.0
  0
LINE
  5
C9
330
1F
100
AcDbEntity
  8
0
  6
CONTINUOUS
 62
     7
100
AcDbLine
 10
68.3149326198
 20
81.7313899743
 30
0.0
 11
67.6296095901
 21
81.7313899743
 31
0.0
  0
LINE
  5
CA
330
1F
100
AcDbEntity
  8
0
  6
CONTINUOUS
 62
     7
100
AcDbLine
 10
71.9014893823
 20
72.6433729278
 30
0.0
 11
73.9334899538
 21
72.6433729278
 31
0.0
  0
LINE
  5
CB
330
1F
100
AcDbEntity
  8
0
  6
CONTINUOUS
 62
     7
100
AcDbLine
 10
73.9334899538
 20
98.9323722888
 30
0.0
 11
71.9014893823
 21
98.9323722888
 31
0.0
  0
LINE
  5
CC
330
1F
100
AcDbEntity
  8
0
  6
CONTINUOUS
 62
     7
100
AcDbLine
 10
52.8387896322
 20
65.1503724503
 30
0.0
 11
52.8387896322
 21
65.1503724503
 31
0.0
  0
LINE
  5
CD
330
1F
100
AcDbEntity
  8
0
  6
CONTINUOUS
 62
     7
100
AcDbLine
 10
52.8387896322
 20
65.1503724503
 30
0.0
 11
52.8387896322
 21
67.6903722333
 31
0.0
  0
LINE
  5
CE
330
1F
100
AcDbEntity
  8
0
  6
CONTINUOUS
 62
     7
100
AcDbLine
 10
52.8387896322
 20
67.6903722333
 30
0.0
 11
52.8387896322
 21
103.8853724013
 31
0.0
  0
LINE
  5
CF
330
1F
100
AcDbEntity
  8
0
  6
CONTINUOUS
 62
     7
100
AcDbLine
 10
52.8387896322
 20
106.4253721843
 30
0.0
 11
52.8387896322
 21
106.4253721843
 31
0.0
  0
LINE
  5
D0
330
1F
100
AcDbEntity
  8
0
  6
CONTINUOUS
 62
     7
100
AcDbLine
 10
52.8387896322
 20
103.8853724013
 30
0.0
 11
52.8387896322
 21
106.4253721843
 31
0.0
  0
CIRCLE
  5
D1
330
1F
100
AcDbEntity
  8
0
  6
CONTINUOUS
 62
     7
100
AcDbCircle
 10
57.2964896803
 20
89.0898723061
 30
0.0
 40
1.650000000000012
  0
LINE
  5
D2
330
1F
100
AcDbEntity
  8
0
  6
CONTINUOUS
 62
     7
100
AcDbLine
 10
57.3793299102
 20
87.4409514936
 30
0.0
 11
57.4365764462
 21
87.4458297613
 31
0.0
  0
LINE
  5
D3
330
1F
100
AcDbEntity
  8
0
  6
CONTINUOUS
 62
     7
100
AcDbLine
 10
57.4365764462
 20
87.4458297613
 30
0.0
 11
57.4938239135
 21
87.4507080289
 31
0.0
  0
LINE
  5
D4
330
1F
100
AcDbEntity
  8
0
  6
CONTINUOUS
 62
     7
100
AcDbLine
 10
52.8360291921
 20
105.150850256
 30
0.0
 11
52.8360291921
 21
101.1929723309
 31
0.0
  0
LINE
  5
D5
330
1F
100
AcDbEntity
  8
0
  6
CONTINUOUS
 62
     7
100
AcDbLine
 10
52.8360291921
 20
105.3077725219
 30
0.0
 11
52.8360291921
 21
105.150850256
 31
0.0
  0
LINE
  5
D6
330
1F
100
AcDbEntity
  8
0
  6
CONTINUOUS
 62
     7
100
AcDbLine
 10
52.8360291921
 20
70.2258495139
 30
0.0
 11
52.8360291921
 21
66.2679707157
 31
0.0
  0
LINE
  5
D7
330
1F
100
AcDbEntity
  8
0
  6
CONTINUOUS
 62
     7
100
AcDbLine
 10
52.8360291921
 20
70.3827717798
 30
0.0
 11
52.8360291921
 21
70.2258495139
 31
0.0
  0
CIRCLE
  5
D8
330
1F
100
AcDbEntity
  8
0
  6
CONTINUOUS
 62
     7
100
AcDbCircle
 10
63.0114896803
 20
95.9478723061
 30
0.0
 40
4.649999999999999
  0
CIRCLE
  5
D9
330
1F
100
AcDbEntity
  8
0
  6
CONTINUOUS
 62
     7
100
AcDbCircle
 10
63.0114896803
 20
95.9478723061
 30
0.0
 40
3.936999999999991
  0
SPLINE
  5
DA
330
1F
100
AcDbEntity
  8
0
  6
CONTINUOUS
 62
     7
100
AcDbSpline
210
0.0
220
0.0
230
1.0
 70
    24
 71
     3
 72
    28
 73
    24
 74
     0
 42
0.000000001
 43
0.00000001
 40
0.0
 40
0.0
 40
0.0
 40
0.0
 40
0.0722406037967926
 40
0.1447736951278466
 40
0.2171380928622113
 40
0.2891220520101555
 40
0.3609004370335878
 40
0.3944003163035359
 40
0.4278268511198755
 40
0.4461357417863072
 40
0.4644153616782201
 40
0.4940705943928694
 40
0.5238477330445485
 40
0.5420318105181834
 40
0.5602528730175286
 40
0.592464487062688
 40
0.6247706203611103
 40
0.6793883542463318
 40
0.7342006402633211
 40
0.7892030841097097
 40
0.8440810848439455
 40
0.9220362835495519
 40
0.9999999999999999
 40
0.9999999999999999
 40
0.9999999999999999
 40
0.9999999999999999
 10
65.89824180829416
 20
100.9478723272249
 30
0.0
 10
65.81055611900123
 20
100.9478723272249
 30
0.0
 10
65.6348297188665
 20
100.9478723272249
 30
0.0
 10
65.35332307818048
 20
100.9478723272249
 30
0.0
 10
65.03758530747608
 20
100.9478723272249
 30
0.0
 10
64.6711658441187
 20
100.9478723272249
 30
0.0
 10
64.31759304580055
 20
100.9478723272249
 30
0.0
 10
64.00100764694876
 20
100.9478723272249
 30
0.0
 10
63.7768443398854
 20
100.9478723272249
 30
0.0
 10
63.57005137963856
 20
100.9478723272249
 30
0.0
 10
63.35711978927376
 20
100.9478723272249
 30
0.0
 10
63.07861950351289
 20
100.9478723272249
 30
0.0
 10
62.79145005607449
 20
100.9478723272249
 30
0.0
 10
62.56732901137689
 20
100.9478723272249
 30
0.0
 10
62.35270726438706
 20
100.9478723272249
 30
0.0
 10
62.12254081606221
 20
100.9478723272249
 30
0.0
 10
61.83571883247395
 20
100.9478723272249
 30
0.0
 10
61.53681066352126
 20
100.9478723272249
 30
0.0
 10
61.23826298699129
 20
100.9478723272249
 30
0.0
 10
60.97611814388331
 20
100.9478723272249
 30
0.0
 10
60.70179366572445
 20
100.9478723272249
 30
0.0
 10
60.41323918899319
 20
100.9478723272249
 30
0.0
 10
60.22090888193192
 20
100.9478723272249
 30
0.0
 10
60.12473847496401
 20
100.9478723272249
 30
0.0
  0
SPLINE
  5
DB
330
1F
100
AcDbEntity
  8
0
  6
CONTINUOUS
 62
     7
100
AcDbSpline
210
0.0
220
0.0
230
1.0
 70
     8
 71
     3
 72
    27
 73
    23
 74
     0
 42
0.000000001
 43
0.00000001
 40
0.0
 40
0.0
 40
0.0
 40
0.0
 40
0.0973011125026961
 40
0.1945760671259902
 40
0.2437117886882184
 40
0.2929796843028996
 40
0.3420471533927943
 40
0.3909086089111569
 40
0.4337790137637737
 40
0.4555569095908513
 40
0.4772636203063399
 40
0.5053773593961987
 40
0.5334845094735777
 40
0.5544026482298507
 40
0.5753702751405906
 40
0.6090055227073977
 40
0.6428233097621113
 40
0.6766185917569797
 40
0.7572464248776993
 40
0.8380719252593796
 40
0.9190979962631419
 40
1.0
 40
1.0
 40
1.0
 40
1.0
 10
68.78499161231409
 20
95.9478721479453
 30
0.0
 10
68.72480915237772
 20
96.05211207044795
 30
0.0
 10
68.60446041161633
 20
96.26056389218351
 30
0.0
 10
68.43172722788155
 20
96.55974893489302
 30
0.0
 10
68.28061392717241
 20
96.82147832667944
 30
0.0
 10
68.15631590894486
 20
97.03677454304706
 30
0.0
 10
68.01450388770472
 20
97.28239477800277
 30
0.0
 10
67.85738209616846
 20
97.55454267871703
 30
0.0
 10
67.70864039534327
 20
97.81216594198285
 30
0.0
 10
67.57617935403673
 20
98.04159775762527
 30
0.0
 10
67.45512600796127
 20
98.25126766879893
 30
0.0
 10
67.31133113064404
 20
98.50032916019865
 30
0.0
 10
67.17277261257357
 20
98.74032057959775
 30
0.0
 10
67.05976105053702
 20
98.93605879269836
 30
0.0
 10
66.94927209337887
 20
99.12743216334316
 30
0.0
 10
66.83436368927941
 20
99.32646150319167
 30
0.0
 10
66.71953922008427
 20
99.5253425740803
 30
0.0
 10
66.5696229900741
 20
99.78500342119426
 30
0.0
 10
66.39482265365443
 20
100.0877678880777
 30
0.0
 10
66.20954059546914
 20
100.4086847872871
 30
0.0
 10
66.04664963793905
 20
100.6908200650332
 30
0.0
 10
65.9476858098931
 20
100.8622320177262
 30
0.0
 10
65.89824180829416
 20
100.9478723272249
 30
0.0
  0
SPLINE
  5
DC
330
1F
100
AcDbEntity
  8
0
  6
CONTINUOUS
 62
     7
100
AcDbSpline
210
0.0
220
0.0
230
1.0
 70
     8
 71
     3
 72
    27
 73
    23
 74
     0
 42
0.000000001
 43
0.00000001
 40
0.0
 40
0.0
 40
0.0
 40
0.0
 40
0.0973011016800408
 40
0.1945760511674069
 40
0.2437117816697337
 40
0.2929796783280758
 40
0.3420471287557894
 40
0.3909086081885134
 40
0.4337790139492705
 40
0.455556894630223
 40
0.477263622959255
 40
0.5053773442613134
 40
0.5334845129277392
 40
0.5544026603385311
 40
0.5753702727733585
 40
0.6090055110961923
 40
0.6428233133724235
 40
0.6766185831151519
 40
0.7572464208057136
 40
0.8380719282856007
 40
0.9190979992859846
 40
1.0
 40
1.0
 40
1.0
 40
1.0
 10
65.89824180829416
 20
90.9478727253653
 30
0.0
 10
65.95842426774811
 20
91.05211249320905
 30
0.0
 10
66.07877301106039
 20
91.26056401175751
 30
0.0
 10
66.25150621571643
 20
91.55974868442715
 30
0.0
 10
66.40261948770889
 20
91.82147845557229
 30
0.0
 10
66.52691746906328
 20
92.03677477058906
 30
0.0
 10
66.6687296181624
 20
92.28239425745797
 30
0.0
 10
66.82585129622264
 20
92.5545428420599
 30
0.0
 10
66.97459293049874
 20
92.81216609833189
 30
0.0
 10
67.10705418031812
 20
93.04159766234886
 30
0.0
 10
67.22810726740823
 20
93.25126774418167
 30
0.0
 10
67.37190243711933
 20
93.50032909952246
 30
0.0
 10
67.51046078388404
 20
93.74032065364904
 30
0.0
 10
67.62347230904727
 20
93.93605900180383
 30
0.0
 10
67.73396136407278
 20
94.12743213136449
 30
0.0
 10
67.84886978417003
 20
94.32646126270234
 30
0.0
 10
67.9636941398046
 20
94.52534278547367
 30
0.0
 10
68.11361049646722
 20
94.78500300537041
 30
0.0
 10
68.28841075285152
 20
95.08776784779072
 30
0.0
 10
68.47369282058308
 20
95.40868485924578
 30
0.0
 10
68.63658377922664
 20
95.6908200770461
 30
0.0
 10
68.73554761018399
 20
95.86223190324473
 30
0.0
 10
68.78499161231409
 20
95.9478721479453
 30
0.0
  0
SPLINE
  5
DD
330
1F
100
AcDbEntity
  8
0
  6
CONTINUOUS
 62
     7
100
AcDbSpline
210
0.0
220
0.0
230
1.0
 70
    24
 71
     3
 72
    28
 73
    24
 74
     0
 42
0.000000001
 43
0.00000001
 40
0.0
 40
0.0
 40
0.0
 40
0.0
 40
0.077963716450448
 40
0.1559189151560545
 40
0.2107969158902902
 40
0.2657993597366788
 40
0.3206116457536681
 40
0.3752293796388897
 40
0.407535512937312
 40
0.4397471269824713
 40
0.4579681894818166
 40
0.4761522669554515
 40
0.5059294056071305
 40
0.5355846383217798
 40
0.5538642582136927
 40
0.5721731488801245
 40
0.605599683696464
 40
0.6390995629664121
 40
0.7108779479898444
 40
0.7828619071377886
 40
0.8552263048721532
 40
0.9277593962032072
 40
0.9999999999999999
 40
0.9999999999999999
 40
0.9999999999999999
 40
0.9999999999999999
 10
60.12473847496401
 20
90.9478727253653
 30
0.0
 10
60.22090888193192
 20
90.9478727253653
 30
0.0
 10
60.4132391889932
 20
90.9478727253653
 30
0.0
 10
60.70179366572445
 20
90.9478727253653
 30
0.0
 10
60.97611814388332
 20
90.9478727253653
 30
0.0
 10
61.23826298699129
 20
90.9478727253653
 30
0.0
 10
61.53681066352127
 20
90.9478727253653
 30
0.0
 10
61.83571883247395
 20
90.9478727253653
 30
0.0
 10
62.12254081606222
 20
90.9478727253653
 30
0.0
 10
62.35270726438706
 20
90.9478727253653
 30
0.0
 10
62.56732901137688
 20
90.9478727253653
 30
0.0
 10
62.79145005607449
 20
90.9478727253653
 30
0.0
 10
63.0786195035129
 20
90.9478727253653
 30
0.0
 10
63.35711978927376
 20
90.9478727253653
 30
0.0
 10
63.57005137963856
 20
90.9478727253653
 30
0.0
 10
63.7768443398854
 20
90.9478727253653
 30
0.0
 10
64.00100764694876
 20
90.9478727253653
 30
0.0
 10
64.31759304580055
 20
90.9478727253653
 30
0.0
 10
64.67116584411869
 20
90.9478727253653
 30
0.0
 10
65.03758530747608
 20
90.9478727253653
 30
0.0
 10
65.35332307818047
 20
90.9478727253653
 30
0.0
 10
65.6348297188665
 20
90.9478727253653
 30
0.0
 10
65.81055611900122
 20
90.9478727253653
 30
0.0
 10
65.89824180829416
 20
90.9478727253653
 30
0.0
  0
SPLINE
  5
DE
330
1F
100
AcDbEntity
  8
0
  6
CONTINUOUS
 62
     7
100
AcDbSpline
210
0.0
220
0.0
230
1.0
 70
     8
 71
     3
 72
    27
 73
    23
 74
     0
 42
0.000000001
 43
0.00000001
 40
0.0
 40
0.0
 40
0.0
 40
0.0
 40
0.0973011280510984
 40
0.1945760885496758
 40
0.2437117650601114
 40
0.2929796999811204
 40
0.3420471229055733
 40
0.3909086041789384
 40
0.4337790042666994
 40
0.455556884190519
 40
0.4772635774574571
 40
0.5053774194578328
 40
0.5334845511598026
 40
0.5544026219894246
 40
0.575370233695289
 40
0.6090055587153237
 40
0.6428233598158405
 40
0.6766185804663055
 40
0.7572463970377807
 40
0.8380719173761961
 40
0.9190979855596164
 40
1.0
 40
1.0
 40
1.0
 40
1.0
 10
57.23798680829893
 20
95.9478721479453
 30
0.0
 10
57.29816986851551
 20
95.8436324523915
 30
0.0
 10
57.41851980369552
 20
95.63518109485106
 30
0.0
 10
57.59125475508426
 20
95.33599562148083
 30
0.0
 10
57.74236316112066
 20
95.07426624927258
 30
0.0
 10
57.86666584502825
 20
94.85897052899571
 30
0.0
 10
58.00847331764982
 20
94.61334962237338
 30
0.0
 10
58.16559814184459
 20
94.34120248203152
 30
0.0
 10
58.31433771760551
 20
94.08357819670695
 30
0.0
 10
58.44679917027991
 20
93.8541468415068
 30
0.0
 10
58.56785233242132
 20
93.64447657373708
 30
0.0
 10
58.71164916082103
 20
93.39541589182076
 30
0.0
 10
58.85020826563654
 20
93.15542465133284
 30
0.0
 10
58.96321697865137
 20
92.95968545886556
 30
0.0
 10
59.07370641000207
 20
92.76831260189286
 30
0.0
 10
59.18861690928016
 20
92.56928331890035
 30
0.0
 10
59.30344137676508
 20
92.37040180107188
 30
0.0
 10
59.45335401988623
 20
92.11074105385836
 30
0.0
 10
59.62815631118608
 20
91.80797735664129
 30
0.0
 10
59.81343777991183
 20
91.487059392749
 30
0.0
 10
59.97632833874579
 20
91.20492422522443
 30
0.0
 10
60.07529370214306
 20
91.03351278565827
 30
0.0
 10
60.12473847496401
 20
90.9478727253653
 30
0.0
  0
SPLINE
  5
DF
330
1F
100
AcDbEntity
  8
0
  6
CONTINUOUS
 62
     7
100
AcDbSpline
210
0.0
220
0.0
230
1.0
 70
     8
 71
     3
 72
    27
 73
    23
 74
     0
 42
0.000000001
 43
0.00000001
 40
0.0
 40
0.0
 40
0.0
 40
0.0
 40
0.09730113362725
 40
0.1945760860177486
 40
0.2437117692441707
 40
0.2929797081875022
 40
0.3420471253438931
 40
0.3909086350568582
 40
0.4337789795336927
 40
0.4555568668872372
 40
0.4772635769351104
 40
0.5053774000693828
 40
0.5334845492822934
 40
0.5544026197526802
 40
0.575370246018536
 40
0.6090055132522697
 40
0.6428233021679046
 40
0.6766185805297504
 40
0.7572464140325372
 40
0.8380719094801306
 40
0.9190979762720556
 40
1.0
 40
1.0
 40
1.0
 40
1.0
 10
60.12473847496401
 20
100.9478723272249
 30
0.0
 10
60.06455542066296
 20
100.8436324876574
 30
0.0
 10
59.94420550577549
 20
100.6351808567867
 30
0.0
 10
59.77147048879535
 20
100.3359958894144
 30
0.0
 10
59.6203621533758
 20
100.0742661290332
 30
0.0
 10
59.49605934680407
 20
99.85897027310766
 30
0.0
 10
59.35425232881211
 20
99.6133494508894
 30
0.0
 10
59.19712571820983
 20
99.34120249431048
 30
0.0
 10
59.04838762344038
 20
99.08357829784704
 30
0.0
 10
58.91592604246342
 20
98.85414695244411
 30
0.0
 10
58.79487309610725
 20
98.6444765142512
 30
0.0
 10
58.65107596848801
 20
98.39541596300461
 30
0.0
 10
58.51251708027687
 20
98.15542455035106
 30
0.0
 10
58.39950827927572
 20
97.9596853549383
 30
0.0
 10
58.2890188851056
 20
97.76831235052904
 30
0.0
 10
58.17410937851053
 20
97.56928335019877
 30
0.0
 10
58.05928523116323
 20
97.37040203117719
 30
0.0
 10
57.90936885600635
 20
97.11074135567864
 30
0.0
 10
57.73456863222533
 20
96.80797669235542
 30
0.0
 10
57.54928645512004
 20
96.48705992138066
 30
0.0
 10
57.38639579317648
 20
96.20492474118517
 30
0.0
 10
57.28743119971305
 20
96.0335125762836
 30
0.0
 10
57.23798680829893
 20
95.9478721479453
 30
0.0
  0
CIRCLE
  5
E0
330
1F
100
AcDbEntity
  8
0
  6
CONTINUOUS
 62
     7
100
AcDbCircle
 10
63.0114896803
 20
95.9478723061
 30
0.0
 40
2.794000000000004
  0
CIRCLE
  5
E1
330
1F
100
AcDbEntity
  8
0
  6
CONTINUOUS
 62
     7
100
AcDbCircle
 10
64.7614896803
 20
95.9478723061
 30
0.0
 40
0.5
  0
CIRCLE
  5
E2
330
1F
100
AcDbEntity
  8
0
  6
CONTINUOUS
 62
     7
100
AcDbCircle
 10
63.0114896803
 20
97.6978723061
 30
0.0
 40
0.5
  0
CIRCLE
  5
E3
330
1F
100
AcDbEntity
  8
0
  6
CONTINUOUS
 62
     7
100
AcDbCircle
 10
63.0114896803
 20
94.1978723061
 30
0.0
 40
0.5
  0
LINE
  5
E4
330
1F
100
AcDbEntity
  8
0
  6
CONTINUOUS
 62
     7
100
AcDbLine
 10
55.9034900345
 20
59.6278717267
 30
0.0
 11
66.5634892486
 21
59.6278717267
 31
0.0
  0
LINE
  5
E5
330
1F
100
AcDbEntity
  8
0
  6
CONTINUOUS
 62
     7
100
AcDbLine
 10
66.3134906046
 20
59.37787122
 30
0.0
 11
56.1534896098
 21
59.37787122
 31
0.0
  0
CIRCLE
  5
E6
330
1F
100
AcDbEntity
  8
0
  6
CONTINUOUS
 62
     7
100
AcDbCircle
 10
62.9349321572
 20
80.7313906289
 30
0.0
 40
4.79999999999999
  0
CIRCLE
  5
E7
330
1F
100
AcDbEntity
  8
0
  6
CONTINUOUS
 62
     7
100
AcDbCircle
 10
62.9349321572
 20
80.7313906289
 30
0.0
 40
4.110000000000007
  0
LINE
  5
E8
330
1F
100
AcDbEntity
  8
0
  6
CONTINUOUS
 62
     7
100
AcDbLine
 10
57.5549317129
 20
81.7313899743
 30
0.0
 11
57.5549317129
 21
79.7313915091
 31
0.0
  0
LINE
  5
E9
330
1F
100
AcDbEntity
  8
0
  6
CONTINUOUS
 62
     7
100
AcDbLine
 10
68.3149326198
 20
81.7313899743
 30
0.0
 11
68.3149326198
 21
79.7313915091
 31
0.0
  0
CIRCLE
  5
EA
330
1F
100
AcDbEntity
  8
0
  6
CONTINUOUS
 62
     7
100
AcDbCircle
 10
62.9349321572
 20
80.7313906289
 30
0.0
 40
6.25
  0
LINE
  5
EB
330
1F
100
AcDbEntity
  8
0
  6
CONTINUOUS
 62
     7
100
AcDbLine
 10
52.8514900782
 20
64.1978716003
 30
0.0
 11
52.8514900782
 21
67.3728731918
 31
0.0
  0
LINE
  5
EC
330
1F
100
AcDbEntity
  8
0
  6
CONTINUOUS
 62
     7
100
AcDbLine
 10
52.8514900782
 20
67.3728731918
 30
0.0
 11
70.5044887565
 21
67.3728731918
 31
0.0
  0
LINE
  5
ED
330
1F
100
AcDbEntity
  8
0
  6
CONTINUOUS
 62
     7
100
AcDbLine
 10
70.5044887565
 20
64.1978716003
 30
0.0
 11
70.5044887565
 21
67.3728731918
 31
0.0
  0
LINE
  5
EE
330
1F
100
AcDbEntity
  8
0
  6
CONTINUOUS
 62
     7
100
AcDbLine
 10
70.5044887565
 20
64.1978716003
 30
0.0
 11
52.8514900782
 21
64.1978716003
 31
0.0
  0
LINE
  5
EF
330
1F
100
AcDbEntity
  8
0
  6
CONTINUOUS
 62
     7
100
AcDbLine
 10
52.8514900782
 20
107.3778721029
 30
0.0
 11
70.5044887565
 21
107.3778721029
 31
0.0
  0
LINE
  5
F0
330
1F
100
AcDbEntity
  8
0
  6
CONTINUOUS
 62
     7
100
AcDbLine
 10
70.5044887565
 20
104.2028723741
 30
0.0
 11
70.5044887565
 21
107.3778721029
 31
0.0
  0
LINE
  5
F1
330
1F
100
AcDbEntity
  8
0
  6
CONTINUOUS
 62
     7
100
AcDbLine
 10
70.5044887565
 20
104.2028723741
 30
0.0
 11
52.8514900782
 21
104.2028723741
 31
0.0
  0
LINE
  5
F2
330
1F
100
AcDbEntity
  8
0
  6
CONTINUOUS
 62
     7
100
AcDbLine
 10
52.8514900782
 20
104.2028723741
 30
0.0
 11
52.8514900782
 21
107.3778721029
 31
0.0
  0
LINE
  5
F3
330
1F
100
AcDbEntity
  8
0
  6
CONTINUOUS
 62
     7
100
AcDbLine
 10
71.9014893823
 20
67.3728731918
 30
0.0
 11
71.9014896803
 21
65.5948723061
 31
0.0
  0
ARC
  5
F4
330
1F
100
AcDbEntity
  8
0
  6
CONTINUOUS
 62
     7
100
AcDbCircle
 10
70.5044896803
 20
65.5948716003
 30
0.0
 40
1.396999999999998
100
AcDbArc
 50
269.9999621141
 51
0.0000289461
  0
LINE
  5
F5
330
1F
100
AcDbEntity
  8
0
  6
CONTINUOUS
 62
     7
100
AcDbLine
 10
70.5044887565
 20
67.3728731918
 30
0.0
 11
71.9014893823
 21
67.3728731918
 31
0.0
  0
LINE
  5
F6
330
1F
100
AcDbEntity
  8
0
  6
CONTINUOUS
 62
     7
100
AcDbLine
 10
70.5044887565
 20
67.3728731918
 30
0.0
 11
70.5044887565
 21
104.2028723741
 31
0.0
  0
LINE
  5
F7
330
1F
100
AcDbEntity
  8
0
  6
CONTINUOUS
 62
     7
100
AcDbLine
 10
70.5044887565
 20
104.2028723741
 30
0.0
 11
71.9014893823
 21
104.2028723741
 31
0.0
  0
LINE
  5
F8
330
1F
100
AcDbEntity
  8
0
  6
CONTINUOUS
 62
     7
100
AcDbLine
 10
71.9014893823
 20
104.2028723741
 30
0.0
 11
71.9014893823
 21
67.3728731918
 31
0.0
  0
CIRCLE
  5
F9
330
1F
100
AcDbEntity
  8
0
  6
CONTINUOUS
 62
     7
100
AcDbCircle
 10
57.2964896803
 20
89.0898723061
 30
0.0
 40
1.651000000000003
  0
LINE
  5
FA
330
1F
100
AcDbEntity
  8
0
  6
CONTINUOUS
 62
     7
100
AcDbLine
 10
52.8514900782
 20
104.2028723741
 30
0.0
 11
52.8514900782
 21
67.3728731918
 31
0.0
  0
ARC
  5
FB
330
1F
100
AcDbEntity
  8
0
  6
CONTINUOUS
 62
     7
100
AcDbCircle
 10
70.5044896803
 20
105.9808723061
 30
0.0
 40
1.396999999999991
100
AcDbArc
 50
0.0
 51
90.0
  0
LINE
  5
FC
330
1F
100
AcDbEntity
  8
0
  6
CONTINUOUS
 62
     7
100
AcDbLine
 10
71.9014896803
 20
105.9808723061
 30
0.0
 11
71.9014893823
 21
104.2028723741
 31
0.0
  0
LINE
  5
FD
330
1F
100
AcDbEntity
  8
0
  6
CONTINUOUS
 62
     7
100
AcDbLine
 10
73.9334899538
 20
98.9323722888
 30
0.0
 11
73.9334899538
 21
72.6433729278
 31
0.0
  0
LINE
  5
FE
330
1F
100
AcDbEntity
  8
0
  6
CONTINUOUS
 62
     8
100
AcDbLine
 10
52.8387896322
 20
67.6903722333
 30
0.0
 11
52.8387896322
 21
67.6903722333
 31
0.0
  0
LINE
  5
FF
330
1F
100
AcDbEntity
  8
0
  6
CONTINUOUS
 62
     8
100
AcDbLine
 10
52.8387896322
 20
103.8853724013
 30
0.0
 11
52.8387896322
 21
103.8853724013
 31
0.0
  0
LINE
  5
100
330
1F
100
AcDbEntity
  8
0
  6
CENTERX2
 62
     7
100
AcDbLine
 10
69.5334896803
 20
87.3714219223
 30
0.0
 11
69.5334896803
 21
84.2376688774
 31
0.0
  0
DIMENSION
  5
101
330
1F
100
AcDbEntity
  8
0
  6
CONTINUOUS
 62
     7
100
AcDbDimension
  2
_D
 10
73.9334896803
 20
119.27743575
 30
0.0
 11
88.1149798983
 21
119.27743575
 31
0.0
 70
   160
  1
<>
  3
SLDDIMSTYLE0
100
AcDbAlignedDimension
 13
69.5334896803
 23
87.3714219223
 33
0.0
 14
73.9334896803
 24
98.9323723061
 34
0.0
 50
0.0
100
AcDbRotatedDimension
  0
DIMENSION
  5
116
330
1F
100
AcDbEntity
  8
0
  6
CONTINUOUS
 62
     7
100
AcDbDimension
  2
_D_1
 10
73.9334896803
 20
131.3956364509
 30
0.0
 11
63.3924896803
 21
131.3956364509
 31
0.0
 70
   160
  1
<>
  3
SLDDIMSTYLE0
100
AcDbAlignedDimension
 13
52.8514896803
 23
104.2028723061
 33
0.0
 14
73.9334896803
 24
98.9323723061
 34
0.0
 50
0.0
100
AcDbRotatedDimension
  0
DIMENSION
  5
12A
330
1F
100
AcDbEntity
  8
0
  6
CONTINUOUS
 62
     7
100
AcDbDimension
  2
_D_2
 10
73.9334896803
 20
45.8849361777
 30
0.0
 11
48.7046122251
 21
45.8849361777
 31
0.0
 70
   160
  1
<>
  3
SLDDIMSTYLE1
100
AcDbAlignedDimension
 13
61.2334896803
 23
57.3778723061
 33
0.0
 14
73.9334896803
 24
72.6433723061
 34
0.0
 50
0.0
100
AcDbRotatedDimension
  0
MTEXT
  5
13F
330
1F
100
AcDbEntity
  8
0
  6
CONTINUOUS
 62
     7
100
AcDbMText
 10
96.0589837994
 20
47.9902221759
 30
0.0
 40
2.1166666667
 41
0.0
 71
     1
 72
     1
  1
SM1 (1.035-40) EXTERNAL THREAD
  7
SLDTEXTSTYLE0
  0
LEADER
  5
141
330
1F
100
AcDbEntity
  8
0
  6
CONTINUOUS
 62
     7
100
AcDbLeader
  3
SLDDIMSTYLE2
 76
     3
 10
73.2288393111
 20
72.6433723061
 30
0.0
 10
89.143413831
 20
47.0893127192
 30
0.0
 10
95.493413831
 20
47.0893127192
 30
0.0
1001
ACAD
1000
DSTYLE
1002
{
1070
     6
1000

1002
}
  0
MTEXT
  5
142
330
1F
100
AcDbEntity
  8
0
  6
CONTINUOUS
 62
     7
100
AcDbMText
 10
8.2572726911
 20
101.9809565641
 30
0.0
 40
2.1166666667
 41
0.0
 71
     1
 72
     1
  1
POWER INDICATOR LED
  7
SLDTEXTSTYLE0
  0
LEADER
  5
143
330
1F
100
AcDbEntity
  8
0
  6
CONTINUOUS
 62
     7
100
AcDbLeader
  3
SLDDIMSTYLE2
 76
     3
 10
55.8744565098
 20
89.9267245404
 30
0.0
 10
46.7856655883
 20
100.8763599201
 30
0.0
 10
40.4356655883
 20
100.8763599201
 30
0.0
1001
ACAD
1000
DSTYLE
1002
{
1070
     6
1000

1002
}
  0
INSERT
  5
14B
102
{ACAD_REACTORS
330
14C
102
}
330
1F
100
AcDbEntity
  8
0
  6
CONTINUOUS
 62
     7
100
AcDbBlockReference
  2
SW_NOTE_3
 10
42.9259055982
 20
117.4833364147
 30
0.0
  0
LEADER
  5
14C
330
1F
100
AcDbEntity
  8
0
  6
CONTINUOUS
 62
     7
100
AcDbLeader
  3
SLDDIMSTYLE2
 73
     2
 76
     3
 10
59.198377026
 20
98.6092012759
 30
0.0
 10
49.2759055982
 20
117.4833364147
 30
0.0
 10
42.9259055982
 20
117.4833364147
 30
0.0
340
14B
1001
ACAD
1000
DSTYLE
1002
{
1070
     6
1000

1002
}
  0
MTEXT
  5
14D
330
1F
100
AcDbEntity
  8
0
  6
CONTINUOUS
 62
     7
100
AcDbMText
 10
39.8784090882
 20
70.2546406555
 30
0.0
 40
2.1166666667
 41
0.0
 71
     3
 72
     1
  1
OUTPUT BNC
  7
SLDTEXTSTYLE0
  0
LEADER
  5
14E
330
1F
100
AcDbEntity
  8
0
  6
CONTINUOUS
 62
     7
100
AcDbLeader
  3
SLDDIMSTYLE2
 76
     3
 10
58.2932899479
 20
76.5459805414
 30
0.0
 10
46.8609769484
 20
69.2627485041
 30
0.0
 10
40.5109769484
 20
69.2627485041
 30
0.0
1001
ACAD
1000
DSTYLE
1002
{
1070
     6
1000

1002
}
  0
MTEXT
  5
14F
330
1F
100
AcDbEntity
  8
0
  6
CONTINUOUS
 62
     7
100
AcDbMText
 10
90.7588139367
 20
70.2546406555
 30
0.0
 40
2.1166666667
 41
0.0
 71
     1
 72
     1
  1
DETECTOR SURFACE
  7
SLDTEXTSTYLE0
  0
LEADER
  5
150
330
1F
100
AcDbEntity
  8
0
  6
CONTINUOUS
 62
     7
100
AcDbLeader
  3
SLDDIMSTYLE2
 76
     3
 10
69.5334896803
 20
85.7195431349
 30
0.0
 10
83.874478595
 20
69.2627485041
 30
0.0
 10
90.224478595
 20
69.2627485041
 30
0.0
1001
ACAD
1000
DSTYLE
1002
{
1070
     6
1000

1002
}
  0
LINE
  5
151
330
1F
100
AcDbEntity
  8
0
  6
CENTERX2
 62
     7
100
AcDbLine
 10
61.2334896803
 20
69.4978723061
 30
0.0
 11
61.2334896803
 21
57.3778723061
 31
0.0
  0
LINE
  5
152
330
1F
100
AcDbEntity
  8
0
  6
CENTERX2
 62
     7
100
AcDbLine
 10
75.9334896803
 20
85.7878723061
 30
0.0
 11
68.1286272161
 21
85.7878723061
 31
0.0
  0
ARC
  5
153
330
1F
100
AcDbEntity
  8
0
  6
CONTINUOUS
 62
     7
100
AcDbCircle
 10
157.8951716978
 20
89.0898723061
 30
0.0
 40
1.650000000000006
100
AcDbArc
 50
90.0
 51
270.0
  0
LINE
  5
154
330
1F
100
AcDbEntity
  8
0
  6
CONTINUOUS
 62
     7
100
AcDbLine
 10
151.322830893
 20
100.9495126773
 30
0.0
 11
149.335371755
 21
100.5978723106
 31
0.0
  0
LINE
  5
155
330
1F
100
AcDbEntity
  8
0
  6
CONTINUOUS
 62
     7
100
AcDbLine
 10
149.335371755
 20
91.2978721308
 30
0.0
 11
151.322830893
 21
90.946231735
 31
0.0
  0
LINE
  5
156
330
1F
100
AcDbEntity
  8
0
  6
CONTINUOUS
 62
     7
100
AcDbLine
 10
190.665170975
 20
64.1978716003
 30
0.0
 11
190.665170975
 21
59.6278717267
 31
0.0
  0
LINE
  5
157
330
1F
100
AcDbEntity
  8
0
  6
CONTINUOUS
 62
     7
100
AcDbLine
 10
201.3251729831
 20
59.6278717267
 30
0.0
 11
201.3251729831
 21
64.1978716003
 31
0.0
  0
LINE
  5
158
330
1F
100
AcDbEntity
  8
0
  6
CONTINUOUS
 62
     7
100
AcDbLine
 10
190.665170975
 20
59.6278717267
 30
0.0
 11
190.9151714816
 21
59.37787122
 31
0.0
  0
LINE
  5
159
330
1F
100
AcDbEntity
  8
0
  6
CONTINUOUS
 62
     7
100
AcDbLine
 10
201.0751724764
 20
59.37787122
 30
0.0
 11
201.3251729831
 21
59.6278717267
 31
0.0
  0
LINE
  5
15A
330
1F
100
AcDbEntity
  8
0
  6
CONTINUOUS
 62
     7
100
AcDbLine
 10
211.2351716086
 20
80.4578715461
 30
0.0
 11
215.8051714822
 21
80.4578715461
 31
0.0
  0
LINE
  5
15B
330
1F
100
AcDbEntity
  8
0
  6
CONTINUOUS
 62
     7
100
AcDbLine
 10
215.8051714822
 20
91.1178726228
 30
0.0
 11
211.2351716086
 21
91.1178726228
 31
0.0
  0
LINE
  5
15C
330
1F
100
AcDbEntity
  8
0
  6
CONTINUOUS
 62
     7
100
AcDbLine
 10
215.8051714822
 20
80.4578715461
 30
0.0
 11
216.0551719889
 21
80.7078720527
 31
0.0
  0
LINE
  5
15D
330
1F
100
AcDbEntity
  8
0
  6
CONTINUOUS
 62
     7
100
AcDbLine
 10
216.0551719889
 20
90.8678721162
 30
0.0
 11
215.8051714822
 21
91.1178726228
 31
0.0
  0
LINE
  5
15E
330
1F
100
AcDbEntity
  8
0
  6
CONTINUOUS
 62
     7
100
AcDbLine
 10
156.6451717689
 20
74.4813901829
 30
0.0
 11
157.8951715081
 21
74.4813901829
 31
0.0
  0
LINE
  5
15F
330
1F
100
AcDbEntity
  8
0
  6
CONTINUOUS
 62
     7
100
AcDbLine
 10
157.8951715081
 20
86.9813903692
 30
0.0
 11
156.6451717689
 21
86.9813903692
 31
0.0
  0
ARC
  5
160
330
1F
100
AcDbEntity
  8
0
  6
CONTINUOUS
 62
     7
100
AcDbCircle
 10
150.0651730421
 20
94.1933908338
 30
0.0
 40
8.761999999999933
100
AcDbArc
 50
261.3353661351
 51
278.6646190742
  0
ARC
  5
161
330
1F
100
AcDbEntity
  8
0
  6
CONTINUOUS
 62
     7
100
AcDbCircle
 10
150.0651713526
 20
67.2693905763
 30
0.0
 40
8.761999999999956
100
AcDbArc
 50
81.3353693155
 51
98.6646256832
  0
LINE
  5
162
330
1F
100
AcDbEntity
  8
0
  6
CONTINUOUS
 62
     7
100
AcDbLine
 10
151.3851717635
 20
75.9313905137
 30
0.0
 11
156.6451717689
 21
75.9313905137
 31
0.0
  0
LINE
  5
163
330
1F
100
AcDbEntity
  8
0
  6
CONTINUOUS
 62
     7
100
AcDbLine
 10
156.6451717689
 20
85.5313909697
 30
0.0
 11
151.3851717635
 21
85.5313909697
 31
0.0
  0
LINE
  5
164
330
1F
100
AcDbEntity
  8
0
  6
CONTINUOUS
 62
     7
100
AcDbLine
 10
145.8651725724
 20
75.9313905137
 30
0.0
 11
148.7451721504
 21
75.9313905137
 31
0.0
  0
LINE
  5
165
330
1F
100
AcDbEntity
  8
0
  6
CONTINUOUS
 62
     7
100
AcDbLine
 10
148.7451721504
 20
85.5313909697
 30
0.0
 11
145.8651725724
 21
85.5313909697
 31
0.0
  0
ARC
  5
166
330
1F
100
AcDbEntity
  8
0
  6
CONTINUOUS
 62
     7
100
AcDbCircle
 10
177.8976716978
 20
69.5963724195
 30
0.0
 40
1.270000000000011
100
AcDbArc
 50
269.999998395
 51
359.9999948824
  0
LINE
  5
167
330
1F
100
AcDbEntity
  8
0
  6
CONTINUOUS
 62
     7
100
AcDbLine
 10
163.2936716978
 20
68.3263723061
 30
0.0
 11
177.8976716622
 21
68.3263724195
 31
0.0
  0
ARC
  5
168
330
1F
100
AcDbEntity
  8
0
  6
CONTINUOUS
 62
     7
100
AcDbCircle
 10
163.2936718617
 20
69.5963723061
 30
0.0
 40
1.27000000000001
100
AcDbArc
 50
179.9999997765
 51
269.9999926061
  0
LINE
  5
169
330
1F
100
AcDbEntity
  8
0
  6
CONTINUOUS
 62
     7
100
AcDbLine
 10
162.0236716978
 20
101.9803723061
 30
0.0
 11
162.0236718617
 21
69.5963723111
 31
0.0
  0
ARC
  5
16A
330
1F
100
AcDbEntity
  8
0
  6
CONTINUOUS
 62
     7
100
AcDbCircle
 10
163.2936716978
 20
101.9803722227
 30
0.0
 40
1.27000000000004
100
AcDbArc
 50
89.9999975002
 51
179.9999962363
  0
LINE
  5
16B
330
1F
100
AcDbEntity
  8
0
  6
CONTINUOUS
 62
     7
100
AcDbLine
 10
177.8976716978
 20
103.2503723061
 30
0.0
 11
163.2936717532
 21
103.2503722227
 31
0.0
  0
ARC
  5
16C
330
1F
100
AcDbEntity
  8
0
  6
CONTINUOUS
 62
     7
100
AcDbCircle
 10
177.8976715537
 20
101.9803723061
 30
0.0
 40
1.27000000000001
100
AcDbArc
 50
0.0000011304
 51
89.9999935009
  0
LINE
  5
16D
330
1F
100
AcDbEntity
  8
0
  6
CONTINUOUS
 62
     7
100
AcDbLine
 10
179.1676716978
 20
69.5963723061
 30
0.0
 11
179.1676715537
 21
101.9803723312
 31
0.0
  0
CIRCLE
  5
16E
330
1F
100
AcDbEntity
  8
0
  6
CONTINUOUS
 62
     7
100
AcDbCircle
 10
195.9951716978
 20
85.7878723061
 30
0.0
 40
2.100000000000009
  0
CIRCLE
  5
16F
330
1F
100
AcDbEntity
  8
0
  6
CONTINUOUS
 62
     7
100
AcDbCircle
 10
195.9951716978
 20
85.7878723061
 30
0.0
 40
2.350000000000009
  0
CIRCLE
  5
170
330
1F
100
AcDbEntity
  8
0
  6
CONTINUOUS
 62
     7
100
AcDbCircle
 10
195.9951716978
 20
85.7878723061
 30
0.0
 40
1.0
  0
CIRCLE
  5
171
330
1F
100
AcDbEntity
  8
0
  6
CONTINUOUS
 62
     7
100
AcDbCircle
 10
195.9951716978
 20
85.7878723061
 30
0.0
 40
0.875
  0
CIRCLE
  5
172
330
1F
100
AcDbEntity
  8
0
  6
CONTINUOUS
 62
     7
100
AcDbCircle
 10
195.9951716978
 20
85.7878723061
 30
0.0
 40
2.600000000000009
  0
LINE
  5
173
330
1F
100
AcDbEntity
  8
0
  6
CONTINUOUS
 62
     7
100
AcDbLine
 10
197.5110531374
 20
88.02217408
 30
0.0
 11
198.2294735088
 21
87.3037537085
 31
0.0
  0
ARC
  5
174
330
1F
100
AcDbEntity
  8
0
  6
CONTINUOUS
 62
     7
100
AcDbCircle
 10
195.9951714289
 20
85.7878727024
 30
0.0
 40
2.699999999999963
100
AcDbArc
 50
55.8447193915
 51
34.1552579095
  0
CIRCLE
  5
175
330
1F
100
AcDbEntity
  8
0
  6
CONTINUOUS
 62
     7
100
AcDbCircle
 10
195.9951716978
 20
85.7878723061
 30
0.0
 40
15.24000000000001
  0
CIRCLE
  5
176
330
1F
100
AcDbEntity
  8
0
  6
CONTINUOUS
 62
     7
100
AcDbCircle
 10
195.9951716978
 20
85.7878723061
 30
0.0
 40
14.98599999999999
  0
CIRCLE
  5
177
330
1F
100
AcDbEntity
  8
0
  6
CONTINUOUS
 62
     7
100
AcDbCircle
 10
195.9951716978
 20
85.7878723061
 30
0.0
 40
13.58444090512248
  0
CIRCLE
  5
178
330
1F
100
AcDbEntity
  8
0
  6
CONTINUOUS
 62
     7
100
AcDbCircle
 10
195.9951716978
 20
85.7878723061
 30
0.0
 40
13.14449999999999
  0
LINE
  5
179
330
1F
100
AcDbEntity
  8
0
  6
CONTINUOUS
 62
     7
100
AcDbLine
 10
157.8951715081
 20
100.9478723272
 30
0.0
 11
155.6853721439
 21
100.9478723272
 31
0.0
  0
LINE
  5
17A
330
1F
100
AcDbEntity
  8
0
  6
CONTINUOUS
 62
     7
100
AcDbLine
 10
157.8951715081
 20
95.9478721479
 30
0.0
 11
155.6853721439
 21
95.9478721479
 31
0.0
  0
SPLINE
  5
17B
330
1F
100
AcDbEntity
  8
0
  6
CONTINUOUS
 62
     7
100
AcDbSpline
210
0.0
220
0.0
230
1.0
 70
     8
 71
     3
 72
    27
 73
    23
 74
     0
 42
0.000000001
 43
0.00000001
 40
0.0
 40
0.0
 40
0.0
 40
0.0
 40
0.0973011125026961
 40
0.1945760671259902
 40
0.2437117886882184
 40
0.2929796843028996
 40
0.3420471533927943
 40
0.3909086089111569
 40
0.4337790137637737
 40
0.4555569095908513
 40
0.4772636203063399
 40
0.5053773593961987
 40
0.5334845094735777
 40
0.5544026482298507
 40
0.5753702751405906
 40
0.6090055227073977
 40
0.6428233097621113
 40
0.6766185917569797
 40
0.7572464248776993
 40
0.8380719252593796
 40
0.9190979962631419
 40
1.0
 40
1.0
 40
1.0
 40
1.0
 10
155.6853721439309
 20
95.94787214794529
 30
0.0
 10
155.352641739124
 20
96.05211207044793
 30
0.0
 10
154.6872703788657
 20
96.2605638921835
 30
0.0
 10
153.8706849796368
 20
96.55974893489302
 30
0.0
 10
153.2264804822254
 20
96.82147832667943
 30
0.0
 10
152.7510620708941
 20
97.03677454304704
 30
0.0
 10
152.2962335692916
 20
97.28239477800275
 30
0.0
 10
151.8910858345206
 20
97.55454267871703
 30
0.0
 10
151.6007122895967
 20
97.81216594198284
 30
0.0
 10
151.4297572341135
 20
98.04159775762525
 30
0.0
 10
151.3293324465072
 20
98.25126766879892
 30
0.0
 10
151.2971346122281
 20
98.50032916019863
 30
0.0
 10
151.3662807894941
 20
98.74032057959774
 30
0.0
 10
151.4856813681099
 20
98.93605879269835
 30
0.0
 10
151.649975246409
 20
99.12743216334313
 30
0.0
 10
151.8764884899061
 20
99.32646150319164
 30
0.0
 10
152.1649677484512
 20
99.52534257408027
 30
0.0
 10
152.6132511495423
 20
99.78500342119423
 30
0.0
 10
153.2324315337492
 20
100.0877678880776
 30
0.0
 10
154.0331198000004
 20
100.4086847872871
 30
0.0
 10
154.8537889842817
 20
100.6908200650332
 30
0.0
 10
155.4083193821344
 20
100.8622320177262
 30
0.0
 10
155.6853721439309
 20
100.9478723272249
 30
0.0
  0
SPLINE
  5
17C
330
1F
100
AcDbEntity
  8
0
  6
CONTINUOUS
 62
     7
100
AcDbSpline
210
0.0
220
0.0
230
1.0
 70
     8
 71
     3
 72
    18
 73
    14
 74
     0
 42
0.000000001
 43
0.00000001
 40
0.0
 40
0.0
 40
0.0
 40
0.0
 40
0.1790483417769847
 40
0.3580625383284187
 40
0.4793099858914944
 40
0.6005837595636334
 40
0.7214809230824731
 40
0.7879718729464559
 40
0.8553499660220214
 40
0.8916351691506602
 40
0.9285404694053785
 40
0.9878620418699631
 40
0.9999999999999999
 40
0.9999999999999999
 40
0.9999999999999999
 40
0.9999999999999999
 10
155.6853721439309
 20
100.9478723272249
 30
0.0
 10
155.3792176191513
 20
100.9478723272249
 30
0.0
 10
154.7669669544684
 20
100.9478723272249
 30
0.0
 10
153.9619078745773
 20
100.9478723272249
 30
0.0
 10
153.265713493423
 20
100.9478723272249
 30
0.0
 10
152.6819525631085
 20
100.9478723272249
 30
0.0
 10
152.2111952994525
 20
100.9478723272249
 30
0.0
 10
151.8508083062329
 20
100.9478723272249
 30
0.0
 10
151.6349678889521
 20
100.9478723272249
 30
0.0
 10
151.4836422739704
 20
100.9478723272249
 30
0.0
 10
151.3739562434176
 20
100.9478723272249
 30
0.0
 10
151.3025070116467
 20
100.9478723272249
 30
0.0
 10
151.320128344917
 20
100.9478723272249
 30
0.0
 10
151.3228308930464
 20
100.9495126773171
 30
0.0
  0
SPLINE
  5
17D
330
1F
100
AcDbEntity
  8
0
  6
CONTINUOUS
 62
     7
100
AcDbSpline
210
0.0
220
0.0
230
1.0
 70
     8
 71
     3
 72
    27
 73
    23
 74
     0
 42
0.000000001
 43
0.00000001
 40
0.0
 40
0.0
 40
0.0
 40
0.0
 40
0.0973011016800408
 40
0.1945760511674069
 40
0.2437117816697337
 40
0.2929796783280758
 40
0.3420471287557894
 40
0.3909086081885134
 40
0.4337790139492705
 40
0.455556894630223
 40
0.477263622959255
 40
0.5053773442613134
 40
0.5334845129277392
 40
0.5544026603385311
 40
0.5753702727733585
 40
0.6090055110961923
 40
0.6428233133724235
 40
0.6766185831151519
 40
0.7572464208057136
 40
0.8380719282856007
 40
0.9190979992859846
 40
1.0
 40
1.0
 40
1.0
 40
1.0
 10
155.6853721439309
 20
90.94787272536529
 30
0.0
 10
155.3526417410533
 20
91.05211249320904
 30
0.0
 10
154.6872703652167
 20
91.2605640117575
 30
0.0
 10
153.8706848750096
 20
91.55974868442713
 30
0.0
 10
153.2264805136718
 20
91.82147845557228
 30
0.0
 10
152.7510622101096
 20
92.03677477058905
 30
0.0
 10
152.296233312343
 20
92.28239425745795
 30
0.0
 10
151.8910859449887
 20
92.55454284205989
 30
0.0
 10
151.6007123955903
 20
92.81216609833187
 30
0.0
 10
151.4297571270737
 20
93.04159766234885
 30
0.0
 10
151.3293325277331
 20
93.25126774418166
 30
0.0
 10
151.2971346047966
 20
93.50032909952245
 30
0.0
 10
151.366280797924
 20
93.74032065364904
 30
0.0
 10
151.4856812832772
 20
93.93605900180381
 30
0.0
 10
151.6499752978325
 20
94.12743213136446
 30
0.0
 10
151.8764886214209
 20
94.32646126270231
 30
0.0
 10
152.164967583008
 20
94.52534278547365
 30
0.0
 10
152.6132513405639
 20
94.7850030053704
 30
0.0
 10
153.2324315017729
 20
95.0877678477907
 30
0.0
 10
154.0331197701011
 20
95.40868485924578
 30
0.0
 10
154.8537889677583
 20
95.69082007704608
 30
0.0
 10
155.4083193800797
 20
95.86223190324472
 30
0.0
 10
155.6853721439309
 20
95.94787214794529
 30
0.0
  0
SPLINE
  5
17E
330
1F
100
AcDbEntity
  8
0
  6
CONTINUOUS
 62
     7
100
AcDbSpline
210
0.0
220
0.0
230
1.0
 70
     8
 71
     3
 72
    18
 73
    14
 74
     0
 42
0.000000001
 43
0.00000001
 40
0.0
 40
0.0
 40
0.0
 40
0.0
 40
0.0121379595247327
 40
0.0714595388055827
 40
0.1076844282625685
 40
0.14465062319532
 40
0.21099440514909
 40
0.2785207632059659
 40
0.3970087023228752
 40
0.5158550230852473
 40
0.634674465044811
 40
0.8173182746133153
 40
1.0
 40
1.0
 40
1.0
 40
1.0
 10
151.3228308930464
 20
90.94623173498881
 30
0.0
 10
151.3201280402314
 20
90.94787272536529
 30
0.0
 10
151.3025049131927
 20
90.94787272536529
 30
0.0
 10
151.3735505586738
 20
90.94787272536529
 30
0.0
 10
151.4829454449336
 20
90.94787272536529
 30
0.0
 10
151.6329968153909
 20
90.94787272536529
 30
0.0
 10
151.8493691071941
 20
90.94787272536529
 30
0.0
 10
152.2062073755025
 20
90.94787272536529
 30
0.0
 10
152.6708054971834
 20
90.94787272536529
 30
0.0
 10
153.2422354082495
 20
90.94787272536529
 30
0.0
 10
153.9356077252758
 20
90.94787272536529
 30
0.0
 10
154.7483696233269
 20
90.94787272536529
 30
0.0
 10
155.3730163604531
 20
90.94787272536529
 30
0.0
 10
155.6853721439309
 20
90.94787272536529
 30
0.0
  0
LINE
  5
17F
330
1F
100
AcDbEntity
  8
0
  6
CONTINUOUS
 62
     7
100
AcDbLine
 10
149.335371755
 20
100.5978723106
 30
0.0
 11
149.335371755
 21
91.2978721308
 31
0.0
  0
LINE
  5
180
330
1F
100
AcDbEntity
  8
0
  6
CONTINUOUS
 62
     7
100
AcDbLine
 10
157.8951715081
 20
90.9478727254
 30
0.0
 11
155.6853721439
 21
90.9478727254
 31
0.0
  0
LINE
  5
181
330
1F
100
AcDbEntity
  8
0
  6
CONTINUOUS
 62
     7
100
AcDbLine
 10
200.9212881848
 20
59.6278717267
 30
0.0
 11
201.3251729831
 21
59.6278717267
 31
0.0
  0
LINE
  5
182
330
1F
100
AcDbEntity
  8
0
  6
CONTINUOUS
 62
     7
100
AcDbLine
 10
190.665170975
 20
59.6278717267
 30
0.0
 11
200.9212881848
 21
59.6278717267
 31
0.0
  0
LINE
  5
183
330
1F
100
AcDbEntity
  8
0
  6
CONTINUOUS
 62
     7
100
AcDbLine
 10
200.6902307793
 20
59.37787122
 30
0.0
 11
190.9151714816
 21
59.37787122
 31
0.0
  0
LINE
  5
184
330
1F
100
AcDbEntity
  8
0
  6
CONTINUOUS
 62
     7
100
AcDbLine
 10
201.0751724764
 20
59.37787122
 30
0.0
 11
200.6902307793
 21
59.37787122
 31
0.0
  0
LINE
  5
185
330
1F
100
AcDbEntity
  8
0
  6
CONTINUOUS
 62
     7
100
AcDbLine
 10
215.8051714822
 20
90.8390430259
 30
0.0
 11
215.8051714822
 21
91.1178726228
 31
0.0
  0
LINE
  5
186
330
1F
100
AcDbEntity
  8
0
  6
CONTINUOUS
 62
     7
100
AcDbLine
 10
215.8051714822
 20
80.4578715461
 30
0.0
 11
215.8051714822
 21
90.8390430259
 31
0.0
  0
LINE
  5
187
330
1F
100
AcDbEntity
  8
0
  6
CONTINUOUS
 62
     7
100
AcDbLine
 10
216.0551719889
 20
90.6021220135
 30
0.0
 11
216.0551719889
 21
80.7078720527
 31
0.0
  0
LINE
  5
188
330
1F
100
AcDbEntity
  8
0
  6
CONTINUOUS
 62
     7
100
AcDbLine
 10
216.0551719889
 20
90.8678721162
 30
0.0
 11
216.0551719889
 21
90.6021220135
 31
0.0
  0
CIRCLE
  5
189
330
1F
100
AcDbEntity
  8
0
  6
CONTINUOUS
 62
     7
100
AcDbCircle
 10
195.9951716978
 20
85.7878723061
 30
0.0
 40
2.720000000000002
  0
CIRCLE
  5
18A
330
1F
100
AcDbEntity
  8
0
  6
CONTINUOUS
 62
     7
100
AcDbCircle
 10
195.9951716978
 20
85.7878723061
 30
0.0
 40
6.369999999999995
  0
LINE
  5
18B
330
1F
100
AcDbEntity
  8
0
  6
CONTINUOUS
 62
     7
100
AcDbLine
 10
156.6451717689
 20
86.9813903692
 30
0.0
 11
156.6451717689
 21
74.4813901829
 31
0.0
  0
CIRCLE
  5
18C
330
1F
100
AcDbEntity
  8
0
  6
CONTINUOUS
 62
     7
100
AcDbCircle
 10
150.0651716978
 20
80.7313906289
 30
0.0
 40
1.0
  0
LINE
  5
18D
330
1F
100
AcDbEntity
  8
0
  6
CONTINUOUS
 62
     7
100
AcDbLine
 10
148.7451721504
 20
85.5313909697
 30
0.0
 11
148.7451721504
 21
81.7979739504
 31
0.0
  0
LINE
  5
18E
330
1F
100
AcDbEntity
  8
0
  6
CONTINUOUS
 62
     7
100
AcDbLine
 10
151.3851717635
 20
85.5313909697
 30
0.0
 11
151.3851717635
 21
81.7979739504
 31
0.0
  0
LINE
  5
18F
330
1F
100
AcDbEntity
  8
0
  6
CONTINUOUS
 62
     7
100
AcDbLine
 10
151.3851717635
 20
79.664807533
 30
0.0
 11
151.3851717635
 21
75.9313905137
 31
0.0
  0
LINE
  5
190
330
1F
100
AcDbEntity
  8
0
  6
CONTINUOUS
 62
     7
100
AcDbLine
 10
148.7451721504
 20
79.664807533
 30
0.0
 11
148.7451721504
 21
75.9313905137
 31
0.0
  0
LINE
  5
191
330
1F
100
AcDbEntity
  8
0
  6
CONTINUOUS
 62
     7
100
AcDbLine
 10
151.3851717635
 20
79.664807533
 30
0.0
 11
152.0588867887
 21
79.664807533
 31
0.0
  0
SPLINE
  5
192
330
1F
100
AcDbEntity
  8
0
  6
CONTINUOUS
 62
     7
100
AcDbSpline
210
0.0
220
0.0
230
1.0
 70
     8
 71
     3
 72
    14
 73
    10
 74
     0
 42
0.000000001
 43
0.00000001
 40
0.0
 40
0.0
 40
0.0
 40
0.0
 40
0.1598029079283231
 40
0.3195430890681542
 40
0.4796873114848121
 40
0.6398256791223963
 40
0.7945199428366544
 40
0.9492661479846317
 40
1.0
 40
1.0
 40
1.0
 40
1.0
 10
152.0588867887326
 20
79.66480753296388
 30
0.0
 10
152.1094364272267
 20
79.77064816780161
 30
0.0
 10
152.2105158621701
 20
79.98228789228115
 30
0.0
 10
152.2992650331847
 20
80.32869074038308
 30
0.0
 10
152.3349585756529
 20
80.685670997963
 30
0.0
 10
152.3144514673805
 20
81.04090699446125
 30
0.0
 10
152.2389883862272
 20
81.38222969377755
 30
0.0
 10
152.1447604167691
 20
81.63145306038061
 30
0.0
 10
152.0758909394861
 20
81.76500054076008
 30
0.0
 10
152.0588867887326
 20
81.79797395044339
 30
0.0
  0
LINE
  5
193
330
1F
100
AcDbEntity
  8
0
  6
CONTINUOUS
 62
     7
100
AcDbLine
 10
152.0588867887
 20
81.7979739504
 30
0.0
 11
151.3851717635
 21
81.7979739504
 31
0.0
  0
LINE
  5
194
330
1F
100
AcDbEntity
  8
0
  6
CONTINUOUS
 62
     7
100
AcDbLine
 10
148.7451721504
 20
81.7979739504
 30
0.0
 11
148.0714571252
 21
81.7979739504
 31
0.0
  0
SPLINE
  5
195
330
1F
100
AcDbEntity
  8
0
  6
CONTINUOUS
 62
     7
100
AcDbSpline
210
0.0
220
0.0
230
1.0
 70
     8
 71
     3
 72
    14
 73
    10
 74
     0
 42
0.000000001
 43
0.00000001
 40
0.0
 40
0.0
 40
0.0
 40
0.0
 40
0.1598028753155516
 40
0.3195430238554125
 40
0.4796872545327714
 40
0.6398255894891229
 40
0.7945199101161978
 40
0.9492667049045425
 40
1.0
 40
1.0
 40
1.0
 40
1.0
 10
148.0714571251936
 20
81.79797395044339
 30
0.0
 10
148.0209074625618
 20
81.69213331968805
 30
0.0
 10
147.9198279793525
 20
81.48049360337167
 30
0.0
 10
147.831079162953
 20
81.1340906644459
 30
0.0
 10
147.7953842446852
 20
80.77711060841811
 30
0.0
 10
147.8158909594896
 20
80.42187419659813
 30
0.0
 10
147.8913570278717
 20
80.08055199421163
 30
0.0
 10
147.9855806989069
 20
79.83132655023354
 30
0.0
 10
148.0544525722234
 20
79.69778027731456
 30
0.0
 10
148.0714571251936
 20
79.66480753296388
 30
0.0
  0
LINE
  5
196
330
1F
100
AcDbEntity
  8
0
  6
CONTINUOUS
 62
     7
100
AcDbLine
 10
148.0714571252
 20
79.664807533
 30
0.0
 11
148.7451721504
 21
79.664807533
 31
0.0
  0
LINE
  5
197
330
1F
100
AcDbEntity
  8
0
  6
CONTINUOUS
 62
     7
100
AcDbLine
 10
145.8651725724
 20
80.7313898104
 30
0.0
 11
145.8651725724
 21
85.5313909697
 31
0.0
  0
LINE
  5
198
330
1F
100
AcDbEntity
  8
0
  6
CONTINUOUS
 62
     7
100
AcDbLine
 10
145.8651725724
 20
75.9313905137
 30
0.0
 11
145.8651725724
 21
80.7313898104
 31
0.0
  0
LINE
  5
199
330
1F
100
AcDbEntity
  8
0
  6
CONTINUOUS
 62
     7
100
AcDbLine
 10
148.7451721504
 20
79.664807533
 30
0.0
 11
151.3851717635
 21
79.664807533
 31
0.0
  0
LINE
  5
19A
330
1F
100
AcDbEntity
  8
0
  6
CONTINUOUS
 62
     7
100
AcDbLine
 10
151.3851717635
 20
81.7979739504
 30
0.0
 11
148.7451721504
 21
81.7979739504
 31
0.0
  0
CIRCLE
  5
19B
330
1F
100
AcDbEntity
  8
0
  6
CONTINUOUS
 62
     7
100
AcDbCircle
 10
195.9951716978
 20
85.7878723061
 30
0.0
 40
6.438900000000004
  0
ARC
  5
19C
330
1F
100
AcDbEntity
  8
0
  6
CONTINUOUS
 62
     7
100
AcDbCircle
 10
208.0601728455
 20
104.2028723061
 30
0.0
 40
1.778000000000021
100
AcDbArc
 50
0.0000021928
 51
90.0000369843
  0
LINE
  5
19D
330
1F
100
AcDbEntity
  8
0
  6
CONTINUOUS
 62
     7
100
AcDbLine
 10
208.0601700171
 20
107.3778721029
 30
0.0
 11
208.0601700171
 21
105.9808724085
 31
0.0
  0
ARC
  5
19E
330
1F
100
AcDbEntity
  8
0
  6
CONTINUOUS
 62
     7
100
AcDbCircle
 10
208.0601716086
 20
104.2028723061
 30
0.0
 40
3.175000000000012
100
AcDbArc
 50
0.000001228
 51
89.9999983899
  0
LINE
  5
19F
330
1F
100
AcDbEntity
  8
0
  6
CONTINUOUS
 62
     7
100
AcDbLine
 10
209.8381728455
 20
104.2028723741
 30
0.0
 11
211.2351716086
 21
104.2028723741
 31
0.0
  0
ARC
  5
1A0
330
1F
100
AcDbEntity
  8
0
  6
CONTINUOUS
 62
     7
100
AcDbCircle
 10
163.2926716484
 20
69.5953723061
 30
0.0
 40
1.587500000000023
100
AcDbArc
 50
180.0000084993
 51
270.0000017842
  0
LINE
  5
1A1
330
1F
100
AcDbEntity
  8
0
  6
CONTINUOUS
 62
     7
100
AcDbLine
 10
163.2926716978
 20
68.0078723061
 30
0.0
 11
177.8976716622
 21
68.0078712749
 31
0.0
  0
ARC
  5
1A2
330
1F
100
AcDbEntity
  8
0
  6
CONTINUOUS
 62
     7
100
AcDbCircle
 10
177.8976716978
 20
69.5953712749
 30
0.0
 40
1.587500000000006
100
AcDbArc
 50
269.999998716
 51
0.0000372183
  0
LINE
  5
1A3
330
1F
100
AcDbEntity
  8
0
  6
CONTINUOUS
 62
     7
100
AcDbLine
 10
179.4851716978
 20
69.5953723061
 30
0.0
 11
179.4851715266
 21
101.9803723312
 31
0.0
  0
ARC
  5
1A4
330
1F
100
AcDbEntity
  8
0
  6
CONTINUOUS
 62
     7
100
AcDbCircle
 10
177.8976715266
 20
101.9803723061
 30
0.0
 40
1.587500000000006
100
AcDbArc
 50
0.0000009043
 51
89.9999938219
  0
LINE
  5
1A5
330
1F
100
AcDbEntity
  8
0
  6
CONTINUOUS
 62
     7
100
AcDbLine
 10
177.8976716978
 20
103.5678723061
 30
0.0
 11
163.2926717456
 21
103.5678721956
 31
0.0
  0
ARC
  5
1A6
330
1F
100
AcDbEntity
  8
0
  6
CONTINUOUS
 62
     7
100
AcDbCircle
 10
163.2926716978
 20
101.9803721956
 30
0.0
 40
1.587500000000006
100
AcDbArc
 50
89.9999982749
 51
179.9999960103
  0
LINE
  5
1A7
330
1F
100
AcDbEntity
  8
0
  6
CONTINUOUS
 62
     7
100
AcDbLine
 10
161.7051716978
 20
101.9803723061
 30
0.0
 11
161.7051716484
 21
69.5953720706
 31
0.0
  0
ARC
  5
1A8
330
1F
100
AcDbEntity
  8
0
  6
CONTINUOUS
 62
     7
100
AcDbCircle
 10
208.0601716978
 20
67.3728740887
 30
0.0
 40
1.778000000000004
100
AcDbArc
 50
269.9999458408
 51
359.9999425559
  0
LINE
  5
1A9
330
1F
100
AcDbEntity
  8
0
  6
CONTINUOUS
 62
     7
100
AcDbLine
 10
161.0701717026
 20
65.5948740887
 30
0.0
 11
208.0601700171
 21
65.5948740887
 31
0.0
  0
ARC
  5
1AA
330
1F
100
AcDbEntity
  8
0
  6
CONTINUOUS
 62
     7
100
AcDbCircle
 10
161.0701721339
 20
67.3728723061
 30
0.0
 40
1.778000000000013
100
AcDbArc
 50
179.9999714593
 51
269.9999859475
  0
LINE
  5
1AB
330
1F
100
AcDbEntity
  8
0
  6
CONTINUOUS
 62
     7
100
AcDbLine
 10
159.2921721339
 20
104.2028723741
 30
0.0
 11
159.2921721339
 21
67.3728731918
 31
0.0
  0
ARC
  5
1AC
330
1F
100
AcDbEntity
  8
0
  6
CONTINUOUS
 62
     7
100
AcDbCircle
 10
161.0701716978
 20
104.2028724085
 30
0.0
 40
1.778000000000006
100
AcDbArc
 50
89.9999998451
 51
180.000003301
  0
LINE
  5
1AD
330
1F
100
AcDbEntity
  8
0
  6
CONTINUOUS
 62
     7
100
AcDbLine
 10
208.0601700171
 20
105.9808724085
 30
0.0
 11
161.0701717026
 21
105.9808724085
 31
0.0
  0
LINE
  5
1AE
330
1F
100
AcDbEntity
  8
0
  6
CONTINUOUS
 62
     7
100
AcDbLine
 10
161.0701717026
 20
107.3778721029
 30
0.0
 11
208.0601700171
 21
107.3778721029
 31
0.0
  0
LINE
  5
1AF
330
1F
100
AcDbEntity
  8
0
  6
CONTINUOUS
 62
     7
100
AcDbLine
 10
161.0701717026
 20
107.3778721029
 30
0.0
 11
161.0701717026
 21
105.9808724085
 31
0.0
  0
LINE
  5
1B0
330
1F
100
AcDbEntity
  8
0
  6
CONTINUOUS
 62
     7
100
AcDbLine
 10
211.2351716086
 20
104.2028723741
 30
0.0
 11
211.2351716086
 21
67.3728731918
 31
0.0
  0
LINE
  5
1B1
330
1F
100
AcDbEntity
  8
0
  6
CONTINUOUS
 62
     7
100
AcDbLine
 10
209.8381728455
 20
67.3728731918
 30
0.0
 11
211.2351716086
 21
67.3728731918
 31
0.0
  0
ARC
  5
1B2
330
1F
100
AcDbEntity
  8
0
  6
CONTINUOUS
 62
     7
100
AcDbCircle
 10
208.0601716978
 20
67.3728716003
 30
0.0
 40
3.175000000000015
100
AcDbArc
 50
269.9999696709
 51
0.0000127363
  0
LINE
  5
1B3
330
1F
100
AcDbEntity
  8
0
  6
CONTINUOUS
 62
     7
100
AcDbLine
 10
208.0601700171
 20
65.5948740887
 30
0.0
 11
208.0601700171
 21
64.1978716003
 31
0.0
  0
LINE
  5
1B4
330
1F
100
AcDbEntity
  8
0
  6
CONTINUOUS
 62
     7
100
AcDbLine
 10
208.0601700171
 20
64.1978716003
 30
0.0
 11
161.0701717026
 21
64.1978716003
 31
0.0
  0
LINE
  5
1B5
330
1F
100
AcDbEntity
  8
0
  6
CONTINUOUS
 62
     7
100
AcDbLine
 10
161.0701717026
 20
65.5948740887
 30
0.0
 11
161.0701717026
 21
64.1978716003
 31
0.0
  0
ARC
  5
1B6
330
1F
100
AcDbEntity
  8
0
  6
CONTINUOUS
 62
     7
100
AcDbCircle
 10
161.0701716978
 20
104.2028721029
 30
0.0
 40
3.174999999999997
100
AcDbArc
 50
89.9999999133
 51
179.9999963339
  0
LINE
  5
1B7
330
1F
100
AcDbEntity
  8
0
  6
CONTINUOUS
 62
     7
100
AcDbLine
 10
157.8951715081
 20
104.2028723741
 30
0.0
 11
159.2921721339
 21
104.2028723741
 31
0.0
  0
LINE
  5
1B8
330
1F
100
AcDbEntity
  8
0
  6
CONTINUOUS
 62
     7
100
AcDbLine
 10
157.8951715081
 20
67.3728731918
 30
0.0
 11
157.8951715081
 21
104.2028723741
 31
0.0
  0
LINE
  5
1B9
330
1F
100
AcDbEntity
  8
0
  6
CONTINUOUS
 62
     7
100
AcDbLine
 10
157.8951715081
 20
67.3728731918
 30
0.0
 11
159.2921721339
 21
67.3728731918
 31
0.0
  0
ARC
  5
1BA
330
1F
100
AcDbEntity
  8
0
  6
CONTINUOUS
 62
     7
100
AcDbCircle
 10
161.0701715081
 20
67.3728723061
 30
0.0
 40
3.175000000000022
100
AcDbArc
 50
179.9999840172
 51
270.0000034225
  0
LINE
  5
1BB
330
1F
100
AcDbEntity
  8
0
  6
CONTINUOUS
 62
     8
100
AcDbLine
 10
209.8381728455
 20
67.3728731918
 30
0.0
 11
209.8381728455
 21
79.4137881594
 31
0.0
  0
LINE
  5
1BC
330
1F
100
AcDbEntity
  8
0
  6
CONTINUOUS
 62
     8
100
AcDbLine
 10
209.8381728455
 20
92.1619569408
 30
0.0
 11
209.8381728455
 21
104.2028723741
 31
0.0
  0
DIMENSION
  5
1BD
330
1F
100
AcDbEntity
  8
0
  6
CONTINUOUS
 62
     7
100
AcDbDimension
  2
_D_3
 10
216.0551716978
 20
135.3778723061
 30
0.0
 11
180.9601716978
 21
135.3778723061
 31
0.0
 70
   160
  1
<>
  3
SLDDIMSTYLE1
100
AcDbAlignedDimension
 13
145.8651716978
 23
85.5313906289
 33
0.0
 14
216.0551716978
 24
87.5150723061
 34
0.0
100
AcDbRotatedDimension
  0
DIMENSION
  5
1D1
330
1F
100
AcDbEntity
  8
0
  6
CONTINUOUS
 62
     7
100
AcDbDimension
  2
_D_4
 10
211.2351716978
 20
49.3778723061
 30
0.0
 11
184.5651716978
 21
49.3778723061
 31
0.0
 70
   160
  1
<>
  3
SLDDIMSTYLE1
100
AcDbAlignedDimension
 13
157.8951716978
 23
67.3728723061
 33
0.0
 14
211.2351716978
 24
67.3728723061
 34
0.0
100
AcDbRotatedDimension
  0
DIMENSION
  5
1E5
330
1F
100
AcDbEntity
  8
0
  6
CONTINUOUS
 62
     7
100
AcDbDimension
  2
_D_5
 10
135.8651716978
 20
64.1978723061
 30
0.0
 11
135.8651716978
 21
85.7878723061
 31
0.0
 70
   160
  1
<>
  3
SLDDIMSTYLE1
100
AcDbAlignedDimension
 13
161.0701716978
 23
107.3778723061
 33
0.0
 14
161.0701716978
 24
64.1978723061
 34
0.0
 50
90.0
100
AcDbRotatedDimension
  0
DIMENSION
  5
1F9
330
1F
100
AcDbEntity
  8
0
  6
CONTINUOUS
 62
     7
100
AcDbDimension
  2
_D_6
 10
123.8651716978
 20
107.3778723061
 30
0.0
 11
123.8651716978
 21
83.3778723061
 31
0.0
 70
   160
  1
<>
  3
SLDDIMSTYLE3
100
AcDbAlignedDimension
 13
190.9151716978
 23
59.3778723061
 33
0.0
 14
161.0701716978
 24
107.3778723061
 34
0.0
 50
90.0
100
AcDbRotatedDimension
  0
DIMENSION
  5
20E
330
1F
100
AcDbEntity
  8
0
  6
CONTINUOUS
 62
     7
100
AcDbDimension
  2
_D_7
 10
211.2351716978
 20
117.3778723061
 30
0.0
 11
180.7151034754
 21
117.3778723061
 31
0.0
 70
   160
  1
<>
  3
SLDDIMSTYLE1
100
AcDbAlignedDimension
 13
195.9951716978
 23
85.7878723061
 33
0.0
 14
211.2351716978
 24
104.2028723061
 34
0.0
100
AcDbRotatedDimension
  0
DIMENSION
  5
222
330
1F
100
AcDbEntity
  8
0
  6
CONTINUOUS
 62
     7
100
AcDbDimension
  2
_D_8
 10
216.0551716978
 20
126.3186909749
 30
0.0
 11
238.0551716978
 21
126.3186909749
 31
0.0
 70
   160
  1
<>
  3
SLDDIMSTYLE1
100
AcDbAlignedDimension
 13
195.9951716978
 23
85.7878723061
 33
0.0
 14
216.0551716978
 24
90.8678723061
 34
0.0
100
AcDbRotatedDimension
  0
DIMENSION
  5
236
330
1F
100
AcDbEntity
  8
0
  6
CONTINUOUS
 62
     7
100
AcDbDimension
  2
_D_9
 10
238.0551716978
 20
85.7878723061
 30
0.0
 11
238.0551716978
 21
72.5828723061
 31
0.0
 70
   160
  1
<>
  3
SLDDIMSTYLE1
100
AcDbAlignedDimension
 13
201.0751716978
 23
59.3778723061
 33
0.0
 14
195.9951716978
 24
85.7878723061
 34
0.0
 50
90.0
100
AcDbRotatedDimension
  0
MTEXT
  5
24A
330
1F
100
AcDbEntity
  8
0
  6
CONTINUOUS
 62
     7
100
AcDbMText
 10
226.2335362644
 20
46.2704306366
 30
0.0
 40
2.1166666667
 41
0.0
 71
     1
 72
     1
  1
2X 8-32 x 0.25" THREAD
  7
SLDTEXTSTYLE0
  0
MTEXT
  5
24B
330
1F
100
AcDbEntity
  8
0
  6
CONTINUOUS
 62
     7
100
AcDbMText
 10
226.4680515452
 20
110.9153881162
 30
0.0
 40
2.1166666667
 41
0.0
 71
     1
 72
     1
  1
SM05 (0.535-40) INTERNAL THREAD
  7
SLDTEXTSTYLE0
  0
LEADER
  5
24C
330
1F
100
AcDbEntity
  8
0
  6
CONTINUOUS
 62
     7
100
AcDbLeader
  3
SLDDIMSTYLE2
 76
     3
 10
200.3061227385
 20
90.5706679671
 30
0.0
 10
219.5495609221
 20
109.8774576149
 30
0.0
 10
225.8995609221
 20
109.8774576149
 30
0.0
1001
ACAD
1000
DSTYLE
1002
{
1070
     6
1000

1002
}
  0
SOLID
  5
24D
330
1F
100
AcDbEntity
  8
0
  6
CONTINUOUS
 62
     7
100
AcDbTrace
 10
213.272293539
 20
80.4578723061
 30
0.0
 11
213.6564008075
 21
77.2655141485
 31
0.0
 12
214.633280993
 22
77.5447293041
 32
0.0
 13
214.633280993
 23
77.5447293041
 33
0.0
  0
SOLID
  5
24E
330
1F
100
AcDbEntity
  8
0
  6
CONTINUOUS
 62
     7
100
AcDbTrace
 10
201.2618585473
 20
61.3432577476
 30
0.0
 11
203.5119589275
 21
59.0463604319
 31
0.0
 12
204.1162900522
 22
59.8630855335
 32
0.0
 13
204.1162900522
 23
59.8630855335
 33
0.0
  0
LINE
  5
24F
330
1F
100
AcDbEntity
  8
0
  6
CONTINUOUS
 62
     7
100
AcDbLine
 10
201.2618585473
 20
61.3432577476
 30
0.0
 11
223.422531825
 21
44.9455927552
 31
0.0
  0
LINE
  5
250
330
1F
100
AcDbEntity
  8
0
  6
CONTINUOUS
 62
     7
100
AcDbLine
 10
223.422531825
 20
44.9455927552
 30
0.0
 11
225.0343943822
 21
45.0603732162
 31
0.0
  0
LINE
  5
251
330
1F
100
AcDbEntity
  8
0
  6
CONTINUOUS
 62
     7
100
AcDbLine
 10
225.0343943822
 20
45.0603732162
 30
0.0
 11
226.1800219539
 21
45.0603732162
 31
0.0
  0
LINE
  5
252
330
1F
100
AcDbEntity
  8
0
  6
CONTINUOUS
 62
     7
100
AcDbLine
 10
223.422531825
 20
44.9455927552
 30
0.0
 11
213.272293539
 21
80.4578723061
 31
0.0
  0
LINE
  5
253
330
1F
100
AcDbEntity
  8
0
  6
CENTERX2
 62
     7
100
AcDbLine
 10
195.9951716978
 20
69.4978723061
 30
0.0
 11
195.9951716978
 21
57.3778723061
 31
0.0
  0
LINE
  5
254
330
1F
100
AcDbEntity
  8
0
  6
CONTINUOUS
 62
     7
100
AcDbLine
 10
211.2351716086
 20
177.0050154092
 30
0.0
 11
210.9811701402
 21
177.259015015
 31
0.0
  0
LINE
  5
255
330
1F
100
AcDbEntity
  8
0
  6
CONTINUOUS
 62
     7
100
AcDbLine
 10
181.0091719552
 20
177.259015015
 30
0.0
 11
180.7551714181
 21
177.0050154092
 31
0.0
  0
LINE
  5
256
330
1F
100
AcDbEntity
  8
0
  6
CONTINUOUS
 62
     7
100
AcDbLine
 10
211.2351716086
 20
170.1470130148
 30
0.0
 11
211.2351716086
 21
177.0050154092
 31
0.0
  0
LINE
  5
257
330
1F
100
AcDbEntity
  8
0
  6
CONTINUOUS
 62
     7
100
AcDbLine
 10
180.7551714181
 20
177.0050154092
 30
0.0
 11
180.7551714181
 21
170.1470130148
 31
0.0
  0
LINE
  5
258
330
1F
100
AcDbEntity
  8
0
  6
CONTINUOUS
 62
     7
100
AcDbLine
 10
180.7551714181
 20
170.1470130148
 30
0.0
 11
181.0091719552
 21
169.8930152716
 31
0.0
  0
LINE
  5
259
330
1F
100
AcDbEntity
  8
0
  6
CONTINUOUS
 62
     7
100
AcDbLine
 10
210.9811701402
 20
169.8930152716
 30
0.0
 11
211.2351716086
 21
170.1470130148
 31
0.0
  0
ARC
  5
25A
330
1F
100
AcDbEntity
  8
0
  6
CONTINUOUS
 62
     7
100
AcDbCircle
 10
157.8951716978
 20
191.864014717
 30
0.0
 40
1.650000000000006
100
AcDbArc
 50
90.0
 51
177.96808482
  0
LINE
  5
25B
330
1F
100
AcDbEntity
  8
0
  6
CONTINUOUS
 62
     7
100
AcDbLine
 10
159.9652715548
 20
196.3244752052
 30
0.0
 11
159.9652715548
 21
196.3244752052
 31
0.0
  0
LINE
  5
25C
330
1F
100
AcDbEntity
  8
0
  6
CONTINUOUS
 62
     7
100
AcDbLine
 10
164.0800716876
 20
196.3244752052
 30
0.0
 11
164.0800716876
 21
196.3244752052
 31
0.0
  0
LINE
  5
25D
330
1F
100
AcDbEntity
  8
0
  6
CONTINUOUS
 62
     7
100
AcDbLine
 10
205.0502732917
 20
196.3244752052
 30
0.0
 11
205.0502732917
 21
196.3244752052
 31
0.0
  0
LINE
  5
25E
330
1F
100
AcDbEntity
  8
0
  6
CONTINUOUS
 62
     7
100
AcDbLine
 10
209.1650724932
 20
196.3244752052
 30
0.0
 11
209.1650724932
 21
196.3244752052
 31
0.0
  0
LINE
  5
25F
330
1F
100
AcDbEntity
  8
0
  6
CONTINUOUS
 62
     7
100
AcDbLine
 10
155.6853721439
 20
191.9225175889
 30
0.0
 11
149.335371755
 21
190.7990147384
 31
0.0
  0
LINE
  5
260
330
1F
100
AcDbEntity
  8
0
  6
CONTINUOUS
 62
     7
100
AcDbLine
 10
149.335371755
 20
181.4990156355
 30
0.0
 11
155.6853721439
 21
180.3755127849
 31
0.0
  0
LINE
  5
261
330
1F
100
AcDbEntity
  8
0
  6
CONTINUOUS
 62
     7
100
AcDbLine
 10
215.8051714822
 20
182.5970151486
 30
0.0
 11
216.0551719889
 21
182.8470137926
 31
0.0
  0
LINE
  5
262
330
1F
100
AcDbEntity
  8
0
  6
CONTINUOUS
 62
     7
100
AcDbLine
 10
216.0551719889
 20
193.0070147874
 30
0.0
 11
215.8051714822
 21
193.2570143627
 31
0.0
  0
LINE
  5
263
330
1F
100
AcDbEntity
  8
0
  6
CONTINUOUS
 62
     7
100
AcDbLine
 10
211.2351716086
 20
182.5970151486
 30
0.0
 11
215.8051714822
 21
182.5970151486
 31
0.0
  0
LINE
  5
264
330
1F
100
AcDbEntity
  8
0
  6
CONTINUOUS
 62
     7
100
AcDbLine
 10
215.8051714822
 20
193.2570143627
 30
0.0
 11
211.2351716086
 21
193.2570143627
 31
0.0
  0
LINE
  5
265
330
1F
100
AcDbEntity
  8
0
  6
CONTINUOUS
 62
     7
100
AcDbLine
 10
156.6451717689
 20
179.9755730691
 30
0.0
 11
157.8951715081
 21
179.9755730691
 31
0.0
  0
LINE
  5
266
330
1F
100
AcDbEntity
  8
0
  6
CONTINUOUS
 62
     7
100
AcDbLine
 10
145.8651725724
 20
181.4255715372
 30
0.0
 11
147.8076097145
 21
181.4255715372
 31
0.0
  0
LINE
  5
267
330
1F
100
AcDbEntity
  8
0
  6
CONTINUOUS
 62
     7
100
AcDbLine
 10
147.8076097145
 20
191.0255719932
 30
0.0
 11
145.8651725724
 21
191.0255719932
 31
0.0
  0
LINE
  5
268
330
1F
100
AcDbEntity
  8
0
  6
CONTINUOUS
 62
     7
100
AcDbLine
 10
151.0651711896
 20
191.1050678255
 30
0.0
 11
151.0651711896
 21
191.6055726843
 31
0.0
  0
LINE
  5
269
330
1F
100
AcDbEntity
  8
0
  6
CONTINUOUS
 62
     7
100
AcDbLine
 10
149.0651708617
 20
191.6055726843
 30
0.0
 11
149.0651708617
 21
190.9055720108
 31
0.0
  0
LINE
  5
26A
330
1F
100
AcDbEntity
  8
0
  6
CONTINUOUS
 62
     7
100
AcDbLine
 10
149.0651708617
 20
181.545572451
 30
0.0
 11
149.0651708617
 21
180.8455717774
 31
0.0
  0
LINE
  5
26B
330
1F
100
AcDbEntity
  8
0
  6
CONTINUOUS
 62
     7
100
AcDbLine
 10
151.0651711896
 20
180.8455717774
 30
0.0
 11
151.0651711896
 21
181.1929625483
 31
0.0
  0
LINE
  5
26C
330
1F
100
AcDbEntity
  8
0
  6
CONTINUOUS
 62
     7
100
AcDbLine
 10
158.8476714268
 20
196.321714765
 30
0.0
 11
158.8476714268
 21
196.321714765
 31
0.0
  0
LINE
  5
26D
330
1F
100
AcDbEntity
  8
0
  6
CONTINUOUS
 62
     7
100
AcDbLine
 10
158.8476714268
 20
196.321714765
 30
0.0
 11
161.3876716755
 21
196.321714765
 31
0.0
  0
LINE
  5
26E
330
1F
100
AcDbEntity
  8
0
  6
CONTINUOUS
 62
     7
100
AcDbLine
 10
161.3876716755
 20
196.321714765
 30
0.0
 11
207.7426709756
 21
196.321714765
 31
0.0
  0
LINE
  5
26F
330
1F
100
AcDbEntity
  8
0
  6
CONTINUOUS
 62
     7
100
AcDbLine
 10
210.2826707586
 20
196.321714765
 30
0.0
 11
210.2826707586
 21
196.321714765
 31
0.0
  0
LINE
  5
270
330
1F
100
AcDbEntity
  8
0
  6
CONTINUOUS
 62
     7
100
AcDbLine
 10
207.7426709756
 20
196.321714765
 30
0.0
 11
210.2826707586
 21
196.321714765
 31
0.0
  0
LINE
  5
271
330
1F
100
AcDbEntity
  8
0
  6
CONTINUOUS
 62
     7
100
AcDbLine
 10
210.9811701402
 20
177.259015015
 30
0.0
 11
209.8381728455
 21
177.259015015
 31
0.0
  0
LINE
  5
272
330
1F
100
AcDbEntity
  8
0
  6
CONTINUOUS
 62
     7
100
AcDbLine
 10
211.2351716086
 20
177.0050154092
 30
0.0
 11
180.7551714181
 21
177.0050154092
 31
0.0
  0
LINE
  5
273
330
1F
100
AcDbEntity
  8
0
  6
CONTINUOUS
 62
     7
100
AcDbLine
 10
211.2351716086
 20
170.1470130148
 30
0.0
 11
180.7551714181
 21
170.1470130148
 31
0.0
  0
LINE
  5
274
330
1F
100
AcDbEntity
  8
0
  6
CONTINUOUS
 62
     7
100
AcDbLine
 10
210.9811701402
 20
169.8930152716
 30
0.0
 11
181.0091719552
 21
169.8930152716
 31
0.0
  0
LINE
  5
275
330
1F
100
AcDbEntity
  8
0
  6
CONTINUOUS
 62
     7
100
AcDbLine
 10
161.2345864586
 20
196.3244752052
 30
0.0
 11
159.9652715548
 21
196.3244752052
 31
0.0
  0
LINE
  5
276
330
1F
100
AcDbEntity
  8
0
  6
CONTINUOUS
 62
     7
100
AcDbLine
 10
164.0800716876
 20
196.3244752052
 30
0.0
 11
161.2345864586
 21
196.3244752052
 31
0.0
  0
LINE
  5
277
330
1F
100
AcDbEntity
  8
0
  6
CONTINUOUS
 62
     7
100
AcDbLine
 10
206.3195877298
 20
196.3244752052
 30
0.0
 11
205.0502732917
 21
196.3244752052
 31
0.0
  0
LINE
  5
278
330
1F
100
AcDbEntity
  8
0
  6
CONTINUOUS
 62
     7
100
AcDbLine
 10
209.1650724932
 20
196.3244752052
 30
0.0
 11
206.3195877298
 21
196.3244752052
 31
0.0
  0
SPLINE
  5
279
330
1F
100
AcDbEntity
  8
0
  6
CONTINUOUS
 62
     7
100
AcDbSpline
210
0.0
220
0.0
230
1.0
 70
     8
 71
     3
 72
    28
 73
    24
 74
     0
 42
0.000000001
 43
0.00000001
 40
0.0
 40
0.0
 40
0.0
 40
0.0
 40
0.0722406037967926
 40
0.1447736951278466
 40
0.2171380928622113
 40
0.2891220520101555
 40
0.3609004370335878
 40
0.3944003163035359
 40
0.4278268511198755
 40
0.4461357417863072
 40
0.4644153616782201
 40
0.4940705943928694
 40
0.5238477330445485
 40
0.5420318105181834
 40
0.5602528730175286
 40
0.592464487062688
 40
0.6247706203611103
 40
0.6793883542463318
 40
0.7342006402633211
 40
0.7892030841097097
 40
0.8440810848439455
 40
0.9220362835495519
 40
0.9999999999999999
 40
0.9999999999999999
 40
0.9999999999999999
 40
0.9999999999999999
 10
155.6853721439309
 20
183.2622625889457
 30
0.0
 10
155.4377211028948
 20
183.3499482782386
 30
0.0
 10
154.9414163320499
 20
183.5256746783733
 30
0.0
 10
154.2034923612585
 20
183.8071813190593
 30
0.0
 10
153.4801916264986
 20
184.1229190897637
 30
0.0
 10
152.7839312437998
 20
184.4893385531211
 30
0.0
 10
152.2431294690924
 20
184.8429113514393
 30
0.0
 10
151.8497066990975
 20
185.1594967502911
 30
0.0
 10
151.633649741408
 20
185.3836600573544
 30
0.0
 10
151.4840691153789
 20
185.5904530176013
 30
0.0
 10
151.3699990520015
 20
185.8033846079661
 30
0.0
 10
151.2953467233525
 20
186.0818848937269
 30
0.0
 10
151.3285573561749
 20
186.3690543411653
 30
0.0
 10
151.4191247380169
 20
186.593175385863
 30
0.0
 10
151.5479744942644
 20
186.8077971328528
 30
0.0
 10
151.7444853758579
 20
187.0379635811776
 30
0.0
 10
152.0700708589278
 20
187.3247855647659
 30
0.0
 10
152.4914150595067
 20
187.6236937337186
 30
0.0
 10
153.0102463790497
 20
187.9222414102485
 30
0.0
 10
153.5490931437913
 20
188.1843862533565
 30
0.0
 10
154.1747402069682
 20
188.4587107315154
 30
0.0
 10
154.8851796702485
 20
188.7472652082466
 30
0.0
 10
155.4186316053307
 20
188.9395955153079
 30
0.0
 10
155.6853721439309
 20
189.0357659222758
 30
0.0
  0
SPLINE
  5
27A
330
1F
100
AcDbEntity
  8
0
  6
CONTINUOUS
 62
     7
100
AcDbSpline
210
0.0
220
0.0
230
1.0
 70
     8
 71
     3
 72
    27
 73
    23
 74
     0
 42
0.000000001
 43
0.00000001
 40
0.0
 40
0.0
 40
0.0
 40
0.0
 40
0.0972260531014794
 40
0.1946101710513047
 40
0.243281195365357
 40
0.2919413861691508
 40
0.3414646942643096
 40
0.390900327310718
 40
0.4337787006699478
 40
0.4551891293550316
 40
0.4772729462634538
 40
0.505391910974965
 40
0.5335042854492685
 40
0.5541723776709578
 40
0.5753982159450663
 40
0.600361951888554
 40
0.6253516146064685
 40
0.6766470183763171
 40
0.7568571474624302
 40
0.837156132366385
 40
0.918572842369626
 40
1.0
 40
1.0
 40
1.0
 40
1.0
 10
155.6853721439309
 20
180.3755127849257
 30
0.0
 10
155.3531132968109
 20
180.4358281754628
 30
0.0
 10
154.6880554341426
 20
180.5565570140303
 30
0.0
 10
153.8720287017099
 20
180.7277540829409
 30
0.0
 10
153.2325019790356
 20
180.8796680799696
 30
0.0
 10
152.7614007477505
 20
181.0054487724621
 30
0.0
 10
152.3030014473475
 20
181.1455385937693
 30
0.0
 10
151.8919950038029
 20
181.3020783764761
 30
0.0
 10
151.6018196997727
 20
181.4514481914838
 30
0.0
 10
151.4302310679083
 20
181.5836574127805
 30
0.0
 10
151.3295616792205
 20
181.7047116765001
 30
0.0
 10
151.2971147458674
 20
181.8491647966567
 30
0.0
 10
151.3660487676755
 20
181.9872841213008
 30
0.0
 10
151.4851833466307
 20
182.1003342266199
 30
0.0
 10
151.6303265491323
 20
182.1982737236272
 30
0.0
 10
151.8090471819499
 20
182.2922187567622
 30
0.0
 10
152.0876377193742
 20
182.4128000386443
 30
0.0
 10
152.555645132825
 20
182.5756441262986
 30
0.0
 10
153.2305968643449
 20
182.7622205264626
 30
0.0
 10
154.0313268927646
 20
182.9445835681155
 30
0.0
 10
154.8500608462811
 20
183.1114731292004
 30
0.0
 10
155.4069231357825
 20
183.2119972859102
 30
0.0
 10
155.6853721439309
 20
183.2622625889457
 30
0.0
  0
SPLINE
  5
27B
330
1F
100
AcDbEntity
  8
0
  6
CONTINUOUS
 62
     7
100
AcDbSpline
210
0.0
220
0.0
230
1.0
 70
     8
 71
     3
 72
    27
 73
    23
 74
     0
 42
0.000000001
 43
0.00000001
 40
0.0
 40
0.0
 40
0.0
 40
0.0
 40
0.0972260467302711
 40
0.1946101945036687
 40
0.2432812202958624
 40
0.2919414126595273
 40
0.3414646732784415
 40
0.3909003546988242
 40
0.4337786679581941
 40
0.455189088332804
 40
0.4772729047099019
 40
0.5053919536697545
 40
0.5335043274676899
 40
0.5541723514999364
 40
0.5753981892633632
 40
0.6003619178701731
 40
0.6253516080814596
 40
0.676647007938229
 40
0.7568571152714532
 40
0.8371561149720442
 40
0.9185728223621146
 40
1.0
 40
1.0
 40
1.0
 40
1.0
 10
155.6853721439309
 20
189.0357659222758
 30
0.0
 10
155.3531132518665
 20
189.0960810797142
 30
0.0
 10
154.6880551755096
 20
189.2168094741656
 30
0.0
 10
153.8720288716894
 20
189.3880094947798
 30
0.0
 10
153.2325019134639
 20
189.5399228032813
 30
0.0
 10
152.7614011222279
 20
189.6657045888638
 30
0.0
 10
152.3030007865348
 20
189.805790328541
 30
0.0
 10
151.8919956657748
 20
189.9623347256211
 30
0.0
 10
151.6018195318467
 20
190.1117009774654
 30
0.0
 10
151.4302310630428
 20
190.2439107227594
 30
0.0
 10
151.329561543265
 20
190.3649645837354
 30
0.0
 10
151.2971147994944
 20
190.5094199481574
 30
0.0
 10
151.3660484998857
 20
190.6475396842765
 30
0.0
 10
151.4851836145752
 20
190.7605869271157
 30
0.0
 10
151.6303264643807
 20
190.8585270736404
 30
0.0
 10
151.8090473776056
 20
190.9524716296314
 30
0.0
 10
152.0876374351042
 20
191.0730547204222
 30
0.0
 10
152.5556451490619
 20
191.2358980732276
 30
0.0
 10
153.2305970839156
 20
191.4224731193736
 30
0.0
 10
154.0313267456753
 20
191.6048380797878
 30
0.0
 10
154.8500610029525
 20
191.7717268762215
 30
0.0
 10
155.4069231622257
 20
191.8722518635752
 30
0.0
 10
155.6853721439309
 20
191.9225175889409
 30
0.0
  0
LINE
  5
27C
330
1F
100
AcDbEntity
  8
0
  6
CONTINUOUS
 62
     7
100
AcDbLine
 10
149.335371755
 20
190.7990147384
 30
0.0
 11
149.335371755
 21
181.4990156355
 31
0.0
  0
LINE
  5
27D
330
1F
100
AcDbEntity
  8
0
  6
CONTINUOUS
 62
     7
100
AcDbLine
 10
157.8951715081
 20
183.2622625889
 30
0.0
 11
155.6853721439
 21
183.2622625889
 31
0.0
  0
LINE
  5
27E
330
1F
100
AcDbEntity
  8
0
  6
CONTINUOUS
 62
     7
100
AcDbLine
 10
157.8951715081
 20
180.3755127849
 30
0.0
 11
155.6853721439
 21
180.3755127849
 31
0.0
  0
LINE
  5
27F
330
1F
100
AcDbEntity
  8
0
  6
CONTINUOUS
 62
     7
100
AcDbLine
 10
157.8951715081
 20
191.9225175889
 30
0.0
 11
155.6853721439
 21
191.9225175889
 31
0.0
  0
LINE
  5
280
330
1F
100
AcDbEntity
  8
0
  6
CONTINUOUS
 62
     7
100
AcDbLine
 10
157.8951715081
 20
189.0357659223
 30
0.0
 11
155.6853721439
 21
189.0357659223
 31
0.0
  0
LINE
  5
281
330
1F
100
AcDbEntity
  8
0
  6
CONTINUOUS
 62
     7
100
AcDbLine
 10
215.8051714822
 20
186.2256714167
 30
0.0
 11
215.8051714822
 21
193.2570143627
 31
0.0
  0
LINE
  5
282
330
1F
100
AcDbEntity
  8
0
  6
CONTINUOUS
 62
     7
100
AcDbLine
 10
215.8051714822
 20
182.5970151486
 30
0.0
 11
215.8051714822
 21
186.2256714167
 31
0.0
  0
LINE
  5
283
330
1F
100
AcDbEntity
  8
0
  6
CONTINUOUS
 62
     7
100
AcDbLine
 10
216.0551719889
 20
186.3054708602
 30
0.0
 11
216.0551719889
 21
182.8470137926
 31
0.0
  0
LINE
  5
284
330
1F
100
AcDbEntity
  8
0
  6
CONTINUOUS
 62
     7
100
AcDbLine
 10
216.0551719889
 20
193.0070147874
 30
0.0
 11
216.0551719889
 21
186.3054708602
 31
0.0
  0
LINE
  5
285
330
1F
100
AcDbEntity
  8
0
  6
CONTINUOUS
 62
     7
100
AcDbLine
 10
156.6451717689
 20
180.3755127849
 30
0.0
 11
156.6451717689
 21
179.9755730691
 31
0.0
  0
LINE
  5
286
330
1F
100
AcDbEntity
  8
0
  6
CONTINUOUS
 62
     7
100
AcDbLine
 10
149.335371755
 20
181.6142351391
 30
0.0
 11
148.7451721504
 21
181.545572451
 31
0.0
  0
LINE
  5
287
330
1F
100
AcDbEntity
  8
0
  6
CONTINUOUS
 62
     7
100
AcDbLine
 10
148.7451721504
 20
190.9055720108
 30
0.0
 11
148.7451721504
 21
181.545572451
 31
0.0
  0
SPLINE
  5
288
330
1F
100
AcDbEntity
  8
0
  6
CONTINUOUS
 62
     7
100
AcDbSpline
210
0.0
220
0.0
230
1.0
 70
     8
 71
     3
 72
     9
 73
     5
 74
     0
 42
0.000000001
 43
0.00000001
 40
0.0
 40
0.0
 40
0.0
 40
0.0
 40
0.0977338467059496
 40
1.0
 40
1.0
 40
1.0
 40
1.0
 10
149.4841766133376
 20
190.8253422962702
 30
0.0
 10
149.4599631993063
 20
190.8261559922673
 30
0.0
 10
149.2122146981745
 20
190.8344816238119
 30
0.0
 10
148.9666956644759
 20
190.871853043604
 30
0.0
 10
148.7451721503802
 20
190.905572010783
 30
0.0
  0
LINE
  5
289
330
1F
100
AcDbEntity
  8
0
  6
CONTINUOUS
 62
     7
100
AcDbLine
 10
148.0714571252
 20
190.9055720108
 30
0.0
 11
148.7451721504
 21
190.9055720108
 31
0.0
  0
LINE
  5
28A
330
1F
100
AcDbEntity
  8
0
  6
CONTINUOUS
 62
     7
100
AcDbLine
 10
148.7451721504
 20
181.545572451
 30
0.0
 11
148.0714571252
 21
181.545572451
 31
0.0
  0
SPLINE
  5
28B
330
1F
100
AcDbEntity
  8
0
  6
CONTINUOUS
 62
     7
100
AcDbSpline
210
0.0
220
0.0
230
1.0
 70
     8
 71
     3
 72
    11
 73
     7
 74
     0
 42
0.000000001
 43
0.00000001
 40
0.0
 40
0.0
 40
0.0
 40
0.0
 40
0.3152058133601275
 40
0.6390530171872281
 40
0.9544254604578725
 40
1.0
 40
1.0
 40
1.0
 40
1.0
 10
148.0714571251936
 20
181.5455724509633
 30
0.0
 10
148.0211613236326
 20
181.5236925840082
 30
0.0
 10
147.9191908574257
 20
181.4793330119425
 30
0.0
 10
147.8354147338297
 20
181.4402733740941
 30
0.0
 10
147.797467750327
 20
181.4224653890905
 30
0.0
 10
147.8064727135874
 20
181.4266919095593
 30
0.0
 10
147.8076097145148
 20
181.4255715372241
 30
0.0
  0
SPLINE
  5
28C
330
1F
100
AcDbEntity
  8
0
  6
CONTINUOUS
 62
     7
100
AcDbSpline
210
0.0
220
0.0
230
1.0
 70
     8
 71
     3
 72
    11
 73
     7
 74
     0
 42
0.000000001
 43
0.00000001
 40
0.0
 40
0.0
 40
0.0
 40
0.0
 40
0.3152058133601275
 40
0.6390530171872281
 40
0.9544254604578725
 40
1.0
 40
1.0
 40
1.0
 40
1.0
 10
148.0714571251936
 20
190.905572010783
 30
0.0
 10
148.0211613236326
 20
190.9274518777381
 30
0.0
 10
147.9191908574257
 20
190.9718114498038
 30
0.0
 10
147.8354147338297
 20
191.0108710876521
 30
0.0
 10
147.797467750327
 20
191.0286790726558
 30
0.0
 10
147.8064727135874
 20
191.024452552187
 30
0.0
 10
147.8076097145148
 20
191.0255719931996
 30
0.0
  0
LINE
  5
28D
330
1F
100
AcDbEntity
  8
0
  6
CONTINUOUS
 62
     7
100
AcDbLine
 10
145.8651725724
 20
181.4255715372
 30
0.0
 11
145.8651725724
 21
191.0255719932
 31
0.0
  0
LINE
  5
28E
330
1F
100
AcDbEntity
  8
0
  6
CONTINUOUS
 62
     7
100
AcDbLine
 10
149.937631987
 20
190.9055720108
 30
0.0
 11
148.7451721504
 21
190.9055720108
 31
0.0
  0
LINE
  5
28F
330
1F
100
AcDbEntity
  8
0
  6
CONTINUOUS
 62
     7
100
AcDbLine
 10
149.335371755
 20
181.4990156355
 30
0.0
 11
148.7451721504
 21
181.545572451
 31
0.0
  0
LINE
  5
290
330
1F
100
AcDbEntity
  8
0
  6
CONTINUOUS
 62
     7
100
AcDbLine
 10
150.0651710256
 20
191.6055726843
 30
0.0
 11
149.0651708617
 21
191.6055726843
 31
0.0
  0
LINE
  5
291
330
1F
100
AcDbEntity
  8
0
  6
CONTINUOUS
 62
     7
100
AcDbLine
 10
151.0651711896
 20
191.6055726843
 30
0.0
 11
150.0651710256
 21
191.6055726843
 31
0.0
  0
LINE
  5
292
330
1F
100
AcDbEntity
  8
0
  6
CONTINUOUS
 62
     7
100
AcDbLine
 10
150.0651710256
 20
180.8455717774
 30
0.0
 11
149.0651708617
 21
180.8455717774
 31
0.0
  0
LINE
  5
293
330
1F
100
AcDbEntity
  8
0
  6
CONTINUOUS
 62
     7
100
AcDbLine
 10
151.0651711896
 20
180.8455717774
 30
0.0
 11
150.0651710256
 21
180.8455717774
 31
0.0
  0
LINE
  5
294
330
1F
100
AcDbEntity
  8
0
  6
CONTINUOUS
 62
     7
100
AcDbLine
 10
174.1759832538
 20
189.2052144768
 30
0.0
 11
173.4759830459
 21
189.2052144768
 31
0.0
  0
LINE
  5
295
330
1F
100
AcDbEntity
  8
0
  6
CONTINUOUS
 62
     7
100
AcDbLine
 10
173.4759830459
 20
189.2052144768
 30
0.0
 11
173.3759832158
 21
189.3052143069
 31
0.0
  0
LINE
  5
296
330
1F
100
AcDbEntity
  8
0
  6
CONTINUOUS
 62
     7
100
AcDbLine
 10
173.3759832158
 20
189.3052143069
 30
0.0
 11
174.2759830839
 21
189.3052143069
 31
0.0
  0
LINE
  5
297
330
1F
100
AcDbEntity
  8
0
  6
CONTINUOUS
 62
     7
100
AcDbLine
 10
174.1759832538
 20
189.2052144768
 30
0.0
 11
174.2759830839
 21
189.3052143069
 31
0.0
  0
LINE
  5
298
330
1F
100
AcDbEntity
  8
0
  6
CONTINUOUS
 62
     7
100
AcDbLine
 10
173.4759830459
 20
189.2052144768
 30
0.0
 11
173.4759830459
 21
188.5052138033
 31
0.0
  0
LINE
  5
299
330
1F
100
AcDbEntity
  8
0
  6
CONTINUOUS
 62
     7
100
AcDbLine
 10
173.3759832158
 20
188.4052139731
 30
0.0
 11
173.4759830459
 21
188.5052138033
 31
0.0
  0
LINE
  5
29A
330
1F
100
AcDbEntity
  8
0
  6
CONTINUOUS
 62
     7
100
AcDbLine
 10
173.3759832158
 20
188.4052139731
 30
0.0
 11
173.3759832158
 21
189.3052143069
 31
0.0
  0
LINE
  5
29B
330
1F
100
AcDbEntity
  8
0
  6
CONTINUOUS
 62
     7
100
AcDbLine
 10
176.2759829461
 20
188.5052138033
 30
0.0
 11
176.2759829461
 21
189.2052144768
 31
0.0
  0
LINE
  5
29C
330
1F
100
AcDbEntity
  8
0
  6
CONTINUOUS
 62
     7
100
AcDbLine
 10
176.2759829461
 20
189.2052144768
 30
0.0
 11
176.3759827762
 21
189.3052143069
 31
0.0
  0
LINE
  5
29D
330
1F
100
AcDbEntity
  8
0
  6
CONTINUOUS
 62
     7
100
AcDbLine
 10
176.3759827762
 20
189.3052143069
 30
0.0
 11
176.3759827762
 21
188.4052139731
 31
0.0
  0
LINE
  5
29E
330
1F
100
AcDbEntity
  8
0
  6
CONTINUOUS
 62
     7
100
AcDbLine
 10
176.2759829461
 20
188.5052138033
 30
0.0
 11
176.3759827762
 21
188.4052139731
 31
0.0
  0
LINE
  5
29F
330
1F
100
AcDbEntity
  8
0
  6
CONTINUOUS
 62
     7
100
AcDbLine
 10
175.2259828671
 20
188.5052138033
 30
0.0
 11
175.2259828671
 21
189.2052144768
 31
0.0
  0
LINE
  5
2A0
330
1F
100
AcDbEntity
  8
0
  6
CONTINUOUS
 62
     7
100
AcDbLine
 10
175.2259828671
 20
189.2052144768
 30
0.0
 11
175.3259826973
 21
189.3052143069
 31
0.0
  0
LINE
  5
2A1
330
1F
100
AcDbEntity
  8
0
  6
CONTINUOUS
 62
     7
100
AcDbLine
 10
175.3259826973
 20
189.3052143069
 30
0.0
 11
175.3259826973
 21
188.4052139731
 31
0.0
  0
LINE
  5
2A2
330
1F
100
AcDbEntity
  8
0
  6
CONTINUOUS
 62
     7
100
AcDbLine
 10
175.2259828671
 20
188.5052138033
 30
0.0
 11
175.3259826973
 21
188.4052139731
 31
0.0
  0
LINE
  5
2A3
330
1F
100
AcDbEntity
  8
0
  6
CONTINUOUS
 62
     7
100
AcDbLine
 10
174.4259832948
 20
188.4052139731
 30
0.0
 11
174.4259832948
 21
189.3052143069
 31
0.0
  0
LINE
  5
2A4
330
1F
100
AcDbEntity
  8
0
  6
CONTINUOUS
 62
     7
100
AcDbLine
 10
174.4259832948
 20
189.3052143069
 30
0.0
 11
174.5259831249
 21
189.2052144768
 31
0.0
  0
LINE
  5
2A5
330
1F
100
AcDbEntity
  8
0
  6
CONTINUOUS
 62
     7
100
AcDbLine
 10
174.5259831249
 20
189.2052144768
 30
0.0
 11
174.5259831249
 21
188.5052138033
 31
0.0
  0
LINE
  5
2A6
330
1F
100
AcDbEntity
  8
0
  6
CONTINUOUS
 62
     7
100
AcDbLine
 10
174.4259832948
 20
188.4052139731
 30
0.0
 11
174.5259831249
 21
188.5052138033
 31
0.0
  0
LINE
  5
2A7
330
1F
100
AcDbEntity
  8
0
  6
CONTINUOUS
 62
     7
100
AcDbLine
 10
175.2259828671
 20
189.2052144768
 30
0.0
 11
174.5259831249
 21
189.2052144768
 31
0.0
  0
LINE
  5
2A8
330
1F
100
AcDbEntity
  8
0
  6
CONTINUOUS
 62
     7
100
AcDbLine
 10
174.4259832948
 20
189.3052143069
 30
0.0
 11
175.3259826973
 21
189.3052143069
 31
0.0
  0
LINE
  5
2A9
330
1F
100
AcDbEntity
  8
0
  6
CONTINUOUS
 62
     7
100
AcDbLine
 10
176.2759829461
 20
189.2052144768
 30
0.0
 11
175.5759832039
 21
189.2052144768
 31
0.0
  0
LINE
  5
2AA
330
1F
100
AcDbEntity
  8
0
  6
CONTINUOUS
 62
     7
100
AcDbLine
 10
175.4759833738
 20
189.3052143069
 30
0.0
 11
175.5759832039
 21
189.2052144768
 31
0.0
  0
LINE
  5
2AB
330
1F
100
AcDbEntity
  8
0
  6
CONTINUOUS
 62
     7
100
AcDbLine
 10
175.4759833738
 20
189.3052143069
 30
0.0
 11
176.3759827762
 21
189.3052143069
 31
0.0
  0
LINE
  5
2AC
330
1F
100
AcDbEntity
  8
0
  6
CONTINUOUS
 62
     7
100
AcDbLine
 10
174.1759832538
 20
188.5052138033
 30
0.0
 11
174.1759832538
 21
189.2052144768
 31
0.0
  0
LINE
  5
2AD
330
1F
100
AcDbEntity
  8
0
  6
CONTINUOUS
 62
     7
100
AcDbLine
 10
174.2759830839
 20
189.3052143069
 30
0.0
 11
174.2759830839
 21
188.4052139731
 31
0.0
  0
LINE
  5
2AE
330
1F
100
AcDbEntity
  8
0
  6
CONTINUOUS
 62
     7
100
AcDbLine
 10
174.2759830839
 20
188.4052139731
 30
0.0
 11
174.1759832538
 21
188.5052138033
 31
0.0
  0
LINE
  5
2AF
330
1F
100
AcDbEntity
  8
0
  6
CONTINUOUS
 62
     7
100
AcDbLine
 10
175.4759833738
 20
188.4052139731
 30
0.0
 11
175.4759833738
 21
189.3052143069
 31
0.0
  0
LINE
  5
2B0
330
1F
100
AcDbEntity
  8
0
  6
CONTINUOUS
 62
     7
100
AcDbLine
 10
175.5759832039
 20
189.2052144768
 30
0.0
 11
175.5759832039
 21
188.5052138033
 31
0.0
  0
LINE
  5
2B1
330
1F
100
AcDbEntity
  8
0
  6
CONTINUOUS
 62
     7
100
AcDbLine
 10
175.4759833738
 20
188.4052139731
 30
0.0
 11
175.5759832039
 21
188.5052138033
 31
0.0
  0
LINE
  5
2B2
330
1F
100
AcDbEntity
  8
0
  6
CONTINUOUS
 62
     7
100
AcDbLine
 10
175.5759832039
 20
188.5052138033
 30
0.0
 11
176.2759829461
 21
188.5052138033
 31
0.0
  0
LINE
  5
2B3
330
1F
100
AcDbEntity
  8
0
  6
CONTINUOUS
 62
     7
100
AcDbLine
 10
174.5259831249
 20
188.5052138033
 30
0.0
 11
175.2259828671
 21
188.5052138033
 31
0.0
  0
LINE
  5
2B4
330
1F
100
AcDbEntity
  8
0
  6
CONTINUOUS
 62
     7
100
AcDbLine
 10
173.4759830459
 20
188.5052138033
 30
0.0
 11
174.1759832538
 21
188.5052138033
 31
0.0
  0
LINE
  5
2B5
330
1F
100
AcDbEntity
  8
0
  6
CONTINUOUS
 62
     7
100
AcDbLine
 10
175.3259826973
 20
188.4052139731
 30
0.0
 11
174.4259832948
 21
188.4052139731
 31
0.0
  0
LINE
  5
2B6
330
1F
100
AcDbEntity
  8
0
  6
CONTINUOUS
 62
     7
100
AcDbLine
 10
176.3759827762
 20
188.4052139731
 30
0.0
 11
175.4759833738
 21
188.4052139731
 31
0.0
  0
LINE
  5
2B7
330
1F
100
AcDbEntity
  8
0
  6
CONTINUOUS
 62
     7
100
AcDbLine
 10
174.2759830839
 20
188.4052139731
 30
0.0
 11
173.3759832158
 21
188.4052139731
 31
0.0
  0
LINE
  5
2B8
330
1F
100
AcDbEntity
  8
0
  6
CONTINUOUS
 62
     7
100
AcDbLine
 10
174.5259831249
 20
188.1552153291
 30
0.0
 11
174.5259831249
 21
187.4552146556
 31
0.0
  0
LINE
  5
2B9
330
1F
100
AcDbEntity
  8
0
  6
CONTINUOUS
 62
     7
100
AcDbLine
 10
174.4259832948
 20
187.3552148255
 30
0.0
 11
174.5259831249
 21
187.4552146556
 31
0.0
  0
LINE
  5
2BA
330
1F
100
AcDbEntity
  8
0
  6
CONTINUOUS
 62
     7
100
AcDbLine
 10
174.4259832948
 20
187.3552148255
 30
0.0
 11
174.4259832948
 21
188.2552151593
 31
0.0
  0
LINE
  5
2BB
330
1F
100
AcDbEntity
  8
0
  6
CONTINUOUS
 62
     7
100
AcDbLine
 10
174.5259831249
 20
188.1552153291
 30
0.0
 11
174.4259832948
 21
188.2552151593
 31
0.0
  0
LINE
  5
2BC
330
1F
100
AcDbEntity
  8
0
  6
CONTINUOUS
 62
     7
100
AcDbLine
 10
173.4759830459
 20
188.1552153291
 30
0.0
 11
173.4759830459
 21
187.4552146556
 31
0.0
  0
LINE
  5
2BD
330
1F
100
AcDbEntity
  8
0
  6
CONTINUOUS
 62
     7
100
AcDbLine
 10
173.3759832158
 20
187.3552148255
 30
0.0
 11
173.4759830459
 21
187.4552146556
 31
0.0
  0
LINE
  5
2BE
330
1F
100
AcDbEntity
  8
0
  6
CONTINUOUS
 62
     7
100
AcDbLine
 10
173.3759832158
 20
187.3552148255
 30
0.0
 11
173.3759832158
 21
188.2552151593
 31
0.0
  0
LINE
  5
2BF
330
1F
100
AcDbEntity
  8
0
  6
CONTINUOUS
 62
     7
100
AcDbLine
 10
173.4759830459
 20
188.1552153291
 30
0.0
 11
173.3759832158
 21
188.2552151593
 31
0.0
  0
LINE
  5
2C0
330
1F
100
AcDbEntity
  8
0
  6
CONTINUOUS
 62
     7
100
AcDbLine
 10
174.1759832538
 20
187.4552146556
 30
0.0
 11
174.1759832538
 21
188.1552153291
 31
0.0
  0
LINE
  5
2C1
330
1F
100
AcDbEntity
  8
0
  6
CONTINUOUS
 62
     7
100
AcDbLine
 10
174.1759832538
 20
188.1552153291
 30
0.0
 11
174.2759830839
 21
188.2552151593
 31
0.0
  0
LINE
  5
2C2
330
1F
100
AcDbEntity
  8
0
  6
CONTINUOUS
 62
     7
100
AcDbLine
 10
174.2759830839
 20
188.2552151593
 30
0.0
 11
174.2759830839
 21
187.3552148255
 31
0.0
  0
LINE
  5
2C3
330
1F
100
AcDbEntity
  8
0
  6
CONTINUOUS
 62
     7
100
AcDbLine
 10
174.2759830839
 20
187.3552148255
 30
0.0
 11
174.1759832538
 21
187.4552146556
 31
0.0
  0
LINE
  5
2C4
330
1F
100
AcDbEntity
  8
0
  6
CONTINUOUS
 62
     7
100
AcDbLine
 10
175.4759833738
 20
188.2552151593
 30
0.0
 11
176.3759827762
 21
188.2552151593
 31
0.0
  0
LINE
  5
2C5
330
1F
100
AcDbEntity
  8
0
  6
CONTINUOUS
 62
     7
100
AcDbLine
 10
176.3759827762
 20
188.2552151593
 30
0.0
 11
176.2759829461
 21
188.1552153291
 31
0.0
  0
LINE
  5
2C6
330
1F
100
AcDbEntity
  8
0
  6
CONTINUOUS
 62
     7
100
AcDbLine
 10
176.2759829461
 20
188.1552153291
 30
0.0
 11
175.5759832039
 21
188.1552153291
 31
0.0
  0
LINE
  5
2C7
330
1F
100
AcDbEntity
  8
0
  6
CONTINUOUS
 62
     7
100
AcDbLine
 10
175.4759833738
 20
188.2552151593
 30
0.0
 11
175.5759832039
 21
188.1552153291
 31
0.0
  0
LINE
  5
2C8
330
1F
100
AcDbEntity
  8
0
  6
CONTINUOUS
 62
     7
100
AcDbLine
 10
175.2259828671
 20
188.1552153291
 30
0.0
 11
174.5259831249
 21
188.1552153291
 31
0.0
  0
LINE
  5
2C9
330
1F
100
AcDbEntity
  8
0
  6
CONTINUOUS
 62
     7
100
AcDbLine
 10
174.4259832948
 20
188.2552151593
 30
0.0
 11
175.3259826973
 21
188.2552151593
 31
0.0
  0
LINE
  5
2CA
330
1F
100
AcDbEntity
  8
0
  6
CONTINUOUS
 62
     7
100
AcDbLine
 10
175.2259828671
 20
188.1552153291
 30
0.0
 11
175.3259826973
 21
188.2552151593
 31
0.0
  0
LINE
  5
2CB
330
1F
100
AcDbEntity
  8
0
  6
CONTINUOUS
 62
     7
100
AcDbLine
 10
176.2759829461
 20
187.4552146556
 30
0.0
 11
176.2759829461
 21
188.1552153291
 31
0.0
  0
LINE
  5
2CC
330
1F
100
AcDbEntity
  8
0
  6
CONTINUOUS
 62
     7
100
AcDbLine
 10
176.3759827762
 20
188.2552151593
 30
0.0
 11
176.3759827762
 21
187.3552148255
 31
0.0
  0
LINE
  5
2CD
330
1F
100
AcDbEntity
  8
0
  6
CONTINUOUS
 62
     7
100
AcDbLine
 10
176.2759829461
 20
187.4552146556
 30
0.0
 11
176.3759827762
 21
187.3552148255
 31
0.0
  0
LINE
  5
2CE
330
1F
100
AcDbEntity
  8
0
  6
CONTINUOUS
 62
     7
100
AcDbLine
 10
175.2259828671
 20
187.4552146556
 30
0.0
 11
175.2259828671
 21
188.1552153291
 31
0.0
  0
LINE
  5
2CF
330
1F
100
AcDbEntity
  8
0
  6
CONTINUOUS
 62
     7
100
AcDbLine
 10
175.3259826973
 20
188.2552151593
 30
0.0
 11
175.3259826973
 21
187.3552148255
 31
0.0
  0
LINE
  5
2D0
330
1F
100
AcDbEntity
  8
0
  6
CONTINUOUS
 62
     7
100
AcDbLine
 10
175.3259826973
 20
187.3552148255
 30
0.0
 11
175.2259828671
 21
187.4552146556
 31
0.0
  0
LINE
  5
2D1
330
1F
100
AcDbEntity
  8
0
  6
CONTINUOUS
 62
     7
100
AcDbLine
 10
175.5759832039
 20
188.1552153291
 30
0.0
 11
175.5759832039
 21
187.4552146556
 31
0.0
  0
LINE
  5
2D2
330
1F
100
AcDbEntity
  8
0
  6
CONTINUOUS
 62
     7
100
AcDbLine
 10
175.5759832039
 20
187.4552146556
 30
0.0
 11
175.4759833738
 21
187.3552148255
 31
0.0
  0
LINE
  5
2D3
330
1F
100
AcDbEntity
  8
0
  6
CONTINUOUS
 62
     7
100
AcDbLine
 10
175.4759833738
 20
187.3552148255
 30
0.0
 11
175.4759833738
 21
188.2552151593
 31
0.0
  0
LINE
  5
2D4
330
1F
100
AcDbEntity
  8
0
  6
CONTINUOUS
 62
     7
100
AcDbLine
 10
174.1759832538
 20
188.1552153291
 30
0.0
 11
173.4759830459
 21
188.1552153291
 31
0.0
  0
LINE
  5
2D5
330
1F
100
AcDbEntity
  8
0
  6
CONTINUOUS
 62
     7
100
AcDbLine
 10
173.3759832158
 20
188.2552151593
 30
0.0
 11
174.2759830839
 21
188.2552151593
 31
0.0
  0
LINE
  5
2D6
330
1F
100
AcDbEntity
  8
0
  6
CONTINUOUS
 62
     7
100
AcDbLine
 10
173.4759830459
 20
187.4552146556
 30
0.0
 11
174.1759832538
 21
187.4552146556
 31
0.0
  0
LINE
  5
2D7
330
1F
100
AcDbEntity
  8
0
  6
CONTINUOUS
 62
     7
100
AcDbLine
 10
174.5259831249
 20
187.4552146556
 30
0.0
 11
175.2259828671
 21
187.4552146556
 31
0.0
  0
LINE
  5
2D8
330
1F
100
AcDbEntity
  8
0
  6
CONTINUOUS
 62
     7
100
AcDbLine
 10
175.5759832039
 20
187.4552146556
 30
0.0
 11
176.2759829461
 21
187.4552146556
 31
0.0
  0
LINE
  5
2D9
330
1F
100
AcDbEntity
  8
0
  6
CONTINUOUS
 62
     7
100
AcDbLine
 10
175.3259826973
 20
187.3552148255
 30
0.0
 11
174.4259832948
 21
187.3552148255
 31
0.0
  0
LINE
  5
2DA
330
1F
100
AcDbEntity
  8
0
  6
CONTINUOUS
 62
     7
100
AcDbLine
 10
174.2759830839
 20
187.3552148255
 30
0.0
 11
173.3759832158
 21
187.3552148255
 31
0.0
  0
LINE
  5
2DB
330
1F
100
AcDbEntity
  8
0
  6
CONTINUOUS
 62
     7
100
AcDbLine
 10
176.3759827762
 20
187.3552148255
 30
0.0
 11
175.4759833738
 21
187.3552148255
 31
0.0
  0
LINE
  5
2DC
330
1F
100
AcDbEntity
  8
0
  6
CONTINUOUS
 62
     7
100
AcDbLine
 10
176.2759829461
 20
186.405215508
 30
0.0
 11
176.2759829461
 21
187.1052143188
 31
0.0
  0
LINE
  5
2DD
330
1F
100
AcDbEntity
  8
0
  6
CONTINUOUS
 62
     7
100
AcDbLine
 10
176.3759827762
 20
187.205214149
 30
0.0
 11
176.2759829461
 21
187.1052143188
 31
0.0
  0
LINE
  5
2DE
330
1F
100
AcDbEntity
  8
0
  6
CONTINUOUS
 62
     7
100
AcDbLine
 10
176.3759827762
 20
187.205214149
 30
0.0
 11
176.3759827762
 21
186.3052138152
 31
0.0
  0
LINE
  5
2DF
330
1F
100
AcDbEntity
  8
0
  6
CONTINUOUS
 62
     7
100
AcDbLine
 10
176.2759829461
 20
186.405215508
 30
0.0
 11
176.3759827762
 21
186.3052138152
 31
0.0
  0
LINE
  5
2E0
330
1F
100
AcDbEntity
  8
0
  6
CONTINUOUS
 62
     7
100
AcDbLine
 10
174.2759830839
 20
187.205214149
 30
0.0
 11
174.2759830839
 21
186.3052138152
 31
0.0
  0
LINE
  5
2E1
330
1F
100
AcDbEntity
  8
0
  6
CONTINUOUS
 62
     7
100
AcDbLine
 10
174.2759830839
 20
186.3052138152
 30
0.0
 11
174.1759832538
 21
186.405215508
 31
0.0
  0
LINE
  5
2E2
330
1F
100
AcDbEntity
  8
0
  6
CONTINUOUS
 62
     7
100
AcDbLine
 10
174.1759832538
 20
186.405215508
 30
0.0
 11
174.1759832538
 21
187.1052143188
 31
0.0
  0
LINE
  5
2E3
330
1F
100
AcDbEntity
  8
0
  6
CONTINUOUS
 62
     7
100
AcDbLine
 10
174.2759830839
 20
187.205214149
 30
0.0
 11
174.1759832538
 21
187.1052143188
 31
0.0
  0
LINE
  5
2E4
330
1F
100
AcDbEntity
  8
0
  6
CONTINUOUS
 62
     7
100
AcDbLine
 10
175.3259826973
 20
187.205214149
 30
0.0
 11
175.3259826973
 21
186.3052138152
 31
0.0
  0
LINE
  5
2E5
330
1F
100
AcDbEntity
  8
0
  6
CONTINUOUS
 62
     7
100
AcDbLine
 10
175.3259826973
 20
186.3052138152
 30
0.0
 11
175.2259828671
 21
186.405215508
 31
0.0
  0
LINE
  5
2E6
330
1F
100
AcDbEntity
  8
0
  6
CONTINUOUS
 62
     7
100
AcDbLine
 10
175.2259828671
 20
186.405215508
 30
0.0
 11
175.2259828671
 21
187.1052143188
 31
0.0
  0
LINE
  5
2E7
330
1F
100
AcDbEntity
  8
0
  6
CONTINUOUS
 62
     7
100
AcDbLine
 10
175.3259826973
 20
187.205214149
 30
0.0
 11
175.2259828671
 21
187.1052143188
 31
0.0
  0
LINE
  5
2E8
330
1F
100
AcDbEntity
  8
0
  6
CONTINUOUS
 62
     7
100
AcDbLine
 10
173.4759830459
 20
187.1052143188
 30
0.0
 11
173.4759830459
 21
186.405215508
 31
0.0
  0
LINE
  5
2E9
330
1F
100
AcDbEntity
  8
0
  6
CONTINUOUS
 62
     7
100
AcDbLine
 10
173.4759830459
 20
186.405215508
 30
0.0
 11
173.3759832158
 21
186.3052138152
 31
0.0
  0
LINE
  5
2EA
330
1F
100
AcDbEntity
  8
0
  6
CONTINUOUS
 62
     7
100
AcDbLine
 10
173.3759832158
 20
186.3052138152
 30
0.0
 11
173.3759832158
 21
187.205214149
 31
0.0
  0
LINE
  5
2EB
330
1F
100
AcDbEntity
  8
0
  6
CONTINUOUS
 62
     7
100
AcDbLine
 10
173.4759830459
 20
187.1052143188
 30
0.0
 11
173.3759832158
 21
187.205214149
 31
0.0
  0
LINE
  5
2EC
330
1F
100
AcDbEntity
  8
0
  6
CONTINUOUS
 62
     7
100
AcDbLine
 10
175.5759832039
 20
187.1052143188
 30
0.0
 11
175.5759832039
 21
186.405215508
 31
0.0
  0
LINE
  5
2ED
330
1F
100
AcDbEntity
  8
0
  6
CONTINUOUS
 62
     7
100
AcDbLine
 10
175.5759832039
 20
186.405215508
 30
0.0
 11
175.4759833738
 21
186.3052138152
 31
0.0
  0
LINE
  5
2EE
330
1F
100
AcDbEntity
  8
0
  6
CONTINUOUS
 62
     7
100
AcDbLine
 10
175.4759833738
 20
186.3052138152
 30
0.0
 11
175.4759833738
 21
187.205214149
 31
0.0
  0
LINE
  5
2EF
330
1F
100
AcDbEntity
  8
0
  6
CONTINUOUS
 62
     7
100
AcDbLine
 10
175.4759833738
 20
187.205214149
 30
0.0
 11
175.5759832039
 21
187.1052143188
 31
0.0
  0
LINE
  5
2F0
330
1F
100
AcDbEntity
  8
0
  6
CONTINUOUS
 62
     7
100
AcDbLine
 10
175.4759833738
 20
187.205214149
 30
0.0
 11
176.3759827762
 21
187.205214149
 31
0.0
  0
LINE
  5
2F1
330
1F
100
AcDbEntity
  8
0
  6
CONTINUOUS
 62
     7
100
AcDbLine
 10
176.2759829461
 20
187.1052143188
 30
0.0
 11
175.5759832039
 21
187.1052143188
 31
0.0
  0
LINE
  5
2F2
330
1F
100
AcDbEntity
  8
0
  6
CONTINUOUS
 62
     7
100
AcDbLine
 10
174.1759832538
 20
187.1052143188
 30
0.0
 11
173.4759830459
 21
187.1052143188
 31
0.0
  0
LINE
  5
2F3
330
1F
100
AcDbEntity
  8
0
  6
CONTINUOUS
 62
     7
100
AcDbLine
 10
173.3759832158
 20
187.205214149
 30
0.0
 11
174.2759830839
 21
187.205214149
 31
0.0
  0
LINE
  5
2F4
330
1F
100
AcDbEntity
  8
0
  6
CONTINUOUS
 62
     7
100
AcDbLine
 10
174.5259831249
 20
187.1052143188
 30
0.0
 11
174.5259831249
 21
186.405215508
 31
0.0
  0
LINE
  5
2F5
330
1F
100
AcDbEntity
  8
0
  6
CONTINUOUS
 62
     7
100
AcDbLine
 10
174.5259831249
 20
186.405215508
 30
0.0
 11
174.4259832948
 21
186.3052138152
 31
0.0
  0
LINE
  5
2F6
330
1F
100
AcDbEntity
  8
0
  6
CONTINUOUS
 62
     7
100
AcDbLine
 10
174.4259832948
 20
186.3052138152
 30
0.0
 11
174.4259832948
 21
187.205214149
 31
0.0
  0
LINE
  5
2F7
330
1F
100
AcDbEntity
  8
0
  6
CONTINUOUS
 62
     7
100
AcDbLine
 10
174.5259831249
 20
187.1052143188
 30
0.0
 11
174.4259832948
 21
187.205214149
 31
0.0
  0
LINE
  5
2F8
330
1F
100
AcDbEntity
  8
0
  6
CONTINUOUS
 62
     7
100
AcDbLine
 10
175.2259828671
 20
187.1052143188
 30
0.0
 11
174.5259831249
 21
187.1052143188
 31
0.0
  0
LINE
  5
2F9
330
1F
100
AcDbEntity
  8
0
  6
CONTINUOUS
 62
     7
100
AcDbLine
 10
174.4259832948
 20
187.205214149
 30
0.0
 11
175.3259826973
 21
187.205214149
 31
0.0
  0
LINE
  5
2FA
330
1F
100
AcDbEntity
  8
0
  6
CONTINUOUS
 62
     7
100
AcDbLine
 10
175.5759832039
 20
186.405215508
 30
0.0
 11
176.2759829461
 21
186.405215508
 31
0.0
  0
LINE
  5
2FB
330
1F
100
AcDbEntity
  8
0
  6
CONTINUOUS
 62
     7
100
AcDbLine
 10
174.5259831249
 20
186.405215508
 30
0.0
 11
175.2259828671
 21
186.405215508
 31
0.0
  0
LINE
  5
2FC
330
1F
100
AcDbEntity
  8
0
  6
CONTINUOUS
 62
     7
100
AcDbLine
 10
173.4759830459
 20
186.405215508
 30
0.0
 11
174.1759832538
 21
186.405215508
 31
0.0
  0
LINE
  5
2FD
330
1F
100
AcDbEntity
  8
0
  6
CONTINUOUS
 62
     7
100
AcDbLine
 10
176.3759827762
 20
186.3052138152
 30
0.0
 11
175.4759833738
 21
186.3052138152
 31
0.0
  0
LINE
  5
2FE
330
1F
100
AcDbEntity
  8
0
  6
CONTINUOUS
 62
     7
100
AcDbLine
 10
175.3259826973
 20
186.3052138152
 30
0.0
 11
174.4259832948
 21
186.3052138152
 31
0.0
  0
LINE
  5
2FF
330
1F
100
AcDbEntity
  8
0
  6
CONTINUOUS
 62
     7
100
AcDbLine
 10
174.2759830839
 20
186.3052138152
 30
0.0
 11
173.3759832158
 21
186.3052138152
 31
0.0
  0
LINE
  5
300
330
1F
100
AcDbEntity
  8
0
  6
CONTINUOUS
 62
     7
100
AcDbLine
 10
174.2759830839
 20
186.3052138152
 30
0.0
 11
174.4259832948
 21
186.3052138152
 31
0.0
  0
LINE
  5
301
330
1F
100
AcDbEntity
  8
0
  6
CONTINUOUS
 62
     7
100
AcDbLine
 10
175.3259826973
 20
186.3052138152
 30
0.0
 11
175.4759833738
 21
186.3052138152
 31
0.0
  0
LINE
  5
302
330
1F
100
AcDbEntity
  8
0
  6
CONTINUOUS
 62
     7
100
AcDbLine
 10
173.3759832158
 20
188.4052139731
 30
0.0
 11
173.3759832158
 21
188.2552151593
 31
0.0
  0
LINE
  5
303
330
1F
100
AcDbEntity
  8
0
  6
CONTINUOUS
 62
     7
100
AcDbLine
 10
173.3759832158
 20
187.3552148255
 30
0.0
 11
173.3759832158
 21
187.205214149
 31
0.0
  0
LINE
  5
304
330
1F
100
AcDbEntity
  8
0
  6
CONTINUOUS
 62
     7
100
AcDbLine
 10
175.4759833738
 20
189.3052143069
 30
0.0
 11
175.3259826973
 21
189.3052143069
 31
0.0
  0
LINE
  5
305
330
1F
100
AcDbEntity
  8
0
  6
CONTINUOUS
 62
     7
100
AcDbLine
 10
174.4259832948
 20
189.3052143069
 30
0.0
 11
174.2759830839
 21
189.3052143069
 31
0.0
  0
LINE
  5
306
330
1F
100
AcDbEntity
  8
0
  6
CONTINUOUS
 62
     7
100
AcDbLine
 10
176.3759827762
 20
187.205214149
 30
0.0
 11
176.3759827762
 21
187.3552148255
 31
0.0
  0
LINE
  5
307
330
1F
100
AcDbEntity
  8
0
  6
CONTINUOUS
 62
     7
100
AcDbLine
 10
176.3759827762
 20
188.2552151593
 30
0.0
 11
176.3759827762
 21
188.4052139731
 31
0.0
  0
LINE
  5
308
330
1F
100
AcDbEntity
  8
0
  6
CONTINUOUS
 62
     7
100
AcDbLine
 10
173.3759832158
 20
186.3052138152
 30
0.0
 11
171.375982888
 21
186.3052138152
 31
0.0
  0
LINE
  5
309
330
1F
100
AcDbEntity
  8
0
  6
CONTINUOUS
 62
     7
100
AcDbLine
 10
171.375982888
 20
189.3052143069
 30
0.0
 11
173.3759832158
 21
189.3052143069
 31
0.0
  0
LINE
  5
30A
330
1F
100
AcDbEntity
  8
0
  6
CONTINUOUS
 62
     7
100
AcDbLine
 10
171.375982888
 20
186.3052138152
 30
0.0
 11
171.375982888
 21
189.3052143069
 31
0.0
  0
LINE
  5
30B
330
1F
100
AcDbEntity
  8
0
  6
CONTINUOUS
 62
     7
100
AcDbLine
 10
208.0601700171
 20
196.3090143191
 30
0.0
 11
211.2351716086
 21
196.3090143191
 31
0.0
  0
LINE
  5
30C
330
1F
100
AcDbEntity
  8
0
  6
CONTINUOUS
 62
     7
100
AcDbLine
 10
211.2351716086
 20
196.3090143191
 30
0.0
 11
211.2351716086
 21
178.6560156407
 31
0.0
  0
LINE
  5
30D
330
1F
100
AcDbEntity
  8
0
  6
CONTINUOUS
 62
     7
100
AcDbLine
 10
208.0601700171
 20
178.6560156407
 30
0.0
 11
211.2351716086
 21
178.6560156407
 31
0.0
  0
LINE
  5
30E
330
1F
100
AcDbEntity
  8
0
  6
CONTINUOUS
 62
     7
100
AcDbLine
 10
208.0601700171
 20
178.6560156407
 30
0.0
 11
208.0601700171
 21
196.3090143191
 31
0.0
  0
LINE
  5
30F
330
1F
100
AcDbEntity
  8
0
  6
CONTINUOUS
 62
     7
100
AcDbLine
 10
161.0701717026
 20
178.6560156407
 30
0.0
 11
208.0601700171
 21
178.6560156407
 31
0.0
  0
LINE
  5
310
330
1F
100
AcDbEntity
  8
0
  6
CONTINUOUS
 62
     7
100
AcDbLine
 10
161.0701717026
 20
196.3090143191
 30
0.0
 11
161.0701717026
 21
178.6560156407
 31
0.0
  0
ARC
  5
311
330
1F
100
AcDbEntity
  8
0
  6
CONTINUOUS
 62
     7
100
AcDbCircle
 10
170.2459217317
 20
185.418764717
 30
0.0
 40
0.7937500000000275
100
AcDbArc
 50
180.0000355219
 51
269.9999975535
  0
LINE
  5
312
330
1F
100
AcDbEntity
  8
0
  6
CONTINUOUS
 62
     7
100
AcDbLine
 10
170.2459216978
 20
184.625014717
 30
0.0
 11
177.0404218286
 21
184.6250147583
 31
0.0
  0
ARC
  5
313
330
1F
100
AcDbEntity
  8
0
  6
CONTINUOUS
 62
     7
100
AcDbCircle
 10
177.0404216978
 20
185.4187647583
 30
0.0
 40
0.7937499999999994
100
AcDbArc
 50
270.0000094402
 51
359.9999970147
  0
LINE
  5
314
330
1F
100
AcDbEntity
  8
0
  6
CONTINUOUS
 62
     7
100
AcDbLine
 10
177.8341716978
 20
185.418764717
 30
0.0
 11
177.8341712951
 21
190.1812647494
 31
0.0
  0
ARC
  5
315
330
1F
100
AcDbEntity
  8
0
  6
CONTINUOUS
 62
     7
100
AcDbCircle
 10
177.0404212951
 20
190.181264717
 30
0.0
 40
0.7937499999999893
100
AcDbArc
 50
0.0000023399
 51
89.999970933
  0
LINE
  5
316
330
1F
100
AcDbEntity
  8
0
  6
CONTINUOUS
 62
     7
100
AcDbLine
 10
177.0404216978
 20
190.975014717
 30
0.0
 11
170.2459216639
 21
190.9750151472
 31
0.0
  0
ARC
  5
317
330
1F
100
AcDbEntity
  8
0
  6
CONTINUOUS
 62
     7
100
AcDbCircle
 10
170.2459216978
 20
190.1812651472
 30
0.0
 40
0.7937499999999893
100
AcDbArc
 50
90.0000024475
 51
180.000031059
  0
LINE
  5
318
330
1F
100
AcDbEntity
  8
0
  6
CONTINUOUS
 62
     7
100
AcDbLine
 10
169.4521716978
 20
190.181264717
 30
0.0
 11
169.4521717317
 21
185.4187642249
 31
0.0
  0
LINE
  5
319
330
1F
100
AcDbEntity
  8
0
  6
CONTINUOUS
 62
     7
100
AcDbLine
 10
208.0601700171
 20
196.3090143191
 30
0.0
 11
161.0701717026
 21
196.3090143191
 31
0.0
  0
LINE
  5
31A
330
1F
100
AcDbEntity
  8
0
  6
CONTINUOUS
 62
     7
100
AcDbLine
 10
157.8951715081
 20
178.6560156407
 30
0.0
 11
161.0701717026
 21
178.6560156407
 31
0.0
  0
LINE
  5
31B
330
1F
100
AcDbEntity
  8
0
  6
CONTINUOUS
 62
     7
100
AcDbLine
 10
157.8951715081
 20
178.6560156407
 30
0.0
 11
157.8951715081
 21
196.3090143191
 31
0.0
  0
LINE
  5
31C
330
1F
100
AcDbEntity
  8
0
  6
CONTINUOUS
 62
     7
100
AcDbLine
 10
157.8951715081
 20
196.3090143191
 30
0.0
 11
161.0701717026
 21
196.3090143191
 31
0.0
  0
LINE
  5
31D
330
1F
100
AcDbEntity
  8
0
  6
CONTINUOUS
 62
     7
100
AcDbLine
 10
209.8381728455
 20
177.259015015
 30
0.0
 11
208.0601700171
 21
177.259015015
 31
0.0
  0
LINE
  5
31E
330
1F
100
AcDbEntity
  8
0
  6
CONTINUOUS
 62
     7
100
AcDbLine
 10
208.0601700171
 20
178.6560156407
 30
0.0
 11
208.0601700171
 21
177.259015015
 31
0.0
  0
ARC
  5
31F
330
1F
100
AcDbEntity
  8
0
  6
CONTINUOUS
 62
     7
100
AcDbCircle
 10
209.8381716978
 20
178.656015015
 30
0.0
 40
1.397000000000008
100
AcDbArc
 50
270.0000470709
 51
359.9999877774
  0
LINE
  5
320
330
1F
100
AcDbEntity
  8
0
  6
CONTINUOUS
 62
     7
100
AcDbLine
 10
161.0701717026
 20
178.6560156407
 30
0.0
 11
161.0701717026
 21
177.259015015
 31
0.0
  0
LINE
  5
321
330
1F
100
AcDbEntity
  8
0
  6
CONTINUOUS
 62
     7
100
AcDbLine
 10
161.0701717026
 20
177.259015015
 30
0.0
 11
159.2921716978
 21
177.259014717
 31
0.0
  0
ARC
  5
322
330
1F
100
AcDbEntity
  8
0
  6
CONTINUOUS
 62
     7
100
AcDbCircle
 10
159.2921715081
 20
178.656014717
 30
0.0
 40
1.397000000000041
100
AcDbArc
 50
179.9999621141
 51
270.0000077784
  0
LINE
  5
323
330
1F
100
AcDbEntity
  8
0
  6
CONTINUOUS
 62
     7
100
AcDbLine
 10
208.0601700171
 20
177.259015015
 30
0.0
 11
161.0701717026
 21
177.259015015
 31
0.0
  0
ARC
  5
324
330
1F
100
AcDbEntity
  8
0
  6
CONTINUOUS
 62
     7
100
AcDbCircle
 10
171.5159216978
 20
188.9112643244
 30
0.0
 40
0.7937500000000014
100
AcDbArc
 50
90.000010278
 51
179.9999716633
  0
LINE
  5
325
330
1F
100
AcDbEntity
  8
0
  6
CONTINUOUS
 62
     7
100
AcDbLine
 10
170.7221716978
 20
188.911264717
 30
0.0
 11
170.7221716232
 21
186.6887641164
 31
0.0
  0
ARC
  5
326
330
1F
100
AcDbEntity
  8
0
  6
CONTINUOUS
 62
     7
100
AcDbCircle
 10
171.5159216232
 20
186.688764717
 30
0.0
 40
0.7937499999999885
100
AcDbArc
 50
180.0000433524
 51
270.000005384
  0
LINE
  5
327
330
1F
100
AcDbEntity
  8
0
  6
CONTINUOUS
 62
     7
100
AcDbLine
 10
171.5159216978
 20
185.895014717
 30
0.0
 11
175.7704219371
 21
185.8950146498
 31
0.0
  0
ARC
  5
328
330
1F
100
AcDbEntity
  8
0
  6
CONTINUOUS
 62
     7
100
AcDbCircle
 10
175.7704216978
 20
186.6887646498
 30
0.0
 40
0.7937499999999963
100
AcDbArc
 50
270.0000172707
 51
0.0000048452
  0
LINE
  5
329
330
1F
100
AcDbEntity
  8
0
  6
CONTINUOUS
 62
     7
100
AcDbLine
 10
176.5641716978
 20
186.688764717
 30
0.0
 11
176.5641714036
 21
188.9112648579
 31
0.0
  0
ARC
  5
32A
330
1F
100
AcDbEntity
  8
0
  6
CONTINUOUS
 62
     7
100
AcDbCircle
 10
175.7704214036
 20
188.911264717
 30
0.0
 40
0.7937500000000296
100
AcDbArc
 50
0.0000101705
 51
89.9999787635
  0
LINE
  5
32B
330
1F
100
AcDbEntity
  8
0
  6
CONTINUOUS
 62
     7
100
AcDbLine
 10
175.7704216978
 20
189.705014717
 30
0.0
 11
171.5159215554
 21
189.7050143244
 31
0.0
  0
LINE
  5
32C
330
1F
100
AcDbEntity
  8
0
  6
CONTINUOUS
 62
     8
100
AcDbLine
 10
161.3876716755
 20
196.321714765
 30
0.0
 11
161.3876716755
 21
196.321714765
 31
0.0
  0
LINE
  5
32D
330
1F
100
AcDbEntity
  8
0
  6
CONTINUOUS
 62
     8
100
AcDbLine
 10
207.7426709756
 20
196.321714765
 30
0.0
 11
207.7426709756
 21
196.321714765
 31
0.0
  0
DIMENSION
  5
32E
330
1F
100
AcDbEntity
  8
0
  6
CONTINUOUS
 62
     7
100
AcDbDimension
  2
_D_10
 10
129.8651716978
 20
177.259014717
 30
0.0
 11
129.8651716978
 21
186.784014717
 31
0.0
 70
   160
  1
<>
  3
SLDDIMSTYLE1
100
AcDbAlignedDimension
 13
161.0701716978
 23
196.309014717
 33
0.0
 14
161.0701716978
 24
177.259014717
 34
0.0
 50
90.0
100
AcDbRotatedDimension
  0
DIMENSION
  5
342
330
1F
100
AcDbEntity
  8
0
  6
CONTINUOUS
 62
     7
100
AcDbDimension
  2
_D_11
 10
111.8651716978
 20
196.309014717
 30
0.0
 11
111.8651716978
 21
183.101014717
 31
0.0
 70
   160
  1
<>
  3
SLDDIMSTYLE1
100
AcDbAlignedDimension
 13
181.0091716978
 23
169.893014717
 33
0.0
 14
161.0701716978
 24
196.309014717
 34
0.0
 50
90.0
100
AcDbRotatedDimension
  0
INSERT
  5
35B
102
{ACAD_REACTORS
330
35C
102
}
330
1F
100
AcDbEntity
  8
0
  6
CONTINUOUS
 62
     7
100
AcDbBlockReference
  2
SW_NOTE_4
 10
181.6745334797
 20
154.695191519
 30
0.0
  0
LEADER
  5
35C
330
1F
100
AcDbEntity
  8
0
  6
CONTINUOUS
 62
     7
100
AcDbLeader
  3
SLDDIMSTYLE2
 73
     2
 76
     3
 10
191.885015871
 20
169.893014717
 30
0.0
 10
188.0245334797
 20
154.695191519
 30
0.0
 10
181.6745334797
 20
154.695191519
 30
0.0
340
35B
1001
ACAD
1000
DSTYLE
1002
{
1070
     6
1000

1002
}
  0
MTEXT
  5
35D
330
1F
100
AcDbEntity
  8
0
  6
CONTINUOUS
 62
     7
100
AcDbMText
 10
132.9360695266
 20
207.5094489132
 30
0.0
 40
2.1166666667
 41
0.0
 71
     1
 72
     1
  1
POWER SWITCH
  7
SLDTEXTSTYLE0
  0
LEADER
  5
35E
330
1F
100
AcDbEntity
  8
0
  6
CONTINUOUS
 62
     7
100
AcDbLeader
  3
SLDDIMSTYLE2
 76
     3
 10
174.8674778037
 20
189.205214717
 30
0.0
 10
160.7436758179
 20
206.4746036083
 30
0.0
 10
154.3936758179
 20
206.4746036083
 30
0.0
1001
ACAD
1000
DSTYLE
1002
{
1070
     6
1000

1002
}
  0
LINE
  5
35F
330
1F
100
AcDbEntity
  8
0
  6
CONTINUOUS
 62
     7
100
AcDbLine
 10
255.9519043721
 20
172.2039739502
 30
0.0
 11
256.0780804051
 21
172.2645659067
 31
0.0
  0
LINE
  5
360
330
1F
100
AcDbEntity
  8
0
  6
CONTINUOUS
 62
     7
100
AcDbLine
 10
230.2681889452
 20
190.1944025288
 30
0.0
 11
230.125321535
 21
190.1513046553
 31
0.0
  0
SPLINE
  5
361
330
1F
100
AcDbEntity
  8
0
  6
CONTINUOUS
 62
     7
100
AcDbSpline
210
0.0
220
0.0
230
1.0
 70
     8
 71
     3
 72
    33
 73
    29
 74
     0
 42
0.000000001
 43
0.00000001
 40
0.0
 40
0.0
 40
0.0
 40
0.0
 40
0.021799998501433
 40
0.0610914488279078
 40
0.1003901604143148
 40
0.1398179922402329
 40
0.1794591696621331
 40
0.2193469463564578
 40
0.259467709417286
 40
0.2997776358624606
 40
0.3402227530323697
 40
0.3807544288880439
 40
0.4213371693069607
 40
0.4619494056653582
 40
0.5025816318353935
 40
0.5432350663276381
 40
0.5839130600570336
 40
0.6246188152487059
 40
0.6653523961071461
 40
0.70610090462865
 40
0.7468376136948329
 40
0.7875177421932341
 40
0.8280785171599307
 40
0.8684472901975118
 40
0.908559604716362
 40
0.9483835931915685
 40
0.9879401389921784
 40
1.0
 40
1.0
 40
1.0
 40
1.0
 10
242.4400191239792
 20
161.8955807682526
 30
0.0
 10
242.4051681311132
 20
161.8759415557908
 30
0.0
 10
242.3075341722062
 20
161.8209229206021
 30
0.0
 10
242.1658364955488
 20
161.7002860266618
 30
0.0
 10
242.0170569576599
 20
161.5391523596842
 30
0.0
 10
241.8916154883596
 20
161.3547669921169
 30
0.0
 10
241.7902885233071
 20
161.1514792010638
 30
0.0
 10
241.7148681420014
 20
160.9317739358024
 30
0.0
 10
241.6665329172322
 20
160.6990870150422
 30
0.0
 10
241.6461608574853
 20
160.4570363685506
 30
0.0
 10
241.654136610867
 20
160.2095228055058
 30
0.0
 10
241.6903541877908
 20
159.9605473268556
 30
0.0
 10
241.7542258711291
 20
159.7141114826497
 30
0.0
 10
241.8447246825014
 20
159.4741293423289
 30
0.0
 10
241.960430978556
 20
159.2443682682258
 30
0.0
 10
242.0995735501329
 20
159.0284151871464
 30
0.0
 10
242.2600618345461
 20
158.8296496084592
 30
0.0
 10
242.4395075043047
 20
158.6512203859648
 30
0.0
 10
242.6352369697636
 20
158.4960213679082
 30
0.0
 10
242.8442957867825
 20
158.3666585483899
 30
0.0
 10
243.0634487025737
 20
158.2653980634721
 30
0.0
 10
243.2891745189289
 20
158.194118835625
 30
0.0
 10
243.5177369712393
 20
158.1541400075953
 30
0.0
 10
243.7450712966053
 20
158.1464291446281
 30
0.0
 10
243.9675897114987
 20
158.1703645230778
 30
0.0
 10
244.1798718314851
 20
158.2279820637027
 30
0.0
 10
244.3370901675244
 20
158.2898065525305
 30
0.0
 10
244.4168489519461
 20
158.3411266491773
 30
0.0
 10
244.4354886316623
 20
158.3531201890918
 30
0.0
  0
LINE
  5
362
330
1F
100
AcDbEntity
  8
0
  6
CONTINUOUS
 62
     7
100
AcDbLine
 10
242.8533321598
 20
162.1092085182
 30
0.0
 11
242.440019124
 21
161.8955807683
 31
0.0
  0
LINE
  5
363
330
1F
100
AcDbEntity
  8
0
  6
CONTINUOUS
 62
     7
100
AcDbLine
 10
244.4517420983
 20
158.3587135793
 30
0.0
 11
244.8532148482
 21
158.5729750404
 31
0.0
  0
LINE
  5
364
330
1F
100
AcDbEntity
  8
0
  6
CONTINUOUS
 62
     7
100
AcDbLine
 10
246.846042496
 20
146.6598180756
 30
0.0
 11
249.805646047
 21
148.4899278517
 31
0.0
  0
LINE
  5
365
330
1F
100
AcDbEntity
  8
0
  6
CONTINUOUS
 62
     7
100
AcDbLine
 10
236.7421691245
 20
171.5973741608
 30
0.0
 11
233.5459448087
 21
170.2311136764
 31
0.0
  0
LINE
  5
366
330
1F
100
AcDbEntity
  8
0
  6
CONTINUOUS
 62
     7
100
AcDbLine
 10
259.4945468977
 20
195.4685105778
 30
0.0
 11
258.6732925015
 21
200.4921645263
 31
0.0
  0
LINE
  5
367
330
1F
100
AcDbEntity
  8
0
  6
CONTINUOUS
 62
     7
100
AcDbLine
 10
250.3207137295
 20
200.4729452396
 30
0.0
 11
249.3109504656
 21
194.976405345
 31
0.0
  0
LINE
  5
368
330
1F
100
AcDbEntity
  8
0
  6
CONTINUOUS
 62
     7
100
AcDbLine
 10
251.9929635042
 20
200.4576874721
 30
0.0
 11
251.9887965174
 21
199.8950129324
 31
0.0
  0
LINE
  5
369
330
1F
100
AcDbEntity
  8
0
  6
CONTINUOUS
 62
     7
100
AcDbLine
 10
257.0083408836
 20
199.9067269957
 30
0.0
 11
257.0153326206
 21
200.469249337
 31
0.0
  0
LINE
  5
36A
330
1F
100
AcDbEntity
  8
0
  6
CONTINUOUS
 62
     7
100
AcDbLine
 10
226.4585837409
 20
162.7528154307
 30
0.0
 11
226.5252801601
 21
162.5986941093
 31
0.0
  0
LINE
  5
36B
330
1F
100
AcDbEntity
  8
0
  6
CONTINUOUS
 62
     7
100
AcDbLine
 10
238.5105712174
 20
204.4871921837
 30
0.0
 11
238.5258674673
 21
201.9613696049
 31
0.0
  0
LINE
  5
36C
330
1F
100
AcDbEntity
  8
0
  6
CONTINUOUS
 62
     7
100
AcDbLine
 10
246.9389414806
 20
202.0313075148
 30
0.0
 11
246.9448584519
 21
204.5528188167
 31
0.0
  0
SPLINE
  5
36D
330
1F
100
AcDbEntity
  8
0
  6
CONTINUOUS
 62
     7
100
AcDbSpline
210
0.0
220
0.0
230
1.0
 70
     8
 71
     3
 72
    13
 73
     9
 74
     0
 42
0.000000001
 43
0.00000001
 40
0.0
 40
0.0
 40
0.0
 40
0.0
 40
0.0719973406467468
 40
0.2959276250903934
 40
0.5181534893641745
 40
0.7385422627534315
 40
0.9569829286085174
 40
1.0
 40
1.0
 40
1.0
 40
1.0
 10
246.9274470766186
 20
199.7542688889486
 30
0.0
 10
246.9188160616599
 20
199.8073893254025
 30
0.0
 10
246.8833252161375
 20
200.0258212494912
 30
0.0
 10
246.8551053095854
 20
200.4151033233256
 30
0.0
 10
246.842696161881
 20
200.9177236217552
 30
0.0
 10
246.868785805968
 20
201.4170171598188
 30
0.0
 10
246.9037212849485
 20
201.7809172388313
 30
0.0
 10
246.9397417275169
 20
201.9755632964969
 30
0.0
 10
246.9456700963891
 20
202.0075988170814
 30
0.0
  0
LINE
  5
36E
330
1F
100
AcDbEntity
  8
0
  6
CONTINUOUS
 62
     7
100
AcDbLine
 10
237.3046271699
 20
195.0776983621
 30
0.0
 11
237.3125235681
 21
193.99984651
 31
0.0
  0
LINE
  5
36F
330
1F
100
AcDbEntity
  8
0
  6
CONTINUOUS
 62
     7
100
AcDbLine
 10
248.1811133978
 20
194.1083963359
 30
0.0
 11
248.1850021489
 21
195.1838960588
 31
0.0
  0
LINE
  5
370
330
1F
100
AcDbEntity
  8
0
  6
CONTINUOUS
 62
     7
100
AcDbLine
 10
238.5351367292
 20
199.6795106135
 30
0.0
 11
238.5674334375
 21
195.0977090669
 31
0.0
  0
LINE
  5
371
330
1F
100
AcDbEntity
  8
0
  6
CONTINUOUS
 62
     7
100
AcDbLine
 10
246.9228624587
 20
195.1792485498
 30
0.0
 11
246.9274470766
 21
199.7542688889
 31
0.0
  0
LINE
  5
372
330
1F
100
AcDbEntity
  8
0
  6
CONTINUOUS
 62
     7
100
AcDbLine
 10
240.3474344555
 20
201.1573201879
 30
0.0
 11
240.0274405417
 21
201.0766587104
 31
0.0
  0
LINE
  5
373
330
1F
100
AcDbEntity
  8
0
  6
CONTINUOUS
 62
     7
100
AcDbLine
 10
240.6059641002
 20
199.3848741406
 30
0.0
 11
240.9246725639
 21
199.4688835966
 31
0.0
  0
SPLINE
  5
374
330
1F
100
AcDbEntity
  8
0
  6
CONTINUOUS
 62
     7
100
AcDbSpline
210
0.0
220
0.0
230
1.0
 70
     8
 71
     3
 72
    12
 73
     8
 74
     0
 42
0.000000001
 43
0.00000001
 40
0.0
 40
0.0
 40
0.0
 40
0.0
 40
0.1957225450367749
 40
0.4151262686920161
 40
0.6328028660599041
 40
0.8486963183848854
 40
0.9999999999999999
 40
0.9999999999999999
 40
0.9999999999999999
 40
0.9999999999999999
 10
238.5258674672575
 20
201.9613696049355
 30
0.0
 10
238.5539296266715
 20
201.7929917300166
 30
0.0
 10
238.5970357356995
 20
201.4821177661964
 30
0.0
 10
238.6230463251987
 20
201.0032793137809
 30
0.0
 10
238.6192597326006
 20
200.5094180367788
 30
0.0
 10
238.590095891558
 20
200.0680773652254
 30
0.0
 10
238.5490916760634
 20
199.7944949998673
 30
0.0
 10
238.5322055562071
 20
199.6818298858958
 30
0.0
  0
SPLINE
  5
375
330
1F
100
AcDbEntity
  8
0
  6
CONTINUOUS
 62
     7
100
AcDbSpline
210
0.0
220
0.0
230
1.0
 70
     8
 71
     3
 72
    15
 73
    11
 74
     0
 42
0.000000001
 43
0.00000001
 40
0.0
 40
0.0
 40
0.0
 40
0.0
 40
0.1002088894737967
 40
0.2465590439977196
 40
0.391882524769496
 40
0.5354015409275855
 40
0.6771055990566973
 40
0.8171459441625002
 40
0.9557961955063882
 40
1.0
 40
1.0
 40
1.0
 40
1.0
 10
257.0525641866996
 20
144.7135603342668
 30
0.0
 10
257.1191347349099
 20
144.7006624953371
 30
0.0
 10
257.282972679594
 20
144.6689193975571
 30
0.0
 10
257.5472493513684
 20
144.6493585294435
 30
0.0
 10
257.8404616300783
 20
144.6602073806403
 30
0.0
 10
258.1267852266757
 20
144.7060673098581
 30
0.0
 10
258.4023394342871
 20
144.7843890726876
 30
0.0
 10
258.6619207864589
 20
144.8961627181643
 30
0.0
 10
258.8537606483392
 20
145.0000238045405
 30
0.0
 10
258.9513615263747
 20
145.0749193553329
 30
0.0
 10
258.9791456783108
 20
145.0915523135974
 30
0.0
  0
LINE
  5
376
330
1F
100
AcDbEntity
  8
0
  6
CONTINUOUS
 62
     7
100
AcDbLine
 10
258.9791456783
 20
145.0915523136
 30
0.0
 11
265.7319691549
 21
149.7013054415
 31
0.0
  0
LINE
  5
377
330
1F
100
AcDbEntity
  8
0
  6
CONTINUOUS
 62
     7
100
AcDbLine
 10
229.7683426554
 20
150.2224544689
 30
0.0
 11
231.3369303173
 21
149.905744558
 31
0.0
  0
LINE
  5
378
330
1F
100
AcDbEntity
  8
0
  6
CONTINUOUS
 62
     7
100
AcDbLine
 10
247.1817339304
 20
146.7065568667
 30
0.0
 11
257.0525641867
 21
144.7135603343
 31
0.0
  0
SPLINE
  5
379
330
1F
100
AcDbEntity
  8
0
  6
CONTINUOUS
 62
     7
100
AcDbSpline
210
0.0
220
0.0
230
1.0
 70
     8
 71
     3
 72
    19
 73
    15
 74
     0
 42
0.000000001
 43
0.00000001
 40
0.0
 40
0.0
 40
0.0
 40
0.0
 40
0.0659001799570803
 40
0.1527164137422242
 40
0.2393128840292238
 40
0.3259961069402696
 40
0.4130595232286841
 40
0.5007634138759182
 40
0.589312817650501
 40
0.6788362764983566
 40
0.7693716215260344
 40
0.8608664281649999
 40
0.9531975995675492
 40
0.9999999999999999
 40
0.9999999999999999
 40
0.9999999999999999
 40
0.9999999999999999
 10
228.5033596997303
 20
193.9719334130519
 30
0.0
 10
228.43967063632
 20
193.9478067074166
 30
0.0
 10
228.2921100980483
 20
193.8919077904026
 30
0.0
 10
228.0760186621807
 20
193.7693664051496
 30
0.0
 10
227.8565637663174
 20
193.6127197051912
 30
0.0
 10
227.6567752375004
 20
193.4301702132254
 30
0.0
 10
227.477909511945
 20
193.2249591046539
 30
0.0
 10
227.3216811574461
 20
192.9987561479701
 30
0.0
 10
227.1895502037918
 20
192.753766495107
 30
0.0
 10
227.0829914398663
 20
192.4922781364273
 30
0.0
 10
227.003205024657
 20
192.2168996256505
 30
0.0
 10
226.9518183679335
 20
191.9305963269527
 30
0.0
 10
226.9318838661742
 20
191.6856708264423
 30
0.0
 10
226.9329616594383
 20
191.5372342840342
 30
0.0
 10
226.9333241660652
 20
191.4873089114281
 30
0.0
  0
LINE
  5
37A
330
1F
100
AcDbEntity
  8
0
  6
CONTINUOUS
 62
     7
100
AcDbLine
 10
236.5656879251
 20
196.2049856461
 30
0.0
 11
228.5033596997
 21
193.9719334131
 31
0.0
  0
LINE
  5
37B
330
1F
100
AcDbEntity
  8
0
  6
CONTINUOUS
 62
     7
100
AcDbLine
 10
226.9333241661
 20
191.4873089114
 30
0.0
 11
227.6199537928
 21
152.9572737877
 31
0.0
  0
SPLINE
  5
37C
330
1F
100
AcDbEntity
  8
0
  6
CONTINUOUS
 62
     7
100
AcDbSpline
210
0.0
220
0.0
230
1.0
 70
     8
 71
     3
 72
    21
 73
    17
 74
     0
 42
0.000000001
 43
0.00000001
 40
0.0
 40
0.0
 40
0.0
 40
0.0
 40
0.0487993148662115
 40
0.1246446071911083
 40
0.200720539326936
 40
0.277149766383316
 40
0.3538372719925801
 40
0.430762093946418
 40
0.5079448370959941
 40
0.5854073774932942
 40
0.6631610897678275
 40
0.7411417904308202
 40
0.8191980767676987
 40
0.8970858512008891
 40
0.9744905988855204
 40
1.0
 40
1.0
 40
1.0
 40
1.0
 10
227.6199537928089
 20
152.9572737876677
 30
0.0
 10
227.6226603295225
 20
152.8965615989948
 30
0.0
 10
227.6295728458925
 20
152.7415021845192
 30
0.0
 10
227.665849601125
 20
152.4923977735748
 30
0.0
 10
227.7332400844651
 20
152.2131640720496
 30
0.0
 10
227.8282711179077
 20
151.9399053382213
 30
0.0
 10
227.949451220023
 20
151.6756582821651
 30
0.0
 10
228.0957170752366
 20
151.4235367236133
 30
0.0
 10
228.2656640096518
 20
151.1864923648857
 30
0.0
 10
228.4577924471697
 20
150.9673820510248
 30
0.0
 10
228.6703635604561
 20
150.7690464785641
 30
0.0
 10
228.9013116382125
 20
150.5943759800466
 30
0.0
 10
229.1480661966424
 20
150.4460818964468
 30
0.0
 10
229.4075453293341
 20
150.3272190377462
 30
0.0
 10
229.6167305632318
 20
150.2579853985571
 30
0.0
 10
229.7382235289277
 20
150.2295130124752
 30
0.0
 10
229.7683426553911
 20
150.2224544688616
 30
0.0
  0
LINE
  5
37D
330
1F
100
AcDbEntity
  8
0
  6
CONTINUOUS
 62
     7
100
AcDbLine
 10
255.5590364239
 20
187.3653580871
 30
0.0
 11
255.6873678317
 21
187.4133564877
 31
0.0
  0
ARC
  5
37E
330
1F
100
AcDbEntity
  8
0
  6
CONTINUOUS
 62
     7
100
AcDbCircle
 10
255.5461725979
 20
186.3321212136
 30
0.0
 40
1.090415430873549
100
AcDbArc
 50
46.8184682117
 51
82.5600185993
  0
LINE
  5
37F
330
1F
100
AcDbEntity
  8
0
  6
CONTINUOUS
 62
     7
100
AcDbLine
 10
256.7119609923
 20
186.1474458786
 30
0.0
 11
256.5844115119
 21
186.0982729685
 31
0.0
  0
ARC
  5
380
330
1F
100
AcDbEntity
  8
0
  6
CONTINUOUS
 62
     7
100
AcDbCircle
 10
255.3455422845
 20
186.1441607628
 30
0.0
 40
1.239718779561201
100
AcDbArc
 50
357.8787304642
 51
80.083560208
  0
ARC
  5
381
330
1F
100
AcDbEntity
  8
0
  6
CONTINUOUS
 62
     7
100
AcDbCircle
 10
230.9787680548
 20
176.8594687609
 30
0.0
 40
1.203023213181682
100
AcDbArc
 50
179.0710587145
 51
256.9922473105
  0
LINE
  5
382
330
1F
100
AcDbEntity
  8
0
  6
CONTINUOUS
 62
     7
100
AcDbLine
 10
229.5886306888
 20
189.2195730662
 30
0.0
 11
229.775902954
 21
176.8789726228
 31
0.0
  0
ARC
  5
383
330
1F
100
AcDbEntity
  8
0
  6
CONTINUOUS
 62
     7
100
AcDbCircle
 10
230.4611516906
 20
189.3244243846
 30
0.0
 40
0.8787984396163572
100
AcDbArc
 50
87.3797869338
 51
186.8524056367
  0
LINE
  5
384
330
1F
100
AcDbEntity
  8
0
  6
CONTINUOUS
 62
     7
100
AcDbLine
 10
255.5590364239
 20
187.3653580871
 30
0.0
 11
230.5013263187
 21
190.2023040442
 31
0.0
  0
LINE
  5
385
330
1F
100
AcDbEntity
  8
0
  6
CONTINUOUS
 62
     7
100
AcDbLine
 10
256.4258263127
 20
173.0708842058
 30
0.0
 11
256.5844115119
 21
186.0982729685
 31
0.0
  0
ARC
  5
386
330
1F
100
AcDbEntity
  8
0
  6
CONTINUOUS
 62
     7
100
AcDbCircle
 10
255.5040198652
 20
173.0189275983
 30
0.0
 40
0.9232695249260553
100
AcDbArc
 50
262.8649861221
 51
3.2260003262
  0
LINE
  5
387
330
1F
100
AcDbEntity
  8
0
  6
CONTINUOUS
 62
     7
100
AcDbLine
 10
230.7079881082
 20
175.6873155833
 30
0.0
 11
255.3893425194
 21
172.1028076706
 31
0.0
  0
LINE
  5
388
330
1F
100
AcDbEntity
  8
0
  6
CONTINUOUS
 62
     7
100
AcDbLine
 10
256.4258263127
 20
173.0708842058
 30
0.0
 11
256.5518300462
 21
173.1308327271
 31
0.0
  0
LINE
  5
389
330
1F
100
AcDbEntity
  8
0
  6
CONTINUOUS
 62
     7
100
AcDbLine
 10
256.5518300462
 20
173.1308327271
 30
0.0
 11
256.7119609923
 21
186.1474458786
 31
0.0
  0
LINE
  5
38A
330
1F
100
AcDbEntity
  8
0
  6
CONTINUOUS
 62
     7
100
AcDbLine
 10
230.6440100905
 20
190.2453990411
 30
0.0
 11
230.5013263187
 21
190.2023040442
 31
0.0
  0
LINE
  5
38B
330
1F
100
AcDbEntity
  8
0
  6
CONTINUOUS
 62
     7
100
AcDbLine
 10
255.6873678317
 20
187.4133564877
 30
0.0
 11
230.6440100905
 21
190.2453990411
 31
0.0
  0
ARC
  5
38C
330
1F
100
AcDbEntity
  8
0
  6
CONTINUOUS
 62
     7
100
AcDbCircle
 10
255.5738797699
 20
173.102983489
 30
0.0
 40
0.9783467294228009
100
AcDbArc
 50
301.0215116811
 51
1.6311797517
  0
ARC
  5
38D
330
1F
100
AcDbEntity
  8
0
  6
CONTINUOUS
 62
     7
100
AcDbCircle
 10
230.5546956089
 20
189.4932923529
 30
0.0
 40
0.7573912773547389
100
AcDbArc
 50
83.2277038815
 51
112.227239014
  0
LWPOLYLINE
  5
38E
330
1F
100
AcDbEntity
  8
0
  6
CONTINUOUS
 62
     7
100
AcDbPolyline
 90
       45
 70
   128
 43
0.0
 10
244.9006723599
 20
159.7899209512
 10
244.8846362336
 20
160.0408221887
 10
244.8366835766
 20
160.2923280501
 10
244.7577872047
 20
160.539261401
 10
244.6495647903
 20
160.776536851
 10
244.5142449904
 20
160.999269064
 10
244.3546199874
 20
161.2028767145
 10
244.1739855812
 20
161.3831796006
 10
243.9760703061
 20
161.5364866187
 10
243.7649553317
 20
161.6596725742
 10
243.5449871225
 20
161.7502421285
 10
243.3206849872
 20
161.8063795588
 10
243.0966457237
 20
161.8269834082
 10
242.877447573
 20
161.8116855163
 10
242.6675556344
 20
161.7608543247
 10
242.4712307749
 20
161.6755827363
 10
242.2924438957
 20
161.5576611558
 10
242.1347972128
 20
161.4095366405
 10
242.0014539759
 20
161.2342593489
 10
241.8950778066
 20
161.0354176723
 10
241.8177825858
 20
160.8170635888
 10
241.7710935799
 20
160.5836298794
 10
241.755920264
 20
160.3398409102
 10
241.7725410891
 20
160.0906187086
 10
241.8206002425
 20
159.8409860617
 10
241.8991162789
 20
159.5959683445
 10
242.0065023384
 20
159.360495751
 10
242.140597522
 20
159.1393075577
 10
242.2987088608
 20
158.9368600006
 10
242.4776631864
 20
158.7572392978
 10
242.6738680764
 20
158.6040812877
 10
242.8833809278
 20
158.4804990964
 10
243.1019850697
 20
158.3890201663
 10
243.3252717
 20
158.3315338952
 10
243.5487262878
 20
158.309251016
 10
243.7678179567
 20
158.3226757134
 10
243.9780902319
 20
158.3715912986
 10
244.1752514338
 20
158.4550600565
 10
244.355262907
 20
158.5714376339
 10
244.5144232292
 20
158.7184020575
 10
244.6494465272
 20
158.8929971523
 10
244.7575330734
 20
159.0916897961
 10
244.8364304231
 20
159.3104400876
 10
244.8844835144
 20
159.5447831506
 10
244.9006723599
 20
159.7899209512
  0
LINE
  5
38F
330
1F
100
AcDbEntity
  8
0
  6
CONTINUOUS
 62
     7
100
AcDbLine
 10
244.4517420983
 20
158.3587135793
 30
0.0
 11
244.4379623285
 21
158.3505264606
 31
0.0
  0
LWPOLYLINE
  5
390
330
1F
100
AcDbEntity
  8
0
  6
CONTINUOUS
 62
     7
100
AcDbPolyline
 90
       31
 70
   128
 43
0.0
 10
244.0729313197
 20
159.9346672793
 10
244.0564216054
 20
160.1098306538
 10
244.0077951063
 20
160.2831037513
 10
243.9291820739
 20
160.4468724883
 10
243.8240377516
 20
160.5939413846
 10
243.6969879815
 20
160.7178546394
 10
243.5536217277
 20
160.8131831688
 10
243.4002405127
 20
160.8757642102
 10
243.2435768156
 20
160.9028826199
 10
243.090494818
 20
160.8933860588
 10
242.947687443
 20
160.8477296447
 10
242.8213834346
 20
160.7679491174
 10
242.7170773411
 20
160.657564897
 10
242.63929381
 20
160.5214224302
 10
242.5913957241
 20
160.3654767982
 10
242.5754435463
 20
160.1965316139
 10
242.5921109328
 20
160.0219437539
 10
242.6406593334
 20
159.8493064646
 10
242.7189720005
 20
159.6861238922
 10
242.8236456268
 20
159.5394901632
 10
242.9501357583
 20
159.415785834
 10
243.0929501979
 20
159.3204038634
 10
243.2458828367
 20
159.2575162552
 10
243.4022787582
 20
159.2298911616
 10
243.5553200812
 20
159.238768532
 10
243.6983209154
 20
159.2838003119
 10
243.8250190658
 20
159.3630587659
 10
243.929851834
 20
159.4731137449
 10
244.0082035061
 20
159.609176731
 10
244.0566129625
 20
159.7653063864
 10
244.0729313197
 20
159.9346672793
  0
LWPOLYLINE
  5
391
330
1F
100
AcDbEntity
  8
0
  6
CONTINUOUS
 62
     7
100
AcDbPolyline
 90
       16
 70
   128
 43
0.0
 10
243.021613116
 20
160.8850869068
 10
242.9437211828
 20
160.8306885855
 10
242.8394523313
 20
160.7203677013
 10
242.7616896446
 20
160.5843107277
 10
242.7137951416
 20
160.4284689967
 10
242.6978291689
 20
160.2596415932
 10
242.714466012
 20
160.0851802825
 10
242.7629684635
 20
159.9126728342
 10
242.8412217727
 20
159.7496177814
 10
242.9458251968
 20
159.6031037362
 10
243.0722373084
 20
159.4795060703
 10
243.2149692724
 20
159.3842131066
 10
243.36781854
 20
159.321392959
 10
243.5241338039
 20
159.2938108064
 10
243.6771006902
 20
159.3027046757
 10
243.7690467971
 20
159.3270577662
  0
LWPOLYLINE
  5
392
330
1F
100
AcDbEntity
  8
0
  6
CONTINUOUS
 62
     7
100
AcDbPolyline
 90
       20
 70
   128
 43
0.0
 10
243.3618399289
 20
160.8615881961
 10
243.2983709671
 20
160.8601562283
 10
243.1600743367
 20
160.8305706225
 10
243.0361582472
 20
160.7658426319
 10
242.9328159797
 20
160.6692521799
 10
242.8551991795
 20
160.545665855
 10
242.8071655501
 20
160.4012883229
 10
242.7910921997
 20
160.2433497344
 10
242.807762658
 20
160.07974508
 10
242.8563320105
 20
159.9186431942
 10
242.9343710305
 20
159.7680840452
 10
243.0379867549
 20
159.635583146
 10
243.1620137016
 20
159.527761435
 10
243.3002669227
 20
159.4500178614
 10
243.4458453766
 20
159.4062601902
 10
243.591471736
 20
159.3987072162
 10
243.729852824
 20
159.4277726597
 10
243.8540434951
 20
159.4920375133
 10
243.9577960841
 20
159.5883135831
 10
243.9589242308
 20
159.589681349
  0
ARC
  5
393
330
1F
100
AcDbEntity
  8
0
  6
CONTINUOUS
 62
     7
100
AcDbCircle
 10
243.8513458251
 20
160.3431679943
 30
0.0
 40
0.7989384434163365
100
AcDbArc
 50
143.9394215817
 51
275.4421832192
  0
ARC
  5
394
330
1F
100
AcDbEntity
  8
0
  6
CONTINUOUS
 62
     7
100
AcDbCircle
 10
244.0209642313
 20
161.0095951167
 30
0.0
 40
1.831391553455208
100
AcDbArc
 50
144.9600155978
 51
154.2084007118
  0
LWPOLYLINE
  5
395
330
1F
100
AcDbEntity
  8
0
  6
CONTINUOUS
 62
     7
100
AcDbPolyline
 90
        3
 70
   128
 43
0.0
 10
244.3754506529
 20
158.2627924373
 10
244.6085235721
 20
158.2627569322
 10
244.6834614135
 20
158.2694272425
  0
LWPOLYLINE
  5
396
330
1F
100
AcDbEntity
  8
0
  6
CONTINUOUS
 62
     7
100
AcDbPolyline
 90
      121
 70
   128
 43
0.0
 10
239.3882831093
 20
171.1286987193
 10
238.7741850558
 20
171.2041600381
 10
238.1636590561
 20
171.2429966134
 10
237.5584182584
 20
171.2452499999
 10
236.9601462509
 20
171.2110681898
 10
236.3704922773
 20
171.1407034386
 10
235.7910667193
 20
171.0345097728
 10
235.2234368579
 20
170.8929402105
 10
234.6691229188
 20
170.7165437198
 10
234.1295944067
 20
170.5059619461
 10
233.6062667305
 20
170.2619257357
 10
233.1004981192
 20
169.9852514827
 10
232.6135868243
 20
169.6768373275
 10
232.1467686065
 20
169.3376592328
 10
231.701214498
 20
168.9687669605
 10
231.2780288339
 20
168.5712799755
 10
230.878247543
 20
168.1463832966
 10
230.5028366869
 20
167.695323316
 10
230.1526912372
 20
167.2194036057
 10
229.8286340775
 20
166.7199807287
 10
229.5314152176
 20
166.1984600692
 10
229.2617112082
 20
165.6562916967
 10
229.0201247399
 20
165.0949662738
 10
228.807184417
 20
164.5160110204
 10
228.623344689
 20
163.9209857397
 10
228.4689859303
 20
163.3114789146
 10
228.3444146527
 20
162.6891038784
 10
228.2498638409
 20
162.055495064
 10
228.1854933987
 20
161.4123043324
 10
228.1513906947
 20
160.7611973834
 10
228.1475711987
 20
160.1038502452
 10
228.1739791992
 20
159.4419458438
 10
228.2304885936
 20
158.7771706479
 10
228.3169037447
 20
158.1112113864
 10
228.4329603969
 20
157.445751835
 10
228.5783266461
 20
156.7824696654
 10
228.7526039614
 20
156.123033353
 10
228.9553282528
 20
155.4690991373
 10
229.1859709845
 20
154.8223080283
 10
229.443940332
 20
154.1842828532
 10
229.7285823836
 20
153.556625337
 10
230.0391823856
 20
152.9409132114
 10
230.3749660351
 20
152.3386973448
 10
230.7351008207
 20
151.7514988898
 10
231.1186974166
 20
151.1808064412
 10
231.5248111327
 20
150.6280732006
 10
231.9524434269
 20
150.0947141437
 10
232.4005434839
 20
149.582103187
 10
232.8680098677
 20
149.0915703511
 10
233.3536922541
 20
148.6243989193
 10
233.8563932494
 20
148.1818225909
 10
234.374870304
 20
147.7650226297
 10
234.9078377269
 20
147.3751250098
 10
235.4539688099
 20
147.0131975606
 10
236.0118980677
 20
146.6802471164
 10
236.5802236032
 20
146.3772166748
 10
237.1575096027
 20
146.1049825728
 10
237.7422889695
 20
145.8643516856
 10
238.3330661014
 20
145.6560586617
 10
238.9283198177
 20
145.4807632022
 10
239.5265064398
 20
145.3390473985
 10
240.1260630298
 20
145.2314131414
 10
240.7254107898
 20
145.1582796178
 10
241.3229586216
 20
145.11998091
 10
241.9171068494
 20
145.1167637166
 10
242.5062511017
 20
145.1487852128
 10
243.0887863496
 20
145.2161110702
 10
243.663111098
 20
145.3187136563
 10
244.2276317209
 20
145.4564704346
 10
244.7807669333
 20
145.6291625872
 10
245.3209523887
 20
145.836473882
 10
245.8466453896
 20
146.0779898043
 10
246.3563296949
 20
146.3531969773
 10
246.8485204092
 20
146.6614828896
 10
247.3217689335
 20
147.0021359523
 10
247.7746679565
 20
147.3743459026
 10
248.2058564638
 20
147.7772045741
 10
248.6140247403
 20
148.2097070474
 10
248.9979193385
 20
148.6707531973
 10
249.3563479856
 20
149.1591496475
 10
249.6881844002
 20
149.6736121418
 10
249.9923729865
 20
150.2127683398
 10
250.2679333778
 20
150.7751610392
 10
250.5139647948
 20
151.3592518256
 10
250.7296501891
 20
151.9634251472
 10
250.9142601384
 20
152.5859928064
 10
251.0671564641
 20
153.2251988596
 10
251.1877955399
 20
153.8792249087
 10
251.2757312622
 20
154.5461957691
 10
251.3306176564
 20
155.2241854898
 10
251.3522110921
 20
155.9112237021
 10
251.3403720852
 20
156.605302267
 10
251.2950666663
 20
157.3043821891
 10
251.2163672977
 20
158.0064007625
 10
251.1044533255
 20
158.7092789094
 10
250.9596109555
 20
159.4109286712
 10
250.7822327469
 20
160.1092608104
 10
250.5728166196
 20
160.8021924778
 10
250.3319643763
 20
161.4876548996
 10
250.0603797454
 20
162.1636010399
 10
249.758865951
 20
162.82801319
 10
249.4283228261
 20
163.4789104398
 10
249.0697434816
 20
164.1143559861
 10
248.684210555
 20
164.7324642331
 10
248.2728920598
 20
165.3314076435
 10
247.8370368634
 20
165.9094232999
 10
247.3779698227
 20
166.464819139
 10
246.8970866095
 20
166.9959798252
 10
246.3958482606
 20
167.5013722308
 10
245.8757754866
 20
167.9795504974
 10
245.3384427787
 20
168.4291606539
 10
244.7854723505
 20
168.8489447711
 10
244.2185279535
 20
169.2377446391
 10
243.6393086043
 20
169.5945049549
 10
243.0495422633
 20
169.9182760141
 10
242.4509795007
 20
170.2082159032
 10
241.8453871866
 20
170.4635921949
 10
241.2345422404
 20
170.6837831499
 10
240.6202254728
 20
170.8682784353
 10
240.0042155498
 20
171.0166793708
 10
239.3882831093
 20
171.1286987193
  0
LWPOLYLINE
  5
397
330
1F
100
AcDbEntity
  8
0
  6
CONTINUOUS
 62
     7
100
AcDbPolyline
 90
      120
 70
   128
 43
0.0
 10
239.2712288449
 20
170.8560860683
 10
238.6621377863
 20
170.9311654413
 10
238.0566110641
 20
170.9696139934
 10
237.4563757337
 20
170.9714714789
 10
236.8631290209
 20
170.9368858018
 10
236.2785334198
 20
170.8661108181
 10
235.7042120653
 20
170.7595038127
 10
235.1417443888
 20
170.6175226768
 10
234.5926620653
 20
170.4407228173
 10
234.0584452554
 20
170.2297538251
 10
233.5405191463
 20
169.9853559338
 10
233.0402507883
 20
169.708356295
 10
232.5589462275
 20
169.3996651003
 10
232.0978479274
 20
169.0602715747
 10
231.6581324749
 20
168.6912398683
 10
231.2409085606
 20
168.2937048707
 10
230.8472152262
 20
167.8688679699
 10
230.4780203661
 20
167.4179927777
 10
230.1342194733
 20
166.9424008401
 10
229.8166346153
 20
166.4434673513
 10
229.5260136293
 20
165.9226168865
 10
229.2630295209
 20
165.3813191668
 10
229.0282800545
 20
164.8210848693
 10
228.8222875206
 20
164.243461492
 10
228.6454986677
 20
163.6500292821
 10
228.4982847841
 20
163.0423972338
 10
228.3809419184
 20
162.4221991622
 10
228.2936912255
 20
161.7910898545
 10
228.2366794268
 20
161.150741303
 10
228.2099793741
 20
160.5028390186
 10
228.2135907063
 20
159.8490784255
 10
228.2474405912
 20
159.1911613344
 10
228.3113845426
 20
158.5307924925
 10
228.4052073073
 20
157.8696762061
 10
228.5286238144
 20
157.2095130316
 10
228.681280182
 20
156.5519965294
 10
228.8627547787
 20
155.898810077
 10
229.0725593347
 20
155.2516237328
 10
229.3101401022
 20
154.6120911466
 10
229.5748790639
 20
153.9818465103
 10
229.8660951888
 20
153.3625015414
 10
230.1830457375
 20
152.7556424946
 10
230.5249276188
 20
152.162827195
 10
230.8908787996
 20
151.5855820875
 10
231.279979773
 20
151.0253992975
 10
231.6912550887
 20
150.4837336983
 10
232.1236749505
 20
149.961999982
 10
232.5761568871
 20
149.4615697303
 10
233.0475675033
 20
148.9837684833
 10
233.5367243165
 20
148.5298728061
 10
234.0423976882
 20
148.1011073518
 10
234.563312856
 20
147.6986419236
 10
235.0981520745
 20
147.3235885365
 10
235.6455568728
 20
146.9769984849
 10
236.2041304359
 20
146.6598594184
 10
236.7724401176
 20
146.373092434
 10
237.3490200915
 20
146.1175491923
 10
237.9323741468
 20
145.8940090666
 10
238.5209786347
 20
145.7031763353
 10
239.1132855702
 20
145.5456774312
 10
239.7077258942
 20
145.4220582602
 10
240.3027128977
 20
145.3327816046
 10
240.8966458108
 20
145.2782246278
 10
241.4879135567
 20
145.2586764973
 10
242.0748986697
 20
145.2743361463
 10
242.6559813739
 20
145.3253101911
 10
243.2295438191
 20
145.4116110279
 10
243.7939744666
 20
145.5331551282
 10
244.3476726174
 20
145.6897615556
 10
244.8890530712
 20
145.8811507266
 10
245.4165509056
 20
146.1069434369
 10
245.9286263589
 20
146.3666601759
 10
246.4237698005
 20
146.6597207505
 10
246.9005067709
 20
146.985444241
 10
247.3574030684
 20
147.3430493063
 10
247.7930698611
 20
147.7316548593
 10
248.2061687981
 20
148.150281129
 10
248.5954170937
 20
148.5978511241
 10
248.9595925565
 20
149.0731925112
 10
249.2975385325
 20
149.5750399179
 10
249.608168733
 20
150.102037669
 10
249.8904719132
 20
150.6527429588
 10
250.1435163721
 20
151.225629463
 10
250.3664542375
 20
151.8190913849
 10
250.558525507
 20
152.4314479332
 10
250.71906181
 20
153.0609482189
 10
250.8474898613
 20
153.7057765588
 10
250.943334575
 20
154.3640581684
 10
251.0062218106
 20
155.0338652218
 10
251.0358807251
 20
155.713223254
 10
251.0321457065
 20
156.400117876
 10
250.9949578663
 20
157.0925017713
 10
250.9243660742
 20
157.7883019366
 10
250.8205275188
 20
158.4854271298
 10
250.6837077821
 20
159.1817754821
 10
250.514280421
 20
159.8752422329
 10
250.3127260514
 20
160.56372754
 10
250.0796309342
 20
161.2451443207
 10
249.8156850692
 20
161.9174260745
 10
249.521679803
 20
162.5785346413
 10
249.1985049654
 20
163.2264678466
 10
248.8471455488
 20
163.8592669872
 10
248.4686779521
 20
164.4750241122
 10
248.0642658121
 20
165.071889055
 10
247.6351554491
 20
165.6480761756
 10
247.1826709575
 20
166.2018707732
 10
246.7082089732
 20
166.7316351335
 10
246.2132331534
 20
167.2358141798
 10
245.6992684044
 20
167.7129406964
 10
245.1678948968
 20
168.1616401018
 10
244.6207419058
 20
168.5806347503
 10
244.0594815179
 20
168.9687477451
 10
243.4858222415
 20
169.3249062521
 10
242.9015025631
 20
169.6481443047
 10
242.3082844857
 20
169.937605099
 10
241.7079470886
 20
170.1925427771
 10
241.1022801433
 20
170.4123237061
 10
240.4930778198
 20
170.5964272589
 10
239.8821325171
 20
170.7444461112
 10
239.2712288449
 20
170.8560860683
  0
LWPOLYLINE
  5
398
330
1F
100
AcDbEntity
  8
0
  6
CONTINUOUS
 62
     7
100
AcDbPolyline
 90
      114
 70
   128
 43
0.0
 10
239.2779002488
 20
169.6390780967
 10
238.6971773416
 20
169.7112972675
 10
238.1199675968
 20
169.746784379
 10
237.5480923097
 20
169.74557062
 10
236.9833410889
 20
169.7078067606
 10
236.4274661494
 20
169.6337607951
 10
235.8821769175
 20
169.5238151876
 10
235.3491349619
 20
169.3784637542
 10
234.8299492607
 20
169.1983082155
 10
234.32617181
 20
168.9840544558
 10
233.8392935792
 20
168.736508521
 10
233.3707408124
 20
168.4565723921
 10
232.9218716738
 20
168.1452395651
 10
232.4939732319
 20
167.8035904707
 10
232.0882587772
 20
167.4327877642
 10
231.7058654614
 20
167.0340715138
 10
231.3478522499
 20
166.6087543157
 10
231.0151981742
 20
166.1582163597
 10
230.7088008704
 20
165.6839004689
 10
230.4294753904
 20
165.1873071347
 10
230.1779532704
 20
164.6699895648
 10
229.9548818401
 20
164.1335487604
 10
229.7608237597
 20
163.5796286379
 10
229.5962567658
 20
163.0099112046
 10
229.461573614
 20
162.4261118005
 10
229.3570822007
 20
161.8299744122
 10
229.2830058516
 20
161.2232670645
 10
229.2394837627
 20
160.607777294
 10
229.2265715807
 20
159.9853077074
 10
229.244242112
 20
159.3576716231
 10
229.2923861486
 20
158.7266887968
 10
229.3708134026
 20
158.0941812284
 10
229.4792535404
 20
157.4619690472
 10
229.6173573088
 20
156.8318664705
 10
229.7846977495
 20
156.205677832
 10
229.980771495
 20
155.5851936726
 10
230.2050001448
 20
154.9721868907
 10
230.456731719
 20
154.3684089422
 10
230.7352421888
 20
153.7755860873
 10
231.0397370849
 20
153.1954156764
 10
231.3693531857
 20
152.62956247
 10
231.7231602875
 20
152.0796549864
 10
232.1001630609
 20
151.5472818738
 10
232.4993029994
 20
151.033988302
 10
232.9194604634
 20
150.541272371
 10
233.3594568288
 20
150.0705815335
 10
233.8180567456
 20
149.6233090326
 10
234.2939705137
 20
149.2007903524
 10
234.7858565859
 20
148.804299685
 10
235.2923242034
 20
148.4350464174
 10
235.8119361743
 20
148.0941716412
 10
236.3432118014
 20
147.7827446944
 10
236.8846299685
 20
147.5017597406
 10
237.4346323909
 20
147.2521323982
 10
237.9916270383
 20
147.0346964292
 10
238.5539917342
 20
146.8502005028
 10
239.1200779383
 20
146.6993050477
 10
239.6882147141
 20
146.5825792115
 10
240.2567128833
 20
146.5004979446
 10
240.8238693703
 20
146.4534392296
 10
241.3879717313
 20
146.4416814776
 10
241.9473028683
 20
146.4654011149
 10
242.5001459211
 20
146.5246703835
 10
243.0447893291
 20
146.6194553805
 10
243.5795320542
 20
146.7496143627
 10
244.1026889509
 20
146.9148963419
 10
244.61259627
 20
147.1149399976
 10
245.1076172761
 20
147.3492729327
 10
245.5861479605
 20
147.6173112975
 10
246.0466228258
 20
147.9183598076
 10
246.4875207154
 20
148.2516121776
 10
246.9073706624
 20
148.6161519934
 10
247.3047577249
 20
149.0109540422
 10
247.6783287772
 20
149.4348861166
 10
248.0267982216
 20
149.8867113089
 10
248.3489535844
 20
150.3650908044
 10
248.6436609604
 20
150.8685871833
 10
248.9098702653
 20
151.3956682334
 10
249.1466202593
 20
151.9447112737
 10
249.3530433013
 20
152.514007984
 10
249.5283697959
 20
153.1017697311
 10
249.671932295
 20
153.7061333762
 10
249.7831692169
 20
154.325167547
 10
249.8616281488
 20
154.9568793477
 10
249.9069686989
 20
155.5992214806
 10
249.9189648689
 20
156.2500997449
 10
249.8975069197
 20
156.907380876
 10
249.8426027067
 20
157.5689006824
 10
249.7543784662
 20
158.2324724368
 10
249.6330790365
 20
158.8958954706
 10
249.4790675041
 20
159.5569639212
 10
249.2928242701
 20
160.2134755788
 10
249.0749455336
 20
160.863240776
 10
248.8261411997
 20
161.504091264
 10
248.5472322183
 20
162.1338890181
 10
248.2391473708
 20
162.7505349161
 10
247.9029195222
 20
163.3519772322
 10
247.5396813639
 20
163.9362198928
 10
247.1506606738
 20
164.5013304418
 10
246.7371751288
 20
165.0454476647
 10
246.3006267026
 20
165.5667888254
 10
245.8424956909
 20
166.0636564734
 10
245.3643344042
 20
166.5344447825
 10
244.8677605735
 20
166.9776453876
 10
244.3544505142
 20
167.3918526889
 10
243.8261320949
 20
167.7757686032
 10
243.28457756
 20
168.1282067396
 10
242.7315962516
 20
168.4480959891
 10
242.1690272795
 20
168.7344835201
 10
241.5987321843
 20
168.9865371753
 10
241.0225876378
 20
169.2035472747
 10
240.4424782238
 20
169.3849278305
 10
239.8602893385
 20
169.5302171862
 10
239.2779002488
 20
169.6390780967
  0
ARC
  5
399
330
1F
100
AcDbEntity
  8
0
  6
CONTINUOUS
 62
     7
100
AcDbCircle
 10
241.0129008927
 20
163.1698788222
 30
0.0
 40
9.44784777172443
100
AcDbArc
 50
80.8396793228
 51
116.8741451452
  0
LWPOLYLINE
  5
39A
330
1F
100
AcDbEntity
  8
0
  6
CONTINUOUS
 62
     7
100
AcDbPolyline
 90
       49
 70
   128
 43
0.0
 10
249.805646047
 20
148.4899278517
 10
249.8080980588
 20
148.4915740891
 10
250.2764556645
 20
148.8282742155
 10
250.7247893568
 20
149.1958750428
 10
251.1517546524
 20
149.5934763704
 10
251.5560576681
 20
150.0200834447
 10
251.93646
 20
150.474608531
 10
252.2917835404
 20
150.9558728825
 10
252.6209152046
 20
151.4626091145
 10
252.9228115357
 20
151.9934639901
 10
253.1965031602
 20
152.5470016202
 10
253.4410990614
 20
153.1217070775
 10
253.6557906404
 20
153.715990422
 10
253.8398555344
 20
154.3281911295
 10
253.9926611616
 20
154.956582914
 10
254.1136679638
 20
155.599378929
 10
254.202432318
 20
156.2547373303
 10
254.2586090913
 20
156.9207671794
 10
254.2819538137
 20
157.5955346613
 10
254.2723244475
 20
158.2770695902
 10
254.2296827323
 20
158.9633721703
 10
254.15409509
 20
159.6524199782
 10
254.0457330754
 20
160.3421751294
 10
253.9048733621
 20
161.0305915901
 10
253.7318972577
 20
161.7156225921
 10
253.5272897437
 20
162.3952281096
 10
253.2916380432
 20
163.067382352
 10
253.0256297185
 20
163.7300812296
 10
252.730050309
 20
164.381349747
 10
252.4057805207
 20
165.0192492799
 10
252.0537929831
 20
165.6418846908
 10
251.6751485943
 20
166.2474112424
 10
251.2709924746
 20
166.8340412678
 10
250.8425495571
 20
167.4000505575
 10
250.3911198416
 20
167.9437844292
 10
249.9180733445
 20
168.4636634462
 10
249.4248447766
 20
168.9581887539
 10
248.9129279837
 20
169.4259470097
 10
248.3838701868
 20
169.8656148816
 10
247.8392660578
 20
170.2759630981
 10
247.2807516682
 20
170.655860034
 10
246.7099983497
 20
171.0042748208
 10
246.1287065016
 20
171.3202799761
 10
245.5385993824
 20
171.6030535477
 10
244.9414169222
 20
171.8518807748
 10
244.3389095873
 20
172.0661552699
 10
243.7328323315
 20
172.2453797311
 10
243.1249386633
 20
172.3891661948
 10
242.5169748571
 20
172.4972358448
  0
LWPOLYLINE
  5
39B
330
1F
100
AcDbEntity
  8
0
  6
CONTINUOUS
 62
     7
100
AcDbPolyline
 90
      113
 70
   128
 43
0.0
 10
239.3980271194
 20
169.3106653812
 10
238.8315717596
 20
169.3813426791
 10
238.268535602
 20
169.4158935351
 10
237.710725865
 20
169.4143444173
 10
237.1599186131
 20
169.3768413242
 10
236.617852995
 20
169.3036474807
 10
236.0862257919
 20
169.1951406292
 10
235.56668629
 20
169.0518099517
 10
235.0608314871
 20
168.8742526552
 10
234.5702016403
 20
168.6631702562
 10
234.0962761602
 20
168.4193645986
 10
233.6404698514
 20
168.1437336388
 10
233.2041294973
 20
167.8372670313
 10
232.7885307864
 20
167.501041547
 10
232.3948755711
 20
167.1362163554
 10
232.0242894532
 20
166.7440281989
 10
231.6778196827
 20
166.3257864867
 10
231.3564333601
 20
165.8828683344
 10
231.0610159283
 20
165.4167135713
 10
230.7923699398
 20
164.9288197371
 10
230.5512140852
 20
164.4207370866
 10
230.3381824665
 20
163.8940636184
 10
230.153824102
 20
163.3504401425
 10
229.9986026448
 20
162.7915453986
 10
229.872896302
 20
162.2190912343
 10
229.7769979387
 20
161.6348178522
 10
229.7111153535
 20
161.040489131
 10
229.6753717109
 20
160.437888024
 10
229.6698061202
 20
159.8288120388
 10
229.6943743466
 20
159.2150687981
 10
229.7489496472
 20
158.5984716805
 10
229.83332372
 20
157.9808355407
 10
229.9472077595
 20
157.3639725048
 10
230.0902336109
 20
156.749687838
 10
230.2619550193
 20
156.1397758794
 10
230.461848967
 20
155.536016039
 10
230.6893170983
 20
154.9401688523
 10
230.9436872295
 20
154.3539720852
 10
231.2242149427
 20
153.7791368851
 10
231.5300852658
 20
153.2173439722
 10
231.8604144395
 20
152.6702398655
 10
232.2142517749
 20
152.1394331392
 10
232.5905816057
 20
151.6264907062
 10
232.9883253393
 20
151.1329341234
 10
233.4063436131
 20
150.6602359196
 10
233.843438563
 20
150.2098159416
 10
234.2983562094
 20
149.7830377213
 10
234.7697889693
 20
149.3812048632
 10
235.2563783022
 20
149.0055574565
 10
235.7567174969
 20
148.6572685151
 10
236.2693546071
 20
148.3374404524
 10
236.7927955436
 20
148.0471015975
 10
237.3255073303
 20
147.7872027636
 10
237.8659215295
 20
147.5586138781
 10
238.4124378437
 20
147.362120689
 10
238.9634278976
 20
147.1984215609
 10
239.517239204
 20
147.068124378
 10
240.0721993168
 20
146.9717435718
 10
240.6266201701
 20
146.9096972934
 10
241.1788026043
 20
146.8823047512
 10
241.7270410751
 20
146.8897837372
 10
242.2696285399
 20
146.932248365
 10
242.8048615159
 20
147.0097070444
 10
243.3310452992
 20
147.1220607181
 10
243.846499333
 20
147.269101386
 10
244.3495627102
 20
147.450510944
 10
244.8385997939
 20
147.6658603619
 10
245.3120059347
 20
147.9146092269
 10
245.7682132633
 20
148.1961056775
 10
246.2056965328
 20
148.50958675
 10
246.6229789839
 20
148.854179161
 10
247.0186382015
 20
149.2289005446
 10
247.3913119327
 20
149.6326611624
 10
247.7397038305
 20
150.064266101
 10
248.062589088
 20
150.5224179686
 10
248.3588199271
 20
151.0057200986
 10
248.6273309007
 20
151.512680265
 10
248.8671439735
 20
152.0417149091
 10
249.0773733389
 20
152.5911538748
 10
249.2572299347
 20
153.1592456413
 10
249.4060256205
 20
153.7441630428
 10
249.5231769769
 20
154.3440094546
 10
249.6082086942
 20
154.9568254237
 10
249.660756516
 20
155.5805957159
 10
249.6805697065
 20
156.2132567471
 10
249.6675130153
 20
156.8527043617
 10
249.621568115
 20
157.4968019176
 10
249.5428344916
 20
158.1433886321
 10
249.4315297717
 20
158.7902881413
 10
249.2879894753
 20
159.4353172217
 10
249.1126661876
 20
160.0762946198
 10
248.9061281489
 20
160.7110499349
 10
248.6690572644
 20
161.3374324986
 10
248.4022465444
 20
161.9533201924
 10
248.1065969869
 20
162.5566281482
 10
247.7831139225
 20
163.1453172742
 10
247.4329028436
 20
163.7174025505
 10
247.0571647461
 20
164.2709610432
 10
246.6571910159
 20
164.8041395847
 10
246.2343578945
 20
165.3151620746
 10
245.790120564
 20
165.8023363569
 10
245.3260068921
 20
166.264060634
 10
244.8436108816
 20
166.6988293835
 10
244.3445858695
 20
167.1052387479
 10
243.830637524
 20
167.4819913714
 10
243.3035166846
 20
167.8279006659
 10
242.765012096
 20
168.1418944905
 10
242.2169430792
 20
168.4230182371
 10
241.6611521903
 20
168.6704373177
 10
241.0994979074
 20
168.8834390551
 10
240.5338473917
 20
169.0614339838
 10
239.966069362
 20
169.2039565721
 10
239.3980271194
 20
169.3106653812
  0
SPLINE
  5
39C
330
1F
100
AcDbEntity
  8
0
  6
CONTINUOUS
 62
     7
100
AcDbSpline
210
0.0
220
0.0
230
1.0
 70
     8
 71
     3
 72
    30
 73
    26
 74
     0
 42
0.000000001
 43
0.00000001
 40
0.0
 40
0.0
 40
0.0
 40
0.0
 40
0.0894515601154847
 40
0.1790187586443237
 40
0.2694007004428834
 40
0.3149363275239456
 40
0.3606892461950754
 40
0.3939326774162308
 40
0.427619562123258
 40
0.4457610158864583
 40
0.4642125945538448
 40
0.4788975204618669
 40
0.4939735003248457
 40
0.5086783459934064
 40
0.5238750188510441
 40
0.5418279295136893
 40
0.5602861851053206
 40
0.5921710415035831
 40
0.6248076159618955
 40
0.6787459261560992
 40
0.733242171453442
 40
0.788595593885953
 40
0.8440622564183452
 40
0.9219878240560053
 40
1.0
 40
1.0
 40
1.0
 40
1.0
 10
257.2387982472457
 20
194.0327241746373
 30
0.0
 10
257.28858765458
 20
194.3228783744161
 30
0.0
 10
257.3882166693606
 20
194.9034793216069
 30
0.0
 10
257.5546675704385
 20
195.7685496547256
 30
0.0
 10
257.7103881827167
 20
196.4820830593383
 30
0.0
 10
257.8532458687392
 20
197.0416476792773
 30
0.0
 10
257.9622617153881
 20
197.4137205582983
 30
0.0
 10
258.0734155718728
 20
197.733353347317
 30
0.0
 10
258.168369792536
 20
197.9564851510305
 30
0.0
 10
258.2560410265471
 20
198.1177981320415
 30
0.0
 10
258.3253473457908
 20
198.2181513853467
 30
0.0
 10
258.3946991584156
 20
198.2910005527666
 30
0.0
 10
258.4611675965936
 20
198.3354661477882
 30
0.0
 10
258.5289095236635
 20
198.3536466095773
 30
0.0
 10
258.599071613502
 20
198.3440311453517
 30
0.0
 10
258.6702388302638
 20
198.303076229269
 30
0.0
 10
258.7563641275049
 20
198.2148891750624
 30
0.0
 10
258.8483854409275
 20
198.0670456374552
 30
0.0
 10
258.9616393545703
 20
197.8146197692421
 30
0.0
 10
259.0759712500869
 20
197.4741658065053
 30
0.0
 10
259.1898545508686
 20
197.0504119242955
 30
0.0
 10
259.2916859736127
 20
196.6052058472153
 30
0.0
 10
259.3968853541473
 20
196.0841309993295
 30
0.0
 10
259.5040732374347
 20
195.4893295875496
 30
0.0
 10
259.5749312464736
 20
195.042609517791
 30
0.0
 10
259.6103252308982
 20
194.8194702650002
 30
0.0
  0
SPLINE
  5
39D
330
1F
100
AcDbEntity
  8
0
  6
CONTINUOUS
 62
     7
100
AcDbSpline
210
0.0
220
0.0
230
1.0
 70
     8
 71
     3
 72
    30
 73
    26
 74
     0
 42
0.000000001
 43
0.00000001
 40
0.0
 40
0.0
 40
0.0
 40
0.0
 40
0.0972041219626025
 40
0.1945662757837902
 40
0.2431749942945473
 40
0.2918749464429069
 40
0.3411175467530388
 40
0.3908044170752841
 40
0.4121693964826305
 40
0.4337254233775381
 40
0.4551310192184024
 40
0.4772098883570241
 40
0.4911176968881718
 40
0.5054242474541915
 40
0.5193367817625304
 40
0.5336194014276341
 40
0.5542828248164227
 40
0.5755038945799029
 40
0.6003415415183948
 40
0.6254449753558244
 40
0.6767288508022475
 40
0.7566730255244164
 40
0.8371935314043736
 40
0.9185456000476963
 40
1.0
 40
1.0
 40
1.0
 40
1.0
 10
251.9886212403372
 20
194.0327241746372
 30
0.0
 10
252.1005918565382
 20
194.331360011637
 30
0.0
 10
252.3249175062244
 20
194.9296569615644
 30
0.0
 10
252.6422395952814
 20
195.664736342613
 30
0.0
 10
252.9242222850455
 20
196.2413764989118
 30
0.0
 10
253.1561474510931
 20
196.6663696859761
 30
0.0
 10
253.4165027672747
 20
197.0797874867041
 30
0.0
 10
253.6607391541115
 20
197.3964293957391
 30
0.0
 10
253.8761158514415
 20
197.6161757645394
 30
0.0
 10
254.040060737078
 20
197.7540190533769
 30
0.0
 10
254.222898540831
 20
197.8710334724549
 30
0.0
 10
254.4011286981723
 20
197.9439768995454
 30
0.0
 10
254.5659766062537
 20
197.9759992117732
 30
0.0
 10
254.7065793144219
 20
197.9790174045435
 30
0.0
 10
254.8464580660351
 20
197.9576150341927
 30
0.0
 10
255.0008100238137
 20
197.9078181150404
 30
0.0
 10
255.1658326966057
 20
197.8212461051797
 30
0.0
 10
255.3428375612321
 20
197.6901172386281
 30
0.0
 10
255.512470493416
 20
197.5282652500789
 30
0.0
 10
255.7299569533444
 20
197.2764518679403
 30
0.0
 10
256.0221787234075
 20
196.8537442849952
 30
0.0
 10
256.353453193101
 20
196.2432807353046
 30
0.0
 10
256.6793025821485
 20
195.5223259015083
 30
0.0
 10
256.9734494812209
 20
194.7838447124525
 30
0.0
 10
257.1503561795289
 20
194.2830763977288
 30
0.0
 10
257.2387982472457
 20
194.0327241746373
 30
0.0
  0
SPLINE
  5
39E
330
1F
100
AcDbEntity
  8
0
  6
CONTINUOUS
 62
     7
100
AcDbSpline
210
0.0
220
0.0
230
1.0
 70
     8
 71
     3
 72
    32
 73
    28
 74
     0
 42
0.000000001
 43
0.00000001
 40
0.0
 40
0.0
 40
0.0
 40
0.0
 40
0.097199929615189
 40
0.1945578842731583
 40
0.2431645063230738
 40
0.2918623580757478
 40
0.3411028345861492
 40
0.3907875619476032
 40
0.4121516198979742
 40
0.4337067170961591
 40
0.4551113897282889
 40
0.4771893066203591
 40
0.4910965153172202
 40
0.505402448851483
 40
0.5193143831217161
 40
0.5335963867871852
 40
0.5542589189766305
 40
0.5754790734898612
 40
0.6003156491975989
 40
0.6254180003410678
 40
0.6510250363810496
 40
0.6767196381046788
 40
0.7299734877459865
 40
0.7834496830302019
 40
0.8372016934761142
 40
0.8899533926434713
 40
1.0
 40
1.0
 40
1.0
 40
1.0
 10
249.2842792526509
 20
194.8194702650001
 30
0.0
 10
249.3412781214639
 20
195.0973037267373
 30
0.0
 10
249.4555889674542
 20
195.6544968556005
 30
0.0
 10
249.6174605524673
 20
196.3341645129039
 30
0.0
 10
249.7615044720615
 20
196.8635948310737
 30
0.0
 10
249.8801238234925
 20
197.2510062887688
 30
0.0
 10
250.013433176506
 20
197.6235676336068
 30
0.0
 10
250.1386255425877
 20
197.9031256711209
 30
0.0
 10
250.2491335056332
 20
198.0910650029198
 30
0.0
 10
250.3333277957647
 20
198.2051196426196
 30
0.0
 10
250.4272965106045
 20
198.2960370532996
 30
0.0
 10
250.5189674631218
 20
198.3439487012848
 30
0.0
 10
250.6038182576905
 20
198.3531126345412
 30
0.0
 10
250.6762397795279
 20
198.3367995434215
 30
0.0
 10
250.7483327549722
 20
198.2962983034854
 30
0.0
 10
250.8279385941323
 20
198.2255295593208
 30
0.0
 10
250.9131074193103
 20
198.1166252033064
 30
0.0
 10
251.0045308640783
 20
197.9615853633951
 30
0.0
 10
251.0922101458491
 20
197.776786202476
 30
0.0
 10
251.1761997144236
 20
197.5668203333183
 30
0.0
 10
251.2537935646584
 20
197.3451891067466
 30
0.0
 10
251.3518488393547
 20
197.0331132494819
 30
0.0
 10
251.4633517659025
 20
196.6258005636347
 30
0.0
 10
251.5843019507201
 20
196.1217270756212
 30
0.0
 10
251.694407506103
 20
195.6125341254979
 30
0.0
 10
251.8333375024703
 20
194.9175619148476
 30
0.0
 10
251.9259850801573
 20
194.3896375204284
 30
0.0
 10
251.9886212403372
 20
194.0327241746372
 30
0.0
  0
LINE
  5
39F
330
1F
100
AcDbEntity
  8
0
  6
CONTINUOUS
 62
     7
100
AcDbLine
 10
249.3109504656
 20
194.976405345
 30
0.0
 11
249.2842792527
 21
194.819470265
 31
0.0
  0
LINE
  5
3A0
330
1F
100
AcDbEntity
  8
0
  6
CONTINUOUS
 62
     7
100
AcDbLine
 10
259.6103252309
 20
194.819470265
 30
0.0
 11
259.4945468977
 21
195.4685105778
 31
0.0
  0
LWPOLYLINE
  5
3A1
330
1F
100
AcDbEntity
  8
0
  6
CONTINUOUS
 62
     7
100
AcDbPolyline
 90
       67
 70
   128
 43
0.0
 10
256.4350014784
 20
201.010398932
 10
256.774957671
 20
200.9785178135
 10
257.0951553271
 20
200.9420038286
 10
257.3927419721
 20
200.9011636503
 10
257.665039858
 20
200.8563423264
 10
257.9095694556
 20
200.8079210258
 10
258.124072219
 20
200.7563144603
 10
258.3065324203
 20
200.701967979
 10
258.4551978229
 20
200.6453543289
 10
258.5685989356
 20
200.5869700838
 10
258.645566571
 20
200.527331748
 10
258.6852474095
 20
200.4669715458
 10
258.6871172635
 20
200.4064329175
 10
258.65099173
 20
200.3462657474
 10
258.5770339276
 20
200.2870213604
 10
258.4657590268
 20
200.2292473288
 10
258.3180353113
 20
200.1734821422
 10
258.1350815413
 20
200.1202497994
 10
257.9184604394
 20
200.0700543883
 10
257.6700681774
 20
200.0233747271
 10
257.3921198074
 20
199.9806591427
 10
257.0871306557
 20
199.9423204675
 10
256.7578937785
 20
199.9087313344
 10
256.4074536599
 20
199.8802198501
 10
256.0390764176
 20
199.8570657234
 10
255.6562168615
 20
199.839496918
 10
255.2624828269
 20
199.8276868945
 10
254.86159727
 20
199.8217524917
 10
254.4573586719
 20
199.8217524917
 10
254.0536003368
 20
199.8276868945
 10
253.6541492014
 20
199.839496918
 10
253.2627847825
 20
199.8570657234
 10
252.8831988855
 20
199.8802198501
 10
252.5189566753
 20
199.9087313344
 10
252.1734596732
 20
199.9423204675
 10
251.8499111962
 20
199.9806591427
 10
251.551284688
 20
200.0233747271
 10
251.2802953224
 20
200.0700543883
 10
251.0393751816
 20
200.1202497994
 10
250.8306522278
 20
200.1734821422
 10
250.6559332072
 20
200.2292473288
 10
250.5166905418
 20
200.2870213604
 10
250.414053192
 20
200.3462657474
 10
250.3488014022
 20
200.4064329175
 10
250.3213651811
 20
200.4669715458
 10
250.3318263186
 20
200.527331748
 10
250.3799237005
 20
200.5869700838
 10
250.4650616511
 20
200.6453543289
 10
250.5863210167
 20
200.701967979
 10
250.7424726923
 20
200.7563144603
 10
250.9319932926
 20
200.8079210258
 10
251.1530826783
 20
200.8563423264
 10
251.4036830611
 20
200.9011636503
 10
251.681499431
 20
200.9420038286
 10
251.9840210741
 20
200.9785178135
 10
252.3085439726
 20
201.010398932
 10
252.6521939096
 20
201.0373808279
 10
253.0119501246
 20
201.0592390986
 10
253.3846693959
 20
201.0757926397
 10
253.7671104452
 20
201.0869047074
 10
254.1559585848
 20
201.0924837051
 10
254.5478505426
 20
201.0924837051
 10
254.9393994129
 20
201.0869047074
 10
255.3272196902
 20
201.0757926397
 10
255.7079523463
 20
201.0592390986
 10
256.0782899064
 20
201.0373808279
 10
256.4350014784
 20
201.010398932
  0
LINE
  5
3A2
330
1F
100
AcDbEntity
  8
0
  6
CONTINUOUS
 62
     7
100
AcDbLine
 10
257.2135619714
 20
192.0510417926
 30
0.0
 11
257.2387982472
 21
194.0327241746
 31
0.0
  0
LINE
  5
3A3
330
1F
100
AcDbEntity
  8
0
  6
CONTINUOUS
 62
     7
100
AcDbLine
 10
257.2135619714
 20
192.0510417926
 30
0.0
 11
251.9738592744
 21
192.0510417926
 31
0.0
  0
LINE
  5
3A4
330
1F
100
AcDbEntity
  8
0
  6
CONTINUOUS
 62
     7
100
AcDbLine
 10
251.9738592744
 20
192.0510417926
 30
0.0
 11
251.9886212403
 21
194.0327241746
 31
0.0
  0
LWPOLYLINE
  5
3A5
330
1F
100
AcDbEntity
  8
0
  6
CONTINUOUS
 62
     7
100
AcDbPolyline
 90
       62
 70
   128
 43
0.0
 10
252.8267273175
 20
199.9953138331
 10
253.1604697105
 20
199.9695046162
 10
253.508999532
 20
199.9490065104
 10
253.8685044295
 20
199.9340528709
 10
254.2350371382
 20
199.9248143535
 10
254.6045632469
 20
199.9213965685
 10
254.9730104617
 20
199.9238386206
 10
255.3363185512
 20
199.9321125671
 10
255.6904891368
 20
199.9461238052
 10
256.0316344941
 20
199.9657123803
 10
256.3560245578
 20
199.990655188
 10
256.6601313717
 20
200.0206690213
 10
256.9406702968
 20
200.0554144002
 10
257.194637376
 20
200.0945001044
 10
257.4193423551
 20
200.137488319
 10
257.6124369705
 20
200.1839002925
 10
257.7719382282
 20
200.2332224035
 10
257.8962465135
 20
200.2849125261
 10
257.9841584844
 20
200.33840659
 10
258.034874802
 20
200.3931252285
 10
258.048002847
 20
200.4484804201
 10
258.0235546519
 20
200.5038820313
 10
257.9619403418
 20
200.558744184
 10
257.863957429
 20
200.6124913749
 10
257.7307763409
 20
200.6645642916
 10
257.5639225793
 20
200.7144252766
 10
257.3652559184
 20
200.7615634046
 10
257.1369470381
 20
200.8054991457
 10
256.8814519789
 20
200.8457885987
 10
256.6014847755
 20
200.882027284
 10
256.2999885988
 20
200.9138534952
 10
255.9801057023
 20
200.9409512098
 10
255.6451464334
 20
200.963052566
 10
255.2985575356
 20
200.9799399132
 10
254.9438899349
 20
200.9914474445
 10
254.5847661772
 20
200.9974624208
 10
254.224847657
 20
200.9979259929
 10
253.867801764
 20
200.9928336276
 10
253.5172690587
 20
200.9822351404
 10
253.1768305912
 20
200.966234335
 10
252.8499754731
 20
200.9449882477
 10
252.5400688311
 20
200.9187059909
 10
252.2503202814
 20
200.8876471887
 10
251.9837530921
 20
200.8521199973
 10
251.7431742255
 20
200.8124786995
 10
251.5311454856
 20
200.7691208666
 10
251.3499560277
 20
200.7224840812
 10
251.2015965223
 20
200.6730422172
 10
251.0877352956
 20
200.6213012798
 10
251.0096967979
 20
200.5677948126
 10
250.9684427709
 20
200.5130788884
 10
250.9645565009
 20
200.4577267069
 10
250.9982305453
 20
200.4023228345
 10
251.0692583125
 20
200.3474571317
 10
251.1770298509
 20
200.2937184226
 10
251.3205321662
 20
200.241687976
 10
251.4983543327
 20
200.1919328742
 10
251.7086975968
 20
200.1449993597
 10
251.9493905888
 20
200.1014062533
 10
252.2179096649
 20
200.0616385489
 10
252.5114042971
 20
200.0261412893
 10
252.8267273175
 20
199.9953138331
  0
LINE
  5
3A6
330
1F
100
AcDbEntity
  8
0
  6
CONTINUOUS
 62
     7
100
AcDbLine
 10
249.2750677395
 20
192.8690760907
 30
0.0
 11
249.2842792527
 21
194.819470265
 31
0.0
  0
LINE
  5
3A7
330
1F
100
AcDbEntity
  8
0
  6
CONTINUOUS
 62
     7
100
AcDbLine
 10
251.9738592744
 20
192.0510417926
 30
0.0
 11
249.2750677395
 21
192.8690760907
 31
0.0
  0
LINE
  5
3A8
330
1F
100
AcDbEntity
  8
0
  6
CONTINUOUS
 62
     7
100
AcDbLine
 10
259.5808541571
 20
192.8690760907
 30
0.0
 11
259.6103252309
 21
194.819470265
 31
0.0
  0
LINE
  5
3A9
330
1F
100
AcDbEntity
  8
0
  6
CONTINUOUS
 62
     7
100
AcDbLine
 10
259.5808541571
 20
192.8690760907
 30
0.0
 11
257.2135619714
 21
192.0510417926
 31
0.0
  0
LWPOLYLINE
  5
3AA
330
1F
100
AcDbEntity
  8
0
  6
CONTINUOUS
 62
     7
100
AcDbPolyline
 90
       52
 70
   128
 43
0.0
 10
253.3174405541
 20
200.1333620169
 10
253.6012895427
 20
200.1120379529
 10
253.8991919628
 20
200.0961238047
 10
254.2065260078
 20
200.0858735574
 10
254.5185103907
 20
200.0814511032
 10
254.8302843691
 20
200.0829272262
 10
255.1369895443
 20
200.0902782951
 10
255.4338516803
 20
200.1033867004
 10
255.7162607831
 20
200.1220430223
 10
255.9798477383
 20
200.1459498735
 10
256.2205559213
 20
200.1747273139
 10
256.4347063623
 20
200.2079196972
 10
256.6190552568
 20
200.245003777
 10
256.7708428568
 20
200.2853978714
 10
256.8878330353
 20
200.3284718726
 10
256.9683430862
 20
200.3735578739
 10
257.011263579
 20
200.4199611894
 10
257.0160683325
 20
200.4669715458
 10
256.9828147891
 20
200.5138742392
 10
256.9121352517
 20
200.5599610675
 10
256.805219599
 20
200.6045408706
 10
256.6637901966
 20
200.6469495339
 10
256.4900697968
 20
200.6865593344
 10
256.2867432568
 20
200.7227875351
 10
256.056913907
 20
200.7551041517
 10
255.8040553865
 20
200.7830388397
 10
255.531959722
 20
200.8061868641
 10
255.244682379
 20
200.8242141282
 10
254.9464849582
 20
200.8368612503
 10
254.6417761546
 20
200.8439466811
 10
254.335051548
 20
200.8453688609
 10
254.030832755
 20
200.841107418
 10
253.7336064436
 20
200.831223408
 10
253.4477637028
 20
200.8158585949
 10
253.177540262
 20
200.7952337739
 10
252.9269580738
 20
200.769646134
 10
252.6997688097
 20
200.7394656602
 10
252.4993998572
 20
200.7051305802
 10
252.3289034606
 20
200.6671418626
 10
252.190909698
 20
200.626056785
 10
252.0875840323
 20
200.5824816013
 10
252.0205902153
 20
200.5370633536
 10
251.9910593389
 20
200.4904808912
 10
251.9995658296
 20
200.4434351823
 10
252.0461111458
 20
200.3966390256
 10
252.130115877
 20
200.3508062943
 10
252.2504208386
 20
200.3066408697
 10
252.4052976199
 20
200.2648254412
 10
252.5924688648
 20
200.2260103743
 10
252.8091383597
 20
200.1908028589
 10
253.0520307619
 20
200.1597565629
 10
253.3174405541
 20
200.1333620169
  0
LWPOLYLINE
  5
3AB
330
1F
100
AcDbEntity
  8
0
  6
CONTINUOUS
 62
     7
100
AcDbPolyline
 90
       22
 70
   128
 43
0.0
 10
253.5498441217
 20
200.1987421371
 10
253.67709859
 20
200.1911961617
 10
253.8120090228
 20
200.1896523007
 10
253.9425303878
 20
200.1942490562
 10
254.0570139093
 20
200.2045741344
 10
254.1452600258
 20
200.2197024255
 10
254.1994341147
 20
200.2382808845
 10
254.214760338
 20
200.2586518307
 10
254.1899327989
 20
200.2790026367
 10
254.1272121189
 20
200.297527674
 10
254.0322056361
 20
200.3125878273
 10
253.9133573118
 20
200.3228537309
 10
253.7811967319
 20
200.3274208395
 10
253.6474141423
 20
200.3258871623
 10
253.5238400092
 20
200.3183876626
 10
253.4214134647
 20
200.3055827179
 10
253.3492245257
 20
200.2886015134
 10
253.3137102733
 20
200.2689446836
 10
253.3180750479
 20
200.2483538283
 10
253.3619888463
 20
200.2286585075
 10
253.4415965458
 20
200.2116136975
 10
253.5498441217
 20
200.1987421371
  0
LWPOLYLINE
  5
3AC
330
1F
100
AcDbEntity
  8
0
  6
CONTINUOUS
 62
     7
100
AcDbPolyline
 90
       22
 70
   128
 43
0.0
 10
255.6899440035
 20
200.287303314
 10
255.817315931
 20
200.2797897258
 10
255.9520164576
 20
200.2782524916
 10
256.0820193809
 20
200.2828295165
 10
256.1957224107
 20
200.2931102846
 10
256.282995849
 20
200.3081736725
 10
256.3360919284
 20
200.3266724588
 10
256.3503307912
 20
200.3469560866
 10
256.324503051
 20
200.3672197035
 10
256.2609578318
 20
200.3856654112
 10
256.1653752317
 20
200.4006610988
 10
256.0462499387
 20
200.4108830722
 10
255.9141358858
 20
200.4154306405
 10
255.7807192133
 20
200.413903525
 10
255.6577981847
 20
200.4064361139
 10
255.5562543855
 20
200.3936859722
 10
255.485099888
 20
200.3767774706
 10
255.4506801866
 20
200.3572048364
 10
255.4561024153
 20
200.3367022204
 10
255.500942365
 20
200.3170913424
 10
255.5812621635
 20
200.3001196437
 10
255.6899440035
 20
200.287303314
  0
LWPOLYLINE
  5
3AD
330
1F
100
AcDbEntity
  8
0
  6
CONTINUOUS
 62
     7
100
AcDbPolyline
 90
       22
 70
   128
 43
0.0
 10
252.9032084111
 20
200.5273285705
 10
253.0293310617
 20
200.51990241
 10
253.1631419594
 20
200.518383065
 10
253.2926947064
 20
200.522906828
 10
253.4064273489
 20
200.5330679823
 10
253.4942073566
 20
200.5479561655
 10
253.5482412829
 20
200.5662398766
 10
253.5637650369
 20
200.586287788
 10
253.5394542436
 20
200.6063160362
 10
253.4775227851
 20
200.624547591
 10
253.3835074382
 20
200.6393692503
 10
253.2657641992
 20
200.6494726316
 10
253.1347250657
 20
200.6539674499
 10
253.0019815331
 20
200.6524580477
 10
252.8792726203
 20
200.6450772619
 10
252.777461137
 20
200.6324750637
 10
252.7055824917
 20
200.6157628266
 10
252.6700457078
 20
200.5964174807
 10
252.6740562787
 20
200.5761530678
 10
252.7173147564
 20
200.5567701426
 10
252.79602358
 20
200.5399958065
 10
252.9032084111
 20
200.5273285705
  0
ARC
  5
3AE
330
1F
100
AcDbEntity
  8
0
  6
CONTINUOUS
 62
     7
100
AcDbCircle
 10
232.3887680415
 20
164.6063341218
 30
0.0
 40
6.129291363233933
100
AcDbArc
 50
150.5400694233
 51
211.5381390027
  0
ARC
  5
3AF
330
1F
100
AcDbEntity
  8
0
  6
CONTINUOUS
 62
     7
100
AcDbCircle
 10
233.2584205442
 20
164.4564146802
 30
0.0
 40
7.009995075172745
100
AcDbArc
 50
152.5887518633
 51
194.0651068789
  0
ARC
  5
3B0
330
1F
100
AcDbEntity
  8
0
  6
CONTINUOUS
 62
     7
100
AcDbCircle
 10
248.8429144354
 20
149.4122500892
 30
0.0
 40
4.469076786099368
100
AcDbArc
 50
287.3755242441
 51
295.209605437
  0
ARC
  5
3B1
330
1F
100
AcDbEntity
  8
0
  6
CONTINUOUS
 62
     7
100
AcDbCircle
 10
247.1971941477
 20
155.7733102288
 30
0.0
 40
11.03624053947711
100
AcDbArc
 50
256.0015496837
 51
285.6672309462
  0
ARC
  5
3B2
330
1F
100
AcDbEntity
  8
0
  6
CONTINUOUS
 62
     7
100
AcDbCircle
 10
247.2075393765
 20
154.9963954026
 30
0.0
 40
10.38261463140267
100
AcDbArc
 50
254.3393442316
 51
285.7972796848
  0
ARC
  5
3B3
330
1F
100
AcDbEntity
  8
0
  6
CONTINUOUS
 62
     7
100
AcDbCircle
 10
248.9456912611
 20
148.5939220195
 30
0.0
 40
3.749434075544949
100
AcDbArc
 50
286.8742239595
 51
299.4437803647
  0
LWPOLYLINE
  5
3B4
330
1F
100
AcDbEntity
  8
0
  6
CONTINUOUS
 62
     7
100
AcDbPolyline
 90
       34
 70
   128
 43
0.0
 10
239.177742397
 20
163.6203667919
 10
238.9761901044
 20
163.297040914
 10
238.8014046688
 20
162.952610517
 10
238.6544345607
 20
162.5893124582
 10
238.5361507938
 20
162.2094906535
 10
238.4472433505
 20
161.8155812416
 10
238.3882186458
 20
161.4100975227
 10
238.359397998
 20
160.9956147502
 10
238.3609170739
 20
160.5747548422
 10
238.3927262778
 20
160.1501710774
 10
238.4545920496
 20
159.7245328304
 10
238.5460990439
 20
159.3005103964
 10
238.6666531591
 20
158.8807599522
 10
238.8154853914
 20
158.4679086942
 10
238.991656488
 20
158.0645401926
 10
239.1940623796
 20
157.6731799984
 10
239.421440372
 20
157.2962815398
 10
239.6723760811
 20
156.936212344
 10
239.9453110955
 20
156.595240622
 10
240.2385513545
 20
156.2755222559
 10
240.5502762276
 20
155.9790882316
 10
240.878548283
 20
155.7078325627
 10
241.2213237313
 20
155.4635007559
 10
241.5764635271
 20
155.2476788731
 10
241.9417451107
 20
155.0617832489
 10
242.3148747652
 20
154.9070509292
 10
242.6935005606
 20
154.7845308972
 10
243.0752258504
 20
154.6950761625
 10
243.4576232776
 20
154.639336787
 10
243.8382492402
 20
154.6177539269
 10
244.2146587566
 20
154.630554971
 10
244.5844206625
 20
154.6777498546
 10
244.9451330603
 20
154.7591286268
 10
245.2888690004
 20
154.8721239224
  0
ARC
  5
3B5
330
1F
100
AcDbEntity
  8
0
  6
CONTINUOUS
 62
     7
100
AcDbCircle
 10
242.4668409843
 20
161.3695994288
 30
0.0
 40
3.985489084169361
100
AcDbArc
 50
130.4093530527
 51
145.6157222773
  0
LWPOLYLINE
  5
3B6
330
1F
100
AcDbEntity
  8
0
  6
CONTINUOUS
 62
     7
100
AcDbPolyline
 90
       51
 70
   128
 43
0.0
 10
241.4099863718
 20
161.5167841465
 10
241.2790093708
 20
161.297719833
 10
241.1765121661
 20
161.0575527789
 10
241.1040536055
 20
160.8000644721
 10
241.0627243096
 20
160.5292933528
 10
241.0531327027
 20
160.2494725474
 10
241.0753980966
 20
159.9649654436
 10
241.1291507767
 20
159.6801999759
 10
241.21353897
 20
159.3996024637
 10
241.3272425177
 20
159.1275318206
 10
241.468493024
 20
158.8682149263
 10
241.6351002059
 20
158.6256839286
 10
241.8244841213
 20
158.4037162213
 10
242.0337129097
 20
158.2057778271
 10
242.2595456288
 20
158.0349708973
 10
242.4984797193
 20
157.8939860189
 10
242.746802572
 20
157.7850600073
 10
243.0006466103
 20
157.7099398278
 10
243.2560472343
 20
157.6698532635
 10
243.5090029033
 20
157.665486895
 10
243.7555365639
 20
157.6969719002
 10
243.991757565
 20
157.7638781033
 10
244.2139231383
 20
157.8652166058
 10
244.4184984739
 20
157.9994512178
 10
244.6022143841
 20
158.1645187691
 10
244.7621215295
 20
158.3578582305
 10
244.8956401908
 20
158.5764484049
 10
245.0006045954
 20
158.8168537698
 10
245.0753008724
 20
159.0752778697
 10
245.1184977944
 20
159.3476234712
 10
245.1294695826
 20
159.6295585217
 10
245.1080101976
 20
159.9165867891
 10
245.0544387041
 20
160.2041219232
 10
244.9695954871
 20
160.4875635719
 10
244.8548292956
 20
160.7623741078
 10
244.7119752971
 20
161.0241544872
 10
244.5433245324
 20
161.2687177677
 10
244.3515853551
 20
161.4921588577
 10
244.139837621
 20
161.6909191569
 10
243.9114805508
 20
161.8618448751
 10
243.6701753197
 20
162.0022379669
 10
243.419783523
 20
162.1098988076
 10
243.1643027327
 20
162.1831599326
 10
242.9078003863
 20
162.220910373
 10
242.6543472443
 20
162.2226103353
 10
242.4079516136
 20
162.1882961785
 10
242.1724954703
 20
162.1185758389
 10
241.9516735244
 20
162.0146150311
 10
241.7489361641
 20
161.8781147083
 10
241.5674370956
 20
161.7112804
 10
241.4099863718
 20
161.5167841465
  0
LWPOLYLINE
  5
3B7
330
1F
100
AcDbEntity
  8
0
  6
CONTINUOUS
 62
     7
100
AcDbPolyline
 90
       22
 70
   128
 43
0.0
 10
246.9389414806
 20
202.0313075148
 10
246.9441992177
 20
201.9979353363
 10
246.9244416542
 20
201.9407085532
 10
246.8683842426
 20
201.8838791319
 10
246.7763581718
 20
201.8279431938
 10
246.6490150157
 20
201.7733932095
 10
246.4873261272
 20
201.7207134224
 10
246.2925787884
 20
201.6703752105
 10
246.0663689805
 20
201.6228324379
 10
245.8105906872
 20
201.5785168574
 10
245.5274217018
 20
201.5378336271
 10
245.2193059698
 20
201.5011570049
 10
244.8889325681
 20
201.4688262891
 10
244.5392114842
 20
201.4411420689
 10
244.1732464365
 20
201.4183628491
 10
243.7943050351
 20
201.4007021059
 10
243.4057866481
 20
201.3883258282
 10
243.0111883949
 20
201.3813505881
 10
242.6140697292
 20
201.3798421761
 10
242.2180161145
 20
201.3838148283
 10
241.8266023146
 20
201.3932310584
 10
241.4433558327
 20
201.408002099
  0
LINE
  5
3B8
330
1F
100
AcDbEntity
  8
0
  6
CONTINUOUS
 62
     7
100
AcDbLine
 10
241.4433558327
 20
201.408002099
 30
0.0
 11
241.441476894
 21
202.0056685665
 31
0.0
  0
SPLINE
  5
3B9
330
1F
100
AcDbEntity
  8
0
  6
CONTINUOUS
 62
     7
100
AcDbSpline
210
0.0
220
0.0
230
1.0
 70
     8
 71
     3
 72
    14
 73
    10
 74
     0
 42
0.000000001
 43
0.00000001
 40
0.0
 40
0.0
 40
0.0
 40
0.0
 40
0.1576103213932868
 40
0.3195416563012341
 40
0.4772348747177433
 40
0.6398298550118365
 40
0.7924824295099454
 40
0.9492693014368103
 40
1.0
 40
1.0
 40
1.0
 40
1.0
 10
241.4414768939517
 20
202.0056685665299
 30
0.0
 10
241.3514996067622
 20
202.0544033911492
 30
0.0
 10
241.1691146233495
 20
202.1531894343546
 30
0.0
 10
240.8861712940695
 20
202.2491715563561
 30
0.0
 10
240.6040031038606
 20
202.3032026719127
 30
0.0
 10
240.3382853214986
 20
202.3088335931693
 30
0.0
 10
240.0926031622349
 20
202.2684971509239
 30
0.0
 10
239.9224950141583
 20
202.205838749314
 30
0.0
 10
239.833718284705
 20
202.1563749794501
 30
0.0
 10
239.8120254822645
 20
202.1442883910589
 30
0.0
  0
LINE
  5
3BA
330
1F
100
AcDbEntity
  8
0
  6
CONTINUOUS
 62
     7
100
AcDbLine
 10
239.8120254823
 20
202.1442883911
 30
0.0
 11
239.8148670253
 21
201.5486398633
 31
0.0
  0
ARC
  5
3BB
330
1F
100
AcDbEntity
  8
0
  6
CONTINUOUS
 62
     7
100
AcDbCircle
 10
239.6994862719
 20
203.4075005961
 30
0.0
 40
1.862438171395366
100
AcDbArc
 50
230.9386755187
 51
273.5518313221
  0
LWPOLYLINE
  5
3BC
330
1F
100
AcDbEntity
  8
0
  6
CONTINUOUS
 62
     7
100
AcDbPolyline
 90
       68
 70
   128
 43
0.0
 10
240.5626969317
 20
204.021157288
 10
240.9166690014
 20
203.9955736041
 10
241.2872397979
 20
203.9747153739
 10
241.6710340429
 20
203.958782019
 10
242.0645398435
 20
203.9479263046
 10
242.4641445791
 20
203.9422525263
 10
242.8661722585
 20
203.9418152633
 10
243.2669218058
 20
203.9466187239
 10
243.6627057115
 20
203.9566166946
 10
244.0498884749
 20
203.9717130953
 10
244.4249242699
 20
203.9917631279
 10
244.7843932875
 20
204.0165749979
 10
245.1250362398
 20
204.0459121755
 10
245.4437865594
 20
204.0794961531
 10
245.737799883
 20
204.1170096509
 10
246.0044804733
 20
204.1581002095
 10
246.2415043049
 20
204.2023841119
 10
246.446838614
 20
204.2494505658
 10
246.6187577852
 20
204.298866082
 10
246.7558555237
 20
204.3501789816
 10
246.8570533283
 20
204.4029239682
 10
246.9216053444
 20
204.4566267052
 10
246.9490997321
 20
204.510808341
 10
246.9394567313
 20
204.564989932
 10
246.8929236418
 20
204.61869672
 10
246.8100669677
 20
204.6714622252
 10
246.6917619912
 20
204.7228321251
 10
246.5391800524
 20
204.7723678939
 10
246.3537738111
 20
204.8196501855
 10
246.1372607646
 20
204.8642819484
 10
245.8916052781
 20
204.9058912645
 10
245.6189993712
 20
204.9441339115
 10
245.3218424816
 20
204.9786956497
 10
245.0027204028
 20
205.0092942372
 10
244.6643835686
 20
205.0356811825
 10
244.3097248323
 20
205.0576432399
 10
243.9417568631
 20
205.0750036593
 10
243.5635892597
 20
205.0876231967
 10
243.1784054623
 20
205.0954008953
 10
242.7894395249
 20
205.0982746428
 10
242.3999527985
 20
205.0962215108
 10
242.0132105651
 20
205.0892578792
 10
241.6324586579
 20
205.0774393473
 10
241.2609001029
 20
205.0608604308
 10
240.9016718214
 20
205.0396540404
 10
240.5578214388
 20
205.0139907391
 10
240.232284262
 20
204.9840777703
 10
239.9278605007
 20
204.9501578483
 10
239.6471928273
 20
204.9125077044
 10
239.3927443959
 20
204.8714363784
 10
239.1667774608
 20
204.8272832468
 10
238.9713327634
 20
204.780415782
 10
238.8082098798
 20
204.7312270365
 10
238.6789487456
 20
204.6801328495
 10
238.5848125988
 20
204.6275687778
 10
238.5267725954
 20
204.5739867574
 10
238.5054943711
 20
204.519851505
 10
238.5213268256
 20
204.4656366777
 10
238.5742934102
 20
204.411820814
 10
238.6640861894
 20
204.3588830847
 10
238.7900629311
 20
204.3072988911
 10
238.9512474556
 20
204.2575353533
 10
239.1463334358
 20
204.210046738
 10
239.3736917982
 20
204.1652698817
 10
239.6313818189
 20
204.123619668
 10
239.9171659497
 20
204.0854846228
 10
240.2285283372
 20
204.0512226954
 10
240.5626969317
 20
204.021157288
  0
LWPOLYLINE
  5
3BD
330
1F
100
AcDbEntity
  8
0
  6
CONTINUOUS
 62
     7
100
AcDbPolyline
 90
       63
 70
   128
 43
0.0
 10
240.877654038
 20
204.0950024927
 10
241.2053568886
 20
204.0715988165
 10
241.5492575319
 20
204.0529217423
 10
241.9057151553
 20
204.0391773844
 10
242.2709406558
 20
204.030517801
 10
242.6410410426
 20
204.0270389611
 10
243.012065516
 20
204.0287794549
 10
243.3800524828
 20
204.0357199727
 10
243.7410767383
 20
204.0477835662
 10
244.0912960469
 20
204.0648366835
 10
244.4269963633
 20
204.0866909589
 10
244.7446349809
 20
204.1131057181
 10
245.0408809463
 20
204.1437911482
 10
245.3126521553
 20
204.1784120685
 10
245.5571486313
 20
204.2165922281
 10
245.7718815852
 20
204.2579190486
 10
245.9546979571
 20
204.3019487246
 10
246.1038002462
 20
204.3482115937
 10
246.2177615359
 20
204.3962176859
 10
246.2955357201
 20
204.4454623662
 10
246.3364630247
 20
204.4954319883
 10
246.340270995
 20
204.5456094832
 10
246.3070711877
 20
204.5954798153
 10
246.2373518549
 20
204.644535245
 10
246.1319669503
 20
204.6922803484
 10
245.9921218067
 20
204.7382367533
 10
245.8193558507
 20
204.7819475567
 10
245.6155227177
 20
204.8229814031
 10
245.3827681218
 20
204.8609362058
 10
245.1235058172
 20
204.8954425022
 10
244.8403919618
 20
204.92616644
 10
244.5362981684
 20
204.952812395
 10
244.2142834944
 20
204.9751252248
 10
243.8775655901
 20
204.9928921654
 10
243.5294911976
 20
205.0059443782
 10
243.17350616
 20
205.0141581542
 10
242.8131250799
 20
205.017455785
 10
242.4519007447
 20
205.015806103
 10
242.0933934233
 20
205.0092246982
 10
241.7411401306
 20
204.9977738091
 10
241.3986239552
 20
204.9815618917
 10
241.0692435513
 20
204.9607428584
 10
240.7562829064
 20
204.9355149865
 10
240.4628815161
 20
204.9061194854
 10
240.1920051162
 20
204.8728387179
 10
239.9464171549
 20
204.8359940665
 10
239.7286512104
 20
204.7959434373
 10
239.5409845994
 20
204.7530783968
 10
239.3854134461
 20
204.7078209399
 10
239.2636295165
 20
204.6606198893
 10
239.1769991467
 20
204.6119469355
 10
239.1265446169
 20
204.5622923295
 10
239.1129283328
 20
204.5121602501
 10
239.1364401852
 20
204.4620638747
 10
239.196988447
 20
204.4125201923
 10
239.2940945504
 20
204.3640446059
 10
239.4268920534
 20
204.3171453805
 10
239.5941300579
 20
204.2723180039
 10
239.7941812833
 20
204.2300395304
 10
240.0250549226
 20
204.1907629918
 10
240.2844143274
 20
204.1549119574
 10
240.5695994708
 20
204.1228753337
 10
240.877654038
 20
204.0950024927
  0
SPLINE
  5
3BE
330
1F
100
AcDbEntity
  8
0
  6
CONTINUOUS
 62
     7
100
AcDbSpline
210
0.0
220
0.0
230
1.0
 70
     8
 71
     3
 72
    11
 73
     7
 74
     0
 42
0.000000001
 43
0.00000001
 40
0.0
 40
0.0
 40
0.0
 40
0.0
 40
0.2462519209837865
 40
0.4939527528726259
 40
0.7461959343868055
 40
1.0
 40
1.0
 40
1.0
 40
1.0
 10
241.4506970199389
 20
199.0728639576621
 30
0.0
 10
241.4632072227626
 20
199.2667381365209
 30
0.0
 10
241.4883093895986
 20
199.6557535706819
 30
0.0
 10
241.4969586634524
 20
200.2413745743158
 30
0.0
 10
241.485521025703
 20
200.8284784257678
 30
0.0
 10
241.4574476838354
 20
201.2143219385994
 30
0.0
 10
241.4433558326686
 20
201.4080020990222
 30
0.0
  0
LWPOLYLINE
  5
3BF
330
1F
100
AcDbEntity
  8
0
  6
CONTINUOUS
 62
     7
100
AcDbPolyline
 90
       22
 70
   128
 43
0.0
 10
246.9274470766
 20
199.7542688889
 10
246.9387847298
 20
199.6957851436
 10
246.9190648187
 20
199.6353564701
 10
246.8631289473
 20
199.5753477903
 10
246.7713079589
 20
199.5162829671
 10
246.6442523166
 20
199.4586819947
 10
246.4829314831
 20
199.4030561678
 10
246.288630066
 20
199.3499031845
 10
246.0629405919
 20
199.2997022401
 10
245.8077528249
 20
199.2529091746
 10
245.5252395992
 20
199.2099517406
 10
245.2178391995
 20
199.1712250599
 10
244.8882343869
 20
199.1370873396
 10
244.5393282381
 20
199.1078559157
 10
244.1742170343
 20
199.0838036915
 10
243.7961605003
 20
199.0651560312
 10
243.4085497579
 20
199.0520881656
 10
243.0148734118
 20
199.0447231566
 10
242.6186822318
 20
199.043130457
 10
242.2235529292
 20
199.0473250952
 10
241.8330515507
 20
199.0572674984
 10
241.4506970199
 20
199.0728639577
  0
LWPOLYLINE
  5
3C0
330
1F
100
AcDbEntity
  8
0
  6
CONTINUOUS
 62
     7
100
AcDbPolyline
 90
       57
 70
   128
 43
0.0
 10
246.7506238721
 20
195.769551796
 10
246.807294512
 20
195.7588844471
 10
247.0861152188
 20
195.7010153651
 10
247.3370861713
 20
195.6393635683
 10
247.5584776335
 20
195.5743110325
 10
247.7487308411
 20
195.5062642746
 10
247.9064704141
 20
195.4356523475
 10
248.0305161872
 20
195.3629246252
 10
248.1198943214
 20
195.2885483757
 10
248.173847548
 20
195.2130061215
 10
248.1918443889
 20
195.1367927921
 10
248.1735871875
 20
195.0604126745
 10
248.1190187859
 20
194.9843761753
 10
248.028327679
 20
194.9091964083
 10
247.9019514846
 20
194.8353856299
 10
247.740578577
 20
194.7634515472
 10
247.5451477437
 20
194.6938935282
 10
247.3168457446
 20
194.6271987487
 10
247.0571026773
 20
194.5638383155
 10
246.7675850755
 20
194.5042634061
 10
246.4501867051
 20
194.4489014705
 10
246.107017052
 20
194.398152543
 10
245.7403875369
 20
194.3523857105
 10
245.3527955306
 20
194.3119357867
 10
244.9469062831
 20
194.2771002399
 10
244.5255329205
 20
194.2481364185
 10
244.0916147018
 20
194.2252591178
 10
243.6481937627
 20
194.2086385252
 10
243.1983906065
 20
194.198398577
 10
242.7453786273
 20
194.1946157537
 10
242.2923579732
 20
194.1973183321
 10
241.8425290722
 20
194.2064861088
 10
241.3990661487
 20
194.2220505982
 10
240.9650910613
 20
194.2438957018
 10
240.5436477846
 20
194.2718588381
 10
240.1376778429
 20
194.3057325144
 10
239.7499969854
 20
194.3452663153
 10
239.3832733628
 20
194.3901692754
 10
239.0400074368
 20
194.4401125991
 10
238.7225138164
 20
194.4947326871
 10
238.4329051787
 20
194.5536344227
 10
238.1730783891
 20
194.6163946728
 10
237.9447029001
 20
194.682565953
 10
237.7492114621
 20
194.7516802112
 10
237.5877931478
 20
194.8232526803
 10
237.4613886525
 20
194.8967857556
 10
237.3706878007
 20
194.9717728547
 10
237.316129165
 20
195.0477022198
 10
237.2979016742
 20
195.1240606287
 10
237.315948074
 20
195.2003369824
 10
237.3699700857
 20
195.2760257441
 10
237.4594351009
 20
195.3506302077
 10
237.5835842445
 20
195.4236655794
 10
237.7414416374
 20
195.49466186
 10
237.9318246947
 20
195.5631665188
 10
238.1533552991
 20
195.6287469565
 10
238.3960277284
 20
195.6890640389
  0
LWPOLYLINE
  5
3C1
330
1F
100
AcDbEntity
  8
0
  6
CONTINUOUS
 62
     7
100
AcDbPolyline
 90
       35
 70
   128
 43
0.0
 10
238.5674334375
 20
195.0977090669
 10
238.5998105983
 20
195.0373969595
 10
238.6706605911
 20
194.9710069752
 10
238.7777106496
 20
194.9060059867
 10
238.920156901
 20
194.8429800496
 10
239.0968663159
 20
194.7825020413
 10
239.3063823015
 20
194.7251259752
 10
239.5469339065
 20
194.6713813484
 10
239.8164487
 20
194.621767597
 10
240.1125693237
 20
194.5767487405
 10
240.432673645
 20
194.5367482969
 10
240.7738983704
 20
194.5021445509
 10
241.1331658995
 20
194.4732662546
 10
241.5072141325
 20
194.450388835
 10
241.8926288708
 20
194.4337311771
 10
242.2858783938
 20
194.4234530421
 10
242.6833497354
 20
194.4196531678
 10
243.0813861462
 20
194.4223680896
 10
243.4763251948
 20
194.4315717021
 10
243.8645369457
 20
194.4471755725
 10
244.2424616515
 20
194.4690299972
 10
244.6066464051
 20
194.4969257838
 10
244.953780231
 20
194.530596722
 10
245.2807271278
 20
194.5697226988
 10
245.584556629
 20
194.6139333991
 10
245.8625715081
 20
194.6628125257
 10
246.1123323201
 20
194.7159024648
 10
246.3316785447
 20
194.7727093177
 10
246.518746169
 20
194.8327082163
 10
246.67198162
 20
194.8953488427
 10
246.7901520289
 20
194.9600610686
 10
246.8723518724
 20
195.0262606409
 10
246.9180060953
 20
195.0933548379
 10
246.9268698717
 20
195.1607480321
 10
246.9228624587
 20
195.1792485498
  0
LWPOLYLINE
  5
3C2
330
1F
100
AcDbEntity
  8
0
  6
CONTINUOUS
 62
     7
100
AcDbPolyline
 90
       40
 70
   128
 43
0.0
 10
248.1811133978
 20
194.1083963359
 10
248.1879442735
 20
194.0602497317
 10
248.1697004415
 20
193.9821780198
 10
248.1151849428
 20
193.9044578134
 10
248.0245863005
 20
193.827613582
 10
247.8983418802
 20
193.7521689112
 10
247.7371395148
 20
193.6786427297
 10
247.5419171553
 20
193.6075454358
 10
247.3138604275
 20
193.5393749605
 10
247.0543979964
 20
193.4746128046
 10
246.7651946687
 20
193.4137200946
 10
246.4481421959
 20
193.3571337018
 10
246.1053477723
 20
193.3052624732
 10
245.7391202647
 20
193.258483623
 10
245.3519542451
 20
193.2171393349
 10
244.946511942
 20
193.1815336226
 10
244.5256032624
 20
193.1519294956
 10
244.0921640761
 20
193.1285464729
 10
243.6492329907
 20
193.1115584837
 10
243.1999268755
 20
193.1010921892
 10
242.7474154191
 20
193.0972257506
 10
242.2948950296
 20
193.0999880664
 10
241.845562396
 20
193.1093584894
 10
241.4025880416
 20
193.1252670283
 10
240.9690901983
 20
193.1475950325
 10
240.5481093226
 20
193.1761763457
 10
240.1425835628
 20
193.2107989126
 10
239.7553254644
 20
193.2512068094
 10
239.3890001755
 20
193.2971026685
 10
239.0461053805
 20
193.3481504576
 10
238.7289531589
 20
193.4039785712
 10
238.4396539229
 20
193.464183189
 10
238.1801025533
 20
193.5283318525
 10
237.9519668075
 20
193.5959672105
 10
237.7566780381
 20
193.6666108852
 10
237.59542422
 20
193.7397674087
 10
237.4691452508
 20
193.814928186
 10
237.3785304541
 20
193.891575439
 10
237.3240181921
 20
193.9691860931
 10
237.3125235681
 20
193.99984651
  0
LINE
  5
3C3
330
1F
100
AcDbEntity
  8
0
  6
CONTINUOUS
 62
     7
100
AcDbLine
 10
239.8259693109
 20
199.2213620285
 30
0.0
 11
239.8287942952
 21
198.6291845464
 31
0.0
  0
SPLINE
  5
3C4
330
1F
100
AcDbEntity
  8
0
  6
CONTINUOUS
 62
     7
100
AcDbSpline
210
0.0
220
0.0
230
1.0
 70
     8
 71
     3
 72
    14
 73
    10
 74
     0
 42
0.000000001
 43
0.00000001
 40
0.0
 40
0.0
 40
0.0
 40
0.0
 40
0.1576103213932851
 40
0.319541656301234
 40
0.4772348747176942
 40
0.6398298550118108
 40
0.7924824295099429
 40
0.949269301436811
 40
1.0
 40
1.0
 40
1.0
 40
1.0
 10
239.82879429525
 20
198.6291845463967
 30
0.0
 10
239.8982211698296
 20
198.5752612432715
 30
0.0
 10
240.0390589779342
 20
198.4658736341662
 30
0.0
 10
240.2826028358301
 20
198.3589635923702
 30
0.0
 10
240.5474720563488
 20
198.2989192488875
 30
0.0
 10
240.8212722078952
 20
198.2931945638151
 30
0.0
 10
241.0985887624381
 20
198.3391102181479
 30
0.0
 10
241.3078009080785
 20
198.4097672310565
 30
0.0
 10
241.4241216415419
 20
198.4651500442607
 30
0.0
 10
241.4525649709869
 20
198.4786925276568
 30
0.0
  0
LINE
  5
3C5
330
1F
100
AcDbEntity
  8
0
  6
CONTINUOUS
 62
     7
100
AcDbLine
 10
241.452564971
 20
198.4786925277
 30
0.0
 11
241.4506970199
 21
199.0728639577
 31
0.0
  0
LWPOLYLINE
  5
3C6
330
1F
100
AcDbEntity
  8
0
  6
CONTINUOUS
 62
     7
100
AcDbPolyline
 90
       10
 70
   128
 43
0.0
 10
239.8259693109
 20
199.2213620285
 10
239.5546512502
 20
199.2654153603
 10
239.3116139511
 20
199.3131897297
 10
239.0989152937
 20
199.3642491959
 10
238.9183234647
 20
199.4181310168
 10
238.7713041718
 20
199.4743504203
 10
238.6590113513
 20
199.5324054785
 10
238.5822813159
 20
199.5917820174
 10
238.5416302386
 20
199.6519585011
 10
238.5351367292
 20
199.6795106135
  0
ARC
  5
3C7
330
1F
100
AcDbEntity
  8
0
  6
CONTINUOUS
 62
     7
100
AcDbCircle
 10
240.5481502627
 20
200.329061948
 30
0.0
 40
0.85223151029852
100
AcDbArc
 50
354.244510875
 51
103.6221553487
  0
ARC
  5
3C8
330
1F
100
AcDbEntity
  8
0
  6
CONTINUOUS
 62
     7
100
AcDbCircle
 10
240.6001513528
 20
200.1971388402
 30
0.0
 40
0.7972889791365614
100
AcDbArc
 50
294.0184534189
 51
3.3405475623
  0
LWPOLYLINE
  5
3C9
330
1F
100
AcDbEntity
  8
0
  6
CONTINUOUS
 62
     7
100
AcDbPolyline
 90
       31
 70
   128
 43
0.0
 10
241.077733988
 20
200.1609866688
 10
241.0603439057
 20
200.3467425829
 10
241.0102238402
 20
200.5273897948
 10
240.9295696878
 20
200.6949884024
 10
240.821926924
 20
200.8421737473
 10
240.6920320885
 20
200.9624851962
 10
240.5456002083
 20
201.0506533449
 10
240.3890684252
 20
201.1028322496
 10
240.2293081829
 20
201.1167662031
 10
240.0733196796
 20
201.0918840049
 10
239.9279228458
 20
201.0293173634
 10
239.7994588785
 20
200.9318437713
 10
239.6935154358
 20
200.8037576825
 10
239.6146870871
 20
200.6506769026
 10
239.5663806764
 20
200.4792936691
 10
239.5506730386
 20
200.2970818741
 10
239.5682261505
 20
200.1119732652
 10
239.618262411
 20
199.932016279
 10
239.6986004145
 20
199.7650314707
 10
239.8057493506
 20
199.6182773668
 10
239.9350580675
 20
199.4981400351
 10
240.0809128839
 20
199.4098587734
 10
240.2369764373
 20
199.3572990846
 10
240.3964582451
 20
199.3427825174
 10
240.5524062523
 20
199.3669810112
 10
240.6980075303
 20
199.4288810761
 10
240.8268855319
 20
199.5258204759
 10
240.9333810092
 20
199.6535971232
 10
241.0128039414
 20
199.8066467175
 10
241.0616446759
 20
199.9782824143
 10
241.077733988
 20
200.1609866688
  0
LINE
  5
3CA
330
1F
100
AcDbEntity
  8
0
  6
CONTINUOUS
 62
     7
100
AcDbLine
 10
241.4506970199
 20
199.0728639577
 30
0.0
 11
241.4433558327
 21
201.408002099
 31
0.0
  0
LINE
  5
3CB
330
1F
100
AcDbEntity
  8
0
  6
CONTINUOUS
 62
     7
100
AcDbLine
 10
239.9989274246
 20
202.2285677187
 30
0.0
 11
239.8120254823
 21
202.1442883911
 31
0.0
  0
ARC
  5
3CC
330
1F
100
AcDbEntity
  8
0
  6
CONTINUOUS
 62
     7
100
AcDbCircle
 10
240.7654193347
 20
199.8651336314
 30
0.0
 40
1.550753560453485
100
AcDbArc
 50
232.8444789749
 51
290.3252755061
  0
LINE
  5
3CD
330
1F
100
AcDbEntity
  8
0
  6
CONTINUOUS
 62
     7
100
AcDbLine
 10
239.8148670253
 20
201.5486398633
 30
0.0
 11
239.8178335646
 21
200.9267894167
 31
0.0
  0
LINE
  5
3CE
330
1F
100
AcDbEntity
  8
0
  6
CONTINUOUS
 62
     7
100
AcDbLine
 10
239.8246012687
 20
199.5081330921
 30
0.0
 11
239.8259693109
 21
199.2213620285
 31
0.0
  0
LINE
  5
3CF
330
1F
100
AcDbEntity
  8
0
  6
CONTINUOUS
 62
     7
100
AcDbLine
 10
263.4036177072
 20
178.2036038713
 30
0.0
 11
263.3918819752
 21
177.5938881666
 31
0.0
  0
LINE
  5
3D0
330
1F
100
AcDbEntity
  8
0
  6
CONTINUOUS
 62
     7
100
AcDbLine
 10
263.2701280586
 20
177.4990670978
 30
0.0
 11
263.3918819752
 21
177.5938881666
 31
0.0
  0
LINE
  5
3D1
330
1F
100
AcDbEntity
  8
0
  6
CONTINUOUS
 62
     7
100
AcDbLine
 10
263.2701280586
 20
177.4990670978
 30
0.0
 11
263.2851223145
 21
178.2830765969
 31
0.0
  0
LINE
  5
3D2
330
1F
100
AcDbEntity
  8
0
  6
CONTINUOUS
 62
     7
100
AcDbLine
 10
263.4036177072
 20
178.2036038713
 30
0.0
 11
263.2851223145
 21
178.2830765969
 31
0.0
  0
LINE
  5
3D3
330
1F
100
AcDbEntity
  8
0
  6
CONTINUOUS
 62
     7
100
AcDbLine
 10
263.6788203866
 20
178.3308866265
 30
0.0
 11
263.4036177072
 21
178.2036038713
 31
0.0
  0
LINE
  5
3D4
330
1F
100
AcDbEntity
  8
0
  6
CONTINUOUS
 62
     7
100
AcDbLine
 10
263.2851223145
 20
178.2830765969
 30
0.0
 11
263.6391319539
 21
178.4464605613
 31
0.0
  0
LINE
  5
3D5
330
1F
100
AcDbEntity
  8
0
  6
CONTINUOUS
 62
     7
100
AcDbLine
 10
263.6788203866
 20
178.3308866265
 30
0.0
 11
263.6391319539
 21
178.4464605613
 31
0.0
  0
LINE
  5
3D6
330
1F
100
AcDbEntity
  8
0
  6
CONTINUOUS
 62
     7
100
AcDbLine
 10
263.1894574139
 20
177.5096955487
 30
0.0
 11
263.1869719042
 21
177.3791698272
 31
0.0
  0
LINE
  5
3D7
330
1F
100
AcDbEntity
  8
0
  6
CONTINUOUS
 62
     7
100
AcDbLine
 10
263.1869719042
 20
177.3791698272
 30
0.0
 11
263.2676313539
 21
177.3685210951
 31
0.0
  0
LINE
  5
3D8
330
1F
100
AcDbEntity
  8
0
  6
CONTINUOUS
 62
     7
100
AcDbLine
 10
263.2526651295
 20
176.5859772887
 30
0.0
 11
263.2676313539
 21
177.3685210951
 31
0.0
  0
LINE
  5
3D9
330
1F
100
AcDbEntity
  8
0
  6
CONTINUOUS
 62
     7
100
AcDbLine
 10
263.1720727842
 20
176.5967474725
 30
0.0
 11
263.2526651295
 21
176.5859772887
 31
0.0
  0
LINE
  5
3DA
330
1F
100
AcDbEntity
  8
0
  6
CONTINUOUS
 62
     7
100
AcDbLine
 10
263.1720727842
 20
176.5967474725
 30
0.0
 11
263.1695919182
 21
176.4664656121
 31
0.0
  0
LINE
  5
3DB
330
1F
100
AcDbEntity
  8
0
  6
CONTINUOUS
 62
     7
100
AcDbLine
 10
263.1695919182
 20
176.4664656121
 30
0.0
 11
263.2501730902
 21
176.4556752256
 31
0.0
  0
LINE
  5
3DC
330
1F
100
AcDbEntity
  8
0
  6
CONTINUOUS
 62
     7
100
AcDbLine
 10
263.2352348188
 20
175.6745930056
 30
0.0
 11
263.2501730902
 21
176.4556752256
 31
0.0
  0
LINE
  5
3DD
330
1F
100
AcDbEntity
  8
0
  6
CONTINUOUS
 62
     7
100
AcDbLine
 10
263.2352348188
 20
175.6745930056
 30
0.0
 11
262.6653108916
 21
175.7518296966
 31
0.0
  0
LINE
  5
3DE
330
1F
100
AcDbEntity
  8
0
  6
CONTINUOUS
 62
     7
100
AcDbLine
 10
263.2851223145
 20
178.2830765969
 30
0.0
 11
262.6663083666
 21
178.3636036814
 31
0.0
  0
LINE
  5
3DF
330
1F
100
AcDbEntity
  8
0
  6
CONTINUOUS
 62
     7
100
AcDbLine
 10
263.1894574139
 20
177.5096955487
 30
0.0
 11
263.2701280586
 21
177.4990670978
 31
0.0
  0
LINE
  5
3E0
330
1F
100
AcDbEntity
  8
0
  6
CONTINUOUS
 62
     7
100
AcDbLine
 10
264.4580727401
 20
178.824421434
 30
0.0
 11
262.5084939212
 21
179.0753411266
 31
0.0
  0
LINE
  5
3E1
330
1F
100
AcDbEntity
  8
0
  6
CONTINUOUS
 62
     7
100
AcDbLine
 10
264.1083048198
 20
178.662995125
 30
0.0
 11
264.4580727401
 21
178.824421434
 31
0.0
  0
LINE
  5
3E2
330
1F
100
AcDbEntity
  8
0
  6
CONTINUOUS
 62
     7
100
AcDbLine
 10
264.0279164936
 20
178.6733756132
 30
0.0
 11
264.1083048198
 21
178.662995125
 31
0.0
  0
LINE
  5
3E3
330
1F
100
AcDbEntity
  8
0
  6
CONTINUOUS
 62
     7
100
AcDbLine
 10
264.0279164936
 20
178.6733756132
 30
0.0
 11
263.9694215095
 21
178.6463991824
 31
0.0
  0
LINE
  5
3E4
330
1F
100
AcDbEntity
  8
0
  6
CONTINUOUS
 62
     7
100
AcDbLine
 10
263.9694215095
 20
178.6463991824
 30
0.0
 11
264.0498347186
 21
178.6360097668
 31
0.0
  0
LINE
  5
3E5
330
1F
100
AcDbEntity
  8
0
  6
CONTINUOUS
 62
     7
100
AcDbLine
 10
263.6979555257
 20
178.4736090547
 30
0.0
 11
264.0498347186
 21
178.6360097668
 31
0.0
  0
LINE
  5
3E6
330
1F
100
AcDbEntity
  8
0
  6
CONTINUOUS
 62
     7
100
AcDbLine
 10
263.6173927442
 20
178.4840522776
 30
0.0
 11
263.6979555257
 21
178.4736090547
 31
0.0
  0
LINE
  5
3E7
330
1F
100
AcDbEntity
  8
0
  6
CONTINUOUS
 62
     7
100
AcDbLine
 10
263.6173927442
 20
178.4840522776
 30
0.0
 11
263.5585441978
 21
178.4569127927
 31
0.0
  0
LINE
  5
3E8
330
1F
100
AcDbEntity
  8
0
  6
CONTINUOUS
 62
     7
100
AcDbLine
 10
263.5585441978
 20
178.4569127927
 30
0.0
 11
263.6391319539
 21
178.4464605613
 31
0.0
  0
LINE
  5
3E9
330
1F
100
AcDbEntity
  8
0
  6
CONTINUOUS
 62
     7
100
AcDbLine
 10
263.9918029127
 20
176.8565235963
 30
0.0
 11
264.3411641364
 21
177.0222610233
 31
0.0
  0
LINE
  5
3EA
330
1F
100
AcDbEntity
  8
0
  6
CONTINUOUS
 62
     7
100
AcDbLine
 10
264.0136589297
 20
176.8181473911
 30
0.0
 11
263.9918029127
 21
176.8565235963
 31
0.0
  0
LINE
  5
3EB
330
1F
100
AcDbEntity
  8
0
  6
CONTINUOUS
 62
     7
100
AcDbLine
 10
263.5819353913
 20
176.6620819016
 30
0.0
 11
263.9334011529
 21
176.8288177242
 31
0.0
  0
LINE
  5
3EC
330
1F
100
AcDbEntity
  8
0
  6
CONTINUOUS
 62
     7
100
AcDbLine
 10
263.6036129306
 20
176.6234741521
 30
0.0
 11
263.5819353913
 21
176.6620819016
 31
0.0
  0
LINE
  5
3ED
330
1F
100
AcDbEntity
  8
0
  6
CONTINUOUS
 62
     7
100
AcDbLine
 10
263.1695919182
 20
176.4664656121
 30
0.0
 11
263.5231812917
 21
176.634208879
 31
0.0
  0
LINE
  5
3EE
330
1F
100
AcDbEntity
  8
0
  6
CONTINUOUS
 62
     7
100
AcDbLine
 10
263.1869719042
 20
177.3791698272
 30
0.0
 11
263.5408462483
 21
177.5447105622
 31
0.0
  0
LINE
  5
3EF
330
1F
100
AcDbEntity
  8
0
  6
CONTINUOUS
 62
     7
100
AcDbLine
 10
263.6391319539
 20
178.4464605613
 30
0.0
 11
263.6173927442
 21
178.4840522776
 31
0.0
  0
LINE
  5
3F0
330
1F
100
AcDbEntity
  8
0
  6
CONTINUOUS
 62
     7
100
AcDbLine
 10
264.0498347186
 20
178.6360097668
 30
0.0
 11
264.0279164936
 21
178.6733756132
 31
0.0
  0
LINE
  5
3F1
330
1F
100
AcDbEntity
  8
0
  6
CONTINUOUS
 62
     7
100
AcDbLine
 10
264.3594817835
 20
177.9276643717
 30
0.0
 11
264.3609765277
 21
178.0015464801
 31
0.0
  0
LINE
  5
3F2
330
1F
100
AcDbEntity
  8
0
  6
CONTINUOUS
 62
     7
100
AcDbLine
 10
264.0098429144
 20
177.7641049718
 30
0.0
 11
264.3594817835
 21
177.9276643717
 31
0.0
  0
LINE
  5
3F3
330
1F
100
AcDbEntity
  8
0
  6
CONTINUOUS
 62
     7
100
AcDbLine
 10
264.0317299965
 20
177.7262329735
 30
0.0
 11
264.0098429144
 21
177.7641049718
 31
0.0
  0
LINE
  5
3F4
330
1F
100
AcDbEntity
  8
0
  6
CONTINUOUS
 62
     7
100
AcDbLine
 10
264.3411641364
 20
177.0222610233
 30
0.0
 11
264.3426434996
 21
177.0953828858
 31
0.0
  0
LINE
  5
3F5
330
1F
100
AcDbEntity
  8
0
  6
CONTINUOUS
 62
     7
100
AcDbLine
 10
263.9513945786
 20
177.7367631183
 30
0.0
 11
263.5996475344
 21
177.5722175241
 31
0.0
  0
LINE
  5
3F6
330
1F
100
AcDbEntity
  8
0
  6
CONTINUOUS
 62
     7
100
AcDbLine
 10
263.5996475344
 20
177.5722175241
 30
0.0
 11
263.6213558702
 21
177.5341168103
 31
0.0
  0
LINE
  5
3F7
330
1F
100
AcDbEntity
  8
0
  6
CONTINUOUS
 62
     7
100
AcDbLine
 10
263.6669369502
 20
177.7223184262
 30
0.0
 11
263.6788203866
 21
178.3308866265
 31
0.0
  0
LINE
  5
3F8
330
1F
100
AcDbEntity
  8
0
  6
CONTINUOUS
 62
     7
100
AcDbLine
 10
263.3918819752
 20
177.5938881666
 30
0.0
 11
263.6669369502
 21
177.7223184262
 31
0.0
  0
LINE
  5
3F9
330
1F
100
AcDbEntity
  8
0
  6
CONTINUOUS
 62
     7
100
AcDbLine
 10
263.6238932794
 20
177.6643473722
 30
0.0
 11
263.2701280586
 21
177.4990670978
 31
0.0
  0
LINE
  5
3FA
330
1F
100
AcDbEntity
  8
0
  6
CONTINUOUS
 62
     7
100
AcDbLine
 10
263.6238932794
 20
177.6643473722
 30
0.0
 11
263.6669369502
 21
177.7223184262
 31
0.0
  0
LINE
  5
3FB
330
1F
100
AcDbEntity
  8
0
  6
CONTINUOUS
 62
     7
100
AcDbLine
 10
263.3860195977
 20
177.289315465
 30
0.0
 11
263.3743058028
 21
176.680739475
 31
0.0
  0
LINE
  5
3FC
330
1F
100
AcDbEntity
  8
0
  6
CONTINUOUS
 62
     7
100
AcDbLine
 10
263.2526651295
 20
176.5859772887
 30
0.0
 11
263.3743058028
 21
176.680739475
 31
0.0
  0
LINE
  5
3FD
330
1F
100
AcDbEntity
  8
0
  6
CONTINUOUS
 62
     7
100
AcDbLine
 10
263.3860195977
 20
177.289315465
 30
0.0
 11
263.2676313539
 21
177.3685210951
 31
0.0
  0
LINE
  5
3FE
330
1F
100
AcDbEntity
  8
0
  6
CONTINUOUS
 62
     7
100
AcDbLine
 10
263.6610007784
 20
177.4183183677
 30
0.0
 11
263.3860195977
 21
177.289315465
 31
0.0
  0
LINE
  5
3FF
330
1F
100
AcDbEntity
  8
0
  6
CONTINUOUS
 62
     7
100
AcDbLine
 10
263.2676313539
 20
177.3685210951
 30
0.0
 11
263.6213558702
 21
177.5341168103
 31
0.0
  0
LINE
  5
400
330
1F
100
AcDbEntity
  8
0
  6
CONTINUOUS
 62
     7
100
AcDbLine
 10
263.6610007784
 20
177.4183183677
 30
0.0
 11
263.6213558702
 21
177.5341168103
 31
0.0
  0
LINE
  5
401
330
1F
100
AcDbEntity
  8
0
  6
CONTINUOUS
 62
     7
100
AcDbLine
 10
263.5408462483
 20
177.5447105622
 30
0.0
 11
263.6213558702
 21
177.5341168103
 31
0.0
  0
LINE
  5
402
330
1F
100
AcDbEntity
  8
0
  6
CONTINUOUS
 62
     7
100
AcDbLine
 10
263.6491395105
 20
176.8108854508
 30
0.0
 11
263.6610007784
 21
177.4183183677
 31
0.0
  0
LINE
  5
403
330
1F
100
AcDbEntity
  8
0
  6
CONTINUOUS
 62
     7
100
AcDbLine
 10
263.3743058028
 20
176.680739475
 30
0.0
 11
263.6491395105
 21
176.8108854508
 31
0.0
  0
LINE
  5
404
330
1F
100
AcDbEntity
  8
0
  6
CONTINUOUS
 62
     7
100
AcDbLine
 10
263.6061456105
 20
176.7534619922
 30
0.0
 11
263.2526651295
 21
176.5859772887
 31
0.0
  0
LINE
  5
405
330
1F
100
AcDbEntity
  8
0
  6
CONTINUOUS
 62
     7
100
AcDbLine
 10
263.6061456105
 20
176.7534619922
 30
0.0
 11
263.6491395105
 21
176.8108854508
 31
0.0
  0
LINE
  5
406
330
1F
100
AcDbEntity
  8
0
  6
CONTINUOUS
 62
     7
100
AcDbLine
 10
263.3684543785
 20
176.3767358318
 30
0.0
 11
263.3567624592
 21
175.7692963638
 31
0.0
  0
LINE
  5
407
330
1F
100
AcDbEntity
  8
0
  6
CONTINUOUS
 62
     7
100
AcDbLine
 10
263.3567624592
 20
175.7692963638
 30
0.0
 11
263.2352348188
 21
175.6745930056
 31
0.0
  0
LINE
  5
408
330
1F
100
AcDbEntity
  8
0
  6
CONTINUOUS
 62
     7
100
AcDbLine
 10
263.3684543785
 20
176.3767358318
 30
0.0
 11
263.2501730902
 21
176.4556752256
 31
0.0
  0
LINE
  5
409
330
1F
100
AcDbEntity
  8
0
  6
CONTINUOUS
 62
     7
100
AcDbLine
 10
263.6432144075
 20
176.5074522398
 30
0.0
 11
263.3684543785
 21
176.3767358318
 31
0.0
  0
LINE
  5
40A
330
1F
100
AcDbEntity
  8
0
  6
CONTINUOUS
 62
     7
100
AcDbLine
 10
263.2501730902
 20
176.4556752256
 30
0.0
 11
263.6036129306
 21
176.6234741521
 31
0.0
  0
LINE
  5
40B
330
1F
100
AcDbEntity
  8
0
  6
CONTINUOUS
 62
     7
100
AcDbLine
 10
263.6036129306
 20
176.6234741521
 30
0.0
 11
263.6432144075
 21
176.5074522398
 31
0.0
  0
LINE
  5
40C
330
1F
100
AcDbEntity
  8
0
  6
CONTINUOUS
 62
     7
100
AcDbLine
 10
263.5231812917
 20
176.634208879
 30
0.0
 11
263.6036129306
 21
176.6234741521
 31
0.0
  0
LINE
  5
40D
330
1F
100
AcDbEntity
  8
0
  6
CONTINUOUS
 62
     7
100
AcDbLine
 10
263.6313752462
 20
175.9011514325
 30
0.0
 11
263.6432144075
 21
176.5074522398
 31
0.0
  0
LINE
  5
40E
330
1F
100
AcDbEntity
  8
0
  6
CONTINUOUS
 62
     7
100
AcDbLine
 10
263.3567624592
 20
175.7692963638
 30
0.0
 11
263.6313752462
 21
175.9011514325
 31
0.0
  0
LINE
  5
40F
330
1F
100
AcDbEntity
  8
0
  6
CONTINUOUS
 62
     7
100
AcDbLine
 10
263.5884310063
 20
175.8442736299
 30
0.0
 11
263.6313752462
 21
175.9011514325
 31
0.0
  0
LINE
  5
410
330
1F
100
AcDbEntity
  8
0
  6
CONTINUOUS
 62
     7
100
AcDbLine
 10
263.5884310063
 20
175.8442736299
 30
0.0
 11
263.2352348188
 21
175.6745930056
 31
0.0
  0
LINE
  5
411
330
1F
100
AcDbEntity
  8
0
  6
CONTINUOUS
 62
     7
100
AcDbLine
 10
264.0895529785
 20
178.5208527127
 30
0.0
 11
263.8160066077
 21
178.3943360094
 31
0.0
  0
LINE
  5
412
330
1F
100
AcDbEntity
  8
0
  6
CONTINUOUS
 62
     7
100
AcDbLine
 10
263.6979555257
 20
178.4736090547
 30
0.0
 11
263.8160066077
 21
178.3943360094
 31
0.0
  0
LINE
  5
413
330
1F
100
AcDbEntity
  8
0
  6
CONTINUOUS
 62
     7
100
AcDbLine
 10
264.0895529785
 20
178.5208527127
 30
0.0
 11
264.0498347186
 21
178.6360097668
 31
0.0
  0
LINE
  5
414
330
1F
100
AcDbEntity
  8
0
  6
CONTINUOUS
 62
     7
100
AcDbLine
 10
263.6826763799
 20
177.6918110301
 30
0.0
 11
263.6979555257
 21
178.4736090547
 31
0.0
  0
LINE
  5
415
330
1F
100
AcDbEntity
  8
0
  6
CONTINUOUS
 62
     7
100
AcDbLine
 10
263.8160066077
 20
178.3943360094
 30
0.0
 11
263.8040497998
 21
177.7863399509
 31
0.0
  0
LINE
  5
416
330
1F
100
AcDbEntity
  8
0
  6
CONTINUOUS
 62
     7
100
AcDbLine
 10
263.6826763799
 20
177.6918110301
 30
0.0
 11
263.8040497998
 21
177.7863399509
 31
0.0
  0
LINE
  5
417
330
1F
100
AcDbEntity
  8
0
  6
CONTINUOUS
 62
     7
100
AcDbLine
 10
263.6669369502
 20
177.7223184262
 30
0.0
 11
263.6826763799
 21
177.6918110301
 31
0.0
  0
LINE
  5
418
330
1F
100
AcDbEntity
  8
0
  6
CONTINUOUS
 62
     7
100
AcDbLine
 10
263.8040497998
 20
177.7863399509
 30
0.0
 11
264.0774503821
 21
177.9139977318
 31
0.0
  0
LINE
  5
419
330
1F
100
AcDbEntity
  8
0
  6
CONTINUOUS
 62
     7
100
AcDbLine
 10
264.0774503821
 20
177.9139977318
 30
0.0
 11
264.0895529785
 21
178.5208527127
 31
0.0
  0
LINE
  5
41A
330
1F
100
AcDbEntity
  8
0
  6
CONTINUOUS
 62
     7
100
AcDbLine
 10
264.0774503821
 20
177.9139977318
 30
0.0
 11
264.0343143226
 21
177.8560974332
 31
0.0
  0
LINE
  5
41B
330
1F
100
AcDbEntity
  8
0
  6
CONTINUOUS
 62
     7
100
AcDbLine
 10
264.0343143226
 20
177.8560974332
 30
0.0
 11
263.6826763799
 21
177.6918110301
 31
0.0
  0
LINE
  5
41C
330
1F
100
AcDbEntity
  8
0
  6
CONTINUOUS
 62
     7
100
AcDbLine
 10
264.0714047156
 20
177.6108526314
 30
0.0
 11
263.798076971
 21
177.4826254111
 31
0.0
  0
LINE
  5
41D
330
1F
100
AcDbEntity
  8
0
  6
CONTINUOUS
 62
     7
100
AcDbLine
 10
263.6801322308
 20
177.5616328942
 30
0.0
 11
263.798076971
 21
177.4826254111
 31
0.0
  0
LINE
  5
41E
330
1F
100
AcDbEntity
  8
0
  6
CONTINUOUS
 62
     7
100
AcDbLine
 10
263.6801322308
 20
177.5616328942
 30
0.0
 11
264.0317299965
 21
177.7262329735
 31
0.0
  0
LINE
  5
41F
330
1F
100
AcDbEntity
  8
0
  6
CONTINUOUS
 62
     7
100
AcDbLine
 10
264.0714047156
 20
177.6108526314
 30
0.0
 11
264.0317299965
 21
177.7262329735
 31
0.0
  0
LINE
  5
420
330
1F
100
AcDbEntity
  8
0
  6
CONTINUOUS
 62
     7
100
AcDbLine
 10
263.6648815631
 20
176.7812920256
 30
0.0
 11
263.6801322308
 21
177.5616328942
 31
0.0
  0
LINE
  5
421
330
1F
100
AcDbEntity
  8
0
  6
CONTINUOUS
 62
     7
100
AcDbLine
 10
263.798076971
 20
177.4826254111
 30
0.0
 11
263.7861424462
 21
176.8757624301
 31
0.0
  0
LINE
  5
422
330
1F
100
AcDbEntity
  8
0
  6
CONTINUOUS
 62
     7
100
AcDbLine
 10
263.6648815631
 20
176.7812920256
 30
0.0
 11
263.7861424462
 21
176.8757624301
 31
0.0
  0
LINE
  5
423
330
1F
100
AcDbEntity
  8
0
  6
CONTINUOUS
 62
     7
100
AcDbLine
 10
263.9513945786
 20
177.7367631183
 30
0.0
 11
264.0317299965
 21
177.7262329735
 31
0.0
  0
LINE
  5
424
330
1F
100
AcDbEntity
  8
0
  6
CONTINUOUS
 62
     7
100
AcDbLine
 10
263.5996475344
 20
177.5722175241
 30
0.0
 11
263.6801322308
 21
177.5616328942
 31
0.0
  0
LINE
  5
425
330
1F
100
AcDbEntity
  8
0
  6
CONTINUOUS
 62
     7
100
AcDbLine
 10
263.6491395105
 20
176.8108854508
 30
0.0
 11
263.6648815631
 21
176.7812920256
 31
0.0
  0
LINE
  5
426
330
1F
100
AcDbEntity
  8
0
  6
CONTINUOUS
 62
     7
100
AcDbLine
 10
263.7861424462
 20
176.8757624301
 30
0.0
 11
264.0593246287
 21
177.0051263353
 31
0.0
  0
LINE
  5
427
330
1F
100
AcDbEntity
  8
0
  6
CONTINUOUS
 62
     7
100
AcDbLine
 10
264.0593246287
 20
177.0051263353
 30
0.0
 11
264.0714047156
 21
177.6108526314
 31
0.0
  0
LINE
  5
428
330
1F
100
AcDbEntity
  8
0
  6
CONTINUOUS
 62
     7
100
AcDbLine
 10
264.0593246287
 20
177.0051263353
 30
0.0
 11
264.0162384537
 21
176.9477705381
 31
0.0
  0
LINE
  5
429
330
1F
100
AcDbEntity
  8
0
  6
CONTINUOUS
 62
     7
100
AcDbLine
 10
264.0162384537
 20
176.9477705381
 30
0.0
 11
263.6648815631
 21
176.7812920256
 31
0.0
  0
LINE
  5
42A
330
1F
100
AcDbEntity
  8
0
  6
CONTINUOUS
 62
     7
100
AcDbLine
 10
264.0532902013
 20
176.70254479
 30
0.0
 11
263.7801807433
 21
176.5726136371
 31
0.0
  0
LINE
  5
42B
330
1F
100
AcDbEntity
  8
0
  6
CONTINUOUS
 62
     7
100
AcDbLine
 10
263.7801807433
 20
176.5726136371
 30
0.0
 11
263.6623421537
 21
176.6513564095
 31
0.0
  0
LINE
  5
42C
330
1F
100
AcDbEntity
  8
0
  6
CONTINUOUS
 62
     7
100
AcDbLine
 10
263.6623421537
 20
176.6513564095
 30
0.0
 11
264.0136589297
 21
176.8181473911
 31
0.0
  0
LINE
  5
42D
330
1F
100
AcDbEntity
  8
0
  6
CONTINUOUS
 62
     7
100
AcDbLine
 10
264.0136589297
 20
176.8181473911
 30
0.0
 11
264.0532902013
 21
176.70254479
 31
0.0
  0
LINE
  5
42E
330
1F
100
AcDbEntity
  8
0
  6
CONTINUOUS
 62
     7
100
AcDbLine
 10
263.7801807433
 20
176.5726136371
 30
0.0
 11
263.7682684392
 21
175.966880569
 31
0.0
  0
LINE
  5
42F
330
1F
100
AcDbEntity
  8
0
  6
CONTINUOUS
 62
     7
100
AcDbLine
 10
263.7682684392
 20
175.966880569
 30
0.0
 11
263.6471198845
 21
175.872468627
 31
0.0
  0
LINE
  5
430
330
1F
100
AcDbEntity
  8
0
  6
CONTINUOUS
 62
     7
100
AcDbLine
 10
263.6471198845
 20
175.872468627
 30
0.0
 11
263.6623421537
 21
176.6513564095
 31
0.0
  0
LINE
  5
431
330
1F
100
AcDbEntity
  8
0
  6
CONTINUOUS
 62
     7
100
AcDbLine
 10
263.9334011529
 20
176.8288177242
 30
0.0
 11
264.0136589297
 21
176.8181473911
 31
0.0
  0
LINE
  5
432
330
1F
100
AcDbEntity
  8
0
  6
CONTINUOUS
 62
     7
100
AcDbLine
 10
263.5819353913
 20
176.6620819016
 30
0.0
 11
263.6623421537
 21
176.6513564095
 31
0.0
  0
LINE
  5
433
330
1F
100
AcDbEntity
  8
0
  6
CONTINUOUS
 62
     7
100
AcDbLine
 10
263.6313752462
 20
175.9011514325
 30
0.0
 11
263.6471198845
 21
175.872468627
 31
0.0
  0
LINE
  5
434
330
1F
100
AcDbEntity
  8
0
  6
CONTINUOUS
 62
     7
100
AcDbLine
 10
264.0412325612
 20
176.0979440327
 30
0.0
 11
264.0532902013
 21
176.70254479
 31
0.0
  0
LINE
  5
435
330
1F
100
AcDbEntity
  8
0
  6
CONTINUOUS
 62
     7
100
AcDbLine
 10
263.7682684392
 20
175.966880569
 30
0.0
 11
264.0412325612
 21
176.0979440327
 31
0.0
  0
LINE
  5
436
330
1F
100
AcDbEntity
  8
0
  6
CONTINUOUS
 62
     7
100
AcDbLine
 10
263.9981961597
 20
176.0411308145
 30
0.0
 11
264.0412325612
 21
176.0979440327
 31
0.0
  0
LINE
  5
437
330
1F
100
AcDbEntity
  8
0
  6
CONTINUOUS
 62
     7
100
AcDbLine
 10
263.9981961597
 20
176.0411308145
 30
0.0
 11
263.6471198845
 21
175.872468627
 31
0.0
  0
LINE
  5
438
330
1F
100
AcDbEntity
  8
0
  6
CONTINUOUS
 62
     7
100
AcDbLine
 10
264.0927444769
 20
177.8833961934
 30
0.0
 11
264.1083048198
 21
178.662995125
 31
0.0
  0
LINE
  5
439
330
1F
100
AcDbEntity
  8
0
  6
CONTINUOUS
 62
     7
100
AcDbLine
 10
264.1083048198
 20
178.662995125
 30
0.0
 11
264.2259147846
 21
178.5839207992
 31
0.0
  0
LINE
  5
43A
330
1F
100
AcDbEntity
  8
0
  6
CONTINUOUS
 62
     7
100
AcDbLine
 10
264.2259147846
 20
178.5839207992
 30
0.0
 11
264.2137397681
 21
177.9776347601
 31
0.0
  0
LINE
  5
43B
330
1F
100
AcDbEntity
  8
0
  6
CONTINUOUS
 62
     7
100
AcDbLine
 10
264.0927444769
 20
177.8833961934
 30
0.0
 11
264.2137397681
 21
177.9776347601
 31
0.0
  0
LINE
  5
43C
330
1F
100
AcDbEntity
  8
0
  6
CONTINUOUS
 62
     7
100
AcDbLine
 10
264.4978197546
 20
178.7096783456
 30
0.0
 11
264.2259147846
 21
178.5839207992
 31
0.0
  0
LINE
  5
43D
330
1F
100
AcDbEntity
  8
0
  6
CONTINUOUS
 62
     7
100
AcDbLine
 10
264.4978197546
 20
178.7096783456
 30
0.0
 11
264.4580727401
 21
178.824421434
 31
0.0
  0
LINE
  5
43E
330
1F
100
AcDbEntity
  8
0
  6
CONTINUOUS
 62
     7
100
AcDbLine
 10
264.0774503821
 20
177.9139977318
 30
0.0
 11
264.0927444769
 21
177.8833961934
 31
0.0
  0
LINE
  5
43F
330
1F
100
AcDbEntity
  8
0
  6
CONTINUOUS
 62
     7
100
AcDbLine
 10
264.2137397681
 20
177.9776347601
 30
0.0
 11
264.4855008389
 21
178.1045270109
 31
0.0
  0
LINE
  5
440
330
1F
100
AcDbEntity
  8
0
  6
CONTINUOUS
 62
     7
100
AcDbLine
 10
264.4855008389
 20
178.1045270109
 30
0.0
 11
264.4978197546
 21
178.7096783456
 31
0.0
  0
LINE
  5
441
330
1F
100
AcDbEntity
  8
0
  6
CONTINUOUS
 62
     7
100
AcDbLine
 10
264.4855008389
 20
178.1045270109
 30
0.0
 11
264.4422742718
 21
178.0466976629
 31
0.0
  0
LINE
  5
442
330
1F
100
AcDbEntity
  8
0
  6
CONTINUOUS
 62
     7
100
AcDbLine
 10
264.4422742718
 20
178.0466976629
 30
0.0
 11
264.0927444769
 21
177.8833961934
 31
0.0
  0
LINE
  5
443
330
1F
100
AcDbEntity
  8
0
  6
CONTINUOUS
 62
     7
100
AcDbLine
 10
264.0901534981
 20
177.7535838669
 30
0.0
 11
264.439643636
 21
177.9171972628
 31
0.0
  0
LINE
  5
444
330
1F
100
AcDbEntity
  8
0
  6
CONTINUOUS
 62
     7
100
AcDbLine
 10
264.439643636
 20
177.9171972628
 30
0.0
 11
264.4793470963
 21
177.8022320963
 31
0.0
  0
LINE
  5
445
330
1F
100
AcDbEntity
  8
0
  6
CONTINUOUS
 62
     7
100
AcDbLine
 10
264.4793470963
 20
177.8022320963
 30
0.0
 11
264.2076579196
 21
177.6747735833
 31
0.0
  0
LINE
  5
446
330
1F
100
AcDbEntity
  8
0
  6
CONTINUOUS
 62
     7
100
AcDbLine
 10
264.0901534981
 20
177.7535838669
 30
0.0
 11
264.2076579196
 21
177.6747735833
 31
0.0
  0
LINE
  5
447
330
1F
100
AcDbEntity
  8
0
  6
CONTINUOUS
 62
     7
100
AcDbLine
 10
264.2076579196
 20
177.6747735833
 30
0.0
 11
264.1955055246
 21
177.0696140422
 31
0.0
  0
LINE
  5
448
330
1F
100
AcDbEntity
  8
0
  6
CONTINUOUS
 62
     7
100
AcDbLine
 10
264.1955055246
 20
177.0696140422
 30
0.0
 11
264.0746220703
 21
176.9754336291
 31
0.0
  0
LINE
  5
449
330
1F
100
AcDbEntity
  8
0
  6
CONTINUOUS
 62
     7
100
AcDbLine
 10
264.0746220703
 20
176.9754336291
 30
0.0
 11
264.0901534981
 21
177.7535838669
 31
0.0
  0
LINE
  5
44A
330
1F
100
AcDbEntity
  8
0
  6
CONTINUOUS
 62
     7
100
AcDbLine
 10
264.3594817835
 20
177.9276643717
 30
0.0
 11
264.439643636
 21
177.9171972628
 31
0.0
  0
LINE
  5
44B
330
1F
100
AcDbEntity
  8
0
  6
CONTINUOUS
 62
     7
100
AcDbLine
 10
264.0098429144
 20
177.7641049718
 30
0.0
 11
264.0901534981
 21
177.7535838669
 31
0.0
  0
LINE
  5
44C
330
1F
100
AcDbEntity
  8
0
  6
CONTINUOUS
 62
     7
100
AcDbLine
 10
264.0593246287
 20
177.0051263353
 30
0.0
 11
264.0746220703
 21
176.9754336291
 31
0.0
  0
LINE
  5
44D
330
1F
100
AcDbEntity
  8
0
  6
CONTINUOUS
 62
     7
100
AcDbLine
 10
264.4670510237
 20
177.1982029051
 30
0.0
 11
264.4793470963
 21
177.8022320963
 31
0.0
  0
LINE
  5
44E
330
1F
100
AcDbEntity
  8
0
  6
CONTINUOUS
 62
     7
100
AcDbLine
 10
264.1955055246
 20
177.0696140422
 30
0.0
 11
264.4670510237
 21
177.1982029051
 31
0.0
  0
LINE
  5
44F
330
1F
100
AcDbEntity
  8
0
  6
CONTINUOUS
 62
     7
100
AcDbLine
 10
264.4670510237
 20
177.1982029051
 30
0.0
 11
264.4238744499
 21
177.1409149906
 31
0.0
  0
LINE
  5
450
330
1F
100
AcDbEntity
  8
0
  6
CONTINUOUS
 62
     7
100
AcDbLine
 10
264.4238744499
 20
177.1409149906
 30
0.0
 11
264.0746220703
 21
176.9754336291
 31
0.0
  0
LINE
  5
451
330
1F
100
AcDbEntity
  8
0
  6
CONTINUOUS
 62
     7
100
AcDbLine
 10
264.1894349711
 20
176.7673153294
 30
0.0
 11
264.1773051347
 21
176.1632791496
 31
0.0
  0
LINE
  5
452
330
1F
100
AcDbEntity
  8
0
  6
CONTINUOUS
 62
     7
100
AcDbLine
 10
264.1773051347
 20
176.1632791496
 30
0.0
 11
264.0565333108
 21
176.0691568368
 31
0.0
  0
LINE
  5
453
330
1F
100
AcDbEntity
  8
0
  6
CONTINUOUS
 62
     7
100
AcDbLine
 10
264.0565333108
 20
176.0691568368
 30
0.0
 11
264.072035904
 21
176.845862415
 31
0.0
  0
LINE
  5
454
330
1F
100
AcDbEntity
  8
0
  6
CONTINUOUS
 62
     7
100
AcDbLine
 10
264.072035904
 20
176.845862415
 30
0.0
 11
264.1894349711
 21
176.7673153294
 31
0.0
  0
LINE
  5
455
330
1F
100
AcDbEntity
  8
0
  6
CONTINUOUS
 62
     7
100
AcDbLine
 10
264.072035904
 20
176.845862415
 30
0.0
 11
264.4212486878
 21
177.0116545062
 31
0.0
  0
LINE
  5
456
330
1F
100
AcDbEntity
  8
0
  6
CONTINUOUS
 62
     7
100
AcDbLine
 10
264.4212486878
 20
177.0116545062
 30
0.0
 11
264.4609086868
 21
176.8964682818
 31
0.0
  0
LINE
  5
457
330
1F
100
AcDbEntity
  8
0
  6
CONTINUOUS
 62
     7
100
AcDbLine
 10
264.4609086868
 20
176.8964682818
 30
0.0
 11
264.1894349711
 21
176.7673153294
 31
0.0
  0
LINE
  5
458
330
1F
100
AcDbEntity
  8
0
  6
CONTINUOUS
 62
     7
100
AcDbLine
 10
264.3411641364
 20
177.0222610233
 30
0.0
 11
264.4212486878
 21
177.0116545062
 31
0.0
  0
LINE
  5
459
330
1F
100
AcDbEntity
  8
0
  6
CONTINUOUS
 62
     7
100
AcDbLine
 10
263.9918029127
 20
176.8565235963
 30
0.0
 11
264.072035904
 21
176.845862415
 31
0.0
  0
LINE
  5
45A
330
1F
100
AcDbEntity
  8
0
  6
CONTINUOUS
 62
     7
100
AcDbLine
 10
264.0412325612
 20
176.0979440327
 30
0.0
 11
264.0565333108
 21
176.0691568368
 31
0.0
  0
LINE
  5
45B
330
1F
100
AcDbEntity
  8
0
  6
CONTINUOUS
 62
     7
100
AcDbLine
 10
264.448635394
 20
176.2935581157
 30
0.0
 11
264.4609086868
 21
176.8964682818
 31
0.0
  0
LINE
  5
45C
330
1F
100
AcDbEntity
  8
0
  6
CONTINUOUS
 62
     7
100
AcDbLine
 10
264.1773051347
 20
176.1632791496
 30
0.0
 11
264.448635394
 21
176.2935581157
 31
0.0
  0
LINE
  5
45D
330
1F
100
AcDbEntity
  8
0
  6
CONTINUOUS
 62
     7
100
AcDbLine
 10
264.448635394
 20
176.2935581157
 30
0.0
 11
264.4055087025
 21
176.236809729
 31
0.0
  0
LINE
  5
45E
330
1F
100
AcDbEntity
  8
0
  6
CONTINUOUS
 62
     7
100
AcDbLine
 10
264.4055087025
 20
176.236809729
 30
0.0
 11
264.0565333108
 21
176.0691568368
 31
0.0
  0
ARC
  5
45F
330
1F
100
AcDbEntity
  8
0
  6
CONTINUOUS
 62
     7
100
AcDbCircle
 10
257.429145765
 20
188.0486730419
 30
0.0
 40
3.091480372047298
100
AcDbArc
 50
357.6627751411
 51
80.5973364715
  0
ARC
  5
460
330
1F
100
AcDbEntity
  8
0
  6
CONTINUOUS
 62
     7
100
AcDbCircle
 10
259.398125245
 20
192.4522210975
 30
0.0
 40
4.666016816396246
100
AcDbArc
 50
262.3037011147
 51
283.8876166349
  0
ARC
  5
461
330
1F
100
AcDbEntity
  8
0
  6
CONTINUOUS
 62
     7
100
AcDbCircle
 10
257.0383783115
 20
187.8994865954
 30
0.0
 40
1.736326322467293
100
AcDbArc
 50
357.6482074576
 51
80.5117729847
  0
ARC
  5
462
330
1F
100
AcDbEntity
  8
0
  6
CONTINUOUS
 62
     7
100
AcDbCircle
 10
259.0177130978
 20
189.7860252426
 30
0.0
 40
1.702024170425895
100
AcDbArc
 50
129.5386654797
 51
185.8665227315
  0
LINE
  5
463
330
1F
100
AcDbEntity
  8
0
  6
CONTINUOUS
 62
     7
100
AcDbLine
 10
260.5180543678
 20
187.9225995139
 30
0.0
 11
259.8562137586
 21
146.9046401588
 31
0.0
  0
ARC
  5
464
330
1F
100
AcDbEntity
  8
0
  6
CONTINUOUS
 62
     7
100
AcDbCircle
 10
258.7835704697
 20
149.2963635386
 30
0.0
 40
2.621240994373255
100
AcDbArc
 50
256.7527251645
 51
294.1553439392
  0
LINE
  5
465
330
1F
100
AcDbEntity
  8
0
  6
CONTINUOUS
 62
     7
100
AcDbLine
 10
258.1829023652
 20
146.7448733508
 30
0.0
 11
258.7732421432
 21
187.8282364479
 31
0.0
  0
ARC
  5
466
330
1F
100
AcDbEntity
  8
0
  6
CONTINUOUS
 62
     7
100
AcDbCircle
 10
230.3534511612
 20
189.343563713
 30
0.0
 40
1.103684833118172
100
AcDbArc
 50
87.7076454487
 51
186.5897051849
  0
LINE
  5
467
330
1F
100
AcDbEntity
  8
0
  6
CONTINUOUS
 62
     7
100
AcDbLine
 10
229.2570579309
 20
189.2169063194
 30
0.0
 11
229.4484955021
 21
176.8746718533
 31
0.0
  0
ARC
  5
468
330
1F
100
AcDbEntity
  8
0
  6
CONTINUOUS
 62
     7
100
AcDbCircle
 10
230.9469736211
 20
176.8458466639
 30
0.0
 40
1.498755338572013
100
AcDbArc
 50
178.8979765506
 51
257.1467554355
  0
LINE
  5
469
330
1F
100
AcDbEntity
  8
0
  6
CONTINUOUS
 62
     7
100
AcDbLine
 10
230.6135685999
 20
175.3846455632
 30
0.0
 11
255.2984385479
 21
171.7823698757
 31
0.0
  0
ARC
  5
46A
330
1F
100
AcDbEntity
  8
0
  6
CONTINUOUS
 62
     7
100
AcDbCircle
 10
255.4392426949
 20
172.9313053255
 30
0.0
 40
1.157531198499704
100
AcDbArc
 50
263.0131365718
 51
3.0319922548
  0
LINE
  5
46B
330
1F
100
AcDbEntity
  8
0
  6
CONTINUOUS
 62
     7
100
AcDbLine
 10
256.5951535306
 20
172.9925312633
 30
0.0
 11
256.7562053926
 21
186.0349070341
 31
0.0
  0
ARC
  5
46C
330
1F
100
AcDbEntity
  8
0
  6
CONTINUOUS
 62
     7
100
AcDbCircle
 10
255.2112166819
 20
186.0964103727
 30
0.0
 40
1.54621239699178
100
AcDbArc
 50
357.720357411
 51
80.2485714116
  0
LINE
  5
46D
330
1F
100
AcDbEntity
  8
0
  6
CONTINUOUS
 62
     7
100
AcDbLine
 10
255.4731049799
 20
187.6202828398
 30
0.0
 11
230.3975968564
 21
190.4463653128
 31
0.0
  0
ARC
  5
46E
330
1F
100
AcDbEntity
  8
0
  6
CONTINUOUS
 62
     7
100
AcDbCircle
 10
229.8581682215
 20
152.6748877926
 30
0.0
 40
1.718078461360165
100
AcDbArc
 50
180.1843113779
 51
254.7368154772
  0
ARC
  5
46F
330
1F
100
AcDbEntity
  8
0
  6
CONTINUOUS
 62
     7
100
AcDbCircle
 10
228.6981393944
 20
191.4680983025
 30
0.0
 40
1.235009720722615
100
AcDbArc
 50
88.064563347
 51
186.9719172007
  0
LINE
  5
470
330
1F
100
AcDbEntity
  8
0
  6
CONTINUOUS
 62
     7
100
AcDbLine
 10
257.3246029252
 20
189.6120590956
 30
0.0
 11
228.7398497707
 21
192.7024034734
 31
0.0
  0
ARC
  5
471
330
1F
100
AcDbEntity
  8
0
  6
CONTINUOUS
 62
     7
100
AcDbCircle
 10
257.0026038922
 20
146.694317014
 30
0.0
 40
1.181380729726464
100
AcDbArc
 50
258.0012399293
 51
2.4526805907
  0
ARC
  5
472
330
1F
100
AcDbEntity
  8
0
  6
CONTINUOUS
 62
     7
100
AcDbCircle
 10
264.5896513635
 20
190.730876751
 30
0.0
 40
2.911247792599061
100
AcDbArc
 50
357.3852718541
 51
81.3771174657
  0
LINE
  5
473
330
1F
100
AcDbEntity
  8
0
  6
CONTINUOUS
 62
     7
100
AcDbLine
 10
267.4978681862
 20
190.5980662769
 30
0.0
 11
260.5180543678
 21
187.9225995139
 31
0.0
  0
LINE
  5
474
330
1F
100
AcDbEntity
  8
0
  6
CONTINUOUS
 62
     7
100
AcDbLine
 10
257.9342065559
 20
191.0986180395
 30
0.0
 11
265.0261353757
 21
193.6092174912
 31
0.0
  0
LINE
  5
475
330
1F
100
AcDbEntity
  8
0
  6
CONTINUOUS
 62
     7
100
AcDbLine
 10
229.3903365126
 20
194.0921994344
 30
0.0
 11
257.9342065559
 21
191.0986180395
 31
0.0
  0
ARC
  5
476
330
1F
100
AcDbEntity
  8
0
  6
CONTINUOUS
 62
     7
100
AcDbCircle
 10
230.1521364755
 20
192.8885164981
 30
0.0
 40
1.424497032169739
100
AcDbArc
 50
122.3293469356
 51
187.5072558483
  0
LINE
  5
477
330
1F
100
AcDbEntity
  8
0
  6
CONTINUOUS
 62
     7
100
AcDbLine
 10
266.5917309549
 20
151.4442567799
 30
0.0
 11
267.4978681862
 21
190.5980662769
 31
0.0
  0
LINE
  5
478
330
1F
100
AcDbEntity
  8
0
  6
CONTINUOUS
 62
     7
100
AcDbLine
 10
259.8562137586
 20
146.9046401588
 30
0.0
 11
266.5917309549
 21
151.4442567799
 31
0.0
  0
ARC
  5
479
330
1F
100
AcDbEntity
  8
0
  6
CONTINUOUS
 62
     7
100
AcDbCircle
 10
263.8123825208
 20
180.7964528941
 30
0.0
 40
1.008910041463431
100
AcDbArc
 50
132.0605067777
 51
185.0553163935
  0
LINE
  5
47A
330
1F
100
AcDbEntity
  8
0
  6
CONTINUOUS
 62
     7
100
AcDbLine
 10
262.8073970496
 20
180.7075502823
 30
0.0
 11
262.6967974033
 21
174.7582283038
 31
0.0
  0
LWPOLYLINE
  5
47B
330
1F
100
AcDbEntity
  8
0
  6
CONTINUOUS
 62
     7
100
AcDbPolyline
 90
        9
 70
   128
 43
0.0
 10
262.9980087702
 20
174.221861028
 10
262.9371039034
 20
174.2051165649
 10
262.8789841856
 20
174.2154775926
 10
262.8258884645
 20
174.2525833788
 10
262.7798681695
 20
174.3150416219
 10
262.7427068127
 20
174.4004768132
 10
262.7158491698
 20
174.5056177314
 10
262.7003432111
 20
174.6264212944
 10
262.6967974033
 20
174.7582283038
  0
LINE
  5
47C
330
1F
100
AcDbEntity
  8
0
  6
CONTINUOUS
 62
     7
100
AcDbLine
 10
262.9980087702
 20
174.221861028
 30
0.0
 11
264.8525390996
 21
175.130913566
 31
0.0
  0
ARC
  5
47D
330
1F
100
AcDbEntity
  8
0
  6
CONTINUOUS
 62
     7
100
AcDbCircle
 10
264.1423252502
 20
175.879404701
 30
0.0
 40
1.031815240697861
100
AcDbArc
 50
313.4968696414
 51
4.4106381898
  0
LINE
  5
47E
330
1F
100
AcDbEntity
  8
0
  6
CONTINUOUS
 62
     7
100
AcDbLine
 10
265.1710847603
 20
175.9587555761
 30
0.0
 11
265.2945198712
 21
181.807502664
 31
0.0
  0
LWPOLYLINE
  5
47F
330
1F
100
AcDbEntity
  8
0
  6
CONTINUOUS
 62
     7
100
AcDbPolyline
 90
        9
 70
   128
 43
0.0
 10
265.0029032574
 20
182.361504619
 10
265.0624597133
 20
182.3744151766
 10
265.1191223028
 20
182.360333758
 10
265.1707189192
 20
182.3198383558
 10
265.215277558
 20
182.2545178
 10
265.2511004429
 20
182.1669057547
 10
265.2768270497
 20
182.0603798141
 10
265.2914839411
 20
181.9390301028
 10
265.2945198712
 20
181.807502664
  0
LINE
  5
480
330
1F
100
AcDbEntity
  8
0
  6
CONTINUOUS
 62
     7
100
AcDbLine
 10
265.0029032574
 20
182.361504619
 30
0.0
 11
263.1364985246
 21
181.5455058263
 31
0.0
  0
LINE
  5
481
330
1F
100
AcDbEntity
  8
0
  6
CONTINUOUS
 62
     7
100
AcDbLine
 10
265.0261353757
 20
193.6092174912
 30
0.0
 11
259.2035810866
 21
194.1809549919
 31
0.0
  0
LINE
  5
482
330
1F
100
AcDbEntity
  8
0
  6
CONTINUOUS
 62
     7
100
AcDbLine
 10
248.8392325272
 20
195.1986675708
 30
0.0
 11
246.9415278474
 21
195.3850100035
 31
0.0
  0
LINE
  5
483
330
1F
100
AcDbEntity
  8
0
  6
CONTINUOUS
 62
     7
100
AcDbLine
 10
237.936604045
 20
196.2692357871
 30
0.0
 11
237.4234735895
 21
196.3196219079
 31
0.0
  0
LINE
  5
484
330
1F
100
AcDbEntity
  8
0
  6
CONTINUOUS
 62
     7
100
AcDbLine
 10
237.4234735895
 20
196.3196219079
 30
0.0
 11
229.3903365126
 21
194.0921994344
 31
0.0
  0
ARC
  5
485
330
1F
100
AcDbEntity
  8
0
  6
CONTINUOUS
 62
     7
100
AcDbCircle
 10
251.7979599837
 20
196.3713839217
 30
0.0
 40
4.088233388238675
100
AcDbArc
 50
250.3961107958
 51
255.8785875049
  0
ARC
  5
486
330
1F
100
AcDbEntity
  8
0
  6
CONTINUOUS
 62
     7
100
AcDbCircle
 10
257.5388983252
 20
194.975315828
 30
0.0
 40
2.663318084110093
100
AcDbArc
 50
285.3244911595
 51
292.8014024538
  0
ARC
  5
487
330
1F
100
AcDbEntity
  8
0
  6
CONTINUOUS
 62
     7
100
AcDbCircle
 10
254.5937106229
 20
216.846960962
 30
0.0
 40
24.79858060119702
100
AcDbArc
 50
269.160567523
 51
270.839432477
  0
ARC
  5
488
330
1F
100
AcDbEntity
  8
0
  6
CONTINUOUS
 62
     7
100
AcDbCircle
 10
255.6803297102
 20
172.9807872557
 30
0.0
 40
1.108110535047105
100
AcDbArc
 50
261.2997984918
 51
292.8379848359
  0
LINE
  5
489
330
1F
100
AcDbEntity
  8
0
  6
CONTINUOUS
 62
     7
100
AcDbLine
 10
230.8514159366
 20
175.477324753
 30
0.0
 11
255.5127121494
 21
171.8854273554
 31
0.0
  0
ARC
  5
48A
330
1F
100
AcDbEntity
  8
0
  6
CONTINUOUS
 62
     7
100
AcDbCircle
 10
231.1835299214
 20
176.9361121194
 30
0.0
 40
1.49611506211474
100
AcDbArc
 50
178.8877427397
 51
257.1743954867
  0
LINE
  5
48B
330
1F
100
AcDbEntity
  8
0
  6
CONTINUOUS
 62
     7
100
AcDbLine
 10
229.4995510344
 20
189.2910121266
 30
0.0
 11
229.6876967538
 21
176.9651537057
 31
0.0
  0
ARC
  5
48C
330
1F
100
AcDbEntity
  8
0
  6
CONTINUOUS
 62
     7
100
AcDbCircle
 10
230.7260249033
 20
189.3685697274
 30
0.0
 40
1.228923647883025
100
AcDbArc
 50
122.8507404751
 51
183.6183519714
  0
LINE
  5
48D
330
1F
100
AcDbEntity
  8
0
  6
CONTINUOUS
 62
     7
100
AcDbLine
 10
255.5127121494
 20
171.8854273554
 30
0.0
 11
255.2984385479
 21
171.7823698757
 31
0.0
  0
LINE
  5
48E
330
1F
100
AcDbEntity
  8
0
  6
CONTINUOUS
 62
     7
100
AcDbLine
 10
230.8514159366
 20
175.477324753
 30
0.0
 11
230.6135685999
 21
175.3846455632
 31
0.0
  0
LWPOLYLINE
  5
48F
330
1F
100
AcDbEntity
  8
0
  6
CONTINUOUS
 62
     7
100
AcDbPolyline
 90
       39
 70
   128
 43
0.0
 10
232.0561941143
 20
160.9713536054
 10
232.078997982
 20
160.365518839
 10
232.131552444
 20
159.7569390208
 10
232.2136560538
 20
159.1474070219
 10
232.3250273372
 20
158.5387129
 10
232.4653059231
 20
157.9326397961
 10
232.6340537696
 20
157.3309598979
 10
232.8307564821
 20
156.7354304641
 10
233.0548247202
 20
156.147789905
 10
233.3055956909
 20
155.5697539146
 10
233.5823347285
 20
155.0030116479
 10
233.884236962
 20
154.4492219389
 10
234.2104290708
 20
153.9100095549
 10
234.559971133
 20
153.3869614821
 10
234.9318585685
 20
152.8816232382
 10
235.3250241831
 20
152.3954952115
 10
235.7383403183
 20
151.9300290211
 10
236.1706211127
 20
151.486623901
 10
236.6206248824
 20
151.0666231047
 10
237.0870566271
 20
150.671310335
 10
237.5685706692
 20
150.3019061996
 10
238.0637734332
 20
149.9595646987
 10
238.5712263735
 20
149.6453697496
 10
239.0894490568
 20
149.3603317556
 10
239.6169224067
 20
149.1053842308
 10
240.1520921162
 20
148.8813804885
 10
240.6933722334
 20
148.689090409
 10
241.239148926
 20
148.5291972995
 10
241.7877844264
 20
148.4022948633
 10
242.3376211599
 20
148.3088842951
 10
242.8869860576
 20
148.2493715228
 10
243.4341950506
 20
148.2240646158
 10
243.9775577451
 20
148.2331713821
 10
244.5153822701
 20
148.2767971774
 10
245.0459802935
 20
148.3549429499
 10
245.5676721948
 20
148.4675035462
 10
246.0787923833
 20
148.6142663026
 10
246.577694747
 20
148.7949099475
 10
246.630696712
 20
148.8163967486
  0
ARC
  5
490
330
1F
100
AcDbEntity
  8
0
  6
CONTINUOUS
 62
     7
100
AcDbCircle
 10
241.6607222537
 20
161.4472187417
 30
0.0
 40
9.616309500442183
100
AcDbArc
 50
130.7773299325
 51
182.8364523757
  0
LWPOLYLINE
  5
491
330
1F
100
AcDbEntity
  8
0
  6
CONTINUOUS
 62
     7
100
AcDbPolyline
 90
       79
 70
   128
 43
0.0
 10
236.9531037049
 20
160.1035517504
 10
236.9719184846
 20
159.6725215122
 10
237.021399237
 20
159.2391229872
 10
237.1012042534
 20
158.8060759494
 10
237.2108090042
 20
158.376092995
 10
237.3495096971
 20
157.95186437
 10
237.5164276509
 20
157.5360429987
 10
237.7105144618
 20
157.1312297514
 10
237.9305579411
 20
156.7399589881
 10
238.1751888087
 20
156.364684411
 10
238.4428881252
 20
156.0077652646
 10
238.7319954507
 20
155.67145292
 10
239.0407177166
 20
155.3578778846
 10
239.3671387999
 20
155.0690372822
 10
239.7092297855
 20
154.8067828502
 10
240.0648599045
 20
154.5728095091
 10
240.4318081292
 20
154.3686445608
 10
240.8077754066
 20
154.1956375791
 10
241.1903975033
 20
154.0549510607
 10
241.5772584308
 20
153.9475519088
 10
241.9659044138
 20
153.8742038257
 10
242.353858354
 20
153.8354606952
 10
242.7386347343
 20
153.8316610346
 10
243.1177548999
 20
153.8629236005
 10
243.4887626403
 20
153.9291442297
 10
243.8492399885
 20
154.0299939948
 10
244.1968231405
 20
154.1649187495
 10
244.5292183914
 20
154.3331401323
 10
244.8442179713
 20
154.5336580906
 10
245.1397156584
 20
154.7652549728
 10
245.413722037
 20
155.0265012285
 10
245.6643792621
 20
155.3157627383
 10
245.8899751904
 20
155.6312097796
 10
246.0889567298
 20
155.9708276176
 10
246.2599422654
 20
156.3324286903
 10
246.401733017
 20
156.7136663347
 10
246.5133231924
 20
157.1120499828
 10
246.5939088036
 20
157.5249617332
 10
246.6428950282
 20
157.9496741813
 10
246.6599020076
 20
158.3833693747
 10
246.6447689889
 20
158.8231587378
 10
246.5975567386
 20
159.2661037932
 10
246.5185481703
 20
159.7092374941
 10
246.408247155
 20
160.1495859667
 10
246.267375501
 20
160.5841904545
 10
246.0968681149
 20
161.0101292484
 10
245.8978663799
 20
161.4245393862
 10
245.6717098078
 20
161.8246379033
 10
245.4199260453
 20
162.2077424231
 10
245.1442193359
 20
162.5712908845
 10
244.846457557
 20
162.9128602126
 10
244.5286579703
 20
163.2301837567
 10
244.1929718363
 20
163.5211673357
 10
243.8416680577
 20
163.7839037516
 10
243.4771160231
 20
164.0166856518
 10
243.1017678302
 20
164.2180166483
 10
242.7181400681
 20
164.3866206201
 10
242.3287953404
 20
164.5214491544
 10
241.9363237051
 20
164.6216871034
 10
241.5433242031
 20
164.6867562573
 10
241.1523866366
 20
164.7163171557
 10
240.7660737512
 20
164.7102690821
 10
240.3869039595
 20
164.6687483001
 10
240.0173347328
 20
164.592124611
 10
239.6597467723
 20
164.480996323
 10
239.3164290553
 20
164.3361837347
 10
238.9895648364
 20
164.1587212431
 10
238.6812186701
 20
163.9498481951
 10
238.3933245032
 20
163.7109986017
 10
238.1276748739
 20
163.4437898377
 10
237.8859112411
 20
163.1500104493
 10
237.6695154528
 20
162.8316071885
 10
237.4798023564
 20
162.4906713892
 10
237.3179135398
 20
162.1294247949
 10
237.184812188
 20
161.750204942
 10
237.0812790315
 20
161.3554501949
 10
237.00790936
 20
160.9476845209
 10
236.9651110684
 20
160.5295020869
 10
236.9531037049
 20
160.1035517504
  0
LWPOLYLINE
  5
492
330
1F
100
AcDbEntity
  8
0
  6
CONTINUOUS
 62
     7
100
AcDbPolyline
 90
        9
 70
   128
 43
0.0
 10
263.8746426052
 20
181.115990295
 10
263.9347891665
 20
181.1294861486
 10
263.9920483651
 20
181.1159674935
 10
264.04422518
 20
181.0759907868
 10
264.0893253902
 20
181.0111250657
 10
264.1256305431
 20
180.9238866835
 10
264.1517617516
 20
180.8176390451
 10
264.1667302091
 20
180.696461727
 10
264.1699728572
 20
180.5649942483
  0
LINE
  5
493
330
1F
100
AcDbEntity
  8
0
  6
CONTINUOUS
 62
     7
100
AcDbLine
 10
263.8746426052
 20
181.115990295
 30
0.0
 11
263.0017047235
 21
180.7295183972
 31
0.0
  0
ARC
  5
494
330
1F
100
AcDbEntity
  8
0
  6
CONTINUOUS
 62
     7
100
AcDbCircle
 10
263.4518895156
 20
180.14220629
 30
0.0
 40
0.7400012555617569
100
AcDbArc
 50
127.4707831468
 51
171.9374778251
  0
LWPOLYLINE
  5
495
330
1F
100
AcDbEntity
  8
0
  6
CONTINUOUS
 62
     7
100
AcDbPolyline
 90
        7
 70
   128
 43
0.0
 10
262.9062450262
 20
175.6486724641
 10
262.8455283173
 20
175.6326446356
 10
262.7875855318
 20
175.643634021
 10
262.7346486775
 20
175.6812554609
 10
262.6887630006
 20
175.7440965168
 10
262.6517067346
 20
175.8297666558
 10
262.6382992202
 20
175.8749621282
  0
LINE
  5
496
330
1F
100
AcDbEntity
  8
0
  6
CONTINUOUS
 62
     7
100
AcDbLine
 10
262.9062450262
 20
175.6486724641
 30
0.0
 11
262.9581639246
 21
175.6735650607
 31
0.0
  0
LINE
  5
497
330
1F
100
AcDbEntity
  8
0
  6
CONTINUOUS
 62
     7
100
AcDbLine
 10
264.1354273476
 20
178.8363024093
 30
0.0
 11
264.1699728572
 21
180.5649942483
 31
0.0
  0
ARC
  5
498
330
1F
100
AcDbEntity
  8
0
  6
CONTINUOUS
 62
     7
100
AcDbCircle
 10
263.4543283768
 20
181.921424713
 30
0.0
 40
1.230061641245049
100
AcDbArc
 50
358.1742629326
 51
10.8921373805
  0
LINE
  5
499
330
1F
100
AcDbEntity
  8
0
  6
CONTINUOUS
 62
     7
100
AcDbLine
 10
264.5641207715
 20
176.0403310006
 30
0.0
 11
264.6837655772
 21
181.8822352802
 31
0.0
  0
ARC
  5
49A
330
1F
100
AcDbEntity
  8
0
  6
CONTINUOUS
 62
     7
100
AcDbCircle
 10
263.5403446172
 20
175.9605751715
 30
0.0
 40
1.026878087411456
100
AcDbArc
 50
313.3331584249
 51
4.4545494571
  0
LINE
  5
49B
330
1F
100
AcDbEntity
  8
0
  6
CONTINUOUS
 62
     7
100
AcDbLine
 10
262.632530698
 20
174.4277521589
 30
0.0
 11
264.2450288376
 21
175.2136489664
 31
0.0
  0
LINE
  5
49C
330
1F
100
AcDbEntity
  8
0
  6
CONTINUOUS
 62
     7
100
AcDbLine
 10
264.8525390996
 20
175.130913566
 30
0.0
 11
264.2450288376
 21
175.2136489664
 31
0.0
  0
LINE
  5
49D
330
1F
100
AcDbEntity
  8
0
  6
CONTINUOUS
 62
     7
100
AcDbLine
 10
265.2945198712
 20
181.807502664
 30
0.0
 11
264.6837655772
 21
181.8822352802
 31
0.0
  0
ARC
  5
49E
330
1F
100
AcDbEntity
  8
0
  6
CONTINUOUS
 62
     7
100
AcDbCircle
 10
264.4322498559
 20
151.4259570701
 30
0.0
 40
2.159558634566786
100
AcDbArc
 50
307.002141748
 51
0.4855198975
  0
LINE
  5
49F
330
1F
100
AcDbEntity
  8
0
  6
CONTINUOUS
 62
     7
100
AcDbLine
 10
262.7168292402
 20
179.0189689783
 30
0.0
 11
262.7435839636
 21
180.4628440793
 31
0.0
  0
LINE
  5
4A0
330
1F
100
AcDbEntity
  8
0
  6
CONTINUOUS
 62
     7
100
AcDbLine
 10
264.5641207715
 20
176.0403310006
 30
0.0
 11
265.1710847603
 21
175.9587555761
 31
0.0
  0
LINE
  5
4A1
330
1F
100
AcDbEntity
  8
0
  6
CONTINUOUS
 62
     7
100
AcDbLine
 10
229.4995510344
 20
189.2910121266
 30
0.0
 11
229.2570579309
 21
189.2169063194
 31
0.0
  0
LINE
  5
4A2
330
1F
100
AcDbEntity
  8
0
  6
CONTINUOUS
 62
     7
100
AcDbLine
 10
229.6876967538
 20
176.9651537057
 30
0.0
 11
229.4484955021
 21
176.8746718533
 31
0.0
  0
ARC
  5
4A3
330
1F
100
AcDbEntity
  8
0
  6
CONTINUOUS
 62
     7
100
AcDbCircle
 10
237.2346461365
 20
194.4659730389
 30
0.0
 40
1.863241781572559
100
AcDbArc
 50
84.1834592807
 51
111.0405880138
  0
ARC
  5
4A4
330
1F
100
AcDbEntity
  8
0
  6
CONTINUOUS
 62
     8
100
AcDbCircle
 10
243.6811320837
 20
159.6187264981
 30
0.0
 40
1.47698082252952
100
AcDbArc
 50
301.4494963439
 51
336.3966688306
  0
ARC
  5
4A5
330
1F
100
AcDbEntity
  8
0
  6
CONTINUOUS
 62
     8
100
AcDbCircle
 10
243.1681857978
 20
160.6479800918
 30
0.0
 40
1.444553271003233
100
AcDbArc
 50
82.670874515
 51
120.2701280236
  0
LWPOLYLINE
  5
4A6
330
1F
100
AcDbEntity
  8
0
  6
CONTINUOUS
 62
     8
100
AcDbPolyline
 90
        3
 70
   128
 43
0.0
 10
244.7246240609
 20
158.3600101073
 10
244.7223568151
 20
158.3596720428
 10
244.5073908043
 20
158.3422019238
  0
LWPOLYLINE
  5
4A7
330
1F
100
AcDbEntity
  8
0
  6
CONTINUOUS
 62
     8
100
AcDbPolyline
 90
        3
 70
   128
 43
0.0
 10
242.5051745232
 20
161.8833756112
 10
242.5475844446
 20
161.9520491092
 10
242.6227451826
 20
162.0585281333
  0
LINE
  5
4A8
330
1F
100
AcDbEntity
  8
0
  6
CONTINUOUS
 62
     8
100
AcDbLine
 10
227.4722616256
 20
191.3181893091
 30
0.0
 11
227.976875986
 21
162.1153253316
 31
0.0
  0
LINE
  5
4A9
330
1F
100
AcDbEntity
  8
0
  6
CONTINUOUS
 62
     8
100
AcDbLine
 10
228.0628892906
 20
157.1375937584
 30
0.0
 11
228.1400986495
 21
152.6693610179
 31
0.0
  0
LINE
  5
4AA
330
1F
100
AcDbEntity
  8
0
  6
CONTINUOUS
 62
     8
100
AcDbLine
 10
229.4058785379
 20
151.0174115057
 30
0.0
 11
230.7778335069
 21
150.7425972031
 31
0.0
  0
LINE
  5
4AB
330
1F
100
AcDbEntity
  8
0
  6
CONTINUOUS
 62
     8
100
AcDbLine
 10
248.0234207467
 20
147.2881587278
 30
0.0
 11
256.7570060346
 21
145.5387469725
 31
0.0
  0
LINE
  5
4AC
330
1F
100
AcDbEntity
  8
0
  6
CONTINUOUS
 62
     8
100
AcDbLine
 10
262.7653946809
 20
174.2540973947
 30
0.0
 11
262.9980087702
 21
174.221861028
 31
0.0
  0
LINE
  5
4AD
330
1F
100
AcDbEntity
  8
0
  6
CONTINUOUS
 62
     8
100
AcDbLine
 10
262.677628405
 20
175.6796880743
 30
0.0
 11
262.9062450262
 21
175.6486724641
 31
0.0
  0
ARC
  5
4AE
330
1F
100
AcDbEntity
  8
0
  6
CONTINUOUS
 62
     8
100
AcDbCircle
 10
257.6354622332
 20
146.860231004
 30
0.0
 40
2.221195513760616
100
AcDbArc
 50
307.2243116429
 51
1.1456113064
  0
LWPOLYLINE
  5
4AF
330
1F
100
AcDbEntity
  8
0
  6
CONTINUOUS
 62
     8
100
AcDbPolyline
 90
        8
 70
   128
 43
0.0
 10
256.7570060346
 20
145.5387469725
 10
256.7630716536
 20
145.3425057573
 10
256.7862767991
 20
145.1639683902
 10
256.8258897758
 20
145.0085927348
 10
256.8806731275
 20
144.8811059365
 10
256.9489253595
 20
144.7853601098
 10
257.0285371221
 20
144.7242179764
 10
257.0525641867
 20
144.7135603343
  0
LINE
  5
4B0
330
1F
100
AcDbEntity
  8
0
  6
CONTINUOUS
 62
     8
100
AcDbLine
 10
264.1699728572
 20
180.5649942483
 30
0.0
 11
263.1408956124
 21
180.693834977
 31
0.0
  0
LWPOLYLINE
  5
4B1
330
1F
100
AcDbEntity
  8
0
  6
CONTINUOUS
 62
     8
100
AcDbPolyline
 90
        8
 70
   128
 43
0.0
 10
229.4058785379
 20
151.0174115057
 10
229.4186717599
 20
150.8309628771
 10
229.450523682
 20
150.6606186061
 10
229.5004368833
 20
150.5115851443
 10
229.5668581378
 20
150.3883975816
 10
229.6477300691
 20
150.29478108
 10
229.7405584185
 20
150.2335399112
 10
229.7683426554
 20
150.2224544689
  0
ARC
  5
4B2
330
1F
100
AcDbEntity
  8
0
  6
CONTINUOUS
 62
     8
100
AcDbCircle
 10
227.4059419617
 20
192.0501290708
 30
0.0
 40
0.7349381692260539
100
AcDbArc
 50
229.9787628306
 51
275.1773237309
  0
ARC
  5
4B3
330
1F
100
AcDbEntity
  8
0
  6
CONTINUOUS
 62
     8
100
AcDbCircle
 10
229.1922303092
 20
192.2223422639
 30
0.0
 40
1.880322287789234
100
AcDbArc
 50
83.9522314175
 51
111.4911637838
  0
LWPOLYLINE
  5
4B4
330
1F
100
AcDbEntity
  8
0
  6
CONTINUOUS
 62
     8
100
AcDbPolyline
 90
        7
 70
   128
 43
0.0
 10
228.1400986495
 20
152.6693610179
 10
227.9807953208
 20
152.7077594346
 10
227.8460687194
 20
152.7550514178
 10
227.7400073375
 20
152.8097741
 10
227.6658019654
 20
152.8702404883
 10
227.6256526775
 20
152.9345936585
 10
227.6199537928
 20
152.9572737877
  0
OLE2FRAME
  5
4B5
330
1F
100
AcDbEntity
  8
0
100
AcDbOle2Frame
 70
     2
  3
Paintbrush Picture
 10
229.0524258301
 20
33.6996297921
 30
0.0
 11
265.1686469208
 21
28.555479607
 31
0.0
 71
     2
 72
     0
 90
     7296
310
80557333EF78ADA16C40002412788DD94040000000000000000041161DC7B292
310
7040002412788DD94040000000000000000041161DC7B2927040F6DD59E9338E
310
3C4000000000000000007333EF78ADA16C40F6DD59E9338E3C40000000000000
310
00000000000001000000000100000100000001000000000001000000001C0000
310
D0CF11E0A1B11AE1000000000000000000000000000000003E000300FEFF0900
310
0600000000000000000000000100000001000000000000000010000002000000
310
01000000FEFFFFFF0000000000000000FFFFFFFFFFFFFFFFFFFFFFFFFFFFFFFF
310
FFFFFFFFFFFFFFFFFFFFFFFFFFFFFFFFFFFFFFFFFFFFFFFFFFFFFFFFFFFFFFFF
310
FFFFFFFFFFFFFFFFFFFFFFFFFFFFFFFFFFFFFFFFFFFFFFFFFFFFFFFFFFFFFFFF
310
FFFFFFFFFFFFFFFFFFFFFFFFFFFFFFFFFFFFFFFFFFFFFFFFFFFFFFFFFFFFFFFF
310
FFFFFFFFFFFFFFFFFFFFFFFFFFFFFFFFFFFFFFFFFFFFFFFFFFFFFFFFFFFFFFFF
310
FFFFFFFFFFFFFFFFFFFFFFFFFFFFFFFFFFFFFFFFFFFFFFFFFFFFFFFFFFFFFFFF
310
FFFFFFFFFFFFFFFFFFFFFFFFFFFFFFFFFFFFFFFFFFFFFFFFFFFFFFFFFFFFFFFF
310
FFFFFFFFFFFFFFFFFFFFFFFFFFFFFFFFFFFFFFFFFFFFFFFFFFFFFFFFFFFFFFFF
310
FFFFFFFFFFFFFFFFFFFFFFFFFFFFFFFFFFFFFFFFFFFFFFFFFFFFFFFFFFFFFFFF
310
FFFFFFFFFFFFFFFFFFFFFFFFFFFFFFFFFFFFFFFFFFFFFFFFFFFFFFFFFFFFFFFF
310
FFFFFFFFFFFFFFFFFFFFFFFFFFFFFFFFFFFFFFFFFFFFFFFFFFFFFFFFFFFFFFFF
310
FFFFFFFFFFFFFFFFFFFFFFFFFFFFFFFFFFFFFFFFFFFFFFFFFFFFFFFFFFFFFFFF
310
FFFFFFFFFFFFFFFFFFFFFFFFFFFFFFFFFFFFFFFFFFFFFFFFFFFFFFFFFFFFFFFF
310
FFFFFFFFFFFFFFFFFFFFFFFFFFFFFFFFFFFFFFFFFFFFFFFFFFFFFFFFFFFFFFFF
310
FDFFFFFFFEFFFFFFFEFFFFFFFEFFFFFF05000000060000000700000008000000
310
090000000A0000000B0000000C000000FEFFFFFFFFFFFFFFFFFFFFFFFFFFFFFF
310
FFFFFFFFFFFFFFFFFFFFFFFFFFFFFFFFFFFFFFFFFFFFFFFFFFFFFFFFFFFFFFFF
310
FFFFFFFFFFFFFFFFFFFFFFFFFFFFFFFFFFFFFFFFFFFFFFFFFFFFFFFFFFFFFFFF
310
FFFFFFFFFFFFFFFFFFFFFFFFFFFFFFFFFFFFFFFFFFFFFFFFFFFFFFFFFFFFFFFF
310
FFFFFFFFFFFFFFFFFFFFFFFFFFFFFFFFFFFFFFFFFFFFFFFFFFFFFFFFFFFFFFFF
310
FFFFFFFFFFFFFFFFFFFFFFFFFFFFFFFFFFFFFFFFFFFFFFFFFFFFFFFFFFFFFFFF
310
FFFFFFFFFFFFFFFFFFFFFFFFFFFFFFFFFFFFFFFFFFFFFFFFFFFFFFFFFFFFFFFF
310
FFFFFFFFFFFFFFFFFFFFFFFFFFFFFFFFFFFFFFFFFFFFFFFFFFFFFFFFFFFFFFFF
310
FFFFFFFFFFFFFFFFFFFFFFFFFFFFFFFFFFFFFFFFFFFFFFFFFFFFFFFFFFFFFFFF
310
FFFFFFFFFFFFFFFFFFFFFFFFFFFFFFFFFFFFFFFFFFFFFFFFFFFFFFFFFFFFFFFF
310
FFFFFFFFFFFFFFFFFFFFFFFFFFFFFFFFFFFFFFFFFFFFFFFFFFFFFFFFFFFFFFFF
310
FFFFFFFFFFFFFFFFFFFFFFFFFFFFFFFFFFFFFFFFFFFFFFFFFFFFFFFFFFFFFFFF
310
FFFFFFFFFFFFFFFFFFFFFFFFFFFFFFFFFFFFFFFFFFFFFFFFFFFFFFFFFFFFFFFF
310
FFFFFFFFFFFFFFFFFFFFFFFFFFFFFFFFFFFFFFFFFFFFFFFFFFFFFFFFFFFFFFFF
310
FFFFFFFFFFFFFFFFFFFFFFFFFFFFFFFFFFFFFFFFFFFFFFFFFFFFFFFFFFFFFFFF
310
52006F006F007400200045006E00740072007900000000000000000000000000
310
0000000000000000000000000000000000000000000000000000000000000000
310
16000500FFFFFFFFFFFFFFFF020000000A00030000000000C000000000000046
310
000000000000000000000000D0A92200EA77D20103000000C000000000000000
310
01004F006C006500000000000000000000000000000000000000000000000000
310
0000000000000000000000000000000000000000000000000000000000000000
310
0A000200FFFFFFFFFFFFFFFFFFFFFFFF00000000000000000000000000000000
310
0000000000000000000000000000000000000000000000001400000000000000
310
010043006F006D0070004F0062006A0000000000000000000000000000000000
310
0000000000000000000000000000000000000000000000000000000000000000
310
120002010100000003000000FFFFFFFF00000000000000000000000000000000
310
0000000000000000000000000000000000000000010000004D00000000000000
310
01004F006C006500310030004E00610074006900760065000000000000000000
310
0000000000000000000000000000000000000000000000000000000000000000
310
1A000200FFFFFFFFFFFFFFFFFFFFFFFF00000000000000000000000000000000
310
000000000000000000000000000000000000000004000000E411000000000000
310
FEFFFFFF02000000FEFFFFFFFFFFFFFFFFFFFFFFFFFFFFFFFFFFFFFFFFFFFFFF
310
FFFFFFFFFFFFFFFFFFFFFFFFFFFFFFFFFFFFFFFFFFFFFFFFFFFFFFFFFFFFFFFF
310
FFFFFFFFFFFFFFFFFFFFFFFFFFFFFFFFFFFFFFFFFFFFFFFFFFFFFFFFFFFFFFFF
310
FFFFFFFFFFFFFFFFFFFFFFFFFFFFFFFFFFFFFFFFFFFFFFFFFFFFFFFFFFFFFFFF
310
FFFFFFFFFFFFFFFFFFFFFFFFFFFFFFFFFFFFFFFFFFFFFFFFFFFFFFFFFFFFFFFF
310
FFFFFFFFFFFFFFFFFFFFFFFFFFFFFFFFFFFFFFFFFFFFFFFFFFFFFFFFFFFFFFFF
310
FFFFFFFFFFFFFFFFFFFFFFFFFFFFFFFFFFFFFFFFFFFFFFFFFFFFFFFFFFFFFFFF
310
FFFFFFFFFFFFFFFFFFFFFFFFFFFFFFFFFFFFFFFFFFFFFFFFFFFFFFFFFFFFFFFF
310
FFFFFFFFFFFFFFFFFFFFFFFFFFFFFFFFFFFFFFFFFFFFFFFFFFFFFFFFFFFFFFFF
310
FFFFFFFFFFFFFFFFFFFFFFFFFFFFFFFFFFFFFFFFFFFFFFFFFFFFFFFFFFFFFFFF
310
FFFFFFFFFFFFFFFFFFFFFFFFFFFFFFFFFFFFFFFFFFFFFFFFFFFFFFFFFFFFFFFF
310
FFFFFFFFFFFFFFFFFFFFFFFFFFFFFFFFFFFFFFFFFFFFFFFFFFFFFFFFFFFFFFFF
310
FFFFFFFFFFFFFFFFFFFFFFFFFFFFFFFFFFFFFFFFFFFFFFFFFFFFFFFFFFFFFFFF
310
FFFFFFFFFFFFFFFFFFFFFFFFFFFFFFFFFFFFFFFFFFFFFFFFFFFFFFFFFFFFFFFF
310
FFFFFFFFFFFFFFFFFFFFFFFFFFFFFFFFFFFFFFFFFFFFFFFFFFFFFFFFFFFFFFFF
310
FFFFFFFFFFFFFFFFFFFFFFFFFFFFFFFFFFFFFFFFFFFFFFFFFFFFFFFFFFFFFFFF
310
0100000200000000000000000000000000000000000000000000000000000000
310
0000000000000000000000000000000000000000000000000000000000000000
310
0100FEFF030A0000FFFFFFFF0A00030000000000C00000000000004607000000
310
5042727573680007000000504272757368000700000050427275736800F439B2
310
7100000000000000000000000000000000000000000000000000000000000000
310
0000000000000000000000000000000000000000000000000000000000000000
310
0000000000000000000000000000000000000000000000000000000000000000
310
0000000000000000000000000000000000000000000000000000000000000000
310
0000000000000000000000000000000000000000000000000000000000000000
310
0000000000000000000000000000000000000000000000000000000000000000
310
0000000000000000000000000000000000000000000000000000000000000000
310
0000000000000000000000000000000000000000000000000000000000000000
310
0000000000000000000000000000000000000000000000000000000000000000
310
0000000000000000000000000000000000000000000000000000000000000000
310
0000000000000000000000000000000000000000000000000000000000000000
310
0000000000000000000000000000000000000000000000000000000000000000
310
E0110000424DDE11000000000000360400002800000096000000170000000100
310
08000000000000000000E7240000E72400000001000000010000000000FF0101
310
01FF020202FF030303FF040404FF050505FF060606FF070707FF080808FF0909
310
09FF0A0A0AFF0B0B0BFF0C0C0CFF0D0D0DFF0E0E0EFF0F0F0FFF101010FF1111
310
11FF121212FF131313FF141414FF151515FF161616FF171717FF181818FF1919
310
19FF1A1A1AFF1B1B1BFF1C1C1CFF1D1D1DFF1E1E1EFF1F1F1FFF202020FF2121
310
21FF222222FF232323FF242424FF252525FF262626FF272727FF282828FF2929
310
29FF2A2A2AFF2B2B2BFF2C2C2CFF2D2D2DFF2E2E2EFF2F2F2FFF303030FF3131
310
31FF323232FF333333FF343434FF353535FF363636FF373737FF383838FF3939
310
39FF3A3A3AFF3B3B3BFF3C3C3CFF3D3D3DFF3E3E3EFF3F3F3FFF404040FF4141
310
41FF424242FF434343FF444444FF454545FF464646FF474747FF484848FF4949
310
49FF4A4A4AFF4B4B4BFF4C4C4CFF4D4D4DFF4E4E4EFF4F4F4FFF505050FF5151
310
51FF525252FF535353FF545454FF555555FF565656FF575757FF585858FF5959
310
59FF5A5A5AFF5B5B5BFF5C5C5CFF5D5D5DFF5E5E5EFF5F5F5FFF606060FF6161
310
61FF626262FF636363FF646464FF656565FF666666FF676767FF686868FF6969
310
69FF6A6A6AFF6B6B6BFF6C6C6CFF6D6D6DFF6E6E6EFF6F6F6FFF707070FF7171
310
71FF727272FF737373FF747474FF757575FF767676FF777777FF787878FF7979
310
79FF7A7A7AFF7B7B7BFF7C7C7CFF7D7D7DFF7E7E7EFF7F7F7FFF808080FF8181
310
81FF828282FF838383FF848484FF858585FF868686FF878787FF888888FF8989
310
89FF8A8A8AFF8B8B8BFF8C8C8CFF8D8D8DFF8E8E8EFF8F8F8FFF909090FF9191
310
91FF929292FF939393FF949494FF959595FF969696FF979797FF989898FF9999
310
99FF9A9A9AFF9B9B9BFF9C9C9CFF9D9D9DFF9E9E9EFF9F9F9FFFA0A0A0FFA1A1
310
A1FFA2A2A2FFA3A3A3FFA4A4A4FFA5A5A5FFA6A6A6FFA7A7A7FFA8A8A8FFA9A9
310
A9FFAAAAAAFFABABABFFACACACFFADADADFFAEAEAEFFAFAFAFFFB0B0B0FFB1B1
310
B1FFB2B2B2FFB3B3B3FFB4B4B4FFB5B5B5FFB6B6B6FFB7B7B7FFB8B8B8FFB9B9
310
B9FFBABABAFFBBBBBBFFBCBCBCFFBDBDBDFFBEBEBEFFBFBFBFFFC0C0C0FFC1C1
310
C1FFC2C2C2FFC3C3C3FFC4C4C4FFC5C5C5FFC6C6C6FFC7C7C7FFC8C8C8FFC9C9
310
C9FFCACACAFFCBCBCBFFCCCCCCFFCDCDCDFFCECECEFFCFCFCFFFD0D0D0FFD1D1
310
D1FFD2D2D2FFD3D3D3FFD4D4D4FFD5D5D5FFD6D6D6FFD7D7D7FFD8D8D8FFD9D9
310
D9FFDADADAFFDBDBDBFFDCDCDCFFDDDDDDFFDEDEDEFFDFDFDFFFE0E0E0FFE1E1
310
E1FFE2E2E2FFE3E3E3FFE4E4E4FFE5E5E5FFE6E6E6FFE7E7E7FFE8E8E8FFE9E9
310
E9FFEAEAEAFFEBEBEBFFECECECFFEDEDEDFFEEEEEEFFEFEFEFFFF0F0F0FFF1F1
310
F1FFF2F2F2FFF3F3F3FFF4F4F4FFF5F5F5FFF6F6F6FFF7F7F7FFF8F8F8FFF9F9
310
F9FFFAFAFAFFFBFBFBFFFCFCFCFFFDFDFDFFFEFEFEFFFFFFFFFFFFFFFFFFFFFF
310
C94E4E4E4F4E4EFFFFFFFFFFC94E4E4E4E4E72FFFFFFFFFFFFFF734E4D4E4E4E
310
C9FFFFFFFFFFAA683516171616265B9BE9FFFFFFFFFF4E4E4E4D4E4EFFFFFFFF
310
FFFFFFFF4E4E4F4E4D4E4E4E4F4E4E4F4D4E4E4E4E4E4D4E4F4E4D4E4E4EAAFF
310
FFFFFFFFFFEA4E4F4F4E4E4E4E4E4D4D4F4F4E4E4E4E4E5B7FAAFFFFFFFFFFFF
310
C9744E1716171616164D8DEAFFFFFFFF0000FFFFFFFFFFFFBA161617161716FF
310
FFFFFFFFB917171616174FFFFFFFFFFFFFFF4E1716161616B9FFFFFFB9341717
310
1716171617171616268CFFFFFFFF161617161617FFFFFFFFFFFFFFB917161717
310
1617167F807F7F7F7F7F7F807F7F807F7F807F7F7F414EFFFFFFFFFFFF8C167F
310
7F807F7F7F7E7F7F807F807F7F807F4E3417258EFFFFEA4E162674AABAEAEBBA
310
AA74341680FFFFFF0000FFFFFFFFFFFFB9171717171617FFFFFFFFFFBB161616
310
16164EFFFFFFFFFFFFFF4E1717171717B9FFFF9C171617171716161616171616
310
171766FFFFFF161717161617FFFFFFFFFFFFFF8E16171717161616FFFFFFFFFF
310
FFFFFFFFFFFFFFFFFFFFFFFFFFAA16D9FFFFFFFFFF3467FFFFFFFFEAFFFFFFFF
310
FFFFFFFFFFFFFFFFFFCA671667EB26278DFFFFFFFFFFFFFFFFFFFF8C2541EAFF
310
0000FFFFFFFFFFFFB9171717171716FFFFFFFFFFBA16171617174EFFFFFFFFFF
310
FFFF4E1717161616BAFF9B1617161616171716171617161616161667FFFF1616
310
16161716FFFFFFFFFFFFFF7F16161617174017FFFFFFFFFFFFFFFFFFFFFFFFFF
310
FFFFFFFFFFFF344E7F7F7F7E7417DAFFFFFFFF80FFFFFFFFFFFFFFFFFFFFFFFF
310
FFFFFF9B163425CAFFFFFFFFFFFFFFFFFFFFFFFFCA2667FF0000FFFFFFFFFFFF
310
BA171717171617FFFFFFFFFFB916171716164EFFFFFFFFFFFFFF4F1716161717
310
B9C91716171616161716161617171616161617168DFF161716161717FFFFFFFF
310
FFFFFF7F17171716164F16FFFFFFFFFFFFFFFFFFFFFFFFFFFFFFFFFFFFFF9B16
310
17161617174EFFFFFFFFFF34FFFFFFFFD9BABABABABADAFFFFFFFFFF7F16AAFF
310
FFFFFFFFFFFFFFFFFFFFFFFFFF9C16BA0000FFFFFFFFFFFFB9161717161717FF
310
FFFFFFFFB917161716174DFFFFFFFFFFFFFF4E1616161616BA4E161617171716
310
419BEAEAAA4E16161617161726E9171717161616FFFFFFFFFFFFFF4F16161717
310
164E16FFFFFFFFFFBAB9B9B9B9B9BABABACAFFFFFFFFFFFFFFFFFFFFFFFFFFFF
310
FFFFBA16FFFFFFFF7F1617161617174DEAFFFFFFEA41FFFFFFFFFFAA4D16174E
310
9BFFFFFFFFFF34730000FFFFFFFFFFFFB9161617171617FFFFFFFFFFBA161616
310
16164EFFFFFFFFFFFFFF4F16161717169B1617161716175BFFFFFFFFFFFF7417
310
16171616168D171717161617FFFFFFFFFFFFEA2616171717167416FFFFFFFFFF
310
16171616171717171717EAFFFFFFFFFFFFFFFFFFFFFFFFFFFFFF6716FFFFFFFF
310
7F4EFFFFFFFFBA2573FFFFFFFFBAFFFFFFFFAA167FB9BB9B269BFFFFFFFF664F
310
0000FFFFFFFFFFFFB9171616161616FFFFFFFFFFBA16161717164EFFFFFFFFFF
310
FFFF4E16161616174E161617171626EAFFFFFFFFFFFFFF4E16161616164E1716
310
16161617FFFFFFFFFFFF671616161716347F16FFFFFFFFFF16B9FFFFFFFFFFFF
310
D9168DFFFFFFFFFFFFFFFFFFFFFFFFFFFFEA1716FFFFFFFF7F4EFFFFFFFFFF7F
310
4EFFFFFFFFFFFFFFFFFF5B66FFFFFFEA347FFFFFFFFF7F4D0000FFFFFFFFFFFF
310
B9171616171617FFFFFFFFFFBA17161716174EFFFFFFFFFFFFFF4D1716161617
310
17161716161673FFFFFFFFFFFFFFFF9B1617161717161616171616174F4E4E4E
310
4E341616171616167E7F16FFFFFFFFFF16BAFFFFFFFFFFFFFF5B41FFFFFFFF34
310
1616171616BAFFFFFF9B1716FFFFFFFF7F4EFFFFFFFFFF4E4EFFFFFFFF734E4E
310
4E4E267EDA9B67164EEAFFFFFFFF744D0000FFFFFFFFFFFFBA171717161617FF
310
FFFFFFFFBA1616171616347F7F7F7F80807F331616161717161717161716B9FF
310
FFFFFFFFFFFFFFE9161616161616171716161716171616161616171616171734
310
EA7F16FFFFFFFFFF16BAFFFFFFFFFFFFFFAA17C9FFFFFF7326BABA5B25FFFFFF
310
FF401716FFFFFFFF7F264F4E4E4E4217AAFFFFFFEA16677F73261616164173CA
310
FFFFFFFFFFFF417F0000FFFFFFFFFFFFBA171616171617FFFFFFFFFFBA161616
310
17171616161616161616161717161616161616161617EAFFFFFFFFFFFFFFFFFF
310
261717161716161617161616161617161617161616174EEAFF8016FFFFFFFFFF
310
17BAFFFFFFFFFFFFFFFF3467FFFFFFC916C9FF3467FFFFFFDA166716FFFFFFFF
310
9C4D4E4E4E4E67AAFFFFFFFF6834FF7F262567AAEAFFFFFFFFFFFFFFFF9B17D9
310
0000FFFFFFFFFFFFB9161616161616FFFFFFFFFFBA1617161717171616161616
310
1716171716161716161617171716FFFFFFFFFFFFFFFFFFFF4E17161716171616
310
1617171616161716171717161616169BFF7F17FFFFFFFFFF17B9FFFFFFFFFFFF
310
FFFF7326FFFFFFFF3473DA16AAFFFFFF7317AA16FFFFFFFFFFFFFFFFFFFFFFFF
310
FFFFEA6725BA4E167FEAFFFFFFFFFFFFFFFFFFFF9C167FFF0000FFFFFFFFFFFF
310
B9161717171716FFFFFFFFFFBA16161716171616171717161617161716161616
310
171617171617EAFFFFFFFFFFFFFFFFFF26161717161616161616161617171616
310
1616161616171616AA8016FFFFFFFFFF16BAFFFFFFFFFFFFFFFFDA179BFFFFFF
310
74348D26FFFFFFFF2566B917FFFFFFFFD8BAB9BAB9BADAFFFFEA41169B7425C9
310
FFFFFFFFFFFFFFFFFFFFAB4F1680FFFF0000FFFFFFFFFFFFBA161717171617FF
310
FFFFFFFFBA17161717161617171617161616161617171616171716171617BBFF
310
FFFFFFFFFFFFFFE9171616161617161617161716FFFFFFFFFFD9671616161617
310
348017FFFFFFFFFF16BAFFFFFFFFFFFFFFFFFF4E5AFFFFFFC916265AFFFFFFAA
310
16AABA16FFFFFFFF7F1617161616179BFFFFEB4127168DFFFFFFFFFFFFFFD99B
310
6734175AC9FFFFFF0000FFFFFFFFFFFFB9161617171617FFFFFFFFFFBB161616
310
1616347F807F7F7F7F8033171716171617171616161672FFFFFFFFFFFFFFFF9C
310
171617171617161716161617FFFFFFFFFFFFFF4117161616174E17FFFFFFFFFF
310
16BAFFFFFFFFFFFFFFFFFF9B16DAFFFFFF34169BFFFFFF5A26FFB917FFFFFFFF
310
7F4EFFFFFFEA5B26FFFFFFEA2616EAFFFFFFFFDA743416331617414E4E4E4ECA
310
0000FFFFFFFFFFFFBA161716161616FFFFFFFFFFBA17171616164EFFFFFFFFFF
310
FFFF4E16161717174E161717171626EBFFFFFFFFFFFFFF4E16161617165B1616
310
16171617FFFFFFFFFFFFFF6716161616161617FFFFFFFFFF16BAFFFFFFFFFFFF
310
FFFFFFEA268CFFFFFF7316EAFFFFEB1774FFB916FFFFFFFF7F4EFFFFFFFF7316
310
FFFFFFFF6826FFFFFFFFEB264D9CEABA257F807F7F6616BA0000FFFFFFFFFFFF
310
BA161716161616FFFFFFFFFFBA16171616164DFFFFFFFFFFFFFF4E1617161617
310
9B1617171717165BEBFFFFFFFFFF671616161617179B171616161616FFFFFFFF
310
FFFFFF3417161617171617FFFFFFFFFF17BAFFFFFFFFFFFFFFFFFFFF6734FFFF
310
FFEBCAFFFFFF8D17C9FFBA17FFFFFFFF7F357F808066174FFFFFFFFF7F16FFFF
310
FFFFD91673B99B415BFFFFFFFFBA16DA00009B7F7F7F807F671617161616167F
310
80807F7E6617161616164EFFFFFFFFFFFFFF4E1616161617B94E171716161616
310
349BC9D9AA4E16171616161634FF161617161717B9B9BAB9BA9B411716171716
310
163416FFFFFFFFFF16B9FFFFFFFFFFFFFFFFFFFFC917CAFFFFFFFFFFFFFF3342
310
FFFFBA17FFFFFFFF9B4E4E4F4E4E66EAFFFFFFFF5B16C9FFFFFFFFAA4E164E73
310
EAFFFFFFFF8D26FF00004E161716161616171617171616171717171617161616
310
17174EFFFFFFFFFFFFFF4E1717171616B9D92616171716171716171717171716
310
16171716AAFF161717171617161617171616161617161716166717FFFFFFFFFF
310
17B9FFFFFFFFFFFFFFFFFFFFFF3467FFFFFFFFFFFFCA168CFFFFBB17FFFFFFFF
310
FFFFFFFFFFFFFFFFFFFFFFEA26265BFFFFFFFFFFFFFFFFFFFFFFFFFFEA3467FF
310
00004D16161616161617161717161617161616171617171616164EFFFFFFFFFF
310
FFFF4D1617161616BAFF9B1616161616161716161616171717161766FFFF1616
310
16171617161617161716171616171717667F16FFFFFFFFFF17BAFFFFFFFFFFFF
310
FFFFFFFFFF8C26EAFFFFFFFFFF6617EAFFFFBA17FFFFFFFFFFFFFFFFFFFFFFFF
310
FFFFEA5A25BA269BFFFFFFFFFFFFFFFFFFFFFFFF6616DAFF00004E1616171616
310
1616161616161716161617171616171616174EFFFFFFFFFFFFFF4D1717171716
310
B9FFFF9C161616161616161716161717171667FFFFFF17161717171716161617
310
1716161616161641E97E16FFFFFFFFFF16B9FFFFFFFFFFFFFFFFFFFFFFEA169B
310
FFFFFFFFEA265BFFFFFFB916FFFFFFFFFFFFFFFFFFFFFFFFFF9B3416AAFF9B17
310
67EAFFFFFFFFFFFFFFFFEA5B169BFFFF00004D17161716161616161717171616
310
161717161716171716174EFFFFFFFFFFFFFF4D1616161616BAFFFFFFBB411616
310
161716161616171634ABFFFFFFFF161716161617171716171617171617267FFF
310
FF7F164E4E4E4E4F17BAFFFFFFFFFFFFFFFFFFFFFFFF66344D4E4E4F4117AAFF
310
FFFFBA174E4E4E4D4E4D4D4E4E4E4E4116174EBBFFFFFFCA342666ABEAFFFFEA
310
AA6725269CFFFFFF0000724F4E4D4D4D4E4D4D4E4E4E4D4E4E4E4E4E4E4E4E4D
310
4E4E74FFFFFFFFFFFFFF734E4E4E4D4ECAFFFFFFFFFFAA663416171717265B9B
310
FFFFFFFFFFFF7F8080807F80807F7F7F7F7F807FBAFFFFFFFF9B4E4E4F4D4D4E
310
4DC9FFFFFFFFFFFFFFFFFFFFFFFFBA4E4E4E4E4D4E4EFFFFFFFFC94E4E4E4F4E
310
4E4E4D4E4E5A807F9CD9FFFFFFFFFFFFFF9B5B2617171716174E8DEAFFFFFFFF
310
0000000000000000000000000000000000000000000000000000000000000000
  1
OLE
  0
ENDSEC
  0
SECTION
  2
OBJECTS
  0
DICTIONARY
  5
C
330
0
100
AcDbDictionary
  3
ACAD_GROUP
350
D
  3
ACAD_MLINESTYLE
350
17
  3
ACAD_SCALELIST
350
47
  0
DICTIONARY
  5
D
102
{ACAD_REACTORS
330
C
102
}
330
C
100
AcDbDictionary
  0
DICTIONARY
  5
17
102
{ACAD_REACTORS
330
C
102
}
330
C
100
AcDbDictionary
  3
STANDARD
350
18
  0
DICTIONARY
  5
47
102
{ACAD_REACTORS
330
C
102
}
330
C
100
AcDbDictionary
  0
MLINESTYLE
  5
18
102
{ACAD_REACTORS
330
17
102
}
330
17
100
AcDbMlineStyle
  2
Standard
 70
     0
  3

 62
   256
 51
90.0
 52
90.0
 71
     2
 49
0.5
 62
   256
  6
BYLAYER
 49
-0.5
 62
   256
  6
BYLAYER
  0
ENDSEC
  0
EOF
