  0
SECTION
  2
HEADER
  9
$ACADVER
  1
AC1015
  9
$ACADMAINTVER
 70
     6
  9
$DWGCODEPAGE
  3
ANSI_1252
  9
$INSBASE
 10
0.0
 20
0.0
 30
0.0
  9
$EXTMIN
 10
0.0
 20
0.0
 30
0.0
  9
$EXTMAX
 10
279.4
 20
215.9
 30
0.0
  9
$LIMMIN
 10
0.0
 20
0.0
  9
$LIMMAX
 10
279.4
 20
215.9
  9
$ORTHOMODE
 70
     0
  9
$REGENMODE
 70
     1
  9
$FILLMODE
 70
     1
  9
$QTEXTMODE
 70
     0
  9
$MIRRTEXT
 70
     1
  9
$LTSCALE
 40
1.0
  9
$ATTMODE
 70
     1
  9
$TEXTSIZE
 40
2.8222222222
  9
$TRACEWID
 40
1.0
  9
$TEXTSTYLE
  7
Standard
  9
$CLAYER
  8
0
  9
$CELTYPE
  6
ByLayer
  9
$CECOLOR
 62
   256
  9
$CELTSCALE
 40
1.0
  9
$DISPSILH
 70
     0
  9
$DIMSCALE
 40
1.0
  9
$DIMASZ
 40
3.175
  9
$DIMEXO
 40
1.27
  9
$DIMDLI
 40
3.75
  9
$DIMRND
 40
0.0
  9
$DIMDLE
 40
0.0
  9
$DIMEXE
 40
1.778
  9
$DIMTP
 40
0.0
  9
$DIMTM
 40
0.0
  9
$DIMTXT
 40
2.8222222222
  9
$DIMCEN
 40
2.5
  9
$DIMTSZ
 40
0.0
  9
$DIMTOL
 70
     0
  9
$DIMLIM
 70
     0
  9
$DIMTIH
 70
     1
  9
$DIMTOH
 70
     1
  9
$DIMSE1
 70
     0
  9
$DIMSE2
 70
     0
  9
$DIMTAD
 70
     0
  9
$DIMZIN
 70
     1
  9
$DIMBLK
  1

  9
$DIMASO
 70
     1
  9
$DIMSHO
 70
     1
  9
$DIMPOST
  1

  9
$DIMAPOST
  1

  9
$DIMALT
 70
     0
  9
$DIMALTD
 70
     3
  9
$DIMALTF
 40
0.0393700787
  9
$DIMLFAC
 40
1.0
  9
$DIMTOFL
 70
     1
  9
$DIMTVP
 40
0.0
  9
$DIMTIX
 70
     0
  9
$DIMSOXD
 70
     0
  9
$DIMSAH
 70
     0
  9
$DIMBLK1
  1

  9
$DIMBLK2
  1

  9
$DIMSTYLE
  2
ISO-25
  9
$DIMCLRD
 70
     0
  9
$DIMCLRE
 70
     0
  9
$DIMCLRT
 70
     0
  9
$DIMTFAC
 40
1.0
  9
$DIMGAP
 40
2.54
  9
$DIMJUST
 70
     0
  9
$DIMSD1
 70
     0
  9
$DIMSD2
 70
     0
  9
$DIMTOLJ
 70
     0
  9
$DIMTZIN
 70
     1
  9
$DIMALTZ
 70
     0
  9
$DIMALTTZ
 70
     0
  9
$DIMUPT
 70
     0
  9
$DIMDEC
 70
     1
  9
$DIMTDEC
 70
     1
  9
$DIMALTU
 70
     2
  9
$DIMALTTD
 70
     3
  9
$DIMTXSTY
  7
Standard
  9
$DIMAUNIT
 70
     0
  9
$DIMADEC
 70
     0
  9
$DIMALTRND
 40
0.0
  9
$DIMAZIN
 70
     0
  9
$DIMDSEP
 70
    44
  9
$DIMATFIT
 70
     3
  9
$DIMFRAC
 70
     0
  9
$DIMLDRBLK
  1

  9
$DIMLUNIT
 70
     2
  9
$DIMLWD
 70
    -2
  9
$DIMLWE
 70
    -2
  9
$DIMTMOVE
 70
     0
  9
$LUNITS
 70
     2
  9
$LUPREC
 70
     1
  9
$SKETCHINC
 40
1.0
  9
$FILLETRAD
 40
10.0
  9
$AUNITS
 70
     0
  9
$AUPREC
 70
     0
  9
$MENU
  1
.
  9
$ELEVATION
 40
0.0
  9
$PELEVATION
 40
0.0
  9
$THICKNESS
 40
0.0
  9
$LIMCHECK
 70
     0
  9
$CHAMFERA
 40
0.0
  9
$CHAMFERB
 40
0.0
  9
$CHAMFERC
 40
0.0
  9
$CHAMFERD
 40
0.0
  9
$SKPOLY
 70
     0
  9
$TDCREATE
 40
2458470.641841354
  9
$TDUCREATE
 40
2458470.850174687
  9
$TDUPDATE
 40
2458470.641849086
  9
$TDUUPDATE
 40
2458470.850182419
  9
$TDINDWG
 40
0.0000000116
  9
$TDUSRTIMER
 40
0.0000000116
  9
$USRTIMER
 70
     1
  9
$ANGBASE
 50
0.0
  9
$ANGDIR
 70
     0
  9
$PDMODE
 70
     0
  9
$PDSIZE
 40
-1.0
  9
$PLINEWID
 40
0.0
  9
$SPLFRAME
 70
     0
  9
$SPLINETYPE
 70
     6
  9
$SPLINESEGS
 70
     8
  9
$HANDSEED
  5
26F
  9
$SURFTAB1
 70
     6
  9
$SURFTAB2
 70
     6
  9
$SURFTYPE
 70
     6
  9
$SURFU
 70
     6
  9
$SURFV
 70
     6
  9
$UCSBASE
  2

  9
$UCSNAME
  2

  9
$UCSORG
 10
0.0
 20
0.0
 30
0.0
  9
$UCSXDIR
 10
1.0
 20
0.0
 30
0.0
  9
$UCSYDIR
 10
0.0
 20
1.0
 30
0.0
  9
$UCSORTHOREF
  2

  9
$UCSORTHOVIEW
 70
     0
  9
$UCSORGTOP
 10
0.0
 20
0.0
 30
0.0
  9
$UCSORGBOTTOM
 10
0.0
 20
0.0
 30
0.0
  9
$UCSORGLEFT
 10
0.0
 20
0.0
 30
0.0
  9
$UCSORGRIGHT
 10
0.0
 20
0.0
 30
0.0
  9
$UCSORGFRONT
 10
0.0
 20
0.0
 30
0.0
  9
$UCSORGBACK
 10
0.0
 20
0.0
 30
0.0
  9
$PUCSBASE
  2

  9
$PUCSNAME
  2

  9
$PUCSORG
 10
0.0
 20
0.0
 30
0.0
  9
$PUCSXDIR
 10
1.0
 20
0.0
 30
0.0
  9
$PUCSYDIR
 10
0.0
 20
1.0
 30
0.0
  9
$PUCSORTHOREF
  2

  9
$PUCSORTHOVIEW
 70
     0
  9
$PUCSORGTOP
 10
0.0
 20
0.0
 30
0.0
  9
$PUCSORGBOTTOM
 10
0.0
 20
0.0
 30
0.0
  9
$PUCSORGLEFT
 10
0.0
 20
0.0
 30
0.0
  9
$PUCSORGRIGHT
 10
0.0
 20
0.0
 30
0.0
  9
$PUCSORGFRONT
 10
0.0
 20
0.0
 30
0.0
  9
$PUCSORGBACK
 10
0.0
 20
0.0
 30
0.0
  9
$USERI1
 70
     0
  9
$USERI2
 70
     0
  9
$USERI3
 70
     0
  9
$USERI4
 70
     0
  9
$USERI5
 70
     0
  9
$USERR1
 40
0.0
  9
$USERR2
 40
0.0
  9
$USERR3
 40
0.0
  9
$USERR4
 40
0.0
  9
$USERR5
 40
0.0
  9
$WORLDVIEW
 70
     1
  9
$SHADEDGE
 70
     3
  9
$SHADEDIF
 70
    70
  9
$TILEMODE
 70
     1
  9
$MAXACTVP
 70
    64
  9
$PINSBASE
 10
0.0
 20
0.0
 30
0.0
  9
$PLIMCHECK
 70
     0
  9
$PEXTMIN
 10
1.0000000000E+20
 20
1.0000000000E+20
 30
1.0000000000E+20
  9
$PEXTMAX
 10
-1.0000000000E+20
 20
-1.0000000000E+20
 30
-1.0000000000E+20
  9
$PLIMMIN
 10
0.0
 20
0.0
  9
$PLIMMAX
 10
420.0
 20
297.0
  9
$UNITMODE
 70
     0
  9
$VISRETAIN
 70
     1
  9
$PLINEGEN
 70
     0
  9
$PSLTSCALE
 70
     1
  9
$TREEDEPTH
 70
  3020
  9
$CMLSTYLE
  2
Standard
  9
$CMLJUST
 70
     0
  9
$CMLSCALE
 40
20.0
  9
$PROXYGRAPHICS
 70
     1
  9
$MEASUREMENT
 70
     1
  9
$CELWEIGHT
370
    -1
  9
$ENDCAPS
280
     0
  9
$JOINSTYLE
280
     0
  9
$LWDISPLAY
290
     1
  9
$INSUNITS
 70
     4
  9
$HYPERLINKBASE
  1

  9
$STYLESHEET
  1

  9
$XEDIT
290
     1
  9
$CEPSNTYPE
380
     0
  9
$PSTYLEMODE
290
     1
  9
$FINGERPRINTGUID
  2
{54256542-917C-4D15-93BE-6D05B95705CB}
  9
$VERSIONGUID
  2
{FAEB1C32-E019-11D5-929B-00C0DF256EC4}
  9
$EXTNAMES
290
     1
  9
$PSVPSCALE
 40
0.0
  9
$OLESTARTUP
290
     0
  0
ENDSEC
  0
SECTION
  2
CLASSES
  0
CLASS
  1
ACDBDICTIONARYWDFLT
  2
AcDbDictionaryWithDefault
  3
ObjectDBX Classes
 90
        0
280
     0
281
     0
  0
CLASS
  1
VISUALSTYLE
  2
AcDbVisualStyle
  3
ObjectDBX Classes
 90
     4095
280
     0
281
     0
  0
CLASS
  1
MATERIAL
  2
AcDbMaterial
  3
ObjectDBX Classes
 90
     1153
280
     0
281
     0
  0
CLASS
  1
SCALE
  2
AcDbScale
  3
ObjectDBX Classes
 90
     1153
280
     0
281
     0
  0
CLASS
  1
TABLESTYLE
  2
AcDbTableStyle
  3
ObjectDBX Classes
 90
     4095
280
     0
281
     0
  0
CLASS
  1
MLEADERSTYLE
  2
AcDbMLeaderStyle
  3
ACDB_MLEADERSTYLE_CLASS
 90
     4095
280
     0
281
     0
  0
CLASS
  1
SUN
  2
AcDbSun
  3
SCENEOE
 90
     1153
280
     0
281
     0
  0
CLASS
  1
ACDBPLACEHOLDER
  2
AcDbPlaceHolder
  3
ObjectDBX Classes
 90
        0
280
     0
281
     0
  0
CLASS
  1
LAYOUT
  2
AcDbLayout
  3
ObjectDBX Classes
 90
        0
280
     0
281
     0
  0
ENDSEC
  0
SECTION
  2
TABLES
  0
TABLE
  2
VPORT
  5
8
330
0
100
AcDbSymbolTable
 70
     1
  0
VPORT
  5
29
330
8
100
AcDbSymbolTableRecord
100
AcDbViewportTableRecord
  2
*Active
 70
     0
 10
0.0
 20
0.0
 11
1.0
 21
1.0
 12
139.7
 22
107.95
 13
0.0
 23
0.0
 14
10.0
 24
10.0
 15
10.0
 25
10.0
 16
0.0
 26
0.0
 36
1.0
 17
0.0
 27
0.0
 37
0.0
 40
215.9
 41
1.2941176471
 42
50.0
 43
0.0
 44
0.0
 50
0.0
 51
0.0
 71
     0
 72
  2000
 73
     1
 74
     3
 75
     0
 76
     0
 77
     0
 78
     0
281
     0
 65
     1
110
0.0
120
0.0
130
0.0
111
1.0
121
0.0
131
0.0
112
0.0
122
1.0
132
0.0
 79
     0
146
0.0
  0
ENDTAB
  0
TABLE
  2
LTYPE
  5
5
330
0
100
AcDbSymbolTable
 70
     6
  0
LTYPE
  5
14
330
5
100
AcDbSymbolTableRecord
100
AcDbLinetypeTableRecord
  2
ByBlock
 70
     0
  3

 72
    65
 73
     0
 40
0.0
  0
LTYPE
  5
15
330
5
100
AcDbSymbolTableRecord
100
AcDbLinetypeTableRecord
  2
ByLayer
 70
     0
  3

 72
    65
 73
     0
 40
0.0
  0
LTYPE
  5
16
330
5
100
AcDbSymbolTableRecord
100
AcDbLinetypeTableRecord
  2
Continuous
 70
     0
  3
Solid line
 72
    65
 73
     0
 40
0.0
  0
LTYPE
  5
6E
330
5
100
AcDbSymbolTableRecord
100
AcDbLinetypeTableRecord
  2
HIDDEN
 70
     0
  3
Hidden __ __ __ __ __ __ __ __ __ __ __ __ __ __
 72
    65
 73
     2
 40
1.905
 49
1.27
 74
     0
 49
-0.635
 74
     0
  0
LTYPE
  5
6F
330
5
100
AcDbSymbolTableRecord
100
AcDbLinetypeTableRecord
  2
PHANTOM
 70
     0
  3
Phantom ______  __  __  ______  __  __  ______
 72
    65
 73
     6
 40
12.7
 49
6.35
 74
     0
 49
-1.27
 74
     0
 49
1.27
 74
     0
 49
-1.27
 74
     0
 49
1.27
 74
     0
 49
-1.27
 74
     0
  0
LTYPE
  5
70
330
5
100
AcDbSymbolTableRecord
100
AcDbLinetypeTableRecord
  2
CENTER
 70
     0
  3
Center ____ _ ____ _ ____ _ ____ _ ____ _ ____
 72
    65
 73
     4
 40
10.16
 49
6.35
 74
     0
 49
-1.27
 74
     0
 49
1.27
 74
     0
 49
-1.27
 74
     0
  0
LTYPE
  5
71
330
5
100
AcDbSymbolTableRecord
100
AcDbLinetypeTableRecord
  2
CENTERX2
 70
     0
  3
Center (2x) ________  __  ________  __  _____
 72
    65
 73
     4
 40
20.32
 49
12.7
 74
     0
 49
-2.54
 74
     0
 49
2.54
 74
     0
 49
-2.54
 74
     0
  0
LTYPE
  5
72
330
5
100
AcDbSymbolTableRecord
100
AcDbLinetypeTableRecord
  2
DOT2
 70
     0
  3
Dot (.5x) ........................................
 72
    65
 73
     2
 40
0.635
 49
0.0
 74
     0
 49
-0.635
 74
     0
  0
ENDTAB
  0
TABLE
  2
LAYER
  5
2
330
0
100
AcDbSymbolTable
 70
     2
  0
LAYER
  5
10
330
2
100
AcDbSymbolTableRecord
100
AcDbLayerTableRecord
  2
0
 70
     0
 62
     7
  6
Continuous
370
    -3
390
F
  0
LAYER
  5
73
330
2
100
AcDbSymbolTableRecord
100
AcDbLayerTableRecord
  2
FORMAT
 70
     0
 62
     7
  6
Continuous
370
    -3
390
F
  0
ENDTAB
  0
TABLE
  2
STYLE
  5
3
330
0
100
AcDbSymbolTable
 70
     5
  0
STYLE
  5
11
330
3
100
AcDbSymbolTableRecord
100
AcDbTextStyleTableRecord
  2
Standard
 70
     0
 40
0.0
 41
1.0
 50
0.0
 71
     0
 42
2.8222222222
  3
txt
  4

  0
STYLE
  5
9D
330
3
100
AcDbSymbolTableRecord
100
AcDbTextStyleTableRecord
  2
SLDTEXTSTYLE0
 70
     0
 40
0.0
 41
0.75
 50
0.0
 71
     0
 42
2.8222222222
  3
TXT
  4

  0
STYLE
  5
A3
330
3
100
AcDbSymbolTableRecord
100
AcDbTextStyleTableRecord
  2
SLDTEXTSTYLE1
 70
     0
 40
0.0
 41
0.75
 50
0.0
 71
     0
 42
2.8222222222
  3
TXT
  4
bigfont
  0
STYLE
  5
B5
330
3
100
AcDbSymbolTableRecord
100
AcDbTextStyleTableRecord
  2
SLDTEXTSTYLE2
 70
     0
 40
0.0
 41
0.7
 50
0.0
 71
     0
 42
2.8222222222
  3
TXT
  4

  0
STYLE
  5
C4
330
3
100
AcDbSymbolTableRecord
100
AcDbTextStyleTableRecord
  2
SLDTEXTSTYLE3
 70
     0
 40
0.0
 41
0.6
 50
0.0
 71
     0
 42
2.8222222222
  3
TXT
  4

  0
ENDTAB
  0
TABLE
  2
VIEW
  5
6
330
0
100
AcDbSymbolTable
 70
     0
  0
ENDTAB
  0
TABLE
  2
UCS
  5
7
330
0
100
AcDbSymbolTable
 70
     0
  0
ENDTAB
  0
TABLE
  2
APPID
  5
9
330
0
100
AcDbSymbolTable
 70
     1
  0
APPID
  5
12
330
9
100
AcDbSymbolTableRecord
100
AcDbRegAppTableRecord
  2
ACAD
 70
     0
  0
ENDTAB
  0
TABLE
  2
DIMSTYLE
  5
A
330
0
100
AcDbSymbolTable
 70
     6
100
AcDbDimStyleTable
  0
DIMSTYLE
105
27
330
A
100
AcDbSymbolTableRecord
100
AcDbDimStyleTableRecord
  2
ISO-25
 70
     0
 41
2.5
 42
0.625
 43
3.75
 44
1.25
 73
     0
 74
     0
 77
     1
 78
     8
140
2.5
141
2.5
143
0.0393700787
147
0.625
171
     3
172
     1
178
     0
271
     2
272
     2
274
     3
278
    44
283
     0
284
     8
340
11
  0
DIMSTYLE
105
F3
102
{ACAD_REACTORS
330
F2
102
}
330
A
100
AcDbSymbolTableRecord
100
AcDbDimStyleTableRecord
  2
SLDDIMSTYLE0
 70
     0
 41
3.175
 44
0.0
 45
0.000000001
 78
    12
 79
     3
140
2.1166666667
141
0.0
143
0.0393700787
147
0.5291666667
148
0.000000001
170
     1
173
     1
178
     0
271
     1
272
     1
276
     2
284
    12
340
9D
  0
DIMSTYLE
105
11C
102
{ACAD_REACTORS
330
11B
102
}
330
A
100
AcDbSymbolTableRecord
100
AcDbDimStyleTableRecord
  2
SLDDIMSTYLE1
 70
     0
 41
3.175
 44
0.0
 45
0.000000001
 78
    12
 79
     3
140
2.1166666667
143
0.0393700787
147
0.5291666667
148
0.000000001
170
     1
172
     1
173
     1
178
     0
271
     1
272
     1
276
     2
284
    12
289
     0
340
9D
  0
DIMSTYLE
105
130
102
{ACAD_REACTORS
330
12F
102
}
330
A
100
AcDbSymbolTableRecord
100
AcDbDimStyleTableRecord
  2
SLDDIMSTYLE2
 70
     0
 41
3.175
 44
0.0
 45
0.000000001
 78
     4
 79
     1
140
2.1166666667
141
0.0
143
0.0393700787
147
0.5291666667
148
0.000000001
170
     1
173
     1
178
     0
271
     1
272
     1
276
     2
284
    12
340
9D
  0
DIMSTYLE
105
141
102
{ACAD_REACTORS
330
140
102
}
330
A
100
AcDbSymbolTableRecord
100
AcDbDimStyleTableRecord
  2
SLDDIMSTYLE3
 70
     0
 41
3.175
 44
0.0
 45
0.000000001
 78
     4
 79
     1
140
2.1166666667
143
0.0393700787
147
0.5291666667
148
0.000000001
170
     1
172
     1
173
     1
178
     0
271
     1
272
     1
276
     2
284
    12
289
     0
340
9D
  0
DIMSTYLE
105
157
330
A
100
AcDbSymbolTableRecord
100
AcDbDimStyleTableRecord
  2
SLDDIMSTYLE4
 70
     0
 41
3.175
 44
0.0
 45
0.000000001
146
3.175
147
0.0
173
     1
178
     0
271
     0
272
     0
276
     2
340
11
  0
ENDTAB
  0
TABLE
  2
BLOCK_RECORD
  5
1
330
0
100
AcDbSymbolTable
 70
    11
  0
BLOCK_RECORD
  5
1F
330
1
100
AcDbSymbolTableRecord
100
AcDbBlockTableRecord
  2
*Model_Space
340
22
  0
BLOCK_RECORD
  5
1B
330
1
100
AcDbSymbolTableRecord
100
AcDbBlockTableRecord
  2
*Paper_Space
340
1E
  0
BLOCK_RECORD
  5
23
330
1
100
AcDbSymbolTableRecord
100
AcDbBlockTableRecord
  2
*Paper_Space0
340
26
  0
BLOCK_RECORD
  5
74
330
1
100
AcDbSymbolTableRecord
100
AcDbBlockTableRecord
  2
Third Angle Projection Block
340
0
102
{BLKREFS
331
99
102
}
  0
BLOCK_RECORD
  5
9A
330
1
100
AcDbSymbolTableRecord
100
AcDbBlockTableRecord
  2
SW_NOTE_0
340
0
102
{BLKREFS
331
B8
102
}
  0
BLOCK_RECORD
  5
CA
330
1
100
AcDbSymbolTableRecord
100
AcDbBlockTableRecord
  2
SW_NOTE_1
340
0
102
{BLKREFS
331
CF
102
}
  0
BLOCK_RECORD
  5
D0
330
1
100
AcDbSymbolTableRecord
100
AcDbBlockTableRecord
  2
SW_NOTE_2
340
0
102
{BLKREFS
331
D5
102
}
  0
BLOCK_RECORD
  5
D7
330
1
100
AcDbSymbolTableRecord
100
AcDbBlockTableRecord
  2
SW_NOTE_3
340
0
102
{BLKREFS
331
DC
102
}
  0
BLOCK_RECORD
  5
DD
330
1
100
AcDbSymbolTableRecord
100
AcDbBlockTableRecord
  2
SW_NOTE_4
340
0
102
{BLKREFS
331
E3
102
}
  0
BLOCK_RECORD
  5
F4
330
1
100
AcDbSymbolTableRecord
100
AcDbBlockTableRecord
  2
_D
340
0
  0
BLOCK_RECORD
  5
11D
330
1
100
AcDbSymbolTableRecord
100
AcDbBlockTableRecord
  2
_D_1
340
0
  0
BLOCK_RECORD
  5
131
330
1
100
AcDbSymbolTableRecord
100
AcDbBlockTableRecord
  2
_D_2
340
0
  0
BLOCK_RECORD
  5
142
330
1
100
AcDbSymbolTableRecord
100
AcDbBlockTableRecord
  2
_D_3
340
0
  0
ENDTAB
  0
ENDSEC
  0
SECTION
  2
BLOCKS
  0
BLOCK
  5
20
330
1F
100
AcDbEntity
  8
0
100
AcDbBlockBegin
  2
*Model_Space
 70
     0
 10
0.0
 20
0.0
 30
0.0
  3
*Model_Space
  1

  0
ENDBLK
  5
21
330
1F
100
AcDbEntity
  8
0
100
AcDbBlockEnd
  0
BLOCK
  5
1C
330
1B
100
AcDbEntity
 67
     1
  8
0
100
AcDbBlockBegin
  2
*Paper_Space
 70
     0
 10
0.0
 20
0.0
 30
0.0
  3
*Paper_Space
  1

  0
ENDBLK
  5
1D
330
1B
100
AcDbEntity
 67
     1
  8
0
100
AcDbBlockEnd
  0
BLOCK
  5
24
330
23
100
AcDbEntity
  8
0
100
AcDbBlockBegin
  2
*Paper_Space0
 70
     0
 10
0.0
 20
0.0
 30
0.0
  3
*Paper_Space0
  1

  0
ENDBLK
  5
25
330
23
100
AcDbEntity
  8
0
100
AcDbBlockEnd
  0
BLOCK
  5
75
330
74
100
AcDbEntity
  8
0
100
AcDbBlockBegin
  2
Third Angle Projection Block
 70
     0
 10
0.0
 20
0.0
 30
0.0
  3
Third Angle Projection Block
  1

  0
CIRCLE
  5
77
330
74
100
AcDbEntity
  8
0
  6
Continuous
 62
     7
370
    35
100
AcDbCircle
 10
101.4766388944
 20
18.9404083667
 30
0.0
 40
1.768227153674871
  0
CIRCLE
  5
78
330
74
100
AcDbEntity
  8
0
  6
Continuous
 62
     7
370
    35
100
AcDbCircle
 10
101.4766388944
 20
18.9404083667
 30
0.0
 40
3.901228248531818
  0
LINE
  5
79
330
74
100
AcDbEntity
  8
0
  6
CENTERX2
 62
     7
370
    18
100
AcDbLine
 10
110.1367822585
 20
18.9404083667
 30
0.0
 11
119.4527334874
 21
18.9404083667
 31
0.0
  0
LINE
  5
7A
330
74
100
AcDbEntity
  8
0
  6
Continuous
 62
     7
370
    35
100
AcDbLine
 10
111.0016388944
 20
20.7086355204
 30
0.0
 11
111.0016388944
 21
17.172181213
 31
0.0
  0
LINE
  5
7B
330
74
100
AcDbEntity
  8
0
  6
Continuous
 62
     7
370
    35
100
AcDbLine
 10
111.0016388944
 20
17.172181213
 30
0.0
 11
118.6216388944
 21
15.1304083667
 31
0.0
  0
LINE
  5
7C
330
74
100
AcDbEntity
  8
0
  6
Continuous
 62
     7
370
    35
100
AcDbLine
 10
118.6216388944
 20
15.1304083667
 30
0.0
 11
118.6216388944
 21
22.7504083667
 31
0.0
  0
LINE
  5
7D
330
74
100
AcDbEntity
  8
0
  6
Continuous
 62
     7
370
    35
100
AcDbLine
 10
118.6216388944
 20
22.7504083667
 30
0.0
 11
111.0016388944
 21
20.7086355204
 31
0.0
  0
LINE
  5
7E
330
74
100
AcDbEntity
  8
0
  6
CENTERX2
 62
     7
370
    18
100
AcDbLine
 10
96.6025854619
 20
18.9404083667
 30
0.0
 11
106.3506923269
 21
18.9404083667
 31
0.0
  0
LINE
  5
7F
330
74
100
AcDbEntity
  8
0
  6
CENTERX2
 62
     7
370
    18
100
AcDbLine
 10
101.4766388944
 20
23.8144617992
 30
0.0
 11
101.4766388944
 21
14.0663549342
 31
0.0
  0
POINT
  5
80
330
74
100
AcDbEntity
  8
0
  6
Continuous
 62
     7
370
     0
100
AcDbPoint
 10
101.4766388944
 20
18.9404083667
 30
0.0
  0
ENDBLK
  5
76
330
74
100
AcDbEntity
  8
0
100
AcDbBlockEnd
  0
BLOCK
  5
9B
330
9A
100
AcDbEntity
  8
0
100
AcDbBlockBegin
  2
SW_NOTE_0
 70
     0
 10
0.0
 20
0.0
 30
0.0
  3
SW_NOTE_0
  1

  0
MTEXT
  5
9E
330
9A
100
AcDbEntity
  8
0
  6
Continuous
 62
     0
370
     0
100
AcDbMText
 10
0.0
 20
3.4106583948
 30
0.0
 40
2.6458333333
 41
0.0
 71
     1
 72
     1
  1
NOTES/SPECIFICATIONS:
  7
SLDTEXTSTYLE0
 73
     1
 44
1.0
  0
MTEXT
  5
9F
330
9A
100
AcDbEntity
  8
0
  6
Continuous
 62
     0
370
     0
100
AcDbMText
 10
9.9999997765
 20
-5.6448974033
 30
0.0
 40
2.6458333333
 41
0.0
 71
     1
 72
     1
  1
CLEAR APERTURE: >
  7
SLDTEXTSTYLE0
 73
     1
 44
1.0
  0
MTEXT
  5
A0
330
9A
100
AcDbEntity
  8
0
  6
Continuous
 62
     0
370
     0
100
AcDbMText
 10
42.7789334208
 20
-5.6448974033
 30
0.0
 40
2.6458333333
 41
0.0
 71
     1
 72
     1
  1
%%c
  7
SLDTEXTSTYLE0
 73
     1
 44
1.0
  0
MTEXT
  5
A1
330
9A
100
AcDbEntity
  8
0
  6
Continuous
 62
     0
370
     0
100
AcDbMText
 10
46.7726718634
 20
-5.6448974033
 30
0.0
 40
2.6458333333
 41
0.0
 71
     1
 72
     1
  1
45.72mm
  7
SLDTEXTSTYLE0
 73
     1
 44
1.0
  0
MTEXT
  5
A2
330
9A
100
AcDbEntity
  8
0
  6
Continuous
 62
     0
370
     0
100
AcDbMText
 10
0.0
 20
-5.6448974033
 30
0.0
 40
2.6458333333
 41
0.0
 71
     1
 72
     1
  1
1.
  7
SLDTEXTSTYLE0
 73
     1
 44
1.0
  0
MTEXT
  5
A4
330
9A
100
AcDbEntity
  8
0
  6
Continuous
 62
     0
370
     0
100
AcDbMText
 10
9.9999997765
 20
-10.1726753024
 30
0.0
 40
2.6458333333
 41
0.0
 71
     1
 72
     1
  1
SURFACE IRREGULARITY (S1): \U+2264\M+183C9/4 AT 633nm OVER CLEAR APERTURE
  7
SLDTEXTSTYLE1
 73
     1
 44
1.0
  0
MTEXT
  5
A5
330
9A
100
AcDbEntity
  8
0
  6
Continuous
 62
     0
370
     0
100
AcDbMText
 10
0.0
 20
-10.1726753024
 30
0.0
 40
2.6458333333
 41
0.0
 71
     1
 72
     1
  1
2.
  7
SLDTEXTSTYLE0
 73
     1
 44
1.0
  0
MTEXT
  5
A6
330
9A
100
AcDbEntity
  8
0
  6
Continuous
 62
     0
370
     0
100
AcDbMText
 10
9.9999997765
 20
-14.7004532014
 30
0.0
 40
2.6458333333
 41
0.0
 71
     1
 72
     1
  1
BACK SURFACE (S2): UNIFORM FINE GRIND #12-#20 GRIT
  7
SLDTEXTSTYLE0
 73
     1
 44
1.0
  0
MTEXT
  5
A7
330
9A
100
AcDbEntity
  8
0
  6
Continuous
 62
     0
370
     0
100
AcDbMText
 10
0.0
 20
-14.7004532014
 30
0.0
 40
2.6458333333
 41
0.0
 71
     1
 72
     1
  1
3.
  7
SLDTEXTSTYLE0
 73
     1
 44
1.0
  0
MTEXT
  5
A8
330
9A
100
AcDbEntity
  8
0
  6
Continuous
 62
     0
370
     0
100
AcDbMText
 10
9.9999997765
 20
-19.2282311005
 30
0.0
 40
2.6458333333
 41
0.0
 71
     1
 72
     1
  1
SURFACE QUALITY(S1): 40-20 SCRATCH-DIG
  7
SLDTEXTSTYLE0
 73
     1
 44
1.0
  0
MTEXT
  5
A9
330
9A
100
AcDbEntity
  8
0
  6
Continuous
 62
     0
370
     0
100
AcDbMText
 10
0.0
 20
-19.2282311005
 30
0.0
 40
2.6458333333
 41
0.0
 71
     1
 72
     1
  1
4.
  7
SLDTEXTSTYLE0
 73
     1
 44
1.0
  0
MTEXT
  5
AA
330
9A
100
AcDbEntity
  8
0
  6
Continuous
 62
     0
370
     0
100
AcDbMText
 10
9.9999997765
 20
-23.7560089995
 30
0.0
 40
2.6458333333
 41
0.0
 71
     1
 72
     1
  1
THICKNESS TOLERANCE:
  7
SLDTEXTSTYLE0
 73
     1
 44
1.0
  0
MTEXT
  5
AB
330
9A
100
AcDbEntity
  8
0
  6
Continuous
 62
     0
370
     0
100
AcDbMText
 10
50.8242268115
 20
-23.7560089995
 30
0.0
 40
2.6458333333
 41
0.0
 71
     1
 72
     1
  1
%%p
  7
SLDTEXTSTYLE0
 73
     1
 44
1.0
  0
MTEXT
  5
AC
330
9A
100
AcDbEntity
  8
0
  6
Continuous
 62
     0
370
     0
100
AcDbMText
 10
53.3465910703
 20
-23.7560089995
 30
0.0
 40
2.6458333333
 41
0.0
 71
     1
 72
     1
  1
0.1 mm
  7
SLDTEXTSTYLE0
 73
     1
 44
1.0
  0
MTEXT
  5
AD
330
9A
100
AcDbEntity
  8
0
  6
Continuous
 62
     0
370
     0
100
AcDbMText
 10
0.0
 20
-23.7560089995
 30
0.0
 40
2.6458333333
 41
0.0
 71
     1
 72
     1
  1
5.
  7
SLDTEXTSTYLE0
 73
     1
 44
1.0
  0
MTEXT
  5
AE
330
9A
100
AcDbEntity
  8
0
  6
Continuous
 62
     0
370
     0
100
AcDbMText
 10
9.9999997765
 20
-28.2837868986
 30
0.0
 40
2.6458333333
 41
0.0
 71
     1
 72
     1
  1
DIAMETER TOLERANCE: +0.0/-0.2 mm
  7
SLDTEXTSTYLE0
 73
     1
 44
1.0
  0
MTEXT
  5
AF
330
9A
100
AcDbEntity
  8
0
  6
Continuous
 62
     0
370
     0
100
AcDbMText
 10
0.0
 20
-28.2837868986
 30
0.0
 40
2.6458333333
 41
0.0
 71
     1
 72
     1
  1
6.
  7
SLDTEXTSTYLE0
 73
     1
 44
1.0
  0
MTEXT
  5
B0
330
9A
100
AcDbEntity
  8
0
  6
Continuous
 62
     0
370
     0
100
AcDbMText
 10
9.9999997765
 20
-32.8115647976
 30
0.0
 40
2.6458333333
 41
0.0
 71
     1
 72
     1
  1
COATING(S1): PROTECTED GOLD
  7
SLDTEXTSTYLE0
 73
     1
 44
1.0
  0
MTEXT
  5
B1
330
9A
100
AcDbEntity
  8
0
  6
Continuous
 62
     0
370
     0
100
AcDbMText
 10
0.0
 20
-32.8115647976
 30
0.0
 40
2.6458333333
 41
0.0
 71
     1
 72
     1
  1
7.
  7
SLDTEXTSTYLE0
 73
     1
 44
1.0
  0
MTEXT
  5
B2
330
9A
100
AcDbEntity
  8
0
  6
Continuous
 62
     0
370
     0
100
AcDbMText
 10
34.9609375
 20
-37.3393426967
 30
0.0
 40
2.6458333333
 41
0.0
 71
     1
 72
     1
  1
Ravg: >96% FROM 800nm-20\M+183CAm
  7
SLDTEXTSTYLE1
 73
     1
 44
1.0
  0
MTEXT
  5
B3
330
9A
100
AcDbEntity
  8
0
  6
Continuous
 62
     0
370
     0
100
AcDbMText
 10
34.9609375
 20
-41.8671205958
 30
0.0
 40
2.6458333333
 41
0.0
 71
     1
 72
     1
  1
AOI: 0
  7
SLDTEXTSTYLE0
 73
     1
 44
1.0
  0
MTEXT
  5
B4
330
9A
100
AcDbEntity
  8
0
  6
Continuous
 62
     0
370
     0
100
AcDbMText
 10
45.2576388791
 20
-41.8671205958
 30
0.0
 40
2.6458333333
 41
0.0
 71
     1
 72
     1
  1
%%d
  7
SLDTEXTSTYLE0
 73
     1
 44
1.0
  0
MTEXT
  5
B6
330
9A
100
AcDbEntity
  8
0
  6
Continuous
 62
     0
370
     0
100
AcDbMText
 10
47.9314009994
 20
-41.8671205958
 30
0.0
 40
2.6458333333
 41
0.0
 71
     1
 72
     1
  1
TO 45
  7
SLDTEXTSTYLE2
 73
     1
 44
1.0
  0
MTEXT
  5
B7
330
9A
100
AcDbEntity
  8
0
  6
Continuous
 62
     0
370
     0
100
AcDbMText
 10
57.3706559092
 20
-41.8671205958
 30
0.0
 40
2.6458333333
 41
0.0
 71
     1
 72
     1
  1
%%d
  7
SLDTEXTSTYLE0
 73
     1
 44
1.0
  0
ENDBLK
  5
9C
330
9A
100
AcDbEntity
  8
0
100
AcDbBlockEnd
  0
BLOCK
  5
CB
330
CA
100
AcDbEntity
  8
0
100
AcDbBlockBegin
  2
SW_NOTE_1
 70
     0
 10
0.0
 20
0.0
 30
0.0
  3
SW_NOTE_1
  1

  0
MTEXT
  5
CD
330
CA
100
AcDbEntity
  8
0
  6
Continuous
 62
     0
370
     0
100
AcDbMText
 10
19.90725
 20
1.9645392354
 30
0.0
 40
1.524
 41
0.0
 71
     2
 72
     1
  1
VALUES IN PARENTHESIS ARE CALCULATED
  7
SLDTEXTSTYLE0
 73
     1
 44
1.0
  0
MTEXT
  5
CE
330
CA
100
AcDbEntity
  8
0
  6
Continuous
 62
     0
370
     0
100
AcDbMText
 10
19.8778795174
 20
-0.5594606586
 30
0.0
 40
1.524
 41
0.0
 71
     2
 72
     1
  1
AND MAY CONTAIN ROUNDOFF ERRORS
  7
SLDTEXTSTYLE0
 73
     1
 44
1.0
  0
ENDBLK
  5
CC
330
CA
100
AcDbEntity
  8
0
100
AcDbBlockEnd
  0
BLOCK
  5
D1
330
D0
100
AcDbEntity
  8
0
100
AcDbBlockBegin
  2
SW_NOTE_2
 70
     0
 10
0.0
 20
0.0
 30
0.0
  3
SW_NOTE_2
  1

  0
MTEXT
  5
D3
330
D0
100
AcDbEntity
  8
0
  6
Continuous
 62
     0
370
     0
100
AcDbMText
 10
0.0
 20
2.7285267159
 30
0.0
 40
2.1166666667
 41
0.0
 71
     1
 72
     1
  1
DRAWING
  7
SLDTEXTSTYLE0
 73
     1
 44
1.0
  0
MTEXT
  5
D4
330
D0
100
AcDbEntity
  8
0
  6
Continuous
 62
     0
370
     0
100
AcDbMText
 10
0.0
 20
-0.0936954723
 30
0.0
 40
2.1166666667
 41
0.0
 71
     1
 72
     1
  1
PROJECTION
  7
SLDTEXTSTYLE0
 73
     1
 44
1.0
  0
ENDBLK
  5
D2
330
D0
100
AcDbEntity
  8
0
100
AcDbBlockEnd
  0
BLOCK
  5
D8
330
D7
100
AcDbEntity
  8
0
100
AcDbBlockBegin
  2
SW_NOTE_3
 70
     0
 10
0.0
 20
0.0
 30
0.0
  3
SW_NOTE_3
  1

  0
MTEXT
  5
DA
330
D7
100
AcDbEntity
  8
0
  6
Continuous
 62
     0
370
     0
100
AcDbMText
 10
25.052734375
 20
4.0927900738
 30
0.0
 40
3.175
 41
0.0
 71
     2
 72
     1
  1
FOR INFORMATION ONLY
  7
SLDTEXTSTYLE0
 73
     1
 44
1.0
  0
MTEXT
  5
DB
330
D7
100
AcDbEntity
  8
0
  6
Continuous
 62
     0
370
     0
100
AcDbMText
 10
25.3768468589
 20
-0.1405432084
 30
0.0
 40
3.175
 41
0.0
 71
     2
 72
     1
  1
NOT FOR MANUFACTURING PURPOSES
  7
SLDTEXTSTYLE0
 73
     1
 44
1.0
  0
ENDBLK
  5
D9
330
D7
100
AcDbEntity
  8
0
100
AcDbBlockEnd
  0
BLOCK
  5
DE
330
DD
100
AcDbEntity
  8
0
100
AcDbBlockBegin
  2
SW_NOTE_4
 70
     0
 10
0.0
 20
0.0
 30
0.0
  3
SW_NOTE_4
  1

  0
MTEXT
  5
E0
330
DD
100
AcDbEntity
  8
0
  6
Continuous
 62
     0
370
     0
100
AcDbMText
 10
1.9016927083
 20
3.4106583948
 30
0.0
 40
2.6458333333
 41
0.0
 71
     2
 72
     1
  1
%%c
  7
SLDTEXTSTYLE0
 73
     1
 44
1.0
  0
MTEXT
  5
E1
330
DD
100
AcDbEntity
  8
0
  6
Continuous
 62
     0
370
     0
100
AcDbMText
 10
28.5917202135
 20
3.4106583948
 30
0.0
 40
2.6458333333
 41
0.0
 71
     2
 72
     1
  1
50.8mm, f=500mm CONCAVE
  7
SLDTEXTSTYLE0
 73
     1
 44
1.0
  0
MTEXT
  5
E2
330
DD
100
AcDbEntity
  8
0
  6
Continuous
 62
     0
370
     0
100
AcDbMText
 10
26.9197624127
 20
-0.1171193403
 30
0.0
 40
2.6458333333
 41
0.0
 71
     2
 72
     1
  1
PROTECTED GOLD MIRROR
  7
SLDTEXTSTYLE0
 73
     1
 44
1.0
  0
ENDBLK
  5
DF
330
DD
100
AcDbEntity
  8
0
100
AcDbBlockEnd
  0
BLOCK
  5
F5
330
F4
100
AcDbEntity
  8
0
100
AcDbBlockBegin
  2
_D
 70
     0
 10
0.0
 20
0.0
 30
0.0
  3
_D
  1

  0
SOLID
  5
F7
330
F4
100
AcDbEntity
  8
0
  6
Continuous
 62
     7
370
    18
100
AcDbTrace
 10
72.1921294555
 20
137.6520430393
 30
0.0
 11
74.7964037307
 21
139.5378968247
 31
0.0
 12
74.077983241
 22
140.2563173144
 32
0.0
 13
74.077983241
 23
140.2563173144
 33
0.0
  0
LINE
  5
F8
330
F4
100
AcDbEntity
  8
0
  6
Continuous
 62
     7
370
    18
100
AcDbLine
 10
90.8293438092
 20
149.6205096447
 30
0.0
 11
90.185524355
 21
149.6205096447
 31
0.0
  0
LINE
  5
F9
330
F4
100
AcDbEntity
  8
0
  6
Continuous
 62
     7
370
    18
100
AcDbLine
 10
90.185524355
 20
149.6205096447
 30
0.0
 11
90.185524355
 21
146.2573615682
 31
0.0
  0
LINE
  5
FA
330
F4
100
AcDbEntity
  8
0
  6
Continuous
 62
     7
370
    18
100
AcDbLine
 10
90.185524355
 20
146.2573615682
 30
0.0
 11
90.8293438092
 21
146.2573615682
 31
0.0
  0
LINE
  5
FB
330
F4
100
AcDbEntity
  8
0
  6
Continuous
 62
     7
370
    18
100
AcDbLine
 10
98.5865353554
 20
149.6205096447
 30
0.0
 11
99.2303548096
 21
149.6205096447
 31
0.0
  0
LINE
  5
FC
330
F4
100
AcDbEntity
  8
0
  6
Continuous
 62
     7
370
    18
100
AcDbLine
 10
99.2303548096
 20
149.6205096447
 30
0.0
 11
99.2303548096
 21
146.2573615682
 31
0.0
  0
LINE
  5
FD
330
F4
100
AcDbEntity
  8
0
  6
Continuous
 62
     7
370
    18
100
AcDbLine
 10
99.2303548096
 20
146.2573615682
 30
0.0
 11
98.5865353554
 21
146.2573615682
 31
0.0
  0
LINE
  5
FE
330
F4
100
AcDbEntity
  8
0
  6
Continuous
 62
     7
370
    18
100
AcDbLine
 10
72.1921294555
 20
137.6520430393
 30
0.0
 11
85.7317049009
 21
151.1916184847
 31
0.0
  0
LINE
  5
FF
330
F4
100
AcDbEntity
  8
0
  6
Continuous
 62
     7
370
    18
100
AcDbLine
 10
85.7317049009
 20
151.1916184847
 30
0.0
 11
89.5417049009
 21
151.1916184847
 31
0.0
  0
MTEXT
  5
100
330
F4
100
AcDbEntity
  8
0
  6
Continuous
 62
     7
370
    18
100
AcDbMText
 10
89.5417049009
 20
152.7782492911
 30
0.0
 40
2.1166666667
 41
0.0
 71
     1
 72
     1
  1
%%c
  7
SLDTEXTSTYLE0
 73
     1
 44
1.0
  0
MTEXT
  5
101
330
F4
100
AcDbEntity
  8
0
  6
Continuous
 62
     7
370
    18
100
AcDbMText
 10
92.7366957016
 20
152.7782492911
 30
0.0
 40
2.1166666667
 41
0.0
 71
     1
 72
     1
  1
50.8mm
  7
SLDTEXTSTYLE0
 73
     1
 44
1.0
  0
MTEXT
  5
102
330
F4
100
AcDbEntity
  8
0
  6
Continuous
 62
     7
370
    18
100
AcDbMText
 10
90.8293438092
 20
148.9858881676
 30
0.0
 40
2.1166666667
 41
0.0
 71
     1
 72
     1
  1
2.00in
  7
SLDTEXTSTYLE0
 73
     1
 44
1.0
  0
ENDBLK
  5
F6
330
F4
100
AcDbEntity
  8
0
100
AcDbBlockEnd
  0
BLOCK
  5
11E
330
11D
100
AcDbEntity
  8
0
100
AcDbBlockBegin
  2
_D_1
 70
     0
 10
0.0
 20
0.0
 30
0.0
  3
_D_1
  1

  0
SOLID
  5
120
330
11D
100
AcDbEntity
  8
0
  6
Continuous
 62
     7
370
    18
100
AcDbTrace
 10
135.0155433266
 20
157.7505858929
 30
0.0
 11
131.8408129454
 21
158.2602681536
 31
0.0
 12
131.8402745992
 22
157.2442682962
 32
0.0
 13
131.8402745992
 23
157.2442682962
 33
0.0
  0
SOLID
  5
121
330
11D
100
AcDbEntity
  8
0
  6
Continuous
 62
     7
370
    18
100
AcDbTrace
 10
144.3332382098
 20
157.7456487408
 30
0.0
 11
147.507968591
 21
157.2359664802
 31
0.0
 12
147.5085069372
 22
158.2519663376
 32
0.0
 13
147.5085069372
 23
158.2519663376
 33
0.0
  0
LINE
  5
122
330
11D
100
AcDbEntity
  8
0
  6
Continuous
 62
     7
370
    18
100
AcDbLine
 10
156.9865473816
 20
157.7354650222
 30
0.0
 11
156.3427279275
 21
157.7354650222
 31
0.0
  0
LINE
  5
123
330
11D
100
AcDbEntity
  8
0
  6
Continuous
 62
     7
370
    18
100
AcDbLine
 10
156.3427279275
 20
157.7354650222
 30
0.0
 11
156.3427279275
 21
154.3723169458
 31
0.0
  0
LINE
  5
124
330
11D
100
AcDbEntity
  8
0
  6
Continuous
 62
     7
370
    18
100
AcDbLine
 10
156.3427279275
 20
154.3723169458
 30
0.0
 11
156.9865473816
 21
154.3723169458
 31
0.0
  0
LINE
  5
125
330
11D
100
AcDbEntity
  8
0
  6
Continuous
 62
     7
370
    18
100
AcDbLine
 10
164.7437389279
 20
157.7354650222
 30
0.0
 11
165.387558382
 21
157.7354650222
 31
0.0
  0
LINE
  5
126
330
11D
100
AcDbEntity
  8
0
  6
Continuous
 62
     7
370
    18
100
AcDbLine
 10
165.387558382
 20
157.7354650222
 30
0.0
 11
165.387558382
 21
154.3723169458
 31
0.0
  0
LINE
  5
127
330
11D
100
AcDbEntity
  8
0
  6
Continuous
 62
     7
370
    18
100
AcDbLine
 10
165.387558382
 20
154.3723169458
 30
0.0
 11
164.7437389279
 21
154.3723169458
 31
0.0
  0
LINE
  5
128
330
11D
100
AcDbEntity
  8
0
  6
Continuous
 62
     7
370
    18
100
AcDbLine
 10
135.0094052684
 20
146.166467771
 30
0.0
 11
135.0164854325
 21
159.5285856434
 31
0.0
  0
LINE
  5
129
330
11D
100
AcDbEntity
  8
0
  6
Continuous
 62
     7
370
    18
100
AcDbLine
 10
144.3271001517
 20
146.1615306189
 30
0.0
 11
144.3341803157
 21
159.5236484912
 31
0.0
  0
LINE
  5
12A
330
11D
100
AcDbEntity
  8
0
  6
Continuous
 62
     7
370
    18
100
AcDbLine
 10
135.0155433266
 20
157.7505858929
 30
0.0
 11
128.665544218
 21
157.7539505568
 31
0.0
  0
LINE
  5
12B
330
11D
100
AcDbEntity
  8
0
  6
Continuous
 62
     7
370
    18
100
AcDbLine
 10
144.3332382098
 20
157.7456487408
 30
0.0
 11
155.2693949907
 21
157.7398540169
 31
0.0
  0
MTEXT
  5
12C
330
11D
100
AcDbEntity
  8
0
  6
Continuous
 62
     7
370
    18
100
AcDbMText
 10
156.2653127862
 20
160.8932046687
 30
0.0
 40
2.1166666667
 41
0.0
 71
     1
 72
     1
  1
9.3mm
  7
SLDTEXTSTYLE0
 73
     1
 44
1.0
  0
MTEXT
  5
12D
330
11D
100
AcDbEntity
  8
0
  6
Continuous
 62
     7
370
    18
100
AcDbMText
 10
156.9865473816
 20
157.1008435452
 30
0.0
 40
2.1166666667
 41
0.0
 71
     1
 72
     1
  1
0.37in
  7
SLDTEXTSTYLE0
 73
     1
 44
1.0
  0
MTEXT
  5
12E
330
11D
100
AcDbEntity
  8
0
  6
Continuous
 62
     7
370
    18
100
AcDbMText
 10
166.8251273705
 20
160.8932046687
 30
0.0
 40
2.1166666667
 41
0.0
 71
     1
 72
     1
  1
REF
  7
SLDTEXTSTYLE0
 73
     1
 44
1.0
  0
ENDBLK
  5
11F
330
11D
100
AcDbEntity
  8
0
100
AcDbBlockEnd
  0
BLOCK
  5
132
330
131
100
AcDbEntity
  8
0
100
AcDbBlockBegin
  2
_D_2
 70
     0
 10
0.0
 20
0.0
 30
0.0
  3
_D_2
  1

  0
ARC
  5
134
330
131
100
AcDbEntity
  8
0
  6
Continuous
 62
     7
370
    18
100
AcDbCircle
 10
-864.6736048164
 20
119.6915307972
 30
0.0
 40
1000.000032035271
100
AcDbArc
 50
357.9363766017
 51
358.482944975
  0
SOLID
  5
135
330
131
100
AcDbEntity
  8
0
  6
Continuous
 62
     7
370
    18
100
AcDbTrace
 10
134.7403290529
 20
85.459194352
 30
0.0
 11
137.8960781649
 21
84.8428044252
 31
0.0
 12
137.9308582176
 22
85.8582089494
 32
0.0
 13
137.9308582176
 23
85.8582089494
 33
0.0
  0
LINE
  5
136
330
131
100
AcDbEntity
  8
0
  6
Continuous
 62
     7
370
    18
100
AcDbLine
 10
156.1545795131
 20
83.3292022331
 30
0.0
 11
155.510760059
 21
83.3292022331
 31
0.0
  0
LINE
  5
137
330
131
100
AcDbEntity
  8
0
  6
Continuous
 62
     7
370
    18
100
AcDbLine
 10
155.510760059
 20
83.3292022331
 30
0.0
 11
155.510760059
 21
79.9660541567
 31
0.0
  0
LINE
  5
138
330
131
100
AcDbEntity
  8
0
  6
Continuous
 62
     7
370
    18
100
AcDbLine
 10
155.510760059
 20
79.9660541567
 30
0.0
 11
156.1545795131
 21
79.9660541567
 31
0.0
  0
LINE
  5
139
330
131
100
AcDbEntity
  8
0
  6
Continuous
 62
     7
370
    18
100
AcDbLine
 10
165.4757531661
 20
83.3292022331
 30
0.0
 11
166.1195726203
 21
83.3292022331
 31
0.0
  0
LINE
  5
13A
330
131
100
AcDbEntity
  8
0
  6
Continuous
 62
     7
370
    18
100
AcDbLine
 10
166.1195726203
 20
83.3292022331
 30
0.0
 11
166.1195726203
 21
79.9660541567
 31
0.0
  0
LINE
  5
13B
330
131
100
AcDbEntity
  8
0
  6
Continuous
 62
     7
370
    18
100
AcDbLine
 10
166.1195726203
 20
79.9660541567
 30
0.0
 11
165.4757531661
 21
79.9660541567
 31
0.0
  0
LINE
  5
13C
330
131
100
AcDbEntity
  8
0
  6
Continuous
 62
     7
370
    18
100
AcDbLine
 10
134.7403290529
 20
85.459194352
 30
0.0
 11
151.0569406049
 21
84.9003110732
 31
0.0
  0
LINE
  5
13D
330
131
100
AcDbEntity
  8
0
  6
Continuous
 62
     7
370
    18
100
AcDbLine
 10
151.0569406049
 20
84.9003110732
 30
0.0
 11
154.8669406049
 21
84.9003110732
 31
0.0
  0
MTEXT
  5
13E
330
131
100
AcDbEntity
  8
0
  6
Continuous
 62
     7
370
    18
100
AcDbMText
 10
154.8669406049
 20
86.4869418796
 30
0.0
 40
2.1166666667
 41
0.0
 71
     1
 72
     1
  1
R1000.0mm
  7
SLDTEXTSTYLE0
 73
     1
 44
1.0
  0
MTEXT
  5
13F
330
131
100
AcDbEntity
  8
0
  6
Continuous
 62
     7
370
    18
100
AcDbMText
 10
156.1545795131
 20
82.6945807561
 30
0.0
 40
2.1166666667
 41
0.0
 71
     1
 72
     1
  1
39.37in
  7
SLDTEXTSTYLE0
 73
     1
 44
1.0
  0
ENDBLK
  5
133
330
131
100
AcDbEntity
  8
0
100
AcDbBlockEnd
  0
BLOCK
  5
143
330
142
100
AcDbEntity
  8
0
100
AcDbBlockBegin
  2
_D_3
 70
     0
 10
0.0
 20
0.0
 30
0.0
  3
_D_3
  1

  0
SOLID
  5
145
330
142
100
AcDbEntity
  8
0
  6
Continuous
 62
     7
370
    18
100
AcDbTrace
 10
144.3264272189
 20
148.9369812196
 30
0.0
 11
147.5014272189
 21
148.4289812196
 31
0.0
 12
147.5014272189
 22
149.4449812196
 32
0.0
 13
147.5014272189
 23
149.4449812196
 33
0.0
  0
SOLID
  5
146
330
142
100
AcDbEntity
  8
0
  6
Continuous
 62
     7
370
    18
100
AcDbTrace
 10
135.3264272189
 20
148.9369812196
 30
0.0
 11
132.1514272189
 21
149.4449812196
 31
0.0
 12
132.1514272189
 22
148.4289812196
 32
0.0
 13
132.1514272189
 23
148.4289812196
 33
0.0
  0
LINE
  5
147
330
142
100
AcDbEntity
  8
0
  6
Continuous
 62
     7
370
    18
100
AcDbLine
 10
156.4478312129
 20
148.9369809868
 30
0.0
 11
155.8040117588
 21
148.9369809868
 31
0.0
  0
LINE
  5
148
330
142
100
AcDbEntity
  8
0
  6
Continuous
 62
     7
370
    18
100
AcDbLine
 10
155.8040117588
 20
148.9369809868
 30
0.0
 11
155.8040117588
 21
145.5738329103
 31
0.0
  0
LINE
  5
149
330
142
100
AcDbEntity
  8
0
  6
Continuous
 62
     7
370
    18
100
AcDbLine
 10
155.8040117588
 20
145.5738329103
 30
0.0
 11
156.4478312129
 21
145.5738329103
 31
0.0
  0
LINE
  5
14A
330
142
100
AcDbEntity
  8
0
  6
Continuous
 62
     7
370
    18
100
AcDbLine
 10
164.2050227592
 20
148.9369809868
 30
0.0
 11
164.8488422133
 21
148.9369809868
 31
0.0
  0
LINE
  5
14B
330
142
100
AcDbEntity
  8
0
  6
Continuous
 62
     7
370
    18
100
AcDbLine
 10
164.8488422133
 20
148.9369809868
 30
0.0
 11
164.8488422133
 21
145.5738329103
 31
0.0
  0
LINE
  5
14C
330
142
100
AcDbEntity
  8
0
  6
Continuous
 62
     7
370
    18
100
AcDbLine
 10
164.8488422133
 20
145.5738329103
 30
0.0
 11
164.2050227592
 21
145.5738329103
 31
0.0
  0
LINE
  5
14D
330
142
100
AcDbEntity
  8
0
  6
Continuous
 62
     7
370
    18
100
AcDbLine
 10
144.3264272189
 20
146.1615307972
 30
0.0
 11
144.3264272189
 21
150.7149812196
 31
0.0
  0
LINE
  5
14E
330
142
100
AcDbEntity
  8
0
  6
Continuous
 62
     7
370
    18
100
AcDbLine
 10
135.3264272189
 20
120.9615307972
 30
0.0
 11
135.3264272189
 21
150.7149812196
 31
0.0
  0
LINE
  5
14F
330
142
100
AcDbEntity
  8
0
  6
Continuous
 62
     7
370
    18
100
AcDbLine
 10
144.3264272189
 20
148.9369812196
 30
0.0
 11
153.1706171176
 21
148.9369812196
 31
0.0
  0
LINE
  5
150
330
142
100
AcDbEntity
  8
0
  6
Continuous
 62
     7
370
    18
100
AcDbLine
 10
135.3264272189
 20
148.9369812196
 30
0.0
 11
128.9764272189
 21
148.9369812196
 31
0.0
  0
MTEXT
  5
151
330
142
100
AcDbEntity
  8
0
  6
Continuous
 62
     7
370
    18
100
AcDbMText
 10
155.1876306003
 20
152.0947206332
 30
0.0
 40
2.1166666667
 41
0.0
 71
     1
 72
     1
  1

  7
SLDTEXTSTYLE0
 73
     1
 44
1.0
  0
MTEXT
  5
152
330
142
100
AcDbEntity
  8
0
  6
Continuous
 62
     7
370
    18
100
AcDbMText
 10
155.7265966175
 20
152.0947206332
 30
0.0
 40
2.1166666667
 41
0.0
 71
     1
 72
     1
  1
9.0mm
  7
SLDTEXTSTYLE0
 73
     1
 44
1.0
  0
MTEXT
  5
153
330
142
100
AcDbEntity
  8
0
  6
Continuous
 62
     7
370
    18
100
AcDbMText
 10
156.4478312129
 20
148.3023595097
 30
0.0
 40
2.1166666667
 41
0.0
 71
     1
 72
     1
  1
0.35in
  7
SLDTEXTSTYLE0
 73
     1
 44
1.0
  0
MTEXT
  5
154
330
142
100
AcDbEntity
  8
0
  6
Continuous
 62
     7
370
    18
100
AcDbMText
 10
167.0801616674
 20
152.0947206332
 30
0.0
 40
2.1166666667
 41
0.0
 71
     1
 72
     1
  1

  7
SLDTEXTSTYLE0
 73
     1
 44
1.0
  0
ENDBLK
  5
144
330
142
100
AcDbEntity
  8
0
100
AcDbBlockEnd
  0
ENDSEC
  0
SECTION
  2
ENTITIES
  0
LINE
  5
81
330
1F
100
AcDbEntity
  8
0
  6
Continuous
 62
     7
370
    18
100
AcDbLine
 10
1.5793501011
 20
214.6453799966
 30
0.0
 11
277.9892068491
 21
214.6453799966
 31
0.0
  0
LINE
  5
82
330
1F
100
AcDbEntity
  8
0
  6
Continuous
 62
     7
370
    18
100
AcDbLine
 10
1.5793501011
 20
214.6453799966
 30
0.0
 11
1.5793501011
 21
0.9031642596
 31
0.0
  0
LINE
  5
83
330
1F
100
AcDbEntity
  8
0
  6
Continuous
 62
     7
370
    18
100
AcDbLine
 10
277.9892068491
 20
0.9031642596
 30
0.0
 11
1.5793501011
 21
0.9031642596
 31
0.0
  0
LINE
  5
84
330
1F
100
AcDbEntity
  8
0
  6
Continuous
 62
     7
370
    18
100
AcDbLine
 10
277.9892068491
 20
0.9031642596
 30
0.0
 11
277.9892068491
 21
214.6453799966
 31
0.0
  0
LINE
  5
85
330
1F
100
AcDbEntity
  8
0
  6
Continuous
 62
     7
370
    18
100
AcDbLine
 10
215.7427640041
 20
12.2958890132
 30
0.0
 11
171.6327596684
 21
12.2958890132
 31
0.0
  0
LINE
  5
86
330
1F
100
AcDbEntity
  8
0
  6
Continuous
 62
     7
370
    18
100
AcDbLine
 10
171.6327596684
 20
12.2958890132
 30
0.0
 11
171.6327596684
 21
26.1661402506
 31
0.0
  0
LINE
  5
87
330
1F
100
AcDbEntity
  8
0
  6
Continuous
 62
     7
370
    18
100
AcDbLine
 10
171.6327596684
 20
0.9031642596
 30
0.0
 11
171.6327596684
 21
26.1661402506
 31
0.0
  0
LINE
  5
88
330
1F
100
AcDbEntity
  8
0
  6
Continuous
 62
     7
370
    18
100
AcDbLine
 10
215.7427640041
 20
17.1604579552
 30
0.0
 11
277.9892068491
 21
17.1604579552
 31
0.0
  0
LINE
  5
89
330
1F
100
AcDbEntity
  8
0
  6
Continuous
 62
     7
370
    18
100
AcDbLine
 10
215.7427640041
 20
35.2394508358
 30
0.0
 11
215.7427640041
 21
0.9031642596
 31
0.0
  0
LINE
  5
8A
330
1F
100
AcDbEntity
  8
0
  6
Continuous
 62
     7
370
    18
100
AcDbLine
 10
215.7427640041
 20
26.1661402506
 30
0.0
 11
171.6327596684
 21
26.1661402506
 31
0.0
  0
LINE
  5
8B
330
1F
100
AcDbEntity
  8
0
  6
Continuous
 62
     7
370
    18
100
AcDbLine
 10
215.7427640041
 20
9.1409200612
 30
0.0
 11
277.9892068491
 21
9.1409200612
 31
0.0
  0
LINE
  5
8C
330
1F
100
AcDbEntity
  8
0
  6
Continuous
 62
     7
370
    18
100
AcDbLine
 10
215.7427640041
 20
16.9216824031
 30
0.0
 11
171.6327596684
 21
16.9216824031
 31
0.0
  0
LINE
  5
8D
330
1F
100
AcDbEntity
  8
0
  6
Continuous
 62
     7
370
    18
100
AcDbLine
 10
215.7427640041
 20
21.4874005542
 30
0.0
 11
171.6327596684
 21
21.4874005542
 31
0.0
  0
LINE
  5
8E
330
1F
100
AcDbEntity
  8
0
  6
Continuous
 62
     7
370
    18
100
AcDbLine
 10
186.1338100705
 20
26.1661402506
 30
0.0
 11
186.1338100705
 21
12.2958890132
 31
0.0
  0
LINE
  5
8F
330
1F
100
AcDbEntity
  8
0
  6
Continuous
 62
     7
370
    18
100
AcDbLine
 10
198.2145906188
 20
26.1661402506
 30
0.0
 11
198.2145906188
 21
12.2958890132
 31
0.0
  0
LINE
  5
90
330
1F
100
AcDbEntity
  8
0
  6
Continuous
 62
     7
370
    18
100
AcDbLine
 10
253.7490408369
 20
9.1409200612
 30
0.0
 11
253.7490408369
 21
0.9031642596
 31
0.0
  0
LINE
  5
91
330
1F
100
AcDbEntity
  8
0
  6
Continuous
 62
     7
370
    18
100
AcDbLine
 10
171.6327596684
 20
12.2958890132
 30
0.0
 11
171.6327596684
 21
7.5627342528
 31
0.0
  0
LINE
  5
92
330
1F
100
AcDbEntity
  8
0
  6
Continuous
 62
     7
370
    18
100
AcDbLine
 10
171.6327596684
 20
7.5627342528
 30
0.0
 11
215.7427640041
 21
7.5627342528
 31
0.0
  0
LINE
  5
93
330
1F
100
AcDbEntity
  8
0
  6
Continuous
 62
     7
370
    18
100
AcDbLine
 10
171.6327596684
 20
7.5627342528
 30
0.0
 11
171.6327596684
 21
35.2394508358
 31
0.0
  0
LINE
  5
94
330
1F
100
AcDbEntity
  8
0
  6
Continuous
 62
     7
370
    18
100
AcDbLine
 10
171.6327596684
 20
35.2394508358
 30
0.0
 11
215.7427640041
 21
35.2394508358
 31
0.0
  0
LINE
  5
95
330
1F
100
AcDbEntity
  8
0
  6
Continuous
 62
     7
370
    18
100
AcDbLine
 10
270.1683598194
 20
17.1604579552
 30
0.0
 11
270.1683598194
 21
9.1409200612
 31
0.0
  0
LINE
  5
96
330
1F
100
AcDbEntity
  8
0
  6
Continuous
 62
     7
370
    18
100
AcDbLine
 10
215.7427640041
 20
35.2394508358
 30
0.0
 11
277.9892068491
 21
35.2394508358
 31
0.0
  0
LINE
  5
97
330
1F
100
AcDbEntity
  8
0
  6
Continuous
 62
     7
370
    18
100
AcDbLine
 10
277.9892068491
 20
35.2394508358
 30
0.0
 11
277.9892068491
 21
50.0331356147
 31
0.0
  0
LINE
  5
98
330
1F
100
AcDbEntity
  8
0
  6
Continuous
 62
     7
370
    18
100
AcDbLine
 10
215.7427640041
 20
24.8927335446
 30
0.0
 11
277.9892068491
 21
24.8927335446
 31
0.0
  0
INSERT
  5
99
330
1F
100
AcDbEntity
  8
0
  6
Continuous
 62
     7
100
AcDbBlockReference
  2
Third Angle Projection Block
 10
117.7262204235
 20
15.5162339489
 30
0.0
 41
0.8
 42
0.8
 43
0.8
  0
INSERT
  5
B8
330
1F
100
AcDbEntity
  8
0
  6
Continuous
 62
     7
370
     0
100
AcDbBlockReference
  2
SW_NOTE_0
 10
22.4707519555
 20
69.3644899315
 30
0.0
  0
MTEXT
  5
B9
330
1F
100
AcDbEntity
  8
0
  6
Continuous
 62
     7
370
     0
100
AcDbMText
 10
274.1458225539
 20
13.2559386876
 30
0.0
 40
3.175
 41
0.0
 71
     2
 72
     1
  1
A
  7
SLDTEXTSTYLE0
 73
     1
 44
1.0
  0
MTEXT
  5
BA
330
1F
100
AcDbEntity
  8
0
  6
Continuous
 62
     7
370
     0
100
AcDbMText
 10
234.4775043285
 20
5.1306563898
 30
0.0
 40
3.175
 41
0.0
 71
     2
 72
     1
  1
CM508-500-M01
  7
SLDTEXTSTYLE0
 73
     1
 44
1.0
  0
MTEXT
  5
BB
330
1F
100
AcDbEntity
  8
0
  6
Continuous
 62
     7
370
     0
100
AcDbMText
 10
216.4199766059
 20
16.8243178599
 30
0.0
 40
2.1166666667
 41
0.0
 71
     1
 72
     1
  1
MATERIAL
  7
SLDTEXTSTYLE0
 73
     1
 44
1.0
  0
MTEXT
  5
BC
330
1F
100
AcDbEntity
  8
0
  6
Continuous
 62
     7
370
     0
100
AcDbMText
 10
174.230946566
 20
20.054553926
 30
0.0
 40
1.8520833333
 41
0.0
 71
     1
 72
     1
  1
DRAWN
  7
SLDTEXTSTYLE0
 73
     1
 44
1.0
  0
MTEXT
  5
BD
330
1F
100
AcDbEntity
  8
0
  6
Continuous
 62
     7
370
     0
100
AcDbMText
 10
172.3960124543
 20
15.5787169747
 30
0.0
 40
1.8520833333
 41
0.0
 71
     1
 72
     1
  1
APPROVAL
  7
SLDTEXTSTYLE0
 73
     1
 44
1.0
  0
MTEXT
  5
BE
330
1F
100
AcDbEntity
  8
0
  6
Continuous
 62
     7
370
     0
100
AcDbMText
 10
271.7160653675
 20
16.1671746307
 30
0.0
 40
2.1166666667
 41
0.0
 71
     1
 72
     1
  1
REV
  7
SLDTEXTSTYLE0
 73
     1
 44
1.0
  0
MTEXT
  5
BF
330
1F
100
AcDbEntity
  8
0
  6
Continuous
 62
     7
370
     0
100
AcDbMText
 10
190.2958696448
 20
20.3177146903
 30
0.0
 40
2.1166666667
 41
0.0
 71
     1
 72
     1
  1
YB
  7
SLDTEXTSTYLE0
 73
     1
 44
1.0
  0
MTEXT
  5
C0
330
1F
100
AcDbEntity
  8
0
  6
Continuous
 62
     7
370
     0
100
AcDbMText
 10
190.2958696448
 20
15.841877739
 30
0.0
 40
2.1166666667
 41
0.0
 71
     1
 72
     1
  1
DD
  7
SLDTEXTSTYLE0
 73
     1
 44
1.0
  0
MTEXT
  5
C1
330
1F
100
AcDbEntity
  8
0
  6
Continuous
 62
     7
370
     0
100
AcDbMText
 10
199.8662436873
 20
20.3177146903
 30
0.0
 40
2.1166666667
 41
0.0
 71
     1
 72
     1
  1
16/APR/18
  7
SLDTEXTSTYLE0
 73
     1
 44
1.0
  0
MTEXT
  5
C2
330
1F
100
AcDbEntity
  8
0
  6
Continuous
 62
     7
370
     0
100
AcDbMText
 10
203.6145073853
 20
24.8221395769
 30
0.0
 40
2.1166666667
 41
0.0
 71
     1
 72
     1
  1
DATE
  7
SLDTEXTSTYLE0
 73
     1
 44
1.0
  0
MTEXT
  5
C3
330
1F
100
AcDbEntity
  8
0
  6
Continuous
 62
     7
370
     0
100
AcDbMText
 10
199.8662436873
 20
15.841877739
 30
0.0
 40
2.1166666667
 41
0.0
 71
     1
 72
     1
  1
16/APR/18
  7
SLDTEXTSTYLE0
 73
     1
 44
1.0
  0
MTEXT
  5
C5
330
1F
100
AcDbEntity
  8
0
  6
Continuous
 62
     7
370
     0
100
AcDbMText
 10
229.402906477
 20
27.7957480569
 30
0.0
 40
2.1166666667
 41
0.0
 71
     1
 72
     1
  1
w w w . t h o r  l a b s . c o m
  7
SLDTEXTSTYLE3
 73
     1
 44
1.0
  0
MTEXT
  5
C6
330
1F
100
AcDbEntity
  8
0
  6
Continuous
 62
     7
370
     0
100
AcDbMText
 10
216.7004035316
 20
8.3494791871
 30
0.0
 40
2.1166666667
 41
0.0
 71
     1
 72
     1
  1
ITEM #
  7
SLDTEXTSTYLE0
 73
     1
 44
1.0
  0
MTEXT
  5
C7
330
1F
100
AcDbEntity
  8
0
  6
Continuous
 62
     7
370
     0
100
AcDbMText
 10
254.5318000914
 20
8.3494791871
 30
0.0
 40
2.1166666667
 41
0.0
 71
     1
 72
     1
  1
APPROX WEIGHT
  7
SLDTEXTSTYLE0
 73
     1
 44
1.0
  0
MTEXT
  5
C8
330
1F
100
AcDbEntity
  8
0
  6
Continuous
 62
     7
370
     0
100
AcDbMText
 10
243.5159064132
 20
13.8247651814
 30
0.0
 40
3.175
 41
0.0
 71
     2
 72
     1
  1
N-BK7
  7
SLDTEXTSTYLE0
 73
     1
 44
1.0
  0
MTEXT
  5
C9
330
1F
100
AcDbEntity
  8
0
  6
Continuous
 62
     7
370
     0
100
AcDbMText
 10
266.1553537756
 20
5.1306563898
 30
0.0
 40
3.175
 41
0.0
 71
     2
 72
     1
  1
46.61 g
  7
SLDTEXTSTYLE0
 73
     1
 44
1.0
  0
INSERT
  5
CF
330
1F
100
AcDbEntity
  8
0
  6
Continuous
 62
     7
370
     0
100
AcDbBlockReference
  2
SW_NOTE_1
 10
174.8430140051
 20
4.4558554801
 30
0.0
  0
INSERT
  5
D5
330
1F
100
AcDbEntity
  8
0
  6
Continuous
 62
     7
370
     0
100
AcDbBlockReference
  2
SW_NOTE_2
 10
174.5483650337
 20
30.4835322715
 30
0.0
  0
MTEXT
  5
D6
330
1F
100
AcDbEntity
  8
0
  6
Continuous
 62
     7
370
     0
100
AcDbMText
 10
187.9273588276
 20
24.8221395769
 30
0.0
 40
2.1166666667
 41
0.0
 71
     1
 72
     1
  1
NAME
  7
SLDTEXTSTYLE0
 73
     1
 44
1.0
  0
INSERT
  5
DC
330
1F
100
AcDbEntity
  8
0
  6
Continuous
 62
     7
370
     0
100
AcDbBlockReference
  2
SW_NOTE_3
 10
58.6204667508
 20
8.1776609732
 30
0.0
  0
INSERT
  5
E3
330
1F
100
AcDbEntity
  8
0
  6
Continuous
 62
     7
370
     0
100
AcDbBlockReference
  2
SW_NOTE_4
 10
220.0050186217
 20
20.7222222066
 30
0.0
  0
MTEXT
  5
E4
330
1F
100
AcDbEntity
  8
0
  6
Continuous
 62
     7
370
     0
100
AcDbMText
 10
177.6925831922
 20
10.7142101515
 30
0.0
 40
1.5875
 41
0.0
 71
     1
 72
     1
  1
COPYRIGHT © 2018 BY THORLABS
  7
SLDTEXTSTYLE0
 73
     1
 44
1.0
  0
LINE
  5
E5
330
1F
100
AcDbEntity
  8
0
  6
Continuous
 62
     7
370
    18
100
AcDbLine
 10
231.2940705695
 20
194.3757948692
 30
0.0
 11
231.2940705695
 21
194.2165439779
 31
0.0
  0
LINE
  5
E6
330
1F
100
AcDbEntity
  8
0
  6
Continuous
 62
     7
370
    18
100
AcDbLine
 10
249.1137558784
 20
163.348599042
 30
0.0
 11
249.2516637233
 21
163.268960655
 31
0.0
  0
LINE
  5
E7
330
1F
100
AcDbEntity
  8
0
  6
Continuous
 62
     7
370
    18
100
AcDbLine
 10
261.9535507161
 20
162.0097707446
 30
0.0
 11
268.2628043344
 21
165.6520253309
 31
0.0
  0
LINE
  5
E8
330
1F
100
AcDbEntity
  8
0
  6
Continuous
 62
     7
370
    18
100
AcDbLine
 10
242.8648685254
 20
209.6473075398
 30
0.0
 11
236.5556149072
 21
206.0050529536
 31
0.0
  0
LINE
  5
E9
330
1F
100
AcDbEntity
  8
0
  6
Continuous
 62
     7
370
    18
100
AcDbLine
 10
273.524348672
 20
177.2812834152
 30
0.0
 11
273.524348672
 21
177.4445650376
 31
0.0
  0
LINE
  5
EA
330
1F
100
AcDbEntity
  8
0
  6
Continuous
 62
     7
370
    18
100
AcDbLine
 10
255.7081538895
 20
208.3064635494
 30
0.0
 11
255.5667555183
 21
208.3881176295
 31
0.0
  0
LWPOLYLINE
  5
EB
330
1F
100
AcDbEntity
  8
0
  6
Continuous
 62
     7
370
    18
100
AcDbPolyline
 90
      167
 70
   128
 43
0.0
 10
266.9392345288
 20
173.6390288289
 10
266.9264691903
 20
174.4252082307
 10
266.888191461
 20
175.2249999841
 10
266.8244561734
 20
176.0372583953
 10
266.7353546277
 20
176.8608199118
 10
266.621014461
 20
177.6945047897
 10
266.4815994645
 20
178.5371187835
 10
266.3173093487
 20
179.3874548568
 10
266.1283794578
 20
180.2442949113
 10
265.915080432
 20
181.1064115318
 10
265.67771782
 20
181.9725697446
 10
265.4166316416
 20
182.8415287865
 10
265.1321959001
 20
183.712043882
 10
264.824818047
 20
184.5828680266
 10
264.4949383982
 20
185.452753773
 10
264.1430295031
 20
186.3204550184
 10
263.7695954677
 20
187.184728789
 10
263.3751712327
 20
188.044337021
 10
262.960321807
 20
188.8980483339
 10
262.5256414585
 20
189.7446397945
 10
262.0717528625
 20
190.5828986686
 10
261.5993062101
 20
191.4116241586
 10
261.1089782766
 20
192.229629123
 10
260.6014714521
 20
193.0357417777
 10
260.077512735
 20
193.828807374
 10
259.5378526914
 20
194.6076898532
 10
258.9832643789
 20
195.3712734736
 10
258.41454224
 20
196.118464409
 10
257.8325009637
 20
196.8481923155
 10
257.2379743185
 20
197.5594118651
 10
256.631813958
 20
198.2511042425
 10
256.0148882013
 20
198.922278605
 10
255.3880807884
 20
199.571973502
 10
254.752289615
 20
200.1992582515
 10
254.1084254458
 20
200.8032342744
 10
253.45741061
 20
201.3830363808
 10
252.8001776801
 20
201.9378340098
 10
252.1376681359
 20
202.466832419
 10
251.470831016
 20
202.9692738234
 10
250.8006215581
 20
203.4444384804
 10
250.1279998308
 20
203.8916457214
 10
249.4539293583
 20
204.3102549262
 10
248.77937574
 20
204.6996664412
 10
248.1053052675
 20
205.0593224381
 10
247.4326835402
 20
205.3887077132
 10
246.7624740823
 20
205.6873504253
 10
246.0956369624
 20
205.9548227715
 10
245.4331274182
 20
206.1907416002
 10
244.7758944883
 20
206.3947689601
 10
244.1248796525
 20
206.566612584
 10
243.4810154833
 20
206.7060263073
 10
242.8452243099
 20
206.8128104215
 10
242.218416897
 20
206.8868119591
 10
241.6014911403
 20
206.9279249139
 10
240.9953307799
 20
206.9360903917
 10
240.4008041347
 20
206.9112966957
 10
239.8187628584
 20
206.8535793426
 10
239.2500407195
 20
206.763021012
 10
238.695452407
 20
206.6397514278
 10
238.1557923633
 20
206.4839471724
 10
237.6318336463
 20
206.295831434
 10
237.1243268217
 20
206.0756736866
 10
236.6339988882
 20
205.823789304
 10
236.1615522358
 20
205.5405391081
 10
235.7076636398
 20
205.2263288522
 10
235.2729832913
 20
204.8816086394
 10
234.8581338657
 20
204.5068722781
 10
234.4637096307
 20
204.1026565744
 10
234.0902755953
 20
203.6695405636
 10
233.7383667001
 20
203.2081446802
 10
233.4084870513
 20
202.7191298692
 10
233.1011091982
 20
202.2031966397
 10
232.8166734568
 20
201.6610840611
 10
232.5555872783
 20
201.0935687045
 10
232.3182246664
 20
200.50146353
 10
232.1049256405
 20
199.8856167227
 10
231.9159957496
 20
199.2469104772
 10
231.7517056339
 20
198.586259734
 10
231.6122906373
 20
197.9046108689
 10
231.4979504706
 20
197.2029403375
 10
231.4088489249
 20
196.4822532759
 10
231.3451136373
 20
195.7435820614
 10
231.306835908
 20
194.9879848335
 10
231.2940705695
 20
194.2165439779
 10
231.306835908
 20
193.4303645762
 10
231.3451136373
 20
192.6305728227
 10
231.4088489249
 20
191.8183144116
 10
231.4979504706
 20
190.9947528951
 10
231.6122906373
 20
190.1610680171
 10
231.7517056339
 20
189.3184540233
 10
231.9159957496
 20
188.4681179501
 10
232.1049256405
 20
187.6112778956
 10
232.3182246664
 20
186.7491612751
 10
232.5555872783
 20
185.8830030622
 10
232.8166734568
 20
185.0140440203
 10
233.1011091982
 20
184.1435289249
 10
233.4084870513
 20
183.2727047803
 10
233.7383667001
 20
182.4028190339
 10
234.0902755953
 20
181.5351177885
 10
234.4637096307
 20
180.6708440179
 10
234.8581338657
 20
179.8112357859
 10
235.2729832913
 20
178.9575244729
 10
235.7076636398
 20
178.1109330124
 10
236.1615522358
 20
177.2726741382
 10
236.6339988882
 20
176.4439486483
 10
237.1243268217
 20
175.6259436839
 10
237.6318336463
 20
174.8198310292
 10
238.1557923633
 20
174.0267654328
 10
238.695452407
 20
173.2478829536
 10
239.2500407195
 20
172.4842993333
 10
239.8187628584
 20
171.7371083979
 10
240.4008041347
 20
171.0073804913
 10
240.9953307799
 20
170.2961609418
 10
241.6014911403
 20
169.6044685644
 10
242.218416897
 20
168.9332942018
 10
242.8452243099
 20
168.2835993049
 10
243.4810154833
 20
167.6563145553
 10
244.1248796525
 20
167.0523385324
 10
244.7758944883
 20
166.472536426
 10
245.4331274182
 20
165.9177387971
 10
246.0956369624
 20
165.3887403879
 10
246.7624740823
 20
164.8862989835
 10
247.4326835402
 20
164.4111343264
 10
248.1053052675
 20
163.9639270854
 10
248.77937574
 20
163.5453178806
 10
249.4539293583
 20
163.1559063657
 10
250.1279998308
 20
162.7962503687
 10
250.8006215581
 20
162.4668650936
 10
251.470831016
 20
162.1682223816
 10
252.1376681359
 20
161.9007500354
 10
252.8001776801
 20
161.6648312066
 10
253.45741061
 20
161.4608038467
 10
254.1084254458
 20
161.2889602229
 10
254.752289615
 20
161.1495464995
 10
255.3880807884
 20
161.0427623854
 10
256.0148882013
 20
160.9687608477
 10
256.631813958
 20
160.927647893
 10
257.2379743185
 20
160.9194824152
 10
257.8325009637
 20
160.9442761111
 10
258.41454224
 20
161.0019934642
 10
258.9832643789
 20
161.0925517948
 10
259.5378526914
 20
161.2158213791
 10
260.077512735
 20
161.3716256344
 10
260.6014714521
 20
161.5597413728
 10
261.1089782766
 20
161.7798991203
 10
261.5993062101
 20
162.0317835029
 10
262.0717528625
 20
162.3150336987
 10
262.5256414585
 20
162.6292439547
 10
262.960321807
 20
162.9739641675
 10
263.3751712327
 20
163.3487005288
 10
263.7695954677
 20
163.7529162324
 10
264.1430295031
 20
164.1860322432
 10
264.4949383982
 20
164.6474281267
 10
264.824818047
 20
165.1364429377
 10
265.1321959001
 20
165.6523761671
 10
265.4166316416
 20
166.1944887457
 10
265.67771782
 20
166.7620041024
 10
265.915080432
 20
167.3541092769
 10
266.1283794578
 20
167.9699560842
 10
266.3173093487
 20
168.6086623297
 10
266.4815994645
 20
169.2693130729
 10
266.621014461
 20
169.9509619379
 10
266.7353546277
 20
170.6526324694
 10
266.8244561734
 20
171.373319531
 10
266.888191461
 20
172.1119907454
 10
266.9264691903
 20
172.8675879733
 10
266.9392345288
 20
173.6390288289
  0
LWPOLYLINE
  5
EC
330
1F
100
AcDbEntity
  8
0
  6
Continuous
 62
     7
370
    18
100
AcDbPolyline
 90
      127
 70
   128
 43
0.0
 10
231.2940705695
 20
194.3757948692
 10
231.3067811179
 20
195.1485972223
 10
231.3448947725
 20
195.9056304732
 10
231.4083575878
 20
196.6458231263
 10
231.4970797393
 20
197.3681275214
 10
231.6109356506
 20
198.0715213176
 10
231.7497641715
 20
198.7550089395
 10
231.9133688058
 20
199.4176229869
 10
232.1015179893
 20
200.0584256036
 10
232.3139454179
 20
200.6765098053
 10
232.5503504244
 20
201.2710007628
 10
232.8103984039
 20
201.8410570407
 10
233.0937212876
 20
202.3858717881
 10
233.3999180636
 20
202.9046738805
 10
233.7285553445
 20
203.3967290118
 10
234.0791679812
 20
203.8613407328
 10
234.4512597206
 20
204.2978514376
 10
234.8443039085
 20
204.7056432941
 10
235.2577442347
 20
205.0841391186
 10
235.6909955208
 20
205.4328031925
 10
236.1434445479
 20
205.7511420209
 10
236.6144509251
 20
206.0387050307
 10
237.1033479955
 20
206.2950852086
 10
237.60944378
 20
206.5199196771
 10
238.1320219566
 20
206.7128902083
 10
238.6703428743
 20
206.8737236739
 10
239.2236446001
 20
207.0021924321
 10
239.7911439971
 20
207.0981146498
 10
240.3720378336
 20
207.1613545597
 10
240.9655039193
 20
207.191822653
 10
241.5707022691
 20
207.1894758053
 10
242.1867762927
 20
207.1543173383
 10
242.812854006
 20
207.0863970151
 10
243.4480492661
 20
206.9858109691
 10
244.0914630251
 20
206.8527015688
 10
244.7421846029
 20
206.6872572155
 10
245.3992929756
 20
206.4897120772
 10
246.0618580801
 20
206.260345757
 10
246.7289421293
 20
205.9994828973
 10
247.3996009406
 20
205.7074927203
 10
248.0728852712
 20
205.3847885053
 10
248.7478421626
 20
205.0318270043
 10
249.4235162887
 20
204.6491077946
 10
250.0989513083
 20
204.2371725726
 10
250.7731912187
 20
203.7966043864
 10
251.4452817088
 20
203.3280268111
 10
252.1142715096
 20
202.8321030658
 10
252.7792137408
 20
202.3095350752
 10
253.439167251
 20
201.7610624758
 10
254.0931979499
 20
201.1874615692
 10
254.7403801302
 20
200.5895442233
 10
255.3797977778
 20
199.9681567234
 10
256.0105458685
 20
199.3241785739
 10
256.631731649
 20
198.6585212539
 10
257.2424759003
 20
197.9721269269
 10
257.8419141822
 20
197.2659671072
 10
258.4291980568
 20
196.5410412853
 10
259.0034962894
 20
195.7983755124
 10
259.5639960252
 20
195.039020949
 10
260.1099039394
 20
194.2640523765
 10
260.6404473605
 20
193.4745666763
 10
261.1548753635
 20
192.671681277
 10
261.6524598331
 20
191.8565325733
 10
262.1324964942
 20
191.0302743169
 10
262.5943059086
 20
190.194075984
 10
263.0372344366
 20
189.3491211199
 10
263.4606551624
 20
188.4966056636
 10
263.8639687815
 20
187.6377362555
 10
264.2466044483
 20
186.7737285291
 10
264.6080205851
 20
185.9058053908
 10
264.9477056475
 20
185.0351952887
 10
265.2651788494
 20
184.1631304741
 10
265.559990843
 20
183.2908452572
 10
265.8317243549
 20
182.4195742602
 10
266.0799947767
 20
181.5505506698
 10
266.3044507093
 20
180.6850044916
 10
266.5047744605
 20
179.8241608095
 10
266.6806824944
 20
178.9692380514
 10
266.8319258328
 20
178.121446265
 10
266.9582904078
 20
177.2819854046
 10
267.0595973644
 20
176.4520436334
 10
267.1357033139
 20
175.6327956409
 10
267.1865005369
 20
174.8254009812
 10
267.2119171356
 20
174.0310024312
 10
267.2119171356
 20
173.250724373
 10
267.1865005369
 20
172.4856712031
 10
267.1357033139
 20
171.7369257687
 10
267.0595973644
 20
171.0055478352
 10
266.9582904078
 20
170.2925725863
 10
266.8319258328
 20
169.5990091588
 10
266.6806824944
 20
168.925839214
 10
266.5047744605
 20
168.2740155488
 10
266.3044507093
 20
167.6444607467
 10
266.0799947767
 20
167.0380658721
 10
265.8317243549
 20
166.4556892091
 10
265.559990843
 20
165.8981550468
 10
265.2651788494
 20
165.3662525125
 10
264.9477056475
 20
164.8607344547
 10
264.6080205851
 20
164.3823163777
 10
264.2466044483
 20
163.9316754288
 10
263.8639687815
 20
163.5094494398
 10
263.4606551624
 20
163.1162360244
 10
263.0372344366
 20
162.7525917323
 10
262.5943059086
 20
162.4190312612
 10
262.1324964942
 20
162.1160267288
 10
261.6524598331
 20
161.844007004
 10
261.1548753635
 20
161.6033571003
 10
260.6404473605
 20
161.3944176309
 10
260.1099039394
 20
161.2174843261
 10
259.5639960252
 20
161.0728076152
 10
259.0034962894
 20
160.960592272
 10
258.4291980568
 20
160.8809971247
 10
257.8419141822
 20
160.8341348313
 10
257.2424759003
 20
160.8200717202
 10
256.631731649
 20
160.8388276962
 10
256.0105458685
 20
160.8903762122
 10
255.3797977778
 20
160.9746443072
 10
254.7403801302
 20
161.0915127089
 10
254.0931979499
 20
161.2408160034
 10
253.439167251
 20
161.4223428684
 10
252.7792137408
 20
161.635836373
 10
252.1142715096
 20
161.880994341
 10
251.4452817088
 20
162.1574697787
 10
250.7731912187
 20
162.464871366
 10
250.0989513083
 20
162.8027640105
 10
249.4235162887
 20
163.1706694627
 10
249.2516637233
 20
163.268960655
  0
LWPOLYLINE
  5
ED
330
1F
100
AcDbEntity
  8
0
  6
Continuous
 62
     7
370
    18
100
AcDbPolyline
 90
       64
 70
   128
 43
0.0
 10
273.524348672
 20
177.2812834152
 10
273.5116381237
 20
178.0687610549
 10
273.4735244691
 20
178.8697993949
 10
273.4100616538
 20
179.6832646548
 10
273.3213395023
 20
180.5080054656
 10
273.207483591
 20
181.3428544989
 10
273.06865507
 20
182.1866301193
 10
272.9050504358
 20
183.0381380566
 10
272.7169012523
 20
183.8961730967
 10
272.5044738236
 20
184.7595207869
 10
272.2680688172
 20
185.6269591551
 10
272.0080208377
 20
186.4972604392
 10
271.724697954
 20
187.3691928252
 10
271.418501178
 20
188.2415221902
 10
271.089863897
 20
189.1130138495
 10
270.7392512603
 20
189.9824343042
 10
270.3671595209
 20
190.8485529869
 10
269.9741153331
 20
191.7101440033
 10
269.5606750068
 20
192.5659878679
 10
269.1274237208
 20
193.4148732292
 10
268.6749746936
 20
194.2555985849
 10
268.2039683165
 20
195.0869739824
 10
267.715071246
 20
195.9078227028
 10
267.2089754616
 20
196.7169829264
 10
266.686397285
 20
197.5133093775
 10
266.1480763673
 20
198.295674945
 10
265.5947746415
 20
199.0629722779
 10
265.0272752444
 20
199.8141153527
 10
264.4463814079
 20
200.5480410103
 10
263.8529153223
 20
201.263710461
 10
263.2477169724
 20
201.9601107549
 10
262.6316429489
 20
202.636256215
 10
262.0055652356
 20
203.2911898332
 10
261.3703699755
 20
203.9239846241
 10
260.7269562164
 20
204.5337449374
 10
260.0762346387
 20
205.1196077257
 10
259.4191262659
 20
205.6807437657
 10
258.7565611615
 20
206.216358832
 10
258.0894771122
 20
206.7256948214
 10
257.418818301
 20
207.2080308259
 10
256.7455339704
 20
207.6626841526
 10
256.070577079
 20
208.0890112907
 10
255.3949029529
 20
208.4864088217
 10
254.7194679333
 20
208.854314274
 10
254.0452280228
 20
209.1922069184
 10
253.3731375328
 20
209.4996085058
 10
252.704147732
 20
209.7760839435
 10
252.0392055008
 20
210.0212419115
 10
251.3792519906
 20
210.2347354161
 10
250.7252212917
 20
210.4162622811
 10
250.0780391114
 20
210.5655655755
 10
249.4386214638
 20
210.6824339773
 10
248.8078733731
 20
210.7667020722
 10
248.1866875925
 20
210.8182505882
 10
247.5759433412
 20
210.8370065642
 10
246.9765050594
 20
210.8229434531
 10
246.3892211848
 20
210.7760811598
 10
245.8149229521
 20
210.6964860125
 10
245.2544232164
 20
210.5842706692
 10
244.7085153021
 20
210.4395939584
 10
244.1779718811
 20
210.2626606535
 10
243.6635438781
 20
210.0537211841
 10
243.1659594084
 20
209.8130712805
 10
242.8648685254
 20
209.6473075398
  0
LWPOLYLINE
  5
EE
330
1F
100
AcDbEntity
  8
0
  6
Continuous
 62
     7
370
    18
100
AcDbPolyline
 90
       22
 70
   128
 43
0.0
 10
268.2628043344
 20
165.6520253309
 10
268.6749746936
 20
165.9059362635
 10
269.1274237208
 20
166.2242750919
 10
269.5606750068
 20
166.5729391658
 10
269.9741153331
 20
166.9514349903
 10
270.3671595209
 20
167.3592268468
 10
270.7392512603
 20
167.7957375517
 10
271.089863897
 20
168.2603492727
 10
271.418501178
 20
168.7524044039
 10
271.724697954
 20
169.2712064964
 10
272.0080208377
 20
169.8160212437
 10
272.2680688172
 20
170.3860775216
 10
272.5044738236
 20
170.9805684792
 10
272.7169012523
 20
171.5986526808
 10
272.9050504358
 20
172.2394552976
 10
273.06865507
 20
172.9020693449
 10
273.207483591
 20
173.5855569669
 10
273.3213395023
 20
174.288950763
 10
273.4100616538
 20
175.0112551582
 10
273.4735244691
 20
175.7514478112
 10
273.5116381237
 20
176.5084810622
 10
273.524348672
 20
177.2812834152
  0
ARC
  5
EF
330
1F
100
AcDbEntity
  8
0
  6
Continuous
 62
     7
370
    18
100
AcDbCircle
 10
234.9148402352
 20
175.7292546653
 30
0.0
 40
38.64759282808836
100
AcDbArc
 50
2.5438153591
 51
57.4508081082
  0
CIRCLE
  5
F0
330
1F
100
AcDbEntity
  8
0
  6
Continuous
 62
     7
370
    18
100
AcDbCircle
 10
54.2316172134
 20
119.6915307972
 30
0.0
 40
25.2049371521166
  0
CIRCLE
  5
F1
330
1F
100
AcDbEntity
  8
0
  6
Continuous
 62
     7
370
    18
100
AcDbCircle
 10
54.2316172134
 20
119.6915307972
 30
0.0
 40
25.40000000000002
  0
DIMENSION
  5
F2
330
1F
100
AcDbEntity
  8
0
  6
Continuous
 62
     7
370
    18
100
AcDbDimension
  2
_D
 10
36.2711049713
 20
101.731018555
 30
0.0
 11
96.5210213739
 21
151.1916184847
 31
0.0
 70
   163
  1
<>
 71
     1
 42
-1.0
  3
SLDDIMSTYLE0
100
AcDbDiametricDimension
 15
72.1921294555
 25
137.6520430393
 35
0.0
 40
0.0
  0
LINE
  5
103
330
1F
100
AcDbEntity
  8
0
  6
PHANTOM
 62
     7
370
    35
100
AcDbLine
 10
54.2316172134
 20
151.1875307972
 30
0.0
 11
54.2316172134
 21
88.1955307972
 31
0.0
  0
LINE
  5
104
330
1F
100
AcDbEntity
  8
0
  6
Continuous
 62
     7
370
    35
100
AcDbLine
 10
54.2316172134
 20
151.1875307972
 30
0.0
 11
45.3416172134
 21
151.1875307972
 31
0.0
  0
SOLID
  5
105
330
1F
100
AcDbEntity
  8
0
  6
Continuous
 62
     7
370
    35
100
AcDbTrace
 10
45.3416172134
 20
151.1875307972
 30
0.0
 11
49.1516172134
 21
150.5525307972
 31
0.0
 12
49.1516172134
 22
151.8225307972
 32
0.0
 13
49.1516172134
 23
151.8225307972
 33
0.0
  0
LINE
  5
106
330
1F
100
AcDbEntity
  8
0
  6
Continuous
 62
     7
370
    35
100
AcDbLine
 10
54.2316172134
 20
88.1955307972
 30
0.0
 11
45.3416172134
 21
88.1955307972
 31
0.0
  0
SOLID
  5
107
330
1F
100
AcDbEntity
  8
0
  6
Continuous
 62
     7
370
    35
100
AcDbTrace
 10
45.3416172134
 20
88.1955307972
 30
0.0
 11
49.1516172134
 21
87.5605307972
 31
0.0
 12
49.1516172134
 22
88.8305307972
 32
0.0
 13
49.1516172134
 23
88.8305307972
 33
0.0
  0
MTEXT
  5
108
330
1F
100
AcDbEntity
  8
0
  6
Continuous
 62
     7
100
AcDbMText
 10
41.9359815922
 20
153.2886643206
 30
0.0
 40
2.6458333333
 41
0.0
 71
     1
 72
     1
  1
A
  7
SLDTEXTSTYLE0
 73
     1
 44
1.0
  0
MTEXT
  5
109
330
1F
100
AcDbEntity
  8
0
  6
Continuous
 62
     7
100
AcDbMText
 10
41.9359815922
 20
90.2966643206
 30
0.0
 40
2.6458333333
 41
0.0
 71
     1
 72
     1
  1
A
  7
SLDTEXTSTYLE0
 73
     1
 44
1.0
  0
LINE
  5
10A
330
1F
100
AcDbEntity
  8
0
  6
Continuous
 62
     7
370
    18
100
AcDbLine
 10
144.3264272189
 20
94.4915307972
 30
0.0
 11
144.1264272189
 21
94.2915307972
 31
0.0
  0
LINE
  5
10B
330
1F
100
AcDbEntity
  8
0
  6
Continuous
 62
     7
370
    18
100
AcDbLine
 10
135.2037951835
 20
94.2915307972
 30
0.0
 11
144.1264272189
 21
94.2915307972
 31
0.0
  0
LINE
  5
10C
330
1F
100
AcDbEntity
  8
0
  6
Continuous
 62
     7
370
    18
100
AcDbLine
 10
135.2037951835
 20
94.2915307972
 30
0.0
 11
135.0087323356
 21
94.4865936451
 31
0.0
  0
ARC
  5
10D
330
1F
100
AcDbEntity
  8
0
  6
Continuous
 62
     7
370
    18
100
AcDbCircle
 10
-864.6736048164
 20
119.6915307972
 30
0.0
 40
1000.000032035271
100
AcDbArc
 50
358.5557105735
 51
1.4442894265
  0
LINE
  5
10E
330
1F
100
AcDbEntity
  8
0
  6
Continuous
 62
     7
370
    18
100
AcDbLine
 10
135.0087323356
 20
144.8964679493
 30
0.0
 11
135.2037951835
 21
145.0915307972
 31
0.0
  0
LINE
  5
10F
330
1F
100
AcDbEntity
  8
0
  6
Continuous
 62
     7
370
    18
100
AcDbLine
 10
144.1264272189
 20
145.0915307972
 30
0.0
 11
135.2037951835
 21
145.0915307972
 31
0.0
  0
LINE
  5
110
330
1F
100
AcDbEntity
  8
0
  6
Continuous
 62
     7
370
    18
100
AcDbLine
 10
144.1264272189
 20
145.0915307972
 30
0.0
 11
144.3264272189
 21
144.8915307972
 31
0.0
  0
LINE
  5
111
330
1F
100
AcDbEntity
  8
0
  6
Continuous
 62
     7
370
    18
100
AcDbLine
 10
144.3264272189
 20
117.9670769831
 30
0.0
 11
144.3264272189
 21
118.3306554421
 31
0.0
  0
LINE
  5
112
330
1F
100
AcDbEntity
  8
0
  6
Continuous
 62
     7
370
    18
100
AcDbLine
 10
144.3264272189
 20
120.6915307972
 30
0.0
 11
144.3264272189
 21
120.794004075
 31
0.0
  0
LINE
  5
113
330
1F
100
AcDbEntity
  8
0
  6
Continuous
 62
     7
370
    18
100
AcDbLine
 10
144.3264272189
 20
117.6117551283
 30
0.0
 11
144.3264272189
 21
117.9670769831
 31
0.0
  0
LINE
  5
114
330
1F
100
AcDbEntity
  8
0
  6
Continuous
 62
     7
370
    18
100
AcDbLine
 10
144.3264272189
 20
118.3306554421
 30
0.0
 11
144.3264272189
 21
120.6915307972
 31
0.0
  0
LINE
  5
115
330
1F
100
AcDbEntity
  8
0
  6
Continuous
 62
     7
370
    18
100
AcDbLine
 10
144.3264272189
 20
120.794004075
 30
0.0
 11
144.3264272189
 21
144.8915307972
 31
0.0
  0
LINE
  5
116
330
1F
100
AcDbEntity
  8
0
  6
Continuous
 62
     7
370
    18
100
AcDbLine
 10
144.3264272189
 20
94.4915307972
 30
0.0
 11
144.3264272189
 21
116.3087476686
 31
0.0
  0
LINE
  5
117
330
1F
100
AcDbEntity
  8
0
  6
Continuous
 62
     7
370
    18
100
AcDbLine
 10
144.3264272189
 20
116.565335198
 30
0.0
 11
144.3264272189
 21
117.3836021662
 31
0.0
  0
LINE
  5
118
330
1F
100
AcDbEntity
  8
0
  6
Continuous
 62
     7
370
    18
100
AcDbLine
 10
144.3264272189
 20
117.3836021662
 30
0.0
 11
144.3264272189
 21
117.6117551283
 31
0.0
  0
LINE
  5
119
330
1F
100
AcDbEntity
  8
0
  6
Continuous
 62
     7
370
    18
100
AcDbLine
 10
144.3264272189
 20
116.3087476686
 30
0.0
 11
144.3264272189
 21
116.565335198
 31
0.0
  0
HATCH
  5
11A
330
1F
100
AcDbEntity
  8
0
  6
Continuous
 62
     7
370
    18
100
AcDbHatch
 10
0.0
 20
0.0
 30
0.0
210
0.0
220
0.0
230
1.0
  2
ANSI31
 70
     0
 71
     0
 91
        1
 92
        0
 93
       16
 72
     1
 10
144.3264272188792
 20
116.5653351979845
 11
144.3264272188792
 21
117.3836021662127
 72
     1
 10
144.3264272188792
 20
117.3836021662127
 11
144.3264272188792
 21
117.6117551282922
 72
     1
 10
144.3264272188792
 20
117.6117551282922
 11
144.3264272188792
 21
117.9670769830957
 72
     1
 10
144.3264272188792
 20
117.9670769830957
 11
144.3264272188792
 21
118.3306554420645
 72
     1
 10
144.3264272188792
 20
118.3306554420645
 11
144.3264272188792
 21
120.6915307971781
 72
     1
 10
144.3264272188792
 20
120.6915307971781
 11
144.3264272188792
 21
120.7940040749915
 72
     1
 10
144.3264272188792
 20
120.7940040749915
 11
144.3264272188792
 21
144.8915307971781
 72
     1
 10
144.3264272188792
 20
144.8915307971781
 11
144.1264272188792
 21
145.0915307971781
 72
     1
 10
144.1264272188792
 20
145.0915307971781
 11
135.2037951834997
 21
145.0915307971781
 72
     1
 10
135.2037951834997
 20
145.0915307971781
 11
135.0087323356165
 21
144.8964679492948
 72
     2
 10
-864.6736048163912
 20
119.6915307971781
 40
1000.00003203527
 50
358.5557105735338
 51
361.4442894264678
 73
     0
 72
     1
 10
135.0087323356164
 20
94.48659364506466
 11
135.2037951834997
 21
94.2915307971781
 72
     1
 10
135.2037951834997
 20
94.2915307971781
 11
144.1264272188792
 21
94.2915307971781
 72
     1
 10
144.1264272188792
 20
94.2915307971781
 11
144.3264272188792
 21
94.49153079717811
 72
     1
 10
144.3264272188792
 20
94.49153079717811
 11
144.3264272188792
 21
116.3087476686035
 72
     1
 10
144.3264272188792
 20
116.3087476686035
 11
144.3264272188792
 21
116.5653351979845
 97
        0
 75
     0
 76
     1
 52
0.0
 41
1.0
 77
     0
 78
     1
 53
45.0
 43
0.0
 44
0.0
 45
-2.245064030267288
 46
2.245064030267288
 79
     0
 98
        1
 10
0.0
 20
0.0
  0
DIMENSION
  5
11B
330
1F
100
AcDbEntity
  8
0
  6
Continuous
 62
     7
370
    18
100
AcDbDimension
  2
_D_1
 10
144.3332382098
 20
157.7456487408
 30
0.0
 11
163.5521342782
 21
157.735465255
 31
0.0
 70
   160
  1
<> REF
 71
     2
 42
-1.0
  3
SLDDIMSTYLE1
100
AcDbAlignedDimension
 13
135.0087323356
 23
144.8964679493
 33
0.0
 14
144.3264272189
 24
144.8915307972
 34
0.0
 50
-0.0303592204
100
AcDbRotatedDimension
  0
DIMENSION
  5
12F
330
1F
100
AcDbEntity
  8
0
  6
Continuous
 62
     7
370
    18
100
AcDbDimension
  2
_D_2
 10
-864.6736048164
 20
119.6915307972
 30
0.0
 11
162.6692090951
 21
84.9003110732
 31
0.0
 70
   164
  1
<>
 71
     1
 42
-1.0
  3
SLDDIMSTYLE2
100
AcDbRadialDimension
 15
134.7403290529
 25
85.459194352
 35
0.0
 40
0.0
  0
DIMENSION
  5
140
330
1F
100
AcDbEntity
  8
0
  6
Continuous
 62
     7
370
    18
100
AcDbDimension
  2
_D_3
 10
135.3264272189
 20
148.9369812196
 30
0.0
 11
160.3264272189
 21
148.9369812196
 31
0.0
 70
   160
  1
<>
 71
     2
 42
-1.0
  3
SLDDIMSTYLE3
100
AcDbAlignedDimension
 13
144.3264272189
 23
144.8915307972
 33
0.0
 14
135.3264272189
 24
119.6915307972
 34
0.0
100
AcDbRotatedDimension
  0
MTEXT
  5
155
330
1F
100
AcDbEntity
  8
0
  6
Continuous
 62
     7
370
     0
100
AcDbMText
 10
139.4865357272
 20
76.7067242827
 30
0.0
 40
2.1166666667
 41
0.0
 71
     2
 72
     1
  1
SECTION A-A
  7
SLDTEXTSTYLE0
 73
     1
 44
1.0
  0
MTEXT
  5
156
330
1F
100
AcDbEntity
  8
0
  6
Continuous
 62
     7
370
     0
100
AcDbMText
 10
114.7831794778
 20
93.1034302949
 30
0.0
 40
2.1166666667
 41
0.0
 71
     1
 72
     1
  1
S1
  7
SLDTEXTSTYLE0
 73
     1
 44
1.0
  0
LEADER
  5
158
330
1F
100
AcDbEntity
  8
0
  6
Continuous
 62
     7
370
     0
100
AcDbLeader
  3
SLDDIMSTYLE4
 76
     3
 10
135.2804493081
 20
110.1022810605
 30
0.0
 10
124.5306907218
 20
92.7144771026
 30
0.0
 10
118.1806907218
 20
92.7144771026
 30
0.0
  0
MTEXT
  5
159
330
1F
100
AcDbEntity
  8
0
  6
Continuous
 62
     7
370
     0
100
AcDbMText
 10
162.066547879
 20
130.3649485491
 30
0.0
 40
2.1166666667
 41
0.0
 71
     1
 72
     1
  1
S2
  7
SLDTEXTSTYLE0
 73
     1
 44
1.0
  0
LEADER
  5
15A
330
1F
100
AcDbEntity
  8
0
  6
Continuous
 62
     7
370
     0
100
AcDbLeader
  3
SLDDIMSTYLE4
 76
     3
 10
144.3264272189
 20
110.7878903105
 30
0.0
 10
155.2019159456
 20
129.7972953968
 30
0.0
 10
161.5519159456
 20
129.7972953968
 30
0.0
  0
SPLINE
  5
15B
330
1F
100
AcDbEntity
  8
0
  6
Continuous
 62
     7
370
    18
100
AcDbSpline
210
0.0
220
0.0
230
1.0
 70
     8
 71
     3
 72
    13
 73
     9
 74
     0
 42
0.000000001
 43
0.00000001
 40
0.0
 40
0.0
 40
0.0
 40
0.0
 40
0.1943389941804438
 40
0.3816850483972324
 40
0.5594858099432996
 40
0.6963399801806515
 40
0.8391066529687221
 40
0.9999999999999999
 40
0.9999999999999999
 40
0.9999999999999999
 40
0.9999999999999999
 10
223.3389159985552
 20
121.8108882334608
 30
0.0
 10
223.3360909061634
 20
121.8725206557723
 30
0.0
 10
223.3305423772598
 20
121.993567768278
 30
0.0
 10
223.2815466691258
 20
122.1655863228173
 30
0.0
 10
223.2015352836449
 20
122.3057083453551
 30
0.0
 10
223.0933017631259
 20
122.4046680729047
 30
0.0
 10
222.9642625047497
 20
122.4654385933797
 30
0.0
 10
222.8676106019219
 20
122.472037799323
 30
0.0
 10
222.8163998822752
 20
122.4755343687186
 30
0.0
  0
SPLINE
  5
15C
330
1F
100
AcDbEntity
  8
0
  6
Continuous
 62
     7
370
    18
100
AcDbSpline
210
0.0
220
0.0
230
1.0
 70
     8
 71
     3
 72
    12
 73
     8
 74
     0
 42
0.000000001
 43
0.00000001
 40
0.0
 40
0.0
 40
0.0
 40
0.0
 40
0.2008908381631387
 40
0.3780365369998095
 40
0.5535498386387546
 40
0.7713747335183458
 40
1.0
 40
1.0
 40
1.0
 40
1.0
 10
222.8163998822752
 20
121.1462240361851
 30
0.0
 10
222.8805380537844
 20
121.151746239493
 30
0.0
 10
223.0012333152933
 20
121.1621379260138
 30
0.0
 10
223.1539278033207
 20
121.2603983086667
 30
0.0
 10
223.2619097245208
 20
121.4079162870128
 30
0.0
 10
223.3275184770469
 20
121.5970401377409
 30
0.0
 10
223.3350560426383
 20
121.7384650999055
 30
0.0
 10
223.3389159985552
 20
121.8108882334608
 30
0.0
  0
SPLINE
  5
15D
330
1F
100
AcDbEntity
  8
0
  6
Continuous
 62
     7
370
    18
100
AcDbSpline
210
0.0
220
0.0
230
1.0
 70
     8
 71
     3
 72
    13
 73
     9
 74
     0
 42
0.000000001
 43
0.00000001
 40
0.0
 40
0.0
 40
0.0
 40
0.0
 40
0.1943256494037768
 40
0.3816748644005011
 40
0.5594881704966067
 40
0.6963511211546931
 40
0.8391184169589758
 40
1.0
 40
1.0
 40
1.0
 40
1.0
 10
222.2938657039772
 20
121.8108882334608
 30
0.0
 10
222.2966921582195
 20
121.7492595644755
 30
0.0
 10
222.3022435949082
 20
121.6282147412607
 30
0.0
 10
222.3512521238877
 20
121.4561973333833
 30
0.0
 10
222.4312720374522
 20
121.3160708611843
 30
0.0
 10
222.5395078525064
 20
121.2171028876327
 30
0.0
 10
222.668543288146
 20
121.1563227946701
 30
0.0
 10
222.7651924698916
 20
121.1497215554763
 30
0.0
 10
222.8163998822752
 20
121.1462240361851
 30
0.0
  0
SPLINE
  5
15E
330
1F
100
AcDbEntity
  8
0
  6
Continuous
 62
     7
370
    18
100
AcDbSpline
210
0.0
220
0.0
230
1.0
 70
     8
 71
     3
 72
    12
 73
     8
 74
     0
 42
0.000000001
 43
0.00000001
 40
0.0
 40
0.0
 40
0.0
 40
0.0
 40
0.2008792258750607
 40
0.3780217100331201
 40
0.5535332757399345
 40
0.7713595773327315
 40
1.0
 40
1.0
 40
1.0
 40
1.0
 10
222.8163998822752
 20
122.4755343687186
 30
0.0
 10
222.752266089722
 20
122.4700127052217
 30
0.0
 10
222.6315768256815
 20
122.4596218414166
 30
0.0
 10
222.4788832919636
 20
122.3613747637917
 30
0.0
 10
222.3708897219021
 20
122.2138684936525
 30
0.0
 10
222.3052662459051
 20
122.0247451257517
 30
0.0
 10
222.2977267573476
 20
121.8833157443622
 30
0.0
 10
222.2938657039772
 20
121.8108882334608
 30
0.0
  0
SPLINE
  5
15F
330
1F
100
AcDbEntity
  8
0
  6
Continuous
 62
     7
370
    18
100
AcDbSpline
210
0.0
220
0.0
230
1.0
 70
     8
 71
     3
 72
    19
 73
    15
 74
     0
 42
0.000000001
 43
0.00000001
 40
0.0
 40
0.0
 40
0.0
 40
0.0
 40
0.0915873397066451
 40
0.1741182870805898
 40
0.2526289966153892
 40
0.3313197891920882
 40
0.4131632671988439
 40
0.4999972215981986
 40
0.5868350001903235
 40
0.6686802724867941
 40
0.747371487938393
 40
0.8258819896397946
 40
0.908412700828622
 40
0.9999999999999999
 40
0.9999999999999999
 40
0.9999999999999999
 40
0.9999999999999999
 10
222.8200050464215
 20
120.6103510803022
 30
0.0
 10
222.9306426211133
 20
120.6177957928536
 30
0.0
 10
223.1409776418026
 20
120.6319490655812
 30
0.0
 10
223.4253052167717
 20
120.7552684623742
 30
0.0
 10
223.6494765033612
 20
120.9425341417439
 30
0.0
 10
223.8101557921619
 20
121.1856775672038
 30
0.0
 10
223.9062578722799
 20
121.4704349313946
 30
0.0
 10
223.936245500152
 20
121.7786875450293
 30
0.0
 10
223.9051078593121
 20
122.0868282427364
 30
0.0
 10
223.8079442456676
 20
122.3712328166353
 30
0.0
 10
223.6463580546795
 20
122.6137777169854
 30
0.0
 10
223.4214884952527
 20
122.8002046253715
 30
0.0
 10
223.1367021319518
 20
122.9224591077293
 30
0.0
 10
222.9263161096312
 20
122.9358265699521
 30
0.0
 10
222.8156515808562
 20
122.9428579491829
 30
0.0
  0
SPLINE
  5
160
330
1F
100
AcDbEntity
  8
0
  6
Continuous
 62
     7
370
    18
100
AcDbSpline
210
0.0
220
0.0
230
1.0
 70
     8
 71
     3
 72
    14
 73
    10
 74
     0
 42
0.000000001
 43
0.00000001
 40
0.0
 40
0.0
 40
0.0
 40
0.0
 40
0.1466868109097159
 40
0.2859932799578322
 40
0.419815534109628
 40
0.5510853201411047
 40
0.6904104027401218
 40
0.8377115977293308
 40
1.0
 40
1.0
 40
1.0
 40
1.0
 10
221.7141529509028
 20
121.7827415160419
 30
0.0
 10
221.718035267782
 20
121.6940670218116
 30
0.0
 10
221.7256045681931
 20
121.5211795665848
 30
0.0
 10
221.7954237717475
 20
121.275240567074
 30
0.0
 10
221.9077221508202
 20
121.0567372570076
 30
0.0
 10
222.0679647012332
 20
120.8692969687283
 30
0.0
 10
222.2769583585691
 20
120.7238309381835
 30
0.0
 10
222.534438815785
 20
120.6274635802657
 30
0.0
 10
222.7217930353539
 20
120.6162364156658
 30
0.0
 10
222.8200050464215
 20
120.6103510803022
 30
0.0
  0
SPLINE
  5
161
330
1F
100
AcDbEntity
  8
0
  6
Continuous
 62
     7
370
    18
100
AcDbSpline
210
0.0
220
0.0
230
1.0
 70
     8
 71
     3
 72
    14
 73
    10
 74
     0
 42
0.000000001
 43
0.00000001
 40
0.0
 40
0.0
 40
0.0
 40
0.0
 40
0.155398965692284
 40
0.2968771122070972
 40
0.4305153137104959
 40
0.5617675040118884
 40
0.701406344972662
 40
0.8467289956139458
 40
1.0
 40
1.0
 40
1.0
 40
1.0
 10
222.8156515808562
 20
122.9428579491829
 30
0.0
 10
222.7224104402215
 20
122.9375029969597
 30
0.0
 10
222.5442808082308
 20
122.9272727953304
 30
0.0
 10
222.2981014055567
 20
122.8402703668874
 30
0.0
 10
222.0923330275267
 20
122.7066661282098
 30
0.0
 10
221.9263893401962
 20
122.5268519133964
 30
0.0
 10
221.8050183025678
 20
122.3071330466172
 30
0.0
 10
221.7279458611361
 20
122.0536518599851
 30
0.0
 10
221.718831460631
 20
121.8746334125417
 30
0.0
 10
221.7141529509028
 20
121.7827415160419
 30
0.0
  0
LINE
  5
162
330
1F
100
AcDbEntity
  8
0
  6
Continuous
 62
     7
370
    18
100
AcDbLine
 10
218.5765539855
 20
122.4262431218
 30
0.0
 11
218.5765539855
 21
120.6915307972
 31
0.0
  0
LINE
  5
163
330
1F
100
AcDbEntity
  8
0
  6
Continuous
 62
     7
370
    18
100
AcDbLine
 10
217.9060596917
 20
122.4262431218
 30
0.0
 11
218.5765539855
 21
122.4262431218
 31
0.0
  0
LINE
  5
164
330
1F
100
AcDbEntity
  8
0
  6
Continuous
 62
     7
370
    18
100
AcDbLine
 10
217.9060596917
 20
122.9278795454
 30
0.0
 11
217.9060596917
 21
122.4262431218
 31
0.0
  0
LINE
  5
165
330
1F
100
AcDbEntity
  8
0
  6
Continuous
 62
     7
370
    18
100
AcDbLine
 10
220.3548719567
 20
122.9278795454
 30
0.0
 11
217.9060596917
 21
122.9278795454
 31
0.0
  0
LINE
  5
166
330
1F
100
AcDbEntity
  8
0
  6
Continuous
 62
     7
370
    18
100
AcDbLine
 10
220.3548719567
 20
122.1127045528
 30
0.0
 11
220.3548719567
 21
122.9278795454
 31
0.0
  0
LINE
  5
167
330
1F
100
AcDbEntity
  8
0
  6
Continuous
 62
     7
370
    18
100
AcDbLine
 10
221.1261381837
 20
122.1127045528
 30
0.0
 11
220.3548719567
 21
122.1127045528
 31
0.0
  0
LINE
  5
168
330
1F
100
AcDbEntity
  8
0
  6
Continuous
 62
     7
370
    18
100
AcDbLine
 10
221.1261381837
 20
122.9278795454
 30
0.0
 11
221.1261381837
 21
122.1127045528
 31
0.0
  0
LINE
  5
169
330
1F
100
AcDbEntity
  8
0
  6
Continuous
 62
     7
370
    18
100
AcDbLine
 10
221.7116506832
 20
122.9278795454
 30
0.0
 11
221.1261381837
 21
122.9278795454
 31
0.0
  0
LINE
  5
16A
330
1F
100
AcDbEntity
  8
0
  6
Continuous
 62
     7
370
    18
100
AcDbLine
 10
221.7116506832
 20
120.6915307972
 30
0.0
 11
221.7116506832
 21
122.9278795454
 31
0.0
  0
LINE
  5
16B
330
1F
100
AcDbEntity
  8
0
  6
Continuous
 62
     7
370
    18
100
AcDbLine
 10
221.1261342484
 20
120.6915307972
 30
0.0
 11
221.7116506832
 21
120.6915307972
 31
0.0
  0
LINE
  5
16C
330
1F
100
AcDbEntity
  8
0
  6
Continuous
 62
     7
370
    18
100
AcDbLine
 10
221.1261342484
 20
121.6133439435
 30
0.0
 11
221.1261342484
 21
120.6915307972
 31
0.0
  0
LINE
  5
16D
330
1F
100
AcDbEntity
  8
0
  6
Continuous
 62
     7
370
    18
100
AcDbLine
 10
220.3548680214
 20
121.6133439435
 30
0.0
 11
221.1261342484
 21
121.6133439435
 31
0.0
  0
LINE
  5
16E
330
1F
100
AcDbEntity
  8
0
  6
Continuous
 62
     7
370
    18
100
AcDbLine
 10
220.3548680214
 20
120.6915307972
 30
0.0
 11
220.3548680214
 21
121.6133439435
 31
0.0
  0
LINE
  5
16F
330
1F
100
AcDbEntity
  8
0
  6
Continuous
 62
     7
370
    18
100
AcDbLine
 10
219.7694238347
 20
120.6915307972
 30
0.0
 11
220.3548680214
 21
120.6915307972
 31
0.0
  0
LINE
  5
170
330
1F
100
AcDbEntity
  8
0
  6
Continuous
 62
     7
370
    18
100
AcDbLine
 10
219.7694238347
 20
122.428446688
 30
0.0
 11
219.7694238347
 21
120.6915307972
 31
0.0
  0
LINE
  5
171
330
1F
100
AcDbEntity
  8
0
  6
Continuous
 62
     7
370
    18
100
AcDbLine
 10
219.1620523583
 20
122.428446688
 30
0.0
 11
219.7694238347
 21
122.428446688
 31
0.0
  0
LINE
  5
172
330
1F
100
AcDbEntity
  8
0
  6
Continuous
 62
     7
370
    18
100
AcDbLine
 10
219.1620523583
 20
120.6915307972
 30
0.0
 11
219.1620523583
 21
122.428446688
 31
0.0
  0
LINE
  5
173
330
1F
100
AcDbEntity
  8
0
  6
Continuous
 62
     7
370
    18
100
AcDbLine
 10
218.5765539855
 20
120.6915307972
 30
0.0
 11
219.1620523583
 21
120.6915307972
 31
0.0
  0
SPLINE
  5
174
330
1F
100
AcDbEntity
  8
0
  6
Continuous
 62
     7
370
    18
100
AcDbSpline
210
0.0
220
0.0
230
1.0
 70
     8
 71
     3
 72
    12
 73
     8
 74
     0
 42
0.000000001
 43
0.00000001
 40
0.0
 40
0.0
 40
0.0
 40
0.0
 40
0.1970292569793941
 40
0.3714318737747092
 40
0.5434083414909542
 40
0.7603083066182464
 40
1.0
 40
1.0
 40
1.0
 40
1.0
 10
225.2743154042641
 20
122.2215823968254
 30
0.0
 10
225.2721056915463
 20
122.2500205589883
 30
0.0
 10
225.2679400272797
 20
122.3036310735932
 30
0.0
 10
225.2279025336268
 20
122.3733636076467
 30
0.0
 10
225.1644410160458
 20
122.4251553809829
 30
0.0
 10
225.0784434482381
 20
122.4576176731221
 30
0.0
 10
225.012878454578
 20
122.4611585675244
 30
0.0
 10
224.9784595508068
 20
122.4630173903031
 30
0.0
  0
SPLINE
  5
175
330
1F
100
AcDbEntity
  8
0
  6
Continuous
 62
     7
370
    18
100
AcDbSpline
210
0.0
220
0.0
230
1.0
 70
     8
 71
     3
 72
    12
 73
     8
 74
     0
 42
0.000000001
 43
0.00000001
 40
0.0
 40
0.0
 40
0.0
 40
0.0
 40
0.2111291888127878
 40
0.3927062339152239
 40
0.5599129747574153
 40
0.7634359056262756
 40
1.0
 40
1.0
 40
1.0
 40
1.0
 10
225.0036380037811
 20
121.9582923616699
 30
0.0
 10
225.033935958648
 20
121.9598309830858
 30
0.0
 10
225.0902910075071
 20
121.9626928622274
 30
0.0
 10
225.1666159773169
 20
121.9918718858488
 30
0.0
 10
225.2279400755884
 20
122.0440322946417
 30
0.0
 10
225.2683876003786
 20
122.1242320936182
 30
0.0
 10
225.2722429839027
 20
122.1875477434456
 30
0.0
 10
225.2743154042641
 20
122.2215823968254
 30
0.0
  0
LINE
  5
176
330
1F
100
AcDbEntity
  8
0
  6
Continuous
 62
     7
370
    18
100
AcDbLine
 10
224.5125678607
 20
121.9582923617
 30
0.0
 11
225.0036380038
 21
121.9582923617
 31
0.0
  0
LINE
  5
177
330
1F
100
AcDbEntity
  8
0
  6
Continuous
 62
     7
370
    18
100
AcDbLine
 10
224.5125678607
 20
122.4630173903
 30
0.0
 11
224.5125678607
 21
121.9582923617
 31
0.0
  0
LINE
  5
178
330
1F
100
AcDbEntity
  8
0
  6
Continuous
 62
     7
370
    18
100
AcDbLine
 10
224.9784595508
 20
122.4630173903
 30
0.0
 11
224.5125678607
 21
122.4630173903
 31
0.0
  0
SPLINE
  5
179
330
1F
100
AcDbEntity
  8
0
  6
Continuous
 62
     7
370
    18
100
AcDbSpline
210
0.0
220
0.0
230
1.0
 70
     8
 71
     3
 72
    14
 73
    10
 74
     0
 42
0.000000001
 43
0.00000001
 40
0.0
 40
0.0
 40
0.0
 40
0.0
 40
0.2575826845002086
 40
0.4580339644254271
 40
0.6128287983994989
 40
0.7093883131761942
 40
0.799802888308484
 40
0.8941338805613368
 40
1.0
 40
1.0
 40
1.0
 40
1.0
 10
231.894424272703
 20
121.2855544423859
 30
0.0
 10
231.9225015478862
 20
121.2784403787711
 30
0.0
 10
231.9724286060166
 20
121.2657901388413
 30
0.0
 10
232.0411152954227
 20
121.2581938221472
 30
0.0
 10
232.0923194167311
 20
121.2628867030619
 30
0.0
 10
232.1282470669768
 20
121.2779957285644
 30
0.0
 10
232.1523391970231
 20
121.299236663779
 30
0.0
 10
232.1696482165838
 20
121.3274804092485
 30
0.0
 10
232.1759840793564
 20
121.3491336349719
 30
0.0
 10
232.1793345433035
 20
121.3605840648073
 30
0.0
  0
SPLINE
  5
17A
330
1F
100
AcDbEntity
  8
0
  6
Continuous
 62
     7
370
    18
100
AcDbSpline
210
0.0
220
0.0
230
1.0
 70
     8
 71
     3
 72
    12
 73
     8
 74
     0
 42
0.000000001
 43
0.00000001
 40
0.0
 40
0.0
 40
0.0
 40
0.0
 40
0.2545415383352848
 40
0.4933538848768423
 40
0.6299818928893339
 40
0.7933578680691701
 40
1.0
 40
1.0
 40
1.0
 40
1.0
 10
231.6948028507
 20
121.5692003717323
 30
0.0
 10
231.6946481558972
 20
121.536537922583
 30
0.0
 10
231.6943483255338
 20
121.4732313743364
 30
0.0
 10
231.7193421488516
 20
121.3930255295858
 30
0.0
 10
231.767399585688
 20
121.3417999578008
 30
0.0
 10
231.8235953606366
 20
121.3076757760498
 30
0.0
 10
231.8690432313188
 20
121.2934814663768
 30
0.0
 10
231.894424272703
 20
121.2855544423859
 30
0.0
  0
SPLINE
  5
17B
330
1F
100
AcDbEntity
  8
0
  6
Continuous
 62
     7
370
    18
100
AcDbSpline
210
0.0
220
0.0
230
1.0
 70
     8
 71
     3
 72
    14
 73
    10
 74
     0
 42
0.000000001
 43
0.00000001
 40
0.0
 40
0.0
 40
0.0
 40
0.0
 40
0.0123761948722825
 40
0.0260544786030458
 40
0.0423069896659046
 40
0.1107691877094737
 40
0.3353734156282139
 40
0.646563748969061
 40
1.0
 40
1.0
 40
1.0
 40
1.0
 10
232.1793345433035
 20
121.3605840648073
 30
0.0
 10
232.1796007827728
 20
121.3628206847906
 30
0.0
 10
232.1801612725378
 20
121.3675292376294
 30
0.0
 10
232.177319884836
 20
121.3748350807811
 30
0.0
 10
232.1671965140246
 20
121.3893699213582
 30
0.0
 10
232.120825486069
 20
121.4221470773786
 30
0.0
 10
232.0211124842117
 20
121.4646594483446
 30
0.0
 10
231.8701717891973
 20
121.5174816365737
 30
0.0
 10
231.7556848886395
 20
121.5512454133281
 30
0.0
 10
231.6948028507
 20
121.5692003717323
 30
0.0
  0
LINE
  5
17C
330
1F
100
AcDbEntity
  8
0
  6
Continuous
 62
     7
370
    18
100
AcDbLine
 10
231.1712933234
 20
121.5732101397
 30
0.0
 11
231.681003469
 21
121.5732101397
 31
0.0
  0
SPLINE
  5
17D
330
1F
100
AcDbEntity
  8
0
  6
Continuous
 62
     7
370
    18
100
AcDbSpline
210
0.0
220
0.0
230
1.0
 70
     8
 71
     3
 72
    11
 73
     7
 74
     0
 42
0.000000001
 43
0.00000001
 40
0.0
 40
0.0
 40
0.0
 40
0.0
 40
0.2403133392799487
 40
0.5276554281052314
 40
0.7630136347472218
 40
1.0
 40
1.0
 40
1.0
 40
1.0
 10
230.9555605814508
 20
121.914202975938
 30
0.0
 10
230.9822564291981
 20
121.8938951409782
 30
0.0
 10
231.0408724386711
 20
121.8493052760056
 30
0.0
 10
231.1085537586513
 20
121.7665459143402
 30
0.0
 10
231.160305405779
 20
121.6722430936094
 30
0.0
 10
231.1676222771986
 20
121.606296895913
 30
0.0
 10
231.1712933234346
 20
121.5732101397096
 30
0.0
  0
SPLINE
  5
17E
330
1F
100
AcDbEntity
  8
0
  6
Continuous
 62
     7
370
    18
100
AcDbSpline
210
0.0
220
0.0
230
1.0
 70
     8
 71
     3
 72
    10
 73
     6
 74
     0
 42
0.000000001
 43
0.00000001
 40
0.0
 40
0.0
 40
0.0
 40
0.0
 40
0.3052209345869937
 40
0.5892711010915017
 40
0.9999999999999999
 40
0.9999999999999999
 40
0.9999999999999999
 40
0.9999999999999999
 10
231.0808748617492
 20
122.0951482714163
 30
0.0
 10
231.0733738720676
 20
122.0736025599412
 30
0.0
 10
231.0588921771769
 20
122.0320055930035
 30
0.0
 10
231.011966900689
 20
121.9734862662698
 30
0.0
 10
230.9765171969976
 20
121.9362284713188
 30
0.0
 10
230.9555605814508
 20
121.914202975938
 30
0.0
  0
SPLINE
  5
17F
330
1F
100
AcDbEntity
  8
0
  6
Continuous
 62
     7
370
    18
100
AcDbSpline
210
0.0
220
0.0
230
1.0
 70
     8
 71
     3
 72
    11
 73
     7
 74
     0
 42
0.000000001
 43
0.00000001
 40
0.0
 40
0.0
 40
0.0
 40
0.0
 40
0.3113820865694061
 40
0.5952152429024645
 40
0.7995709864930258
 40
1.0
 40
1.0
 40
1.0
 40
1.0
 10
231.5819152387275
 20
121.6010617713354
 30
0.0
 10
231.5076113639992
 20
121.6263693234513
 30
0.0
 10
231.3655775067137
 20
121.6747453907641
 30
0.0
 10
231.203550653134
 20
121.7978189418099
 30
0.0
 10
231.0996633563069
 20
121.9423709903182
 30
0.0
 10
231.0870970589503
 20
122.0445529260623
 30
0.0
 10
231.0808748617492
 20
122.0951482714163
 30
0.0
  0
SPLINE
  5
180
330
1F
100
AcDbEntity
  8
0
  6
Continuous
 62
     7
370
    18
100
AcDbSpline
210
0.0
220
0.0
230
1.0
 70
     8
 71
     3
 72
     9
 73
     5
 74
     0
 42
0.000000001
 43
0.00000001
 40
0.0
 40
0.0
 40
0.0
 40
0.0
 40
0.5632377239369403
 40
0.9999999999999999
 40
0.9999999999999999
 40
0.9999999999999999
 40
0.9999999999999999
 10
231.6810034690125
 20
121.5732101397096
 30
0.0
 10
231.6624172533282
 20
121.5785004093666
 30
0.0
 10
231.629418370451
 20
121.5878930147129
 30
0.0
 10
231.5963557458854
 20
121.5970585926529
 30
0.0
 10
231.5819152387275
 20
121.6010617713354
 30
0.0
  0
SPLINE
  5
181
330
1F
100
AcDbEntity
  8
0
  6
Continuous
 62
     7
370
    18
100
AcDbSpline
210
0.0
220
0.0
230
1.0
 70
     8
 71
     3
 72
    13
 73
     9
 74
     0
 42
0.000000001
 43
0.00000001
 40
0.0
 40
0.0
 40
0.0
 40
0.0
 40
0.2070940199890577
 40
0.397864964662673
 40
0.5739369280037263
 40
0.7077750174858435
 40
0.8462504046616482
 40
1.0
 40
1.0
 40
1.0
 40
1.0
 10
230.3175378606006
 20
120.7939424387595
 30
0.0
 10
230.3889768528898
 20
120.7964089942976
 30
0.0
 10
230.5262240420853
 20
120.8011476923637
 30
0.0
 10
230.7199800880369
 20
120.8475771255395
 30
0.0
 10
230.8762639520686
 20
120.9260531418
 30
0.0
 10
230.9894920257018
 20
121.0335844317299
 30
0.0
 10
231.06579629625
 20
121.1621567751311
 30
0.0
 10
231.0859731053838
 20
121.2614049475454
 30
0.0
 10
231.0965888173358
 20
121.3136228182268
 30
0.0
  0
LINE
  5
182
330
1F
100
AcDbEntity
  8
0
  6
Continuous
 62
     7
370
    18
100
AcDbLine
 10
228.8390171981
 20
120.7939424388
 30
0.0
 11
230.3175378606
 21
120.7939424388
 31
0.0
  0
LINE
  5
183
330
1F
100
AcDbEntity
  8
0
  6
Continuous
 62
     7
370
    18
100
AcDbLine
 10
228.6884160927
 20
121.1373736474
 30
0.0
 11
228.8390171981
 21
120.7939424388
 31
0.0
  0
LINE
  5
184
330
1F
100
AcDbEntity
  8
0
  6
Continuous
 62
     7
370
    18
100
AcDbLine
 10
228.0350045326
 20
121.1373736474
 30
0.0
 11
228.6884160927
 21
121.1373736474
 31
0.0
  0
LINE
  5
185
330
1F
100
AcDbEntity
  8
0
  6
Continuous
 62
     7
370
    18
100
AcDbLine
 10
227.8814412563
 20
120.7967239895
 30
0.0
 11
228.0350045326
 21
121.1373736474
 31
0.0
  0
LINE
  5
186
330
1F
100
AcDbEntity
  8
0
  6
Continuous
 62
     7
370
    18
100
AcDbLine
 10
226.012022402
 20
120.7967239895
 30
0.0
 11
227.8814412563
 21
120.7967239895
 31
0.0
  0
LINE
  5
187
330
1F
100
AcDbEntity
  8
0
  6
Continuous
 62
     7
370
    18
100
AcDbLine
 10
226.012022402
 20
122.8169606934
 30
0.0
 11
226.012022402
 21
120.7967239895
 31
0.0
  0
LINE
  5
188
330
1F
100
AcDbEntity
  8
0
  6
Continuous
 62
     7
370
    18
100
AcDbLine
 10
226.5390720848
 20
122.8169606934
 30
0.0
 11
226.012022402
 21
122.8169606934
 31
0.0
  0
LINE
  5
189
330
1F
100
AcDbEntity
  8
0
  6
Continuous
 62
     7
370
    18
100
AcDbLine
 10
226.5390720848
 20
121.2536930428
 30
0.0
 11
226.5390720848
 21
122.8169606934
 31
0.0
  0
LINE
  5
18A
330
1F
100
AcDbEntity
  8
0
  6
Continuous
 62
     7
370
    18
100
AcDbLine
 10
227.5085328344
 20
121.2536930428
 30
0.0
 11
226.5390720848
 21
121.2536930428
 31
0.0
  0
LINE
  5
18B
330
1F
100
AcDbEntity
  8
0
  6
Continuous
 62
     7
370
    18
100
AcDbLine
 10
228.0967766338
 20
122.8169606934
 30
0.0
 11
227.5085328344
 21
121.2536930428
 31
0.0
  0
LINE
  5
18C
330
1F
100
AcDbEntity
  8
0
  6
Continuous
 62
     7
370
    18
100
AcDbLine
 10
228.632243217
 20
122.8169606934
 30
0.0
 11
228.0967766338
 21
122.8169606934
 31
0.0
  0
LINE
  5
18D
330
1F
100
AcDbEntity
  8
0
  6
Continuous
 62
     7
370
    18
100
AcDbLine
 10
229.3457651727
 20
120.9335618372
 30
0.0
 11
228.632243217
 21
122.8169606934
 31
0.0
  0
LINE
  5
18E
330
1F
100
AcDbEntity
  8
0
  6
Continuous
 62
     7
370
    18
100
AcDbLine
 10
229.3457651727
 20
122.8169606934
 30
0.0
 11
229.3457651727
 21
120.9335618372
 31
0.0
  0
LINE
  5
18F
330
1F
100
AcDbEntity
  8
0
  6
Continuous
 62
     7
370
    18
100
AcDbLine
 10
230.2919981673
 20
122.8169606934
 30
0.0
 11
229.3457651727
 21
122.8169606934
 31
0.0
  0
SPLINE
  5
190
330
1F
100
AcDbEntity
  8
0
  6
Continuous
 62
     7
370
    18
100
AcDbSpline
210
0.0
220
0.0
230
1.0
 70
     8
 71
     3
 72
    14
 73
    10
 74
     0
 42
0.000000001
 43
0.00000001
 40
0.0
 40
0.0
 40
0.0
 40
0.0
 40
0.142381661263587
 40
0.265401025077828
 40
0.3802085707899266
 40
0.4953201289099334
 40
0.656243276611474
 40
0.8263515868701823
 40
1.0
 40
1.0
 40
1.0
 40
1.0
 10
231.0229680323118
 20
122.3118563623675
 30
0.0
 10
231.0201441710682
 20
122.3599592730976
 30
0.0
 10
231.014880461809
 20
122.4496236421159
 30
0.0
 10
230.9642999933085
 20
122.5698668628276
 30
0.0
 10
230.8870776997901
 20
122.6620681630182
 30
0.0
 10
230.7770728484664
 20
122.7365910864689
 30
0.0
 10
230.6345179618242
 20
122.7877087987565
 30
0.0
 10
230.466212185811
 20
122.815191451826
 30
0.0
 10
230.3504668327871
 20
122.8163669111238
 30
0.0
 10
230.291998167268
 20
122.8169606933769
 30
0.0
  0
SPLINE
  5
191
330
1F
100
AcDbEntity
  8
0
  6
Continuous
 62
     7
370
    18
100
AcDbSpline
210
0.0
220
0.0
230
1.0
 70
     8
 71
     3
 72
    11
 73
     7
 74
     0
 42
0.000000001
 43
0.00000001
 40
0.0
 40
0.0
 40
0.0
 40
0.0
 40
0.2840562052455271
 40
0.5588619016419699
 40
0.7750993838285841
 40
1.0
 40
1.0
 40
1.0
 40
1.0
 10
230.7566255161286
 20
121.9055512693564
 30
0.0
 10
230.7985316881117
 20
121.9304058401218
 30
0.0
 10
230.8809793253489
 20
121.9793055734348
 30
0.0
 10
230.96491816566
 20
122.084620504047
 30
0.0
 10
231.0145484323131
 20
122.1979625827288
 30
0.0
 10
231.0201249945329
 20
122.2733979654905
 30
0.0
 10
231.0229680323118
 20
122.3118563623675
 30
0.0
  0
SPLINE
  5
192
330
1F
100
AcDbEntity
  8
0
  6
Continuous
 62
     7
370
    18
100
AcDbSpline
210
0.0
220
0.0
230
1.0
 70
     8
 71
     3
 72
    11
 73
     7
 74
     0
 42
0.000000001
 43
0.00000001
 40
0.0
 40
0.0
 40
0.0
 40
0.0
 40
0.2849839497112045
 40
0.5578557580524982
 40
0.7738896021956478
 40
1.0
 40
1.0
 40
1.0
 40
1.0
 10
231.1026215313195
 20
121.4794321426919
 30
0.0
 10
231.0929238964303
 20
121.5344825740989
 30
0.0
 10
231.0739407871431
 20
121.6422437310861
 30
0.0
 10
230.9875835956237
 20
121.7701306896193
 30
0.0
 10
230.8792738973722
 20
121.8603632819019
 30
0.0
 10
230.7981247779719
 20
121.8902614782925
 30
0.0
 10
230.7566255161286
 20
121.9055512693564
 30
0.0
  0
LINE
  5
193
330
1F
100
AcDbEntity
  8
0
  6
Continuous
 62
     7
370
    18
100
AcDbLine
 10
231.606371211
 20
121.4794321427
 30
0.0
 11
231.1026215313
 21
121.4794321427
 31
0.0
  0
SPLINE
  5
194
330
1F
100
AcDbEntity
  8
0
  6
Continuous
 62
     7
370
    18
100
AcDbSpline
210
0.0
220
0.0
230
1.0
 70
     8
 71
     3
 72
    12
 73
     8
 74
     0
 42
0.000000001
 43
0.00000001
 40
0.0
 40
0.0
 40
0.0
 40
0.0
 40
0.302984817518161
 40
0.5555954840373184
 40
0.686125306864037
 40
0.8302562633026858
 40
1.0
 40
1.0
 40
1.0
 40
1.0
 10
231.9887802542941
 20
121.1662006279998
 30
0.0
 10
231.9319160557054
 20
121.1684694060304
 30
0.0
 10
231.8276418805237
 20
121.1726297558406
 30
0.0
 10
231.7067510829968
 20
121.2316321712779
 30
0.0
 10
231.6453863875071
 20
121.3105824782275
 30
0.0
 10
231.6147379973167
 20
121.3891033690862
 30
0.0
 10
231.6093078434385
 20
121.4477279258604
 30
0.0
 10
231.6063712109852
 20
121.4794321426919
 30
0.0
  0
SPLINE
  5
195
330
1F
100
AcDbEntity
  8
0
  6
Continuous
 62
     7
370
    18
100
AcDbSpline
210
0.0
220
0.0
230
1.0
 70
     8
 71
     3
 72
    12
 73
     8
 74
     0
 42
0.000000001
 43
0.00000001
 40
0.0
 40
0.0
 40
0.0
 40
0.0
 40
0.1228977808113465
 40
0.2361517003655371
 40
0.4654549568724354
 40
0.7229435422785242
 40
0.9999999999999999
 40
0.9999999999999999
 40
0.9999999999999999
 40
0.9999999999999999
 10
232.3118013826964
 20
121.3722521283808
 30
0.0
 10
232.3104801306299
 20
121.3547260195844
 30
0.0
 10
232.3079413059247
 20
121.3210490860733
 30
0.0
 10
232.2781309105318
 20
121.2603944010712
 30
0.0
 10
232.2088846126844
 20
121.2053831759016
 30
0.0
 10
232.1041154911084
 20
121.1719630408142
 30
0.0
 10
232.0281522516706
 20
121.1681677432412
 30
0.0
 10
231.9887802542941
 20
121.1662006279998
 30
0.0
  0
SPLINE
  5
196
330
1F
100
AcDbEntity
  8
0
  6
Continuous
 62
     7
370
    18
100
AcDbSpline
210
0.0
220
0.0
230
1.0
 70
     8
 71
     3
 72
    12
 73
     8
 74
     0
 42
0.000000001
 43
0.00000001
 40
0.0
 40
0.0
 40
0.0
 40
0.0
 40
0.3210306919457592
 40
0.6029592976098657
 40
0.8214028303124052
 40
0.9104117121954226
 40
1.0
 40
1.0
 40
1.0
 40
1.0
 10
231.730963010567
 20
121.6656515474016
 30
0.0
 10
231.8023381062095
 20
121.6472587741973
 30
0.0
 10
231.9363946890073
 20
121.6127134989617
 30
0.0
 10
232.1179788631095
 20
121.5647387788597
 30
0.0
 10
232.2439607300835
 20
121.5076341393792
 30
0.0
 10
232.3044462007622
 20
121.4345689788866
 30
0.0
 10
232.3093443585082
 20
121.3930692897228
 30
0.0
 10
232.3118013826964
 20
121.3722521283808
 30
0.0
  0
SPLINE
  5
197
330
1F
100
AcDbEntity
  8
0
  6
Continuous
 62
     7
370
    18
100
AcDbSpline
210
0.0
220
0.0
230
1.0
 70
     8
 71
     3
 72
    12
 73
     8
 74
     0
 42
0.000000001
 43
0.00000001
 40
0.0
 40
0.0
 40
0.0
 40
0.0
 40
0.2059303301559971
 40
0.3857152088822362
 40
0.5622731912300346
 40
0.7785006333333745
 40
1.0
 40
1.0
 40
1.0
 40
1.0
 10
231.1388539392582
 20
122.2469775940148
 30
0.0
 10
231.1438227809826
 20
122.1845777480599
 30
0.0
 10
231.1531296073358
 20
122.0677005032245
 30
0.0
 10
231.2419556370561
 20
121.9177660520983
 30
0.0
 10
231.3742232782403
 20
121.8050321578097
 30
0.0
 10
231.5413153252042
 20
121.7229722632383
 30
0.0
 10
231.6672415690302
 20
121.6849112532928
 30
0.0
 10
231.730963010567
 20
121.6656515474016
 30
0.0
  0
SPLINE
  5
198
330
1F
100
AcDbEntity
  8
0
  6
Continuous
 62
     7
370
    18
100
AcDbSpline
210
0.0
220
0.0
230
1.0
 70
     8
 71
     3
 72
    14
 73
    10
 74
     0
 42
0.000000001
 43
0.00000001
 40
0.0
 40
0.0
 40
0.0
 40
0.0
 40
0.1687571149027776
 40
0.3389805425085095
 40
0.5046286467510799
 40
0.6247827513896844
 40
0.7433698504427163
 40
0.8656643973442318
 40
1.0
 40
1.0
 40
1.0
 40
1.0
 10
231.9632766849973
 20
122.8592438773173
 30
0.0
 10
231.8987410986694
 20
122.8564156556662
 30
0.0
 10
231.7691091831372
 20
122.8507346382456
 30
0.0
 10
231.5806258467274
 20
122.8044308415658
 30
0.0
 10
231.4204944385887
 20
122.7325256108302
 30
0.0
 10
231.2962388533412
 20
122.638531637587
 30
0.0
 10
231.2084159008503
 20
122.5305524746388
 30
0.0
 10
231.1491325409542
 20
122.3969953434326
 30
0.0
 10
231.1423856607593
 20
122.2985236045362
 30
0.0
 10
231.1388539392582
 20
122.2469775940148
 30
0.0
  0
SPLINE
  5
199
330
1F
100
AcDbEntity
  8
0
  6
Continuous
 62
     7
370
    18
100
AcDbSpline
210
0.0
220
0.0
230
1.0
 70
     8
 71
     3
 72
    12
 73
     8
 74
     0
 42
0.000000001
 43
0.00000001
 40
0.0
 40
0.0
 40
0.0
 40
0.0
 40
0.1993974480574499
 40
0.3779257523812703
 40
0.5550669356786526
 40
0.7731143074051396
 40
1.0
 40
1.0
 40
1.0
 40
1.0
 10
232.773647180798
 20
122.2103116976461
 30
0.0
 10
232.7662602868901
 20
122.2880635317528
 30
0.0
 10
232.7522596190526
 20
122.4354296123623
 30
0.0
 10
232.6321319216918
 20
122.6224460981769
 30
0.0
 10
232.4533150008878
 20
122.7582082725465
 30
0.0
 10
232.2236023273661
 20
122.8437245127118
 30
0.0
 10
232.0511934974724
 20
122.8540026991708
 30
0.0
 10
231.9632766849973
 20
122.8592438773173
 30
0.0
  0
LINE
  5
19A
330
1F
100
AcDbEntity
  8
0
  6
Continuous
 62
     7
370
    18
100
AcDbLine
 10
232.2466697461
 20
122.2103116976
 30
0.0
 11
232.7736471808
 21
122.2103116976
 31
0.0
  0
SPLINE
  5
19B
330
1F
100
AcDbEntity
  8
0
  6
Continuous
 62
     7
370
    18
100
AcDbSpline
210
0.0
220
0.0
230
1.0
 70
     8
 71
     3
 72
    13
 73
     9
 74
     0
 42
0.000000001
 43
0.00000001
 40
0.0
 40
0.0
 40
0.0
 40
0.0
 40
0.2626041787201662
 40
0.509983956645249
 40
0.6263386331431532
 40
0.7414049134888278
 40
0.8625801387792151
 40
1.0
 40
1.0
 40
1.0
 40
1.0
 10
231.920758694824
 20
122.4529387843062
 30
0.0
 10
231.9611012524298
 20
122.4509187511042
 30
0.0
 10
232.0394475196115
 20
122.4469957955369
 30
0.0
 10
232.1321823331724
 20
122.4140752321441
 30
0.0
 10
232.1914319212261
 20
122.3695349839339
 30
0.0
 10
232.2248172919853
 20
122.3261146735282
 30
0.0
 10
232.2456720656364
 20
122.2714661662709
 30
0.0
 10
232.2463235442369
 20
122.2315327112456
 30
0.0
 10
232.2466697460928
 20
122.2103116976461
 30
0.0
  0
SPLINE
  5
19C
330
1F
100
AcDbEntity
  8
0
  6
Continuous
 62
     7
370
    18
100
AcDbSpline
210
0.0
220
0.0
230
1.0
 70
     8
 71
     3
 72
    12
 73
     8
 74
     0
 42
0.000000001
 43
0.00000001
 40
0.0
 40
0.0
 40
0.0
 40
0.0
 40
0.1338350776842965
 40
0.2542572338768605
 40
0.4899325118163999
 40
0.7434916633797872
 40
1.0
 40
1.0
 40
1.0
 40
1.0
 10
231.6659036220351
 20
122.2808438776065
 30
0.0
 10
231.667011607534
 20
122.2962204058225
 30
0.0
 10
231.6691165364735
 20
122.3254324300427
 30
0.0
 10
231.6939204921403
 20
122.3770890673301
 30
0.0
 10
231.7505150758714
 20
122.4224203012917
 30
0.0
 10
231.8330209902952
 20
122.4484640657607
 30
0.0
 10
231.8914002779272
 20
122.4514414730503
 30
0.0
 10
231.920758694824
 20
122.4529387843062
 30
0.0
  0
SPLINE
  5
19D
330
1F
100
AcDbEntity
  8
0
  6
Continuous
 62
     7
370
    18
100
AcDbSpline
210
0.0
220
0.0
230
1.0
 70
     8
 71
     3
 72
    12
 73
     8
 74
     0
 42
0.000000001
 43
0.00000001
 40
0.0
 40
0.0
 40
0.0
 40
0.0
 40
0.3295920737084764
 40
0.6175980183821557
 40
0.8358975487564522
 40
0.9197397490046714
 40
1.0
 40
1.0
 40
1.0
 40
1.0
 10
232.2523050956825
 20
122.0155489584623
 30
0.0
 10
232.1803081143989
 20
122.033713997416
 30
0.0
 10
232.0453983379899
 20
122.0677521098481
 30
0.0
 10
231.8629164894134
 20
122.1121435249932
 30
0.0
 10
231.7372506038975
 20
122.1608630987828
 30
0.0
 10
231.6739145145446
 20
122.2250392623849
 30
0.0
 10
231.6685347774349
 20
122.2625150066972
 30
0.0
 10
231.6659036220351
 20
122.2808438776065
 30
0.0
  0
SPLINE
  5
19E
330
1F
100
AcDbEntity
  8
0
  6
Continuous
 62
     7
370
    18
100
AcDbSpline
210
0.0
220
0.0
230
1.0
 70
     8
 71
     3
 72
    12
 73
     8
 74
     0
 42
0.000000001
 43
0.00000001
 40
0.0
 40
0.0
 40
0.0
 40
0.0
 40
0.2045378821184161
 40
0.3838943514216823
 40
0.5601975822227061
 40
0.7766167962242719
 40
1.0
 40
1.0
 40
1.0
 40
1.0
 10
232.8387788174016
 20
121.4343132219387
 30
0.0
 10
232.8339148585735
 20
121.4959397425462
 30
0.0
 10
232.8247857608225
 20
121.6116057155873
 30
0.0
 10
232.7381142013418
 20
121.7608235816957
 30
0.0
 10
232.6080389865681
 20
121.8744556429565
 30
0.0
 10
232.4420909187606
 20
121.9580755522262
 30
0.0
 10
232.3162313386718
 20
121.9961899838409
 30
0.0
 10
232.2523050956825
 20
122.0155489584623
 30
0.0
  0
SPLINE
  5
19F
330
1F
100
AcDbEntity
  8
0
  6
Continuous
 62
     7
370
    18
100
AcDbSpline
210
0.0
220
0.0
230
1.0
 70
     8
 71
     3
 72
    13
 73
     9
 74
     0
 42
0.000000001
 43
0.00000001
 40
0.0
 40
0.0
 40
0.0
 40
0.0
 40
0.1943984829390959
 40
0.3808229110812401
 40
0.5574598692554747
 40
0.6939226743571321
 40
0.8373010797229365
 40
1.0
 40
1.0
 40
1.0
 40
1.0
 10
231.9575690873359
 20
120.7338681671723
 30
0.0
 10
232.039810614744
 20
120.7375454020562
 30
0.0
 10
232.2009201944372
 20
120.7447490348832
 30
0.0
 10
232.429683361812
 20
120.8095294448576
 30
0.0
 10
232.6154205836623
 20
120.9164304988102
 30
0.0
 10
232.7459758107449
 20
121.0616951012613
 30
0.0
 10
232.8256672755857
 20
121.2353153403851
 30
0.0
 10
232.8342281736453
 20
121.365246709401
 30
0.0
 10
232.8387788174016
 20
121.4343132219387
 30
0.0
  0
SPLINE
  5
1A0
330
1F
100
AcDbEntity
  8
0
  6
Continuous
 62
     7
370
    18
100
AcDbSpline
210
0.0
220
0.0
230
1.0
 70
     8
 71
     3
 72
    12
 73
     8
 74
     0
 42
0.000000001
 43
0.00000001
 40
0.0
 40
0.0
 40
0.0
 40
0.0
 40
0.1886637132768492
 40
0.3661825608804957
 40
0.5448728808046025
 40
0.7656579321773197
 40
1.0
 40
1.0
 40
1.0
 40
1.0
 10
231.0965888173358
 20
121.3136228182268
 30
0.0
 10
231.116824405763
 20
121.2451066112561
 30
0.0
 10
231.1561002127665
 20
121.1121216312904
 30
0.0
 10
231.2894062326743
 20
120.9503164496896
 30
0.0
 10
231.4699860862215
 20
120.8276871810008
 30
0.0
 10
231.6982775892453
 20
120.7481147648982
 30
0.0
 10
231.869439107091
 20
120.7387104099199
 30
0.0
 10
231.9575690873359
 20
120.7338681671723
 30
0.0
  0
LINE
  5
1A1
330
1F
100
AcDbEntity
  8
0
  6
Continuous
 62
     7
370
    18
100
AcDbLine
 10
228.6651160896
 20
121.4761448554
 30
0.0
 11
228.4096830322
 21
122.2846910874
 31
0.0
  0
LINE
  5
1A2
330
1F
100
AcDbEntity
  8
0
  6
Continuous
 62
     7
370
    18
100
AcDbLine
 10
228.4096830322
 20
122.2846910874
 30
0.0
 11
228.3273924786
 21
122.2846910874
 31
0.0
  0
LINE
  5
1A3
330
1F
100
AcDbEntity
  8
0
  6
Continuous
 62
     7
370
    18
100
AcDbLine
 10
228.3273924786
 20
122.2846910874
 30
0.0
 11
228.0631812805
 21
121.4761448554
 31
0.0
  0
LINE
  5
1A4
330
1F
100
AcDbEntity
  8
0
  6
Continuous
 62
     7
370
    18
100
AcDbLine
 10
228.0631812805
 20
121.4761448554
 30
0.0
 11
228.6651160896
 21
121.4761448554
 31
0.0
  0
LINE
  5
1A5
330
1F
100
AcDbEntity
  8
0
  6
Continuous
 62
     7
370
    18
100
AcDbLine
 10
229.8260342291
 20
121.9466423601
 30
0.0
 11
230.2950687103
 21
121.9466423601
 31
0.0
  0
SPLINE
  5
1A6
330
1F
100
AcDbEntity
  8
0
  6
Continuous
 62
     7
370
    18
100
AcDbSpline
210
0.0
220
0.0
230
1.0
 70
     8
 71
     3
 72
    12
 73
     8
 74
     0
 42
0.000000001
 43
0.00000001
 40
0.0
 40
0.0
 40
0.0
 40
0.0
 40
0.242466320512141
 40
0.5040777209641408
 40
0.6506173645415592
 40
0.8119564965868009
 40
1.0
 40
1.0
 40
1.0
 40
1.0
 10
230.2950687103136
 20
121.9466423601144
 30
0.0
 10
230.3265369088254
 20
121.9496353825818
 30
0.0
 10
230.3919580269219
 20
121.955857755821
 30
0.0
 10
230.4675349420603
 20
122.0009376966728
 30
0.0
 10
230.5136685132541
 20
122.0591803084249
 30
0.0
 10
230.5385208245755
 20
122.1196760378049
 30
0.0
 10
230.5412370555665
 20
122.1650598655298
 30
0.0
 10
230.5426989759364
 20
122.1894861909894
 30
0.0
  0
SPLINE
  5
1A7
330
1F
100
AcDbEntity
  8
0
  6
Continuous
 62
     7
370
    18
100
AcDbSpline
210
0.0
220
0.0
230
1.0
 70
     8
 71
     3
 72
    12
 73
     8
 74
     0
 42
0.000000001
 43
0.00000001
 40
0.0
 40
0.0
 40
0.0
 40
0.0
 40
0.2325061039550861
 40
0.422258003895175
 40
0.5928278045028547
 40
0.792214384270928
 40
1.0
 40
1.0
 40
1.0
 40
1.0
 10
230.5426989759364
 20
122.1894861909894
 30
0.0
 10
230.5408772793214
 20
122.2203561130213
 30
0.0
 10
230.537568867356
 20
122.2764194654918
 30
0.0
 10
230.5033565844897
 20
122.3492204608083
 30
0.0
 10
230.4486835981471
 20
122.4010000300877
 30
0.0
 10
230.3765079006345
 20
122.4312339964279
 30
0.0
 10
230.3225858700218
 20
122.4343515133475
 30
0.0
 10
230.2950687103136
 20
122.4359424254476
 30
0.0
  0
LINE
  5
1A8
330
1F
100
AcDbEntity
  8
0
  6
Continuous
 62
     7
370
    18
100
AcDbLine
 10
230.2950687103
 20
122.4359424254
 30
0.0
 11
229.8260342291
 21
122.4359424254
 31
0.0
  0
LINE
  5
1A9
330
1F
100
AcDbEntity
  8
0
  6
Continuous
 62
     7
370
    18
100
AcDbLine
 10
229.8260342291
 20
122.4359424254
 30
0.0
 11
229.8260342291
 21
121.9466423601
 31
0.0
  0
LINE
  5
1AA
330
1F
100
AcDbEntity
  8
0
  6
Continuous
 62
     7
370
    18
100
AcDbLine
 10
229.8260342291
 20
121.1487527187
 30
0.0
 11
230.3470150738
 21
121.1487527187
 31
0.0
  0
SPLINE
  5
1AB
330
1F
100
AcDbEntity
  8
0
  6
Continuous
 62
     7
370
    18
100
AcDbSpline
210
0.0
220
0.0
230
1.0
 70
     8
 71
     3
 72
    12
 73
     8
 74
     0
 42
0.000000001
 43
0.00000001
 40
0.0
 40
0.0
 40
0.0
 40
0.0
 40
0.2382584506409018
 40
0.4976556531040064
 40
0.6448887038896378
 40
0.8084522641844554
 40
1.0
 40
1.0
 40
1.0
 40
1.0
 10
230.3470150738389
 20
121.1487527186933
 30
0.0
 10
230.3820076163389
 20
121.1522216746268
 30
0.0
 10
230.4550973075746
 20
121.159467358992
 30
0.0
 10
230.538959023538
 20
121.211786798501
 30
0.0
 10
230.5898745447944
 20
121.2787402977731
 30
0.0
 10
230.6173428009656
 20
121.3483799045776
 30
0.0
 10
230.6203389706781
 20
121.4005416978437
 30
0.0
 10
230.6219551105499
 20
121.4286778723491
 30
0.0
  0
SPLINE
  5
1AC
330
1F
100
AcDbEntity
  8
0
  6
Continuous
 62
     7
370
    18
100
AcDbSpline
210
0.0
220
0.0
230
1.0
 70
     8
 71
     3
 72
    12
 73
     8
 74
     0
 42
0.000000001
 43
0.00000001
 40
0.0
 40
0.0
 40
0.0
 40
0.0
 40
0.2366945835519308
 40
0.4286648826954234
 40
0.5991110185125298
 40
0.7959723284782185
 40
1.0
 40
1.0
 40
1.0
 40
1.0
 10
230.6219551105499
 20
121.4286778723491
 30
0.0
 10
230.6199416832544
 20
121.464211754512
 30
0.0
 10
230.6162952729204
 20
121.5285652652706
 30
0.0
 10
230.5785702495255
 20
121.6122897415364
 30
0.0
 10
230.5180106146467
 20
121.6721107327526
 30
0.0
 10
230.4376681086588
 20
121.7072012177521
 30
0.0
 10
230.3775907366491
 20
121.7108115052192
 30
0.0
 10
230.3470150738389
 20
121.7126489180179
 30
0.0
  0
LINE
  5
1AD
330
1F
100
AcDbEntity
  8
0
  6
Continuous
 62
     7
370
    18
100
AcDbLine
 10
230.3470150738
 20
121.712648918
 30
0.0
 11
229.8260342291
 21
121.712648918
 31
0.0
  0
LINE
  5
1AE
330
1F
100
AcDbEntity
  8
0
  6
Continuous
 62
     7
370
    18
100
AcDbLine
 10
229.8260342291
 20
121.712648918
 30
0.0
 11
229.8260342291
 21
121.1487527187
 31
0.0
  0
SPLINE
  5
1AF
330
1F
100
AcDbEntity
  8
0
  6
Continuous
 62
     7
370
    18
100
AcDbSpline
210
0.0
220
0.0
230
1.0
 70
     8
 71
     3
 72
    13
 73
     9
 74
     0
 42
0.000000001
 43
0.00000001
 40
0.0
 40
0.0
 40
0.0
 40
0.0
 40
0.5894795511906018
 40
0.8525979839264193
 40
0.9412877217975723
 40
0.9634735681078221
 40
0.9825903643577696
 40
1.0
 40
1.0
 40
1.0
 40
1.0
 10
231.9606757544174
 20
122.3190089214621
 30
0.0
 10
231.9229577110871
 20
122.317080949104
 30
0.0
 10
231.8684039481345
 20
122.3142924124325
 30
0.0
 10
231.8098754804338
 20
122.2998922859378
 30
0.0
 10
231.7880348267733
 20
122.2890728232193
 30
0.0
 10
231.7821916705366
 20
122.2831490832723
 30
0.0
 10
231.7801409040393
 20
122.279894298207
 30
0.0
 10
231.7798629435634
 20
122.2775527839121
 30
0.0
 10
231.7797304589391
 20
122.2764367452351
 30
0.0
  0
SPLINE
  5
1B0
330
1F
100
AcDbEntity
  8
0
  6
Continuous
 62
     7
370
    18
100
AcDbSpline
210
0.0
220
0.0
230
1.0
 70
     8
 71
     3
 72
    12
 73
     8
 74
     0
 42
0.000000001
 43
0.00000001
 40
0.0
 40
0.0
 40
0.0
 40
0.0
 40
0.1687932262470739
 40
0.3139712558224079
 40
0.4643534436981285
 40
0.6895611553267743
 40
1.0
 40
1.0
 40
1.0
 40
1.0
 10
232.1309644593256
 20
122.2179158071886
 30
0.0
 10
232.1285046520722
 20
122.2301463723558
 30
0.0
 10
232.1239291795274
 20
122.2528963724024
 30
0.0
 10
232.105369612577
 20
122.2827647466952
 30
0.0
 10
232.0725749056557
 20
122.3042984977974
 30
0.0
 10
232.0228270414431
 20
122.316056431666
 30
0.0
 10
231.9834798043596
 20
122.3179256176725
 30
0.0
 10
231.9606757544174
 20
122.3190089214621
 30
0.0
  0
SPLINE
  5
1B1
330
1F
100
AcDbEntity
  8
0
  6
Continuous
 62
     7
370
    18
100
AcDbSpline
210
0.0
220
0.0
230
1.0
 70
     8
 71
     3
 72
     9
 73
     5
 74
     0
 42
0.000000001
 43
0.00000001
 40
0.0
 40
0.0
 40
0.0
 40
0.0
 40
0.5915228225856829
 40
1.0
 40
1.0
 40
1.0
 40
1.0
 10
232.1362746925927
 20
122.1337829277377
 30
0.0
 10
232.1363458789604
 20
122.1504521933992
 30
0.0
 10
232.1364662232057
 20
122.1786324512439
 30
0.0
 10
232.1325600442712
 20
122.2065231097328
 30
0.0
 10
232.1309644593256
 20
122.2179158071886
 30
0.0
  0
SPLINE
  5
1B2
330
1F
100
AcDbEntity
  8
0
  6
Continuous
 62
     7
370
    18
100
AcDbSpline
210
0.0
220
0.0
230
1.0
 70
     8
 71
     3
 72
    13
 73
     9
 74
     0
 42
0.000000001
 43
0.00000001
 40
0.0
 40
0.0
 40
0.0
 40
0.0
 40
0.0518958002713989
 40
0.1049388400652586
 40
0.1730026251899389
 40
0.2659228894279198
 40
0.550878000289066
 40
1.0
 40
1.0
 40
1.0
 40
1.0
 10
231.7797304589391
 20
122.2764367452351
 30
0.0
 10
231.7803626933672
 20
122.2694172966852
 30
0.0
 10
231.7816411387749
 20
122.2552232234679
 30
0.0
 10
231.7966217818457
 20
122.236309534336
 30
0.0
 10
231.8210799360674
 20
122.2213162227028
 30
0.0
 10
231.8764705576224
 20
122.1993582885487
 30
0.0
 10
231.9833527313865
 20
122.1719030680069
 30
0.0
 10
232.0782281504514
 20
122.1482526763018
 30
0.0
 10
232.1362746925927
 20
122.1337829277377
 30
0.0
  0
LINE
  5
1B3
330
1F
100
AcDbEntity
  8
0
  6
Continuous
 62
     7
370
    18
100
AcDbLine
 10
226.6548496196
 20
122.9278795454
 30
0.0
 11
225.8942219211
 21
122.9278795454
 31
0.0
  0
LINE
  5
1B4
330
1F
100
AcDbEntity
  8
0
  6
Continuous
 62
     7
370
    18
100
AcDbLine
 10
226.6548496196
 20
121.3328986576
 30
0.0
 11
226.6548496196
 21
122.9278795454
 31
0.0
  0
LINE
  5
1B5
330
1F
100
AcDbEntity
  8
0
  6
Continuous
 62
     7
370
    18
100
AcDbLine
 10
227.4211463974
 20
121.3328986576
 30
0.0
 11
226.6548496196
 21
121.3328986576
 31
0.0
  0
LINE
  5
1B6
330
1F
100
AcDbEntity
  8
0
  6
Continuous
 62
     7
370
    18
100
AcDbLine
 10
228.0331355323
 20
122.9278795454
 30
0.0
 11
227.4211463974
 21
121.3328986576
 31
0.0
  0
LINE
  5
1B7
330
1F
100
AcDbEntity
  8
0
  6
Continuous
 62
     7
370
    18
100
AcDbLine
 10
228.7244278271
 20
122.9278795454
 30
0.0
 11
228.0331355323
 21
122.9278795454
 31
0.0
  0
LINE
  5
1B8
330
1F
100
AcDbEntity
  8
0
  6
Continuous
 62
     7
370
    18
100
AcDbLine
 10
229.2411460357
 20
121.5336181964
 30
0.0
 11
228.7244278271
 21
122.9278795454
 31
0.0
  0
LINE
  5
1B9
330
1F
100
AcDbEntity
  8
0
  6
Continuous
 62
     7
370
    18
100
AcDbLine
 10
229.2411460357
 20
122.9278795454
 30
0.0
 11
229.2411460357
 21
121.5336181964
 31
0.0
  0
LINE
  5
1BA
330
1F
100
AcDbEntity
  8
0
  6
Continuous
 62
     7
370
    18
100
AcDbLine
 10
230.2292361491
 20
122.9278795454
 30
0.0
 11
229.2411460357
 21
122.9278795454
 31
0.0
  0
SPLINE
  5
1BB
330
1F
100
AcDbEntity
  8
0
  6
Continuous
 62
     7
370
    18
100
AcDbSpline
210
0.0
220
0.0
230
1.0
 70
     8
 71
     3
 72
    13
 73
     9
 74
     0
 42
0.000000001
 43
0.00000001
 40
0.0
 40
0.0
 40
0.0
 40
0.0
 40
0.1129894123230106
 40
0.2349035042068367
 40
0.3805358024040095
 40
0.5310429421797477
 40
0.7319137862307437
 40
1.0
 40
1.0
 40
1.0
 40
1.0
 10
231.0983804512123
 20
122.5234167782128
 30
0.0
 10
231.0813581137831
 20
122.558258315983
 30
0.0
 10
231.0459688978408
 20
122.6306934153953
 30
0.0
 10
230.9729159741647
 20
122.7407224866435
 30
0.0
 10
230.8546586471545
 20
122.8276659991433
 30
0.0
 10
230.6932180146833
 20
122.886446809464
 30
0.0
 10
230.482537850149
 20
122.922502742596
 30
0.0
 10
230.3213700801726
 20
122.9259238302295
 30
0.0
 10
230.2292361491142
 20
122.9278795453966
 30
0.0
  0
SPLINE
  5
1BC
330
1F
100
AcDbEntity
  8
0
  6
Continuous
 62
     7
370
    18
100
AcDbSpline
210
0.0
220
0.0
230
1.0
 70
     8
 71
     3
 72
    12
 73
     8
 74
     0
 42
0.000000001
 43
0.00000001
 40
0.0
 40
0.0
 40
0.0
 40
0.0
 40
0.2577824677168405
 40
0.4746472252827225
 40
0.6603530347935911
 40
0.8468286435267817
 40
1.0
 40
1.0
 40
1.0
 40
1.0
 10
231.9551342090202
 20
122.9491566025011
 30
0.0
 10
231.8688728098494
 20
122.9450845063337
 30
0.0
 10
231.7100422496175
 20
122.9375866762288
 30
0.0
 10
231.4967036551549
 20
122.8729322554486
 30
0.0
 10
231.3235372868562
 20
122.7778273387716
 30
0.0
 10
231.1887250714827
 20
122.6616504085836
 30
0.0
 10
231.1264601865389
 20
122.5663807504165
 30
0.0
 10
231.0983804512123
 20
122.5234167782128
 30
0.0
  0
SPLINE
  5
1BD
330
1F
100
AcDbEntity
  8
0
  6
Continuous
 62
     7
370
    18
100
AcDbSpline
210
0.0
220
0.0
230
1.0
 70
     8
 71
     3
 72
    15
 73
    11
 74
     0
 42
0.000000001
 43
0.00000001
 40
0.0
 40
0.0
 40
0.0
 40
0.0
 40
0.1009667219583008
 40
0.2110426783902178
 40
0.3263227887254707
 40
0.4481367482187079
 40
0.5538549368465843
 40
0.6756292865222512
 40
0.8215985201030968
 40
0.9999999999999999
 40
0.9999999999999999
 40
0.9999999999999999
 40
0.9999999999999999
 10
232.8864841008196
 20
122.1016505978659
 30
0.0
 10
232.885615054238
 20
122.150478609129
 30
0.0
 10
232.8837985555476
 20
122.2525399029647
 30
0.0
 10
232.8595074601889
 20
122.4090891198612
 30
0.0
 10
232.8034628171647
 20
122.5687273931323
 30
0.0
 10
232.7074526034261
 20
122.7069209333346
 30
0.0
 10
232.5749502852527
 20
122.8143970223912
 30
0.0
 10
232.4099345946927
 20
122.8911795203805
 30
0.0
 10
232.1985044897304
 20
122.9410859065671
 30
0.0
 10
232.0414906519854
 20
122.9462928321546
 30
0.0
 10
231.9551342090202
 20
122.9491566025011
 30
0.0
  0
LINE
  5
1BE
330
1F
100
AcDbEntity
  8
0
  6
Continuous
 62
     7
370
    18
100
AcDbLine
 10
232.2699528234
 20
122.1016505979
 30
0.0
 11
232.8864841008
 21
122.1016505979
 31
0.0
  0
SPLINE
  5
1BF
330
1F
100
AcDbEntity
  8
0
  6
Continuous
 62
     7
370
    18
100
AcDbSpline
210
0.0
220
0.0
230
1.0
 70
     8
 71
     3
 72
     9
 73
     5
 74
     0
 42
0.000000001
 43
0.00000001
 40
0.0
 40
0.0
 40
0.0
 40
0.0
 40
0.5581053349215993
 40
1.0
 40
1.0
 40
1.0
 40
1.0
 10
232.285305538634
 20
122.0976408298887
 30
0.0
 10
232.2824527442977
 20
122.098399632199
 30
0.0
 10
232.2773411745673
 20
122.0997592363147
 30
0.0
 10
232.2722171170751
 20
122.1010709559549
 30
0.0
 10
232.2699528234057
 20
122.1016505978659
 30
0.0
  0
SPLINE
  5
1C0
330
1F
100
AcDbEntity
  8
0
  6
Continuous
 62
     7
370
    18
100
AcDbSpline
210
0.0
220
0.0
230
1.0
 70
     8
 71
     3
 72
    12
 73
     8
 74
     0
 42
0.000000001
 43
0.00000001
 40
0.0
 40
0.0
 40
0.0
 40
0.0
 40
0.2081936773952722
 40
0.3823854809342371
 40
0.5475549960392824
 40
0.7576294387459018
 40
1.0
 40
1.0
 40
1.0
 40
1.0
 10
232.9290384186137
 20
121.3791528128441
 30
0.0
 10
232.9267189370282
 20
121.4531233365666
 30
0.0
 10
232.9224587880521
 20
121.5889836308966
 30
0.0
 10
232.8470374761434
 20
121.772269652285
 30
0.0
 10
232.7130564339329
 20
121.917154021951
 30
0.0
 10
232.5199643592856
 20
122.0249783184731
 30
0.0
 10
232.3671609156749
 20
122.0722941702057
 30
0.0
 10
232.285305538634
 20
122.0976408298887
 30
0.0
  0
SPLINE
  5
1C1
330
1F
100
AcDbEntity
  8
0
  6
Continuous
 62
     7
370
    18
100
AcDbSpline
210
0.0
220
0.0
230
1.0
 70
     8
 71
     3
 72
    13
 73
     9
 74
     0
 42
0.000000001
 43
0.00000001
 40
0.0
 40
0.0
 40
0.0
 40
0.0
 40
0.2144903110109676
 40
0.4108455396423897
 40
0.5926499974110343
 40
0.7287207904635503
 40
0.8627130606487937
 40
1.0
 40
1.0
 40
1.0
 40
1.0
 10
231.9883480870034
 20
120.6088407706228
 30
0.0
 10
232.0851032027323
 20
120.6155147125524
 30
0.0
 10
232.2704328222731
 20
120.6282983169057
 30
0.0
 10
232.5228082998765
 20
120.7258378250792
 30
0.0
 10
232.7131365073172
 20
120.8628737510611
 30
0.0
 10
232.8398690642938
 20
121.0240548400704
 30
0.0
 10
232.9159894173955
 20
121.1945420496305
 30
0.0
 10
232.9246536759136
 20
121.3171196592853
 30
0.0
 10
232.9290384186137
 20
121.3791528128441
 30
0.0
  0
SPLINE
  5
1C2
330
1F
100
AcDbEntity
  8
0
  6
Continuous
 62
     7
370
    18
100
AcDbSpline
210
0.0
220
0.0
230
1.0
 70
     8
 71
     3
 72
    12
 73
     8
 74
     0
 42
0.000000001
 43
0.00000001
 40
0.0
 40
0.0
 40
0.0
 40
0.0
 40
0.1266166298736466
 40
0.2732454724470855
 40
0.4461934828620915
 40
0.6934352669522337
 40
1.0
 40
1.0
 40
1.0
 40
1.0
 10
231.0946934416743
 20
121.0462327050044
 30
0.0
 10
231.1138176376388
 20
121.0059056419909
 30
0.0
 10
231.1550886773648
 20
120.9188776789459
 30
0.0
 10
231.2702511303661
 20
120.8087173357767
 30
0.0
 10
231.4413605558842
 20
120.706514816655
 30
0.0
 10
231.6869401522582
 20
120.6283965532311
 30
0.0
 10
231.8809513753702
 20
120.6158088245572
 30
0.0
 10
231.9883480870034
 20
120.6088407706228
 30
0.0
  0
SPLINE
  5
1C3
330
1F
100
AcDbEntity
  8
0
  6
Continuous
 62
     7
370
    18
100
AcDbSpline
210
0.0
220
0.0
230
1.0
 70
     8
 71
     3
 72
    11
 73
     7
 74
     0
 42
0.000000001
 43
0.00000001
 40
0.0
 40
0.0
 40
0.0
 40
0.0
 40
0.3104248435957518
 40
0.6000686931456402
 40
0.8080123835287424
 40
0.9999999999999999
 40
0.9999999999999999
 40
0.9999999999999999
 40
0.9999999999999999
 10
230.4336235859638
 20
120.6915307971781
 30
0.0
 10
230.5153161488217
 20
120.6987221661977
 30
0.0
 10
230.6732324704215
 20
120.7126234872373
 30
0.0
 10
230.8702940647548
 20
120.7983376346911
 30
0.0
 10
231.0184446963309
 20
120.9089932847419
 30
0.0
 10
231.0699623268197
 20
121.0017193972797
 30
0.0
 10
231.0946934416743
 20
121.0462327050044
 30
0.0
  0
LINE
  5
1C4
330
1F
100
AcDbEntity
  8
0
  6
Continuous
 62
     7
370
    18
100
AcDbLine
 10
228.7620071644
 20
120.6915307972
 30
0.0
 11
230.433623586
 21
120.6915307972
 31
0.0
  0
LINE
  5
1C5
330
1F
100
AcDbEntity
  8
0
  6
Continuous
 62
     7
370
    18
100
AcDbLine
 10
228.6342725737
 20
121.0214877405
 30
0.0
 11
228.7620071644
 21
120.6915307972
 31
0.0
  0
LINE
  5
1C6
330
1F
100
AcDbEntity
  8
0
  6
Continuous
 62
     7
370
    18
100
AcDbLine
 10
228.0915089354
 20
121.0214877405
 30
0.0
 11
228.6342725737
 21
121.0214877405
 31
0.0
  0
LINE
  5
1C7
330
1F
100
AcDbEntity
  8
0
  6
Continuous
 62
     7
370
    18
100
AcDbLine
 10
227.9583918633
 20
120.6915307972
 30
0.0
 11
228.0915089354
 21
121.0214877405
 31
0.0
  0
LINE
  5
1C8
330
1F
100
AcDbEntity
  8
0
  6
Continuous
 62
     7
370
    18
100
AcDbLine
 10
225.349864889
 20
120.6915307972
 30
0.0
 11
227.9583918633
 21
120.6915307972
 31
0.0
  0
SPLINE
  5
1C9
330
1F
100
AcDbEntity
  8
0
  6
Continuous
 62
     7
370
    18
100
AcDbSpline
210
0.0
220
0.0
230
1.0
 70
     8
 71
     3
 72
    11
 73
     7
 74
     0
 42
0.000000001
 43
0.00000001
 40
0.0
 40
0.0
 40
0.0
 40
0.0
 40
0.2274736611129819
 40
0.5494925387673868
 40
0.8007169048877155
 40
1.0
 40
1.0
 40
1.0
 40
1.0
 10
225.2837940274764
 20
121.0489420076918
 30
0.0
 10
225.2859599597738
 20
121.0212833271352
 30
0.0
 10
225.2911920540352
 20
120.9544701474306
 30
0.0
 10
225.3020364836679
 20
120.8576815722225
 30
0.0
 10
225.316738542938
 20
120.7638435855198
 30
0.0
 10
225.3397054296122
 20
120.7137082759614
 30
0.0
 10
225.3498648890117
 20
120.6915307971781
 30
0.0
  0
SPLINE
  5
1CA
330
1F
100
AcDbEntity
  8
0
  6
Continuous
 62
     7
370
    18
100
AcDbSpline
210
0.0
220
0.0
230
1.0
 70
     8
 71
     3
 72
    13
 73
     9
 74
     0
 42
0.000000001
 43
0.00000001
 40
0.0
 40
0.0
 40
0.0
 40
0.0
 40
0.1455849753971023
 40
0.2684075940997167
 40
0.3810001390981634
 40
0.4935379506791356
 40
0.7360826269615448
 40
1.0
 40
1.0
 40
1.0
 40
1.0
 10
224.9564922008281
 20
121.5067419137802
 30
0.0
 10
224.9874928461192
 20
121.5050897942158
 30
0.0
 10
225.0446471547657
 20
121.5020438656351
 30
0.0
 10
225.1211106057303
 20
121.471410433248
 30
0.0
 10
225.1788600468172
 20
121.4237639295782
 30
0.0
 10
225.2346071415431
 20
121.3404120316776
 30
0.0
 10
225.270487679295
 20
121.2116690191287
 30
0.0
 10
225.2792355250621
 20
121.1046891942525
 30
0.0
 10
225.2837940274764
 20
121.0489420076918
 30
0.0
  0
LINE
  5
1CB
330
1F
100
AcDbEntity
  8
0
  6
Continuous
 62
     7
370
    18
100
AcDbLine
 10
224.5125639245
 20
121.5067419138
 30
0.0
 11
224.9564922008
 21
121.5067419138
 31
0.0
  0
LINE
  5
1CC
330
1F
100
AcDbEntity
  8
0
  6
Continuous
 62
     7
370
    18
100
AcDbLine
 10
224.5125639245
 20
120.6915307972
 30
0.0
 11
224.5125639245
 21
121.5067419138
 31
0.0
  0
LINE
  5
1CD
330
1F
100
AcDbEntity
  8
0
  6
Continuous
 62
     7
370
    18
100
AcDbLine
 10
223.927051425
 20
120.6915307972
 30
0.0
 11
224.5125639245
 21
120.6915307972
 31
0.0
  0
LINE
  5
1CE
330
1F
100
AcDbEntity
  8
0
  6
Continuous
 62
     7
370
    18
100
AcDbLine
 10
223.927051425
 20
122.9278795454
 30
0.0
 11
223.927051425
 21
120.6915307972
 31
0.0
  0
LINE
  5
1CF
330
1F
100
AcDbEntity
  8
0
  6
Continuous
 62
     7
370
    18
100
AcDbLine
 10
225.0729058416
 20
122.9278795454
 30
0.0
 11
223.927051425
 21
122.9278795454
 31
0.0
  0
SPLINE
  5
1D0
330
1F
100
AcDbEntity
  8
0
  6
Continuous
 62
     7
370
    18
100
AcDbSpline
210
0.0
220
0.0
230
1.0
 70
     8
 71
     3
 72
    12
 73
     8
 74
     0
 42
0.000000001
 43
0.00000001
 40
0.0
 40
0.0
 40
0.0
 40
0.0
 40
0.2016496499628999
 40
0.3794039236986343
 40
0.5547793395586202
 40
0.7718110801448014
 40
1.0
 40
1.0
 40
1.0
 40
1.0
 10
225.8598679621738
 20
122.2977499263755
 30
0.0
 10
225.853372724855
 20
122.3744887057615
 30
0.0
 10
225.8411519323839
 20
122.5188727600073
 30
0.0
 10
225.7258404462375
 20
122.7024467062165
 30
0.0
 10
225.551754800449
 20
122.8335198750035
 30
0.0
 10
225.3273323748842
 20
122.913869541884
 30
0.0
 10
225.1591198152463
 20
122.9231321707493
 30
0.0
 10
225.0729058415916
 20
122.9278795453966
 30
0.0
  0
SPLINE
  5
1D1
330
1F
100
AcDbEntity
  8
0
  6
Continuous
 62
     7
370
    18
100
AcDbSpline
210
0.0
220
0.0
230
1.0
 70
     8
 71
     3
 72
    11
 73
     7
 74
     0
 42
0.000000001
 43
0.00000001
 40
0.0
 40
0.0
 40
0.0
 40
0.0
 40
0.2852648350196972
 40
0.5586037747029546
 40
0.7765581993729922
 40
1.0
 40
1.0
 40
1.0
 40
1.0
 10
225.5072612484257
 20
121.7365630297382
 30
0.0
 10
225.5675531451664
 20
121.7675453588662
 30
0.0
 10
225.6856163515935
 20
121.8282147575282
 30
0.0
 10
225.7931063349121
 20
121.982402700075
 30
0.0
 10
225.8504725096565
 20
122.1414157173894
 30
0.0
 10
225.8567102955748
 20
122.2452084113096
 30
0.0
 10
225.8598679621738
 20
122.2977499263755
 30
0.0
  0
LINE
  5
1D2
330
1F
100
AcDbEntity
  8
0
  6
Continuous
 62
     7
370
    18
100
AcDbLine
 10
225.5072612484
 20
121.7302774475
 30
0.0
 11
225.5072612484
 21
121.7365630297
 31
0.0
  0
SPLINE
  5
1D3
330
1F
100
AcDbEntity
  8
0
  6
Continuous
 62
     7
370
    18
100
AcDbSpline
210
0.0
220
0.0
230
1.0
 70
     8
 71
     3
 72
    11
 73
     7
 74
     0
 42
0.000000001
 43
0.00000001
 40
0.0
 40
0.0
 40
0.0
 40
0.0
 40
0.2808304286447864
 40
0.5635450978390005
 40
0.7771991270060351
 40
1.0
 40
1.0
 40
1.0
 40
1.0
 10
225.8347256332352
 20
121.1941245077069
 30
0.0
 10
225.8270057383055
 20
121.2565879897308
 30
0.0
 10
225.8115141515694
 20
121.3819340544661
 30
0.0
 10
225.7502281463541
 20
121.5461230651761
 30
0.0
 10
225.6479119427066
 20
121.6778229211196
 30
0.0
 10
225.554795299175
 20
121.7125500119511
 30
0.0
 10
225.5072612484257
 20
121.7302774475131
 30
0.0
  0
SPLINE
  5
1D4
330
1F
100
AcDbEntity
  8
0
  6
Continuous
 62
     7
370
    18
100
AcDbSpline
210
0.0
220
0.0
230
1.0
 70
     8
 71
     3
 72
    11
 73
     7
 74
     0
 42
0.000000001
 43
0.00000001
 40
0.0
 40
0.0
 40
0.0
 40
0.0
 40
0.3074360073852277
 40
0.6261968550908458
 40
0.8442166228014035
 40
0.9999999999999999
 40
0.9999999999999999
 40
0.9999999999999999
 40
0.9999999999999999
 10
225.8929083503055
 20
120.7940040754104
 30
0.0
 10
225.8830675877487
 20
120.8343505979008
 30
0.0
 10
225.8630235642225
 20
120.9165298641233
 30
0.0
 10
225.8495951033592
 20
121.0298735166652
 30
0.0
 10
225.8408005451986
 20
121.122903355183
 30
0.0
 10
225.8365126316997
 20
121.1731740657961
 30
0.0
 10
225.8347256332352
 20
121.1941245077069
 30
0.0
  0
LINE
  5
1D5
330
1F
100
AcDbEntity
  8
0
  6
Continuous
 62
     7
370
    18
100
AcDbLine
 10
225.8942219211
 20
122.9278795454
 30
0.0
 11
225.8929083503
 21
120.7940040754
 31
0.0
  0
SPLINE
  5
1D6
330
1F
100
AcDbEntity
  8
0
  6
Continuous
 62
     7
370
    18
100
AcDbSpline
210
0.0
220
0.0
230
1.0
 70
     8
 71
     3
 72
    12
 73
     8
 74
     0
 42
0.000000001
 43
0.00000001
 40
0.0
 40
0.0
 40
0.0
 40
0.0
 40
0.2554031448979543
 40
0.5239992272002586
 40
0.6685053607654261
 40
0.822947353711822
 40
1.0
 40
1.0
 40
1.0
 40
1.0
 10
230.3171766202423
 20
121.2448065299684
 30
0.0
 10
230.3433070220806
 20
121.2469913808081
 30
0.0
 10
230.3969176006629
 20
121.25147394171
 30
0.0
 10
230.4599223505641
 20
121.2841548864939
 30
0.0
 10
230.4990436668528
 20
121.3276362497426
 30
0.0
 10
230.5200725256968
 20
121.3726902873566
 30
0.0
 10
230.5223885088939
 20
121.4067131161821
 30
0.0
 10
230.5236254850174
 20
121.4248848485868
 30
0.0
  0
LINE
  5
1D7
330
1F
100
AcDbEntity
  8
0
  6
Continuous
 62
     7
370
    18
100
AcDbLine
 10
229.9259894362
 20
121.24480653
 30
0.0
 11
230.3171766202
 21
121.24480653
 31
0.0
  0
LINE
  5
1D8
330
1F
100
AcDbEntity
  8
0
  6
Continuous
 62
     7
370
    18
100
AcDbLine
 10
229.9259894362
 20
121.6076363459
 30
0.0
 11
229.9259894362
 21
121.24480653
 31
0.0
  0
LINE
  5
1D9
330
1F
100
AcDbEntity
  8
0
  6
Continuous
 62
     7
370
    18
100
AcDbLine
 10
230.3171766202
 20
121.6076363459
 30
0.0
 11
229.9259894362
 21
121.6076363459
 31
0.0
  0
SPLINE
  5
1DA
330
1F
100
AcDbEntity
  8
0
  6
Continuous
 62
     7
370
    18
100
AcDbSpline
210
0.0
220
0.0
230
1.0
 70
     8
 71
     3
 72
    12
 73
     8
 74
     0
 42
0.000000001
 43
0.00000001
 40
0.0
 40
0.0
 40
0.0
 40
0.0
 40
0.2191709004622778
 40
0.4020322727962852
 40
0.5732124609680136
 40
0.7805893411712348
 40
1.0
 40
1.0
 40
1.0
 40
1.0
 10
230.5236254850174
 20
121.4248848485868
 30
0.0
 10
230.5220777983706
 20
121.447866203849
 30
0.0
 10
230.5192388266874
 20
121.4900216472427
 30
0.0
 10
230.4900624408932
 20
121.5442785670648
 30
0.0
 10
230.4442530358359
 20
121.5822499801513
 30
0.0
 10
230.3845857932138
 20
121.6041835859686
 30
0.0
 10
230.3400647853622
 20
121.6064639929713
 30
0.0
 10
230.3171766202423
 20
121.6076363458567
 30
0.0
  0
SPLINE
  5
1DB
330
1F
100
AcDbEntity
  8
0
  6
Continuous
 62
     7
370
    18
100
AcDbSpline
210
0.0
220
0.0
230
1.0
 70
     8
 71
     3
 72
    12
 73
     8
 74
     0
 42
0.000000001
 43
0.00000001
 40
0.0
 40
0.0
 40
0.0
 40
0.0
 40
0.2631780919768592
 40
0.5362228315034369
 40
0.6796343489711378
 40
0.8298665817545485
 40
1.0
 40
1.0
 40
1.0
 40
1.0
 10
230.2561269996876
 20
122.0461821408472
 30
0.0
 10
230.2779498275238
 20
122.0478747200968
 30
0.0
 10
230.3224136293768
 20
122.0513233340408
 30
0.0
 10
230.3750672061996
 20
122.0764223096006
 30
0.0
 10
230.4081111450961
 20
122.1103609917852
 30
0.0
 10
230.4258882718412
 20
122.1455025808065
 30
0.0
 10
230.4278607556157
 20
122.1721892411054
 30
0.0
 10
230.4289082630682
 20
122.18636146189
 30
0.0
  0
LINE
  5
1DC
330
1F
100
AcDbEntity
  8
0
  6
Continuous
 62
     7
370
    18
100
AcDbLine
 10
229.9286987389
 20
122.0461821408
 30
0.0
 11
230.2561269997
 21
122.0461821408
 31
0.0
  0
LINE
  5
1DD
330
1F
100
AcDbEntity
  8
0
  6
Continuous
 62
     7
370
    18
100
AcDbLine
 10
229.9286987389
 20
122.328599853
 30
0.0
 11
229.9286987389
 21
122.0461821408
 31
0.0
  0
LINE
  5
1DE
330
1F
100
AcDbEntity
  8
0
  6
Continuous
 62
     7
370
    18
100
AcDbLine
 10
230.2561269997
 20
122.328599853
 30
0.0
 11
229.9286987389
 21
122.328599853
 31
0.0
  0
SPLINE
  5
1DF
330
1F
100
AcDbEntity
  8
0
  6
Continuous
 62
     7
370
    18
100
AcDbSpline
210
0.0
220
0.0
230
1.0
 70
     8
 71
     3
 72
    12
 73
     8
 74
     0
 42
0.000000001
 43
0.00000001
 40
0.0
 40
0.0
 40
0.0
 40
0.0
 40
0.2108655154368299
 40
0.3895958229608483
 40
0.5613353297982713
 40
0.7736399301224683
 40
1.0
 40
1.0
 40
1.0
 40
1.0
 10
230.4289082630682
 20
122.18636146189
 30
0.0
 10
230.4275919328582
 20
122.2043023826557
 30
0.0
 10
230.4251598768135
 20
122.2374500871341
 30
0.0
 10
230.4003846862336
 20
122.279766616422
 30
0.0
 10
230.3619974913849
 20
122.3090626682502
 30
0.0
 10
230.312323040795
 20
122.3259267749871
 30
0.0
 10
230.2752549193352
 20
122.3276899949148
 30
0.0
 10
230.2561269996876
 20
122.3285998529753
 30
0.0
  0
LINE
  5
1E0
330
1F
100
AcDbEntity
  8
0
  6
Continuous
 62
     7
370
    18
100
AcDbLine
 10
228.2050403692
 20
121.5839389784
 30
0.0
 11
228.5158154495
 21
121.5839389784
 31
0.0
  0
LINE
  5
1E1
330
1F
100
AcDbEntity
  8
0
  6
Continuous
 62
     7
370
    18
100
AcDbLine
 10
228.363046902
 20
122.0717218342
 30
0.0
 11
228.2050403692
 21
121.5839389784
 31
0.0
  0
LINE
  5
1E2
330
1F
100
AcDbEntity
  8
0
  6
Continuous
 62
     7
370
    18
100
AcDbLine
 10
228.5158154495
 20
121.5839389784
 30
0.0
 11
228.363046902
 21
122.0717218342
 31
0.0
  0
SPLINE
  5
1E3
330
1F
100
AcDbEntity
  8
0
  6
Continuous
 62
     7
370
    18
100
AcDbSpline
210
0.0
220
0.0
230
1.0
 70
     8
 71
     3
 72
    11
 73
     7
 74
     0
 42
0.000000001
 43
0.00000001
 40
0.0
 40
0.0
 40
0.0
 40
0.0
 40
0.2800359244938569
 40
0.5600382743760581
 40
0.7801217300908229
 40
1.0
 40
1.0
 40
1.0
 40
1.0
 10
233.657903023601
 20
117.8503464932008
 30
0.0
 10
233.7167499238076
 20
117.8876037356868
 30
0.0
 10
233.8344366688338
 20
117.9621137537408
 30
0.0
 10
233.9736459507522
 20
118.0978362060956
 30
0.0
 10
234.0881105035355
 20
118.2362765426308
 30
0.0
 10
234.1359726648614
 20
118.3347895641463
 30
0.0
 10
234.1598925847397
 20
118.3840231030493
 30
0.0
  0
LINE
  5
1E4
330
1F
100
AcDbEntity
  8
0
  6
Continuous
 62
     7
370
    18
100
AcDbLine
 10
233.6579030236
 20
117.6101920188
 30
0.0
 11
233.6579030236
 21
117.8503464932
 31
0.0
  0
SPLINE
  5
1E5
330
1F
100
AcDbEntity
  8
0
  6
Continuous
 62
     7
370
    18
100
AcDbSpline
210
0.0
220
0.0
230
1.0
 70
     8
 71
     3
 72
     9
 73
     5
 74
     0
 42
0.000000001
 43
0.00000001
 40
0.0
 40
0.0
 40
0.0
 40
0.0
 40
0.5597552341668147
 40
1.0
 40
1.0
 40
1.0
 40
1.0
 10
234.0848443114797
 20
117.9303979846781
 30
0.0
 10
234.013329888192
 20
117.8595262966862
 30
0.0
 10
233.885569719242
 20
117.7329143712122
 30
0.0
 10
233.727494716269
 20
117.6477049989204
 30
0.0
 10
233.657903023601
 20
117.610192018769
 30
0.0
  0
LINE
  5
1E6
330
1F
100
AcDbEntity
  8
0
  6
Continuous
 62
     7
370
    18
100
AcDbLine
 10
234.0848443115
 20
116.3026843246
 30
0.0
 11
234.0848443115
 21
117.9303979847
 31
0.0
  0
LINE
  5
1E7
330
1F
100
AcDbEntity
  8
0
  6
Continuous
 62
     7
370
    18
100
AcDbLine
 10
234.2983149554
 20
116.3026843246
 30
0.0
 11
234.0848443115
 21
116.3026843246
 31
0.0
  0
LINE
  5
1E8
330
1F
100
AcDbEntity
  8
0
  6
Continuous
 62
     7
370
    18
100
AcDbLine
 10
234.2983149554
 20
118.384023103
 30
0.0
 11
234.2983149554
 21
116.3026843246
 31
0.0
  0
LINE
  5
1E9
330
1F
100
AcDbEntity
  8
0
  6
Continuous
 62
     7
370
    18
100
AcDbLine
 10
234.1598925847
 20
118.384023103
 30
0.0
 11
234.2983149554
 21
118.384023103
 31
0.0
  0
SPLINE
  5
1EA
330
1F
100
AcDbEntity
  8
0
  6
Continuous
 62
     7
370
    18
100
AcDbSpline
210
0.0
220
0.0
230
1.0
 70
     8
 71
     3
 72
    10
 73
     6
 74
     0
 42
0.000000001
 43
0.00000001
 40
0.0
 40
0.0
 40
0.0
 40
0.0
 40
0.2795751783825378
 40
0.5597049368157159
 40
0.9999999999999999
 40
0.9999999999999999
 40
0.9999999999999999
 40
0.9999999999999999
 10
233.1434054169189
 20
118.1672169802984
 30
0.0
 10
233.1792839578244
 20
118.0947138328313
 30
0.0
 10
233.251112210199
 20
117.9495637168348
 30
0.0
 10
233.3007103335028
 20
117.663042056849
 30
0.0
 10
233.3071050377297
 20
117.4558223753611
 30
0.0
 10
233.3110132271995
 20
117.3291779288957
 30
0.0
  0
SPLINE
  5
1EB
330
1F
100
AcDbEntity
  8
0
  6
Continuous
 62
     7
370
    18
100
AcDbSpline
210
0.0
220
0.0
230
1.0
 70
     8
 71
     3
 72
    11
 73
     7
 74
     0
 42
0.000000001
 43
0.00000001
 40
0.0
 40
0.0
 40
0.0
 40
0.0
 40
0.2798903849624058
 40
0.5594964420644607
 40
0.779671896517387
 40
1.0
 40
1.0
 40
1.0
 40
1.0
 10
232.7652455066591
 20
118.3840231030493
 30
0.0
 10
232.8080024483796
 20
118.3811705847774
 30
0.0
 10
232.8934728969961
 20
118.3754684459767
 30
0.0
 10
233.002243152099
 20
118.3218433640472
 30
0.0
 10
233.0857634776117
 20
118.2498039959624
 30
0.0
 10
233.1241869988102
 20
118.1947523445914
 30
0.0
 10
233.1434054169189
 20
118.1672169802984
 30
0.0
  0
SPLINE
  5
1EC
330
1F
100
AcDbEntity
  8
0
  6
Continuous
 62
     7
370
    18
100
AcDbSpline
210
0.0
220
0.0
230
1.0
 70
     8
 71
     3
 72
    13
 73
     9
 74
     0
 42
0.000000001
 43
0.00000001
 40
0.0
 40
0.0
 40
0.0
 40
0.0
 40
0.2504890583456489
 40
0.5006738274425626
 40
0.6258446378555186
 40
0.7507584155659037
 40
0.875300709929929
 40
1.0
 40
1.0
 40
1.0
 40
1.0
 10
232.2169761770101
 20
117.3291779288957
 30
0.0
 10
232.2196947916252
 20
117.4394181262534
 30
0.0
 10
232.2251287183351
 20
117.6597646033158
 30
0.0
 10
232.2751820903767
 20
117.9331920388631
 30
0.0
 10
232.3601176157539
 20
118.1376495731482
 30
0.0
 10
232.4571056914429
 20
118.2731621942274
 30
0.0
 10
232.5990613545266
 20
118.3692614763158
 30
0.0
 10
232.7098275323087
 20
118.3791004949595
 30
0.0
 10
232.7652455066591
 20
118.3840231030493
 30
0.0
  0
SPLINE
  5
1ED
330
1F
100
AcDbEntity
  8
0
  6
Continuous
 62
     7
370
    18
100
AcDbSpline
210
0.0
220
0.0
230
1.0
 70
     8
 71
     3
 72
    13
 73
     9
 74
     0
 42
0.000000001
 43
0.00000001
 40
0.0
 40
0.0
 40
0.0
 40
0.0
 40
0.1245870753534878
 40
0.2492227148385379
 40
0.3742192396120922
 40
0.4992998133209635
 40
0.7494812006580001
 40
1.0
 40
1.0
 40
1.0
 40
1.0
 10
232.7627438975504
 20
116.2760004941478
 30
0.0
 10
232.7074802542616
 20
116.2816371904249
 30
0.0
 10
232.5969314258761
 20
116.2929127801673
 30
0.0
 10
232.4581424696534
 20
116.3915457930036
 30
0.0
 10
232.3551033609703
 20
116.5215501295636
 30
0.0
 10
232.2690794758018
 20
116.7258960806172
 30
0.0
 10
232.2239085891827
 20
116.999398259803
 30
0.0
 10
232.2192880189714
 20
117.2192019987264
 30
0.0
 10
232.2169761770101
 20
117.3291779288957
 30
0.0
  0
SPLINE
  5
1EE
330
1F
100
AcDbEntity
  8
0
  6
Continuous
 62
     7
370
    18
100
AcDbSpline
210
0.0
220
0.0
230
1.0
 70
     8
 71
     3
 72
    13
 73
     9
 74
     0
 42
0.000000001
 43
0.00000001
 40
0.0
 40
0.0
 40
0.0
 40
0.0
 40
0.2504702058475066
 40
0.5006494994159209
 40
0.6258027062132775
 40
0.7507410958263503
 40
0.875278539975007
 40
1.0
 40
1.0
 40
1.0
 40
1.0
 10
233.3110132271995
 20
117.3291779288957
 30
0.0
 10
233.3082997319444
 20
117.2190454733441
 30
0.0
 10
233.3028758930628
 20
116.9989084771902
 30
0.0
 10
233.2521060353388
 20
116.7259778769542
 30
0.0
 10
233.1677542879032
 20
116.5215537645029
 30
0.0
 10
233.0708715279467
 20
116.3860989357706
 30
0.0
 10
232.9287949110778
 20
116.2904206709687
 30
0.0
 10
232.8181214703547
 20
116.2808095848892
 30
0.0
 10
232.7627438975504
 20
116.2760004941478
 30
0.0
  0
LINE
  5
1EF
330
1F
100
AcDbEntity
  8
0
  6
Continuous
 62
     7
370
    18
100
AcDbLine
 10
231.0249594367
 20
116.3026843246
 30
0.0
 11
230.535894856
 21
118.0959211207
 31
0.0
  0
LINE
  5
1F0
330
1F
100
AcDbEntity
  8
0
  6
Continuous
 62
     7
370
    18
100
AcDbLine
 10
231.2434332989
 20
116.3026843246
 30
0.0
 11
231.0249594367
 21
116.3026843246
 31
0.0
  0
LINE
  5
1F1
330
1F
100
AcDbEntity
  8
0
  6
Continuous
 62
     7
370
    18
100
AcDbLine
 10
231.7366672281
 20
117.9987753003
 30
0.0
 11
231.2434332989
 21
116.3026843246
 31
0.0
  0
LINE
  5
1F2
330
1F
100
AcDbEntity
  8
0
  6
Continuous
 62
     7
370
    18
100
AcDbLine
 10
231.7366672281
 20
116.3026843246
 30
0.0
 11
231.7366672281
 21
117.9987753003
 31
0.0
  0
LINE
  5
1F3
330
1F
100
AcDbEntity
  8
0
  6
Continuous
 62
     7
370
    18
100
AcDbLine
 10
231.9501378721
 20
116.3026843246
 30
0.0
 11
231.7366672281
 21
116.3026843246
 31
0.0
  0
LINE
  5
1F4
330
1F
100
AcDbEntity
  8
0
  6
Continuous
 62
     7
370
    18
100
AcDbLine
 10
231.9501378721
 20
118.3573392726
 30
0.0
 11
231.9501378721
 21
116.3026843246
 31
0.0
  0
LINE
  5
1F5
330
1F
100
AcDbEntity
  8
0
  6
Continuous
 62
     7
370
    18
100
AcDbLine
 10
231.6478601048
 20
118.3573392726
 30
0.0
 11
231.9501378721
 21
118.3573392726
 31
0.0
  0
LINE
  5
1F6
330
1F
100
AcDbEntity
  8
0
  6
Continuous
 62
     7
370
    18
100
AcDbLine
 10
231.2292575139
 20
116.927669667
 30
0.0
 11
231.6478601048
 21
118.3573392726
 31
0.0
  0
SPLINE
  5
1F7
330
1F
100
AcDbEntity
  8
0
  6
Continuous
 62
     7
370
    18
100
AcDbSpline
210
0.0
220
0.0
230
1.0
 70
     8
 71
     3
 72
     9
 73
     5
 74
     0
 42
0.000000001
 43
0.00000001
 40
0.0
 40
0.0
 40
0.0
 40
0.0
 40
0.5599947003108315
 40
1.0
 40
1.0
 40
1.0
 40
1.0
 10
231.1362810420669
 20
116.5982911343141
 30
0.0
 10
231.1532109483848
 20
116.659894930343
 30
0.0
 10
231.1834432100626
 20
116.7699027500504
 30
0.0
 10
231.2152585817742
 20
116.8794627057941
 30
0.0
 10
231.2292575139389
 20
116.927669666955
 30
0.0
  0
LINE
  5
1F8
330
1F
100
AcDbEntity
  8
0
  6
Continuous
 62
     7
370
    18
100
AcDbLine
 10
231.0562295506
 20
116.9026535759
 30
0.0
 11
231.1362810421
 21
116.5982911343
 31
0.0
  0
LINE
  5
1F9
330
1F
100
AcDbEntity
  8
0
  6
Continuous
 62
     7
370
    18
100
AcDbLine
 10
230.6563890281
 20
118.3573392726
 30
0.0
 11
231.0562295506
 21
116.9026535759
 31
0.0
  0
LINE
  5
1FA
330
1F
100
AcDbEntity
  8
0
  6
Continuous
 62
     7
370
    18
100
AcDbLine
 10
230.322424212
 20
118.3573392726
 30
0.0
 11
230.6563890281
 21
118.3573392726
 31
0.0
  0
LINE
  5
1FB
330
1F
100
AcDbEntity
  8
0
  6
Continuous
 62
     7
370
    18
100
AcDbLine
 10
230.322424212
 20
116.3026843246
 30
0.0
 11
230.322424212
 21
118.3573392726
 31
0.0
  0
LINE
  5
1FC
330
1F
100
AcDbEntity
  8
0
  6
Continuous
 62
     7
370
    18
100
AcDbLine
 10
230.535894856
 20
116.3026843246
 30
0.0
 11
230.322424212
 21
116.3026843246
 31
0.0
  0
LINE
  5
1FD
330
1F
100
AcDbEntity
  8
0
  6
Continuous
 62
     7
370
    18
100
AcDbLine
 10
230.535894856
 20
118.0959211207
 30
0.0
 11
230.535894856
 21
116.3026843246
 31
0.0
  0
LINE
  5
1FE
330
1F
100
AcDbEntity
  8
0
  6
Continuous
 62
     7
370
    18
100
AcDbLine
 10
229.4418578058
 20
117.1565669004
 30
0.0
 11
230.0822697376
 21
117.1565669004
 31
0.0
  0
LINE
  5
1FF
330
1F
100
AcDbEntity
  8
0
  6
Continuous
 62
     7
370
    18
100
AcDbLine
 10
229.4418578058
 20
116.916412426
 30
0.0
 11
229.4418578058
 21
117.1565669004
 31
0.0
  0
LINE
  5
200
330
1F
100
AcDbEntity
  8
0
  6
Continuous
 62
     7
370
    18
100
AcDbLine
 10
230.0822697376
 20
116.916412426
 30
0.0
 11
229.4418578058
 21
116.916412426
 31
0.0
  0
LINE
  5
201
330
1F
100
AcDbEntity
  8
0
  6
Continuous
 62
     7
370
    18
100
AcDbLine
 10
230.0822697376
 20
117.1565669004
 30
0.0
 11
230.0822697376
 21
116.916412426
 31
0.0
  0
SPLINE
  5
202
330
1F
100
AcDbEntity
  8
0
  6
Continuous
 62
     7
370
    18
100
AcDbSpline
210
0.0
220
0.0
230
1.0
 70
     8
 71
     3
 72
    10
 73
     6
 74
     0
 42
0.000000001
 43
0.00000001
 40
0.0
 40
0.0
 40
0.0
 40
0.0
 40
0.2795751783825381
 40
0.5597049368157153
 40
1.0
 40
1.0
 40
1.0
 40
1.0
 10
229.0874631820704
 20
118.1672169802984
 30
0.0
 10
229.1233417229759
 20
118.0947138328313
 30
0.0
 10
229.1951699753505
 20
117.9495637168348
 30
0.0
 10
229.2447680986544
 20
117.663042056849
 30
0.0
 10
229.2511628028812
 20
117.4558223753611
 30
0.0
 10
229.255070992351
 20
117.3291779288957
 30
0.0
  0
SPLINE
  5
203
330
1F
100
AcDbEntity
  8
0
  6
Continuous
 62
     7
370
    18
100
AcDbSpline
210
0.0
220
0.0
230
1.0
 70
     8
 71
     3
 72
    11
 73
     7
 74
     0
 42
0.000000001
 43
0.00000001
 40
0.0
 40
0.0
 40
0.0
 40
0.0
 40
0.2798903849624054
 40
0.55949644206446
 40
0.7796718965173801
 40
0.9999999999999999
 40
0.9999999999999999
 40
0.9999999999999999
 40
0.9999999999999999
 10
228.7093032718106
 20
118.3840231030493
 30
0.0
 10
228.7520602135311
 20
118.3811705847774
 30
0.0
 10
228.8375306621476
 20
118.3754684459767
 30
0.0
 10
228.9463009172505
 20
118.3218433640473
 30
0.0
 10
229.0298212427632
 20
118.2498039959624
 30
0.0
 10
229.0682447639617
 20
118.1947523445914
 30
0.0
 10
229.0874631820704
 20
118.1672169802984
 30
0.0
  0
SPLINE
  5
204
330
1F
100
AcDbEntity
  8
0
  6
Continuous
 62
     7
370
    18
100
AcDbSpline
210
0.0
220
0.0
230
1.0
 70
     8
 71
     3
 72
    13
 73
     9
 74
     0
 42
0.000000001
 43
0.00000001
 40
0.0
 40
0.0
 40
0.0
 40
0.0
 40
0.2504890583456487
 40
0.5006738274425625
 40
0.6258446378555195
 40
0.750758415565903
 40
0.8753007099299305
 40
1.0
 40
1.0
 40
1.0
 40
1.0
 10
228.1610339421616
 20
117.3291779288957
 30
0.0
 10
228.1637525567767
 20
117.4394181262534
 30
0.0
 10
228.1691864834866
 20
117.6597646033158
 30
0.0
 10
228.2192398555282
 20
117.9331920388631
 30
0.0
 10
228.3041753809054
 20
118.1376495731482
 30
0.0
 10
228.4011634565944
 20
118.2731621942274
 30
0.0
 10
228.543119119678
 20
118.3692614763158
 30
0.0
 10
228.6538852974602
 20
118.3791004949595
 30
0.0
 10
228.7093032718106
 20
118.3840231030493
 30
0.0
  0
SPLINE
  5
205
330
1F
100
AcDbEntity
  8
0
  6
Continuous
 62
     7
370
    18
100
AcDbSpline
210
0.0
220
0.0
230
1.0
 70
     8
 71
     3
 72
    13
 73
     9
 74
     0
 42
0.000000001
 43
0.00000001
 40
0.0
 40
0.0
 40
0.0
 40
0.0
 40
0.1245870753534866
 40
0.2492227148385378
 40
0.3742192396120915
 40
0.4992998133209633
 40
0.749481200658
 40
1.0
 40
1.0
 40
1.0
 40
1.0
 10
228.7068016627019
 20
116.2760004941478
 30
0.0
 10
228.6515380194131
 20
116.2816371904249
 30
0.0
 10
228.5409891910276
 20
116.2929127801673
 30
0.0
 10
228.4022002348048
 20
116.3915457930036
 30
0.0
 10
228.2991611261218
 20
116.5215501295636
 30
0.0
 10
228.2131372409534
 20
116.7258960806172
 30
0.0
 10
228.1679663543342
 20
116.999398259803
 30
0.0
 10
228.1633457841229
 20
117.2192019987264
 30
0.0
 10
228.1610339421616
 20
117.3291779288957
 30
0.0
  0
SPLINE
  5
206
330
1F
100
AcDbEntity
  8
0
  6
Continuous
 62
     7
370
    18
100
AcDbSpline
210
0.0
220
0.0
230
1.0
 70
     8
 71
     3
 72
    13
 73
     9
 74
     0
 42
0.000000001
 43
0.00000001
 40
0.0
 40
0.0
 40
0.0
 40
0.0
 40
0.250470205847507
 40
0.5006494994159216
 40
0.625802706213279
 40
0.7507410958263521
 40
0.8752785399750074
 40
1.0
 40
1.0
 40
1.0
 40
1.0
 10
229.255070992351
 20
117.3291779288957
 30
0.0
 10
229.2523574970959
 20
117.2190454733441
 30
0.0
 10
229.2469336582143
 20
116.9989084771902
 30
0.0
 10
229.1961638004903
 20
116.7259778769542
 30
0.0
 10
229.1118120530547
 20
116.5215537645029
 30
0.0
 10
229.0149292930982
 20
116.3860989357706
 30
0.0
 10
228.8728526762293
 20
116.2904206709688
 30
0.0
 10
228.7621792355062
 20
116.2808095848892
 30
0.0
 10
228.7068016627019
 20
116.2760004941478
 30
0.0
  0
SPLINE
  5
207
330
1F
100
AcDbEntity
  8
0
  6
Continuous
 62
     7
370
    18
100
AcDbSpline
210
0.0
220
0.0
230
1.0
 70
     8
 71
     3
 72
    10
 73
     6
 74
     0
 42
0.000000001
 43
0.00000001
 40
0.0
 40
0.0
 40
0.0
 40
0.0
 40
0.2795751783825393
 40
0.5597049368157158
 40
1.0
 40
1.0
 40
1.0
 40
1.0
 10
227.7799554879416
 20
118.1672169802984
 30
0.0
 10
227.8158340288471
 20
118.0947138328313
 30
0.0
 10
227.8876622812218
 20
117.9495637168348
 30
0.0
 10
227.9372604045255
 20
117.663042056849
 30
0.0
 10
227.9436551087524
 20
117.4558223753611
 30
0.0
 10
227.9475632982222
 20
117.3291779288957
 30
0.0
  0
SPLINE
  5
208
330
1F
100
AcDbEntity
  8
0
  6
Continuous
 62
     7
370
    18
100
AcDbSpline
210
0.0
220
0.0
230
1.0
 70
     8
 71
     3
 72
    11
 73
     7
 74
     0
 42
0.000000001
 43
0.00000001
 40
0.0
 40
0.0
 40
0.0
 40
0.0
 40
0.2798903849624049
 40
0.5594964420644626
 40
0.7796718965173853
 40
1.0
 40
1.0
 40
1.0
 40
1.0
 10
227.4017955776818
 20
118.3840231030493
 30
0.0
 10
227.4445525194023
 20
118.3811705847774
 30
0.0
 10
227.5300229680188
 20
118.3754684459767
 30
0.0
 10
227.6387932231218
 20
118.3218433640473
 30
0.0
 10
227.7223135486344
 20
118.2498039959624
 30
0.0
 10
227.7607370698329
 20
118.1947523445914
 30
0.0
 10
227.7799554879416
 20
118.1672169802984
 30
0.0
  0
SPLINE
  5
209
330
1F
100
AcDbEntity
  8
0
  6
Continuous
 62
     7
370
    18
100
AcDbSpline
210
0.0
220
0.0
230
1.0
 70
     8
 71
     3
 72
    13
 73
     9
 74
     0
 42
0.000000001
 43
0.00000001
 40
0.0
 40
0.0
 40
0.0
 40
0.0
 40
0.2504890583456491
 40
0.5006738274425633
 40
0.6258446378555204
 40
0.750758415565904
 40
0.8753007099299317
 40
1.0
 40
1.0
 40
1.0
 40
1.0
 10
226.8535262480328
 20
117.3291779288957
 30
0.0
 10
226.8562448626479
 20
117.4394181262534
 30
0.0
 10
226.8616787893578
 20
117.6597646033158
 30
0.0
 10
226.9117321613994
 20
117.9331920388631
 30
0.0
 10
226.9966676867766
 20
118.1376495731482
 30
0.0
 10
227.0936557624657
 20
118.2731621942274
 30
0.0
 10
227.2356114255493
 20
118.3692614763158
 30
0.0
 10
227.3463776033315
 20
118.3791004949595
 30
0.0
 10
227.4017955776818
 20
118.3840231030493
 30
0.0
  0
SPLINE
  5
20A
330
1F
100
AcDbEntity
  8
0
  6
Continuous
 62
     7
370
    18
100
AcDbSpline
210
0.0
220
0.0
230
1.0
 70
     8
 71
     3
 72
    13
 73
     9
 74
     0
 42
0.000000001
 43
0.00000001
 40
0.0
 40
0.0
 40
0.0
 40
0.0
 40
0.1245870753534855
 40
0.2492227148385399
 40
0.3742192396120904
 40
0.4992998133209625
 40
0.7494812006579995
 40
1.0
 40
1.0
 40
1.0
 40
1.0
 10
227.3992939685732
 20
116.2760004941478
 30
0.0
 10
227.3440303252843
 20
116.2816371904249
 30
0.0
 10
227.2334814968988
 20
116.2929127801673
 30
0.0
 10
227.0946925406761
 20
116.3915457930036
 30
0.0
 10
226.991653431993
 20
116.5215501295636
 30
0.0
 10
226.9056295468246
 20
116.7258960806172
 30
0.0
 10
226.8604586602054
 20
116.999398259803
 30
0.0
 10
226.8558380899941
 20
117.2192019987264
 30
0.0
 10
226.8535262480328
 20
117.3291779288957
 30
0.0
  0
SPLINE
  5
20B
330
1F
100
AcDbEntity
  8
0
  6
Continuous
 62
     7
370
    18
100
AcDbSpline
210
0.0
220
0.0
230
1.0
 70
     8
 71
     3
 72
    13
 73
     9
 74
     0
 42
0.000000001
 43
0.00000001
 40
0.0
 40
0.0
 40
0.0
 40
0.0
 40
0.2504702058475063
 40
0.5006494994159202
 40
0.6258027062132767
 40
0.7507410958263494
 40
0.8752785399750072
 40
1.0
 40
1.0
 40
1.0
 40
1.0
 10
227.9475632982222
 20
117.3291779288957
 30
0.0
 10
227.9448498029671
 20
117.2190454733441
 30
0.0
 10
227.9394259640856
 20
116.9989084771902
 30
0.0
 10
227.8886561063615
 20
116.7259778769542
 30
0.0
 10
227.8043043589259
 20
116.5215537645029
 30
0.0
 10
227.7074215989694
 20
116.3860989357706
 30
0.0
 10
227.5653449821006
 20
116.2904206709687
 30
0.0
 10
227.4546715413774
 20
116.2808095848892
 30
0.0
 10
227.3992939685732
 20
116.2760004941478
 30
0.0
  0
SPLINE
  5
20C
330
1F
100
AcDbEntity
  8
0
  6
Continuous
 62
     7
370
    18
100
AcDbSpline
210
0.0
220
0.0
230
1.0
 70
     8
 71
     3
 72
    12
 73
     8
 74
     0
 42
0.000000001
 43
0.00000001
 40
0.0
 40
0.0
 40
0.0
 40
0.0
 40
0.186132339931823
 40
0.3726108819815608
 40
0.5594136204052389
 40
0.7795030968205998
 40
1.0
 40
1.0
 40
1.0
 40
1.0
 10
226.1388999126575
 20
117.6635596797539
 30
0.0
 10
226.1965422275926
 20
117.656873779371
 30
0.0
 10
226.3119340709192
 20
117.6434895429754
 30
0.0
 10
226.4540797957478
 20
117.536377898812
 30
0.0
 10
226.5652498145521
 20
117.3908165809992
 30
0.0
 10
226.6310467143329
 20
117.2054919705012
 30
0.0
 10
226.6370507901085
 20
117.0700730693898
 30
0.0
 10
226.6400556040934
 20
117.0023010053635
 30
0.0
  0
SPLINE
  5
20D
330
1F
100
AcDbEntity
  8
0
  6
Continuous
 62
     7
370
    18
100
AcDbSpline
210
0.0
220
0.0
230
1.0
 70
     8
 71
     3
 72
     9
 73
     5
 74
     0
 42
0.000000001
 43
0.00000001
 40
0.0
 40
0.0
 40
0.0
 40
0.0
 40
0.5597945537684238
 40
1.0
 40
1.0
 40
1.0
 40
1.0
 10
225.8345374711033
 20
117.5830912534252
 30
0.0
 10
225.8886582771438
 20
117.6088992585707
 30
0.0
 10
225.9853380423829
 20
117.6550018956396
 30
0.0
 10
226.0919630177824
 20
117.6609439535152
 30
0.0
 10
226.1388999126575
 20
117.6635596797539
 30
0.0
  0
LINE
  5
20E
330
1F
100
AcDbEntity
  8
0
  6
Continuous
 62
     7
370
    18
100
AcDbLine
 10
225.9116704186
 20
118.0905009676
 30
0.0
 11
225.8345374711
 21
117.5830912534
 31
0.0
  0
LINE
  5
20F
330
1F
100
AcDbEntity
  8
0
  6
Continuous
 62
     7
370
    18
100
AcDbLine
 10
226.5600041126
 20
118.0905009676
 30
0.0
 11
225.9116704186
 21
118.0905009676
 31
0.0
  0
LINE
  5
210
330
1F
100
AcDbEntity
  8
0
  6
Continuous
 62
     7
370
    18
100
AcDbLine
 10
226.5600041126
 20
118.3306554421
 30
0.0
 11
226.5600041126
 21
118.0905009676
 31
0.0
  0
LINE
  5
211
330
1F
100
AcDbEntity
  8
0
  6
Continuous
 62
     7
370
    18
100
AcDbLine
 10
225.7328053674
 20
118.3306554421
 30
0.0
 11
226.5600041126
 21
118.3306554421
 31
0.0
  0
LINE
  5
212
330
1F
100
AcDbEntity
  8
0
  6
Continuous
 62
     7
370
    18
100
AcDbLine
 10
225.5727023844
 20
117.2778949422
 30
0.0
 11
225.7328053674
 21
118.3306554421
 31
0.0
  0
LINE
  5
213
330
1F
100
AcDbEntity
  8
0
  6
Continuous
 62
     7
370
    18
100
AcDbLine
 10
225.7861730283
 20
117.247458698
 30
0.0
 11
225.5727023844
 21
117.2778949422
 31
0.0
  0
SPLINE
  5
214
330
1F
100
AcDbEntity
  8
0
  6
Continuous
 62
     7
370
    18
100
AcDbSpline
210
0.0
220
0.0
230
1.0
 70
     8
 71
     3
 72
    10
 73
     6
 74
     0
 42
0.000000001
 43
0.00000001
 40
0.0
 40
0.0
 40
0.0
 40
0.0
 40
0.2801682771676862
 40
0.5607715634932532
 40
1.0
 40
1.0
 40
1.0
 40
1.0
 10
226.079278228901
 20
117.4500890358145
 30
0.0
 10
226.0442902156634
 20
117.4462220679645
 30
0.0
 10
225.9742598643147
 20
117.4384821281356
 30
0.0
 10
225.8634153517576
 20
117.3718275857823
 30
0.0
 10
225.8154441793415
 20
117.2945885658499
 30
0.0
 10
225.7861730283358
 20
117.2474586980126
 30
0.0
  0
SPLINE
  5
215
330
1F
100
AcDbEntity
  8
0
  6
Continuous
 62
     7
370
    18
100
AcDbSpline
210
0.0
220
0.0
230
1.0
 70
     8
 71
     3
 72
    11
 73
     7
 74
     0
 42
0.000000001
 43
0.00000001
 40
0.0
 40
0.0
 40
0.0
 40
0.0
 40
0.2810318196216979
 40
0.5605860755662309
 40
0.7803889752949
 40
1.0
 40
1.0
 40
1.0
 40
1.0
 10
226.426584960154
 20
116.9906268295231
 30
0.0
 10
226.4237284669885
 20
117.0511785776522
 30
0.0
 10
226.4180304990657
 20
117.1719637147162
 30
0.0
 10
226.3439886518245
 20
117.3270650081678
 30
0.0
 10
226.2222965955434
 20
117.4331739846482
 30
0.0
 10
226.1269371378559
 20
117.4444523270307
 30
0.0
 10
226.079278228901
 20
117.4500890358145
 30
0.0
  0
SPLINE
  5
216
330
1F
100
AcDbEntity
  8
0
  6
Continuous
 62
     7
370
    18
100
AcDbSpline
210
0.0
220
0.0
230
1.0
 70
     8
 71
     3
 72
    12
 73
     8
 74
     0
 42
0.000000001
 43
0.00000001
 40
0.0
 40
0.0
 40
0.0
 40
0.0
 40
0.1858835197478832
 40
0.3723018513499631
 40
0.5590684864252672
 40
0.7793243380015257
 40
1.0
 40
1.0
 40
1.0
 40
1.0
 10
226.0738580758323
 20
116.4894711380872
 30
0.0
 10
226.1163593790154
 20
116.4949931285738
 30
0.0
 10
226.2014842673397
 20
116.5060529970552
 30
0.0
 10
226.302272099657
 20
116.5909415239386
 30
0.0
 10
226.3781627291033
 20
116.7025130781579
 30
0.0
 10
226.4205089790738
 20
116.8408263500311
 30
0.0
 10
226.424558347994
 20
116.9406616519977
 30
0.0
 10
226.426584960154
 20
116.9906268295231
 30
0.0
  0
SPLINE
  5
217
330
1F
100
AcDbEntity
  8
0
  6
Continuous
 62
     7
370
    18
100
AcDbSpline
210
0.0
220
0.0
230
1.0
 70
     8
 71
     3
 72
    11
 73
     7
 74
     0
 42
0.000000001
 43
0.00000001
 40
0.0
 40
0.0
 40
0.0
 40
0.0
 40
0.2811074381184292
 40
0.5611160017532777
 40
0.7809929910720544
 40
1.0
 40
1.0
 40
1.0
 40
1.0
 10
225.7594891978434
 20
116.8897285954736
 30
0.0
 10
225.7677049267962
 20
116.8380823457548
 30
0.0
 10
225.7841042686719
 20
116.7349917361937
 30
0.0
 10
225.8483590539728
 20
116.6027034880597
 30
0.0
 10
225.9507366119893
 20
116.5077521490813
 30
0.0
 10
226.0328718589103
 20
116.4955567502849
 30
0.0
 10
226.0738580758323
 20
116.4894711380872
 30
0.0
  0
LINE
  5
218
330
1F
100
AcDbEntity
  8
0
  6
Continuous
 62
     7
370
    18
100
AcDbLine
 10
225.5460185539
 20
116.863044765
 30
0.0
 11
225.7594891978
 21
116.8897285955
 31
0.0
  0
SPLINE
  5
219
330
1F
100
AcDbEntity
  8
0
  6
Continuous
 62
     7
370
    18
100
AcDbSpline
210
0.0
220
0.0
230
1.0
 70
     8
 71
     3
 72
    12
 73
     8
 74
     0
 42
0.000000001
 43
0.00000001
 40
0.0
 40
0.0
 40
0.0
 40
0.0
 40
0.1865885886654287
 40
0.3730457041861963
 40
0.5597053661028978
 40
0.7796179230979461
 40
1.0
 40
1.0
 40
1.0
 40
1.0
 10
226.0759427500895
 20
116.2760004941478
 30
0.0
 10
226.0211257768231
 20
116.2803623421926
 30
0.0
 10
225.9115304551599
 20
116.2890829648581
 30
0.0
 10
225.7658369802355
 20
116.372899328137
 30
0.0
 10
225.6467897818655
 20
116.5009378751847
 30
0.0
 10
225.5698493836591
 20
116.6712393442018
 30
0.0
 10
225.553967809069
 20
116.799064188246
 30
0.0
 10
225.546018553904
 20
116.8630447649811
 30
0.0
  0
SPLINE
  5
21A
330
1F
100
AcDbEntity
  8
0
  6
Continuous
 62
     7
370
    18
100
AcDbSpline
210
0.0
220
0.0
230
1.0
 70
     8
 71
     3
 72
    13
 73
     9
 74
     0
 42
0.000000001
 43
0.00000001
 40
0.0
 40
0.0
 40
0.0
 40
0.0
 40
0.1868890796518143
 40
0.3736670037034823
 40
0.5603596573753089
 40
0.706943301333556
 40
0.8533827747571271
 40
1.0
 40
1.0
 40
1.0
 40
1.0
 10
226.6400556040934
 20
117.0023010053635
 30
0.0
 10
226.6369620240512
 20
116.9383821865465
 30
0.0
 10
226.6307767039285
 20
116.8105825657655
 30
0.0
 10
226.5736133882872
 20
116.6258106900575
 30
0.0
 10
226.4828293757714
 20
116.4710456279242
 30
0.0
 10
226.3649602811772
 20
116.354785945061
 30
0.0
 10
226.2267762099785
 20
116.2865497887268
 30
0.0
 10
226.1262408964205
 20
116.2795183473007
 30
0.0
 10
226.0759427500895
 20
116.2760004941478
 30
0.0
  0
LINE
  5
21B
330
1F
100
AcDbEntity
  8
0
  6
Continuous
 62
     7
370
    18
100
AcDbLine
 10
224.7455036391
 20
117.1565669004
 30
0.0
 11
225.3859155709
 21
117.1565669004
 31
0.0
  0
LINE
  5
21C
330
1F
100
AcDbEntity
  8
0
  6
Continuous
 62
     7
370
    18
100
AcDbLine
 10
224.7455036391
 20
116.916412426
 30
0.0
 11
224.7455036391
 21
117.1565669004
 31
0.0
  0
LINE
  5
21D
330
1F
100
AcDbEntity
  8
0
  6
Continuous
 62
     7
370
    18
100
AcDbLine
 10
225.3859155709
 20
116.916412426
 30
0.0
 11
224.7455036391
 21
116.916412426
 31
0.0
  0
LINE
  5
21E
330
1F
100
AcDbEntity
  8
0
  6
Continuous
 62
     7
370
    18
100
AcDbLine
 10
225.3859155709
 20
117.1565669004
 30
0.0
 11
225.3859155709
 21
116.916412426
 31
0.0
  0
SPLINE
  5
21F
330
1F
100
AcDbEntity
  8
0
  6
Continuous
 62
     7
370
    18
100
AcDbSpline
210
0.0
220
0.0
230
1.0
 70
     8
 71
     3
 72
    12
 73
     8
 74
     0
 42
0.000000001
 43
0.00000001
 40
0.0
 40
0.0
 40
0.0
 40
0.0
 40
0.1871057595240069
 40
0.3740211604078899
 40
0.5608338669252947
 40
0.7803585126596462
 40
1.0
 40
1.0
 40
1.0
 40
1.0
 10
224.5587168256843
 20
116.8993180970568
 30
0.0
 10
224.5557677173606
 20
116.8416245470481
 30
0.0
 10
224.5498725010927
 20
116.7262961435976
 30
0.0
 10
224.4903721759487
 20
116.5608737826069
 30
0.0
 10
224.3804579531242
 20
116.4133781333077
 30
0.0
 10
224.2177648768693
 20
116.2961663361696
 30
0.0
 10
224.0812331372931
 20
116.2827236336469
 30
0.0
 10
224.0129491051439
 20
116.2760004941478
 30
0.0
  0
SPLINE
  5
220
330
1F
100
AcDbEntity
  8
0
  6
Continuous
 62
     7
370
    18
100
AcDbSpline
210
0.0
220
0.0
230
1.0
 70
     8
 71
     3
 72
    11
 73
     7
 74
     0
 42
0.000000001
 43
0.00000001
 40
0.0
 40
0.0
 40
0.0
 40
0.0
 40
0.2796220600248658
 40
0.559024542856069
 40
0.7793847317261564
 40
0.9999999999999999
 40
0.9999999999999999
 40
0.9999999999999999
 40
0.9999999999999999
 10
224.2314229673006
 20
117.4300761629452
 30
0.0
 10
224.2876894959152
 20
117.4022408769971
 30
0.0
 10
224.4001783690535
 20
117.3465921631544
 30
0.0
 10
224.503948058451
 20
117.200170261591
 30
0.0
 10
224.5518821049823
 20
117.0462937907609
 30
0.0
 10
224.5564377070641
 20
116.9483288840139
 30
0.0
 10
224.5587168256843
 20
116.8993180970568
 30
0.0
  0
SPLINE
  5
221
330
1F
100
AcDbEntity
  8
0
  6
Continuous
 62
     7
370
    18
100
AcDbSpline
210
0.0
220
0.0
230
1.0
 70
     8
 71
     3
 72
    11
 73
     7
 74
     0
 42
0.000000001
 43
0.00000001
 40
0.0
 40
0.0
 40
0.0
 40
0.0
 40
0.2801901752489534
 40
0.5597317672418839
 40
0.7798035967389181
 40
1.0
 40
1.0
 40
1.0
 40
1.0
 10
224.478665334207
 20
117.8445094052806
 30
0.0
 10
224.4760213109559
 20
117.7965114111527
 30
0.0
 10
224.4707393848297
 20
117.7006265284889
 30
0.0
 10
224.4156073201864
 20
117.5759291709275
 30
0.0
 10
224.3312311722702
 20
117.4836970890673
 30
0.0
 10
224.2646986440768
 20
117.447953176229
 30
0.0
 10
224.2314229673006
 20
117.4300761629452
 30
0.0
  0
SPLINE
  5
222
330
1F
100
AcDbEntity
  8
0
  6
Continuous
 62
     7
370
    18
100
AcDbSpline
210
0.0
220
0.0
230
1.0
 70
     8
 71
     3
 72
    12
 73
     8
 74
     0
 42
0.000000001
 43
0.00000001
 40
0.0
 40
0.0
 40
0.0
 40
0.0
 40
0.1866818949369825
 40
0.3730939207975807
 40
0.5598445729636963
 40
0.7796788980924672
 40
0.9999999999999999
 40
0.9999999999999999
 40
0.9999999999999999
 40
0.9999999999999999
 10
224.0096136263324
 20
118.3840231030493
 30
0.0
 10
224.0595639477036
 20
118.3799876375091
 30
0.0
 10
224.1593923817988
 20
118.3719225401349
 30
0.0
 10
224.2920231910562
 20
118.2948014894327
 30
0.0
 10
224.3981467228597
 20
118.1763981473593
 30
0.0
 10
224.4686356544379
 20
118.0207804703837
 30
0.0
 10
224.4753196436311
 20
117.9033097314028
 30
0.0
 10
224.478665334207
 20
117.8445094052806
 30
0.0
  0
SPLINE
  5
223
330
1F
100
AcDbEntity
  8
0
  6
Continuous
 62
     7
370
    18
100
AcDbSpline
210
0.0
220
0.0
230
1.0
 70
     8
 71
     3
 72
    12
 73
     8
 74
     0
 42
0.000000001
 43
0.00000001
 40
0.0
 40
0.0
 40
0.0
 40
0.0
 40
0.1871377587295394
 40
0.3740411921344271
 40
0.5608494686677215
 40
0.7803659435040536
 40
1.0
 40
1.0
 40
1.0
 40
1.0
 10
223.5447312669721
 20
117.8528481023095
 30
0.0
 10
223.5472803642076
 20
117.9020478561017
 30
0.0
 10
223.5523753668156
 20
118.0003857580094
 30
0.0
 10
223.602509090498
 20
118.1415654918786
 30
0.0
 10
223.6955662264868
 20
118.2680032920796
 30
0.0
 10
223.8350523114152
 20
118.3670003444902
 30
0.0
 10
223.9514161359677
 20
118.3783478374402
 30
0.0
 10
224.0096136263324
 20
118.3840231030493
 30
0.0
  0
SPLINE
  5
224
330
1F
100
AcDbEntity
  8
0
  6
Continuous
 62
     7
370
    18
100
AcDbSpline
210
0.0
220
0.0
230
1.0
 70
     8
 71
     3
 72
    11
 73
     7
 74
     0
 42
0.000000001
 43
0.00000001
 40
0.0
 40
0.0
 40
0.0
 40
0.0
 40
0.2798399979573744
 40
0.5592260384591605
 40
0.779566561526532
 40
1.0
 40
1.0
 40
1.0
 40
1.0
 10
223.7944752429872
 20
117.4300761629452
 30
0.0
 10
223.7515327802428
 20
117.4539337128218
 30
0.0
 10
223.6657175161722
 20
117.5016101107714
 30
0.0
 10
223.5861409359921
 20
117.6168917273399
 30
0.0
 10
223.5494488033355
 20
117.7377447238168
 30
0.0
 10
223.5463040000687
 20
117.8144749178888
 30
0.0
 10
223.5447312669721
 20
117.8528481023095
 30
0.0
  0
SPLINE
  5
225
330
1F
100
AcDbEntity
  8
0
  6
Continuous
 62
     7
370
    18
100
AcDbSpline
210
0.0
220
0.0
230
1.0
 70
     8
 71
     3
 72
    11
 73
     7
 74
     0
 42
0.000000001
 43
0.00000001
 40
0.0
 40
0.0
 40
0.0
 40
0.0
 40
0.2804755498465853
 40
0.5600957930369957
 40
0.7800256682201223
 40
1.0
 40
1.0
 40
1.0
 40
1.0
 10
223.4646797754949
 20
116.9064059895313
 30
0.0
 10
223.4680061684419
 20
116.9687924219526
 30
0.0
 10
223.4746488105424
 20
117.0933750401554
 30
0.0
 10
223.5458884354233
 20
117.2552087487493
 30
0.0
 10
223.6576801163567
 20
117.3746325999739
 30
0.0
 10
223.7488737954411
 20
117.4115937301942
 30
0.0
 10
223.7944752429872
 20
117.4300761629452
 30
0.0
  0
SPLINE
  5
226
330
1F
100
AcDbEntity
  8
0
  6
Continuous
 62
     7
370
    18
100
AcDbSpline
210
0.0
220
0.0
230
1.0
 70
     8
 71
     3
 72
    12
 73
     8
 74
     0
 42
0.000000001
 43
0.00000001
 40
0.0
 40
0.0
 40
0.0
 40
0.0
 40
0.1866482491791761
 40
0.3730988090507017
 40
0.5597919176482332
 40
0.7796545203293618
 40
1.0
 40
1.0
 40
1.0
 40
1.0
 10
224.0129491051439
 20
116.2760004941478
 30
0.0
 10
223.9545374176111
 20
116.2807608968431
 30
0.0
 10
223.8377759095391
 20
116.2902766602324
 30
0.0
 10
223.6824002368049
 20
116.379698482386
 30
0.0
 10
223.5568626147655
 20
116.5172681838885
 30
0.0
 10
223.4763304114054
 20
116.7003197664889
 30
0.0
 10
223.4685661597425
 20
116.8376603642247
 30
0.0
 10
223.4646797754949
 20
116.9064059895313
 30
0.0
  0
SPLINE
  5
227
330
1F
100
AcDbEntity
  8
0
  6
Continuous
 62
     7
370
    18
100
AcDbSpline
210
0.0
220
0.0
230
1.0
 70
     8
 71
     3
 72
    10
 73
     6
 74
     0
 42
0.000000001
 43
0.00000001
 40
0.0
 40
0.0
 40
0.0
 40
0.0
 40
0.2795751783825392
 40
0.5597049368157163
 40
1.0
 40
1.0
 40
1.0
 40
1.0
 10
223.083601321275
 20
118.1672169802984
 30
0.0
 10
223.1194798621804
 20
118.0947138328313
 30
0.0
 10
223.1913081145551
 20
117.9495637168348
 30
0.0
 10
223.2409062378589
 20
117.663042056849
 30
0.0
 10
223.2473009420857
 20
117.4558223753611
 30
0.0
 10
223.2512091315555
 20
117.3291779288957
 30
0.0
  0
SPLINE
  5
228
330
1F
100
AcDbEntity
  8
0
  6
Continuous
 62
     7
370
    18
100
AcDbSpline
210
0.0
220
0.0
230
1.0
 70
     8
 71
     3
 72
    11
 73
     7
 74
     0
 42
0.000000001
 43
0.00000001
 40
0.0
 40
0.0
 40
0.0
 40
0.0
 40
0.2798903849624084
 40
0.5594964420644658
 40
0.7796718965173854
 40
1.0
 40
1.0
 40
1.0
 40
1.0
 10
222.7054414110151
 20
118.3840231030493
 30
0.0
 10
222.7481983527356
 20
118.3811705847774
 30
0.0
 10
222.8336688013521
 20
118.3754684459767
 30
0.0
 10
222.942439056455
 20
118.3218433640473
 30
0.0
 10
223.0259593819678
 20
118.2498039959624
 30
0.0
 10
223.0643829031662
 20
118.1947523445914
 30
0.0
 10
223.083601321275
 20
118.1672169802984
 30
0.0
  0
SPLINE
  5
229
330
1F
100
AcDbEntity
  8
0
  6
Continuous
 62
     7
370
    18
100
AcDbSpline
210
0.0
220
0.0
230
1.0
 70
     8
 71
     3
 72
    13
 73
     9
 74
     0
 42
0.000000001
 43
0.00000001
 40
0.0
 40
0.0
 40
0.0
 40
0.0
 40
0.2504890583456492
 40
0.5006738274425641
 40
0.6258446378555212
 40
0.750758415565905
 40
0.8753007099299328
 40
1.0
 40
1.0
 40
1.0
 40
1.0
 10
222.1571720813661
 20
117.3291779288957
 30
0.0
 10
222.1598906959812
 20
117.4394181262534
 30
0.0
 10
222.1653246226911
 20
117.6597646033158
 30
0.0
 10
222.2153779947327
 20
117.9331920388631
 30
0.0
 10
222.30031352011
 20
118.1376495731482
 30
0.0
 10
222.397301595799
 20
118.2731621942274
 30
0.0
 10
222.5392572588826
 20
118.3692614763158
 30
0.0
 10
222.6500234366648
 20
118.3791004949595
 30
0.0
 10
222.7054414110151
 20
118.3840231030493
 30
0.0
  0
SPLINE
  5
22A
330
1F
100
AcDbEntity
  8
0
  6
Continuous
 62
     7
370
    18
100
AcDbSpline
210
0.0
220
0.0
230
1.0
 70
     8
 71
     3
 72
    13
 73
     9
 74
     0
 42
0.000000001
 43
0.00000001
 40
0.0
 40
0.0
 40
0.0
 40
0.0
 40
0.1245870753534841
 40
0.2492227148385366
 40
0.3742192396120911
 40
0.499299813320963
 40
0.7494812006579997
 40
1.0
 40
1.0
 40
1.0
 40
1.0
 10
222.7029398019065
 20
116.2760004941478
 30
0.0
 10
222.6476761586177
 20
116.2816371904249
 30
0.0
 10
222.5371273302322
 20
116.2929127801673
 30
0.0
 10
222.3983383740094
 20
116.3915457930036
 30
0.0
 10
222.2952992653263
 20
116.5215501295636
 30
0.0
 10
222.2092753801579
 20
116.7258960806172
 30
0.0
 10
222.1641044935387
 20
116.999398259803
 30
0.0
 10
222.1594839233274
 20
117.2192019987264
 30
0.0
 10
222.1571720813661
 20
117.3291779288957
 30
0.0
  0
SPLINE
  5
22B
330
1F
100
AcDbEntity
  8
0
  6
Continuous
 62
     7
370
    18
100
AcDbSpline
210
0.0
220
0.0
230
1.0
 70
     8
 71
     3
 72
    13
 73
     9
 74
     0
 42
0.000000001
 43
0.00000001
 40
0.0
 40
0.0
 40
0.0
 40
0.0
 40
0.2504702058475066
 40
0.5006494994159214
 40
0.625802706213278
 40
0.7507410958263508
 40
0.8752785399750049
 40
1.0
 40
1.0
 40
1.0
 40
1.0
 10
223.2512091315555
 20
117.3291779288957
 30
0.0
 10
223.2484956363004
 20
117.2190454733441
 30
0.0
 10
223.2430717974189
 20
116.9989084771902
 30
0.0
 10
223.1923019396948
 20
116.7259778769542
 30
0.0
 10
223.1079501922592
 20
116.5215537645029
 30
0.0
 10
223.0110674323027
 20
116.3860989357706
 30
0.0
 10
222.8689908154338
 20
116.2904206709688
 30
0.0
 10
222.7583173747107
 20
116.2808095848892
 30
0.0
 10
222.7029398019065
 20
116.2760004941478
 30
0.0
  0
SPLINE
  5
22C
330
1F
100
AcDbEntity
  8
0
  6
Continuous
 62
     7
370
    18
100
AcDbSpline
210
0.0
220
0.0
230
1.0
 70
     8
 71
     3
 72
    12
 73
     8
 74
     0
 42
0.000000001
 43
0.00000001
 40
0.0
 40
0.0
 40
0.0
 40
0.0
 40
0.1861323399318262
 40
0.3726108819815562
 40
0.5594136204052398
 40
0.7795030968206
 40
1.0
 40
1.0
 40
1.0
 40
1.0
 10
221.4425457459909
 20
117.6635596797539
 30
0.0
 10
221.500188060926
 20
117.656873779371
 30
0.0
 10
221.6155799042525
 20
117.6434895429754
 30
0.0
 10
221.7577256290811
 20
117.536377898812
 30
0.0
 10
221.8688956478854
 20
117.3908165809992
 30
0.0
 10
221.9346925476662
 20
117.2054919705012
 30
0.0
 10
221.9406966234418
 20
117.0700730693898
 30
0.0
 10
221.9437014374267
 20
117.0023010053635
 30
0.0
  0
SPLINE
  5
22D
330
1F
100
AcDbEntity
  8
0
  6
Continuous
 62
     7
370
    18
100
AcDbSpline
210
0.0
220
0.0
230
1.0
 70
     8
 71
     3
 72
     9
 73
     5
 74
     0
 42
0.000000001
 43
0.00000001
 40
0.0
 40
0.0
 40
0.0
 40
0.0
 40
0.5597945537684238
 40
1.0
 40
1.0
 40
1.0
 40
1.0
 10
221.1381833044367
 20
117.5830912534252
 30
0.0
 10
221.1923041104771
 20
117.6088992585707
 30
0.0
 10
221.2889838757162
 20
117.6550018956396
 30
0.0
 10
221.3956088511157
 20
117.6609439535152
 30
0.0
 10
221.4425457459909
 20
117.6635596797539
 30
0.0
  0
LINE
  5
22E
330
1F
100
AcDbEntity
  8
0
  6
Continuous
 62
     7
370
    18
100
AcDbLine
 10
221.215316252
 20
118.0905009676
 30
0.0
 11
221.1381833044
 21
117.5830912534
 31
0.0
  0
LINE
  5
22F
330
1F
100
AcDbEntity
  8
0
  6
Continuous
 62
     7
370
    18
100
AcDbLine
 10
221.8636499459
 20
118.0905009676
 30
0.0
 11
221.215316252
 21
118.0905009676
 31
0.0
  0
LINE
  5
230
330
1F
100
AcDbEntity
  8
0
  6
Continuous
 62
     7
370
    18
100
AcDbLine
 10
221.8636499459
 20
118.3306554421
 30
0.0
 11
221.8636499459
 21
118.0905009676
 31
0.0
  0
LINE
  5
231
330
1F
100
AcDbEntity
  8
0
  6
Continuous
 62
     7
370
    18
100
AcDbLine
 10
221.0364512007
 20
118.3306554421
 30
0.0
 11
221.8636499459
 21
118.3306554421
 31
0.0
  0
LINE
  5
232
330
1F
100
AcDbEntity
  8
0
  6
Continuous
 62
     7
370
    18
100
AcDbLine
 10
220.8763482177
 20
117.2778949422
 30
0.0
 11
221.0364512007
 21
118.3306554421
 31
0.0
  0
LINE
  5
233
330
1F
100
AcDbEntity
  8
0
  6
Continuous
 62
     7
370
    18
100
AcDbLine
 10
221.0898188617
 20
117.247458698
 30
0.0
 11
220.8763482177
 21
117.2778949422
 31
0.0
  0
SPLINE
  5
234
330
1F
100
AcDbEntity
  8
0
  6
Continuous
 62
     7
370
    18
100
AcDbSpline
210
0.0
220
0.0
230
1.0
 70
     8
 71
     3
 72
    10
 73
     6
 74
     0
 42
0.000000001
 43
0.00000001
 40
0.0
 40
0.0
 40
0.0
 40
0.0
 40
0.2801682771676878
 40
0.5607715634932565
 40
1.0
 40
1.0
 40
1.0
 40
1.0
 10
221.3829240622344
 20
117.4500890358145
 30
0.0
 10
221.3479360489967
 20
117.4462220679645
 30
0.0
 10
221.2779056976481
 20
117.4384821281356
 30
0.0
 10
221.167061185091
 20
117.3718275857823
 30
0.0
 10
221.1190900126749
 20
117.2945885658499
 30
0.0
 10
221.0898188616692
 20
117.2474586980126
 30
0.0
  0
SPLINE
  5
235
330
1F
100
AcDbEntity
  8
0
  6
Continuous
 62
     7
370
    18
100
AcDbSpline
210
0.0
220
0.0
230
1.0
 70
     8
 71
     3
 72
    11
 73
     7
 74
     0
 42
0.000000001
 43
0.00000001
 40
0.0
 40
0.0
 40
0.0
 40
0.0
 40
0.2810318196216977
 40
0.5605860755662303
 40
0.780388975294895
 40
1.0
 40
1.0
 40
1.0
 40
1.0
 10
221.7302307934873
 20
116.9906268295231
 30
0.0
 10
221.7273743003219
 20
117.0511785776522
 30
0.0
 10
221.7216763323989
 20
117.1719637147162
 30
0.0
 10
221.6476344851579
 20
117.3270650081678
 30
0.0
 10
221.5259424288767
 20
117.4331739846483
 30
0.0
 10
221.4305829711892
 20
117.4444523270307
 30
0.0
 10
221.3829240622344
 20
117.4500890358145
 30
0.0
  0
SPLINE
  5
236
330
1F
100
AcDbEntity
  8
0
  6
Continuous
 62
     7
370
    18
100
AcDbSpline
210
0.0
220
0.0
230
1.0
 70
     8
 71
     3
 72
    12
 73
     8
 74
     0
 42
0.000000001
 43
0.00000001
 40
0.0
 40
0.0
 40
0.0
 40
0.0
 40
0.185883519747883
 40
0.3723018513499667
 40
0.5590684864252705
 40
0.7793243380015257
 40
1.0
 40
1.0
 40
1.0
 40
1.0
 10
221.3775039091656
 20
116.4894711380872
 30
0.0
 10
221.4200052123487
 20
116.4949931285738
 30
0.0
 10
221.5051301006731
 20
116.5060529970552
 30
0.0
 10
221.6059179329904
 20
116.5909415239386
 30
0.0
 10
221.6818085624366
 20
116.7025130781579
 30
0.0
 10
221.7241548124071
 20
116.8408263500311
 30
0.0
 10
221.7282041813273
 20
116.9406616519977
 30
0.0
 10
221.7302307934873
 20
116.9906268295231
 30
0.0
  0
SPLINE
  5
237
330
1F
100
AcDbEntity
  8
0
  6
Continuous
 62
     7
370
    18
100
AcDbSpline
210
0.0
220
0.0
230
1.0
 70
     8
 71
     3
 72
    11
 73
     7
 74
     0
 42
0.000000001
 43
0.00000001
 40
0.0
 40
0.0
 40
0.0
 40
0.0
 40
0.2811074381184283
 40
0.5611160017532771
 40
0.7809929910720542
 40
1.0
 40
1.0
 40
1.0
 40
1.0
 10
221.0631350311767
 20
116.8897285954736
 30
0.0
 10
221.0713507601295
 20
116.8380823457548
 30
0.0
 10
221.0877501020052
 20
116.7349917361937
 30
0.0
 10
221.1520048873061
 20
116.6027034880597
 30
0.0
 10
221.2543824453226
 20
116.5077521490813
 30
0.0
 10
221.3365176922436
 20
116.4955567502849
 30
0.0
 10
221.3775039091656
 20
116.4894711380872
 30
0.0
  0
LINE
  5
238
330
1F
100
AcDbEntity
  8
0
  6
Continuous
 62
     7
370
    18
100
AcDbLine
 10
220.8496643872
 20
116.863044765
 30
0.0
 11
221.0631350312
 21
116.8897285955
 31
0.0
  0
SPLINE
  5
239
330
1F
100
AcDbEntity
  8
0
  6
Continuous
 62
     7
370
    18
100
AcDbSpline
210
0.0
220
0.0
230
1.0
 70
     8
 71
     3
 72
    12
 73
     8
 74
     0
 42
0.000000001
 43
0.00000001
 40
0.0
 40
0.0
 40
0.0
 40
0.0
 40
0.186588588665425
 40
0.3730457041861928
 40
0.5597053661028972
 40
0.7796179230979458
 40
1.0
 40
1.0
 40
1.0
 40
1.0
 10
221.3795885834228
 20
116.2760004941478
 30
0.0
 10
221.3247716101565
 20
116.2803623421926
 30
0.0
 10
221.2151762884932
 20
116.2890829648581
 30
0.0
 10
221.0694828135689
 20
116.372899328137
 30
0.0
 10
220.9504356151988
 20
116.5009378751847
 30
0.0
 10
220.8734952169925
 20
116.6712393442018
 30
0.0
 10
220.8576136424024
 20
116.799064188246
 30
0.0
 10
220.8496643872373
 20
116.8630447649811
 30
0.0
  0
SPLINE
  5
23A
330
1F
100
AcDbEntity
  8
0
  6
Continuous
 62
     7
370
    18
100
AcDbSpline
210
0.0
220
0.0
230
1.0
 70
     8
 71
     3
 72
    13
 73
     9
 74
     0
 42
0.000000001
 43
0.00000001
 40
0.0
 40
0.0
 40
0.0
 40
0.0
 40
0.1868890796518146
 40
0.3736670037034827
 40
0.5603596573753077
 40
0.7069433013335559
 40
0.8533827747571271
 40
1.0
 40
1.0
 40
1.0
 40
1.0
 10
221.9437014374267
 20
117.0023010053635
 30
0.0
 10
221.9406078573845
 20
116.9383821865465
 30
0.0
 10
221.9344225372619
 20
116.8105825657655
 30
0.0
 10
221.8772592216205
 20
116.6258106900575
 30
0.0
 10
221.7864752091047
 20
116.4710456279242
 30
0.0
 10
221.6686061145106
 20
116.354785945061
 30
0.0
 10
221.5304220433119
 20
116.2865497887268
 30
0.0
 10
221.4298867297538
 20
116.2795183473007
 30
0.0
 10
221.3795885834228
 20
116.2760004941478
 30
0.0
  0
LINE
  5
23B
330
1F
100
AcDbEntity
  8
0
  6
Continuous
 62
     7
370
    18
100
AcDbLine
 10
219.657647647
 20
116.3026843246
 30
0.0
 11
219.1685830662
 21
118.0959211207
 31
0.0
  0
LINE
  5
23C
330
1F
100
AcDbEntity
  8
0
  6
Continuous
 62
     7
370
    18
100
AcDbLine
 10
219.8761215091
 20
116.3026843246
 30
0.0
 11
219.657647647
 21
116.3026843246
 31
0.0
  0
LINE
  5
23D
330
1F
100
AcDbEntity
  8
0
  6
Continuous
 62
     7
370
    18
100
AcDbLine
 10
220.3693554384
 20
117.9987753003
 30
0.0
 11
219.8761215091
 21
116.3026843246
 31
0.0
  0
LINE
  5
23E
330
1F
100
AcDbEntity
  8
0
  6
Continuous
 62
     7
370
    18
100
AcDbLine
 10
220.3693554384
 20
116.3026843246
 30
0.0
 11
220.3693554384
 21
117.9987753003
 31
0.0
  0
LINE
  5
23F
330
1F
100
AcDbEntity
  8
0
  6
Continuous
 62
     7
370
    18
100
AcDbLine
 10
220.5828260823
 20
116.3026843246
 30
0.0
 11
220.3693554384
 21
116.3026843246
 31
0.0
  0
LINE
  5
240
330
1F
100
AcDbEntity
  8
0
  6
Continuous
 62
     7
370
    18
100
AcDbLine
 10
220.5828260823
 20
118.3573392726
 30
0.0
 11
220.5828260823
 21
116.3026843246
 31
0.0
  0
LINE
  5
241
330
1F
100
AcDbEntity
  8
0
  6
Continuous
 62
     7
370
    18
100
AcDbLine
 10
220.280548315
 20
118.3573392726
 30
0.0
 11
220.5828260823
 21
118.3573392726
 31
0.0
  0
LINE
  5
242
330
1F
100
AcDbEntity
  8
0
  6
Continuous
 62
     7
370
    18
100
AcDbLine
 10
219.8619457242
 20
116.927669667
 30
0.0
 11
220.280548315
 21
118.3573392726
 31
0.0
  0
SPLINE
  5
243
330
1F
100
AcDbEntity
  8
0
  6
Continuous
 62
     7
370
    18
100
AcDbSpline
210
0.0
220
0.0
230
1.0
 70
     8
 71
     3
 72
     9
 73
     5
 74
     0
 42
0.000000001
 43
0.00000001
 40
0.0
 40
0.0
 40
0.0
 40
0.0
 40
0.5599947003108308
 40
1.0
 40
1.0
 40
1.0
 40
1.0
 10
219.7689692522941
 20
116.5982911343141
 30
0.0
 10
219.7858991586121
 20
116.659894930343
 30
0.0
 10
219.8161314202898
 20
116.7699027500504
 30
0.0
 10
219.8479467920015
 20
116.8794627057941
 30
0.0
 10
219.8619457241662
 20
116.927669666955
 30
0.0
  0
LINE
  5
244
330
1F
100
AcDbEntity
  8
0
  6
Continuous
 62
     7
370
    18
100
AcDbLine
 10
219.6889177608
 20
116.9026535759
 30
0.0
 11
219.7689692523
 21
116.5982911343
 31
0.0
  0
LINE
  5
245
330
1F
100
AcDbEntity
  8
0
  6
Continuous
 62
     7
370
    18
100
AcDbLine
 10
219.2890772383
 20
118.3573392726
 30
0.0
 11
219.6889177608
 21
116.9026535759
 31
0.0
  0
LINE
  5
246
330
1F
100
AcDbEntity
  8
0
  6
Continuous
 62
     7
370
    18
100
AcDbLine
 10
218.9551124223
 20
118.3573392726
 30
0.0
 11
219.2890772383
 21
118.3573392726
 31
0.0
  0
LINE
  5
247
330
1F
100
AcDbEntity
  8
0
  6
Continuous
 62
     7
370
    18
100
AcDbLine
 10
218.9551124223
 20
116.3026843246
 30
0.0
 11
218.9551124223
 21
118.3573392726
 31
0.0
  0
LINE
  5
248
330
1F
100
AcDbEntity
  8
0
  6
Continuous
 62
     7
370
    18
100
AcDbLine
 10
219.1685830662
 20
116.3026843246
 30
0.0
 11
218.9551124223
 21
116.3026843246
 31
0.0
  0
LINE
  5
249
330
1F
100
AcDbEntity
  8
0
  6
Continuous
 62
     7
370
    18
100
AcDbLine
 10
219.1685830662
 20
118.0959211207
 30
0.0
 11
219.1685830662
 21
116.3026843246
 31
0.0
  0
SPLINE
  5
24A
330
1F
100
AcDbEntity
  8
0
  6
Continuous
 62
     7
370
    18
100
AcDbSpline
210
0.0
220
0.0
230
1.0
 70
     8
 71
     3
 72
    14
 73
    10
 74
     0
 42
0.000000001
 43
0.00000001
 40
0.0
 40
0.0
 40
0.0
 40
0.0
 40
0.1250267645254267
 40
0.2499561862380681
 40
0.3747506313882875
 40
0.4996959194189194
 40
0.6663177050472574
 40
0.8330998507676217
 40
1.0
 40
1.0
 40
1.0
 40
1.0
 10
217.9707292380156
 20
118.1438686286175
 30
0.0
 10
217.9247016498021
 20
118.1410522983077
 30
0.0
 10
217.8326823093412
 20
118.1354218304148
 30
0.0
 10
217.7025945996463
 20
118.0829635313582
 30
0.0
 10
217.5947404579233
 20
117.9944335190619
 30
0.0
 10
217.5079366544731
 20
117.8668761587347
 30
0.0
 10
217.4452219183451
 20
117.7093253819668
 30
0.0
 10
217.4122310012694
 20
117.5276065578555
 30
0.0
 10
217.4090442118919
 20
117.405063730444
 30
0.0
 10
217.4074502537146
 20
117.3437706486962
 30
0.0
  0
SPLINE
  5
24B
330
1F
100
AcDbEntity
  8
0
  6
Continuous
 62
     7
370
    18
100
AcDbSpline
210
0.0
220
0.0
230
1.0
 70
     8
 71
     3
 72
    11
 73
     7
 74
     0
 42
0.000000001
 43
0.00000001
 40
0.0
 40
0.0
 40
0.0
 40
0.0
 40
0.2807713074051736
 40
0.5604369820882206
 40
0.780014784995371
 40
1.0
 40
1.0
 40
1.0
 40
1.0
 10
218.4214358124267
 20
117.7169273407387
 30
0.0
 10
218.4028423875806
 20
117.777316323055
 30
0.0
 10
218.365728755836
 20
117.8978564854866
 30
0.0
 10
218.262057428089
 20
118.0441233879476
 30
0.0
 10
218.1199067525799
 20
118.1318979047669
 30
0.0
 10
218.0204857925441
 20
118.1398759225065
 30
0.0
 10
217.9707292380156
 20
118.1438686286175
 30
0.0
  0
LINE
  5
24C
330
1F
100
AcDbEntity
  8
0
  6
Continuous
 62
     7
370
    18
100
AcDbLine
 10
218.6349064564
 20
117.7702950017
 30
0.0
 11
218.4214358124
 21
117.7169273407
 31
0.0
  0
SPLINE
  5
24D
330
1F
100
AcDbEntity
  8
0
  6
Continuous
 62
     7
370
    18
100
AcDbSpline
210
0.0
220
0.0
230
1.0
 70
     8
 71
     3
 72
    12
 73
     8
 74
     0
 42
0.000000001
 43
0.00000001
 40
0.0
 40
0.0
 40
0.0
 40
0.0
 40
0.1866161660947031
 40
0.3730652985771174
 40
0.5597027812570757
 40
0.7796715026895158
 40
1.0
 40
1.0
 40
1.0
 40
1.0
 10
217.9794848698959
 20
118.3840231030493
 30
0.0
 10
218.040445094917
 20
118.3795652898109
 30
0.0
 10
218.1623109815909
 20
118.370653653367
 30
0.0
 10
218.3299833920564
 20
118.2892686620482
 30
0.0
 10
218.4729518800737
 20
118.1567442346315
 30
0.0
 10
218.5777412338936
 20
117.9778836027146
 30
0.0
 10
218.6158410048408
 20
117.8395288862117
 30
0.0
 10
218.6349064563661
 20
117.7702950017236
 30
0.0
  0
SPLINE
  5
24E
330
1F
100
AcDbEntity
  8
0
  6
Continuous
 62
     7
370
    18
100
AcDbSpline
210
0.0
220
0.0
230
1.0
 70
     8
 71
     3
 72
    13
 73
     9
 74
     0
 42
0.000000001
 43
0.00000001
 40
0.0
 40
0.0
 40
0.0
 40
0.0
 40
0.186988627014318
 40
0.3737840604657693
 40
0.5603785113196426
 40
0.7069405280508668
 40
0.853445816405773
 40
1.0
 40
1.0
 40
1.0
 40
1.0
 10
217.1939796097752
 20
117.3437706486962
 30
0.0
 10
217.1972068671188
 20
117.4348274553736
 30
0.0
 10
217.2036580474568
 20
117.6168469903387
 30
0.0
 10
217.2728070018969
 20
117.8829886427396
 30
0.0
 10
217.3969011495341
 20
118.1079602856834
 30
0.0
 10
217.5688960388076
 20
118.2694661659157
 30
0.0
 10
217.7647454488595
 20
118.3672274696695
 30
0.0
 10
217.9078971015483
 20
118.3784239359013
 30
0.0
 10
217.9794848698959
 20
118.3840231030493
 30
0.0
  0
SPLINE
  5
24F
330
1F
100
AcDbEntity
  8
0
  6
Continuous
 62
     7
370
    18
100
AcDbSpline
210
0.0
220
0.0
230
1.0
 70
     8
 71
     3
 72
    14
 73
    10
 74
     0
 42
0.000000001
 43
0.00000001
 40
0.0
 40
0.0
 40
0.0
 40
0.0
 40
0.1249789553015475
 40
0.2498098163504265
 40
0.3745823232578657
 40
0.4995715195159088
 40
0.6662781166416184
 40
0.8331039635850062
 40
1.0
 40
1.0
 40
1.0
 40
1.0
 10
217.9603058667295
 20
116.2760004941478
 30
0.0
 10
217.8986616329122
 20
116.2794886301846
 30
0.0
 10
217.7754462108293
 20
116.2864607689792
 30
0.0
 10
217.6007516998557
 20
116.3556617992081
 30
0.0
 10
217.4565248549168
 20
116.4747542342899
 30
0.0
 10
217.340863378415
 20
116.6459252511943
 30
0.0
 10
217.2530771617819
 20
116.8550914498953
 30
0.0
 10
217.2016813832534
 20
117.0973891945115
 30
0.0
 10
217.1965472275454
 20
117.2616319826089
 30
0.0
 10
217.1939796097752
 20
117.3437706486962
 30
0.0
  0
SPLINE
  5
250
330
1F
100
AcDbEntity
  8
0
  6
Continuous
 62
     7
370
    18
100
AcDbSpline
210
0.0
220
0.0
230
1.0
 70
     8
 71
     3
 72
    13
 73
     9
 74
     0
 42
0.000000001
 43
0.00000001
 40
0.0
 40
0.0
 40
0.0
 40
0.0
 40
0.186909051664298
 40
0.3736796016941299
 40
0.5601136847103853
 40
0.7067311959183737
 40
0.853313829459129
 40
1.0
 40
1.0
 40
1.0
 40
1.0
 10
218.6615902868585
 20
116.9697800869508
 30
0.0
 10
218.6457364110734
 20
116.9044519339781
 30
0.0
 10
218.6140404073971
 20
116.7738440369025
 30
0.0
 10
218.5289774099783
 20
116.5898488505625
 30
0.0
 10
218.4112992454616
 20
116.4415295550887
 30
0.0
 10
218.2688896576666
 20
116.3416779500017
 30
0.0
 10
218.1187392207329
 20
116.2851732318501
 30
0.0
 10
218.0131294130586
 20
116.2790587929387
 30
0.0
 10
217.9603058667295
 20
116.2760004941478
 30
0.0
  0
LINE
  5
251
330
1F
100
AcDbEntity
  8
0
  6
Continuous
 62
     7
370
    18
100
AcDbLine
 10
218.4481196429
 20
117.0231477479
 30
0.0
 11
218.6615902869
 21
116.969780087
 31
0.0
  0
SPLINE
  5
252
330
1F
100
AcDbEntity
  8
0
  6
Continuous
 62
     7
370
    18
100
AcDbSpline
210
0.0
220
0.0
230
1.0
 70
     8
 71
     3
 72
    12
 73
     8
 74
     0
 42
0.000000001
 43
0.00000001
 40
0.0
 40
0.0
 40
0.0
 40
0.0
 40
0.1865921528409318
 40
0.3730589116156813
 40
0.5596226295490471
 40
0.7796100104163837
 40
1.0
 40
1.0
 40
1.0
 40
1.0
 10
217.9536349091064
 20
116.5161549685796
 30
0.0
 10
218.0021290644071
 20
116.5199446198293
 30
0.0
 10
218.0990847858605
 20
116.5275213755989
 30
0.0
 10
218.2297159631364
 20
116.5981026224075
 30
0.0
 10
218.3384541222877
 20
116.7085202349147
 30
0.0
 10
218.4117752507633
 20
116.8561201249093
 30
0.0
 10
218.4359974639298
 20
116.9674379500167
 30
0.0
 10
218.4481196429191
 20
117.0231477479357
 30
0.0
  0
SPLINE
  5
253
330
1F
100
AcDbEntity
  8
0
  6
Continuous
 62
     7
370
    18
100
AcDbSpline
210
0.0
220
0.0
230
1.0
 70
     8
 71
     3
 72
    14
 73
    10
 74
     0
 42
0.000000001
 43
0.00000001
 40
0.0
 40
0.0
 40
0.0
 40
0.0
 40
0.1669299867484128
 40
0.3337709048041638
 40
0.5004211293286692
 40
0.625423923950566
 40
0.7503194582828532
 40
0.8750931289475087
 40
1.0
 40
1.0
 40
1.0
 40
1.0
 10
217.4074502537146
 20
117.3437706486962
 30
0.0
 10
217.4087799896451
 20
117.2818237104355
 30
0.0
 10
217.4114387520001
 20
117.1579628868899
 30
0.0
 10
217.4415849402525
 20
116.9742679113412
 30
0.0
 10
217.4961652154004
 20
116.8116178465996
 30
0.0
 10
217.581935362698
 20
116.6813232535356
 30
0.0
 10
217.6855186362714
 20
116.5865593985133
 30
0.0
 10
217.8141018080422
 20
116.5257580661759
 30
0.0
 10
217.9071073364543
 20
116.5193571393741
 30
0.0
 10
217.9536349091064
 20
116.5161549685796
 30
0.0
  0
CIRCLE
  5
254
330
1F
100
AcDbEntity
  8
0
  6
Continuous
 62
     7
370
    18
100
AcDbCircle
 10
225.8929083503
 20
119.6915307972
 30
0.0
 40
25.19999999999999
  0
SPLINE
  5
255
330
1F
100
AcDbEntity
  8
0
  6
Continuous
 62
     7
370
    18
100
AcDbSpline
210
0.0
220
0.0
230
1.0
 70
     8
 71
     3
 72
    13
 73
     9
 74
     0
 42
0.000000001
 43
0.00000001
 40
0.0
 40
0.0
 40
0.0
 40
0.0
 40
0.1237345749994064
 40
0.2484232101745681
 40
0.3734713343328584
 40
0.4987444967637459
 40
0.7493102257733214
 40
1.0
 40
1.0
 40
1.0
 40
1.0
 10
232.7689979203221
 20
116.4894711380872
 30
0.0
 10
232.8100823165117
 20
116.49683437984
 30
0.0
 10
232.8925678917001
 20
116.511617637903
 30
0.0
 10
232.9767624614025
 20
116.6093304319738
 30
0.0
 10
233.0338321839583
 20
116.7180725145899
 30
0.0
 10
233.073002381374
 20
116.8788656216858
 30
0.0
 10
233.0942697042978
 20
117.0834226055456
 30
0.0
 10
233.096451443635
 20
117.2478018413238
 30
0.0
 10
233.0975425832601
 20
117.3300117985986
 30
0.0
  0
SPLINE
  5
256
330
1F
100
AcDbEntity
  8
0
  6
Continuous
 62
     7
370
    18
100
AcDbSpline
210
0.0
220
0.0
230
1.0
 70
     8
 71
     3
 72
    13
 73
     9
 74
     0
 42
0.000000001
 43
0.00000001
 40
0.0
 40
0.0
 40
0.0
 40
0.0
 40
0.250666854157016
 40
0.5012048357437129
 40
0.6264537829510441
 40
0.7514291871594845
 40
0.8760522367173401
 40
1.0
 40
1.0
 40
1.0
 40
1.0
 10
232.4304468209495
 20
117.3300117985986
 30
0.0
 10
232.431495127766
 20
117.2470665628036
 30
0.0
 10
232.4335912024449
 20
117.0812187349279
 30
0.0
 10
232.4554103014837
 20
116.8748447325501
 30
0.0
 10
232.4955127817542
 20
116.7127903491143
 30
0.0
 10
232.554884123371
 20
116.603684845995
 30
0.0
 10
232.6439854827188
 20
116.5089945205363
 30
0.0
 10
232.727402646914
 20
116.4959671351767
 30
0.0
 10
232.7689979203221
 20
116.4894711380872
 30
0.0
  0
SPLINE
  5
257
330
1F
100
AcDbEntity
  8
0
  6
Continuous
 62
     7
370
    18
100
AcDbSpline
210
0.0
220
0.0
230
1.0
 70
     8
 71
     3
 72
    13
 73
     9
 74
     0
 42
0.000000001
 43
0.00000001
 40
0.0
 40
0.0
 40
0.0
 40
0.0
 40
0.1236770548154475
 40
0.2483884878623276
 40
0.3734455614730943
 40
0.4987169325063976
 40
0.7492948497723044
 40
1.0
 40
1.0
 40
1.0
 40
1.0
 10
232.7564898747788
 20
118.1705524591099
 30
0.0
 10
232.7155013101244
 20
118.1630592598502
 30
0.0
 10
232.6331813712374
 20
118.1480101916446
 30
0.0
 10
232.5500676518159
 20
118.0496528513144
 30
0.0
 10
232.4933346027427
 20
117.9410190299784
 30
0.0
 10
232.4553188087501
 20
117.7802370008141
 30
0.0
 10
232.4335740600077
 20
117.5761880908778
 30
0.0
 10
232.4314894103404
 20
117.4120844466586
 30
0.0
 10
232.4304468209495
 20
117.3300117985986
 30
0.0
  0
SPLINE
  5
258
330
1F
100
AcDbEntity
  8
0
  6
Continuous
 62
     7
370
    18
100
AcDbSpline
210
0.0
220
0.0
230
1.0
 70
     8
 71
     3
 72
    13
 73
     9
 74
     0
 42
0.000000001
 43
0.00000001
 40
0.0
 40
0.0
 40
0.0
 40
0.0
 40
0.2506736071386389
 40
0.5012152607337984
 40
0.6264526015104173
 40
0.7514497498805428
 40
0.8760271183236269
 40
1.0
 40
1.0
 40
1.0
 40
1.0
 10
233.0975425832601
 20
117.3300117985986
 30
0.0
 10
233.096504080348
 20
117.4131579523524
 30
0.0
 10
233.0944276211875
 20
117.5794064920707
 30
0.0
 10
233.0725133767762
 20
117.7862976198745
 30
0.0
 10
233.0321209215397
 20
117.9486731956048
 30
0.0
 10
232.9723532907895
 20
118.0580139428643
 30
0.0
 10
232.8818332054367
 20
118.1517521945657
 30
0.0
 10
232.7982031875217
 20
118.1642958732153
 30
0.0
 10
232.7564898747788
 20
118.1705524591099
 30
0.0
  0
SPLINE
  5
259
330
1F
100
AcDbEntity
  8
0
  6
Continuous
 62
     7
370
    18
100
AcDbSpline
210
0.0
220
0.0
230
1.0
 70
     8
 71
     3
 72
    13
 73
     9
 74
     0
 42
0.000000001
 43
0.00000001
 40
0.0
 40
0.0
 40
0.0
 40
0.0
 40
0.1237345749994048
 40
0.2484232101745689
 40
0.3734713343328583
 40
0.4987444967637459
 40
0.7493102257733214
 40
1.0
 40
1.0
 40
1.0
 40
1.0
 10
228.7130556854736
 20
116.4894711380872
 30
0.0
 10
228.7541400816632
 20
116.49683437984
 30
0.0
 10
228.8366256568516
 20
116.511617637903
 30
0.0
 10
228.920820226554
 20
116.6093304319738
 30
0.0
 10
228.9778899491098
 20
116.71807251459
 30
0.0
 10
229.0170601465256
 20
116.8788656216858
 30
0.0
 10
229.0383274694493
 20
117.0834226055456
 30
0.0
 10
229.0405092087865
 20
117.2478018413238
 30
0.0
 10
229.0416003484116
 20
117.3300117985986
 30
0.0
  0
SPLINE
  5
25A
330
1F
100
AcDbEntity
  8
0
  6
Continuous
 62
     7
370
    18
100
AcDbSpline
210
0.0
220
0.0
230
1.0
 70
     8
 71
     3
 72
    13
 73
     9
 74
     0
 42
0.000000001
 43
0.00000001
 40
0.0
 40
0.0
 40
0.0
 40
0.0
 40
0.2506668541570164
 40
0.5012048357437137
 40
0.626453782951045
 40
0.7514291871594856
 40
0.8760522367173401
 40
1.0
 40
1.0
 40
1.0
 40
1.0
 10
228.374504586101
 20
117.3300117985986
 30
0.0
 10
228.3755528929176
 20
117.2470665628036
 30
0.0
 10
228.3776489675964
 20
117.0812187349279
 30
0.0
 10
228.3994680666352
 20
116.8748447325501
 30
0.0
 10
228.4395705469057
 20
116.7127903491143
 30
0.0
 10
228.4989418885226
 20
116.603684845995
 30
0.0
 10
228.5880432478703
 20
116.5089945205363
 30
0.0
 10
228.6714604120655
 20
116.4959671351767
 30
0.0
 10
228.7130556854736
 20
116.4894711380872
 30
0.0
  0
SPLINE
  5
25B
330
1F
100
AcDbEntity
  8
0
  6
Continuous
 62
     7
370
    18
100
AcDbSpline
210
0.0
220
0.0
230
1.0
 70
     8
 71
     3
 72
    13
 73
     9
 74
     0
 42
0.000000001
 43
0.00000001
 40
0.0
 40
0.0
 40
0.0
 40
0.0
 40
0.1236770548154475
 40
0.2483884878623287
 40
0.3734455614730946
 40
0.4987169325063971
 40
0.7492948497723044
 40
1.0
 40
1.0
 40
1.0
 40
1.0
 10
228.7005476399303
 20
118.1705524591099
 30
0.0
 10
228.659559075276
 20
118.1630592598502
 30
0.0
 10
228.577239136389
 20
118.1480101916446
 30
0.0
 10
228.4941254169674
 20
118.0496528513144
 30
0.0
 10
228.4373923678942
 20
117.9410190299784
 30
0.0
 10
228.3993765739016
 20
117.7802370008142
 30
0.0
 10
228.3776318251593
 20
117.5761880908778
 30
0.0
 10
228.3755471754919
 20
117.4120844466586
 30
0.0
 10
228.374504586101
 20
117.3300117985986
 30
0.0
  0
SPLINE
  5
25C
330
1F
100
AcDbEntity
  8
0
  6
Continuous
 62
     7
370
    18
100
AcDbSpline
210
0.0
220
0.0
230
1.0
 70
     8
 71
     3
 72
    13
 73
     9
 74
     0
 42
0.000000001
 43
0.00000001
 40
0.0
 40
0.0
 40
0.0
 40
0.0
 40
0.2506736071386392
 40
0.5012152607337991
 40
0.6264526015104105
 40
0.751449749880543
 40
0.8760271183236286
 40
1.0
 40
1.0
 40
1.0
 40
1.0
 10
229.0416003484116
 20
117.3300117985986
 30
0.0
 10
229.0405618454995
 20
117.4131579523524
 30
0.0
 10
229.0384853863389
 20
117.5794064920707
 30
0.0
 10
229.0165711419278
 20
117.7862976198745
 30
0.0
 10
228.9761786866912
 20
117.9486731956048
 30
0.0
 10
228.916411055941
 20
118.0580139428643
 30
0.0
 10
228.8258909705882
 20
118.1517521945657
 30
0.0
 10
228.7422609526732
 20
118.1642958732153
 30
0.0
 10
228.7005476399303
 20
118.1705524591099
 30
0.0
  0
SPLINE
  5
25D
330
1F
100
AcDbEntity
  8
0
  6
Continuous
 62
     7
370
    18
100
AcDbSpline
210
0.0
220
0.0
230
1.0
 70
     8
 71
     3
 72
    13
 73
     9
 74
     0
 42
0.000000001
 43
0.00000001
 40
0.0
 40
0.0
 40
0.0
 40
0.0
 40
0.1237345749994032
 40
0.2484232101745675
 40
0.373471334332858
 40
0.4987444967637452
 40
0.7493102257733212
 40
1.0
 40
1.0
 40
1.0
 40
1.0
 10
227.4055479913448
 20
116.4894711380872
 30
0.0
 10
227.4466323875344
 20
116.49683437984
 30
0.0
 10
227.5291179627228
 20
116.511617637903
 30
0.0
 10
227.6133125324252
 20
116.6093304319738
 30
0.0
 10
227.670382254981
 20
116.71807251459
 30
0.0
 10
227.7095524523968
 20
116.8788656216858
 30
0.0
 10
227.7308197753205
 20
117.0834226055456
 30
0.0
 10
227.7330015146577
 20
117.2478018413238
 30
0.0
 10
227.7340926542828
 20
117.3300117985986
 30
0.0
  0
SPLINE
  5
25E
330
1F
100
AcDbEntity
  8
0
  6
Continuous
 62
     7
370
    18
100
AcDbSpline
210
0.0
220
0.0
230
1.0
 70
     8
 71
     3
 72
    13
 73
     9
 74
     0
 42
0.000000001
 43
0.00000001
 40
0.0
 40
0.0
 40
0.0
 40
0.0
 40
0.2506668541570162
 40
0.5012048357437129
 40
0.6264537829510441
 40
0.7514291871594845
 40
0.8760522367173402
 40
1.0
 40
1.0
 40
1.0
 40
1.0
 10
227.0669968919722
 20
117.3300117985986
 30
0.0
 10
227.0680451987888
 20
117.2470665628036
 30
0.0
 10
227.0701412734676
 20
117.0812187349279
 30
0.0
 10
227.0919603725064
 20
116.8748447325501
 30
0.0
 10
227.1320628527769
 20
116.7127903491142
 30
0.0
 10
227.1914341943938
 20
116.6036848459951
 30
0.0
 10
227.2805355537415
 20
116.5089945205363
 30
0.0
 10
227.3639527179367
 20
116.4959671351767
 30
0.0
 10
227.4055479913448
 20
116.4894711380872
 30
0.0
  0
SPLINE
  5
25F
330
1F
100
AcDbEntity
  8
0
  6
Continuous
 62
     7
370
    18
100
AcDbSpline
210
0.0
220
0.0
230
1.0
 70
     8
 71
     3
 72
    13
 73
     9
 74
     0
 42
0.000000001
 43
0.00000001
 40
0.0
 40
0.0
 40
0.0
 40
0.0
 40
0.1236770548154474
 40
0.2483884878623297
 40
0.3734455614730955
 40
0.4987169325063979
 40
0.7492948497723046
 40
1.0
 40
1.0
 40
1.0
 40
1.0
 10
227.3930399458015
 20
118.1705524591099
 30
0.0
 10
227.3520513811472
 20
118.1630592598502
 30
0.0
 10
227.2697314422602
 20
118.1480101916446
 30
0.0
 10
227.1866177228386
 20
118.0496528513144
 30
0.0
 10
227.1298846737654
 20
117.9410190299784
 30
0.0
 10
227.0918688797728
 20
117.7802370008142
 30
0.0
 10
227.0701241310305
 20
117.5761880908778
 30
0.0
 10
227.0680394813631
 20
117.4120844466586
 30
0.0
 10
227.0669968919722
 20
117.3300117985986
 30
0.0
  0
SPLINE
  5
260
330
1F
100
AcDbEntity
  8
0
  6
Continuous
 62
     7
370
    18
100
AcDbSpline
210
0.0
220
0.0
230
1.0
 70
     8
 71
     3
 72
    13
 73
     9
 74
     0
 42
0.000000001
 43
0.00000001
 40
0.0
 40
0.0
 40
0.0
 40
0.0
 40
0.2506736071386391
 40
0.5012152607337991
 40
0.6264526015104105
 40
0.751449749880543
 40
0.8760271183236286
 40
1.0
 40
1.0
 40
1.0
 40
1.0
 10
227.7340926542828
 20
117.3300117985986
 30
0.0
 10
227.7330541513707
 20
117.4131579523524
 30
0.0
 10
227.7309776922102
 20
117.5794064920707
 30
0.0
 10
227.7090634477989
 20
117.7862976198745
 30
0.0
 10
227.6686709925624
 20
117.9486731956048
 30
0.0
 10
227.6089033618122
 20
118.0580139428643
 30
0.0
 10
227.5183832764594
 20
118.1517521945657
 30
0.0
 10
227.4347532585444
 20
118.1642958732153
 30
0.0
 10
227.3930399458015
 20
118.1705524591099
 30
0.0
  0
SPLINE
  5
261
330
1F
100
AcDbEntity
  8
0
  6
Continuous
 62
     7
370
    18
100
AcDbSpline
210
0.0
220
0.0
230
1.0
 70
     8
 71
     3
 72
    12
 73
     8
 74
     0
 42
0.000000001
 43
0.00000001
 40
0.0
 40
0.0
 40
0.0
 40
0.0
 40
0.1864266110451063
 40
0.3728066183672697
 40
0.559638408919649
 40
0.7795953861027533
 40
1.0
 40
1.0
 40
1.0
 40
1.0
 10
224.0129491051439
 20
116.4894711380872
 30
0.0
 10
224.049743348543
 20
116.4930268056758
 30
0.0
 10
224.1233226373586
 20
116.500137251992
 30
0.0
 10
224.2181171353861
 20
116.5620341034252
 30
0.0
 10
224.2932842283732
 20
116.6519952853858
 30
0.0
 10
224.3385588805561
 20
116.7692562535271
 30
0.0
 10
224.3430155712424
 20
116.8556569166224
 30
0.0
 10
224.3452461817449
 20
116.8989011622053
 30
0.0
  0
SPLINE
  5
262
330
1F
100
AcDbEntity
  8
0
  6
Continuous
 62
     7
370
    18
100
AcDbSpline
210
0.0
220
0.0
230
1.0
 70
     8
 71
     3
 72
    11
 73
     7
 74
     0
 42
0.000000001
 43
0.00000001
 40
0.0
 40
0.0
 40
0.0
 40
0.0
 40
0.2807261943832946
 40
0.5603972916125667
 40
0.7804346209650652
 40
1.0
 40
1.0
 40
1.0
 40
1.0
 10
223.6781504194343
 20
116.9072398592342
 30
0.0
 10
223.6817251593517
 20
116.8512072470139
 30
0.0
 10
223.6888612036826
 20
116.7393526187016
 30
0.0
 10
223.7673720076372
 20
116.6009771929829
 30
0.0
 10
223.8811073087842
 20
116.5061751552782
 30
0.0
 10
223.9690333049972
 20
116.495035157244
 30
0.0
 10
224.0129491051439
 20
116.4894711380872
 30
0.0
  0
SPLINE
  5
263
330
1F
100
AcDbEntity
  8
0
  6
Continuous
 62
     7
370
    18
100
AcDbSpline
210
0.0
220
0.0
230
1.0
 70
     8
 71
     3
 72
    11
 73
     7
 74
     0
 42
0.000000001
 43
0.00000001
 40
0.0
 40
0.0
 40
0.0
 40
0.0
 40
0.2782055765816052
 40
0.5579799253701347
 40
0.7788219222535298
 40
1.0
 40
1.0
 40
1.0
 40
1.0
 10
224.0075289520751
 20
117.3166698833524
 30
0.0
 10
223.9528446766739
 20
117.307480130889
 30
0.0
 10
223.8431677669503
 20
117.2890488059075
 30
0.0
 10
223.7379232504762
 20
117.167577157909
 30
0.0
 10
223.6848459604325
 20
117.0365764714494
 30
0.0
 10
223.6803833974397
 20
116.9503739107534
 30
0.0
 10
223.6781504194343
 20
116.9072398592342
 30
0.0
  0
SPLINE
  5
264
330
1F
100
AcDbEntity
  8
0
  6
Continuous
 62
     7
370
    18
100
AcDbSpline
210
0.0
220
0.0
230
1.0
 70
     8
 71
     3
 72
    11
 73
     7
 74
     0
 42
0.000000001
 43
0.00000001
 40
0.0
 40
0.0
 40
0.0
 40
0.0
 40
0.2807535301687787
 40
0.5603207228591537
 40
0.78038223453792
 40
1.0
 40
1.0
 40
1.0
 40
1.0
 10
224.3452461817449
 20
116.8989011622053
 30
0.0
 10
224.3415619780475
 20
116.9551401129567
 30
0.0
 10
224.3342091384316
 20
117.0673803740813
 30
0.0
 10
224.2540840144372
 20
117.2054196560809
 30
0.0
 10
224.1398496826859
 20
117.3001664704561
 30
0.0
 10
224.0516061756985
 20
117.3111724483139
 30
0.0
 10
224.0075289520751
 20
117.3166698833524
 30
0.0
  0
SPLINE
  5
265
330
1F
100
AcDbEntity
  8
0
  6
Continuous
 62
     7
370
    18
100
AcDbSpline
210
0.0
220
0.0
230
1.0
 70
     8
 71
     3
 72
    11
 73
     7
 74
     0
 42
0.000000001
 43
0.00000001
 40
0.0
 40
0.0
 40
0.0
 40
0.0
 40
0.2783889696083923
 40
0.5580817055296904
 40
0.7789018539988231
 40
1.0
 40
1.0
 40
1.0
 40
1.0
 10
224.0129491051439
 20
117.5301405272918
 30
0.0
 10
224.0549361515594
 20
117.5373059877306
 30
0.0
 10
224.139106880402
 20
117.5516704662809
 30
0.0
 10
224.2192102761518
 20
117.6453643114822
 30
0.0
 10
224.2602257379268
 20
117.7456836423736
 30
0.0
 10
224.2635376783399
 20
117.8118315703207
 30
0.0
 10
224.2651946902676
 20
117.8449263401321
 30
0.0
  0
SPLINE
  5
266
330
1F
100
AcDbEntity
  8
0
  6
Continuous
 62
     7
370
    18
100
AcDbSpline
210
0.0
220
0.0
230
1.0
 70
     8
 71
     3
 72
    11
 73
     7
 74
     0
 42
0.000000001
 43
0.00000001
 40
0.0
 40
0.0
 40
0.0
 40
0.0
 40
0.2806987831964633
 40
0.560408690232525
 40
0.7804393617933042
 40
1.0
 40
1.0
 40
1.0
 40
1.0
 10
223.7582019109116
 20
117.8586851902297
 30
0.0
 10
223.7606295943427
 20
117.8151280429873
 30
0.0
 10
223.7654764086981
 20
117.7281671963514
 30
0.0
 10
223.8227464084954
 20
117.6186683004626
 30
0.0
 10
223.9101668418416
 20
117.5428711341596
 30
0.0
 10
223.9787127816432
 20
117.5343810369
 30
0.0
 10
224.0129491051439
 20
117.5301405272918
 30
0.0
  0
SPLINE
  5
267
330
1F
100
AcDbEntity
  8
0
  6
Continuous
 62
     7
370
    18
100
AcDbSpline
210
0.0
220
0.0
230
1.0
 70
     8
 71
     3
 72
    11
 73
     7
 74
     0
 42
0.000000001
 43
0.00000001
 40
0.0
 40
0.0
 40
0.0
 40
0.0
 40
0.2781848052830317
 40
0.5582334878196243
 40
0.7790790531104465
 40
1.0
 40
1.0
 40
1.0
 40
1.0
 10
224.0104474960353
 20
118.1705524591099
 30
0.0
 10
223.9688905616107
 20
118.1632470773871
 30
0.0
 10
223.8854982554662
 20
118.1485873668582
 30
0.0
 10
223.8060669411857
 20
118.0559585090846
 30
0.0
 10
223.7639288862737
 20
117.9570520025897
 30
0.0
 10
223.7601111198493
 20
117.8914778574692
 30
0.0
 10
223.7582019109116
 20
117.8586851902297
 30
0.0
  0
SPLINE
  5
268
330
1F
100
AcDbEntity
  8
0
  6
Continuous
 62
     7
370
    18
100
AcDbSpline
210
0.0
220
0.0
230
1.0
 70
     8
 71
     3
 72
    11
 73
     7
 74
     0
 42
0.000000001
 43
0.00000001
 40
0.0
 40
0.0
 40
0.0
 40
0.0
 40
0.2805990159984111
 40
0.5604527759419529
 40
0.78051332661335
 40
1.0
 40
1.0
 40
1.0
 40
1.0
 10
224.2651946902676
 20
117.8449263401321
 30
0.0
 10
224.2625107677696
 20
117.8880656266984
 30
0.0
 10
224.2571500511289
 20
117.9742296241815
 30
0.0
 10
224.1966375324539
 20
118.0801182841327
 30
0.0
 10
224.1119002711593
 20
118.1562720818931
 30
0.0
 10
224.0442356398685
 20
118.1657964784203
 30
0.0
 10
224.0104474960353
 20
118.1705524591099
 30
0.0
  0
SPLINE
  5
269
330
1F
100
AcDbEntity
  8
0
  6
Continuous
 62
     7
370
    18
100
AcDbSpline
210
0.0
220
0.0
230
1.0
 70
     8
 71
     3
 72
    13
 73
     9
 74
     0
 42
0.000000001
 43
0.00000001
 40
0.0
 40
0.0
 40
0.0
 40
0.0
 40
0.1237345749994064
 40
0.248423210174568
 40
0.3734713343328591
 40
0.4987444967637462
 40
0.7493102257733215
 40
1.0
 40
1.0
 40
1.0
 40
1.0
 10
222.7091938246781
 20
116.4894711380872
 30
0.0
 10
222.7502782208678
 20
116.49683437984
 30
0.0
 10
222.8327637960561
 20
116.511617637903
 30
0.0
 10
222.9169583657585
 20
116.6093304319738
 30
0.0
 10
222.9740280883144
 20
116.7180725145899
 30
0.0
 10
223.0131982857301
 20
116.8788656216859
 30
0.0
 10
223.0344656086538
 20
117.0834226055456
 30
0.0
 10
223.036647347991
 20
117.2478018413238
 30
0.0
 10
223.0377384876161
 20
117.3300117985986
 30
0.0
  0
SPLINE
  5
26A
330
1F
100
AcDbEntity
  8
0
  6
Continuous
 62
     7
370
    18
100
AcDbSpline
210
0.0
220
0.0
230
1.0
 70
     8
 71
     3
 72
    13
 73
     9
 74
     0
 42
0.000000001
 43
0.00000001
 40
0.0
 40
0.0
 40
0.0
 40
0.0
 40
0.2506668541570159
 40
0.5012048357437127
 40
0.6264537829510438
 40
0.7514291871594841
 40
0.8760522367173383
 40
1.0
 40
1.0
 40
1.0
 40
1.0
 10
222.3706427253055
 20
117.3300117985986
 30
0.0
 10
222.3716910321221
 20
117.2470665628036
 30
0.0
 10
222.3737871068009
 20
117.0812187349279
 30
0.0
 10
222.3956062058397
 20
116.8748447325501
 30
0.0
 10
222.4357086861102
 20
116.7127903491142
 30
0.0
 10
222.4950800277271
 20
116.603684845995
 30
0.0
 10
222.5841813870748
 20
116.5089945205363
 30
0.0
 10
222.66759855127
 20
116.4959671351767
 30
0.0
 10
222.7091938246781
 20
116.4894711380872
 30
0.0
  0
SPLINE
  5
26B
330
1F
100
AcDbEntity
  8
0
  6
Continuous
 62
     7
370
    18
100
AcDbSpline
210
0.0
220
0.0
230
1.0
 70
     8
 71
     3
 72
    13
 73
     9
 74
     0
 42
0.000000001
 43
0.00000001
 40
0.0
 40
0.0
 40
0.0
 40
0.0
 40
0.1236770548154443
 40
0.2483884878623269
 40
0.373445561473093
 40
0.4987169325063965
 40
0.7492948497723041
 40
1.0
 40
1.0
 40
1.0
 40
1.0
 10
222.6966857791348
 20
118.1705524591099
 30
0.0
 10
222.6556972144805
 20
118.1630592598502
 30
0.0
 10
222.5733772755935
 20
118.1480101916446
 30
0.0
 10
222.4902635561719
 20
118.0496528513144
 30
0.0
 10
222.4335305070987
 20
117.9410190299784
 30
0.0
 10
222.3955147131061
 20
117.7802370008142
 30
0.0
 10
222.3737699643638
 20
117.5761880908778
 30
0.0
 10
222.3716853146964
 20
117.4120844466586
 30
0.0
 10
222.3706427253055
 20
117.3300117985986
 30
0.0
  0
SPLINE
  5
26C
330
1F
100
AcDbEntity
  8
0
  6
Continuous
 62
     7
370
    18
100
AcDbSpline
210
0.0
220
0.0
230
1.0
 70
     8
 71
     3
 72
    13
 73
     9
 74
     0
 42
0.000000001
 43
0.00000001
 40
0.0
 40
0.0
 40
0.0
 40
0.0
 40
0.2506736071386391
 40
0.5012152607337987
 40
0.6264526015104109
 40
0.7514497498805427
 40
0.8760271183236269
 40
1.0
 40
1.0
 40
1.0
 40
1.0
 10
223.0377384876161
 20
117.3300117985986
 30
0.0
 10
223.0366999847041
 20
117.4131579523524
 30
0.0
 10
223.0346235255435
 20
117.5794064920707
 30
0.0
 10
223.0127092811323
 20
117.7862976198745
 30
0.0
 10
222.9723168258957
 20
117.9486731956048
 30
0.0
 10
222.9125491951455
 20
118.0580139428643
 30
0.0
 10
222.8220291097928
 20
118.1517521945657
 30
0.0
 10
222.7383990918778
 20
118.1642958732153
 30
0.0
 10
222.6966857791348
 20
118.1705524591099
 30
0.0
  0
CIRCLE
  5
26D
330
1F
100
AcDbEntity
  8
0
  6
Continuous
 62
     7
370
    18
100
AcDbCircle
 10
225.8929083503
 20
119.6915307972
 30
0.0
 40
25.40000000000003
  0
OLE2FRAME
  5
26E
330
1F
100
AcDbEntity
  8
0
100
AcDbOle2Frame
 70
     2
  3
Paintbrush Picture
 10
229.0524258301
 20
33.6996297921
 30
0.0
 11
265.1686469208
 21
28.555479607
 31
0.0
 71
     2
 72
     0
 73
     1
 90
     7296
310
80557333EF78ADA16C40002412788DD94040000000000000000041161DC7B292
310
7040002412788DD94040000000000000000041161DC7B2927040F6DD59E9338E
310
3C4000000000000000007333EF78ADA16C40F6DD59E9338E3C40000000000000
310
00000000000001000000000100000100000001000000000001000000001C0000
310
D0CF11E0A1B11AE1000000000000000000000000000000003E000300FEFF0900
310
0600000000000000000000000100000001000000000000000010000002000000
310
01000000FEFFFFFF0000000000000000FFFFFFFFFFFFFFFFFFFFFFFFFFFFFFFF
310
FFFFFFFFFFFFFFFFFFFFFFFFFFFFFFFFFFFFFFFFFFFFFFFFFFFFFFFFFFFFFFFF
310
FFFFFFFFFFFFFFFFFFFFFFFFFFFFFFFFFFFFFFFFFFFFFFFFFFFFFFFFFFFFFFFF
310
FFFFFFFFFFFFFFFFFFFFFFFFFFFFFFFFFFFFFFFFFFFFFFFFFFFFFFFFFFFFFFFF
310
FFFFFFFFFFFFFFFFFFFFFFFFFFFFFFFFFFFFFFFFFFFFFFFFFFFFFFFFFFFFFFFF
310
FFFFFFFFFFFFFFFFFFFFFFFFFFFFFFFFFFFFFFFFFFFFFFFFFFFFFFFFFFFFFFFF
310
FFFFFFFFFFFFFFFFFFFFFFFFFFFFFFFFFFFFFFFFFFFFFFFFFFFFFFFFFFFFFFFF
310
FFFFFFFFFFFFFFFFFFFFFFFFFFFFFFFFFFFFFFFFFFFFFFFFFFFFFFFFFFFFFFFF
310
FFFFFFFFFFFFFFFFFFFFFFFFFFFFFFFFFFFFFFFFFFFFFFFFFFFFFFFFFFFFFFFF
310
FFFFFFFFFFFFFFFFFFFFFFFFFFFFFFFFFFFFFFFFFFFFFFFFFFFFFFFFFFFFFFFF
310
FFFFFFFFFFFFFFFFFFFFFFFFFFFFFFFFFFFFFFFFFFFFFFFFFFFFFFFFFFFFFFFF
310
FFFFFFFFFFFFFFFFFFFFFFFFFFFFFFFFFFFFFFFFFFFFFFFFFFFFFFFFFFFFFFFF
310
FFFFFFFFFFFFFFFFFFFFFFFFFFFFFFFFFFFFFFFFFFFFFFFFFFFFFFFFFFFFFFFF
310
FFFFFFFFFFFFFFFFFFFFFFFFFFFFFFFFFFFFFFFFFFFFFFFFFFFFFFFFFFFFFFFF
310
FDFFFFFFFEFFFFFFFEFFFFFFFEFFFFFF05000000060000000700000008000000
310
090000000A0000000B0000000C000000FEFFFFFFFFFFFFFFFFFFFFFFFFFFFFFF
310
FFFFFFFFFFFFFFFFFFFFFFFFFFFFFFFFFFFFFFFFFFFFFFFFFFFFFFFFFFFFFFFF
310
FFFFFFFFFFFFFFFFFFFFFFFFFFFFFFFFFFFFFFFFFFFFFFFFFFFFFFFFFFFFFFFF
310
FFFFFFFFFFFFFFFFFFFFFFFFFFFFFFFFFFFFFFFFFFFFFFFFFFFFFFFFFFFFFFFF
310
FFFFFFFFFFFFFFFFFFFFFFFFFFFFFFFFFFFFFFFFFFFFFFFFFFFFFFFFFFFFFFFF
310
FFFFFFFFFFFFFFFFFFFFFFFFFFFFFFFFFFFFFFFFFFFFFFFFFFFFFFFFFFFFFFFF
310
FFFFFFFFFFFFFFFFFFFFFFFFFFFFFFFFFFFFFFFFFFFFFFFFFFFFFFFFFFFFFFFF
310
FFFFFFFFFFFFFFFFFFFFFFFFFFFFFFFFFFFFFFFFFFFFFFFFFFFFFFFFFFFFFFFF
310
FFFFFFFFFFFFFFFFFFFFFFFFFFFFFFFFFFFFFFFFFFFFFFFFFFFFFFFFFFFFFFFF
310
FFFFFFFFFFFFFFFFFFFFFFFFFFFFFFFFFFFFFFFFFFFFFFFFFFFFFFFFFFFFFFFF
310
FFFFFFFFFFFFFFFFFFFFFFFFFFFFFFFFFFFFFFFFFFFFFFFFFFFFFFFFFFFFFFFF
310
FFFFFFFFFFFFFFFFFFFFFFFFFFFFFFFFFFFFFFFFFFFFFFFFFFFFFFFFFFFFFFFF
310
FFFFFFFFFFFFFFFFFFFFFFFFFFFFFFFFFFFFFFFFFFFFFFFFFFFFFFFFFFFFFFFF
310
FFFFFFFFFFFFFFFFFFFFFFFFFFFFFFFFFFFFFFFFFFFFFFFFFFFFFFFFFFFFFFFF
310
FFFFFFFFFFFFFFFFFFFFFFFFFFFFFFFFFFFFFFFFFFFFFFFFFFFFFFFFFFFFFFFF
310
52006F006F007400200045006E00740072007900000000000000000000000000
310
0000000000000000000000000000000000000000000000000000000000000000
310
16000500FFFFFFFFFFFFFFFF020000000A00030000000000C000000000000046
310
000000000000000000000000C0DC167B4696D40103000000C000000000000000
310
01004F006C006500000000000000000000000000000000000000000000000000
310
0000000000000000000000000000000000000000000000000000000000000000
310
0A000200FFFFFFFFFFFFFFFFFFFFFFFF00000000000000000000000000000000
310
0000000000000000000000000000000000000000000000001400000000000000
310
010043006F006D0070004F0062006A0000000000000000000000000000000000
310
0000000000000000000000000000000000000000000000000000000000000000
310
120002010100000003000000FFFFFFFF00000000000000000000000000000000
310
0000000000000000000000000000000000000000010000004D00000000000000
310
01004F006C006500310030004E00610074006900760065000000000000000000
310
0000000000000000000000000000000000000000000000000000000000000000
310
1A000200FFFFFFFFFFFFFFFFFFFFFFFF00000000000000000000000000000000
310
000000000000000000000000000000000000000004000000E411000000000000
310
FEFFFFFF02000000FEFFFFFFFFFFFFFFFFFFFFFFFFFFFFFFFFFFFFFFFFFFFFFF
310
FFFFFFFFFFFFFFFFFFFFFFFFFFFFFFFFFFFFFFFFFFFFFFFFFFFFFFFFFFFFFFFF
310
FFFFFFFFFFFFFFFFFFFFFFFFFFFFFFFFFFFFFFFFFFFFFFFFFFFFFFFFFFFFFFFF
310
FFFFFFFFFFFFFFFFFFFFFFFFFFFFFFFFFFFFFFFFFFFFFFFFFFFFFFFFFFFFFFFF
310
FFFFFFFFFFFFFFFFFFFFFFFFFFFFFFFFFFFFFFFFFFFFFFFFFFFFFFFFFFFFFFFF
310
FFFFFFFFFFFFFFFFFFFFFFFFFFFFFFFFFFFFFFFFFFFFFFFFFFFFFFFFFFFFFFFF
310
FFFFFFFFFFFFFFFFFFFFFFFFFFFFFFFFFFFFFFFFFFFFFFFFFFFFFFFFFFFFFFFF
310
FFFFFFFFFFFFFFFFFFFFFFFFFFFFFFFFFFFFFFFFFFFFFFFFFFFFFFFFFFFFFFFF
310
FFFFFFFFFFFFFFFFFFFFFFFFFFFFFFFFFFFFFFFFFFFFFFFFFFFFFFFFFFFFFFFF
310
FFFFFFFFFFFFFFFFFFFFFFFFFFFFFFFFFFFFFFFFFFFFFFFFFFFFFFFFFFFFFFFF
310
FFFFFFFFFFFFFFFFFFFFFFFFFFFFFFFFFFFFFFFFFFFFFFFFFFFFFFFFFFFFFFFF
310
FFFFFFFFFFFFFFFFFFFFFFFFFFFFFFFFFFFFFFFFFFFFFFFFFFFFFFFFFFFFFFFF
310
FFFFFFFFFFFFFFFFFFFFFFFFFFFFFFFFFFFFFFFFFFFFFFFFFFFFFFFFFFFFFFFF
310
FFFFFFFFFFFFFFFFFFFFFFFFFFFFFFFFFFFFFFFFFFFFFFFFFFFFFFFFFFFFFFFF
310
FFFFFFFFFFFFFFFFFFFFFFFFFFFFFFFFFFFFFFFFFFFFFFFFFFFFFFFFFFFFFFFF
310
FFFFFFFFFFFFFFFFFFFFFFFFFFFFFFFFFFFFFFFFFFFFFFFFFFFFFFFFFFFFFFFF
310
0100000200000000000000000000000000000000000000000000000000000000
310
0000000000000000000000000000000000000000000000000000000000000000
310
0100FEFF030A0000FFFFFFFF0A00030000000000C00000000000004607000000
310
5042727573680007000000504272757368000700000050427275736800F439B2
310
7100000000000000000000000000000000000000000000000000000000000000
310
0000000000000000000000000000000000000000000000000000000000000000
310
0000000000000000000000000000000000000000000000000000000000000000
310
0000000000000000000000000000000000000000000000000000000000000000
310
0000000000000000000000000000000000000000000000000000000000000000
310
0000000000000000000000000000000000000000000000000000000000000000
310
0000000000000000000000000000000000000000000000000000000000000000
310
0000000000000000000000000000000000000000000000000000000000000000
310
0000000000000000000000000000000000000000000000000000000000000000
310
0000000000000000000000000000000000000000000000000000000000000000
310
0000000000000000000000000000000000000000000000000000000000000000
310
0000000000000000000000000000000000000000000000000000000000000000
310
E0110000424DDE11000000000000360400002800000096000000170000000100
310
08000000000000000000E7240000E72400000001000000010000000000FF0101
310
01FF020202FF030303FF040404FF050505FF060606FF070707FF080808FF0909
310
09FF0A0A0AFF0B0B0BFF0C0C0CFF0D0D0DFF0E0E0EFF0F0F0FFF101010FF1111
310
11FF121212FF131313FF141414FF151515FF161616FF171717FF181818FF1919
310
19FF1A1A1AFF1B1B1BFF1C1C1CFF1D1D1DFF1E1E1EFF1F1F1FFF202020FF2121
310
21FF222222FF232323FF242424FF252525FF262626FF272727FF282828FF2929
310
29FF2A2A2AFF2B2B2BFF2C2C2CFF2D2D2DFF2E2E2EFF2F2F2FFF303030FF3131
310
31FF323232FF333333FF343434FF353535FF363636FF373737FF383838FF3939
310
39FF3A3A3AFF3B3B3BFF3C3C3CFF3D3D3DFF3E3E3EFF3F3F3FFF404040FF4141
310
41FF424242FF434343FF444444FF454545FF464646FF474747FF484848FF4949
310
49FF4A4A4AFF4B4B4BFF4C4C4CFF4D4D4DFF4E4E4EFF4F4F4FFF505050FF5151
310
51FF525252FF535353FF545454FF555555FF565656FF575757FF585858FF5959
310
59FF5A5A5AFF5B5B5BFF5C5C5CFF5D5D5DFF5E5E5EFF5F5F5FFF606060FF6161
310
61FF626262FF636363FF646464FF656565FF666666FF676767FF686868FF6969
310
69FF6A6A6AFF6B6B6BFF6C6C6CFF6D6D6DFF6E6E6EFF6F6F6FFF707070FF7171
310
71FF727272FF737373FF747474FF757575FF767676FF777777FF787878FF7979
310
79FF7A7A7AFF7B7B7BFF7C7C7CFF7D7D7DFF7E7E7EFF7F7F7FFF808080FF8181
310
81FF828282FF838383FF848484FF858585FF868686FF878787FF888888FF8989
310
89FF8A8A8AFF8B8B8BFF8C8C8CFF8D8D8DFF8E8E8EFF8F8F8FFF909090FF9191
310
91FF929292FF939393FF949494FF959595FF969696FF979797FF989898FF9999
310
99FF9A9A9AFF9B9B9BFF9C9C9CFF9D9D9DFF9E9E9EFF9F9F9FFFA0A0A0FFA1A1
310
A1FFA2A2A2FFA3A3A3FFA4A4A4FFA5A5A5FFA6A6A6FFA7A7A7FFA8A8A8FFA9A9
310
A9FFAAAAAAFFABABABFFACACACFFADADADFFAEAEAEFFAFAFAFFFB0B0B0FFB1B1
310
B1FFB2B2B2FFB3B3B3FFB4B4B4FFB5B5B5FFB6B6B6FFB7B7B7FFB8B8B8FFB9B9
310
B9FFBABABAFFBBBBBBFFBCBCBCFFBDBDBDFFBEBEBEFFBFBFBFFFC0C0C0FFC1C1
310
C1FFC2C2C2FFC3C3C3FFC4C4C4FFC5C5C5FFC6C6C6FFC7C7C7FFC8C8C8FFC9C9
310
C9FFCACACAFFCBCBCBFFCCCCCCFFCDCDCDFFCECECEFFCFCFCFFFD0D0D0FFD1D1
310
D1FFD2D2D2FFD3D3D3FFD4D4D4FFD5D5D5FFD6D6D6FFD7D7D7FFD8D8D8FFD9D9
310
D9FFDADADAFFDBDBDBFFDCDCDCFFDDDDDDFFDEDEDEFFDFDFDFFFE0E0E0FFE1E1
310
E1FFE2E2E2FFE3E3E3FFE4E4E4FFE5E5E5FFE6E6E6FFE7E7E7FFE8E8E8FFE9E9
310
E9FFEAEAEAFFEBEBEBFFECECECFFEDEDEDFFEEEEEEFFEFEFEFFFF0F0F0FFF1F1
310
F1FFF2F2F2FFF3F3F3FFF4F4F4FFF5F5F5FFF6F6F6FFF7F7F7FFF8F8F8FFF9F9
310
F9FFFAFAFAFFFBFBFBFFFCFCFCFFFDFDFDFFFEFEFEFFFFFFFFFFFFFFFFFFFFFF
310
C94E4E4E4F4E4EFFFFFFFFFFC94E4E4E4E4E72FFFFFFFFFFFFFF734E4D4E4E4E
310
C9FFFFFFFFFFAA683516171616265B9BE9FFFFFFFFFF4E4E4E4D4E4EFFFFFFFF
310
FFFFFFFF4E4E4F4E4D4E4E4E4F4E4E4F4D4E4E4E4E4E4D4E4F4E4D4E4E4EAAFF
310
FFFFFFFFFFEA4E4F4F4E4E4E4E4E4D4D4F4F4E4E4E4E4E5B7FAAFFFFFFFFFFFF
310
C9744E1716171616164D8DEAFFFFFFFF0000FFFFFFFFFFFFBA161617161716FF
310
FFFFFFFFB917171616174FFFFFFFFFFFFFFF4E1716161616B9FFFFFFB9341717
310
1716171617171616268CFFFFFFFF161617161617FFFFFFFFFFFFFFB917161717
310
1617167F807F7F7F7F7F7F807F7F807F7F807F7F7F414EFFFFFFFFFFFF8C167F
310
7F807F7F7F7E7F7F807F807F7F807F4E3417258EFFFFEA4E162674AABAEAEBBA
310
AA74341680FFFFFF0000FFFFFFFFFFFFB9171717171617FFFFFFFFFFBB161616
310
16164EFFFFFFFFFFFFFF4E1717171717B9FFFF9C171617171716161616171616
310
171766FFFFFF161717161617FFFFFFFFFFFFFF8E16171717161616FFFFFFFFFF
310
FFFFFFFFFFFFFFFFFFFFFFFFFFAA16D9FFFFFFFFFF3467FFFFFFFFEAFFFFFFFF
310
FFFFFFFFFFFFFFFFFFCA671667EB26278DFFFFFFFFFFFFFFFFFFFF8C2541EAFF
310
0000FFFFFFFFFFFFB9171717171716FFFFFFFFFFBA16171617174EFFFFFFFFFF
310
FFFF4E1717161616BAFF9B1617161616171716171617161616161667FFFF1616
310
16161716FFFFFFFFFFFFFF7F16161617174017FFFFFFFFFFFFFFFFFFFFFFFFFF
310
FFFFFFFFFFFF344E7F7F7F7E7417DAFFFFFFFF80FFFFFFFFFFFFFFFFFFFFFFFF
310
FFFFFF9B163425CAFFFFFFFFFFFFFFFFFFFFFFFFCA2667FF0000FFFFFFFFFFFF
310
BA171717171617FFFFFFFFFFB916171716164EFFFFFFFFFFFFFF4F1716161717
310
B9C91716171616161716161617171616161617168DFF161716161717FFFFFFFF
310
FFFFFF7F17171716164F16FFFFFFFFFFFFFFFFFFFFFFFFFFFFFFFFFFFFFF9B16
310
17161617174EFFFFFFFFFF34FFFFFFFFD9BABABABABADAFFFFFFFFFF7F16AAFF
310
FFFFFFFFFFFFFFFFFFFFFFFFFF9C16BA0000FFFFFFFFFFFFB9161717161717FF
310
FFFFFFFFB917161716174DFFFFFFFFFFFFFF4E1616161616BA4E161617171716
310
419BEAEAAA4E16161617161726E9171717161616FFFFFFFFFFFFFF4F16161717
310
164E16FFFFFFFFFFBAB9B9B9B9B9BABABACAFFFFFFFFFFFFFFFFFFFFFFFFFFFF
310
FFFFBA16FFFFFFFF7F1617161617174DEAFFFFFFEA41FFFFFFFFFFAA4D16174E
310
9BFFFFFFFFFF34730000FFFFFFFFFFFFB9161617171617FFFFFFFFFFBA161616
310
16164EFFFFFFFFFFFFFF4F16161717169B1617161716175BFFFFFFFFFFFF7417
310
16171616168D171717161617FFFFFFFFFFFFEA2616171717167416FFFFFFFFFF
310
16171616171717171717EAFFFFFFFFFFFFFFFFFFFFFFFFFFFFFF6716FFFFFFFF
310
7F4EFFFFFFFFBA2573FFFFFFFFBAFFFFFFFFAA167FB9BB9B269BFFFFFFFF664F
310
0000FFFFFFFFFFFFB9171616161616FFFFFFFFFFBA16161717164EFFFFFFFFFF
310
FFFF4E16161616174E161617171626EAFFFFFFFFFFFFFF4E16161616164E1716
310
16161617FFFFFFFFFFFF671616161716347F16FFFFFFFFFF16B9FFFFFFFFFFFF
310
D9168DFFFFFFFFFFFFFFFFFFFFFFFFFFFFEA1716FFFFFFFF7F4EFFFFFFFFFF7F
310
4EFFFFFFFFFFFFFFFFFF5B66FFFFFFEA347FFFFFFFFF7F4D0000FFFFFFFFFFFF
310
B9171616171617FFFFFFFFFFBA17161716174EFFFFFFFFFFFFFF4D1716161617
310
17161716161673FFFFFFFFFFFFFFFF9B1617161717161616171616174F4E4E4E
310
4E341616171616167E7F16FFFFFFFFFF16BAFFFFFFFFFFFFFF5B41FFFFFFFF34
310
1616171616BAFFFFFF9B1716FFFFFFFF7F4EFFFFFFFFFF4E4EFFFFFFFF734E4E
310
4E4E267EDA9B67164EEAFFFFFFFF744D0000FFFFFFFFFFFFBA171717161617FF
310
FFFFFFFFBA1616171616347F7F7F7F80807F331616161717161717161716B9FF
310
FFFFFFFFFFFFFFE9161616161616171716161716171616161616171616171734
310
EA7F16FFFFFFFFFF16BAFFFFFFFFFFFFFFAA17C9FFFFFF7326BABA5B25FFFFFF
310
FF401716FFFFFFFF7F264F4E4E4E4217AAFFFFFFEA16677F73261616164173CA
310
FFFFFFFFFFFF417F0000FFFFFFFFFFFFBA171616171617FFFFFFFFFFBA161616
310
17171616161616161616161717161616161616161617EAFFFFFFFFFFFFFFFFFF
310
261717161716161617161616161617161617161616174EEAFF8016FFFFFFFFFF
310
17BAFFFFFFFFFFFFFFFF3467FFFFFFC916C9FF3467FFFFFFDA166716FFFFFFFF
310
9C4D4E4E4E4E67AAFFFFFFFF6834FF7F262567AAEAFFFFFFFFFFFFFFFF9B17D9
310
0000FFFFFFFFFFFFB9161616161616FFFFFFFFFFBA1617161717171616161616
310
1716171716161716161617171716FFFFFFFFFFFFFFFFFFFF4E17161716171616
310
1617171616161716171717161616169BFF7F17FFFFFFFFFF17B9FFFFFFFFFFFF
310
FFFF7326FFFFFFFF3473DA16AAFFFFFF7317AA16FFFFFFFFFFFFFFFFFFFFFFFF
310
FFFFEA6725BA4E167FEAFFFFFFFFFFFFFFFFFFFF9C167FFF0000FFFFFFFFFFFF
310
B9161717171716FFFFFFFFFFBA16161716171616171717161617161716161616
310
171617171617EAFFFFFFFFFFFFFFFFFF26161717161616161616161617171616
310
1616161616171616AA8016FFFFFFFFFF16BAFFFFFFFFFFFFFFFFDA179BFFFFFF
310
74348D26FFFFFFFF2566B917FFFFFFFFD8BAB9BAB9BADAFFFFEA41169B7425C9
310
FFFFFFFFFFFFFFFFFFFFAB4F1680FFFF0000FFFFFFFFFFFFBA161717171617FF
310
FFFFFFFFBA17161717161617171617161616161617171616171716171617BBFF
310
FFFFFFFFFFFFFFE9171616161617161617161716FFFFFFFFFFD9671616161617
310
348017FFFFFFFFFF16BAFFFFFFFFFFFFFFFFFF4E5AFFFFFFC916265AFFFFFFAA
310
16AABA16FFFFFFFF7F1617161616179BFFFFEB4127168DFFFFFFFFFFFFFFD99B
310
6734175AC9FFFFFF0000FFFFFFFFFFFFB9161617171617FFFFFFFFFFBB161616
310
1616347F807F7F7F7F8033171716171617171616161672FFFFFFFFFFFFFFFF9C
310
171617171617161716161617FFFFFFFFFFFFFF4117161616174E17FFFFFFFFFF
310
16BAFFFFFFFFFFFFFFFFFF9B16DAFFFFFF34169BFFFFFF5A26FFB917FFFFFFFF
310
7F4EFFFFFFEA5B26FFFFFFEA2616EAFFFFFFFFDA743416331617414E4E4E4ECA
310
0000FFFFFFFFFFFFBA161716161616FFFFFFFFFFBA17171616164EFFFFFFFFFF
310
FFFF4E16161717174E161717171626EBFFFFFFFFFFFFFF4E16161617165B1616
310
16171617FFFFFFFFFFFFFF6716161616161617FFFFFFFFFF16BAFFFFFFFFFFFF
310
FFFFFFEA268CFFFFFF7316EAFFFFEB1774FFB916FFFFFFFF7F4EFFFFFFFF7316
310
FFFFFFFF6826FFFFFFFFEB264D9CEABA257F807F7F6616BA0000FFFFFFFFFFFF
310
BA161716161616FFFFFFFFFFBA16171616164DFFFFFFFFFFFFFF4E1617161617
310
9B1617171717165BEBFFFFFFFFFF671616161617179B171616161616FFFFFFFF
310
FFFFFF3417161617171617FFFFFFFFFF17BAFFFFFFFFFFFFFFFFFFFF6734FFFF
310
FFEBCAFFFFFF8D17C9FFBA17FFFFFFFF7F357F808066174FFFFFFFFF7F16FFFF
310
FFFFD91673B99B415BFFFFFFFFBA16DA00009B7F7F7F807F671617161616167F
310
80807F7E6617161616164EFFFFFFFFFFFFFF4E1616161617B94E171716161616
310
349BC9D9AA4E16171616161634FF161617161717B9B9BAB9BA9B411716171716
310
163416FFFFFFFFFF16B9FFFFFFFFFFFFFFFFFFFFC917CAFFFFFFFFFFFFFF3342
310
FFFFBA17FFFFFFFF9B4E4E4F4E4E66EAFFFFFFFF5B16C9FFFFFFFFAA4E164E73
310
EAFFFFFFFF8D26FF00004E161716161616171617171616171717171617161616
310
17174EFFFFFFFFFFFFFF4E1717171616B9D92616171716171716171717171716
310
16171716AAFF161717171617161617171616161617161716166717FFFFFFFFFF
310
17B9FFFFFFFFFFFFFFFFFFFFFF3467FFFFFFFFFFFFCA168CFFFFBB17FFFFFFFF
310
FFFFFFFFFFFFFFFFFFFFFFEA26265BFFFFFFFFFFFFFFFFFFFFFFFFFFEA3467FF
310
00004D16161616161617161717161617161616171617171616164EFFFFFFFFFF
310
FFFF4D1617161616BAFF9B1616161616161716161616171717161766FFFF1616
310
16171617161617161716171616171717667F16FFFFFFFFFF17BAFFFFFFFFFFFF
310
FFFFFFFFFF8C26EAFFFFFFFFFF6617EAFFFFBA17FFFFFFFFFFFFFFFFFFFFFFFF
310
FFFFEA5A25BA269BFFFFFFFFFFFFFFFFFFFFFFFF6616DAFF00004E1616171616
310
1616161616161716161617171616171616174EFFFFFFFFFFFFFF4D1717171716
310
B9FFFF9C161616161616161716161717171667FFFFFF17161717171716161617
310
1716161616161641E97E16FFFFFFFFFF16B9FFFFFFFFFFFFFFFFFFFFFFEA169B
310
FFFFFFFFEA265BFFFFFFB916FFFFFFFFFFFFFFFFFFFFFFFFFF9B3416AAFF9B17
310
67EAFFFFFFFFFFFFFFFFEA5B169BFFFF00004D17161716161616161717171616
310
161717161716171716174EFFFFFFFFFFFFFF4D1616161616BAFFFFFFBB411616
310
161716161616171634ABFFFFFFFF161716161617171716171617171617267FFF
310
FF7F164E4E4E4E4F17BAFFFFFFFFFFFFFFFFFFFFFFFF66344D4E4E4F4117AAFF
310
FFFFBA174E4E4E4D4E4D4D4E4E4E4E4116174EBBFFFFFFCA342666ABEAFFFFEA
310
AA6725269CFFFFFF0000724F4E4D4D4D4E4D4D4E4E4E4D4E4E4E4E4E4E4E4E4D
310
4E4E74FFFFFFFFFFFFFF734E4E4E4D4ECAFFFFFFFFFFAA663416171717265B9B
310
FFFFFFFFFFFF7F8080807F80807F7F7F7F7F807FBAFFFFFFFF9B4E4E4F4D4D4E
310
4DC9FFFFFFFFFFFFFFFFFFFFFFFFBA4E4E4E4E4D4E4EFFFFFFFFC94E4E4E4F4E
310
4E4E4D4E4E5A807F9CD9FFFFFFFFFFFFFF9B5B2617171716174E8DEAFFFFFFFF
310
0000000000000000000000000000000000000000000000000000000000000000
  1
OLE
  0
ENDSEC
  0
SECTION
  2
OBJECTS
  0
DICTIONARY
  5
C
330
0
100
AcDbDictionary
281
     1
  3
ACAD_GROUP
350
D
  3
ACAD_LAYOUT
350
1A
  3
ACAD_MLINESTYLE
350
17
  3
ACAD_PLOTSETTINGS
350
19
  3
ACAD_PLOTSTYLENAME
350
E
  3
ACAD_SCALELIST
350
47
  0
DICTIONARY
  5
D
102
{ACAD_REACTORS
330
C
102
}
330
C
100
AcDbDictionary
281
     1
  0
DICTIONARY
  5
1A
102
{ACAD_REACTORS
330
C
102
}
330
C
100
AcDbDictionary
281
     1
  3
Layout1
350
1E
  3
Layout2
350
26
  3
Model
350
22
  0
DICTIONARY
  5
17
102
{ACAD_REACTORS
330
C
102
}
330
C
100
AcDbDictionary
281
     1
  3
Standard
350
18
  0
DICTIONARY
  5
19
102
{ACAD_REACTORS
330
C
102
}
330
C
100
AcDbDictionary
281
     1
  0
ACDBDICTIONARYWDFLT
  5
E
102
{ACAD_REACTORS
330
C
102
}
330
C
100
AcDbDictionary
281
     1
  3
Normal
350
F
100
AcDbDictionaryWithDefault
340
F
  0
DICTIONARY
  5
47
102
{ACAD_REACTORS
330
C
102
}
330
C
100
AcDbDictionary
281
     1
  3
A0
350
48
  3
A1
350
49
  3
A2
350
4A
  3
A3
350
4B
  3
A4
350
4C
  3
A5
350
4D
  3
A6
350
4E
  3
A7
350
4F
  3
A8
350
50
  3
A9
350
51
  3
B0
350
52
  3
B1
350
53
  3
B2
350
54
  3
B3
350
55
  3
B4
350
56
  3
B5
350
57
  3
B6
350
58
  3
B7
350
59
  3
B8
350
5A
  3
B9
350
5B
  3
C0
350
5C
  3
C1
350
5D
  3
C2
350
5E
  3
C3
350
5F
  3
C4
350
60
  3
C5
350
61
  3
C6
350
62
  3
C7
350
63
  3
C8
350
64
  3
C9
350
65
  3
D0
350
66
  3
D1
350
67
  3
D2
350
68
  0
LAYOUT
  5
1E
102
{ACAD_REACTORS
330
1A
102
}
330
1A
100
AcDbPlotSettings
  1

  2
none_device
  4

  6

 40
0.0
 41
0.0
 42
0.0
 43
0.0
 44
0.0
 45
0.0
 46
0.0
 47
0.0
 48
0.0
 49
0.0
140
0.0
141
0.0
142
1.0
143
1.0
 70
   688
 72
     1
 73
     0
 74
     5
  7

 75
    16
147
1.0
148
0.0
149
0.0
100
AcDbLayout
  1
Layout1
 70
     1
 71
     1
 10
0.0
 20
0.0
 11
420.0
 21
297.0
 12
0.0
 22
0.0
 32
0.0
 14
1.0000000000E+20
 24
1.0000000000E+20
 34
1.0000000000E+20
 15
-1.0000000000E+20
 25
-1.0000000000E+20
 35
-1.0000000000E+20
146
0.0
 13
0.0
 23
0.0
 33
0.0
 16
1.0
 26
0.0
 36
0.0
 17
0.0
 27
1.0
 37
0.0
 76
     0
330
1B
  0
LAYOUT
  5
26
102
{ACAD_REACTORS
330
1A
102
}
330
1A
100
AcDbPlotSettings
  1

  2
none_device
  4

  6

 40
0.0
 41
0.0
 42
0.0
 43
0.0
 44
0.0
 45
0.0
 46
0.0
 47
0.0
 48
0.0
 49
0.0
140
0.0
141
0.0
142
1.0
143
1.0
 70
   688
 72
     1
 73
     0
 74
     5
  7

 75
    16
147
1.0
148
0.0
149
0.0
100
AcDbLayout
  1
Layout2
 70
     1
 71
     2
 10
0.0
 20
0.0
 11
0.0
 21
0.0
 12
0.0
 22
0.0
 32
0.0
 14
0.0
 24
0.0
 34
0.0
 15
0.0
 25
0.0
 35
0.0
146
0.0
 13
0.0
 23
0.0
 33
0.0
 16
1.0
 26
0.0
 36
0.0
 17
0.0
 27
1.0
 37
0.0
 76
     0
330
23
  0
LAYOUT
  5
22
102
{ACAD_REACTORS
330
1A
102
}
330
1A
100
AcDbPlotSettings
  1

  2
none_device
  4
Letter_(8.50_x_11.00_Inches)
  6

 40
6.35
 41
6.35
 42
6.35000508
 43
6.35000508
 44
215.9
 45
279.4
 46
0.0
 47
0.0
 48
0.0
 49
0.0
140
0.0
141
0.0
142
1.0
143
1.0
 70
  1712
 72
     1
 73
     0
 74
     0
  7

 75
     0
147
1.0
148
0.0
149
0.0
100
AcDbLayout
  1
Model
 70
     1
 71
     0
 10
0.0
 20
0.0
 11
279.4
 21
215.9
 12
0.0
 22
0.0
 32
0.0
 14
0.0
 24
0.0
 34
0.0
 15
279.4
 25
215.9
 35
0.0
146
0.0
 13
0.0
 23
0.0
 33
0.0
 16
1.0
 26
0.0
 36
0.0
 17
0.0
 27
1.0
 37
0.0
 76
     0
330
1F
331
29
  0
MLINESTYLE
  5
18
102
{ACAD_REACTORS
330
17
102
}
330
17
100
AcDbMlineStyle
  2
Standard
 70
     0
  3

 62
   256
 51
90.0
 52
90.0
 71
     2
 49
0.5
 62
   256
  6
BYLAYER
 49
-0.5
 62
   256
  6
BYLAYER
  0
ACDBPLACEHOLDER
  5
F
102
{ACAD_REACTORS
330
E
102
}
330
E
  0
SCALE
  5
48
102
{ACAD_REACTORS
330
47
102
}
330
47
100
AcDbScale
 70
     0
300
1:1
140
1.0
141
1.0
290
     1
  0
SCALE
  5
49
102
{ACAD_REACTORS
330
47
102
}
330
47
100
AcDbScale
 70
     0
300
1:2
140
1.0
141
2.0
290
     0
  0
SCALE
  5
4A
102
{ACAD_REACTORS
330
47
102
}
330
47
100
AcDbScale
 70
     0
300
1:4
140
1.0
141
4.0
290
     0
  0
SCALE
  5
4B
102
{ACAD_REACTORS
330
47
102
}
330
47
100
AcDbScale
 70
     0
300
1:5
140
1.0
141
5.0
290
     0
  0
SCALE
  5
4C
102
{ACAD_REACTORS
330
47
102
}
330
47
100
AcDbScale
 70
     0
300
1:8
140
1.0
141
8.0
290
     0
  0
SCALE
  5
4D
102
{ACAD_REACTORS
330
47
102
}
330
47
100
AcDbScale
 70
     0
300
1:10
140
1.0
141
10.0
290
     0
  0
SCALE
  5
4E
102
{ACAD_REACTORS
330
47
102
}
330
47
100
AcDbScale
 70
     0
300
1:16
140
1.0
141
16.0
290
     0
  0
SCALE
  5
4F
102
{ACAD_REACTORS
330
47
102
}
330
47
100
AcDbScale
 70
     0
300
1:20
140
1.0
141
20.0
290
     0
  0
SCALE
  5
50
102
{ACAD_REACTORS
330
47
102
}
330
47
100
AcDbScale
 70
     0
300
1:30
140
1.0
141
30.0
290
     0
  0
SCALE
  5
51
102
{ACAD_REACTORS
330
47
102
}
330
47
100
AcDbScale
 70
     0
300
1:40
140
1.0
141
40.0
290
     0
  0
SCALE
  5
52
102
{ACAD_REACTORS
330
47
102
}
330
47
100
AcDbScale
 70
     0
300
1:50
140
1.0
141
50.0
290
     0
  0
SCALE
  5
53
102
{ACAD_REACTORS
330
47
102
}
330
47
100
AcDbScale
 70
     0
300
1:100
140
1.0
141
100.0
290
     0
  0
SCALE
  5
54
102
{ACAD_REACTORS
330
47
102
}
330
47
100
AcDbScale
 70
     0
300
2:1
140
2.0
141
1.0
290
     0
  0
SCALE
  5
55
102
{ACAD_REACTORS
330
47
102
}
330
47
100
AcDbScale
 70
     0
300
4:1
140
4.0
141
1.0
290
     0
  0
SCALE
  5
56
102
{ACAD_REACTORS
330
47
102
}
330
47
100
AcDbScale
 70
     0
300
8:1
140
8.0
141
1.0
290
     0
  0
SCALE
  5
57
102
{ACAD_REACTORS
330
47
102
}
330
47
100
AcDbScale
 70
     0
300
10:1
140
10.0
141
1.0
290
     0
  0
SCALE
  5
58
102
{ACAD_REACTORS
330
47
102
}
330
47
100
AcDbScale
 70
     0
300
100:1
140
100.0
141
1.0
290
     0
  0
SCALE
  5
59
102
{ACAD_REACTORS
330
47
102
}
330
47
100
AcDbScale
 70
     0
300
1/128" = 1'-0"
140
0.0078125
141
12.0
290
     0
  0
SCALE
  5
5A
102
{ACAD_REACTORS
330
47
102
}
330
47
100
AcDbScale
 70
     0
300
1/64" = 1'-0"
140
0.015625
141
12.0
290
     0
  0
SCALE
  5
5B
102
{ACAD_REACTORS
330
47
102
}
330
47
100
AcDbScale
 70
     0
300
1/32" = 1'-0"
140
0.03125
141
12.0
290
     0
  0
SCALE
  5
5C
102
{ACAD_REACTORS
330
47
102
}
330
47
100
AcDbScale
 70
     0
300
1/16" = 1'-0"
140
0.0625
141
12.0
290
     0
  0
SCALE
  5
5D
102
{ACAD_REACTORS
330
47
102
}
330
47
100
AcDbScale
 70
     0
300
3/32" = 1'-0"
140
0.09375
141
12.0
290
     0
  0
SCALE
  5
5E
102
{ACAD_REACTORS
330
47
102
}
330
47
100
AcDbScale
 70
     0
300
1/8" = 1'-0"
140
0.125
141
12.0
290
     0
  0
SCALE
  5
5F
102
{ACAD_REACTORS
330
47
102
}
330
47
100
AcDbScale
 70
     0
300
3/16" = 1'-0"
140
0.1875
141
12.0
290
     0
  0
SCALE
  5
60
102
{ACAD_REACTORS
330
47
102
}
330
47
100
AcDbScale
 70
     0
300
1/4" = 1'-0"
140
0.25
141
12.0
290
     0
  0
SCALE
  5
61
102
{ACAD_REACTORS
330
47
102
}
330
47
100
AcDbScale
 70
     0
300
3/8" = 1'-0"
140
0.375
141
12.0
290
     0
  0
SCALE
  5
62
102
{ACAD_REACTORS
330
47
102
}
330
47
100
AcDbScale
 70
     0
300
1/2" = 1'-0"
140
0.5
141
12.0
290
     0
  0
SCALE
  5
63
102
{ACAD_REACTORS
330
47
102
}
330
47
100
AcDbScale
 70
     0
300
3/4" = 1'-0"
140
0.75
141
12.0
290
     0
  0
SCALE
  5
64
102
{ACAD_REACTORS
330
47
102
}
330
47
100
AcDbScale
 70
     0
300
1" = 1'-0"
140
1.0
141
12.0
290
     0
  0
SCALE
  5
65
102
{ACAD_REACTORS
330
47
102
}
330
47
100
AcDbScale
 70
     0
300
1-1/2" = 1'-0"
140
1.5
141
12.0
290
     0
  0
SCALE
  5
66
102
{ACAD_REACTORS
330
47
102
}
330
47
100
AcDbScale
 70
     0
300
3" = 1'-0"
140
3.0
141
12.0
290
     0
  0
SCALE
  5
67
102
{ACAD_REACTORS
330
47
102
}
330
47
100
AcDbScale
 70
     0
300
6" = 1'-0"
140
6.0
141
12.0
290
     0
  0
SCALE
  5
68
102
{ACAD_REACTORS
330
47
102
}
330
47
100
AcDbScale
 70
     0
300
1'-0" = 1'-0"
140
12.0
141
12.0
290
     0
  0
ENDSEC
  0
EOF
