  0
SECTION
  2
HEADER
  9
$ACADVER
  1
AC1015
  9
$ACADMAINTVER
 70
     6
  9
$DWGCODEPAGE
  3
ANSI_1252
  9
$INSBASE
 10
0.0
 20
0.0
 30
0.0
  9
$EXTMIN
 10
0.0
 20
0.0
 30
0.0
  9
$EXTMAX
 10
279.4
 20
215.9
 30
0.0
  9
$LIMMIN
 10
0.0
 20
0.0
  9
$LIMMAX
 10
279.4
 20
215.9
  9
$ORTHOMODE
 70
     0
  9
$REGENMODE
 70
     1
  9
$FILLMODE
 70
     1
  9
$QTEXTMODE
 70
     0
  9
$MIRRTEXT
 70
     1
  9
$LTSCALE
 40
1.0
  9
$ATTMODE
 70
     1
  9
$TEXTSIZE
 40
2.8222222222
  9
$TRACEWID
 40
1.0
  9
$TEXTSTYLE
  7
Standard
  9
$CLAYER
  8
0
  9
$CELTYPE
  6
ByLayer
  9
$CECOLOR
 62
   256
  9
$CELTSCALE
 40
1.0
  9
$DISPSILH
 70
     0
  9
$DIMSCALE
 40
1.0
  9
$DIMASZ
 40
3.175
  9
$DIMEXO
 40
1.27
  9
$DIMDLI
 40
3.75
  9
$DIMRND
 40
0.0
  9
$DIMDLE
 40
0.0
  9
$DIMEXE
 40
1.778
  9
$DIMTP
 40
0.0
  9
$DIMTM
 40
0.0
  9
$DIMTXT
 40
2.8222222222
  9
$DIMCEN
 40
2.5
  9
$DIMTSZ
 40
0.0
  9
$DIMTOL
 70
     0
  9
$DIMLIM
 70
     0
  9
$DIMTIH
 70
     1
  9
$DIMTOH
 70
     1
  9
$DIMSE1
 70
     0
  9
$DIMSE2
 70
     0
  9
$DIMTAD
 70
     0
  9
$DIMZIN
 70
     1
  9
$DIMBLK
  1

  9
$DIMASO
 70
     1
  9
$DIMSHO
 70
     1
  9
$DIMPOST
  1

  9
$DIMAPOST
  1

  9
$DIMALT
 70
     0
  9
$DIMALTD
 70
     3
  9
$DIMALTF
 40
0.0393700787
  9
$DIMLFAC
 40
1.0
  9
$DIMTOFL
 70
     1
  9
$DIMTVP
 40
0.0
  9
$DIMTIX
 70
     0
  9
$DIMSOXD
 70
     0
  9
$DIMSAH
 70
     0
  9
$DIMBLK1
  1

  9
$DIMBLK2
  1

  9
$DIMSTYLE
  2
ISO-25
  9
$DIMCLRD
 70
     0
  9
$DIMCLRE
 70
     0
  9
$DIMCLRT
 70
     0
  9
$DIMTFAC
 40
1.0
  9
$DIMGAP
 40
2.54
  9
$DIMJUST
 70
     0
  9
$DIMSD1
 70
     0
  9
$DIMSD2
 70
     0
  9
$DIMTOLJ
 70
     0
  9
$DIMTZIN
 70
     1
  9
$DIMALTZ
 70
     0
  9
$DIMALTTZ
 70
     0
  9
$DIMUPT
 70
     0
  9
$DIMDEC
 70
     1
  9
$DIMTDEC
 70
     1
  9
$DIMALTU
 70
     2
  9
$DIMALTTD
 70
     3
  9
$DIMTXSTY
  7
Standard
  9
$DIMAUNIT
 70
     0
  9
$DIMADEC
 70
     0
  9
$DIMALTRND
 40
0.0
  9
$DIMAZIN
 70
     0
  9
$DIMDSEP
 70
    44
  9
$DIMATFIT
 70
     3
  9
$DIMFRAC
 70
     0
  9
$DIMLDRBLK
  1

  9
$DIMLUNIT
 70
     2
  9
$DIMLWD
 70
    -2
  9
$DIMLWE
 70
    -2
  9
$DIMTMOVE
 70
     0
  9
$LUNITS
 70
     2
  9
$LUPREC
 70
     1
  9
$SKETCHINC
 40
1.0
  9
$FILLETRAD
 40
10.0
  9
$AUNITS
 70
     0
  9
$AUPREC
 70
     0
  9
$MENU
  1
.
  9
$ELEVATION
 40
0.0
  9
$PELEVATION
 40
0.0
  9
$THICKNESS
 40
0.0
  9
$LIMCHECK
 70
     0
  9
$CHAMFERA
 40
0.0
  9
$CHAMFERB
 40
0.0
  9
$CHAMFERC
 40
0.0
  9
$CHAMFERD
 40
0.0
  9
$SKPOLY
 70
     0
  9
$TDCREATE
 40
2457581.677756678
  9
$TDUCREATE
 40
2457581.344423345
  9
$TDUPDATE
 40
2457581.677770035
  9
$TDUUPDATE
 40
2457581.344436701
  9
$TDINDWG
 40
0.0000000116
  9
$TDUSRTIMER
 40
0.0000000116
  9
$USRTIMER
 70
     1
  9
$ANGBASE
 50
0.0
  9
$ANGDIR
 70
     0
  9
$PDMODE
 70
     0
  9
$PDSIZE
 40
-1.0
  9
$PLINEWID
 40
0.0
  9
$SPLFRAME
 70
     0
  9
$SPLINETYPE
 70
     6
  9
$SPLINESEGS
 70
     8
  9
$HANDSEED
  5
389
  9
$SURFTAB1
 70
     6
  9
$SURFTAB2
 70
     6
  9
$SURFTYPE
 70
     6
  9
$SURFU
 70
     6
  9
$SURFV
 70
     6
  9
$UCSBASE
  2

  9
$UCSNAME
  2

  9
$UCSORG
 10
0.0
 20
0.0
 30
0.0
  9
$UCSXDIR
 10
1.0
 20
0.0
 30
0.0
  9
$UCSYDIR
 10
0.0
 20
1.0
 30
0.0
  9
$UCSORTHOREF
  2

  9
$UCSORTHOVIEW
 70
     0
  9
$UCSORGTOP
 10
0.0
 20
0.0
 30
0.0
  9
$UCSORGBOTTOM
 10
0.0
 20
0.0
 30
0.0
  9
$UCSORGLEFT
 10
0.0
 20
0.0
 30
0.0
  9
$UCSORGRIGHT
 10
0.0
 20
0.0
 30
0.0
  9
$UCSORGFRONT
 10
0.0
 20
0.0
 30
0.0
  9
$UCSORGBACK
 10
0.0
 20
0.0
 30
0.0
  9
$PUCSBASE
  2

  9
$PUCSNAME
  2

  9
$PUCSORG
 10
0.0
 20
0.0
 30
0.0
  9
$PUCSXDIR
 10
1.0
 20
0.0
 30
0.0
  9
$PUCSYDIR
 10
0.0
 20
1.0
 30
0.0
  9
$PUCSORTHOREF
  2

  9
$PUCSORTHOVIEW
 70
     0
  9
$PUCSORGTOP
 10
0.0
 20
0.0
 30
0.0
  9
$PUCSORGBOTTOM
 10
0.0
 20
0.0
 30
0.0
  9
$PUCSORGLEFT
 10
0.0
 20
0.0
 30
0.0
  9
$PUCSORGRIGHT
 10
0.0
 20
0.0
 30
0.0
  9
$PUCSORGFRONT
 10
0.0
 20
0.0
 30
0.0
  9
$PUCSORGBACK
 10
0.0
 20
0.0
 30
0.0
  9
$USERI1
 70
     0
  9
$USERI2
 70
     0
  9
$USERI3
 70
     0
  9
$USERI4
 70
     0
  9
$USERI5
 70
     0
  9
$USERR1
 40
0.0
  9
$USERR2
 40
0.0
  9
$USERR3
 40
0.0
  9
$USERR4
 40
0.0
  9
$USERR5
 40
0.0
  9
$WORLDVIEW
 70
     1
  9
$SHADEDGE
 70
     3
  9
$SHADEDIF
 70
    70
  9
$TILEMODE
 70
     1
  9
$MAXACTVP
 70
    64
  9
$PINSBASE
 10
0.0
 20
0.0
 30
0.0
  9
$PLIMCHECK
 70
     0
  9
$PEXTMIN
 10
1.0000000000E+20
 20
1.0000000000E+20
 30
1.0000000000E+20
  9
$PEXTMAX
 10
-1.0000000000E+20
 20
-1.0000000000E+20
 30
-1.0000000000E+20
  9
$PLIMMIN
 10
0.0
 20
0.0
  9
$PLIMMAX
 10
420.0
 20
297.0
  9
$UNITMODE
 70
     0
  9
$VISRETAIN
 70
     1
  9
$PLINEGEN
 70
     0
  9
$PSLTSCALE
 70
     1
  9
$TREEDEPTH
 70
  3020
  9
$CMLSTYLE
  2
Standard
  9
$CMLJUST
 70
     0
  9
$CMLSCALE
 40
20.0
  9
$PROXYGRAPHICS
 70
     1
  9
$MEASUREMENT
 70
     1
  9
$CELWEIGHT
370
    -1
  9
$ENDCAPS
280
     0
  9
$JOINSTYLE
280
     0
  9
$LWDISPLAY
290
     1
  9
$INSUNITS
 70
     4
  9
$HYPERLINKBASE
  1

  9
$STYLESHEET
  1

  9
$XEDIT
290
     1
  9
$CEPSNTYPE
380
     0
  9
$PSTYLEMODE
290
     1
  9
$FINGERPRINTGUID
  2
{B8FD835D-2848-45A8-8327-F17E8C038997}
  9
$VERSIONGUID
  2
{FAEB1C32-E019-11D5-929B-00C0DF256EC4}
  9
$EXTNAMES
290
     1
  9
$PSVPSCALE
 40
0.0
  9
$OLESTARTUP
290
     0
  0
ENDSEC
  0
SECTION
  2
CLASSES
  0
CLASS
  1
ACDBDICTIONARYWDFLT
  2
AcDbDictionaryWithDefault
  3
ObjectDBX Classes
 90
        0
280
     0
281
     0
  0
CLASS
  1
VISUALSTYLE
  2
AcDbVisualStyle
  3
ObjectDBX Classes
 90
     4095
280
     0
281
     0
  0
CLASS
  1
MATERIAL
  2
AcDbMaterial
  3
ObjectDBX Classes
 90
     1153
280
     0
281
     0
  0
CLASS
  1
SCALE
  2
AcDbScale
  3
ObjectDBX Classes
 90
     1153
280
     0
281
     0
  0
CLASS
  1
TABLESTYLE
  2
AcDbTableStyle
  3
ObjectDBX Classes
 90
     4095
280
     0
281
     0
  0
CLASS
  1
MLEADERSTYLE
  2
AcDbMLeaderStyle
  3
ACDB_MLEADERSTYLE_CLASS
 90
     4095
280
     0
281
     0
  0
CLASS
  1
SUN
  2
AcDbSun
  3
SCENEOE
 90
     1153
280
     0
281
     0
  0
CLASS
  1
ACDBPLACEHOLDER
  2
AcDbPlaceHolder
  3
ObjectDBX Classes
 90
        0
280
     0
281
     0
  0
CLASS
  1
LAYOUT
  2
AcDbLayout
  3
ObjectDBX Classes
 90
        0
280
     0
281
     0
  0
ENDSEC
  0
SECTION
  2
TABLES
  0
TABLE
  2
VPORT
  5
8
330
0
100
AcDbSymbolTable
 70
     1
  0
VPORT
  5
29
330
8
100
AcDbSymbolTableRecord
100
AcDbViewportTableRecord
  2
*Active
 70
     0
 10
0.0
 20
0.0
 11
1.0
 21
1.0
 12
139.7
 22
107.95
 13
0.0
 23
0.0
 14
10.0
 24
10.0
 15
10.0
 25
10.0
 16
0.0
 26
0.0
 36
1.0
 17
0.0
 27
0.0
 37
0.0
 40
215.9
 41
1.2941176471
 42
50.0
 43
0.0
 44
0.0
 50
0.0
 51
0.0
 71
     0
 72
  2000
 73
     1
 74
     3
 75
     0
 76
     0
 77
     0
 78
     0
281
     0
 65
     1
110
0.0
120
0.0
130
0.0
111
1.0
121
0.0
131
0.0
112
0.0
122
1.0
132
0.0
 79
     0
146
0.0
  0
ENDTAB
  0
TABLE
  2
LTYPE
  5
5
330
0
100
AcDbSymbolTable
 70
     6
  0
LTYPE
  5
14
330
5
100
AcDbSymbolTableRecord
100
AcDbLinetypeTableRecord
  2
ByBlock
 70
     0
  3

 72
    65
 73
     0
 40
0.0
  0
LTYPE
  5
15
330
5
100
AcDbSymbolTableRecord
100
AcDbLinetypeTableRecord
  2
ByLayer
 70
     0
  3

 72
    65
 73
     0
 40
0.0
  0
LTYPE
  5
16
330
5
100
AcDbSymbolTableRecord
100
AcDbLinetypeTableRecord
  2
Continuous
 70
     0
  3
Solid line
 72
    65
 73
     0
 40
0.0
  0
LTYPE
  5
6E
330
5
100
AcDbSymbolTableRecord
100
AcDbLinetypeTableRecord
  2
HIDDEN
 70
     0
  3
Hidden __ __ __ __ __ __ __ __ __ __ __ __ __ __
 72
    65
 73
     2
 40
1.905
 49
1.27
 74
     0
 49
-0.635
 74
     0
  0
LTYPE
  5
6F
330
5
100
AcDbSymbolTableRecord
100
AcDbLinetypeTableRecord
  2
PHANTOM
 70
     0
  3
Phantom ______  __  __  ______  __  __  ______
 72
    65
 73
     6
 40
12.7
 49
6.35
 74
     0
 49
-1.27
 74
     0
 49
1.27
 74
     0
 49
-1.27
 74
     0
 49
1.27
 74
     0
 49
-1.27
 74
     0
  0
LTYPE
  5
70
330
5
100
AcDbSymbolTableRecord
100
AcDbLinetypeTableRecord
  2
CENTER
 70
     0
  3
Center ____ _ ____ _ ____ _ ____ _ ____ _ ____
 72
    65
 73
     4
 40
10.16
 49
6.35
 74
     0
 49
-1.27
 74
     0
 49
1.27
 74
     0
 49
-1.27
 74
     0
  0
LTYPE
  5
71
330
5
100
AcDbSymbolTableRecord
100
AcDbLinetypeTableRecord
  2
CENTERX2
 70
     0
  3
Center (2x) ________  __  ________  __  _____
 72
    65
 73
     4
 40
20.32
 49
12.7
 74
     0
 49
-2.54
 74
     0
 49
2.54
 74
     0
 49
-2.54
 74
     0
  0
LTYPE
  5
72
330
5
100
AcDbSymbolTableRecord
100
AcDbLinetypeTableRecord
  2
DOT2
 70
     0
  3
Dot (.5x) ........................................
 72
    65
 73
     2
 40
0.635
 49
0.0
 74
     0
 49
-0.635
 74
     0
  0
ENDTAB
  0
TABLE
  2
LAYER
  5
2
330
0
100
AcDbSymbolTable
 70
     2
  0
LAYER
  5
10
330
2
100
AcDbSymbolTableRecord
100
AcDbLayerTableRecord
  2
0
 70
     0
 62
     7
  6
Continuous
370
    -3
390
F
  0
LAYER
  5
73
330
2
100
AcDbSymbolTableRecord
100
AcDbLayerTableRecord
  2
FORMAT
 70
     0
 62
     7
  6
Continuous
370
    -3
390
F
  0
ENDTAB
  0
TABLE
  2
STYLE
  5
3
330
0
100
AcDbSymbolTable
 70
     4
  0
STYLE
  5
11
330
3
100
AcDbSymbolTableRecord
100
AcDbTextStyleTableRecord
  2
Standard
 70
     0
 40
0.0
 41
1.0
 50
0.0
 71
     0
 42
2.8222222222
  3
txt
  4

  0
STYLE
  5
9A
330
3
100
AcDbSymbolTableRecord
100
AcDbTextStyleTableRecord
  2
SLDTEXTSTYLE0
 70
     0
 40
0.0
 41
0.75
 50
0.0
 71
     0
 42
2.8222222222
  3
TXT
  4

  0
STYLE
  5
A6
330
3
100
AcDbSymbolTableRecord
100
AcDbTextStyleTableRecord
  2
SLDTEXTSTYLE1
 70
     0
 40
0.0
 41
0.6
 50
0.0
 71
     0
 42
2.8222222222
  3
TXT
  4

  0
STYLE
  5
AB
330
3
100
AcDbSymbolTableRecord
100
AcDbTextStyleTableRecord
  2
SLDTEXTSTYLE2
 70
     0
 40
0.0
 41
0.7
 50
0.0
 71
     0
 42
2.8222222222
  3
TXT
  4

  0
ENDTAB
  0
TABLE
  2
VIEW
  5
6
330
0
100
AcDbSymbolTable
 70
     0
  0
ENDTAB
  0
TABLE
  2
UCS
  5
7
330
0
100
AcDbSymbolTable
 70
     0
  0
ENDTAB
  0
TABLE
  2
APPID
  5
9
330
0
100
AcDbSymbolTable
 70
     1
  0
APPID
  5
12
330
9
100
AcDbSymbolTableRecord
100
AcDbRegAppTableRecord
  2
ACAD
 70
     0
  0
ENDTAB
  0
TABLE
  2
DIMSTYLE
  5
A
330
0
100
AcDbSymbolTable
 70
     3
100
AcDbDimStyleTable
  0
DIMSTYLE
105
27
330
A
100
AcDbSymbolTableRecord
100
AcDbDimStyleTableRecord
  2
ISO-25
 70
     0
 41
2.5
 42
0.625
 43
3.75
 44
1.25
 73
     0
 74
     0
 77
     1
 78
     8
140
2.5
141
2.5
143
0.0393700787
147
0.625
171
     3
172
     1
178
     0
271
     2
272
     2
274
     3
278
    44
283
     0
284
     8
340
11
  0
DIMSTYLE
105
152
330
A
100
AcDbSymbolTableRecord
100
AcDbDimStyleTableRecord
  2
SLDDIMSTYLE0
 70
     0
 41
3.175
 44
0.0
 45
0.000000001
146
3.175
147
0.0
173
     1
178
     0
271
     0
272
     0
276
     2
340
11
  0
DIMSTYLE
105
18B
102
{ACAD_REACTORS
330
18A
330
1C9
330
2A1
330
2B4
330
2C8
102
}
330
A
100
AcDbSymbolTableRecord
100
AcDbDimStyleTableRecord
  2
SLDDIMSTYLE1
 70
     0
 41
3.175
 44
0.0
 45
0.000000001
 78
     4
 79
     1
140
2.1166666667
143
0.0393700787
147
0.5291666667
148
0.000000001
170
     1
172
     1
173
     1
178
     0
271
     1
272
     1
276
     2
284
    12
289
     0
340
9A
  0
ENDTAB
  0
TABLE
  2
BLOCK_RECORD
  5
1
330
0
100
AcDbSymbolTable
 70
    10
  0
BLOCK_RECORD
  5
1F
330
1
100
AcDbSymbolTableRecord
100
AcDbBlockTableRecord
  2
*Model_Space
340
22
  0
BLOCK_RECORD
  5
1B
330
1
100
AcDbSymbolTableRecord
100
AcDbBlockTableRecord
  2
*Paper_Space
340
1E
  0
BLOCK_RECORD
  5
23
330
1
100
AcDbSymbolTableRecord
100
AcDbBlockTableRecord
  2
*Paper_Space0
340
26
  0
BLOCK_RECORD
  5
74
330
1
100
AcDbSymbolTableRecord
100
AcDbBlockTableRecord
  2
Third Angle Projection Block
340
0
102
{BLKREFS
331
99
102
}
  0
BLOCK_RECORD
  5
AD
330
1
100
AcDbSymbolTableRecord
100
AcDbBlockTableRecord
  2
SW_NOTE_0
340
0
102
{BLKREFS
331
B2
102
}
  0
BLOCK_RECORD
  5
B3
330
1
100
AcDbSymbolTableRecord
100
AcDbBlockTableRecord
  2
SW_NOTE_1
340
0
102
{BLKREFS
331
B8
102
}
  0
BLOCK_RECORD
  5
BA
330
1
100
AcDbSymbolTableRecord
100
AcDbBlockTableRecord
  2
SW_NOTE_2
340
0
102
{BLKREFS
331
BF
102
}
  0
BLOCK_RECORD
  5
18C
330
1
100
AcDbSymbolTableRecord
100
AcDbBlockTableRecord
  2
_D
340
0
  0
BLOCK_RECORD
  5
1CA
330
1
100
AcDbSymbolTableRecord
100
AcDbBlockTableRecord
  2
_D_1
340
0
  0
BLOCK_RECORD
  5
2A2
330
1
100
AcDbSymbolTableRecord
100
AcDbBlockTableRecord
  2
_D_2
340
0
  0
BLOCK_RECORD
  5
2B5
330
1
100
AcDbSymbolTableRecord
100
AcDbBlockTableRecord
  2
_D_3
340
0
  0
BLOCK_RECORD
  5
2C9
330
1
100
AcDbSymbolTableRecord
100
AcDbBlockTableRecord
  2
_D_4
340
0
  0
ENDTAB
  0
ENDSEC
  0
SECTION
  2
BLOCKS
  0
BLOCK
  5
20
330
1F
100
AcDbEntity
  8
0
100
AcDbBlockBegin
  2
*Model_Space
 70
     0
 10
0.0
 20
0.0
 30
0.0
  3
*Model_Space
  1

  0
ENDBLK
  5
21
330
1F
100
AcDbEntity
  8
0
100
AcDbBlockEnd
  0
BLOCK
  5
1C
330
1B
100
AcDbEntity
 67
     1
  8
0
100
AcDbBlockBegin
  2
*Paper_Space
 70
     0
 10
0.0
 20
0.0
 30
0.0
  3
*Paper_Space
  1

  0
ENDBLK
  5
1D
330
1B
100
AcDbEntity
 67
     1
  8
0
100
AcDbBlockEnd
  0
BLOCK
  5
24
330
23
100
AcDbEntity
  8
0
100
AcDbBlockBegin
  2
*Paper_Space0
 70
     0
 10
0.0
 20
0.0
 30
0.0
  3
*Paper_Space0
  1

  0
ENDBLK
  5
25
330
23
100
AcDbEntity
  8
0
100
AcDbBlockEnd
  0
BLOCK
  5
75
330
74
100
AcDbEntity
  8
0
100
AcDbBlockBegin
  2
Third Angle Projection Block
 70
     0
 10
0.0
 20
0.0
 30
0.0
  3
Third Angle Projection Block
  1

  0
CIRCLE
  5
77
330
74
100
AcDbEntity
  8
0
  6
Continuous
 62
     7
370
    30
100
AcDbCircle
 10
101.4766388944
 20
18.9404083667
 30
0.0
 40
1.768227153674871
  0
CIRCLE
  5
78
330
74
100
AcDbEntity
  8
0
  6
Continuous
 62
     7
370
    30
100
AcDbCircle
 10
101.4766388944
 20
18.9404083667
 30
0.0
 40
3.901228248531818
  0
LINE
  5
79
330
74
100
AcDbEntity
  8
0
  6
CENTERX2
 62
     7
370
     0
100
AcDbLine
 10
110.1367822585
 20
18.9404083667
 30
0.0
 11
119.4527334874
 21
18.9404083667
 31
0.0
  0
LINE
  5
7A
330
74
100
AcDbEntity
  8
0
  6
Continuous
 62
     7
370
    30
100
AcDbLine
 10
111.0016388944
 20
20.7086355204
 30
0.0
 11
111.0016388944
 21
17.172181213
 31
0.0
  0
LINE
  5
7B
330
74
100
AcDbEntity
  8
0
  6
Continuous
 62
     7
370
    30
100
AcDbLine
 10
111.0016388944
 20
17.172181213
 30
0.0
 11
118.6216388944
 21
15.1304083667
 31
0.0
  0
LINE
  5
7C
330
74
100
AcDbEntity
  8
0
  6
Continuous
 62
     7
370
    30
100
AcDbLine
 10
118.6216388944
 20
15.1304083667
 30
0.0
 11
118.6216388944
 21
22.7504083667
 31
0.0
  0
LINE
  5
7D
330
74
100
AcDbEntity
  8
0
  6
Continuous
 62
     7
370
    30
100
AcDbLine
 10
118.6216388944
 20
22.7504083667
 30
0.0
 11
111.0016388944
 21
20.7086355204
 31
0.0
  0
LINE
  5
7E
330
74
100
AcDbEntity
  8
0
  6
CENTERX2
 62
     7
370
     0
100
AcDbLine
 10
96.6025854619
 20
18.9404083667
 30
0.0
 11
106.3506923269
 21
18.9404083667
 31
0.0
  0
LINE
  5
7F
330
74
100
AcDbEntity
  8
0
  6
CENTERX2
 62
     7
370
     0
100
AcDbLine
 10
101.4766388944
 20
23.8144617992
 30
0.0
 11
101.4766388944
 21
14.0663549342
 31
0.0
  0
POINT
  5
80
330
74
100
AcDbEntity
  8
0
  6
Continuous
 62
     7
370
     0
100
AcDbPoint
 10
101.4766388944
 20
18.9404083667
 30
0.0
  0
ENDBLK
  5
76
330
74
100
AcDbEntity
  8
0
100
AcDbBlockEnd
  0
BLOCK
  5
AE
330
AD
100
AcDbEntity
  8
0
100
AcDbBlockBegin
  2
SW_NOTE_0
 70
     0
 10
0.0
 20
0.0
 30
0.0
  3
SW_NOTE_0
  1

  0
MTEXT
  5
B0
330
AD
100
AcDbEntity
  8
0
  6
Continuous
 62
     0
370
     0
100
AcDbMText
 10
19.90725
 20
1.9645392354
 30
0.0
 40
1.524
 41
0.0
 71
     2
 72
     1
  1
VALUES IN PARENTHESIS ARE CALCULATED
  7
SLDTEXTSTYLE0
 73
     1
 44
1.0
  0
MTEXT
  5
B1
330
AD
100
AcDbEntity
  8
0
  6
Continuous
 62
     0
370
     0
100
AcDbMText
 10
19.8778795174
 20
-0.5594606586
 30
0.0
 40
1.524
 41
0.0
 71
     2
 72
     1
  1
AND MAY CONTAIN ROUNDOFF ERRORS
  7
SLDTEXTSTYLE0
 73
     1
 44
1.0
  0
ENDBLK
  5
AF
330
AD
100
AcDbEntity
  8
0
100
AcDbBlockEnd
  0
BLOCK
  5
B4
330
B3
100
AcDbEntity
  8
0
100
AcDbBlockBegin
  2
SW_NOTE_1
 70
     0
 10
0.0
 20
0.0
 30
0.0
  3
SW_NOTE_1
  1

  0
MTEXT
  5
B6
330
B3
100
AcDbEntity
  8
0
  6
Continuous
 62
     0
370
     0
100
AcDbMText
 10
0.0
 20
2.7285267159
 30
0.0
 40
2.1166666667
 41
0.0
 71
     1
 72
     1
  1
DRAWING
  7
SLDTEXTSTYLE0
 73
     1
 44
1.0
  0
MTEXT
  5
B7
330
B3
100
AcDbEntity
  8
0
  6
Continuous
 62
     0
370
     0
100
AcDbMText
 10
0.0
 20
-0.0936954723
 30
0.0
 40
2.1166666667
 41
0.0
 71
     1
 72
     1
  1
PROJECTION
  7
SLDTEXTSTYLE0
 73
     1
 44
1.0
  0
ENDBLK
  5
B5
330
B3
100
AcDbEntity
  8
0
100
AcDbBlockEnd
  0
BLOCK
  5
BB
330
BA
100
AcDbEntity
  8
0
100
AcDbBlockBegin
  2
SW_NOTE_2
 70
     0
 10
0.0
 20
0.0
 30
0.0
  3
SW_NOTE_2
  1

  0
MTEXT
  5
BD
330
BA
100
AcDbEntity
  8
0
  6
Continuous
 62
     0
370
     0
100
AcDbMText
 10
25.052734375
 20
4.0927900738
 30
0.0
 40
3.175
 41
0.0
 71
     2
 72
     1
  1
FOR INFORMATION ONLY
  7
SLDTEXTSTYLE0
 73
     1
 44
1.0
  0
MTEXT
  5
BE
330
BA
100
AcDbEntity
  8
0
  6
Continuous
 62
     0
370
     0
100
AcDbMText
 10
25.3768468589
 20
-0.1405432084
 30
0.0
 40
3.175
 41
0.0
 71
     2
 72
     1
  1
NOT FOR MANUFACTURING PURPOSES
  7
SLDTEXTSTYLE0
 73
     1
 44
1.0
  0
ENDBLK
  5
BC
330
BA
100
AcDbEntity
  8
0
100
AcDbBlockEnd
  0
BLOCK
  5
18D
330
18C
100
AcDbEntity
  8
0
100
AcDbBlockBegin
  2
_D
 70
     0
 10
0.0
 20
0.0
 30
0.0
  3
_D
  1

  0
SOLID
  5
18F
330
18C
100
AcDbEntity
  8
0
  6
Continuous
 62
     7
370
     0
100
AcDbTrace
 10
207.0315069774
 20
125.3231017548
 30
0.0
 11
203.8565069774
 21
125.8311017548
 31
0.0
 12
203.8565069774
 22
124.8151017548
 32
0.0
 13
203.8565069774
 23
124.8151017548
 33
0.0
  0
SOLID
  5
190
330
18C
100
AcDbEntity
  8
0
  6
Continuous
 62
     7
370
     0
100
AcDbTrace
 10
214.0315069774
 20
125.3231017548
 30
0.0
 11
217.2065069774
 21
124.8151017548
 31
0.0
 12
217.2065069774
 22
125.8311017548
 32
0.0
 13
217.2065069774
 23
125.8311017548
 33
0.0
  0
LINE
  5
191
330
18C
100
AcDbEntity
  8
0
  6
Continuous
 62
     7
370
     0
100
AcDbLine
 10
222.7706003396
 20
125.3231015219
 30
0.0
 11
222.1267808855
 21
125.3231015219
 31
0.0
  0
LINE
  5
192
330
18C
100
AcDbEntity
  8
0
  6
Continuous
 62
     7
370
     0
100
AcDbLine
 10
222.1267808855
 20
125.3231015219
 30
0.0
 11
222.1267808855
 21
121.9599534455
 31
0.0
  0
LINE
  5
193
330
18C
100
AcDbEntity
  8
0
  6
Continuous
 62
     7
370
     0
100
AcDbLine
 10
222.1267808855
 20
121.9599534455
 30
0.0
 11
222.7706003396
 21
121.9599534455
 31
0.0
  0
LINE
  5
194
330
18C
100
AcDbEntity
  8
0
  6
Continuous
 62
     7
370
     0
100
AcDbLine
 10
230.5277918859
 20
125.3231015219
 30
0.0
 11
231.17161134
 21
125.3231015219
 31
0.0
  0
LINE
  5
195
330
18C
100
AcDbEntity
  8
0
  6
Continuous
 62
     7
370
     0
100
AcDbLine
 10
231.17161134
 20
125.3231015219
 30
0.0
 11
231.17161134
 21
121.9599534455
 31
0.0
  0
LINE
  5
196
330
18C
100
AcDbEntity
  8
0
  6
Continuous
 62
     7
370
     0
100
AcDbLine
 10
231.17161134
 20
121.9599534455
 30
0.0
 11
230.5277918859
 21
121.9599534455
 31
0.0
  0
LINE
  5
197
330
18C
100
AcDbEntity
  8
0
  6
Continuous
 62
     7
370
     0
100
AcDbLine
 10
207.0315069774
 20
138.3421227822
 30
0.0
 11
207.0315069774
 21
123.5451017548
 31
0.0
  0
LINE
  5
198
330
18C
100
AcDbEntity
  8
0
  6
Continuous
 62
     7
370
     0
100
AcDbLine
 10
214.0315069774
 20
138.3421227822
 30
0.0
 11
214.0315069774
 21
123.5451017548
 31
0.0
  0
LINE
  5
199
330
18C
100
AcDbEntity
  8
0
  6
Continuous
 62
     7
370
     0
100
AcDbLine
 10
207.0315069774
 20
125.3231017548
 30
0.0
 11
200.6815069774
 21
125.3231017548
 31
0.0
  0
LINE
  5
19A
330
18C
100
AcDbEntity
  8
0
  6
Continuous
 62
     7
370
     0
100
AcDbLine
 10
214.0315069774
 20
125.3231017548
 30
0.0
 11
219.4933877315
 21
125.3231017548
 31
0.0
  0
MTEXT
  5
19B
330
18C
100
AcDbEntity
  8
0
  6
Continuous
 62
     7
370
     0
100
AcDbMText
 10
221.510399727
 20
128.4808411684
 30
0.0
 40
2.1166666667
 41
0.0
 71
     1
 72
     1
  1

  7
SLDTEXTSTYLE0
 73
     1
 44
1.0
  0
MTEXT
  5
19C
330
18C
100
AcDbEntity
  8
0
  6
Continuous
 62
     7
370
     0
100
AcDbMText
 10
222.0493657442
 20
128.4808411684
 30
0.0
 40
2.1166666667
 41
0.0
 71
     1
 72
     1
  1
7.0mm
  7
SLDTEXTSTYLE0
 73
     1
 44
1.0
  0
MTEXT
  5
19D
330
18C
100
AcDbEntity
  8
0
  6
Continuous
 62
     7
370
     0
100
AcDbMText
 10
222.7706003396
 20
124.6884800449
 30
0.0
 40
2.1166666667
 41
0.0
 71
     1
 72
     1
  1
0.28in
  7
SLDTEXTSTYLE0
 73
     1
 44
1.0
  0
MTEXT
  5
19E
330
18C
100
AcDbEntity
  8
0
  6
Continuous
 62
     7
370
     0
100
AcDbMText
 10
233.4029307941
 20
128.4808411684
 30
0.0
 40
2.1166666667
 41
0.0
 71
     1
 72
     1
  1

  7
SLDTEXTSTYLE0
 73
     1
 44
1.0
  0
ENDBLK
  5
18E
330
18C
100
AcDbEntity
  8
0
100
AcDbBlockEnd
  0
BLOCK
  5
1CB
330
1CA
100
AcDbEntity
  8
0
100
AcDbBlockBegin
  2
_D_1
 70
     0
 10
0.0
 20
0.0
 30
0.0
  3
_D_1
  1

  0
SOLID
  5
1CD
330
1CA
100
AcDbEntity
  8
0
  6
Continuous
 62
     7
370
     0
100
AcDbTrace
 10
35.8413978987
 20
146.6121227822
 30
0.0
 11
36.3493978987
 21
149.7871227822
 31
0.0
 12
35.3333978987
 22
149.7871227822
 32
0.0
 13
35.3333978987
 23
149.7871227822
 33
0.0
  0
SOLID
  5
1CE
330
1CA
100
AcDbEntity
  8
0
  6
Continuous
 62
     7
370
     0
100
AcDbTrace
 10
35.8413978987
 20
139.6121227822
 30
0.0
 11
35.3333978987
 21
136.4371227822
 31
0.0
 12
36.3493978987
 22
136.4371227822
 32
0.0
 13
36.3493978987
 23
136.4371227822
 33
0.0
  0
LINE
  5
1CF
330
1CA
100
AcDbEntity
  8
0
  6
Continuous
 62
     7
370
     0
100
AcDbLine
 10
43.7876344978
 20
157.7290887496
 30
0.0
 11
43.1438150436
 21
157.7290887496
 31
0.0
  0
LINE
  5
1D0
330
1CA
100
AcDbEntity
  8
0
  6
Continuous
 62
     7
370
     0
100
AcDbLine
 10
43.1438150436
 20
157.7290887496
 30
0.0
 11
43.1438150436
 21
154.3659406731
 31
0.0
  0
LINE
  5
1D1
330
1CA
100
AcDbEntity
  8
0
  6
Continuous
 62
     7
370
     0
100
AcDbLine
 10
43.1438150436
 20
154.3659406731
 30
0.0
 11
43.7876344978
 21
154.3659406731
 31
0.0
  0
LINE
  5
1D2
330
1CA
100
AcDbEntity
  8
0
  6
Continuous
 62
     7
370
     0
100
AcDbLine
 10
51.544826044
 20
157.7290887496
 30
0.0
 11
52.1886454982
 21
157.7290887496
 31
0.0
  0
LINE
  5
1D3
330
1CA
100
AcDbEntity
  8
0
  6
Continuous
 62
     7
370
     0
100
AcDbLine
 10
52.1886454982
 20
157.7290887496
 30
0.0
 11
52.1886454982
 21
154.3659406731
 31
0.0
  0
LINE
  5
1D4
330
1CA
100
AcDbEntity
  8
0
  6
Continuous
 62
     7
370
     0
100
AcDbLine
 10
52.1886454982
 20
154.3659406731
 30
0.0
 11
51.544826044
 21
154.3659406731
 31
0.0
  0
LINE
  5
1D5
330
1CA
100
AcDbEntity
  8
0
  6
Continuous
 62
     7
370
     0
100
AcDbLine
 10
27.1113978987
 20
146.6121227822
 30
0.0
 11
37.6193978987
 21
146.6121227822
 31
0.0
  0
LINE
  5
1D6
330
1CA
100
AcDbEntity
  8
0
  6
Continuous
 62
     7
370
     0
100
AcDbLine
 10
27.1113978987
 20
139.6121227822
 30
0.0
 11
37.6193978987
 21
139.6121227822
 31
0.0
  0
LINE
  5
1D7
330
1CA
100
AcDbEntity
  8
0
  6
Continuous
 62
     7
370
     0
100
AcDbLine
 10
39.6513978987
 20
157.7290889824
 30
0.0
 11
35.8413978987
 21
157.7290889824
 31
0.0
  0
LINE
  5
1D8
330
1CA
100
AcDbEntity
  8
0
  6
Continuous
 62
     7
370
     0
100
AcDbLine
 10
35.8413978987
 20
157.7290889824
 30
0.0
 11
35.8413978987
 21
146.6121227822
 31
0.0
  0
LINE
  5
1D9
330
1CA
100
AcDbEntity
  8
0
  6
Continuous
 62
     7
370
     0
100
AcDbLine
 10
35.8413978987
 20
139.6121227822
 30
0.0
 11
35.8413978987
 21
133.2621227822
 31
0.0
  0
MTEXT
  5
1DA
330
1CA
100
AcDbEntity
  8
0
  6
Continuous
 62
     7
370
     0
100
AcDbMText
 10
42.5274338851
 20
160.8868283961
 30
0.0
 40
2.1166666667
 41
0.0
 71
     1
 72
     1
  1

  7
SLDTEXTSTYLE0
 73
     1
 44
1.0
  0
MTEXT
  5
1DB
330
1CA
100
AcDbEntity
  8
0
  6
Continuous
 62
     7
370
     0
100
AcDbMText
 10
43.0663999024
 20
160.8868283961
 30
0.0
 40
2.1166666667
 41
0.0
 71
     1
 72
     1
  1
7.0mm
  7
SLDTEXTSTYLE0
 73
     1
 44
1.0
  0
MTEXT
  5
1DC
330
1CA
100
AcDbEntity
  8
0
  6
Continuous
 62
     7
370
     0
100
AcDbMText
 10
43.7876344978
 20
157.0944672726
 30
0.0
 40
2.1166666667
 41
0.0
 71
     1
 72
     1
  1
0.28in
  7
SLDTEXTSTYLE0
 73
     1
 44
1.0
  0
MTEXT
  5
1DD
330
1CA
100
AcDbEntity
  8
0
  6
Continuous
 62
     7
370
     0
100
AcDbMText
 10
54.4199649523
 20
160.8868283961
 30
0.0
 40
2.1166666667
 41
0.0
 71
     1
 72
     1
  1

  7
SLDTEXTSTYLE0
 73
     1
 44
1.0
  0
ENDBLK
  5
1CC
330
1CA
100
AcDbEntity
  8
0
100
AcDbBlockEnd
  0
BLOCK
  5
2A3
330
2A2
100
AcDbEntity
  8
0
100
AcDbBlockBegin
  2
_D_2
 70
     0
 10
0.0
 20
0.0
 30
0.0
  3
_D_2
  1

  0
SOLID
  5
2A5
330
2A2
100
AcDbEntity
  8
0
  6
Continuous
 62
     7
370
     0
100
AcDbTrace
 10
79.6867012876
 20
74.0272791504
 30
0.0
 11
76.5117012876
 21
74.5352791504
 31
0.0
 12
76.5117012876
 22
73.5192791504
 32
0.0
 13
76.5117012876
 23
73.5192791504
 33
0.0
  0
SOLID
  5
2A6
330
2A2
100
AcDbEntity
  8
0
  6
Continuous
 62
     7
370
     0
100
AcDbTrace
 10
82.6877012876
 20
74.0272791504
 30
0.0
 11
85.8627012876
 21
73.5192791504
 31
0.0
 12
85.8627012876
 22
74.5352791504
 32
0.0
 13
85.8627012876
 23
74.5352791504
 33
0.0
  0
LINE
  5
2A7
330
2A2
100
AcDbEntity
  8
0
  6
Continuous
 62
     7
370
     0
100
AcDbLine
 10
90.8767960909
 20
74.0272789175
 30
0.0
 11
90.2329766368
 21
74.0272789175
 31
0.0
  0
LINE
  5
2A8
330
2A2
100
AcDbEntity
  8
0
  6
Continuous
 62
     7
370
     0
100
AcDbLine
 10
90.2329766368
 20
74.0272789175
 30
0.0
 11
90.2329766368
 21
70.6641308411
 31
0.0
  0
LINE
  5
2A9
330
2A2
100
AcDbEntity
  8
0
  6
Continuous
 62
     7
370
     0
100
AcDbLine
 10
90.2329766368
 20
70.6641308411
 30
0.0
 11
90.8767960909
 21
70.6641308411
 31
0.0
  0
LINE
  5
2AA
330
2A2
100
AcDbEntity
  8
0
  6
Continuous
 62
     7
370
     0
100
AcDbLine
 10
98.6339876372
 20
74.0272789175
 30
0.0
 11
99.2778070913
 21
74.0272789175
 31
0.0
  0
LINE
  5
2AB
330
2A2
100
AcDbEntity
  8
0
  6
Continuous
 62
     7
370
     0
100
AcDbLine
 10
99.2778070913
 20
74.0272789175
 30
0.0
 11
99.2778070913
 21
70.6641308411
 31
0.0
  0
LINE
  5
2AC
330
2A2
100
AcDbEntity
  8
0
  6
Continuous
 62
     7
370
     0
100
AcDbLine
 10
99.2778070913
 20
70.6641308411
 30
0.0
 11
98.6339876372
 21
70.6641308411
 31
0.0
  0
LINE
  5
2AD
330
2A2
100
AcDbEntity
  8
0
  6
Continuous
 62
     7
370
     0
100
AcDbLine
 10
79.6867012876
 20
85.2428096244
 30
0.0
 11
79.6867012876
 21
72.2492791504
 31
0.0
  0
LINE
  5
2AE
330
2A2
100
AcDbEntity
  8
0
  6
Continuous
 62
     7
370
     0
100
AcDbLine
 10
82.6877012876
 20
85.2428096244
 30
0.0
 11
82.6877012876
 21
72.2492791504
 31
0.0
  0
LINE
  5
2AF
330
2A2
100
AcDbEntity
  8
0
  6
Continuous
 62
     7
370
     0
100
AcDbLine
 10
79.6867012876
 20
74.0272791504
 30
0.0
 11
73.3367012876
 21
74.0272791504
 31
0.0
  0
LINE
  5
2B0
330
2A2
100
AcDbEntity
  8
0
  6
Continuous
 62
     7
370
     0
100
AcDbLine
 10
82.6877012876
 20
74.0272791504
 30
0.0
 11
89.1596451872
 21
74.0272791504
 31
0.0
  0
MTEXT
  5
2B1
330
2A2
100
AcDbEntity
  8
0
  6
Continuous
 62
     7
370
     0
100
AcDbMText
 10
90.1555614955
 20
77.185018564
 30
0.0
 40
2.1166666667
 41
0.0
 71
     1
 72
     1
  1
3.0mm
  7
SLDTEXTSTYLE0
 73
     1
 44
1.0
  0
MTEXT
  5
2B2
330
2A2
100
AcDbEntity
  8
0
  6
Continuous
 62
     7
370
     0
100
AcDbMText
 10
90.8767960909
 20
73.3926574405
 30
0.0
 40
2.1166666667
 41
0.0
 71
     1
 72
     1
  1
0.12in
  7
SLDTEXTSTYLE0
 73
     1
 44
1.0
  0
MTEXT
  5
2B3
330
2A2
100
AcDbEntity
  8
0
  6
Continuous
 62
     7
370
     0
100
AcDbMText
 10
99.9216260797
 20
77.185018564
 30
0.0
 40
2.1166666667
 41
0.0
 71
     1
 72
     1
  1
X5
  7
SLDTEXTSTYLE0
 73
     1
 44
1.0
  0
ENDBLK
  5
2A4
330
2A2
100
AcDbEntity
  8
0
100
AcDbBlockEnd
  0
BLOCK
  5
2B6
330
2B5
100
AcDbEntity
  8
0
100
AcDbBlockBegin
  2
_D_3
 70
     0
 10
0.0
 20
0.0
 30
0.0
  3
_D_3
  1

  0
SOLID
  5
2B8
330
2B5
100
AcDbEntity
  8
0
  6
Continuous
 62
     7
370
     0
100
AcDbTrace
 10
65.6557012876
 20
74.0775420999
 30
0.0
 11
62.4807012876
 21
74.5855420999
 31
0.0
 12
62.4807012876
 22
73.5695420999
 32
0.0
 13
62.4807012876
 23
73.5695420999
 33
0.0
  0
SOLID
  5
2B9
330
2B5
100
AcDbEntity
  8
0
  6
Continuous
 62
     7
370
     0
100
AcDbTrace
 10
67.6567012876
 20
74.0775420999
 30
0.0
 11
70.8317012876
 21
73.5695420999
 31
0.0
 12
70.8317012876
 22
74.5855420999
 32
0.0
 13
70.8317012876
 23
74.5855420999
 33
0.0
  0
LINE
  5
2BA
330
2B5
100
AcDbEntity
  8
0
  6
Continuous
 62
     7
370
     0
100
AcDbLine
 10
53.2634493584
 20
74.077541867
 30
0.0
 11
52.6196299043
 21
74.077541867
 31
0.0
  0
LINE
  5
2BB
330
2B5
100
AcDbEntity
  8
0
  6
Continuous
 62
     7
370
     0
100
AcDbLine
 10
52.6196299043
 20
74.077541867
 30
0.0
 11
52.6196299043
 21
70.7143937906
 31
0.0
  0
LINE
  5
2BC
330
2B5
100
AcDbEntity
  8
0
  6
Continuous
 62
     7
370
     0
100
AcDbLine
 10
52.6196299043
 20
70.7143937906
 30
0.0
 11
53.2634493584
 21
70.7143937906
 31
0.0
  0
LINE
  5
2BD
330
2B5
100
AcDbEntity
  8
0
  6
Continuous
 62
     7
370
     0
100
AcDbLine
 10
61.0206409046
 20
74.077541867
 30
0.0
 11
61.6644603588
 21
74.077541867
 31
0.0
  0
LINE
  5
2BE
330
2B5
100
AcDbEntity
  8
0
  6
Continuous
 62
     7
370
     0
100
AcDbLine
 10
61.6644603588
 20
74.077541867
 30
0.0
 11
61.6644603588
 21
70.7143937906
 31
0.0
  0
LINE
  5
2BF
330
2B5
100
AcDbEntity
  8
0
  6
Continuous
 62
     7
370
     0
100
AcDbLine
 10
61.6644603588
 20
70.7143937906
 30
0.0
 11
61.0206409046
 21
70.7143937906
 31
0.0
  0
LINE
  5
2C0
330
2B5
100
AcDbEntity
  8
0
  6
Continuous
 62
     7
370
     0
100
AcDbLine
 10
65.6557012876
 20
85.2428096244
 30
0.0
 11
65.6557012876
 21
72.2995420999
 31
0.0
  0
LINE
  5
2C1
330
2B5
100
AcDbEntity
  8
0
  6
Continuous
 62
     7
370
     0
100
AcDbLine
 10
67.6567012876
 20
85.2428096244
 30
0.0
 11
67.6567012876
 21
72.2995420999
 31
0.0
  0
LINE
  5
2C2
330
2B5
100
AcDbEntity
  8
0
  6
Continuous
 62
     7
370
     0
100
AcDbLine
 10
65.6557012876
 20
74.0775420999
 30
0.0
 11
64.2978539784
 21
74.0775420999
 31
0.0
  0
LINE
  5
2C3
330
2B5
100
AcDbEntity
  8
0
  6
Continuous
 62
     7
370
     0
100
AcDbLine
 10
67.6567012876
 20
74.0775420999
 30
0.0
 11
74.0067012876
 21
74.0775420999
 31
0.0
  0
MTEXT
  5
2C4
330
2B5
100
AcDbEntity
  8
0
  6
Continuous
 62
     7
370
     0
100
AcDbMText
 10
52.0032487458
 20
77.2352815135
 30
0.0
 40
2.1166666667
 41
0.0
 71
     1
 72
     1
  1

  7
SLDTEXTSTYLE0
 73
     1
 44
1.0
  0
MTEXT
  5
2C5
330
2B5
100
AcDbEntity
  8
0
  6
Continuous
 62
     7
370
     0
100
AcDbMText
 10
52.542214763
 20
77.2352815135
 30
0.0
 40
2.1166666667
 41
0.0
 71
     1
 72
     1
  1
2.0mm
  7
SLDTEXTSTYLE0
 73
     1
 44
1.0
  0
MTEXT
  5
2C6
330
2B5
100
AcDbEntity
  8
0
  6
Continuous
 62
     7
370
     0
100
AcDbMText
 10
53.2634493584
 20
73.44292039
 30
0.0
 40
2.1166666667
 41
0.0
 71
     1
 72
     1
  1
0.08in
  7
SLDTEXTSTYLE0
 73
     1
 44
1.0
  0
MTEXT
  5
2C7
330
2B5
100
AcDbEntity
  8
0
  6
Continuous
 62
     7
370
     0
100
AcDbMText
 10
63.8957798129
 20
77.2352815135
 30
0.0
 40
2.1166666667
 41
0.0
 71
     1
 72
     1
  1

  7
SLDTEXTSTYLE0
 73
     1
 44
1.0
  0
ENDBLK
  5
2B7
330
2B5
100
AcDbEntity
  8
0
100
AcDbBlockEnd
  0
BLOCK
  5
2CA
330
2C9
100
AcDbEntity
  8
0
100
AcDbBlockBegin
  2
_D_4
 70
     0
 10
0.0
 20
0.0
 30
0.0
  3
_D_4
  1

  0
SOLID
  5
2CC
330
2C9
100
AcDbEntity
  8
0
  6
Continuous
 62
     7
370
     0
100
AcDbTrace
 10
65.2547012876
 20
100.4861327336
 30
0.0
 11
62.0797012876
 21
100.9941327336
 31
0.0
 12
62.0797012876
 22
99.9781327336
 32
0.0
 13
62.0797012876
 23
99.9781327336
 33
0.0
  0
SOLID
  5
2CD
330
2C9
100
AcDbEntity
  8
0
  6
Continuous
 62
     7
370
     0
100
AcDbTrace
 10
83.2887012876
 20
100.4861327336
 30
0.0
 11
86.4637012876
 21
99.9781327336
 31
0.0
 12
86.4637012876
 22
100.9941327336
 32
0.0
 13
86.4637012876
 23
100.9941327336
 33
0.0
  0
LINE
  5
2CE
330
2C9
100
AcDbEntity
  8
0
  6
Continuous
 62
     7
370
     0
100
AcDbLine
 10
70.2901370707
 20
100.4861325008
 30
0.0
 11
69.6463176166
 21
100.4861325008
 31
0.0
  0
LINE
  5
2CF
330
2C9
100
AcDbEntity
  8
0
  6
Continuous
 62
     7
370
     0
100
AcDbLine
 10
69.6463176166
 20
100.4861325008
 30
0.0
 11
69.6463176166
 21
97.1229844243
 31
0.0
  0
LINE
  5
2D0
330
2C9
100
AcDbEntity
  8
0
  6
Continuous
 62
     7
370
     0
100
AcDbLine
 10
69.6463176166
 20
97.1229844243
 30
0.0
 11
70.2901370707
 21
97.1229844243
 31
0.0
  0
LINE
  5
2D1
330
2C9
100
AcDbEntity
  8
0
  6
Continuous
 62
     7
370
     0
100
AcDbLine
 10
78.0473286169
 20
100.4861325008
 30
0.0
 11
78.6911480711
 21
100.4861325008
 31
0.0
  0
LINE
  5
2D2
330
2C9
100
AcDbEntity
  8
0
  6
Continuous
 62
     7
370
     0
100
AcDbLine
 10
78.6911480711
 20
100.4861325008
 30
0.0
 11
78.6911480711
 21
97.1229844243
 31
0.0
  0
LINE
  5
2D3
330
2C9
100
AcDbEntity
  8
0
  6
Continuous
 62
     7
370
     0
100
AcDbLine
 10
78.6911480711
 20
97.1229844243
 30
0.0
 11
78.0473286169
 21
97.1229844243
 31
0.0
  0
LINE
  5
2D4
330
2C9
100
AcDbEntity
  8
0
  6
Continuous
 62
     7
370
     0
100
AcDbLine
 10
65.2547012876
 20
94.7828096244
 30
0.0
 11
65.2547012876
 21
102.2641327336
 31
0.0
  0
LINE
  5
2D5
330
2C9
100
AcDbEntity
  8
0
  6
Continuous
 62
     7
370
     0
100
AcDbLine
 10
83.2887012876
 20
94.7828096244
 30
0.0
 11
83.2887012876
 21
102.2641327336
 31
0.0
  0
LINE
  5
2D6
330
2C9
100
AcDbEntity
  8
0
  6
Continuous
 62
     7
370
     0
100
AcDbLine
 10
65.2547012876
 20
100.4861327336
 30
0.0
 11
58.9047012876
 21
100.4861327336
 31
0.0
  0
LINE
  5
2D7
330
2C9
100
AcDbEntity
  8
0
  6
Continuous
 62
     7
370
     0
100
AcDbLine
 10
83.2887012876
 20
100.4861327336
 30
0.0
 11
89.6387012876
 21
100.4861327336
 31
0.0
  0
MTEXT
  5
2D8
330
2C9
100
AcDbEntity
  8
0
  6
Continuous
 62
     7
370
     0
100
AcDbMText
 10
68.8143497175
 20
103.6438721472
 30
0.0
 40
2.1166666667
 41
0.0
 71
     1
 72
     1
  1

  7
SLDTEXTSTYLE0
 73
     1
 44
1.0
  0
MTEXT
  5
2D9
330
2C9
100
AcDbEntity
  8
0
  6
Continuous
 62
     7
370
     0
100
AcDbMText
 10
68.7869114219
 20
103.6438721472
 30
0.0
 40
2.1166666667
 41
0.0
 71
     1
 72
     1
  1
18.0mm
  7
SLDTEXTSTYLE0
 73
     1
 44
1.0
  0
MTEXT
  5
2DA
330
2C9
100
AcDbEntity
  8
0
  6
Continuous
 62
     7
370
     0
100
AcDbMText
 10
70.2901370707
 20
99.8515110237
 30
0.0
 40
2.1166666667
 41
0.0
 71
     1
 72
     1
  1
0.71in
  7
SLDTEXTSTYLE0
 73
     1
 44
1.0
  0
MTEXT
  5
2DB
330
2C9
100
AcDbEntity
  8
0
  6
Continuous
 62
     7
370
     0
100
AcDbMText
 10
81.1380533344
 20
103.6438721472
 30
0.0
 40
2.1166666667
 41
0.0
 71
     1
 72
     1
  1

  7
SLDTEXTSTYLE0
 73
     1
 44
1.0
  0
ENDBLK
  5
2CB
330
2C9
100
AcDbEntity
  8
0
100
AcDbBlockEnd
  0
ENDSEC
  0
SECTION
  2
ENTITIES
  0
LINE
  5
81
330
1F
100
AcDbEntity
  8
0
  6
Continuous
 62
     7
370
     0
100
AcDbLine
 10
1.5793501011
 20
214.6453799966
 30
0.0
 11
277.9892068491
 21
214.6453799966
 31
0.0
  0
LINE
  5
82
330
1F
100
AcDbEntity
  8
0
  6
Continuous
 62
     7
370
     0
100
AcDbLine
 10
1.5793501011
 20
214.6453799966
 30
0.0
 11
1.5793501011
 21
0.9031642596
 31
0.0
  0
LINE
  5
83
330
1F
100
AcDbEntity
  8
0
  6
Continuous
 62
     7
370
     0
100
AcDbLine
 10
277.9892068491
 20
0.9031642596
 30
0.0
 11
1.5793501011
 21
0.9031642596
 31
0.0
  0
LINE
  5
84
330
1F
100
AcDbEntity
  8
0
  6
Continuous
 62
     7
370
     0
100
AcDbLine
 10
277.9892068491
 20
0.9031642596
 30
0.0
 11
277.9892068491
 21
214.6453799966
 31
0.0
  0
LINE
  5
85
330
1F
100
AcDbEntity
  8
0
  6
Continuous
 62
     7
370
     0
100
AcDbLine
 10
215.7427640041
 20
12.2958890132
 30
0.0
 11
171.6327596684
 21
12.2958890132
 31
0.0
  0
LINE
  5
86
330
1F
100
AcDbEntity
  8
0
  6
Continuous
 62
     7
370
     0
100
AcDbLine
 10
171.6327596684
 20
12.2958890132
 30
0.0
 11
171.6327596684
 21
26.1661402506
 31
0.0
  0
LINE
  5
87
330
1F
100
AcDbEntity
  8
0
  6
Continuous
 62
     7
370
     0
100
AcDbLine
 10
171.6327596684
 20
0.9031642596
 30
0.0
 11
171.6327596684
 21
26.1661402506
 31
0.0
  0
LINE
  5
88
330
1F
100
AcDbEntity
  8
0
  6
Continuous
 62
     7
370
     0
100
AcDbLine
 10
215.7427640041
 20
17.1604579552
 30
0.0
 11
277.9892068491
 21
17.1604579552
 31
0.0
  0
LINE
  5
89
330
1F
100
AcDbEntity
  8
0
  6
Continuous
 62
     7
370
     0
100
AcDbLine
 10
215.7427640041
 20
35.2394508358
 30
0.0
 11
215.7427640041
 21
0.9031642596
 31
0.0
  0
LINE
  5
8A
330
1F
100
AcDbEntity
  8
0
  6
Continuous
 62
     7
370
     0
100
AcDbLine
 10
215.7427640041
 20
26.1661402506
 30
0.0
 11
171.6327596684
 21
26.1661402506
 31
0.0
  0
LINE
  5
8B
330
1F
100
AcDbEntity
  8
0
  6
Continuous
 62
     7
370
     0
100
AcDbLine
 10
215.7427640041
 20
9.1409200612
 30
0.0
 11
277.9892068491
 21
9.1409200612
 31
0.0
  0
LINE
  5
8C
330
1F
100
AcDbEntity
  8
0
  6
Continuous
 62
     7
370
     0
100
AcDbLine
 10
215.7427640041
 20
16.9216824031
 30
0.0
 11
171.6327596684
 21
16.9216824031
 31
0.0
  0
LINE
  5
8D
330
1F
100
AcDbEntity
  8
0
  6
Continuous
 62
     7
370
     0
100
AcDbLine
 10
215.7427640041
 20
21.4874005542
 30
0.0
 11
171.6327596684
 21
21.4874005542
 31
0.0
  0
LINE
  5
8E
330
1F
100
AcDbEntity
  8
0
  6
Continuous
 62
     7
370
     0
100
AcDbLine
 10
186.1338100705
 20
26.1661402506
 30
0.0
 11
186.1338100705
 21
12.2958890132
 31
0.0
  0
LINE
  5
8F
330
1F
100
AcDbEntity
  8
0
  6
Continuous
 62
     7
370
     0
100
AcDbLine
 10
198.2145906188
 20
26.1661402506
 30
0.0
 11
198.2145906188
 21
12.2958890132
 31
0.0
  0
LINE
  5
90
330
1F
100
AcDbEntity
  8
0
  6
Continuous
 62
     7
370
     0
100
AcDbLine
 10
253.7490408369
 20
9.1409200612
 30
0.0
 11
253.7490408369
 21
0.9031642596
 31
0.0
  0
LINE
  5
91
330
1F
100
AcDbEntity
  8
0
  6
Continuous
 62
     7
370
     0
100
AcDbLine
 10
171.6327596684
 20
12.2958890132
 30
0.0
 11
171.6327596684
 21
7.5627342528
 31
0.0
  0
LINE
  5
92
330
1F
100
AcDbEntity
  8
0
  6
Continuous
 62
     7
370
     0
100
AcDbLine
 10
171.6327596684
 20
7.5627342528
 30
0.0
 11
215.7427640041
 21
7.5627342528
 31
0.0
  0
LINE
  5
93
330
1F
100
AcDbEntity
  8
0
  6
Continuous
 62
     7
370
     0
100
AcDbLine
 10
171.6327596684
 20
7.5627342528
 30
0.0
 11
171.6327596684
 21
35.2394508358
 31
0.0
  0
LINE
  5
94
330
1F
100
AcDbEntity
  8
0
  6
Continuous
 62
     7
370
     0
100
AcDbLine
 10
171.6327596684
 20
35.2394508358
 30
0.0
 11
215.7427640041
 21
35.2394508358
 31
0.0
  0
LINE
  5
95
330
1F
100
AcDbEntity
  8
0
  6
Continuous
 62
     7
370
     0
100
AcDbLine
 10
270.1683598194
 20
17.1604579552
 30
0.0
 11
270.1683598194
 21
9.1409200612
 31
0.0
  0
LINE
  5
96
330
1F
100
AcDbEntity
  8
0
  6
Continuous
 62
     7
370
     0
100
AcDbLine
 10
215.7427640041
 20
35.2394508358
 30
0.0
 11
277.9892068491
 21
35.2394508358
 31
0.0
  0
LINE
  5
97
330
1F
100
AcDbEntity
  8
0
  6
Continuous
 62
     7
370
     0
100
AcDbLine
 10
277.9892068491
 20
35.2394508358
 30
0.0
 11
277.9892068491
 21
50.0331356147
 31
0.0
  0
LINE
  5
98
330
1F
100
AcDbEntity
  8
0
  6
Continuous
 62
     7
370
     0
100
AcDbLine
 10
215.7427640041
 20
24.8927335446
 30
0.0
 11
277.9892068491
 21
24.8927335446
 31
0.0
  0
INSERT
  5
99
330
1F
100
AcDbEntity
  8
0
  6
Continuous
 62
     7
100
AcDbBlockReference
  2
Third Angle Projection Block
 10
117.7262204235
 20
15.5162339489
 30
0.0
 41
0.8
 42
0.8
 43
0.8
  0
MTEXT
  5
9B
330
1F
100
AcDbEntity
  8
0
  6
Continuous
 62
     7
370
     0
100
AcDbMText
 10
274.1458225539
 20
13.2559386876
 30
0.0
 40
3.175
 41
0.0
 71
     2
 72
     1
  1
A
  7
SLDTEXTSTYLE0
 73
     1
 44
1.0
  0
MTEXT
  5
9C
330
1F
100
AcDbEntity
  8
0
  6
Continuous
 62
     7
370
     0
100
AcDbMText
 10
234.7317976735
 20
5.1306563898
 30
0.0
 40
3.175
 41
0.0
 71
     2
 72
     1
  1
PK4GQP2
  7
SLDTEXTSTYLE0
 73
     1
 44
1.0
  0
MTEXT
  5
9D
330
1F
100
AcDbEntity
  8
0
  6
Continuous
 62
     7
370
     0
100
AcDbMText
 10
216.4199766059
 20
16.8243178599
 30
0.0
 40
2.1166666667
 41
0.0
 71
     1
 72
     1
  1
MATERIAL
  7
SLDTEXTSTYLE0
 73
     1
 44
1.0
  0
MTEXT
  5
9E
330
1F
100
AcDbEntity
  8
0
  6
Continuous
 62
     7
370
     0
100
AcDbMText
 10
174.230946566
 20
20.054553926
 30
0.0
 40
1.8520833333
 41
0.0
 71
     1
 72
     1
  1
DRAWN
  7
SLDTEXTSTYLE0
 73
     1
 44
1.0
  0
MTEXT
  5
9F
330
1F
100
AcDbEntity
  8
0
  6
Continuous
 62
     7
370
     0
100
AcDbMText
 10
172.3960124543
 20
15.5787169747
 30
0.0
 40
1.8520833333
 41
0.0
 71
     1
 72
     1
  1
APPROVAL
  7
SLDTEXTSTYLE0
 73
     1
 44
1.0
  0
MTEXT
  5
A0
330
1F
100
AcDbEntity
  8
0
  6
Continuous
 62
     7
370
     0
100
AcDbMText
 10
271.7160653675
 20
16.1671746307
 30
0.0
 40
2.1166666667
 41
0.0
 71
     1
 72
     1
  1
REV
  7
SLDTEXTSTYLE0
 73
     1
 44
1.0
  0
MTEXT
  5
A1
330
1F
100
AcDbEntity
  8
0
  6
Continuous
 62
     7
370
     0
100
AcDbMText
 10
190.2958696448
 20
20.3177146903
 30
0.0
 40
2.1166666667
 41
0.0
 71
     1
 72
     1
  1
MK
  7
SLDTEXTSTYLE0
 73
     1
 44
1.0
  0
MTEXT
  5
A2
330
1F
100
AcDbEntity
  8
0
  6
Continuous
 62
     7
370
     0
100
AcDbMText
 10
190.2958696448
 20
15.841877739
 30
0.0
 40
2.1166666667
 41
0.0
 71
     1
 72
     1
  1
SS
  7
SLDTEXTSTYLE0
 73
     1
 44
1.0
  0
MTEXT
  5
A3
330
1F
100
AcDbEntity
  8
0
  6
Continuous
 62
     7
370
     0
100
AcDbMText
 10
199.8662436873
 20
20.3177146903
 30
0.0
 40
2.1166666667
 41
0.0
 71
     1
 72
     1
  1
JUL/8/16
  7
SLDTEXTSTYLE0
 73
     1
 44
1.0
  0
MTEXT
  5
A4
330
1F
100
AcDbEntity
  8
0
  6
Continuous
 62
     7
370
     0
100
AcDbMText
 10
203.6145073853
 20
24.8221395769
 30
0.0
 40
2.1166666667
 41
0.0
 71
     1
 72
     1
  1
DATE
  7
SLDTEXTSTYLE0
 73
     1
 44
1.0
  0
MTEXT
  5
A5
330
1F
100
AcDbEntity
  8
0
  6
Continuous
 62
     7
370
     0
100
AcDbMText
 10
199.8662436873
 20
15.841877739
 30
0.0
 40
2.1166666667
 41
0.0
 71
     1
 72
     1
  1
JUL/8/16
  7
SLDTEXTSTYLE0
 73
     1
 44
1.0
  0
MTEXT
  5
A7
330
1F
100
AcDbEntity
  8
0
  6
Continuous
 62
     7
370
     0
100
AcDbMText
 10
229.402906477
 20
27.7957480569
 30
0.0
 40
2.1166666667
 41
0.0
 71
     1
 72
     1
  1
w w w . t h o r  l a b s . c o m
  7
SLDTEXTSTYLE1
 73
     1
 44
1.0
  0
MTEXT
  5
A8
330
1F
100
AcDbEntity
  8
0
  6
Continuous
 62
     7
370
     0
100
AcDbMText
 10
216.7004035316
 20
8.3494791871
 30
0.0
 40
2.1166666667
 41
0.0
 71
     1
 72
     1
  1
ITEM #
  7
SLDTEXTSTYLE0
 73
     1
 44
1.0
  0
MTEXT
  5
A9
330
1F
100
AcDbEntity
  8
0
  6
Continuous
 62
     7
370
     0
100
AcDbMText
 10
254.5318000914
 20
8.3494791871
 30
0.0
 40
2.1166666667
 41
0.0
 71
     1
 72
     1
  1
APPROX WEIGHT
  7
SLDTEXTSTYLE0
 73
     1
 44
1.0
  0
MTEXT
  5
AA
330
1F
100
AcDbEntity
  8
0
  6
Continuous
 62
     7
370
     0
100
AcDbMText
 10
243.4273448343
 20
13.8247651814
 30
0.0
 40
3.175
 41
0.0
 71
     2
 72
     1
  1
N/A
  7
SLDTEXTSTYLE0
 73
     1
 44
1.0
  0
MTEXT
  5
AC
330
1F
100
AcDbEntity
  8
0
  6
Continuous
 62
     7
370
     0
100
AcDbMText
 10
266.21929522
 20
5.1306563898
 30
0.0
 40
3.175
 41
0.0
 71
     2
 72
     1
  1
6.4 g
  7
SLDTEXTSTYLE2
 73
     1
 44
1.0
  0
INSERT
  5
B2
330
1F
100
AcDbEntity
  8
0
  6
Continuous
 62
     7
370
     0
100
AcDbBlockReference
  2
SW_NOTE_0
 10
174.8430140051
 20
4.4558554801
 30
0.0
  0
INSERT
  5
B8
330
1F
100
AcDbEntity
  8
0
  6
Continuous
 62
     7
370
     0
100
AcDbBlockReference
  2
SW_NOTE_1
 10
174.5483650337
 20
30.4835322715
 30
0.0
  0
MTEXT
  5
B9
330
1F
100
AcDbEntity
  8
0
  6
Continuous
 62
     7
370
     0
100
AcDbMText
 10
187.9273588276
 20
24.8221395769
 30
0.0
 40
2.1166666667
 41
0.0
 71
     1
 72
     1
  1
NAME
  7
SLDTEXTSTYLE0
 73
     1
 44
1.0
  0
INSERT
  5
BF
330
1F
100
AcDbEntity
  8
0
  6
Continuous
 62
     7
370
     0
100
AcDbBlockReference
  2
SW_NOTE_2
 10
58.6204667508
 20
8.1776609732
 30
0.0
  0
MTEXT
  5
C0
330
1F
100
AcDbEntity
  8
0
  6
Continuous
 62
     7
370
     0
100
AcDbMText
 10
247.9526769634
 20
22.4581719825
 30
0.0
 40
3.175
 41
0.0
 71
     2
 72
     1
  1
PIEZO ACTUATOR STACK
  7
SLDTEXTSTYLE0
 73
     1
 44
1.0
  0
MTEXT
  5
C1
330
1F
100
AcDbEntity
  8
0
  6
Continuous
 62
     7
370
     0
100
AcDbMText
 10
177.6925831922
 20
10.7142101515
 30
0.0
 40
1.5875
 41
0.0
 71
     1
 72
     1
  1
COPYRIGHT © 2016 BY THORLABS
  7
SLDTEXTSTYLE0
 73
     1
 44
1.0
  0
ARC
  5
C2
330
1F
100
AcDbEntity
  8
0
  6
Continuous
 62
     7
370
     0
100
AcDbCircle
 10
78.6688272632
 20
141.1616783378
 30
0.0
 40
1.725555555555559
100
AcDbArc
 50
287.465079128
 51
288.5866171988
  0
ARC
  5
C3
330
1F
100
AcDbEntity
  8
0
  6
Continuous
 62
     7
370
     0
100
AcDbCircle
 10
78.6688272632
 20
141.1616783378
 30
0.0
 40
1.725555555555555
100
AcDbArc
 50
251.4133828012
 51
256.2219572095
  0
ARC
  5
C4
330
1F
100
AcDbEntity
  8
0
  6
Continuous
 62
     7
370
     0
100
AcDbCircle
 10
72.6488272632
 20
141.1616783378
 30
0.0
 40
1.725555555555559
100
AcDbArc
 50
251.4133828012
 51
288.5866171988
  0
LINE
  5
C5
330
1F
100
AcDbEntity
  8
0
  6
Continuous
 62
     7
370
     0
100
AcDbLine
 10
78.1188272532
 20
139.6111226666
 30
0.0
 11
78.1188272532
 21
139.5261227178
 31
0.0
  0
LINE
  5
C6
330
1F
100
AcDbEntity
  8
0
  6
Continuous
 62
     7
370
     0
100
AcDbLine
 10
79.2188272472
 20
139.5261227178
 30
0.0
 11
79.2188272472
 21
139.6111226666
 31
0.0
  0
LINE
  5
C7
330
1F
100
AcDbEntity
  8
0
  6
Continuous
 62
     7
370
     0
100
AcDbLine
 10
72.0988268159
 20
139.6111226666
 30
0.0
 11
72.0988268159
 21
139.5261227178
 31
0.0
  0
LINE
  5
C8
330
1F
100
AcDbEntity
  8
0
  6
Continuous
 62
     7
370
     0
100
AcDbLine
 10
73.1988272756
 20
139.5261227178
 30
0.0
 11
73.1988272756
 21
139.6111226666
 31
0.0
  0
ARC
  5
C9
330
1F
100
AcDbEntity
  8
0
  6
Continuous
 62
     7
370
     0
100
AcDbCircle
 10
67.1378272632
 20
141.1616783378
 30
0.0
 40
1.725555555555555
100
AcDbArc
 50
251.4133828012
 51
288.5866171988
  0
LINE
  5
CA
330
1F
100
AcDbEntity
  8
0
  6
Continuous
 62
     7
370
     0
100
AcDbLine
 10
66.5878269947
 20
139.6111226666
 30
0.0
 11
66.5878269947
 21
139.5261227178
 31
0.0
  0
LINE
  5
CB
330
1F
100
AcDbEntity
  8
0
  6
Continuous
 62
     7
370
     0
100
AcDbLine
 10
67.6878269888
 20
139.5261227178
 30
0.0
 11
67.6878269888
 21
139.6111226666
 31
0.0
  0
LINE
  5
CC
330
1F
100
AcDbEntity
  8
0
  6
Continuous
 62
     7
370
     0
100
AcDbLine
 10
83.3867435004
 20
135.7825349576
 30
0.0
 11
143.3867428578
 21
135.7825349576
 31
0.0
  0
LINE
  5
CD
330
1F
100
AcDbEntity
  8
0
  6
Continuous
 62
     7
370
     0
100
AcDbLine
 10
143.7910858668
 20
136.6311272166
 30
0.0
 11
83.7910841811
 21
136.6311272166
 31
0.0
  0
SPLINE
  5
CE
330
1F
100
AcDbEntity
  8
0
  6
Continuous
 62
     7
370
     0
100
AcDbSpline
210
0.0
220
0.0
230
1.0
 70
     8
 71
     3
 72
    24
 73
    20
 74
     0
 42
0.000000001
 43
0.00000001
 40
0.0
 40
0.0
 40
0.0
 40
0.0
 40
0.0809864766859993
 40
0.1608401398906996
 40
0.2307081720720486
 40
0.2914733541443125
 40
0.3438256056288861
 40
0.3882799960376471
 40
0.4252011738414559
 40
0.4576654381228472
 40
0.4967561881854977
 40
0.5435282670590151
 40
0.5979792158084868
 40
0.6602795243118962
 40
0.7160238856666922
 40
0.7773470370793475
 40
0.8446956107566272
 40
0.9186627984091075
 40
0.9999999999999999
 40
0.9999999999999999
 40
0.9999999999999999
 40
0.9999999999999999
 10
78.25863041313262
 20
139.4863827179197
 30
0.0
 10
78.33690574598867
 20
139.3239533583473
 30
0.0
 10
78.4923615208506
 20
139.0013666502323
 30
0.0
 10
78.7527487819822
 20
138.5581737645063
 30
0.0
 10
79.01365647091929
 20
138.1688063302201
 30
0.0
 10
79.26152287250173
 20
137.8453284691281
 30
0.0
 10
79.49067439717122
 20
137.5796261272376
 30
0.0
 10
79.69680350086475
 20
137.3647636921514
 30
0.0
 10
79.88056906064942
 20
137.1902295492685
 30
0.0
 10
80.06233578623194
 20
137.0312488019688
 30
0.0
 10
80.2679390084482
 20
136.8665277840127
 30
0.0
 10
80.5219294120378
 20
136.6845228945273
 30
0.0
 10
80.83123840485264
 20
136.4921806982294
 30
0.0
 10
81.17197506594553
 20
136.3143747801813
 30
0.0
 10
81.53912878410263
 20
136.1568689632427
 30
0.0
 10
81.92755058109873
 20
136.0229202896686
 30
0.0
 10
82.36461027045092
 20
135.9101631304449
 30
0.0
 10
82.85332398780629
 20
135.823186349126
 30
0.0
 10
83.1983351465368
 20
135.7989776583235
 30
0.0
 10
83.37902702720733
 20
135.7862988977704
 30
0.0
  0
SPLINE
  5
CF
330
1F
100
AcDbEntity
  8
0
  6
Continuous
 62
     7
370
     0
100
AcDbSpline
210
0.0
220
0.0
230
1.0
 70
     8
 71
     3
 72
    22
 73
    18
 74
     0
 42
0.000000001
 43
0.00000001
 40
0.0
 40
0.0
 40
0.0
 40
0.0
 40
0.0886213295690197
 40
0.1653426938625097
 40
0.2317329700347602
 40
0.2889298913730654
 40
0.3376980641246166
 40
0.3785018768279924
 40
0.4115834763425268
 40
0.4439517116458824
 40
0.498050172645145
 40
0.565378925876136
 40
0.6472699912765749
 40
0.719496466620643
 40
0.8023628945734067
 40
0.8975269202665035
 40
1.0
 40
1.0
 40
1.0
 40
1.0
 10
83.7988006542799
 20
136.6273637420508
 30
0.0
 10
83.62826091112564
 20
136.6286276955387
 30
0.0
 10
83.31008129589216
 20
136.6309858803641
 30
0.0
 10
82.86634491904039
 20
136.6797357506027
 30
0.0
 10
82.48731133508689
 20
136.7503990512412
 30
0.0
 10
82.16670301904445
 20
136.8358342228618
 30
0.0
 10
81.8992791438302
 20
136.9267758880063
 30
0.0
 10
81.68069242013615
 20
137.0157881987701
 30
0.0
 10
81.49537116350636
 20
137.1020722320669
 30
0.0
 10
81.29129786460847
 20
137.2081355133045
 30
0.0
 10
81.03675361324574
 20
137.3593153334719
 30
0.0
 10
80.71720014229102
 20
137.585571452652
 30
0.0
 10
80.39404590154022
 20
137.864145775832
 30
0.0
 10
80.07671102540169
 20
138.1920351566316
 30
0.0
 10
79.77228255545572
 20
138.5654571053581
 30
0.0
 10
79.46511950147826
 20
139.0101528397682
 30
0.0
 10
79.283351580706
 20
139.3442500978273
 30
0.0
 10
79.1891065319431
 20
139.5174765518877
 30
0.0
  0
LINE
  5
D0
330
1F
100
AcDbEntity
  8
0
  6
Continuous
 62
     7
370
     0
100
AcDbLine
 10
79.1901955973
 20
139.5221226874
 30
0.0
 11
81.384452119
 21
139.5221226874
 31
0.0
  0
LINE
  5
D1
330
1F
100
AcDbEntity
  8
0
  6
Continuous
 62
     7
370
     0
100
AcDbLine
 10
75.9448169857
 20
139.5221226874
 30
0.0
 11
78.1453929968
 21
139.5221226874
 31
0.0
  0
LINE
  5
D2
330
1F
100
AcDbEntity
  8
0
  6
Continuous
 62
     7
370
     0
100
AcDbLine
 10
69.9248172469
 20
139.5221226874
 30
0.0
 11
72.1253927923
 21
139.5221226874
 31
0.0
  0
LINE
  5
D3
330
1F
100
AcDbEntity
  8
0
  6
Continuous
 62
     7
370
     0
100
AcDbLine
 10
73.1405967973
 20
139.5221226874
 30
0.0
 11
75.3728377759
 21
139.5221226874
 31
0.0
  0
LINE
  5
D4
330
1F
100
AcDbEntity
  8
0
  6
Continuous
 62
     7
370
     0
100
AcDbLine
 10
67.6295969761
 20
139.5221226874
 30
0.0
 11
69.3900825582
 21
139.5221226874
 31
0.0
  0
ARC
  5
D5
330
1F
100
AcDbEntity
  8
0
  6
Continuous
 62
     7
370
     0
100
AcDbCircle
 10
69.6388272632
 20
141.1616783378
 30
0.0
 40
1.725555555555555
100
AcDbArc
 50
251.4133828012
 51
286.699104135
  0
LINE
  5
D6
330
1F
100
AcDbEntity
  8
0
  6
Continuous
 62
     7
370
     0
100
AcDbLine
 10
82.2198272809
 20
139.5261227178
 30
0.0
 11
82.2198272809
 21
139.6111226666
 31
0.0
  0
ARC
  5
D7
330
1F
100
AcDbEntity
  8
0
  6
Continuous
 62
     7
370
     0
100
AcDbCircle
 10
75.6588272632
 20
141.1616783378
 30
0.0
 40
1.725555555555555
100
AcDbArc
 50
251.4133828012
 51
286.699104135
  0
ARC
  5
D8
330
1F
100
AcDbEntity
  8
0
  6
Continuous
 62
     7
370
     0
100
AcDbCircle
 10
81.6698272632
 20
141.1616783378
 30
0.0
 40
1.725555555555559
100
AcDbArc
 50
251.4133828012
 51
288.5866171988
  0
LINE
  5
D9
330
1F
100
AcDbEntity
  8
0
  6
Continuous
 62
     7
370
     0
100
AcDbLine
 10
69.088827645
 20
139.6111226666
 30
0.0
 11
69.088827645
 21
139.5261227178
 31
0.0
  0
LINE
  5
DA
330
1F
100
AcDbEntity
  8
0
  6
Continuous
 62
     7
370
     0
100
AcDbLine
 10
70.188827639
 20
139.5261227178
 30
0.0
 11
70.188827639
 21
139.6111226666
 31
0.0
  0
LINE
  5
DB
330
1F
100
AcDbEntity
  8
0
  6
Continuous
 62
     7
370
     0
100
AcDbLine
 10
76.2088273778
 20
139.5261227178
 30
0.0
 11
76.2088273778
 21
139.6111226666
 31
0.0
  0
ARC
  5
DC
330
1F
100
AcDbEntity
  8
0
  6
Continuous
 62
     7
370
     0
100
AcDbCircle
 10
72.6488272632
 20
145.0625672267
 30
0.0
 40
1.725555555555587
100
AcDbArc
 50
71.4133828012
 51
90.0
  0
ARC
  5
DD
330
1F
100
AcDbEntity
  8
0
  6
Continuous
 62
     7
370
     0
100
AcDbCircle
 10
72.6488272632
 20
145.0625672267
 30
0.0
 40
1.725555555555587
100
AcDbArc
 50
90.0
 51
108.5866171988
  0
LINE
  5
DE
330
1F
100
AcDbEntity
  8
0
  6
Continuous
 62
     7
370
     0
100
AcDbLine
 10
67.6878269888
 20
146.6131228979
 30
0.0
 11
67.6878269888
 21
146.6981228466
 31
0.0
  0
LINE
  5
DF
330
1F
100
AcDbEntity
  8
0
  6
Continuous
 62
     7
370
     0
100
AcDbLine
 10
66.5878269947
 20
146.6981228466
 30
0.0
 11
66.5878269947
 21
146.6131228979
 31
0.0
  0
LINE
  5
E0
330
1F
100
AcDbEntity
  8
0
  6
Continuous
 62
     7
370
     0
100
AcDbLine
 10
79.2188272472
 20
146.6131228979
 30
0.0
 11
79.2188272472
 21
146.6981228466
 31
0.0
  0
LINE
  5
E1
330
1F
100
AcDbEntity
  8
0
  6
Continuous
 62
     7
370
     0
100
AcDbLine
 10
78.1188272532
 20
146.6981228466
 30
0.0
 11
78.1188272532
 21
146.6131228979
 31
0.0
  0
LINE
  5
E2
330
1F
100
AcDbEntity
  8
0
  6
Continuous
 62
     7
370
     0
100
AcDbLine
 10
73.1988272756
 20
146.6131228979
 30
0.0
 11
73.1988272756
 21
146.6981228466
 31
0.0
  0
LINE
  5
E3
330
1F
100
AcDbEntity
  8
0
  6
Continuous
 62
     7
370
     0
100
AcDbLine
 10
72.0988268159
 20
146.6981228466
 30
0.0
 11
72.0988268159
 21
146.6131228979
 31
0.0
  0
ARC
  5
E4
330
1F
100
AcDbEntity
  8
0
  6
Continuous
 62
     7
370
     0
100
AcDbCircle
 10
78.6688272632
 20
145.0625672267
 30
0.0
 40
1.725555555555567
100
AcDbArc
 50
71.4133828012
 51
72.5310006684
  0
ARC
  5
E5
330
1F
100
AcDbEntity
  8
0
  6
Continuous
 62
     7
370
     0
100
AcDbCircle
 10
78.6688272632
 20
145.0625672267
 30
0.0
 40
1.725555555555573
100
AcDbArc
 50
103.7757683275
 51
108.5866171988
  0
ARC
  5
E6
330
1F
100
AcDbEntity
  8
0
  6
Continuous
 62
     7
370
     0
100
AcDbCircle
 10
67.1378272632
 20
145.0625672267
 30
0.0
 40
1.725555555555587
100
AcDbArc
 50
71.4133828012
 51
90.0
  0
ARC
  5
E7
330
1F
100
AcDbEntity
  8
0
  6
Continuous
 62
     7
370
     0
100
AcDbCircle
 10
67.1378272632
 20
145.0625672267
 30
0.0
 40
1.725555555555587
100
AcDbArc
 50
90.0
 51
108.5866171988
  0
LINE
  5
E8
330
1F
100
AcDbEntity
  8
0
  6
Continuous
 62
     7
370
     0
100
AcDbLine
 10
83.7910841811
 20
149.5931183479
 30
0.0
 11
143.7910858668
 21
149.5931183479
 31
0.0
  0
LINE
  5
E9
330
1F
100
AcDbEntity
  8
0
  6
Continuous
 62
     7
370
     0
100
AcDbLine
 10
143.3867428578
 20
150.4417106069
 30
0.0
 11
83.3867435004
 21
150.4417106069
 31
0.0
  0
SPLINE
  5
EA
330
1F
100
AcDbEntity
  8
0
  6
Continuous
 62
     7
370
     0
100
AcDbSpline
210
0.0
220
0.0
230
1.0
 70
     8
 71
     3
 72
    22
 73
    18
 74
     0
 42
0.000000001
 43
0.00000001
 40
0.0
 40
0.0
 40
0.0
 40
0.0
 40
0.0870367405453364
 40
0.1686598611818455
 40
0.2393533340299819
 40
0.3003533548532866
 40
0.3526173718313417
 40
0.3968626771094723
 40
0.4336082856801924
 40
0.4653089690905147
 40
0.5172193675110779
 40
0.5824261462518006
 40
0.6613015998761999
 40
0.7301692945059098
 40
0.8084511666581755
 40
0.8976912502282935
 40
1.0
 40
1.0
 40
1.0
 40
1.0
 10
79.18889966191621
 20
146.706904752833
 30
0.0
 10
79.26847605776555
 20
146.8542579080092
 30
0.0
 10
79.42267925739377
 20
147.1397989627525
 30
0.0
 10
79.677101241215
 20
147.5241496282394
 30
0.0
 10
79.92538703499508
 20
147.8510747383789
 30
0.0
 10
80.15832720500704
 20
148.1177341569141
 30
0.0
 10
80.37156070434463
 20
148.3331571182045
 30
0.0
 10
80.56199882088838
 20
148.5048525867509
 30
0.0
 10
80.73006240890851
 20
148.6418320597311
 30
0.0
 10
80.91571639184765
 20
148.7801875529235
 30
0.0
 10
81.1544276895418
 20
148.9385177002508
 30
0.0
 10
81.4839770249555
 20
149.1224530965387
 30
0.0
 10
81.85978385184606
 20
149.2872228824562
 30
0.0
 10
82.273505610188
 20
149.4225663934422
 30
0.0
 10
82.71753087603709
 20
149.5228744018696
 30
0.0
 10
83.23321143993768
 20
149.5908072929544
 30
0.0
 10
83.60188647295908
 20
149.594766928833
 30
0.0
 10
83.7988006542799
 20
149.5968818224046
 30
0.0
  0
SPLINE
  5
EB
330
1F
100
AcDbEntity
  8
0
  6
Continuous
 62
     7
370
     0
100
AcDbSpline
210
0.0
220
0.0
230
1.0
 70
     8
 71
     3
 72
    23
 73
    19
 74
     0
 42
0.000000001
 43
0.00000001
 40
0.0
 40
0.0
 40
0.0
 40
0.0
 40
0.0870232578105785
 40
0.1636066820539504
 40
0.2307575141078381
 40
0.2891995357742971
 40
0.3394174290114709
 40
0.3817059341652994
 40
0.416219671026377
 40
0.4493069754438141
 40
0.4896436831753577
 40
0.5374223205964397
 40
0.5928889157867666
 40
0.6565091514101117
 40
0.7289673829209151
 40
0.8111925095666614
 40
0.9043696481607394
 40
1.0
 40
1.0
 40
1.0
 40
1.0
 10
83.37902702720733
 20
150.4379466666851
 30
0.0
 10
83.18571196683942
 20
150.4240770568526
 30
0.0
 10
82.8222730837917
 20
150.3980017190274
 30
0.0
 10
82.31644453994598
 20
150.303757555306
 30
0.0
 10
81.88151799197757
 20
150.1870158930217
 30
0.0
 10
81.51233571803523
 20
150.0562675866819
 30
0.0
 10
81.20382338682383
 20
149.9227603496061
 30
0.0
 10
80.95136759122416
 20
149.7952503125692
 30
0.0
 10
80.73872488091122
 20
149.6742838819303
 30
0.0
 10
80.53524718309421
 20
149.5464704912846
 30
0.0
 10
80.31378346839941
 20
149.3922631984203
 30
0.0
 10
80.06202183180075
 20
149.195170594951
 30
0.0
 10
79.78425496951706
 20
148.9482700632412
 30
0.0
 10
79.48581801189185
 20
148.643367220814
 30
0.0
 10
79.1722400437229
 20
148.2716058197032
 30
0.0
 10
78.85073863583371
 20
147.8228139239946
 30
0.0
 10
78.53549502700248
 20
147.307463151188
 30
0.0
 10
78.35192654980942
 20
146.9292575967789
 30
0.0
 10
78.25894974036039
 20
146.7376977696094
 30
0.0
  0
LINE
  5
EC
330
1F
100
AcDbEntity
  8
0
  6
Continuous
 62
     7
370
     0
100
AcDbLine
 10
81.384452119
 20
146.7021228771
 30
0.0
 11
79.1906562527
 21
146.7021228771
 31
0.0
  0
LINE
  5
ED
330
1F
100
AcDbEntity
  8
0
  6
Continuous
 62
     7
370
     0
100
AcDbLine
 10
78.1583646904
 20
146.7021228771
 30
0.0
 11
75.9448169857
 21
146.7021228771
 31
0.0
  0
LINE
  5
EE
330
1F
100
AcDbEntity
  8
0
  6
Continuous
 62
     7
370
     0
100
AcDbLine
 10
72.1383642531
 20
146.7021228771
 30
0.0
 11
69.9248172469
 21
146.7021228771
 31
0.0
  0
LINE
  5
EF
330
1F
100
AcDbEntity
  8
0
  6
Continuous
 62
     7
370
     0
100
AcDbLine
 10
75.3728377759
 20
146.7021228771
 30
0.0
 11
73.1402559332
 21
146.7021228771
 31
0.0
  0
LINE
  5
F0
330
1F
100
AcDbEntity
  8
0
  6
Continuous
 62
     7
370
     0
100
AcDbLine
 10
69.3900825582
 20
146.7021228771
 30
0.0
 11
67.6292561121
 21
146.7021228771
 31
0.0
  0
ARC
  5
F1
330
1F
100
AcDbEntity
  8
0
  6
Continuous
 62
     7
370
     0
100
AcDbCircle
 10
69.6388272632
 20
145.0625672267
 30
0.0
 40
1.725555555555569
100
AcDbArc
 50
73.3235371404
 51
107.3135887533
  0
ARC
  5
F2
330
1F
100
AcDbEntity
  8
0
  6
Continuous
 62
     7
370
     0
100
AcDbCircle
 10
75.6588272632
 20
145.0625672267
 30
0.0
 40
1.725555555555566
100
AcDbArc
 50
73.3235371404
 51
107.3135887533
  0
ARC
  5
F3
330
1F
100
AcDbEntity
  8
0
  6
Continuous
 62
     7
370
     0
100
AcDbCircle
 10
81.6698272632
 20
145.0625672267
 30
0.0
 40
1.725555555555571
100
AcDbArc
 50
71.4133828012
 51
107.3135887533
  0
LINE
  5
F4
330
1F
100
AcDbEntity
  8
0
  6
Continuous
 62
     7
370
     0
100
AcDbLine
 10
82.2198272809
 20
146.6131228979
 30
0.0
 11
82.2198272809
 21
146.6981228466
 31
0.0
  0
LINE
  5
F5
330
1F
100
AcDbEntity
  8
0
  6
Continuous
 62
     7
370
     0
100
AcDbLine
 10
81.1198272868
 20
146.6981228466
 30
0.0
 11
81.1198272868
 21
146.6131228979
 31
0.0
  0
LINE
  5
F6
330
1F
100
AcDbEntity
  8
0
  6
Continuous
 62
     7
370
     0
100
AcDbLine
 10
70.188827639
 20
146.6131228979
 30
0.0
 11
70.188827639
 21
146.6981228466
 31
0.0
  0
LINE
  5
F7
330
1F
100
AcDbEntity
  8
0
  6
Continuous
 62
     7
370
     0
100
AcDbLine
 10
69.088827645
 20
146.6981228466
 30
0.0
 11
69.088827645
 21
146.6131228979
 31
0.0
  0
LINE
  5
F8
330
1F
100
AcDbEntity
  8
0
  6
Continuous
 62
     7
370
     0
100
AcDbLine
 10
75.1088273838
 20
146.6981228466
 30
0.0
 11
75.1088273838
 21
146.6131228979
 31
0.0
  0
LINE
  5
F9
330
1F
100
AcDbEntity
  8
0
  6
Continuous
 62
     7
370
     0
100
AcDbLine
 10
83.1698272969
 20
146.6121228903
 30
0.0
 11
80.1698272632
 21
146.6121228903
 31
0.0
  0
LINE
  5
FA
330
1F
100
AcDbEntity
  8
0
  6
Continuous
 62
     7
370
     0
100
AcDbLine
 10
83.1698272969
 20
139.6121226742
 30
0.0
 11
83.1698272969
 21
146.6121228903
 31
0.0
  0
LINE
  5
FB
330
1F
100
AcDbEntity
  8
0
  6
Continuous
 62
     7
370
     0
100
AcDbLine
 10
83.1698272969
 20
139.6121226742
 30
0.0
 11
80.1698272632
 21
139.6121226742
 31
0.0
  0
LINE
  5
FC
330
1F
100
AcDbEntity
  8
0
  6
Continuous
 62
     7
370
     0
100
AcDbLine
 10
80.1698272632
 20
139.6121226742
 30
0.0
 11
80.1698272632
 21
146.6121228903
 31
0.0
  0
LINE
  5
FD
330
1F
100
AcDbEntity
  8
0
  6
Continuous
 62
     7
370
     0
100
AcDbLine
 10
74.1588271349
 20
139.6121226742
 30
0.0
 11
77.158827161
 21
139.6121226742
 31
0.0
  0
LINE
  5
FE
330
1F
100
AcDbEntity
  8
0
  6
Continuous
 62
     7
370
     0
100
AcDbLine
 10
74.1588271349
 20
146.6121228903
 30
0.0
 11
74.1588271349
 21
139.6121226742
 31
0.0
  0
LINE
  5
FF
330
1F
100
AcDbEntity
  8
0
  6
Continuous
 62
     7
370
     0
100
AcDbLine
 10
74.1588271349
 20
146.6121228903
 30
0.0
 11
77.158827161
 21
146.6121228903
 31
0.0
  0
LINE
  5
100
330
1F
100
AcDbEntity
  8
0
  6
Continuous
 62
     7
370
     0
100
AcDbLine
 10
77.158827161
 20
146.6121228903
 30
0.0
 11
77.158827161
 21
139.6121226742
 31
0.0
  0
LINE
  5
101
330
1F
100
AcDbEntity
  8
0
  6
Continuous
 62
     7
370
     0
100
AcDbLine
 10
71.1488274983
 20
139.6121226742
 30
0.0
 11
74.1488270588
 21
139.6121226742
 31
0.0
  0
LINE
  5
102
330
1F
100
AcDbEntity
  8
0
  6
Continuous
 62
     7
370
     0
100
AcDbLine
 10
71.1488274983
 20
146.6121228903
 30
0.0
 11
71.1488274983
 21
139.6121226742
 31
0.0
  0
LINE
  5
103
330
1F
100
AcDbEntity
  8
0
  6
Continuous
 62
     7
370
     0
100
AcDbLine
 10
71.1488274983
 20
146.6121228903
 30
0.0
 11
74.1488270588
 21
146.6121228903
 31
0.0
  0
LINE
  5
104
330
1F
100
AcDbEntity
  8
0
  6
Continuous
 62
     7
370
     0
100
AcDbLine
 10
74.1488270588
 20
146.6121228903
 30
0.0
 11
74.1488270588
 21
139.6121226742
 31
0.0
  0
LINE
  5
105
330
1F
100
AcDbEntity
  8
0
  6
Continuous
 62
     7
370
     0
100
AcDbLine
 10
77.1688272371
 20
139.6121226742
 30
0.0
 11
80.1688272632
 21
139.6121226742
 31
0.0
  0
LINE
  5
106
330
1F
100
AcDbEntity
  8
0
  6
Continuous
 62
     7
370
     0
100
AcDbLine
 10
80.1688272632
 20
146.6121228903
 30
0.0
 11
80.1688272632
 21
139.6121226742
 31
0.0
  0
LINE
  5
107
330
1F
100
AcDbEntity
  8
0
  6
Continuous
 62
     7
370
     0
100
AcDbLine
 10
77.1688272371
 20
146.6121228903
 30
0.0
 11
77.1688272371
 21
139.6121226742
 31
0.0
  0
LINE
  5
108
330
1F
100
AcDbEntity
  8
0
  6
Continuous
 62
     7
370
     0
100
AcDbLine
 10
77.1688272371
 20
146.6121228903
 30
0.0
 11
80.1688272632
 21
146.6121228903
 31
0.0
  0
LINE
  5
109
330
1F
100
AcDbEntity
  8
0
  6
Continuous
 62
     7
370
     0
100
AcDbLine
 10
68.1388273961
 20
139.6121226742
 30
0.0
 11
71.1388269565
 21
139.6121226742
 31
0.0
  0
LINE
  5
10A
330
1F
100
AcDbEntity
  8
0
  6
Continuous
 62
     7
370
     0
100
AcDbLine
 10
68.1388273961
 20
146.6121228903
 30
0.0
 11
71.1388269565
 21
146.6121228903
 31
0.0
  0
LINE
  5
10B
330
1F
100
AcDbEntity
  8
0
  6
Continuous
 62
     7
370
     0
100
AcDbLine
 10
68.1388273961
 20
146.6121228903
 30
0.0
 11
68.1388273961
 21
139.6121226742
 31
0.0
  0
LINE
  5
10C
330
1F
100
AcDbEntity
  8
0
  6
Continuous
 62
     7
370
     0
100
AcDbLine
 10
71.1388269565
 20
146.6121228903
 30
0.0
 11
71.1388269565
 21
139.6121226742
 31
0.0
  0
LINE
  5
10D
330
1F
100
AcDbEntity
  8
0
  6
Continuous
 62
     7
370
     0
100
AcDbLine
 10
66.1378268279
 20
139.6121226742
 30
0.0
 11
68.1378271557
 21
139.6121226742
 31
0.0
  0
LINE
  5
10E
330
1F
100
AcDbEntity
  8
0
  6
Continuous
 62
     7
370
     0
100
AcDbLine
 10
66.1378268279
 20
146.6121228903
 30
0.0
 11
66.1378268279
 21
139.6121226742
 31
0.0
  0
LINE
  5
10F
330
1F
100
AcDbEntity
  8
0
  6
Continuous
 62
     7
370
     0
100
AcDbLine
 10
66.1378268279
 20
146.6121228903
 30
0.0
 11
68.1378271557
 21
146.6121228903
 31
0.0
  0
LINE
  5
110
330
1F
100
AcDbEntity
  8
0
  6
Continuous
 62
     7
370
     0
100
AcDbLine
 10
68.1378271557
 20
146.6121228903
 30
0.0
 11
68.1378271557
 21
139.6121226742
 31
0.0
  0
LINE
  5
111
330
1F
100
AcDbEntity
  8
0
  6
Continuous
 62
     7
370
     0
100
AcDbLine
 10
78.1188272532
 20
139.5261227178
 30
0.0
 11
79.2188272472
 21
139.5261227178
 31
0.0
  0
SPLINE
  5
112
330
1F
100
AcDbEntity
  8
0
  6
Continuous
 62
     7
370
     0
100
AcDbSpline
210
0.0
220
0.0
230
1.0
 70
     8
 71
     3
 72
    27
 73
    23
 74
     0
 42
0.000000001
 43
0.00000001
 40
0.0
 40
0.0
 40
0.0
 40
0.0
 40
0.0169854824945473
 40
0.0720619902730639
 40
0.1257224017220973
 40
0.1809515502595932
 40
0.2343745775086132
 40
0.2893738669511129
 40
0.3423226351846284
 40
0.3968339412531016
 40
0.4493207238088658
 40
0.5033440450999989
 40
0.555594455841362
 40
0.6093572679994308
 40
0.6616733376674743
 40
0.7154898622118941
 40
0.7681131435608364
 40
0.8222395780744756
 40
0.8752692406409819
 40
0.9298171027408875
 40
0.9831928329354622
 40
1.0
 40
1.0
 40
1.0
 40
1.0
 10
78.25809979209573
 20
139.4861170581553
 30
0.0
 10
78.25770156361533
 20
139.4861020828344
 30
0.0
 10
78.25601205394791
 20
139.4860385490828
 30
0.0
 10
78.2666720513365
 20
139.4864391815689
 30
0.0
 10
78.29022418846526
 20
139.4873176369087
 30
0.0
 10
78.32697627818918
 20
139.4886754959142
 30
0.0
 10
78.37531139870201
 20
139.4904336792326
 30
0.0
 10
78.43311357956787
 20
139.4924984875328
 30
0.0
 10
78.4996961342103
 20
139.4948259730757
 30
0.0
 10
78.57169457664826
 20
139.4972839592934
 30
0.0
 10
78.64849067021964
 20
139.4998406726574
 30
0.0
 10
78.72634488256331
 20
139.5023662179995
 30
0.0
 10
78.80466141078522
 20
139.5048418572948
 30
0.0
 10
78.87984640165938
 20
139.507159511337
 30
0.0
 10
78.951258111943
 20
139.5093093493244
 30
0.0
 10
79.0157443452991
 20
139.5112081030504
 30
0.0
 10
79.07263326295316
 20
139.5128516432682
 30
0.0
 10
79.1193292802218
 20
139.5141786801377
 30
0.0
 10
79.15553095681568
 20
139.5151941326073
 30
0.0
 10
79.17832512818343
 20
139.5158276423745
 30
0.0
 10
79.18877749835673
 20
139.5161165449735
 30
0.0
 10
79.18702051690013
 20
139.5160679276714
 30
0.0
 10
79.1865997608182
 20
139.5160562849614
 30
0.0
  0
LINE
  5
113
330
1F
100
AcDbEntity
  8
0
  6
Continuous
 62
     7
370
     0
100
AcDbLine
 10
72.0988268159
 20
139.5261227178
 30
0.0
 11
73.1988272756
 21
139.5261227178
 31
0.0
  0
LINE
  5
114
330
1F
100
AcDbEntity
  8
0
  6
Continuous
 62
     7
370
     0
100
AcDbLine
 10
78.1188272532
 20
139.6111226666
 30
0.0
 11
79.2188272472
 21
139.6111226666
 31
0.0
  0
LINE
  5
115
330
1F
100
AcDbEntity
  8
0
  6
Continuous
 62
     7
370
     0
100
AcDbLine
 10
72.0988268159
 20
139.6111226666
 30
0.0
 11
73.1988272756
 21
139.6111226666
 31
0.0
  0
LINE
  5
116
330
1F
100
AcDbEntity
  8
0
  6
Continuous
 62
     7
370
     0
100
AcDbLine
 10
66.5878269947
 20
139.5261227178
 30
0.0
 11
67.6878269888
 21
139.5261227178
 31
0.0
  0
LINE
  5
117
330
1F
100
AcDbEntity
  8
0
  6
Continuous
 62
     7
370
     0
100
AcDbLine
 10
66.5878269947
 20
139.6111226666
 30
0.0
 11
67.6878269888
 21
139.6111226666
 31
0.0
  0
LWPOLYLINE
  5
118
330
1F
100
AcDbEntity
  8
0
  6
Continuous
 62
     7
370
     0
100
AcDbPolyline
 90
       14
 70
   128
 43
0.0
 10
83.3790270272
 20
135.7862988978
 10
83.3827446341
 20
135.7937476157
 10
83.3990024994
 20
135.8263220198
 10
83.427193401
 20
135.8828053369
 10
83.4655454974
 20
135.9596482969
 10
83.5116494573
 20
136.0520229234
 10
83.562608169
 20
136.154124283
 10
83.6152197454
 20
136.2595378912
 10
83.666178457
 20
136.3616397164
 10
83.7122821841
 20
136.4540138773
 10
83.7506345134
 20
136.5308568372
 10
83.778825182
 20
136.5873401544
 10
83.7950830474
 20
136.6199150241
 10
83.7988006543
 20
136.6273637421
  0
LWPOLYLINE
  5
119
330
1F
100
AcDbEntity
  8
0
  6
Continuous
 62
     7
370
     0
100
AcDbPolyline
 90
       14
 70
   128
 43
0.0
 10
143.3867428578
 20
135.7825354232
 10
143.3903265871
 20
135.7900507308
 10
143.4059877075
 20
135.8229166388
 10
143.4331376232
 20
135.8799051984
 10
143.4700776018
 20
135.9574364058
 10
143.5144905127
 20
136.0506375811
 10
143.5635749377
 20
136.1536525681
 10
143.6142537869
 20
136.2600096061
 10
143.6633382119
 20
136.3630250587
 10
143.7077436722
 20
136.456226234
 10
143.7446911014
 20
136.5337569757
 10
143.7718410171
 20
136.5907455354
 10
143.7875021375
 20
136.6236119091
 10
143.7910858668
 20
136.6311272166
  0
LINE
  5
11A
330
1F
100
AcDbEntity
  8
0
  6
Continuous
 62
     7
370
     0
100
AcDbLine
 10
78.1988273966
 20
139.6120227898
 30
0.0
 11
79.1388272201
 21
139.6120227898
 31
0.0
  0
ARC
  5
11B
330
1F
100
AcDbEntity
  8
0
  6
Continuous
 62
     7
370
     0
100
AcDbCircle
 10
81.6698272632
 20
139.6121227822
 30
0.0
 40
0.0899999999999945
100
AcDbArc
 50
359.3633671277
 51
0.0
  0
SPLINE
  5
11C
330
1F
100
AcDbEntity
  8
0
  6
Continuous
 62
     7
370
     0
100
AcDbSpline
210
0.0
220
0.0
230
1.0
 70
     8
 71
     3
 72
    17
 73
    13
 74
     0
 42
0.000000001
 43
0.00000001
 40
0.0000000000000294
 40
0.0000000000000294
 40
0.0000000000000294
 40
0.0000000000000294
 40
0.0000249091250881
 40
0.0000249091250881
 40
0.0000249091250881
 40
0.000049647094448
 40
0.000049647094448
 40
0.000049647094448
 40
0.0000776809553864
 40
0.0000776809553864
 40
0.0000776809553864
 40
0.0001063965838135
 40
0.0001063965838135
 40
0.0001063965838135
 40
0.0001063965838135
 10
81.39757835293823
 20
139.5261227822209
 30
0.0
 10
81.40435863625484
 20
139.5289597271879
 30
0.0
 10
81.41084420531178
 20
139.5332990765586
 30
0.0
 10
81.41651516910319
 20
139.538602112974
 30
0.0
 10
81.42216260460614
 20
139.5438831475966
 30
0.0
 10
81.4271569793715
 20
139.5502376878028
 30
0.0
 10
81.43125308574787
 20
139.5571444204271
 30
0.0
 10
81.43589138887057
 20
139.564965389063
 30
0.0
 10
81.43949104679896
 20
139.5736714496855
 30
0.0
 10
81.44191304500654
 20
139.5826483846172
 30
0.0
 10
81.44439535051885
 20
139.5918488435584
 30
0.0
 10
81.44569748169911
 20
139.6015269800789
 30
0.0
 10
81.44578085735866
 20
139.6111227822276
 30
0.0
  0
SPLINE
  5
11D
330
1F
100
AcDbEntity
  8
0
  6
Continuous
 62
     7
370
     0
100
AcDbSpline
210
0.0
220
0.0
230
1.0
 70
     8
 71
     3
 72
    10
 73
     6
 74
     0
 42
0.000000001
 43
0.00000001
 40
0.0
 40
0.0
 40
0.0
 40
0.0
 40
0.5215570487018787
 40
0.8250626153253869
 40
1.0
 40
1.0
 40
1.0
 40
1.0
 10
81.39757829582216
 20
139.5261227178398
 30
0.0
 10
81.39638761868446
 20
139.5250780390495
 30
0.0
 10
81.39450406022102
 20
139.5234254385966
 30
0.0
 10
81.38942161243355
 20
139.5221911887582
 30
0.0
 10
81.3857819793755
 20
139.5222303659363
 30
0.0
 10
81.38445118771763
 20
139.5222446906391
 30
0.0
  0
SPLINE
  5
11E
330
1F
100
AcDbEntity
  8
0
  6
Continuous
 62
     7
370
     0
100
AcDbSpline
210
0.0
220
0.0
230
1.0
 70
     8
 71
     3
 72
    17
 73
    13
 74
     0
 42
0.000000001
 43
0.00000001
 40
0.0
 40
0.0
 40
0.0
 40
0.0
 40
0.0000249091250945
 40
0.0000249091250945
 40
0.0000249091250945
 40
0.0000496470944607
 40
0.0000496470944607
 40
0.0000496470944607
 40
0.0000776809554077
 40
0.0000776809554077
 40
0.0000776809554077
 40
0.0001063965837809
 40
0.0001063965837809
 40
0.0001063965837809
 40
0.0001063965837809
 10
75.38593491524959
 20
139.5261227822272
 30
0.0
 10
75.39270998972476
 20
139.5289597271993
 30
0.0
 10
75.39919084314828
 20
139.5332990765808
 30
0.0
 10
75.40485783842699
 20
139.538602113001
 30
0.0
 10
75.41050132188195
 20
139.5438831476281
 30
0.0
 10
75.41549236950678
 20
139.5502376878386
 30
0.0
 10
75.41958581609404
 20
139.5571444204667
 30
0.0
 10
75.42422110735478
 20
139.5649653891073
 30
0.0
 10
75.42781853101852
 20
139.5736714497342
 30
0.0
 10
75.43023904164647
 20
139.5826483846697
 30
0.0
 10
75.43271982253336
 20
139.591848843595
 30
0.0
 10
75.43402117712166
 20
139.601526980097
 30
0.0
 10
75.43410450261445
 20
139.6111227822276
 30
0.0
  0
SPLINE
  5
11F
330
1F
100
AcDbEntity
  8
0
  6
Continuous
 62
     7
370
     0
100
AcDbSpline
210
0.0
220
0.0
230
1.0
 70
     8
 71
     3
 72
    10
 73
     6
 74
     0
 42
0.000000001
 43
0.00000001
 40
0.0
 40
0.0
 40
0.0
 40
0.0
 40
0.5215633806982243
 40
0.8250658590011839
 40
0.9999999999999999
 40
0.9999999999999999
 40
0.9999999999999999
 40
0.9999999999999999
 10
75.38593496525557
 20
139.5261227178398
 30
0.0
 10
75.3847499684372
 20
139.5250780438493
 30
0.0
 10
75.38287541118483
 20
139.5234254645556
 30
0.0
 10
75.37780309842393
 20
139.5221911889197
 30
0.0
 10
75.37416651434232
 20
139.5222303660352
 30
0.0
 10
75.37283684456618
 20
139.5222446906391
 30
0.0
  0
ARC
  5
120
330
1F
100
AcDbEntity
  8
0
  6
Continuous
 62
     7
370
     0
100
AcDbCircle
 10
67.2272693434
 20
139.612623815
 30
0.0
 40
0.179166669358217
100
AcDbArc
 50
180.1602602296
 51
180.4800584649
  0
ARC
  5
121
330
1F
100
AcDbEntity
  8
0
  6
Continuous
 62
     7
370
     0
100
AcDbCircle
 10
67.2018281951
 20
139.6116226704
 30
0.0
 40
0.0257272727467683
100
AcDbArc
 50
358.8863991946
 51
1.1136008054
  0
SPLINE
  5
122
330
1F
100
AcDbEntity
  8
0
  6
Continuous
 62
     7
370
     0
100
AcDbSpline
210
0.0
220
0.0
230
1.0
 70
     8
 71
     3
 72
    17
 73
    13
 74
     0
 42
0.000000001
 43
0.00000001
 40
0.0
 40
0.0
 40
0.0
 40
0.0
 40
0.0000249091250945
 40
0.0000249091250945
 40
0.0000249091250945
 40
0.0000496470944607
 40
0.0000496470944607
 40
0.0000496470944607
 40
0.0000776809554077
 40
0.0000776809554077
 40
0.0000776809554077
 40
0.0001063965837808
 40
0.0001063965837808
 40
0.0001063965837808
 40
0.0001063965837808
 10
69.40484805218819
 20
139.5261227822272
 30
0.0
 10
69.41191006339052
 20
139.5289597271992
 30
0.0
 10
69.41864959886568
 20
139.5332990765808
 30
0.0
 10
69.42453362656528
 20
139.538602113001
 30
0.0
 10
69.43039324199432
 20
139.5438831476281
 30
0.0
 10
69.4355654963992
 20
139.5502376878386
 30
0.0
 10
69.43980348016493
 20
139.5571444204667
 30
0.0
 10
69.44460244081915
 20
139.5649653891073
 30
0.0
 10
69.44832078142088
 20
139.5736714497342
 30
0.0
 10
69.45082171960377
 20
139.5826483846697
 30
0.0
 10
69.45338493067652
 20
139.591848843595
 30
0.0
 10
69.45472815445444
 20
139.601526980097
 30
0.0
 10
69.45481418696139
 20
139.6111227822276
 30
0.0
  0
SPLINE
  5
123
330
1F
100
AcDbEntity
  8
0
  6
Continuous
 62
     7
370
     0
100
AcDbSpline
210
0.0
220
0.0
230
1.0
 70
     8
 71
     3
 72
    23
 73
    19
 74
     0
 42
0.000000001
 43
0.00000001
 40
0.0000000000000021
 40
0.0000000000000021
 40
0.0000000000000021
 40
0.0000000000000021
 40
0.0000136991388042
 40
0.0000136991388042
 40
0.0000136991388042
 40
0.0000216340656101
 40
0.0000216340656101
 40
0.0000216340656101
 40
0.0000296647624066
 40
0.0000296647624066
 40
0.0000296647624066
 40
0.0000367560774241
 40
0.0000367560774241
 40
0.0000367560774241
 40
0.0000484502327164
 40
0.0000484502327164
 40
0.0000484502327164
 40
0.00005241736476
 40
0.00005241736476
 40
0.00005241736476
 40
0.00005241736476
 10
69.40484805219072
 20
139.5261227822277
 30
0.0
 10
69.40360521302124
 20
139.5250071743308
 30
0.0
 10
69.40188723781588
 20
139.5239845764165
 30
0.0
 10
69.39937857582618
 20
139.5232421393976
 30
0.0
 10
69.39791873533787
 20
139.5228101004761
 30
0.0
 10
69.39615154188807
 20
139.5224703778412
 30
0.0
 10
69.394099260188
 20
139.5222858644416
 30
0.0
 10
69.39203179645911
 20
139.5220999860795
 30
0.0
 10
69.38960946289652
 20
139.522073645054
 30
0.0
 10
69.387077068439
 20
139.5222140429043
 30
0.0
 10
69.38482643078719
 20
139.5223388199456
 30
0.0
 10
69.38244310994126
 20
139.5225930239799
 30
0.0
 10
69.38009093371203
 20
139.5229333495585
 30
0.0
 10
69.37623028094497
 20
139.5234919296813
 30
0.0
 10
69.37235364033705
 20
139.5242878438069
 30
0.0
 10
69.36867554732137
 20
139.525175596282
 30
0.0
 10
69.36741650796363
 20
139.525479480741
 30
0.0
 10
69.36617221049839
 20
139.5257962263692
 30
0.0
 10
69.3649441727058
 20
139.5261227822212
 30
0.0
  0
SPLINE
  5
124
330
1F
100
AcDbEntity
  8
0
  6
Continuous
 62
     7
370
     0
100
AcDbSpline
210
0.0
220
0.0
230
1.0
 70
     8
 71
     3
 72
    17
 73
    13
 74
     0
 42
0.000000001
 43
0.00000001
 40
0.0
 40
0.0
 40
0.0
 40
0.0
 40
0.0000327613862941
 40
0.0000327613862941
 40
0.0000327613862941
 40
0.0000676569624332
 40
0.0000676569624332
 40
0.0000676569624332
 40
0.0000935083918259
 40
0.0000935083918259
 40
0.0000935083918259
 40
0.0001064525923537
 40
0.0001064525923537
 40
0.0001064525923537
 40
0.0001064525923537
 10
69.31946847830184
 20
139.6111227822277
 30
0.0
 10
69.31955306186096
 20
139.6002028143267
 30
0.0
 10
69.32104393229545
 20
139.5891571759007
 30
0.0
 10
69.32393041401998
 20
139.5788197839657
 30
0.0
 10
69.32699279018395
 20
139.5678524591458
 30
0.0
 10
69.33174567014875
 20
139.5573361429236
 30
0.0
 10
69.33803289839575
 20
139.5485136728814
 30
0.0
 10
69.34271766288569
 20
139.5419398389528
 30
0.0
 10
69.34838344415543
 20
139.5361392164484
 30
0.0
 10
69.35474267546616
 20
139.531737701422
 30
0.0
 10
69.35795970127596
 20
139.5295110506288
 30
0.0
 10
69.3613848318906
 20
139.52761496796
 30
0.0
 10
69.3649441727393
 20
139.526122782203
 30
0.0
  0
LINE
  5
125
330
1F
100
AcDbEntity
  8
0
  6
Continuous
 62
     7
370
     0
100
AcDbLine
 10
69.4048477463
 20
139.5261227178
 30
0.0
 11
69.9117200575
 21
139.5261227178
 31
0.0
  0
LINE
  5
126
330
1F
100
AcDbEntity
  8
0
  6
Continuous
 62
     7
370
     0
100
AcDbLine
 10
69.4548141337
 20
139.6111226666
 30
0.0
 11
69.8635501913
 21
139.6111226666
 31
0.0
  0
LINE
  5
127
330
1F
100
AcDbEntity
  8
0
  6
Continuous
 62
     7
370
     0
100
AcDbLine
 10
81.3975782958
 20
139.5261227178
 30
0.0
 11
82.2198272809
 21
139.5261227178
 31
0.0
  0
LINE
  5
128
330
1F
100
AcDbEntity
  8
0
  6
Continuous
 62
     7
370
     0
100
AcDbLine
 10
81.4457808747
 20
139.6111226666
 30
0.0
 11
82.2198272809
 21
139.6111226666
 31
0.0
  0
LINE
  5
129
330
1F
100
AcDbEntity
  8
0
  6
Continuous
 62
     7
370
     0
100
AcDbLine
 10
75.3859349653
 20
139.5261227178
 30
0.0
 11
75.9317197963
 21
139.5261227178
 31
0.0
  0
LINE
  5
12A
330
1F
100
AcDbEntity
  8
0
  6
Continuous
 62
     7
370
     0
100
AcDbLine
 10
75.4341043658
 20
139.6111226666
 30
0.0
 11
75.8835499301
 21
139.6111226666
 31
0.0
  0
LINE
  5
12B
330
1F
100
AcDbEntity
  8
0
  6
Continuous
 62
     7
370
     0
100
AcDbLine
 10
69.9928466357
 20
139.6111226666
 30
0.0
 11
70.188827639
 21
139.6111226666
 31
0.0
  0
LINE
  5
12C
330
1F
100
AcDbEntity
  8
0
  6
Continuous
 62
     7
370
     0
100
AcDbLine
 10
69.088827645
 20
139.6111226666
 30
0.0
 11
69.3194687493
 21
139.6111226666
 31
0.0
  0
LINE
  5
12D
330
1F
100
AcDbEntity
  8
0
  6
Continuous
 62
     7
370
     0
100
AcDbLine
 10
76.0128468401
 20
139.6111226666
 30
0.0
 11
76.2088273778
 21
139.6111226666
 31
0.0
  0
LINE
  5
12E
330
1F
100
AcDbEntity
  8
0
  6
Continuous
 62
     7
370
     0
100
AcDbLine
 10
65.7368272669
 20
139.6121226742
 30
0.0
 11
66.1368275187
 21
139.6121226742
 31
0.0
  0
LINE
  5
12F
330
1F
100
AcDbEntity
  8
0
  6
Continuous
 62
     7
370
     0
100
AcDbLine
 10
65.7368272669
 20
139.6121226742
 30
0.0
 11
65.7368272669
 21
146.6121228903
 31
0.0
  0
LINE
  5
130
330
1F
100
AcDbEntity
  8
0
  6
Continuous
 62
     7
370
     0
100
AcDbLine
 10
65.7368272669
 20
146.6121228903
 30
0.0
 11
66.1368275187
 21
146.6121228903
 31
0.0
  0
LINE
  5
131
330
1F
100
AcDbEntity
  8
0
  6
Continuous
 62
     7
370
     0
100
AcDbLine
 10
66.1368275187
 20
139.6121226742
 30
0.0
 11
66.1368275187
 21
146.6121228903
 31
0.0
  0
LINE
  5
132
330
1F
100
AcDbEntity
  8
0
  6
Continuous
 62
     7
370
     0
100
AcDbLine
 10
83.7708272166
 20
146.6121228903
 30
0.0
 11
83.1708273045
 21
146.6121228903
 31
0.0
  0
LINE
  5
133
330
1F
100
AcDbEntity
  8
0
  6
Continuous
 62
     7
370
     0
100
AcDbLine
 10
83.7708272166
 20
146.6121228903
 30
0.0
 11
83.7708272166
 21
139.6121226742
 31
0.0
  0
LINE
  5
134
330
1F
100
AcDbEntity
  8
0
  6
Continuous
 62
     7
370
     0
100
AcDbLine
 10
83.7708272166
 20
139.6121226742
 30
0.0
 11
83.1708273045
 21
139.6121226742
 31
0.0
  0
LINE
  5
135
330
1F
100
AcDbEntity
  8
0
  6
Continuous
 62
     7
370
     0
100
AcDbLine
 10
83.1708273045
 20
146.6121228903
 30
0.0
 11
83.1708273045
 21
139.6121226742
 31
0.0
  0
LINE
  5
136
330
1F
100
AcDbEntity
  8
0
  6
Continuous
 62
     7
370
     0
100
AcDbLine
 10
72.0988268159
 20
146.6981228466
 30
0.0
 11
73.1988272756
 21
146.6981228466
 31
0.0
  0
LINE
  5
137
330
1F
100
AcDbEntity
  8
0
  6
Continuous
 62
     7
370
     0
100
AcDbLine
 10
66.5878269947
 20
146.6131228979
 30
0.0
 11
67.6878269888
 21
146.6131228979
 31
0.0
  0
LINE
  5
138
330
1F
100
AcDbEntity
  8
0
  6
Continuous
 62
     7
370
     0
100
AcDbLine
 10
66.5878269947
 20
146.6981228466
 30
0.0
 11
67.6878269888
 21
146.6981228466
 31
0.0
  0
LINE
  5
139
330
1F
100
AcDbEntity
  8
0
  6
Continuous
 62
     7
370
     0
100
AcDbLine
 10
78.1188272532
 20
146.6131228979
 30
0.0
 11
79.2188272472
 21
146.6131228979
 31
0.0
  0
LINE
  5
13A
330
1F
100
AcDbEntity
  8
0
  6
Continuous
 62
     7
370
     0
100
AcDbLine
 10
78.1188272532
 20
146.6981228466
 30
0.0
 11
79.2188272472
 21
146.6981228466
 31
0.0
  0
LINE
  5
13B
330
1F
100
AcDbEntity
  8
0
  6
Continuous
 62
     7
370
     0
100
AcDbLine
 10
72.0988268159
 20
146.6131228979
 30
0.0
 11
73.1988272756
 21
146.6131228979
 31
0.0
  0
SPLINE
  5
13C
330
1F
100
AcDbEntity
  8
0
  6
Continuous
 62
     7
370
     0
100
AcDbSpline
210
0.0
220
0.0
230
1.0
 70
     8
 71
     3
 72
    27
 73
    23
 74
     0
 42
0.000000001
 43
0.00000001
 40
0.0
 40
0.0
 40
0.0
 40
0.0
 40
0.0169339176049194
 40
0.0720139721576588
 40
0.1256778391882422
 40
0.1809105443296021
 40
0.2343370118732885
 40
0.2893398431173645
 40
0.3422920211045823
 40
0.3968068375498571
 40
0.4492970001087282
 40
0.5033238003517977
 40
0.5555775758745789
 40
0.6093438502085191
 40
0.6616632888862334
 40
0.7154832790654532
 40
0.7681099492076456
 40
0.8222398693134266
 40
0.8752729468430056
 40
0.9298243216738197
 40
0.9832034891172617
 40
0.9999999999999999
 40
0.9999999999999999
 40
0.9999999999999999
 40
0.9999999999999999
 10
78.2580974637893
 20
146.7381287391308
 30
0.0
 10
78.25770078707936
 20
146.7381436013353
 30
0.0
 10
78.25601386109973
 20
146.7382068050433
 30
0.0
 10
78.26667302939718
 20
146.7378063985413
 30
0.0
 10
78.29022392055562
 20
146.7369279232585
 30
0.0
 10
78.32697634814656
 20
146.735570069661
 30
0.0
 10
78.37531137958989
 20
146.7338118849169
 30
0.0
 10
78.43311358453272
 20
146.7317470770021
 30
0.0
 10
78.49969613285677
 20
146.729419591358
 30
0.0
 10
78.57169457699953
 20
146.7269616051676
 30
0.0
 10
78.64849067012531
 20
146.7244048917964
 30
0.0
 10
78.72634488258251
 20
146.7218793464566
 30
0.0
 10
78.80466141079955
 20
146.7194037071594
 30
0.0
 10
78.87984640158047
 20
146.7170860531229
 30
0.0
 10
78.95125811223795
 20
146.714936215115
 30
0.0
 10
79.0157443441711
 20
146.7130374614662
 30
0.0
 10
79.07263326710547
 20
146.7113939209618
 30
0.0
 10
79.11932926435766
 20
146.7100668851789
 30
0.0
 10
79.15553101533528
 20
146.7090514286715
 30
0.0
 10
79.17832490472432
 20
146.708417934211
 30
0.0
 10
79.1887770929317
 20
146.7081290152829
 30
0.0
 10
79.18702072791692
 20
146.7081776409635
 30
0.0
 10
79.1866003428948
 20
146.708189279494
 30
0.0
  0
LWPOLYLINE
  5
13D
330
1F
100
AcDbEntity
  8
0
  6
Continuous
 62
     7
370
     0
100
AcDbPolyline
 90
       14
 70
   128
 43
0.0
 10
83.3790270272
 20
150.4379466667
 10
83.3827446341
 20
150.4304979487
 10
83.3990024994
 20
150.3979235447
 10
83.427193401
 20
150.3414402275
 10
83.4655454974
 20
150.2645972676
 10
83.5116494573
 20
150.172222641
 10
83.562608169
 20
150.0701212815
 10
83.6152197454
 20
149.9647076732
 10
83.666178457
 20
149.8626058481
 10
83.7122821841
 20
149.7702316872
 10
83.7506345134
 20
149.6933887272
 10
83.778825182
 20
149.63690541
 10
83.7950830474
 20
149.6043305404
 10
83.7988006543
 20
149.5968818224
  0
LWPOLYLINE
  5
13E
330
1F
100
AcDbEntity
  8
0
  6
Continuous
 62
     7
370
     0
100
AcDbPolyline
 90
       14
 70
   128
 43
0.0
 10
143.3867428578
 20
150.4417101412
 10
143.3903265871
 20
150.4341948337
 10
143.4059877075
 20
150.4013289257
 10
143.4331376232
 20
150.344340366
 10
143.4700776018
 20
150.2668091587
 10
143.5144905127
 20
150.1736079833
 10
143.5635749377
 20
150.0705929964
 10
143.6142537869
 20
149.9642359584
 10
143.6633382119
 20
149.8612205057
 10
143.7077436722
 20
149.7680193304
 10
143.7446911014
 20
149.6904885887
 10
143.7718410171
 20
149.6335000291
 10
143.7875021375
 20
149.6006336554
 10
143.7910858668
 20
149.5931183479
  0
LINE
  5
13F
330
1F
100
AcDbEntity
  8
0
  6
Continuous
 62
     7
370
     0
100
AcDbLine
 10
78.1988273966
 20
146.6122227746
 30
0.0
 11
79.1387553919
 21
146.6122227746
 31
0.0
  0
SPLINE
  5
140
330
1F
100
AcDbEntity
  8
0
  6
Continuous
 62
     7
370
     0
100
AcDbSpline
210
0.0
220
0.0
230
1.0
 70
     8
 71
     3
 72
    17
 73
    13
 74
     0
 42
0.000000001
 43
0.00000001
 40
0.0
 40
0.0
 40
0.0
 40
0.0
 40
0.0000327613862941
 40
0.0000327613862941
 40
0.0000327613862941
 40
0.0000676569624332
 40
0.0000676569624332
 40
0.0000676569624332
 40
0.0000935083918259
 40
0.0000935083918259
 40
0.0000935083918259
 40
0.000106452592316
 40
0.000106452592316
 40
0.000106452592316
 40
0.000106452592316
 10
75.88355002380334
 20
146.6131227822277
 30
0.0
 10
75.88364484773719
 20
146.6240427501287
 30
0.0
 10
75.88532452621789
 20
146.6350883885547
 30
0.0
 10
75.88852343014766
 20
146.6454257804897
 30
0.0
 10
75.89191726668646
 20
146.6563931053096
 30
0.0
 10
75.89715200772527
 20
146.6669094215318
 30
0.0
 10
75.90387527548279
 20
146.675731891574
 30
0.0
 10
75.90888494346513
 20
146.6823057255026
 30
0.0
 10
75.91485346648274
 20
146.688106348007
 30
0.0
 10
75.92137925582712
 20
146.6925078630334
 30
0.0
 10
75.92468054046508
 20
146.6947345138144
 30
0.0
 10
75.92815603495723
 20
146.6966305964746
 30
0.0
 10
75.93171961116585
 20
146.6981227822277
 30
0.0
  0
SPLINE
  5
141
330
1F
100
AcDbEntity
  8
0
  6
Continuous
 62
     7
370
     0
100
AcDbSpline
210
0.0
220
0.0
230
1.0
 70
     8
 71
     3
 72
    11
 73
     7
 74
     0
 42
0.000000001
 43
0.00000001
 40
0.0
 40
0.0
 40
0.0
 40
0.0
 40
0.1306654403507154
 40
0.4020645091396141
 40
0.8475205349719699
 40
1.0
 40
1.0
 40
1.0
 40
1.0
 10
75.94481605434687
 20
146.7020008738163
 30
0.0
 10
75.94379600413792
 20
146.7020299610728
 30
0.0
 10
75.94065725539568
 20
146.7021194641079
 30
0.0
 10
75.93608216096143
 20
146.7011799217717
 30
0.0
 10
75.93313118772087
 20
146.6997024970345
 30
0.0
 10
75.93200658190932
 20
146.6984438213629
 30
0.0
 10
75.93171979630263
 20
146.6981228466156
 30
0.0
  0
SPLINE
  5
142
330
1F
100
AcDbEntity
  8
0
  6
Continuous
 62
     7
370
     0
100
AcDbSpline
210
0.0
220
0.0
230
1.0
 70
     8
 71
     3
 72
    17
 73
    13
 74
     0
 42
0.000000001
 43
0.00000001
 40
0.0
 40
0.0
 40
0.0
 40
0.0
 40
0.0000327613862941
 40
0.0000327613862941
 40
0.0000327613862941
 40
0.0000676569624332
 40
0.0000676569624332
 40
0.0000676569624332
 40
0.0000935083918259
 40
0.0000935083918259
 40
0.0000935083918259
 40
0.0001064525923902
 40
0.0001064525923902
 40
0.0001064525923902
 40
0.0001064525923902
 10
69.86355002380334
 20
146.6131227822277
 30
0.0
 10
69.86364484773719
 20
146.6240427501287
 30
0.0
 10
69.86532452621788
 20
146.6350883885547
 30
0.0
 10
69.86852343014766
 20
146.6454257804897
 30
0.0
 10
69.87191726668645
 20
146.6563931053096
 30
0.0
 10
69.87715200772527
 20
146.6669094215318
 30
0.0
 10
69.8838752754828
 20
146.675731891574
 30
0.0
 10
69.88888494346513
 20
146.6823057255026
 30
0.0
 10
69.89485346648273
 20
146.688106348007
 30
0.0
 10
69.90137925582712
 20
146.6925078630334
 30
0.0
 10
69.90468054048384
 20
146.694734513827
 30
0.0
 10
69.90815603499686
 20
146.6966305964962
 30
0.0
 10
69.91171961122691
 20
146.6981227822533
 30
0.0
  0
SPLINE
  5
143
330
1F
100
AcDbEntity
  8
0
  6
Continuous
 62
     7
370
     0
100
AcDbSpline
210
0.0
220
0.0
230
1.0
 70
     8
 71
     3
 72
    23
 73
    19
 74
     0
 42
0.000000001
 43
0.00000001
 40
0.0
 40
0.0
 40
0.0
 40
0.0
 40
0.0000136991388042
 40
0.0000136991388042
 40
0.0000136991388042
 40
0.0000216340656101
 40
0.0000216340656101
 40
0.0000216340656101
 40
0.0000296647624066
 40
0.0000296647624066
 40
0.0000296647624066
 40
0.0000367560774241
 40
0.0000367560774241
 40
0.0000367560774241
 40
0.0000484502327164
 40
0.0000484502327164
 40
0.0000484502327164
 40
0.0000524173647333
 40
0.0000524173647333
 40
0.0000524173647333
 40
0.0000524173647333
 10
69.94984011976956
 20
146.6981227822277
 30
0.0
 10
69.94554527290249
 20
146.6992383901246
 30
0.0
 10
69.94102521301456
 20
146.7002609880389
 30
0.0
 10
69.93652774120119
 20
146.7010034250579
 30
0.0
 10
69.933910572577
 20
146.7014354639793
 30
0.0
 10
69.93125659263103
 20
146.7017751866142
 30
0.0
 10
69.92877110578097
 20
146.7019597000138
 30
0.0
 10
69.92626723220893
 20
146.7021455783759
 30
0.0
 10
69.9238780165623
 20
146.7021719194014
 30
0.0
 10
69.92185838010421
 20
146.7020315215512
 30
0.0
 10
69.92006345047069
 20
146.7019067445098
 30
0.0
 10
69.91850989592064
 20
146.7016525404755
 30
0.0
 10
69.91722754120248
 20
146.7013122148969
 30
0.0
 10
69.91512279827147
 20
146.7007536347742
 30
0.0
 10
69.9136671865548
 20
146.6999577206485
 30
0.0
 10
69.91263904749717
 20
146.6990699681734
 30
0.0
 10
69.91228710763777
 20
146.6987660837144
 30
0.0
 10
69.91198313683688
 20
146.6984493380862
 30
0.0
 10
69.91171961117026
 20
146.6981227822342
 30
0.0
  0
SPLINE
  5
144
330
1F
100
AcDbEntity
  8
0
  6
Continuous
 62
     7
370
     0
100
AcDbSpline
210
0.0
220
0.0
230
1.0
 70
     8
 71
     3
 72
    17
 73
    13
 74
     0
 42
0.000000001
 43
0.00000001
 40
0.0000000000000026
 40
0.0000000000000026
 40
0.0000000000000026
 40
0.0000000000000026
 40
0.0000249091250946
 40
0.0000249091250946
 40
0.0000249091250946
 40
0.0000496470944607
 40
0.0000496470944607
 40
0.0000496470944607
 40
0.0000776809554077
 40
0.0000776809554077
 40
0.0000776809554077
 40
0.0001063965837808
 40
0.0001063965837808
 40
0.0001063965837808
 40
0.0001063965837808
 10
69.94984011976729
 20
146.6981227822282
 30
0.0
 10
69.95627603610089
 20
146.6952858372562
 30
0.0
 10
69.96225401224868
 20
146.6909464878746
 30
0.0
 10
69.96737773401863
 20
146.6856434514544
 30
0.0
 10
69.97248019795488
 20
146.6803624168273
 30
0.0
 10
69.97688048260262
 20
146.6740078766168
 30
0.0
 10
69.98044330129316
 20
146.6671011439887
 30
0.0
 10
69.98447772607136
 20
146.659280175348
 30
0.0
 10
69.98753983213913
 20
146.6505741147212
 30
0.0
 10
69.9895896391827
 20
146.6415971797857
 30
0.0
 10
69.9916904860357
 20
146.6323967208604
 30
0.0
 10
69.99277703992107
 20
146.6227185843584
 30
0.0
 10
69.99284690708271
 20
146.6131227822278
 30
0.0
  0
ARC
  5
145
330
1F
100
AcDbEntity
  8
0
  6
Continuous
 62
     7
370
     0
100
AcDbCircle
 10
67.2018281951
 20
146.6126228941
 30
0.0
 40
0.0257272727467683
100
AcDbArc
 50
358.8863991946
 51
1.1136008054
  0
ARC
  5
146
330
1F
100
AcDbEntity
  8
0
  6
Continuous
 62
     7
370
     0
100
AcDbCircle
 10
67.2272693434
 20
146.6116217494
 30
0.0
 40
0.1791666693582169
100
AcDbArc
 50
179.5199415351
 51
179.8397397704
  0
LINE
  5
147
330
1F
100
AcDbEntity
  8
0
  6
Continuous
 62
     7
370
     0
100
AcDbLine
 10
69.4048477463
 20
146.6981228466
 30
0.0
 11
69.9117200575
 21
146.6981228466
 31
0.0
  0
LINE
  5
148
330
1F
100
AcDbEntity
  8
0
  6
Continuous
 62
     7
370
     0
100
AcDbLine
 10
69.4548141337
 20
146.6131228979
 30
0.0
 11
69.8635501913
 21
146.6131228979
 31
0.0
  0
LINE
  5
149
330
1F
100
AcDbEntity
  8
0
  6
Continuous
 62
     7
370
     0
100
AcDbLine
 10
69.2169832192
 20
146.6981228466
 30
0.0
 11
69.3649442993
 21
146.6981228466
 31
0.0
  0
LINE
  5
14A
330
1F
100
AcDbEntity
  8
0
  6
Continuous
 62
     7
370
     0
100
AcDbLine
 10
75.3859349653
 20
146.6981228466
 30
0.0
 11
75.9317197963
 21
146.6981228466
 31
0.0
  0
LINE
  5
14B
330
1F
100
AcDbEntity
  8
0
  6
Continuous
 62
     7
370
     0
100
AcDbLine
 10
81.3975782958
 20
146.6981228466
 30
0.0
 11
82.2198272809
 21
146.6981228466
 31
0.0
  0
LINE
  5
14C
330
1F
100
AcDbEntity
  8
0
  6
Continuous
 62
     7
370
     0
100
AcDbLine
 10
75.4341043658
 20
146.6131228979
 30
0.0
 11
75.8835499301
 21
146.6131228979
 31
0.0
  0
LINE
  5
14D
330
1F
100
AcDbEntity
  8
0
  6
Continuous
 62
     7
370
     0
100
AcDbLine
 10
81.4457808747
 20
146.6131228979
 30
0.0
 11
82.2198272809
 21
146.6131228979
 31
0.0
  0
LINE
  5
14E
330
1F
100
AcDbEntity
  8
0
  6
Continuous
 62
     7
370
     0
100
AcDbLine
 10
81.1198272868
 20
146.6131228979
 30
0.0
 11
81.3163748836
 21
146.6131228979
 31
0.0
  0
LINE
  5
14F
330
1F
100
AcDbEntity
  8
0
  6
Continuous
 62
     7
370
     0
100
AcDbLine
 10
69.088827645
 20
146.6131228979
 30
0.0
 11
69.3194687493
 21
146.6131228979
 31
0.0
  0
LINE
  5
150
330
1F
100
AcDbEntity
  8
0
  6
Continuous
 62
     7
370
     0
100
AcDbLine
 10
75.1088273838
 20
146.6131228979
 30
0.0
 11
75.3048074558
 21
146.6131228979
 31
0.0
  0
MTEXT
  5
151
330
1F
100
AcDbEntity
  8
0
  6
Continuous
 62
     7
370
     0
100
AcDbMText
 10
142.3304246475
 20
160.22405244
 30
0.0
 40
2.1166666667
 41
0.0
 71
     1
 72
     1
  1
NEGATIVE WIRE(~75mm LONG)
  7
SLDTEXTSTYLE0
 73
     1
 44
1.0
  0
LEADER
  5
153
330
1F
100
AcDbEntity
  8
0
  6
Continuous
 62
     7
370
     0
100
AcDbLeader
  3
SLDDIMSTYLE0
 76
     3
 10
122.2366510678
 20
150.4417104705
 30
0.0
 10
135.3709695603
 20
159.1882750846
 30
0.0
 10
141.7209695603
 20
159.1882750846
 30
0.0
  0
MTEXT
  5
154
330
1F
100
AcDbEntity
  8
0
  6
Continuous
 62
     7
370
     0
100
AcDbMText
 10
79.6602638218
 20
160.22405244
 30
0.0
 40
2.1166666667
 41
0.0
 71
     1
 72
     1
  1
SCREEN-PRINTED ELECTRODE
  7
SLDTEXTSTYLE0
 73
     1
 44
1.0
  0
LEADER
  5
155
330
1F
100
AcDbEntity
  8
0
  6
Continuous
 62
     7
370
     0
100
AcDbLeader
  3
SLDDIMSTYLE0
 76
     3
 10
67.2517972896
 20
146.6121227822
 30
0.0
 10
72.8005073281
 20
159.1882750846
 30
0.0
 10
79.1505073281
 20
159.1882750846
 30
0.0
  0
MTEXT
  5
156
330
1F
100
AcDbEntity
  8
0
  6
Continuous
 62
     7
370
     0
100
AcDbMText
 10
79.6602638218
 20
127.5137255041
 30
0.0
 40
2.1166666667
 41
0.0
 71
     1
 72
     1
  1
SCREEN-PRINTED ELECTRODE
  7
SLDTEXTSTYLE0
 73
     1
 44
1.0
  0
LEADER
  5
157
330
1F
100
AcDbEntity
  8
0
  6
Continuous
 62
     7
370
     0
100
AcDbLeader
  3
SLDDIMSTYLE0
 76
     3
 10
67.167228314
 20
139.6121227822
 30
0.0
 10
72.8005073281
 20
126.4937993236
 30
0.0
 10
79.1505073281
 20
126.4937993236
 30
0.0
  0
MTEXT
  5
158
330
1F
100
AcDbEntity
  8
0
  6
Continuous
 62
     7
370
     0
100
AcDbMText
 10
143.322123002
 20
127.5137255041
 30
0.0
 40
2.1166666667
 41
0.0
 71
     1
 72
     1
  1
POSITIVE WIRE(~75mm LONG)
  7
SLDTEXTSTYLE0
 73
     1
 44
1.0
  0
LEADER
  5
159
330
1F
100
AcDbEntity
  8
0
  6
Continuous
 62
     7
370
     0
100
AcDbLeader
  3
SLDDIMSTYLE0
 76
     3
 10
121.9807437952
 20
135.782535094
 30
0.0
 10
136.3856257046
 20
126.4937993236
 30
0.0
 10
142.7356257046
 20
126.4937993236
 30
0.0
  0
SPLINE
  5
15A
330
1F
100
AcDbEntity
  8
0
  6
Continuous
 62
     7
370
     0
100
AcDbSpline
210
0.0
220
0.0
230
1.0
 70
    24
 71
     3
 72
    22
 73
    18
 74
     0
 42
0.000000001
 43
0.00000001
 40
0.0
 40
0.0
 40
0.0
 40
0.0
 40
0.0838703837675769
 40
0.1645591540542424
 40
0.2348153059461809
 40
0.2956896116615744
 40
0.3479993680340853
 40
0.3923561716349629
 40
0.429198135555875
 40
0.4612917006594671
 40
0.5142116858620839
 40
0.5806114353631161
 40
0.6607714029522167
 40
0.730523470906815
 40
0.8094061058779248
 40
0.8986624175074224
 40
1.0
 40
1.0
 40
1.0
 40
1.0
 10
207.6615070098454
 20
139.5022631648007
 30
0.0
 10
207.6615070098454
 20
139.3472625502056
 30
0.0
 10
207.6615070098454
 20
139.0431412517225
 30
0.0
 10
207.6615070098454
 20
138.6292942617533
 30
0.0
 10
207.6615070098454
 20
138.2712095510827
 30
0.0
 10
207.6615070098454
 20
137.9761833736095
 30
0.0
 10
207.6615070098454
 20
137.7356345582139
 30
0.0
 10
207.6615070098454
 20
137.5423342587337
 30
0.0
 10
207.6615070098454
 20
137.3865690182183
 30
0.0
 10
207.6615070098454
 20
137.2271428802367
 30
0.0
 10
207.6615070098454
 20
137.0421525857156
 30
0.0
 10
207.6615070098454
 20
136.8247033415466
 30
0.0
 10
207.6615070098454
 20
136.6265703780181
 30
0.0
 10
207.6615070098454
 20
136.459399019051
 30
0.0
 10
207.6615070098454
 20
136.3301337218703
 30
0.0
 10
207.6615070098454
 20
136.2342398213179
 30
0.0
 10
207.6615070098454
 20
136.2163454255099
 30
0.0
 10
207.6615070098454
 20
136.20683108708
 30
0.0
  0
SPLINE
  5
15B
330
1F
100
AcDbEntity
  8
0
  6
Continuous
 62
     7
370
     0
100
AcDbSpline
210
0.0
220
0.0
230
1.0
 70
    24
 71
     3
 72
    22
 73
    18
 74
     0
 42
0.000000001
 43
0.00000001
 40
0.0
 40
0.0
 40
0.0
 40
0.0
 40
0.101337822616922
 40
0.1905943457436032
 40
0.269477167630964
 40
0.3392294008664893
 40
0.4193895583985427
 40
0.4857894652370199
 40
0.5387095758361227
 40
0.5708032169869826
 40
0.607645268206725
 40
0.6520021769132122
 40
0.7043120572362421
 40
0.765186507196272
 40
0.8354428255635891
 40
0.9161317870462312
 40
1.0
 40
1.0
 40
1.0
 40
1.0
 10
208.6015069497192
 20
136.20683108708
 30
0.0
 10
208.6015069497192
 20
136.2163454255099
 30
0.0
 10
208.6015069497192
 20
136.2342398213179
 30
0.0
 10
208.6015069497192
 20
136.3301337218703
 30
0.0
 10
208.6015069497192
 20
136.4593990190511
 30
0.0
 10
208.6015069497192
 20
136.626570378018
 30
0.0
 10
208.6015069497192
 20
136.8247033415469
 30
0.0
 10
208.6015069497192
 20
137.0421525857147
 30
0.0
 10
208.6015069497192
 20
137.2271428802389
 30
0.0
 10
208.6015069497192
 20
137.3865690182135
 30
0.0
 10
208.6015069497192
 20
137.542334258757
 30
0.0
 10
208.6015069497192
 20
137.735634558099
 30
0.0
 10
208.6015069497192
 20
137.9761833741569
 30
0.0
 10
208.6015069497192
 20
138.271209548521
 30
0.0
 10
208.6015069497192
 20
138.6292942736111
 30
0.0
 10
208.6015069497192
 20
139.043137023348
 30
0.0
 10
208.6015069497192
 20
139.3472539083399
 30
0.0
 10
208.6015069497192
 20
139.5022501262847
 30
0.0
  0
ARC
  5
15C
330
1F
100
AcDbEntity
  8
0
  6
Continuous
 62
     7
370
     0
100
AcDbCircle
 10
212.9315069774
 20
141.1616783378
 30
0.0
 40
1.725555555555559
100
AcDbArc
 50
251.4133828012
 51
270.0
  0
ARC
  5
15D
330
1F
100
AcDbEntity
  8
0
  6
Continuous
 62
     7
370
     0
100
AcDbCircle
 10
212.9315069774
 20
141.1616783378
 30
0.0
 40
1.725555555555559
100
AcDbArc
 50
270.0
 51
288.5866171988
  0
LINE
  5
15E
330
1F
100
AcDbEntity
  8
0
  6
Continuous
 62
     7
370
     0
100
AcDbLine
 10
212.3815069779
 20
139.6111226666
 30
0.0
 11
212.3815069779
 21
139.5261227178
 31
0.0
  0
LINE
  5
15F
330
1F
100
AcDbEntity
  8
0
  6
Continuous
 62
     7
370
     0
100
AcDbLine
 10
213.4815070884
 20
139.5261227178
 30
0.0
 11
213.4815070884
 21
139.6111226666
 31
0.0
  0
LINE
  5
160
330
1F
100
AcDbEntity
  8
0
  6
Continuous
 62
     7
370
     0
100
AcDbLine
 10
208.5879550421
 20
139.5221226874
 30
0.0
 11
212.4400783203
 21
139.5221226874
 31
0.0
  0
ARC
  5
161
330
1F
100
AcDbEntity
  8
0
  6
Continuous
 62
     7
370
     0
100
AcDbCircle
 10
208.1315069774
 20
141.1616783378
 30
0.0
 40
1.725555555555559
100
AcDbArc
 50
251.4133828012
 51
254.3435421562
  0
ARC
  5
162
330
1F
100
AcDbEntity
  8
0
  6
Continuous
 62
     7
370
     0
100
AcDbCircle
 10
208.1315069774
 20
141.1616783378
 30
0.0
 40
1.725555555555559
100
AcDbArc
 50
285.6949343463
 51
288.5866171988
  0
LINE
  5
163
330
1F
100
AcDbEntity
  8
0
  6
Continuous
 62
     7
370
     0
100
AcDbLine
 10
207.5815068663
 20
139.6111226666
 30
0.0
 11
207.5815068663
 21
139.5261227178
 31
0.0
  0
SPLINE
  5
164
330
1F
100
AcDbEntity
  8
0
  6
Continuous
 62
     7
370
     0
100
AcDbSpline
210
0.0
220
0.0
230
1.0
 70
    24
 71
     3
 72
    22
 73
    18
 74
     0
 42
0.000000001
 43
0.00000001
 40
0.0
 40
0.0
 40
0.0
 40
0.0
 40
0.0838682129537688
 40
0.1645571744364109
 40
0.2348134928037279
 40
0.2956879427637578
 40
0.3479978230867877
 40
0.392354731793275
 40
0.4291967830130174
 40
0.4612904241638772
 40
0.5142105347629801
 40
0.5806104416014573
 40
0.6607705991335107
 40
0.7305228323690361
 40
0.8094056542563968
 40
0.8986621773830781
 40
0.9999999999999999
 40
0.9999999999999999
 40
0.9999999999999999
 40
0.9999999999999999
 10
208.6015069497192
 20
146.7219954381708
 30
0.0
 10
208.6015069497192
 20
146.8769916561156
 30
0.0
 10
208.6015069497192
 20
147.1811085411074
 30
0.0
 10
208.6015069497192
 20
147.5949512908444
 30
0.0
 10
208.6015069497192
 20
147.9530360159344
 30
0.0
 10
208.6015069497192
 20
148.2480621902986
 30
0.0
 10
208.6015069497192
 20
148.4886110063564
 30
0.0
 10
208.6015069497192
 20
148.6819113056984
 30
0.0
 10
208.6015069497192
 20
148.8376765462419
 30
0.0
 10
208.6015069497192
 20
148.9971026842166
 30
0.0
 10
208.6015069497192
 20
149.1820929787407
 30
0.0
 10
208.6015069497192
 20
149.3995422229085
 30
0.0
 10
208.6015069497192
 20
149.5976751864374
 30
0.0
 10
208.6015069497192
 20
149.7648465454043
 30
0.0
 10
208.6015069497192
 20
149.8941118425852
 30
0.0
 10
208.6015069497192
 20
149.9900057431375
 30
0.0
 10
208.6015069497192
 20
150.0079001389456
 30
0.0
 10
208.6015069497192
 20
150.0174144773755
 30
0.0
  0
SPLINE
  5
165
330
1F
100
AcDbEntity
  8
0
  6
Continuous
 62
     7
370
     0
100
AcDbSpline
210
0.0
220
0.0
230
1.0
 70
    24
 71
     3
 72
    22
 73
    18
 74
     0
 42
0.000000001
 43
0.00000001
 40
0.0
 40
0.0
 40
0.0
 40
0.0
 40
0.1013375824925777
 40
0.1905938941220753
 40
0.269476529093185
 40
0.3392285970477834
 40
0.4193885646368839
 40
0.4857883141379161
 40
0.538708299340533
 40
0.570801864444125
 40
0.607643828365037
 40
0.6520006319659146
 40
0.7043103883384256
 40
0.7651846940538191
 40
0.8354408459457576
 40
0.9161296162324231
 40
1.0
 40
1.0
 40
1.0
 40
1.0
 10
207.6615070098454
 20
150.0174144773755
 30
0.0
 10
207.6615070098454
 20
150.0079001389456
 30
0.0
 10
207.6615070098454
 20
149.9900057431375
 30
0.0
 10
207.6615070098454
 20
149.8941118425852
 30
0.0
 10
207.6615070098454
 20
149.7648465454044
 30
0.0
 10
207.6615070098454
 20
149.5976751864373
 30
0.0
 10
207.6615070098454
 20
149.3995422229088
 30
0.0
 10
207.6615070098454
 20
149.1820929787399
 30
0.0
 10
207.6615070098454
 20
148.9971026842187
 30
0.0
 10
207.6615070098454
 20
148.8376765462371
 30
0.0
 10
207.6615070098454
 20
148.6819113057217
 30
0.0
 10
207.6615070098454
 20
148.4886110062415
 30
0.0
 10
207.6615070098454
 20
148.2480621908459
 30
0.0
 10
207.6615070098454
 20
147.9530360133727
 30
0.0
 10
207.6615070098454
 20
147.5949513027022
 30
0.0
 10
207.6615070098454
 20
147.181104312733
 30
0.0
 10
207.6615070098454
 20
146.8769830142499
 30
0.0
 10
207.6615070098454
 20
146.7219823996547
 30
0.0
  0
LINE
  5
166
330
1F
100
AcDbEntity
  8
0
  6
Continuous
 62
     7
370
     0
100
AcDbLine
 10
213.4815070884
 20
146.6131228979
 30
0.0
 11
213.4815070884
 21
146.6981228466
 31
0.0
  0
LINE
  5
167
330
1F
100
AcDbEntity
  8
0
  6
Continuous
 62
     7
370
     0
100
AcDbLine
 10
212.3815069779
 20
146.6981228466
 30
0.0
 11
212.3815069779
 21
146.6131228979
 31
0.0
  0
ARC
  5
168
330
1F
100
AcDbEntity
  8
0
  6
Continuous
 62
     7
370
     0
100
AcDbCircle
 10
212.9315069774
 20
145.0625672267
 30
0.0
 40
1.725555555555559
100
AcDbArc
 50
71.4133828012
 51
108.5866171988
  0
LINE
  5
169
330
1F
100
AcDbEntity
  8
0
  6
Continuous
 62
     7
370
     0
100
AcDbLine
 10
212.4397372234
 20
146.7021228771
 30
0.0
 11
208.5879550421
 21
146.7021228771
 31
0.0
  0
ARC
  5
16A
330
1F
100
AcDbEntity
  8
0
  6
Continuous
 62
     7
370
     0
100
AcDbCircle
 10
208.1315069774
 20
145.0625672267
 30
0.0
 40
1.725555555555564
100
AcDbArc
 50
105.6526259412
 51
108.5866171988
  0
LINE
  5
16B
330
1F
100
AcDbEntity
  8
0
  6
Continuous
 62
     7
370
     0
100
AcDbLine
 10
207.5815068663
 20
146.6981228466
 30
0.0
 11
207.5815068663
 21
146.6131228979
 31
0.0
  0
LINE
  5
16C
330
1F
100
AcDbEntity
  8
0
  6
Continuous
 62
     7
370
     0
100
AcDbLine
 10
208.6815069768
 20
146.6131228979
 30
0.0
 11
208.6815069768
 21
146.6981228466
 31
0.0
  0
LWPOLYLINE
  5
16D
330
1F
100
AcDbEntity
  8
0
  6
Continuous
 62
     7
370
     0
100
AcDbPolyline
 90
       26
 70
   128
 43
0.0
 10
208.6015069497
 20
136.2068310871
 10
208.5867410631
 20
136.1013131707
 10
208.5433710006
 20
136.0024248741
 10
208.4741222778
 20
135.9163804471
 10
208.3833455679
 20
135.8485862172
 10
208.2767449891
 20
135.8033015884
 10
208.1610186131
 20
135.7833722166
 10
208.0434377411
 20
135.7900507308
 10
207.9313907878
 20
135.8229166388
 10
207.8319176206
 20
135.8799051984
 10
207.7512690437
 20
135.9574364058
 10
207.6945119177
 20
136.0506375811
 10
207.6652129752
 20
136.1536525681
 10
207.6652129752
 20
136.2600096061
 10
207.6945119177
 20
136.3630250587
 10
207.7512690437
 20
136.456226234
 10
207.8319176206
 20
136.5337569757
 10
207.9313907878
 20
136.5907455354
 10
208.0434377411
 20
136.6236119091
 10
208.1610186131
 20
136.6302899576
 10
208.2767449891
 20
136.6103605858
 10
208.3833455679
 20
136.5650764226
 10
208.4741222778
 20
136.4972817271
 10
208.5433710006
 20
136.4112373001
 10
208.5867410631
 20
136.3123494691
 10
208.6015069497
 20
136.2068310871
  0
SPLINE
  5
16E
330
1F
100
AcDbEntity
  8
0
  6
Continuous
 62
     7
370
     0
100
AcDbSpline
210
0.0
220
0.0
230
1.0
 70
     8
 71
     3
 72
    27
 73
    23
 74
     0
 42
0.000000001
 43
0.00000001
 40
0.0
 40
0.0
 40
0.0
 40
0.0
 40
0.0022874251635803
 40
0.0546625129811587
 40
0.1085536110250967
 40
0.1609945144411002
 40
0.2149394530369519
 40
0.2676883011855872
 40
0.3219438892408996
 40
0.3751000882917641
 40
0.4297781095208309
 40
0.4832812019674358
 40
0.5383262309237578
 40
0.5919890186053995
 40
0.6472121325261435
 40
0.7007890260159497
 40
0.7559362953403913
 40
0.8092093197866869
 40
0.8640506197488698
 40
0.916912447439346
 40
0.9713280512809768
 40
1.0
 40
1.0
 40
1.0
 40
1.0
 10
207.6617861737872
 20
139.502274107841
 30
0.0
 10
207.6616990742648
 20
139.5023102105087
 30
0.0
 10
207.6596176602605
 20
139.5031729545993
 30
0.0
 10
207.667701314876
 20
139.5048389156578
 30
0.0
 10
207.6867093464091
 20
139.5071602902368
 30
0.0
 10
207.7198849567586
 20
139.5093091153672
 30
0.0
 10
207.7638088504549
 20
139.5112082452159
 30
0.0
 10
207.8185834949614
 20
139.512851310242
 30
0.0
 10
207.8817500818492
 20
139.5141798980578
 30
0.0
 10
207.9526537213596
 20
139.5151896537887
 30
0.0
 10
208.0282407888223
 20
139.5158447409464
 30
0.0
 10
208.1075968002922
 20
139.5161418195508
 30
0.0
 10
208.1871662035826
 20
139.5160685400392
 30
0.0
 10
208.2659632236889
 20
139.5156220747835
 30
0.0
 10
208.3402894668176
 20
139.5148172721902
 30
0.0
 10
208.4092820267348
 20
139.5136517748871
 30
0.0
 10
208.4696209015457
 20
139.5121706196891
 30
0.0
 10
208.5206424371521
 20
139.5103735451449
 30
0.0
 10
208.5601889625137
 20
139.5083375391261
 30
0.0
 10
208.5868474725331
 20
139.5060617372652
 30
0.0
 10
208.6011556109208
 20
139.5040264018836
 30
0.0
 10
208.5995477031143
 20
139.5027158702378
 30
0.0
 10
208.5989928444291
 20
139.502263630462
 30
0.0
  0
LINE
  5
16F
330
1F
100
AcDbEntity
  8
0
  6
Continuous
 62
     7
370
     0
100
AcDbLine
 10
212.3815069779
 20
139.5261227178
 30
0.0
 11
213.4815070884
 21
139.5261227178
 31
0.0
  0
LINE
  5
170
330
1F
100
AcDbEntity
  8
0
  6
Continuous
 62
     7
370
     0
100
AcDbLine
 10
212.3815069779
 20
139.6111226666
 30
0.0
 11
213.4815070884
 21
139.6111226666
 31
0.0
  0
SPLINE
  5
171
330
1F
100
AcDbEntity
  8
0
  6
Continuous
 62
     7
370
     0
100
AcDbSpline
210
0.0
220
0.0
230
1.0
 70
     8
 71
     3
 72
    11
 73
     7
 74
     0
 42
0.000000001
 43
0.00000001
 40
0.0
 40
0.0
 40
0.0
 40
0.0
 40
0.0000136991388042
 40
0.0000136991388042
 40
0.0000136991388042
 40
0.00002163406561
 40
0.00002163406561
 40
0.00002163406561
 40
0.00002163406561
 10
208.6093987338028
 20
139.5261227822277
 30
0.0
 10
208.6050644296434
 20
139.5250071743308
 30
0.0
 10
208.600710396308
 20
139.5239845764165
 30
0.0
 10
208.5967827695649
 20
139.5232421393976
 30
0.0
 10
208.5944972051621
 20
139.5228101004761
 30
0.0
 10
208.5923247021074
 20
139.5224703778412
 30
0.0
 10
208.5904912569715
 20
139.5222858644416
 30
0.0
  0
SPLINE
  5
172
330
1F
100
AcDbEntity
  8
0
  6
Continuous
 62
     7
370
     0
100
AcDbSpline
210
0.0
220
0.0
230
1.0
 70
     8
 71
     3
 72
    11
 73
     7
 74
     0
 42
0.000000001
 43
0.00000001
 40
0.0
 40
0.0
 40
0.0
 40
0.0
 40
0.1306580440407275
 40
0.4020597934487654
 40
0.8475201172068121
 40
1.0
 40
1.0
 40
1.0
 40
1.0
 10
208.5879544600288
 20
139.5222446906391
 30
0.0
 10
208.5872723668036
 20
139.5222156053048
 30
0.0
 10
208.5851734354808
 20
139.5221261041679
 30
0.0
 10
208.5837266011256
 20
139.5230656472266
 30
0.0
 10
208.5840928278582
 20
139.5245430593972
 30
0.0
 10
208.5852502171576
 20
139.5258017427785
 30
0.0
 10
208.5855453613589
 20
139.5261227178398
 30
0.0
  0
SPLINE
  5
173
330
1F
100
AcDbEntity
  8
0
  6
Continuous
 62
     7
370
     0
100
AcDbSpline
210
0.0
220
0.0
230
1.0
 70
     8
 71
     3
 72
    17
 73
    13
 74
     0
 42
0.000000001
 43
0.00000001
 40
0.0
 40
0.0
 40
0.0
 40
0.0
 40
0.0000327613862941
 40
0.0000327613862941
 40
0.0000327613862941
 40
0.0000676569624332
 40
0.0000676569624332
 40
0.0000676569624332
 40
0.0000935083918259
 40
0.0000935083918259
 40
0.0000935083918259
 40
0.000106452592388
 40
0.000106452592388
 40
0.000106452592388
 40
0.000106452592388
 10
208.5528992111995
 20
139.6111227822277
 30
0.0
 10
208.5529659762042
 20
139.6002028143267
 30
0.0
 10
208.554152381764
 20
139.5891571759007
 30
0.0
 10
208.5563879856346
 20
139.5788197839657
 30
0.0
 10
208.5587598211974
 20
139.5678524591458
 30
0.0
 10
208.5624033212676
 20
139.5573361429236
 30
0.0
 10
208.5669903028816
 20
139.5485136728814
 30
0.0
 10
208.5704081728455
 20
139.5419398389528
 30
0.0
 10
208.5744375230169
 20
139.5361392164484
 30
0.0
 10
208.5787598274706
 20
139.531737701422
 30
0.0
 10
208.5809464069968
 20
139.5295110506288
 30
0.0
 10
208.5832289619359
 20
139.5276149679599
 30
0.0
 10
208.585545365414
 20
139.5261227822029
 30
0.0
  0
LINE
  5
174
330
1F
100
AcDbEntity
  8
0
  6
Continuous
 62
     7
370
     0
100
AcDbLine
 10
212.9315070914
 20
139.6111226666
 30
0.0
 11
212.9315070914
 21
139.6121226742
 31
0.0
  0
LINE
  5
175
330
1F
100
AcDbEntity
  8
0
  6
Continuous
 62
     7
370
     0
100
AcDbLine
 10
207.6615556714
 20
139.6120227898
 30
0.0
 11
208.4842853354
 21
139.6120227898
 31
0.0
  0
LINE
  5
176
330
1F
100
AcDbEntity
  8
0
  6
Continuous
 62
     7
370
     0
100
AcDbLine
 10
207.5815068663
 20
139.5261227178
 30
0.0
 11
208.5855453614
 21
139.5261227178
 31
0.0
  0
LINE
  5
177
330
1F
100
AcDbEntity
  8
0
  6
Continuous
 62
     7
370
     0
100
AcDbLine
 10
207.5815068663
 20
139.6111226666
 30
0.0
 11
208.5528991291
 21
139.6111226666
 31
0.0
  0
LWPOLYLINE
  5
178
330
1F
100
AcDbEntity
  8
0
  6
Continuous
 62
     7
370
     0
100
AcDbPolyline
 90
        9
 70
   128
 43
0.0
 10
208.1385567424
 20
139.6111226666
 10
208.1385567424
 20
139.6112476966
 10
208.1385567424
 20
139.6113727267
 10
208.1385569753
 20
139.6114977567
 10
208.1385569753
 20
139.6116227868
 10
208.1385569753
 20
139.6117478169
 10
208.1385569753
 20
139.6118728469
 10
208.1385572081
 20
139.611997877
 10
208.1385567424
 20
139.6121226742
  0
LWPOLYLINE
  5
179
330
1F
100
AcDbEntity
  8
0
  6
Continuous
 62
     7
370
     0
100
AcDbPolyline
 90
        9
 70
   128
 43
0.0
 10
208.1244572171
 20
139.6121226742
 10
208.1244572171
 20
139.611997877
 10
208.1244572171
 20
139.6118728469
 10
208.12445745
 20
139.6117478169
 10
208.12445745
 20
139.6116227868
 10
208.12445745
 20
139.6114977567
 10
208.12445745
 20
139.6113727267
 10
208.1244576828
 20
139.6112476966
 10
208.1244576828
 20
139.6111226666
  0
LINE
  5
17A
330
1F
100
AcDbEntity
  8
0
  6
Continuous
 62
     7
370
     0
100
AcDbLine
 10
214.0315070854
 20
146.6121228903
 30
0.0
 11
207.0315068693
 21
146.6121228903
 31
0.0
  0
LINE
  5
17B
330
1F
100
AcDbEntity
  8
0
  6
Continuous
 62
     7
370
     0
100
AcDbLine
 10
207.0315068693
 20
146.6121228903
 30
0.0
 11
207.0315068693
 21
139.6121226742
 31
0.0
  0
LINE
  5
17C
330
1F
100
AcDbEntity
  8
0
  6
Continuous
 62
     7
370
     0
100
AcDbLine
 10
207.0315068693
 20
139.6121226742
 30
0.0
 11
214.0315070854
 21
139.6121226742
 31
0.0
  0
LINE
  5
17D
330
1F
100
AcDbEntity
  8
0
  6
Continuous
 62
     7
370
     0
100
AcDbLine
 10
214.0315070854
 20
139.6121226742
 30
0.0
 11
214.0315070854
 21
146.6121228903
 31
0.0
  0
LWPOLYLINE
  5
17E
330
1F
100
AcDbEntity
  8
0
  6
Continuous
 62
     7
370
     0
100
AcDbPolyline
 90
       26
 70
   128
 43
0.0
 10
208.6015069497
 20
150.0174144774
 10
208.5867410631
 20
150.1229323938
 10
208.5433710006
 20
150.2218206904
 10
208.4741222778
 20
150.3078651174
 10
208.3833455679
 20
150.3756593472
 10
208.2767449891
 20
150.4209439761
 10
208.1610186131
 20
150.4408733479
 10
208.0434377411
 20
150.4341948337
 10
207.9313907878
 20
150.4013289257
 10
207.8319176206
 20
150.344340366
 10
207.7512690437
 20
150.2668091587
 10
207.6945119177
 20
150.1736079833
 10
207.6652129752
 20
150.0705929964
 10
207.6652129752
 20
149.9642359584
 10
207.6945119177
 20
149.8612205057
 10
207.7512690437
 20
149.7680193304
 10
207.8319176206
 20
149.6904885887
 10
207.9313907878
 20
149.6335000291
 10
208.0434377411
 20
149.6006336554
 10
208.1610186131
 20
149.5939556069
 10
208.2767449891
 20
149.6138849786
 10
208.3833455679
 20
149.6591691419
 10
208.4741222778
 20
149.7269638374
 10
208.5433710006
 20
149.8130082644
 10
208.5867410631
 20
149.9118960953
 10
208.6015069497
 20
150.0174144774
  0
SPLINE
  5
17F
330
1F
100
AcDbEntity
  8
0
  6
Continuous
 62
     7
370
     0
100
AcDbSpline
210
0.0
220
0.0
230
1.0
 70
     8
 71
     3
 72
    27
 73
    23
 74
     0
 42
0.000000001
 43
0.00000001
 40
0.0
 40
0.0
 40
0.0
 40
0.0
 40
0.0022874251635803
 40
0.0546625129811587
 40
0.1085536110250967
 40
0.1609945144411002
 40
0.2149394530369519
 40
0.2676883011855872
 40
0.3219438892408996
 40
0.3751000882917641
 40
0.4297781095208309
 40
0.4832812019674358
 40
0.5383262309237578
 40
0.5919890186053995
 40
0.6472121325261435
 40
0.7007890260159497
 40
0.7559362953403913
 40
0.8092093197866869
 40
0.8640506197488698
 40
0.916912447439346
 40
0.9713280512809768
 40
1.0
 40
1.0
 40
1.0
 40
1.0
 10
207.6617861737872
 20
146.7219714566145
 30
0.0
 10
207.6616990742648
 20
146.7219353539467
 30
0.0
 10
207.6596176602605
 20
146.7210726098562
 30
0.0
 10
207.667701314876
 20
146.7194066487976
 30
0.0
 10
207.6867093464091
 20
146.7170852742186
 30
0.0
 10
207.7198849567586
 20
146.7149364490883
 30
0.0
 10
207.7638088504549
 20
146.7130373192395
 30
0.0
 10
207.8185834949614
 20
146.7113942542134
 30
0.0
 10
207.8817500818492
 20
146.7100656663976
 30
0.0
 10
207.9526537213596
 20
146.7090559106667
 30
0.0
 10
208.0282407888223
 20
146.708400823509
 30
0.0
 10
208.1075968002922
 20
146.7081037449046
 30
0.0
 10
208.1871662035826
 20
146.7081770244162
 30
0.0
 10
208.2659632236889
 20
146.7086234896719
 30
0.0
 10
208.3402894668176
 20
146.7094282922652
 30
0.0
 10
208.4092820267348
 20
146.7105937895683
 30
0.0
 10
208.4696209015457
 20
146.7120749447663
 30
0.0
 10
208.5206424371521
 20
146.7138720193105
 30
0.0
 10
208.5601889625137
 20
146.7159080253293
 30
0.0
 10
208.5868474725331
 20
146.7181838271903
 30
0.0
 10
208.6011556109208
 20
146.7202191625718
 30
0.0
 10
208.5995477031143
 20
146.7215296942176
 30
0.0
 10
208.5989928444291
 20
146.7219819339934
 30
0.0
  0
LINE
  5
180
330
1F
100
AcDbEntity
  8
0
  6
Continuous
 62
     7
370
     0
100
AcDbLine
 10
212.3815069779
 20
146.6131228979
 30
0.0
 11
213.4815070884
 21
146.6131228979
 31
0.0
  0
LINE
  5
181
330
1F
100
AcDbEntity
  8
0
  6
Continuous
 62
     7
370
     0
100
AcDbLine
 10
212.3815069779
 20
146.6981228466
 30
0.0
 11
213.4815070884
 21
146.6981228466
 31
0.0
  0
SPLINE
  5
182
330
1F
100
AcDbEntity
  8
0
  6
Continuous
 62
     7
370
     0
100
AcDbSpline
210
0.0
220
0.0
230
1.0
 70
     8
 71
     3
 72
    17
 73
    13
 74
     0
 42
0.000000001
 43
0.00000001
 40
0.0
 40
0.0
 40
0.0
 40
0.0
 40
0.0000327613862941
 40
0.0000327613862941
 40
0.0000327613862941
 40
0.0000676569624332
 40
0.0000676569624332
 40
0.0000676569624332
 40
0.0000935083918259
 40
0.0000935083918259
 40
0.0000935083918259
 40
0.000106452592388
 40
0.000106452592388
 40
0.000106452592388
 40
0.000106452592388
 10
208.5528992111995
 20
146.6131227822277
 30
0.0
 10
208.5529659762042
 20
146.6240427501287
 30
0.0
 10
208.554152381764
 20
146.6350883885547
 30
0.0
 10
208.5563879856346
 20
146.6454257804897
 30
0.0
 10
208.5587598211974
 20
146.6563931053096
 30
0.0
 10
208.5624033212676
 20
146.6669094215318
 30
0.0
 10
208.5669903028816
 20
146.675731891574
 30
0.0
 10
208.5704081728455
 20
146.6823057255026
 30
0.0
 10
208.5744375230169
 20
146.688106348007
 30
0.0
 10
208.5787598274706
 20
146.6925078630334
 30
0.0
 10
208.5809464069968
 20
146.6947345138266
 30
0.0
 10
208.5832289619359
 20
146.6966305964955
 30
0.0
 10
208.585545365414
 20
146.6981227822525
 30
0.0
  0
SPLINE
  5
183
330
1F
100
AcDbEntity
  8
0
  6
Continuous
 62
     7
370
     0
100
AcDbSpline
210
0.0
220
0.0
230
1.0
 70
     8
 71
     3
 72
    23
 73
    19
 74
     0
 42
0.000000001
 43
0.00000001
 40
0.0
 40
0.0
 40
0.0
 40
0.0
 40
0.0000136991388042
 40
0.0000136991388042
 40
0.0000136991388042
 40
0.00002163406561
 40
0.00002163406561
 40
0.00002163406561
 40
0.0000296647624064
 40
0.0000296647624064
 40
0.0000296647624064
 40
0.000036756077424
 40
0.000036756077424
 40
0.000036756077424
 40
0.0000484502327163
 40
0.0000484502327163
 40
0.0000484502327163
 40
0.0000524173647347
 40
0.0000524173647347
 40
0.0000524173647347
 40
0.0000524173647347
 10
208.6093987338028
 20
146.6981227822278
 30
0.0
 10
208.6050644296434
 20
146.6992383901246
 30
0.0
 10
208.600710396308
 20
146.7002609880389
 30
0.0
 10
208.5967827695649
 20
146.7010034250579
 30
0.0
 10
208.5944972051621
 20
146.7014354639794
 30
0.0
 10
208.5923247021074
 20
146.7017751866142
 30
0.0
 10
208.5904912569715
 20
146.7019597000138
 30
0.0
 10
208.5886442486795
 20
146.7021455783759
 30
0.0
 10
208.5871094098518
 20
146.7021719194014
 30
0.0
 10
208.5860574111424
 20
146.7020315215512
 30
0.0
 10
208.5851224588888
 20
146.7019067445098
 30
0.0
 10
208.5845336353864
 20
146.7016525404755
 30
0.0
 10
208.5842424675789
 20
146.7013122148969
 30
0.0
 10
208.5837645706476
 20
146.7007536347742
 30
0.0
 10
208.5840449632481
 20
146.6999577206485
 30
0.0
 10
208.5847188634401
 20
146.6990699681734
 30
0.0
 10
208.5849495446276
 20
146.6987660837145
 30
0.0
 10
208.5852281998509
 20
146.6984493380864
 30
0.0
 10
208.5855453653674
 20
146.6981227822346
 30
0.0
  0
SPLINE
  5
184
330
1F
100
AcDbEntity
  8
0
  6
Continuous
 62
     7
370
     0
100
AcDbSpline
210
0.0
220
0.0
230
1.0
 70
     8
 71
     3
 72
    17
 73
    13
 74
     0
 42
0.000000001
 43
0.00000001
 40
0.0000000000000024
 40
0.0000000000000024
 40
0.0000000000000024
 40
0.0000000000000024
 40
0.0000249091250946
 40
0.0000249091250946
 40
0.0000249091250946
 40
0.0000496470944607
 40
0.0000496470944607
 40
0.0000496470944607
 40
0.0000776809554077
 40
0.0000776809554077
 40
0.0000776809554077
 40
0.0001063965837808
 40
0.0001063965837808
 40
0.0001063965837808
 40
0.0001063965837808
 10
208.6093987338016
 20
146.6981227822282
 30
0.0
 10
208.6132613757479
 20
146.6952858372562
 30
0.0
 10
208.6167580402591
 20
146.6909464878746
 30
0.0
 10
208.6197005690787
 20
146.6856434514544
 30
0.0
 10
208.6226308896265
 20
146.6803624168274
 30
0.0
 10
208.625097698538
 20
146.6740078766168
 30
0.0
 10
208.6270696493409
 20
146.6671011439887
 30
0.0
 10
208.6293026249345
 20
146.6592801753481
 30
0.0
 10
208.6309589867108
 20
146.6505741147213
 30
0.0
 10
208.632061778704
 20
146.6415971797857
 30
0.0
 10
208.6331920300102
 20
146.6323967208604
 30
0.0
 10
208.6337677157977
 20
146.6227185843585
 30
0.0
 10
208.6338049049156
 20
146.6131227822278
 30
0.0
  0
SPLINE
  5
185
330
1F
100
AcDbEntity
  8
0
  6
Continuous
 62
     7
370
     0
100
AcDbSpline
210
0.0
220
0.0
230
1.0
 70
     8
 71
     3
 72
     8
 73
     4
 74
     0
 42
0.000000001
 43
0.00000001
 40
0.000000000000007
 40
0.000000000000007
 40
0.000000000000007
 40
0.000000000000007
 40
0.0000009063950673
 40
0.0000009063950673
 40
0.0000009063950673
 40
0.0000009063950673
 10
208.5651959464755
 20
146.6122227822347
 30
0.0
 10
208.5652442378207
 20
146.6125228164113
 30
0.0
 10
208.5652919894538
 20
146.6128228218816
 30
0.0
 10
208.5653392017155
 20
146.6131227822277
 30
0.0
  0
LINE
  5
186
330
1F
100
AcDbEntity
  8
0
  6
Continuous
 62
     7
370
     0
100
AcDbLine
 10
208.5651958467
 20
146.6122227746
 30
0.0
 11
208.4842853354
 21
146.6122227746
 31
0.0
  0
LINE
  5
187
330
1F
100
AcDbEntity
  8
0
  6
Continuous
 62
     7
370
     0
100
AcDbLine
 10
207.6615072427
 20
146.6122227746
 30
0.0
 11
208.4842853354
 21
146.6122227746
 31
0.0
  0
LINE
  5
188
330
1F
100
AcDbEntity
  8
0
  6
Continuous
 62
     7
370
     0
100
AcDbLine
 10
207.5815068663
 20
146.6981228466
 30
0.0
 11
208.5855453614
 21
146.6981228466
 31
0.0
  0
LINE
  5
189
330
1F
100
AcDbEntity
  8
0
  6
Continuous
 62
     7
370
     0
100
AcDbLine
 10
207.5815068663
 20
146.6131228979
 30
0.0
 11
208.5528991291
 21
146.6131228979
 31
0.0
  0
DIMENSION
  5
18A
330
1F
100
AcDbEntity
  8
0
  6
Continuous
 62
     7
370
     0
100
AcDbDimension
  2
_D
 10
214.0315069774
 20
125.3231017548
 30
0.0
 11
226.6491963456
 21
125.3231017548
 31
0.0
 70
   160
  1
<>
 71
     2
 42
-1.0
  3
SLDDIMSTYLE1
100
AcDbAlignedDimension
 13
207.0315069774
 23
139.6121227822
 33
0.0
 14
214.0315069774
 24
139.6121227822
 34
0.0
100
AcDbRotatedDimension
  0
LINE
  5
19F
330
1F
100
AcDbEntity
  8
0
  6
Continuous
 62
     7
370
     0
100
AcDbLine
 10
24.1913978992
 20
139.6111226666
 30
0.0
 11
24.1913978992
 21
139.5261227178
 31
0.0
  0
LINE
  5
1A0
330
1F
100
AcDbEntity
  8
0
  6
Continuous
 62
     7
370
     0
100
AcDbLine
 10
25.2913980097
 20
139.5261227178
 30
0.0
 11
25.2913980097
 21
139.6111226666
 31
0.0
  0
ARC
  5
1A1
330
1F
100
AcDbEntity
  8
0
  6
Continuous
 62
     7
370
     0
100
AcDbCircle
 10
24.7413978987
 20
141.1616783378
 30
0.0
 40
1.725555555555556
100
AcDbArc
 50
251.4133828012
 51
288.5866171988
  0
LINE
  5
1A2
330
1F
100
AcDbEntity
  8
0
  6
Continuous
 62
     7
370
     0
100
AcDbLine
 10
20.4187968796
 20
139.5221226874
 30
0.0
 11
24.2179635264
 21
139.5221226874
 31
0.0
  0
ARC
  5
1A3
330
1F
100
AcDbEntity
  8
0
  6
Continuous
 62
     7
370
     0
100
AcDbCircle
 10
19.9413978987
 20
141.1616783378
 30
0.0
 40
1.725555555555556
100
AcDbArc
 50
251.4133828012
 51
288.5866171988
  0
LINE
  5
1A4
330
1F
100
AcDbEntity
  8
0
  6
Continuous
 62
     7
370
     0
100
AcDbLine
 10
19.3913977877
 20
139.6111226666
 30
0.0
 11
19.3913977877
 21
139.5261227178
 31
0.0
  0
LINE
  5
1A5
330
1F
100
AcDbEntity
  8
0
  6
Continuous
 62
     7
370
     0
100
AcDbLine
 10
20.4913978981
 20
139.5261227178
 30
0.0
 11
20.4913978981
 21
139.6111226666
 31
0.0
  0
SPLINE
  5
1A6
330
1F
100
AcDbEntity
  8
0
  6
Continuous
 62
     7
370
     0
100
AcDbSpline
210
0.0
220
0.0
230
1.0
 70
    24
 71
     3
 72
    22
 73
    18
 74
     0
 42
0.000000001
 43
0.00000001
 40
0.0
 40
0.0
 40
0.0
 40
0.0
 40
0.0838682129537688
 40
0.1645571744364109
 40
0.2348134928037279
 40
0.2956879427637578
 40
0.3479978230867877
 40
0.392354731793275
 40
0.4291967830130174
 40
0.4612904241638772
 40
0.5142105347629801
 40
0.5806104416014573
 40
0.6607705991335107
 40
0.7305228323690361
 40
0.8094056542563968
 40
0.8986621773830781
 40
0.9999999999999999
 40
0.9999999999999999
 40
0.9999999999999999
 40
0.9999999999999999
 10
24.27139792632033
 20
139.5022501262847
 30
0.0
 10
24.27139792632033
 20
139.3472539083399
 30
0.0
 10
24.27139792632033
 20
139.043137023348
 30
0.0
 10
24.27139792632033
 20
138.6292942736111
 30
0.0
 10
24.27139792632033
 20
138.271209548521
 30
0.0
 10
24.27139792632033
 20
137.9761833741569
 30
0.0
 10
24.27139792632033
 20
137.735634558099
 30
0.0
 10
24.27139792632033
 20
137.542334258757
 30
0.0
 10
24.27139792632033
 20
137.3865690182135
 30
0.0
 10
24.27139792632033
 20
137.2271428802389
 30
0.0
 10
24.27139792632033
 20
137.0421525857147
 30
0.0
 10
24.27139792632033
 20
136.8247033415469
 30
0.0
 10
24.27139792632033
 20
136.626570378018
 30
0.0
 10
24.27139792632033
 20
136.4593990190511
 30
0.0
 10
24.27139792632033
 20
136.3301337218703
 30
0.0
 10
24.27139792632033
 20
136.2342398213179
 30
0.0
 10
24.27139792632033
 20
136.2163454255099
 30
0.0
 10
24.27139792632033
 20
136.20683108708
 30
0.0
  0
SPLINE
  5
1A7
330
1F
100
AcDbEntity
  8
0
  6
Continuous
 62
     7
370
     0
100
AcDbSpline
210
0.0
220
0.0
230
1.0
 70
    24
 71
     3
 72
    22
 73
    18
 74
     0
 42
0.000000001
 43
0.00000001
 40
0.0
 40
0.0
 40
0.0
 40
0.0
 40
0.1013375824925777
 40
0.1905938941220753
 40
0.269476529093185
 40
0.3392285970477834
 40
0.4193885646368839
 40
0.4857883141379161
 40
0.538708299340533
 40
0.570801864444125
 40
0.607643828365037
 40
0.6520006319659146
 40
0.7043103883384256
 40
0.7651846940538191
 40
0.8354408459457576
 40
0.9161296162324231
 40
1.0
 40
1.0
 40
1.0
 40
1.0
 10
25.21139786619414
 20
136.20683108708
 30
0.0
 10
25.21139786619414
 20
136.2163454255099
 30
0.0
 10
25.21139786619414
 20
136.2342398213179
 30
0.0
 10
25.21139786619414
 20
136.3301337218703
 30
0.0
 10
25.21139786619414
 20
136.459399019051
 30
0.0
 10
25.21139786619414
 20
136.6265703780181
 30
0.0
 10
25.21139786619414
 20
136.8247033415466
 30
0.0
 10
25.21139786619414
 20
137.0421525857156
 30
0.0
 10
25.21139786619414
 20
137.2271428802367
 30
0.0
 10
25.21139786619414
 20
137.3865690182183
 30
0.0
 10
25.21139786619414
 20
137.5423342587337
 30
0.0
 10
25.21139786619414
 20
137.7356345582139
 30
0.0
 10
25.21139786619414
 20
137.9761833736095
 30
0.0
 10
25.21139786619414
 20
138.2712095510827
 30
0.0
 10
25.21139786619414
 20
138.6292942617533
 30
0.0
 10
25.21139786619414
 20
139.0431412517225
 30
0.0
 10
25.21139786619414
 20
139.3472625502056
 30
0.0
 10
25.21139786619414
 20
139.5022631648007
 30
0.0
  0
ARC
  5
1A8
330
1F
100
AcDbEntity
  8
0
  6
Continuous
 62
     7
370
     0
100
AcDbCircle
 10
24.7413978987
 20
145.0625672267
 30
0.0
 40
1.725555555555587
100
AcDbArc
 50
71.4133828012
 51
90.0
  0
ARC
  5
1A9
330
1F
100
AcDbEntity
  8
0
  6
Continuous
 62
     7
370
     0
100
AcDbCircle
 10
24.7413978987
 20
145.0625672267
 30
0.0
 40
1.725555555555587
100
AcDbArc
 50
90.0
 51
108.5866171988
  0
LINE
  5
1AA
330
1F
100
AcDbEntity
  8
0
  6
Continuous
 62
     7
370
     0
100
AcDbLine
 10
25.2913980097
 20
146.6131228979
 30
0.0
 11
25.2913980097
 21
146.6981228466
 31
0.0
  0
LINE
  5
1AB
330
1F
100
AcDbEntity
  8
0
  6
Continuous
 62
     7
370
     0
100
AcDbLine
 10
24.1913978992
 20
146.6981228466
 30
0.0
 11
24.1913978992
 21
146.6131228979
 31
0.0
  0
LINE
  5
1AC
330
1F
100
AcDbEntity
  8
0
  6
Continuous
 62
     7
370
     0
100
AcDbLine
 10
24.2309353365
 20
146.7021228771
 30
0.0
 11
20.4187968796
 21
146.7021228771
 31
0.0
  0
ARC
  5
1AD
330
1F
100
AcDbEntity
  8
0
  6
Continuous
 62
     7
370
     0
100
AcDbCircle
 10
19.9413978987
 20
145.0625672267
 30
0.0
 40
1.725555555555587
100
AcDbArc
 50
71.4133828012
 51
90.0
  0
ARC
  5
1AE
330
1F
100
AcDbEntity
  8
0
  6
Continuous
 62
     7
370
     0
100
AcDbCircle
 10
19.9413978987
 20
145.0625672267
 30
0.0
 40
1.725555555555587
100
AcDbArc
 50
90.0
 51
108.5866171988
  0
LINE
  5
1AF
330
1F
100
AcDbEntity
  8
0
  6
Continuous
 62
     7
370
     0
100
AcDbLine
 10
19.3913977877
 20
146.6981228466
 30
0.0
 11
19.3913977877
 21
146.6131228979
 31
0.0
  0
LINE
  5
1B0
330
1F
100
AcDbEntity
  8
0
  6
Continuous
 62
     7
370
     0
100
AcDbLine
 10
20.4913978981
 20
146.6131228979
 30
0.0
 11
20.4913978981
 21
146.6981228466
 31
0.0
  0
SPLINE
  5
1B1
330
1F
100
AcDbEntity
  8
0
  6
Continuous
 62
     7
370
     0
100
AcDbSpline
210
0.0
220
0.0
230
1.0
 70
    24
 71
     3
 72
    22
 73
    18
 74
     0
 42
0.000000001
 43
0.00000001
 40
0.0
 40
0.0
 40
0.0
 40
0.0
 40
0.0838703837675769
 40
0.1645591540542424
 40
0.2348153059461809
 40
0.2956896116615744
 40
0.3479993680340853
 40
0.3923561716349629
 40
0.429198135555875
 40
0.4612917006594671
 40
0.5142116858620839
 40
0.5806114353631161
 40
0.6607714029522167
 40
0.730523470906815
 40
0.8094061058779248
 40
0.8986624175074224
 40
1.0
 40
1.0
 40
1.0
 40
1.0
 10
25.21139786619414
 20
146.7219823996547
 30
0.0
 10
25.21139786619414
 20
146.8769830142499
 30
0.0
 10
25.21139786619414
 20
147.181104312733
 30
0.0
 10
25.21139786619414
 20
147.5949513027022
 30
0.0
 10
25.21139786619414
 20
147.9530360133727
 30
0.0
 10
25.21139786619414
 20
148.2480621908459
 30
0.0
 10
25.21139786619414
 20
148.4886110062415
 30
0.0
 10
25.21139786619414
 20
148.6819113057217
 30
0.0
 10
25.21139786619414
 20
148.8376765462371
 30
0.0
 10
25.21139786619414
 20
148.9971026842187
 30
0.0
 10
25.21139786619414
 20
149.1820929787399
 30
0.0
 10
25.21139786619414
 20
149.3995422229088
 30
0.0
 10
25.21139786619414
 20
149.5976751864373
 30
0.0
 10
25.21139786619414
 20
149.7648465454044
 30
0.0
 10
25.21139786619414
 20
149.8941118425852
 30
0.0
 10
25.21139786619414
 20
149.9900057431375
 30
0.0
 10
25.21139786619414
 20
150.0079001389456
 30
0.0
 10
25.21139786619414
 20
150.0174144773755
 30
0.0
  0
SPLINE
  5
1B2
330
1F
100
AcDbEntity
  8
0
  6
Continuous
 62
     7
370
     0
100
AcDbSpline
210
0.0
220
0.0
230
1.0
 70
    24
 71
     3
 72
    22
 73
    18
 74
     0
 42
0.000000001
 43
0.00000001
 40
0.0
 40
0.0
 40
0.0
 40
0.0
 40
0.101337822616922
 40
0.1905943457436032
 40
0.269477167630964
 40
0.3392294008664893
 40
0.4193895583985427
 40
0.4857894652370199
 40
0.5387095758361227
 40
0.5708032169869826
 40
0.607645268206725
 40
0.6520021769132122
 40
0.7043120572362421
 40
0.765186507196272
 40
0.8354428255635891
 40
0.9161317870462312
 40
1.0
 40
1.0
 40
1.0
 40
1.0
 10
24.27139792632033
 20
150.0174144773755
 30
0.0
 10
24.27139792632033
 20
150.0079001389456
 30
0.0
 10
24.27139792632033
 20
149.9900057431375
 30
0.0
 10
24.27139792632033
 20
149.8941118425852
 30
0.0
 10
24.27139792632033
 20
149.7648465454043
 30
0.0
 10
24.27139792632033
 20
149.5976751864374
 30
0.0
 10
24.27139792632033
 20
149.3995422229085
 30
0.0
 10
24.27139792632033
 20
149.1820929787407
 30
0.0
 10
24.27139792632033
 20
148.9971026842166
 30
0.0
 10
24.27139792632033
 20
148.8376765462419
 30
0.0
 10
24.27139792632033
 20
148.6819113056984
 30
0.0
 10
24.27139792632033
 20
148.4886110063564
 30
0.0
 10
24.27139792632033
 20
148.2480621902986
 30
0.0
 10
24.27139792632033
 20
147.9530360159344
 30
0.0
 10
24.27139792632033
 20
147.5949512908444
 30
0.0
 10
24.27139792632033
 20
147.1811085411074
 30
0.0
 10
24.27139792632033
 20
146.8769916561156
 30
0.0
 10
24.27139792632033
 20
146.7219954381708
 30
0.0
  0
LINE
  5
1B3
330
1F
100
AcDbEntity
  8
0
  6
Continuous
 62
     7
370
     0
100
AcDbLine
 10
24.1913978992
 20
139.6111226666
 30
0.0
 11
25.2913980097
 21
139.6111226666
 31
0.0
  0
LINE
  5
1B4
330
1F
100
AcDbEntity
  8
0
  6
Continuous
 62
     7
370
     0
100
AcDbLine
 10
24.1913978992
 20
139.5261227178
 30
0.0
 11
25.2913980097
 21
139.5261227178
 31
0.0
  0
LWPOLYLINE
  5
1B5
330
1F
100
AcDbEntity
  8
0
  6
Continuous
 62
     7
370
     0
100
AcDbPolyline
 90
        9
 70
   128
 43
0.0
 10
24.7343481336
 20
139.6111226666
 10
24.7343481336
 20
139.6112476966
 10
24.7343481336
 20
139.6113727267
 10
24.7343479008
 20
139.6114977567
 10
24.7343479008
 20
139.6116227868
 10
24.7343479008
 20
139.6117478169
 10
24.7343479008
 20
139.6118728469
 10
24.734347668
 20
139.611997877
 10
24.7343481336
 20
139.6121226742
  0
LWPOLYLINE
  5
1B6
330
1F
100
AcDbEntity
  8
0
  6
Continuous
 62
     7
370
     0
100
AcDbPolyline
 90
        9
 70
   128
 43
0.0
 10
24.7484476589
 20
139.6121226742
 10
24.7484476589
 20
139.611997877
 10
24.7484476589
 20
139.6118728469
 10
24.7484474261
 20
139.6117478169
 10
24.7484474261
 20
139.6116227868
 10
24.7484474261
 20
139.6114977567
 10
24.7484474261
 20
139.6113727267
 10
24.7484471932
 20
139.6112476966
 10
24.7484471932
 20
139.6111226666
  0
LINE
  5
1B7
330
1F
100
AcDbEntity
  8
0
  6
Continuous
 62
     7
370
     0
100
AcDbLine
 10
19.3913977877
 20
139.5261227178
 30
0.0
 11
20.4183549671
 21
139.5261227178
 31
0.0
  0
LINE
  5
1B8
330
1F
100
AcDbEntity
  8
0
  6
Continuous
 62
     7
370
     0
100
AcDbLine
 10
19.3913977877
 20
139.6111226666
 30
0.0
 11
20.3891812874
 21
139.6111226666
 31
0.0
  0
LINE
  5
1B9
330
1F
100
AcDbEntity
  8
0
  6
Continuous
 62
     7
370
     0
100
AcDbLine
 10
20.4597020805
 20
139.6111226666
 30
0.0
 11
20.4913978981
 21
139.6111226666
 31
0.0
  0
LINE
  5
1BA
330
1F
100
AcDbEntity
  8
0
  6
Continuous
 62
     7
370
     0
100
AcDbLine
 10
24.8851949167
 20
139.6120227898
 30
0.0
 11
25.2113976334
 21
139.6120227898
 31
0.0
  0
ARC
  5
1BB
330
1F
100
AcDbEntity
  8
0
  6
Continuous
 62
     7
370
     0
100
AcDbCircle
 10
24.7414099973
 20
136.2462141804
 30
0.0
 40
0.4716591724433762
100
AcDbArc
 50
184.7897199817
 51
355.1751980947
  0
LINE
  5
1BC
330
1F
100
AcDbEntity
  8
0
  6
Continuous
 62
     7
370
     0
100
AcDbLine
 10
18.8413977906
 20
139.6121226742
 30
0.0
 11
25.8413980067
 21
139.6121226742
 31
0.0
  0
LINE
  5
1BD
330
1F
100
AcDbEntity
  8
0
  6
Continuous
 62
     7
370
     0
100
AcDbLine
 10
18.8413977906
 20
146.6121228903
 30
0.0
 11
18.8413977906
 21
139.6121226742
 31
0.0
  0
LINE
  5
1BE
330
1F
100
AcDbEntity
  8
0
  6
Continuous
 62
     7
370
     0
100
AcDbLine
 10
25.8413980067
 20
146.6121228903
 30
0.0
 11
18.8413977906
 21
146.6121228903
 31
0.0
  0
LINE
  5
1BF
330
1F
100
AcDbEntity
  8
0
  6
Continuous
 62
     7
370
     0
100
AcDbLine
 10
25.8413980067
 20
139.6121226742
 30
0.0
 11
25.8413980067
 21
146.6121228903
 31
0.0
  0
LINE
  5
1C0
330
1F
100
AcDbEntity
  8
0
  6
Continuous
 62
     7
370
     0
100
AcDbLine
 10
24.1913978992
 20
146.6981228466
 30
0.0
 11
25.2913980097
 21
146.6981228466
 31
0.0
  0
LINE
  5
1C1
330
1F
100
AcDbEntity
  8
0
  6
Continuous
 62
     7
370
     0
100
AcDbLine
 10
24.1913978992
 20
146.6131228979
 30
0.0
 11
25.2913980097
 21
146.6131228979
 31
0.0
  0
SPLINE
  5
1C2
330
1F
100
AcDbEntity
  8
0
  6
Continuous
 62
     7
370
     0
100
AcDbSpline
210
0.0
220
0.0
230
1.0
 70
     8
 71
     3
 72
    17
 73
    13
 74
     0
 42
0.000000001
 43
0.00000001
 40
0.0
 40
0.0
 40
0.0
 40
0.0
 40
0.0000327613862941
 40
0.0000327613862941
 40
0.0000327613862941
 40
0.0000676569624332
 40
0.0000676569624332
 40
0.0000676569624332
 40
0.0000935083918259
 40
0.0000935083918259
 40
0.0000935083918259
 40
0.0001064525923537
 40
0.0001064525923537
 40
0.0001064525923537
 40
0.0001064525923537
 10
20.38918129107131
 20
146.6131227822277
 30
0.0
 10
20.38924161600323
 20
146.6240427501287
 30
0.0
 10
20.39031453839471
 20
146.6350883885547
 30
0.0
 10
20.39233023769514
 20
146.6454257804897
 30
0.0
 10
20.39446876829414
 20
146.6563931053096
 30
0.0
 10
20.39775005754346
 20
146.6669094215318
 30
0.0
 10
20.40185718037102
 20
146.675731891574
 30
0.0
 10
20.40491749604947
 20
146.6823057255026
 30
0.0
 10
20.40851409673006
 20
146.6881063480071
 30
0.0
 10
20.41235006929369
 20
146.6925078630334
 30
0.0
 10
20.41429062187624
 20
146.6947345138266
 30
0.0
 10
20.41631109459871
 20
146.6966305964954
 30
0.0
 10
20.41835497510672
 20
146.6981227822524
 30
0.0
  0
SPLINE
  5
1C3
330
1F
100
AcDbEntity
  8
0
  6
Continuous
 62
     7
370
     0
100
AcDbSpline
210
0.0
220
0.0
230
1.0
 70
     8
 71
     3
 72
    23
 73
    19
 74
     0
 42
0.000000001
 43
0.00000001
 40
0.0000000000000021
 40
0.0000000000000021
 40
0.0000000000000021
 40
0.0000000000000021
 40
0.0000136991388042
 40
0.0000136991388042
 40
0.0000136991388042
 40
0.0000216340656101
 40
0.0000216340656101
 40
0.0000216340656101
 40
0.0000296647624066
 40
0.0000296647624066
 40
0.0000296647624066
 40
0.0000367560774241
 40
0.0000367560774241
 40
0.0000367560774241
 40
0.0000484502327164
 40
0.0000484502327164
 40
0.0000484502327164
 40
0.00005241736476
 40
0.00005241736476
 40
0.00005241736476
 40
0.00005241736476
 10
20.43914655895942
 20
146.6981227822277
 30
0.0
 10
20.43489654807905
 20
146.6992383901246
 30
0.0
 10
20.43066407927814
 20
146.7002609880389
 30
0.0
 10
20.42692145654024
 20
146.7010034250579
 30
0.0
 10
20.42474354966093
 20
146.7014354639793
 30
0.0
 10
20.42270320170671
 20
146.7017751866142
 30
0.0
 10
20.42102535639655
 20
146.7019597000138
 30
0.0
 10
20.41933509900092
 20
146.7021455783759
 30
0.0
 10
20.41798585575582
 20
146.7021719194014
 30
0.0
 10
20.41712958835922
 20
146.7020315215512
 30
0.0
 10
20.41636859015173
 20
146.7019067445098
 30
0.0
 10
20.4159652125483
 20
146.7016525404755
 30
0.0
 10
20.41585796093407
 20
146.7013122148969
 30
0.0
 10
20.41568192767769
 20
146.7007536347742
 30
0.0
 10
20.41626777716883
 20
146.6999577206485
 30
0.0
 10
20.4172327468882
 20
146.6990699681734
 30
0.0
 10
20.41756306340019
 20
146.6987660837144
 30
0.0
 10
20.41794034351301
 20
146.6984493380862
 30
0.0
 10
20.41835497506316
 20
146.6981227822343
 30
0.0
  0
SPLINE
  5
1C4
330
1F
100
AcDbEntity
  8
0
  6
Continuous
 62
     7
370
     0
100
AcDbSpline
210
0.0
220
0.0
230
1.0
 70
     8
 71
     3
 72
    17
 73
    13
 74
     0
 42
0.000000001
 43
0.00000001
 40
0.0
 40
0.0
 40
0.0
 40
0.0
 40
0.0000249091250945
 40
0.0000249091250945
 40
0.0000249091250945
 40
0.0000496470944607
 40
0.0000496470944607
 40
0.0000496470944607
 40
0.0000776809554077
 40
0.0000776809554077
 40
0.0000776809554077
 40
0.0001063965837808
 40
0.0001063965837808
 40
0.0001063965837808
 40
0.0001063965837808
 10
20.43914655895825
 20
146.6981227822282
 30
0.0
 10
20.44246623400953
 20
146.6952858372563
 30
0.0
 10
20.445444141032
 20
146.6909464878746
 30
0.0
 10
20.44793342289591
 20
146.6856434514544
 30
0.0
 10
20.45041237696643
 20
146.6803624168274
 30
0.0
 10
20.45248039772435
 20
146.6740078766168
 30
0.0
 10
20.45412544209998
 20
146.6671011439888
 30
0.0
 10
20.45598823905001
 20
146.6592801753481
 30
0.0
 10
20.4573575508049
 20
146.6505741147213
 30
0.0
 10
20.45826723958962
 20
146.6415971797857
 30
0.0
 10
20.45919957945381
 20
146.6323967208604
 30
0.0
 10
20.4596715006405
 20
146.6227185843585
 30
0.0
 10
20.45970204468762
 20
146.6131227822278
 30
0.0
  0
LINE
  5
1C5
330
1F
100
AcDbEntity
  8
0
  6
Continuous
 62
     7
370
     0
100
AcDbLine
 10
19.3913977877
 20
146.6981228466
 30
0.0
 11
20.4183549671
 21
146.6981228466
 31
0.0
  0
LINE
  5
1C6
330
1F
100
AcDbEntity
  8
0
  6
Continuous
 62
     7
370
     0
100
AcDbLine
 10
19.3913977877
 20
146.6131228979
 30
0.0
 11
20.3891812874
 21
146.6131228979
 31
0.0
  0
LINE
  5
1C7
330
1F
100
AcDbEntity
  8
0
  6
Continuous
 62
     7
370
     0
100
AcDbLine
 10
24.3890381702
 20
146.6122227746
 30
0.0
 11
25.2113492046
 21
146.6122227746
 31
0.0
  0
ARC
  5
1C8
330
1F
100
AcDbEntity
  8
0
  6
Continuous
 62
     7
370
     0
100
AcDbCircle
 10
24.7414099973
 20
149.978031384
 30
0.0
 40
0.4716591724433715
100
AcDbArc
 50
4.8248019053
 51
175.2102800183
  0
DIMENSION
  5
1C9
330
1F
100
AcDbEntity
  8
0
  6
Continuous
 62
     7
370
     0
100
AcDbDimension
  2
_D_1
 10
35.8413978987
 20
139.6121227822
 30
0.0
 11
35.8413978987
 21
157.7290889824
 31
0.0
 70
   160
  1
<>
 71
     2
 42
-1.0
  3
SLDDIMSTYLE1
100
AcDbAlignedDimension
 13
25.8413978987
 23
146.6121227822
 33
0.0
 14
25.8413978987
 24
139.6121227822
 34
0.0
 50
90.0
100
AcDbRotatedDimension
  0
LINE
  5
1DE
330
1F
100
AcDbEntity
  8
0
  6
Continuous
 62
     7
370
     0
100
AcDbLine
 10
83.9252335402
 20
186.1141564019
 30
0.0
 11
143.9252340618
 21
186.1141564019
 31
0.0
  0
LINE
  5
1DF
330
1F
100
AcDbEntity
  8
0
  6
Continuous
 62
     7
370
     0
100
AcDbLine
 10
143.9252340618
 20
187.0541563418
 30
0.0
 11
83.9252335402
 21
187.0541563418
 31
0.0
  0
SPLINE
  5
1E0
330
1F
100
AcDbEntity
  8
0
  6
Continuous
 62
     7
370
     0
100
AcDbSpline
210
0.0
220
0.0
230
1.0
 70
    24
 71
     3
 72
    22
 73
    18
 74
     0
 42
0.000000001
 43
0.00000001
 40
0.0
 40
0.0
 40
0.0
 40
0.0
 40
0.0838703837675769
 40
0.1645591540542424
 40
0.2348153059461809
 40
0.2956896116615744
 40
0.3479993680340853
 40
0.3923561716349629
 40
0.429198135555875
 40
0.4612917006594671
 40
0.5142116858620839
 40
0.5806114353631161
 40
0.6607714029522167
 40
0.730523470906815
 40
0.8094061058779248
 40
0.8986624175074224
 40
1.0
 40
1.0
 40
1.0
 40
1.0
 10
79.0601449237506
 20
186.1141564019295
 30
0.0
 10
79.13907301454452
 20
186.1141564019295
 30
0.0
 10
79.29393506797399
 20
186.1141564019295
 30
0.0
 10
79.55134151637805
 20
186.1141564019295
 30
0.0
 10
79.80594017793608
 20
186.1141564019295
 30
0.0
 10
80.04632937458445
 20
186.1141564019295
 30
0.0
 10
80.26750283808802
 20
186.1141564019295
 30
0.0
 10
80.46576859138322
 20
186.1141564019295
 30
0.0
 10
80.64165717903758
 20
186.1141564019295
 30
0.0
 10
80.83769230704053
 20
186.1141564019295
 30
0.0
 10
81.09158683685625
 20
186.1141564019295
 30
0.0
 10
81.4439437389288
 20
186.1141564019295
 30
0.0
 10
81.84718832366254
 20
186.1141564019295
 30
0.0
 10
82.29176370914172
 20
186.1141564019295
 30
0.0
 10
82.7683394350105
 20
186.1141564019295
 30
0.0
 10
83.32010533697225
 20
186.1141564019295
 30
0.0
 10
83.71517661206376
 20
186.1141564019295
 30
0.0
 10
83.92523354024841
 20
186.1141564019295
 30
0.0
  0
SPLINE
  5
1E1
330
1F
100
AcDbEntity
  8
0
  6
Continuous
 62
     7
370
     0
100
AcDbSpline
210
0.0
220
0.0
230
1.0
 70
    24
 71
     3
 72
    23
 73
    19
 74
     0
 42
0.000000001
 43
0.00000001
 40
0.0
 40
0.0
 40
0.0
 40
0.0
 40
0.0877755053833357
 40
0.1644246930716643
 40
0.2312188938160466
 40
0.2890760643885479
 40
0.3386119070062535
 40
0.3802004917570979
 40
0.4140374470006052
 40
0.4467845766683863
 40
0.486672387476271
 40
0.5339270563364644
 40
0.5889048144809481
 40
0.6521632621741905
 40
0.7245080945597261
 40
0.8070323411257692
 40
0.9011446221000073
 40
1.0
 40
1.0
 40
1.0
 40
1.0
 10
83.92523354024841
 20
187.0541563418033
 30
0.0
 10
83.74330018653203
 20
187.0541563418033
 30
0.0
 10
83.40249513262005
 20
187.0541563418033
 30
0.0
 10
82.9276629403185
 20
187.0541563418033
 30
0.0
 10
82.52065734276242
 20
187.0541563418033
 30
0.0
 10
82.17575332314458
 20
187.0541563418033
 30
0.0
 10
81.88779088357693
 20
187.0541563418033
 30
0.0
 10
81.6522819305529
 20
187.0541563418033
 30
0.0
 10
81.45331634086587
 20
187.0541563418033
 30
0.0
 10
81.26211148134146
 20
187.0541563418033
 30
0.0
 10
81.05289928997757
 20
187.0541563418033
 30
0.0
 10
80.81416830170343
 20
187.0541563418033
 30
0.0
 10
80.54959677862921
 20
187.0541563418033
 30
0.0
 10
80.26356670944998
 20
187.0541563418033
 30
0.0
 10
79.96086048378818
 20
187.0541563418033
 30
0.0
 10
79.64790892876182
 20
187.0541563418033
 30
0.0
 10
79.3367497107573
 20
187.0541563418033
 30
0.0
 10
79.15407342383917
 20
187.0541563418033
 30
0.0
 10
79.06049021159514
 20
187.0541563418033
 30
0.0
  0
LINE
  5
1E2
330
1F
100
AcDbEntity
  8
0
  6
Continuous
 62
     7
370
     0
100
AcDbLine
 10
83.5061469964
 20
192.4841564775
 30
0.0
 11
80.5061469627
 21
192.4841564775
 31
0.0
  0
LINE
  5
1E3
330
1F
100
AcDbEntity
  8
0
  6
Continuous
 62
     7
370
     0
100
AcDbLine
 10
83.5061469964
 20
185.4841562614
 30
0.0
 11
80.5061469627
 21
185.4841562614
 31
0.0
  0
LINE
  5
1E4
330
1F
100
AcDbEntity
  8
0
  6
Continuous
 62
     7
370
     0
100
AcDbLine
 10
80.5061469627
 20
185.4841562614
 30
0.0
 11
80.5061469627
 21
186.1141564019
 31
0.0
  0
LINE
  5
1E5
330
1F
100
AcDbEntity
  8
0
  6
Continuous
 62
     7
370
     0
100
AcDbLine
 10
80.5061469627
 20
187.0541563418
 30
0.0
 11
80.5061469627
 21
188.8410040862
 31
0.0
  0
LINE
  5
1E6
330
1F
100
AcDbEntity
  8
0
  6
Continuous
 62
     7
370
     0
100
AcDbLine
 10
80.5061469627
 20
189.1289081119
 30
0.0
 11
80.5061469627
 21
192.4841564775
 31
0.0
  0
LINE
  5
1E7
330
1F
100
AcDbEntity
  8
0
  6
Continuous
 62
     7
370
     0
100
AcDbLine
 10
83.5061469964
 20
185.4841562614
 30
0.0
 11
83.5061469964
 21
186.1141564019
 31
0.0
  0
LINE
  5
1E8
330
1F
100
AcDbEntity
  8
0
  6
Continuous
 62
     7
370
     0
100
AcDbLine
 10
83.5061469964
 20
187.0541563418
 30
0.0
 11
83.5061469964
 21
192.4841564775
 31
0.0
  0
LINE
  5
1E9
330
1F
100
AcDbEntity
  8
0
  6
Continuous
 62
     7
370
     0
100
AcDbLine
 10
77.5051469366
 20
185.4841562614
 30
0.0
 11
80.5051469627
 21
185.4841562614
 31
0.0
  0
LINE
  5
1EA
330
1F
100
AcDbEntity
  8
0
  6
Continuous
 62
     7
370
     0
100
AcDbLine
 10
77.5051469366
 20
192.4841564775
 30
0.0
 11
77.5051469366
 21
189.1198256359
 31
0.0
  0
LINE
  5
1EB
330
1F
100
AcDbEntity
  8
0
  6
Continuous
 62
     7
370
     0
100
AcDbLine
 10
77.5051469366
 20
188.8325402557
 30
0.0
 11
77.5051469366
 21
185.4841562614
 31
0.0
  0
LINE
  5
1EC
330
1F
100
AcDbEntity
  8
0
  6
Continuous
 62
     7
370
     0
100
AcDbLine
 10
77.5051469366
 20
192.4841564775
 30
0.0
 11
80.5051469627
 21
192.4841564775
 31
0.0
  0
LINE
  5
1ED
330
1F
100
AcDbEntity
  8
0
  6
Continuous
 62
     7
370
     0
100
AcDbLine
 10
80.5051469627
 20
192.4841564775
 30
0.0
 11
80.5051469627
 21
189.1273086527
 31
0.0
  0
LINE
  5
1EE
330
1F
100
AcDbEntity
  8
0
  6
Continuous
 62
     7
370
     0
100
AcDbLine
 10
80.5051469627
 20
188.839404627
 30
0.0
 11
80.5051469627
 21
187.0541563418
 31
0.0
  0
LINE
  5
1EF
330
1F
100
AcDbEntity
  8
0
  6
Continuous
 62
     7
370
     0
100
AcDbLine
 10
80.5051469627
 20
186.1141564019
 30
0.0
 11
80.5051469627
 21
185.4841562614
 31
0.0
  0
LINE
  5
1F0
330
1F
100
AcDbEntity
  8
0
  6
Continuous
 62
     7
370
     0
100
AcDbLine
 10
74.4951468344
 20
185.4841562614
 30
0.0
 11
77.4951468605
 21
185.4841562614
 31
0.0
  0
LINE
  5
1F1
330
1F
100
AcDbEntity
  8
0
  6
Continuous
 62
     7
370
     0
100
AcDbLine
 10
74.4951468344
 20
192.4841564775
 30
0.0
 11
74.4951468344
 21
189.1357724832
 31
0.0
  0
LINE
  5
1F2
330
1F
100
AcDbEntity
  8
0
  6
Continuous
 62
     7
370
     0
100
AcDbLine
 10
74.4951468344
 20
188.848487103
 30
0.0
 11
74.4951468344
 21
185.4841562614
 31
0.0
  0
LINE
  5
1F3
330
1F
100
AcDbEntity
  8
0
  6
Continuous
 62
     7
370
     0
100
AcDbLine
 10
74.4951468344
 20
192.4841564775
 30
0.0
 11
77.4951468605
 21
192.4841564775
 31
0.0
  0
LINE
  5
1F4
330
1F
100
AcDbEntity
  8
0
  6
Continuous
 62
     7
370
     0
100
AcDbLine
 10
77.4951468605
 20
192.4841564775
 30
0.0
 11
77.4951468605
 21
189.1357724832
 31
0.0
  0
LINE
  5
1F5
330
1F
100
AcDbEntity
  8
0
  6
Continuous
 62
     7
370
     0
100
AcDbLine
 10
77.4951468605
 20
188.848487103
 30
0.0
 11
77.4951468605
 21
185.4841562614
 31
0.0
  0
LINE
  5
1F6
330
1F
100
AcDbEntity
  8
0
  6
Continuous
 62
     7
370
     0
100
AcDbLine
 10
71.4851471979
 20
185.4841562614
 30
0.0
 11
74.4851467583
 21
185.4841562614
 31
0.0
  0
LINE
  5
1F7
330
1F
100
AcDbEntity
  8
0
  6
Continuous
 62
     7
370
     0
100
AcDbLine
 10
71.4851471979
 20
192.4841564775
 30
0.0
 11
71.4851471979
 21
189.1198256359
 31
0.0
  0
LINE
  5
1F8
330
1F
100
AcDbEntity
  8
0
  6
Continuous
 62
     7
370
     0
100
AcDbLine
 10
71.4851471979
 20
188.8325402557
 30
0.0
 11
71.4851471979
 21
185.4841562614
 31
0.0
  0
LINE
  5
1F9
330
1F
100
AcDbEntity
  8
0
  6
Continuous
 62
     7
370
     0
100
AcDbLine
 10
74.4851467583
 20
192.4841564775
 30
0.0
 11
74.4851467583
 21
189.1198256359
 31
0.0
  0
LINE
  5
1FA
330
1F
100
AcDbEntity
  8
0
  6
Continuous
 62
     7
370
     0
100
AcDbLine
 10
74.4851467583
 20
188.8325402557
 30
0.0
 11
74.4851467583
 21
185.4841562614
 31
0.0
  0
LINE
  5
1FB
330
1F
100
AcDbEntity
  8
0
  6
Continuous
 62
     7
370
     0
100
AcDbLine
 10
71.4851471979
 20
192.4841564775
 30
0.0
 11
74.4851467583
 21
192.4841564775
 31
0.0
  0
LINE
  5
1FC
330
1F
100
AcDbEntity
  8
0
  6
Continuous
 62
     7
370
     0
100
AcDbLine
 10
68.4751470956
 20
185.4841562614
 30
0.0
 11
71.475146656
 21
185.4841562614
 31
0.0
  0
LINE
  5
1FD
330
1F
100
AcDbEntity
  8
0
  6
Continuous
 62
     7
370
     0
100
AcDbLine
 10
68.4751470956
 20
192.4841564775
 30
0.0
 11
68.4751470956
 21
188.6704584046
 31
0.0
  0
LINE
  5
1FE
330
1F
100
AcDbEntity
  8
0
  6
Continuous
 62
     7
370
     0
100
AcDbLine
 10
68.4751470956
 20
188.3401574029
 30
0.0
 11
68.4751470956
 21
185.4841562614
 31
0.0
  0
LINE
  5
1FF
330
1F
100
AcDbEntity
  8
0
  6
Continuous
 62
     7
370
     0
100
AcDbLine
 10
71.475146656
 20
192.4841564775
 30
0.0
 11
71.475146656
 21
189.1357724832
 31
0.0
  0
LINE
  5
200
330
1F
100
AcDbEntity
  8
0
  6
Continuous
 62
     7
370
     0
100
AcDbLine
 10
71.475146656
 20
188.848487103
 30
0.0
 11
71.475146656
 21
185.4841562614
 31
0.0
  0
LINE
  5
201
330
1F
100
AcDbEntity
  8
0
  6
Continuous
 62
     7
370
     0
100
AcDbLine
 10
68.4751470956
 20
192.4841564775
 30
0.0
 11
71.475146656
 21
192.4841564775
 31
0.0
  0
LINE
  5
202
330
1F
100
AcDbEntity
  8
0
  6
Continuous
 62
     7
370
     0
100
AcDbLine
 10
66.4741465274
 20
185.4841562614
 30
0.0
 11
68.4741468552
 21
185.4841562614
 31
0.0
  0
LINE
  5
203
330
1F
100
AcDbEntity
  8
0
  6
Continuous
 62
     7
370
     0
100
AcDbLine
 10
66.4741465274
 20
192.4841564775
 30
0.0
 11
66.4741465274
 21
185.4841562614
 31
0.0
  0
LINE
  5
204
330
1F
100
AcDbEntity
  8
0
  6
Continuous
 62
     7
370
     0
100
AcDbLine
 10
66.4741465274
 20
192.4841564775
 30
0.0
 11
68.4741468552
 21
192.4841564775
 31
0.0
  0
LINE
  5
205
330
1F
100
AcDbEntity
  8
0
  6
Continuous
 62
     7
370
     0
100
AcDbLine
 10
68.4741468552
 20
192.4841564775
 30
0.0
 11
68.4741468552
 21
188.6685391816
 31
0.0
  0
LINE
  5
206
330
1F
100
AcDbEntity
  8
0
  6
Continuous
 62
     7
370
     0
100
AcDbLine
 10
68.4741468552
 20
188.3382381799
 30
0.0
 11
68.4741468552
 21
185.4841562614
 31
0.0
  0
LINE
  5
207
330
1F
100
AcDbEntity
  8
0
  6
Continuous
 62
     7
370
     0
100
AcDbLine
 10
66.0731469664
 20
185.4841562614
 30
0.0
 11
66.4731472182
 21
185.4841562614
 31
0.0
  0
LINE
  5
208
330
1F
100
AcDbEntity
  8
0
  6
Continuous
 62
     7
370
     0
100
AcDbLine
 10
66.0731469664
 20
185.4841562614
 30
0.0
 11
66.0731469664
 21
192.4841564775
 31
0.0
  0
LINE
  5
209
330
1F
100
AcDbEntity
  8
0
  6
Continuous
 62
     7
370
     0
100
AcDbLine
 10
66.0731469664
 20
192.4841564775
 30
0.0
 11
66.4731472182
 21
192.4841564775
 31
0.0
  0
LINE
  5
20A
330
1F
100
AcDbEntity
  8
0
  6
Continuous
 62
     7
370
     0
100
AcDbLine
 10
66.4731472182
 20
185.4841562614
 30
0.0
 11
66.4731472182
 21
192.4841564775
 31
0.0
  0
LINE
  5
20B
330
1F
100
AcDbEntity
  8
0
  6
Continuous
 62
     7
370
     0
100
AcDbLine
 10
84.1071469161
 20
192.4841564775
 30
0.0
 11
83.507147004
 21
192.4841564775
 31
0.0
  0
LINE
  5
20C
330
1F
100
AcDbEntity
  8
0
  6
Continuous
 62
     7
370
     0
100
AcDbLine
 10
84.1071469161
 20
192.4841564775
 30
0.0
 11
84.1071469161
 21
187.0541563418
 31
0.0
  0
LINE
  5
20D
330
1F
100
AcDbEntity
  8
0
  6
Continuous
 62
     7
370
     0
100
AcDbLine
 10
84.1071469161
 20
186.1141564019
 30
0.0
 11
84.1071469161
 21
185.4841562614
 31
0.0
  0
LINE
  5
20E
330
1F
100
AcDbEntity
  8
0
  6
Continuous
 62
     7
370
     0
100
AcDbLine
 10
84.1071469161
 20
185.4841562614
 30
0.0
 11
83.507147004
 21
185.4841562614
 31
0.0
  0
LINE
  5
20F
330
1F
100
AcDbEntity
  8
0
  6
Continuous
 62
     7
370
     0
100
AcDbLine
 10
83.507147004
 20
192.4841564775
 30
0.0
 11
83.507147004
 21
187.0541563418
 31
0.0
  0
LINE
  5
210
330
1F
100
AcDbEntity
  8
0
  6
Continuous
 62
     7
370
     0
100
AcDbLine
 10
83.507147004
 20
186.1141564019
 30
0.0
 11
83.507147004
 21
185.4841562614
 31
0.0
  0
LWPOLYLINE
  5
211
330
1F
100
AcDbEntity
  8
0
  6
Continuous
 62
     7
370
     0
100
AcDbPolyline
 90
       14
 70
   128
 43
0.0
 10
83.9252335402
 20
187.0541563418
 10
83.8730368681
 20
187.0393904552
 10
83.8241198483
 20
186.9960203927
 10
83.7815560784
 20
186.9267716699
 10
83.7480203166
 20
186.83599496
 10
83.7256192147
 20
186.7293943811
 10
83.7157609324
 20
186.6136680052
 10
83.7190643336
 20
186.4960871332
 10
83.735322199
 20
186.3840401799
 10
83.7635131005
 20
186.2845670127
 10
83.8018651969
 20
186.2039184358
 10
83.8479691568
 20
186.1471613098
 10
83.8989278685
 20
186.1178623673
 10
83.9255327276
 20
186.1141568676
  0
LWPOLYLINE
  5
212
330
1F
100
AcDbEntity
  8
0
  6
Continuous
 62
     7
370
     0
100
AcDbPolyline
 90
       26
 70
   128
 43
0.0
 10
143.9252340618
 20
187.0541563418
 10
143.8749575439
 20
187.0393904552
 10
143.8278400722
 20
186.9960203927
 10
143.7868395272
 20
186.9267716699
 10
143.7545338097
 20
186.83599496
 10
143.7329569283
 20
186.7293943811
 10
143.7234648886
 20
186.6136680052
 10
143.7266462866
 20
186.4960871332
 10
143.742307407
 20
186.3840401799
 10
143.7694573227
 20
186.2845670127
 10
143.8063973013
 20
186.2039184358
 10
143.8508102122
 20
186.1471613098
 10
143.8998946372
 20
186.1178623673
 10
143.9505734864
 20
186.1178623673
 10
143.9996579114
 20
186.1471613098
 10
144.0440633717
 20
186.2039184358
 10
144.0810108009
 20
186.2845670127
 10
144.1081607166
 20
186.3840401799
 10
144.123821837
 20
186.4960871332
 10
144.1270032349
 20
186.6136680052
 10
144.1175111953
 20
186.7293943811
 10
144.0959343138
 20
186.83599496
 10
144.0636285964
 20
186.9267716699
 10
144.0226280514
 20
186.9960203927
 10
143.9755105797
 20
187.0393904552
 10
143.9252340618
 20
187.0541563418
  0
SPLINE
  5
213
330
1F
100
AcDbEntity
  8
0
  6
Continuous
 62
     7
370
     0
100
AcDbSpline
210
0.0
220
0.0
230
1.0
 70
     8
 71
     3
 72
    26
 73
    22
 74
     0
 42
0.000000001
 43
0.00000001
 40
0.0
 40
0.0
 40
0.0
 40
0.0
 40
0.0376380362269869
 40
0.0898586863092077
 40
0.1435970776193733
 40
0.1958160491176203
 40
0.249533773030658
 40
0.3020463557275814
 40
0.3560548828724716
 40
0.4090535158842645
 40
0.4635654506806807
 40
0.5169808238461125
 40
0.5719370236909842
 40
0.6254802204965996
 40
0.6805887276752743
 40
0.733895058817794
 40
0.7887742090007136
 40
0.8416073170888758
 40
0.8959995498381079
 40
0.9483716814000518
 40
1.0
 40
1.0
 40
1.0
 40
1.0
 10
79.0605155901353
 20
187.0516457289728
 30
0.0
 10
79.04201292576168
 20
187.0520977096905
 30
0.0
 10
78.99783885929851
 20
187.0531767881334
 30
0.0
 10
78.92851658499968
 20
187.0373651894284
 30
0.0
 10
78.85577284860388
 20
187.0098790898217
 30
0.0
 10
78.78815981976818
 20
186.9695333088351
 30
0.0
 10
78.72864254491566
 20
186.9190154725007
 30
0.0
 10
78.67782995614819
 20
186.8585776521632
 30
0.0
 10
78.6379345008246
 20
186.7908224883855
 30
0.0
 10
78.60951218334668
 20
186.7164715412126
 30
0.0
 10
78.5939087353539
 20
186.6386839311399
 30
0.0
 10
78.59145898042395
 20
186.5584417643447
 30
0.0
 10
78.60240589988193
 20
186.4793637613793
 30
0.0
 10
78.62670436352664
 20
186.4024767438287
 30
0.0
 10
78.66325407493963
 20
186.3314829613809
 30
0.0
 10
78.71164254188278
 20
186.2671845196993
 30
0.0
 10
78.76943032167793
 20
186.212783297298
 30
0.0
 10
78.83601658472026
 20
186.1686191980142
 30
0.0
 10
78.90801429267458
 20
186.1371551129814
 30
0.0
 10
78.9837212691161
 20
186.1174387478194
 30
0.0
 10
79.03480589524773
 20
186.115431842046
 30
0.0
 10
79.06016552926256
 20
186.1144355658712
 30
0.0
  0
ARC
  5
214
330
1F
100
AcDbEntity
  8
0
  6
Continuous
 62
     7
370
     0
100
AcDbCircle
 10
82.0061469627
 20
191.3841563694
 30
0.0
 40
0.550000000000015
100
AcDbArc
 50
240.3303803094
 51
235.6416875992
  0
SPLINE
  5
215
330
1F
100
AcDbEntity
  8
0
  6
Continuous
 62
     7
370
     0
100
AcDbSpline
210
0.0
220
0.0
230
1.0
 70
     8
 71
     3
 72
    23
 73
    19
 74
     0
 42
0.000000001
 43
0.00000001
 40
0.0000000000000027
 40
0.0000000000000027
 40
0.0000000000000027
 40
0.0000000000000027
 40
0.0000136991387907
 40
0.0000136991387907
 40
0.0000136991387907
 40
0.0000216340655808
 40
0.0000216340655808
 40
0.0000216340655808
 40
0.0000296647623606
 40
0.0000296647623606
 40
0.0000296647623606
 40
0.0000367560773712
 40
0.0000367560773712
 40
0.0000367560773712
 40
0.0000484502326727
 40
0.0000484502326727
 40
0.0000484502326727
 40
0.0000524173646955
 40
0.0000524173646955
 40
0.0000524173646955
 40
0.0000524173646955
 10
81.73389805241005
 20
190.9062646130412
 30
0.0
 10
81.732991934785
 20
190.9105989171952
 30
0.0
 10
81.73161076697541
 20
190.9149529505454
 30
0.0
 10
81.72940297212067
 20
190.9188805772816
 30
0.0
 10
81.72811821222423
 20
190.9211661416799
 30
0.0
 10
81.72651626873389
 20
190.9233386447295
 30
0.0
 10
81.72460171813464
 20
190.9251720898603
 30
0.0
 10
81.7226730043909
 20
190.927019098147
 30
0.0
 10
81.72036379955102
 20
190.928553936969
 30
0.0
 10
81.71790625723219
 20
190.9296059356742
 30
0.0
 10
81.71572214359095
 20
190.930540887925
 30
0.0
 10
81.71337774204076
 20
190.9311297114247
 30
0.0
 10
81.71104119389689
 20
190.9314208792301
 30
0.0
 10
81.70720619167192
 20
190.9318987761588
 30
0.0
 10
81.7032955725314
 20
190.9316183835543
 30
0.0
 10
81.69955319449596
 20
190.9309444833582
 30
0.0
 10
81.69827214989215
 20
190.9307138021706
 30
0.0
 10
81.69700212323215
 20
190.9304351469477
 30
0.0
 10
81.69574538055244
 20
190.9301179814319
 30
0.0
  0
ARC
  5
216
330
1F
100
AcDbEntity
  8
0
  6
Continuous
 62
     7
370
     0
100
AcDbCircle
 10
75.9951469627
 20
191.3841563694
 30
0.0
 40
0.5500000000002
100
AcDbArc
 50
304.4354855733
 51
235.5645144191
  0
SPLINE
  5
217
330
1F
100
AcDbEntity
  8
0
  6
Continuous
 62
     7
370
     0
100
AcDbSpline
210
0.0
220
0.0
230
1.0
 70
     8
 71
     3
 72
    23
 73
    19
 74
     0
 42
0.000000001
 43
0.00000001
 40
0.0
 40
0.0
 40
0.0
 40
0.0
 40
0.0000136991387911
 40
0.0000136991387911
 40
0.0000136991387911
 40
0.0000216340655816
 40
0.0000216340655816
 40
0.0000216340655816
 40
0.0000296647623619
 40
0.0000296647623619
 40
0.0000296647623619
 40
0.0000367560773728
 40
0.0000367560773728
 40
0.0000367560773728
 40
0.000048450232674
 40
0.000048450232674
 40
0.000048450232674
 40
0.0000524173646982
 40
0.0000524173646982
 40
0.0000524173646982
 40
0.0000524173646982
 10
76.30615981921227
 20
190.9305364811102
 30
0.0
 10
76.30186497234703
 20
190.9316142250756
 30
0.0
 10
76.29734491246964
 20
190.9322732316296
 30
0.0
 10
76.29284744066067
 20
190.932002386234
 30
0.0
 10
76.29023027203962
 20
190.9318447758919
 30
0.0
 10
76.28757629209733
 20
190.9313524518998
 30
0.0
 10
76.28509080525156
 20
190.9304308336575
 30
0.0
 10
76.28258693168397
 20
190.9295023976208
 30
0.0
 10
76.28019771604252
 20
190.9280953418928
 30
0.0
 10
76.278178079589
 20
190.9263439755346
 30
0.0
 10
76.27638314995767
 20
190.9247874679928
 30
0.0
 10
76.27482959540993
 20
190.9229356040643
 30
0.0
 10
76.27354724069374
 20
190.9209608123534
 30
0.0
 10
76.27144249776242
 20
190.9177195649497
 30
0.0
 10
76.26998688604688
 20
190.9140791313757
 30
0.0
 10
76.26895874699073
 20
190.910418193666
 30
0.0
 10
76.2686068071338
 20
190.9091650267077
 30
0.0
 10
76.26830283633493
 20
190.9079008201562
 30
0.0
 10
76.26803931066992
 20
190.9066317455514
 30
0.0
  0
ARC
  5
218
330
1F
100
AcDbEntity
  8
0
  6
Continuous
 62
     7
370
     0
100
AcDbCircle
 10
75.9951469627
 20
191.3841563694
 30
0.0
 40
0.5500000000000168
100
AcDbArc
 50
240.2532071371
 51
299.7467928626
  0
SPLINE
  5
219
330
1F
100
AcDbEntity
  8
0
  6
Continuous
 62
     7
370
     0
100
AcDbSpline
210
0.0
220
0.0
230
1.0
 70
     8
 71
     3
 72
    23
 73
    19
 74
     0
 42
0.000000001
 43
0.00000001
 40
0.0000000000000578
 40
0.0000000000000578
 40
0.0000000000000578
 40
0.0000000000000578
 40
0.0000136991387907
 40
0.0000136991387907
 40
0.0000136991387907
 40
0.0000216340655809
 40
0.0000216340655809
 40
0.0000216340655809
 40
0.0000296647623608
 40
0.0000296647623608
 40
0.0000296647623608
 40
0.0000367560773714
 40
0.0000367560773714
 40
0.0000367560773714
 40
0.0000484502326729
 40
0.0000484502326729
 40
0.0000484502326729
 40
0.0000524173646957
 40
0.0000524173646957
 40
0.0000524173646957
 40
0.0000524173646957
 10
75.7222546146895
 20
190.9066317455877
 30
0.0
 10
75.72135433587194
 20
190.9109672662831
 30
0.0
 10
75.71997903387438
 20
190.9153231560141
 30
0.0
 10
75.71777653124367
 20
190.9192537529231
 30
0.0
 10
75.71649485099805
 20
190.9215410457244
 30
0.0
 10
75.71489583516099
 20
190.9237157045021
 30
0.0
 10
75.71298375581276
 20
190.9255517267272
 30
0.0
 10
75.71105753160148
 20
190.9274013311725
 30
0.0
 10
75.7087503961701
 20
190.9289392789296
 30
0.0
 10
75.70629427304458
 20
190.9299945868073
 30
0.0
 10
75.70411142069575
 20
190.9309324800488
 30
0.0
 10
75.70176781437368
 20
190.931524460749
 30
0.0
 10
75.69943166053069
 20
190.9318187754471
 30
0.0
 10
75.69559730547614
 20
190.9323018374052
 30
0.0
 10
75.691686312215
 20
190.9320267123684
 30
0.0
 10
75.6879430298808
 20
190.9313578534887
 30
0.0
 10
75.68666167572857
 20
190.9311288979823
 30
0.0
 10
75.68539127489271
 20
190.9308519536436
 30
0.0
 10
75.68413410615454
 20
190.9305364811545
 30
0.0
  0
ARC
  5
21A
330
1F
100
AcDbEntity
  8
0
  6
Continuous
 62
     7
370
     0
100
AcDbCircle
 10
69.9751469627
 20
191.3841563694
 30
0.0
 40
0.5500000000002027
100
AcDbArc
 50
244.8229549927
 51
299.7467928707
  0
SPLINE
  5
21B
330
1F
100
AcDbEntity
  8
0
  6
Continuous
 62
     7
370
     0
100
AcDbSpline
210
0.0
220
0.0
230
1.0
 70
     8
 71
     3
 72
    23
 73
    19
 74
     0
 42
0.000000001
 43
0.00000001
 40
0.0000000000000021
 40
0.0000000000000021
 40
0.0000000000000021
 40
0.0000000000000021
 40
0.0000136991388042
 40
0.0000136991388042
 40
0.0000136991388042
 40
0.0000216340656101
 40
0.0000216340656101
 40
0.0000216340656101
 40
0.0000296647624066
 40
0.0000296647624066
 40
0.0000296647624066
 40
0.0000367560774241
 40
0.0000367560774241
 40
0.0000367560774241
 40
0.0000484502327164
 40
0.0000484502327164
 40
0.0000484502327164
 40
0.00005241736476
 40
0.00005241736476
 40
0.00005241736476
 40
0.00005241736476
 10
69.7411677516955
 20
190.8864077091642
 30
0.0
 10
69.73992491252604
 20
190.8906577200446
 30
0.0
 10
69.73820693732068
 20
190.8948901888455
 30
0.0
 10
69.73569827533098
 20
190.8986328115834
 30
0.0
 10
69.73423843484267
 20
190.9008107184627
 30
0.0
 10
69.73247124139289
 20
190.9028510664169
 30
0.0
 10
69.73041895969281
 20
190.9045289117271
 30
0.0
 10
69.7283514959639
 20
190.9062191691227
 30
0.0
 10
69.72592916240133
 20
190.9075684123678
 30
0.0
 10
69.72339676794381
 20
190.9084246797644
 30
0.0
 10
69.72114613029198
 20
190.9091856779719
 30
0.0
 10
69.71876280944608
 20
190.9095890555753
 30
0.0
 10
69.71641063321682
 20
190.9096963071896
 30
0.0
 10
69.7125499804498
 20
190.909872340446
 30
0.0
 10
69.70867333984188
 20
190.9092864909548
 30
0.0
 10
69.70499524682616
 20
190.9083215212354
 30
0.0
 10
69.70373620746842
 20
190.9079912047234
 30
0.0
 10
69.70249191000319
 20
190.9076139246106
 30
0.0
 10
69.70126387221059
 20
190.9071992930605
 30
0.0
  0
ARC
  5
21C
330
1F
100
AcDbEntity
  8
0
  6
Continuous
 62
     7
370
     0
100
AcDbCircle
 10
69.9751469627
 20
191.3841563694
 30
0.0
 40
0.5500000000001227
100
AcDbArc
 50
304.4354855812
 51
240.1342622784
  0
SPLINE
  5
21D
330
1F
100
AcDbEntity
  8
0
  6
Continuous
 62
     7
370
     0
100
AcDbSpline
210
0.0
220
0.0
230
1.0
 70
     8
 71
     3
 72
    23
 73
    19
 74
     0
 42
0.000000001
 43
0.00000001
 40
0.0
 40
0.0
 40
0.0
 40
0.0
 40
0.0000136991388042
 40
0.0000136991388042
 40
0.0000136991388042
 40
0.0000216340656101
 40
0.0000216340656101
 40
0.0000216340656101
 40
0.0000296647624066
 40
0.0000296647624066
 40
0.0000296647624066
 40
0.0000367560774241
 40
0.0000367560774241
 40
0.0000367560774241
 40
0.0000484502327164
 40
0.0000484502327164
 40
0.0000484502327164
 40
0.0000524173647333
 40
0.0000524173647333
 40
0.0000524173647333
 40
0.0000524173647333
 10
70.28615981927436
 20
190.930536481153
 30
0.0
 10
70.28186497240729
 20
190.9316142251267
 30
0.0
 10
70.27734491251935
 20
190.9322732316262
 30
0.0
 10
70.272847440706
 20
190.9320023862367
 30
0.0
 10
70.27023027208182
 20
190.9318447758981
 30
0.0
 10
70.26757629213584
 20
190.9313524519097
 30
0.0
 10
70.26509080528577
 20
190.9304308336702
 30
0.0
 10
70.26258693171376
 20
190.9295023976363
 30
0.0
 10
70.2601977160671
 20
190.9280953419101
 30
0.0
 10
70.25817807960902
 20
190.926343975552
 30
0.0
 10
70.25638314997549
 20
190.9247874680119
 30
0.0
 10
70.25482959542545
 20
190.9229356040845
 30
0.0
 10
70.25354724070729
 20
190.9209608123743
 30
0.0
 10
70.2514424977763
 20
190.9177195649771
 30
0.0
 10
70.2499868860596
 20
190.9140791314096
 30
0.0
 10
70.24895874700198
 20
190.910418193706
 30
0.0
 10
70.24860680714256
 20
190.9091650267427
 30
0.0
 10
70.2483028363417
 20
190.9079008201861
 30
0.0
 10
70.24803931067505
 20
190.9066317455762
 30
0.0
  0
ARC
  5
21E
330
1F
100
AcDbEntity
  8
0
  6
Continuous
 62
     7
370
     0
100
AcDbCircle
 10
72.9851469627
 20
186.5841563694
 30
0.0
 40
0.5500000000000744
100
AcDbArc
 50
60.2532071374
 51
119.7467928667
  0
SPLINE
  5
21F
330
1F
100
AcDbEntity
  8
0
  6
Continuous
 62
     7
370
     0
100
AcDbSpline
210
0.0
220
0.0
230
1.0
 70
     8
 71
     3
 72
    23
 73
    19
 74
     0
 42
0.000000001
 43
0.00000001
 40
0.0
 40
0.0
 40
0.0
 40
0.0
 40
0.0000136991388042
 40
0.0000136991388042
 40
0.0000136991388042
 40
0.00002163406561
 40
0.00002163406561
 40
0.00002163406561
 40
0.0000296647624064
 40
0.0000296647624064
 40
0.0000296647624064
 40
0.000036756077424
 40
0.000036756077424
 40
0.000036756077424
 40
0.0000484502327163
 40
0.0000484502327163
 40
0.0000484502327163
 40
0.0000524173647346
 40
0.0000524173647346
 40
0.0000524173647346
 40
0.0000524173647346
 10
73.25803931067087
 20
187.0616809933404
 30
0.0
 10
73.2589395894816
 20
187.0573454726396
 30
0.0
 10
73.26031489153407
 20
187.0529895829231
 30
0.0
 10
73.2625173941611
 20
187.0490589860073
 30
0.0
 10
73.26379907440486
 20
187.0467716932017
 30
0.0
 10
73.26539809024021
 20
187.0445970344189
 30
0.0
 10
73.26731016958779
 20
187.0427610121887
 30
0.0
 10
73.26923639379848
 20
187.040911407738
 30
0.0
 10
73.27154352923057
 20
187.0393734599753
 30
0.0
 10
73.273999652358
 20
187.0383181520933
 30
0.0
 10
73.27618250470617
 20
187.037380258849
 30
0.0
 10
73.27852611102827
 20
187.0367882781462
 30
0.0
 10
73.28086226487154
 20
187.036493963446
 30
0.0
 10
73.28469661991996
 20
187.0360109014853
 30
0.0
 10
73.28860761317559
 20
187.0362860265181
 30
0.0
 10
73.29235089550478
 20
187.0369548853937
 30
0.0
 10
73.29363224966255
 20
187.0371838409001
 30
0.0
 10
73.2949026505039
 20
187.0374607852391
 30
0.0
 10
73.29615981924742
 20
187.037776257729
 30
0.0
  0
ARC
  5
220
330
1F
100
AcDbEntity
  8
0
  6
Continuous
 62
     7
370
     0
100
AcDbCircle
 10
72.9851469627
 20
186.5841563694
 30
0.0
 40
0.5500000000002
100
AcDbArc
 50
124.4354855809
 51
55.5645144267
  0
SPLINE
  5
221
330
1F
100
AcDbEntity
  8
0
  6
Continuous
 62
     7
370
     0
100
AcDbSpline
210
0.0
220
0.0
230
1.0
 70
     8
 71
     3
 72
    23
 73
    19
 74
     0
 42
0.000000001
 43
0.00000001
 40
0.0000000000000021
 40
0.0000000000000021
 40
0.0000000000000021
 40
0.0000000000000021
 40
0.0000136991388042
 40
0.0000136991388042
 40
0.0000136991388042
 40
0.0000216340656101
 40
0.0000216340656101
 40
0.0000216340656101
 40
0.0000296647624065
 40
0.0000296647624065
 40
0.0000296647624065
 40
0.0000367560774241
 40
0.0000367560774241
 40
0.0000367560774241
 40
0.0000484502327164
 40
0.0000484502327164
 40
0.0000484502327164
 40
0.0000524173647594
 40
0.0000524173647594
 40
0.0000524173647594
 40
0.0000524173647594
 10
72.67413410615315
 20
187.0377762577369
 30
0.0
 10
72.6784289530202
 20
187.0366985137632
 30
0.0
 10
72.68294901290814
 20
187.0360395072638
 30
0.0
 10
72.6874464847215
 20
187.0363103526532
 30
0.0
 10
72.69006365334569
 20
187.0364679629918
 30
0.0
 10
72.69271763329166
 20
187.0369602869802
 30
0.0
 10
72.69520312014171
 20
187.0378819052197
 30
0.0
 10
72.69770699371375
 20
187.0388103412537
 30
0.0
 10
72.70009620936038
 20
187.0402173969799
 30
0.0
 10
72.70211584581848
 20
187.041968763338
 30
0.0
 10
72.70391077545199
 20
187.043525270878
 30
0.0
 10
72.70546433000204
 20
187.0453771348054
 30
0.0
 10
72.70674668472022
 20
187.0473519265157
 30
0.0
 10
72.70885142765121
 20
187.0505931739128
 30
0.0
 10
72.7103070393679
 20
187.0542336074803
 30
0.0
 10
72.71133517842551
 20
187.0578945451839
 30
0.0
 10
72.71168711828489
 20
187.059147712147
 30
0.0
 10
72.7119910890857
 20
187.0604119187035
 30
0.0
 10
72.71225461475231
 20
187.0616809933132
 30
0.0
  0
ARC
  5
222
330
1F
100
AcDbEntity
  8
0
  6
Continuous
 62
     7
370
     0
100
AcDbCircle
 10
67.4741469627
 20
186.5841563694
 30
0.0
 40
0.5500000000001871
100
AcDbArc
 50
64.8229549851
 51
60.1342622822
  0
SPLINE
  5
223
330
1F
100
AcDbEntity
  8
0
  6
Continuous
 62
     7
370
     0
100
AcDbSpline
210
0.0
220
0.0
230
1.0
 70
     8
 71
     3
 72
    23
 73
    19
 74
     0
 42
0.000000001
 43
0.00000001
 40
0.0
 40
0.0
 40
0.0
 40
0.0
 40
0.000013699138791
 40
0.000013699138791
 40
0.000013699138791
 40
0.0000216340655815
 40
0.0000216340655815
 40
0.0000216340655815
 40
0.0000296647623617
 40
0.0000296647623617
 40
0.0000296647623617
 40
0.0000367560773725
 40
0.0000367560773725
 40
0.0000367560773725
 40
0.0000484502326738
 40
0.0000484502326738
 40
0.0000484502326738
 40
0.0000524173646473
 40
0.0000524173646473
 40
0.0000524173646473
 40
0.0000524173646473
 10
67.70812617380064
 20
187.0819050296936
 30
0.0
 10
67.70936901297638
 20
187.0776550188191
 30
0.0
 10
67.71108698812911
 20
187.0734225499996
 30
0.0
 10
67.71359565012192
 20
187.0696799272686
 30
0.0
 10
67.71505549061169
 20
187.0675020203938
 30
0.0
 10
67.71682268406275
 20
187.0654616724447
 30
0.0
 10
67.71887496576306
 20
187.0637838271396
 30
0.0
 10
67.72094242949211
 20
187.0620935697493
 30
0.0
 10
67.72336476305355
 20
187.0607443265096
 30
0.0
 10
67.72589715750888
 20
187.059888059117
 30
0.0
 10
67.72814779516112
 20
187.0591270609123
 30
0.0
 10
67.7305311160068
 20
187.0587236833114
 30
0.0
 10
67.7328832922356
 20
187.0586164316992
 30
0.0
 10
67.73674394500846
 20
187.0584403984459
 30
0.0
 10
67.74062058562146
 20
187.0590262479413
 30
0.0
 10
67.74429867864174
 20
187.0599912176651
 30
0.0
 10
67.7455577179939
 20
187.0603215341767
 30
0.0
 10
67.74680201545365
 20
187.0606988142886
 30
0.0
 10
67.74803005324092
 20
187.0611134458375
 30
0.0
  0
ARC
  5
224
330
1F
100
AcDbEntity
  8
0
  6
Continuous
 62
     7
370
     0
100
AcDbCircle
 10
79.0051469627
 20
186.5841563694
 30
0.0
 40
0.5500000000000884
100
AcDbArc
 50
60.3303803175
 51
119.7467928663
  0
ARC
  5
225
330
1F
100
AcDbEntity
  8
0
  6
Continuous
 62
     7
370
     0
100
AcDbCircle
 10
79.0051469627
 20
186.5841563694
 30
0.0
 40
0.5500000000000181
100
AcDbArc
 50
124.4354855809
 51
299.3978395794
  0
SPLINE
  5
226
330
1F
100
AcDbEntity
  8
0
  6
Continuous
 62
     7
370
     0
100
AcDbSpline
210
0.0
220
0.0
230
1.0
 70
     8
 71
     3
 72
    23
 73
    19
 74
     0
 42
0.000000001
 43
0.00000001
 40
0.0000000000000022
 40
0.0000000000000022
 40
0.0000000000000022
 40
0.0000000000000022
 40
0.0000136991388042
 40
0.0000136991388042
 40
0.0000136991388042
 40
0.0000216340656101
 40
0.0000216340656101
 40
0.0000216340656101
 40
0.0000296647624066
 40
0.0000296647624066
 40
0.0000296647624066
 40
0.0000367560774241
 40
0.0000367560774241
 40
0.0000367560774241
 40
0.0000484502327164
 40
0.0000484502327164
 40
0.0000484502327164
 40
0.0000524173647619
 40
0.0000524173647619
 40
0.0000524173647619
 40
0.0000524173647619
 10
78.69413410615311
 20
187.0377762577369
 30
0.0
 10
78.69842895302018
 20
187.0366985137632
 30
0.0
 10
78.7029490129081
 20
187.0360395072638
 30
0.0
 10
78.70744648472147
 20
187.0363103526532
 30
0.0
 10
78.71006365334566
 20
187.0364679629918
 30
0.0
 10
78.71271763329163
 20
187.0369602869802
 30
0.0
 10
78.7152031201417
 20
187.0378819052197
 30
0.0
 10
78.71770699371372
 20
187.0388103412536
 30
0.0
 10
78.72009620936038
 20
187.0402173969799
 30
0.0
 10
78.72211584581845
 20
187.041968763338
 30
0.0
 10
78.72391077545198
 20
187.043525270878
 30
0.0
 10
78.72546433000205
 20
187.0453771348054
 30
0.0
 10
78.7267466847202
 20
187.0473519265157
 30
0.0
 10
78.72885142765121
 20
187.0505931739128
 30
0.0
 10
78.73030703936787
 20
187.0542336074803
 30
0.0
 10
78.73133517842551
 20
187.0578945451839
 30
0.0
 10
78.73168711828507
 20
187.0591477121478
 30
0.0
 10
78.73199108908607
 20
187.0604119187049
 30
0.0
 10
78.73225461475278
 20
187.0616809933154
 30
0.0
  0
LINE
  5
227
330
1F
100
AcDbEntity
  8
0
  6
Continuous
 62
     7
370
     0
100
AcDbLine
 10
80.5051469627
 20
189.1273086527
 30
0.0
 11
79.2291890514
 21
187.0864562385
 31
0.0
  0
LINE
  5
228
330
1F
100
AcDbEntity
  8
0
  6
Continuous
 62
     7
370
     0
100
AcDbLine
 10
79.3889949248
 20
187.0541563418
 30
0.0
 11
80.5051469627
 21
188.839404627
 31
0.0
  0
LINE
  5
229
330
1F
100
AcDbEntity
  8
0
  6
Continuous
 62
     7
370
     0
100
AcDbLine
 10
81.7821045324
 20
190.8818559183
 30
0.0
 11
80.5061469627
 21
188.8410040862
 31
0.0
  0
LINE
  5
22A
330
1F
100
AcDbEntity
  8
0
  6
Continuous
 62
     7
370
     0
100
AcDbLine
 10
80.5061469627
 20
189.1289081119
 30
0.0
 11
81.6526909742
 21
190.9627672445
 31
0.0
  0
LINE
  5
22B
330
1F
100
AcDbEntity
  8
0
  6
Continuous
 62
     7
370
     0
100
AcDbLine
 10
77.5051469366
 20
188.8325402557
 30
0.0
 11
78.6511236486
 21
187.0050691229
 31
0.0
  0
LINE
  5
22C
330
1F
100
AcDbEntity
  8
0
  6
Continuous
 62
     7
370
     0
100
AcDbLine
 10
78.7804285913
 20
187.0861540243
 30
0.0
 11
77.5051469366
 21
189.1198256359
 31
0.0
  0
LINE
  5
22D
330
1F
100
AcDbEntity
  8
0
  6
Continuous
 62
     7
370
     0
100
AcDbLine
 10
76.3491702649
 20
190.963243616
 30
0.0
 11
77.4951468605
 21
189.1357724832
 31
0.0
  0
LINE
  5
22E
330
1F
100
AcDbEntity
  8
0
  6
Continuous
 62
     7
370
     0
100
AcDbLine
 10
77.4951468605
 20
188.848487103
 30
0.0
 11
76.2198659043
 21
190.8821581325
 31
0.0
  0
LINE
  5
22F
330
1F
100
AcDbEntity
  8
0
  6
Continuous
 62
     7
370
     0
100
AcDbLine
 10
75.7704282563
 20
190.8821581325
 30
0.0
 11
74.4951468344
 21
188.848487103
 31
0.0
  0
LINE
  5
230
330
1F
100
AcDbEntity
  8
0
  6
Continuous
 62
     7
370
     0
100
AcDbLine
 10
74.4951468344
 20
189.1357724832
 30
0.0
 11
75.64112343
 21
190.9632431504
 31
0.0
  0
LINE
  5
231
330
1F
100
AcDbEntity
  8
0
  6
Continuous
 62
     7
370
     0
100
AcDbLine
 10
73.2098658021
 20
187.0861546064
 30
0.0
 11
74.4851467583
 21
189.1198256359
 31
0.0
  0
LINE
  5
232
330
1F
100
AcDbEntity
  8
0
  6
Continuous
 62
     7
370
     0
100
AcDbLine
 10
74.4851467583
 20
188.8325402557
 30
0.0
 11
73.3391701627
 21
187.0050691229
 31
0.0
  0
LINE
  5
233
330
1F
100
AcDbEntity
  8
0
  6
Continuous
 62
     7
370
     0
100
AcDbLine
 10
72.6311237934
 20
187.0050695885
 30
0.0
 11
71.4851471979
 21
188.8325402557
 31
0.0
  0
LINE
  5
234
330
1F
100
AcDbEntity
  8
0
  6
Continuous
 62
     7
370
     0
100
AcDbLine
 10
71.4851471979
 20
189.1198256359
 30
0.0
 11
72.760428154
 21
187.0861546064
 31
0.0
  0
LINE
  5
235
330
1F
100
AcDbEntity
  8
0
  6
Continuous
 62
     7
370
     0
100
AcDbLine
 10
70.3291700605
 20
190.963243616
 30
0.0
 11
71.475146656
 21
189.1357724832
 31
0.0
  0
LINE
  5
236
330
1F
100
AcDbEntity
  8
0
  6
Continuous
 62
     7
370
     0
100
AcDbLine
 10
71.475146656
 20
188.848487103
 30
0.0
 11
70.1998661655
 21
190.8821581325
 31
0.0
  0
LINE
  5
237
330
1F
100
AcDbEntity
  8
0
  6
Continuous
 62
     7
370
     0
100
AcDbLine
 10
67.6581555429
 20
187.1024620647
 30
0.0
 11
68.4741468552
 21
188.6685391816
 31
0.0
  0
LINE
  5
238
330
1F
100
AcDbEntity
  8
0
  6
Continuous
 62
     7
370
     0
100
AcDbLine
 10
68.4741468552
 20
188.3382381799
 30
0.0
 11
67.7935093093
 21
187.0319369642
 31
0.0
  0
LINE
  5
239
330
1F
100
AcDbEntity
  8
0
  6
Continuous
 62
     7
370
     0
100
AcDbLine
 10
69.7911384899
 20
190.8658500921
 30
0.0
 11
68.4751470956
 21
188.3401574029
 31
0.0
  0
LINE
  5
23A
330
1F
100
AcDbEntity
  8
0
  6
Continuous
 62
     7
370
     0
100
AcDbLine
 10
68.4751470956
 20
188.6704584046
 30
0.0
 11
69.6557837921
 21
190.9363751926
 31
0.0
  0
LINE
  5
23B
330
1F
100
AcDbEntity
  8
0
  6
CENTERX2
 62
     7
370
     0
100
AcDbLine
 10
68.7262805203
 20
188.9841563694
 30
0.0
 11
69.0048471056
 21
188.9841563694
 31
0.0
  0
LINE
  5
23C
330
1F
100
AcDbEntity
  8
0
  6
Continuous
 62
     7
370
     0
100
AcDbLine
 10
83.1067878652
 20
91.9428096521
 30
0.0
 11
143.1067883867
 21
91.9428096521
 31
0.0
  0
LINE
  5
23D
330
1F
100
AcDbEntity
  8
0
  6
Continuous
 62
     7
370
     0
100
AcDbLine
 10
143.1067883867
 20
92.8828095919
 30
0.0
 11
83.1067878652
 21
92.8828095919
 31
0.0
  0
SPLINE
  5
23E
330
1F
100
AcDbEntity
  8
0
  6
Continuous
 62
     7
370
     0
100
AcDbSpline
210
0.0
220
0.0
230
1.0
 70
    24
 71
     3
 72
    22
 73
    18
 74
     0
 42
0.000000001
 43
0.00000001
 40
0.0
 40
0.0
 40
0.0
 40
0.0
 40
0.0838682129537688
 40
0.1645571744364109
 40
0.2348134928037279
 40
0.2956879427637578
 40
0.3479978230867877
 40
0.392354731793275
 40
0.4291967830130174
 40
0.4612904241638772
 40
0.5142105347629801
 40
0.5806104416014573
 40
0.6607705991335107
 40
0.7305228323690361
 40
0.8094056542563968
 40
0.8986621773830781
 40
0.9999999999999999
 40
0.9999999999999999
 40
0.9999999999999999
 40
0.9999999999999999
 10
78.24170611717598
 20
91.94280965205215
 30
0.0
 10
78.32063200992201
 20
91.94280965205215
 30
0.0
 10
78.4754918959591
 20
91.94280965205215
 30
0.0
 10
78.73289586275209
 20
91.94280965205215
 30
0.0
 10
78.98749449822287
 20
91.94280965205215
 30
0.0
 10
79.22788370049615
 20
91.94280965205215
 30
0.0
 10
79.44905716280162
 20
91.94280965205215
 30
0.0
 10
79.64732291634682
 20
91.94280965205215
 30
0.0
 10
79.82321150395022
 20
91.94280965205215
 30
0.0
 10
80.01924663196574
 20
91.94280965205215
 30
0.0
 10
80.27314116177608
 20
91.94280965205215
 30
0.0
 10
80.62549806385077
 20
91.94280965205215
 30
0.0
 10
81.0287426485838
 20
91.94280965205215
 30
0.0
 10
81.47331803406315
 20
91.94280965205215
 30
0.0
 10
81.9498937599319
 20
91.94280965205215
 30
0.0
 10
82.50165966189364
 20
91.94280965205215
 30
0.0
 10
82.89673093698516
 20
91.94280965205215
 30
0.0
 10
83.1067878651698
 20
91.94280965205215
 30
0.0
  0
SPLINE
  5
23F
330
1F
100
AcDbEntity
  8
0
  6
Continuous
 62
     7
370
     0
100
AcDbSpline
210
0.0
220
0.0
230
1.0
 70
    24
 71
     3
 72
    23
 73
    19
 74
     0
 42
0.000000001
 43
0.00000001
 40
0.0
 40
0.0
 40
0.0
 40
0.0
 40
0.0877752819390665
 40
0.1644242745066533
 40
0.2312183052174789
 40
0.2890753285068272
 40
0.3386110450244311
 40
0.3801995239059798
 40
0.4140363930129995
 40
0.4467834393185894
 40
0.4866711485867257
 40
0.5339256971538499
 40
0.5889033153451093
 40
0.6521616020055265
 40
0.7245062502276315
 40
0.8070302867171858
 40
0.9011423281160464
 40
1.0
 40
1.0
 40
1.0
 40
1.0
 10
83.1067878651698
 20
92.88280959192596
 30
0.0
 10
82.92485451145342
 20
92.88280959192596
 30
0.0
 10
82.58404945754144
 20
92.88280959192596
 30
0.0
 10
82.10921726523989
 20
92.88280959192596
 30
0.0
 10
81.70221166768381
 20
92.88280959192596
 30
0.0
 10
81.35730764806596
 20
92.88280959192596
 30
0.0
 10
81.0693452084984
 20
92.88280959192596
 30
0.0
 10
80.83383625547408
 20
92.88280959192596
 30
0.0
 10
80.63487066578789
 20
92.88280959192596
 30
0.0
 10
80.44366580626038
 20
92.88280959192596
 30
0.0
 10
80.23445361491142
 20
92.88280959192596
 30
0.0
 10
79.9957226265653
 20
92.88280959192596
 30
0.0
 10
79.73115110382875
 20
92.88280959192596
 30
0.0
 10
79.44512103309073
 20
92.88280959192596
 30
0.0
 10
79.14241481456162
 20
92.88280959192596
 30
0.0
 10
78.82946322701467
 20
92.88280959192596
 30
0.0
 10
78.51830127755218
 20
92.88280959192596
 30
0.0
 10
78.33562266493318
 20
92.88280959192596
 30
0.0
 10
78.24203708593593
 20
92.88280959192596
 30
0.0
  0
LINE
  5
240
330
1F
100
AcDbEntity
  8
0
  6
Continuous
 62
     7
370
     0
100
AcDbLine
 10
70.6666856903
 20
90.1644003159
 30
0.0
 11
70.6567168135
 21
90.1485043131
 31
0.0
  0
LINE
  5
241
330
1F
100
AcDbEntity
  8
0
  6
Continuous
 62
     7
370
     0
100
AcDbLine
 10
70.6567168135
 20
89.8612189329
 30
0.0
 11
70.6666856903
 21
89.8771149358
 31
0.0
  0
LWPOLYLINE
  5
242
330
1F
100
AcDbEntity
  8
0
  6
Continuous
 62
     7
370
     0
100
AcDbPolyline
 90
        3
 70
   128
 43
0.0
 10
76.6866854291
 20
90.1644003159
 10
76.6817291632
 20
90.1564969088
 10
76.6767172507
 20
90.1485043131
  0
LINE
  5
243
330
1F
100
AcDbEntity
  8
0
  6
Continuous
 62
     7
370
     0
100
AcDbLine
 10
76.6767172507
 20
89.8612189329
 30
0.0
 11
76.6866854291
 21
89.8771149358
 31
0.0
  0
LWPOLYLINE
  5
244
330
1F
100
AcDbEntity
  8
0
  6
Continuous
 62
     7
370
     0
100
AcDbPolyline
 90
       14
 70
   128
 43
0.0
 10
83.1067878652
 20
91.9428096521
 10
83.054591193
 20
91.9575755386
 10
83.0056741732
 20
92.0009456011
 10
82.9631104033
 20
92.070194324
 10
82.9295746415
 20
92.1609710338
 10
82.9071735396
 20
92.2675716127
 10
82.8973152573
 20
92.3832979887
 10
82.9006186585
 20
92.5008788607
 10
82.9168765239
 20
92.612925814
 10
82.9450674254
 20
92.7123989812
 10
82.9834195218
 20
92.793047558
 10
83.0295234817
 20
92.849804684
 10
83.0804821934
 20
92.8791036266
 10
83.1070870525
 20
92.8828091263
  0
LWPOLYLINE
  5
245
330
1F
100
AcDbEntity
  8
0
  6
Continuous
 62
     7
370
     0
100
AcDbPolyline
 90
       26
 70
   128
 43
0.0
 10
143.1067883867
 20
91.9428096521
 10
143.0565118688
 20
91.9575755386
 10
143.0093943971
 20
92.0009456011
 10
142.9683938521
 20
92.070194324
 10
142.9360881347
 20
92.1609710338
 10
142.9145112532
 20
92.2675716127
 10
142.9050192136
 20
92.3832979887
 10
142.9082006115
 20
92.5008788607
 10
142.9238617319
 20
92.612925814
 10
142.9510116476
 20
92.7123989812
 10
142.9879516262
 20
92.793047558
 10
143.0323645371
 20
92.849804684
 10
143.0814489621
 20
92.8791036266
 10
143.1321278113
 20
92.8791036266
 10
143.1812122363
 20
92.849804684
 10
143.2256176967
 20
92.793047558
 10
143.2625651258
 20
92.7123989812
 10
143.2897150415
 20
92.612925814
 10
143.3053761619
 20
92.5008788607
 10
143.3085575599
 20
92.3832979887
 10
143.2990655202
 20
92.2675716127
 10
143.2774886388
 20
92.1609710338
 10
143.2451829213
 20
92.070194324
 10
143.2041823763
 20
92.0009456011
 10
143.1570649046
 20
91.9575755386
 10
143.1067883867
 20
91.9428096521
  0
SPLINE
  5
246
330
1F
100
AcDbEntity
  8
0
  6
Continuous
 62
     7
370
     0
100
AcDbSpline
210
0.0
220
0.0
230
1.0
 70
     8
 71
     3
 72
    26
 73
    22
 74
     0
 42
0.000000001
 43
0.00000001
 40
0.0
 40
0.0
 40
0.0
 40
0.0
 40
0.0374080304323459
 40
0.0896287345230021
 40
0.1433671814113044
 40
0.1955862069162507
 40
0.2493039863860503
 40
0.301816623393336
 40
0.3558252063957469
 40
0.4088238942205926
 40
0.4633358853951715
 40
0.5167513138046633
 40
0.5717075704871722
 40
0.6252508226690473
 40
0.680359386842881
 40
0.7336657731166856
 40
0.7885449800575549
 40
0.8413781427875782
 40
0.8957704317911729
 40
0.9481426175182197
 40
1.0
 40
1.0
 40
1.0
 40
1.0
 10
78.24173149571614
 20
91.94532375734232
 30
0.0
 10
78.22334207664358
 20
91.94487666920242
 30
0.0
 10
78.17928147411956
 20
91.94380545685209
 30
0.0
 10
78.11007111586189
 20
91.95960365964493
 30
0.0
 10
78.03732711947968
 20
91.98708615473161
 30
0.0
 10
77.96971415946341
 20
92.02743288984837
 30
0.0
 10
77.91019686593454
 20
92.07795046724989
 30
0.0
 10
77.85938428213883
 20
92.13838835651413
 30
0.0
 10
77.81948882546197
 20
92.20614350154169
 30
0.0
 10
77.79106650834751
 20
92.28049445370912
 30
0.0
 10
77.77546306024854
 20
92.35828206247868
 30
0.0
 10
77.77301330537364
 20
92.4385242294089
 30
0.0
 10
77.78396022471551
 20
92.51760223314265
 30
0.0
 10
77.80825868876504
 20
92.59448924751267
 30
0.0
 10
77.84480839865682
 20
92.665483042057
 30
0.0
 10
77.89319687118466
 20
92.72978143929089
 30
0.0
 10
77.95098462996246
 20
92.78418282897685
 30
0.0
 10
78.01757096984733
 20
92.82834631664035
 30
0.0
 10
78.08956838888307
 20
92.85981270129176
 30
0.0
 10
78.16538586837125
 20
92.87954927163403
 30
0.0
 10
78.21658346583219
 20
92.88155677811808
 30
0.0
 10
78.24205582880275
 20
92.88255557369374
 30
0.0
  0
ARC
  5
247
330
1F
100
AcDbEntity
  8
0
  6
Continuous
 62
     7
370
     0
100
AcDbCircle
 10
69.1567012876
 20
87.6128096244
 30
0.0
 40
0.5500000000000981
100
AcDbArc
 50
119.8657377216
 51
55.5645144188
  0
SPLINE
  5
248
330
1F
100
AcDbEntity
  8
0
  6
Continuous
 62
     7
370
     0
100
AcDbSpline
210
0.0
220
0.0
230
1.0
 70
     8
 71
     3
 72
    23
 73
    19
 74
     0
 42
0.000000001
 43
0.00000001
 40
0.0000000000000021
 40
0.0000000000000021
 40
0.0000000000000021
 40
0.0000000000000021
 40
0.0000136991388042
 40
0.0000136991388042
 40
0.0000136991388042
 40
0.0000216340656101
 40
0.0000216340656101
 40
0.0000216340656101
 40
0.0000296647624066
 40
0.0000296647624066
 40
0.0000296647624066
 40
0.0000367560774241
 40
0.0000367560774241
 40
0.0000367560774241
 40
0.0000484502327164
 40
0.0000484502327164
 40
0.0000484502327164
 40
0.00005241736476
 40
0.00005241736476
 40
0.00005241736476
 40
0.00005241736476
 10
68.92272207661689
 20
88.11055828469125
 30
0.0
 10
68.92147923744743
 20
88.10630827381087
 30
0.0
 10
68.91976126224209
 20
88.10207580500996
 30
0.0
 10
68.91725260025237
 20
88.09833318227206
 30
0.0
 10
68.91579275976406
 20
88.09615527539276
 30
0.0
 10
68.91402556631428
 20
88.09411492743854
 30
0.0
 10
68.9119732846142
 20
88.09243708212837
 30
0.0
 10
68.9099058208853
 20
88.09074682473275
 30
0.0
 10
68.90748348732274
 20
88.08939758148763
 30
0.0
 10
68.9049510928652
 20
88.08854131409103
 30
0.0
 10
68.90270045521338
 20
88.08778031588356
 30
0.0
 10
68.90031713436747
 20
88.08737693828012
 30
0.0
 10
68.89796495813822
 20
88.0872696866659
 30
0.0
 10
68.89410430537119
 20
88.08709365340951
 30
0.0
 10
68.89022766476327
 20
88.08767950290066
 30
0.0
 10
68.88654957174755
 20
88.08864447262002
 30
0.0
 10
68.88529053238982
 20
88.08897478913201
 30
0.0
 10
68.88404623492458
 20
88.08935206924482
 30
0.0
 10
68.882818197132
 20
88.08976670079498
 30
0.0
  0
ARC
  5
249
330
1F
100
AcDbEntity
  8
0
  6
Continuous
 62
     7
370
     0
100
AcDbCircle
 10
69.1567012876
 20
87.6128096244
 30
0.0
 40
0.550000000000185
100
AcDbArc
 50
60.2532071293
 51
115.1770450073
  0
SPLINE
  5
24A
330
1F
100
AcDbEntity
  8
0
  6
Continuous
 62
     7
370
     0
100
AcDbSpline
210
0.0
220
0.0
230
1.0
 70
     8
 71
     3
 72
    23
 73
    19
 74
     0
 42
0.000000001
 43
0.00000001
 40
0.0
 40
0.0
 40
0.0
 40
0.0
 40
0.0000136991388042
 40
0.0000136991388042
 40
0.0000136991388042
 40
0.0000216340656101
 40
0.0000216340656101
 40
0.0000216340656101
 40
0.0000296647624066
 40
0.0000296647624066
 40
0.0000296647624066
 40
0.0000367560774241
 40
0.0000367560774241
 40
0.0000367560774241
 40
0.0000484502327164
 40
0.0000484502327164
 40
0.0000484502327164
 40
0.0000524173647333
 40
0.0000524173647333
 40
0.0000524173647333
 40
0.0000524173647333
 10
69.46771414419575
 20
88.06642951270246
 30
0.0
 10
69.46341929732868
 20
88.06535176872872
 30
0.0
 10
69.45889923744075
 20
88.06469276222927
 30
0.0
 10
69.4544017656274
 20
88.06496360761872
 30
0.0
 10
69.45178459700321
 20
88.06512121795731
 30
0.0
 10
69.44913061705724
 20
88.06561354194574
 30
0.0
 10
69.44664513020716
 20
88.06653516018527
 30
0.0
 10
69.44414125663515
 20
88.06746359621918
 30
0.0
 10
69.44175204098849
 20
88.06887065194542
 30
0.0
 10
69.43973240453042
 20
88.07062201830347
 30
0.0
 10
69.43793747489688
 20
88.07217852584355
 30
0.0
 10
69.43638392034684
 20
88.07403038977093
 30
0.0
 10
69.43510156562868
 20
88.07600518148122
 30
0.0
 10
69.43299682269769
 20
88.07924642887835
 30
0.0
 10
69.431541210981
 20
88.08288686244585
 30
0.0
 10
69.43051307192337
 20
88.08654780014945
 30
0.0
 10
69.43016113206396
 20
88.08780096711276
 30
0.0
 10
69.42985716126309
 20
88.0890651736694
 30
0.0
 10
69.42959363559645
 20
88.09033424827932
 30
0.0
  0
ARC
  5
24B
330
1F
100
AcDbEntity
  8
0
  6
Continuous
 62
     7
370
     0
100
AcDbCircle
 10
66.6557012876
 20
92.4128096244
 30
0.0
 40
0.5500000000002022
100
AcDbArc
 50
299.8657377178
 51
295.1770450149
  0
SPLINE
  5
24C
330
1F
100
AcDbEntity
  8
0
  6
Continuous
 62
     7
370
     0
100
AcDbSpline
210
0.0
220
0.0
230
1.0
 70
     8
 71
     3
 72
    23
 73
    19
 74
     0
 42
0.000000001
 43
0.00000001
 40
0.0
 40
0.0
 40
0.0
 40
0.0
 40
0.000013699138791
 40
0.000013699138791
 40
0.000013699138791
 40
0.0000216340655815
 40
0.0000216340655815
 40
0.0000216340655815
 40
0.0000296647623617
 40
0.0000296647623617
 40
0.0000296647623617
 40
0.0000367560773725
 40
0.0000367560773725
 40
0.0000367560773725
 40
0.0000484502326738
 40
0.0000484502326738
 40
0.0000484502326738
 40
0.0000524173646473
 40
0.0000524173646473
 40
0.0000524173646473
 40
0.0000524173646473
 10
66.88968049872203
 20
91.9150609641618
 30
0.0
 10
66.89092333789777
 20
91.91931097503637
 30
0.0
 10
66.8926413130505
 20
91.92354344385583
 30
0.0
 10
66.89514997504331
 20
91.92728606658683
 30
0.0
 10
66.89660981553308
 20
91.92946397346162
 30
0.0
 10
66.89837700898414
 20
91.9315043214108
 30
0.0
 10
66.90042929068446
 20
91.93318216671582
 30
0.0
 10
66.9024967544135
 20
91.93487242410619
 30
0.0
 10
66.90491908797496
 20
91.93622166734589
 30
0.0
 10
66.90745148243029
 20
91.93707793473847
 30
0.0
 10
66.90970212008251
 20
91.93783893294318
 30
0.0
 10
66.9120854409282
 20
91.93824231054404
 30
0.0
 10
66.914437617157
 20
91.93834956215623
 30
0.0
 10
66.91829826992986
 20
91.93852559540957
 30
0.0
 10
66.92217491054285
 20
91.93793974591412
 30
0.0
 10
66.92585300356313
 20
91.93697477619037
 30
0.0
 10
66.9271120429153
 20
91.93664445967875
 30
0.0
 10
66.92835634037505
 20
91.93626717956681
 30
0.0
 10
66.92958437816232
 20
91.93585254801789
 30
0.0
  0
ARC
  5
24D
330
1F
100
AcDbEntity
  8
0
  6
Continuous
 62
     7
370
     0
100
AcDbCircle
 10
75.1767012876
 20
87.6128096244
 30
0.0
 40
0.5500000000000045
100
AcDbArc
 50
60.2532071374
 51
119.7467928629
  0
SPLINE
  5
24E
330
1F
100
AcDbEntity
  8
0
  6
Continuous
 62
     7
370
     0
100
AcDbSpline
210
0.0
220
0.0
230
1.0
 70
     8
 71
     3
 72
    23
 73
    19
 74
     0
 42
0.000000001
 43
0.00000001
 40
0.0
 40
0.0
 40
0.0
 40
0.0
 40
0.0000136991387911
 40
0.0000136991387911
 40
0.0000136991387911
 40
0.0000216340655816
 40
0.0000216340655816
 40
0.0000216340655816
 40
0.0000296647623619
 40
0.0000296647623619
 40
0.0000296647623619
 40
0.0000367560773728
 40
0.0000367560773728
 40
0.0000367560773728
 40
0.000048450232674
 40
0.000048450232674
 40
0.000048450232674
 40
0.0000524173646982
 40
0.0000524173646982
 40
0.0000524173646982
 40
0.0000524173646982
 10
75.48771414413366
 20
88.06642951274524
 30
0.0
 10
75.48341929726843
 20
88.06535176877983
 30
0.0
 10
75.47889923739103
 20
88.06469276222586
 30
0.0
 10
75.47440176558207
 20
88.06496360762145
 30
0.0
 10
75.47178459696102
 20
88.06512121796358
 30
0.0
 10
75.46913061701872
 20
88.06561354195561
 30
0.0
 10
75.46664513017295
 20
88.06653516019796
 30
0.0
 10
75.46414125660536
 20
88.06746359623466
 30
0.0
 10
75.46175204096392
 20
88.06887065196263
 30
0.0
 10
75.4597324045104
 20
88.07062201832083
 30
0.0
 10
75.45793747487906
 20
88.07217852586265
 30
0.0
 10
75.45638392033133
 20
88.07403038979113
 30
0.0
 10
75.45510156561514
 20
88.07600518150207
 30
0.0
 10
75.45299682268382
 20
88.07924642890572
 30
0.0
 10
75.45154121096829
 20
88.08288686247975
 30
0.0
 10
75.45051307191213
 20
88.08654780018948
 30
0.0
 10
75.4501611320552
 20
88.0878009671478
 30
0.0
 10
75.44985716125632
 20
88.0890651736993
 30
0.0
 10
75.44959363559131
 20
88.09033424830402
 30
0.0
  0
ARC
  5
24F
330
1F
100
AcDbEntity
  8
0
  6
Continuous
 62
     7
370
     0
100
AcDbCircle
 10
75.1767012876
 20
87.6128096244
 30
0.0
 40
0.5500000000001766
100
AcDbArc
 50
124.4354855809
 51
55.5645144267
  0
SPLINE
  5
250
330
1F
100
AcDbEntity
  8
0
  6
Continuous
 62
     7
370
     0
100
AcDbSpline
210
0.0
220
0.0
230
1.0
 70
     8
 71
     3
 72
    23
 73
    19
 74
     0
 42
0.000000001
 43
0.00000001
 40
0.0000000000000578
 40
0.0000000000000578
 40
0.0000000000000578
 40
0.0000000000000578
 40
0.0000136991387907
 40
0.0000136991387907
 40
0.0000136991387907
 40
0.0000216340655809
 40
0.0000216340655809
 40
0.0000216340655809
 40
0.0000296647623608
 40
0.0000296647623608
 40
0.0000296647623608
 40
0.0000367560773714
 40
0.0000367560773714
 40
0.0000367560773714
 40
0.0000484502326729
 40
0.0000484502326729
 40
0.0000484502326729
 40
0.0000524173646957
 40
0.0000524173646957
 40
0.0000524173646957
 40
0.0000524173646957
 10
74.90380893961091
 20
88.09033424826778
 30
0.0
 10
74.90290866079333
 20
88.08599872757233
 30
0.0
 10
74.90153335879577
 20
88.08164283784137
 30
0.0
 10
74.89933085616507
 20
88.0777122409323
 30
0.0
 10
74.89804917591944
 20
88.07542494813109
 30
0.0
 10
74.89645016008238
 20
88.07325028935333
 30
0.0
 10
74.89453808073415
 20
88.0714142671283
 30
0.0
 10
74.89261185652288
 20
88.06956466268299
 30
0.0
 10
74.8903047210915
 20
88.06802671492586
 30
0.0
 10
74.88784859796597
 20
88.06697140704811
 30
0.0
 10
74.88566574561715
 20
88.06603351380663
 30
0.0
 10
74.88332213929507
 20
88.0654415331064
 30
0.0
 10
74.88098598545209
 20
88.06514721840838
 30
0.0
 10
74.87715163039755
 20
88.06466415645025
 30
0.0
 10
74.87324063713639
 20
88.06493928148701
 30
0.0
 10
74.86949735480219
 20
88.06560814036672
 30
0.0
 10
74.86821600064997
 20
88.06583709587322
 30
0.0
 10
74.8669455998141
 20
88.06611404021179
 30
0.0
 10
74.86568843107594
 20
88.06642951270089
 30
0.0
  0
ARC
  5
251
330
1F
100
AcDbEntity
  8
0
  6
Continuous
 62
     7
370
     0
100
AcDbCircle
 10
72.1667012876
 20
92.4128096244
 30
0.0
 40
0.5500000000001883
100
AcDbArc
 50
304.4354855733
 51
235.5645144191
  0
SPLINE
  5
252
330
1F
100
AcDbEntity
  8
0
  6
Continuous
 62
     7
370
     0
100
AcDbSpline
210
0.0
220
0.0
230
1.0
 70
     8
 71
     3
 72
    23
 73
    19
 74
     0
 42
0.000000001
 43
0.00000001
 40
0.0
 40
0.0
 40
0.0
 40
0.0
 40
0.0000136991388042
 40
0.0000136991388042
 40
0.0000136991388042
 40
0.00002163406561
 40
0.00002163406561
 40
0.00002163406561
 40
0.0000296647624064
 40
0.0000296647624064
 40
0.0000296647624064
 40
0.000036756077424
 40
0.000036756077424
 40
0.000036756077424
 40
0.0000484502327163
 40
0.0000484502327163
 40
0.0000484502327163
 40
0.0000524173647346
 40
0.0000524173647346
 40
0.0000524173647346
 40
0.0000524173647346
 10
72.43959363559226
 20
91.93528500051508
 30
0.0
 10
72.44049391440299
 20
91.9396205212159
 30
0.0
 10
72.44186921645546
 20
91.94397641093228
 30
0.0
 10
72.44407171908249
 20
91.94790700784812
 30
0.0
 10
72.44535339932625
 20
91.9501943006538
 30
0.0
 10
72.4469524151616
 20
91.95236895943658
 30
0.0
 10
72.44886449450918
 20
91.9542049816668
 30
0.0
 10
72.45079071871987
 20
91.95605458611745
 30
0.0
 10
72.45309785415196
 20
91.95759253388016
 30
0.0
 10
72.45555397727941
 20
91.95864784176216
 30
0.0
 10
72.45773682962756
 20
91.95958573500644
 30
0.0
 10
72.46008043594966
 20
91.9601777157093
 30
0.0
 10
72.46241658979294
 20
91.9604720304094
 30
0.0
 10
72.46625094484135
 20
91.96095509237018
 30
0.0
 10
72.47016193809698
 20
91.96067996733738
 30
0.0
 10
72.47390522042619
 20
91.96001110846174
 30
0.0
 10
72.47518657458394
 20
91.95978215295536
 30
0.0
 10
72.4764569754253
 20
91.95950520861638
 30
0.0
 10
72.47771414416881
 20
91.95918973612649
 30
0.0
  0
ARC
  5
253
330
1F
100
AcDbEntity
  8
0
  6
Continuous
 62
     7
370
     0
100
AcDbCircle
 10
72.1667012876
 20
92.4128096244
 30
0.0
 40
0.5500000000001115
100
AcDbArc
 50
240.2532071333
 51
299.7467928626
  0
SPLINE
  5
254
330
1F
100
AcDbEntity
  8
0
  6
Continuous
 62
     7
370
     0
100
AcDbSpline
210
0.0
220
0.0
230
1.0
 70
     8
 71
     3
 72
    23
 73
    19
 74
     0
 42
0.000000001
 43
0.00000001
 40
0.0000000000000021
 40
0.0000000000000021
 40
0.0000000000000021
 40
0.0000000000000021
 40
0.0000136991388042
 40
0.0000136991388042
 40
0.0000136991388042
 40
0.0000216340656101
 40
0.0000216340656101
 40
0.0000216340656101
 40
0.0000296647624065
 40
0.0000296647624065
 40
0.0000296647624065
 40
0.0000367560774241
 40
0.0000367560774241
 40
0.0000367560774241
 40
0.0000484502327164
 40
0.0000484502327164
 40
0.0000484502327164
 40
0.0000524173647594
 40
0.0000524173647594
 40
0.0000524173647594
 40
0.0000524173647594
 10
71.85568843107454
 20
91.95918973611852
 30
0.0
 10
71.85998327794161
 20
91.96026748009226
 30
0.0
 10
71.86450333782953
 20
91.96092648659172
 30
0.0
 10
71.8690008096429
 20
91.96065564120227
 30
0.0
 10
71.87161797826708
 20
91.96049803086368
 30
0.0
 10
71.87427195821306
 20
91.96000570687525
 30
0.0
 10
71.8767574450631
 20
91.95908408863572
 30
0.0
 10
71.87926131863514
 20
91.95815565260179
 30
0.0
 10
71.88165053428177
 20
91.95674859687557
 30
0.0
 10
71.88367017073988
 20
91.9549972305175
 30
0.0
 10
71.88546510037338
 20
91.95344072297742
 30
0.0
 10
71.88701865492345
 20
91.95158885905005
 30
0.0
 10
71.88830100964161
 20
91.94961406733977
 30
0.0
 10
71.8904057525726
 20
91.94637281994264
 30
0.0
 10
71.8918613642893
 20
91.94273238637513
 30
0.0
 10
71.89288950334691
 20
91.93907144867153
 30
0.0
 10
71.89324144320628
 20
91.93781828170845
 30
0.0
 10
71.8935454140071
 20
91.93655407515202
 30
0.0
 10
71.8938089396737
 20
91.9352850005423
 30
0.0
  0
ARC
  5
255
330
1F
100
AcDbEntity
  8
0
  6
Continuous
 62
     7
370
     0
100
AcDbCircle
 10
81.1877012876
 20
87.6128096244
 30
0.0
 40
0.5499999999999903
100
AcDbArc
 50
124.3583124008
 51
119.6696196906
  0
SPLINE
  5
256
330
1F
100
AcDbEntity
  8
0
  6
Continuous
 62
     7
370
     0
100
AcDbSpline
210
0.0
220
0.0
230
1.0
 70
     8
 71
     3
 72
    23
 73
    19
 74
     0
 42
0.000000001
 43
0.00000001
 40
0.0000000000000027
 40
0.0000000000000027
 40
0.0000000000000027
 40
0.0000000000000027
 40
0.0000136991387907
 40
0.0000136991387907
 40
0.0000136991387907
 40
0.0000216340655808
 40
0.0000216340655808
 40
0.0000216340655808
 40
0.0000296647623606
 40
0.0000296647623606
 40
0.0000296647623606
 40
0.0000367560773712
 40
0.0000367560773712
 40
0.0000367560773712
 40
0.0000484502326727
 40
0.0000484502326727
 40
0.0000484502326727
 40
0.0000524173646955
 40
0.0000524173646955
 40
0.0000524173646955
 40
0.0000524173646955
 10
80.91545237733146
 20
88.09070138081425
 30
0.0
 10
80.9145462597064
 20
88.08636707666028
 30
0.0
 10
80.9131650918968
 20
88.08201304331008
 30
0.0
 10
80.91095729704206
 20
88.07808541657386
 30
0.0
 10
80.90967253714562
 20
88.0757998521755
 30
0.0
 10
80.9080705936553
 20
88.07362734912591
 30
0.0
 10
80.90615604305603
 20
88.07179390399516
 30
0.0
 10
80.90422732931229
 20
88.06994689570848
 30
0.0
 10
80.90191812447242
 20
88.06841205688643
 30
0.0
 10
80.89946058215358
 20
88.06736005818128
 30
0.0
 10
80.89727646851235
 20
88.06642510593045
 30
0.0
 10
80.89493206696216
 20
88.06583628243075
 30
0.0
 10
80.89259551881828
 20
88.06554511462534
 30
0.0
 10
80.88876051659331
 20
88.06506721769668
 30
0.0
 10
80.8848498974528
 20
88.06534761030116
 30
0.0
 10
80.88110751941736
 20
88.06602151049727
 30
0.0
 10
80.87982647481354
 20
88.06625219168487
 30
0.0
 10
80.87855644815355
 20
88.06653084690774
 30
0.0
 10
80.87729970547383
 20
88.06684801242352
 30
0.0
  0
ARC
  5
257
330
1F
100
AcDbEntity
  8
0
  6
Continuous
 62
     7
370
     0
100
AcDbCircle
 10
78.1867012876
 20
92.4128096244
 30
0.0
 40
0.5500000000000064
100
AcDbArc
 50
60.6021604206
 51
235.5645144191
  0
ARC
  5
258
330
1F
100
AcDbEntity
  8
0
  6
Continuous
 62
     7
370
     0
100
AcDbCircle
 10
78.1867012876
 20
92.4128096244
 30
0.0
 40
0.5500000000001009
100
AcDbArc
 50
240.2532071337
 51
299.6696196825
  0
SPLINE
  5
259
330
1F
100
AcDbEntity
  8
0
  6
Continuous
 62
     7
370
     0
100
AcDbSpline
210
0.0
220
0.0
230
1.0
 70
     8
 71
     3
 72
    23
 73
    19
 74
     0
 42
0.000000001
 43
0.00000001
 40
0.0000000000000022
 40
0.0000000000000022
 40
0.0000000000000022
 40
0.0000000000000022
 40
0.0000136991388042
 40
0.0000136991388042
 40
0.0000136991388042
 40
0.0000216340656101
 40
0.0000216340656101
 40
0.0000216340656101
 40
0.0000296647624066
 40
0.0000296647624066
 40
0.0000296647624066
 40
0.0000367560774241
 40
0.0000367560774241
 40
0.0000367560774241
 40
0.0000484502327164
 40
0.0000484502327164
 40
0.0000484502327164
 40
0.0000524173647619
 40
0.0000524173647619
 40
0.0000524173647619
 40
0.0000524173647619
 10
77.87568843107451
 20
91.95918973611855
 30
0.0
 10
77.87998327794158
 20
91.96026748009228
 30
0.0
 10
77.88450333782951
 20
91.96092648659172
 30
0.0
 10
77.88900080964287
 20
91.96065564120227
 30
0.0
 10
77.89161797826705
 20
91.96049803086368
 30
0.0
 10
77.89427195821303
 20
91.96000570687525
 30
0.0
 10
77.89675744506309
 20
91.95908408863573
 30
0.0
 10
77.89926131863511
 20
91.9581556526018
 30
0.0
 10
77.90165053428177
 20
91.95674859687557
 30
0.0
 10
77.90367017073984
 20
91.95499723051752
 30
0.0
 10
77.90546510037338
 20
91.95344072297743
 30
0.0
 10
77.90701865492345
 20
91.95158885905006
 30
0.0
 10
77.90830100964159
 20
91.94961406733978
 30
0.0
 10
77.9104057525726
 20
91.94637281994265
 30
0.0
 10
77.91186136428927
 20
91.94273238637516
 30
0.0
 10
77.9128895033469
 20
91.93907144867156
 30
0.0
 10
77.91324144320646
 20
91.9378182817077
 30
0.0
 10
77.91354541400746
 20
91.9365540751505
 30
0.0
 10
77.91380893967417
 20
91.93528500054
 30
0.0
  0
LINE
  5
25A
330
1F
100
AcDbEntity
  8
0
  6
Continuous
 62
     7
370
     0
100
AcDbLine
 10
67.6557011801
 20
90.658727814
 30
0.0
 11
66.9750636342
 21
91.9650290296
 31
0.0
  0
LINE
  5
25B
330
1F
100
AcDbEntity
  8
0
  6
Continuous
 62
     7
370
     0
100
AcDbLine
 10
66.8397098678
 20
91.8945039292
 30
0.0
 11
67.6557011801
 21
90.3284268123
 31
0.0
  0
LINE
  5
25C
330
1F
100
AcDbEntity
  8
0
  6
Continuous
 62
     7
370
     0
100
AcDbLine
 10
67.6567014206
 20
90.3265075893
 30
0.0
 11
68.8373381171
 21
88.0605908013
 31
0.0
  0
LINE
  5
25D
330
1F
100
AcDbEntity
  8
0
  6
Continuous
 62
     7
370
     0
100
AcDbLine
 10
68.9726928148
 20
88.1311159017
 30
0.0
 11
67.6567014206
 21
90.656808591
 31
0.0
  0
LINE
  5
25E
330
1F
100
AcDbEntity
  8
0
  6
Continuous
 62
     7
370
     0
100
AcDbLine
 10
70.6667015228
 20
89.877140358
 30
0.0
 11
71.941982479
 21
91.9108113874
 31
0.0
  0
LINE
  5
25F
330
1F
100
AcDbEntity
  8
0
  6
Continuous
 62
     7
370
     0
100
AcDbLine
 10
71.8126781184
 20
91.9918964053
 30
0.0
 11
70.6667015228
 21
90.1644257381
 31
0.0
  0
LINE
  5
260
330
1F
100
AcDbEntity
  8
0
  6
Continuous
 62
     7
370
     0
100
AcDbLine
 10
70.656700981
 20
90.1484788909
 30
0.0
 11
69.3814204905
 21
88.1148078614
 31
0.0
  0
LINE
  5
261
330
1F
100
AcDbEntity
  8
0
  6
Continuous
 62
     7
370
     0
100
AcDbLine
 10
69.5107253167
 20
88.0337228435
 30
0.0
 11
70.656700981
 21
89.8611935107
 31
0.0
  0
LINE
  5
262
330
1F
100
AcDbEntity
  8
0
  6
Continuous
 62
     7
370
     0
100
AcDbLine
 10
73.6767011593
 20
89.8611935107
 30
0.0
 11
74.8226777549
 21
88.0337228435
 31
0.0
  0
LINE
  5
263
330
1F
100
AcDbEntity
  8
0
  6
Continuous
 62
     7
370
     0
100
AcDbLine
 10
74.9519825812
 20
88.1148078614
 30
0.0
 11
73.6767011593
 21
90.1484788909
 31
0.0
  0
LINE
  5
264
330
1F
100
AcDbEntity
  8
0
  6
Continuous
 62
     7
370
     0
100
AcDbLine
 10
73.6667010832
 20
90.1644257381
 30
0.0
 11
72.5207249533
 21
91.9918964053
 31
0.0
  0
LINE
  5
265
330
1F
100
AcDbEntity
  8
0
  6
Continuous
 62
     7
370
     0
100
AcDbLine
 10
72.391420127
 20
91.9108113874
 30
0.0
 11
73.6667010832
 21
89.877140358
 31
0.0
  0
LINE
  5
266
330
1F
100
AcDbEntity
  8
0
  6
Continuous
 62
     7
370
     0
100
AcDbLine
 10
77.961982567
 20
91.9108113874
 30
0.0
 11
76.6867012616
 21
89.877140358
 31
0.0
  0
LINE
  5
267
330
1F
100
AcDbEntity
  8
0
  6
Continuous
 62
     7
370
     0
100
AcDbLine
 10
76.6867012616
 20
90.1644257381
 30
0.0
 11
77.8326776243
 21
91.9918964053
 31
0.0
  0
LINE
  5
268
330
1F
100
AcDbEntity
  8
0
  6
Continuous
 62
     7
370
     0
100
AcDbLine
 10
76.6767011854
 20
90.1484788909
 30
0.0
 11
75.4014202292
 21
88.1148078614
 31
0.0
  0
LINE
  5
269
330
1F
100
AcDbEntity
  8
0
  6
Continuous
 62
     7
370
     0
100
AcDbLine
 10
75.5307245898
 20
88.0337223778
 30
0.0
 11
76.6767011854
 21
89.8611935107
 31
0.0
  0
LINE
  5
26A
330
1F
100
AcDbEntity
  8
0
  6
Continuous
 62
     7
370
     0
100
AcDbLine
 10
78.5705492498
 20
91.9428096521
 30
0.0
 11
79.6867012876
 21
90.1575613669
 31
0.0
  0
LINE
  5
26B
330
1F
100
AcDbEntity
  8
0
  6
Continuous
 62
     7
370
     0
100
AcDbLine
 10
79.6867012876
 20
89.8696573411
 30
0.0
 11
78.4107437256
 21
91.9105091733
 31
0.0
  0
LINE
  5
26C
330
1F
100
AcDbEntity
  8
0
  6
Continuous
 62
     7
370
     0
100
AcDbLine
 10
79.6877012876
 20
89.8680578819
 30
0.0
 11
80.8342452991
 21
88.0341987493
 31
0.0
  0
LINE
  5
26D
330
1F
100
AcDbEntity
  8
0
  6
Continuous
 62
     7
370
     0
100
AcDbLine
 10
80.9636588573
 20
88.1151100755
 30
0.0
 11
79.6877012876
 21
90.1559619077
 31
0.0
  0
LINE
  5
26E
330
1F
100
AcDbEntity
  8
0
  6
Continuous
 62
     7
370
     0
100
AcDbLine
 10
65.6557008523
 20
86.5128095164
 30
0.0
 11
67.6557011801
 21
86.5128095164
 31
0.0
  0
LINE
  5
26F
330
1F
100
AcDbEntity
  8
0
  6
Continuous
 62
     7
370
     0
100
AcDbLine
 10
65.6557008523
 20
93.5128097324
 30
0.0
 11
65.6557008523
 21
86.5128095164
 31
0.0
  0
LINE
  5
270
330
1F
100
AcDbEntity
  8
0
  6
Continuous
 62
     7
370
     0
100
AcDbLine
 10
65.6557008523
 20
93.5128097324
 30
0.0
 11
67.6557011801
 21
93.5128097324
 31
0.0
  0
LINE
  5
271
330
1F
100
AcDbEntity
  8
0
  6
Continuous
 62
     7
370
     0
100
AcDbLine
 10
67.6557011801
 20
93.5128097324
 30
0.0
 11
67.6557011801
 21
90.658727814
 31
0.0
  0
LINE
  5
272
330
1F
100
AcDbEntity
  8
0
  6
Continuous
 62
     7
370
     0
100
AcDbLine
 10
67.6557011801
 20
90.3284268123
 30
0.0
 11
67.6557011801
 21
86.5128095164
 31
0.0
  0
LINE
  5
273
330
1F
100
AcDbEntity
  8
0
  6
Continuous
 62
     7
370
     0
100
AcDbLine
 10
67.6567014206
 20
86.5128095164
 30
0.0
 11
70.656700981
 21
86.5128095164
 31
0.0
  0
LINE
  5
274
330
1F
100
AcDbEntity
  8
0
  6
Continuous
 62
     7
370
     0
100
AcDbLine
 10
70.656700981
 20
89.8611935107
 30
0.0
 11
70.656700981
 21
86.5128095164
 31
0.0
  0
LINE
  5
275
330
1F
100
AcDbEntity
  8
0
  6
Continuous
 62
     7
370
     0
100
AcDbLine
 10
67.6567014206
 20
90.3265075893
 30
0.0
 11
67.6567014206
 21
86.5128095164
 31
0.0
  0
LINE
  5
276
330
1F
100
AcDbEntity
  8
0
  6
Continuous
 62
     7
370
     0
100
AcDbLine
 10
67.6567014206
 20
93.5128097324
 30
0.0
 11
70.656700981
 21
93.5128097324
 31
0.0
  0
LINE
  5
277
330
1F
100
AcDbEntity
  8
0
  6
Continuous
 62
     7
370
     0
100
AcDbLine
 10
70.656700981
 20
93.5128097324
 30
0.0
 11
70.656700981
 21
90.1484788909
 31
0.0
  0
LINE
  5
278
330
1F
100
AcDbEntity
  8
0
  6
Continuous
 62
     7
370
     0
100
AcDbLine
 10
67.6567014206
 20
93.5128097324
 30
0.0
 11
67.6567014206
 21
90.656808591
 31
0.0
  0
LINE
  5
279
330
1F
100
AcDbEntity
  8
0
  6
Continuous
 62
     7
370
     0
100
AcDbLine
 10
70.6667015228
 20
86.5128095164
 30
0.0
 11
73.6667010832
 21
86.5128095164
 31
0.0
  0
LINE
  5
27A
330
1F
100
AcDbEntity
  8
0
  6
Continuous
 62
     7
370
     0
100
AcDbLine
 10
73.6667010832
 20
89.877140358
 30
0.0
 11
73.6667010832
 21
86.5128095164
 31
0.0
  0
LINE
  5
27B
330
1F
100
AcDbEntity
  8
0
  6
Continuous
 62
     7
370
     0
100
AcDbLine
 10
70.6667015228
 20
89.877140358
 30
0.0
 11
70.6667015228
 21
86.5128095164
 31
0.0
  0
LINE
  5
27C
330
1F
100
AcDbEntity
  8
0
  6
Continuous
 62
     7
370
     0
100
AcDbLine
 10
73.6767011593
 20
86.5128095164
 30
0.0
 11
76.6767011854
 21
86.5128095164
 31
0.0
  0
LINE
  5
27D
330
1F
100
AcDbEntity
  8
0
  6
Continuous
 62
     7
370
     0
100
AcDbLine
 10
73.6767011593
 20
89.8611935107
 30
0.0
 11
73.6767011593
 21
86.5128095164
 31
0.0
  0
LINE
  5
27E
330
1F
100
AcDbEntity
  8
0
  6
Continuous
 62
     7
370
     0
100
AcDbLine
 10
76.6767011854
 20
89.8611935107
 30
0.0
 11
76.6767011854
 21
86.5128095164
 31
0.0
  0
LINE
  5
27F
330
1F
100
AcDbEntity
  8
0
  6
Continuous
 62
     7
370
     0
100
AcDbLine
 10
70.6667015228
 20
93.5128097324
 30
0.0
 11
73.6667010832
 21
93.5128097324
 31
0.0
  0
LINE
  5
280
330
1F
100
AcDbEntity
  8
0
  6
Continuous
 62
     7
370
     0
100
AcDbLine
 10
73.6667010832
 20
93.5128097324
 30
0.0
 11
73.6667010832
 21
90.1644257381
 31
0.0
  0
LINE
  5
281
330
1F
100
AcDbEntity
  8
0
  6
Continuous
 62
     7
370
     0
100
AcDbLine
 10
70.6667015228
 20
93.5128097324
 30
0.0
 11
70.6667015228
 21
90.1644257381
 31
0.0
  0
LINE
  5
282
330
1F
100
AcDbEntity
  8
0
  6
Continuous
 62
     7
370
     0
100
AcDbLine
 10
73.6767011593
 20
93.5128097324
 30
0.0
 11
76.6767011854
 21
93.5128097324
 31
0.0
  0
LINE
  5
283
330
1F
100
AcDbEntity
  8
0
  6
Continuous
 62
     7
370
     0
100
AcDbLine
 10
73.6767011593
 20
93.5128097324
 30
0.0
 11
73.6767011593
 21
90.1484788909
 31
0.0
  0
LINE
  5
284
330
1F
100
AcDbEntity
  8
0
  6
Continuous
 62
     7
370
     0
100
AcDbLine
 10
76.6767011854
 20
93.5128097324
 30
0.0
 11
76.6767011854
 21
90.1484788909
 31
0.0
  0
LINE
  5
285
330
1F
100
AcDbEntity
  8
0
  6
Continuous
 62
     7
370
     0
100
AcDbLine
 10
76.6867012616
 20
86.5128095164
 30
0.0
 11
79.6867012876
 21
86.5128095164
 31
0.0
  0
LINE
  5
286
330
1F
100
AcDbEntity
  8
0
  6
Continuous
 62
     7
370
     0
100
AcDbLine
 10
76.6867012616
 20
89.877140358
 30
0.0
 11
76.6867012616
 21
86.5128095164
 31
0.0
  0
LINE
  5
287
330
1F
100
AcDbEntity
  8
0
  6
Continuous
 62
     7
370
     0
100
AcDbLine
 10
79.6867012876
 20
89.8696573411
 30
0.0
 11
79.6867012876
 21
86.5128095164
 31
0.0
  0
LINE
  5
288
330
1F
100
AcDbEntity
  8
0
  6
Continuous
 62
     7
370
     0
100
AcDbLine
 10
82.6877013213
 20
93.5128097324
 30
0.0
 11
79.6877012876
 21
93.5128097324
 31
0.0
  0
LINE
  5
289
330
1F
100
AcDbEntity
  8
0
  6
Continuous
 62
     7
370
     0
100
AcDbLine
 10
82.6877013213
 20
86.5128095164
 30
0.0
 11
82.6877013213
 21
91.9428096521
 31
0.0
  0
LINE
  5
28A
330
1F
100
AcDbEntity
  8
0
  6
Continuous
 62
     7
370
     0
100
AcDbLine
 10
82.6877013213
 20
92.8828095919
 30
0.0
 11
82.6877013213
 21
93.5128097324
 31
0.0
  0
LINE
  5
28B
330
1F
100
AcDbEntity
  8
0
  6
Continuous
 62
     7
370
     0
100
AcDbLine
 10
82.6877013213
 20
86.5128095164
 30
0.0
 11
79.6877012876
 21
86.5128095164
 31
0.0
  0
LINE
  5
28C
330
1F
100
AcDbEntity
  8
0
  6
Continuous
 62
     7
370
     0
100
AcDbLine
 10
79.6877012876
 20
86.5128095164
 30
0.0
 11
79.6877012876
 21
89.8680578819
 31
0.0
  0
LINE
  5
28D
330
1F
100
AcDbEntity
  8
0
  6
Continuous
 62
     7
370
     0
100
AcDbLine
 10
79.6877012876
 20
90.1559619077
 30
0.0
 11
79.6877012876
 21
91.9428096521
 31
0.0
  0
LINE
  5
28E
330
1F
100
AcDbEntity
  8
0
  6
Continuous
 62
     7
370
     0
100
AcDbLine
 10
79.6877012876
 20
92.8828095919
 30
0.0
 11
79.6877012876
 21
93.5128097324
 31
0.0
  0
LINE
  5
28F
330
1F
100
AcDbEntity
  8
0
  6
Continuous
 62
     7
370
     0
100
AcDbLine
 10
76.6867012616
 20
93.5128097324
 30
0.0
 11
79.6867012876
 21
93.5128097324
 31
0.0
  0
LINE
  5
290
330
1F
100
AcDbEntity
  8
0
  6
Continuous
 62
     7
370
     0
100
AcDbLine
 10
76.6867012616
 20
93.5128097324
 30
0.0
 11
76.6867012616
 21
90.1644257381
 31
0.0
  0
LINE
  5
291
330
1F
100
AcDbEntity
  8
0
  6
Continuous
 62
     7
370
     0
100
AcDbLine
 10
79.6867012876
 20
93.5128097324
 30
0.0
 11
79.6867012876
 21
92.8828095919
 31
0.0
  0
LINE
  5
292
330
1F
100
AcDbEntity
  8
0
  6
Continuous
 62
     7
370
     0
100
AcDbLine
 10
79.6867012876
 20
91.9428096521
 30
0.0
 11
79.6867012876
 21
90.1575613669
 31
0.0
  0
LINE
  5
293
330
1F
100
AcDbEntity
  8
0
  6
Continuous
 62
     7
370
     0
100
AcDbLine
 10
65.2547012913
 20
86.5128095164
 30
0.0
 11
65.2547012913
 21
93.5128097324
 31
0.0
  0
LINE
  5
294
330
1F
100
AcDbEntity
  8
0
  6
Continuous
 62
     7
370
     0
100
AcDbLine
 10
65.2547012913
 20
93.5128097324
 30
0.0
 11
65.6547015432
 21
93.5128097324
 31
0.0
  0
LINE
  5
295
330
1F
100
AcDbEntity
  8
0
  6
Continuous
 62
     7
370
     0
100
AcDbLine
 10
65.6547015432
 20
86.5128095164
 30
0.0
 11
65.6547015432
 21
93.5128097324
 31
0.0
  0
LINE
  5
296
330
1F
100
AcDbEntity
  8
0
  6
Continuous
 62
     7
370
     0
100
AcDbLine
 10
65.2547012913
 20
86.5128095164
 30
0.0
 11
65.6547015432
 21
86.5128095164
 31
0.0
  0
LINE
  5
297
330
1F
100
AcDbEntity
  8
0
  6
Continuous
 62
     7
370
     0
100
AcDbLine
 10
83.288701241
 20
93.5128097324
 30
0.0
 11
82.6887013289
 21
93.5128097324
 31
0.0
  0
LINE
  5
298
330
1F
100
AcDbEntity
  8
0
  6
Continuous
 62
     7
370
     0
100
AcDbLine
 10
83.288701241
 20
93.5128097324
 30
0.0
 11
83.288701241
 21
92.8828095919
 31
0.0
  0
LINE
  5
299
330
1F
100
AcDbEntity
  8
0
  6
Continuous
 62
     7
370
     0
100
AcDbLine
 10
83.288701241
 20
91.9428096521
 30
0.0
 11
83.288701241
 21
86.5128095164
 31
0.0
  0
LINE
  5
29A
330
1F
100
AcDbEntity
  8
0
  6
Continuous
 62
     7
370
     0
100
AcDbLine
 10
83.288701241
 20
86.5128095164
 30
0.0
 11
82.6887013289
 21
86.5128095164
 31
0.0
  0
LINE
  5
29B
330
1F
100
AcDbEntity
  8
0
  6
Continuous
 62
     7
370
     0
100
AcDbLine
 10
82.6887013289
 20
93.5128097324
 30
0.0
 11
82.6887013289
 21
92.8828095919
 31
0.0
  0
LINE
  5
29C
330
1F
100
AcDbEntity
  8
0
  6
Continuous
 62
     7
370
     0
100
AcDbLine
 10
82.6887013289
 20
91.9428096521
 30
0.0
 11
82.6887013289
 21
86.5128095164
 31
0.0
  0
LINE
  5
29D
330
1F
100
AcDbEntity
  8
0
  6
Continuous
 62
     7
370
     0
100
AcDbLine
 10
70.656700981
 20
86.5128095164
 30
0.0
 11
70.656700981
 21
89.8612367444
 31
0.0
  0
LINE
  5
29E
330
1F
100
AcDbEntity
  8
0
  6
Continuous
 62
     7
370
     0
100
AcDbLine
 10
70.6667015228
 20
90.1643825044
 30
0.0
 11
70.6667015228
 21
93.5128097324
 31
0.0
  0
LINE
  5
29F
330
1F
100
AcDbEntity
  8
0
  6
Continuous
 62
     7
370
     0
100
AcDbLine
 10
76.6767011854
 20
86.5128095164
 30
0.0
 11
76.6767011854
 21
89.8612367444
 31
0.0
  0
LINE
  5
2A0
330
1F
100
AcDbEntity
  8
0
  6
Continuous
 62
     7
370
     0
100
AcDbLine
 10
76.6867012616
 20
90.1643825044
 30
0.0
 11
76.6867012616
 21
93.5128097324
 31
0.0
  0
DIMENSION
  5
2A1
330
1F
100
AcDbEntity
  8
0
  6
Continuous
 62
     7
370
     0
100
AcDbDimension
  2
_D_2
 10
82.6877012876
 20
74.0272791504
 30
0.0
 11
96.395808313
 21
74.0272791504
 31
0.0
 70
   160
  1
<>X5
 71
     2
 42
-1.0
  3
SLDDIMSTYLE1
100
AcDbAlignedDimension
 13
79.6867012876
 23
86.5128096244
 33
0.0
 14
82.6877012876
 24
86.5128096244
 34
0.0
100
AcDbRotatedDimension
  0
DIMENSION
  5
2B4
330
1F
100
AcDbEntity
  8
0
  6
Continuous
 62
     7
370
     0
100
AcDbDimension
  2
_D_3
 10
67.6567012876
 20
74.0775420999
 30
0.0
 11
57.1420453643
 21
74.0775420999
 31
0.0
 70
   160
  1
<>
 71
     2
 42
-1.0
  3
SLDDIMSTYLE1
100
AcDbAlignedDimension
 13
65.6557012876
 23
86.5128096244
 33
0.0
 14
67.6567012876
 24
86.5128096244
 34
0.0
100
AcDbRotatedDimension
  0
DIMENSION
  5
2C8
330
1F
100
AcDbEntity
  8
0
  6
Continuous
 62
     7
370
     0
100
AcDbDimension
  2
_D_4
 10
83.2887012876
 20
100.4861327336
 30
0.0
 11
74.168732611
 21
100.4861327336
 31
0.0
 70
   160
  1
<>
 71
     2
 42
-1.0
  3
SLDDIMSTYLE1
100
AcDbAlignedDimension
 13
65.2547012876
 23
93.5128096244
 33
0.0
 14
83.2887012876
 24
93.5128096244
 34
0.0
100
AcDbRotatedDimension
  0
SPLINE
  5
2DC
330
1F
100
AcDbEntity
  8
0
  6
Continuous
 62
     7
370
     0
100
AcDbSpline
210
0.0
220
0.0
230
1.0
 70
     8
 71
     3
 72
     9
 73
     5
 74
     0
 42
0.000000001
 43
0.00000001
 40
0.0
 40
0.0
 40
0.0
 40
0.0
 40
0.5139066606917709
 40
1.0
 40
1.0
 40
1.0
 40
1.0
 10
260.3973875160372
 20
165.4986455868265
 30
0.0
 10
261.0112813259187
 20
165.0989098255812
 30
0.0
 10
262.2058441849702
 20
164.3210725414579
 30
0.0
 10
263.4004730422277
 20
163.5431905704873
 30
0.0
 10
263.9811741726859
 20
163.1650673256306
 30
0.0
  0
LINE
  5
2DD
330
1F
100
AcDbEntity
  8
0
  6
Continuous
 62
     7
370
     0
100
AcDbLine
 10
264.1148029987
 20
163.3477964218
 30
0.0
 11
264.0847509605
 21
163.3212930153
 31
0.0
  0
LINE
  5
2DE
330
1F
100
AcDbEntity
  8
0
  6
Continuous
 62
     7
370
     0
100
AcDbLine
 10
264.8123325711
 20
162.4962930153
 30
0.0
 11
264.8423846093
 21
162.5227964218
 31
0.0
  0
LINE
  5
2DF
330
1F
100
AcDbEntity
  8
0
  6
Continuous
 62
     7
370
     0
100
AcDbLine
 10
262.3712379285
 20
161.7832359299
 30
0.0
 11
264.0548708622
 21
162.6352412798
 31
0.0
  0
LINE
  5
2E0
330
1F
100
AcDbEntity
  8
0
  6
Continuous
 62
     7
370
     0
100
AcDbLine
 10
262.3563118219
 20
161.7756825479
 30
0.0
 11
262.3712379285
 21
161.7832359299
 31
0.0
  0
SPLINE
  5
2E1
330
1F
100
AcDbEntity
  8
0
  6
Continuous
 62
     7
370
     0
100
AcDbSpline
210
0.0
220
0.0
230
1.0
 70
     8
 71
     3
 72
     9
 73
     5
 74
     0
 42
0.000000001
 43
0.00000001
 40
0.0
 40
0.0
 40
0.0
 40
0.0
 40
0.9366708892915108
 40
1.0
 40
1.0
 40
1.0
 40
1.0
 10
260.4538690791061
 20
160.8129455093782
 30
0.0
 10
261.0477983959036
 20
161.1135057407045
 30
0.0
 10
261.6818837759315
 20
161.4343871033715
 30
0.0
 10
262.3161446450797
 20
161.7553558807054
 30
0.0
 10
262.35631182188
 20
161.7756825479392
 30
0.0
  0
LINE
  5
2E2
330
1F
100
AcDbEntity
  8
0
  6
Continuous
 62
     7
370
     0
100
AcDbLine
 10
259.6248141344
 20
166.2714472596
 30
0.0
 11
259.5947620962
 21
166.2449438531
 31
0.0
  0
LINE
  5
2E3
330
1F
100
AcDbEntity
  8
0
  6
Continuous
 62
     7
370
     0
100
AcDbLine
 10
260.3223437068
 20
165.4199438531
 30
0.0
 11
260.352395745
 21
165.4464472596
 31
0.0
  0
SPLINE
  5
2E4
330
1F
100
AcDbEntity
  8
0
  6
Continuous
 62
     7
370
     0
100
AcDbSpline
210
0.0
220
0.0
230
1.0
 70
     8
 71
     3
 72
     9
 73
     5
 74
     0
 42
0.000000001
 43
0.00000001
 40
0.0
 40
0.0
 40
0.0
 40
0.0
 40
0.4880941198901147
 40
1.0
 40
1.0
 40
1.0
 40
1.0
 10
260.3728721116284
 20
160.2727458123731
 30
0.0
 10
260.9625128392003
 20
159.825781734624
 30
0.0
 10
262.1705600242485
 20
158.9100483554764
 30
0.0
 10
263.3786574001717
 20
157.9942747251724
 30
0.0
 10
263.9970895506521
 20
157.5254848189702
 30
0.0
  0
SPLINE
  5
2E5
330
1F
100
AcDbEntity
  8
0
  6
Continuous
 62
     7
370
     0
100
AcDbSpline
210
0.0
220
0.0
230
1.0
 70
     8
 71
     3
 72
    22
 73
    18
 74
     0
 42
0.000000001
 43
0.00000001
 40
0.0
 40
0.0
 40
0.0
 40
0.0
 40
0.0830935921022948
 40
0.1639310414758234
 40
0.2344003040563543
 40
0.2955015507216567
 40
0.348018825973597
 40
0.3925417635518996
 40
0.4294940908419817
 40
0.4617353554674157
 40
0.5149056151076244
 40
0.5815193455055613
 40
0.6618286384277056
 40
0.7316101212878862
 40
0.8103898041973258
 40
0.8993234850184026
 40
0.9999999999999999
 40
0.9999999999999999
 40
0.9999999999999999
 40
0.9999999999999999
 10
259.5449339991913
 20
155.1257411789688
 30
0.0
 10
259.4883566267641
 20
155.0007062112774
 30
0.0
 10
259.3767380608637
 20
154.7540312035426
 30
0.0
 10
259.2244793562617
 20
154.3728321423343
 30
0.0
 10
259.0920757492176
 20
154.0107484516236
 30
0.0
 10
258.9828560561793
 20
153.6825920146815
 30
0.0
 10
258.8937302935801
 20
153.3906135866146
 30
0.0
 10
258.8220833706027
 20
153.1361837334653
 30
0.0
 10
258.7643050264464
 20
152.9155591788209
 30
0.0
 10
258.7051239528221
 20
152.6742397124996
 30
0.0
 10
258.6364242688415
 20
152.3688893207081
 30
0.0
 10
258.555582153061
 20
151.9579239896695
 30
0.0
 10
258.4816984118112
 20
151.504034163715
 30
0.0
 10
258.4189952094167
 20
151.0202124865546
 30
0.0
 10
258.3700459410812
 20
150.517961505523
 30
0.0
 10
258.3330119798804
 20
149.9542975299844
 30
0.0
 10
258.3251014742908
 20
149.5668534470015
 30
0.0
 10
258.3209012669595
 20
149.3611339187883
 30
0.0
  0
SPLINE
  5
2E6
330
1F
100
AcDbEntity
  8
0
  6
Continuous
 62
     7
370
     0
100
AcDbSpline
210
0.0
220
0.0
230
1.0
 70
     8
 71
     3
 72
    22
 73
    18
 74
     0
 42
0.000000001
 43
0.00000001
 40
0.0
 40
0.0
 40
0.0
 40
0.0
 40
0.0884495208363939
 40
0.1654947503972885
 40
0.232493877798091
 40
0.2904269537538777
 40
0.3399501966050105
 40
0.381461365946283
 40
0.415167907957498
 40
0.4478344143556308
 40
0.5024039615458581
 40
0.5701465015882584
 40
0.6521910216863508
 40
0.7242204858157374
 40
0.8064743820535978
 40
0.9004328840216652
 40
1.0
 40
1.0
 40
1.0
 40
1.0
 10
259.2491110783242
 20
149.2133717285782
 30
0.0
 10
259.2510796902411
 20
149.3832705889992
 30
0.0
 10
259.2547630899335
 20
149.7011622997996
 30
0.0
 10
259.2775624935076
 20
150.1600096719979
 30
0.0
 10
259.3082032431702
 20
150.5628182147065
 30
0.0
 10
259.3439793302865
 20
150.9126708454582
 30
0.0
 10
259.381351444202
 20
151.2112493141113
 30
0.0
 10
259.4175095429033
 20
151.4602061053345
 30
0.0
 10
259.4521909640661
 20
151.6741321269001
 30
0.0
 10
259.494350299557
 20
151.9120158065133
 30
0.0
 10
259.5537341521446
 20
152.2129435382492
 30
0.0
 10
259.6413638249073
 20
152.6003312336168
 30
0.0
 10
259.747634369254
 20
153.0054547960125
 30
0.0
 10
259.8710667435477
 20
153.4177974101679
 30
0.0
 10
260.009922232298
 20
153.8291012445862
 30
0.0
 10
260.1728864525497
 20
154.2611470763981
 30
0.0
 10
260.2941105761138
 20
154.5376278695406
 30
0.0
 10
260.3564792511158
 20
154.6798746453871
 30
0.0
  0
LINE
  5
2E7
330
1F
100
AcDbEntity
  8
0
  6
Continuous
 62
     7
370
     0
100
AcDbLine
 10
264.1148029987
 20
157.6720859913
 30
0.0
 11
264.0847509605
 21
157.6455825848
 31
0.0
  0
LINE
  5
2E8
330
1F
100
AcDbEntity
  8
0
  6
Continuous
 62
     7
370
     0
100
AcDbLine
 10
264.8123325711
 20
156.8205825849
 30
0.0
 11
264.8423846093
 21
156.8470859913
 31
0.0
  0
LINE
  5
2E9
330
1F
100
AcDbEntity
  8
0
  6
Continuous
 62
     7
370
     0
100
AcDbLine
 10
262.3712325716
 20
156.1075227948
 30
0.0
 11
264.0548708643
 21
156.959530847
 31
0.0
  0
LINE
  5
2EA
330
1F
100
AcDbEntity
  8
0
  6
Continuous
 62
     7
370
     0
100
AcDbLine
 10
262.3569409616
 20
156.100290501
 30
0.0
 11
262.3712325716
 21
156.1075227948
 31
0.0
  0
SPLINE
  5
2EB
330
1F
100
AcDbEntity
  8
0
  6
Continuous
 62
     7
370
     0
100
AcDbSpline
210
0.0
220
0.0
230
1.0
 70
     8
 71
     3
 72
     9
 73
     5
 74
     0
 42
0.000000001
 43
0.00000001
 40
0.0
 40
0.0
 40
0.0
 40
0.0
 40
0.9414884179072254
 40
1.0
 40
1.0
 40
1.0
 40
1.0
 10
260.4538712606084
 20
155.1372361647603
 30
0.0
 10
261.0510518436452
 20
155.4394417209008
 30
0.0
 10
261.6853459801192
 20
155.7604287350717
 30
0.0
 10
262.3198170552497
 20
156.0815038859527
 30
0.0
 10
262.3569409616477
 20
156.1002905010015
 30
0.0
  0
LINE
  5
2EC
330
1F
100
AcDbEntity
  8
0
  6
Continuous
 62
     7
370
     0
100
AcDbLine
 10
259.6248141344
 20
161.0756266313
 30
0.0
 11
259.5947620962
 21
161.0491232248
 31
0.0
  0
LINE
  5
2ED
330
1F
100
AcDbEntity
  8
0
  6
Continuous
 62
     7
370
     0
100
AcDbLine
 10
260.3223437068
 20
160.2241232248
 30
0.0
 11
260.352395745
 21
160.2506266313
 31
0.0
  0
LINE
  5
2EE
330
1F
100
AcDbEntity
  8
0
  6
Continuous
 62
     7
370
     0
100
AcDbLine
 10
258.3204731235
 20
149.3584853729
 30
0.0
 11
258.3204731235
 21
92.7899428763
 31
0.0
  0
LINE
  5
2EF
330
1F
100
AcDbEntity
  8
0
  6
Continuous
 62
     7
370
     0
100
AcDbLine
 10
259.2495390835
 20
92.6474514227
 30
0.0
 11
259.2495390835
 21
149.2159939193
 31
0.0
  0
SPLINE
  5
2F0
330
1F
100
AcDbEntity
  8
0
  6
Continuous
 62
     7
370
     0
100
AcDbSpline
210
0.0
220
0.0
230
1.0
 70
     8
 71
     3
 72
     9
 73
     5
 74
     0
 42
0.000000001
 43
0.00000001
 40
0.0
 40
0.0
 40
0.0
 40
0.0
 40
0.4664146509344108
 40
1.0
 40
1.0
 40
1.0
 40
1.0
 10
260.3733070559771
 20
154.5975245211407
 30
0.0
 10
260.9366443703248
 20
154.1715637785886
 30
0.0
 10
262.1444480128972
 20
153.2582975642905
 30
0.0
 10
263.3523038972472
 20
152.3449895743182
 30
0.0
 10
263.996798100919
 20
151.8576618116845
 30
0.0
  0
LINE
  5
2F1
330
1F
100
AcDbEntity
  8
0
  6
Continuous
 62
     7
370
     0
100
AcDbLine
 10
264.1148029987
 20
152.0048608422
 30
0.0
 11
264.0847509605
 21
151.9783574357
 31
0.0
  0
LINE
  5
2F2
330
1F
100
AcDbEntity
  8
0
  6
Continuous
 62
     7
370
     0
100
AcDbLine
 10
264.8123325711
 20
151.1533574357
 30
0.0
 11
264.8423846093
 21
151.1798608422
 31
0.0
  0
LINE
  5
2F3
330
1F
100
AcDbEntity
  8
0
  6
Continuous
 62
     7
370
     0
100
AcDbLine
 10
259.6248141344
 20
155.3999162008
 30
0.0
 11
259.5947620962
 21
155.3734127943
 31
0.0
  0
LINE
  5
2F4
330
1F
100
AcDbEntity
  8
0
  6
Continuous
 62
     7
370
     0
100
AcDbLine
 10
260.3223437068
 20
154.5484127943
 30
0.0
 11
260.352395745
 21
154.5749162008
 31
0.0
  0
LINE
  5
2F5
330
1F
100
AcDbEntity
  8
0
  6
Continuous
 62
     7
370
     0
100
AcDbLine
 10
263.2032516363
 20
149.7725534041
 30
0.0
 11
263.2032516363
 21
96.9731089501
 31
0.0
  0
LINE
  5
2F6
330
1F
100
AcDbEntity
  8
0
  6
Continuous
 62
     7
370
     0
100
AcDbLine
 10
264.1323175963
 20
97.076697117
 30
0.0
 11
264.1323175963
 21
149.6555020955
 31
0.0
  0
LINE
  5
2F7
330
1F
100
AcDbEntity
  8
0
  6
Continuous
 62
     7
370
     0
100
AcDbLine
 10
265.5079031388
 20
166.1067464381
 30
0.0
 11
265.5079031388
 21
164.2211283549
 31
0.0
  0
LINE
  5
2F8
330
1F
100
AcDbEntity
  8
0
  6
Continuous
 62
     7
370
     0
100
AcDbLine
 10
265.5079031388
 20
166.1067464381
 30
0.0
 11
267.9827768724
 21
168.2893799133
 31
0.0
  0
LINE
  5
2F9
330
1F
100
AcDbEntity
  8
0
  6
Continuous
 62
     7
370
     0
100
AcDbLine
 10
267.9827768724
 20
168.2893799133
 30
0.0
 11
267.9827768724
 21
166.4037618301
 31
0.0
  0
LINE
  5
2FA
330
1F
100
AcDbEntity
  8
0
  6
Continuous
 62
     7
370
     0
100
AcDbLine
 10
265.5079031388
 20
164.2211283549
 30
0.0
 11
267.9827768724
 21
166.4037618301
 31
0.0
  0
LINE
  5
2FB
330
1F
100
AcDbEntity
  8
0
  6
Continuous
 62
     7
370
     0
100
AcDbLine
 10
258.9600027117
 20
166.9317043491
 30
0.0
 11
265.5079031388
 21
166.1067464381
 31
0.0
  0
LINE
  5
2FC
330
1F
100
AcDbEntity
  8
0
  6
Continuous
 62
     7
370
     0
100
AcDbLine
 10
258.9609381261
 20
166.932529307
 30
0.0
 11
258.9600027117
 21
166.9317043491
 31
0.0
  0
LINE
  5
2FD
330
1F
100
AcDbEntity
  8
0
  6
Continuous
 62
     7
370
     0
100
AcDbLine
 10
267.9827768724
 20
168.2893799133
 30
0.0
 11
267.981841458
 21
168.2894977644
 31
0.0
  0
LINE
  5
2FE
330
1F
100
AcDbEntity
  8
0
  6
Continuous
 62
     7
370
     0
100
AcDbLine
 10
258.9600027117
 20
165.0460862659
 30
0.0
 11
261.6039771456
 21
164.7129767982
 31
0.0
  0
LINE
  5
2FF
330
1F
100
AcDbEntity
  8
0
  6
Continuous
 62
     7
370
     0
100
AcDbLine
 10
258.9600027117
 20
166.9317043491
 30
0.0
 11
258.9600027117
 21
165.0460862659
 31
0.0
  0
LINE
  5
300
330
1F
100
AcDbEntity
  8
0
  6
Continuous
 62
     7
370
     0
100
AcDbLine
 10
261.9387200749
 20
164.6708031533
 30
0.0
 11
265.5079031388
 21
164.2211283549
 31
0.0
  0
SPLINE
  5
301
330
1F
100
AcDbEntity
  8
0
  6
Continuous
 62
     7
370
     0
100
AcDbSpline
210
0.0
220
0.0
230
1.0
 70
     8
 71
     3
 72
    23
 73
    19
 74
     0
 42
0.000000001
 43
0.00000001
 40
0.0000000000000021
 40
0.0000000000000021
 40
0.0000000000000021
 40
0.0000000000000021
 40
0.0000136991388042
 40
0.0000136991388042
 40
0.0000136991388042
 40
0.0000216340656101
 40
0.0000216340656101
 40
0.0000216340656101
 40
0.0000296647624066
 40
0.0000296647624066
 40
0.0000296647624066
 40
0.0000367560774241
 40
0.0000367560774241
 40
0.0000367560774241
 40
0.0000484502327164
 40
0.0000484502327164
 40
0.0000484502327164
 40
0.00005241736476
 40
0.00005241736476
 40
0.00005241736476
 40
0.00005241736476
 10
263.9829405279068
 20
163.1880509731787
 30
0.0
 10
263.9865216221037
 20
163.1883740127223
 30
0.0
 10
263.9901191911824
 20
163.1891760831278
 30
0.0
 10
263.9933576030605
 20
163.1908687046017
 30
0.0
 10
263.9952420995757
 20
163.1918536748246
 30
0.0
 10
263.997030560235
 20
163.1931734163328
 30
0.0
 10
263.9985348054717
 20
163.1948530579492
 30
0.0
 10
264.000050178564
 20
163.1965451249395
 30
0.0
 10
264.0013029670939
 20
163.1986616998251
 30
0.0
 10
264.0021535700373
 20
163.2009921288573
 30
0.0
 10
264.0029095340244
 20
163.2030632719642
 30
0.0
 10
264.00337673392
 20
163.2053420119339
 30
0.0
 10
264.0035973818809
 20
163.2076531403693
 30
0.0
 10
264.0039595338106
 20
163.2114464209398
 30
0.0
 10
264.0036929199293
 20
163.2154185656113
 30
0.0
 10
264.0031041413072
 20
163.2192768332015
 30
0.0
 10
264.0029025978837
 20
163.2205975476935
 30
0.0
 10
264.0026616711442
 20
163.2219139082834
 30
0.0
 10
264.0023892737722
 20
163.2232223998908
 30
0.0
  0
LINE
  5
302
330
1F
100
AcDbEntity
  8
0
  6
Continuous
 62
     7
370
     0
100
AcDbLine
 10
261.9405153523
 20
164.6696341606
 30
0.0
 11
264.0552418378
 21
163.2926325581
 31
0.0
  0
LINE
  5
303
330
1F
100
AcDbEntity
  8
0
  6
Continuous
 62
     7
370
     0
100
AcDbLine
 10
258.9600027117
 20
165.0451434569
 30
0.0
 11
261.6057724247
 21
164.7118078053
 31
0.0
  0
LINE
  5
304
330
1F
100
AcDbEntity
  8
0
  6
Continuous
 62
     7
370
     0
100
AcDbLine
 10
258.9609381261
 20
165.0459684148
 30
0.0
 11
258.9600027117
 21
165.0451434569
 31
0.0
  0
LINE
  5
305
330
1F
100
AcDbEntity
  8
0
  6
Continuous
 62
     7
370
     0
100
AcDbLine
 10
267.9827768724
 20
166.402819021
 30
0.0
 11
267.981841458
 21
166.4029368722
 31
0.0
  0
LINE
  5
306
330
1F
100
AcDbEntity
  8
0
  6
Continuous
 62
     7
370
     0
100
AcDbLine
 10
265.5079031388
 20
164.2201855459
 30
0.0
 11
267.9827768724
 21
166.402819021
 31
0.0
  0
LINE
  5
307
330
1F
100
AcDbEntity
  8
0
  6
Continuous
 62
     7
370
     0
100
AcDbLine
 10
261.9405153523
 20
164.6696341606
 30
0.0
 11
265.5079031388
 21
164.2201855459
 31
0.0
  0
LINE
  5
308
330
1F
100
AcDbEntity
  8
0
  6
Continuous
 62
     7
370
     0
100
AcDbLine
 10
265.5079031388
 20
164.2201855459
 30
0.0
 11
265.5079031388
 21
161.391758421
 31
0.0
  0
LINE
  5
309
330
1F
100
AcDbEntity
  8
0
  6
Continuous
 62
     7
370
     0
100
AcDbLine
 10
267.9827768724
 20
166.402819021
 30
0.0
 11
267.9827768724
 21
163.5743918962
 31
0.0
  0
LINE
  5
30A
330
1F
100
AcDbEntity
  8
0
  6
Continuous
 62
     7
370
     0
100
AcDbLine
 10
265.5079031388
 20
161.391758421
 30
0.0
 11
267.9827768724
 21
163.5743918962
 31
0.0
  0
LINE
  5
30B
330
1F
100
AcDbEntity
  8
0
  6
Continuous
 62
     7
370
     0
100
AcDbLine
 10
262.3771001566
 20
161.7862025206
 30
0.0
 11
265.5079031388
 21
161.391758421
 31
0.0
  0
ARC
  5
30C
330
1F
100
AcDbEntity
  8
0
  6
Continuous
 62
     7
370
     0
100
AcDbCircle
 10
264.4632204946
 20
162.9664635095
 30
0.0
 40
0.5289327466114762
100
AcDbArc
 50
155.2327486629
 51
209.2787176619
  0
LWPOLYLINE
  5
30D
330
1F
100
AcDbEntity
  8
0
  6
Continuous
 62
     7
370
     0
100
AcDbPolyline
 90
       23
 70
   128
 43
0.0
 10
264.0242192143
 20
162.6690268986
 10
264.1034644827
 20
162.5676644214
 10
264.2016128167
 20
162.4849887037
 10
264.3132877268
 20
162.4255286571
 10
264.4323717481
 20
162.3925414568
 10
264.5523415504
 20
162.387834116
 10
264.6666252812
 20
162.4116644993
 10
264.7689625663
 20
162.4627271966
 10
264.8537474487
 20
162.5382250332
 10
264.9163354785
 20
162.634022296
 10
264.9532981319
 20
162.7448712856
 10
264.9626106235
 20
162.8646997802
 10
264.9437628222
 20
162.986943668
 10
264.897787196
 20
163.1049065237
 10
264.8272022539
 20
163.2121264337
 10
264.7358745843
 20
163.3027299746
 10
264.628807046
 20
163.3717539547
 10
264.5118647157
 20
163.4154172941
 10
264.3914536033
 20
163.4313281488
 10
264.2741697361
 20
163.4186149346
 10
264.1664378333
 20
163.3779740716
 10
264.0741593649
 20
163.3116318346
 10
264.0023892737
 20
163.2232223999
  0
SPLINE
  5
30E
330
1F
100
AcDbEntity
  8
0
  6
Continuous
 62
     7
370
     0
100
AcDbSpline
210
0.0
220
0.0
230
1.0
 70
     8
 71
     3
 72
    23
 73
    19
 74
     0
 42
0.000000001
 43
0.00000001
 40
0.0
 40
0.0
 40
0.0
 40
0.0
 40
0.0000136991388042
 40
0.0000136991388042
 40
0.0000136991388042
 40
0.0000216340656101
 40
0.0000216340656101
 40
0.0000216340656101
 40
0.0000296647624066
 40
0.0000296647624066
 40
0.0000296647624066
 40
0.0000367560774241
 40
0.0000367560774241
 40
0.0000367560774241
 40
0.0000484502327164
 40
0.0000484502327164
 40
0.0000484502327164
 40
0.0000524173647333
 40
0.0000524173647333
 40
0.0000524173647333
 40
0.0000524173647333
 10
264.0242192143285
 20
162.6690268986089
 30
0.0
 10
264.0248329245492
 20
162.6726012538449
 30
0.0
 10
264.0250878257236
 20
162.6764662915953
 30
0.0
 10
264.0245719819353
 20
162.6805069727075
 30
0.0
 10
264.0242718021379
 20
162.6828583257046
 30
0.0
 10
264.0236911651265
 20
162.6853126157902
 30
0.0
 10
264.022763834865
 20
162.687707036856
 30
0.0
 10
264.0218296445537
 20
162.6901191709724
 30
0.0
 10
264.0205041514819
 20
162.6925293549362
 30
0.0
 10
264.0189155364002
 20
162.6946836636753
 30
0.0
 10
264.0175036722624
 20
162.6965982818137
 30
0.0
 10
264.0158612868748
 20
162.6983604933804
 30
0.0
 10
264.0141343616393
 20
162.699908355581
 30
0.0
 10
264.011299940219
 20
162.7024488788689
 30
0.0
 10
264.0081760245694
 20
162.7044984417972
 30
0.0
 10
264.0050653988165
 20
162.7061760317096
 30
0.0
 10
264.004000607841
 20
162.7067502835616
 30
0.0
 10
264.0029300373815
 20
162.7072846209541
 30
0.0
 10
264.0018583817129
 20
162.7077844588886
 30
0.0
  0
LINE
  5
30F
330
1F
100
AcDbEntity
  8
0
  6
Continuous
 62
     7
370
     0
100
AcDbLine
 10
258.9600027117
 20
165.0451434569
 30
0.0
 11
258.9600027117
 21
162.216716332
 31
0.0
  0
LINE
  5
310
330
1F
100
AcDbEntity
  8
0
  6
Continuous
 62
     7
370
     0
100
AcDbLine
 10
262.1070459475
 20
161.8202261528
 30
0.0
 11
263.975081171
 21
162.7655499233
 31
0.0
  0
LINE
  5
311
330
1F
100
AcDbEntity
  8
0
  6
Continuous
 62
     7
370
     0
100
AcDbLine
 10
258.9600027117
 20
162.216716332
 30
0.0
 11
262.1070459475
 21
161.8202261528
 31
0.0
  0
LWPOLYLINE
  5
312
330
1F
100
AcDbEntity
  8
0
  6
Continuous
 62
     7
370
     0
100
AcDbPolyline
 90
       15
 70
   128
 43
0.0
 10
264.8423846093
 20
162.5227964218
 10
264.9168979845
 20
162.6085445132
 10
264.9678022589
 20
162.7131466283
 10
264.9914945642
 20
162.8301057116
 10
264.9866570281
 20
162.9529159742
 10
264.9535587361
 20
163.0747461582
 10
264.8940407637
 20
163.1888195222
 10
264.8114137675
 20
163.2887907939
 10
264.7102738317
 20
163.3690991228
 10
264.5962468134
 20
163.4252773992
 10
264.4756754069
 20
163.4542007353
 10
264.3552663347
 20
163.4542602855
 10
264.2417172896
 20
163.4254527373
 10
264.141344379
 20
163.3693804958
 10
264.1148029987
 20
163.3477964218
  0
SPLINE
  5
313
330
1F
100
AcDbEntity
  8
0
  6
Continuous
 62
     7
370
     0
100
AcDbSpline
210
0.0
220
0.0
230
1.0
 70
     8
 71
     3
 72
    11
 73
     7
 74
     0
 42
0.000000001
 43
0.00000001
 40
0.0
 40
0.0
 40
0.0
 40
0.0
 40
0.2223400360901779
 40
0.5888030604524189
 40
0.8618634450855583
 40
1.0
 40
1.0
 40
1.0
 40
1.0
 10
260.4533576187903
 20
160.8140131536819
 30
0.0
 10
260.4505679990947
 20
160.8125482345917
 30
0.0
 10
260.4431805009042
 20
160.8086688215145
 30
0.0
 10
260.428865915669
 20
160.8142898955532
 30
0.0
 10
260.4150119111616
 20
160.8256946952967
 30
0.0
 10
260.4076944849352
 20
160.8346300565503
 30
0.0
 10
260.4052362855846
 20
160.8376317812758
 30
0.0
  0
SPLINE
  5
314
330
1F
100
AcDbEntity
  8
0
  6
Continuous
 62
     7
370
     0
100
AcDbSpline
210
0.0
220
0.0
230
1.0
 70
     8
 71
     3
 72
    23
 73
    19
 74
     0
 42
0.000000001
 43
0.00000001
 40
0.0000000000000021
 40
0.0000000000000021
 40
0.0000000000000021
 40
0.0000000000000021
 40
0.0000136991388042
 40
0.0000136991388042
 40
0.0000136991388042
 40
0.0000216340656101
 40
0.0000216340656101
 40
0.0000216340656101
 40
0.0000296647624065
 40
0.0000296647624065
 40
0.0000296647624065
 40
0.0000367560774241
 40
0.0000367560774241
 40
0.0000367560774241
 40
0.0000484502327164
 40
0.0000484502327164
 40
0.0000484502327164
 40
0.0000524173647594
 40
0.0000524173647594
 40
0.0000524173647594
 40
0.0000524173647594
 10
260.3828754529881
 20
160.8763893415112
 30
0.0
 10
260.3814728888585
 20
160.8721192825207
 30
0.0
 10
260.3804949017646
 20
160.8676165429305
 30
0.0
 10
260.3804857633023
 20
160.8631128709923
 30
0.0
 10
260.3804804454487
 20
160.8604920943917
 30
0.0
 10
260.3808208622813
 20
160.8578259500218
 30
0.0
 10
260.3816177218667
 20
160.8553164646353
 30
0.0
 10
260.3824204763278
 20
160.8527884149944
 30
0.0
 10
260.3837273434818
 20
160.8503618045152
 30
0.0
 10
260.3854152348355
 20
160.8482950492183
 30
0.0
 10
260.3869153296653
 20
160.8464582432363
 30
0.0
 10
260.3887374644494
 20
160.8448545557367
 30
0.0
 10
260.3907050362092
 20
160.8435189238219
 30
0.0
 10
260.393934433422
 20
160.8413267364409
 30
0.0
 10
260.397621145347
 20
160.8397735131738
 30
0.0
 10
260.4013595068949
 20
160.8386495341956
 30
0.0
 10
260.4026391766318
 20
160.8382647875988
 30
0.0
 10
260.4039337200727
 20
160.8379279758096
 30
0.0
 10
260.4052362855983
 20
160.8376317812277
 30
0.0
  0
SPLINE
  5
315
330
1F
100
AcDbEntity
  8
0
  6
Continuous
 62
     7
370
     0
100
AcDbSpline
210
0.0
220
0.0
230
1.0
 70
     8
 71
     3
 72
    17
 73
    13
 74
     0
 42
0.000000001
 43
0.00000001
 40
0.0
 40
0.0
 40
0.0
 40
0.0
 40
0.0000249091250946
 40
0.0000249091250946
 40
0.0000249091250946
 40
0.0000496470944607
 40
0.0000496470944607
 40
0.0000496470944607
 40
0.0000776809554077
 40
0.0000776809554077
 40
0.0000776809554077
 40
0.0001063965837808
 40
0.0001063965837808
 40
0.0001063965837808
 40
0.0001063965837808
 10
260.3828754529893
 20
160.8763893415088
 30
0.0
 10
260.3797508353512
 20
160.8838617870203
 30
0.0
 10
260.3772558911372
 20
160.8913585302805
 30
0.0
 10
260.3755607754141
 20
160.898292514131
 30
0.0
 10
260.3738726925648
 20
160.9051977295428
 30
0.0
 10
260.3729243472566
 20
160.9117302677165
 30
0.0
 10
260.3727249631003
 20
160.9175756480197
 30
0.0
 10
260.3724991866994
 20
160.9241947743861
 30
0.0
 10
260.3732247972046
 20
160.9300927274421
 30
0.0
 10
260.3748110298425
 20
160.9350243732338
 30
0.0
 10
260.3764367593747
 20
160.9400788160771
 30
0.0
 10
260.3789979362928
 20
160.9442293386502
 30
0.0
 10
260.3823355967534
 20
160.9472941523416
 30
0.0
  0
LINE
  5
316
330
1F
100
AcDbEntity
  8
0
  6
Continuous
 62
     7
370
     0
100
AcDbLine
 10
260.3822601207
 20
160.9473940881
 30
0.0
 11
262.092129041
 21
161.812677416
 31
0.0
  0
SPLINE
  5
317
330
1F
100
AcDbEntity
  8
0
  6
Continuous
 62
     7
370
     0
100
AcDbSpline
210
0.0
220
0.0
230
1.0
 70
     8
 71
     3
 72
     9
 73
     5
 74
     0
 42
0.000000001
 43
0.00000001
 40
0.0
 40
0.0
 40
0.0
 40
0.0
 40
0.4797820508424076
 40
1.0
 40
1.0
 40
1.0
 40
1.0
 10
262.108273480024
 20
161.8200714982866
 30
0.0
 10
262.1048979385194
 20
161.8190839420514
 30
0.0
 10
262.0978623658073
 20
161.8170255986151
 30
0.0
 10
262.0940909823637
 20
161.8141653622791
 30
0.0
 10
262.0921290410032
 20
161.8126774159983
 30
0.0
  0
LINE
  5
318
330
1F
100
AcDbEntity
  8
0
  6
Continuous
 62
     7
370
     0
100
AcDbLine
 10
258.9600027117
 20
162.2072882416
 30
0.0
 11
262.092129041
 21
161.812677416
 31
0.0
  0
LINE
  5
319
330
1F
100
AcDbEntity
  8
0
  6
Continuous
 62
     7
370
     0
100
AcDbLine
 10
258.9693568552
 20
162.2155378207
 30
0.0
 11
258.9600027117
 21
162.2072882416
 31
0.0
  0
LINE
  5
31A
330
1F
100
AcDbEntity
  8
0
  6
Continuous
 62
     7
370
     0
100
AcDbLine
 10
267.9827768724
 20
163.5649638058
 30
0.0
 11
267.9734227289
 21
163.5661423171
 31
0.0
  0
LINE
  5
31B
330
1F
100
AcDbEntity
  8
0
  6
Continuous
 62
     7
370
     0
100
AcDbLine
 10
265.5079031388
 20
161.3823303306
 30
0.0
 11
267.9827768724
 21
163.5649638058
 31
0.0
  0
LINE
  5
31C
330
1F
100
AcDbEntity
  8
0
  6
Continuous
 62
     7
370
     0
100
AcDbLine
 10
262.3621832334
 20
161.7786537858
 30
0.0
 11
265.5079031388
 21
161.3823303306
 31
0.0
  0
LINE
  5
31D
330
1F
100
AcDbEntity
  8
0
  6
Continuous
 62
     7
370
     0
100
AcDbLine
 10
265.5079031388
 20
161.3823303306
 30
0.0
 11
265.5079031388
 21
158.5539032058
 31
0.0
  0
LINE
  5
31E
330
1F
100
AcDbEntity
  8
0
  6
Continuous
 62
     7
370
     0
100
AcDbLine
 10
262.360859903
 20
158.950393385
 30
0.0
 11
265.5079031388
 21
158.5539032058
 31
0.0
  0
LINE
  5
31F
330
1F
100
AcDbEntity
  8
0
  6
Continuous
 62
     7
370
     0
100
AcDbLine
 10
260.4583816056
 20
160.3925266279
 30
0.0
 11
262.360859903
 21
158.950393385
 31
0.0
  0
LINE
  5
320
330
1F
100
AcDbEntity
  8
0
  6
Continuous
 62
     7
370
     0
100
AcDbLine
 10
267.9827768724
 20
163.5649638058
 30
0.0
 11
267.9827768724
 21
160.736536681
 31
0.0
  0
LINE
  5
321
330
1F
100
AcDbEntity
  8
0
  6
Continuous
 62
     7
370
     0
100
AcDbLine
 10
265.5079031388
 20
158.5539032058
 30
0.0
 11
267.9827768724
 21
160.736536681
 31
0.0
  0
LWPOLYLINE
  5
322
330
1F
100
AcDbEntity
  8
0
  6
Continuous
 62
     7
370
     0
100
AcDbPolyline
 90
       28
 70
   128
 43
0.0
 10
260.4241541394
 20
165.5531858952
 10
260.4617557703
 20
165.6610809518
 10
260.4729285463
 20
165.7779762059
 10
260.4570856591
 20
165.8977321702
 10
260.4150591972
 20
166.014059109
 10
260.3490564439
 20
166.1208473835
 10
260.2625439477
 20
166.2124883377
 10
260.160065455
 20
166.284168872
 10
260.0470032666
 20
166.3321242337
 10
259.9292955526
 20
166.353835746
 10
259.8131244717
 20
166.3481630928
 10
259.704591477
 20
166.315404209
 10
259.6093968593
 20
166.2572796329
 10
259.5325403613
 20
166.1768421411
 10
259.4780585838
 20
166.0783164131
 10
259.4488129792
 20
165.9668771454
 10
259.4463395639
 20
165.8483772702
 10
259.4707682446
 20
165.7290405517
 10
259.5208159962
 20
165.6151347061
 10
259.5938542469
 20
165.5126422133
 10
259.6860469349
 20
165.4269461096
 10
259.792551983
 20
165.3625472632
 10
259.9077756105
 20
165.3228279835
 10
260.025666126
 20
165.3098743777
 10
260.1400317695
 20
165.3243667855
 10
260.244865912
 20
165.3655440474
 10
260.3346625309
 20
165.431243481
 10
260.4047053936
 20
165.5180144686
  0
ARC
  5
323
330
1F
100
AcDbEntity
  8
0
  6
Continuous
 62
     7
370
     0
100
AcDbCircle
 10
259.9441282735
 20
165.8102116823
 30
0.0
 40
0.5609810844505352
100
AcDbArc
 50
340.6541073553
 51
124.6949184848
  0
LINE
  5
324
330
1F
100
AcDbEntity
  8
0
  6
Continuous
 62
     7
370
     0
100
AcDbLine
 10
260.352395745
 20
165.4464472596
 30
0.0
 11
260.4074679492
 21
165.5050811308
 31
0.0
  0
SPLINE
  5
325
330
1F
100
AcDbEntity
  8
0
  6
Continuous
 62
     7
370
     0
100
AcDbSpline
210
0.0
220
0.0
230
1.0
 70
     8
 71
     3
 72
    23
 73
    19
 74
     0
 42
0.000000001
 43
0.00000001
 40
0.0000000000000578
 40
0.0000000000000578
 40
0.0000000000000578
 40
0.0000000000000578
 40
0.0000136991387907
 40
0.0000136991387907
 40
0.0000136991387907
 40
0.0000216340655809
 40
0.0000216340655809
 40
0.0000216340655809
 40
0.0000296647623608
 40
0.0000296647623608
 40
0.0000296647623608
 40
0.0000367560773714
 40
0.0000367560773714
 40
0.0000367560773714
 40
0.0000484502326729
 40
0.0000484502326729
 40
0.0000484502326729
 40
0.0000524173646957
 40
0.0000524173646957
 40
0.0000524173646957
 40
0.0000524173646957
 10
264.0018583817214
 20
157.5466447745399
 30
0.0
 10
264.005519463027
 20
157.546634767659
 30
0.0
 10
264.0092324818144
 20
157.5470992173697
 30
0.0
 10
264.0126467274299
 20
157.5484810360641
 30
0.0
 10
264.0146335451064
 20
157.5492851439453
 30
0.0
 10
264.0165476420376
 20
157.5504304973979
 30
0.0
 10
264.0181998482303
 20
157.5519593136417
 30
0.0
 10
264.0198642768397
 20
157.5534994395084
 30
0.0
 10
264.0212935822779
 20
157.5554851655147
 30
0.0
 10
264.0223303705432
 20
157.5577202281001
 30
0.0
 10
264.0232518046834
 20
157.5597066153312
 30
0.0
 10
264.0238954266218
 20
157.5619256850008
 30
0.0
 10
264.0242910560752
 20
157.5641996617899
 30
0.0
 10
264.0249404070581
 20
157.5679319649604
 30
0.0
 10
264.02496444929
 20
157.5718998783965
 30
0.0
 10
264.0246526569963
 20
157.5757847100691
 30
0.0
 10
264.0245459281112
 20
157.5771145176417
 30
0.0
 10
264.024398856894
 20
157.5784436640408
 30
0.0
 10
264.0242192143299
 20
157.5797679345592
 30
0.0
  0
SPLINE
  5
326
330
1F
100
AcDbEntity
  8
0
  6
Continuous
 62
     7
370
     0
100
AcDbSpline
210
0.0
220
0.0
230
1.0
 70
     8
 71
     3
 72
     9
 73
     5
 74
     0
 42
0.000000001
 43
0.00000001
 40
0.0
 40
0.0
 40
0.0
 40
0.0
 40
0.7513368871490406
 40
0.9999999999999999
 40
0.9999999999999999
 40
0.9999999999999999
 40
0.9999999999999999
 10
262.3757768094814
 20
158.9390859409921
 30
0.0
 10
262.3778612526506
 20
158.9413539530022
 30
0.0
 10
262.3806355649528
 20
158.9443725882494
 30
0.0
 10
262.3789142984863
 20
158.9474159083747
 30
0.0
 10
262.3784862830086
 20
158.9481726698304
 30
0.0
  0
LINE
  5
327
330
1F
100
AcDbEntity
  8
0
  6
Continuous
 62
     7
370
     0
100
AcDbLine
 10
262.3757768095
 20
158.939085941
 30
0.0
 11
264.0835653885
 21
157.6445331016
 31
0.0
  0
SPLINE
  5
328
330
1F
100
AcDbEntity
  8
0
  6
Continuous
 62
     7
370
     0
100
AcDbSpline
210
0.0
220
0.0
230
1.0
 70
     8
 71
     3
 72
    10
 73
     6
 74
     0
 42
0.000000001
 43
0.00000001
 40
0.0
 40
0.0
 40
0.0
 40
0.0
 40
0.3844784806809585
 40
0.7670225162113476
 40
0.9999999999999999
 40
0.9999999999999999
 40
0.9999999999999999
 40
0.9999999999999999
 10
262.3608599029556
 20
158.9503933849786
 30
0.0
 10
262.3625374856896
 20
158.9526447496732
 30
0.0
 10
262.3658842106547
 20
158.9571361516624
 30
0.0
 10
262.3634128115637
 20
158.9633232255811
 30
0.0
 10
262.3580281816924
 20
158.9665705416016
 30
0.0
 10
262.3559900766396
 20
158.9677996643727
 30
0.0
  0
SPLINE
  5
329
330
1F
100
AcDbEntity
  8
0
  6
Continuous
 62
     7
370
     0
100
AcDbSpline
210
0.0
220
0.0
230
1.0
 70
     8
 71
     3
 72
     8
 73
     4
 74
     0
 42
0.000000001
 43
0.00000001
 40
0.0
 40
0.0
 40
0.0
 40
0.0
 40
0.0000327613862941
 40
0.0000327613862941
 40
0.0000327613862941
 40
0.0000327613862941
 10
260.3823355967533
 20
160.2797483100381
 30
0.0
 10
260.378537358253
 20
160.2764104921329
 30
0.0
 10
260.3757436818512
 20
160.2741469116706
 30
0.0
 10
260.3741835025918
 20
160.2732211020787
 30
0.0
  0
SPLINE
  5
32A
330
1F
100
AcDbEntity
  8
0
  6
Continuous
 62
     7
370
     0
100
AcDbSpline
210
0.0
220
0.0
230
1.0
 70
     8
 71
     3
 72
    10
 73
     6
 74
     0
 42
0.000000001
 43
0.00000001
 40
0.0
 40
0.0
 40
0.0
 40
0.0
 40
0.3349379954803398
 40
0.7765805985788167
 40
0.9999999999999999
 40
0.9999999999999999
 40
0.9999999999999999
 40
0.9999999999999999
 10
260.3738440579138
 20
160.2740199600337
 30
0.0
 10
260.3734260587974
 20
160.2740433230475
 30
0.0
 10
260.3724568943301
 20
160.2740974920683
 30
0.0
 10
260.3768363981627
 20
160.2808675358127
 30
0.0
 10
260.3813568595914
 20
160.2876570285277
 30
0.0
 10
260.3828754530153
 20
160.2899378751074
 30
0.0
  0
SPLINE
  5
32B
330
1F
100
AcDbEntity
  8
0
  6
Continuous
 62
     7
370
     0
100
AcDbSpline
210
0.0
220
0.0
230
1.0
 70
     8
 71
     3
 72
    23
 73
    19
 74
     0
 42
0.000000001
 43
0.00000001
 40
0.0
 40
0.0
 40
0.0
 40
0.0
 40
0.0000136991388042
 40
0.0000136991388042
 40
0.0000136991388042
 40
0.00002163406561
 40
0.00002163406561
 40
0.00002163406561
 40
0.0000296647624064
 40
0.0000296647624064
 40
0.0000296647624064
 40
0.000036756077424
 40
0.000036756077424
 40
0.000036756077424
 40
0.0000484502327163
 40
0.0000484502327163
 40
0.0000484502327163
 40
0.0000524173647346
 40
0.0000524173647346
 40
0.0000524173647346
 40
0.0000524173647346
 10
260.4052362856261
 20
160.3230610351421
 30
0.0
 10
260.4007863504077
 20
160.3223753382764
 30
0.0
 10
260.3963502457145
 20
160.3212731866724
 30
0.0
 10
260.3924110178429
 20
160.3194283771571
 30
0.0
 10
260.3901187025118
 20
160.3183548456752
 30
0.0
 10
260.3879643853978
 20
160.316997637941
 30
0.0
 10
260.3861817085247
 20
160.3153537573783
 30
0.0
 10
260.3843858440607
 20
160.3136977159889
 30
0.0
 10
260.3829379127
 20
160.3116955634675
 30
0.0
 10
260.3820004007029
 20
160.3095480543233
 30
0.0
 10
260.3811671972526
 20
160.3076394792499
 30
0.0
 10
260.3807033247083
 20
160.3055789336479
 30
0.0
 10
260.3805483417776
 20
160.3035171871448
 30
0.0
 10
260.3802939665854
 20
160.3001332198879
 30
0.0
 10
260.380832720626
 20
160.2966616461193
 30
0.0
 10
260.3817722487116
 20
160.2933304253868
 30
0.0
 10
260.3820938563579
 20
160.2921901230637
 30
0.0
 10
260.3824649005566
 20
160.2910585022622
 30
0.0
 10
260.3828754529782
 20
160.2899378750908
 30
0.0
  0
SPLINE
  5
32C
330
1F
100
AcDbEntity
  8
0
  6
Continuous
 62
     7
370
     0
100
AcDbSpline
210
0.0
220
0.0
230
1.0
 70
     8
 71
     3
 72
    17
 73
    13
 74
     0
 42
0.000000001
 43
0.00000001
 40
0.0000000000000024
 40
0.0000000000000024
 40
0.0000000000000024
 40
0.0000000000000024
 40
0.0000249091250946
 40
0.0000249091250946
 40
0.0000249091250946
 40
0.0000496470944607
 40
0.0000496470944607
 40
0.0000496470944607
 40
0.0000776809554077
 40
0.0000776809554077
 40
0.0000776809554077
 40
0.0001063965837808
 40
0.0001063965837808
 40
0.0001063965837808
 40
0.0001063965837808
 10
260.4052362856248
 20
160.32306103514
 30
0.0
 10
260.4098610072604
 20
160.3298769170361
 30
0.0
 10
260.4146741975158
 20
160.3369270391414
 30
0.0
 10
260.4193087302368
 20
160.3435757654222
 30
0.0
 10
260.4239240347229
 20
160.3501969067709
 30
0.0
 10
260.4284844828933
 20
160.3565923788798
 30
0.0
 10
260.4327761318522
 20
160.3623722229739
 30
0.0
 10
260.4376358612976
 20
160.3689171381808
 30
0.0
 10
260.4422678370437
 20
160.3748276377467
 30
0.0
 10
260.4464762808996
 20
160.3797784186693
 30
0.0
 10
260.4507895142152
 20
160.3848524731048
 30
0.0
 10
260.4547513970446
 20
160.3890290393656
 30
0.0
 10
260.4581789176731
 20
160.3920952203763
 30
0.0
  0
ARC
  5
32D
330
1F
100
AcDbEntity
  8
0
  6
Continuous
 62
     7
370
     0
100
AcDbCircle
 10
258.4637291496
 20
147.1426186293
 30
0.0
 40
2.223485538541242
100
AcDbArc
 50
69.9878006392
 51
93.6824845879
  0
LWPOLYLINE
  5
32E
330
1F
100
AcDbEntity
  8
0
  6
Continuous
 62
     7
370
     0
100
AcDbPolyline
 90
        3
 70
   128
 43
0.0
 10
259.2491110706
 20
149.2133687799
 10
259.2478139748
 20
149.2169874545
 10
259.2246508465
 20
149.2318496149
  0
SPLINE
  5
32F
330
1F
100
AcDbEntity
  8
0
  6
Continuous
 62
     7
370
     0
100
AcDbSpline
210
0.0
220
0.0
230
1.0
 70
     8
 71
     3
 72
    15
 73
    11
 74
     0
 42
0.000000001
 43
0.00000001
 40
0.0
 40
0.0
 40
0.0
 40
0.0
 40
0.1273462128097176
 40
0.2546715105769982
 40
0.3827027404034137
 40
0.5119218638124119
 40
0.6421708825064211
 40
0.7727497639831827
 40
0.9027638961937524
 40
1.0
 40
1.0
 40
1.0
 40
1.0
 10
260.386256093006
 20
154.8978951023786
 30
0.0
 10
260.3752764814144
 20
154.9468323369649
 30
0.0
 10
260.3533190614967
 20
155.0446987688012
 30
0.0
 10
260.2625063153925
 20
155.1756951769944
 30
0.0
 10
260.1402325988175
 20
155.2765614902006
 30
0.0
 10
259.9951650750103
 20
155.3360386228658
 30
0.0
 10
259.8440008366778
 20
155.3470343090877
 30
0.0
 10
259.7059115494862
 20
155.306373164425
 30
0.0
 10
259.5997495074382
 20
155.2295614236319
 30
0.0
 10
259.5639215311897
 20
155.1555249163799
 30
0.0
 10
259.5485914137002
 20
155.1238460867743
 30
0.0
  0
SPLINE
  5
330
330
1F
100
AcDbEntity
  8
0
  6
Continuous
 62
     7
370
     0
100
AcDbSpline
210
0.0
220
0.0
230
1.0
 70
     8
 71
     3
 72
     9
 73
     5
 74
     0
 42
0.000000001
 43
0.00000001
 40
0.0
 40
0.0
 40
0.0
 40
0.0
 40
0.6001122126034348
 40
0.9999999999999999
 40
0.9999999999999999
 40
0.9999999999999999
 40
0.9999999999999999
 10
260.3541359992055
 20
154.6806417609547
 30
0.0
 10
260.369242648349
 20
154.721920201971
 30
0.0
 10
260.3944156890341
 20
154.7907047395114
 30
0.0
 10
260.3885869389717
 20
154.8672754216991
 30
0.0
 10
260.386256093006
 20
154.8978951023786
 30
0.0
  0
LINE
  5
331
330
1F
100
AcDbEntity
  8
0
  6
Continuous
 62
     7
370
     0
100
AcDbLine
 10
258.9600027117
 20
159.3694330264
 30
0.0
 11
262.083709497
 21
158.9758829636
 31
0.0
  0
LINE
  5
332
330
1F
100
AcDbEntity
  8
0
  6
Continuous
 62
     7
370
     0
100
AcDbLine
 10
258.9693568552
 20
159.3776826055
 30
0.0
 11
258.9600027117
 21
159.3694330264
 31
0.0
  0
LINE
  5
333
330
1F
100
AcDbEntity
  8
0
  6
Continuous
 62
     7
370
     0
100
AcDbLine
 10
267.9827768724
 20
160.7271085905
 30
0.0
 11
267.9734227289
 21
160.7282871018
 31
0.0
  0
LINE
  5
334
330
1F
100
AcDbEntity
  8
0
  6
Continuous
 62
     7
370
     0
100
AcDbLine
 10
265.5079031388
 20
158.5444751154
 30
0.0
 11
267.9827768724
 21
160.7271085905
 31
0.0
  0
LINE
  5
335
330
1F
100
AcDbEntity
  8
0
  6
Continuous
 62
     7
370
     0
100
AcDbLine
 10
262.3757768095
 20
158.939085941
 30
0.0
 11
265.5079031388
 21
158.5444751154
 31
0.0
  0
LINE
  5
336
330
1F
100
AcDbEntity
  8
0
  6
Continuous
 62
     7
370
     0
100
AcDbLine
 10
265.5079031388
 20
158.5444751154
 30
0.0
 11
265.5079031388
 21
155.7160479905
 31
0.0
  0
LINE
  5
337
330
1F
100
AcDbEntity
  8
0
  6
Continuous
 62
     7
370
     0
100
AcDbLine
 10
267.9827768724
 20
160.7271085905
 30
0.0
 11
267.9827768724
 21
157.8986814657
 31
0.0
  0
LINE
  5
338
330
1F
100
AcDbEntity
  8
0
  6
Continuous
 62
     7
370
     0
100
AcDbLine
 10
265.5079031388
 20
155.7160479905
 30
0.0
 11
267.9827768724
 21
157.8986814657
 31
0.0
  0
LINE
  5
339
330
1F
100
AcDbEntity
  8
0
  6
Continuous
 62
     7
370
     0
100
AcDbLine
 10
262.3771001468
 20
156.1104920913
 30
0.0
 11
265.5079031388
 21
155.7160479905
 31
0.0
  0
LINE
  5
33A
330
1F
100
AcDbEntity
  8
0
  6
Continuous
 62
     7
370
     0
100
AcDbLine
 10
258.9600027117
 20
162.2072882416
 30
0.0
 11
258.9600027117
 21
159.3788611168
 31
0.0
  0
LINE
  5
33B
330
1F
100
AcDbEntity
  8
0
  6
Continuous
 62
     7
370
     0
100
AcDbLine
 10
258.9600027117
 20
159.3788611168
 30
0.0
 11
262.0687925757
 21
158.9871904094
 31
0.0
  0
LWPOLYLINE
  5
33C
330
1F
100
AcDbEntity
  8
0
  6
Continuous
 62
     7
370
     0
100
AcDbPolyline
 90
       23
 70
   128
 43
0.0
 10
264.0242192143
 20
156.9933164682
 10
264.102083374
 20
156.8933914258
 10
264.1983467812
 20
156.8115062458
 10
264.3078972081
 20
156.7520095766
 10
264.4249167975
 20
156.7180610873
 10
264.54319103
 20
156.711463669
 10
264.6564387564
 20
156.7325676883
 10
264.7586457682
 20
156.7802523814
 10
264.8443841927
 20
156.8519853735
 10
264.9091007485
 20
156.9439571651
 10
264.9493585556
 20
157.0512834416
 10
264.9630196565
 20
157.1682644632
 10
264.9493585557
 20
157.2886877587
 10
264.9091007485
 20
157.4061580492
 10
264.8443841927
 20
157.5144368801
 10
264.7586457683
 20
157.6077739244
 10
264.6564387564
 20
157.6812123637
 10
264.5431910301
 20
157.7308521279
 10
264.4249167976
 20
157.7540570148
 10
264.3078972082
 20
157.7495946905
 10
264.1983467813
 20
157.7177021342
 10
264.102083374
 20
157.6600730529
 10
264.0242192143
 20
157.5797679346
  0
SPLINE
  5
33D
330
1F
100
AcDbEntity
  8
0
  6
Continuous
 62
     7
370
     0
100
AcDbSpline
210
0.0
220
0.0
230
1.0
 70
     8
 71
     3
 72
    23
 73
    19
 74
     0
 42
0.000000001
 43
0.00000001
 40
0.0
 40
0.0
 40
0.0
 40
0.0
 40
0.0000136991387911
 40
0.0000136991387911
 40
0.0000136991387911
 40
0.0000216340655816
 40
0.0000216340655816
 40
0.0000216340655816
 40
0.0000296647623619
 40
0.0000296647623619
 40
0.0000296647623619
 40
0.0000367560773728
 40
0.0000367560773728
 40
0.0000367560773728
 40
0.000048450232674
 40
0.000048450232674
 40
0.000048450232674
 40
0.0000524173646982
 40
0.0000524173646982
 40
0.0000524173646982
 40
0.0000524173646982
 10
264.0242192142839
 20
156.9933164681757
 30
0.0
 10
264.0248329244978
 20
156.9968908234118
 30
0.0
 10
264.0250878257232
 20
157.0007558611458
 30
0.0
 10
264.0245719819301
 20
157.0047965422555
 30
0.0
 10
264.0242718021299
 20
157.0071478952505
 30
0.0
 10
264.0236911651157
 20
157.0096021853335
 30
0.0
 10
264.0227638348522
 20
157.0119966063961
 30
0.0
 10
264.0218296445389
 20
157.0144087405091
 30
0.0
 10
264.020504151466
 20
157.0168189244687
 30
0.0
 10
264.0189155363844
 20
157.0189732332038
 30
0.0
 10
264.0175036722454
 20
157.0208878513407
 30
0.0
 10
264.0158612868569
 20
157.0226500629055
 30
0.0
 10
264.0141343616211
 20
157.0241979251045
 30
0.0
 10
264.0112999401954
 20
157.0267384483941
 30
0.0
 10
264.0081760245404
 20
157.0287880113227
 30
0.0
 10
264.0050653987825
 20
157.0304656012352
 30
0.0
 10
264.0040006078112
 20
157.0310398530839
 30
0.0
 10
264.0029300373562
 20
157.0315741904735
 30
0.0
 10
264.0018583816921
 20
157.0320740284055
 30
0.0
  0
ARC
  5
33E
330
1F
100
AcDbEntity
  8
0
  6
Continuous
 62
     7
370
     0
100
AcDbCircle
 10
264.4556319782
 20
157.2893594014
 30
0.0
 40
0.521638035523351
100
AcDbArc
 50
150.4471700164
 51
209.5528299834
  0
LINE
  5
33F
330
1F
100
AcDbEntity
  8
0
  6
Continuous
 62
     7
370
     0
100
AcDbLine
 10
258.9600027117
 20
159.3694330264
 30
0.0
 11
258.9600027117
 21
156.5410059015
 31
0.0
  0
LINE
  5
340
330
1F
100
AcDbEntity
  8
0
  6
Continuous
 62
     7
370
     0
100
AcDbLine
 10
262.1070459475
 20
156.1445157224
 30
0.0
 11
263.975081171
 21
157.0898394928
 31
0.0
  0
LINE
  5
341
330
1F
100
AcDbEntity
  8
0
  6
Continuous
 62
     7
370
     0
100
AcDbLine
 10
258.9600027117
 20
156.5410059015
 30
0.0
 11
262.1070459475
 21
156.1445157224
 31
0.0
  0
ARC
  5
342
330
1F
100
AcDbEntity
  8
0
  6
Continuous
 62
     7
370
     0
100
AcDbCircle
 10
264.4405842677
 20
157.2260647312
 30
0.0
 40
0.5523299735902267
100
AcDbArc
 50
316.6742370549
 51
126.145007165
  0
LINE
  5
343
330
1F
100
AcDbEntity
  8
0
  6
Continuous
 62
     7
370
     0
100
AcDbLine
 10
262.092129041
 20
156.1369669855
 30
0.0
 11
260.3822601207
 21
155.2716836576
 31
0.0
  0
SPLINE
  5
344
330
1F
100
AcDbEntity
  8
0
  6
Continuous
 62
     7
370
     0
100
AcDbSpline
210
0.0
220
0.0
230
1.0
 70
     8
 71
     3
 72
     9
 73
     5
 74
     0
 42
0.000000001
 43
0.00000001
 40
0.0
 40
0.0
 40
0.0
 40
0.0
 40
0.751336887150246
 40
1.0
 40
1.0
 40
1.0
 40
1.0
 10
262.0921290410032
 20
156.1369669855055
 30
0.0
 10
262.0950661554383
 20
156.1391275710337
 30
0.0
 10
262.0989753398339
 20
156.1420032258368
 30
0.0
 10
262.1063051908428
 20
156.143906212347
 30
0.0
 10
262.1081278544114
 20
156.1443794148964
 30
0.0
  0
SPLINE
  5
345
330
1F
100
AcDbEntity
  8
0
  6
Continuous
 62
     7
370
     0
100
AcDbSpline
210
0.0
220
0.0
230
1.0
 70
     8
 71
     3
 72
    11
 73
     7
 74
     0
 42
0.000000001
 43
0.00000001
 40
0.0
 40
0.0
 40
0.0
 40
0.0
 40
0.2223854362560823
 40
0.5888270663292249
 40
0.861871509564678
 40
1.0
 40
1.0
 40
1.0
 40
1.0
 10
260.4533599059132
 20
155.1383035881564
 30
0.0
 10
260.4505695710822
 20
155.1368382282832
 30
0.0
 10
260.4431813864045
 20
155.1329582819623
 30
0.0
 10
260.4288659357082
 20
155.1385794003848
 30
0.0
 10
260.4150119092021
 20
155.1499842711283
 30
0.0
 10
260.4076944844425
 20
155.1589196276478
 30
0.0
 10
260.4052362855846
 20
155.161921350783
 30
0.0
  0
SPLINE
  5
346
330
1F
100
AcDbEntity
  8
0
  6
Continuous
 62
     7
370
     0
100
AcDbSpline
210
0.0
220
0.0
230
1.0
 70
     8
 71
     3
 72
    23
 73
    19
 74
     0
 42
0.000000001
 43
0.00000001
 40
0.0000000000000022
 40
0.0000000000000022
 40
0.0000000000000022
 40
0.0000000000000022
 40
0.0000136991388042
 40
0.0000136991388042
 40
0.0000136991388042
 40
0.0000216340656101
 40
0.0000216340656101
 40
0.0000216340656101
 40
0.0000296647624066
 40
0.0000296647624066
 40
0.0000296647624066
 40
0.0000367560774241
 40
0.0000367560774241
 40
0.0000367560774241
 40
0.0000484502327164
 40
0.0000484502327164
 40
0.0000484502327164
 40
0.0000524173647619
 40
0.0000524173647619
 40
0.0000524173647619
 40
0.0000524173647619
 10
260.382875452988
 20
155.2006789110184
 30
0.0
 10
260.3814728888584
 20
155.1964088520279
 30
0.0
 10
260.3804949017646
 20
155.1919061124377
 30
0.0
 10
260.3804857633023
 20
155.1874024404995
 30
0.0
 10
260.3804804454487
 20
155.1847816638989
 30
0.0
 10
260.3808208622813
 20
155.182115519529
 30
0.0
 10
260.3816177218667
 20
155.1796060341425
 30
0.0
 10
260.3824204763278
 20
155.1770779845016
 30
0.0
 10
260.3837273434818
 20
155.1746513740224
 30
0.0
 10
260.3854152348355
 20
155.1725846187255
 30
0.0
 10
260.3869153296653
 20
155.1707478127435
 30
0.0
 10
260.3887374644494
 20
155.1691441252439
 30
0.0
 10
260.3907050362092
 20
155.1678084933291
 30
0.0
 10
260.393934433422
 20
155.1656163059481
 30
0.0
 10
260.397621145347
 20
155.164063082681
 30
0.0
 10
260.4013595068949
 20
155.1629391037028
 30
0.0
 10
260.4026391766326
 20
155.1625543571057
 30
0.0
 10
260.4039337200742
 20
155.1622175453163
 30
0.0
 10
260.4052362856007
 20
155.1619213507343
 30
0.0
  0
SPLINE
  5
347
330
1F
100
AcDbEntity
  8
0
  6
Continuous
 62
     7
370
     0
100
AcDbSpline
210
0.0
220
0.0
230
1.0
 70
     8
 71
     3
 72
    17
 73
    13
 74
     0
 42
0.000000001
 43
0.00000001
 40
0.0
 40
0.0
 40
0.0
 40
0.0
 40
0.0000249091250946
 40
0.0000249091250946
 40
0.0000249091250946
 40
0.0000496470944607
 40
0.0000496470944607
 40
0.0000496470944607
 40
0.0000776809554077
 40
0.0000776809554077
 40
0.0000776809554077
 40
0.0001063965837808
 40
0.0001063965837808
 40
0.0001063965837808
 40
0.0001063965837808
 10
260.3828754529893
 20
155.200678911016
 30
0.0
 10
260.3797508353512
 20
155.2081513565274
 30
0.0
 10
260.3772558911372
 20
155.2156480997876
 30
0.0
 10
260.3755607754141
 20
155.2225820836381
 30
0.0
 10
260.3738726925648
 20
155.22948729905
 30
0.0
 10
260.3729243472566
 20
155.2360198372237
 30
0.0
 10
260.3727249631003
 20
155.2418652175269
 30
0.0
 10
260.3724991866994
 20
155.2484843438933
 30
0.0
 10
260.3732247972046
 20
155.2543822969493
 30
0.0
 10
260.3748110298425
 20
155.259313942741
 30
0.0
 10
260.3764367593747
 20
155.2643683855843
 30
0.0
 10
260.3789979362928
 20
155.2685189081573
 30
0.0
 10
260.3823355967534
 20
155.2715837218488
 30
0.0
  0
ARC
  5
348
330
1F
100
AcDbEntity
  8
0
  6
Continuous
 62
     7
370
     0
100
AcDbCircle
 10
259.9514626891
 20
160.5803464082
 30
0.0
 40
0.5216380355171367
100
AcDbArc
 50
330.4471700165
 51
29.5528299881
  0
LWPOLYLINE
  5
349
330
1F
100
AcDbEntity
  8
0
  6
Continuous
 62
     7
370
     0
100
AcDbPolyline
 90
       23
 70
   128
 43
0.0
 10
260.382875453
 20
160.8763893415
 10
260.3050112933
 20
160.9763143839
 10
260.208747886
 20
161.0581995638
 10
260.0991974591
 20
161.1176962331
 10
259.9821778698
 20
161.1516447223
 10
259.8639036372
 20
161.1582421406
 10
259.7506559109
 20
161.1371381213
 10
259.6484488991
 20
161.0894534282
 10
259.5627104746
 20
161.0177204361
 10
259.4979939188
 20
160.9257486445
 10
259.4577361117
 20
160.8184223679
 10
259.4440750108
 20
160.7014413463
 10
259.4577361117
 20
160.5810180509
 10
259.4979939188
 20
160.4635477604
 10
259.5627104747
 20
160.3552689295
 10
259.6484488991
 20
160.2619318852
 10
259.750655911
 20
160.1884934459
 10
259.8639036373
 20
160.1388536817
 10
259.9821778698
 20
160.1156487948
 10
260.0991974592
 20
160.1201111191
 10
260.2087478861
 20
160.1520036755
 10
260.3050112933
 20
160.2096327568
 10
260.382875453
 20
160.2899378751
  0
LINE
  5
34A
330
1F
100
AcDbEntity
  8
0
  6
Continuous
 62
     7
370
     0
100
AcDbLine
 10
258.9693568552
 20
156.5398273902
 30
0.0
 11
258.9600027117
 21
156.5315778111
 31
0.0
  0
LINE
  5
34B
330
1F
100
AcDbEntity
  8
0
  6
Continuous
 62
     7
370
     0
100
AcDbLine
 10
267.9827768724
 20
157.8892533753
 30
0.0
 11
267.9734227289
 21
157.8904318866
 31
0.0
  0
LINE
  5
34C
330
1F
100
AcDbEntity
  8
0
  6
Continuous
 62
     7
370
     0
100
AcDbLine
 10
265.5079031388
 20
155.7066199001
 30
0.0
 11
267.9827768724
 21
157.8892533753
 31
0.0
  0
LINE
  5
34D
330
1F
100
AcDbEntity
  8
0
  6
Continuous
 62
     7
370
     0
100
AcDbLine
 10
262.3621832235
 20
156.1029433566
 30
0.0
 11
265.5079031388
 21
155.7066199001
 31
0.0
  0
LINE
  5
34E
330
1F
100
AcDbEntity
  8
0
  6
Continuous
 62
     7
370
     0
100
AcDbLine
 10
258.9600027117
 20
156.5315778111
 30
0.0
 11
262.092129041
 21
156.1369669855
 31
0.0
  0
LINE
  5
34F
330
1F
100
AcDbEntity
  8
0
  6
Continuous
 62
     7
370
     0
100
AcDbLine
 10
265.5079031388
 20
155.7066199001
 30
0.0
 11
265.5079031388
 21
152.8781927753
 31
0.0
  0
LINE
  5
350
330
1F
100
AcDbEntity
  8
0
  6
Continuous
 62
     7
370
     0
100
AcDbLine
 10
262.3678596241
 20
153.2738010725
 30
0.0
 11
265.5079031388
 21
152.8781927753
 31
0.0
  0
LINE
  5
351
330
1F
100
AcDbEntity
  8
0
  6
Continuous
 62
     7
370
     0
100
AcDbLine
 10
262.3678596241
 20
153.2738010725
 30
0.0
 11
260.4586636426
 21
154.7174184719
 31
0.0
  0
LINE
  5
352
330
1F
100
AcDbEntity
  8
0
  6
Continuous
 62
     7
370
     0
100
AcDbLine
 10
267.9827768724
 20
157.8892533753
 30
0.0
 11
267.9827768724
 21
155.0608262505
 31
0.0
  0
LINE
  5
353
330
1F
100
AcDbEntity
  8
0
  6
Continuous
 62
     7
370
     0
100
AcDbLine
 10
265.5079031388
 20
152.8781927753
 30
0.0
 11
267.9827768724
 21
155.0608262505
 31
0.0
  0
ARC
  5
354
330
1F
100
AcDbEntity
  8
0
  6
Continuous
 62
     7
370
     0
100
AcDbCircle
 10
259.9444052038
 20
160.6621934788
 30
0.0
 40
0.5225566219809853
100
AcDbArc
 50
33.0648613684
 51
127.7046514657
  0
LINE
  5
355
330
1F
100
AcDbEntity
  8
0
  6
Continuous
 62
     7
370
     0
100
AcDbLine
 10
260.352395745
 20
160.2506266313
 30
0.0
 11
260.3823355968
 21
160.27974831
 31
0.0
  0
ARC
  5
356
330
1F
100
AcDbEntity
  8
0
  6
Continuous
 62
     7
370
     0
100
AcDbCircle
 10
259.9811513845
 20
160.6039658709
 30
0.0
 40
0.5219621058624455
100
AcDbArc
 50
336.0517134305
 51
23.9482865695
  0
LWPOLYLINE
  5
357
330
1F
100
AcDbEntity
  8
0
  6
Continuous
 62
     7
370
     0
100
AcDbPolyline
 90
       26
 70
   128
 43
0.0
 10
259.2246508465
 20
92.6633071183
 10
259.1735322997
 20
92.6795485117
 10
259.0980012232
 20
92.6982497579
 10
259.0028035121
 20
92.718235789
 10
258.8939207889
 20
92.738250809
 10
258.7781945554
 20
92.7570372007
 10
258.6628963166
 20
92.773414546
 10
258.5552706847
 20
92.786353796
 10
258.4620801741
 20
92.7950419301
 10
258.3891802873
 20
92.7989330409
 10
258.3411515923
 20
92.7977826355
 10
258.3210119086
 20
92.7916629981
 10
258.3300266866
 20
92.7809586482
 10
258.3676294947
 20
92.7663421793
 10
258.4314576101
 20
92.7487319979
 10
258.5175004776
 20
92.7292346166
 10
258.6203517074
 20
92.7090751275
 10
258.7335487785
 20
92.6895202254
 10
258.8499791025
 20
92.6717986167
 10
258.9623269341
 20
92.6570238153
 10
259.0635330457
 20
92.6461241764
 10
259.1472382852
 20
92.6397845642
 10
259.2081831445
 20
92.63840332
 10
259.2425382341
 20
92.6420672324
 10
259.2481448971
 20
92.6505460844
 10
259.2246508465
 20
92.6633071183
  0
SPLINE
  5
358
330
1F
100
AcDbEntity
  8
0
  6
Continuous
 62
     7
370
     0
100
AcDbSpline
210
0.0
220
0.0
230
1.0
 70
     8
 71
     3
 72
     8
 73
     4
 74
     0
 42
0.000000001
 43
0.00000001
 40
0.0
 40
0.0
 40
0.0
 40
0.0
 40
1.0
 40
1.0
 40
1.0
 40
1.0
 10
262.3712104153047
 20
153.2784923571724
 30
0.0
 10
262.3706837511564
 20
153.2768817508591
 30
0.0
 10
262.3695785872525
 20
153.2753170554922
 30
0.0
 10
262.3678596241272
 20
153.2738010725113
 30
0.0
  0
SPLINE
  5
359
330
1F
100
AcDbEntity
  8
0
  6
Continuous
 62
     7
370
     0
100
AcDbSpline
210
0.0
220
0.0
230
1.0
 70
     8
 71
     3
 72
     8
 73
     4
 74
     0
 42
0.000000001
 43
0.00000001
 40
0.0
 40
0.0
 40
0.0
 40
0.0
 40
0.0000327613862941
 40
0.0000327613862941
 40
0.0000327613862941
 40
0.0000327613862941
 10
260.3827812808447
 20
154.604516549693
 30
0.0
 10
260.3789829421122
 20
154.6011788292683
 30
0.0
 10
260.3761874999779
 20
154.5989169790756
 30
0.0
 10
260.3746238959445
 20
154.5979944422699
 30
0.0
  0
SPLINE
  5
35A
330
1F
100
AcDbEntity
  8
0
  6
Continuous
 62
     7
370
     0
100
AcDbSpline
210
0.0
220
0.0
230
1.0
 70
     8
 71
     3
 72
    10
 73
     6
 74
     0
 42
0.000000001
 43
0.00000001
 40
0.0
 40
0.0
 40
0.0
 40
0.0
 40
0.3350380518418872
 40
0.7766142112843252
 40
1.0
 40
1.0
 40
1.0
 40
1.0
 10
260.3742773627624
 20
154.5987996089415
 30
0.0
 10
260.3738563176419
 20
154.5988255434805
 30
0.0
 10
260.3728803400707
 20
154.5988856594326
 30
0.0
 10
260.3772442865123
 20
154.6056704669535
 30
0.0
 10
260.3817524586667
 20
154.6124701642838
 30
0.0
 10
260.3832669236598
 20
154.6147544389785
 30
0.0
  0
SPLINE
  5
35B
330
1F
100
AcDbEntity
  8
0
  6
Continuous
 62
     7
370
     0
100
AcDbSpline
210
0.0
220
0.0
230
1.0
 70
     8
 71
     3
 72
    23
 73
    19
 74
     0
 42
0.000000001
 43
0.00000001
 40
0.0
 40
0.0
 40
0.0
 40
0.0
 40
0.0000136991388042
 40
0.0000136991388042
 40
0.0000136991388042
 40
0.00002163406561
 40
0.00002163406561
 40
0.00002163406561
 40
0.0000296647624064
 40
0.0000296647624064
 40
0.0000296647624064
 40
0.000036756077424
 40
0.000036756077424
 40
0.000036756077424
 40
0.0000484502327163
 40
0.0000484502327163
 40
0.0000484502327163
 40
0.0000524173647347
 40
0.0000524173647347
 40
0.0000524173647347
 40
0.0000524173647347
 10
260.4055797066773
 20
154.6479139765647
 30
0.0
 10
260.4011309094291
 20
154.6472226314477
 30
0.0
 10
260.3966965412213
 20
154.6461147307263
 30
0.0
 10
260.3927600916919
 20
154.6442645816162
 30
0.0
 10
260.3904693931336
 20
154.6431879429174
 30
0.0
 10
260.3883170925187
 20
154.6418277209102
 30
0.0
 10
260.3865368262965
 20
154.6401812067162
 30
0.0
 10
260.3847433903165
 20
154.6385225122129
 30
0.0
 10
260.3832983670983
 20
154.6365180422429
 30
0.0
 10
260.3823639505488
 20
154.6343688050807
 30
0.0
 10
260.3815334981433
 20
154.6324586942503
 30
0.0
 10
260.3810725788897
 20
154.6303970268204
 30
0.0
 10
260.3809205396074
 20
154.628334537702
 30
0.0
 10
260.3806709958579
 20
154.6249493515825
 30
0.0
 10
260.3812146772568
 20
154.6214775097494
 30
0.0
 10
260.3821589210622
 20
154.6181465474731
 30
0.0
 10
260.3824821429353
 20
154.6170063336216
 30
0.0
 10
260.3828547875196
 20
154.615874863967
 30
0.0
 10
260.3832669236227
 20
154.6147544389622
 30
0.0
  0
SPLINE
  5
35C
330
1F
100
AcDbEntity
  8
0
  6
Continuous
 62
     7
370
     0
100
AcDbSpline
210
0.0
220
0.0
230
1.0
 70
     8
 71
     3
 72
    17
 73
    13
 74
     0
 42
0.000000001
 43
0.00000001
 40
0.0000000000000024
 40
0.0000000000000024
 40
0.0000000000000024
 40
0.0000000000000024
 40
0.0000249091250946
 40
0.0000249091250946
 40
0.0000249091250946
 40
0.0000496470944607
 40
0.0000496470944607
 40
0.0000496470944607
 40
0.0000776809554077
 40
0.0000776809554077
 40
0.0000776809554077
 40
0.0001063965837808
 40
0.0001063965837808
 40
0.0001063965837808
 40
0.0001063965837808
 10
260.405579706676
 20
154.6479139765626
 30
0.0
 10
260.4101958888824
 20
154.6547358452691
 30
0.0
 10
260.4150009107182
 20
154.6617914424373
 30
0.0
 10
260.4196283008982
 20
154.6684448101426
 30
0.0
 10
260.424236492477
 20
154.6750705736588
 30
0.0
 10
260.42879065016
 20
154.6814699751511
 30
0.0
 10
260.43307713997
 20
154.6872529769078
 30
0.0
 10
260.4379310273562
 20
154.6938014677535
 30
0.0
 10
260.4425584691777
 20
154.6997146450221
 30
0.0
 10
260.4467638624125
 20
154.7046672127868
 30
0.0
 10
260.451073969147
 20
154.7097430985564
 30
0.0
 10
260.455034211866
 20
154.7139206036251
 30
0.0
 10
260.4584616274782
 20
154.7169868451641
 30
0.0
  0
SPLINE
  5
35D
330
1F
100
AcDbEntity
  8
0
  6
Continuous
 62
     7
370
     0
100
AcDbSpline
210
0.0
220
0.0
230
1.0
 70
     8
 71
     3
 72
    23
 73
    19
 74
     0
 42
0.000000001
 43
0.00000001
 40
0.0000000000000027
 40
0.0000000000000027
 40
0.0000000000000027
 40
0.0000000000000027
 40
0.0000136991387907
 40
0.0000136991387907
 40
0.0000136991387907
 40
0.0000216340655808
 40
0.0000216340655808
 40
0.0000216340655808
 40
0.0000296647623606
 40
0.0000296647623606
 40
0.0000296647623606
 40
0.0000367560773712
 40
0.0000367560773712
 40
0.0000367560773712
 40
0.0000484502326727
 40
0.0000484502326727
 40
0.0000484502326727
 40
0.0000524173646955
 40
0.0000524173646955
 40
0.0000524173646955
 40
0.0000524173646955
 10
264.0015149606702
 20
151.8788562535065
 30
0.0
 10
264.0051749040056
 20
151.8788518948768
 30
0.0
 10
264.0088861863077
 20
151.8793220937048
 30
0.0
 10
264.012297653581
 20
151.880709251994
 30
0.0
 10
264.0142828544846
 20
151.881516467092
 30
0.0
 10
264.0161949349167
 20
151.8826648348177
 30
0.0
 10
264.0178447304586
 20
151.8841962846927
 30
0.0
 10
264.0195067305838
 20
151.8857390636733
 30
0.0
 10
264.0209331278796
 20
151.8877271071283
 30
0.0
 10
264.0219668206974
 20
151.8899638977317
 30
0.0
 10
264.0228855037927
 20
151.8919518207196
 30
0.0
 10
264.0235261724405
 20
151.8941720122172
 30
0.0
 10
264.0239188582453
 20
151.8964467316216
 30
0.0
 10
264.0245633777856
 20
151.9001802536548
 30
0.0
 10
264.0245824926591
 20
151.9041484351553
 30
0.0
 10
264.0242659846458
 20
151.9080330083718
 30
0.0
 10
264.0241576415337
 20
151.9093627274729
 30
0.0
 10
264.0240089699308
 20
151.9106917227251
 30
0.0
 10
264.0238277436853
 20
151.9120157910769
 30
0.0
  0
SPLINE
  5
35E
330
1F
100
AcDbEntity
  8
0
  6
Continuous
 62
     7
370
     0
100
AcDbSpline
210
0.0
220
0.0
230
1.0
 70
     8
 71
     3
 72
     8
 73
     4
 74
     0
 42
0.000000001
 43
0.00000001
 40
0.0
 40
0.0
 40
0.0
 40
0.0
 40
1.0
 40
1.0
 40
1.0
 40
1.0
 10
262.372706579538
 20
153.2773610491556
 30
0.0
 10
262.3721799153897
 20
153.2757504428423
 30
0.0
 10
262.3710747514859
 20
153.2741857474755
 30
0.0
 10
262.3693557883605
 20
153.2726697644946
 30
0.0
  0
LINE
  5
35F
330
1F
100
AcDbEntity
  8
0
  6
Continuous
 62
     7
370
     0
100
AcDbLine
 10
262.3693557884
 20
153.2726697645
 30
0.0
 11
264.0830679591
 21
151.9768652838
 31
0.0
  0
LINE
  5
360
330
1F
100
AcDbEntity
  8
0
  6
Continuous
 62
     7
370
     0
100
AcDbLine
 10
258.9600027117
 20
153.7022078773
 30
0.0
 11
258.9609381261
 21
153.7030328352
 31
0.0
  0
LINE
  5
361
330
1F
100
AcDbEntity
  8
0
  6
Continuous
 62
     7
370
     0
100
AcDbLine
 10
267.981841458
 20
155.0600012926
 30
0.0
 11
267.9827768724
 21
155.0598834414
 31
0.0
  0
LINE
  5
362
330
1F
100
AcDbEntity
  8
0
  6
Continuous
 62
     7
370
     0
100
AcDbLine
 10
267.9827768724
 20
155.0598834414
 30
0.0
 11
265.5079031388
 21
152.8772499663
 31
0.0
  0
LINE
  5
363
330
1F
100
AcDbEntity
  8
0
  6
Continuous
 62
     7
370
     0
100
AcDbLine
 10
265.5079031388
 20
152.8772499663
 30
0.0
 11
262.3693557884
 21
153.2726697645
 31
0.0
  0
LINE
  5
364
330
1F
100
AcDbEntity
  8
0
  6
Continuous
 62
     7
370
     0
100
AcDbLine
 10
262.0766729699
 20
153.3095443336
 30
0.0
 11
259.9285696571
 21
153.5801799123
 31
0.0
  0
LINE
  5
365
330
1F
100
AcDbEntity
  8
0
  6
Continuous
 62
     7
370
     0
100
AcDbLine
 10
258.9897999171
 20
153.6984537822
 30
0.0
 11
258.9600027117
 21
153.7022078773
 31
0.0
  0
LINE
  5
366
330
1F
100
AcDbEntity
  8
0
  6
Continuous
 62
     7
370
     0
100
AcDbLine
 10
267.9827768724
 20
152.2314563166
 30
0.0
 11
267.9827768724
 21
155.0598834414
 31
0.0
  0
LINE
  5
367
330
1F
100
AcDbEntity
  8
0
  6
Continuous
 62
     7
370
     0
100
AcDbLine
 10
267.9827768724
 20
152.2314563166
 30
0.0
 11
265.5079031388
 21
150.0488228414
 31
0.0
  0
LINE
  5
368
330
1F
100
AcDbEntity
  8
0
  6
Continuous
 62
     7
370
     0
100
AcDbLine
 10
265.5079031388
 20
150.0488228414
 30
0.0
 11
265.5079031388
 21
152.8772499663
 31
0.0
  0
LINE
  5
369
330
1F
100
AcDbEntity
  8
0
  6
Continuous
 62
     7
370
     0
100
AcDbLine
 10
265.5079031388
 20
150.0488228414
 30
0.0
 11
259.3365756909
 21
150.8263370166
 31
0.0
  0
LINE
  5
36A
330
1F
100
AcDbEntity
  8
0
  6
Continuous
 62
     7
370
     0
100
AcDbLine
 10
258.9600027117
 20
153.6037566417
 30
0.0
 11
258.9600027117
 21
153.7022078773
 31
0.0
  0
LINE
  5
36B
330
1F
100
AcDbEntity
  8
0
  6
Continuous
 62
     7
370
     0
100
AcDbLine
 10
258.9600027117
 20
156.5315778111
 30
0.0
 11
258.9600027117
 21
153.7031506863
 31
0.0
  0
LINE
  5
36C
330
1F
100
AcDbEntity
  8
0
  6
Continuous
 62
     7
370
     0
100
AcDbLine
 10
258.9600027117
 20
153.7031506863
 30
0.0
 11
258.990100857
 21
153.6993586764
 31
0.0
  0
LINE
  5
36D
330
1F
100
AcDbEntity
  8
0
  6
Continuous
 62
     7
370
     0
100
AcDbLine
 10
259.9288738061
 20
153.5810844022
 30
0.0
 11
262.0751768071
 21
153.3106756414
 31
0.0
  0
LWPOLYLINE
  5
36E
330
1F
100
AcDbEntity
  8
0
  6
Continuous
 62
     7
370
     0
100
AcDbPolyline
 90
       28
 70
   128
 43
0.0
 10
264.0015149607
 20
151.8788562535
 10
263.9552755723
 20
151.7753641315
 10
263.934943152
 20
151.6608684512
 10
263.9415855843
 20
151.5413826716
 10
263.9748540002
 20
151.4231823377
 10
264.0330011002
 20
151.3124754815
 10
264.1129729246
 20
151.2150765679
 10
264.2105692515
 20
151.1361011117
 10
264.3206641976
 20
151.0796970044
 10
264.4374754363
 20
151.0488266615
 10
264.5548678926
 20
151.0451114326
 10
264.6666759655
 20
151.0687464463
 10
264.7670273528
 20
151.1184903616
 10
264.8506514718
 20
151.1917305648
 10
264.9131562774
 20
151.2846203873
 10
264.9512589379
 20
151.3922811373
 10
264.9629582528
 20
151.5090583354
 10
264.9476397595
 20
151.6288186944
 10
264.9061080045
 20
151.7452722481
 10
264.8405442885
 20
151.8523027075
 10
264.7543921013
 20
151.9442886969
 10
264.6521762654
 20
152.016398995
 10
264.5392652865
 20
152.0648462771
 10
264.4215893929
 20
152.0870860305
 10
264.3053290722
 20
152.081950195
 10
264.1965904643
 20
152.0497085112
 10
264.1010846594
 20
151.9920543533
 10
264.0238277437
 20
151.9120157911
  0
ARC
  5
36F
330
1F
100
AcDbEntity
  8
0
  6
Continuous
 62
     7
370
     0
100
AcDbCircle
 10
264.4404190946
 20
151.5586939131
 30
0.0
 40
0.552350224542216
100
AcDbArc
 50
316.6969854253
 51
126.1222587946
  0
ARC
  5
370
330
1F
100
AcDbEntity
  8
0
  6
Continuous
 62
     7
370
     0
100
AcDbCircle
 10
259.9513357067
 20
154.9046142867
 30
0.0
 40
0.521759198035327
100
AcDbArc
 50
330.5285370831
 51
29.548024367
  0
LWPOLYLINE
  5
371
330
1F
100
AcDbEntity
  8
0
  6
Continuous
 62
     7
370
     0
100
AcDbPolyline
 90
       13
 70
   128
 43
0.0
 10
260.382875453
 20
155.200678911
 10
260.3049880071
 20
155.3006282657
 10
260.2086928384
 20
155.3825269433
 10
260.0991065612
 20
155.4420232829
 10
259.9820520086
 20
155.4759559647
 10
259.8637488381
 20
155.4825219861
 10
259.7504830523
 20
155.4613724636
 10
259.648272994
 20
155.4136311706
 10
259.562549563
 20
155.341834826
 10
259.4978676476
 20
155.2497983065
 10
259.4576641014
 20
155.1424119441
 10
259.4440751275
 20
155.0253816803
 10
259.4523208523
 20
154.9322246953
  0
LWPOLYLINE
  5
372
330
1F
100
AcDbEntity
  8
0
  6
Continuous
 62
     7
370
     0
100
AcDbPolyline
 90
        3
 70
   128
 43
0.0
 10
260.2890793106
 20
154.5218951286
 10
260.3055000033
 20
154.534310035
 10
260.3832669237
 20
154.614754439
  0
ARC
  5
373
330
1F
100
AcDbEntity
  8
0
  6
Continuous
 62
     7
370
     0
100
AcDbCircle
 10
259.9444078119
 20
154.9864984434
 30
0.0
 40
0.5225460369569341
100
AcDbArc
 50
33.0636027253
 51
127.7059101088
  0
LINE
  5
374
330
1F
100
AcDbEntity
  8
0
  6
Continuous
 62
     7
370
     0
100
AcDbLine
 10
260.352395745
 20
154.5749162008
 30
0.0
 11
260.3827812808
 21
154.6045165497
 31
0.0
  0
ARC
  5
375
330
1F
100
AcDbEntity
  8
0
  6
Continuous
 62
     7
370
     0
100
AcDbCircle
 10
259.9810222587
 20
154.9282375734
 30
0.0
 40
0.5220873691858547
100
AcDbArc
 50
336.1322349612
 51
23.9443264848
  0
LINE
  5
376
330
1F
100
AcDbEntity
  8
0
  6
Continuous
 62
     7
370
     0
100
AcDbLine
 10
267.981841458
 20
152.2306313587
 30
0.0
 11
267.9827768724
 21
152.2305135076
 31
0.0
  0
LINE
  5
377
330
1F
100
AcDbEntity
  8
0
  6
Continuous
 62
     7
370
     0
100
AcDbLine
 10
267.9827768724
 20
152.2305135076
 30
0.0
 11
265.5079031388
 21
150.0478800324
 31
0.0
  0
LINE
  5
378
330
1F
100
AcDbEntity
  8
0
  6
Continuous
 62
     7
370
     0
100
AcDbLine
 10
265.5079031388
 20
150.0478800324
 30
0.0
 11
259.3364804242
 21
150.82540621
 31
0.0
  0
LINE
  5
379
330
1F
100
AcDbEntity
  8
0
  6
Continuous
 62
     7
370
     0
100
AcDbLine
 10
265.5079031388
 20
149.4821946074
 30
0.0
 11
265.5079031388
 21
150.0478800324
 31
0.0
  0
LINE
  5
37A
330
1F
100
AcDbEntity
  8
0
  6
Continuous
 62
     7
370
     0
100
AcDbLine
 10
265.5079031388
 20
149.4821946074
 30
0.0
 11
259.2872974215
 21
150.2659172609
 31
0.0
  0
LINE
  5
37B
330
1F
100
AcDbEntity
  8
0
  6
Continuous
 62
     7
370
     0
100
AcDbLine
 10
267.9827768724
 20
151.6648280826
 30
0.0
 11
267.9827768724
 21
152.2305135076
 31
0.0
  0
LINE
  5
37C
330
1F
100
AcDbEntity
  8
0
  6
Continuous
 62
     7
370
     0
100
AcDbLine
 10
267.9827768724
 20
151.6648280826
 30
0.0
 11
265.5079031388
 21
149.4821946074
 31
0.0
  0
LINE
  5
37D
330
1F
100
AcDbEntity
  8
0
  6
Continuous
 62
     7
370
     0
100
AcDbLine
 10
265.5079031388
 20
166.4848128638
 30
0.0
 11
265.5079031388
 21
166.1076892472
 31
0.0
  0
LINE
  5
37E
330
1F
100
AcDbEntity
  8
0
  6
Continuous
 62
     7
370
     0
100
AcDbLine
 10
265.5079031388
 20
166.4848128638
 30
0.0
 11
267.9827768724
 21
168.667446339
 31
0.0
  0
LINE
  5
37F
330
1F
100
AcDbEntity
  8
0
  6
Continuous
 62
     7
370
     0
100
AcDbLine
 10
267.9827768724
 20
168.667446339
 30
0.0
 11
267.9827768724
 21
168.2903227223
 31
0.0
  0
LINE
  5
380
330
1F
100
AcDbEntity
  8
0
  6
Continuous
 62
     7
370
     0
100
AcDbLine
 10
265.5079031388
 20
166.1076892472
 30
0.0
 11
267.9827768724
 21
168.2903227223
 31
0.0
  0
LINE
  5
381
330
1F
100
AcDbEntity
  8
0
  6
Continuous
 62
     7
370
     0
100
AcDbLine
 10
258.9600027117
 20
167.3097707748
 30
0.0
 11
258.9600027117
 21
166.9326471582
 31
0.0
  0
LINE
  5
382
330
1F
100
AcDbEntity
  8
0
  6
Continuous
 62
     7
370
     0
100
AcDbLine
 10
258.9600027117
 20
167.3097707748
 30
0.0
 11
265.5079031388
 21
166.4848128638
 31
0.0
  0
LINE
  5
383
330
1F
100
AcDbEntity
  8
0
  6
Continuous
 62
     7
370
     0
100
AcDbLine
 10
258.9600027117
 20
166.9326471582
 30
0.0
 11
265.5079031388
 21
166.1076892472
 31
0.0
  0
LINE
  5
384
330
1F
100
AcDbEntity
  8
0
  6
Continuous
 62
     7
370
     0
100
AcDbLine
 10
267.9827768724
 20
168.667446339
 30
0.0
 11
261.4348764453
 21
169.49240425
 31
0.0
  0
LINE
  5
385
330
1F
100
AcDbEntity
  8
0
  6
Continuous
 62
     7
370
     0
100
AcDbLine
 10
261.4348764453
 20
169.49240425
 30
0.0
 11
258.9600027117
 21
167.3097707748
 31
0.0
  0
LWPOLYLINE
  5
386
330
1F
100
AcDbEntity
  8
0
  6
Continuous
 62
     7
370
     0
100
AcDbPolyline
 90
        3
 70
   128
 43
0.0
 10
264.1074293593
 20
96.9695130024
 10
264.1309234099
 20
97.0515565216
 10
264.1323141286
 20
97.0780072483
  0
LWPOLYLINE
  5
387
330
1F
100
AcDbEntity
  8
0
  6
Continuous
 62
     7
370
     0
100
AcDbPolyline
 90
       13
 70
   128
 43
0.0
 10
263.2032517812
 20
96.9733119993
 10
263.2037904214
 20
96.9575339288
 10
263.2239301051
 20
96.8799154025
 10
263.2719588001
 20
96.8114069823
 10
263.3448586869
 20
96.7563133041
 10
263.4380491975
 20
96.7180961065
 10
263.5456748294
 20
96.6991567164
 10
263.6609730682
 20
96.7006851655
 10
263.7766993017
 20
96.7225854156
 10
263.8855820249
 20
96.7634813935
 10
263.9807797359
 20
96.8208034545
 10
264.0563108125
 20
96.8909498426
 10
264.1074293593
 20
96.9695130024
  0
OLE2FRAME
  5
388
330
1F
100
AcDbEntity
  8
0
100
AcDbOle2Frame
 70
     2
  3
Paintbrush Picture
 10
229.0524259344
 20
33.6996298005
 30
0.0
 11
265.1686468101
 21
28.5554797105
 31
0.0
 71
     2
 72
     0
 73
     1
 90
     7296
310
8055E6312779ADA16C40BC4424788DD940400000000000000000235EFFC6B292
310
7040BC4424788DD940400000000000000000235EFFC6B29270406E0516EB338E
310
3C400000000000000000E6312779ADA16C406E0516EB338E3C40000000000000
310
00000000000001000000000100000100000001000000000001000000001C0000
310
D0CF11E0A1B11AE1000000000000000000000000000000003E000300FEFF0900
310
0600000000000000000000000100000001000000000000000010000002000000
310
01000000FEFFFFFF0000000000000000FFFFFFFFFFFFFFFFFFFFFFFFFFFFFFFF
310
FFFFFFFFFFFFFFFFFFFFFFFFFFFFFFFFFFFFFFFFFFFFFFFFFFFFFFFFFFFFFFFF
310
FFFFFFFFFFFFFFFFFFFFFFFFFFFFFFFFFFFFFFFFFFFFFFFFFFFFFFFFFFFFFFFF
310
FFFFFFFFFFFFFFFFFFFFFFFFFFFFFFFFFFFFFFFFFFFFFFFFFFFFFFFFFFFFFFFF
310
FFFFFFFFFFFFFFFFFFFFFFFFFFFFFFFFFFFFFFFFFFFFFFFFFFFFFFFFFFFFFFFF
310
FFFFFFFFFFFFFFFFFFFFFFFFFFFFFFFFFFFFFFFFFFFFFFFFFFFFFFFFFFFFFFFF
310
FFFFFFFFFFFFFFFFFFFFFFFFFFFFFFFFFFFFFFFFFFFFFFFFFFFFFFFFFFFFFFFF
310
FFFFFFFFFFFFFFFFFFFFFFFFFFFFFFFFFFFFFFFFFFFFFFFFFFFFFFFFFFFFFFFF
310
FFFFFFFFFFFFFFFFFFFFFFFFFFFFFFFFFFFFFFFFFFFFFFFFFFFFFFFFFFFFFFFF
310
FFFFFFFFFFFFFFFFFFFFFFFFFFFFFFFFFFFFFFFFFFFFFFFFFFFFFFFFFFFFFFFF
310
FFFFFFFFFFFFFFFFFFFFFFFFFFFFFFFFFFFFFFFFFFFFFFFFFFFFFFFFFFFFFFFF
310
FFFFFFFFFFFFFFFFFFFFFFFFFFFFFFFFFFFFFFFFFFFFFFFFFFFFFFFFFFFFFFFF
310
FFFFFFFFFFFFFFFFFFFFFFFFFFFFFFFFFFFFFFFFFFFFFFFFFFFFFFFFFFFFFFFF
310
FFFFFFFFFFFFFFFFFFFFFFFFFFFFFFFFFFFFFFFFFFFFFFFFFFFFFFFFFFFFFFFF
310
FDFFFFFFFEFFFFFFFEFFFFFFFEFFFFFF05000000060000000700000008000000
310
090000000A0000000B0000000C000000FEFFFFFFFFFFFFFFFFFFFFFFFFFFFFFF
310
FFFFFFFFFFFFFFFFFFFFFFFFFFFFFFFFFFFFFFFFFFFFFFFFFFFFFFFFFFFFFFFF
310
FFFFFFFFFFFFFFFFFFFFFFFFFFFFFFFFFFFFFFFFFFFFFFFFFFFFFFFFFFFFFFFF
310
FFFFFFFFFFFFFFFFFFFFFFFFFFFFFFFFFFFFFFFFFFFFFFFFFFFFFFFFFFFFFFFF
310
FFFFFFFFFFFFFFFFFFFFFFFFFFFFFFFFFFFFFFFFFFFFFFFFFFFFFFFFFFFFFFFF
310
FFFFFFFFFFFFFFFFFFFFFFFFFFFFFFFFFFFFFFFFFFFFFFFFFFFFFFFFFFFFFFFF
310
FFFFFFFFFFFFFFFFFFFFFFFFFFFFFFFFFFFFFFFFFFFFFFFFFFFFFFFFFFFFFFFF
310
FFFFFFFFFFFFFFFFFFFFFFFFFFFFFFFFFFFFFFFFFFFFFFFFFFFFFFFFFFFFFFFF
310
FFFFFFFFFFFFFFFFFFFFFFFFFFFFFFFFFFFFFFFFFFFFFFFFFFFFFFFFFFFFFFFF
310
FFFFFFFFFFFFFFFFFFFFFFFFFFFFFFFFFFFFFFFFFFFFFFFFFFFFFFFFFFFFFFFF
310
FFFFFFFFFFFFFFFFFFFFFFFFFFFFFFFFFFFFFFFFFFFFFFFFFFFFFFFFFFFFFFFF
310
FFFFFFFFFFFFFFFFFFFFFFFFFFFFFFFFFFFFFFFFFFFFFFFFFFFFFFFFFFFFFFFF
310
FFFFFFFFFFFFFFFFFFFFFFFFFFFFFFFFFFFFFFFFFFFFFFFFFFFFFFFFFFFFFFFF
310
FFFFFFFFFFFFFFFFFFFFFFFFFFFFFFFFFFFFFFFFFFFFFFFFFFFFFFFFFFFFFFFF
310
FFFFFFFFFFFFFFFFFFFFFFFFFFFFFFFFFFFFFFFFFFFFFFFFFFFFFFFFFFFFFFFF
310
52006F006F007400200045006E00740072007900000000000000000000000000
310
0000000000000000000000000000000000000000000000000000000000000000
310
16000500FFFFFFFFFFFFFFFF020000000A00030000000000C000000000000046
310
00000000000000000000000030CBC1744CDBD10103000000C000000000000000
310
01004F006C006500000000000000000000000000000000000000000000000000
310
0000000000000000000000000000000000000000000000000000000000000000
310
0A000200FFFFFFFFFFFFFFFFFFFFFFFF00000000000000000000000000000000
310
0000000000000000000000000000000000000000000000001400000000000000
310
010043006F006D0070004F0062006A0000000000000000000000000000000000
310
0000000000000000000000000000000000000000000000000000000000000000
310
120002010100000003000000FFFFFFFF00000000000000000000000000000000
310
0000000000000000000000000000000000000000010000004D00000000000000
310
01004F006C006500310030004E00610074006900760065000000000000000000
310
0000000000000000000000000000000000000000000000000000000000000000
310
1A000200FFFFFFFFFFFFFFFFFFFFFFFF00000000000000000000000000000000
310
000000000000000000000000000000000000000004000000E411000000000000
310
FEFFFFFF02000000FEFFFFFFFFFFFFFFFFFFFFFFFFFFFFFFFFFFFFFFFFFFFFFF
310
FFFFFFFFFFFFFFFFFFFFFFFFFFFFFFFFFFFFFFFFFFFFFFFFFFFFFFFFFFFFFFFF
310
FFFFFFFFFFFFFFFFFFFFFFFFFFFFFFFFFFFFFFFFFFFFFFFFFFFFFFFFFFFFFFFF
310
FFFFFFFFFFFFFFFFFFFFFFFFFFFFFFFFFFFFFFFFFFFFFFFFFFFFFFFFFFFFFFFF
310
FFFFFFFFFFFFFFFFFFFFFFFFFFFFFFFFFFFFFFFFFFFFFFFFFFFFFFFFFFFFFFFF
310
FFFFFFFFFFFFFFFFFFFFFFFFFFFFFFFFFFFFFFFFFFFFFFFFFFFFFFFFFFFFFFFF
310
FFFFFFFFFFFFFFFFFFFFFFFFFFFFFFFFFFFFFFFFFFFFFFFFFFFFFFFFFFFFFFFF
310
FFFFFFFFFFFFFFFFFFFFFFFFFFFFFFFFFFFFFFFFFFFFFFFFFFFFFFFFFFFFFFFF
310
FFFFFFFFFFFFFFFFFFFFFFFFFFFFFFFFFFFFFFFFFFFFFFFFFFFFFFFFFFFFFFFF
310
FFFFFFFFFFFFFFFFFFFFFFFFFFFFFFFFFFFFFFFFFFFFFFFFFFFFFFFFFFFFFFFF
310
FFFFFFFFFFFFFFFFFFFFFFFFFFFFFFFFFFFFFFFFFFFFFFFFFFFFFFFFFFFFFFFF
310
FFFFFFFFFFFFFFFFFFFFFFFFFFFFFFFFFFFFFFFFFFFFFFFFFFFFFFFFFFFFFFFF
310
FFFFFFFFFFFFFFFFFFFFFFFFFFFFFFFFFFFFFFFFFFFFFFFFFFFFFFFFFFFFFFFF
310
FFFFFFFFFFFFFFFFFFFFFFFFFFFFFFFFFFFFFFFFFFFFFFFFFFFFFFFFFFFFFFFF
310
FFFFFFFFFFFFFFFFFFFFFFFFFFFFFFFFFFFFFFFFFFFFFFFFFFFFFFFFFFFFFFFF
310
FFFFFFFFFFFFFFFFFFFFFFFFFFFFFFFFFFFFFFFFFFFFFFFFFFFFFFFFFFFFFFFF
310
0100000200000000000000000000000000000000000000000000000000000000
310
0000000000000000000000000000000000000000000000000000000000000000
310
0100FEFF030A0000FFFFFFFF0A00030000000000C00000000000004607000000
310
5042727573680007000000504272757368000700000050427275736800F439B2
310
7100000000000000000000000000000000000000000000000000000000000000
310
0000000000000000000000000000000000000000000000000000000000000000
310
0000000000000000000000000000000000000000000000000000000000000000
310
0000000000000000000000000000000000000000000000000000000000000000
310
0000000000000000000000000000000000000000000000000000000000000000
310
0000000000000000000000000000000000000000000000000000000000000000
310
0000000000000000000000000000000000000000000000000000000000000000
310
0000000000000000000000000000000000000000000000000000000000000000
310
0000000000000000000000000000000000000000000000000000000000000000
310
0000000000000000000000000000000000000000000000000000000000000000
310
0000000000000000000000000000000000000000000000000000000000000000
310
0000000000000000000000000000000000000000000000000000000000000000
310
E0110000424DDE11000000000000360400002800000096000000170000000100
310
08000000000000000000E7240000E72400000001000000010000000000FF0101
310
01FF020202FF030303FF040404FF050505FF060606FF070707FF080808FF0909
310
09FF0A0A0AFF0B0B0BFF0C0C0CFF0D0D0DFF0E0E0EFF0F0F0FFF101010FF1111
310
11FF121212FF131313FF141414FF151515FF161616FF171717FF181818FF1919
310
19FF1A1A1AFF1B1B1BFF1C1C1CFF1D1D1DFF1E1E1EFF1F1F1FFF202020FF2121
310
21FF222222FF232323FF242424FF252525FF262626FF272727FF282828FF2929
310
29FF2A2A2AFF2B2B2BFF2C2C2CFF2D2D2DFF2E2E2EFF2F2F2FFF303030FF3131
310
31FF323232FF333333FF343434FF353535FF363636FF373737FF383838FF3939
310
39FF3A3A3AFF3B3B3BFF3C3C3CFF3D3D3DFF3E3E3EFF3F3F3FFF404040FF4141
310
41FF424242FF434343FF444444FF454545FF464646FF474747FF484848FF4949
310
49FF4A4A4AFF4B4B4BFF4C4C4CFF4D4D4DFF4E4E4EFF4F4F4FFF505050FF5151
310
51FF525252FF535353FF545454FF555555FF565656FF575757FF585858FF5959
310
59FF5A5A5AFF5B5B5BFF5C5C5CFF5D5D5DFF5E5E5EFF5F5F5FFF606060FF6161
310
61FF626262FF636363FF646464FF656565FF666666FF676767FF686868FF6969
310
69FF6A6A6AFF6B6B6BFF6C6C6CFF6D6D6DFF6E6E6EFF6F6F6FFF707070FF7171
310
71FF727272FF737373FF747474FF757575FF767676FF777777FF787878FF7979
310
79FF7A7A7AFF7B7B7BFF7C7C7CFF7D7D7DFF7E7E7EFF7F7F7FFF808080FF8181
310
81FF828282FF838383FF848484FF858585FF868686FF878787FF888888FF8989
310
89FF8A8A8AFF8B8B8BFF8C8C8CFF8D8D8DFF8E8E8EFF8F8F8FFF909090FF9191
310
91FF929292FF939393FF949494FF959595FF969696FF979797FF989898FF9999
310
99FF9A9A9AFF9B9B9BFF9C9C9CFF9D9D9DFF9E9E9EFF9F9F9FFFA0A0A0FFA1A1
310
A1FFA2A2A2FFA3A3A3FFA4A4A4FFA5A5A5FFA6A6A6FFA7A7A7FFA8A8A8FFA9A9
310
A9FFAAAAAAFFABABABFFACACACFFADADADFFAEAEAEFFAFAFAFFFB0B0B0FFB1B1
310
B1FFB2B2B2FFB3B3B3FFB4B4B4FFB5B5B5FFB6B6B6FFB7B7B7FFB8B8B8FFB9B9
310
B9FFBABABAFFBBBBBBFFBCBCBCFFBDBDBDFFBEBEBEFFBFBFBFFFC0C0C0FFC1C1
310
C1FFC2C2C2FFC3C3C3FFC4C4C4FFC5C5C5FFC6C6C6FFC7C7C7FFC8C8C8FFC9C9
310
C9FFCACACAFFCBCBCBFFCCCCCCFFCDCDCDFFCECECEFFCFCFCFFFD0D0D0FFD1D1
310
D1FFD2D2D2FFD3D3D3FFD4D4D4FFD5D5D5FFD6D6D6FFD7D7D7FFD8D8D8FFD9D9
310
D9FFDADADAFFDBDBDBFFDCDCDCFFDDDDDDFFDEDEDEFFDFDFDFFFE0E0E0FFE1E1
310
E1FFE2E2E2FFE3E3E3FFE4E4E4FFE5E5E5FFE6E6E6FFE7E7E7FFE8E8E8FFE9E9
310
E9FFEAEAEAFFEBEBEBFFECECECFFEDEDEDFFEEEEEEFFEFEFEFFFF0F0F0FFF1F1
310
F1FFF2F2F2FFF3F3F3FFF4F4F4FFF5F5F5FFF6F6F6FFF7F7F7FFF8F8F8FFF9F9
310
F9FFFAFAFAFFFBFBFBFFFCFCFCFFFDFDFDFFFEFEFEFFFFFFFFFFFFFFFFFFFFFF
310
C94E4E4E4F4E4EFFFFFFFFFFC94E4E4E4E4E72FFFFFFFFFFFFFF734E4D4E4E4E
310
C9FFFFFFFFFFAA683516171616265B9BE9FFFFFFFFFF4E4E4E4D4E4EFFFFFFFF
310
FFFFFFFF4E4E4F4E4D4E4E4E4F4E4E4F4D4E4E4E4E4E4D4E4F4E4D4E4E4EAAFF
310
FFFFFFFFFFEA4E4F4F4E4E4E4E4E4D4D4F4F4E4E4E4E4E5B7FAAFFFFFFFFFFFF
310
C9744E1716171616164D8DEAFFFFFFFF0000FFFFFFFFFFFFBA161617161716FF
310
FFFFFFFFB917171616174FFFFFFFFFFFFFFF4E1716161616B9FFFFFFB9341717
310
1716171617171616268CFFFFFFFF161617161617FFFFFFFFFFFFFFB917161717
310
1617167F807F7F7F7F7F7F807F7F807F7F807F7F7F414EFFFFFFFFFFFF8C167F
310
7F807F7F7F7E7F7F807F807F7F807F4E3417258EFFFFEA4E162674AABAEAEBBA
310
AA74341680FFFFFF0000FFFFFFFFFFFFB9171717171617FFFFFFFFFFBB161616
310
16164EFFFFFFFFFFFFFF4E1717171717B9FFFF9C171617171716161616171616
310
171766FFFFFF161717161617FFFFFFFFFFFFFF8E16171717161616FFFFFFFFFF
310
FFFFFFFFFFFFFFFFFFFFFFFFFFAA16D9FFFFFFFFFF3467FFFFFFFFEAFFFFFFFF
310
FFFFFFFFFFFFFFFFFFCA671667EB26278DFFFFFFFFFFFFFFFFFFFF8C2541EAFF
310
0000FFFFFFFFFFFFB9171717171716FFFFFFFFFFBA16171617174EFFFFFFFFFF
310
FFFF4E1717161616BAFF9B1617161616171716171617161616161667FFFF1616
310
16161716FFFFFFFFFFFFFF7F16161617174017FFFFFFFFFFFFFFFFFFFFFFFFFF
310
FFFFFFFFFFFF344E7F7F7F7E7417DAFFFFFFFF80FFFFFFFFFFFFFFFFFFFFFFFF
310
FFFFFF9B163425CAFFFFFFFFFFFFFFFFFFFFFFFFCA2667FF0000FFFFFFFFFFFF
310
BA171717171617FFFFFFFFFFB916171716164EFFFFFFFFFFFFFF4F1716161717
310
B9C91716171616161716161617171616161617168DFF161716161717FFFFFFFF
310
FFFFFF7F17171716164F16FFFFFFFFFFFFFFFFFFFFFFFFFFFFFFFFFFFFFF9B16
310
17161617174EFFFFFFFFFF34FFFFFFFFD9BABABABABADAFFFFFFFFFF7F16AAFF
310
FFFFFFFFFFFFFFFFFFFFFFFFFF9C16BA0000FFFFFFFFFFFFB9161717161717FF
310
FFFFFFFFB917161716174DFFFFFFFFFFFFFF4E1616161616BA4E161617171716
310
419BEAEAAA4E16161617161726E9171717161616FFFFFFFFFFFFFF4F16161717
310
164E16FFFFFFFFFFBAB9B9B9B9B9BABABACAFFFFFFFFFFFFFFFFFFFFFFFFFFFF
310
FFFFBA16FFFFFFFF7F1617161617174DEAFFFFFFEA41FFFFFFFFFFAA4D16174E
310
9BFFFFFFFFFF34730000FFFFFFFFFFFFB9161617171617FFFFFFFFFFBA161616
310
16164EFFFFFFFFFFFFFF4F16161717169B1617161716175BFFFFFFFFFFFF7417
310
16171616168D171717161617FFFFFFFFFFFFEA2616171717167416FFFFFFFFFF
310
16171616171717171717EAFFFFFFFFFFFFFFFFFFFFFFFFFFFFFF6716FFFFFFFF
310
7F4EFFFFFFFFBA2573FFFFFFFFBAFFFFFFFFAA167FB9BB9B269BFFFFFFFF664F
310
0000FFFFFFFFFFFFB9171616161616FFFFFFFFFFBA16161717164EFFFFFFFFFF
310
FFFF4E16161616174E161617171626EAFFFFFFFFFFFFFF4E16161616164E1716
310
16161617FFFFFFFFFFFF671616161716347F16FFFFFFFFFF16B9FFFFFFFFFFFF
310
D9168DFFFFFFFFFFFFFFFFFFFFFFFFFFFFEA1716FFFFFFFF7F4EFFFFFFFFFF7F
310
4EFFFFFFFFFFFFFFFFFF5B66FFFFFFEA347FFFFFFFFF7F4D0000FFFFFFFFFFFF
310
B9171616171617FFFFFFFFFFBA17161716174EFFFFFFFFFFFFFF4D1716161617
310
17161716161673FFFFFFFFFFFFFFFF9B1617161717161616171616174F4E4E4E
310
4E341616171616167E7F16FFFFFFFFFF16BAFFFFFFFFFFFFFF5B41FFFFFFFF34
310
1616171616BAFFFFFF9B1716FFFFFFFF7F4EFFFFFFFFFF4E4EFFFFFFFF734E4E
310
4E4E267EDA9B67164EEAFFFFFFFF744D0000FFFFFFFFFFFFBA171717161617FF
310
FFFFFFFFBA1616171616347F7F7F7F80807F331616161717161717161716B9FF
310
FFFFFFFFFFFFFFE9161616161616171716161716171616161616171616171734
310
EA7F16FFFFFFFFFF16BAFFFFFFFFFFFFFFAA17C9FFFFFF7326BABA5B25FFFFFF
310
FF401716FFFFFFFF7F264F4E4E4E4217AAFFFFFFEA16677F73261616164173CA
310
FFFFFFFFFFFF417F0000FFFFFFFFFFFFBA171616171617FFFFFFFFFFBA161616
310
17171616161616161616161717161616161616161617EAFFFFFFFFFFFFFFFFFF
310
261717161716161617161616161617161617161616174EEAFF8016FFFFFFFFFF
310
17BAFFFFFFFFFFFFFFFF3467FFFFFFC916C9FF3467FFFFFFDA166716FFFFFFFF
310
9C4D4E4E4E4E67AAFFFFFFFF6834FF7F262567AAEAFFFFFFFFFFFFFFFF9B17D9
310
0000FFFFFFFFFFFFB9161616161616FFFFFFFFFFBA1617161717171616161616
310
1716171716161716161617171716FFFFFFFFFFFFFFFFFFFF4E17161716171616
310
1617171616161716171717161616169BFF7F17FFFFFFFFFF17B9FFFFFFFFFFFF
310
FFFF7326FFFFFFFF3473DA16AAFFFFFF7317AA16FFFFFFFFFFFFFFFFFFFFFFFF
310
FFFFEA6725BA4E167FEAFFFFFFFFFFFFFFFFFFFF9C167FFF0000FFFFFFFFFFFF
310
B9161717171716FFFFFFFFFFBA16161716171616171717161617161716161616
310
171617171617EAFFFFFFFFFFFFFFFFFF26161717161616161616161617171616
310
1616161616171616AA8016FFFFFFFFFF16BAFFFFFFFFFFFFFFFFDA179BFFFFFF
310
74348D26FFFFFFFF2566B917FFFFFFFFD8BAB9BAB9BADAFFFFEA41169B7425C9
310
FFFFFFFFFFFFFFFFFFFFAB4F1680FFFF0000FFFFFFFFFFFFBA161717171617FF
310
FFFFFFFFBA17161717161617171617161616161617171616171716171617BBFF
310
FFFFFFFFFFFFFFE9171616161617161617161716FFFFFFFFFFD9671616161617
310
348017FFFFFFFFFF16BAFFFFFFFFFFFFFFFFFF4E5AFFFFFFC916265AFFFFFFAA
310
16AABA16FFFFFFFF7F1617161616179BFFFFEB4127168DFFFFFFFFFFFFFFD99B
310
6734175AC9FFFFFF0000FFFFFFFFFFFFB9161617171617FFFFFFFFFFBB161616
310
1616347F807F7F7F7F8033171716171617171616161672FFFFFFFFFFFFFFFF9C
310
171617171617161716161617FFFFFFFFFFFFFF4117161616174E17FFFFFFFFFF
310
16BAFFFFFFFFFFFFFFFFFF9B16DAFFFFFF34169BFFFFFF5A26FFB917FFFFFFFF
310
7F4EFFFFFFEA5B26FFFFFFEA2616EAFFFFFFFFDA743416331617414E4E4E4ECA
310
0000FFFFFFFFFFFFBA161716161616FFFFFFFFFFBA17171616164EFFFFFFFFFF
310
FFFF4E16161717174E161717171626EBFFFFFFFFFFFFFF4E16161617165B1616
310
16171617FFFFFFFFFFFFFF6716161616161617FFFFFFFFFF16BAFFFFFFFFFFFF
310
FFFFFFEA268CFFFFFF7316EAFFFFEB1774FFB916FFFFFFFF7F4EFFFFFFFF7316
310
FFFFFFFF6826FFFFFFFFEB264D9CEABA257F807F7F6616BA0000FFFFFFFFFFFF
310
BA161716161616FFFFFFFFFFBA16171616164DFFFFFFFFFFFFFF4E1617161617
310
9B1617171717165BEBFFFFFFFFFF671616161617179B171616161616FFFFFFFF
310
FFFFFF3417161617171617FFFFFFFFFF17BAFFFFFFFFFFFFFFFFFFFF6734FFFF
310
FFEBCAFFFFFF8D17C9FFBA17FFFFFFFF7F357F808066174FFFFFFFFF7F16FFFF
310
FFFFD91673B99B415BFFFFFFFFBA16DA00009B7F7F7F807F671617161616167F
310
80807F7E6617161616164EFFFFFFFFFFFFFF4E1616161617B94E171716161616
310
349BC9D9AA4E16171616161634FF161617161717B9B9BAB9BA9B411716171716
310
163416FFFFFFFFFF16B9FFFFFFFFFFFFFFFFFFFFC917CAFFFFFFFFFFFFFF3342
310
FFFFBA17FFFFFFFF9B4E4E4F4E4E66EAFFFFFFFF5B16C9FFFFFFFFAA4E164E73
310
EAFFFFFFFF8D26FF00004E161716161616171617171616171717171617161616
310
17174EFFFFFFFFFFFFFF4E1717171616B9D92616171716171716171717171716
310
16171716AAFF161717171617161617171616161617161716166717FFFFFFFFFF
310
17B9FFFFFFFFFFFFFFFFFFFFFF3467FFFFFFFFFFFFCA168CFFFFBB17FFFFFFFF
310
FFFFFFFFFFFFFFFFFFFFFFEA26265BFFFFFFFFFFFFFFFFFFFFFFFFFFEA3467FF
310
00004D16161616161617161717161617161616171617171616164EFFFFFFFFFF
310
FFFF4D1617161616BAFF9B1616161616161716161616171717161766FFFF1616
310
16171617161617161716171616171717667F16FFFFFFFFFF17BAFFFFFFFFFFFF
310
FFFFFFFFFF8C26EAFFFFFFFFFF6617EAFFFFBA17FFFFFFFFFFFFFFFFFFFFFFFF
310
FFFFEA5A25BA269BFFFFFFFFFFFFFFFFFFFFFFFF6616DAFF00004E1616171616
310
1616161616161716161617171616171616174EFFFFFFFFFFFFFF4D1717171716
310
B9FFFF9C161616161616161716161717171667FFFFFF17161717171716161617
310
1716161616161641E97E16FFFFFFFFFF16B9FFFFFFFFFFFFFFFFFFFFFFEA169B
310
FFFFFFFFEA265BFFFFFFB916FFFFFFFFFFFFFFFFFFFFFFFFFF9B3416AAFF9B17
310
67EAFFFFFFFFFFFFFFFFEA5B169BFFFF00004D17161716161616161717171616
310
161717161716171716174EFFFFFFFFFFFFFF4D1616161616BAFFFFFFBB411616
310
161716161616171634ABFFFFFFFF161716161617171716171617171617267FFF
310
FF7F164E4E4E4E4F17BAFFFFFFFFFFFFFFFFFFFFFFFF66344D4E4E4F4117AAFF
310
FFFFBA174E4E4E4D4E4D4D4E4E4E4E4116174EBBFFFFFFCA342666ABEAFFFFEA
310
AA6725269CFFFFFF0000724F4E4D4D4D4E4D4D4E4E4E4D4E4E4E4E4E4E4E4E4D
310
4E4E74FFFFFFFFFFFFFF734E4E4E4D4ECAFFFFFFFFFFAA663416171717265B9B
310
FFFFFFFFFFFF7F8080807F80807F7F7F7F7F807FBAFFFFFFFF9B4E4E4F4D4D4E
310
4DC9FFFFFFFFFFFFFFFFFFFFFFFFBA4E4E4E4E4D4E4EFFFFFFFFC94E4E4E4F4E
310
4E4E4D4E4E5A807F9CD9FFFFFFFFFFFFFF9B5B2617171716174E8DEAFFFFFFFF
310
0000000000000000000000000000000000000000000000000000000000000000
  1
OLE
  0
ENDSEC
  0
SECTION
  2
OBJECTS
  0
DICTIONARY
  5
C
330
0
100
AcDbDictionary
281
     1
  3
ACAD_GROUP
350
D
  3
ACAD_LAYOUT
350
1A
  3
ACAD_MLINESTYLE
350
17
  3
ACAD_PLOTSETTINGS
350
19
  3
ACAD_PLOTSTYLENAME
350
E
  3
ACAD_SCALELIST
350
47
  0
DICTIONARY
  5
D
102
{ACAD_REACTORS
330
C
102
}
330
C
100
AcDbDictionary
281
     1
  0
DICTIONARY
  5
1A
102
{ACAD_REACTORS
330
C
102
}
330
C
100
AcDbDictionary
281
     1
  3
Layout1
350
1E
  3
Layout2
350
26
  3
Model
350
22
  0
DICTIONARY
  5
17
102
{ACAD_REACTORS
330
C
102
}
330
C
100
AcDbDictionary
281
     1
  3
Standard
350
18
  0
DICTIONARY
  5
19
102
{ACAD_REACTORS
330
C
102
}
330
C
100
AcDbDictionary
281
     1
  0
ACDBDICTIONARYWDFLT
  5
E
102
{ACAD_REACTORS
330
C
102
}
330
C
100
AcDbDictionary
281
     1
  3
Normal
350
F
100
AcDbDictionaryWithDefault
340
F
  0
DICTIONARY
  5
47
102
{ACAD_REACTORS
330
C
102
}
330
C
100
AcDbDictionary
281
     1
  3
A0
350
48
  3
A1
350
49
  3
A2
350
4A
  3
A3
350
4B
  3
A4
350
4C
  3
A5
350
4D
  3
A6
350
4E
  3
A7
350
4F
  3
A8
350
50
  3
A9
350
51
  3
B0
350
52
  3
B1
350
53
  3
B2
350
54
  3
B3
350
55
  3
B4
350
56
  3
B5
350
57
  3
B6
350
58
  3
B7
350
59
  3
B8
350
5A
  3
B9
350
5B
  3
C0
350
5C
  3
C1
350
5D
  3
C2
350
5E
  3
C3
350
5F
  3
C4
350
60
  3
C5
350
61
  3
C6
350
62
  3
C7
350
63
  3
C8
350
64
  3
C9
350
65
  3
D0
350
66
  3
D1
350
67
  3
D2
350
68
  0
LAYOUT
  5
1E
102
{ACAD_REACTORS
330
1A
102
}
330
1A
100
AcDbPlotSettings
  1

  2
none_device
  4

  6

 40
0.0
 41
0.0
 42
0.0
 43
0.0
 44
0.0
 45
0.0
 46
0.0
 47
0.0
 48
0.0
 49
0.0
140
0.0
141
0.0
142
1.0
143
1.0
 70
   688
 72
     1
 73
     0
 74
     5
  7

 75
    16
147
1.0
148
0.0
149
0.0
100
AcDbLayout
  1
Layout1
 70
     1
 71
     1
 10
0.0
 20
0.0
 11
420.0
 21
297.0
 12
0.0
 22
0.0
 32
0.0
 14
1.0000000000E+20
 24
1.0000000000E+20
 34
1.0000000000E+20
 15
-1.0000000000E+20
 25
-1.0000000000E+20
 35
-1.0000000000E+20
146
0.0
 13
0.0
 23
0.0
 33
0.0
 16
1.0
 26
0.0
 36
0.0
 17
0.0
 27
1.0
 37
0.0
 76
     0
330
1B
  0
LAYOUT
  5
26
102
{ACAD_REACTORS
330
1A
102
}
330
1A
100
AcDbPlotSettings
  1

  2
none_device
  4

  6

 40
0.0
 41
0.0
 42
0.0
 43
0.0
 44
0.0
 45
0.0
 46
0.0
 47
0.0
 48
0.0
 49
0.0
140
0.0
141
0.0
142
1.0
143
1.0
 70
   688
 72
     1
 73
     0
 74
     5
  7

 75
    16
147
1.0
148
0.0
149
0.0
100
AcDbLayout
  1
Layout2
 70
     1
 71
     2
 10
0.0
 20
0.0
 11
0.0
 21
0.0
 12
0.0
 22
0.0
 32
0.0
 14
0.0
 24
0.0
 34
0.0
 15
0.0
 25
0.0
 35
0.0
146
0.0
 13
0.0
 23
0.0
 33
0.0
 16
1.0
 26
0.0
 36
0.0
 17
0.0
 27
1.0
 37
0.0
 76
     0
330
23
  0
LAYOUT
  5
22
102
{ACAD_REACTORS
330
1A
102
}
330
1A
100
AcDbPlotSettings
  1

  2
none_device
  4
Letter_(8.50_x_11.00_Inches)
  6

 40
6.35
 41
6.35
 42
6.35000508
 43
6.35000508
 44
215.9
 45
279.4
 46
0.0
 47
0.0
 48
0.0
 49
0.0
140
0.0
141
0.0
142
1.0
143
1.0
 70
  1712
 72
     1
 73
     0
 74
     0
  7

 75
     0
147
1.0
148
0.0
149
0.0
100
AcDbLayout
  1
Model
 70
     1
 71
     0
 10
0.0
 20
0.0
 11
279.4
 21
215.9
 12
0.0
 22
0.0
 32
0.0
 14
0.0
 24
0.0
 34
0.0
 15
279.4
 25
215.9
 35
0.0
146
0.0
 13
0.0
 23
0.0
 33
0.0
 16
1.0
 26
0.0
 36
0.0
 17
0.0
 27
1.0
 37
0.0
 76
     0
330
1F
331
29
  0
MLINESTYLE
  5
18
102
{ACAD_REACTORS
330
17
102
}
330
17
100
AcDbMlineStyle
  2
Standard
 70
     0
  3

 62
   256
 51
90.0
 52
90.0
 71
     2
 49
0.5
 62
   256
  6
BYLAYER
 49
-0.5
 62
   256
  6
BYLAYER
  0
ACDBPLACEHOLDER
  5
F
102
{ACAD_REACTORS
330
E
102
}
330
E
  0
SCALE
  5
48
102
{ACAD_REACTORS
330
47
102
}
330
47
100
AcDbScale
 70
     0
300
1:1
140
1.0
141
1.0
290
     1
  0
SCALE
  5
49
102
{ACAD_REACTORS
330
47
102
}
330
47
100
AcDbScale
 70
     0
300
1:2
140
1.0
141
2.0
290
     0
  0
SCALE
  5
4A
102
{ACAD_REACTORS
330
47
102
}
330
47
100
AcDbScale
 70
     0
300
1:4
140
1.0
141
4.0
290
     0
  0
SCALE
  5
4B
102
{ACAD_REACTORS
330
47
102
}
330
47
100
AcDbScale
 70
     0
300
1:5
140
1.0
141
5.0
290
     0
  0
SCALE
  5
4C
102
{ACAD_REACTORS
330
47
102
}
330
47
100
AcDbScale
 70
     0
300
1:8
140
1.0
141
8.0
290
     0
  0
SCALE
  5
4D
102
{ACAD_REACTORS
330
47
102
}
330
47
100
AcDbScale
 70
     0
300
1:10
140
1.0
141
10.0
290
     0
  0
SCALE
  5
4E
102
{ACAD_REACTORS
330
47
102
}
330
47
100
AcDbScale
 70
     0
300
1:16
140
1.0
141
16.0
290
     0
  0
SCALE
  5
4F
102
{ACAD_REACTORS
330
47
102
}
330
47
100
AcDbScale
 70
     0
300
1:20
140
1.0
141
20.0
290
     0
  0
SCALE
  5
50
102
{ACAD_REACTORS
330
47
102
}
330
47
100
AcDbScale
 70
     0
300
1:30
140
1.0
141
30.0
290
     0
  0
SCALE
  5
51
102
{ACAD_REACTORS
330
47
102
}
330
47
100
AcDbScale
 70
     0
300
1:40
140
1.0
141
40.0
290
     0
  0
SCALE
  5
52
102
{ACAD_REACTORS
330
47
102
}
330
47
100
AcDbScale
 70
     0
300
1:50
140
1.0
141
50.0
290
     0
  0
SCALE
  5
53
102
{ACAD_REACTORS
330
47
102
}
330
47
100
AcDbScale
 70
     0
300
1:100
140
1.0
141
100.0
290
     0
  0
SCALE
  5
54
102
{ACAD_REACTORS
330
47
102
}
330
47
100
AcDbScale
 70
     0
300
2:1
140
2.0
141
1.0
290
     0
  0
SCALE
  5
55
102
{ACAD_REACTORS
330
47
102
}
330
47
100
AcDbScale
 70
     0
300
4:1
140
4.0
141
1.0
290
     0
  0
SCALE
  5
56
102
{ACAD_REACTORS
330
47
102
}
330
47
100
AcDbScale
 70
     0
300
8:1
140
8.0
141
1.0
290
     0
  0
SCALE
  5
57
102
{ACAD_REACTORS
330
47
102
}
330
47
100
AcDbScale
 70
     0
300
10:1
140
10.0
141
1.0
290
     0
  0
SCALE
  5
58
102
{ACAD_REACTORS
330
47
102
}
330
47
100
AcDbScale
 70
     0
300
100:1
140
100.0
141
1.0
290
     0
  0
SCALE
  5
59
102
{ACAD_REACTORS
330
47
102
}
330
47
100
AcDbScale
 70
     0
300
1/128" = 1'-0"
140
0.0078125
141
12.0
290
     0
  0
SCALE
  5
5A
102
{ACAD_REACTORS
330
47
102
}
330
47
100
AcDbScale
 70
     0
300
1/64" = 1'-0"
140
0.015625
141
12.0
290
     0
  0
SCALE
  5
5B
102
{ACAD_REACTORS
330
47
102
}
330
47
100
AcDbScale
 70
     0
300
1/32" = 1'-0"
140
0.03125
141
12.0
290
     0
  0
SCALE
  5
5C
102
{ACAD_REACTORS
330
47
102
}
330
47
100
AcDbScale
 70
     0
300
1/16" = 1'-0"
140
0.0625
141
12.0
290
     0
  0
SCALE
  5
5D
102
{ACAD_REACTORS
330
47
102
}
330
47
100
AcDbScale
 70
     0
300
3/32" = 1'-0"
140
0.09375
141
12.0
290
     0
  0
SCALE
  5
5E
102
{ACAD_REACTORS
330
47
102
}
330
47
100
AcDbScale
 70
     0
300
1/8" = 1'-0"
140
0.125
141
12.0
290
     0
  0
SCALE
  5
5F
102
{ACAD_REACTORS
330
47
102
}
330
47
100
AcDbScale
 70
     0
300
3/16" = 1'-0"
140
0.1875
141
12.0
290
     0
  0
SCALE
  5
60
102
{ACAD_REACTORS
330
47
102
}
330
47
100
AcDbScale
 70
     0
300
1/4" = 1'-0"
140
0.25
141
12.0
290
     0
  0
SCALE
  5
61
102
{ACAD_REACTORS
330
47
102
}
330
47
100
AcDbScale
 70
     0
300
3/8" = 1'-0"
140
0.375
141
12.0
290
     0
  0
SCALE
  5
62
102
{ACAD_REACTORS
330
47
102
}
330
47
100
AcDbScale
 70
     0
300
1/2" = 1'-0"
140
0.5
141
12.0
290
     0
  0
SCALE
  5
63
102
{ACAD_REACTORS
330
47
102
}
330
47
100
AcDbScale
 70
     0
300
3/4" = 1'-0"
140
0.75
141
12.0
290
     0
  0
SCALE
  5
64
102
{ACAD_REACTORS
330
47
102
}
330
47
100
AcDbScale
 70
     0
300
1" = 1'-0"
140
1.0
141
12.0
290
     0
  0
SCALE
  5
65
102
{ACAD_REACTORS
330
47
102
}
330
47
100
AcDbScale
 70
     0
300
1-1/2" = 1'-0"
140
1.5
141
12.0
290
     0
  0
SCALE
  5
66
102
{ACAD_REACTORS
330
47
102
}
330
47
100
AcDbScale
 70
     0
300
3" = 1'-0"
140
3.0
141
12.0
290
     0
  0
SCALE
  5
67
102
{ACAD_REACTORS
330
47
102
}
330
47
100
AcDbScale
 70
     0
300
6" = 1'-0"
140
6.0
141
12.0
290
     0
  0
SCALE
  5
68
102
{ACAD_REACTORS
330
47
102
}
330
47
100
AcDbScale
 70
     0
300
1'-0" = 1'-0"
140
12.0
141
12.0
290
     0
  0
ENDSEC
  0
EOF
