  0
SECTION
  2
HEADER
  9
$ACADVER
  1
AC1014
  9
$ACADMAINTVER
 70
     9
  9
$DWGCODEPAGE
  3
ANSI_1252
  9
$INSBASE
 10
0.0
 20
0.0
 30
0.0
  9
$EXTMIN
 10
0.0
 20
0.0
 30
0.0
  9
$EXTMAX
 10
279.4
 20
215.9
 30
0.0
  9
$LIMMIN
 10
0.0
 20
0.0
  9
$LIMMAX
 10
279.4
 20
215.9
  9
$ORTHOMODE
 70
     0
  9
$REGENMODE
 70
     1
  9
$FILLMODE
 70
     1
  9
$QTEXTMODE
 70
     0
  9
$MIRRTEXT
 70
     1
  9
$DRAGMODE
 70
     2
  9
$LTSCALE
 40
1.0
  9
$OSMODE
 70
    37
  9
$ATTMODE
 70
     1
  9
$TEXTSIZE
 40
2.8222222222
  9
$TRACEWID
 40
1.0
  9
$TEXTSTYLE
  7
STANDARD
  9
$CLAYER
  8
0
  9
$CELTYPE
  6
BYLAYER
  9
$CECOLOR
 62
   256
  9
$CELTSCALE
 40
1.0
  9
$DELOBJ
 70
     1
  9
$DISPSILH
 70
     0
  9
$DIMSCALE
 40
1.0
  9
$DIMASZ
 40
3.175
  9
$DIMEXO
 40
1.27
  9
$DIMDLI
 40
3.75
  9
$DIMRND
 40
0.0
  9
$DIMDLE
 40
0.0
  9
$DIMEXE
 40
1.778
  9
$DIMTP
 40
0.0
  9
$DIMTM
 40
0.0
  9
$DIMTXT
 40
2.8222222222
  9
$DIMCEN
 40
2.5
  9
$DIMTSZ
 40
0.0
  9
$DIMTOL
 70
     0
  9
$DIMLIM
 70
     0
  9
$DIMTIH
 70
     1
  9
$DIMTOH
 70
     1
  9
$DIMSE1
 70
     0
  9
$DIMSE2
 70
     0
  9
$DIMTAD
 70
     0
  9
$DIMZIN
 70
     1
  9
$DIMBLK
  1

  9
$DIMASO
 70
     1
  9
$DIMSHO
 70
     1
  9
$DIMPOST
  1

  9
$DIMAPOST
  1

  9
$DIMALT
 70
     0
  9
$DIMALTD
 70
     3
  9
$DIMALTF
 40
0.0393700787
  9
$DIMLFAC
 40
1.0
  9
$DIMTOFL
 70
     1
  9
$DIMTVP
 40
0.0
  9
$DIMTIX
 70
     0
  9
$DIMSOXD
 70
     0
  9
$DIMSAH
 70
     0
  9
$DIMBLK1
  1

  9
$DIMBLK2
  1

  9
$DIMSTYLE
  2
ISO-25
  9
$DIMCLRD
 70
     0
  9
$DIMCLRE
 70
     0
  9
$DIMCLRT
 70
     0
  9
$DIMTFAC
 40
1.0
  9
$DIMGAP
 40
2.54
  9
$DIMJUST
 70
     0
  9
$DIMSD1
 70
     0
  9
$DIMSD2
 70
     0
  9
$DIMTOLJ
 70
     0
  9
$DIMTZIN
 70
     1
  9
$DIMALTZ
 70
     0
  9
$DIMALTTZ
 70
     0
  9
$DIMFIT
 70
     3
  9
$DIMUPT
 70
     0
  9
$DIMUNIT
 70
     2
  9
$DIMDEC
 70
     1
  9
$DIMTDEC
 70
     1
  9
$DIMALTU
 70
     2
  9
$DIMALTTD
 70
     3
  9
$DIMTXSTY
  7
STANDARD
  9
$DIMAUNIT
 70
     0
  9
$LUNITS
 70
     2
  9
$LUPREC
 70
     1
  9
$SKETCHINC
 40
1.0
  9
$FILLETRAD
 40
10.0
  9
$AUNITS
 70
     0
  9
$AUPREC
 70
     0
  9
$MENU
  1
.
  9
$ELEVATION
 40
0.0
  9
$PELEVATION
 40
0.0
  9
$THICKNESS
 40
0.0
  9
$LIMCHECK
 70
     0
  9
$CHAMFERA
 40
0.0
  9
$CHAMFERB
 40
0.0
  9
$CHAMFERC
 40
0.0
  9
$CHAMFERD
 40
0.0
  9
$SKPOLY
 70
     0
  9
$TDCREATE
 40
2457780.441212407
  9
$TDUPDATE
 40
2457780.441258565
  9
$TDINDWG
 40
0.0000000116
  9
$TDUSRTIMER
 40
0.0000000116
  9
$USRTIMER
 70
     1
  9
$ANGBASE
 50
0.0
  9
$ANGDIR
 70
     0
  9
$PDMODE
 70
     0
  9
$PDSIZE
 40
-1.0
  9
$PLINEWID
 40
0.0
  9
$COORDS
 70
     1
  9
$SPLFRAME
 70
     0
  9
$SPLINETYPE
 70
     6
  9
$SPLINESEGS
 70
     8
  9
$ATTDIA
 70
     0
  9
$ATTREQ
 70
     1
  9
$HANDLING
 70
     1
  9
$HANDSEED
  5
4B4
  9
$SURFTAB1
 70
     6
  9
$SURFTAB2
 70
     6
  9
$SURFTYPE
 70
     6
  9
$SURFU
 70
     6
  9
$SURFV
 70
     6
  9
$UCSNAME
  2

  9
$UCSORG
 10
0.0
 20
0.0
 30
0.0
  9
$UCSXDIR
 10
1.0
 20
0.0
 30
0.0
  9
$UCSYDIR
 10
0.0
 20
1.0
 30
0.0
  9
$PUCSNAME
  2

  9
$PUCSORG
 10
0.0
 20
0.0
 30
0.0
  9
$PUCSXDIR
 10
1.0
 20
0.0
 30
0.0
  9
$PUCSYDIR
 10
0.0
 20
1.0
 30
0.0
  9
$USERI1
 70
     0
  9
$USERI2
 70
     0
  9
$USERI3
 70
     0
  9
$USERI4
 70
     0
  9
$USERI5
 70
     0
  9
$USERR1
 40
0.0
  9
$USERR2
 40
0.0
  9
$USERR3
 40
0.0
  9
$USERR4
 40
0.0
  9
$USERR5
 40
0.0
  9
$WORLDVIEW
 70
     1
  9
$SHADEDGE
 70
     3
  9
$SHADEDIF
 70
    70
  9
$TILEMODE
 70
     1
  9
$MAXACTVP
 70
    64
  9
$PINSBASE
 10
0.0
 20
0.0
 30
0.0
  9
$PLIMCHECK
 70
     0
  9
$PEXTMIN
 10
1.0000000000E+20
 20
1.0000000000E+20
 30
1.0000000000E+20
  9
$PEXTMAX
 10
-1.0000000000E+20
 20
-1.0000000000E+20
 30
-1.0000000000E+20
  9
$PLIMMIN
 10
0.0
 20
0.0
  9
$PLIMMAX
 10
420.0
 20
297.0
  9
$UNITMODE
 70
     0
  9
$VISRETAIN
 70
     1
  9
$PLINEGEN
 70
     0
  9
$PSLTSCALE
 70
     1
  9
$TREEDEPTH
 70
  3020
  9
$PICKSTYLE
 70
     1
  9
$CMLSTYLE
  2
STANDARD
  9
$CMLJUST
 70
     0
  9
$CMLSCALE
 40
20.0
  9
$PROXYGRAPHICS
 70
     1
  9
$MEASUREMENT
 70
     1
  0
ENDSEC
  0
SECTION
  2
CLASSES
  0
CLASS
  1
ACDBDICTIONARYWDFLT
  2
AcDbDictionaryWithDefault
  3
ObjectDBX Classes
 90
        0
280
     0
281
     0
  0
CLASS
  1
VISUALSTYLE
  2
AcDbVisualStyle
  3
ObjectDBX Classes
 90
     4095
280
     0
281
     0
  0
CLASS
  1
MATERIAL
  2
AcDbMaterial
  3
ObjectDBX Classes
 90
     1153
280
     0
281
     0
  0
CLASS
  1
SCALE
  2
AcDbScale
  3
ObjectDBX Classes
 90
     1153
280
     0
281
     0
  0
CLASS
  1
SUN
  2
AcDbSun
  3
SCENEOE
 90
     1153
280
     0
281
     0
  0
CLASS
  1
XRECORD
  2
AcDbXrecord
  3
ObjectDBX Classes
 90
        0
280
     0
281
     0
  0
CLASS
  1
LWPOLYLINE
  2
AcDbPolyline
  3
ObjectDBX Classes
 90
        0
280
     0
281
     1
  0
CLASS
  1
HATCH
  2
AcDbHatch
  3
ObjectDBX Classes
 90
        0
280
     0
281
     1
  0
ENDSEC
  0
SECTION
  2
TABLES
  0
TABLE
  2
VPORT
  5
8
330
0
100
AcDbSymbolTable
 70
     1
  0
VPORT
  5
29
330
8
100
AcDbSymbolTableRecord
100
AcDbViewportTableRecord
  2
*ACTIVE
 70
     0
 10
0.0
 20
0.0
 11
1.0
 21
1.0
 12
139.7
 22
107.95
 13
0.0
 23
0.0
 14
10.0
 24
10.0
 15
10.0
 25
10.0
 16
0.0
 26
0.0
 36
1.0
 17
0.0
 27
0.0
 37
0.0
 40
215.9
 41
1.2941176471
 42
50.0
 43
0.0
 44
0.0
 50
0.0
 51
0.0
 71
     0
 72
  2000
 73
     1
 74
     3
 75
     0
 76
     0
 77
     0
 78
     0
  0
ENDTAB
  0
TABLE
  2
LTYPE
  5
5
330
0
100
AcDbSymbolTable
 70
     6
  0
LTYPE
  5
14
330
5
100
AcDbSymbolTableRecord
100
AcDbLinetypeTableRecord
  2
BYBLOCK
 70
     0
  3

 72
    65
 73
     0
 40
0.0
  0
LTYPE
  5
15
330
5
100
AcDbSymbolTableRecord
100
AcDbLinetypeTableRecord
  2
BYLAYER
 70
     0
  3

 72
    65
 73
     0
 40
0.0
  0
LTYPE
  5
16
330
5
100
AcDbSymbolTableRecord
100
AcDbLinetypeTableRecord
  2
CONTINUOUS
 70
     0
  3
Solid line
 72
    65
 73
     0
 40
0.0
  0
LTYPE
  5
6A
330
5
100
AcDbSymbolTableRecord
100
AcDbLinetypeTableRecord
  2
HIDDEN
 70
     0
  3
Hidden __ __ __ __ __ __ __ __ __ __ __ __ __ __
 72
    65
 73
     2
 40
1.905
 49
1.27
 74
     0
 49
-0.635
 74
     0
  0
LTYPE
  5
6B
330
5
100
AcDbSymbolTableRecord
100
AcDbLinetypeTableRecord
  2
PHANTOM
 70
     0
  3
Phantom ______  __  __  ______  __  __  ______
 72
    65
 73
     6
 40
12.7
 49
6.35
 74
     0
 49
-1.27
 74
     0
 49
1.27
 74
     0
 49
-1.27
 74
     0
 49
1.27
 74
     0
 49
-1.27
 74
     0
  0
LTYPE
  5
6C
330
5
100
AcDbSymbolTableRecord
100
AcDbLinetypeTableRecord
  2
CENTER
 70
     0
  3
Center ____ _ ____ _ ____ _ ____ _ ____ _ ____
 72
    65
 73
     4
 40
10.16
 49
6.35
 74
     0
 49
-1.27
 74
     0
 49
1.27
 74
     0
 49
-1.27
 74
     0
  0
LTYPE
  5
6D
330
5
100
AcDbSymbolTableRecord
100
AcDbLinetypeTableRecord
  2
CENTERX2
 70
     0
  3
Center (2x) ________  __  ________  __  _____
 72
    65
 73
     4
 40
20.32
 49
12.7
 74
     0
 49
-2.54
 74
     0
 49
2.54
 74
     0
 49
-2.54
 74
     0
  0
LTYPE
  5
6E
330
5
100
AcDbSymbolTableRecord
100
AcDbLinetypeTableRecord
  2
DOT2
 70
     0
  3
Dot (.5x) ........................................
 72
    65
 73
     2
 40
0.635
 49
0.0
 74
     0
 49
-0.635
 74
     0
  0
ENDTAB
  0
TABLE
  2
LAYER
  5
2
330
0
100
AcDbSymbolTable
 70
     2
  0
LAYER
  5
10
330
2
100
AcDbSymbolTableRecord
100
AcDbLayerTableRecord
  2
0
 70
     0
 62
     7
  6
CONTINUOUS
  0
LAYER
  5
6F
330
2
100
AcDbSymbolTableRecord
100
AcDbLayerTableRecord
  2
FORMAT
 70
     0
 62
     7
  6
CONTINUOUS
  0
ENDTAB
  0
TABLE
  2
STYLE
  5
3
330
0
100
AcDbSymbolTable
 70
     4
  0
STYLE
  5
11
330
3
100
AcDbSymbolTableRecord
100
AcDbTextStyleTableRecord
  2
STANDARD
 70
     0
 40
0.0
 41
1.0
 50
0.0
 71
     0
 42
2.8222222222
  3
txt
  4

  0
STYLE
  5
96
330
3
100
AcDbSymbolTableRecord
100
AcDbTextStyleTableRecord
  2
SLDTEXTSTYLE0
 70
     0
 40
0.0
 41
0.75
 50
0.0
 71
     0
 42
2.8222222222
  3
TXT
  4

  0
STYLE
  5
A1
330
3
100
AcDbSymbolTableRecord
100
AcDbTextStyleTableRecord
  2
SLDTEXTSTYLE1
 70
     0
 40
0.0
 41
0.6
 50
0.0
 71
     0
 42
2.8222222222
  3
TXT
  4

  0
STYLE
  5
149
330
3
100
AcDbSymbolTableRecord
100
AcDbTextStyleTableRecord
  2
SLDTEXTSTYLE2
 70
     0
 40
0.0
 41
0.6964285714
 50
0.0
 71
     0
 42
2.8222222222
  3
TXT
  4

  0
ENDTAB
  0
TABLE
  2
VIEW
  5
6
330
0
100
AcDbSymbolTable
 70
     0
  0
ENDTAB
  0
TABLE
  2
UCS
  5
7
330
0
100
AcDbSymbolTable
 70
     0
  0
ENDTAB
  0
TABLE
  2
APPID
  5
9
330
0
100
AcDbSymbolTable
 70
     1
  0
APPID
  5
12
330
9
100
AcDbSymbolTableRecord
100
AcDbRegAppTableRecord
  2
ACAD
 70
     0
  0
ENDTAB
  0
TABLE
  2
DIMSTYLE
  5
A
330
0
100
AcDbSymbolTable
 70
     5
  0
DIMSTYLE
105
27
330
A
100
AcDbSymbolTableRecord
100
AcDbDimStyleTableRecord
  2
ISO-25
 70
     0
  3

  4

  5

  6

  7

 40
1.0
 41
2.5
 42
0.625
 43
3.75
 44
1.25
 45
0.0
 46
0.0
 47
0.0
 48
0.0
140
2.5
141
2.5
142
0.0
143
0.0393700787
144
1.0
145
0.0
146
1.0
147
0.625
 71
     0
 72
     0
 73
     0
 74
     0
 75
     0
 76
     0
 77
     1
 78
     8
170
     0
171
     3
172
     1
173
     0
174
     0
175
     0
176
     0
177
     0
178
     0
270
     2
271
     2
272
     2
273
     2
274
     3
340
11
275
     0
280
     0
281
     0
282
     0
283
     0
284
     8
285
     0
286
     0
287
     3
288
     0
  0
DIMSTYLE
105
102
102
{ACAD_REACTORS
330
101
330
116
102
}
330
A
100
AcDbSymbolTableRecord
100
AcDbDimStyleTableRecord
  2
SLDDIMSTYLE0
 70
     0
  3

  4

  5

  6

  7

 40
1.0
 41
3.175
 42
0.0625
 43
0.38
 44
0.0
 45
0.000000001
 46
0.0
 47
0.0
 48
0.0
140
2.1166666667
141
0.09
142
0.0
143
0.0393700787
144
1.0
145
0.0
146
1.0
147
0.5291666667
 71
     0
 72
     0
 73
     1
 74
     1
 75
     0
 76
     0
 77
     0
 78
    12
170
     1
171
     2
172
     1
173
     1
174
     0
175
     0
176
     0
177
     0
178
     0
270
     2
271
     1
272
     1
273
     2
274
     2
340
96
275
     0
280
     0
281
     0
282
     0
283
     1
284
    12
285
     0
286
     0
288
     0
  0
DIMSTYLE
105
12B
102
{ACAD_REACTORS
330
12A
330
1BD
330
1D1
330
1E5
330
1F9
330
222
330
236
330
32E
330
342
102
}
330
A
100
AcDbSymbolTableRecord
100
AcDbDimStyleTableRecord
  2
SLDDIMSTYLE1
 70
     0
  3

  4

  5

  6

  7

 40
1.0
 41
3.175
 42
0.0625
 43
0.38
 44
0.0
 45
0.000000001
 46
0.0
 47
0.0
 48
0.0
140
2.1166666667
141
0.09
142
0.0
143
0.0393700787
144
1.0
145
0.0
146
1.0
147
0.5291666667
 71
     0
 72
     0
 73
     1
 74
     1
 75
     0
 76
     0
 77
     0
 78
    12
170
     1
171
     2
172
     0
173
     1
174
     0
175
     0
176
     0
177
     0
178
     0
270
     2
271
     1
272
     1
273
     2
274
     2
340
96
275
     0
280
     0
281
     0
282
     0
283
     1
284
    12
285
     0
286
     0
287
     3
288
     0
  0
DIMSTYLE
105
140
330
A
100
AcDbSymbolTableRecord
100
AcDbDimStyleTableRecord
  2
SLDDIMSTYLE2
 70
     0
  3

  4

  5

  6

  7

 40
1.0
 41
3.175
 42
0.0625
 43
0.38
 44
0.0
 45
0.000000001
 46
0.0
 47
0.0
 48
0.0
140
0.18
141
0.09
142
0.0
143
25.4
144
1.0
145
0.0
146
3.175
147
0.0
 71
     0
 72
     0
 73
     1
 74
     1
 75
     0
 76
     0
 77
     0
 78
     0
170
     0
171
     2
172
     0
173
     1
174
     0
175
     0
176
     0
177
     0
178
     0
270
     2
271
     0
272
     0
273
     2
274
     2
340
11
275
     0
280
     0
281
     0
282
     0
283
     1
284
     0
285
     0
286
     0
287
     3
288
     0
  0
DIMSTYLE
105
20E
102
{ACAD_REACTORS
330
20D
102
}
330
A
100
AcDbSymbolTableRecord
100
AcDbDimStyleTableRecord
  2
SLDDIMSTYLE3
 70
     0
  3

  4

  5

  6

  7

 40
1.0
 41
3.175
 42
0.0625
 43
0.38
 44
0.0
 45
0.000000001
 46
0.0
 47
0.0
 48
0.0
140
2.1166666667
141
0.09
142
0.0
143
0.0393700787
144
1.0
145
0.0
146
1.0
147
0.5291666667
 71
     0
 72
     0
 73
     1
 74
     1
 75
     0
 76
     0
 77
     0
 78
     4
170
     1
171
     2
172
     0
173
     1
174
     0
175
     0
176
     0
177
     0
178
     0
270
     2
271
     1
272
     1
273
     2
274
     2
340
96
275
     0
280
     0
281
     0
282
     0
283
     1
284
    12
285
     0
286
     0
287
     3
288
     0
  0
ENDTAB
  0
TABLE
  2
BLOCK_RECORD
  5
1
330
0
100
AcDbSymbolTable
 70
    19
  0
BLOCK_RECORD
  5
1F
330
1
100
AcDbSymbolTableRecord
100
AcDbBlockTableRecord
  2
*MODEL_SPACE
  0
BLOCK_RECORD
  5
1B
330
1
100
AcDbSymbolTableRecord
100
AcDbBlockTableRecord
  2
*PAPER_SPACE
  0
BLOCK_RECORD
  5
23
330
1
100
AcDbSymbolTableRecord
100
AcDbBlockTableRecord
  2
*PAPER_SPACE0
  0
BLOCK_RECORD
  5
70
330
1
100
AcDbSymbolTableRecord
100
AcDbBlockTableRecord
  2
THIRD_ANGLE_PROJECTION_BLO
  0
BLOCK_RECORD
  5
A6
330
1
100
AcDbSymbolTableRecord
100
AcDbBlockTableRecord
  2
SW_NOTE_0
  0
BLOCK_RECORD
  5
AC
330
1
100
AcDbSymbolTableRecord
100
AcDbBlockTableRecord
  2
SW_NOTE_1
  0
BLOCK_RECORD
  5
B3
330
1
100
AcDbSymbolTableRecord
100
AcDbBlockTableRecord
  2
SW_NOTE_2
  0
BLOCK_RECORD
  5
103
330
1
100
AcDbSymbolTableRecord
100
AcDbBlockTableRecord
  2
_D
  0
BLOCK_RECORD
  5
117
330
1
100
AcDbSymbolTableRecord
100
AcDbBlockTableRecord
  2
_D_1
  0
BLOCK_RECORD
  5
12C
330
1
100
AcDbSymbolTableRecord
100
AcDbBlockTableRecord
  2
_D_2
  0
BLOCK_RECORD
  5
144
330
1
100
AcDbSymbolTableRecord
100
AcDbBlockTableRecord
  2
SW_NOTE_3
  0
BLOCK_RECORD
  5
1BE
330
1
100
AcDbSymbolTableRecord
100
AcDbBlockTableRecord
  2
_D_3
  0
BLOCK_RECORD
  5
1D2
330
1
100
AcDbSymbolTableRecord
100
AcDbBlockTableRecord
  2
_D_4
  0
BLOCK_RECORD
  5
1E6
330
1
100
AcDbSymbolTableRecord
100
AcDbBlockTableRecord
  2
_D_5
  0
BLOCK_RECORD
  5
1FA
330
1
100
AcDbSymbolTableRecord
100
AcDbBlockTableRecord
  2
_D_6
  0
BLOCK_RECORD
  5
20F
330
1
100
AcDbSymbolTableRecord
100
AcDbBlockTableRecord
  2
_D_7
  0
BLOCK_RECORD
  5
223
330
1
100
AcDbSymbolTableRecord
100
AcDbBlockTableRecord
  2
_D_8
  0
BLOCK_RECORD
  5
237
330
1
100
AcDbSymbolTableRecord
100
AcDbBlockTableRecord
  2
_D_9
  0
BLOCK_RECORD
  5
32F
330
1
100
AcDbSymbolTableRecord
100
AcDbBlockTableRecord
  2
_D_10
  0
BLOCK_RECORD
  5
343
330
1
100
AcDbSymbolTableRecord
100
AcDbBlockTableRecord
  2
_D_11
  0
BLOCK_RECORD
  5
356
330
1
100
AcDbSymbolTableRecord
100
AcDbBlockTableRecord
  2
SW_NOTE_4
  0
ENDTAB
  0
ENDSEC
  0
SECTION
  2
BLOCKS
  0
BLOCK
  5
20
330
1F
100
AcDbEntity
  8
0
100
AcDbBlockBegin
  2
*MODEL_SPACE
 70
     0
 10
0.0
 20
0.0
 30
0.0
  3
*MODEL_SPACE
  1

  0
ENDBLK
  5
21
330
1F
100
AcDbEntity
  8
0
100
AcDbBlockEnd
  0
BLOCK
  5
1C
330
1B
100
AcDbEntity
 67
     1
  8
0
100
AcDbBlockBegin
  2
*PAPER_SPACE
 70
     0
 10
0.0
 20
0.0
 30
0.0
  3
*PAPER_SPACE
  1

  0
ENDBLK
  5
1D
330
1B
100
AcDbEntity
 67
     1
  8
0
100
AcDbBlockEnd
  0
BLOCK
  5
24
330
23
100
AcDbEntity
  8
0
100
AcDbBlockBegin
  2
*PAPER_SPACE0
 70
     0
 10
0.0
 20
0.0
 30
0.0
  3
*PAPER_SPACE0
  1
*PAPER_SPACE0
  0
ENDBLK
  5
25
330
23
100
AcDbEntity
  8
0
100
AcDbBlockEnd
  0
BLOCK
  5
71
330
70
100
AcDbEntity
  8
0
100
AcDbBlockBegin
  2
THIRD_ANGLE_PROJECTION_BLO
 70
     0
 10
0.0
 20
0.0
 30
0.0
  3
THIRD_ANGLE_PROJECTION_BLO
  1
THIRD_ANGLE_PROJECTION_BLO
  0
CIRCLE
  5
73
330
70
100
AcDbEntity
  8
0
  6
CONTINUOUS
 62
     7
100
AcDbCircle
 10
101.4766388944
 20
18.9404083667
 30
0.0
 40
1.768227153674871
  0
CIRCLE
  5
74
330
70
100
AcDbEntity
  8
0
  6
CONTINUOUS
 62
     7
100
AcDbCircle
 10
101.4766388944
 20
18.9404083667
 30
0.0
 40
3.901228248531818
  0
LINE
  5
75
330
70
100
AcDbEntity
  8
0
  6
CENTERX2
 62
     7
100
AcDbLine
 10
110.1367822585
 20
18.9404083667
 30
0.0
 11
119.4527334874
 21
18.9404083667
 31
0.0
  0
LINE
  5
76
330
70
100
AcDbEntity
  8
0
  6
CONTINUOUS
 62
     7
100
AcDbLine
 10
111.0016388944
 20
20.7086355204
 30
0.0
 11
111.0016388944
 21
17.172181213
 31
0.0
  0
LINE
  5
77
330
70
100
AcDbEntity
  8
0
  6
CONTINUOUS
 62
     7
100
AcDbLine
 10
111.0016388944
 20
17.172181213
 30
0.0
 11
118.6216388944
 21
15.1304083667
 31
0.0
  0
LINE
  5
78
330
70
100
AcDbEntity
  8
0
  6
CONTINUOUS
 62
     7
100
AcDbLine
 10
118.6216388944
 20
15.1304083667
 30
0.0
 11
118.6216388944
 21
22.7504083667
 31
0.0
  0
LINE
  5
79
330
70
100
AcDbEntity
  8
0
  6
CONTINUOUS
 62
     7
100
AcDbLine
 10
118.6216388944
 20
22.7504083667
 30
0.0
 11
111.0016388944
 21
20.7086355204
 31
0.0
  0
LINE
  5
7A
330
70
100
AcDbEntity
  8
0
  6
CENTERX2
 62
     7
100
AcDbLine
 10
96.6025854619
 20
18.9404083667
 30
0.0
 11
106.3506923269
 21
18.9404083667
 31
0.0
  0
LINE
  5
7B
330
70
100
AcDbEntity
  8
0
  6
CENTERX2
 62
     7
100
AcDbLine
 10
101.4766388944
 20
23.8144617992
 30
0.0
 11
101.4766388944
 21
14.0663549342
 31
0.0
  0
POINT
  5
7C
330
70
100
AcDbEntity
  8
0
  6
CONTINUOUS
 62
     7
100
AcDbPoint
 10
101.4766388944
 20
18.9404083667
 30
0.0
  0
ENDBLK
  5
72
330
70
100
AcDbEntity
  8
0
100
AcDbBlockEnd
  0
BLOCK
  5
A7
330
A6
100
AcDbEntity
  8
0
100
AcDbBlockBegin
  2
SW_NOTE_0
 70
     0
 10
0.0
 20
0.0
 30
0.0
  3
SW_NOTE_0
  1
SW_NOTE_0
  0
MTEXT
  5
A9
330
A6
100
AcDbEntity
  8
0
  6
CONTINUOUS
 62
     0
100
AcDbMText
 10
19.90725
 20
1.9645392354
 30
0.0
 40
1.524
 41
0.0
 71
     2
 72
     1
  1
VALUES IN PARENTHESIS ARE CALCULATED
  7
SLDTEXTSTYLE0
  0
MTEXT
  5
AA
330
A6
100
AcDbEntity
  8
0
  6
CONTINUOUS
 62
     0
100
AcDbMText
 10
19.8778795174
 20
-0.5594606586
 30
0.0
 40
1.524
 41
0.0
 71
     2
 72
     1
  1
AND MAY CONTAIN ROUNDOFF ERRORS
  7
SLDTEXTSTYLE0
  0
ENDBLK
  5
A8
330
A6
100
AcDbEntity
  8
0
100
AcDbBlockEnd
  0
BLOCK
  5
AD
330
AC
100
AcDbEntity
  8
0
100
AcDbBlockBegin
  2
SW_NOTE_1
 70
     0
 10
0.0
 20
0.0
 30
0.0
  3
SW_NOTE_1
  1
SW_NOTE_1
  0
MTEXT
  5
AF
330
AC
100
AcDbEntity
  8
0
  6
CONTINUOUS
 62
     0
100
AcDbMText
 10
0.0
 20
2.7285267159
 30
0.0
 40
2.1166666667
 41
0.0
 71
     1
 72
     1
  1
DRAWING
  7
SLDTEXTSTYLE0
  0
MTEXT
  5
B0
330
AC
100
AcDbEntity
  8
0
  6
CONTINUOUS
 62
     0
100
AcDbMText
 10
0.0
 20
-0.0936954723
 30
0.0
 40
2.1166666667
 41
0.0
 71
     1
 72
     1
  1
PROJECTION
  7
SLDTEXTSTYLE0
  0
ENDBLK
  5
AE
330
AC
100
AcDbEntity
  8
0
100
AcDbBlockEnd
  0
BLOCK
  5
B4
330
B3
100
AcDbEntity
  8
0
100
AcDbBlockBegin
  2
SW_NOTE_2
 70
     0
 10
0.0
 20
0.0
 30
0.0
  3
SW_NOTE_2
  1
SW_NOTE_2
  0
MTEXT
  5
B6
330
B3
100
AcDbEntity
  8
0
  6
CONTINUOUS
 62
     0
100
AcDbMText
 10
25.052734375
 20
4.0927900738
 30
0.0
 40
3.175
 41
0.0
 71
     2
 72
     1
  1
FOR INFORMATION ONLY
  7
SLDTEXTSTYLE0
  0
MTEXT
  5
B7
330
B3
100
AcDbEntity
  8
0
  6
CONTINUOUS
 62
     0
100
AcDbMText
 10
25.3768468589
 20
-0.1405432084
 30
0.0
 40
3.175
 41
0.0
 71
     2
 72
     1
  1
NOT FOR MANUFACTURING PURPOSES
  7
SLDTEXTSTYLE0
  0
ENDBLK
  5
B5
330
B3
100
AcDbEntity
  8
0
100
AcDbBlockEnd
  0
BLOCK
  5
104
330
103
100
AcDbEntity
  8
0
100
AcDbBlockBegin
  2
_D
 70
     0
 10
0.0
 20
0.0
 30
0.0
  3
_D
  1
_D
  0
SOLID
  5
106
330
103
100
AcDbEntity
  8
0
  6
CONTINUOUS
 62
     7
100
AcDbTrace
 10
69.3334896803
 20
119.27743575
 30
0.0
 11
66.1584896803
 21
119.78543575
 31
0.0
 12
66.1584896803
 22
118.76943575
 32
0.0
 13
66.1584896803
 23
118.76943575
 33
0.0
  0
SOLID
  5
107
330
103
100
AcDbEntity
  8
0
  6
CONTINUOUS
 62
     7
100
AcDbTrace
 10
73.9334896803
 20
119.27743575
 30
0.0
 11
77.1084896803
 21
118.76943575
 31
0.0
 12
77.1084896803
 22
119.78543575
 32
0.0
 13
77.1084896803
 23
119.78543575
 33
0.0
  0
LINE
  5
108
330
103
100
AcDbEntity
  8
0
  6
CONTINUOUS
 62
     7
100
AcDbLine
 10
83.6998676709
 20
119.2774355172
 30
0.0
 11
83.2706547111
 21
119.2774355172
 31
0.0
  0
LINE
  5
109
330
103
100
AcDbEntity
  8
0
  6
CONTINUOUS
 62
     7
100
AcDbLine
 10
83.2706547111
 20
119.2774355172
 30
0.0
 11
83.2706547111
 21
115.9142874407
 31
0.0
  0
LINE
  5
10A
330
103
100
AcDbEntity
  8
0
  6
CONTINUOUS
 62
     7
100
AcDbLine
 10
83.2706547111
 20
115.9142874407
 30
0.0
 11
83.6998676709
 21
115.9142874407
 31
0.0
  0
LINE
  5
10B
330
103
100
AcDbEntity
  8
0
  6
CONTINUOUS
 62
     7
100
AcDbLine
 10
92.5300916601
 20
119.2774355172
 30
0.0
 11
92.9593046198
 21
119.2774355172
 31
0.0
  0
LINE
  5
10C
330
103
100
AcDbEntity
  8
0
  6
CONTINUOUS
 62
     7
100
AcDbLine
 10
92.9593046198
 20
119.2774355172
 30
0.0
 11
92.9593046198
 21
115.9142874407
 31
0.0
  0
LINE
  5
10D
330
103
100
AcDbEntity
  8
0
  6
CONTINUOUS
 62
     7
100
AcDbLine
 10
92.9593046198
 20
115.9142874407
 30
0.0
 11
92.5300916601
 21
115.9142874407
 31
0.0
  0
LINE
  5
10E
330
103
100
AcDbEntity
  8
0
  6
CONTINUOUS
 62
     7
100
AcDbLine
 10
69.3334896803
 20
88.6414219223
 30
0.0
 11
69.3334896803
 21
121.05543575
 31
0.0
  0
LINE
  5
10F
330
103
100
AcDbEntity
  8
0
  6
CONTINUOUS
 62
     7
100
AcDbLine
 10
73.9334896803
 20
100.2023723061
 30
0.0
 11
73.9334896803
 21
121.05543575
 31
0.0
  0
LINE
  5
110
330
103
100
AcDbEntity
  8
0
  6
CONTINUOUS
 62
     7
100
AcDbLine
 10
69.3334896803
 20
119.27743575
 30
0.0
 11
62.9834896803
 21
119.27743575
 31
0.0
  0
LINE
  5
111
330
103
100
AcDbEntity
  8
0
  6
CONTINUOUS
 62
     7
100
AcDbLine
 10
73.9334896803
 20
119.27743575
 30
0.0
 11
80.95920122
 21
119.27743575
 31
0.0
  0
MTEXT
  5
112
330
103
100
AcDbEntity
  8
0
  6
CONTINUOUS
 62
     7
100
AcDbMText
 10
82.9761832797
 20
122.4351751637
 30
0.0
 40
2.1166666667
 41
0.0
 71
     1
 72
     1
  1

  7
SLDTEXTSTYLE0
  0
MTEXT
  5
113
330
103
100
AcDbEntity
  8
0
  6
CONTINUOUS
 62
     7
100
AcDbMText
 10
83.5151492969
 20
122.4351751637
 30
0.0
 40
2.1166666667
 41
0.0
 71
     1
 72
     1
  1
4.6mm
  7
SLDTEXTSTYLE0
  0
MTEXT
  5
114
330
103
100
AcDbEntity
  8
0
  6
CONTINUOUS
 62
     7
100
AcDbMText
 10
84.2363838923
 20
118.6428140402
 30
0.0
 40
2.1166666667
 41
0.0
 71
     1
 72
     1
  1
0.18in
  7
SLDTEXTSTYLE0
  0
MTEXT
  5
115
330
103
100
AcDbEntity
  8
0
  6
CONTINUOUS
 62
     7
100
AcDbMText
 10
94.8687143468
 20
122.4351751637
 30
0.0
 40
2.1166666667
 41
0.0
 71
     1
 72
     1
  1

  7
SLDTEXTSTYLE0
  0
ENDBLK
  5
105
330
103
100
AcDbEntity
  8
0
100
AcDbBlockEnd
  0
BLOCK
  5
118
330
117
100
AcDbEntity
  8
0
100
AcDbBlockBegin
  2
_D_1
 70
     0
 10
0.0
 20
0.0
 30
0.0
  3
_D_1
  1
_D_1
  0
SOLID
  5
11A
330
117
100
AcDbEntity
  8
0
  6
CONTINUOUS
 62
     7
100
AcDbTrace
 10
52.8514896803
 20
131.3956364509
 30
0.0
 11
49.6764896803
 21
131.9036364509
 31
0.0
 12
49.6764896803
 22
130.8876364509
 32
0.0
 13
49.6764896803
 23
130.8876364509
 33
0.0
  0
SOLID
  5
11B
330
117
100
AcDbEntity
  8
0
  6
CONTINUOUS
 62
     7
100
AcDbTrace
 10
73.9334896803
 20
131.3956364509
 30
0.0
 11
77.1084896803
 21
130.8876364509
 31
0.0
 12
77.1084896803
 22
131.9036364509
 32
0.0
 13
77.1084896803
 23
131.9036364509
 33
0.0
  0
LINE
  5
11C
330
117
100
AcDbEntity
  8
0
  6
CONTINUOUS
 62
     7
100
AcDbLine
 10
58.9773779185
 20
131.3956362181
 30
0.0
 11
58.5481649588
 21
131.3956362181
 31
0.0
  0
LINE
  5
11D
330
117
100
AcDbEntity
  8
0
  6
CONTINUOUS
 62
     7
100
AcDbLine
 10
58.5481649588
 20
131.3956362181
 30
0.0
 11
58.5481649588
 21
128.0324881416
 31
0.0
  0
LINE
  5
11E
330
117
100
AcDbEntity
  8
0
  6
CONTINUOUS
 62
     7
100
AcDbLine
 10
58.5481649588
 20
128.0324881416
 30
0.0
 11
58.9773779185
 21
128.0324881416
 31
0.0
  0
LINE
  5
11F
330
117
100
AcDbEntity
  8
0
  6
CONTINUOUS
 62
     7
100
AcDbLine
 10
67.8076019077
 20
131.3956362181
 30
0.0
 11
68.2368148674
 21
131.3956362181
 31
0.0
  0
LINE
  5
120
330
117
100
AcDbEntity
  8
0
  6
CONTINUOUS
 62
     7
100
AcDbLine
 10
68.2368148674
 20
131.3956362181
 30
0.0
 11
68.2368148674
 21
128.0324881416
 31
0.0
  0
LINE
  5
121
330
117
100
AcDbEntity
  8
0
  6
CONTINUOUS
 62
     7
100
AcDbLine
 10
68.2368148674
 20
128.0324881416
 30
0.0
 11
67.8076019077
 21
128.0324881416
 31
0.0
  0
LINE
  5
122
330
117
100
AcDbEntity
  8
0
  6
CONTINUOUS
 62
     7
100
AcDbLine
 10
52.8514896803
 20
105.4728723061
 30
0.0
 11
52.8514896803
 21
133.1736364509
 31
0.0
  0
LINE
  5
123
330
117
100
AcDbEntity
  8
0
  6
CONTINUOUS
 62
     7
100
AcDbLine
 10
73.9334896803
 20
100.2023723061
 30
0.0
 11
73.9334896803
 21
133.1736364509
 31
0.0
  0
LINE
  5
124
330
117
100
AcDbEntity
  8
0
  6
CONTINUOUS
 62
     7
100
AcDbLine
 10
52.8514896803
 20
131.3956364509
 30
0.0
 11
46.5014896803
 21
131.3956364509
 31
0.0
  0
LINE
  5
125
330
117
100
AcDbEntity
  8
0
  6
CONTINUOUS
 62
     7
100
AcDbLine
 10
73.9334896803
 20
131.3956364509
 30
0.0
 11
80.2834896803
 21
131.3956364509
 31
0.0
  0
MTEXT
  5
126
330
117
100
AcDbEntity
  8
0
  6
CONTINUOUS
 62
     7
100
AcDbMText
 10
58.0381067868
 20
134.5533758645
 30
0.0
 40
2.1166666667
 41
0.0
 71
     1
 72
     1
  1

  7
SLDTEXTSTYLE0
  0
MTEXT
  5
127
330
117
100
AcDbEntity
  8
0
  6
CONTINUOUS
 62
     7
100
AcDbMText
 10
58.0106684912
 20
134.5533758645
 30
0.0
 40
2.1166666667
 41
0.0
 71
     1
 72
     1
  1
21.1mm
  7
SLDTEXTSTYLE0
  0
MTEXT
  5
128
330
117
100
AcDbEntity
  8
0
  6
CONTINUOUS
 62
     7
100
AcDbMText
 10
59.51389414
 20
130.7610147411
 30
0.0
 40
2.1166666667
 41
0.0
 71
     1
 72
     1
  1
0.83in
  7
SLDTEXTSTYLE0
  0
MTEXT
  5
129
330
117
100
AcDbEntity
  8
0
  6
CONTINUOUS
 62
     7
100
AcDbMText
 10
70.3618104037
 20
134.5533758645
 30
0.0
 40
2.1166666667
 41
0.0
 71
     1
 72
     1
  1

  7
SLDTEXTSTYLE0
  0
ENDBLK
  5
119
330
117
100
AcDbEntity
  8
0
100
AcDbBlockEnd
  0
BLOCK
  5
12D
330
12C
100
AcDbEntity
  8
0
100
AcDbBlockBegin
  2
_D_2
 70
     0
 10
0.0
 20
0.0
 30
0.0
  3
_D_2
  1
_D_2
  0
SOLID
  5
12F
330
12C
100
AcDbEntity
  8
0
  6
CONTINUOUS
 62
     7
100
AcDbTrace
 10
61.2334896803
 20
45.8849361777
 30
0.0
 11
64.4084896803
 21
45.3769361777
 31
0.0
 12
64.4084896803
 22
46.3929361777
 32
0.0
 13
64.4084896803
 23
46.3929361777
 33
0.0
  0
SOLID
  5
130
330
12C
100
AcDbEntity
  8
0
  6
CONTINUOUS
 62
     7
100
AcDbTrace
 10
73.9334896803
 20
45.8849361777
 30
0.0
 11
70.7584896803
 21
46.3929361777
 31
0.0
 12
70.7584896803
 22
45.3769361777
 32
0.0
 13
70.7584896803
 23
45.3769361777
 33
0.0
  0
LINE
  5
131
330
12C
100
AcDbEntity
  8
0
  6
CONTINUOUS
 62
     7
100
AcDbLine
 10
44.2895004633
 20
45.8849359449
 30
0.0
 11
43.8602875036
 21
45.8849359449
 31
0.0
  0
LINE
  5
132
330
12C
100
AcDbEntity
  8
0
  6
CONTINUOUS
 62
     7
100
AcDbLine
 10
43.8602875036
 20
45.8849359449
 30
0.0
 11
43.8602875036
 21
42.5217878685
 31
0.0
  0
LINE
  5
133
330
12C
100
AcDbEntity
  8
0
  6
CONTINUOUS
 62
     7
100
AcDbLine
 10
43.8602875036
 20
42.5217878685
 30
0.0
 11
44.2895004633
 21
42.5217878685
 31
0.0
  0
LINE
  5
134
330
12C
100
AcDbEntity
  8
0
  6
CONTINUOUS
 62
     7
100
AcDbLine
 10
53.1197244525
 20
45.8849359449
 30
0.0
 11
53.5489374122
 21
45.8849359449
 31
0.0
  0
LINE
  5
135
330
12C
100
AcDbEntity
  8
0
  6
CONTINUOUS
 62
     7
100
AcDbLine
 10
53.5489374122
 20
45.8849359449
 30
0.0
 11
53.5489374122
 21
42.5217878685
 31
0.0
  0
LINE
  5
136
330
12C
100
AcDbEntity
  8
0
  6
CONTINUOUS
 62
     7
100
AcDbLine
 10
53.5489374122
 20
42.5217878685
 30
0.0
 11
53.1197244525
 21
42.5217878685
 31
0.0
  0
LINE
  5
137
330
12C
100
AcDbEntity
  8
0
  6
CONTINUOUS
 62
     7
100
AcDbLine
 10
61.2334896803
 20
56.1078723061
 30
0.0
 11
61.2334896803
 21
44.1069361777
 31
0.0
  0
LINE
  5
138
330
12C
100
AcDbEntity
  8
0
  6
CONTINUOUS
 62
     7
100
AcDbLine
 10
73.9334896803
 20
71.3733723061
 30
0.0
 11
73.9334896803
 21
44.1069361777
 31
0.0
  0
LINE
  5
139
330
12C
100
AcDbEntity
  8
0
  6
CONTINUOUS
 62
     7
100
AcDbLine
 10
61.2334896803
 20
45.8849361777
 30
0.0
 11
56.0759771783
 21
45.8849361777
 31
0.0
  0
LINE
  5
13A
330
12C
100
AcDbEntity
  8
0
  6
CONTINUOUS
 62
     7
100
AcDbLine
 10
73.9334896803
 20
45.8849361777
 30
0.0
 11
61.2334896803
 21
45.8849361777
 31
0.0
  0
MTEXT
  5
13B
330
12C
100
AcDbEntity
  8
0
  6
CONTINUOUS
 62
     7
100
AcDbMText
 10
43.3502293316
 20
49.0426755914
 30
0.0
 40
2.1166666667
 41
0.0
 71
     1
 72
     1
  1

  7
SLDTEXTSTYLE0
  0
MTEXT
  5
13C
330
12C
100
AcDbEntity
  8
0
  6
CONTINUOUS
 62
     7
100
AcDbMText
 10
43.322791036
 20
49.0426755914
 30
0.0
 40
2.1166666667
 41
0.0
 71
     1
 72
     1
  1
12.7mm
  7
SLDTEXTSTYLE0
  0
MTEXT
  5
13D
330
12C
100
AcDbEntity
  8
0
  6
CONTINUOUS
 62
     7
100
AcDbMText
 10
44.8260166848
 20
45.2503144679
 30
0.0
 40
2.1166666667
 41
0.0
 71
     1
 72
     1
  1
0.50in
  7
SLDTEXTSTYLE0
  0
MTEXT
  5
13E
330
12C
100
AcDbEntity
  8
0
  6
CONTINUOUS
 62
     7
100
AcDbMText
 10
55.6739329485
 20
49.0426755914
 30
0.0
 40
2.1166666667
 41
0.0
 71
     1
 72
     1
  1

  7
SLDTEXTSTYLE0
  0
ENDBLK
  5
12E
330
12C
100
AcDbEntity
  8
0
100
AcDbBlockEnd
  0
BLOCK
  5
145
330
144
100
AcDbEntity
  8
0
100
AcDbBlockBegin
  2
SW_NOTE_3
 70
     0
 10
0.0
 20
0.0
 30
0.0
  3
SW_NOTE_3
  1
SW_NOTE_3
  0
MTEXT
  5
147
330
144
100
AcDbEntity
  8
0
  6
CONTINUOUS
 62
     0
100
AcDbMText
 10
-0.6883483926
 20
3.8993853335
 30
0.0
 40
2.1166666667
 41
0.0
 71
     3
 72
     1
  1
POWER SUPPLY CONNECTION
  7
SLDTEXTSTYLE0
  0
MTEXT
  5
148
330
144
100
AcDbEntity
  8
0
  6
CONTINUOUS
 62
     0
100
AcDbMText
 10
-22.5558653036
 20
1.0771631453
 30
0.0
 40
2.1166666667
 41
0.0
 71
     3
 72
     1
  1
%%p
  7
SLDTEXTSTYLE0
  0
MTEXT
  5
14A
330
144
100
AcDbEntity
  8
0
  6
CONTINUOUS
 62
     0
100
AcDbMText
 10
-1.0249555313
 20
1.0771631453
 30
0.0
 40
2.1166666667
 41
0.0
 71
     3
 72
     1
  1
12 VDC, 200 mA
  7
SLDTEXTSTYLE2
  0
ENDBLK
  5
146
330
144
100
AcDbEntity
  8
0
100
AcDbBlockEnd
  0
BLOCK
  5
1BF
330
1BE
100
AcDbEntity
  8
0
100
AcDbBlockBegin
  2
_D_3
 70
     0
 10
0.0
 20
0.0
 30
0.0
  3
_D_3
  1
_D_3
  0
SOLID
  5
1C1
330
1BE
100
AcDbEntity
  8
0
  6
CONTINUOUS
 62
     7
100
AcDbTrace
 10
145.8651716978
 20
135.3778723061
 30
0.0
 11
149.0401716978
 21
134.8698723061
 31
0.0
 12
149.0401716978
 22
135.8858723061
 32
0.0
 13
149.0401716978
 23
135.8858723061
 33
0.0
  0
SOLID
  5
1C2
330
1BE
100
AcDbEntity
  8
0
  6
CONTINUOUS
 62
     7
100
AcDbTrace
 10
216.0551716978
 20
135.3778723061
 30
0.0
 11
212.8801716978
 21
135.8858723061
 31
0.0
 12
212.8801716978
 22
134.8698723061
 32
0.0
 13
212.8801716978
 23
134.8698723061
 33
0.0
  0
LINE
  5
1C3
330
1BE
100
AcDbEntity
  8
0
  6
CONTINUOUS
 62
     7
100
AcDbLine
 10
176.545059936
 20
135.3778720733
 30
0.0
 11
176.1158469763
 21
135.3778720733
 31
0.0
  0
LINE
  5
1C4
330
1BE
100
AcDbEntity
  8
0
  6
CONTINUOUS
 62
     7
100
AcDbLine
 10
176.1158469763
 20
135.3778720733
 30
0.0
 11
176.1158469763
 21
132.0147239968
 31
0.0
  0
LINE
  5
1C5
330
1BE
100
AcDbEntity
  8
0
  6
CONTINUOUS
 62
     7
100
AcDbLine
 10
176.1158469763
 20
132.0147239968
 30
0.0
 11
176.545059936
 21
132.0147239968
 31
0.0
  0
LINE
  5
1C6
330
1BE
100
AcDbEntity
  8
0
  6
CONTINUOUS
 62
     7
100
AcDbLine
 10
185.3752839252
 20
135.3778720733
 30
0.0
 11
185.8044968849
 21
135.3778720733
 31
0.0
  0
LINE
  5
1C7
330
1BE
100
AcDbEntity
  8
0
  6
CONTINUOUS
 62
     7
100
AcDbLine
 10
185.8044968849
 20
135.3778720733
 30
0.0
 11
185.8044968849
 21
132.0147239968
 31
0.0
  0
LINE
  5
1C8
330
1BE
100
AcDbEntity
  8
0
  6
CONTINUOUS
 62
     7
100
AcDbLine
 10
185.8044968849
 20
132.0147239968
 30
0.0
 11
185.3752839252
 21
132.0147239968
 31
0.0
  0
LINE
  5
1C9
330
1BE
100
AcDbEntity
  8
0
  6
CONTINUOUS
 62
     7
100
AcDbLine
 10
145.8651716978
 20
86.8013906289
 30
0.0
 11
145.8651716978
 21
137.1558723061
 31
0.0
  0
LINE
  5
1CA
330
1BE
100
AcDbEntity
  8
0
  6
CONTINUOUS
 62
     7
100
AcDbLine
 10
216.0551716978
 20
88.7850723061
 30
0.0
 11
216.0551716978
 21
137.1558723061
 31
0.0
  0
LINE
  5
1CB
330
1BE
100
AcDbEntity
  8
0
  6
CONTINUOUS
 62
     7
100
AcDbLine
 10
145.8651716978
 20
135.3778723061
 30
0.0
 11
173.5888067446
 21
135.3778723061
 31
0.0
  0
LINE
  5
1CC
330
1BE
100
AcDbEntity
  8
0
  6
CONTINUOUS
 62
     7
100
AcDbLine
 10
216.0551716978
 20
135.3778723061
 30
0.0
 11
188.331536651
 21
135.3778723061
 31
0.0
  0
MTEXT
  5
1CD
330
1BE
100
AcDbEntity
  8
0
  6
CONTINUOUS
 62
     7
100
AcDbMText
 10
175.6057888044
 20
138.5356117197
 30
0.0
 40
2.1166666667
 41
0.0
 71
     1
 72
     1
  1

  7
SLDTEXTSTYLE0
  0
MTEXT
  5
1CE
330
1BE
100
AcDbEntity
  8
0
  6
CONTINUOUS
 62
     7
100
AcDbMText
 10
175.5783505087
 20
138.5356117197
 30
0.0
 40
2.1166666667
 41
0.0
 71
     1
 72
     1
  1
70.2mm
  7
SLDTEXTSTYLE0
  0
MTEXT
  5
1CF
330
1BE
100
AcDbEntity
  8
0
  6
CONTINUOUS
 62
     7
100
AcDbMText
 10
177.0815761575
 20
134.7432505962
 30
0.0
 40
2.1166666667
 41
0.0
 71
     1
 72
     1
  1
2.76in
  7
SLDTEXTSTYLE0
  0
MTEXT
  5
1D0
330
1BE
100
AcDbEntity
  8
0
  6
CONTINUOUS
 62
     7
100
AcDbMText
 10
187.9294924212
 20
138.5356117197
 30
0.0
 40
2.1166666667
 41
0.0
 71
     1
 72
     1
  1

  7
SLDTEXTSTYLE0
  0
ENDBLK
  5
1C0
330
1BE
100
AcDbEntity
  8
0
100
AcDbBlockEnd
  0
BLOCK
  5
1D3
330
1D2
100
AcDbEntity
  8
0
100
AcDbBlockBegin
  2
_D_4
 70
     0
 10
0.0
 20
0.0
 30
0.0
  3
_D_4
  1
_D_4
  0
SOLID
  5
1D5
330
1D2
100
AcDbEntity
  8
0
  6
CONTINUOUS
 62
     7
100
AcDbTrace
 10
157.8951716978
 20
49.3778723061
 30
0.0
 11
161.0701716978
 21
48.8698723061
 31
0.0
 12
161.0701716978
 22
49.8858723061
 32
0.0
 13
161.0701716978
 23
49.8858723061
 33
0.0
  0
SOLID
  5
1D6
330
1D2
100
AcDbEntity
  8
0
  6
CONTINUOUS
 62
     7
100
AcDbTrace
 10
211.2351716978
 20
49.3778723061
 30
0.0
 11
208.0601716978
 21
49.8858723061
 31
0.0
 12
208.0601716978
 22
48.8698723061
 32
0.0
 13
208.0601716978
 23
48.8698723061
 33
0.0
  0
LINE
  5
1D7
330
1D2
100
AcDbEntity
  8
0
  6
CONTINUOUS
 62
     7
100
AcDbLine
 10
180.150059936
 20
49.3778720733
 30
0.0
 11
179.7208469763
 21
49.3778720733
 31
0.0
  0
LINE
  5
1D8
330
1D2
100
AcDbEntity
  8
0
  6
CONTINUOUS
 62
     7
100
AcDbLine
 10
179.7208469763
 20
49.3778720733
 30
0.0
 11
179.7208469763
 21
46.0147239968
 31
0.0
  0
LINE
  5
1D9
330
1D2
100
AcDbEntity
  8
0
  6
CONTINUOUS
 62
     7
100
AcDbLine
 10
179.7208469763
 20
46.0147239968
 30
0.0
 11
180.150059936
 21
46.0147239968
 31
0.0
  0
LINE
  5
1DA
330
1D2
100
AcDbEntity
  8
0
  6
CONTINUOUS
 62
     7
100
AcDbLine
 10
188.9802839252
 20
49.3778720733
 30
0.0
 11
189.4094968849
 21
49.3778720733
 31
0.0
  0
LINE
  5
1DB
330
1D2
100
AcDbEntity
  8
0
  6
CONTINUOUS
 62
     7
100
AcDbLine
 10
189.4094968849
 20
49.3778720733
 30
0.0
 11
189.4094968849
 21
46.0147239968
 31
0.0
  0
LINE
  5
1DC
330
1D2
100
AcDbEntity
  8
0
  6
CONTINUOUS
 62
     7
100
AcDbLine
 10
189.4094968849
 20
46.0147239968
 30
0.0
 11
188.9802839252
 21
46.0147239968
 31
0.0
  0
LINE
  5
1DD
330
1D2
100
AcDbEntity
  8
0
  6
CONTINUOUS
 62
     7
100
AcDbLine
 10
157.8951716978
 20
66.1028723061
 30
0.0
 11
157.8951716978
 21
47.5998723061
 31
0.0
  0
LINE
  5
1DE
330
1D2
100
AcDbEntity
  8
0
  6
CONTINUOUS
 62
     7
100
AcDbLine
 10
211.2351716978
 20
66.1028723061
 30
0.0
 11
211.2351716978
 21
47.5998723061
 31
0.0
  0
LINE
  5
1DF
330
1D2
100
AcDbEntity
  8
0
  6
CONTINUOUS
 62
     7
100
AcDbLine
 10
157.8951716978
 20
49.3778723061
 30
0.0
 11
177.1938067446
 21
49.3778723061
 31
0.0
  0
LINE
  5
1E0
330
1D2
100
AcDbEntity
  8
0
  6
CONTINUOUS
 62
     7
100
AcDbLine
 10
211.2351716978
 20
49.3778723061
 30
0.0
 11
191.936536651
 21
49.3778723061
 31
0.0
  0
MTEXT
  5
1E1
330
1D2
100
AcDbEntity
  8
0
  6
CONTINUOUS
 62
     7
100
AcDbMText
 10
179.2107888044
 20
52.5356117197
 30
0.0
 40
2.1166666667
 41
0.0
 71
     1
 72
     1
  1

  7
SLDTEXTSTYLE0
  0
MTEXT
  5
1E2
330
1D2
100
AcDbEntity
  8
0
  6
CONTINUOUS
 62
     7
100
AcDbMText
 10
179.1833505087
 20
52.5356117197
 30
0.0
 40
2.1166666667
 41
0.0
 71
     1
 72
     1
  1
53.3mm
  7
SLDTEXTSTYLE0
  0
MTEXT
  5
1E3
330
1D2
100
AcDbEntity
  8
0
  6
CONTINUOUS
 62
     7
100
AcDbMText
 10
180.6865761575
 20
48.7432505962
 30
0.0
 40
2.1166666667
 41
0.0
 71
     1
 72
     1
  1
2.10in
  7
SLDTEXTSTYLE0
  0
MTEXT
  5
1E4
330
1D2
100
AcDbEntity
  8
0
  6
CONTINUOUS
 62
     7
100
AcDbMText
 10
191.5344924212
 20
52.5356117197
 30
0.0
 40
2.1166666667
 41
0.0
 71
     1
 72
     1
  1

  7
SLDTEXTSTYLE0
  0
ENDBLK
  5
1D4
330
1D2
100
AcDbEntity
  8
0
100
AcDbBlockEnd
  0
BLOCK
  5
1E7
330
1E6
100
AcDbEntity
  8
0
100
AcDbBlockBegin
  2
_D_5
 70
     0
 10
0.0
 20
0.0
 30
0.0
  3
_D_5
  1
_D_5
  0
SOLID
  5
1E9
330
1E6
100
AcDbEntity
  8
0
  6
CONTINUOUS
 62
     7
100
AcDbTrace
 10
195.9951716978
 20
117.3778723061
 30
0.0
 11
199.1701716978
 21
116.8698723061
 31
0.0
 12
199.1701716978
 22
117.8858723061
 32
0.0
 13
199.1701716978
 23
117.8858723061
 33
0.0
  0
SOLID
  5
1EA
330
1E6
100
AcDbEntity
  8
0
  6
CONTINUOUS
 62
     7
100
AcDbTrace
 10
211.2351716978
 20
117.3778723061
 30
0.0
 11
208.0601716978
 21
117.8858723061
 31
0.0
 12
208.0601716978
 22
116.8698723061
 32
0.0
 13
208.0601716978
 23
116.8698723061
 33
0.0
  0
LINE
  5
1EB
330
1E6
100
AcDbEntity
  8
0
  6
CONTINUOUS
 62
     7
100
AcDbLine
 10
174.903849562
 20
117.3778720733
 30
0.0
 11
174.4746366023
 21
117.3778720733
 31
0.0
  0
LINE
  5
1EC
330
1E6
100
AcDbEntity
  8
0
  6
CONTINUOUS
 62
     7
100
AcDbLine
 10
174.4746366023
 20
117.3778720733
 30
0.0
 11
174.4746366023
 21
114.0147239968
 31
0.0
  0
LINE
  5
1ED
330
1E6
100
AcDbEntity
  8
0
  6
CONTINUOUS
 62
     7
100
AcDbLine
 10
174.4746366023
 20
114.0147239968
 30
0.0
 11
174.903849562
 21
114.0147239968
 31
0.0
  0
LINE
  5
1EE
330
1E6
100
AcDbEntity
  8
0
  6
CONTINUOUS
 62
     7
100
AcDbLine
 10
183.7340735512
 20
117.3778720733
 30
0.0
 11
184.1632865109
 21
117.3778720733
 31
0.0
  0
LINE
  5
1EF
330
1E6
100
AcDbEntity
  8
0
  6
CONTINUOUS
 62
     7
100
AcDbLine
 10
184.1632865109
 20
117.3778720733
 30
0.0
 11
184.1632865109
 21
114.0147239968
 31
0.0
  0
LINE
  5
1F0
330
1E6
100
AcDbEntity
  8
0
  6
CONTINUOUS
 62
     7
100
AcDbLine
 10
184.1632865109
 20
114.0147239968
 30
0.0
 11
183.7340735512
 21
114.0147239968
 31
0.0
  0
LINE
  5
1F1
330
1E6
100
AcDbEntity
  8
0
  6
CONTINUOUS
 62
     7
100
AcDbLine
 10
195.9951716978
 20
87.0578723061
 30
0.0
 11
195.9951716978
 21
119.1558723061
 31
0.0
  0
LINE
  5
1F2
330
1E6
100
AcDbEntity
  8
0
  6
CONTINUOUS
 62
     7
100
AcDbLine
 10
211.2351716978
 20
105.4728723061
 30
0.0
 11
211.2351716978
 21
119.1558723061
 31
0.0
  0
LINE
  5
1F3
330
1E6
100
AcDbEntity
  8
0
  6
CONTINUOUS
 62
     7
100
AcDbLine
 10
195.9951716978
 20
117.3778723061
 30
0.0
 11
186.690326277
 21
117.3778723061
 31
0.0
  0
LINE
  5
1F4
330
1E6
100
AcDbEntity
  8
0
  6
CONTINUOUS
 62
     7
100
AcDbLine
 10
211.2351716978
 20
117.3778723061
 30
0.0
 11
195.9951716978
 21
117.3778723061
 31
0.0
  0
MTEXT
  5
1F5
330
1E6
100
AcDbEntity
  8
0
  6
CONTINUOUS
 62
     7
100
AcDbMText
 10
173.9645784303
 20
120.5356117197
 30
0.0
 40
2.1166666667
 41
0.0
 71
     1
 72
     1
  1

  7
SLDTEXTSTYLE0
  0
MTEXT
  5
1F6
330
1E6
100
AcDbEntity
  8
0
  6
CONTINUOUS
 62
     7
100
AcDbMText
 10
173.9371401347
 20
120.5356117197
 30
0.0
 40
2.1166666667
 41
0.0
 71
     1
 72
     1
  1
15.2mm
  7
SLDTEXTSTYLE0
  0
MTEXT
  5
1F7
330
1E6
100
AcDbEntity
  8
0
  6
CONTINUOUS
 62
     7
100
AcDbMText
 10
175.4403657835
 20
116.7432505962
 30
0.0
 40
2.1166666667
 41
0.0
 71
     1
 72
     1
  1
0.60in
  7
SLDTEXTSTYLE0
  0
MTEXT
  5
1F8
330
1E6
100
AcDbEntity
  8
0
  6
CONTINUOUS
 62
     7
100
AcDbMText
 10
186.2882820472
 20
120.5356117197
 30
0.0
 40
2.1166666667
 41
0.0
 71
     1
 72
     1
  1

  7
SLDTEXTSTYLE0
  0
ENDBLK
  5
1E8
330
1E6
100
AcDbEntity
  8
0
100
AcDbBlockEnd
  0
BLOCK
  5
1FB
330
1FA
100
AcDbEntity
  8
0
100
AcDbBlockBegin
  2
_D_6
 70
     0
 10
0.0
 20
0.0
 30
0.0
  3
_D_6
  1
_D_6
  0
SOLID
  5
1FD
330
1FA
100
AcDbEntity
  8
0
  6
CONTINUOUS
 62
     7
100
AcDbTrace
 10
135.8651716978
 20
107.3778723061
 30
0.0
 11
135.3571716978
 21
104.2028723061
 31
0.0
 12
136.3731716978
 22
104.2028723061
 32
0.0
 13
136.3731716978
 23
104.2028723061
 33
0.0
  0
SOLID
  5
1FE
330
1FA
100
AcDbEntity
  8
0
  6
CONTINUOUS
 62
     7
100
AcDbTrace
 10
135.8651716978
 20
64.1978723061
 30
0.0
 11
136.3731716978
 21
67.3728723061
 31
0.0
 12
135.3571716978
 22
67.3728723061
 32
0.0
 13
135.3571716978
 23
67.3728723061
 33
0.0
  0
LINE
  5
1FF
330
1FA
100
AcDbEntity
  8
0
  6
CONTINUOUS
 62
     7
100
AcDbLine
 10
131.450059936
 20
85.7878720733
 30
0.0
 11
131.0208469763
 21
85.7878720733
 31
0.0
  0
LINE
  5
200
330
1FA
100
AcDbEntity
  8
0
  6
CONTINUOUS
 62
     7
100
AcDbLine
 10
131.0208469763
 20
85.7878720733
 30
0.0
 11
131.0208469763
 21
82.4247239968
 31
0.0
  0
LINE
  5
201
330
1FA
100
AcDbEntity
  8
0
  6
CONTINUOUS
 62
     7
100
AcDbLine
 10
131.0208469763
 20
82.4247239968
 30
0.0
 11
131.450059936
 21
82.4247239968
 31
0.0
  0
LINE
  5
202
330
1FA
100
AcDbEntity
  8
0
  6
CONTINUOUS
 62
     7
100
AcDbLine
 10
140.2802839252
 20
85.7878720733
 30
0.0
 11
140.7094968849
 21
85.7878720733
 31
0.0
  0
LINE
  5
203
330
1FA
100
AcDbEntity
  8
0
  6
CONTINUOUS
 62
     7
100
AcDbLine
 10
140.7094968849
 20
85.7878720733
 30
0.0
 11
140.7094968849
 21
82.4247239968
 31
0.0
  0
LINE
  5
204
330
1FA
100
AcDbEntity
  8
0
  6
CONTINUOUS
 62
     7
100
AcDbLine
 10
140.7094968849
 20
82.4247239968
 30
0.0
 11
140.2802839252
 21
82.4247239968
 31
0.0
  0
LINE
  5
205
330
1FA
100
AcDbEntity
  8
0
  6
CONTINUOUS
 62
     7
100
AcDbLine
 10
159.8001716978
 20
107.3778723061
 30
0.0
 11
134.0871716978
 21
107.3778723061
 31
0.0
  0
LINE
  5
206
330
1FA
100
AcDbEntity
  8
0
  6
CONTINUOUS
 62
     7
100
AcDbLine
 10
159.8001716978
 20
64.1978723061
 30
0.0
 11
134.0871716978
 21
64.1978723061
 31
0.0
  0
LINE
  5
207
330
1FA
100
AcDbEntity
  8
0
  6
CONTINUOUS
 62
     7
100
AcDbLine
 10
135.8651716978
 20
107.3778723061
 30
0.0
 11
135.8651716978
 21
89.5802331968
 31
0.0
  0
LINE
  5
208
330
1FA
100
AcDbEntity
  8
0
  6
CONTINUOUS
 62
     7
100
AcDbLine
 10
135.8651716978
 20
64.1978723061
 30
0.0
 11
135.8651716978
 21
81.9955114154
 31
0.0
  0
MTEXT
  5
209
330
1FA
100
AcDbEntity
  8
0
  6
CONTINUOUS
 62
     7
100
AcDbMText
 10
130.5107888044
 20
88.9456117197
 30
0.0
 40
2.1166666667
 41
0.0
 71
     1
 72
     1
  1

  7
SLDTEXTSTYLE0
  0
MTEXT
  5
20A
330
1FA
100
AcDbEntity
  8
0
  6
CONTINUOUS
 62
     7
100
AcDbMText
 10
130.4833505087
 20
88.9456117197
 30
0.0
 40
2.1166666667
 41
0.0
 71
     1
 72
     1
  1
43.2mm
  7
SLDTEXTSTYLE0
  0
MTEXT
  5
20B
330
1FA
100
AcDbEntity
  8
0
  6
CONTINUOUS
 62
     7
100
AcDbMText
 10
131.9865761575
 20
85.1532505962
 30
0.0
 40
2.1166666667
 41
0.0
 71
     1
 72
     1
  1
1.70in
  7
SLDTEXTSTYLE0
  0
MTEXT
  5
20C
330
1FA
100
AcDbEntity
  8
0
  6
CONTINUOUS
 62
     7
100
AcDbMText
 10
142.8344924212
 20
88.9456117197
 30
0.0
 40
2.1166666667
 41
0.0
 71
     1
 72
     1
  1

  7
SLDTEXTSTYLE0
  0
ENDBLK
  5
1FC
330
1FA
100
AcDbEntity
  8
0
100
AcDbBlockEnd
  0
BLOCK
  5
210
330
20F
100
AcDbEntity
  8
0
100
AcDbBlockBegin
  2
_D_7
 70
     0
 10
0.0
 20
0.0
 30
0.0
  3
_D_7
  1
_D_7
  0
SOLID
  5
212
330
20F
100
AcDbEntity
  8
0
  6
CONTINUOUS
 62
     7
100
AcDbTrace
 10
123.8651716978
 20
59.3778723061
 30
0.0
 11
124.3731716978
 21
62.5528723061
 31
0.0
 12
123.3571716978
 22
62.5528723061
 32
0.0
 13
123.3571716978
 23
62.5528723061
 33
0.0
  0
SOLID
  5
213
330
20F
100
AcDbEntity
  8
0
  6
CONTINUOUS
 62
     7
100
AcDbTrace
 10
123.8651716978
 20
107.3778723061
 30
0.0
 11
123.3571716978
 21
104.2028723061
 31
0.0
 12
124.3731716978
 22
104.2028723061
 32
0.0
 13
124.3731716978
 23
104.2028723061
 33
0.0
  0
LINE
  5
214
330
20F
100
AcDbEntity
  8
0
  6
CONTINUOUS
 62
     7
100
AcDbLine
 10
119.450059936
 20
83.3778720733
 30
0.0
 11
119.0208469763
 21
83.3778720733
 31
0.0
  0
LINE
  5
215
330
20F
100
AcDbEntity
  8
0
  6
CONTINUOUS
 62
     7
100
AcDbLine
 10
119.0208469763
 20
83.3778720733
 30
0.0
 11
119.0208469763
 21
80.0147239968
 31
0.0
  0
LINE
  5
216
330
20F
100
AcDbEntity
  8
0
  6
CONTINUOUS
 62
     7
100
AcDbLine
 10
119.0208469763
 20
80.0147239968
 30
0.0
 11
119.450059936
 21
80.0147239968
 31
0.0
  0
LINE
  5
217
330
20F
100
AcDbEntity
  8
0
  6
CONTINUOUS
 62
     7
100
AcDbLine
 10
128.2802839252
 20
83.3778720733
 30
0.0
 11
128.7094968849
 21
83.3778720733
 31
0.0
  0
LINE
  5
218
330
20F
100
AcDbEntity
  8
0
  6
CONTINUOUS
 62
     7
100
AcDbLine
 10
128.7094968849
 20
83.3778720733
 30
0.0
 11
128.7094968849
 21
80.0147239968
 31
0.0
  0
LINE
  5
219
330
20F
100
AcDbEntity
  8
0
  6
CONTINUOUS
 62
     7
100
AcDbLine
 10
128.7094968849
 20
80.0147239968
 30
0.0
 11
128.2802839252
 21
80.0147239968
 31
0.0
  0
LINE
  5
21A
330
20F
100
AcDbEntity
  8
0
  6
CONTINUOUS
 62
     7
100
AcDbLine
 10
189.6451716978
 20
59.3778723061
 30
0.0
 11
122.0871716978
 21
59.3778723061
 31
0.0
  0
LINE
  5
21B
330
20F
100
AcDbEntity
  8
0
  6
CONTINUOUS
 62
     7
100
AcDbLine
 10
159.8001716978
 20
107.3778723061
 30
0.0
 11
122.0871716978
 21
107.3778723061
 31
0.0
  0
LINE
  5
21C
330
20F
100
AcDbEntity
  8
0
  6
CONTINUOUS
 62
     7
100
AcDbLine
 10
123.8651716978
 20
59.3778723061
 30
0.0
 11
123.8651716978
 21
79.5855114154
 31
0.0
  0
LINE
  5
21D
330
20F
100
AcDbEntity
  8
0
  6
CONTINUOUS
 62
     7
100
AcDbLine
 10
123.8651716978
 20
107.3778723061
 30
0.0
 11
123.8651716978
 21
87.1702331968
 31
0.0
  0
MTEXT
  5
21E
330
20F
100
AcDbEntity
  8
0
  6
CONTINUOUS
 62
     7
100
AcDbMText
 10
118.5107888044
 20
86.5356117197
 30
0.0
 40
2.1166666667
 41
0.0
 71
     1
 72
     1
  1

  7
SLDTEXTSTYLE0
  0
MTEXT
  5
21F
330
20F
100
AcDbEntity
  8
0
  6
CONTINUOUS
 62
     7
100
AcDbMText
 10
118.4833505087
 20
86.5356117197
 30
0.0
 40
2.1166666667
 41
0.0
 71
     1
 72
     1
  1
48.0mm
  7
SLDTEXTSTYLE0
  0
MTEXT
  5
220
330
20F
100
AcDbEntity
  8
0
  6
CONTINUOUS
 62
     7
100
AcDbMText
 10
119.9865761575
 20
82.7432505962
 30
0.0
 40
2.1166666667
 41
0.0
 71
     1
 72
     1
  1
1.89in
  7
SLDTEXTSTYLE0
  0
MTEXT
  5
221
330
20F
100
AcDbEntity
  8
0
  6
CONTINUOUS
 62
     7
100
AcDbMText
 10
130.8344924212
 20
86.5356117197
 30
0.0
 40
2.1166666667
 41
0.0
 71
     1
 72
     1
  1

  7
SLDTEXTSTYLE0
  0
ENDBLK
  5
211
330
20F
100
AcDbEntity
  8
0
100
AcDbBlockEnd
  0
BLOCK
  5
224
330
223
100
AcDbEntity
  8
0
100
AcDbBlockBegin
  2
_D_8
 70
     0
 10
0.0
 20
0.0
 30
0.0
  3
_D_8
  1
_D_8
  0
SOLID
  5
226
330
223
100
AcDbEntity
  8
0
  6
CONTINUOUS
 62
     7
100
AcDbTrace
 10
216.0551716978
 20
126.5637591973
 30
0.0
 11
212.8801716978
 21
127.0717591973
 31
0.0
 12
212.8801716978
 22
126.0557591973
 32
0.0
 13
212.8801716978
 23
126.0557591973
 33
0.0
  0
SOLID
  5
227
330
223
100
AcDbEntity
  8
0
  6
CONTINUOUS
 62
     7
100
AcDbTrace
 10
195.9951716978
 20
126.5637591973
 30
0.0
 11
199.1701716978
 21
126.0557591973
 31
0.0
 12
199.1701716978
 22
127.0717591973
 32
0.0
 13
199.1701716978
 23
127.0717591973
 33
0.0
  0
LINE
  5
228
330
223
100
AcDbEntity
  8
0
  6
CONTINUOUS
 62
     7
100
AcDbLine
 10
233.640059936
 20
126.5637589645
 30
0.0
 11
233.2108469763
 21
126.5637589645
 31
0.0
  0
LINE
  5
229
330
223
100
AcDbEntity
  8
0
  6
CONTINUOUS
 62
     7
100
AcDbLine
 10
233.2108469763
 20
126.5637589645
 30
0.0
 11
233.2108469763
 21
123.200610888
 31
0.0
  0
LINE
  5
22A
330
223
100
AcDbEntity
  8
0
  6
CONTINUOUS
 62
     7
100
AcDbLine
 10
233.2108469763
 20
123.200610888
 30
0.0
 11
233.640059936
 21
123.200610888
 31
0.0
  0
LINE
  5
22B
330
223
100
AcDbEntity
  8
0
  6
CONTINUOUS
 62
     7
100
AcDbLine
 10
242.4702839252
 20
126.5637589645
 30
0.0
 11
242.8994968849
 21
126.5637589645
 31
0.0
  0
LINE
  5
22C
330
223
100
AcDbEntity
  8
0
  6
CONTINUOUS
 62
     7
100
AcDbLine
 10
242.8994968849
 20
126.5637589645
 30
0.0
 11
242.8994968849
 21
123.200610888
 31
0.0
  0
LINE
  5
22D
330
223
100
AcDbEntity
  8
0
  6
CONTINUOUS
 62
     7
100
AcDbLine
 10
242.8994968849
 20
123.200610888
 30
0.0
 11
242.4702839252
 21
123.200610888
 31
0.0
  0
LINE
  5
22E
330
223
100
AcDbEntity
  8
0
  6
CONTINUOUS
 62
     7
100
AcDbLine
 10
216.0551716978
 20
88.7850723061
 30
0.0
 11
216.0551716978
 21
128.3417591973
 31
0.0
  0
LINE
  5
22F
330
223
100
AcDbEntity
  8
0
  6
CONTINUOUS
 62
     7
100
AcDbLine
 10
195.9951716978
 20
87.0578723061
 30
0.0
 11
195.9951716978
 21
128.3417591973
 31
0.0
  0
LINE
  5
230
330
223
100
AcDbEntity
  8
0
  6
CONTINUOUS
 62
     7
100
AcDbLine
 10
216.0551716978
 20
126.5637591973
 30
0.0
 11
230.6838067446
 21
126.5637591973
 31
0.0
  0
LINE
  5
231
330
223
100
AcDbEntity
  8
0
  6
CONTINUOUS
 62
     7
100
AcDbLine
 10
195.9951716978
 20
126.5637591973
 30
0.0
 11
216.0551716978
 21
126.5637591973
 31
0.0
  0
MTEXT
  5
232
330
223
100
AcDbEntity
  8
0
  6
CONTINUOUS
 62
     7
100
AcDbMText
 10
232.7007888044
 20
129.7214986109
 30
0.0
 40
2.1166666667
 41
0.0
 71
     1
 72
     1
  1

  7
SLDTEXTSTYLE0
  0
MTEXT
  5
233
330
223
100
AcDbEntity
  8
0
  6
CONTINUOUS
 62
     7
100
AcDbMText
 10
232.6733505087
 20
129.7214986109
 30
0.0
 40
2.1166666667
 41
0.0
 71
     1
 72
     1
  1
20.1mm
  7
SLDTEXTSTYLE0
  0
MTEXT
  5
234
330
223
100
AcDbEntity
  8
0
  6
CONTINUOUS
 62
     7
100
AcDbMText
 10
234.1765761575
 20
125.9291374874
 30
0.0
 40
2.1166666667
 41
0.0
 71
     1
 72
     1
  1
0.79in
  7
SLDTEXTSTYLE0
  0
MTEXT
  5
235
330
223
100
AcDbEntity
  8
0
  6
CONTINUOUS
 62
     7
100
AcDbMText
 10
245.0244924212
 20
129.7214986109
 30
0.0
 40
2.1166666667
 41
0.0
 71
     1
 72
     1
  1

  7
SLDTEXTSTYLE0
  0
ENDBLK
  5
225
330
223
100
AcDbEntity
  8
0
100
AcDbBlockEnd
  0
BLOCK
  5
238
330
237
100
AcDbEntity
  8
0
100
AcDbBlockBegin
  2
_D_9
 70
     0
 10
0.0
 20
0.0
 30
0.0
  3
_D_9
  1
_D_9
  0
SOLID
  5
23A
330
237
100
AcDbEntity
  8
0
  6
CONTINUOUS
 62
     7
100
AcDbTrace
 10
238.0551716978
 20
59.3778723061
 30
0.0
 11
238.5631716978
 21
62.5528723061
 31
0.0
 12
237.5471716978
 22
62.5528723061
 32
0.0
 13
237.5471716978
 23
62.5528723061
 33
0.0
  0
SOLID
  5
23B
330
237
100
AcDbEntity
  8
0
  6
CONTINUOUS
 62
     7
100
AcDbTrace
 10
238.0551716978
 20
85.7878723061
 30
0.0
 11
237.5471716978
 21
82.6128723061
 31
0.0
 12
238.5631716978
 22
82.6128723061
 32
0.0
 13
238.5631716978
 23
82.6128723061
 33
0.0
  0
LINE
  5
23C
330
237
100
AcDbEntity
  8
0
  6
CONTINUOUS
 62
     7
100
AcDbLine
 10
233.640059936
 20
72.5828720733
 30
0.0
 11
233.2108469763
 21
72.5828720733
 31
0.0
  0
LINE
  5
23D
330
237
100
AcDbEntity
  8
0
  6
CONTINUOUS
 62
     7
100
AcDbLine
 10
233.2108469763
 20
72.5828720733
 30
0.0
 11
233.2108469763
 21
69.2197239968
 31
0.0
  0
LINE
  5
23E
330
237
100
AcDbEntity
  8
0
  6
CONTINUOUS
 62
     7
100
AcDbLine
 10
233.2108469763
 20
69.2197239968
 30
0.0
 11
233.640059936
 21
69.2197239968
 31
0.0
  0
LINE
  5
23F
330
237
100
AcDbEntity
  8
0
  6
CONTINUOUS
 62
     7
100
AcDbLine
 10
242.4702839252
 20
72.5828720733
 30
0.0
 11
242.8994968849
 21
72.5828720733
 31
0.0
  0
LINE
  5
240
330
237
100
AcDbEntity
  8
0
  6
CONTINUOUS
 62
     7
100
AcDbLine
 10
242.8994968849
 20
72.5828720733
 30
0.0
 11
242.8994968849
 21
69.2197239968
 31
0.0
  0
LINE
  5
241
330
237
100
AcDbEntity
  8
0
  6
CONTINUOUS
 62
     7
100
AcDbLine
 10
242.8994968849
 20
69.2197239968
 30
0.0
 11
242.4702839252
 21
69.2197239968
 31
0.0
  0
LINE
  5
242
330
237
100
AcDbEntity
  8
0
  6
CONTINUOUS
 62
     7
100
AcDbLine
 10
202.3451716978
 20
59.3778723061
 30
0.0
 11
239.8331716978
 21
59.3778723061
 31
0.0
  0
LINE
  5
243
330
237
100
AcDbEntity
  8
0
  6
CONTINUOUS
 62
     7
100
AcDbLine
 10
197.2651716978
 20
85.7878723061
 30
0.0
 11
239.8331716978
 21
85.7878723061
 31
0.0
  0
LINE
  5
244
330
237
100
AcDbEntity
  8
0
  6
CONTINUOUS
 62
     7
100
AcDbLine
 10
238.0551716978
 20
59.3778723061
 30
0.0
 11
238.0551716978
 21
68.7905114154
 31
0.0
  0
LINE
  5
245
330
237
100
AcDbEntity
  8
0
  6
CONTINUOUS
 62
     7
100
AcDbLine
 10
238.0551716978
 20
85.7878723061
 30
0.0
 11
238.0551716978
 21
76.3752331968
 31
0.0
  0
MTEXT
  5
246
330
237
100
AcDbEntity
  8
0
  6
CONTINUOUS
 62
     7
100
AcDbMText
 10
232.7007888044
 20
75.7406117197
 30
0.0
 40
2.1166666667
 41
0.0
 71
     1
 72
     1
  1

  7
SLDTEXTSTYLE0
  0
MTEXT
  5
247
330
237
100
AcDbEntity
  8
0
  6
CONTINUOUS
 62
     7
100
AcDbMText
 10
232.6733505087
 20
75.7406117197
 30
0.0
 40
2.1166666667
 41
0.0
 71
     1
 72
     1
  1
26.4mm
  7
SLDTEXTSTYLE0
  0
MTEXT
  5
248
330
237
100
AcDbEntity
  8
0
  6
CONTINUOUS
 62
     7
100
AcDbMText
 10
234.1765761575
 20
71.9482505962
 30
0.0
 40
2.1166666667
 41
0.0
 71
     1
 72
     1
  1
1.04in
  7
SLDTEXTSTYLE0
  0
MTEXT
  5
249
330
237
100
AcDbEntity
  8
0
  6
CONTINUOUS
 62
     7
100
AcDbMText
 10
245.0244924212
 20
75.7406117197
 30
0.0
 40
2.1166666667
 41
0.0
 71
     1
 72
     1
  1

  7
SLDTEXTSTYLE0
  0
ENDBLK
  5
239
330
237
100
AcDbEntity
  8
0
100
AcDbBlockEnd
  0
BLOCK
  5
330
330
32F
100
AcDbEntity
  8
0
100
AcDbBlockBegin
  2
_D_10
 70
     0
 10
0.0
 20
0.0
 30
0.0
  3
_D_10
  1
_D_10
  0
SOLID
  5
332
330
32F
100
AcDbEntity
  8
0
  6
CONTINUOUS
 62
     7
100
AcDbTrace
 10
129.8651716978
 20
196.309014717
 30
0.0
 11
129.3571716978
 21
193.134014717
 31
0.0
 12
130.3731716978
 22
193.134014717
 32
0.0
 13
130.3731716978
 23
193.134014717
 33
0.0
  0
SOLID
  5
333
330
32F
100
AcDbEntity
  8
0
  6
CONTINUOUS
 62
     7
100
AcDbTrace
 10
129.8651716978
 20
177.259014717
 30
0.0
 11
130.3731716978
 21
180.434014717
 31
0.0
 12
129.3571716978
 22
180.434014717
 32
0.0
 13
129.3571716978
 23
180.434014717
 33
0.0
  0
LINE
  5
334
330
32F
100
AcDbEntity
  8
0
  6
CONTINUOUS
 62
     7
100
AcDbLine
 10
125.450059936
 20
186.7840144841
 30
0.0
 11
125.0208469763
 21
186.7840144841
 31
0.0
  0
LINE
  5
335
330
32F
100
AcDbEntity
  8
0
  6
CONTINUOUS
 62
     7
100
AcDbLine
 10
125.0208469763
 20
186.7840144841
 30
0.0
 11
125.0208469763
 21
183.4208664077
 31
0.0
  0
LINE
  5
336
330
32F
100
AcDbEntity
  8
0
  6
CONTINUOUS
 62
     7
100
AcDbLine
 10
125.0208469763
 20
183.4208664077
 30
0.0
 11
125.450059936
 21
183.4208664077
 31
0.0
  0
LINE
  5
337
330
32F
100
AcDbEntity
  8
0
  6
CONTINUOUS
 62
     7
100
AcDbLine
 10
134.2802839252
 20
186.7840144841
 30
0.0
 11
134.7094968849
 21
186.7840144841
 31
0.0
  0
LINE
  5
338
330
32F
100
AcDbEntity
  8
0
  6
CONTINUOUS
 62
     7
100
AcDbLine
 10
134.7094968849
 20
186.7840144841
 30
0.0
 11
134.7094968849
 21
183.4208664077
 31
0.0
  0
LINE
  5
339
330
32F
100
AcDbEntity
  8
0
  6
CONTINUOUS
 62
     7
100
AcDbLine
 10
134.7094968849
 20
183.4208664077
 30
0.0
 11
134.2802839252
 21
183.4208664077
 31
0.0
  0
LINE
  5
33A
330
32F
100
AcDbEntity
  8
0
  6
CONTINUOUS
 62
     7
100
AcDbLine
 10
159.8001716978
 20
196.309014717
 30
0.0
 11
128.0871716978
 21
196.309014717
 31
0.0
  0
LINE
  5
33B
330
32F
100
AcDbEntity
  8
0
  6
CONTINUOUS
 62
     7
100
AcDbLine
 10
159.8001716978
 20
177.259014717
 30
0.0
 11
128.0871716978
 21
177.259014717
 31
0.0
  0
LINE
  5
33C
330
32F
100
AcDbEntity
  8
0
  6
CONTINUOUS
 62
     7
100
AcDbLine
 10
129.8651716978
 20
196.309014717
 30
0.0
 11
129.8651716978
 21
190.5763756076
 31
0.0
  0
LINE
  5
33D
330
32F
100
AcDbEntity
  8
0
  6
CONTINUOUS
 62
     7
100
AcDbLine
 10
129.8651716978
 20
177.259014717
 30
0.0
 11
129.8651716978
 21
182.9916538263
 31
0.0
  0
MTEXT
  5
33E
330
32F
100
AcDbEntity
  8
0
  6
CONTINUOUS
 62
     7
100
AcDbMText
 10
124.5107888044
 20
189.9417541306
 30
0.0
 40
2.1166666667
 41
0.0
 71
     1
 72
     1
  1

  7
SLDTEXTSTYLE0
  0
MTEXT
  5
33F
330
32F
100
AcDbEntity
  8
0
  6
CONTINUOUS
 62
     7
100
AcDbMText
 10
124.4833505087
 20
189.9417541306
 30
0.0
 40
2.1166666667
 41
0.0
 71
     1
 72
     1
  1
19.1mm
  7
SLDTEXTSTYLE0
  0
MTEXT
  5
340
330
32F
100
AcDbEntity
  8
0
  6
CONTINUOUS
 62
     7
100
AcDbMText
 10
125.9865761575
 20
186.1493930071
 30
0.0
 40
2.1166666667
 41
0.0
 71
     1
 72
     1
  1
0.75in
  7
SLDTEXTSTYLE0
  0
MTEXT
  5
341
330
32F
100
AcDbEntity
  8
0
  6
CONTINUOUS
 62
     7
100
AcDbMText
 10
136.8344924212
 20
189.9417541306
 30
0.0
 40
2.1166666667
 41
0.0
 71
     1
 72
     1
  1

  7
SLDTEXTSTYLE0
  0
ENDBLK
  5
331
330
32F
100
AcDbEntity
  8
0
100
AcDbBlockEnd
  0
BLOCK
  5
344
330
343
100
AcDbEntity
  8
0
100
AcDbBlockBegin
  2
_D_11
 70
     0
 10
0.0
 20
0.0
 30
0.0
  3
_D_11
  1
_D_11
  0
SOLID
  5
346
330
343
100
AcDbEntity
  8
0
  6
CONTINUOUS
 62
     7
100
AcDbTrace
 10
111.8651716978
 20
169.893014717
 30
0.0
 11
112.3731716978
 21
173.068014717
 31
0.0
 12
111.3571716978
 22
173.068014717
 32
0.0
 13
111.3571716978
 23
173.068014717
 33
0.0
  0
SOLID
  5
347
330
343
100
AcDbEntity
  8
0
  6
CONTINUOUS
 62
     7
100
AcDbTrace
 10
111.8651716978
 20
196.309014717
 30
0.0
 11
111.3571716978
 21
193.134014717
 31
0.0
 12
112.3731716978
 22
193.134014717
 32
0.0
 13
112.3731716978
 23
193.134014717
 33
0.0
  0
LINE
  5
348
330
343
100
AcDbEntity
  8
0
  6
CONTINUOUS
 62
     7
100
AcDbLine
 10
107.450059936
 20
183.1010144841
 30
0.0
 11
107.0208469763
 21
183.1010144841
 31
0.0
  0
LINE
  5
349
330
343
100
AcDbEntity
  8
0
  6
CONTINUOUS
 62
     7
100
AcDbLine
 10
107.0208469763
 20
183.1010144841
 30
0.0
 11
107.0208469763
 21
179.7378664077
 31
0.0
  0
LINE
  5
34A
330
343
100
AcDbEntity
  8
0
  6
CONTINUOUS
 62
     7
100
AcDbLine
 10
107.0208469763
 20
179.7378664077
 30
0.0
 11
107.450059936
 21
179.7378664077
 31
0.0
  0
LINE
  5
34B
330
343
100
AcDbEntity
  8
0
  6
CONTINUOUS
 62
     7
100
AcDbLine
 10
116.2802839252
 20
183.1010144841
 30
0.0
 11
116.7094968849
 21
183.1010144841
 31
0.0
  0
LINE
  5
34C
330
343
100
AcDbEntity
  8
0
  6
CONTINUOUS
 62
     7
100
AcDbLine
 10
116.7094968849
 20
183.1010144841
 30
0.0
 11
116.7094968849
 21
179.7378664077
 31
0.0
  0
LINE
  5
34D
330
343
100
AcDbEntity
  8
0
  6
CONTINUOUS
 62
     7
100
AcDbLine
 10
116.7094968849
 20
179.7378664077
 30
0.0
 11
116.2802839252
 21
179.7378664077
 31
0.0
  0
LINE
  5
34E
330
343
100
AcDbEntity
  8
0
  6
CONTINUOUS
 62
     7
100
AcDbLine
 10
179.7391716978
 20
169.893014717
 30
0.0
 11
110.0871716978
 21
169.893014717
 31
0.0
  0
LINE
  5
34F
330
343
100
AcDbEntity
  8
0
  6
CONTINUOUS
 62
     7
100
AcDbLine
 10
159.8001716978
 20
196.309014717
 30
0.0
 11
110.0871716978
 21
196.309014717
 31
0.0
  0
LINE
  5
350
330
343
100
AcDbEntity
  8
0
  6
CONTINUOUS
 62
     7
100
AcDbLine
 10
111.8651716978
 20
169.893014717
 30
0.0
 11
111.8651716978
 21
179.3086538263
 31
0.0
  0
LINE
  5
351
330
343
100
AcDbEntity
  8
0
  6
CONTINUOUS
 62
     7
100
AcDbLine
 10
111.8651716978
 20
196.309014717
 30
0.0
 11
111.8651716978
 21
186.8933756076
 31
0.0
  0
MTEXT
  5
352
330
343
100
AcDbEntity
  8
0
  6
CONTINUOUS
 62
     7
100
AcDbMText
 10
106.5107888044
 20
186.2587541306
 30
0.0
 40
2.1166666667
 41
0.0
 71
     1
 72
     1
  1

  7
SLDTEXTSTYLE0
  0
MTEXT
  5
353
330
343
100
AcDbEntity
  8
0
  6
CONTINUOUS
 62
     7
100
AcDbMText
 10
106.4833505087
 20
186.2587541306
 30
0.0
 40
2.1166666667
 41
0.0
 71
     1
 72
     1
  1
26.4mm
  7
SLDTEXTSTYLE0
  0
MTEXT
  5
354
330
343
100
AcDbEntity
  8
0
  6
CONTINUOUS
 62
     7
100
AcDbMText
 10
107.9865761575
 20
182.4663930071
 30
0.0
 40
2.1166666667
 41
0.0
 71
     1
 72
     1
  1
1.04in
  7
SLDTEXTSTYLE0
  0
MTEXT
  5
355
330
343
100
AcDbEntity
  8
0
  6
CONTINUOUS
 62
     7
100
AcDbMText
 10
118.8344924212
 20
186.2587541306
 30
0.0
 40
2.1166666667
 41
0.0
 71
     1
 72
     1
  1

  7
SLDTEXTSTYLE0
  0
ENDBLK
  5
345
330
343
100
AcDbEntity
  8
0
100
AcDbBlockEnd
  0
BLOCK
  5
357
330
356
100
AcDbEntity
  8
0
100
AcDbBlockBegin
  2
SW_NOTE_4
 70
     0
 10
0.0
 20
0.0
 30
0.0
  3
SW_NOTE_4
  1
SW_NOTE_4
  0
MTEXT
  5
359
330
356
100
AcDbEntity
  8
0
  6
CONTINUOUS
 62
     0
100
AcDbMText
 10
-1.1304629547
 20
3.8569481435
 30
0.0
 40
2.1166666667
 41
0.0
 71
     3
 72
     1
  1
SM1T1 THREADED COUPLER
  7
SLDTEXTSTYLE0
  0
MTEXT
  5
35A
330
356
100
AcDbEntity
  8
0
  6
CONTINUOUS
 62
     0
100
AcDbMText
 10
-0.9173254036
 20
1.0347259553
 30
0.0
 40
2.1166666667
 41
0.0
 71
     3
 72
     1
  1
AND INCLUDED RETAINING RING
  7
SLDTEXTSTYLE0
  0
ENDBLK
  5
358
330
356
100
AcDbEntity
  8
0
100
AcDbBlockEnd
  0
ENDSEC
  0
SECTION
  2
ENTITIES
  0
LINE
  5
7D
330
1F
100
AcDbEntity
  8
0
  6
CONTINUOUS
 62
     7
100
AcDbLine
 10
1.5793501011
 20
214.6453799966
 30
0.0
 11
277.9892068491
 21
214.6453799966
 31
0.0
  0
LINE
  5
7E
330
1F
100
AcDbEntity
  8
0
  6
CONTINUOUS
 62
     7
100
AcDbLine
 10
1.5793501011
 20
214.6453799966
 30
0.0
 11
1.5793501011
 21
0.9031642596
 31
0.0
  0
LINE
  5
7F
330
1F
100
AcDbEntity
  8
0
  6
CONTINUOUS
 62
     7
100
AcDbLine
 10
277.9892068491
 20
0.9031642596
 30
0.0
 11
1.5793501011
 21
0.9031642596
 31
0.0
  0
LINE
  5
80
330
1F
100
AcDbEntity
  8
0
  6
CONTINUOUS
 62
     7
100
AcDbLine
 10
277.9892068491
 20
0.9031642596
 30
0.0
 11
277.9892068491
 21
214.6453799966
 31
0.0
  0
LINE
  5
81
330
1F
100
AcDbEntity
  8
0
  6
CONTINUOUS
 62
     7
100
AcDbLine
 10
215.7427640041
 20
12.2958890132
 30
0.0
 11
171.6327596684
 21
12.2958890132
 31
0.0
  0
LINE
  5
82
330
1F
100
AcDbEntity
  8
0
  6
CONTINUOUS
 62
     7
100
AcDbLine
 10
171.6327596684
 20
12.2958890132
 30
0.0
 11
171.6327596684
 21
26.1661402506
 31
0.0
  0
LINE
  5
83
330
1F
100
AcDbEntity
  8
0
  6
CONTINUOUS
 62
     7
100
AcDbLine
 10
171.6327596684
 20
0.9031642596
 30
0.0
 11
171.6327596684
 21
26.1661402506
 31
0.0
  0
LINE
  5
84
330
1F
100
AcDbEntity
  8
0
  6
CONTINUOUS
 62
     7
100
AcDbLine
 10
215.7427640041
 20
17.1604579552
 30
0.0
 11
277.9892068491
 21
17.1604579552
 31
0.0
  0
LINE
  5
85
330
1F
100
AcDbEntity
  8
0
  6
CONTINUOUS
 62
     7
100
AcDbLine
 10
215.7427640041
 20
35.2394508358
 30
0.0
 11
215.7427640041
 21
0.9031642596
 31
0.0
  0
LINE
  5
86
330
1F
100
AcDbEntity
  8
0
  6
CONTINUOUS
 62
     7
100
AcDbLine
 10
215.7427640041
 20
26.1661402506
 30
0.0
 11
171.6327596684
 21
26.1661402506
 31
0.0
  0
LINE
  5
87
330
1F
100
AcDbEntity
  8
0
  6
CONTINUOUS
 62
     7
100
AcDbLine
 10
215.7427640041
 20
9.1409200612
 30
0.0
 11
277.9892068491
 21
9.1409200612
 31
0.0
  0
LINE
  5
88
330
1F
100
AcDbEntity
  8
0
  6
CONTINUOUS
 62
     7
100
AcDbLine
 10
215.7427640041
 20
16.9216824031
 30
0.0
 11
171.6327596684
 21
16.9216824031
 31
0.0
  0
LINE
  5
89
330
1F
100
AcDbEntity
  8
0
  6
CONTINUOUS
 62
     7
100
AcDbLine
 10
215.7427640041
 20
21.4874005542
 30
0.0
 11
171.6327596684
 21
21.4874005542
 31
0.0
  0
LINE
  5
8A
330
1F
100
AcDbEntity
  8
0
  6
CONTINUOUS
 62
     7
100
AcDbLine
 10
186.1338100705
 20
26.1661402506
 30
0.0
 11
186.1338100705
 21
12.2958890132
 31
0.0
  0
LINE
  5
8B
330
1F
100
AcDbEntity
  8
0
  6
CONTINUOUS
 62
     7
100
AcDbLine
 10
198.2145906188
 20
26.1661402506
 30
0.0
 11
198.2145906188
 21
12.2958890132
 31
0.0
  0
LINE
  5
8C
330
1F
100
AcDbEntity
  8
0
  6
CONTINUOUS
 62
     7
100
AcDbLine
 10
253.7490408369
 20
9.1409200612
 30
0.0
 11
253.7490408369
 21
0.9031642596
 31
0.0
  0
LINE
  5
8D
330
1F
100
AcDbEntity
  8
0
  6
CONTINUOUS
 62
     7
100
AcDbLine
 10
171.6327596684
 20
12.2958890132
 30
0.0
 11
171.6327596684
 21
7.5627342528
 31
0.0
  0
LINE
  5
8E
330
1F
100
AcDbEntity
  8
0
  6
CONTINUOUS
 62
     7
100
AcDbLine
 10
171.6327596684
 20
7.5627342528
 30
0.0
 11
215.7427640041
 21
7.5627342528
 31
0.0
  0
LINE
  5
8F
330
1F
100
AcDbEntity
  8
0
  6
CONTINUOUS
 62
     7
100
AcDbLine
 10
171.6327596684
 20
7.5627342528
 30
0.0
 11
171.6327596684
 21
35.2394508358
 31
0.0
  0
LINE
  5
90
330
1F
100
AcDbEntity
  8
0
  6
CONTINUOUS
 62
     7
100
AcDbLine
 10
171.6327596684
 20
35.2394508358
 30
0.0
 11
215.7427640041
 21
35.2394508358
 31
0.0
  0
LINE
  5
91
330
1F
100
AcDbEntity
  8
0
  6
CONTINUOUS
 62
     7
100
AcDbLine
 10
270.1683598194
 20
17.1604579552
 30
0.0
 11
270.1683598194
 21
9.1409200612
 31
0.0
  0
LINE
  5
92
330
1F
100
AcDbEntity
  8
0
  6
CONTINUOUS
 62
     7
100
AcDbLine
 10
215.7427640041
 20
35.2394508358
 30
0.0
 11
277.9892068491
 21
35.2394508358
 31
0.0
  0
LINE
  5
93
330
1F
100
AcDbEntity
  8
0
  6
CONTINUOUS
 62
     7
100
AcDbLine
 10
277.9892068491
 20
35.2394508358
 30
0.0
 11
277.9892068491
 21
50.0331356147
 31
0.0
  0
LINE
  5
94
330
1F
100
AcDbEntity
  8
0
  6
CONTINUOUS
 62
     7
100
AcDbLine
 10
215.7427640041
 20
24.8927335446
 30
0.0
 11
277.9892068491
 21
24.8927335446
 31
0.0
  0
INSERT
  5
95
330
1F
100
AcDbEntity
  8
0
  6
CONTINUOUS
 62
     7
100
AcDbBlockReference
  2
THIRD_ANGLE_PROJECTION_BLO
 10
117.7262204235
 20
15.5162339489
 30
0.0
 41
0.8
 42
0.8
 43
0.8
  0
MTEXT
  5
97
330
1F
100
AcDbEntity
  8
0
  6
CONTINUOUS
 62
     7
100
AcDbMText
 10
274.1458225539
 20
13.2559386876
 30
0.0
 40
3.175
 41
0.0
 71
     2
 72
     1
  1
A
  7
SLDTEXTSTYLE0
  0
MTEXT
  5
98
330
1F
100
AcDbEntity
  8
0
  6
CONTINUOUS
 62
     7
100
AcDbMText
 10
234.6013439438
 20
5.1306563898
 30
0.0
 40
3.175
 41
0.0
 71
     2
 72
     1
  1
PDA015C
  7
SLDTEXTSTYLE0
  0
MTEXT
  5
99
330
1F
100
AcDbEntity
  8
0
  6
CONTINUOUS
 62
     7
100
AcDbMText
 10
216.4199766059
 20
16.8243178599
 30
0.0
 40
2.1166666667
 41
0.0
 71
     1
 72
     1
  1
MATERIAL
  7
SLDTEXTSTYLE0
  0
MTEXT
  5
9A
330
1F
100
AcDbEntity
  8
0
  6
CONTINUOUS
 62
     7
100
AcDbMText
 10
174.230946566
 20
20.054553926
 30
0.0
 40
1.8520833333
 41
0.0
 71
     1
 72
     1
  1
DRAWN
  7
SLDTEXTSTYLE0
  0
MTEXT
  5
9B
330
1F
100
AcDbEntity
  8
0
  6
CONTINUOUS
 62
     7
100
AcDbMText
 10
172.3960124543
 20
15.5787169747
 30
0.0
 40
1.8520833333
 41
0.0
 71
     1
 72
     1
  1
APPROVAL
  7
SLDTEXTSTYLE0
  0
MTEXT
  5
9C
330
1F
100
AcDbEntity
  8
0
  6
CONTINUOUS
 62
     7
100
AcDbMText
 10
271.7160653675
 20
16.1671746307
 30
0.0
 40
2.1166666667
 41
0.0
 71
     1
 72
     1
  1
REV
  7
SLDTEXTSTYLE0
  0
MTEXT
  5
9D
330
1F
100
AcDbEntity
  8
0
  6
CONTINUOUS
 62
     7
100
AcDbMText
 10
190.2958696448
 20
15.8418778554
 30
0.0
 40
2.1166666667
 41
0.0
 71
     1
 72
     1
  1
JV
  7
SLDTEXTSTYLE0
  0
MTEXT
  5
9E
330
1F
100
AcDbEntity
  8
0
  6
CONTINUOUS
 62
     7
100
AcDbMText
 10
199.8662436873
 20
20.3177148067
 30
0.0
 40
2.1166666667
 41
0.0
 71
     1
 72
     1
  1
01/03/17
  7
SLDTEXTSTYLE0
  0
MTEXT
  5
9F
330
1F
100
AcDbEntity
  8
0
  6
CONTINUOUS
 62
     7
100
AcDbMText
 10
203.6145073853
 20
24.8221395769
 30
0.0
 40
2.1166666667
 41
0.0
 71
     1
 72
     1
  1
DATE
  7
SLDTEXTSTYLE0
  0
MTEXT
  5
A0
330
1F
100
AcDbEntity
  8
0
  6
CONTINUOUS
 62
     7
100
AcDbMText
 10
199.8662436873
 20
15.8418778554
 30
0.0
 40
2.1166666667
 41
0.0
 71
     1
 72
     1
  1
01/03/17
  7
SLDTEXTSTYLE0
  0
MTEXT
  5
A2
330
1F
100
AcDbEntity
  8
0
  6
CONTINUOUS
 62
     7
100
AcDbMText
 10
229.402906477
 20
27.7957480569
 30
0.0
 40
2.1166666667
 41
0.0
 71
     1
 72
     1
  1
w w w . t h o r  l a b s . c o m
  7
SLDTEXTSTYLE1
  0
MTEXT
  5
A3
330
1F
100
AcDbEntity
  8
0
  6
CONTINUOUS
 62
     7
100
AcDbMText
 10
216.7004035316
 20
8.3494791871
 30
0.0
 40
2.1166666667
 41
0.0
 71
     1
 72
     1
  1
ITEM #
  7
SLDTEXTSTYLE0
  0
MTEXT
  5
A4
330
1F
100
AcDbEntity
  8
0
  6
CONTINUOUS
 62
     7
100
AcDbMText
 10
254.5318000914
 20
8.3494791871
 30
0.0
 40
2.1166666667
 41
0.0
 71
     1
 72
     1
  1
APPROX WEIGHT
  7
SLDTEXTSTYLE0
  0
MTEXT
  5
A5
330
1F
100
AcDbEntity
  8
0
  6
CONTINUOUS
 62
     7
100
AcDbMText
 10
243.4273448343
 20
13.8247651814
 30
0.0
 40
3.175
 41
0.0
 71
     2
 72
     1
  1
N/A
  7
SLDTEXTSTYLE0
  0
INSERT
  5
AB
330
1F
100
AcDbEntity
  8
0
  6
CONTINUOUS
 62
     7
100
AcDbBlockReference
  2
SW_NOTE_0
 10
174.8430140051
 20
4.4558554801
 30
0.0
  0
INSERT
  5
B1
330
1F
100
AcDbEntity
  8
0
  6
CONTINUOUS
 62
     7
100
AcDbBlockReference
  2
SW_NOTE_1
 10
174.5483650337
 20
30.4835322715
 30
0.0
  0
MTEXT
  5
B2
330
1F
100
AcDbEntity
  8
0
  6
CONTINUOUS
 62
     7
100
AcDbMText
 10
187.9273588276
 20
24.8221395769
 30
0.0
 40
2.1166666667
 41
0.0
 71
     1
 72
     1
  1
NAME
  7
SLDTEXTSTYLE0
  0
INSERT
  5
B8
330
1F
100
AcDbEntity
  8
0
  6
CONTINUOUS
 62
     7
100
AcDbBlockReference
  2
SW_NOTE_2
 10
58.6204667508
 20
8.1776609732
 30
0.0
  0
MTEXT
  5
B9
330
1F
100
AcDbEntity
  8
0
  6
CONTINUOUS
 62
     7
100
AcDbMText
 10
246.7653324093
 20
22.7968299375
 30
0.0
 40
3.175
 41
0.0
 71
     2
 72
     1
  1
InGaAs AMPLIFIED DETECTOR
  7
SLDTEXTSTYLE0
  0
MTEXT
  5
BA
330
1F
100
AcDbEntity
  8
0
  6
CONTINUOUS
 62
     7
100
AcDbMText
 10
177.6925831922
 20
10.7142101515
 30
0.0
 40
1.5875
 41
0.0
 71
     1
 72
     1
  1
COPYRIGHT © 2017 BY THORLABS
  7
SLDTEXTSTYLE0
  0
MTEXT
  5
BB
330
1F
100
AcDbEntity
  8
0
  6
CONTINUOUS
 62
     7
100
AcDbMText
 10
190.2958696448
 20
20.3177148067
 30
0.0
 40
2.1166666667
 41
0.0
 71
     1
 72
     1
  1
AS
  7
SLDTEXTSTYLE0
  0
MTEXT
  5
BC
330
1F
100
AcDbEntity
  8
0
  6
CONTINUOUS
 62
     7
100
AcDbMText
 10
263.7508728422
 20
5.1306563898
 30
0.0
 40
3.175
 41
0.0
 71
     2
 72
     1
  1
70
  7
SLDTEXTSTYLE0
  0
MTEXT
  5
BD
330
1F
100
AcDbEntity
  8
0
  6
CONTINUOUS
 62
     7
100
AcDbMText
 10
275.6133051828
 20
5.1306563898
 30
0.0
 40
3.175
 41
0.0
 71
     2
 72
     1
  1
g
  7
SLDTEXTSTYLE0
  0
LINE
  5
BE
330
1F
100
AcDbEntity
  8
0
  6
CONTINUOUS
 62
     7
100
AcDbLine
 10
52.8360291921
 20
66.2679707157
 30
0.0
 11
52.8360291921
 21
66.2679707157
 31
0.0
  0
LINE
  5
BF
330
1F
100
AcDbEntity
  8
0
  6
CONTINUOUS
 62
     7
100
AcDbLine
 10
52.8360291921
 20
70.3827717798
 30
0.0
 11
52.8360291921
 21
70.3827717798
 31
0.0
  0
LINE
  5
C0
330
1F
100
AcDbEntity
  8
0
  6
CONTINUOUS
 62
     7
100
AcDbLine
 10
52.8360291921
 20
101.1929723309
 30
0.0
 11
52.8360291921
 21
101.1929723309
 31
0.0
  0
LINE
  5
C1
330
1F
100
AcDbEntity
  8
0
  6
CONTINUOUS
 62
     7
100
AcDbLine
 10
52.8360291921
 20
105.3077725219
 30
0.0
 11
52.8360291921
 21
105.3077725219
 31
0.0
  0
LINE
  5
C2
330
1F
100
AcDbEntity
  8
0
  6
CONTINUOUS
 62
     7
100
AcDbLine
 10
55.9034900345
 20
59.6278717267
 30
0.0
 11
56.1534896098
 21
59.37787122
 31
0.0
  0
LINE
  5
C3
330
1F
100
AcDbEntity
  8
0
  6
CONTINUOUS
 62
     7
100
AcDbLine
 10
66.3134906046
 20
59.37787122
 30
0.0
 11
66.5634892486
 21
59.6278717267
 31
0.0
  0
LINE
  5
C4
330
1F
100
AcDbEntity
  8
0
  6
CONTINUOUS
 62
     7
100
AcDbLine
 10
55.9034900345
 20
64.1978716003
 30
0.0
 11
55.9034900345
 21
59.6278717267
 31
0.0
  0
LINE
  5
C5
330
1F
100
AcDbEntity
  8
0
  6
CONTINUOUS
 62
     7
100
AcDbLine
 10
66.5634892486
 20
59.6278717267
 30
0.0
 11
66.5634892486
 21
64.1978716003
 31
0.0
  0
LINE
  5
C6
330
1F
100
AcDbEntity
  8
0
  6
CONTINUOUS
 62
     7
100
AcDbLine
 10
58.2402547427
 20
81.7313899743
 30
0.0
 11
57.5549317129
 21
81.7313899743
 31
0.0
  0
LINE
  5
C7
330
1F
100
AcDbEntity
  8
0
  6
CONTINUOUS
 62
     7
100
AcDbLine
 10
57.5549317129
 20
79.7313915091
 30
0.0
 11
58.2402547427
 21
79.7313915091
 31
0.0
  0
LINE
  5
C8
330
1F
100
AcDbEntity
  8
0
  6
CONTINUOUS
 62
     7
100
AcDbLine
 10
67.6296095901
 20
79.7313915091
 30
0.0
 11
68.3149326198
 21
79.7313915091
 31
0.0
  0
LINE
  5
C9
330
1F
100
AcDbEntity
  8
0
  6
CONTINUOUS
 62
     7
100
AcDbLine
 10
68.3149326198
 20
81.7313899743
 30
0.0
 11
67.6296095901
 21
81.7313899743
 31
0.0
  0
LINE
  5
CA
330
1F
100
AcDbEntity
  8
0
  6
CONTINUOUS
 62
     7
100
AcDbLine
 10
71.9014893823
 20
72.6433729278
 30
0.0
 11
73.9334899538
 21
72.6433729278
 31
0.0
  0
LINE
  5
CB
330
1F
100
AcDbEntity
  8
0
  6
CONTINUOUS
 62
     7
100
AcDbLine
 10
73.9334899538
 20
98.9323722888
 30
0.0
 11
71.9014893823
 21
98.9323722888
 31
0.0
  0
CIRCLE
  5
CC
330
1F
100
AcDbEntity
  8
0
  6
CONTINUOUS
 62
     7
100
AcDbCircle
 10
57.2964896803
 20
89.0898723061
 30
0.0
 40
1.650000000000012
  0
LINE
  5
CD
330
1F
100
AcDbEntity
  8
0
  6
CONTINUOUS
 62
     7
100
AcDbLine
 10
57.3793299102
 20
87.4409514936
 30
0.0
 11
57.4365764462
 21
87.4458297613
 31
0.0
  0
LINE
  5
CE
330
1F
100
AcDbEntity
  8
0
  6
CONTINUOUS
 62
     7
100
AcDbLine
 10
57.4365764462
 20
87.4458297613
 30
0.0
 11
57.4938239135
 21
87.4507080289
 31
0.0
  0
LINE
  5
CF
330
1F
100
AcDbEntity
  8
0
  6
CONTINUOUS
 62
     7
100
AcDbLine
 10
52.8360291921
 20
70.2258495139
 30
0.0
 11
52.8360291921
 21
66.2679707157
 31
0.0
  0
LINE
  5
D0
330
1F
100
AcDbEntity
  8
0
  6
CONTINUOUS
 62
     7
100
AcDbLine
 10
52.8360291921
 20
70.3827717798
 30
0.0
 11
52.8360291921
 21
70.2258495139
 31
0.0
  0
LINE
  5
D1
330
1F
100
AcDbEntity
  8
0
  6
CONTINUOUS
 62
     7
100
AcDbLine
 10
52.8360291921
 20
105.150850256
 30
0.0
 11
52.8360291921
 21
101.1929723309
 31
0.0
  0
LINE
  5
D2
330
1F
100
AcDbEntity
  8
0
  6
CONTINUOUS
 62
     7
100
AcDbLine
 10
52.8360291921
 20
105.3077725219
 30
0.0
 11
52.8360291921
 21
105.150850256
 31
0.0
  0
LINE
  5
D3
330
1F
100
AcDbEntity
  8
0
  6
CONTINUOUS
 62
     7
100
AcDbLine
 10
52.8387896322
 20
67.6903722333
 30
0.0
 11
52.8387896322
 21
103.8853724013
 31
0.0
  0
LINE
  5
D4
330
1F
100
AcDbEntity
  8
0
  6
CONTINUOUS
 62
     7
100
AcDbLine
 10
52.8387896322
 20
65.1503724503
 30
0.0
 11
52.8387896322
 21
65.1503724503
 31
0.0
  0
LINE
  5
D5
330
1F
100
AcDbEntity
  8
0
  6
CONTINUOUS
 62
     7
100
AcDbLine
 10
52.8387896322
 20
65.1503724503
 30
0.0
 11
52.8387896322
 21
67.6903722333
 31
0.0
  0
LINE
  5
D6
330
1F
100
AcDbEntity
  8
0
  6
CONTINUOUS
 62
     7
100
AcDbLine
 10
52.8387896322
 20
106.4253721843
 30
0.0
 11
52.8387896322
 21
106.4253721843
 31
0.0
  0
LINE
  5
D7
330
1F
100
AcDbEntity
  8
0
  6
CONTINUOUS
 62
     7
100
AcDbLine
 10
52.8387896322
 20
103.8853724013
 30
0.0
 11
52.8387896322
 21
106.4253721843
 31
0.0
  0
CIRCLE
  5
D8
330
1F
100
AcDbEntity
  8
0
  6
CONTINUOUS
 62
     7
100
AcDbCircle
 10
63.0114896803
 20
95.9478723061
 30
0.0
 40
4.649999999999999
  0
CIRCLE
  5
D9
330
1F
100
AcDbEntity
  8
0
  6
CONTINUOUS
 62
     7
100
AcDbCircle
 10
63.0114896803
 20
95.9478723061
 30
0.0
 40
3.936999999999991
  0
SPLINE
  5
DA
330
1F
100
AcDbEntity
  8
0
  6
CONTINUOUS
 62
     7
100
AcDbSpline
210
0.0
220
0.0
230
1.0
 70
    24
 71
     3
 72
    28
 73
    24
 74
     0
 42
0.000000001
 43
0.00000001
 40
0.0
 40
0.0
 40
0.0
 40
0.0
 40
0.0722406037967926
 40
0.1447736951278466
 40
0.2171380928622113
 40
0.2891220520101555
 40
0.3609004370335878
 40
0.3944003163035359
 40
0.4278268511198755
 40
0.4461357417863072
 40
0.4644153616782201
 40
0.4940705943928694
 40
0.5238477330445485
 40
0.5420318105181834
 40
0.5602528730175286
 40
0.592464487062688
 40
0.6247706203611103
 40
0.6793883542463318
 40
0.7342006402633211
 40
0.7892030841097097
 40
0.8440810848439455
 40
0.9220362835495519
 40
0.9999999999999999
 40
0.9999999999999999
 40
0.9999999999999999
 40
0.9999999999999999
 10
65.89824180829416
 20
100.9478723272249
 30
0.0
 10
65.81055611900123
 20
100.9478723272249
 30
0.0
 10
65.6348297188665
 20
100.9478723272249
 30
0.0
 10
65.35332307818048
 20
100.9478723272249
 30
0.0
 10
65.03758530747608
 20
100.9478723272249
 30
0.0
 10
64.6711658441187
 20
100.9478723272249
 30
0.0
 10
64.31759304580055
 20
100.9478723272249
 30
0.0
 10
64.00100764694876
 20
100.9478723272249
 30
0.0
 10
63.7768443398854
 20
100.9478723272249
 30
0.0
 10
63.57005137963856
 20
100.9478723272249
 30
0.0
 10
63.35711978927376
 20
100.9478723272249
 30
0.0
 10
63.07861950351289
 20
100.9478723272249
 30
0.0
 10
62.79145005607449
 20
100.9478723272249
 30
0.0
 10
62.56732901137689
 20
100.9478723272249
 30
0.0
 10
62.35270726438706
 20
100.9478723272249
 30
0.0
 10
62.12254081606221
 20
100.9478723272249
 30
0.0
 10
61.83571883247395
 20
100.9478723272249
 30
0.0
 10
61.53681066352126
 20
100.9478723272249
 30
0.0
 10
61.23826298699129
 20
100.9478723272249
 30
0.0
 10
60.97611814388331
 20
100.9478723272249
 30
0.0
 10
60.70179366572445
 20
100.9478723272249
 30
0.0
 10
60.41323918899319
 20
100.9478723272249
 30
0.0
 10
60.22090888193192
 20
100.9478723272249
 30
0.0
 10
60.12473847496401
 20
100.9478723272249
 30
0.0
  0
SPLINE
  5
DB
330
1F
100
AcDbEntity
  8
0
  6
CONTINUOUS
 62
     7
100
AcDbSpline
210
0.0
220
0.0
230
1.0
 70
     8
 71
     3
 72
    27
 73
    23
 74
     0
 42
0.000000001
 43
0.00000001
 40
0.0
 40
0.0
 40
0.0
 40
0.0
 40
0.0973011125026961
 40
0.1945760671259902
 40
0.2437117886882184
 40
0.2929796843028996
 40
0.3420471533927943
 40
0.3909086089111569
 40
0.4337790137637737
 40
0.4555569095908513
 40
0.4772636203063399
 40
0.5053773593961987
 40
0.5334845094735777
 40
0.5544026482298507
 40
0.5753702751405906
 40
0.6090055227073977
 40
0.6428233097621113
 40
0.6766185917569797
 40
0.7572464248776993
 40
0.8380719252593796
 40
0.9190979962631419
 40
1.0
 40
1.0
 40
1.0
 40
1.0
 10
68.78499161231409
 20
95.9478721479453
 30
0.0
 10
68.72480915237772
 20
96.05211207044795
 30
0.0
 10
68.60446041161633
 20
96.26056389218351
 30
0.0
 10
68.43172722788155
 20
96.55974893489302
 30
0.0
 10
68.28061392717241
 20
96.82147832667944
 30
0.0
 10
68.15631590894486
 20
97.03677454304706
 30
0.0
 10
68.01450388770472
 20
97.28239477800277
 30
0.0
 10
67.85738209616846
 20
97.55454267871703
 30
0.0
 10
67.70864039534327
 20
97.81216594198285
 30
0.0
 10
67.57617935403673
 20
98.04159775762527
 30
0.0
 10
67.45512600796127
 20
98.25126766879893
 30
0.0
 10
67.31133113064404
 20
98.50032916019865
 30
0.0
 10
67.17277261257357
 20
98.74032057959775
 30
0.0
 10
67.05976105053702
 20
98.93605879269836
 30
0.0
 10
66.94927209337887
 20
99.12743216334316
 30
0.0
 10
66.83436368927941
 20
99.32646150319167
 30
0.0
 10
66.71953922008427
 20
99.5253425740803
 30
0.0
 10
66.5696229900741
 20
99.78500342119426
 30
0.0
 10
66.39482265365443
 20
100.0877678880777
 30
0.0
 10
66.20954059546914
 20
100.4086847872871
 30
0.0
 10
66.04664963793905
 20
100.6908200650332
 30
0.0
 10
65.9476858098931
 20
100.8622320177262
 30
0.0
 10
65.89824180829416
 20
100.9478723272249
 30
0.0
  0
SPLINE
  5
DC
330
1F
100
AcDbEntity
  8
0
  6
CONTINUOUS
 62
     7
100
AcDbSpline
210
0.0
220
0.0
230
1.0
 70
     8
 71
     3
 72
    27
 73
    23
 74
     0
 42
0.000000001
 43
0.00000001
 40
0.0
 40
0.0
 40
0.0
 40
0.0
 40
0.0973011016800408
 40
0.1945760511674069
 40
0.2437117816697337
 40
0.2929796783280758
 40
0.3420471287557894
 40
0.3909086081885134
 40
0.4337790139492705
 40
0.455556894630223
 40
0.477263622959255
 40
0.5053773442613134
 40
0.5334845129277392
 40
0.5544026603385311
 40
0.5753702727733585
 40
0.6090055110961923
 40
0.6428233133724235
 40
0.6766185831151519
 40
0.7572464208057136
 40
0.8380719282856007
 40
0.9190979992859846
 40
1.0
 40
1.0
 40
1.0
 40
1.0
 10
65.89824180829416
 20
90.9478727253653
 30
0.0
 10
65.95842426774811
 20
91.05211249320905
 30
0.0
 10
66.07877301106039
 20
91.26056401175751
 30
0.0
 10
66.25150621571643
 20
91.55974868442715
 30
0.0
 10
66.40261948770889
 20
91.82147845557229
 30
0.0
 10
66.52691746906328
 20
92.03677477058906
 30
0.0
 10
66.6687296181624
 20
92.28239425745797
 30
0.0
 10
66.82585129622264
 20
92.5545428420599
 30
0.0
 10
66.97459293049874
 20
92.81216609833189
 30
0.0
 10
67.10705418031812
 20
93.04159766234886
 30
0.0
 10
67.22810726740823
 20
93.25126774418167
 30
0.0
 10
67.37190243711933
 20
93.50032909952246
 30
0.0
 10
67.51046078388404
 20
93.74032065364904
 30
0.0
 10
67.62347230904727
 20
93.93605900180383
 30
0.0
 10
67.73396136407278
 20
94.12743213136449
 30
0.0
 10
67.84886978417003
 20
94.32646126270234
 30
0.0
 10
67.9636941398046
 20
94.52534278547367
 30
0.0
 10
68.11361049646722
 20
94.78500300537041
 30
0.0
 10
68.28841075285152
 20
95.08776784779072
 30
0.0
 10
68.47369282058308
 20
95.40868485924578
 30
0.0
 10
68.63658377922664
 20
95.6908200770461
 30
0.0
 10
68.73554761018399
 20
95.86223190324473
 30
0.0
 10
68.78499161231409
 20
95.9478721479453
 30
0.0
  0
SPLINE
  5
DD
330
1F
100
AcDbEntity
  8
0
  6
CONTINUOUS
 62
     7
100
AcDbSpline
210
0.0
220
0.0
230
1.0
 70
    24
 71
     3
 72
    28
 73
    24
 74
     0
 42
0.000000001
 43
0.00000001
 40
0.0
 40
0.0
 40
0.0
 40
0.0
 40
0.077963716450448
 40
0.1559189151560545
 40
0.2107969158902902
 40
0.2657993597366788
 40
0.3206116457536681
 40
0.3752293796388897
 40
0.407535512937312
 40
0.4397471269824713
 40
0.4579681894818166
 40
0.4761522669554515
 40
0.5059294056071305
 40
0.5355846383217798
 40
0.5538642582136927
 40
0.5721731488801245
 40
0.605599683696464
 40
0.6390995629664121
 40
0.7108779479898444
 40
0.7828619071377886
 40
0.8552263048721532
 40
0.9277593962032072
 40
0.9999999999999999
 40
0.9999999999999999
 40
0.9999999999999999
 40
0.9999999999999999
 10
60.12473847496401
 20
90.9478727253653
 30
0.0
 10
60.22090888193192
 20
90.9478727253653
 30
0.0
 10
60.4132391889932
 20
90.9478727253653
 30
0.0
 10
60.70179366572445
 20
90.9478727253653
 30
0.0
 10
60.97611814388332
 20
90.9478727253653
 30
0.0
 10
61.23826298699129
 20
90.9478727253653
 30
0.0
 10
61.53681066352127
 20
90.9478727253653
 30
0.0
 10
61.83571883247395
 20
90.9478727253653
 30
0.0
 10
62.12254081606222
 20
90.9478727253653
 30
0.0
 10
62.35270726438706
 20
90.9478727253653
 30
0.0
 10
62.56732901137688
 20
90.9478727253653
 30
0.0
 10
62.79145005607449
 20
90.9478727253653
 30
0.0
 10
63.0786195035129
 20
90.9478727253653
 30
0.0
 10
63.35711978927376
 20
90.9478727253653
 30
0.0
 10
63.57005137963856
 20
90.9478727253653
 30
0.0
 10
63.7768443398854
 20
90.9478727253653
 30
0.0
 10
64.00100764694876
 20
90.9478727253653
 30
0.0
 10
64.31759304580055
 20
90.9478727253653
 30
0.0
 10
64.67116584411869
 20
90.9478727253653
 30
0.0
 10
65.03758530747608
 20
90.9478727253653
 30
0.0
 10
65.35332307818047
 20
90.9478727253653
 30
0.0
 10
65.6348297188665
 20
90.9478727253653
 30
0.0
 10
65.81055611900122
 20
90.9478727253653
 30
0.0
 10
65.89824180829416
 20
90.9478727253653
 30
0.0
  0
SPLINE
  5
DE
330
1F
100
AcDbEntity
  8
0
  6
CONTINUOUS
 62
     7
100
AcDbSpline
210
0.0
220
0.0
230
1.0
 70
     8
 71
     3
 72
    27
 73
    23
 74
     0
 42
0.000000001
 43
0.00000001
 40
0.0
 40
0.0
 40
0.0
 40
0.0
 40
0.0973011280510984
 40
0.1945760885496758
 40
0.2437117650601114
 40
0.2929796999811204
 40
0.3420471229055733
 40
0.3909086041789384
 40
0.4337790042666994
 40
0.455556884190519
 40
0.4772635774574571
 40
0.5053774194578328
 40
0.5334845511598026
 40
0.5544026219894246
 40
0.575370233695289
 40
0.6090055587153237
 40
0.6428233598158405
 40
0.6766185804663055
 40
0.7572463970377807
 40
0.8380719173761961
 40
0.9190979855596164
 40
1.0
 40
1.0
 40
1.0
 40
1.0
 10
57.23798680829893
 20
95.9478721479453
 30
0.0
 10
57.29816986851551
 20
95.8436324523915
 30
0.0
 10
57.41851980369552
 20
95.63518109485106
 30
0.0
 10
57.59125475508426
 20
95.33599562148083
 30
0.0
 10
57.74236316112066
 20
95.07426624927258
 30
0.0
 10
57.86666584502825
 20
94.85897052899571
 30
0.0
 10
58.00847331764982
 20
94.61334962237338
 30
0.0
 10
58.16559814184459
 20
94.34120248203152
 30
0.0
 10
58.31433771760551
 20
94.08357819670695
 30
0.0
 10
58.44679917027991
 20
93.8541468415068
 30
0.0
 10
58.56785233242132
 20
93.64447657373708
 30
0.0
 10
58.71164916082103
 20
93.39541589182076
 30
0.0
 10
58.85020826563654
 20
93.15542465133284
 30
0.0
 10
58.96321697865137
 20
92.95968545886556
 30
0.0
 10
59.07370641000207
 20
92.76831260189286
 30
0.0
 10
59.18861690928016
 20
92.56928331890035
 30
0.0
 10
59.30344137676508
 20
92.37040180107188
 30
0.0
 10
59.45335401988623
 20
92.11074105385836
 30
0.0
 10
59.62815631118608
 20
91.80797735664129
 30
0.0
 10
59.81343777991183
 20
91.487059392749
 30
0.0
 10
59.97632833874579
 20
91.20492422522443
 30
0.0
 10
60.07529370214306
 20
91.03351278565827
 30
0.0
 10
60.12473847496401
 20
90.9478727253653
 30
0.0
  0
SPLINE
  5
DF
330
1F
100
AcDbEntity
  8
0
  6
CONTINUOUS
 62
     7
100
AcDbSpline
210
0.0
220
0.0
230
1.0
 70
     8
 71
     3
 72
    27
 73
    23
 74
     0
 42
0.000000001
 43
0.00000001
 40
0.0
 40
0.0
 40
0.0
 40
0.0
 40
0.09730113362725
 40
0.1945760860177486
 40
0.2437117692441707
 40
0.2929797081875022
 40
0.3420471253438931
 40
0.3909086350568582
 40
0.4337789795336927
 40
0.4555568668872372
 40
0.4772635769351104
 40
0.5053774000693828
 40
0.5334845492822934
 40
0.5544026197526802
 40
0.575370246018536
 40
0.6090055132522697
 40
0.6428233021679046
 40
0.6766185805297504
 40
0.7572464140325372
 40
0.8380719094801306
 40
0.9190979762720556
 40
1.0
 40
1.0
 40
1.0
 40
1.0
 10
60.12473847496401
 20
100.9478723272249
 30
0.0
 10
60.06455542066296
 20
100.8436324876574
 30
0.0
 10
59.94420550577549
 20
100.6351808567867
 30
0.0
 10
59.77147048879535
 20
100.3359958894144
 30
0.0
 10
59.6203621533758
 20
100.0742661290332
 30
0.0
 10
59.49605934680407
 20
99.85897027310766
 30
0.0
 10
59.35425232881211
 20
99.6133494508894
 30
0.0
 10
59.19712571820983
 20
99.34120249431048
 30
0.0
 10
59.04838762344038
 20
99.08357829784704
 30
0.0
 10
58.91592604246342
 20
98.85414695244411
 30
0.0
 10
58.79487309610725
 20
98.6444765142512
 30
0.0
 10
58.65107596848801
 20
98.39541596300461
 30
0.0
 10
58.51251708027687
 20
98.15542455035106
 30
0.0
 10
58.39950827927572
 20
97.9596853549383
 30
0.0
 10
58.2890188851056
 20
97.76831235052904
 30
0.0
 10
58.17410937851053
 20
97.56928335019877
 30
0.0
 10
58.05928523116323
 20
97.37040203117719
 30
0.0
 10
57.90936885600635
 20
97.11074135567864
 30
0.0
 10
57.73456863222533
 20
96.80797669235542
 30
0.0
 10
57.54928645512004
 20
96.48705992138066
 30
0.0
 10
57.38639579317648
 20
96.20492474118517
 30
0.0
 10
57.28743119971305
 20
96.0335125762836
 30
0.0
 10
57.23798680829893
 20
95.9478721479453
 30
0.0
  0
CIRCLE
  5
E0
330
1F
100
AcDbEntity
  8
0
  6
CONTINUOUS
 62
     7
100
AcDbCircle
 10
64.7614896803
 20
95.9478723061
 30
0.0
 40
0.5
  0
CIRCLE
  5
E1
330
1F
100
AcDbEntity
  8
0
  6
CONTINUOUS
 62
     7
100
AcDbCircle
 10
63.0114896803
 20
94.1978723061
 30
0.0
 40
0.5
  0
CIRCLE
  5
E2
330
1F
100
AcDbEntity
  8
0
  6
CONTINUOUS
 62
     7
100
AcDbCircle
 10
63.0114896803
 20
97.6978723061
 30
0.0
 40
0.5
  0
CIRCLE
  5
E3
330
1F
100
AcDbEntity
  8
0
  6
CONTINUOUS
 62
     7
100
AcDbCircle
 10
63.0114896803
 20
95.9478723061
 30
0.0
 40
2.794000000000004
  0
LINE
  5
E4
330
1F
100
AcDbEntity
  8
0
  6
CONTINUOUS
 62
     7
100
AcDbLine
 10
55.9034900345
 20
59.6278717267
 30
0.0
 11
66.5634892486
 21
59.6278717267
 31
0.0
  0
LINE
  5
E5
330
1F
100
AcDbEntity
  8
0
  6
CONTINUOUS
 62
     7
100
AcDbLine
 10
66.3134906046
 20
59.37787122
 30
0.0
 11
56.1534896098
 21
59.37787122
 31
0.0
  0
CIRCLE
  5
E6
330
1F
100
AcDbEntity
  8
0
  6
CONTINUOUS
 62
     7
100
AcDbCircle
 10
62.9349321572
 20
80.7313906289
 30
0.0
 40
4.79999999999999
  0
CIRCLE
  5
E7
330
1F
100
AcDbEntity
  8
0
  6
CONTINUOUS
 62
     7
100
AcDbCircle
 10
62.9349321572
 20
80.7313906289
 30
0.0
 40
4.110000000000007
  0
LINE
  5
E8
330
1F
100
AcDbEntity
  8
0
  6
CONTINUOUS
 62
     7
100
AcDbLine
 10
57.5549317129
 20
81.7313899743
 30
0.0
 11
57.5549317129
 21
79.7313915091
 31
0.0
  0
LINE
  5
E9
330
1F
100
AcDbEntity
  8
0
  6
CONTINUOUS
 62
     7
100
AcDbLine
 10
68.3149326198
 20
81.7313899743
 30
0.0
 11
68.3149326198
 21
79.7313915091
 31
0.0
  0
CIRCLE
  5
EA
330
1F
100
AcDbEntity
  8
0
  6
CONTINUOUS
 62
     7
100
AcDbCircle
 10
62.9349321572
 20
80.7313906289
 30
0.0
 40
6.25
  0
LINE
  5
EB
330
1F
100
AcDbEntity
  8
0
  6
CONTINUOUS
 62
     7
100
AcDbLine
 10
52.8514900782
 20
64.1978716003
 30
0.0
 11
52.8514900782
 21
67.3728731918
 31
0.0
  0
LINE
  5
EC
330
1F
100
AcDbEntity
  8
0
  6
CONTINUOUS
 62
     7
100
AcDbLine
 10
52.8514900782
 20
67.3728731918
 30
0.0
 11
70.5044887565
 21
67.3728731918
 31
0.0
  0
LINE
  5
ED
330
1F
100
AcDbEntity
  8
0
  6
CONTINUOUS
 62
     7
100
AcDbLine
 10
70.5044887565
 20
64.1978716003
 30
0.0
 11
70.5044887565
 21
67.3728731918
 31
0.0
  0
LINE
  5
EE
330
1F
100
AcDbEntity
  8
0
  6
CONTINUOUS
 62
     7
100
AcDbLine
 10
70.5044887565
 20
64.1978716003
 30
0.0
 11
52.8514900782
 21
64.1978716003
 31
0.0
  0
LINE
  5
EF
330
1F
100
AcDbEntity
  8
0
  6
CONTINUOUS
 62
     7
100
AcDbLine
 10
71.9014893823
 20
67.3728731918
 30
0.0
 11
71.9014896803
 21
65.5948723061
 31
0.0
  0
ARC
  5
F0
330
1F
100
AcDbEntity
  8
0
  6
CONTINUOUS
 62
     7
100
AcDbCircle
 10
70.5044896803
 20
65.5948716003
 30
0.0
 40
1.396999999999998
100
AcDbArc
 50
269.9999621141
 51
0.0000289461
  0
LINE
  5
F1
330
1F
100
AcDbEntity
  8
0
  6
CONTINUOUS
 62
     7
100
AcDbLine
 10
70.5044887565
 20
67.3728731918
 30
0.0
 11
71.9014893823
 21
67.3728731918
 31
0.0
  0
LINE
  5
F2
330
1F
100
AcDbEntity
  8
0
  6
CONTINUOUS
 62
     7
100
AcDbLine
 10
52.8514900782
 20
107.3778721029
 30
0.0
 11
70.5044887565
 21
107.3778721029
 31
0.0
  0
LINE
  5
F3
330
1F
100
AcDbEntity
  8
0
  6
CONTINUOUS
 62
     7
100
AcDbLine
 10
70.5044887565
 20
104.2028723741
 30
0.0
 11
70.5044887565
 21
107.3778721029
 31
0.0
  0
LINE
  5
F4
330
1F
100
AcDbEntity
  8
0
  6
CONTINUOUS
 62
     7
100
AcDbLine
 10
70.5044887565
 20
104.2028723741
 30
0.0
 11
52.8514900782
 21
104.2028723741
 31
0.0
  0
LINE
  5
F5
330
1F
100
AcDbEntity
  8
0
  6
CONTINUOUS
 62
     7
100
AcDbLine
 10
52.8514900782
 20
104.2028723741
 30
0.0
 11
52.8514900782
 21
107.3778721029
 31
0.0
  0
LINE
  5
F6
330
1F
100
AcDbEntity
  8
0
  6
CONTINUOUS
 62
     7
100
AcDbLine
 10
70.5044887565
 20
67.3728731918
 30
0.0
 11
70.5044887565
 21
104.2028723741
 31
0.0
  0
LINE
  5
F7
330
1F
100
AcDbEntity
  8
0
  6
CONTINUOUS
 62
     7
100
AcDbLine
 10
70.5044887565
 20
104.2028723741
 30
0.0
 11
71.9014893823
 21
104.2028723741
 31
0.0
  0
LINE
  5
F8
330
1F
100
AcDbEntity
  8
0
  6
CONTINUOUS
 62
     7
100
AcDbLine
 10
71.9014893823
 20
104.2028723741
 30
0.0
 11
71.9014893823
 21
67.3728731918
 31
0.0
  0
CIRCLE
  5
F9
330
1F
100
AcDbEntity
  8
0
  6
CONTINUOUS
 62
     7
100
AcDbCircle
 10
57.2964896803
 20
89.0898723061
 30
0.0
 40
1.651000000000003
  0
LINE
  5
FA
330
1F
100
AcDbEntity
  8
0
  6
CONTINUOUS
 62
     7
100
AcDbLine
 10
52.8514900782
 20
104.2028723741
 30
0.0
 11
52.8514900782
 21
67.3728731918
 31
0.0
  0
ARC
  5
FB
330
1F
100
AcDbEntity
  8
0
  6
CONTINUOUS
 62
     7
100
AcDbCircle
 10
70.5044896803
 20
105.9808723061
 30
0.0
 40
1.396999999999991
100
AcDbArc
 50
0.0
 51
90.0
  0
LINE
  5
FC
330
1F
100
AcDbEntity
  8
0
  6
CONTINUOUS
 62
     7
100
AcDbLine
 10
71.9014896803
 20
105.9808723061
 30
0.0
 11
71.9014893823
 21
104.2028723741
 31
0.0
  0
LINE
  5
FD
330
1F
100
AcDbEntity
  8
0
  6
CONTINUOUS
 62
     7
100
AcDbLine
 10
73.9334899538
 20
98.9323722888
 30
0.0
 11
73.9334899538
 21
72.6433729278
 31
0.0
  0
LINE
  5
FE
330
1F
100
AcDbEntity
  8
0
  6
CONTINUOUS
 62
     8
100
AcDbLine
 10
52.8387896322
 20
103.8853724013
 30
0.0
 11
52.8387896322
 21
103.8853724013
 31
0.0
  0
LINE
  5
FF
330
1F
100
AcDbEntity
  8
0
  6
CONTINUOUS
 62
     8
100
AcDbLine
 10
52.8387896322
 20
67.6903722333
 30
0.0
 11
52.8387896322
 21
67.6903722333
 31
0.0
  0
LINE
  5
100
330
1F
100
AcDbEntity
  8
0
  6
CENTERX2
 62
     7
100
AcDbLine
 10
69.3334896803
 20
87.3714219223
 30
0.0
 11
69.3334896803
 21
84.2376688774
 31
0.0
  0
DIMENSION
  5
101
330
1F
100
AcDbEntity
  8
0
  6
CONTINUOUS
 62
     7
100
AcDbDimension
  2
_D
 10
73.9334896803
 20
119.27743575
 30
0.0
 11
88.1149798983
 21
119.27743575
 31
0.0
 70
   160
  1
<>
  3
SLDDIMSTYLE0
100
AcDbAlignedDimension
 13
69.3334896803
 23
87.3714219223
 33
0.0
 14
73.9334896803
 24
98.9323723061
 34
0.0
100
AcDbRotatedDimension
  0
DIMENSION
  5
116
330
1F
100
AcDbEntity
  8
0
  6
CONTINUOUS
 62
     7
100
AcDbDimension
  2
_D_1
 10
73.9334896803
 20
131.3956364509
 30
0.0
 11
63.3924896803
 21
131.3956364509
 31
0.0
 70
   160
  1
<>
  3
SLDDIMSTYLE0
100
AcDbAlignedDimension
 13
52.8514896803
 23
104.2028723061
 33
0.0
 14
73.9334896803
 24
98.9323723061
 34
0.0
 50
0.0
100
AcDbRotatedDimension
  0
DIMENSION
  5
12A
330
1F
100
AcDbEntity
  8
0
  6
CONTINUOUS
 62
     7
100
AcDbDimension
  2
_D_2
 10
73.9334896803
 20
45.8849361777
 30
0.0
 11
48.7046122251
 21
45.8849361777
 31
0.0
 70
   160
  1
<>
  3
SLDDIMSTYLE1
100
AcDbAlignedDimension
 13
61.2334896803
 23
57.3778723061
 33
0.0
 14
73.9334896803
 24
72.6433723061
 34
0.0
 50
0.0
100
AcDbRotatedDimension
  0
MTEXT
  5
13F
330
1F
100
AcDbEntity
  8
0
  6
CONTINUOUS
 62
     7
100
AcDbMText
 10
96.0589837994
 20
47.9902221759
 30
0.0
 40
2.1166666667
 41
0.0
 71
     1
 72
     1
  1
SM1 (1.035-40) EXTERNAL THREAD
  7
SLDTEXTSTYLE0
  0
LEADER
  5
141
330
1F
100
AcDbEntity
  8
0
  6
CONTINUOUS
 62
     7
100
AcDbLeader
  3
SLDDIMSTYLE2
 76
     3
 10
73.2288393111
 20
72.6433723061
 30
0.0
 10
89.143413831
 20
47.0893127192
 30
0.0
 10
95.493413831
 20
47.0893127192
 30
0.0
1001
ACAD
1000
DSTYLE
1002
{
1070
     6
1000

1002
}
  0
MTEXT
  5
142
330
1F
100
AcDbEntity
  8
0
  6
CONTINUOUS
 62
     7
100
AcDbMText
 10
8.2572726911
 20
101.9809565641
 30
0.0
 40
2.1166666667
 41
0.0
 71
     1
 72
     1
  1
POWER INDICATOR LED
  7
SLDTEXTSTYLE0
  0
LEADER
  5
143
330
1F
100
AcDbEntity
  8
0
  6
CONTINUOUS
 62
     7
100
AcDbLeader
  3
SLDDIMSTYLE2
 76
     3
 10
55.8744565098
 20
89.9267245404
 30
0.0
 10
46.7856655883
 20
100.8763599201
 30
0.0
 10
40.4356655883
 20
100.8763599201
 30
0.0
1001
ACAD
1000
DSTYLE
1002
{
1070
     6
1000

1002
}
  0
INSERT
  5
14B
102
{ACAD_REACTORS
330
14C
102
}
330
1F
100
AcDbEntity
  8
0
  6
CONTINUOUS
 62
     7
100
AcDbBlockReference
  2
SW_NOTE_3
 10
42.9259055982
 20
117.4833364147
 30
0.0
  0
LEADER
  5
14C
330
1F
100
AcDbEntity
  8
0
  6
CONTINUOUS
 62
     7
100
AcDbLeader
  3
SLDDIMSTYLE2
 73
     2
 76
     3
 10
59.198377026
 20
98.6092012759
 30
0.0
 10
49.2759055982
 20
117.4833364147
 30
0.0
 10
42.9259055982
 20
117.4833364147
 30
0.0
340
14B
1001
ACAD
1000
DSTYLE
1002
{
1070
     6
1000

1002
}
  0
MTEXT
  5
14D
330
1F
100
AcDbEntity
  8
0
  6
CONTINUOUS
 62
     7
100
AcDbMText
 10
39.8784090882
 20
70.2546406555
 30
0.0
 40
2.1166666667
 41
0.0
 71
     3
 72
     1
  1
OUTPUT BNC
  7
SLDTEXTSTYLE0
  0
LEADER
  5
14E
330
1F
100
AcDbEntity
  8
0
  6
CONTINUOUS
 62
     7
100
AcDbLeader
  3
SLDDIMSTYLE2
 76
     3
 10
58.2932899479
 20
76.5459805414
 30
0.0
 10
46.8609769484
 20
69.2627485041
 30
0.0
 10
40.5109769484
 20
69.2627485041
 30
0.0
1001
ACAD
1000
DSTYLE
1002
{
1070
     6
1000

1002
}
  0
MTEXT
  5
14F
330
1F
100
AcDbEntity
  8
0
  6
CONTINUOUS
 62
     7
100
AcDbMText
 10
90.5588139367
 20
70.2546406555
 30
0.0
 40
2.1166666667
 41
0.0
 71
     1
 72
     1
  1
DETECTOR SURFACE
  7
SLDTEXTSTYLE0
  0
LEADER
  5
150
330
1F
100
AcDbEntity
  8
0
  6
CONTINUOUS
 62
     7
100
AcDbLeader
  3
SLDDIMSTYLE2
 76
     3
 10
69.3334896803
 20
85.7195431349
 30
0.0
 10
83.6549396268
 20
69.2627485041
 30
0.0
 10
90.0049396268
 20
69.2627485041
 30
0.0
1001
ACAD
1000
DSTYLE
1002
{
1070
     6
1000

1002
}
  0
LINE
  5
151
330
1F
100
AcDbEntity
  8
0
  6
CENTERX2
 62
     7
100
AcDbLine
 10
61.2334896803
 20
69.4978723061
 30
0.0
 11
61.2334896803
 21
57.3778723061
 31
0.0
  0
LINE
  5
152
330
1F
100
AcDbEntity
  8
0
  6
CENTERX2
 62
     7
100
AcDbLine
 10
75.9334896803
 20
85.7878723061
 30
0.0
 11
68.1286272161
 21
85.7878723061
 31
0.0
  0
ARC
  5
153
330
1F
100
AcDbEntity
  8
0
  6
CONTINUOUS
 62
     7
100
AcDbCircle
 10
157.8951716978
 20
89.0898723061
 30
0.0
 40
1.650000000000006
100
AcDbArc
 50
90.0
 51
270.0
  0
LINE
  5
154
330
1F
100
AcDbEntity
  8
0
  6
CONTINUOUS
 62
     7
100
AcDbLine
 10
151.322830893
 20
100.9495126773
 30
0.0
 11
149.335371755
 21
100.5978723106
 31
0.0
  0
LINE
  5
155
330
1F
100
AcDbEntity
  8
0
  6
CONTINUOUS
 62
     7
100
AcDbLine
 10
149.335371755
 20
91.2978721308
 30
0.0
 11
151.322830893
 21
90.946231735
 31
0.0
  0
LINE
  5
156
330
1F
100
AcDbEntity
  8
0
  6
CONTINUOUS
 62
     7
100
AcDbLine
 10
190.665170975
 20
64.1978716003
 30
0.0
 11
190.665170975
 21
59.6278717267
 31
0.0
  0
LINE
  5
157
330
1F
100
AcDbEntity
  8
0
  6
CONTINUOUS
 62
     7
100
AcDbLine
 10
201.3251729831
 20
59.6278717267
 30
0.0
 11
201.3251729831
 21
64.1978716003
 31
0.0
  0
LINE
  5
158
330
1F
100
AcDbEntity
  8
0
  6
CONTINUOUS
 62
     7
100
AcDbLine
 10
190.665170975
 20
59.6278717267
 30
0.0
 11
190.9151714816
 21
59.37787122
 31
0.0
  0
LINE
  5
159
330
1F
100
AcDbEntity
  8
0
  6
CONTINUOUS
 62
     7
100
AcDbLine
 10
201.0751724764
 20
59.37787122
 30
0.0
 11
201.3251729831
 21
59.6278717267
 31
0.0
  0
LINE
  5
15A
330
1F
100
AcDbEntity
  8
0
  6
CONTINUOUS
 62
     7
100
AcDbLine
 10
211.2351716086
 20
80.4578715461
 30
0.0
 11
215.8051714822
 21
80.4578715461
 31
0.0
  0
LINE
  5
15B
330
1F
100
AcDbEntity
  8
0
  6
CONTINUOUS
 62
     7
100
AcDbLine
 10
215.8051714822
 20
91.1178726228
 30
0.0
 11
211.2351716086
 21
91.1178726228
 31
0.0
  0
LINE
  5
15C
330
1F
100
AcDbEntity
  8
0
  6
CONTINUOUS
 62
     7
100
AcDbLine
 10
215.8051714822
 20
80.4578715461
 30
0.0
 11
216.0551719889
 21
80.7078720527
 31
0.0
  0
LINE
  5
15D
330
1F
100
AcDbEntity
  8
0
  6
CONTINUOUS
 62
     7
100
AcDbLine
 10
216.0551719889
 20
90.8678721162
 30
0.0
 11
215.8051714822
 21
91.1178726228
 31
0.0
  0
LINE
  5
15E
330
1F
100
AcDbEntity
  8
0
  6
CONTINUOUS
 62
     7
100
AcDbLine
 10
156.6451717689
 20
74.4813901829
 30
0.0
 11
157.8951715081
 21
74.4813901829
 31
0.0
  0
LINE
  5
15F
330
1F
100
AcDbEntity
  8
0
  6
CONTINUOUS
 62
     7
100
AcDbLine
 10
157.8951715081
 20
86.9813903692
 30
0.0
 11
156.6451717689
 21
86.9813903692
 31
0.0
  0
ARC
  5
160
330
1F
100
AcDbEntity
  8
0
  6
CONTINUOUS
 62
     7
100
AcDbCircle
 10
150.0651730421
 20
94.1933908338
 30
0.0
 40
8.761999999999933
100
AcDbArc
 50
261.3353661351
 51
278.6646190742
  0
ARC
  5
161
330
1F
100
AcDbEntity
  8
0
  6
CONTINUOUS
 62
     7
100
AcDbCircle
 10
150.0651713526
 20
67.2693905763
 30
0.0
 40
8.761999999999956
100
AcDbArc
 50
81.3353693155
 51
98.6646256832
  0
LINE
  5
162
330
1F
100
AcDbEntity
  8
0
  6
CONTINUOUS
 62
     7
100
AcDbLine
 10
151.3851717635
 20
75.9313905137
 30
0.0
 11
156.6451717689
 21
75.9313905137
 31
0.0
  0
LINE
  5
163
330
1F
100
AcDbEntity
  8
0
  6
CONTINUOUS
 62
     7
100
AcDbLine
 10
156.6451717689
 20
85.5313909697
 30
0.0
 11
151.3851717635
 21
85.5313909697
 31
0.0
  0
LINE
  5
164
330
1F
100
AcDbEntity
  8
0
  6
CONTINUOUS
 62
     7
100
AcDbLine
 10
145.8651725724
 20
75.9313905137
 30
0.0
 11
148.7451721504
 21
75.9313905137
 31
0.0
  0
LINE
  5
165
330
1F
100
AcDbEntity
  8
0
  6
CONTINUOUS
 62
     7
100
AcDbLine
 10
148.7451721504
 20
85.5313909697
 30
0.0
 11
145.8651725724
 21
85.5313909697
 31
0.0
  0
CIRCLE
  5
166
330
1F
100
AcDbEntity
  8
0
  6
CONTINUOUS
 62
     7
100
AcDbCircle
 10
195.9951716978
 20
85.7878723061
 30
0.0
 40
15.24000000000001
  0
CIRCLE
  5
167
330
1F
100
AcDbEntity
  8
0
  6
CONTINUOUS
 62
     7
100
AcDbCircle
 10
195.9951716978
 20
85.7878723061
 30
0.0
 40
14.98599999999999
  0
CIRCLE
  5
168
330
1F
100
AcDbEntity
  8
0
  6
CONTINUOUS
 62
     7
100
AcDbCircle
 10
195.9951716978
 20
85.7878723061
 30
0.0
 40
13.58444090512248
  0
CIRCLE
  5
169
330
1F
100
AcDbEntity
  8
0
  6
CONTINUOUS
 62
     7
100
AcDbCircle
 10
195.9951716978
 20
85.7878723061
 30
0.0
 40
13.14449999999999
  0
LINE
  5
16A
330
1F
100
AcDbEntity
  8
0
  6
CONTINUOUS
 62
     7
100
AcDbLine
 10
157.8951715081
 20
100.9478723272
 30
0.0
 11
155.6853721439
 21
100.9478723272
 31
0.0
  0
LINE
  5
16B
330
1F
100
AcDbEntity
  8
0
  6
CONTINUOUS
 62
     7
100
AcDbLine
 10
157.8951715081
 20
95.9478721479
 30
0.0
 11
155.6853721439
 21
95.9478721479
 31
0.0
  0
SPLINE
  5
16C
330
1F
100
AcDbEntity
  8
0
  6
CONTINUOUS
 62
     7
100
AcDbSpline
210
0.0
220
0.0
230
1.0
 70
     8
 71
     3
 72
    27
 73
    23
 74
     0
 42
0.000000001
 43
0.00000001
 40
0.0
 40
0.0
 40
0.0
 40
0.0
 40
0.0973011125026961
 40
0.1945760671259902
 40
0.2437117886882184
 40
0.2929796843028996
 40
0.3420471533927943
 40
0.3909086089111569
 40
0.4337790137637737
 40
0.4555569095908513
 40
0.4772636203063399
 40
0.5053773593961987
 40
0.5334845094735777
 40
0.5544026482298507
 40
0.5753702751405906
 40
0.6090055227073977
 40
0.6428233097621113
 40
0.6766185917569797
 40
0.7572464248776993
 40
0.8380719252593796
 40
0.9190979962631419
 40
1.0
 40
1.0
 40
1.0
 40
1.0
 10
155.6853721439309
 20
95.94787214794529
 30
0.0
 10
155.352641739124
 20
96.05211207044793
 30
0.0
 10
154.6872703788657
 20
96.2605638921835
 30
0.0
 10
153.8706849796368
 20
96.55974893489302
 30
0.0
 10
153.2264804822254
 20
96.82147832667943
 30
0.0
 10
152.7510620708941
 20
97.03677454304704
 30
0.0
 10
152.2962335692916
 20
97.28239477800275
 30
0.0
 10
151.8910858345206
 20
97.55454267871703
 30
0.0
 10
151.6007122895967
 20
97.81216594198284
 30
0.0
 10
151.4297572341135
 20
98.04159775762525
 30
0.0
 10
151.3293324465072
 20
98.25126766879892
 30
0.0
 10
151.2971346122281
 20
98.50032916019863
 30
0.0
 10
151.3662807894941
 20
98.74032057959774
 30
0.0
 10
151.4856813681099
 20
98.93605879269835
 30
0.0
 10
151.649975246409
 20
99.12743216334313
 30
0.0
 10
151.8764884899061
 20
99.32646150319164
 30
0.0
 10
152.1649677484512
 20
99.52534257408027
 30
0.0
 10
152.6132511495423
 20
99.78500342119423
 30
0.0
 10
153.2324315337492
 20
100.0877678880776
 30
0.0
 10
154.0331198000004
 20
100.4086847872871
 30
0.0
 10
154.8537889842817
 20
100.6908200650332
 30
0.0
 10
155.4083193821344
 20
100.8622320177262
 30
0.0
 10
155.6853721439309
 20
100.9478723272249
 30
0.0
  0
SPLINE
  5
16D
330
1F
100
AcDbEntity
  8
0
  6
CONTINUOUS
 62
     7
100
AcDbSpline
210
0.0
220
0.0
230
1.0
 70
     8
 71
     3
 72
    18
 73
    14
 74
     0
 42
0.000000001
 43
0.00000001
 40
0.0
 40
0.0
 40
0.0
 40
0.0
 40
0.1790483417769847
 40
0.3580625383284187
 40
0.4793099858914944
 40
0.6005837595636334
 40
0.7214809230824731
 40
0.7879718729464559
 40
0.8553499660220214
 40
0.8916351691506602
 40
0.9285404694053785
 40
0.9878620418699631
 40
0.9999999999999999
 40
0.9999999999999999
 40
0.9999999999999999
 40
0.9999999999999999
 10
155.6853721439309
 20
100.9478723272249
 30
0.0
 10
155.3792176191513
 20
100.9478723272249
 30
0.0
 10
154.7669669544684
 20
100.9478723272249
 30
0.0
 10
153.9619078745773
 20
100.9478723272249
 30
0.0
 10
153.265713493423
 20
100.9478723272249
 30
0.0
 10
152.6819525631085
 20
100.9478723272249
 30
0.0
 10
152.2111952994525
 20
100.9478723272249
 30
0.0
 10
151.8508083062329
 20
100.9478723272249
 30
0.0
 10
151.6349678889521
 20
100.9478723272249
 30
0.0
 10
151.4836422739704
 20
100.9478723272249
 30
0.0
 10
151.3739562434176
 20
100.9478723272249
 30
0.0
 10
151.3025070116467
 20
100.9478723272249
 30
0.0
 10
151.320128344917
 20
100.9478723272249
 30
0.0
 10
151.3228308930464
 20
100.9495126773171
 30
0.0
  0
SPLINE
  5
16E
330
1F
100
AcDbEntity
  8
0
  6
CONTINUOUS
 62
     7
100
AcDbSpline
210
0.0
220
0.0
230
1.0
 70
     8
 71
     3
 72
    27
 73
    23
 74
     0
 42
0.000000001
 43
0.00000001
 40
0.0
 40
0.0
 40
0.0
 40
0.0
 40
0.0973011016800408
 40
0.1945760511674069
 40
0.2437117816697337
 40
0.2929796783280758
 40
0.3420471287557894
 40
0.3909086081885134
 40
0.4337790139492705
 40
0.455556894630223
 40
0.477263622959255
 40
0.5053773442613134
 40
0.5334845129277392
 40
0.5544026603385311
 40
0.5753702727733585
 40
0.6090055110961923
 40
0.6428233133724235
 40
0.6766185831151519
 40
0.7572464208057136
 40
0.8380719282856007
 40
0.9190979992859846
 40
1.0
 40
1.0
 40
1.0
 40
1.0
 10
155.6853721439309
 20
90.94787272536529
 30
0.0
 10
155.3526417410533
 20
91.05211249320904
 30
0.0
 10
154.6872703652167
 20
91.2605640117575
 30
0.0
 10
153.8706848750096
 20
91.55974868442713
 30
0.0
 10
153.2264805136718
 20
91.82147845557228
 30
0.0
 10
152.7510622101096
 20
92.03677477058905
 30
0.0
 10
152.296233312343
 20
92.28239425745795
 30
0.0
 10
151.8910859449887
 20
92.55454284205989
 30
0.0
 10
151.6007123955903
 20
92.81216609833187
 30
0.0
 10
151.4297571270737
 20
93.04159766234885
 30
0.0
 10
151.3293325277331
 20
93.25126774418166
 30
0.0
 10
151.2971346047966
 20
93.50032909952245
 30
0.0
 10
151.366280797924
 20
93.74032065364904
 30
0.0
 10
151.4856812832772
 20
93.93605900180381
 30
0.0
 10
151.6499752978325
 20
94.12743213136446
 30
0.0
 10
151.8764886214209
 20
94.32646126270231
 30
0.0
 10
152.164967583008
 20
94.52534278547365
 30
0.0
 10
152.6132513405639
 20
94.7850030053704
 30
0.0
 10
153.2324315017729
 20
95.0877678477907
 30
0.0
 10
154.0331197701011
 20
95.40868485924578
 30
0.0
 10
154.8537889677583
 20
95.69082007704608
 30
0.0
 10
155.4083193800797
 20
95.86223190324472
 30
0.0
 10
155.6853721439309
 20
95.94787214794529
 30
0.0
  0
SPLINE
  5
16F
330
1F
100
AcDbEntity
  8
0
  6
CONTINUOUS
 62
     7
100
AcDbSpline
210
0.0
220
0.0
230
1.0
 70
     8
 71
     3
 72
    18
 73
    14
 74
     0
 42
0.000000001
 43
0.00000001
 40
0.0
 40
0.0
 40
0.0
 40
0.0
 40
0.0121379595247327
 40
0.0714595388055827
 40
0.1076844282625685
 40
0.14465062319532
 40
0.21099440514909
 40
0.2785207632059659
 40
0.3970087023228752
 40
0.5158550230852473
 40
0.634674465044811
 40
0.8173182746133153
 40
1.0
 40
1.0
 40
1.0
 40
1.0
 10
151.3228308930464
 20
90.94623173498881
 30
0.0
 10
151.3201280402314
 20
90.94787272536529
 30
0.0
 10
151.3025049131927
 20
90.94787272536529
 30
0.0
 10
151.3735505586738
 20
90.94787272536529
 30
0.0
 10
151.4829454449336
 20
90.94787272536529
 30
0.0
 10
151.6329968153909
 20
90.94787272536529
 30
0.0
 10
151.8493691071941
 20
90.94787272536529
 30
0.0
 10
152.2062073755025
 20
90.94787272536529
 30
0.0
 10
152.6708054971834
 20
90.94787272536529
 30
0.0
 10
153.2422354082495
 20
90.94787272536529
 30
0.0
 10
153.9356077252758
 20
90.94787272536529
 30
0.0
 10
154.7483696233269
 20
90.94787272536529
 30
0.0
 10
155.3730163604531
 20
90.94787272536529
 30
0.0
 10
155.6853721439309
 20
90.94787272536529
 30
0.0
  0
LINE
  5
170
330
1F
100
AcDbEntity
  8
0
  6
CONTINUOUS
 62
     7
100
AcDbLine
 10
149.335371755
 20
100.5978723106
 30
0.0
 11
149.335371755
 21
91.2978721308
 31
0.0
  0
LINE
  5
171
330
1F
100
AcDbEntity
  8
0
  6
CONTINUOUS
 62
     7
100
AcDbLine
 10
157.8951715081
 20
90.9478727254
 30
0.0
 11
155.6853721439
 21
90.9478727254
 31
0.0
  0
ARC
  5
172
330
1F
100
AcDbEntity
  8
0
  6
CONTINUOUS
 62
     7
100
AcDbCircle
 10
177.8976716978
 20
69.5953740417
 30
0.0
 40
1.269999999999996
100
AcDbArc
 50
269.999998395
 51
359.9999216972
  0
LINE
  5
173
330
1F
100
AcDbEntity
  8
0
  6
CONTINUOUS
 62
     7
100
AcDbLine
 10
163.2936716978
 20
68.3253723061
 30
0.0
 11
177.8976716622
 21
68.3253740417
 31
0.0
  0
ARC
  5
174
330
1F
100
AcDbEntity
  8
0
  6
CONTINUOUS
 62
     7
100
AcDbCircle
 10
163.2936718617
 20
69.5953723061
 30
0.0
 40
1.270000000000032
100
AcDbArc
 50
180.0000106241
 51
269.9999926061
  0
LINE
  5
175
330
1F
100
AcDbEntity
  8
0
  6
CONTINUOUS
 62
     7
100
AcDbLine
 10
162.0236716978
 20
101.9793723061
 30
0.0
 11
162.0236718617
 21
69.5953720706
 31
0.0
  0
ARC
  5
176
330
1F
100
AcDbEntity
  8
0
  6
CONTINUOUS
 62
     7
100
AcDbCircle
 10
163.2936716978
 20
101.9793722151
 30
0.0
 40
1.27000000000004
100
AcDbArc
 50
89.9999975002
 51
179.9999958928
  0
LINE
  5
177
330
1F
100
AcDbEntity
  8
0
  6
CONTINUOUS
 62
     7
100
AcDbLine
 10
177.8976716978
 20
103.2493723061
 30
0.0
 11
163.2936717532
 21
103.2493722151
 31
0.0
  0
ARC
  5
178
330
1F
100
AcDbEntity
  8
0
  6
CONTINUOUS
 62
     7
100
AcDbCircle
 10
177.8976715537
 20
101.9793723061
 30
0.0
 40
1.27000000000001
100
AcDbArc
 50
0.0000007869
 51
89.9999935009
  0
LINE
  5
179
330
1F
100
AcDbEntity
  8
0
  6
CONTINUOUS
 62
     7
100
AcDbLine
 10
179.1676716978
 20
69.5953723061
 30
0.0
 11
179.1676715537
 21
101.9793723235
 31
0.0
  0
LINE
  5
17A
330
1F
100
AcDbEntity
  8
0
  6
CONTINUOUS
 62
     7
100
AcDbLine
 10
200.9212881848
 20
59.6278717267
 30
0.0
 11
201.3251729831
 21
59.6278717267
 31
0.0
  0
LINE
  5
17B
330
1F
100
AcDbEntity
  8
0
  6
CONTINUOUS
 62
     7
100
AcDbLine
 10
190.665170975
 20
59.6278717267
 30
0.0
 11
200.9212881848
 21
59.6278717267
 31
0.0
  0
LINE
  5
17C
330
1F
100
AcDbEntity
  8
0
  6
CONTINUOUS
 62
     7
100
AcDbLine
 10
200.6902307793
 20
59.37787122
 30
0.0
 11
190.9151714816
 21
59.37787122
 31
0.0
  0
LINE
  5
17D
330
1F
100
AcDbEntity
  8
0
  6
CONTINUOUS
 62
     7
100
AcDbLine
 10
201.0751724764
 20
59.37787122
 30
0.0
 11
200.6902307793
 21
59.37787122
 31
0.0
  0
LINE
  5
17E
330
1F
100
AcDbEntity
  8
0
  6
CONTINUOUS
 62
     7
100
AcDbLine
 10
215.8051714822
 20
90.8390430259
 30
0.0
 11
215.8051714822
 21
91.1178726228
 31
0.0
  0
LINE
  5
17F
330
1F
100
AcDbEntity
  8
0
  6
CONTINUOUS
 62
     7
100
AcDbLine
 10
215.8051714822
 20
80.4578715461
 30
0.0
 11
215.8051714822
 21
90.8390430259
 31
0.0
  0
LINE
  5
180
330
1F
100
AcDbEntity
  8
0
  6
CONTINUOUS
 62
     7
100
AcDbLine
 10
216.0551719889
 20
90.6021220135
 30
0.0
 11
216.0551719889
 21
80.7078720527
 31
0.0
  0
LINE
  5
181
330
1F
100
AcDbEntity
  8
0
  6
CONTINUOUS
 62
     7
100
AcDbLine
 10
216.0551719889
 20
90.8678721162
 30
0.0
 11
216.0551719889
 21
90.6021220135
 31
0.0
  0
CIRCLE
  5
182
330
1F
100
AcDbEntity
  8
0
  6
CONTINUOUS
 62
     7
100
AcDbCircle
 10
195.9951716978
 20
85.7878723061
 30
0.0
 40
2.720000000000002
  0
CIRCLE
  5
183
330
1F
100
AcDbEntity
  8
0
  6
CONTINUOUS
 62
     7
100
AcDbCircle
 10
195.9951716978
 20
85.7878723061
 30
0.0
 40
6.369999999999995
  0
CIRCLE
  5
184
330
1F
100
AcDbEntity
  8
0
  6
CONTINUOUS
 62
     7
100
AcDbCircle
 10
195.9951716978
 20
85.7878723061
 30
0.0
 40
2.048700000000011
  0
CIRCLE
  5
185
330
1F
100
AcDbEntity
  8
0
  6
CONTINUOUS
 62
     7
100
AcDbCircle
 10
195.9951716978
 20
85.7878723061
 30
0.0
 40
2.298700000000011
  0
CIRCLE
  5
186
330
1F
100
AcDbEntity
  8
0
  6
CONTINUOUS
 62
     7
100
AcDbCircle
 10
195.9951716978
 20
85.7878723061
 30
0.0
 40
1.015999999999991
  0
CIRCLE
  5
187
330
1F
100
AcDbEntity
  8
0
  6
CONTINUOUS
 62
     7
100
AcDbCircle
 10
195.9951716978
 20
85.7878723061
 30
0.0
 40
0.875
  0
CIRCLE
  5
188
330
1F
100
AcDbEntity
  8
0
  6
CONTINUOUS
 62
     7
100
AcDbCircle
 10
195.9951716978
 20
85.7878723061
 30
0.0
 40
2.548700000000011
  0
LINE
  5
189
330
1F
100
AcDbEntity
  8
0
  6
CONTINUOUS
 62
     7
100
AcDbLine
 10
197.4964350983
 20
88.0075569721
 30
0.0
 11
198.2148554697
 21
87.2891366007
 31
0.0
  0
ARC
  5
18A
330
1F
100
AcDbEntity
  8
0
  6
CONTINUOUS
 62
     7
100
AcDbCircle
 10
195.9951717752
 20
85.7878721917
 30
0.0
 40
2.679700000000005
100
AcDbArc
 50
55.9279077498
 51
34.0721101052
  0
LINE
  5
18B
330
1F
100
AcDbEntity
  8
0
  6
CONTINUOUS
 62
     7
100
AcDbLine
 10
156.6451717689
 20
86.9813903692
 30
0.0
 11
156.6451717689
 21
74.4813901829
 31
0.0
  0
CIRCLE
  5
18C
330
1F
100
AcDbEntity
  8
0
  6
CONTINUOUS
 62
     7
100
AcDbCircle
 10
150.0651716978
 20
80.7313906289
 30
0.0
 40
1.0
  0
LINE
  5
18D
330
1F
100
AcDbEntity
  8
0
  6
CONTINUOUS
 62
     7
100
AcDbLine
 10
148.7451721504
 20
85.5313909697
 30
0.0
 11
148.7451721504
 21
81.7979739504
 31
0.0
  0
LINE
  5
18E
330
1F
100
AcDbEntity
  8
0
  6
CONTINUOUS
 62
     7
100
AcDbLine
 10
151.3851717635
 20
85.5313909697
 30
0.0
 11
151.3851717635
 21
81.7979739504
 31
0.0
  0
LINE
  5
18F
330
1F
100
AcDbEntity
  8
0
  6
CONTINUOUS
 62
     7
100
AcDbLine
 10
151.3851717635
 20
79.664807533
 30
0.0
 11
151.3851717635
 21
75.9313905137
 31
0.0
  0
LINE
  5
190
330
1F
100
AcDbEntity
  8
0
  6
CONTINUOUS
 62
     7
100
AcDbLine
 10
148.7451721504
 20
79.664807533
 30
0.0
 11
148.7451721504
 21
75.9313905137
 31
0.0
  0
LINE
  5
191
330
1F
100
AcDbEntity
  8
0
  6
CONTINUOUS
 62
     7
100
AcDbLine
 10
151.3851717635
 20
79.664807533
 30
0.0
 11
152.0588867887
 21
79.664807533
 31
0.0
  0
SPLINE
  5
192
330
1F
100
AcDbEntity
  8
0
  6
CONTINUOUS
 62
     7
100
AcDbSpline
210
0.0
220
0.0
230
1.0
 70
     8
 71
     3
 72
    14
 73
    10
 74
     0
 42
0.000000001
 43
0.00000001
 40
0.0
 40
0.0
 40
0.0
 40
0.0
 40
0.1598029079283231
 40
0.3195430890681542
 40
0.4796873114848121
 40
0.6398256791223963
 40
0.7945199428366544
 40
0.9492661479846317
 40
1.0
 40
1.0
 40
1.0
 40
1.0
 10
152.0588867887326
 20
79.66480753296388
 30
0.0
 10
152.1094364272267
 20
79.77064816780161
 30
0.0
 10
152.2105158621701
 20
79.98228789228115
 30
0.0
 10
152.2992650331847
 20
80.32869074038308
 30
0.0
 10
152.3349585756529
 20
80.685670997963
 30
0.0
 10
152.3144514673805
 20
81.04090699446125
 30
0.0
 10
152.2389883862272
 20
81.38222969377755
 30
0.0
 10
152.1447604167691
 20
81.63145306038061
 30
0.0
 10
152.0758909394861
 20
81.76500054076008
 30
0.0
 10
152.0588867887326
 20
81.79797395044339
 30
0.0
  0
LINE
  5
193
330
1F
100
AcDbEntity
  8
0
  6
CONTINUOUS
 62
     7
100
AcDbLine
 10
152.0588867887
 20
81.7979739504
 30
0.0
 11
151.3851717635
 21
81.7979739504
 31
0.0
  0
LINE
  5
194
330
1F
100
AcDbEntity
  8
0
  6
CONTINUOUS
 62
     7
100
AcDbLine
 10
148.7451721504
 20
81.7979739504
 30
0.0
 11
148.0714571252
 21
81.7979739504
 31
0.0
  0
SPLINE
  5
195
330
1F
100
AcDbEntity
  8
0
  6
CONTINUOUS
 62
     7
100
AcDbSpline
210
0.0
220
0.0
230
1.0
 70
     8
 71
     3
 72
    14
 73
    10
 74
     0
 42
0.000000001
 43
0.00000001
 40
0.0
 40
0.0
 40
0.0
 40
0.0
 40
0.1598028753155516
 40
0.3195430238554125
 40
0.4796872545327714
 40
0.6398255894891229
 40
0.7945199101161978
 40
0.9492667049045425
 40
1.0
 40
1.0
 40
1.0
 40
1.0
 10
148.0714571251936
 20
81.79797395044339
 30
0.0
 10
148.0209074625618
 20
81.69213331968805
 30
0.0
 10
147.9198279793525
 20
81.48049360337167
 30
0.0
 10
147.831079162953
 20
81.1340906644459
 30
0.0
 10
147.7953842446852
 20
80.77711060841811
 30
0.0
 10
147.8158909594896
 20
80.42187419659813
 30
0.0
 10
147.8913570278717
 20
80.08055199421163
 30
0.0
 10
147.9855806989069
 20
79.83132655023354
 30
0.0
 10
148.0544525722234
 20
79.69778027731456
 30
0.0
 10
148.0714571251936
 20
79.66480753296388
 30
0.0
  0
LINE
  5
196
330
1F
100
AcDbEntity
  8
0
  6
CONTINUOUS
 62
     7
100
AcDbLine
 10
148.0714571252
 20
79.664807533
 30
0.0
 11
148.7451721504
 21
79.664807533
 31
0.0
  0
LINE
  5
197
330
1F
100
AcDbEntity
  8
0
  6
CONTINUOUS
 62
     7
100
AcDbLine
 10
145.8651725724
 20
80.7313898104
 30
0.0
 11
145.8651725724
 21
85.5313909697
 31
0.0
  0
LINE
  5
198
330
1F
100
AcDbEntity
  8
0
  6
CONTINUOUS
 62
     7
100
AcDbLine
 10
145.8651725724
 20
75.9313905137
 30
0.0
 11
145.8651725724
 21
80.7313898104
 31
0.0
  0
LINE
  5
199
330
1F
100
AcDbEntity
  8
0
  6
CONTINUOUS
 62
     7
100
AcDbLine
 10
148.7451721504
 20
79.664807533
 30
0.0
 11
151.3851717635
 21
79.664807533
 31
0.0
  0
LINE
  5
19A
330
1F
100
AcDbEntity
  8
0
  6
CONTINUOUS
 62
     7
100
AcDbLine
 10
151.3851717635
 20
81.7979739504
 30
0.0
 11
148.7451721504
 21
81.7979739504
 31
0.0
  0
CIRCLE
  5
19B
330
1F
100
AcDbEntity
  8
0
  6
CONTINUOUS
 62
     7
100
AcDbCircle
 10
195.9951716978
 20
85.7878723061
 30
0.0
 40
6.438900000000004
  0
ARC
  5
19C
330
1F
100
AcDbEntity
  8
0
  6
CONTINUOUS
 62
     7
100
AcDbCircle
 10
208.0601728455
 20
104.2028723061
 30
0.0
 40
1.778000000000021
100
AcDbArc
 50
0.0000021928
 51
90.0000369843
  0
LINE
  5
19D
330
1F
100
AcDbEntity
  8
0
  6
CONTINUOUS
 62
     7
100
AcDbLine
 10
208.0601700171
 20
107.3778721029
 30
0.0
 11
208.0601700171
 21
105.9808724085
 31
0.0
  0
ARC
  5
19E
330
1F
100
AcDbEntity
  8
0
  6
CONTINUOUS
 62
     7
100
AcDbCircle
 10
208.0601716086
 20
104.2028723061
 30
0.0
 40
3.175000000000012
100
AcDbArc
 50
0.000001228
 51
89.9999983899
  0
LINE
  5
19F
330
1F
100
AcDbEntity
  8
0
  6
CONTINUOUS
 62
     7
100
AcDbLine
 10
209.8381728455
 20
104.2028723741
 30
0.0
 11
211.2351716086
 21
104.2028723741
 31
0.0
  0
ARC
  5
1A0
330
1F
100
AcDbEntity
  8
0
  6
CONTINUOUS
 62
     7
100
AcDbCircle
 10
163.2926716484
 20
69.5953723061
 30
0.0
 40
1.587500000000023
100
AcDbArc
 50
180.0000084993
 51
270.0000017842
  0
LINE
  5
1A1
330
1F
100
AcDbEntity
  8
0
  6
CONTINUOUS
 62
     7
100
AcDbLine
 10
163.2926716978
 20
68.0078723061
 30
0.0
 11
177.8976716622
 21
68.0078712749
 31
0.0
  0
ARC
  5
1A2
330
1F
100
AcDbEntity
  8
0
  6
CONTINUOUS
 62
     7
100
AcDbCircle
 10
177.8976716978
 20
69.5953712749
 30
0.0
 40
1.587500000000006
100
AcDbArc
 50
269.999998716
 51
0.0000372183
  0
LINE
  5
1A3
330
1F
100
AcDbEntity
  8
0
  6
CONTINUOUS
 62
     7
100
AcDbLine
 10
179.4851716978
 20
69.5953723061
 30
0.0
 11
179.4851715266
 21
101.9803723312
 31
0.0
  0
ARC
  5
1A4
330
1F
100
AcDbEntity
  8
0
  6
CONTINUOUS
 62
     7
100
AcDbCircle
 10
177.8976715266
 20
101.9803723061
 30
0.0
 40
1.587500000000006
100
AcDbArc
 50
0.0000009043
 51
89.9999938219
  0
LINE
  5
1A5
330
1F
100
AcDbEntity
  8
0
  6
CONTINUOUS
 62
     7
100
AcDbLine
 10
177.8976716978
 20
103.5678723061
 30
0.0
 11
163.2926717456
 21
103.5678721956
 31
0.0
  0
ARC
  5
1A6
330
1F
100
AcDbEntity
  8
0
  6
CONTINUOUS
 62
     7
100
AcDbCircle
 10
163.2926716978
 20
101.9803721956
 30
0.0
 40
1.587500000000006
100
AcDbArc
 50
89.9999982749
 51
179.9999960103
  0
LINE
  5
1A7
330
1F
100
AcDbEntity
  8
0
  6
CONTINUOUS
 62
     7
100
AcDbLine
 10
161.7051716978
 20
101.9803723061
 30
0.0
 11
161.7051716484
 21
69.5953720706
 31
0.0
  0
ARC
  5
1A8
330
1F
100
AcDbEntity
  8
0
  6
CONTINUOUS
 62
     7
100
AcDbCircle
 10
208.0601716978
 20
67.3728740887
 30
0.0
 40
1.778000000000004
100
AcDbArc
 50
269.9999458408
 51
359.9999425559
  0
LINE
  5
1A9
330
1F
100
AcDbEntity
  8
0
  6
CONTINUOUS
 62
     7
100
AcDbLine
 10
161.0701717026
 20
65.5948740887
 30
0.0
 11
208.0601700171
 21
65.5948740887
 31
0.0
  0
ARC
  5
1AA
330
1F
100
AcDbEntity
  8
0
  6
CONTINUOUS
 62
     7
100
AcDbCircle
 10
161.0701721339
 20
67.3728723061
 30
0.0
 40
1.778000000000013
100
AcDbArc
 50
179.9999714593
 51
269.9999859475
  0
LINE
  5
1AB
330
1F
100
AcDbEntity
  8
0
  6
CONTINUOUS
 62
     7
100
AcDbLine
 10
159.2921721339
 20
104.2028723741
 30
0.0
 11
159.2921721339
 21
67.3728731918
 31
0.0
  0
ARC
  5
1AC
330
1F
100
AcDbEntity
  8
0
  6
CONTINUOUS
 62
     7
100
AcDbCircle
 10
161.0701716978
 20
104.2028724085
 30
0.0
 40
1.778000000000006
100
AcDbArc
 50
89.9999998451
 51
180.000003301
  0
LINE
  5
1AD
330
1F
100
AcDbEntity
  8
0
  6
CONTINUOUS
 62
     7
100
AcDbLine
 10
208.0601700171
 20
105.9808724085
 30
0.0
 11
161.0701717026
 21
105.9808724085
 31
0.0
  0
LINE
  5
1AE
330
1F
100
AcDbEntity
  8
0
  6
CONTINUOUS
 62
     7
100
AcDbLine
 10
211.2351716086
 20
104.2028723741
 30
0.0
 11
211.2351716086
 21
67.3728731918
 31
0.0
  0
LINE
  5
1AF
330
1F
100
AcDbEntity
  8
0
  6
CONTINUOUS
 62
     7
100
AcDbLine
 10
209.8381728455
 20
67.3728731918
 30
0.0
 11
211.2351716086
 21
67.3728731918
 31
0.0
  0
LINE
  5
1B0
330
1F
100
AcDbEntity
  8
0
  6
CONTINUOUS
 62
     7
100
AcDbLine
 10
161.0701717026
 20
107.3778721029
 30
0.0
 11
208.0601700171
 21
107.3778721029
 31
0.0
  0
LINE
  5
1B1
330
1F
100
AcDbEntity
  8
0
  6
CONTINUOUS
 62
     7
100
AcDbLine
 10
161.0701717026
 20
107.3778721029
 30
0.0
 11
161.0701717026
 21
105.9808724085
 31
0.0
  0
ARC
  5
1B2
330
1F
100
AcDbEntity
  8
0
  6
CONTINUOUS
 62
     7
100
AcDbCircle
 10
208.0601716978
 20
67.3728716003
 30
0.0
 40
3.175000000000015
100
AcDbArc
 50
269.9999696709
 51
0.0000127363
  0
LINE
  5
1B3
330
1F
100
AcDbEntity
  8
0
  6
CONTINUOUS
 62
     7
100
AcDbLine
 10
208.0601700171
 20
65.5948740887
 30
0.0
 11
208.0601700171
 21
64.1978716003
 31
0.0
  0
LINE
  5
1B4
330
1F
100
AcDbEntity
  8
0
  6
CONTINUOUS
 62
     7
100
AcDbLine
 10
208.0601700171
 20
64.1978716003
 30
0.0
 11
161.0701717026
 21
64.1978716003
 31
0.0
  0
LINE
  5
1B5
330
1F
100
AcDbEntity
  8
0
  6
CONTINUOUS
 62
     7
100
AcDbLine
 10
161.0701717026
 20
65.5948740887
 30
0.0
 11
161.0701717026
 21
64.1978716003
 31
0.0
  0
ARC
  5
1B6
330
1F
100
AcDbEntity
  8
0
  6
CONTINUOUS
 62
     7
100
AcDbCircle
 10
161.0701716978
 20
104.2028721029
 30
0.0
 40
3.174999999999997
100
AcDbArc
 50
89.9999999133
 51
179.9999963339
  0
LINE
  5
1B7
330
1F
100
AcDbEntity
  8
0
  6
CONTINUOUS
 62
     7
100
AcDbLine
 10
157.8951715081
 20
104.2028723741
 30
0.0
 11
159.2921721339
 21
104.2028723741
 31
0.0
  0
LINE
  5
1B8
330
1F
100
AcDbEntity
  8
0
  6
CONTINUOUS
 62
     7
100
AcDbLine
 10
157.8951715081
 20
67.3728731918
 30
0.0
 11
157.8951715081
 21
104.2028723741
 31
0.0
  0
LINE
  5
1B9
330
1F
100
AcDbEntity
  8
0
  6
CONTINUOUS
 62
     7
100
AcDbLine
 10
157.8951715081
 20
67.3728731918
 30
0.0
 11
159.2921721339
 21
67.3728731918
 31
0.0
  0
ARC
  5
1BA
330
1F
100
AcDbEntity
  8
0
  6
CONTINUOUS
 62
     7
100
AcDbCircle
 10
161.0701715081
 20
67.3728723061
 30
0.0
 40
3.175000000000022
100
AcDbArc
 50
179.9999840172
 51
270.0000034225
  0
LINE
  5
1BB
330
1F
100
AcDbEntity
  8
0
  6
CONTINUOUS
 62
     8
100
AcDbLine
 10
209.8381728455
 20
67.3728731918
 30
0.0
 11
209.8381728455
 21
79.4137881594
 31
0.0
  0
LINE
  5
1BC
330
1F
100
AcDbEntity
  8
0
  6
CONTINUOUS
 62
     8
100
AcDbLine
 10
209.8381728455
 20
92.1619569408
 30
0.0
 11
209.8381728455
 21
104.2028723741
 31
0.0
  0
DIMENSION
  5
1BD
330
1F
100
AcDbEntity
  8
0
  6
CONTINUOUS
 62
     7
100
AcDbDimension
  2
_D_3
 10
216.0551716978
 20
135.3778723061
 30
0.0
 11
180.9601716978
 21
135.3778723061
 31
0.0
 70
   160
  1
<>
  3
SLDDIMSTYLE1
100
AcDbAlignedDimension
 13
145.8651716978
 23
85.5313906289
 33
0.0
 14
216.0551716978
 24
87.5150723061
 34
0.0
100
AcDbRotatedDimension
  0
DIMENSION
  5
1D1
330
1F
100
AcDbEntity
  8
0
  6
CONTINUOUS
 62
     7
100
AcDbDimension
  2
_D_4
 10
211.2351716978
 20
49.3778723061
 30
0.0
 11
184.5651716978
 21
49.3778723061
 31
0.0
 70
   160
  1
<>
  3
SLDDIMSTYLE1
100
AcDbAlignedDimension
 13
157.8951716978
 23
67.3728723061
 33
0.0
 14
211.2351716978
 24
67.3728723061
 34
0.0
100
AcDbRotatedDimension
  0
DIMENSION
  5
1E5
330
1F
100
AcDbEntity
  8
0
  6
CONTINUOUS
 62
     7
100
AcDbDimension
  2
_D_5
 10
211.2351716978
 20
117.3778723061
 30
0.0
 11
179.3189613238
 21
117.3778723061
 31
0.0
 70
   160
  1
<>
  3
SLDDIMSTYLE1
100
AcDbAlignedDimension
 13
195.9951716978
 23
85.7878723061
 33
0.0
 14
211.2351716978
 24
104.2028723061
 34
0.0
100
AcDbRotatedDimension
  0
DIMENSION
  5
1F9
330
1F
100
AcDbEntity
  8
0
  6
CONTINUOUS
 62
     7
100
AcDbDimension
  2
_D_6
 10
135.8651716978
 20
64.1978723061
 30
0.0
 11
135.8651716978
 21
85.7878723061
 31
0.0
 70
   160
  1
<>
  3
SLDDIMSTYLE1
100
AcDbAlignedDimension
 13
161.0701716978
 23
107.3778723061
 33
0.0
 14
161.0701716978
 24
64.1978723061
 34
0.0
 50
90.0
100
AcDbRotatedDimension
  0
DIMENSION
  5
20D
330
1F
100
AcDbEntity
  8
0
  6
CONTINUOUS
 62
     7
100
AcDbDimension
  2
_D_7
 10
123.8651716978
 20
107.3778723061
 30
0.0
 11
123.8651716978
 21
83.3778723061
 31
0.0
 70
   160
  1
<>
  3
SLDDIMSTYLE3
100
AcDbAlignedDimension
 13
190.9151716978
 23
59.3778723061
 33
0.0
 14
161.0701716978
 24
107.3778723061
 34
0.0
 50
90.0
100
AcDbRotatedDimension
  0
DIMENSION
  5
222
330
1F
100
AcDbEntity
  8
0
  6
CONTINUOUS
 62
     7
100
AcDbDimension
  2
_D_8
 10
195.9951716978
 20
126.5637591973
 30
0.0
 11
238.0551716978
 21
126.5637591973
 31
0.0
 70
   160
  1
<>
  3
SLDDIMSTYLE1
100
AcDbAlignedDimension
 13
216.0551716978
 23
87.5150723061
 33
0.0
 14
195.9951716978
 24
85.7878723061
 34
0.0
100
AcDbRotatedDimension
  0
DIMENSION
  5
236
330
1F
100
AcDbEntity
  8
0
  6
CONTINUOUS
 62
     7
100
AcDbDimension
  2
_D_9
 10
238.0551716978
 20
85.7878723061
 30
0.0
 11
238.0551716978
 21
72.5828723061
 31
0.0
 70
   160
  1
<>
  3
SLDDIMSTYLE1
100
AcDbAlignedDimension
 13
201.0751716978
 23
59.3778723061
 33
0.0
 14
195.9951716978
 24
85.7878723061
 34
0.0
 50
90.0
100
AcDbRotatedDimension
  0
MTEXT
  5
24A
330
1F
100
AcDbEntity
  8
0
  6
CONTINUOUS
 62
     7
100
AcDbMText
 10
226.2335362644
 20
46.2704306366
 30
0.0
 40
2.1166666667
 41
0.0
 71
     1
 72
     1
  1
2X 8-32 X 0.25" THREAD
  7
SLDTEXTSTYLE0
  0
MTEXT
  5
24B
330
1F
100
AcDbEntity
  8
0
  6
CONTINUOUS
 62
     7
100
AcDbMText
 10
225.8959639405
 20
110.2557765468
 30
0.0
 40
2.1166666667
 41
0.0
 71
     1
 72
     1
  1
SM05 (0.535-40) INTERNAL THREAD
  7
SLDTEXTSTYLE0
  0
LEADER
  5
24C
330
1F
100
AcDbEntity
  8
0
  6
CONTINUOUS
 62
     7
100
AcDbLeader
  3
SLDDIMSTYLE2
 76
     3
 10
200.4173279999
 20
90.4680397016
 30
0.0
 10
219.0007135016
 20
109.2188407104
 30
0.0
 10
225.3507135016
 20
109.2188407104
 30
0.0
1001
ACAD
1000
DSTYLE
1002
{
1070
     6
1000

1002
}
  0
SOLID
  5
24D
330
1F
100
AcDbEntity
  8
0
  6
CONTINUOUS
 62
     7
100
AcDbTrace
 10
213.272293539
 20
80.4578723061
 30
0.0
 11
213.6564008075
 21
77.2655141485
 31
0.0
 12
214.633280993
 22
77.5447293041
 32
0.0
 13
214.633280993
 23
77.5447293041
 33
0.0
  0
SOLID
  5
24E
330
1F
100
AcDbEntity
  8
0
  6
CONTINUOUS
 62
     7
100
AcDbTrace
 10
201.2618585473
 20
61.3432577476
 30
0.0
 11
203.5119589275
 21
59.0463604319
 31
0.0
 12
204.1162900522
 22
59.8630855335
 32
0.0
 13
204.1162900522
 23
59.8630855335
 33
0.0
  0
LINE
  5
24F
330
1F
100
AcDbEntity
  8
0
  6
CONTINUOUS
 62
     7
100
AcDbLine
 10
201.2618585473
 20
61.3432577476
 30
0.0
 11
223.422531825
 21
44.9455927552
 31
0.0
  0
LINE
  5
250
330
1F
100
AcDbEntity
  8
0
  6
CONTINUOUS
 62
     7
100
AcDbLine
 10
223.422531825
 20
44.9455927552
 30
0.0
 11
225.0343943822
 21
45.0603732162
 31
0.0
  0
LINE
  5
251
330
1F
100
AcDbEntity
  8
0
  6
CONTINUOUS
 62
     7
100
AcDbLine
 10
225.0343943822
 20
45.0603732162
 30
0.0
 11
226.1800219539
 21
45.0603732162
 31
0.0
  0
LINE
  5
252
330
1F
100
AcDbEntity
  8
0
  6
CONTINUOUS
 62
     7
100
AcDbLine
 10
223.422531825
 20
44.9455927552
 30
0.0
 11
213.272293539
 21
80.4578723061
 31
0.0
  0
LINE
  5
253
330
1F
100
AcDbEntity
  8
0
  6
CENTERX2
 62
     7
100
AcDbLine
 10
195.9951716978
 20
69.4978723061
 30
0.0
 11
195.9951716978
 21
57.3778723061
 31
0.0
  0
LINE
  5
254
330
1F
100
AcDbEntity
  8
0
  6
CONTINUOUS
 62
     7
100
AcDbLine
 10
211.2351716086
 20
177.0050154092
 30
0.0
 11
210.9811701402
 21
177.259015015
 31
0.0
  0
LINE
  5
255
330
1F
100
AcDbEntity
  8
0
  6
CONTINUOUS
 62
     7
100
AcDbLine
 10
181.0091719552
 20
177.259015015
 30
0.0
 11
180.7551714181
 21
177.0050154092
 31
0.0
  0
LINE
  5
256
330
1F
100
AcDbEntity
  8
0
  6
CONTINUOUS
 62
     7
100
AcDbLine
 10
211.2351716086
 20
170.1470130148
 30
0.0
 11
211.2351716086
 21
177.0050154092
 31
0.0
  0
LINE
  5
257
330
1F
100
AcDbEntity
  8
0
  6
CONTINUOUS
 62
     7
100
AcDbLine
 10
180.7551714181
 20
177.0050154092
 30
0.0
 11
180.7551714181
 21
170.1470130148
 31
0.0
  0
LINE
  5
258
330
1F
100
AcDbEntity
  8
0
  6
CONTINUOUS
 62
     7
100
AcDbLine
 10
180.7551714181
 20
170.1470130148
 30
0.0
 11
181.0091719552
 21
169.8930152716
 31
0.0
  0
LINE
  5
259
330
1F
100
AcDbEntity
  8
0
  6
CONTINUOUS
 62
     7
100
AcDbLine
 10
210.9811701402
 20
169.8930152716
 30
0.0
 11
211.2351716086
 21
170.1470130148
 31
0.0
  0
ARC
  5
25A
330
1F
100
AcDbEntity
  8
0
  6
CONTINUOUS
 62
     7
100
AcDbCircle
 10
157.8951716978
 20
191.864014717
 30
0.0
 40
1.650000000000006
100
AcDbArc
 50
90.0
 51
177.96808482
  0
LINE
  5
25B
330
1F
100
AcDbEntity
  8
0
  6
CONTINUOUS
 62
     7
100
AcDbLine
 10
159.9652715548
 20
196.3244752052
 30
0.0
 11
159.9652715548
 21
196.3244752052
 31
0.0
  0
LINE
  5
25C
330
1F
100
AcDbEntity
  8
0
  6
CONTINUOUS
 62
     7
100
AcDbLine
 10
164.0800716876
 20
196.3244752052
 30
0.0
 11
164.0800716876
 21
196.3244752052
 31
0.0
  0
LINE
  5
25D
330
1F
100
AcDbEntity
  8
0
  6
CONTINUOUS
 62
     7
100
AcDbLine
 10
205.0502732917
 20
196.3244752052
 30
0.0
 11
205.0502732917
 21
196.3244752052
 31
0.0
  0
LINE
  5
25E
330
1F
100
AcDbEntity
  8
0
  6
CONTINUOUS
 62
     7
100
AcDbLine
 10
209.1650724932
 20
196.3244752052
 30
0.0
 11
209.1650724932
 21
196.3244752052
 31
0.0
  0
LINE
  5
25F
330
1F
100
AcDbEntity
  8
0
  6
CONTINUOUS
 62
     7
100
AcDbLine
 10
155.6853721439
 20
191.9225175889
 30
0.0
 11
149.335371755
 21
190.7990147384
 31
0.0
  0
LINE
  5
260
330
1F
100
AcDbEntity
  8
0
  6
CONTINUOUS
 62
     7
100
AcDbLine
 10
149.335371755
 20
181.4990156355
 30
0.0
 11
155.6853721439
 21
180.3755127849
 31
0.0
  0
LINE
  5
261
330
1F
100
AcDbEntity
  8
0
  6
CONTINUOUS
 62
     7
100
AcDbLine
 10
211.2351716086
 20
182.5970151486
 30
0.0
 11
215.8051714822
 21
182.5970151486
 31
0.0
  0
LINE
  5
262
330
1F
100
AcDbEntity
  8
0
  6
CONTINUOUS
 62
     7
100
AcDbLine
 10
215.8051714822
 20
193.2570143627
 30
0.0
 11
211.2351716086
 21
193.2570143627
 31
0.0
  0
LINE
  5
263
330
1F
100
AcDbEntity
  8
0
  6
CONTINUOUS
 62
     7
100
AcDbLine
 10
215.8051714822
 20
182.5970151486
 30
0.0
 11
216.0551719889
 21
182.8470137926
 31
0.0
  0
LINE
  5
264
330
1F
100
AcDbEntity
  8
0
  6
CONTINUOUS
 62
     7
100
AcDbLine
 10
216.0551719889
 20
193.0070147874
 30
0.0
 11
215.8051714822
 21
193.2570143627
 31
0.0
  0
LINE
  5
265
330
1F
100
AcDbEntity
  8
0
  6
CONTINUOUS
 62
     7
100
AcDbLine
 10
156.6451717689
 20
179.9755730691
 30
0.0
 11
157.8951715081
 21
179.9755730691
 31
0.0
  0
LINE
  5
266
330
1F
100
AcDbEntity
  8
0
  6
CONTINUOUS
 62
     7
100
AcDbLine
 10
145.8651725724
 20
181.4255715372
 30
0.0
 11
147.8076097145
 21
181.4255715372
 31
0.0
  0
LINE
  5
267
330
1F
100
AcDbEntity
  8
0
  6
CONTINUOUS
 62
     7
100
AcDbLine
 10
147.8076097145
 20
191.0255719932
 30
0.0
 11
145.8651725724
 21
191.0255719932
 31
0.0
  0
LINE
  5
268
330
1F
100
AcDbEntity
  8
0
  6
CONTINUOUS
 62
     7
100
AcDbLine
 10
151.0651711896
 20
191.1050678255
 30
0.0
 11
151.0651711896
 21
191.6055726843
 31
0.0
  0
LINE
  5
269
330
1F
100
AcDbEntity
  8
0
  6
CONTINUOUS
 62
     7
100
AcDbLine
 10
149.0651708617
 20
191.6055726843
 30
0.0
 11
149.0651708617
 21
190.9055720108
 31
0.0
  0
LINE
  5
26A
330
1F
100
AcDbEntity
  8
0
  6
CONTINUOUS
 62
     7
100
AcDbLine
 10
149.0651708617
 20
181.545572451
 30
0.0
 11
149.0651708617
 21
180.8455717774
 31
0.0
  0
LINE
  5
26B
330
1F
100
AcDbEntity
  8
0
  6
CONTINUOUS
 62
     7
100
AcDbLine
 10
151.0651711896
 20
180.8455717774
 30
0.0
 11
151.0651711896
 21
181.1929625483
 31
0.0
  0
LINE
  5
26C
330
1F
100
AcDbEntity
  8
0
  6
CONTINUOUS
 62
     7
100
AcDbLine
 10
210.9811701402
 20
177.259015015
 30
0.0
 11
209.8381728455
 21
177.259015015
 31
0.0
  0
LINE
  5
26D
330
1F
100
AcDbEntity
  8
0
  6
CONTINUOUS
 62
     7
100
AcDbLine
 10
211.2351716086
 20
177.0050154092
 30
0.0
 11
180.7551714181
 21
177.0050154092
 31
0.0
  0
LINE
  5
26E
330
1F
100
AcDbEntity
  8
0
  6
CONTINUOUS
 62
     7
100
AcDbLine
 10
211.2351716086
 20
170.1470130148
 30
0.0
 11
180.7551714181
 21
170.1470130148
 31
0.0
  0
LINE
  5
26F
330
1F
100
AcDbEntity
  8
0
  6
CONTINUOUS
 62
     7
100
AcDbLine
 10
210.9811701402
 20
169.8930152716
 30
0.0
 11
181.0091719552
 21
169.8930152716
 31
0.0
  0
LINE
  5
270
330
1F
100
AcDbEntity
  8
0
  6
CONTINUOUS
 62
     7
100
AcDbLine
 10
161.2345864586
 20
196.3244752052
 30
0.0
 11
159.9652715548
 21
196.3244752052
 31
0.0
  0
LINE
  5
271
330
1F
100
AcDbEntity
  8
0
  6
CONTINUOUS
 62
     7
100
AcDbLine
 10
164.0800716876
 20
196.3244752052
 30
0.0
 11
161.2345864586
 21
196.3244752052
 31
0.0
  0
LINE
  5
272
330
1F
100
AcDbEntity
  8
0
  6
CONTINUOUS
 62
     7
100
AcDbLine
 10
206.3195877298
 20
196.3244752052
 30
0.0
 11
205.0502732917
 21
196.3244752052
 31
0.0
  0
LINE
  5
273
330
1F
100
AcDbEntity
  8
0
  6
CONTINUOUS
 62
     7
100
AcDbLine
 10
209.1650724932
 20
196.3244752052
 30
0.0
 11
206.3195877298
 21
196.3244752052
 31
0.0
  0
LINE
  5
274
330
1F
100
AcDbEntity
  8
0
  6
CONTINUOUS
 62
     7
100
AcDbLine
 10
158.8476714268
 20
196.321714765
 30
0.0
 11
158.8476714268
 21
196.321714765
 31
0.0
  0
LINE
  5
275
330
1F
100
AcDbEntity
  8
0
  6
CONTINUOUS
 62
     7
100
AcDbLine
 10
158.8476714268
 20
196.321714765
 30
0.0
 11
161.3876716755
 21
196.321714765
 31
0.0
  0
LINE
  5
276
330
1F
100
AcDbEntity
  8
0
  6
CONTINUOUS
 62
     7
100
AcDbLine
 10
210.2826707586
 20
196.321714765
 30
0.0
 11
210.2826707586
 21
196.321714765
 31
0.0
  0
LINE
  5
277
330
1F
100
AcDbEntity
  8
0
  6
CONTINUOUS
 62
     7
100
AcDbLine
 10
207.7426709756
 20
196.321714765
 30
0.0
 11
210.2826707586
 21
196.321714765
 31
0.0
  0
LINE
  5
278
330
1F
100
AcDbEntity
  8
0
  6
CONTINUOUS
 62
     7
100
AcDbLine
 10
161.3876716755
 20
196.321714765
 30
0.0
 11
207.7426709756
 21
196.321714765
 31
0.0
  0
SPLINE
  5
279
330
1F
100
AcDbEntity
  8
0
  6
CONTINUOUS
 62
     7
100
AcDbSpline
210
0.0
220
0.0
230
1.0
 70
     8
 71
     3
 72
    28
 73
    24
 74
     0
 42
0.000000001
 43
0.00000001
 40
0.0
 40
0.0
 40
0.0
 40
0.0
 40
0.0722406037967926
 40
0.1447736951278466
 40
0.2171380928622113
 40
0.2891220520101555
 40
0.3609004370335878
 40
0.3944003163035359
 40
0.4278268511198755
 40
0.4461357417863072
 40
0.4644153616782201
 40
0.4940705943928694
 40
0.5238477330445485
 40
0.5420318105181834
 40
0.5602528730175286
 40
0.592464487062688
 40
0.6247706203611103
 40
0.6793883542463318
 40
0.7342006402633211
 40
0.7892030841097097
 40
0.8440810848439455
 40
0.9220362835495519
 40
0.9999999999999999
 40
0.9999999999999999
 40
0.9999999999999999
 40
0.9999999999999999
 10
155.6853721439309
 20
183.2622625889457
 30
0.0
 10
155.4377211028948
 20
183.3499482782386
 30
0.0
 10
154.9414163320499
 20
183.5256746783733
 30
0.0
 10
154.2034923612585
 20
183.8071813190593
 30
0.0
 10
153.4801916264986
 20
184.1229190897637
 30
0.0
 10
152.7839312437998
 20
184.4893385531211
 30
0.0
 10
152.2431294690924
 20
184.8429113514393
 30
0.0
 10
151.8497066990975
 20
185.1594967502911
 30
0.0
 10
151.633649741408
 20
185.3836600573544
 30
0.0
 10
151.4840691153789
 20
185.5904530176013
 30
0.0
 10
151.3699990520015
 20
185.8033846079661
 30
0.0
 10
151.2953467233525
 20
186.0818848937269
 30
0.0
 10
151.3285573561749
 20
186.3690543411653
 30
0.0
 10
151.4191247380169
 20
186.593175385863
 30
0.0
 10
151.5479744942644
 20
186.8077971328528
 30
0.0
 10
151.7444853758579
 20
187.0379635811776
 30
0.0
 10
152.0700708589278
 20
187.3247855647659
 30
0.0
 10
152.4914150595067
 20
187.6236937337186
 30
0.0
 10
153.0102463790497
 20
187.9222414102485
 30
0.0
 10
153.5490931437913
 20
188.1843862533565
 30
0.0
 10
154.1747402069682
 20
188.4587107315154
 30
0.0
 10
154.8851796702485
 20
188.7472652082466
 30
0.0
 10
155.4186316053307
 20
188.9395955153079
 30
0.0
 10
155.6853721439309
 20
189.0357659222758
 30
0.0
  0
SPLINE
  5
27A
330
1F
100
AcDbEntity
  8
0
  6
CONTINUOUS
 62
     7
100
AcDbSpline
210
0.0
220
0.0
230
1.0
 70
     8
 71
     3
 72
    27
 73
    23
 74
     0
 42
0.000000001
 43
0.00000001
 40
0.0
 40
0.0
 40
0.0
 40
0.0
 40
0.0972260531014794
 40
0.1946101710513047
 40
0.243281195365357
 40
0.2919413861691508
 40
0.3414646942643096
 40
0.390900327310718
 40
0.4337787006699478
 40
0.4551891293550316
 40
0.4772729462634538
 40
0.505391910974965
 40
0.5335042854492685
 40
0.5541723776709578
 40
0.5753982159450663
 40
0.600361951888554
 40
0.6253516146064685
 40
0.6766470183763171
 40
0.7568571474624302
 40
0.837156132366385
 40
0.918572842369626
 40
1.0
 40
1.0
 40
1.0
 40
1.0
 10
155.6853721439309
 20
180.3755127849257
 30
0.0
 10
155.3531132968109
 20
180.4358281754628
 30
0.0
 10
154.6880554341426
 20
180.5565570140303
 30
0.0
 10
153.8720287017099
 20
180.7277540829409
 30
0.0
 10
153.2325019790356
 20
180.8796680799696
 30
0.0
 10
152.7614007477505
 20
181.0054487724621
 30
0.0
 10
152.3030014473475
 20
181.1455385937693
 30
0.0
 10
151.8919950038029
 20
181.3020783764761
 30
0.0
 10
151.6018196997727
 20
181.4514481914838
 30
0.0
 10
151.4302310679083
 20
181.5836574127805
 30
0.0
 10
151.3295616792205
 20
181.7047116765001
 30
0.0
 10
151.2971147458674
 20
181.8491647966567
 30
0.0
 10
151.3660487676755
 20
181.9872841213008
 30
0.0
 10
151.4851833466307
 20
182.1003342266199
 30
0.0
 10
151.6303265491323
 20
182.1982737236272
 30
0.0
 10
151.8090471819499
 20
182.2922187567622
 30
0.0
 10
152.0876377193742
 20
182.4128000386443
 30
0.0
 10
152.555645132825
 20
182.5756441262986
 30
0.0
 10
153.2305968643449
 20
182.7622205264626
 30
0.0
 10
154.0313268927646
 20
182.9445835681155
 30
0.0
 10
154.8500608462811
 20
183.1114731292004
 30
0.0
 10
155.4069231357825
 20
183.2119972859102
 30
0.0
 10
155.6853721439309
 20
183.2622625889457
 30
0.0
  0
SPLINE
  5
27B
330
1F
100
AcDbEntity
  8
0
  6
CONTINUOUS
 62
     7
100
AcDbSpline
210
0.0
220
0.0
230
1.0
 70
     8
 71
     3
 72
    27
 73
    23
 74
     0
 42
0.000000001
 43
0.00000001
 40
0.0
 40
0.0
 40
0.0
 40
0.0
 40
0.0972260467302711
 40
0.1946101945036687
 40
0.2432812202958624
 40
0.2919414126595273
 40
0.3414646732784415
 40
0.3909003546988242
 40
0.4337786679581941
 40
0.455189088332804
 40
0.4772729047099019
 40
0.5053919536697545
 40
0.5335043274676899
 40
0.5541723514999364
 40
0.5753981892633632
 40
0.6003619178701731
 40
0.6253516080814596
 40
0.676647007938229
 40
0.7568571152714532
 40
0.8371561149720442
 40
0.9185728223621146
 40
1.0
 40
1.0
 40
1.0
 40
1.0
 10
155.6853721439309
 20
189.0357659222758
 30
0.0
 10
155.3531132518665
 20
189.0960810797142
 30
0.0
 10
154.6880551755096
 20
189.2168094741656
 30
0.0
 10
153.8720288716894
 20
189.3880094947798
 30
0.0
 10
153.2325019134639
 20
189.5399228032813
 30
0.0
 10
152.7614011222279
 20
189.6657045888638
 30
0.0
 10
152.3030007865348
 20
189.805790328541
 30
0.0
 10
151.8919956657748
 20
189.9623347256211
 30
0.0
 10
151.6018195318467
 20
190.1117009774654
 30
0.0
 10
151.4302310630428
 20
190.2439107227594
 30
0.0
 10
151.329561543265
 20
190.3649645837354
 30
0.0
 10
151.2971147994944
 20
190.5094199481574
 30
0.0
 10
151.3660484998857
 20
190.6475396842765
 30
0.0
 10
151.4851836145752
 20
190.7605869271157
 30
0.0
 10
151.6303264643807
 20
190.8585270736404
 30
0.0
 10
151.8090473776056
 20
190.9524716296314
 30
0.0
 10
152.0876374351042
 20
191.0730547204222
 30
0.0
 10
152.5556451490619
 20
191.2358980732276
 30
0.0
 10
153.2305970839156
 20
191.4224731193736
 30
0.0
 10
154.0313267456753
 20
191.6048380797878
 30
0.0
 10
154.8500610029525
 20
191.7717268762215
 30
0.0
 10
155.4069231622257
 20
191.8722518635752
 30
0.0
 10
155.6853721439309
 20
191.9225175889409
 30
0.0
  0
LINE
  5
27C
330
1F
100
AcDbEntity
  8
0
  6
CONTINUOUS
 62
     7
100
AcDbLine
 10
149.335371755
 20
190.7990147384
 30
0.0
 11
149.335371755
 21
181.4990156355
 31
0.0
  0
LINE
  5
27D
330
1F
100
AcDbEntity
  8
0
  6
CONTINUOUS
 62
     7
100
AcDbLine
 10
157.8951715081
 20
183.2622625889
 30
0.0
 11
155.6853721439
 21
183.2622625889
 31
0.0
  0
LINE
  5
27E
330
1F
100
AcDbEntity
  8
0
  6
CONTINUOUS
 62
     7
100
AcDbLine
 10
157.8951715081
 20
180.3755127849
 30
0.0
 11
155.6853721439
 21
180.3755127849
 31
0.0
  0
LINE
  5
27F
330
1F
100
AcDbEntity
  8
0
  6
CONTINUOUS
 62
     7
100
AcDbLine
 10
157.8951715081
 20
191.9225175889
 30
0.0
 11
155.6853721439
 21
191.9225175889
 31
0.0
  0
LINE
  5
280
330
1F
100
AcDbEntity
  8
0
  6
CONTINUOUS
 62
     7
100
AcDbLine
 10
157.8951715081
 20
189.0357659223
 30
0.0
 11
155.6853721439
 21
189.0357659223
 31
0.0
  0
LINE
  5
281
330
1F
100
AcDbEntity
  8
0
  6
CONTINUOUS
 62
     7
100
AcDbLine
 10
215.8051714822
 20
186.2256714167
 30
0.0
 11
215.8051714822
 21
193.2570143627
 31
0.0
  0
LINE
  5
282
330
1F
100
AcDbEntity
  8
0
  6
CONTINUOUS
 62
     7
100
AcDbLine
 10
215.8051714822
 20
182.5970151486
 30
0.0
 11
215.8051714822
 21
186.2256714167
 31
0.0
  0
LINE
  5
283
330
1F
100
AcDbEntity
  8
0
  6
CONTINUOUS
 62
     7
100
AcDbLine
 10
216.0551719889
 20
186.3054708602
 30
0.0
 11
216.0551719889
 21
182.8470137926
 31
0.0
  0
LINE
  5
284
330
1F
100
AcDbEntity
  8
0
  6
CONTINUOUS
 62
     7
100
AcDbLine
 10
216.0551719889
 20
193.0070147874
 30
0.0
 11
216.0551719889
 21
186.3054708602
 31
0.0
  0
LINE
  5
285
330
1F
100
AcDbEntity
  8
0
  6
CONTINUOUS
 62
     7
100
AcDbLine
 10
156.6451717689
 20
180.3755127849
 30
0.0
 11
156.6451717689
 21
179.9755730691
 31
0.0
  0
LINE
  5
286
330
1F
100
AcDbEntity
  8
0
  6
CONTINUOUS
 62
     7
100
AcDbLine
 10
149.335371755
 20
181.6142351391
 30
0.0
 11
148.7451721504
 21
181.545572451
 31
0.0
  0
LINE
  5
287
330
1F
100
AcDbEntity
  8
0
  6
CONTINUOUS
 62
     7
100
AcDbLine
 10
148.7451721504
 20
190.9055720108
 30
0.0
 11
148.7451721504
 21
181.545572451
 31
0.0
  0
SPLINE
  5
288
330
1F
100
AcDbEntity
  8
0
  6
CONTINUOUS
 62
     7
100
AcDbSpline
210
0.0
220
0.0
230
1.0
 70
     8
 71
     3
 72
     9
 73
     5
 74
     0
 42
0.000000001
 43
0.00000001
 40
0.0
 40
0.0
 40
0.0
 40
0.0
 40
0.0977338467059496
 40
1.0
 40
1.0
 40
1.0
 40
1.0
 10
149.4841766133376
 20
190.8253422962702
 30
0.0
 10
149.4599631993063
 20
190.8261559922673
 30
0.0
 10
149.2122146981745
 20
190.8344816238119
 30
0.0
 10
148.9666956644759
 20
190.871853043604
 30
0.0
 10
148.7451721503802
 20
190.905572010783
 30
0.0
  0
LINE
  5
289
330
1F
100
AcDbEntity
  8
0
  6
CONTINUOUS
 62
     7
100
AcDbLine
 10
148.0714571252
 20
190.9055720108
 30
0.0
 11
148.7451721504
 21
190.9055720108
 31
0.0
  0
LINE
  5
28A
330
1F
100
AcDbEntity
  8
0
  6
CONTINUOUS
 62
     7
100
AcDbLine
 10
148.7451721504
 20
181.545572451
 30
0.0
 11
148.0714571252
 21
181.545572451
 31
0.0
  0
SPLINE
  5
28B
330
1F
100
AcDbEntity
  8
0
  6
CONTINUOUS
 62
     7
100
AcDbSpline
210
0.0
220
0.0
230
1.0
 70
     8
 71
     3
 72
    11
 73
     7
 74
     0
 42
0.000000001
 43
0.00000001
 40
0.0
 40
0.0
 40
0.0
 40
0.0
 40
0.3152058133601275
 40
0.6390530171872281
 40
0.9544254604578725
 40
1.0
 40
1.0
 40
1.0
 40
1.0
 10
148.0714571251936
 20
181.5455724509633
 30
0.0
 10
148.0211613236326
 20
181.5236925840082
 30
0.0
 10
147.9191908574257
 20
181.4793330119425
 30
0.0
 10
147.8354147338297
 20
181.4402733740941
 30
0.0
 10
147.797467750327
 20
181.4224653890905
 30
0.0
 10
147.8064727135874
 20
181.4266919095593
 30
0.0
 10
147.8076097145148
 20
181.4255715372241
 30
0.0
  0
SPLINE
  5
28C
330
1F
100
AcDbEntity
  8
0
  6
CONTINUOUS
 62
     7
100
AcDbSpline
210
0.0
220
0.0
230
1.0
 70
     8
 71
     3
 72
    11
 73
     7
 74
     0
 42
0.000000001
 43
0.00000001
 40
0.0
 40
0.0
 40
0.0
 40
0.0
 40
0.3152058133601275
 40
0.6390530171872281
 40
0.9544254604578725
 40
1.0
 40
1.0
 40
1.0
 40
1.0
 10
148.0714571251936
 20
190.905572010783
 30
0.0
 10
148.0211613236326
 20
190.9274518777381
 30
0.0
 10
147.9191908574257
 20
190.9718114498038
 30
0.0
 10
147.8354147338297
 20
191.0108710876521
 30
0.0
 10
147.797467750327
 20
191.0286790726558
 30
0.0
 10
147.8064727135874
 20
191.024452552187
 30
0.0
 10
147.8076097145148
 20
191.0255719931996
 30
0.0
  0
LINE
  5
28D
330
1F
100
AcDbEntity
  8
0
  6
CONTINUOUS
 62
     7
100
AcDbLine
 10
145.8651725724
 20
181.4255715372
 30
0.0
 11
145.8651725724
 21
191.0255719932
 31
0.0
  0
LINE
  5
28E
330
1F
100
AcDbEntity
  8
0
  6
CONTINUOUS
 62
     7
100
AcDbLine
 10
149.937631987
 20
190.9055720108
 30
0.0
 11
148.7451721504
 21
190.9055720108
 31
0.0
  0
LINE
  5
28F
330
1F
100
AcDbEntity
  8
0
  6
CONTINUOUS
 62
     7
100
AcDbLine
 10
149.335371755
 20
181.4990156355
 30
0.0
 11
148.7451721504
 21
181.545572451
 31
0.0
  0
LINE
  5
290
330
1F
100
AcDbEntity
  8
0
  6
CONTINUOUS
 62
     7
100
AcDbLine
 10
150.0651710256
 20
191.6055726843
 30
0.0
 11
149.0651708617
 21
191.6055726843
 31
0.0
  0
LINE
  5
291
330
1F
100
AcDbEntity
  8
0
  6
CONTINUOUS
 62
     7
100
AcDbLine
 10
151.0651711896
 20
191.6055726843
 30
0.0
 11
150.0651710256
 21
191.6055726843
 31
0.0
  0
LINE
  5
292
330
1F
100
AcDbEntity
  8
0
  6
CONTINUOUS
 62
     7
100
AcDbLine
 10
150.0651710256
 20
180.8455717774
 30
0.0
 11
149.0651708617
 21
180.8455717774
 31
0.0
  0
LINE
  5
293
330
1F
100
AcDbEntity
  8
0
  6
CONTINUOUS
 62
     7
100
AcDbLine
 10
151.0651711896
 20
180.8455717774
 30
0.0
 11
150.0651710256
 21
180.8455717774
 31
0.0
  0
LINE
  5
294
330
1F
100
AcDbEntity
  8
0
  6
CONTINUOUS
 62
     7
100
AcDbLine
 10
174.1759832538
 20
189.2052144768
 30
0.0
 11
173.4759830459
 21
189.2052144768
 31
0.0
  0
LINE
  5
295
330
1F
100
AcDbEntity
  8
0
  6
CONTINUOUS
 62
     7
100
AcDbLine
 10
173.4759830459
 20
189.2052144768
 30
0.0
 11
173.3759832158
 21
189.3052143069
 31
0.0
  0
LINE
  5
296
330
1F
100
AcDbEntity
  8
0
  6
CONTINUOUS
 62
     7
100
AcDbLine
 10
173.3759832158
 20
189.3052143069
 30
0.0
 11
174.2759830839
 21
189.3052143069
 31
0.0
  0
LINE
  5
297
330
1F
100
AcDbEntity
  8
0
  6
CONTINUOUS
 62
     7
100
AcDbLine
 10
174.1759832538
 20
189.2052144768
 30
0.0
 11
174.2759830839
 21
189.3052143069
 31
0.0
  0
LINE
  5
298
330
1F
100
AcDbEntity
  8
0
  6
CONTINUOUS
 62
     7
100
AcDbLine
 10
173.4759830459
 20
189.2052144768
 30
0.0
 11
173.4759830459
 21
188.5052138033
 31
0.0
  0
LINE
  5
299
330
1F
100
AcDbEntity
  8
0
  6
CONTINUOUS
 62
     7
100
AcDbLine
 10
173.3759832158
 20
188.4052139731
 30
0.0
 11
173.4759830459
 21
188.5052138033
 31
0.0
  0
LINE
  5
29A
330
1F
100
AcDbEntity
  8
0
  6
CONTINUOUS
 62
     7
100
AcDbLine
 10
173.3759832158
 20
188.4052139731
 30
0.0
 11
173.3759832158
 21
189.3052143069
 31
0.0
  0
LINE
  5
29B
330
1F
100
AcDbEntity
  8
0
  6
CONTINUOUS
 62
     7
100
AcDbLine
 10
176.2759829461
 20
188.5052138033
 30
0.0
 11
176.2759829461
 21
189.2052144768
 31
0.0
  0
LINE
  5
29C
330
1F
100
AcDbEntity
  8
0
  6
CONTINUOUS
 62
     7
100
AcDbLine
 10
176.2759829461
 20
189.2052144768
 30
0.0
 11
176.3759827762
 21
189.3052143069
 31
0.0
  0
LINE
  5
29D
330
1F
100
AcDbEntity
  8
0
  6
CONTINUOUS
 62
     7
100
AcDbLine
 10
176.3759827762
 20
189.3052143069
 30
0.0
 11
176.3759827762
 21
188.4052139731
 31
0.0
  0
LINE
  5
29E
330
1F
100
AcDbEntity
  8
0
  6
CONTINUOUS
 62
     7
100
AcDbLine
 10
176.2759829461
 20
188.5052138033
 30
0.0
 11
176.3759827762
 21
188.4052139731
 31
0.0
  0
LINE
  5
29F
330
1F
100
AcDbEntity
  8
0
  6
CONTINUOUS
 62
     7
100
AcDbLine
 10
175.2259828671
 20
188.5052138033
 30
0.0
 11
175.2259828671
 21
189.2052144768
 31
0.0
  0
LINE
  5
2A0
330
1F
100
AcDbEntity
  8
0
  6
CONTINUOUS
 62
     7
100
AcDbLine
 10
175.2259828671
 20
189.2052144768
 30
0.0
 11
175.3259826973
 21
189.3052143069
 31
0.0
  0
LINE
  5
2A1
330
1F
100
AcDbEntity
  8
0
  6
CONTINUOUS
 62
     7
100
AcDbLine
 10
175.3259826973
 20
189.3052143069
 30
0.0
 11
175.3259826973
 21
188.4052139731
 31
0.0
  0
LINE
  5
2A2
330
1F
100
AcDbEntity
  8
0
  6
CONTINUOUS
 62
     7
100
AcDbLine
 10
175.2259828671
 20
188.5052138033
 30
0.0
 11
175.3259826973
 21
188.4052139731
 31
0.0
  0
LINE
  5
2A3
330
1F
100
AcDbEntity
  8
0
  6
CONTINUOUS
 62
     7
100
AcDbLine
 10
174.4259832948
 20
188.4052139731
 30
0.0
 11
174.4259832948
 21
189.3052143069
 31
0.0
  0
LINE
  5
2A4
330
1F
100
AcDbEntity
  8
0
  6
CONTINUOUS
 62
     7
100
AcDbLine
 10
174.4259832948
 20
189.3052143069
 30
0.0
 11
174.5259831249
 21
189.2052144768
 31
0.0
  0
LINE
  5
2A5
330
1F
100
AcDbEntity
  8
0
  6
CONTINUOUS
 62
     7
100
AcDbLine
 10
174.5259831249
 20
189.2052144768
 30
0.0
 11
174.5259831249
 21
188.5052138033
 31
0.0
  0
LINE
  5
2A6
330
1F
100
AcDbEntity
  8
0
  6
CONTINUOUS
 62
     7
100
AcDbLine
 10
174.4259832948
 20
188.4052139731
 30
0.0
 11
174.5259831249
 21
188.5052138033
 31
0.0
  0
LINE
  5
2A7
330
1F
100
AcDbEntity
  8
0
  6
CONTINUOUS
 62
     7
100
AcDbLine
 10
175.2259828671
 20
189.2052144768
 30
0.0
 11
174.5259831249
 21
189.2052144768
 31
0.0
  0
LINE
  5
2A8
330
1F
100
AcDbEntity
  8
0
  6
CONTINUOUS
 62
     7
100
AcDbLine
 10
174.4259832948
 20
189.3052143069
 30
0.0
 11
175.3259826973
 21
189.3052143069
 31
0.0
  0
LINE
  5
2A9
330
1F
100
AcDbEntity
  8
0
  6
CONTINUOUS
 62
     7
100
AcDbLine
 10
176.2759829461
 20
189.2052144768
 30
0.0
 11
175.5759832039
 21
189.2052144768
 31
0.0
  0
LINE
  5
2AA
330
1F
100
AcDbEntity
  8
0
  6
CONTINUOUS
 62
     7
100
AcDbLine
 10
175.4759833738
 20
189.3052143069
 30
0.0
 11
175.5759832039
 21
189.2052144768
 31
0.0
  0
LINE
  5
2AB
330
1F
100
AcDbEntity
  8
0
  6
CONTINUOUS
 62
     7
100
AcDbLine
 10
175.4759833738
 20
189.3052143069
 30
0.0
 11
176.3759827762
 21
189.3052143069
 31
0.0
  0
LINE
  5
2AC
330
1F
100
AcDbEntity
  8
0
  6
CONTINUOUS
 62
     7
100
AcDbLine
 10
174.1759832538
 20
188.5052138033
 30
0.0
 11
174.1759832538
 21
189.2052144768
 31
0.0
  0
LINE
  5
2AD
330
1F
100
AcDbEntity
  8
0
  6
CONTINUOUS
 62
     7
100
AcDbLine
 10
174.2759830839
 20
189.3052143069
 30
0.0
 11
174.2759830839
 21
188.4052139731
 31
0.0
  0
LINE
  5
2AE
330
1F
100
AcDbEntity
  8
0
  6
CONTINUOUS
 62
     7
100
AcDbLine
 10
174.2759830839
 20
188.4052139731
 30
0.0
 11
174.1759832538
 21
188.5052138033
 31
0.0
  0
LINE
  5
2AF
330
1F
100
AcDbEntity
  8
0
  6
CONTINUOUS
 62
     7
100
AcDbLine
 10
175.4759833738
 20
188.4052139731
 30
0.0
 11
175.4759833738
 21
189.3052143069
 31
0.0
  0
LINE
  5
2B0
330
1F
100
AcDbEntity
  8
0
  6
CONTINUOUS
 62
     7
100
AcDbLine
 10
175.5759832039
 20
189.2052144768
 30
0.0
 11
175.5759832039
 21
188.5052138033
 31
0.0
  0
LINE
  5
2B1
330
1F
100
AcDbEntity
  8
0
  6
CONTINUOUS
 62
     7
100
AcDbLine
 10
175.4759833738
 20
188.4052139731
 30
0.0
 11
175.5759832039
 21
188.5052138033
 31
0.0
  0
LINE
  5
2B2
330
1F
100
AcDbEntity
  8
0
  6
CONTINUOUS
 62
     7
100
AcDbLine
 10
175.5759832039
 20
188.5052138033
 30
0.0
 11
176.2759829461
 21
188.5052138033
 31
0.0
  0
LINE
  5
2B3
330
1F
100
AcDbEntity
  8
0
  6
CONTINUOUS
 62
     7
100
AcDbLine
 10
174.5259831249
 20
188.5052138033
 30
0.0
 11
175.2259828671
 21
188.5052138033
 31
0.0
  0
LINE
  5
2B4
330
1F
100
AcDbEntity
  8
0
  6
CONTINUOUS
 62
     7
100
AcDbLine
 10
173.4759830459
 20
188.5052138033
 30
0.0
 11
174.1759832538
 21
188.5052138033
 31
0.0
  0
LINE
  5
2B5
330
1F
100
AcDbEntity
  8
0
  6
CONTINUOUS
 62
     7
100
AcDbLine
 10
175.3259826973
 20
188.4052139731
 30
0.0
 11
174.4259832948
 21
188.4052139731
 31
0.0
  0
LINE
  5
2B6
330
1F
100
AcDbEntity
  8
0
  6
CONTINUOUS
 62
     7
100
AcDbLine
 10
176.3759827762
 20
188.4052139731
 30
0.0
 11
175.4759833738
 21
188.4052139731
 31
0.0
  0
LINE
  5
2B7
330
1F
100
AcDbEntity
  8
0
  6
CONTINUOUS
 62
     7
100
AcDbLine
 10
174.2759830839
 20
188.4052139731
 30
0.0
 11
173.3759832158
 21
188.4052139731
 31
0.0
  0
LINE
  5
2B8
330
1F
100
AcDbEntity
  8
0
  6
CONTINUOUS
 62
     7
100
AcDbLine
 10
174.5259831249
 20
188.1552153291
 30
0.0
 11
174.5259831249
 21
187.4552146556
 31
0.0
  0
LINE
  5
2B9
330
1F
100
AcDbEntity
  8
0
  6
CONTINUOUS
 62
     7
100
AcDbLine
 10
174.4259832948
 20
187.3552148255
 30
0.0
 11
174.5259831249
 21
187.4552146556
 31
0.0
  0
LINE
  5
2BA
330
1F
100
AcDbEntity
  8
0
  6
CONTINUOUS
 62
     7
100
AcDbLine
 10
174.4259832948
 20
187.3552148255
 30
0.0
 11
174.4259832948
 21
188.2552151593
 31
0.0
  0
LINE
  5
2BB
330
1F
100
AcDbEntity
  8
0
  6
CONTINUOUS
 62
     7
100
AcDbLine
 10
174.5259831249
 20
188.1552153291
 30
0.0
 11
174.4259832948
 21
188.2552151593
 31
0.0
  0
LINE
  5
2BC
330
1F
100
AcDbEntity
  8
0
  6
CONTINUOUS
 62
     7
100
AcDbLine
 10
173.4759830459
 20
188.1552153291
 30
0.0
 11
173.4759830459
 21
187.4552146556
 31
0.0
  0
LINE
  5
2BD
330
1F
100
AcDbEntity
  8
0
  6
CONTINUOUS
 62
     7
100
AcDbLine
 10
173.3759832158
 20
187.3552148255
 30
0.0
 11
173.4759830459
 21
187.4552146556
 31
0.0
  0
LINE
  5
2BE
330
1F
100
AcDbEntity
  8
0
  6
CONTINUOUS
 62
     7
100
AcDbLine
 10
173.3759832158
 20
187.3552148255
 30
0.0
 11
173.3759832158
 21
188.2552151593
 31
0.0
  0
LINE
  5
2BF
330
1F
100
AcDbEntity
  8
0
  6
CONTINUOUS
 62
     7
100
AcDbLine
 10
173.4759830459
 20
188.1552153291
 30
0.0
 11
173.3759832158
 21
188.2552151593
 31
0.0
  0
LINE
  5
2C0
330
1F
100
AcDbEntity
  8
0
  6
CONTINUOUS
 62
     7
100
AcDbLine
 10
174.1759832538
 20
187.4552146556
 30
0.0
 11
174.1759832538
 21
188.1552153291
 31
0.0
  0
LINE
  5
2C1
330
1F
100
AcDbEntity
  8
0
  6
CONTINUOUS
 62
     7
100
AcDbLine
 10
174.1759832538
 20
188.1552153291
 30
0.0
 11
174.2759830839
 21
188.2552151593
 31
0.0
  0
LINE
  5
2C2
330
1F
100
AcDbEntity
  8
0
  6
CONTINUOUS
 62
     7
100
AcDbLine
 10
174.2759830839
 20
188.2552151593
 30
0.0
 11
174.2759830839
 21
187.3552148255
 31
0.0
  0
LINE
  5
2C3
330
1F
100
AcDbEntity
  8
0
  6
CONTINUOUS
 62
     7
100
AcDbLine
 10
174.2759830839
 20
187.3552148255
 30
0.0
 11
174.1759832538
 21
187.4552146556
 31
0.0
  0
LINE
  5
2C4
330
1F
100
AcDbEntity
  8
0
  6
CONTINUOUS
 62
     7
100
AcDbLine
 10
175.4759833738
 20
188.2552151593
 30
0.0
 11
176.3759827762
 21
188.2552151593
 31
0.0
  0
LINE
  5
2C5
330
1F
100
AcDbEntity
  8
0
  6
CONTINUOUS
 62
     7
100
AcDbLine
 10
176.3759827762
 20
188.2552151593
 30
0.0
 11
176.2759829461
 21
188.1552153291
 31
0.0
  0
LINE
  5
2C6
330
1F
100
AcDbEntity
  8
0
  6
CONTINUOUS
 62
     7
100
AcDbLine
 10
176.2759829461
 20
188.1552153291
 30
0.0
 11
175.5759832039
 21
188.1552153291
 31
0.0
  0
LINE
  5
2C7
330
1F
100
AcDbEntity
  8
0
  6
CONTINUOUS
 62
     7
100
AcDbLine
 10
175.4759833738
 20
188.2552151593
 30
0.0
 11
175.5759832039
 21
188.1552153291
 31
0.0
  0
LINE
  5
2C8
330
1F
100
AcDbEntity
  8
0
  6
CONTINUOUS
 62
     7
100
AcDbLine
 10
175.2259828671
 20
188.1552153291
 30
0.0
 11
174.5259831249
 21
188.1552153291
 31
0.0
  0
LINE
  5
2C9
330
1F
100
AcDbEntity
  8
0
  6
CONTINUOUS
 62
     7
100
AcDbLine
 10
174.4259832948
 20
188.2552151593
 30
0.0
 11
175.3259826973
 21
188.2552151593
 31
0.0
  0
LINE
  5
2CA
330
1F
100
AcDbEntity
  8
0
  6
CONTINUOUS
 62
     7
100
AcDbLine
 10
175.2259828671
 20
188.1552153291
 30
0.0
 11
175.3259826973
 21
188.2552151593
 31
0.0
  0
LINE
  5
2CB
330
1F
100
AcDbEntity
  8
0
  6
CONTINUOUS
 62
     7
100
AcDbLine
 10
176.2759829461
 20
187.4552146556
 30
0.0
 11
176.2759829461
 21
188.1552153291
 31
0.0
  0
LINE
  5
2CC
330
1F
100
AcDbEntity
  8
0
  6
CONTINUOUS
 62
     7
100
AcDbLine
 10
176.3759827762
 20
188.2552151593
 30
0.0
 11
176.3759827762
 21
187.3552148255
 31
0.0
  0
LINE
  5
2CD
330
1F
100
AcDbEntity
  8
0
  6
CONTINUOUS
 62
     7
100
AcDbLine
 10
176.2759829461
 20
187.4552146556
 30
0.0
 11
176.3759827762
 21
187.3552148255
 31
0.0
  0
LINE
  5
2CE
330
1F
100
AcDbEntity
  8
0
  6
CONTINUOUS
 62
     7
100
AcDbLine
 10
175.2259828671
 20
187.4552146556
 30
0.0
 11
175.2259828671
 21
188.1552153291
 31
0.0
  0
LINE
  5
2CF
330
1F
100
AcDbEntity
  8
0
  6
CONTINUOUS
 62
     7
100
AcDbLine
 10
175.3259826973
 20
188.2552151593
 30
0.0
 11
175.3259826973
 21
187.3552148255
 31
0.0
  0
LINE
  5
2D0
330
1F
100
AcDbEntity
  8
0
  6
CONTINUOUS
 62
     7
100
AcDbLine
 10
175.3259826973
 20
187.3552148255
 30
0.0
 11
175.2259828671
 21
187.4552146556
 31
0.0
  0
LINE
  5
2D1
330
1F
100
AcDbEntity
  8
0
  6
CONTINUOUS
 62
     7
100
AcDbLine
 10
175.5759832039
 20
188.1552153291
 30
0.0
 11
175.5759832039
 21
187.4552146556
 31
0.0
  0
LINE
  5
2D2
330
1F
100
AcDbEntity
  8
0
  6
CONTINUOUS
 62
     7
100
AcDbLine
 10
175.5759832039
 20
187.4552146556
 30
0.0
 11
175.4759833738
 21
187.3552148255
 31
0.0
  0
LINE
  5
2D3
330
1F
100
AcDbEntity
  8
0
  6
CONTINUOUS
 62
     7
100
AcDbLine
 10
175.4759833738
 20
187.3552148255
 30
0.0
 11
175.4759833738
 21
188.2552151593
 31
0.0
  0
LINE
  5
2D4
330
1F
100
AcDbEntity
  8
0
  6
CONTINUOUS
 62
     7
100
AcDbLine
 10
174.1759832538
 20
188.1552153291
 30
0.0
 11
173.4759830459
 21
188.1552153291
 31
0.0
  0
LINE
  5
2D5
330
1F
100
AcDbEntity
  8
0
  6
CONTINUOUS
 62
     7
100
AcDbLine
 10
173.3759832158
 20
188.2552151593
 30
0.0
 11
174.2759830839
 21
188.2552151593
 31
0.0
  0
LINE
  5
2D6
330
1F
100
AcDbEntity
  8
0
  6
CONTINUOUS
 62
     7
100
AcDbLine
 10
173.4759830459
 20
187.4552146556
 30
0.0
 11
174.1759832538
 21
187.4552146556
 31
0.0
  0
LINE
  5
2D7
330
1F
100
AcDbEntity
  8
0
  6
CONTINUOUS
 62
     7
100
AcDbLine
 10
174.5259831249
 20
187.4552146556
 30
0.0
 11
175.2259828671
 21
187.4552146556
 31
0.0
  0
LINE
  5
2D8
330
1F
100
AcDbEntity
  8
0
  6
CONTINUOUS
 62
     7
100
AcDbLine
 10
175.5759832039
 20
187.4552146556
 30
0.0
 11
176.2759829461
 21
187.4552146556
 31
0.0
  0
LINE
  5
2D9
330
1F
100
AcDbEntity
  8
0
  6
CONTINUOUS
 62
     7
100
AcDbLine
 10
175.3259826973
 20
187.3552148255
 30
0.0
 11
174.4259832948
 21
187.3552148255
 31
0.0
  0
LINE
  5
2DA
330
1F
100
AcDbEntity
  8
0
  6
CONTINUOUS
 62
     7
100
AcDbLine
 10
174.2759830839
 20
187.3552148255
 30
0.0
 11
173.3759832158
 21
187.3552148255
 31
0.0
  0
LINE
  5
2DB
330
1F
100
AcDbEntity
  8
0
  6
CONTINUOUS
 62
     7
100
AcDbLine
 10
176.3759827762
 20
187.3552148255
 30
0.0
 11
175.4759833738
 21
187.3552148255
 31
0.0
  0
LINE
  5
2DC
330
1F
100
AcDbEntity
  8
0
  6
CONTINUOUS
 62
     7
100
AcDbLine
 10
176.2759829461
 20
186.405215508
 30
0.0
 11
176.2759829461
 21
187.1052143188
 31
0.0
  0
LINE
  5
2DD
330
1F
100
AcDbEntity
  8
0
  6
CONTINUOUS
 62
     7
100
AcDbLine
 10
176.3759827762
 20
187.205214149
 30
0.0
 11
176.2759829461
 21
187.1052143188
 31
0.0
  0
LINE
  5
2DE
330
1F
100
AcDbEntity
  8
0
  6
CONTINUOUS
 62
     7
100
AcDbLine
 10
176.3759827762
 20
187.205214149
 30
0.0
 11
176.3759827762
 21
186.3052138152
 31
0.0
  0
LINE
  5
2DF
330
1F
100
AcDbEntity
  8
0
  6
CONTINUOUS
 62
     7
100
AcDbLine
 10
176.2759829461
 20
186.405215508
 30
0.0
 11
176.3759827762
 21
186.3052138152
 31
0.0
  0
LINE
  5
2E0
330
1F
100
AcDbEntity
  8
0
  6
CONTINUOUS
 62
     7
100
AcDbLine
 10
174.2759830839
 20
187.205214149
 30
0.0
 11
174.2759830839
 21
186.3052138152
 31
0.0
  0
LINE
  5
2E1
330
1F
100
AcDbEntity
  8
0
  6
CONTINUOUS
 62
     7
100
AcDbLine
 10
174.2759830839
 20
186.3052138152
 30
0.0
 11
174.1759832538
 21
186.405215508
 31
0.0
  0
LINE
  5
2E2
330
1F
100
AcDbEntity
  8
0
  6
CONTINUOUS
 62
     7
100
AcDbLine
 10
174.1759832538
 20
186.405215508
 30
0.0
 11
174.1759832538
 21
187.1052143188
 31
0.0
  0
LINE
  5
2E3
330
1F
100
AcDbEntity
  8
0
  6
CONTINUOUS
 62
     7
100
AcDbLine
 10
174.2759830839
 20
187.205214149
 30
0.0
 11
174.1759832538
 21
187.1052143188
 31
0.0
  0
LINE
  5
2E4
330
1F
100
AcDbEntity
  8
0
  6
CONTINUOUS
 62
     7
100
AcDbLine
 10
175.3259826973
 20
187.205214149
 30
0.0
 11
175.3259826973
 21
186.3052138152
 31
0.0
  0
LINE
  5
2E5
330
1F
100
AcDbEntity
  8
0
  6
CONTINUOUS
 62
     7
100
AcDbLine
 10
175.3259826973
 20
186.3052138152
 30
0.0
 11
175.2259828671
 21
186.405215508
 31
0.0
  0
LINE
  5
2E6
330
1F
100
AcDbEntity
  8
0
  6
CONTINUOUS
 62
     7
100
AcDbLine
 10
175.2259828671
 20
186.405215508
 30
0.0
 11
175.2259828671
 21
187.1052143188
 31
0.0
  0
LINE
  5
2E7
330
1F
100
AcDbEntity
  8
0
  6
CONTINUOUS
 62
     7
100
AcDbLine
 10
175.3259826973
 20
187.205214149
 30
0.0
 11
175.2259828671
 21
187.1052143188
 31
0.0
  0
LINE
  5
2E8
330
1F
100
AcDbEntity
  8
0
  6
CONTINUOUS
 62
     7
100
AcDbLine
 10
173.4759830459
 20
187.1052143188
 30
0.0
 11
173.4759830459
 21
186.405215508
 31
0.0
  0
LINE
  5
2E9
330
1F
100
AcDbEntity
  8
0
  6
CONTINUOUS
 62
     7
100
AcDbLine
 10
173.4759830459
 20
186.405215508
 30
0.0
 11
173.3759832158
 21
186.3052138152
 31
0.0
  0
LINE
  5
2EA
330
1F
100
AcDbEntity
  8
0
  6
CONTINUOUS
 62
     7
100
AcDbLine
 10
173.3759832158
 20
186.3052138152
 30
0.0
 11
173.3759832158
 21
187.205214149
 31
0.0
  0
LINE
  5
2EB
330
1F
100
AcDbEntity
  8
0
  6
CONTINUOUS
 62
     7
100
AcDbLine
 10
173.4759830459
 20
187.1052143188
 30
0.0
 11
173.3759832158
 21
187.205214149
 31
0.0
  0
LINE
  5
2EC
330
1F
100
AcDbEntity
  8
0
  6
CONTINUOUS
 62
     7
100
AcDbLine
 10
175.5759832039
 20
187.1052143188
 30
0.0
 11
175.5759832039
 21
186.405215508
 31
0.0
  0
LINE
  5
2ED
330
1F
100
AcDbEntity
  8
0
  6
CONTINUOUS
 62
     7
100
AcDbLine
 10
175.5759832039
 20
186.405215508
 30
0.0
 11
175.4759833738
 21
186.3052138152
 31
0.0
  0
LINE
  5
2EE
330
1F
100
AcDbEntity
  8
0
  6
CONTINUOUS
 62
     7
100
AcDbLine
 10
175.4759833738
 20
186.3052138152
 30
0.0
 11
175.4759833738
 21
187.205214149
 31
0.0
  0
LINE
  5
2EF
330
1F
100
AcDbEntity
  8
0
  6
CONTINUOUS
 62
     7
100
AcDbLine
 10
175.4759833738
 20
187.205214149
 30
0.0
 11
175.5759832039
 21
187.1052143188
 31
0.0
  0
LINE
  5
2F0
330
1F
100
AcDbEntity
  8
0
  6
CONTINUOUS
 62
     7
100
AcDbLine
 10
175.4759833738
 20
187.205214149
 30
0.0
 11
176.3759827762
 21
187.205214149
 31
0.0
  0
LINE
  5
2F1
330
1F
100
AcDbEntity
  8
0
  6
CONTINUOUS
 62
     7
100
AcDbLine
 10
176.2759829461
 20
187.1052143188
 30
0.0
 11
175.5759832039
 21
187.1052143188
 31
0.0
  0
LINE
  5
2F2
330
1F
100
AcDbEntity
  8
0
  6
CONTINUOUS
 62
     7
100
AcDbLine
 10
174.1759832538
 20
187.1052143188
 30
0.0
 11
173.4759830459
 21
187.1052143188
 31
0.0
  0
LINE
  5
2F3
330
1F
100
AcDbEntity
  8
0
  6
CONTINUOUS
 62
     7
100
AcDbLine
 10
173.3759832158
 20
187.205214149
 30
0.0
 11
174.2759830839
 21
187.205214149
 31
0.0
  0
LINE
  5
2F4
330
1F
100
AcDbEntity
  8
0
  6
CONTINUOUS
 62
     7
100
AcDbLine
 10
174.5259831249
 20
187.1052143188
 30
0.0
 11
174.5259831249
 21
186.405215508
 31
0.0
  0
LINE
  5
2F5
330
1F
100
AcDbEntity
  8
0
  6
CONTINUOUS
 62
     7
100
AcDbLine
 10
174.5259831249
 20
186.405215508
 30
0.0
 11
174.4259832948
 21
186.3052138152
 31
0.0
  0
LINE
  5
2F6
330
1F
100
AcDbEntity
  8
0
  6
CONTINUOUS
 62
     7
100
AcDbLine
 10
174.4259832948
 20
186.3052138152
 30
0.0
 11
174.4259832948
 21
187.205214149
 31
0.0
  0
LINE
  5
2F7
330
1F
100
AcDbEntity
  8
0
  6
CONTINUOUS
 62
     7
100
AcDbLine
 10
174.5259831249
 20
187.1052143188
 30
0.0
 11
174.4259832948
 21
187.205214149
 31
0.0
  0
LINE
  5
2F8
330
1F
100
AcDbEntity
  8
0
  6
CONTINUOUS
 62
     7
100
AcDbLine
 10
175.2259828671
 20
187.1052143188
 30
0.0
 11
174.5259831249
 21
187.1052143188
 31
0.0
  0
LINE
  5
2F9
330
1F
100
AcDbEntity
  8
0
  6
CONTINUOUS
 62
     7
100
AcDbLine
 10
174.4259832948
 20
187.205214149
 30
0.0
 11
175.3259826973
 21
187.205214149
 31
0.0
  0
LINE
  5
2FA
330
1F
100
AcDbEntity
  8
0
  6
CONTINUOUS
 62
     7
100
AcDbLine
 10
175.5759832039
 20
186.405215508
 30
0.0
 11
176.2759829461
 21
186.405215508
 31
0.0
  0
LINE
  5
2FB
330
1F
100
AcDbEntity
  8
0
  6
CONTINUOUS
 62
     7
100
AcDbLine
 10
174.5259831249
 20
186.405215508
 30
0.0
 11
175.2259828671
 21
186.405215508
 31
0.0
  0
LINE
  5
2FC
330
1F
100
AcDbEntity
  8
0
  6
CONTINUOUS
 62
     7
100
AcDbLine
 10
173.4759830459
 20
186.405215508
 30
0.0
 11
174.1759832538
 21
186.405215508
 31
0.0
  0
LINE
  5
2FD
330
1F
100
AcDbEntity
  8
0
  6
CONTINUOUS
 62
     7
100
AcDbLine
 10
176.3759827762
 20
186.3052138152
 30
0.0
 11
175.4759833738
 21
186.3052138152
 31
0.0
  0
LINE
  5
2FE
330
1F
100
AcDbEntity
  8
0
  6
CONTINUOUS
 62
     7
100
AcDbLine
 10
175.3259826973
 20
186.3052138152
 30
0.0
 11
174.4259832948
 21
186.3052138152
 31
0.0
  0
LINE
  5
2FF
330
1F
100
AcDbEntity
  8
0
  6
CONTINUOUS
 62
     7
100
AcDbLine
 10
174.2759830839
 20
186.3052138152
 30
0.0
 11
173.3759832158
 21
186.3052138152
 31
0.0
  0
LINE
  5
300
330
1F
100
AcDbEntity
  8
0
  6
CONTINUOUS
 62
     7
100
AcDbLine
 10
174.2759830839
 20
186.3052138152
 30
0.0
 11
174.4259832948
 21
186.3052138152
 31
0.0
  0
LINE
  5
301
330
1F
100
AcDbEntity
  8
0
  6
CONTINUOUS
 62
     7
100
AcDbLine
 10
175.3259826973
 20
186.3052138152
 30
0.0
 11
175.4759833738
 21
186.3052138152
 31
0.0
  0
LINE
  5
302
330
1F
100
AcDbEntity
  8
0
  6
CONTINUOUS
 62
     7
100
AcDbLine
 10
173.3759832158
 20
188.4052139731
 30
0.0
 11
173.3759832158
 21
188.2552151593
 31
0.0
  0
LINE
  5
303
330
1F
100
AcDbEntity
  8
0
  6
CONTINUOUS
 62
     7
100
AcDbLine
 10
173.3759832158
 20
187.3552148255
 30
0.0
 11
173.3759832158
 21
187.205214149
 31
0.0
  0
LINE
  5
304
330
1F
100
AcDbEntity
  8
0
  6
CONTINUOUS
 62
     7
100
AcDbLine
 10
175.4759833738
 20
189.3052143069
 30
0.0
 11
175.3259826973
 21
189.3052143069
 31
0.0
  0
LINE
  5
305
330
1F
100
AcDbEntity
  8
0
  6
CONTINUOUS
 62
     7
100
AcDbLine
 10
174.4259832948
 20
189.3052143069
 30
0.0
 11
174.2759830839
 21
189.3052143069
 31
0.0
  0
LINE
  5
306
330
1F
100
AcDbEntity
  8
0
  6
CONTINUOUS
 62
     7
100
AcDbLine
 10
176.3759827762
 20
187.205214149
 30
0.0
 11
176.3759827762
 21
187.3552148255
 31
0.0
  0
LINE
  5
307
330
1F
100
AcDbEntity
  8
0
  6
CONTINUOUS
 62
     7
100
AcDbLine
 10
176.3759827762
 20
188.2552151593
 30
0.0
 11
176.3759827762
 21
188.4052139731
 31
0.0
  0
LINE
  5
308
330
1F
100
AcDbEntity
  8
0
  6
CONTINUOUS
 62
     7
100
AcDbLine
 10
173.3759832158
 20
186.3052138152
 30
0.0
 11
171.375982888
 21
186.3052138152
 31
0.0
  0
LINE
  5
309
330
1F
100
AcDbEntity
  8
0
  6
CONTINUOUS
 62
     7
100
AcDbLine
 10
171.375982888
 20
189.3052143069
 30
0.0
 11
173.3759832158
 21
189.3052143069
 31
0.0
  0
LINE
  5
30A
330
1F
100
AcDbEntity
  8
0
  6
CONTINUOUS
 62
     7
100
AcDbLine
 10
171.375982888
 20
186.3052138152
 30
0.0
 11
171.375982888
 21
189.3052143069
 31
0.0
  0
LINE
  5
30B
330
1F
100
AcDbEntity
  8
0
  6
CONTINUOUS
 62
     7
100
AcDbLine
 10
208.0601700171
 20
196.3090143191
 30
0.0
 11
211.2351716086
 21
196.3090143191
 31
0.0
  0
LINE
  5
30C
330
1F
100
AcDbEntity
  8
0
  6
CONTINUOUS
 62
     7
100
AcDbLine
 10
211.2351716086
 20
196.3090143191
 30
0.0
 11
211.2351716086
 21
178.6560156407
 31
0.0
  0
LINE
  5
30D
330
1F
100
AcDbEntity
  8
0
  6
CONTINUOUS
 62
     7
100
AcDbLine
 10
208.0601700171
 20
178.6560156407
 30
0.0
 11
211.2351716086
 21
178.6560156407
 31
0.0
  0
LINE
  5
30E
330
1F
100
AcDbEntity
  8
0
  6
CONTINUOUS
 62
     7
100
AcDbLine
 10
208.0601700171
 20
178.6560156407
 30
0.0
 11
208.0601700171
 21
196.3090143191
 31
0.0
  0
LINE
  5
30F
330
1F
100
AcDbEntity
  8
0
  6
CONTINUOUS
 62
     7
100
AcDbLine
 10
161.0701717026
 20
178.6560156407
 30
0.0
 11
208.0601700171
 21
178.6560156407
 31
0.0
  0
LINE
  5
310
330
1F
100
AcDbEntity
  8
0
  6
CONTINUOUS
 62
     7
100
AcDbLine
 10
161.0701717026
 20
196.3090143191
 30
0.0
 11
161.0701717026
 21
178.6560156407
 31
0.0
  0
ARC
  5
311
330
1F
100
AcDbEntity
  8
0
  6
CONTINUOUS
 62
     7
100
AcDbCircle
 10
170.2459217317
 20
185.418764717
 30
0.0
 40
0.7937500000000275
100
AcDbArc
 50
180.0000355219
 51
269.9999975535
  0
LINE
  5
312
330
1F
100
AcDbEntity
  8
0
  6
CONTINUOUS
 62
     7
100
AcDbLine
 10
170.2459216978
 20
184.625014717
 30
0.0
 11
177.0404218286
 21
184.6250147583
 31
0.0
  0
ARC
  5
313
330
1F
100
AcDbEntity
  8
0
  6
CONTINUOUS
 62
     7
100
AcDbCircle
 10
177.0404216978
 20
185.4187647583
 30
0.0
 40
0.7937499999999994
100
AcDbArc
 50
270.0000094402
 51
359.9999970147
  0
LINE
  5
314
330
1F
100
AcDbEntity
  8
0
  6
CONTINUOUS
 62
     7
100
AcDbLine
 10
177.8341716978
 20
185.418764717
 30
0.0
 11
177.8341712951
 21
190.1812647494
 31
0.0
  0
ARC
  5
315
330
1F
100
AcDbEntity
  8
0
  6
CONTINUOUS
 62
     7
100
AcDbCircle
 10
177.0404212951
 20
190.181264717
 30
0.0
 40
0.7937499999999893
100
AcDbArc
 50
0.0000023399
 51
89.999970933
  0
LINE
  5
316
330
1F
100
AcDbEntity
  8
0
  6
CONTINUOUS
 62
     7
100
AcDbLine
 10
177.0404216978
 20
190.975014717
 30
0.0
 11
170.2459216639
 21
190.9750151472
 31
0.0
  0
ARC
  5
317
330
1F
100
AcDbEntity
  8
0
  6
CONTINUOUS
 62
     7
100
AcDbCircle
 10
170.2459216978
 20
190.1812651472
 30
0.0
 40
0.7937499999999893
100
AcDbArc
 50
90.0000024475
 51
180.000031059
  0
LINE
  5
318
330
1F
100
AcDbEntity
  8
0
  6
CONTINUOUS
 62
     7
100
AcDbLine
 10
169.4521716978
 20
190.181264717
 30
0.0
 11
169.4521717317
 21
185.4187642249
 31
0.0
  0
LINE
  5
319
330
1F
100
AcDbEntity
  8
0
  6
CONTINUOUS
 62
     7
100
AcDbLine
 10
208.0601700171
 20
196.3090143191
 30
0.0
 11
161.0701717026
 21
196.3090143191
 31
0.0
  0
LINE
  5
31A
330
1F
100
AcDbEntity
  8
0
  6
CONTINUOUS
 62
     7
100
AcDbLine
 10
157.8951715081
 20
178.6560156407
 30
0.0
 11
161.0701717026
 21
178.6560156407
 31
0.0
  0
LINE
  5
31B
330
1F
100
AcDbEntity
  8
0
  6
CONTINUOUS
 62
     7
100
AcDbLine
 10
157.8951715081
 20
178.6560156407
 30
0.0
 11
157.8951715081
 21
196.3090143191
 31
0.0
  0
LINE
  5
31C
330
1F
100
AcDbEntity
  8
0
  6
CONTINUOUS
 62
     7
100
AcDbLine
 10
157.8951715081
 20
196.3090143191
 30
0.0
 11
161.0701717026
 21
196.3090143191
 31
0.0
  0
LINE
  5
31D
330
1F
100
AcDbEntity
  8
0
  6
CONTINUOUS
 62
     7
100
AcDbLine
 10
209.8381728455
 20
177.259015015
 30
0.0
 11
208.0601700171
 21
177.259015015
 31
0.0
  0
LINE
  5
31E
330
1F
100
AcDbEntity
  8
0
  6
CONTINUOUS
 62
     7
100
AcDbLine
 10
208.0601700171
 20
178.6560156407
 30
0.0
 11
208.0601700171
 21
177.259015015
 31
0.0
  0
ARC
  5
31F
330
1F
100
AcDbEntity
  8
0
  6
CONTINUOUS
 62
     7
100
AcDbCircle
 10
209.8381716978
 20
178.656015015
 30
0.0
 40
1.397000000000008
100
AcDbArc
 50
270.0000470709
 51
359.9999877774
  0
LINE
  5
320
330
1F
100
AcDbEntity
  8
0
  6
CONTINUOUS
 62
     7
100
AcDbLine
 10
161.0701717026
 20
178.6560156407
 30
0.0
 11
161.0701717026
 21
177.259015015
 31
0.0
  0
LINE
  5
321
330
1F
100
AcDbEntity
  8
0
  6
CONTINUOUS
 62
     7
100
AcDbLine
 10
161.0701717026
 20
177.259015015
 30
0.0
 11
159.2921716978
 21
177.259014717
 31
0.0
  0
ARC
  5
322
330
1F
100
AcDbEntity
  8
0
  6
CONTINUOUS
 62
     7
100
AcDbCircle
 10
159.2921715081
 20
178.656014717
 30
0.0
 40
1.397000000000041
100
AcDbArc
 50
179.9999621141
 51
270.0000077784
  0
LINE
  5
323
330
1F
100
AcDbEntity
  8
0
  6
CONTINUOUS
 62
     7
100
AcDbLine
 10
208.0601700171
 20
177.259015015
 30
0.0
 11
161.0701717026
 21
177.259015015
 31
0.0
  0
ARC
  5
324
330
1F
100
AcDbEntity
  8
0
  6
CONTINUOUS
 62
     7
100
AcDbCircle
 10
171.5159216978
 20
188.9112643244
 30
0.0
 40
0.7937500000000014
100
AcDbArc
 50
90.000010278
 51
179.9999716633
  0
LINE
  5
325
330
1F
100
AcDbEntity
  8
0
  6
CONTINUOUS
 62
     7
100
AcDbLine
 10
170.7221716978
 20
188.911264717
 30
0.0
 11
170.7221716232
 21
186.6887641164
 31
0.0
  0
ARC
  5
326
330
1F
100
AcDbEntity
  8
0
  6
CONTINUOUS
 62
     7
100
AcDbCircle
 10
171.5159216232
 20
186.688764717
 30
0.0
 40
0.7937499999999885
100
AcDbArc
 50
180.0000433524
 51
270.000005384
  0
LINE
  5
327
330
1F
100
AcDbEntity
  8
0
  6
CONTINUOUS
 62
     7
100
AcDbLine
 10
171.5159216978
 20
185.895014717
 30
0.0
 11
175.7704219371
 21
185.8950146498
 31
0.0
  0
ARC
  5
328
330
1F
100
AcDbEntity
  8
0
  6
CONTINUOUS
 62
     7
100
AcDbCircle
 10
175.7704216978
 20
186.6887646498
 30
0.0
 40
0.7937499999999963
100
AcDbArc
 50
270.0000172707
 51
0.0000048452
  0
LINE
  5
329
330
1F
100
AcDbEntity
  8
0
  6
CONTINUOUS
 62
     7
100
AcDbLine
 10
176.5641716978
 20
186.688764717
 30
0.0
 11
176.5641714036
 21
188.9112648579
 31
0.0
  0
ARC
  5
32A
330
1F
100
AcDbEntity
  8
0
  6
CONTINUOUS
 62
     7
100
AcDbCircle
 10
175.7704214036
 20
188.911264717
 30
0.0
 40
0.7937500000000296
100
AcDbArc
 50
0.0000101705
 51
89.9999787635
  0
LINE
  5
32B
330
1F
100
AcDbEntity
  8
0
  6
CONTINUOUS
 62
     7
100
AcDbLine
 10
175.7704216978
 20
189.705014717
 30
0.0
 11
171.5159215554
 21
189.7050143244
 31
0.0
  0
LINE
  5
32C
330
1F
100
AcDbEntity
  8
0
  6
CONTINUOUS
 62
     8
100
AcDbLine
 10
161.3876716755
 20
196.321714765
 30
0.0
 11
161.3876716755
 21
196.321714765
 31
0.0
  0
LINE
  5
32D
330
1F
100
AcDbEntity
  8
0
  6
CONTINUOUS
 62
     8
100
AcDbLine
 10
207.7426709756
 20
196.321714765
 30
0.0
 11
207.7426709756
 21
196.321714765
 31
0.0
  0
DIMENSION
  5
32E
330
1F
100
AcDbEntity
  8
0
  6
CONTINUOUS
 62
     7
100
AcDbDimension
  2
_D_10
 10
129.8651716978
 20
177.259014717
 30
0.0
 11
129.8651716978
 21
186.784014717
 31
0.0
 70
   160
  1
<>
  3
SLDDIMSTYLE1
100
AcDbAlignedDimension
 13
161.0701716978
 23
196.309014717
 33
0.0
 14
161.0701716978
 24
177.259014717
 34
0.0
 50
90.0
100
AcDbRotatedDimension
  0
DIMENSION
  5
342
330
1F
100
AcDbEntity
  8
0
  6
CONTINUOUS
 62
     7
100
AcDbDimension
  2
_D_11
 10
111.8651716978
 20
196.309014717
 30
0.0
 11
111.8651716978
 21
183.101014717
 31
0.0
 70
   160
  1
<>
  3
SLDDIMSTYLE1
100
AcDbAlignedDimension
 13
181.0091716978
 23
169.893014717
 33
0.0
 14
161.0701716978
 24
196.309014717
 34
0.0
 50
90.0
100
AcDbRotatedDimension
  0
INSERT
  5
35B
102
{ACAD_REACTORS
330
35C
102
}
330
1F
100
AcDbEntity
  8
0
  6
CONTINUOUS
 62
     7
100
AcDbBlockReference
  2
SW_NOTE_4
 10
181.6745334797
 20
154.695191519
 30
0.0
  0
LEADER
  5
35C
330
1F
100
AcDbEntity
  8
0
  6
CONTINUOUS
 62
     7
100
AcDbLeader
  3
SLDDIMSTYLE2
 73
     2
 76
     3
 10
191.885015871
 20
169.893014717
 30
0.0
 10
188.0245334797
 20
154.695191519
 30
0.0
 10
181.6745334797
 20
154.695191519
 30
0.0
340
35B
1001
ACAD
1000
DSTYLE
1002
{
1070
     6
1000

1002
}
  0
MTEXT
  5
35D
330
1F
100
AcDbEntity
  8
0
  6
CONTINUOUS
 62
     7
100
AcDbMText
 10
132.9360695266
 20
207.5094489132
 30
0.0
 40
2.1166666667
 41
0.0
 71
     1
 72
     1
  1
POWER SWITCH
  7
SLDTEXTSTYLE0
  0
LEADER
  5
35E
330
1F
100
AcDbEntity
  8
0
  6
CONTINUOUS
 62
     7
100
AcDbLeader
  3
SLDDIMSTYLE2
 76
     3
 10
174.8674778037
 20
189.205214717
 30
0.0
 10
160.7436758179
 20
206.4746036083
 30
0.0
 10
154.3936758179
 20
206.4746036083
 30
0.0
1001
ACAD
1000
DSTYLE
1002
{
1070
     6
1000

1002
}
  0
LINE
  5
35F
330
1F
100
AcDbEntity
  8
0
  6
CONTINUOUS
 62
     7
100
AcDbLine
 10
247.4168896465
 20
146.8068505911
 30
0.0
 11
250.405828114
 21
148.6887546597
 31
0.0
  0
LINE
  5
360
330
1F
100
AcDbEntity
  8
0
  6
CONTINUOUS
 62
     7
100
AcDbLine
 10
237.2726272568
 20
171.9107214281
 30
0.0
 11
234.0354705559
 21
170.5159588964
 31
0.0
  0
LINE
  5
361
330
1F
100
AcDbEntity
  8
0
  6
CONTINUOUS
 62
     7
100
AcDbLine
 10
260.1112704484
 20
195.8692271268
 30
0.0
 11
259.2812835393
 21
200.9398028978
 31
0.0
  0
LINE
  5
362
330
1F
100
AcDbEntity
  8
0
  6
CONTINUOUS
 62
     7
100
AcDbLine
 10
250.8758077363
 20
200.9199708356
 30
0.0
 11
249.8576833753
 21
195.3581568942
 31
0.0
  0
LINE
  5
363
330
1F
100
AcDbEntity
  8
0
  6
CONTINUOUS
 62
     7
100
AcDbLine
 10
252.558391479
 20
200.9055941834
 30
0.0
 11
252.5545748596
 21
200.3508142932
 31
0.0
  0
LINE
  5
364
330
1F
100
AcDbEntity
  8
0
  6
CONTINUOUS
 62
     7
100
AcDbLine
 10
257.6056509939
 20
200.3629059291
 30
0.0
 11
257.6123770221
 21
200.9175242405
 31
0.0
  0
LINE
  5
365
330
1F
100
AcDbEntity
  8
0
  6
CONTINUOUS
 62
     7
100
AcDbLine
 10
256.5376683418
 20
172.4636589016
 30
0.0
 11
256.6649994772
 21
172.5256093807
 31
0.0
  0
LINE
  5
366
330
1F
100
AcDbEntity
  8
0
  6
CONTINUOUS
 62
     7
100
AcDbLine
 10
230.7485357171
 20
190.5885751978
 30
0.0
 11
230.6037405536
 21
190.545050825
 31
0.0
  0
LINE
  5
367
330
1F
100
AcDbEntity
  8
0
  6
CONTINUOUS
 62
     7
100
AcDbLine
 10
227.0004268123
 20
163.1278031363
 30
0.0
 11
227.065415075
 21
162.9737003859
 31
0.0
  0
SPLINE
  5
368
330
1F
100
AcDbEntity
  8
0
  6
CONTINUOUS
 62
     7
100
AcDbSpline
210
0.0
220
0.0
230
1.0
 70
     8
 71
     3
 72
    33
 73
    29
 74
     0
 42
0.000000001
 43
0.00000001
 40
0.0
 40
0.0
 40
0.0
 40
0.0
 40
0.0185658356358599
 40
0.0578971762049648
 40
0.0972619981618638
 40
0.1367824961787608
 40
0.1765366279140651
 40
0.2165477331597573
 40
0.2567924473660975
 40
0.297220270279247
 40
0.3377745764629067
 40
0.3784073463450524
 40
0.4190855174690457
 40
0.4597897413594507
 40
0.5005147144591082
 40
0.5412632780565856
 40
0.5820387775174929
 40
0.6228443970665125
 40
0.6636769675004488
 40
0.704517552222742
 40
0.7453313996766604
 40
0.7860635470436705
 40
0.8266419194948434
 40
0.8669903743595369
 40
0.9070519817110142
 40
0.9468150739146927
 40
0.9863286817238784
 40
1.0
 40
1.0
 40
1.0
 40
1.0
 10
243.1042128224428
 20
162.1662863756045
 30
0.0
 10
243.0753532848069
 20
162.1488815954939
 30
0.0
 10
242.9853823729961
 20
162.0946214075388
 30
0.0
 10
242.8532040763945
 20
161.9744456065872
 30
0.0
 10
242.7103588617719
 20
161.8102669143109
 30
0.0
 10
242.5915002333662
 20
161.6231349368349
 30
0.0
 10
242.4971613143595
 20
161.4177206622783
 30
0.0
 10
242.4291443426009
 20
161.1965533985199
 30
0.0
 10
242.3885384236908
 20
160.9632089018262
 30
0.0
 10
242.3761196182982
 20
160.7214165361711
 30
0.0
 10
242.3921407886565
 20
160.4751723173437
 30
0.0
 10
242.4363529890703
 20
160.2285422906876
 30
0.0
 10
242.5080220994386
 20
159.9855683885629
 30
0.0
 10
242.6059781522841
 20
159.7501804426946
 30
0.0
 10
242.7286637121699
 20
159.5261456463424
 30
0.0
 10
242.8741745787558
 20
159.3170377003267
 30
0.0
 10
243.0402887358534
 20
159.1262120374787
 30
0.0
 10
243.2244863132495
 20
158.9567812721102
 30
0.0
 10
243.4239589388636
 20
158.8115889047961
 30
0.0
 10
243.6356087507966
 20
158.6931720729703
 30
0.0
 10
243.8560479064473
 20
158.6036998083141
 30
0.0
 10
244.0815974687732
 20
158.5449105880815
 30
0.0
 10
244.3083735166977
 20
158.5179346107604
 30
0.0
 10
244.5321980584533
 20
158.523465706778
 30
0.0
 10
244.7494544119283
 20
158.5606566086385
 30
0.0
 10
244.9547373549461
 20
158.6309687799458
 30
0.0
 10
245.1080521909908
 20
158.7039474097493
 30
0.0
 10
245.1856027351477
 20
158.7620196926988
 30
0.0
 10
245.205542438267
 20
158.7769511686035
 30
0.0
  0
LINE
  5
369
330
1F
100
AcDbEntity
  8
0
  6
CONTINUOUS
 62
     7
100
AcDbLine
 10
243.4625997325
 20
162.3594965609
 30
0.0
 11
243.1609868753
 21
162.2053379552
 31
0.0
  0
LINE
  5
36A
330
1F
100
AcDbEntity
  8
0
  6
CONTINUOUS
 62
     7
100
AcDbLine
 10
245.1301368639
 20
158.7242119866
 30
0.0
 11
245.4281513154
 21
158.8854129759
 31
0.0
  0
LINE
  5
36B
330
1F
100
AcDbEntity
  8
0
  6
CONTINUOUS
 62
     7
100
AcDbLine
 10
239.0154877324
 20
204.9511986744
 30
0.0
 11
239.0336572013
 21
202.4111032531
 31
0.0
  0
LINE
  5
36C
330
1F
100
AcDbEntity
  8
0
  6
CONTINUOUS
 62
     7
100
AcDbLine
 10
247.4912395265
 20
202.4835812804
 30
0.0
 11
247.4953348565
 21
205.0189792118
 31
0.0
  0
SPLINE
  5
36D
330
1F
100
AcDbEntity
  8
0
  6
CONTINUOUS
 62
     7
100
AcDbSpline
210
0.0
220
0.0
230
1.0
 70
     8
 71
     3
 72
    13
 73
     9
 74
     0
 42
0.000000001
 43
0.00000001
 40
0.0
 40
0.0
 40
0.0
 40
0.0
 40
0.0452078827698274
 40
0.2693262373035682
 40
0.4917473944844077
 40
0.7123382384708468
 40
0.9309955774543586
 40
1.0
 40
1.0
 40
1.0
 40
1.0
 10
247.480835894315
 20
200.1937546060252
 30
0.0
 10
247.4751526048865
 20
200.2272531440775
 30
0.0
 10
247.4412815190806
 20
200.4268966552899
 30
0.0
 10
247.4121288600722
 20
200.7983090424875
 30
0.0
 10
247.3947813238367
 20
201.303875725475
 30
0.0
 10
247.4162665482946
 20
201.8067317700149
 30
0.0
 10
247.4510670087326
 20
202.1928854857727
 30
0.0
 10
247.4895162274435
 20
202.408588399313
 30
0.0
 10
247.4987432205895
 20
202.4603525019798
 30
0.0
  0
LINE
  5
36E
330
1F
100
AcDbEntity
  8
0
  6
CONTINUOUS
 62
     7
100
AcDbLine
 10
237.8136858754
 20
195.4905787693
 30
0.0
 11
237.822869667
 21
194.40741993
 31
0.0
  0
LINE
  5
36F
330
1F
100
AcDbEntity
  8
0
  6
CONTINUOUS
 62
     7
100
AcDbLine
 10
248.7452353609
 20
194.5208271123
 30
0.0
 11
248.7484118019
 21
195.601427013
 31
0.0
  0
LINE
  5
370
330
1F
100
AcDbEntity
  8
0
  6
CONTINUOUS
 62
     7
100
AcDbLine
 10
239.0457511664
 20
200.1162762364
 30
0.0
 11
239.0830105786
 21
195.5114911336
 31
0.0
  0
LINE
  5
371
330
1F
100
AcDbEntity
  8
0
  6
CONTINUOUS
 62
     7
100
AcDbLine
 10
247.4801152518
 20
195.5965995012
 30
0.0
 11
247.4808358943
 21
200.193754606
 31
0.0
  0
LINE
  5
372
330
1F
100
AcDbEntity
  8
0
  6
CONTINUOUS
 62
     7
100
AcDbLine
 10
240.8588373538
 20
201.6093634835
 30
0.0
 11
240.5349061302
 21
201.5286892046
 31
0.0
  0
LINE
  5
373
330
1F
100
AcDbEntity
  8
0
  6
CONTINUOUS
 62
     7
100
AcDbLine
 10
241.105135794
 20
199.8224655938
 30
0.0
 11
241.4277296799
 21
199.9066633503
 31
0.0
  0
SPLINE
  5
374
330
1F
100
AcDbEntity
  8
0
  6
CONTINUOUS
 62
     7
100
AcDbSpline
210
0.0
220
0.0
230
1.0
 70
     8
 71
     3
 72
    12
 73
     8
 74
     0
 42
0.000000001
 43
0.00000001
 40
0.0
 40
0.0
 40
0.0
 40
0.0
 40
0.1575776134597012
 40
0.3770403515373419
 40
0.5947828137384094
 40
0.810760316708435
 40
1.0
 40
1.0
 40
1.0
 40
1.0
 10
239.0336572012954
 20
202.4111032531234
 30
0.0
 10
239.0571492439933
 20
202.2708035822212
 30
0.0
 10
239.0998055043319
 20
201.9872332117488
 30
0.0
 10
239.1292350952291
 20
201.5346543884988
 30
0.0
 10
239.1323450248248
 20
201.0376054662619
 30
0.0
 10
239.1061082529675
 20
200.5644007725281
 30
0.0
 10
239.0640220601271
 20
200.2601231215996
 30
0.0
 10
239.0443808225883
 20
200.1181195518708
 30
0.0
  0
SPLINE
  5
375
330
1F
100
AcDbEntity
  8
0
  6
CONTINUOUS
 62
     7
100
AcDbSpline
210
0.0
220
0.0
230
1.0
 70
     8
 71
     3
 72
    15
 73
    11
 74
     0
 42
0.000000001
 43
0.00000001
 40
0.0
 40
0.0
 40
0.0
 40
0.0
 40
0.0993896213713528
 40
0.2447775816921467
 40
0.3891511252922975
 40
0.5317231533763758
 40
0.6724749591270539
 40
0.8115513766662831
 40
0.9492214498185078
 40
1.0
 40
1.0
 40
1.0
 40
1.0
 10
257.6529566178799
 20
144.8526507085673
 30
0.0
 10
257.7197789733515
 20
144.8394583183686
 30
0.0
 10
257.8843962885936
 20
144.8069587777462
 30
0.0
 10
258.1500413557025
 20
144.7863145826833
 30
0.0
 10
258.4449478374963
 20
144.7961630019007
 30
0.0
 10
258.7329864340497
 20
144.8412642733935
 30
0.0
 10
259.0101926923114
 20
144.9191246687121
 30
0.0
 10
259.2714638560798
 20
145.0305411865013
 30
0.0
 10
259.4683891879583
 20
145.1369777824229
 30
0.0
 10
259.5702402639938
 20
145.2149868824638
 30
0.0
 10
259.6021833212217
 20
145.234415856786
 30
0.0
  0
LINE
  5
376
330
1F
100
AcDbEntity
  8
0
  6
CONTINUOUS
 62
     7
100
AcDbLine
 10
259.6021833212
 20
145.2344158568
 30
0.0
 11
266.3881663249
 21
149.9679447857
 31
0.0
  0
LINE
  5
377
330
1F
100
AcDbEntity
  8
0
  6
CONTINUOUS
 62
     7
100
AcDbLine
 10
230.3037221923
 20
150.5071484119
 30
0.0
 11
231.8079644366
 21
150.1961439361
 31
0.0
  0
LINE
  5
378
330
1F
100
AcDbEntity
  8
0
  6
CONTINUOUS
 62
     7
100
AcDbLine
 10
247.7670949909
 20
146.8965683187
 30
0.0
 11
257.6529566179
 21
144.8526507086
 31
0.0
  0
SPLINE
  5
379
330
1F
100
AcDbEntity
  8
0
  6
CONTINUOUS
 62
     7
100
AcDbSpline
210
0.0
220
0.0
230
1.0
 70
     8
 71
     3
 72
    19
 73
    15
 74
     0
 42
0.000000001
 43
0.00000001
 40
0.0
 40
0.0
 40
0.0
 40
0.0
 40
0.070956373523204
 40
0.1572471559896109
 40
0.2433377780847653
 40
0.329536023943361
 40
0.4161353580974764
 40
0.503394620975437
 40
0.5915156429497502
 40
0.6806218799566967
 40
0.7707445985132508
 40
0.8618244172310542
 40
0.9537324397346515
 40
1.0
 40
1.0
 40
1.0
 40
1.0
 10
228.9896980881449
 20
194.3885760959242
 30
0.0
 10
228.9205133126574
 20
194.3623228780436
 30
0.0
 10
228.7672281803784
 20
194.304156497547
 30
0.0
 10
228.5456271632063
 20
194.1783919059577
 30
0.0
 10
228.3258622214579
 20
194.0208004751661
 30
0.0
 10
228.1258037418356
 20
193.8373291240428
 30
0.0
 10
227.9467656273614
 20
193.6310732942516
 30
0.0
 10
227.7904495450081
 20
193.4037387021486
 30
0.0
 10
227.6583263380677
 20
193.157521618968
 30
0.0
 10
227.5518781013291
 20
192.8947213390923
 30
0.0
 10
227.4723127658293
 20
192.6179627746125
 30
0.0
 10
227.4212599672421
 20
192.3302358551573
 30
0.0
 10
227.4017227512252
 20
192.0844452583885
 30
0.0
 10
227.4030255552285
 20
191.9356271286166
 30
0.0
 10
227.4034617354103
 20
191.8858026586803
 30
0.0
  0
LINE
  5
37A
330
1F
100
AcDbEntity
  8
0
  6
CONTINUOUS
 62
     7
100
AcDbLine
 10
237.1469239229
 20
196.6317654627
 30
0.0
 11
228.9896980881
 21
194.3885760959
 31
0.0
  0
LINE
  5
37B
330
1F
100
AcDbEntity
  8
0
  6
CONTINUOUS
 62
     7
100
AcDbLine
 10
227.4034617354
 20
191.8858026587
 30
0.0
 11
228.1538693394
 21
153.2501710272
 31
0.0
  0
SPLINE
  5
37C
330
1F
100
AcDbEntity
  8
0
  6
CONTINUOUS
 62
     7
100
AcDbSpline
210
0.0
220
0.0
230
1.0
 70
     8
 71
     3
 72
    21
 73
    17
 74
     0
 42
0.000000001
 43
0.00000001
 40
0.0
 40
0.0
 40
0.0
 40
0.0
 40
0.0488056174888423
 40
0.1247643171833906
 40
0.2009508620354466
 40
0.2774876950747134
 40
0.3542773539221957
 40
0.4313034496182098
 40
0.508589704291217
 40
0.5861607993682123
 40
0.6640316027251253
 40
0.742142387128952
 40
0.8203383018721624
 40
0.8983702103487872
 40
0.9759153566045561
 40
1.0
 40
1.0
 40
1.0
 40
1.0
 10
228.1538693393825
 20
153.250171027207
 30
0.0
 10
228.1566598197963
 20
153.1893939763488
 30
0.0
 10
228.1637926309949
 20
153.0340403580856
 30
0.0
 10
228.2004376877493
 20
152.7843957528651
 30
0.0
 10
228.2682855375912
 20
152.5044356018752
 30
0.0
 10
228.3637880131637
 20
152.2304346845169
 30
0.0
 10
228.4854426428662
 20
151.965429141018
 30
0.0
 10
228.6321804187414
 20
151.712531270226
 30
0.0
 10
228.8025994497146
 20
151.4746896421168
 30
0.0
 10
228.9952081287462
 20
151.2547636244403
 30
0.0
 10
229.2082828591057
 20
151.0556011249857
 30
0.0
 10
229.4397732243938
 20
150.8801104298616
 30
0.0
 10
229.6871197105817
 20
150.7310382136675
 30
0.0
 10
229.947232602759
 20
150.611463744582
 30
0.0
 10
230.1552479018537
 20
150.5423663497407
 30
0.0
 10
230.2752736200706
 20
150.5138963818252
 30
0.0
 10
230.3037221923416
 20
150.5071484118749
 30
0.0
  0
LWPOLYLINE
  5
37D
330
1F
100
AcDbEntity
  8
0
  6
CONTINUOUS
 62
     7
100
AcDbPolyline
 90
      121
 70
   128
 43
0.0
 10
239.873107842
 20
171.3910171958
 10
239.256632846
 20
171.4684738198
 10
238.6438613065
 20
171.5091018959
 10
238.0365139441
 20
171.5129453966
 10
237.43628078
 20
171.4801555948
 10
236.8448163361
 20
171.4109887882
 10
236.2637351147
 20
171.3058037049
 10
235.694607368
 20
171.1650586183
 10
235.1389551635
 20
170.9893082016
 10
234.5982487489
 20
170.7792001517
 10
234.0739032165
 20
170.5354716112
 10
233.5672754685
 20
170.2589454194
 10
233.0796614764
 20
169.9505262175
 10
232.6122938317
 20
169.6111964373
 10
232.1663395786
 20
169.2420121987
 10
231.7428983208
 20
168.8440991394
 10
231.3430005921
 20
168.4186482002
 10
230.9676064785
 20
167.9669113873
 10
230.6176044803
 20
167.4901975293
 10
230.2938106005
 20
166.9898680479
 10
229.9969676462
 20
166.4673327573
 10
229.7277447285
 20
165.9240457047
 10
229.4867369473
 20
165.3615010655
 10
229.2744652469
 20
164.7812291011
 10
229.0913764276
 20
164.1847921887
 10
228.9378433015
 20
163.5737809292
 10
228.8141649766
 20
162.9498103364
 10
228.7205672603
 20
162.3145161125
 10
228.6572031665
 20
161.6695510106
 10
228.6241535188
 20
161.0165812832
 10
228.6214276365
 20
160.357283218
 10
228.6489640966
 20
159.6933397569
 10
228.7066315618
 20
159.0264371954
 10
228.7942296676
 20
158.3582619586
 10
228.9114899628
 20
157.6904974491
 10
229.0580768971
 20
157.0248209601
 10
229.2335888525
 20
156.3629006491
 10
229.437559215
 20
155.7063925647
 10
229.6694574849
 20
155.0569377202
 10
229.9286904236
 20
154.4161592075
 10
230.2146032394
 20
153.7856593433
 10
230.5264808097
 20
153.1670168421
 10
230.8635489454
 20
152.5617840085
 10
231.224975698
 20
151.9714839433
 10
231.6098727133
 20
151.3976077568
 10
232.0172966377
 20
150.8416117847
 10
232.4462505812
 20
150.3049148015
 10
232.8956856431
 20
149.7888952277
 10
233.3645025077
 20
149.2948883283
 10
233.8515531169
 20
148.8241833994
 10
234.3556424267
 20
148.3780209431
 10
234.8755302559
 20
147.9575898297
 10
235.4099332355
 20
147.5640244496
 10
235.9575268655
 20
147.1984018563
 10
236.5169476895
 20
146.861738905
 10
237.0867955928
 20
146.5549893922
 10
237.6656362339
 20
146.2790412029
 10
238.252003615
 20
146.0347134727
 10
238.8444028
 20
145.8227537761
 10
239.4413127845
 20
145.6438353503
 10
240.0411895246
 20
145.498554369
 10
240.6424691285
 20
145.3874272783
 10
241.2435712133
 20
145.3108882121
 10
241.8429024304
 20
145.2692865019
 10
242.4388601589
 20
145.2628843016
 10
243.0298363671
 20
145.2918543438
 10
243.6142216378
 20
145.3562778502
 10
244.1904093553
 20
145.4561426162
 10
244.7568000452
 20
145.5913412921
 10
245.3118058606
 20
145.7616698831
 10
245.8538552028
 20
145.9668264916
 10
246.3813974648
 20
146.2064103237
 10
246.8929078818
 20
146.4799209838
 10
247.3868924726
 20
146.7867580791
 10
247.8618930518
 20
147.1262211548
 10
248.316492292
 20
147.4975099825
 10
248.7493188119
 20
147.899725219
 10
249.1590522653
 20
148.331869454
 10
249.5444284041
 20
148.7928486626
 10
249.9042440852
 20
149.2814740746
 10
250.2373621926
 20
149.7964644732
 10
250.5427164415
 20
150.3364489285
 10
250.8193160338
 20
150.8999699727
 10
251.066250131
 20
151.4854872167
 10
251.2826921108
 20
152.0913814064
 10
251.4679035766
 20
152.7159589127
 10
251.621238084
 20
153.3574566446
 10
251.7421445559
 20
154.0140473721
 10
251.8301703529
 20
154.6838454404
 10
251.884963973
 20
155.3649128539
 10
251.9062773506
 20
156.0552657031
 10
251.8939677339
 20
156.752880907
 10
251.8479991164
 20
157.4557032348
 10
251.7684432057
 20
158.1616525734
 10
251.6554799142
 20
158.8686313994
 10
251.5093973597
 20
159.5745324138
 10
251.3305913692
 20
160.277246296
 10
251.1195644826
 20
160.9746695304
 10
250.876924456
 20
161.6647122579
 10
250.60338227
 20
162.3453061049
 10
250.2997496532
 20
163.0144119418
 10
249.9669361318
 20
163.6700275211
 10
249.605945625
 20
164.3101949499
 10
249.2178726052
 20
164.9330079497
 10
248.8038978492
 20
165.53661886
 10
248.3652838071
 20
166.1192453434
 10
247.9033696211
 20
166.6791767532
 10
247.4195658266
 20
167.2147801288
 10
246.9153487716
 20
167.7245057853
 10
246.3922547928
 20
168.2068924691
 10
245.8518741859
 20
168.6605720565
 10
245.2958450113
 20
169.0842737727
 10
244.7258467738
 20
169.4768279185
 10
244.1435940184
 20
169.8371690901
 10
243.5508298803
 20
170.1643388886
 10
242.9493196287
 20
170.4574881139
 10
242.3408442421
 20
170.7158784459
 10
241.7271940516
 20
170.938883619
 10
241.1101624843
 20
171.1259900996
 10
240.4915399422
 20
171.2767972783
 10
239.873107842
 20
171.3910171958
  0
LWPOLYLINE
  5
37E
330
1F
100
AcDbEntity
  8
0
  6
CONTINUOUS
 62
     7
100
AcDbPolyline
 90
      120
 70
   128
 43
0.0
 10
239.7547502267
 20
171.116095951
 10
239.1432958104
 20
171.1931754899
 10
238.5355362351
 20
171.2334200402
 10
237.9332061874
 20
171.2368716289
 10
237.3380093798
 20
171.2036813067
 10
236.7516136331
 20
171.13410685
 10
236.1756462456
 20
171.0285101334
 10
235.6116896576
 20
170.8873542019
 10
235.0612774176
 20
170.7112000747
 10
234.525890456
 20
170.5007033095
 10
234.0069536653
 20
170.2566103597
 10
233.5058327869
 20
169.9797547516
 10
233.0238316015
 20
169.6710531132
 10
232.5621894156
 20
169.3315010801
 10
232.1220788383
 20
168.9621691067
 10
231.704603839
 20
168.5641982065
 10
231.3107980749
 20
168.1387956453
 10
230.9416234769
 20
167.6872306089
 10
230.5979690811
 20
167.2108298648
 10
230.2806500929
 20
166.7109734364
 10
229.9904071691
 20
166.189090304
 10
229.7279059038
 20
165.6466541485
 10
229.4937365046
 20
165.085179148
 10
229.2884136426
 20
164.5062158387
 10
229.1123764648
 20
163.9113470471
 10
228.9659887523
 20
163.3021839005
 10
228.8495392129
 20
162.6803619209
 10
228.7632418941
 20
162.0475372042
 10
228.7072367054
 20
161.4053826871
 10
228.6815900379
 20
160.7555845014
 10
228.6862954713
 20
160.0998384153
 10
228.7212745586
 20
159.4398463577
 10
228.7863776805
 20
158.7773130243
 10
228.8813849616
 20
158.1139425597
 10
229.006007243
 20
157.4514353105
 10
229.159887105
 20
156.7914846452
 10
229.3425999369
 20
156.1357738326
 10
229.5536550506
 20
155.4859729737
 10
229.7924968356
 20
154.8437359803
 10
230.0585059556
 20
154.2106975918
 10
230.3510005862
 20
153.5884704255
 10
230.669237696
 20
152.9786420518
 10
231.0124143717
 20
152.3827720886
 10
231.3796691924
 20
151.8023893094
 10
231.7700836556
 20
151.2389887574
 10
232.1826836613
 20
150.6940288633
 10
232.6164410582
 20
150.1689285598
 10
233.0702752595
 20
149.6650643913
 10
233.5430549355
 20
149.1837676153
 10
234.0335997884
 20
148.726321294
 10
234.5406824202
 20
148.2939573755
 10
235.0630302985
 20
147.8878537658
 10
235.5993278312
 20
147.5091313934
 10
236.1482185564
 20
147.1588512696
 10
236.7083074571
 20
146.8380115495
 10
237.2781634077
 20
146.5475446001
 10
237.8563217611
 20
146.2883140826
 10
238.4412870826
 20
146.0611120587
 10
239.0315360373
 20
145.8666561318
 10
239.6255204379
 20
145.7055866345
 10
240.2216704559
 20
145.5784638774
 10
240.8183980017
 20
145.485765474
 10
241.4141002751
 20
145.4278837579
 10
242.0071634875
 20
145.4051233116
 10
242.5959667552
 20
145.4176986252
 10
243.1788861626
 20
145.465731906
 10
243.7542989896
 20
145.5492510607
 10
244.3205880989
 20
145.668187872
 10
244.8761464744
 20
145.8223763923
 10
245.4193819007
 20
146.0115515795
 10
245.9487217717
 20
146.2353481956
 10
246.4626180131
 20
146.4932999948
 10
246.9595521028
 20
146.7848392212
 10
247.4380401689
 20
147.1092964408
 10
247.8966381455
 20
147.4659007276
 10
248.3339469612
 20
147.8537802251
 10
248.7486177356
 20
148.2719631008
 10
249.1393569565
 20
148.7193789114
 10
249.5049316079
 20
149.1948603917
 10
249.8441742184
 20
149.6971456797
 10
250.155987798
 20
150.2248809868
 10
250.4393506301
 20
150.776623718
 10
250.6933208853
 20
151.3508460457
 10
250.9170410226
 20
151.9459389336
 10
251.1097419438
 20
152.5602166071
 10
251.2707468682
 20
153.1919214604
 10
251.3994748935
 20
153.8392293866
 10
251.4954442132
 20
154.5002555133
 10
251.5582749579
 20
155.1730603227
 10
251.5876916347
 20
155.8556561294
 10
251.5835251383
 20
156.546013888
 10
251.5457143107
 20
157.2420702947
 10
251.4743070305
 20
157.9417351489
 10
251.3694608144
 20
158.6428989329
 10
251.2314429207
 20
159.3434405674
 10
251.0606299437
 20
160.0412352983
 10
250.8575068962
 20
160.7341626672
 10
250.6226657798
 20
161.4201145172
 10
250.3568036468
 20
162.0970029847
 10
250.0607201627
 20
162.7627684274
 10
249.7353146818
 20
163.4153872391
 10
249.3815828532
 20
164.0528795026
 10
249.0006127784
 20
164.6733164321
 10
248.5935807439
 20
165.2748275617
 10
248.1617465593
 20
165.8556076333
 10
247.7064485302
 20
166.4139231471
 10
247.229098101
 20
166.9481185341
 10
246.7311742039
 20
167.4566219187
 10
246.2142173523
 20
167.9379504411
 10
245.6798235185
 20
168.390715113
 10
245.1296378366
 20
168.8136251875
 10
244.565348172
 20
169.2054920234
 10
243.9886785984
 20
169.5652324342
 10
243.4013828235
 20
169.8918715129
 10
242.8052376041
 20
170.1845449301
 10
242.2020361884
 20
170.4425007059
 10
241.5935818239
 20
170.6651004619
 10
240.9816813647
 20
170.8518201626
 10
240.3681390136
 20
171.002250359
 10
239.7547502267
 20
171.116095951
  0
LWPOLYLINE
  5
37F
330
1F
100
AcDbEntity
  8
0
  6
CONTINUOUS
 62
     7
100
AcDbPolyline
 90
      114
 70
   128
 43
0.0
 10
239.7628485289
 20
169.892836313
 10
239.1799023303
 20
169.9670319059
 10
238.600592736
 20
170.0042951973
 10
238.0267488804
 20
170.0046588353
 10
237.4601670441
 20
169.9682759786
 10
236.9026049278
 20
169.8954178354
 10
236.3557762534
 20
169.7864708008
 10
235.8213457025
 20
169.6419332292
 10
235.3009242049
 20
169.4624118771
 10
234.7960645796
 20
169.2486180532
 10
234.3082575342
 20
169.0013635104
 10
233.8389280198
 20
168.7215561179
 10
233.3894319392
 20
168.410195344
 10
232.9610532023
 20
168.0683675864
 10
232.5550011206
 20
167.6972413787
 10
232.1724081298
 20
167.2980625048
 10
231.8143278297
 20
166.872149048
 10
231.4817333271
 20
166.4208864001
 10
231.1755158667
 20
165.9457222548
 10
230.8964837361
 20
165.4481616056
 10
230.6453614268
 20
164.9297617674
 10
230.4227890361
 20
164.3921274369
 10
230.229321893
 20
163.836905807
 10
230.0654303913
 20
163.2657817461
 10
229.9315000138
 20
162.6804730513
 10
229.8278315321
 20
162.0827257826
 10
229.7546413675
 20
161.4743096844
 10
229.7120620975
 20
160.8570136956
 10
229.7001430963
 20
160.2326415508
 10
229.7188512957
 20
159.6030074725
 10
229.7680720563
 20
158.9699319521
 10
229.8476101395
 20
158.335237617
 10
229.9571907707
 20
157.7007451794
 10
230.0964607877
 20
157.0682694627
 10
230.2649898676
 20
156.4396154988
 10
230.4622718293
 20
155.8165746897
 10
230.6877260061
 20
155.2009210288
 10
230.9406986899
 20
154.5944073713
 10
231.2204646433
 20
153.9987617509
 10
231.5262286832
 20
153.4156837321
 10
231.8571273367
 20
152.8468407944
 10
232.2122305729
 20
152.2938647402
 10
232.5905436147
 20
151.7583481224
 10
232.9910088368
 20
151.2418406861
 10
233.412507755
 20
150.7458458207
 10
233.8538631146
 20
150.2718170202
 10
234.3138410859
 20
149.821154349
 10
234.7911535737
 20
149.3952009146
 10
235.2844606509
 20
148.9952393469
 10
235.7923731247
 20
148.6224882877
 10
236.3134552428
 20
148.2780988949
 10
236.8462275517
 20
147.9631513667
 10
237.3891699117
 20
147.6786514956
 10
237.9407246804
 20
147.425527259
 10
238.4993000696
 20
147.2046254616
 10
239.0632736836
 20
147.0167084403
 10
239.630996244
 20
146.8624508485
 10
240.2007955054
 20
146.742436537
 10
240.7709803654
 20
146.6571555499
 10
241.3398451692
 20
146.6070012568
 10
241.9056742098
 20
146.5922676438
 10
242.4667464191
 20
146.6131467863
 10
243.0213402473
 20
146.6697265293
 10
243.5677387218
 20
146.7619884014
 10
244.1042346777
 20
146.8898057881
 10
244.6291361454
 20
147.0529423934
 10
245.1407718826
 20
147.2510510163
 10
245.6374970322
 20
147.4836726701
 10
246.1176988847
 20
147.7502360708
 10
246.579802724
 20
148.050057522
 10
247.0222777284
 20
148.3823412203
 10
247.4436428997
 20
148.7461800047
 10
247.8424729896
 20
149.1405565718
 10
248.217404388
 20
149.5643451746
 10
248.5671409407
 20
150.0163138216
 10
248.890459657
 20
150.4951269883
 10
249.1862162698
 20
150.9993488509
 10
249.4533506076
 20
151.5274470454
 10
249.6908917395
 20
152.0777969548
 10
249.8979628504
 20
152.6486865184
 10
250.0737858081
 20
153.2383215567
 10
250.2176853809
 20
153.844831595
 10
250.3290930686
 20
154.4662761707
 10
250.4075505094
 20
155.1006515968
 10
250.4527124283
 20
155.7458981556
 10
250.4643490963
 20
156.3999076865
 10
250.4423482704
 20
157.0605315316
 10
250.3867165914
 20
157.7255887949
 10
250.297580418
 20
158.3928748686
 10
250.1751860813
 20
159.0601701767
 10
250.019899549
 20
159.7252490818
 10
249.8322054919
 20
160.3858888997
 10
249.6127057539
 20
161.0398789638
 10
249.3621172268
 20
161.6850296807
 10
249.0812691427
 20
162.3191815166
 10
248.7710997969
 20
162.9402138563
 10
248.4326527217
 20
163.5460536755
 10
248.0670723371
 20
164.1346839695
 10
247.6755991064
 20
164.7041518838
 10
247.2595642321
 20
165.252576495
 10
246.8203839288
 20
165.7781561933
 10
246.3595533145
 20
166.2791756211
 10
245.8786399637
 20
166.7540121307
 10
245.3792771698
 20
167.201141722
 10
244.8631569626
 20
167.6191444345
 10
244.3320229316
 20
168.0067091652
 10
243.787662904
 20
168.3626378959
 10
243.2319015261
 20
168.6858493166
 10
242.6665927983
 20
168.9753818354
 10
242.0936126098
 20
169.2303959742
 10
241.5148513195
 20
169.4501761538
 10
240.9322064278
 20
169.6341318746
 10
240.3475753781
 20
169.7817983077
 10
239.7628485289
 20
169.892836313
  0
ARC
  5
380
330
1F
100
AcDbEntity
  8
0
  6
CONTINUOUS
 62
     7
100
AcDbCircle
 10
241.5090777782
 20
163.4666399206
 30
0.0
 40
9.447223164820091
100
AcDbArc
 50
80.6724922036
 51
116.6432176588
  0
LWPOLYLINE
  5
381
330
1F
100
AcDbEntity
  8
0
  6
CONTINUOUS
 62
     7
100
AcDbPolyline
 90
       48
 70
   128
 43
0.0
 10
250.405828114
 20
148.6887546597
 10
250.8460614775
 20
149.0043309474
 10
251.2959051379
 20
149.3709048913
 10
251.7243331961
 20
149.7677214835
 10
252.1300420099
 20
150.1937934195
 10
252.5117832226
 20
150.6480391431
 10
252.8683686738
 20
151.1292847357
 10
253.1986752235
 20
151.6362662212
 10
253.5016494607
 20
152.1676322943
 10
253.7763122634
 20
152.7219474751
 10
254.0217631787
 20
153.2976956912
 10
254.2371845911
 20
153.8932842853
 10
254.4218456469
 20
154.5070484405
 10
254.5751059023
 20
155.1372560142
 10
254.696418666
 20
155.7821127667
 10
254.785334005
 20
156.4397679659
 10
254.8415013878
 20
157.1083203473
 10
254.8646719368
 20
157.7858244043
 10
254.8547002689
 20
158.4702969783
 10
254.8115459009
 20
159.1597241188
 10
254.7352742045
 20
159.852068176
 10
254.6260568938
 20
160.545275089
 10
254.4841720365
 20
161.2372818282
 10
254.3100035796
 20
161.9260239492
 10
254.1040403885
 20
162.6094432148
 10
253.8668747973
 20
163.2854952369
 10
253.5992006775
 20
163.9521570957
 10
253.3018110328
 20
164.6074348853
 10
252.9755951324
 20
165.2493711431
 10
252.6215351997
 20
165.8760521152
 10
252.2407026768
 20
166.4856148146
 10
251.8342540887
 20
167.076253829
 10
251.4034265331
 20
167.6462278392
 10
250.9495328274
 20
168.1938658097
 10
250.4739563431
 20
168.7175728165
 10
249.9781455644
 20
169.2158354828
 10
249.4636084051
 20
169.6872269935
 10
248.931906323
 20
170.130411666
 10
248.3846482696
 20
170.5441490573
 10
247.8234845142
 20
170.9272975925
 10
247.2501003806
 20
171.278817704
 10
246.6662099368
 20
171.597774474
 10
246.0735496735
 20
171.8833397785
 10
245.4738722088
 20
172.1347939338
 10
244.8689400549
 20
172.3515268514
 10
244.2605194785
 20
172.5330387097
 10
243.6503744879
 20
172.6789401564
 10
243.0402609739
 20
172.7889520559
  0
LWPOLYLINE
  5
382
330
1F
100
AcDbEntity
  8
0
  6
CONTINUOUS
 62
     7
100
AcDbPolyline
 90
      113
 70
   128
 43
0.0
 10
239.8849698449
 20
169.5637123652
 10
239.3163651754
 20
169.6363319243
 10
238.7512983585
 20
169.6726305893
 10
238.1915843048
 20
169.6726359798
 10
237.6390056377
 20
169.6364961599
 10
237.0953069133
 20
169.5644772333
 10
236.5621891631
 20
169.4569605307
 10
236.0413047738
 20
169.3144394244
 10
235.5342527137
 20
169.1375158081
 10
235.0425741123
 20
168.9268962752
 10
234.5677481965
 20
168.6833880342
 10
234.1111885834
 20
168.4078945946
 10
233.6742399268
 20
168.1014112591
 10
233.2581749116
 20
167.7650204542
 10
232.8641915893
 20
167.3998869323
 10
232.4934110439
 20
167.0072528738
 10
232.1468753762
 20
166.5884329173
 10
231.8255459949
 20
166.1448091448
 10
231.530302199
 20
165.6778260444
 10
231.2619400361
 20
165.1889854714
 10
231.0211714217
 20
164.679841628
 10
230.8086235032
 20
164.1519960765
 10
230.6248382508
 20
163.6070928013
 10
230.4702722615
 20
163.0468133303
 10
230.3452967577
 20
162.4728719264
 10
230.2501977671
 20
161.8870108555
 10
230.1851764674
 20
161.2909957366
 10
230.1503496836
 20
160.686610978
 10
230.1457505228
 20
160.0756552996
 10
230.1713291368
 20
159.4599373438
 10
230.2269536001
 20
158.8412713715
 10
230.3124108944
 20
158.2214730408
 10
230.4274079913
 20
157.6023552666
 10
230.5715730267
 20
156.9857241531
 10
230.7444565601
 20
156.3733749973
 10
230.9455329168
 20
155.7670883546
 10
231.1742016074
 20
155.1686261619
 10
231.4297888262
 20
154.5797279117
 10
231.7115490253
 20
154.0021068692
 10
232.0186665683
 20
153.4374463283
 10
232.3502574639
 20
152.8873958982
 10
232.7053711836
 20
152.3535678168
 10
233.0829925686
 20
151.8375332856
 10
233.4820438299
 20
151.3408188218
 10
233.9013866492
 20
150.8649026248
 10
234.3398243874
 20
150.4112109557
 10
234.7961044074
 20
149.9811145284
 10
235.2689205208
 20
149.5759249138
 10
235.7569155656
 20
149.1968909589
 10
236.2586841239
 20
148.8451952253
 10
236.7727753885
 20
148.5219504518
 10
237.2976961866
 20
148.2281960492
 10
237.8319141675
 20
147.9648946363
 10
238.3738611642
 20
147.7329286285
 10
238.921936732
 20
147.5330968902
 10
239.4745118738
 20
147.3661114693
 10
240.0299329527
 20
147.232594426
 10
240.5865257981
 20
147.1330747785
 10
241.1426000049
 20
147.067985583
 10
241.6964534262
 20
147.0376611712
 10
242.2463768579
 20
147.0423345677
 10
242.7906589092
 20
147.0821351126
 10
243.3275910548
 20
147.1570863147
 10
243.8554728566
 20
147.2671039613
 10
244.3726173462
 20
147.4119945121
 10
244.8773565521
 20
147.5914538054
 10
245.3680471545
 20
147.8050661021
 10
245.8430762486
 20
148.0523034962
 10
246.3008671935
 20
148.332525717
 10
246.7398855207
 20
148.644980349
 10
247.1586448752
 20
148.9888034918
 10
247.5557129576
 20
149.3630208824
 10
247.9297174354
 20
149.7665494995
 10
248.2793517872
 20
150.1981996648
 10
248.6033810449
 20
150.6566776553
 10
248.9006473927
 20
151.1405888368
 10
249.1700755868
 20
151.6484413227
 10
249.4106781524
 20
152.1786501604
 10
249.6215603196
 20
152.7295420426
 10
249.8019246562
 20
153.2993605339
 10
249.9510753589
 20
153.8862718018
 10
250.068422163
 20
154.4883708326
 10
250.1534838341
 20
155.1036881099
 10
250.2058912075
 20
155.7301967279
 10
250.2253897419
 20
156.3658199056
 10
250.2118415594
 20
157.0084388658
 10
250.1652269462
 20
157.6559010349
 10
250.0856452926
 20
158.3060285194
 10
249.9733154549
 20
158.9566268076
 10
249.8285755292
 20
159.6054936447
 10
249.6518820265
 20
160.2504280251
 10
249.4438084511
 20
160.8892392445
 10
249.2050432827
 20
161.5197559537
 10
248.9363873721
 20
162.1398351528
 10
248.6387507656
 20
162.7473710688
 10
248.313148975
 20
163.3403038552
 10
247.9606987192
 20
163.9166280584
 10
247.5826131663
 20
164.4744007947
 10
247.1801967074
 20
165.0117495852
 10
246.7548393017
 20
165.526879801
 10
246.3080104323
 20
166.0180816711
 10
245.8412527153
 20
166.483736815
 10
245.3561752097
 20
166.9223242616
 10
244.8544464749
 20
167.3324259255
 10
244.3377874243
 20
167.7127315138
 10
243.8079640251
 20
168.0620428442
 10
243.2667798939
 20
168.3792775598
 10
242.7160688358
 20
168.6634722329
 10
242.1576873767
 20
168.9137848525
 10
241.5935073333
 20
169.1294967005
 10
241.0254084659
 20
169.3100136219
 10
240.4552712557
 20
169.4548667016
 10
239.8849698449
 20
169.5637123652
  0
SPLINE
  5
383
330
1F
100
AcDbEntity
  8
0
  6
CONTINUOUS
 62
     7
100
AcDbSpline
210
0.0
220
0.0
230
1.0
 70
     8
 71
     3
 72
    30
 73
    26
 74
     0
 42
0.000000001
 43
0.00000001
 40
0.0
 40
0.0
 40
0.0
 40
0.0
 40
0.0894515601154848
 40
0.1790187586443238
 40
0.2694007004428854
 40
0.3149363275239477
 40
0.360689246195075
 40
0.3939326774162304
 40
0.4276195621232576
 40
0.4457610158864579
 40
0.4642125945538444
 40
0.4788975204618666
 40
0.4939735003248453
 40
0.5086783459934061
 40
0.5238750188510438
 40
0.541827929513689
 40
0.5602861851053202
 40
0.5921710415035828
 40
0.6248076159618953
 40
0.678745926156099
 40
0.7332421714534417
 40
0.7885955938859529
 40
0.8440622564183451
 40
0.9219878240560053
 40
1.0
 40
1.0
 40
1.0
 40
1.0
 10
257.833995859392
 20
194.4394632320482
 30
0.0
 10
257.8841373874208
 20
194.7315924818961
 30
0.0
 10
257.9844703517236
 20
195.3161417517151
 30
0.0
 10
258.1521278058736
 20
196.1870874285104
 30
0.0
 10
258.3090022228718
 20
196.9054481512247
 30
0.0
 10
258.4529417778902
 20
197.4687751862837
 30
0.0
 10
258.5627952007691
 20
197.8433311500078
 30
0.0
 10
258.6748158983248
 20
198.1650766061555
 30
0.0
 10
258.7705207309716
 20
198.3896641622736
 30
0.0
 10
258.8588937246345
 20
198.5520107356114
 30
0.0
 10
258.928759476688
 20
198.6529928566487
 30
0.0
 10
258.9986758939864
 20
198.7262820361776
 30
0.0
 10
259.0656895672154
 20
198.7709964305512
 30
0.0
 10
259.1339914633228
 20
198.7892469872809
 30
0.0
 10
259.2047376823024
 20
198.7795135931384
 30
0.0
 10
259.2765018156048
 20
198.7382323297417
 30
0.0
 10
259.3633541178196
 20
198.6493981373739
 30
0.0
 10
259.4561588931614
 20
198.500518017779
 30
0.0
 10
259.5703840844438
 20
198.2463742142202
 30
0.0
 10
259.6857046821561
 20
197.9036619058709
 30
0.0
 10
259.8005793038201
 20
197.4771592771981
 30
0.0
 10
259.9033002847492
 20
197.0291228517143
 30
0.0
 10
260.0094197113153
 20
196.5047993508532
 30
0.0
 10
260.1175451286272
 20
195.9063654333849
 30
0.0
 10
260.1890262031736
 20
195.4569653756876
 30
0.0
 10
260.2247289532438
 20
195.2325029142129
 30
0.0
  0
SPLINE
  5
384
330
1F
100
AcDbEntity
  8
0
  6
CONTINUOUS
 62
     7
100
AcDbSpline
210
0.0
220
0.0
230
1.0
 70
     8
 71
     3
 72
    30
 73
    26
 74
     0
 42
0.000000001
 43
0.00000001
 40
0.0
 40
0.0
 40
0.0
 40
0.0
 40
0.0972041219626026
 40
0.1945662757837905
 40
0.2431749942945476
 40
0.2918749464429072
 40
0.3411175467530395
 40
0.3908044170752856
 40
0.412169396482632
 40
0.4337254233775396
 40
0.455131019218404
 40
0.4772098883570257
 40
0.4911176968881734
 40
0.5054242474541931
 40
0.5193367817625321
 40
0.5336194014276358
 40
0.5542828248164235
 40
0.5755038945799043
 40
0.6003415415183961
 40
0.6254449753558259
 40
0.6767288508022488
 40
0.7566730255244178
 40
0.8371935314043742
 40
0.9185456000476969
 40
1.0
 40
1.0
 40
1.0
 40
1.0
 10
252.5481498827406
 20
194.4394632320482
 30
0.0
 10
252.6607220305592
 20
194.7401040657667
 30
0.0
 10
252.8862620453607
 20
195.3424425606852
 30
0.0
 10
253.2053795085371
 20
196.0825325217627
 30
0.0
 10
253.4890135281795
 20
196.6631380517084
 30
0.0
 10
253.7223319583407
 20
197.091073356525
 30
0.0
 10
253.9842922147089
 20
197.5073690796907
 30
0.0
 10
254.2300760154438
 20
197.8262258559855
 30
0.0
 10
254.4468500357955
 20
198.0475147412855
 30
0.0
 10
254.6118745473977
 20
198.1863278922078
 30
0.0
 10
254.7959348361855
 20
198.3041669934282
 30
0.0
 10
254.975376140825
 20
198.3776251409157
 30
0.0
 10
255.1413602033894
 20
198.4098735710246
 30
0.0
 10
255.2829423910404
 20
198.4129130809036
 30
0.0
 10
255.4238055489336
 20
198.3913595664504
 30
0.0
 10
255.5792539174144
 20
198.3412111432041
 30
0.0
 10
255.7454610909446
 20
198.2540285859564
 30
0.0
 10
255.9237497013373
 20
198.1219762485219
 30
0.0
 10
256.0946245259448
 20
197.9589866032377
 30
0.0
 10
256.3137157490011
 20
197.7054080165801
 30
0.0
 10
256.6081155631193
 20
197.279750377406
 30
0.0
 10
256.9418897200613
 20
196.6650554335918
 30
0.0
 10
257.2702185742704
 20
195.939147476728
 30
0.0
 10
257.5666122352433
 20
195.1956423048817
 30
0.0
 10
257.744877601064
 20
194.6914957271929
 30
0.0
 10
257.833995859392
 20
194.4394632320482
 30
0.0
  0
SPLINE
  5
385
330
1F
100
AcDbEntity
  8
0
  6
CONTINUOUS
 62
     7
100
AcDbSpline
210
0.0
220
0.0
230
1.0
 70
     8
 71
     3
 72
    32
 73
    28
 74
     0
 42
0.000000001
 43
0.00000001
 40
0.0
 40
0.0
 40
0.0
 40
0.0
 40
0.0971999296151891
 40
0.1945578842731577
 40
0.2431645063230733
 40
0.2918623580757472
 40
0.3411028345861487
 40
0.3907875619476028
 40
0.4121516198979738
 40
0.4337067170961588
 40
0.4551113897282885
 40
0.4771893066203589
 40
0.4910965153172199
 40
0.5054024488514817
 40
0.5193143831217149
 40
0.5335963867871839
 40
0.5542589189766293
 40
0.5754790734898599
 40
0.6003156491975978
 40
0.6254180003410666
 40
0.6510250363810492
 40
0.6767196381046784
 40
0.729973487745986
 40
0.7834496830302016
 40
0.837201693476114
 40
0.8899533926434712
 40
1.0
 40
1.0
 40
1.0
 40
1.0
 10
249.8363505299963
 20
195.2325029142128
 30
0.0
 10
249.8932797024628
 20
195.5119854080421
 30
0.0
 10
250.0074606052278
 20
196.0725339294746
 30
0.0
 10
250.1692379636804
 20
196.7563834662202
 30
0.0
 10
250.3132648285757
 20
197.2891480589964
 30
0.0
 10
250.4319135310214
 20
197.6790477678236
 30
0.0
 10
250.5653080215175
 20
198.0540484960385
 30
0.0
 10
250.6906354092683
 20
198.3354775413157
 30
0.0
 10
250.801307288855
 20
198.524705649017
 30
0.0
 10
250.8856494907427
 20
198.6395605507024
 30
0.0
 10
250.9798102804319
 20
198.731138221431
 30
0.0
 10
251.0716978093692
 20
198.7794281702884
 30
0.0
 10
251.1567739374877
 20
198.788709757354
 30
0.0
 10
251.2294049152932
 20
198.7723358003389
 30
0.0
 10
251.3017230846363
 20
198.7316103739683
 30
0.0
 10
251.3815954857813
 20
198.6604168945862
 30
0.0
 10
251.4670716258115
 20
198.5508309707019
 30
0.0
 10
251.5588499568052
 20
198.3947967343997
 30
0.0
 10
251.6468929393255
 20
198.2087935724014
 30
0.0
 10
251.7312518461131
 20
197.9974449984727
 30
0.0
 10
251.8092042692633
 20
197.7743430972253
 30
0.0
 10
251.9077328530033
 20
197.4601834556211
 30
0.0
 10
252.0198056675476
 20
197.0501342524388
 30
0.0
 10
252.1414107710574
 20
196.5426571786815
 30
0.0
 10
252.2521417720293
 20
196.0300140158617
 30
0.0
 10
252.3918913351114
 20
195.3303202367844
 30
0.0
 10
252.4851202651437
 20
194.7988059828542
 30
0.0
 10
252.5481498827406
 20
194.4394632320482
 30
0.0
  0
LINE
  5
386
330
1F
100
AcDbEntity
  8
0
  6
CONTINUOUS
 62
     7
100
AcDbLine
 10
249.8576833753
 20
195.3581568942
 30
0.0
 11
249.83635053
 21
195.2325029142
 31
0.0
  0
LINE
  5
387
330
1F
100
AcDbEntity
  8
0
  6
CONTINUOUS
 62
     7
100
AcDbLine
 10
260.2247289532
 20
195.2325029142
 30
0.0
 11
260.1112704484
 21
195.8692271268
 31
0.0
  0
LWPOLYLINE
  5
388
330
1F
100
AcDbEntity
  8
0
  6
CONTINUOUS
 62
     7
100
AcDbPolyline
 90
       67
 70
   128
 43
0.0
 10
257.0327309274
 20
201.4591067211
 10
257.374379761
 20
201.4272162032
 10
257.6961463724
 20
201.3906887204
 10
257.9951663408
 20
201.3498299873
 10
258.2687497056
 20
201.3049840974
 10
258.5144045282
 20
201.2565313149
 10
258.7298597793
 20
201.2048855446
 10
258.9130873493
 20
201.1504914712
 10
259.0623229465
 20
201.0938213632
 10
259.1760856245
 20
201.0353715392
 10
259.2531956511
 20
200.9756585036
 10
259.2927904146
 20
200.9152147595
 10
259.2943380505
 20
200.8545843196
 10
259.2576484636
 20
200.794317939
 10
259.1828814295
 20
200.7349681055
 10
259.0705514681
 20
200.6770838295
 10
258.9215292126
 20
200.6212052861
 10
258.7370390306
 20
200.5678583691
 10
258.5186527035
 20
200.5175492231
 10
258.2682790304
 20
200.4707588299
 10
257.9881492894
 20
200.4279377252
 10
257.6807985673
 20
200.3895009303
 10
257.3490430536
 20
200.3558231801
 10
256.995953477
 20
200.3272345305
 10
256.6248249538
 20
200.3040164242
 10
256.2391436013
 20
200.2863982869
 10
255.842550347
 20
200.2745547205
 10
255.4388024372
 20
200.2686033472
 10
255.031733206
 20
200.2686033472
 10
254.6252107127
 20
200.2745547205
 10
254.2230958821
 20
200.2863982869
 10
253.8292007967
 20
200.3040164242
 10
253.4472477852
 20
200.3272345305
 10
253.0808299249
 20
200.3558231801
 10
252.7333735435
 20
200.3895009303
 10
252.4081032446
 20
200.4279377252
 10
252.1080099223
 20
200.4707588299
 10
251.8358221502
 20
200.5175492231
 10
251.5939812503
 20
200.5678583691
 10
251.3846202594
 20
200.6212052861
 10
251.2095469282
 20
200.6770838295
 10
251.0702308007
 20
200.7349681055
 10
250.9677943444
 20
200.794317939
 10
250.903008033
 20
200.8545843196
 10
250.8762892166
 20
200.9152147594
 10
250.8877045671
 20
200.9756585035
 10
250.9369758435
 20
201.0353715392
 10
251.0234886919
 20
201.0938213632
 10
251.1463041789
 20
201.1504914712
 10
251.3041727463
 20
201.2048855446
 10
251.4955502784
 20
201.2565313149
 10
251.7186159812
 20
201.3049840974
 10
251.9712917919
 20
201.3498299873
 10
252.2512630542
 20
201.3906887204
 10
252.5560002271
 20
201.4272162032
 10
252.8827814167
 20
201.4591067211
 10
253.2287155552
 20
201.486094834
 10
253.5907660768
 20
201.5079569731
 10
253.965774969
 20
201.5245127482
 10
254.3504871046
 20
201.5356259792
 10
254.7415747796
 20
201.5412054591
 10
255.1356624
 20
201.5412054591
 10
255.5293512783
 20
201.5356259792
 10
255.9192445014
 20
201.5245127482
 10
256.3019718438
 20
201.5079569731
 10
256.6742146897
 20
201.486094834
 10
257.0327309274
 20
201.4591067211
  0
LINE
  5
389
330
1F
100
AcDbEntity
  8
0
  6
CONTINUOUS
 62
     7
100
AcDbLine
 10
257.8091785747
 20
192.4446838251
 30
0.0
 11
257.8339958594
 21
194.439463232
 31
0.0
  0
LINE
  5
38A
330
1F
100
AcDbEntity
  8
0
  6
CONTINUOUS
 62
     7
100
AcDbLine
 10
257.8091785747
 20
192.4446838251
 30
0.0
 11
252.5343553513
 21
192.4446838251
 31
0.0
  0
LINE
  5
38B
330
1F
100
AcDbEntity
  8
0
  6
CONTINUOUS
 62
     7
100
AcDbLine
 10
252.5343553513
 20
192.4446838251
 30
0.0
 11
252.5481498827
 21
194.439463232
 31
0.0
  0
LWPOLYLINE
  5
38C
330
1F
100
AcDbEntity
  8
0
  6
CONTINUOUS
 62
     7
100
AcDbPolyline
 90
       62
 70
   128
 43
0.0
 10
253.391763846
 20
200.4426290685
 10
253.7274795518
 20
200.4167549839
 10
254.0781628807
 20
200.396204317
 10
254.4399726734
 20
200.3812117514
 10
254.8089302086
 20
200.3719489396
 10
255.1809676151
 20
200.3685221194
 10
255.5519778373
 20
200.3709706299
 10
255.9178653144
 20
200.3792663608
 10
256.2745965119
 20
200.3933141459
 10
256.6182494457
 20
200.4129530935
 10
256.945061366
 20
200.4379588227
 10
257.251473822
 20
200.468046559
 10
257.5341744011
 20
200.5028750213
 10
257.7901345247
 20
200.5420510201
 10
258.0166427935
 20
200.5851346727
 10
258.2113334848
 20
200.6316451323
 10
258.3722099277
 20
200.681066724
 10
258.4976625998
 20
200.7328553759
 10
258.5864819074
 20
200.7864452363
 10
258.6378657143
 20
200.8412553711
 10
258.6514217856
 20
200.8966964428
 10
258.6271653897
 20
200.9521772798
 10
258.5655123727
 20
201.0071112567
 10
258.4672680672
 20
201.0609224155
 10
258.3336124326
 20
201.1130512701
 10
258.1660818409
 20
201.1629602494
 10
257.96654793
 20
201.2101387429
 10
257.7371939329
 20
201.2541077254
 10
257.4804888768
 20
201.2944239455
 10
257.1991600164
 20
201.3306836706
 10
256.8961638347
 20
201.3625259885
 10
256.5746559058
 20
201.3896356691
 10
256.2379598788
 20
201.4117455951
 10
255.8895358042
 20
201.4286387697
 10
255.5329479887
 20
201.4401499144
 10
255.171832535
 20
201.446166664
 10
254.8098646993
 20
201.4466303695
 10
254.4507261781
 20
201.4415365132
 10
254.098072428
 20
201.4309347407
 10
253.7555001144
 20
201.4149285097
 10
253.4265147939
 20
201.3936743522
 10
253.114498942
 20
201.3673807451
 10
252.8226804578
 20
201.3363065807
 10
252.5541018042
 20
201.3007592274
 10
252.3115899676
 20
201.2610921708
 10
252.0977274575
 20
201.2177022239
 10
251.9148246033
 20
201.1710262999
 10
251.764893438
 20
201.1215377405
 10
251.6496234966
 20
201.0697422017
 10
251.5703598869
 20
201.0161731003
 10
251.5280840137
 20
200.9613866375
 10
251.5233973546
 20
200.9059564198
 10
251.5565086914
 20
200.8504677121
 10
251.6272251939
 20
200.7955113649
 10
251.7349477297
 20
200.7416774735
 10
251.8786707389
 20
200.6895488345
 10
252.0569869602
 20
200.6396942792
 10
252.2680972225
 20
200.5926619724
 10
252.5098254365
 20
200.5489727749
 10
252.779638822
 20
200.5091137733
 10
253.0746732974
 20
200.4735320882
 10
253.391763846
 20
200.4426290685
  0
LINE
  5
38D
330
1F
100
AcDbEntity
  8
0
  6
CONTINUOUS
 62
     7
100
AcDbLine
 10
249.8283518559
 20
193.2706170385
 30
0.0
 11
249.83635053
 21
195.2325029142
 31
0.0
  0
LINE
  5
38E
330
1F
100
AcDbEntity
  8
0
  6
CONTINUOUS
 62
     7
100
AcDbLine
 10
252.5343553513
 20
192.4446838251
 30
0.0
 11
249.8283518559
 21
193.2706170385
 31
0.0
  0
LINE
  5
38F
330
1F
100
AcDbEntity
  8
0
  6
CONTINUOUS
 62
     7
100
AcDbLine
 10
260.195441914
 20
193.2706170385
 30
0.0
 11
260.2247289532
 21
195.2325029142
 31
0.0
  0
LINE
  5
390
330
1F
100
AcDbEntity
  8
0
  6
CONTINUOUS
 62
     7
100
AcDbLine
 10
260.195441914
 20
193.2706170385
 30
0.0
 11
257.8091785747
 21
192.4446838251
 31
0.0
  0
LWPOLYLINE
  5
391
330
1F
100
AcDbEntity
  8
0
  6
CONTINUOUS
 62
     7
100
AcDbPolyline
 90
       52
 70
   128
 43
0.0
 10
253.887398717
 20
200.5809993858
 10
254.1729005348
 20
200.5596282941
 10
254.4726217776
 20
200.5436783989
 10
254.7819076935
 20
200.5334048328
 10
255.095941109
 20
200.5289722465
 10
255.4098233929
 20
200.5304517561
 10
255.7186572606
 20
200.5378196193
 10
256.0176296191
 20
200.5509576778
 10
256.3020926494
 20
200.5696555529
 10
256.5676413821
 20
200.593614535
 10
256.8101861426
 20
200.6224530634
 10
257.0260184158
 20
200.6557136499
 10
257.2118689004
 20
200.6928710703
 10
257.3649567739
 20
200.7333416186
 10
257.4830294578
 20
200.7764932026
 10
257.5643924517
 20
200.8216560517
 10
257.6079290713
 20
200.8681338054
 10
257.6131101755
 20
200.9152147594
 10
257.5799941912
 20
200.9621830606
 10
257.5092179298
 20
201.0083296585
 10
257.4019788397
 20
201.0529628477
 10
257.2600094437
 20
201.0954182551
 10
257.0855447831
 20
201.1350681558
 10
256.8812837176
 20
201.1713300238
 10
256.650344935
 20
201.2036742465
 10
256.3962184963
 20
201.2316309543
 10
256.1227137012
 20
201.2547959305
 10
255.8339040002
 20
201.2728355836
 10
255.5340696219
 20
201.2854909726
 10
255.2276385202
 20
201.2925808817
 10
254.9191261978
 20
201.2940039472
 10
254.6130749131
 20
201.2897398373
 10
254.313992756
 20
201.2798494883
 10
254.0262930602
 20
201.2644743965
 10
253.7542346271
 20
201.2438349654
 10
253.5018632574
 20
201.218227905
 10
253.2729551215
 20
201.1880226817
 10
253.0709625467
 20
201.1536570193
 10
252.8989628568
 20
201.1156314557
 10
252.7596109537
 20
201.07450297
 10
252.6550963862
 20
201.0308777058
 10
252.5871056948
 20
200.9854028306
 10
252.5567908456
 20
200.9387575926
 10
252.5647445718
 20
200.8916436559
 10
252.6109834132
 20
200.8447748193
 10
252.6949391812
 20
200.7988662499
 10
252.8154594809
 20
200.7546233873
 10
252.9708177787
 20
200.7127306982
 10
253.1587333285
 20
200.6738404816
 10
253.3764010562
 20
200.6385619421
 10
253.6205312593
 20
200.6074507596
 10
253.887398717
 20
200.5809993858
  0
LWPOLYLINE
  5
392
330
1F
100
AcDbEntity
  8
0
  6
CONTINUOUS
 62
     7
100
AcDbPolyline
 90
       22
 70
   128
 43
0.0
 10
254.1220809067
 20
200.6465174737
 10
254.2500902497
 20
200.6389560533
 10
254.3858736073
 20
200.6374090169
 10
254.5173053993
 20
200.6420152114
 10
254.6326532382
 20
200.6523613222
 10
254.7216392652
 20
200.6675200078
 10
254.7763633534
 20
200.6861351059
 10
254.7920026836
 20
200.7065453561
 10
254.767226413
 20
200.7269345181
 10
254.7042934658
 20
200.7454936804
 10
254.6088318928
 20
200.7605810213
 10
254.4893263012
 20
200.7708651725
 10
254.3563631772
 20
200.7754403248
 10
254.2217013875
 20
200.7739039516
 10
254.0972465702
 20
200.7663911941
 10
253.9940139193
 20
200.7535633277
 10
253.9211644031
 20
200.7365511709
 10
253.8851948774
 20
200.7168577219
 10
253.8893526007
 20
200.6962275984
 10
253.9333289674
 20
200.6764938469
 10
254.0132657881
 20
200.6594150911
 10
254.1220809067
 20
200.6465174737
  0
LWPOLYLINE
  5
393
330
1F
100
AcDbEntity
  8
0
  6
CONTINUOUS
 62
     7
100
AcDbPolyline
 90
       22
 70
   128
 43
0.0
 10
256.2770583497
 20
200.7352505792
 10
256.4051915879
 20
200.7277230724
 10
256.5407542045
 20
200.7261829753
 10
256.6716404299
 20
200.7307685091
 10
256.786166814
 20
200.7410682221
 10
256.8741290531
 20
200.7561589493
 10
256.9277184595
 20
200.7746906292
 10
256.9422132498
 20
200.7950094616
 10
256.9163841618
 20
200.8153073473
 10
256.8525832603
 20
200.8337834666
 10
256.7565151636
 20
200.8488033279
 10
256.6367178606
 20
200.8590414969
 10
256.5038034683
 20
200.8635961968
 10
256.3695265543
 20
200.8620666914
 10
256.2457589002
 20
200.854587521
 10
256.1434551757
 20
200.8418170184
 10
256.0716943504
 20
200.8248809655
 10
256.0368769057
 20
200.8052756561
 10
256.0421477877
 20
200.7847379114
 10
256.0870992111
 20
200.7650925699
 10
256.1677858453
 20
200.7480903648
 10
256.2770583497
 20
200.7352505792
  0
LWPOLYLINE
  5
394
330
1F
100
AcDbEntity
  8
0
  6
CONTINUOUS
 62
     7
100
AcDbPolyline
 90
       22
 70
   128
 43
0.0
 10
253.4750927945
 20
200.9756553218
 10
253.6019132927
 20
200.9682193139
 10
253.7365405992
 20
200.9666979393
 10
253.8669528819
 20
200.9712277304
 10
253.9815091732
 20
200.9814022615
 10
254.0700022922
 20
200.9963096359
 10
254.1245756477
 20
201.0146162502
 10
254.1404190391
 20
201.0346884328
 10
254.1161824741
 20
201.0547400489
 10
254.0540760156
 20
201.0729921111
 10
253.9596537969
 20
201.0878299056
 10
253.8413081834
 20
201.0979440097
 10
253.7095232529
 20
201.1024435265
 10
253.5759541663
 20
201.1009325514
 10
253.4524104344
 20
201.0935440026
 10
253.3498269103
 20
201.0809282737
 10
253.2773069339
 20
201.0641975563
 10
253.2413175474
 20
201.0448300542
 10
253.2451068431
 20
201.024541553
 10
253.2883979439
 20
201.0051347453
 10
253.3673928153
 20
200.9883390763
 10
253.4750927945
 20
200.9756553218
  0
ARC
  5
395
330
1F
100
AcDbEntity
  8
0
  6
CONTINUOUS
 62
     7
100
AcDbCircle
 10
231.4803374502
 20
177.1994165279
 30
0.0
 40
1.211675004879094
100
AcDbArc
 50
179.1510490667
 51
256.7947455184
  0
LINE
  5
396
330
1F
100
AcDbEntity
  8
0
  6
CONTINUOUS
 62
     7
100
AcDbLine
 10
230.0621878501
 20
189.6071462716
 30
0.0
 11
230.2687954503
 21
177.2173692461
 31
0.0
  0
ARC
  5
397
330
1F
100
AcDbEntity
  8
0
  6
CONTINUOUS
 62
     7
100
AcDbCircle
 10
230.9350387803
 20
189.7151981833
 30
0.0
 40
0.8795134801802602
100
AcDbArc
 50
87.413994858
 51
187.0568544905
  0
LINE
  5
398
330
1F
100
AcDbEntity
  8
0
  6
CONTINUOUS
 62
     7
100
AcDbLine
 10
256.137121389
 20
187.7216735413
 30
0.0
 11
230.974721533
 21
190.5938159847
 31
0.0
  0
ARC
  5
399
330
1F
100
AcDbEntity
  8
0
  6
CONTINUOUS
 62
     7
100
AcDbCircle
 10
255.920408256
 20
186.4904312543
 30
0.0
 40
1.25016884912644
100
AcDbArc
 50
357.9062426458
 51
80.017516658
  0
LINE
  5
39A
330
1F
100
AcDbEntity
  8
0
  6
CONTINUOUS
 62
     7
100
AcDbLine
 10
257.014442796
 20
173.334554786
 30
0.0
 11
257.1697424678
 21
186.4447565517
 31
0.0
  0
ARC
  5
39B
330
1F
100
AcDbEntity
  8
0
  6
CONTINUOUS
 62
     7
100
AcDbCircle
 10
256.0900791289
 20
173.2817919666
 30
0.0
 40
0.9258682974195057
100
AcDbArc
 50
262.6812477805
 51
3.2669069089
  0
LINE
  5
39C
330
1F
100
AcDbEntity
  8
0
  6
CONTINUOUS
 62
     7
100
AcDbLine
 10
231.2035422253
 20
176.0197806853
 30
0.0
 11
255.972133473
 21
172.3634669009
 31
0.0
  0
LINE
  5
39D
330
1F
100
AcDbEntity
  8
0
  6
CONTINUOUS
 62
     7
100
AcDbLine
 10
256.137121389
 20
187.7216735413
 30
0.0
 11
256.2667314424
 21
187.7703826819
 31
0.0
  0
ARC
  5
39E
330
1F
100
AcDbEntity
  8
0
  6
CONTINUOUS
 62
     7
100
AcDbCircle
 10
256.122987108
 20
186.6799067806
 30
0.0
 40
1.099909144011214
100
AcDbArc
 50
46.4515074507
 51
82.4906800914
  0
LINE
  5
39F
330
1F
100
AcDbEntity
  8
0
  6
CONTINUOUS
 62
     7
100
AcDbLine
 10
257.2985292527
 20
186.4947040957
 30
0.0
 11
257.1697424678
 21
186.4447565517
 31
0.0
  0
LINE
  5
3A0
330
1F
100
AcDbEntity
  8
0
  6
CONTINUOUS
 62
     7
100
AcDbLine
 10
257.014442796
 20
173.334554786
 30
0.0
 11
257.1415936442
 21
173.3958317922
 31
0.0
  0
LINE
  5
3A1
330
1F
100
AcDbEntity
  8
0
  6
CONTINUOUS
 62
     7
100
AcDbLine
 10
257.1415936442
 20
173.3958317922
 30
0.0
 11
257.2985292527
 21
186.4947040957
 31
0.0
  0
LINE
  5
3A2
330
1F
100
AcDbEntity
  8
0
  6
CONTINUOUS
 62
     7
100
AcDbLine
 10
231.1193290641
 20
190.6373390396
 30
0.0
 11
230.974721533
 21
190.5938159847
 31
0.0
  0
LINE
  5
3A3
330
1F
100
AcDbEntity
  8
0
  6
CONTINUOUS
 62
     7
100
AcDbLine
 10
256.2667314424
 20
187.7703826819
 30
0.0
 11
231.1193290641
 21
190.6373390396
 31
0.0
  0
ARC
  5
3A4
330
1F
100
AcDbEntity
  8
0
  6
CONTINUOUS
 62
     7
100
AcDbCircle
 10
256.1612688485
 20
173.3671064422
 30
0.0
 40
0.9807455586664843
100
AcDbArc
 50
300.9052648624
 51
1.6783932577
  0
ARC
  5
3A5
330
1F
100
AcDbEntity
  8
0
  6
CONTINUOUS
 62
     7
100
AcDbCircle
 10
231.0294280762
 20
189.8868214491
 30
0.0
 40
0.7558828225019385
100
AcDbArc
 50
83.1693526832
 51
111.8148418752
  0
ARC
  5
3A6
330
1F
100
AcDbEntity
  8
0
  6
CONTINUOUS
 62
     7
100
AcDbCircle
 10
232.9113893884
 20
164.9499793428
 30
0.0
 40
6.105762187237558
100
AcDbArc
 50
150.9374292846
 51
211.3242519741
  0
ARC
  5
3A7
330
1F
100
AcDbEntity
  8
0
  6
CONTINUOUS
 62
     7
100
AcDbCircle
 10
233.7824296026
 20
164.807145095
 30
0.0
 40
6.986826980967968
100
AcDbArc
 50
152.9776695227
 51
193.9076893476
  0
LWPOLYLINE
  5
3A8
330
1F
100
AcDbEntity
  8
0
  6
CONTINUOUS
 62
     7
100
AcDbPolyline
 90
        3
 70
   128
 43
0.0
 10
250.7703831554
 20
145.3936190683
 10
251.0518562535
 20
145.494465151
 10
251.2928988153
 20
145.5974435956
  0
ARC
  5
3A9
330
1F
100
AcDbEntity
  8
0
  6
CONTINUOUS
 62
     7
100
AcDbCircle
 10
247.7774316578
 20
155.8380046456
 30
0.0
 40
10.86475718803684
100
AcDbArc
 50
256.048485051
 51
285.9902271136
  0
ARC
  5
3AA
330
1F
100
AcDbEntity
  8
0
  6
CONTINUOUS
 62
     7
100
AcDbCircle
 10
247.7876732371
 20
155.0796432102
 30
0.0
 40
10.22795234492156
100
AcDbArc
 50
254.3892907643
 51
286.1165102619
  0
ARC
  5
3AB
330
1F
100
AcDbEntity
  8
0
  6
CONTINUOUS
 62
     7
100
AcDbCircle
 10
249.4298172405
 20
149.043666144
 30
0.0
 40
3.974555399855243
100
AcDbArc
 50
287.5283697777
 51
298.7348377522
  0
LWPOLYLINE
  5
3AC
330
1F
100
AcDbEntity
  8
0
  6
CONTINUOUS
 62
     7
100
AcDbPolyline
 90
       34
 70
   128
 43
0.0
 10
239.706333451
 20
163.8947386736
 10
239.5047404939
 20
163.5711061342
 10
239.3300035776
 20
163.2262400312
 10
239.183167002
 20
162.8623804313
 10
239.0650972226
 20
162.481874569
 10
238.9764793968
 20
162.0871620019
 10
238.9178149625
 20
161.6807595579
 10
238.8894202159
 20
161.2652461485
 10
238.8914258529
 20
160.8432475174
 10
238.9237774422
 20
160.417420984
 10
238.9862367942
 20
159.9904402368
 10
239.0783841945
 20
159.5649802233
 10
239.1996214727
 20
159.143702181
 10
239.349175879
 20
158.729238847
 10
239.526104744
 20
158.3241798833
 10
239.729300902
 20
157.9310575508
 10
239.9574988578
 20
157.5523326664
 10
240.2092816837
 20
157.1903808758
 10
240.4830886311
 20
156.8474792772
 10
240.7772234472
 20
156.5257934339
 10
241.0898633846
 20
156.2273648149
 10
241.4190688939
 20
155.9540987095
 10
241.7627939871
 20
155.7077526628
 10
242.1188972593
 20
155.4899254882
 10
242.4851535503
 20
155.3020469138
 10
242.8592662276
 20
155.1453679286
 10
243.2388800627
 20
155.0209518961
 10
243.6215946696
 20
154.9296665107
 10
244.0049784649
 20
154.872176673
 10
244.3865831018
 20
154.8489383652
 10
244.7639583196
 20
154.8601936092
 10
245.134667143
 20
154.9059665897
 10
245.4963013516
 20
154.9860610235
 10
245.8418515292
 20
155.0982950453
  0
ARC
  5
3AD
330
1F
100
AcDbEntity
  8
0
  6
CONTINUOUS
 62
     7
100
AcDbCircle
 10
242.9841308839
 20
161.6526561869
 30
0.0
 40
3.97125797305167
100
AcDbArc
 50
130.4106584428
 51
145.6270498954
  0
LWPOLYLINE
  5
3AE
330
1F
100
AcDbEntity
  8
0
  6
CONTINUOUS
 62
     7
100
AcDbPolyline
 90
       51
 70
   128
 43
0.0
 10
241.9457250768
 20
161.777164862
 10
241.8146612831
 20
161.5578922651
 10
241.7121706769
 20
161.3173627378
 10
241.6398093807
 20
161.0593634001
 10
241.5986641334
 20
160.7879399016
 10
241.5893385253
 20
160.5073340979
 10
241.611946276
 20
160.2219195861
 10
241.6661114926
 20
159.9361359646
 10
241.7509757816
 20
159.6544226503
 10
241.8652120315
 20
159.3811530641
 10
242.0070446368
 20
159.120569963
 10
242.174275888
 20
158.8767226775
 10
242.3643182096
 20
158.6534069902
 10
242.5742318865
 20
158.4541083749
 10
242.8007678692
 20
158.2819493014
 10
243.0404152012
 20
158.1396412946
 10
243.2894525525
 20
158.0294424231
 10
243.5440032827
 20
157.953120865
 10
243.8000933899
 20
157.9119251741
 10
244.0537116308
 20
157.9065618221
 10
244.3008710258
 20
157.9371805381
 10
244.5376708943
 20
158.0033678902
 10
244.7603584993
 20
158.1041494617
 10
244.965389329
 20
158.238000855
 10
245.149485002
 20
158.4028676267
 10
245.3096877628
 20
158.5961940997
 10
245.4434105376
 20
158.8149608276
 10
245.5484815468
 20
159.0557303082
 10
245.6231825317
 20
159.3147003517
 10
245.6662797391
 20
159.5877643223
 10
245.6770469243
 20
159.8705772925
 10
245.6552797816
 20
160.1586269825
 10
245.6013013795
 20
160.447308214
 10
245.5159583693
 20
160.7319994974
 10
245.4006079415
 20
161.0081402882
 10
245.2570957119
 20
161.2713074137
 10
245.0877249319
 20
161.5172891742
 10
244.8952176179
 20
161.7421556676
 10
244.6826683759
 20
161.9423239781
 10
244.453491862
 20
162.1146169946
 10
244.2113649488
 20
162.2563147823
 10
243.9601647658
 20
162.3651976225
 10
243.7039038477
 20
162.4395800342
 10
243.4466636476
 20
162.4783353108
 10
243.1925276669
 20
162.4809103206
 10
242.9455154116
 20
162.4473305328
 10
242.7095183144
 20
162.3781954278
 10
242.4882386722
 20
162.2746646333
 10
242.2851325331
 20
162.1384352841
 10
242.1033573489
 20
161.971711235
 10
241.9457250768
 20
161.777164862
  0
LINE
  5
3AF
330
1F
100
AcDbEntity
  8
0
  6
CONTINUOUS
 62
     7
100
AcDbLine
 10
245.2030926395
 20
158.7712497971
 30
0.0
 11
245.1301368639
 21
158.7242119866
 31
0.0
  0
LWPOLYLINE
  5
3B0
330
1F
100
AcDbEntity
  8
0
  6
CONTINUOUS
 62
     7
100
AcDbPolyline
 90
        3
 70
   128
 43
0.0
 10
243.1042128224
 20
162.1662863756
 10
243.1317259558
 20
162.1879956796
 10
243.1609868753
 20
162.2053379552
  0
LWPOLYLINE
  5
3B1
330
1F
100
AcDbEntity
  8
0
  6
CONTINUOUS
 62
     7
100
AcDbPolyline
 90
       32
 70
   128
 43
0.0
 10
244.7819499732
 20
160.2617844616
 10
244.7660774753
 20
160.4344337846
 10
244.7195292057
 20
160.6056247572
 10
244.6442150913
 20
160.7683084676
 10
244.5432365437
 20
160.91578686
 10
244.4207565496
 20
161.0419931023
 10
244.2818245261
 20
161.141744688
 10
244.1321638866
 20
161.210958138
 10
243.9779319475
 20
161.2468161019
 10
243.8254629488
 20
161.2478800379
 10
243.6810055048
 20
161.2141442984
 10
243.550465752
 20
161.1470301977
 10
243.4391668696
 20
161.0493213107
 10
243.3516345932
 20
160.9250437063
 10
243.2914169388
 20
160.7792969561
 10
243.2609447027
 20
160.6180435011
 10
243.2614375178
 20
160.4478652909
 10
243.2928584182
 20
160.2756975297
 10
243.3539180521
 20
160.1085499085
 10
243.4421279409
 20
159.9532259034
 10
243.5539005304
 20
159.8160506244
 10
243.6846922334
 20
159.7026173316
 10
243.8291842196
 20
159.6175621195
 10
243.9814943906
 20
159.5643754012
 10
244.135412789
 20
159.5452576981
 10
244.2846516755
 20
159.5610258436
 10
244.4231007118
 20
159.6110740315
 10
244.5450771708
 20
159.693392187
 10
244.6455609305
 20
159.8046419476
 10
244.7204042619
 20
159.9402881669
 10
244.7665071346
 20
160.0947814056
 10
244.7819499732
 20
160.2617844616
  0
ARC
  5
3B2
330
1F
100
AcDbEntity
  8
0
  6
CONTINUOUS
 62
     7
100
AcDbCircle
 10
244.2800529401
 20
160.5301866955
 30
0.0
 40
0.9057183739947183
100
AcDbArc
 50
129.0425670819
 51
282.2737997501
  0
LWPOLYLINE
  5
3B3
330
1F
100
AcDbEntity
  8
0
  6
CONTINUOUS
 62
     7
100
AcDbPolyline
 90
       19
 70
   128
 43
0.0
 10
244.0864480098
 20
161.1951596958
 10
243.9938793947
 20
161.1957169432
 10
243.8553360317
 20
161.16653309
 10
243.7312317608
 20
161.1020850875
 10
243.6277683695
 20
161.0056404028
 10
243.5501022181
 20
160.8820594426
 10
243.502091967
 20
160.7375470548
 10
243.4861121741
 20
160.57933984
 10
243.5029407113
 20
160.415345246
 10
243.5517243708
 20
160.2537501479
 10
243.630023485
 20
160.1026175312
 10
243.7339329652
 20
159.9694900856
 10
243.8582739469
 20
159.8610190337
 10
243.9968472492
 20
159.7826354212
 10
244.1427371629
 20
159.7382794051
 10
244.2886517209
 20
159.7302007864
 10
244.4272836743
 20
159.7588411554
 10
244.5516750018
 20
159.8228045425
 10
244.6553168993
 20
159.9186179569
  0
ARC
  5
3B4
330
1F
100
AcDbEntity
  8
0
  6
CONTINUOUS
 62
     7
100
AcDbCircle
 10
244.4391380335
 20
160.6206334137
 30
0.0
 40
0.790922328558431
100
AcDbArc
 50
137.2723416701
 51
280.0020418851
  0
LWPOLYLINE
  5
3B5
330
1F
100
AcDbEntity
  8
0
  6
CONTINUOUS
 62
     7
100
AcDbPolyline
 90
       22
 70
   128
 43
0.0
 10
247.4912395265
 20
202.4835812804
 10
247.4962112862
 20
202.4493239591
 10
247.4752818256
 20
202.392173951
 10
247.4178640441
 20
202.335413597
 10
247.3242934492
 20
202.2795386572
 10
247.1952280737
 20
202.2250414862
 10
247.0316480632
 20
202.1724064457
 10
246.8348519752
 20
202.1221052472
 10
246.6064496449
 20
202.074592277
 10
246.3483515203
 20
202.0302999655
 10
246.0627544313
 20
201.9896342646
 10
245.7521238194
 20
201.9529703007
 10
245.419172525
 20
201.9206482702
 10
245.0668363007
 20
201.8929696453
 10
244.6982462902
 20
201.8701937547
 10
244.3166987825
 20
201.8525348009
 10
243.9256226147
 20
201.8401593649
 10
243.5285446569
 20
201.8331844495
 10
243.1290538559
 20
201.8316760936
 10
242.7307643573
 20
201.8356485874
 10
242.3372782439
 20
201.8450643021
 10
241.9521484419
 20
201.8598341383
  0
LINE
  5
3B6
330
1F
100
AcDbEntity
  8
0
  6
CONTINUOUS
 62
     7
100
AcDbLine
 10
241.9521484419
 20
201.8598341383
 30
0.0
 11
241.9496651782
 21
202.4611577371
 31
0.0
  0
SPLINE
  5
3B7
330
1F
100
AcDbEntity
  8
0
  6
CONTINUOUS
 62
     7
100
AcDbSpline
210
0.0
220
0.0
230
1.0
 70
     8
 71
     3
 72
    14
 73
    10
 74
     0
 42
0.000000001
 43
0.00000001
 40
0.0
 40
0.0
 40
0.0
 40
0.0
 40
0.1576103213932903
 40
0.3195416563012349
 40
0.4772348747177222
 40
0.6398298550118153
 40
0.7924824295099451
 40
0.9492693014368063
 40
1.0
 40
1.0
 40
1.0
 40
1.0
 10
241.949665178209
 20
202.4611577371189
 30
0.0
 10
241.8592245103217
 20
202.5101615591712
 30
0.0
 10
241.6759018729186
 20
202.6094919833188
 30
0.0
 10
241.3916781915439
 20
202.7059345041395
 30
0.0
 10
241.1083833789661
 20
202.7601401618619
 30
0.0
 10
240.8417728441755
 20
202.7656284696944
 30
0.0
 10
240.5954354083609
 20
202.724855537006
 30
0.0
 10
240.42499771027
 20
202.6616671783243
 30
0.0
 10
240.3361029753584
 20
202.6118193234038
 30
0.0
 10
240.3143817794606
 20
202.5996391304724
 30
0.0
  0
LINE
  5
3B8
330
1F
100
AcDbEntity
  8
0
  6
CONTINUOUS
 62
     7
100
AcDbLine
 10
240.3143817795
 20
202.5996391305
 30
0.0
 11
240.3178716142
 21
202.0004362025
 31
0.0
  0
ARC
  5
3B9
330
1F
100
AcDbEntity
  8
0
  6
CONTINUOUS
 62
     7
100
AcDbCircle
 10
240.1986535549
 20
203.840918635
 30
0.0
 40
1.844339591880228
100
AcDbArc
 50
230.827266875
 51
273.7061815769
  0
LWPOLYLINE
  5
3BA
330
1F
100
AcDbEntity
  8
0
  6
CONTINUOUS
 62
     7
100
AcDbPolyline
 90
       68
 70
   128
 43
0.0
 10
241.0651636752
 20
204.4886896844
 10
241.4205295781
 20
204.4631971562
 10
241.7927413717
 20
204.4424120983
 10
242.1784038278
 20
204.4265339448
 10
242.5739819519
 20
204.415715496
 10
242.9758373218
 20
204.4100610836
 10
243.3802659554
 20
204.4096253099
 10
243.7835371521
 20
204.414412385
 10
244.1819327257
 20
204.4243760758
 10
244.5717860367
 20
204.4394202671
 10
244.9495202398
 20
204.4594001244
 10
245.3116851785
 20
204.4841238351
 10
245.6549923996
 20
204.5133548942
 10
245.9763478057
 20
204.5468148912
 10
246.2728815223
 20
204.5841867457
 10
246.5419746286
 20
204.6251183334
 10
246.781282469
 20
204.669226438
 10
246.9887543467
 20
204.7161009626
 10
247.1626494722
 20
204.7653093321
 10
247.3015491204
 20
204.8164010198
 10
247.4043650183
 20
204.8689121325
 10
247.4703440526
 20
204.9223699923
 10
247.4990694428
 20
204.9762976595
 10
247.4904585719
 20
205.0302183451
 10
247.4447577093
 20
205.0836596695
 10
247.3625338828
 20
205.1361577286
 10
247.2446641804
 20
205.1872609393
 10
247.0923227679
 20
205.2365336397
 10
246.9069659096
 20
205.2835594269
 10
246.690315272
 20
205.3279442227
 10
246.444339777
 20
205.3693190619
 10
246.1712362509
 20
205.407342601
 10
245.8734090936
 20
205.4417033523
 10
245.5534491676
 20
205.4721216481
 10
245.2141120772
 20
205.4983513438
 10
244.8582959847
 20
205.520181269
 10
244.4890190826
 20
205.5374364364
 10
244.1093968166
 20
205.5499790185
 10
243.7226189344
 20
205.5577091009
 10
243.3319264152
 20
205.5605652188
 10
242.9405883234
 20
205.5585246841
 10
242.5518786168
 20
205.5516037051
 10
242.1690529376
 20
205.5398573006
 10
241.7953254118
 20
205.5233790085
 10
241.4338454872
 20
205.5023003837
 10
241.0876748496
 20
205.4767902819
 10
240.7597644698
 20
205.4470539206
 10
240.4529318499
 20
205.4133317095
 10
240.1698385595
 20
205.3758978404
 10
239.9129681768
 20
205.3350586269
 10
239.6846047717
 20
205.2911505843
 10
239.4868120988
 20
205.2445382411
 10
239.3214136939
 20
205.1956116758
 10
239.1899740922
 20
205.144783776
 10
239.0937814129
 20
205.0924872185
 10
239.0338315736
 20
205.0391711759
 10
239.0108144135
 20
204.9852977593
 10
239.0251020155
 20
204.9313382127
 10
239.0767395165
 20
204.8777688811
 10
239.1654386931
 20
204.8250669817
 10
239.290574589
 20
204.7737062146
 10
239.4511854307
 20
204.7241522543
 10
239.6459760379
 20
204.6768581743
 10
239.8733248918
 20
204.6322598583
 10
240.1312949693
 20
204.5907714596
 10
240.4176483879
 20
204.552780973
 10
240.7298648339
 20
204.5186459871
 10
241.0651636752
 20
204.4886896844
  0
LWPOLYLINE
  5
3BB
330
1F
100
AcDbEntity
  8
0
  6
CONTINUOUS
 62
     7
100
AcDbPolyline
 90
       63
 70
   128
 43
0.0
 10
241.383993693
 20
204.5622630857
 10
241.7129738683
 20
204.5389469489
 10
242.0583903129
 20
204.5203388045
 10
242.4165814355
 20
204.5066446444
 10
242.7837340224
 20
204.4980164583
 10
243.1559281603
 20
204.4945501818
 10
243.5291839012
 20
204.4962843935
 10
243.8995089106
 20
204.5031997896
 10
244.2629463073
 20
204.5152194466
 10
244.6156219022
 20
204.5322098676
 10
244.9537900585
 20
204.5539827889
 10
245.2738774364
 20
204.5802977086
 10
245.5725239457
 20
204.6108650843
 10
245.8466203035
 20
204.6453501346
 10
246.0933416889
 20
204.6833771681
 10
246.3101770864
 20
204.7245343561
 10
246.4949540134
 20
204.7683788611
 10
246.645858443
 20
204.8144422282
 10
246.7614498309
 20
204.8622359512
 10
246.840671264
 20
204.9112571224
 10
246.8828548339
 20
204.9609940862
 10
246.8877224211
 20
205.0109320175
 10
246.8553821423
 20
205.0605583582
 10
246.7863207656
 20
205.1093680515
 10
246.6813924358
 20
205.1568685246
 10
246.5418040765
 20
205.2025843792
 10
246.369097846
 20
205.2460617595
 10
246.1651310224
 20
205.2868723737
 10
245.9320536802
 20
205.3246171565
 10
245.6722845035
 20
205.3589295647
 10
245.388485049
 20
205.3894785023
 10
245.0835327466
 20
205.4159708814
 10
244.7604928874
 20
205.438153821
 10
244.422589817
 20
205.4558164945
 10
244.0731775193
 20
205.4687916346
 10
243.7157097457
 20
205.4769567026
 10
243.353709818
 20
205.4802347335
 10
242.9907402147
 20
205.4785948599
 10
242.6303720337
 20
205.4720525212
 10
242.2761544175
 20
205.4606693594
 10
241.9315840239
 20
205.4445527996
 10
241.6000746342
 20
205.4238553136
 10
241.2849269985
 20
205.3987733586
 10
240.9892990406
 20
205.3695459855
 10
240.716176565
 20
205.3364531068
 10
240.4683446415
 20
205.2998134156
 10
240.2483598703
 20
205.2599819464
 10
240.0585237675
 20
205.2173472717
 10
239.9008575458
 20
205.1723283297
 10
239.7770785933
 20
205.1253708846
 10
239.6885789896
 20
205.0769436224
 10
239.636406416
 20
205.0275338967
 10
239.6212478349
 20
204.9776431429
 10
239.6434163227
 20
204.927781989
 10
239.7028414302
 20
204.8784650994
 10
239.7990634322
 20
204.8302058005
 10
239.931231792
 20
204.7835105418
 10
240.0981081236
 20
204.7388732597
 10
240.2980738707
 20
204.6967697171
 10
240.5291428492
 20
204.6576519003
 10
240.7889787108
 20
204.6219425589
 10
241.0749172904
 20
204.5900299798
 10
241.383993693
 20
204.5622630857
  0
SPLINE
  5
3BC
330
1F
100
AcDbEntity
  8
0
  6
CONTINUOUS
 62
     7
100
AcDbSpline
210
0.0
220
0.0
230
1.0
 70
     8
 71
     3
 72
    11
 73
     7
 74
     0
 42
0.000000001
 43
0.00000001
 40
0.0
 40
0.0
 40
0.0
 40
0.0
 40
0.2462519209837865
 40
0.4939527528726259
 40
0.7461959343868055
 40
1.0
 40
1.0
 40
1.0
 40
1.0
 10
241.9618495209515
 20
199.5107127933488
 30
0.0
 10
241.9743246876022
 20
199.7057171517509
 30
0.0
 10
241.9993569131568
 20
200.0970059593725
 30
0.0
 10
242.0075443088129
 20
200.686098967521
 30
0.0
 10
241.9953965844294
 20
201.2767386863534
 30
0.0
 10
241.9666025812213
 20
201.6649554127778
 30
0.0
 10
241.9521484419089
 20
201.8598341382722
 30
0.0
  0
LWPOLYLINE
  5
3BD
330
1F
100
AcDbEntity
  8
0
  6
CONTINUOUS
 62
     7
100
AcDbPolyline
 90
       22
 70
   128
 43
0.0
 10
247.4808358943
 20
200.193754606
 10
247.4924607345
 20
200.134844225
 10
247.471575901
 20
200.0743337244
 10
247.4142907518
 20
200.0142362256
 10
247.3209404196
 20
199.9550766216
 10
247.192181757
 20
199.8973761847
 10
247.0289929085
 20
199.8416477116
 10
246.8326696039
 20
199.7883905923
 10
246.6048180271
 20
199.7380858628
 10
246.3473441673
 20
199.6911913046
 10
246.0624396145
 20
199.6481366592
 10
245.7525638281
 20
199.6093190275
 10
245.4204229753
 20
199.5750985276
 10
245.0689455062
 20
199.5457942806
 10
244.7012547069
 20
199.5216807929
 10
244.3206385365
 20
199.5029848007
 10
243.9305171233
 20
199.489882631
 10
243.5344083478
 20
199.4824981304
 10
243.1358919931
 20
199.4809012008
 10
242.7385729739
 20
199.4851069681
 10
242.3460441859
 20
199.4950756027
 10
241.961849521
 20
199.5107127933
  0
LWPOLYLINE
  5
3BE
330
1F
100
AcDbEntity
  8
0
  6
CONTINUOUS
 62
     7
100
AcDbPolyline
 90
       57
 70
   128
 43
0.0
 10
247.3112168198
 20
196.1898726426
 10
247.3735072659
 20
196.1781268554
 10
247.6526264185
 20
196.1199879554
 10
247.9037446844
 20
196.0580417679
 10
248.125128184
 20
195.9926708434
 10
248.3152138383
 20
195.9242825145
 10
248.4726219056
 20
195.8533069197
 10
248.5961679653
 20
195.7801948135
 10
248.6848742103
 20
195.7054151595
 10
248.7379798944
 20
195.6294525049
 10
248.7549507746
 20
195.5528041396
 10
248.735487376
 20
195.4759770468
 10
248.6795319076
 20
195.3994846555
 10
248.5872736534
 20
195.3238434114
 10
248.4591526704
 20
195.2495691855
 10
248.2958616302
 20
195.1771735471
 10
248.09834566
 20
195.1071599302
 10
247.8678000505
 20
195.0400197295
 10
247.6056657286
 20
194.9762283641
 10
247.3136224174
 20
194.9162413535
 10
246.9935794388
 20
194.8604904502
 10
246.6476641514
 20
194.8093798793
 10
246.278208057
 20
194.7632827335
 10
245.8877306455
 20
194.7225375753
 10
245.4789210965
 20
194.687445294
 10
245.0546179924
 20
194.658266266
 10
244.6177872402
 20
194.6352178618
 10
244.1714984375
 20
194.6184723403
 10
243.7188999498
 20
194.6081551635
 10
243.2631929949
 20
194.6043437603
 10
242.8076050532
 20
194.6070667598
 10
242.3553629374
 20
194.616303707
 10
241.9096658617
 20
194.631985266
 10
241.473658854
 20
194.6539939069
 10
241.0504068431
 20
194.6821650651
 10
240.6428697405
 20
194.7162887533
 10
240.2538788149
 20
194.7561115997
 10
239.8861146259
 20
194.8013392788
 10
239.5420867553
 20
194.8516392965
 10
239.2241155327
 20
194.9066440851
 10
238.9343159137
 20
194.9659543631
 10
238.6745836276
 20
195.0291427081
 10
238.4465836679
 20
195.0957572959
 10
238.2517411582
 20
195.165325752
 10
238.0912345872
 20
195.237359071
 10
237.9659913678
 20
195.3113555528
 10
237.8766856449
 20
195.3868047155
 10
237.8237382458
 20
195.463191143
 10
237.807318644
 20
195.5399982319
 10
237.8273487878
 20
195.6167118076
 10
237.8835086326
 20
195.6928235819
 10
237.9752432035
 20
195.7678344322
 10
238.1017710149
 20
195.8412574844
 10
238.2620936691
 20
195.9126209896
 10
238.4550064652
 20
195.9814709853
 10
238.679109851
 20
196.047373739
 10
238.9152420283
 20
196.1059114901
  0
LWPOLYLINE
  5
3BF
330
1F
100
AcDbEntity
  8
0
  6
CONTINUOUS
 62
     7
100
AcDbPolyline
 90
       35
 70
   128
 43
0.0
 10
239.0830105786
 20
195.5114911336
 10
239.1135729326
 20
195.4528244871
 10
239.1832114379
 20
195.3860341704
 10
239.2892765645
 20
195.3206331701
 10
239.4309802071
 20
195.257211764
 10
239.607202219
 20
195.1963472268
 10
239.8164956513
 20
195.1385980763
 10
240.0570956641
 20
195.0844983417
 10
240.3269321859
 20
195.0345519361
 10
240.623646326
 20
194.9892272115
 10
240.9446104804
 20
194.948951785
 10
241.2869519877
 20
194.914107718
 10
241.6475801221
 20
194.8850271323
 10
242.02321613
 20
194.8619883405
 10
242.4104259473
 20
194.8452125612
 10
242.8056551672
 20
194.8348612811
 10
243.2052657742
 20
194.8310343143
 10
243.6055741139
 20
194.8337685959
 10
244.002889536
 20
194.8430377347
 10
244.3935531318
 20
194.8587523331
 10
244.773975984
 20
194.8807610678
 10
245.140676361
 20
194.9088525106
 10
245.4903153146
 20
194.9427576532
 10
245.8197301814
 20
194.9821530881
 10
246.1259655423
 20
195.0266647859
 10
246.4063012566
 20
195.0758723981
 10
246.6582772561
 20
195.1293140109
 10
246.8797148629
 20
195.1864912664
 10
247.0687344664
 20
195.2468747676
 10
247.2237694754
 20
195.3099096822
 10
247.3435765301
 20
195.3750214615
 10
247.4272420302
 20
195.4416215967
 10
247.4741850907
 20
195.5091133363
 10
247.4841570945
 20
195.5768972994
 10
247.4801152518
 20
195.5965995012
  0
LWPOLYLINE
  5
3C0
330
1F
100
AcDbEntity
  8
0
  6
CONTINUOUS
 62
     7
100
AcDbPolyline
 90
       40
 70
   128
 43
0.0
 10
248.7452353609
 20
194.5208271123
 10
248.7517634866
 20
194.4710816985
 10
248.7323166285
 20
194.3924811732
 10
248.6764191594
 20
194.3142233792
 10
248.5842603937
 20
194.2368366745
 10
248.4562801228
 20
194.160848821
 10
248.2931704492
 20
194.086783172
 10
248.0958756189
 20
194.0151547508
 10
247.8655897272
 20
193.9464662572
 10
247.6037521906
 20
193.8812040413
 10
247.3120409099
 20
193.8198340903
 10
246.9923630804
 20
193.7627980729
 10
246.6468436407
 20
193.7105094935
 10
246.2778113943
 20
193.663350006
 10
245.8877828739
 20
193.6216659381
 10
245.4794440658
 20
193.5857650779
 10
245.0556301496
 20
193.5559137697
 10
244.6193034501
 20
193.5323343652
 10
244.1735298365
 20
193.5152030695
 10
243.7214538345
 20
193.5046482184
 10
243.2662727484
 20
193.5007490143
 10
242.8112101097
 20
193.5035347418
 10
242.3594887859
 20
193.5129844775
 10
241.9143040892
 20
193.5290272975
 10
241.478797227
 20
193.5515429799
 10
241.0560294257
 20
193.5803631901
 10
240.6489570487
 20
193.6152731292
 10
240.2604080027
 20
193.6560136182
 10
239.8930597015
 20
193.7022835838
 10
239.5494188236
 20
193.753742906
 10
239.2318030605
 20
193.8100155837
 10
238.9423250133
 20
193.8706931702
 10
238.6828783555
 20
193.9353384272
 10
238.4551263341
 20
194.0034891485
 10
238.2604926418
 20
194.0746620998
 10
238.1001546551
 20
194.1483570265
 10
237.9750389924
 20
194.2240606806
 10
237.8858193175
 20
194.3012508224
 10
237.832916283
 20
194.3794001566
 10
237.822869667
 20
194.40741993
  0
LINE
  5
3C1
330
1F
100
AcDbEntity
  8
0
  6
CONTINUOUS
 62
     7
100
AcDbLine
 10
240.3315051011
 20
199.6595731453
 30
0.0
 11
240.3349737041
 21
199.0640157087
 31
0.0
  0
SPLINE
  5
3C2
330
1F
100
AcDbEntity
  8
0
  6
CONTINUOUS
 62
     7
100
AcDbSpline
210
0.0
220
0.0
230
1.0
 70
     8
 71
     3
 72
    14
 73
    10
 74
     0
 42
0.000000001
 43
0.00000001
 40
0.0
 40
0.0
 40
0.0
 40
0.0
 40
0.1576103213932886
 40
0.3195416563012347
 40
0.4772348747177163
 40
0.6398298550118108
 40
0.7924824295099426
 40
0.9492693014368069
 40
1.0
 40
1.0
 40
1.0
 40
1.0
 10
240.3349737040751
 20
199.0640157086717
 30
0.0
 10
240.4045875254147
 20
199.009813171683
 30
0.0
 10
240.5458081370644
 20
198.8998563372611
 30
0.0
 10
240.7900844545483
 20
198.7924098460318
 30
0.0
 10
241.0558188829081
 20
198.7320880255882
 30
0.0
 10
241.3305831757246
 20
198.7263875339257
 30
0.0
 10
241.6089383126616
 20
198.772617270058
 30
0.0
 10
241.8189711374685
 20
198.843715496876
 30
0.0
 10
241.9357596065833
 20
198.899435838449
 30
0.0
 10
241.9643176213124
 20
198.9130610049351
 30
0.0
  0
LINE
  5
3C3
330
1F
100
AcDbEntity
  8
0
  6
CONTINUOUS
 62
     7
100
AcDbLine
 10
241.9643176213
 20
198.9130610049
 30
0.0
 11
241.961849521
 21
199.5107127933
 31
0.0
  0
LWPOLYLINE
  5
3C4
330
1F
100
AcDbEntity
  8
0
  6
CONTINUOUS
 62
     7
100
AcDbPolyline
 90
       10
 70
   128
 43
0.0
 10
240.3315051011
 20
199.6595731453
 10
240.0597868785
 20
199.7037250649
 10
239.8166253587
 20
199.7516017548
 10
239.6040769179
 20
199.802765293
 10
239.4239045123
 20
199.8567510182
 10
239.2775650931
 20
199.913072354
 10
239.1662005865
 20
199.9712257291
 10
239.0906323749
 20
200.0306955263
 10
239.0513591627
 20
200.0909589975
 10
239.0457511664
 20
200.1162762364
  0
LWPOLYLINE
  5
3C5
330
1F
100
AcDbEntity
  8
0
  6
CONTINUOUS
 62
     7
100
AcDbPolyline
 90
       31
 70
   128
 43
0.0
 10
241.5836536973
 20
200.6056507115
 10
241.5660113758
 20
200.7925284187
 10
241.515525576
 20
200.9742540613
 10
241.4344084866
 20
201.1428383347
 10
241.3262268465
 20
201.2908714909
 10
241.1957423197
 20
201.4118544407
 10
241.0486975465
 20
201.5004878827
 10
240.8915582425
 20
201.5529059352
 10
240.7312238269
 20
201.5668437128
 10
240.5747204054
 20
201.5417317743
 10
240.4288904773
 20
201.4787141112
 10
240.3000934746
 20
201.3805900983
 10
240.1939302821
 20
201.2516843389
 10
240.1150033408
 20
201.0976514424
 10
240.0667219671
 20
200.9252253299
 10
240.051160277
 20
200.7419246253
 10
240.0689727338
 20
200.5557270494
 10
240.1193699509
 20
200.3747265228
 10
240.2001550559
 20
200.2067869703
 10
240.3078187135
 20
200.0592066613
 10
240.4376888242
 20
199.9384063835
 10
240.5841289862
 20
199.8496538529
 10
240.7407780265
 20
199.7968355435
 10
240.9008212969
 20
199.7822855492
 10
241.0572830325
 20
199.8066791691
 10
241.2033279415
 20
199.8689966148
 10
241.3325594201
 20
199.966559585
 10
241.439301459
 20
200.0951404853
 10
241.51885153
 20
200.2491408775
 10
241.567692572
 20
200.4218324615
 10
241.5836536973
 20
200.6056507115
  0
ARC
  5
3C6
330
1F
100
AcDbEntity
  8
0
  6
CONTINUOUS
 62
     7
100
AcDbCircle
 10
241.052873005
 20
200.7742934031
 30
0.0
 40
0.8573166702624315
100
AcDbArc
 50
354.2482578103
 51
103.0810422712
  0
ARC
  5
3C7
330
1F
100
AcDbEntity
  8
0
  6
CONTINUOUS
 62
     7
100
AcDbCircle
 10
241.1068180234
 20
200.6400401712
 30
0.0
 40
0.8005159915708439
100
AcDbArc
 50
293.6332660123
 51
3.4615704831
  0
LINE
  5
3C8
330
1F
100
AcDbEntity
  8
0
  6
CONTINUOUS
 62
     7
100
AcDbLine
 10
241.961849521
 20
199.5107127933
 30
0.0
 11
241.9521484419
 21
201.8598341383
 31
0.0
  0
LWPOLYLINE
  5
3C9
330
1F
100
AcDbEntity
  8
0
  6
CONTINUOUS
 62
     7
100
AcDbPolyline
 90
        3
 70
   128
 43
0.0
 10
240.5163161941
 20
202.6898168306
 10
240.5065604347
 20
202.6862844982
 10
240.3143817795
 20
202.5996391305
  0
ARC
  5
3CA
330
1F
100
AcDbEntity
  8
0
  6
CONTINUOUS
 62
     7
100
AcDbCircle
 10
241.2748909645
 20
200.3019256452
 30
0.0
 40
1.554305461456786
100
AcDbArc
 50
232.7914122443
 51
289.8467719539
  0
LINE
  5
3CB
330
1F
100
AcDbEntity
  8
0
  6
CONTINUOUS
 62
     7
100
AcDbLine
 10
240.3178716142
 20
202.0004362025
 30
0.0
 11
240.3214854423
 21
201.379943683
 31
0.0
  0
LINE
  5
3CC
330
1F
100
AcDbEntity
  8
0
  6
CONTINUOUS
 62
     7
100
AcDbLine
 10
240.3298175332
 20
199.9493277314
 30
0.0
 11
240.3315051011
 21
199.6595731453
 31
0.0
  0
LINE
  5
3CD
330
1F
100
AcDbEntity
  8
0
  6
CONTINUOUS
 62
     7
100
AcDbLine
 10
264.0408892407
 20
178.5144919408
 30
0.0
 11
264.0290899699
 21
177.9015508679
 31
0.0
  0
LINE
  5
3CE
330
1F
100
AcDbEntity
  8
0
  6
CONTINUOUS
 62
     7
100
AcDbLine
 10
263.9065913191
 20
177.8061230796
 30
0.0
 11
264.0290899699
 21
177.9015508679
 31
0.0
  0
LINE
  5
3CF
330
1F
100
AcDbEntity
  8
0
  6
CONTINUOUS
 62
     7
100
AcDbLine
 10
263.9065913191
 20
177.8061230796
 30
0.0
 11
263.9216624367
 21
178.5942838768
 31
0.0
  0
LINE
  5
3D0
330
1F
100
AcDbEntity
  8
0
  6
CONTINUOUS
 62
     7
100
AcDbLine
 10
264.0408892407
 20
178.5144919408
 30
0.0
 11
263.9216624367
 21
178.5942838768
 31
0.0
  0
LINE
  5
3D1
330
1F
100
AcDbEntity
  8
0
  6
CONTINUOUS
 62
     7
100
AcDbLine
 10
264.3177830788
 20
178.6441614522
 30
0.0
 11
264.0408892407
 21
178.5144919408
 31
0.0
  0
LINE
  5
3D2
330
1F
100
AcDbEntity
  8
0
  6
CONTINUOUS
 62
     7
100
AcDbLine
 10
263.9216624367
 20
178.5942838768
 30
0.0
 11
264.2778554875
 21
178.7607226739
 31
0.0
  0
LINE
  5
3D3
330
1F
100
AcDbEntity
  8
0
  6
CONTINUOUS
 62
     7
100
AcDbLine
 10
264.3177830788
 20
178.6441614522
 30
0.0
 11
264.2778554875
 21
178.7607226739
 31
0.0
  0
LINE
  5
3D4
330
1F
100
AcDbEntity
  8
0
  6
CONTINUOUS
 62
     7
100
AcDbLine
 10
263.8254313095
 20
177.8169551298
 30
0.0
 11
263.8229336766
 21
177.6857446546
 31
0.0
  0
LINE
  5
3D5
330
1F
100
AcDbEntity
  8
0
  6
CONTINUOUS
 62
     7
100
AcDbLine
 10
263.8229336766
 20
177.6857446546
 30
0.0
 11
263.904081921
 21
177.6748913274
 31
0.0
  0
LINE
  5
3D6
330
1F
100
AcDbEntity
  8
0
  6
CONTINUOUS
 62
     7
100
AcDbLine
 10
263.8890402353
 20
176.8882697004
 30
0.0
 11
263.904081921
 21
177.6748913274
 31
0.0
  0
LINE
  5
3D7
330
1F
100
AcDbEntity
  8
0
  6
CONTINUOUS
 62
     7
100
AcDbLine
 10
263.80796251
 20
176.8992504319
 30
0.0
 11
263.8890402353
 21
176.8882697004
 31
0.0
  0
LINE
  5
3D8
330
1F
100
AcDbEntity
  8
0
  6
CONTINUOUS
 62
     7
100
AcDbLine
 10
263.80796251
 20
176.8992504319
 30
0.0
 11
263.8054697513
 21
176.7682960233
 31
0.0
  0
LINE
  5
3D9
330
1F
100
AcDbEntity
  8
0
  6
CONTINUOUS
 62
     7
100
AcDbLine
 10
263.8054697513
 20
176.7682960233
 30
0.0
 11
263.8865357353
 21
176.7572941007
 31
0.0
  0
LINE
  5
3DA
330
1F
100
AcDbEntity
  8
0
  6
CONTINUOUS
 62
     7
100
AcDbLine
 10
263.8715233952
 20
175.9722071397
 30
0.0
 11
263.8865357353
 21
176.7572941007
 31
0.0
  0
LINE
  5
3DB
330
1F
100
AcDbEntity
  8
0
  6
CONTINUOUS
 62
     7
100
AcDbLine
 10
263.8715233952
 20
175.9722071397
 30
0.0
 11
263.2985268609
 21
176.0509369754
 31
0.0
  0
LINE
  5
3DC
330
1F
100
AcDbEntity
  8
0
  6
CONTINUOUS
 62
     7
100
AcDbLine
 10
263.9216624367
 20
178.5942838768
 30
0.0
 11
263.3005898835
 21
178.6761253866
 31
0.0
  0
LINE
  5
3DD
330
1F
100
AcDbEntity
  8
0
  6
CONTINUOUS
 62
     7
100
AcDbLine
 10
263.8254313095
 20
177.8169551298
 30
0.0
 11
263.9065913191
 21
177.8061230796
 31
0.0
  0
LINE
  5
3DE
330
1F
100
AcDbEntity
  8
0
  6
CONTINUOUS
 62
     7
100
AcDbLine
 10
265.101531678
 20
179.1456029352
 30
0.0
 11
263.1450210882
 21
179.4004693786
 31
0.0
  0
LINE
  5
3DF
330
1F
100
AcDbEntity
  8
0
  6
CONTINUOUS
 62
     7
100
AcDbLine
 10
264.7497951683
 20
178.9812465518
 30
0.0
 11
265.101531678
 21
179.1456029352
 31
0.0
  0
LINE
  5
3E0
330
1F
100
AcDbEntity
  8
0
  6
CONTINUOUS
 62
     7
100
AcDbLine
 10
264.6689318096
 20
178.9918165873
 30
0.0
 11
264.7497951683
 21
178.9812465518
 31
0.0
  0
LINE
  5
3E1
330
1F
100
AcDbEntity
  8
0
  6
CONTINUOUS
 62
     7
100
AcDbLine
 10
264.6689318096
 20
178.9918165873
 30
0.0
 11
264.6100986416
 21
178.9643472455
 31
0.0
  0
LINE
  5
3E2
330
1F
100
AcDbEntity
  8
0
  6
CONTINUOUS
 62
     7
100
AcDbLine
 10
264.6100986416
 20
178.9643472455
 30
0.0
 11
264.6909881435
 21
178.9537677157
 31
0.0
  0
LINE
  5
3E3
330
1F
100
AcDbEntity
  8
0
  6
CONTINUOUS
 62
     7
100
AcDbLine
 10
264.3370338839
 20
178.7883750414
 30
0.0
 11
264.6909881435
 21
178.9537677157
 31
0.0
  0
LINE
  5
3E4
330
1F
100
AcDbEntity
  8
0
  6
CONTINUOUS
 62
     7
100
AcDbLine
 10
264.2559872212
 20
178.7990118067
 30
0.0
 11
264.3370338839
 21
178.7883750414
 31
0.0
  0
LINE
  5
3E5
330
1F
100
AcDbEntity
  8
0
  6
CONTINUOUS
 62
     7
100
AcDbLine
 10
264.2559872212
 20
178.7990118067
 30
0.0
 11
264.1967825811
 21
178.7713690237
 31
0.0
  0
LINE
  5
3E6
330
1F
100
AcDbEntity
  8
0
  6
CONTINUOUS
 62
     7
100
AcDbLine
 10
264.1967825811
 20
178.7713690237
 30
0.0
 11
264.2778554875
 21
178.7607226739
 31
0.0
  0
LINE
  5
3E7
330
1F
100
AcDbEntity
  8
0
  6
CONTINUOUS
 62
     7
100
AcDbLine
 10
264.6325816198
 20
177.1658913519
 30
0.0
 11
264.9838912202
 21
177.3347670039
 31
0.0
  0
LINE
  5
3E8
330
1F
100
AcDbEntity
  8
0
  6
CONTINUOUS
 62
     7
100
AcDbLine
 10
264.6545725726
 20
177.126783019
 30
0.0
 11
264.6325816198
 21
177.1658913519
 31
0.0
  0
LINE
  5
3E9
330
1F
100
AcDbEntity
  8
0
  6
CONTINUOUS
 62
     7
100
AcDbLine
 10
264.2203263958
 20
176.9677189432
 30
0.0
 11
264.5738463592
 21
177.1376571237
 31
0.0
  0
LINE
  5
3EA
330
1F
100
AcDbEntity
  8
0
  6
CONTINUOUS
 62
     7
100
AcDbLine
 10
264.2421298706
 20
176.9283641406
 30
0.0
 11
264.2203263958
 21
176.9677189432
 31
0.0
  0
LINE
  5
3EB
330
1F
100
AcDbEntity
  8
0
  6
CONTINUOUS
 62
     7
100
AcDbLine
 10
263.8054697513
 20
176.7682960233
 30
0.0
 11
264.1612210043
 21
176.9393067919
 31
0.0
  0
LINE
  5
3EC
330
1F
100
AcDbEntity
  8
0
  6
CONTINUOUS
 62
     7
100
AcDbLine
 10
263.8229336766
 20
177.6857446546
 30
0.0
 11
264.1789844651
 21
177.8544452263
 31
0.0
  0
LINE
  5
3ED
330
1F
100
AcDbEntity
  8
0
  6
CONTINUOUS
 62
     7
100
AcDbLine
 10
264.2778554875
 20
178.7607226739
 30
0.0
 11
264.2559872212
 21
178.7990118067
 31
0.0
  0
LINE
  5
3EE
330
1F
100
AcDbEntity
  8
0
  6
CONTINUOUS
 62
     7
100
AcDbLine
 10
264.6909881435
 20
178.9537677157
 30
0.0
 11
264.6689318096
 21
178.9918165873
 31
0.0
  0
LINE
  5
3EF
330
1F
100
AcDbEntity
  8
0
  6
CONTINUOUS
 62
     7
100
AcDbLine
 10
265.0023401654
 20
178.2445597319
 30
0.0
 11
265.0038475062
 21
178.3188928509
 31
0.0
  0
LINE
  5
3F0
330
1F
100
AcDbEntity
  8
0
  6
CONTINUOUS
 62
     7
100
AcDbLine
 10
264.6507390664
 20
178.0779674695
 30
0.0
 11
265.0023401654
 21
178.2445597319
 31
0.0
  0
LINE
  5
3F1
330
1F
100
AcDbEntity
  8
0
  6
CONTINUOUS
 62
     7
100
AcDbLine
 10
264.672762667
 20
178.0393878017
 30
0.0
 11
264.6507390664
 21
178.0779674695
 31
0.0
  0
LINE
  5
3F2
330
1F
100
AcDbEntity
  8
0
  6
CONTINUOUS
 62
     7
100
AcDbLine
 10
264.9838912202
 20
177.3347670039
 30
0.0
 11
264.985382378
 21
177.408302074
 31
0.0
  0
LINE
  5
3F3
330
1F
100
AcDbEntity
  8
0
  6
CONTINUOUS
 62
     7
100
AcDbLine
 10
264.5919548918
 20
178.0501149153
 30
0.0
 11
264.2381394404
 21
177.8824734697
 31
0.0
  0
LINE
  5
3F4
330
1F
100
AcDbEntity
  8
0
  6
CONTINUOUS
 62
     7
100
AcDbLine
 10
264.2381394404
 20
177.8824734697
 30
0.0
 11
264.2599752685
 21
177.8436504267
 31
0.0
  0
LINE
  5
3F5
330
1F
100
AcDbEntity
  8
0
  6
CONTINUOUS
 62
     7
100
AcDbLine
 10
264.3058285569
 20
178.0324242336
 30
0.0
 11
264.3177830788
 21
178.6441614522
 31
0.0
  0
LINE
  5
3F6
330
1F
100
AcDbEntity
  8
0
  6
CONTINUOUS
 62
     7
100
AcDbLine
 10
264.0290899699
 20
177.9015508679
 30
0.0
 11
264.3058285569
 21
178.0324242336
 31
0.0
  0
LINE
  5
3F7
330
1F
100
AcDbEntity
  8
0
  6
CONTINUOUS
 62
     7
100
AcDbLine
 10
264.2625274513
 20
177.9745512814
 30
0.0
 11
263.9065913191
 21
177.8061230796
 31
0.0
  0
LINE
  5
3F8
330
1F
100
AcDbEntity
  8
0
  6
CONTINUOUS
 62
     7
100
AcDbLine
 10
264.2625274513
 20
177.9745512814
 30
0.0
 11
264.3058285569
 21
178.0324242336
 31
0.0
  0
LINE
  5
3F9
330
1F
100
AcDbEntity
  8
0
  6
CONTINUOUS
 62
     7
100
AcDbLine
 10
264.2998571241
 20
177.7268538615
 30
0.0
 11
264.023196099
 21
177.5953797846
 31
0.0
  0
LINE
  5
3FA
330
1F
100
AcDbEntity
  8
0
  6
CONTINUOUS
 62
     7
100
AcDbLine
 10
264.023196099
 20
177.5953797846
 30
0.0
 11
263.904081921
 21
177.6748913274
 31
0.0
  0
LINE
  5
3FB
330
1F
100
AcDbEntity
  8
0
  6
CONTINUOUS
 62
     7
100
AcDbLine
 10
263.904081921
 20
177.6748913274
 30
0.0
 11
264.2599752685
 21
177.8436504267
 31
0.0
  0
LINE
  5
3FC
330
1F
100
AcDbEntity
  8
0
  6
CONTINUOUS
 62
     7
100
AcDbLine
 10
264.2998571241
 20
177.7268538615
 30
0.0
 11
264.2599752685
 21
177.8436504267
 31
0.0
  0
LINE
  5
3FD
330
1F
100
AcDbEntity
  8
0
  6
CONTINUOUS
 62
     7
100
AcDbLine
 10
264.023196099
 20
177.5953797846
 30
0.0
 11
264.0114198676
 21
176.9836355497
 31
0.0
  0
LINE
  5
3FE
330
1F
100
AcDbEntity
  8
0
  6
CONTINUOUS
 62
     7
100
AcDbLine
 10
263.8890402353
 20
176.8882697004
 30
0.0
 11
264.0114198676
 21
176.9836355497
 31
0.0
  0
LINE
  5
3FF
330
1F
100
AcDbEntity
  8
0
  6
CONTINUOUS
 62
     7
100
AcDbLine
 10
264.1789844651
 20
177.8544452263
 30
0.0
 11
264.2599752685
 21
177.8436504267
 31
0.0
  0
LINE
  5
400
330
1F
100
AcDbEntity
  8
0
  6
CONTINUOUS
 62
     7
100
AcDbLine
 10
264.2879258958
 20
177.1163086227
 30
0.0
 11
264.2998571241
 21
177.7268538615
 31
0.0
  0
LINE
  5
401
330
1F
100
AcDbEntity
  8
0
  6
CONTINUOUS
 62
     7
100
AcDbLine
 10
264.0114198676
 20
176.9836355497
 30
0.0
 11
264.2879258958
 21
177.1163086227
 31
0.0
  0
LINE
  5
402
330
1F
100
AcDbEntity
  8
0
  6
CONTINUOUS
 62
     7
100
AcDbLine
 10
264.2446770851
 20
177.0590101776
 30
0.0
 11
263.8890402353
 21
176.8882697004
 31
0.0
  0
LINE
  5
403
330
1F
100
AcDbEntity
  8
0
  6
CONTINUOUS
 62
     7
100
AcDbLine
 10
264.2446770851
 20
177.0590101776
 30
0.0
 11
264.2879258958
 21
177.1163086227
 31
0.0
  0
LINE
  5
404
330
1F
100
AcDbEntity
  8
0
  6
CONTINUOUS
 62
     7
100
AcDbLine
 10
264.0055374996
 20
176.6780620089
 30
0.0
 11
263.9937842402
 21
176.0675111099
 31
0.0
  0
LINE
  5
405
330
1F
100
AcDbEntity
  8
0
  6
CONTINUOUS
 62
     7
100
AcDbLine
 10
263.9937842402
 20
176.0675111099
 30
0.0
 11
263.8715233952
 21
175.9722071397
 31
0.0
  0
LINE
  5
406
330
1F
100
AcDbEntity
  8
0
  6
CONTINUOUS
 62
     7
100
AcDbLine
 10
264.0055374996
 20
176.6780620089
 30
0.0
 11
263.8865357353
 21
176.7572941007
 31
0.0
  0
LINE
  5
407
330
1F
100
AcDbEntity
  8
0
  6
CONTINUOUS
 62
     7
100
AcDbLine
 10
264.2819660927
 20
176.8113333694
 30
0.0
 11
264.0055374996
 21
176.6780620089
 31
0.0
  0
LINE
  5
408
330
1F
100
AcDbEntity
  8
0
  6
CONTINUOUS
 62
     7
100
AcDbLine
 10
263.8865357353
 20
176.7572941007
 30
0.0
 11
264.2421298706
 21
176.9283641406
 31
0.0
  0
LINE
  5
409
330
1F
100
AcDbEntity
  8
0
  6
CONTINUOUS
 62
     7
100
AcDbLine
 10
264.2421298706
 20
176.9283641406
 30
0.0
 11
264.2819660927
 21
176.8113333694
 31
0.0
  0
LINE
  5
40A
330
1F
100
AcDbEntity
  8
0
  6
CONTINUOUS
 62
     7
100
AcDbLine
 10
264.1612210043
 20
176.9393067919
 30
0.0
 11
264.2421298706
 21
176.9283641406
 31
0.0
  0
LINE
  5
40B
330
1F
100
AcDbEntity
  8
0
  6
CONTINUOUS
 62
     7
100
AcDbLine
 10
264.2700580899
 20
176.2019766299
 30
0.0
 11
264.2819660927
 21
176.8113333694
 31
0.0
  0
LINE
  5
40C
330
1F
100
AcDbEntity
  8
0
  6
CONTINUOUS
 62
     7
100
AcDbLine
 10
263.9937842402
 20
176.0675111099
 30
0.0
 11
264.2700580899
 21
176.2019766299
 31
0.0
  0
LINE
  5
40D
330
1F
100
AcDbEntity
  8
0
  6
CONTINUOUS
 62
     7
100
AcDbLine
 10
264.2268614529
 20
176.1452505661
 30
0.0
 11
264.2700580899
 21
176.2019766299
 31
0.0
  0
LINE
  5
40E
330
1F
100
AcDbEntity
  8
0
  6
CONTINUOUS
 62
     7
100
AcDbLine
 10
264.2268614529
 20
176.1452505661
 30
0.0
 11
263.8715233952
 21
175.9722071397
 31
0.0
  0
LINE
  5
40F
330
1F
100
AcDbEntity
  8
0
  6
CONTINUOUS
 62
     7
100
AcDbLine
 10
264.7309470582
 20
178.8376463332
 30
0.0
 11
264.4557937277
 21
178.7087919023
 31
0.0
  0
LINE
  5
410
330
1F
100
AcDbEntity
  8
0
  6
CONTINUOUS
 62
     7
100
AcDbLine
 10
264.3370338839
 20
178.7883750414
 30
0.0
 11
264.4557937277
 21
178.7087919023
 31
0.0
  0
LINE
  5
411
330
1F
100
AcDbEntity
  8
0
  6
CONTINUOUS
 62
     7
100
AcDbLine
 10
264.7309470582
 20
178.8376463332
 30
0.0
 11
264.6909881435
 21
178.9537677157
 31
0.0
  0
LINE
  5
412
330
1F
100
AcDbEntity
  8
0
  6
CONTINUOUS
 62
     7
100
AcDbLine
 10
264.321663319
 20
178.0025342451
 30
0.0
 11
264.3370338839
 21
178.7883750414
 31
0.0
  0
LINE
  5
413
330
1F
100
AcDbEntity
  8
0
  6
CONTINUOUS
 62
     7
100
AcDbLine
 10
264.4557937277
 20
178.7087919023
 30
0.0
 11
264.4437621081
 21
178.0976548481
 31
0.0
  0
LINE
  5
414
330
1F
100
AcDbEntity
  8
0
  6
CONTINUOUS
 62
     7
100
AcDbLine
 10
264.321663319
 20
178.0025342451
 30
0.0
 11
264.4437621081
 21
178.0976548481
 31
0.0
  0
LINE
  5
415
330
1F
100
AcDbEntity
  8
0
  6
CONTINUOUS
 62
     7
100
AcDbLine
 10
264.3058285569
 20
178.0324242336
 30
0.0
 11
264.321663319
 21
178.0025342451
 31
0.0
  0
LINE
  5
416
330
1F
100
AcDbEntity
  8
0
  6
CONTINUOUS
 62
     7
100
AcDbLine
 10
264.4437621081
 20
178.0976548481
 30
0.0
 11
264.7187622903
 21
178.2277060991
 31
0.0
  0
LINE
  5
417
330
1F
100
AcDbEntity
  8
0
  6
CONTINUOUS
 62
     7
100
AcDbLine
 10
264.7187622903
 20
178.2277060991
 30
0.0
 11
264.7309470582
 21
178.8376463332
 31
0.0
  0
LINE
  5
418
330
1F
100
AcDbEntity
  8
0
  6
CONTINUOUS
 62
     7
100
AcDbLine
 10
264.7187622903
 20
178.2277060991
 30
0.0
 11
264.6753641379
 21
178.1699047015
 31
0.0
  0
LINE
  5
419
330
1F
100
AcDbEntity
  8
0
  6
CONTINUOUS
 62
     7
100
AcDbLine
 10
264.6753641379
 20
178.1699047015
 30
0.0
 11
264.321663319
 21
178.0025342451
 31
0.0
  0
LINE
  5
41A
330
1F
100
AcDbEntity
  8
0
  6
CONTINUOUS
 62
     7
100
AcDbLine
 10
264.7126758281
 20
177.9230324089
 30
0.0
 11
264.4377521579
 21
177.7923839529
 31
0.0
  0
LINE
  5
41B
330
1F
100
AcDbEntity
  8
0
  6
CONTINUOUS
 62
     7
100
AcDbLine
 10
264.319104054
 20
177.8716883787
 30
0.0
 11
264.4377521579
 21
177.7923839529
 31
0.0
  0
LINE
  5
41C
330
1F
100
AcDbEntity
  8
0
  6
CONTINUOUS
 62
     7
100
AcDbLine
 10
264.319104054
 20
177.8716883787
 30
0.0
 11
264.672762667
 21
178.0393878017
 31
0.0
  0
LINE
  5
41D
330
1F
100
AcDbEntity
  8
0
  6
CONTINUOUS
 62
     7
100
AcDbLine
 10
264.7126758281
 20
177.9230324089
 30
0.0
 11
264.672762667
 21
178.0393878017
 31
0.0
  0
LINE
  5
41E
330
1F
100
AcDbEntity
  8
0
  6
CONTINUOUS
 62
     7
100
AcDbLine
 10
264.3037634113
 20
177.0873773941
 30
0.0
 11
264.319104054
 21
177.8716883787
 31
0.0
  0
LINE
  5
41F
330
1F
100
AcDbEntity
  8
0
  6
CONTINUOUS
 62
     7
100
AcDbLine
 10
264.4377521579
 20
177.7923839529
 30
0.0
 11
264.4257439575
 21
177.1824364605
 31
0.0
  0
LINE
  5
420
330
1F
100
AcDbEntity
  8
0
  6
CONTINUOUS
 62
     7
100
AcDbLine
 10
264.3037634113
 20
177.0873773941
 30
0.0
 11
264.4257439575
 21
177.1824364605
 31
0.0
  0
LINE
  5
421
330
1F
100
AcDbEntity
  8
0
  6
CONTINUOUS
 62
     7
100
AcDbLine
 10
264.5919548918
 20
178.0501149153
 30
0.0
 11
264.672762667
 21
178.0393878017
 31
0.0
  0
LINE
  5
422
330
1F
100
AcDbEntity
  8
0
  6
CONTINUOUS
 62
     7
100
AcDbLine
 10
264.2381394404
 20
177.8824734697
 30
0.0
 11
264.319104054
 21
177.8716883787
 31
0.0
  0
LINE
  5
423
330
1F
100
AcDbEntity
  8
0
  6
CONTINUOUS
 62
     7
100
AcDbLine
 10
264.2879258958
 20
177.1163086227
 30
0.0
 11
264.3037634113
 21
177.0873773941
 31
0.0
  0
LINE
  5
424
330
1F
100
AcDbEntity
  8
0
  6
CONTINUOUS
 62
     7
100
AcDbLine
 10
264.4257439575
 20
177.1824364605
 30
0.0
 11
264.700514728
 21
177.3142769225
 31
0.0
  0
LINE
  5
425
330
1F
100
AcDbEntity
  8
0
  6
CONTINUOUS
 62
     7
100
AcDbLine
 10
264.700514728
 20
177.3142769225
 30
0.0
 11
264.7126758281
 21
177.9230324089
 31
0.0
  0
LINE
  5
426
330
1F
100
AcDbEntity
  8
0
  6
CONTINUOUS
 62
     7
100
AcDbLine
 10
264.700514728
 20
177.3142769225
 30
0.0
 11
264.6571689952
 21
177.2570466453
 31
0.0
  0
LINE
  5
427
330
1F
100
AcDbEntity
  8
0
  6
CONTINUOUS
 62
     7
100
AcDbLine
 10
264.6571689952
 20
177.2570466453
 30
0.0
 11
264.3037634113
 21
177.0873773941
 31
0.0
  0
LINE
  5
428
330
1F
100
AcDbEntity
  8
0
  6
CONTINUOUS
 62
     7
100
AcDbLine
 10
264.4197456998
 20
176.8777594777
 30
0.0
 11
264.4077608503
 21
176.2689980772
 31
0.0
  0
LINE
  5
429
330
1F
100
AcDbEntity
  8
0
  6
CONTINUOUS
 62
     7
100
AcDbLine
 10
264.4077608503
 20
176.2689980772
 30
0.0
 11
264.2858983182
 21
176.1740004882
 31
0.0
  0
LINE
  5
42A
330
1F
100
AcDbEntity
  8
0
  6
CONTINUOUS
 62
     7
100
AcDbLine
 10
264.2858983182
 20
176.1740004882
 30
0.0
 11
264.301209126
 21
176.9567861239
 31
0.0
  0
LINE
  5
42B
330
1F
100
AcDbEntity
  8
0
  6
CONTINUOUS
 62
     7
100
AcDbLine
 10
264.4197456998
 20
176.8777594777
 30
0.0
 11
264.301209126
 21
176.9567861239
 31
0.0
  0
LINE
  5
42C
330
1F
100
AcDbEntity
  8
0
  6
CONTINUOUS
 62
     7
100
AcDbLine
 10
264.6944400824
 20
177.0101947431
 30
0.0
 11
264.4197456998
 21
176.8777594777
 31
0.0
  0
LINE
  5
42D
330
1F
100
AcDbEntity
  8
0
  6
CONTINUOUS
 62
     7
100
AcDbLine
 10
264.301209126
 20
176.9567861239
 30
0.0
 11
264.6545725726
 21
177.126783019
 31
0.0
  0
LINE
  5
42E
330
1F
100
AcDbEntity
  8
0
  6
CONTINUOUS
 62
     7
100
AcDbLine
 10
264.6545725726
 20
177.126783019
 30
0.0
 11
264.6944400824
 21
177.0101947431
 31
0.0
  0
LINE
  5
42F
330
1F
100
AcDbEntity
  8
0
  6
CONTINUOUS
 62
     7
100
AcDbLine
 10
264.2203263958
 20
176.9677189432
 30
0.0
 11
264.301209126
 21
176.9567861239
 31
0.0
  0
LINE
  5
430
330
1F
100
AcDbEntity
  8
0
  6
CONTINUOUS
 62
     7
100
AcDbLine
 10
264.2700580899
 20
176.2019766299
 30
0.0
 11
264.2858983182
 21
176.1740004882
 31
0.0
  0
LINE
  5
431
330
1F
100
AcDbEntity
  8
0
  6
CONTINUOUS
 62
     7
100
AcDbLine
 10
264.5738463592
 20
177.1376571237
 30
0.0
 11
264.6545725726
 21
177.126783019
 31
0.0
  0
LINE
  5
432
330
1F
100
AcDbEntity
  8
0
  6
CONTINUOUS
 62
     7
100
AcDbLine
 10
264.6823025811
 20
176.4026205559
 30
0.0
 11
264.6944400824
 21
177.0101947431
 31
0.0
  0
LINE
  5
433
330
1F
100
AcDbEntity
  8
0
  6
CONTINUOUS
 62
     7
100
AcDbLine
 10
264.4077608503
 20
176.2689980772
 30
0.0
 11
264.6823025811
 21
176.4026205559
 31
0.0
  0
LINE
  5
434
330
1F
100
AcDbEntity
  8
0
  6
CONTINUOUS
 62
     7
100
AcDbLine
 10
264.6390091462
 20
176.3459592926
 30
0.0
 11
264.6823025811
 21
176.4026205559
 31
0.0
  0
LINE
  5
435
330
1F
100
AcDbEntity
  8
0
  6
CONTINUOUS
 62
     7
100
AcDbLine
 10
264.6390091462
 20
176.3459592926
 30
0.0
 11
264.2858983182
 21
176.1740004882
 31
0.0
  0
LINE
  5
436
330
1F
100
AcDbEntity
  8
0
  6
CONTINUOUS
 62
     7
100
AcDbLine
 10
265.1415207396
 20
179.0299181764
 30
0.0
 11
264.8680915574
 21
178.901871165
 31
0.0
  0
LINE
  5
437
330
1F
100
AcDbEntity
  8
0
  6
CONTINUOUS
 62
     7
100
AcDbLine
 10
264.7497951683
 20
178.9812465518
 30
0.0
 11
264.8680915574
 21
178.901871165
 31
0.0
  0
LINE
  5
438
330
1F
100
AcDbEntity
  8
0
  6
CONTINUOUS
 62
     7
100
AcDbLine
 10
265.1415207396
 20
179.0299181764
 30
0.0
 11
265.101531678
 21
179.1456029352
 31
0.0
  0
LINE
  5
439
330
1F
100
AcDbEntity
  8
0
  6
CONTINUOUS
 62
     7
100
AcDbLine
 10
264.7341292095
 20
178.1977122053
 30
0.0
 11
264.7497951683
 21
178.9812465518
 31
0.0
  0
LINE
  5
43A
330
1F
100
AcDbEntity
  8
0
  6
CONTINUOUS
 62
     7
100
AcDbLine
 10
264.8680915574
 20
178.901871165
 30
0.0
 11
264.8558307357
 21
178.2925275935
 31
0.0
  0
LINE
  5
43B
330
1F
100
AcDbEntity
  8
0
  6
CONTINUOUS
 62
     7
100
AcDbLine
 10
264.7341292095
 20
178.1977122053
 30
0.0
 11
264.8558307357
 21
178.2925275935
 31
0.0
  0
LINE
  5
43C
330
1F
100
AcDbEntity
  8
0
  6
CONTINUOUS
 62
     7
100
AcDbLine
 10
264.7187622903
 20
178.2277060991
 30
0.0
 11
264.7341292095
 21
178.1977122053
 31
0.0
  0
LINE
  5
43D
330
1F
100
AcDbEntity
  8
0
  6
CONTINUOUS
 62
     7
100
AcDbLine
 10
264.8558307357
 20
178.2925275935
 30
0.0
 11
265.1291088422
 21
178.4217644518
 31
0.0
  0
LINE
  5
43E
330
1F
100
AcDbEntity
  8
0
  6
CONTINUOUS
 62
     7
100
AcDbLine
 10
265.1291088422
 20
178.4217644518
 30
0.0
 11
265.1415207396
 21
179.0299181764
 31
0.0
  0
LINE
  5
43F
330
1F
100
AcDbEntity
  8
0
  6
CONTINUOUS
 62
     7
100
AcDbLine
 10
265.1291088422
 20
178.4217644518
 30
0.0
 11
265.0856157061
 21
178.3640348492
 31
0.0
  0
LINE
  5
440
330
1F
100
AcDbEntity
  8
0
  6
CONTINUOUS
 62
     7
100
AcDbLine
 10
265.0856157061
 20
178.3640348492
 30
0.0
 11
264.7341292095
 21
178.1977122053
 31
0.0
  0
LINE
  5
441
330
1F
100
AcDbEntity
  8
0
  6
CONTINUOUS
 62
     7
100
AcDbLine
 10
264.7315207521
 20
178.0672499733
 30
0.0
 11
265.0829656134
 21
178.2338996696
 31
0.0
  0
LINE
  5
442
330
1F
100
AcDbEntity
  8
0
  6
CONTINUOUS
 62
     7
100
AcDbLine
 10
265.0829656134
 20
178.2338996696
 30
0.0
 11
265.1229089067
 21
178.1179822225
 31
0.0
  0
LINE
  5
443
330
1F
100
AcDbEntity
  8
0
  6
CONTINUOUS
 62
     7
100
AcDbLine
 10
265.1229089067
 20
178.1179822225
 30
0.0
 11
264.8497062773
 21
177.9881516348
 31
0.0
  0
LINE
  5
444
330
1F
100
AcDbEntity
  8
0
  6
CONTINUOUS
 62
     7
100
AcDbLine
 10
264.7315207521
 20
178.0672499733
 30
0.0
 11
264.8497062773
 21
177.9881516348
 31
0.0
  0
LINE
  5
445
330
1F
100
AcDbEntity
  8
0
  6
CONTINUOUS
 62
     7
100
AcDbLine
 10
264.8497062773
 20
177.9881516348
 30
0.0
 11
264.8374692461
 21
177.3799904149
 31
0.0
  0
LINE
  5
446
330
1F
100
AcDbEntity
  8
0
  6
CONTINUOUS
 62
     7
100
AcDbLine
 10
264.8374692461
 20
177.3799904149
 30
0.0
 11
264.7158851948
 21
177.2852361649
 31
0.0
  0
LINE
  5
447
330
1F
100
AcDbEntity
  8
0
  6
CONTINUOUS
 62
     7
100
AcDbLine
 10
264.7158851948
 20
177.2852361649
 30
0.0
 11
264.7315207521
 21
178.0672499733
 31
0.0
  0
LINE
  5
448
330
1F
100
AcDbEntity
  8
0
  6
CONTINUOUS
 62
     7
100
AcDbLine
 10
265.0023401654
 20
178.2445597319
 30
0.0
 11
265.0829656134
 21
178.2338996696
 31
0.0
  0
LINE
  5
449
330
1F
100
AcDbEntity
  8
0
  6
CONTINUOUS
 62
     7
100
AcDbLine
 10
264.6507390664
 20
178.0779674695
 30
0.0
 11
264.7315207521
 21
178.0672499733
 31
0.0
  0
LINE
  5
44A
330
1F
100
AcDbEntity
  8
0
  6
CONTINUOUS
 62
     7
100
AcDbLine
 10
264.700514728
 20
177.3142769225
 30
0.0
 11
264.7158851948
 21
177.2852361649
 31
0.0
  0
LINE
  5
44B
330
1F
100
AcDbEntity
  8
0
  6
CONTINUOUS
 62
     7
100
AcDbLine
 10
265.1105210427
 20
177.5110060791
 30
0.0
 11
265.1229089067
 21
178.1179822225
 31
0.0
  0
LINE
  5
44C
330
1F
100
AcDbEntity
  8
0
  6
CONTINUOUS
 62
     7
100
AcDbLine
 10
264.8374692461
 20
177.3799904149
 30
0.0
 11
265.1105210427
 21
177.5110060791
 31
0.0
  0
LINE
  5
44D
330
1F
100
AcDbEntity
  8
0
  6
CONTINUOUS
 62
     7
100
AcDbLine
 10
265.1105210427
 20
177.5110060791
 30
0.0
 11
265.0670804454
 21
177.4538442399
 31
0.0
  0
LINE
  5
44E
330
1F
100
AcDbEntity
  8
0
  6
CONTINUOUS
 62
     7
100
AcDbLine
 10
265.0670804454
 20
177.4538442399
 30
0.0
 11
264.7158851948
 21
177.2852361649
 31
0.0
  0
LINE
  5
44F
330
1F
100
AcDbEntity
  8
0
  6
CONTINUOUS
 62
     7
100
AcDbLine
 10
264.713281797
 20
177.155026987
 30
0.0
 11
265.0644354793
 21
177.3239608036
 31
0.0
  0
LINE
  5
450
330
1F
100
AcDbEntity
  8
0
  6
CONTINUOUS
 62
     7
100
AcDbLine
 10
265.0644354793
 20
177.3239608036
 30
0.0
 11
265.1043331065
 21
177.2078117853
 31
0.0
  0
LINE
  5
451
330
1F
100
AcDbEntity
  8
0
  6
CONTINUOUS
 62
     7
100
AcDbLine
 10
265.1043331065
 20
177.2078117853
 30
0.0
 11
264.8313566656
 21
177.0762047716
 31
0.0
  0
LINE
  5
452
330
1F
100
AcDbEntity
  8
0
  6
CONTINUOUS
 62
     7
100
AcDbLine
 10
264.713281797
 20
177.155026987
 30
0.0
 11
264.8313566656
 21
177.0762047716
 31
0.0
  0
LINE
  5
453
330
1F
100
AcDbEntity
  8
0
  6
CONTINUOUS
 62
     7
100
AcDbLine
 10
264.8313566656
 20
177.0762047716
 30
0.0
 11
264.8191433558
 21
176.4692224654
 31
0.0
  0
LINE
  5
454
330
1F
100
AcDbEntity
  8
0
  6
CONTINUOUS
 62
     7
100
AcDbLine
 10
264.8191433558
 20
176.4692224654
 30
0.0
 11
264.6976765529
 21
176.3745292948
 31
0.0
  0
LINE
  5
455
330
1F
100
AcDbEntity
  8
0
  6
CONTINUOUS
 62
     7
100
AcDbLine
 10
264.6976765529
 20
176.3745292948
 30
0.0
 11
264.713281797
 21
177.155026987
 31
0.0
  0
LINE
  5
456
330
1F
100
AcDbEntity
  8
0
  6
CONTINUOUS
 62
     7
100
AcDbLine
 10
264.6325816198
 20
177.1658913519
 30
0.0
 11
264.713281797
 21
177.155026987
 31
0.0
  0
LINE
  5
457
330
1F
100
AcDbEntity
  8
0
  6
CONTINUOUS
 62
     7
100
AcDbLine
 10
264.6823025811
 20
176.4026205559
 30
0.0
 11
264.6976765529
 21
176.3745292948
 31
0.0
  0
LINE
  5
458
330
1F
100
AcDbEntity
  8
0
  6
CONTINUOUS
 62
     7
100
AcDbLine
 10
264.9838912202
 20
177.3347670039
 30
0.0
 11
265.0644354793
 21
177.3239608036
 31
0.0
  0
LINE
  5
459
330
1F
100
AcDbEntity
  8
0
  6
CONTINUOUS
 62
     7
100
AcDbLine
 10
265.0919692062
 20
176.6020098062
 30
0.0
 11
265.1043331065
 21
177.2078117853
 31
0.0
  0
LINE
  5
45A
330
1F
100
AcDbEntity
  8
0
  6
CONTINUOUS
 62
     7
100
AcDbLine
 10
264.8191433558
 20
176.4692224654
 30
0.0
 11
265.0919692062
 21
176.6020098062
 31
0.0
  0
LINE
  5
45B
330
1F
100
AcDbEntity
  8
0
  6
CONTINUOUS
 62
     7
100
AcDbLine
 10
265.0919692062
 20
176.6020098062
 30
0.0
 11
265.0485810259
 21
176.5454136429
 31
0.0
  0
LINE
  5
45C
330
1F
100
AcDbEntity
  8
0
  6
CONTINUOUS
 62
     7
100
AcDbLine
 10
265.0485810259
 20
176.5454136429
 30
0.0
 11
264.6976765529
 21
176.3745292948
 31
0.0
  0
ARC
  5
45D
330
1F
100
AcDbEntity
  8
0
  6
CONTINUOUS
 62
     7
100
AcDbCircle
 10
258.0181787175
 20
188.4067105761
 30
0.0
 40
3.117030062959253
100
AcDbArc
 50
357.6783050757
 51
80.556867638
  0
ARC
  5
45E
330
1F
100
AcDbEntity
  8
0
  6
CONTINUOUS
 62
     7
100
AcDbCircle
 10
260.0038120878
 20
192.8145031596
 30
0.0
 40
4.672473708595673
100
AcDbArc
 50
262.253370321
 51
283.9805930968
  0
ARC
  5
45F
330
1F
100
AcDbEntity
  8
0
  6
CONTINUOUS
 62
     7
100
AcDbCircle
 10
257.6243628436
 20
188.2559262278
 30
0.0
 40
1.751084509648607
100
AcDbArc
 50
357.6678812346
 51
80.4624634194
  0
ARC
  5
460
330
1F
100
AcDbEntity
  8
0
  6
CONTINUOUS
 62
     7
100
AcDbCircle
 10
259.6209822094
 20
190.1580170134
 30
0.0
 40
1.715446902901332
100
AcDbArc
 50
129.5103152752
 51
185.8622572045
  0
LINE
  5
461
330
1F
100
AcDbEntity
  8
0
  6
CONTINUOUS
 62
     7
100
AcDbLine
 10
261.1326500967
 20
188.2804392753
 30
0.0
 11
260.4731408683
 21
147.0417451488
 31
0.0
  0
ARC
  5
462
330
1F
100
AcDbEntity
  8
0
  6
CONTINUOUS
 62
     7
100
AcDbCircle
 10
259.3941148544
 20
149.3897465941
 30
0.0
 40
2.584068096123962
100
AcDbArc
 50
256.4746948597
 51
294.6811856641
  0
LINE
  5
463
330
1F
100
AcDbEntity
  8
0
  6
CONTINUOUS
 62
     7
100
AcDbLine
 10
258.7897664555
 20
146.8773431754
 30
0.0
 11
259.3739970019
 21
188.1846712496
 31
0.0
  0
ARC
  5
464
330
1F
100
AcDbEntity
  8
0
  6
CONTINUOUS
 62
     7
100
AcDbCircle
 10
230.8265910644
 20
189.7349509167
 30
0.0
 40
1.10469568409049
100
AcDbArc
 50
87.7500049328
 51
186.7890067904
  0
LINE
  5
465
330
1F
100
AcDbEntity
  8
0
  6
CONTINUOUS
 62
     7
100
AcDbLine
 10
229.729641277
 20
189.6043610308
 30
0.0
 11
229.9406074137
 21
177.2128903951
 31
0.0
  0
ARC
  5
466
330
1F
100
AcDbEntity
  8
0
  6
CONTINUOUS
 62
     7
100
AcDbCircle
 10
231.4498538959
 20
177.1859271798
 30
0.0
 40
1.509487316605117
100
AcDbArc
 50
178.9764997803
 51
256.9499376127
  0
LINE
  5
467
330
1F
100
AcDbEntity
  8
0
  6
CONTINUOUS
 62
     7
100
AcDbLine
 10
231.1090081463
 20
175.7154251792
 30
0.0
 11
255.8813084843
 21
172.0404158818
 31
0.0
  0
ARC
  5
468
330
1F
100
AcDbEntity
  8
0
  6
CONTINUOUS
 62
     7
100
AcDbCircle
 10
256.0262211923
 20
173.1921483017
 30
0.0
 40
1.160813189096177
100
AcDbArc
 50
262.8286436342
 51
3.0711394964
  0
LINE
  5
469
330
1F
100
AcDbEntity
  8
0
  6
CONTINUOUS
 62
     7
100
AcDbLine
 10
257.1853672026
 20
173.2543398346
 30
0.0
 11
257.3432651736
 21
186.380281886
 31
0.0
  0
ARC
  5
46A
330
1F
100
AcDbEntity
  8
0
  6
CONTINUOUS
 62
     7
100
AcDbCircle
 10
255.7852004456
 20
186.441589916
 30
0.0
 40
1.55927046126298
100
AcDbArc
 50
357.7466403972
 51
80.1840621174
  0
LINE
  5
46B
330
1F
100
AcDbEntity
  8
0
  6
CONTINUOUS
 62
     7
100
AcDbLine
 10
256.0510304903
 20
187.9780334583
 30
0.0
 11
230.8699611184
 21
190.8387949242
 31
0.0
  0
ARC
  5
46C
330
1F
100
AcDbEntity
  8
0
  6
CONTINUOUS
 62
     7
100
AcDbCircle
 10
230.4026771719
 20
152.9667063001
 30
0.0
 40
1.732217811551891
100
AcDbArc
 50
180.3114347406
 51
254.4500691577
  0
ARC
  5
46D
330
1F
100
AcDbEntity
  8
0
  6
CONTINUOUS
 62
     7
100
AcDbCircle
 10
229.1658365754
 20
191.8707923698
 30
0.0
 40
1.236216396275185
100
AcDbArc
 50
88.1282403032
 51
187.1833613292
  0
LINE
  5
46E
330
1F
100
AcDbEntity
  8
0
  6
CONTINUOUS
 62
     7
100
AcDbLine
 10
257.9145065544
 20
189.9828059534
 30
0.0
 11
229.2062145665
 21
193.1063491658
 31
0.0
  0
ARC
  5
46F
330
1F
100
AcDbEntity
  8
0
  6
CONTINUOUS
 62
     7
100
AcDbCircle
 10
257.6106311849
 20
146.8269243951
 30
0.0
 40
1.180212709557312
100
AcDbArc
 50
257.5868006623
 51
2.4484253503
  0
ARC
  5
470
330
1F
100
AcDbEntity
  8
0
  6
CONTINUOUS
 62
     7
100
AcDbCircle
 10
265.2331117501
 20
191.1226668335
 30
0.0
 40
2.927292243429688
100
AcDbArc
 50
357.3876955859
 51
81.3730371061
  0
LINE
  5
471
330
1F
100
AcDbEntity
  8
0
  6
CONTINUOUS
 62
     7
100
AcDbLine
 10
268.1573619658
 20
190.989248117
 30
0.0
 11
261.1326500967
 21
188.2804392753
 31
0.0
  0
LINE
  5
472
330
1F
100
AcDbEntity
  8
0
  6
CONTINUOUS
 62
     7
100
AcDbLine
 10
258.5295855046
 20
191.4815015464
 30
0.0
 11
265.672207422
 21
194.0168394043
 31
0.0
  0
LINE
  5
473
330
1F
100
AcDbEntity
  8
0
  6
CONTINUOUS
 62
     7
100
AcDbLine
 10
229.8639552255
 20
194.5032445724
 30
0.0
 11
258.5295855046
 21
191.4815015464
 31
0.0
  0
ARC
  5
474
330
1F
100
AcDbEntity
  8
0
  6
CONTINUOUS
 62
     7
100
AcDbCircle
 10
230.6200495277
 20
193.2939315971
 30
0.0
 40
1.426224549645697
100
AcDbArc
 50
122.0147070049
 51
187.5576540976
  0
LINE
  5
475
330
1F
100
AcDbEntity
  8
0
  6
CONTINUOUS
 62
     7
100
AcDbLine
 10
267.2413112058
 20
151.7028018736
 30
0.0
 11
268.1573619658
 21
190.989248117
 31
0.0
  0
LINE
  5
476
330
1F
100
AcDbEntity
  8
0
  6
CONTINUOUS
 62
     7
100
AcDbLine
 10
260.4731408683
 20
147.0417451488
 30
0.0
 11
267.2413112058
 21
151.7028018736
 31
0.0
  0
ARC
  5
477
330
1F
100
AcDbEntity
  8
0
  6
CONTINUOUS
 62
     7
100
AcDbCircle
 10
264.4561140031
 20
181.1170040119
 30
0.0
 40
1.01931305566398
100
AcDbArc
 50
132.1587369178
 51
185.0007176446
  0
LINE
  5
478
330
1F
100
AcDbEntity
  8
0
  6
CONTINUOUS
 62
     7
100
AcDbLine
 10
263.4406808542
 20
181.0281523069
 30
0.0
 11
263.3296363289
 21
175.0459786287
 31
0.0
  0
LWPOLYLINE
  5
479
330
1F
100
AcDbEntity
  8
0
  6
CONTINUOUS
 62
     7
100
AcDbPolyline
 90
        9
 70
   128
 43
0.0
 10
263.632819093
 20
174.509213533
 10
263.5715271768
 20
174.4919156285
 10
263.5130346282
 20
174.5018791384
 10
263.4595948918
 20
174.5387605171
 10
263.4132731778
 20
174.601177857
 10
263.3758653491
 20
174.6867585798
 10
263.3488265109
 20
174.7922266091
 10
263.3332124134
 20
174.9135262928
 10
263.3296363289
 20
175.0459786287
  0
LINE
  5
47A
330
1F
100
AcDbEntity
  8
0
  6
CONTINUOUS
 62
     7
100
AcDbLine
 10
263.632819093
 20
174.509213533
 30
0.0
 11
265.4979559302
 21
175.4365211412
 31
0.0
  0
ARC
  5
47B
330
1F
100
AcDbEntity
  8
0
  6
CONTINUOUS
 62
     7
100
AcDbCircle
 10
264.7777249423
 20
176.1914790761
 30
0.0
 40
1.043405079185131
100
AcDbArc
 50
313.6514675874
 51
4.3319223775
  0
LINE
  5
47C
330
1F
100
AcDbEntity
  8
0
  6
CONTINUOUS
 62
     7
100
AcDbLine
 10
265.8181492264
 20
176.2702919457
 30
0.0
 11
265.9426772774
 21
182.1469723561
 31
0.0
  0
LWPOLYLINE
  5
47D
330
1F
100
AcDbEntity
  8
0
  6
CONTINUOUS
 62
     7
100
AcDbPolyline
 90
        9
 70
   128
 43
0.0
 10
265.6495750719
 20
182.7023121398
 10
265.7094502845
 20
182.715576626
 10
265.7664119119
 20
182.7016981411
 10
265.8182766312
 20
182.6612487334
 10
265.863062679
 20
182.5958171341
 10
265.8990642694
 20
182.5079425058
 10
265.924914814
 20
182.4010131427
 10
265.9396368686
 20
182.2791345696
 10
265.9426772774
 20
182.1469723561
  0
LINE
  5
47E
330
1F
100
AcDbEntity
  8
0
  6
CONTINUOUS
 62
     7
100
AcDbLine
 10
265.6495750719
 20
182.7023121398
 30
0.0
 11
263.771964428
 21
181.872608713
 31
0.0
  0
LINE
  5
47F
330
1F
100
AcDbEntity
  8
0
  6
CONTINUOUS
 62
     7
100
AcDbLine
 10
265.672207422
 20
194.0168394043
 30
0.0
 11
259.8238761501
 21
194.5923336595
 31
0.0
  0
LINE
  5
480
330
1F
100
AcDbEntity
  8
0
  6
CONTINUOUS
 62
     7
100
AcDbLine
 10
249.3967603517
 20
195.6183947633
 30
0.0
 11
247.5874268837
 21
195.796438887
 31
0.0
  0
LINE
  5
481
330
1F
100
AcDbEntity
  8
0
  6
CONTINUOUS
 62
     7
100
AcDbLine
 10
238.466179853
 20
196.6939983826
 30
0.0
 11
237.9895235298
 21
196.7409028692
 31
0.0
  0
LINE
  5
482
330
1F
100
AcDbEntity
  8
0
  6
CONTINUOUS
 62
     7
100
AcDbLine
 10
237.9895235298
 20
196.7409028692
 30
0.0
 11
229.8639552255
 21
194.5032445724
 31
0.0
  0
ARC
  5
483
330
1F
100
AcDbEntity
  8
0
  6
CONTINUOUS
 62
     7
100
AcDbCircle
 10
252.3546760047
 20
196.7432842743
 30
0.0
 40
4.063639635816397
100
AcDbArc
 50
250.2598036357
 51
255.7934570012
  0
ARC
  5
484
330
1F
100
AcDbEntity
  8
0
  6
CONTINUOUS
 62
     7
100
AcDbCircle
 10
258.1357056465
 20
195.394462876
 30
0.0
 40
2.686439148937815
100
AcDbArc
 50
285.3551492632
 51
292.8283603418
  0
ARC
  5
485
330
1F
100
AcDbEntity
  8
0
  6
CONTINUOUS
 62
     7
100
AcDbCircle
 10
255.171766963
 20
217.3141875137
 30
0.0
 40
24.87219293613579
100
AcDbArc
 50
269.1574418314
 51
270.8425581686
  0
ARC
  5
486
330
1F
100
AcDbEntity
  8
0
  6
CONTINUOUS
 62
     7
100
AcDbCircle
 10
256.2688574292
 20
173.2462943624
 30
0.0
 40
1.113751772382479
100
AcDbArc
 50
261.153060856
 51
292.6883588198
  0
LINE
  5
487
330
1F
100
AcDbEntity
  8
0
  6
CONTINUOUS
 62
     7
100
AcDbLine
 10
231.3498696103
 20
175.8097492178
 30
0.0
 11
256.0975675481
 21
172.1457932097
 31
0.0
  0
ARC
  5
488
330
1F
100
AcDbEntity
  8
0
  6
CONTINUOUS
 62
     7
100
AcDbCircle
 10
231.6893393081
 20
177.277711887
 30
0.0
 40
1.506703047696351
100
AcDbArc
 50
178.9656590323
 51
256.9791092959
  0
LINE
  5
489
330
1F
100
AcDbEntity
  8
0
  6
CONTINUOUS
 62
     7
100
AcDbLine
 10
229.975419271
 20
189.6792439956
 30
0.0
 11
230.1828817698
 21
177.3049104006
 31
0.0
  0
ARC
  5
48A
330
1F
100
AcDbEntity
  8
0
  6
CONTINUOUS
 62
     7
100
AcDbCircle
 10
231.2045628384
 20
189.7601021398
 30
0.0
 40
1.231800287698151
100
AcDbArc
 50
122.74313069
 51
183.7637302024
  0
LINE
  5
48B
330
1F
100
AcDbEntity
  8
0
  6
CONTINUOUS
 62
     7
100
AcDbLine
 10
256.0975675481
 20
172.1457932097
 30
0.0
 11
255.8813084843
 21
172.0404158818
 31
0.0
  0
LINE
  5
48C
330
1F
100
AcDbEntity
  8
0
  6
CONTINUOUS
 62
     7
100
AcDbLine
 10
231.3498696103
 20
175.8097492178
 30
0.0
 11
231.1090081463
 21
175.7154251792
 31
0.0
  0
LWPOLYLINE
  5
48D
330
1F
100
AcDbEntity
  8
0
  6
CONTINUOUS
 62
     7
100
AcDbPolyline
 90
       39
 70
   128
 43
0.0
 10
232.5628318995
 20
161.2450333593
 10
232.5865371676
 20
160.6375730872
 10
232.6400225982
 20
160.0272811395
 10
232.7230824317
 20
159.4159503547
 10
232.8354313753
 20
158.8053707398
 10
232.9767057516
 20
158.1973254327
 10
233.146464736
 20
157.5935867317
 10
233.3441916769
 20
156.9959121884
 10
233.5692954986
 20
156.4060407562
 10
233.8211121816
 20
155.8256889894
 10
234.098906324
 20
155.2565472866
 10
234.4018727823
 20
154.7002761719
 10
234.7291383942
 20
154.1585026089
 10
235.0797637881
 20
153.6328163426
 10
235.4527452817
 20
153.1247662636
 10
235.8470168763
 20
152.6358567922
 10
236.2614523519
 20
152.1675442787
 10
236.6948674704
 20
151.7212334194
 10
237.1460222943
 20
151.2982736871
 10
237.6136236283
 20
150.899955777
 10
238.096327592
 20
150.5275080716
 10
238.5927423319
 20
150.1820931271
 10
239.1014308815
 20
149.8648041879
 10
239.6209141759
 20
149.5766617372
 10
240.1496742307
 20
149.3186100906
 10
240.6861574907
 20
149.0915140467
 10
241.2287783549
 20
148.8961556048
 10
241.7759228834
 20
148.7332307657
 10
242.325952691
 20
148.6033464326
 10
242.877209029
 20
148.507017428
 10
243.4280170571
 20
148.4446636487
 10
243.9766903055
 20
148.4166073789
 10
244.5215353239
 20
148.4230707846
 10
245.0608565132
 20
148.464173613
 10
245.5929611339
 20
148.5399311223
 10
246.1161644798
 20
148.6502522668
 10
246.6287952089
 20
148.794938165
 10
247.1292008137
 20
148.9736808757
 10
247.199260779
 20
149.0018368619
  0
ARC
  5
48E
330
1F
100
AcDbEntity
  8
0
  6
CONTINUOUS
 62
     7
100
AcDbCircle
 10
242.1576354172
 20
161.7419870586
 30
0.0
 40
9.607664519734914
100
AcDbArc
 50
130.7417363501
 51
182.9649308966
  0
LWPOLYLINE
  5
48F
330
1F
100
AcDbEntity
  8
0
  6
CONTINUOUS
 62
     7
100
AcDbPolyline
 90
       79
 70
   128
 43
0.0
 10
237.4678791665
 20
160.356977616
 10
237.4872594087
 20
159.9245952089
 10
237.5373653759
 20
159.4897371638
 10
237.6178504848
 20
159.0551285873
 10
237.7281856053
 20
158.6234878002
 10
237.8676626517
 20
158.1975112351
 10
238.0353989719
 20
157.7798585372
 10
238.2303425123
 20
157.3731379014
 10
238.4512777391
 20
156.9798916786
 10
238.6968322994
 20
156.6025822845
 10
238.9654844071
 20
156.2435784435
 10
239.2555709443
 20
155.905141803
 10
239.5652962662
 20
155.589413958
 10
239.892741699
 20
155.2984039265
 10
240.2358757239
 20
155.0339761241
 10
240.5925648315
 20
154.7978388882
 10
240.9605850363
 20
154.5915336104
 10
241.3376340309
 20
154.4164245386
 10
241.7213439589
 20
154.273689318
 10
242.1092947771
 20
154.1643103436
 10
242.4990281715
 20
154.0890670024
 10
242.888061983
 20
154.0485288867
 10
243.2739050899
 20
154.0430500631
 10
243.6540726849
 20
154.0727644817
 10
244.0261018712
 20
154.1375826117
 10
244.3875674967
 20
154.2371893872
 10
244.7360981284
 20
154.3710435402
 10
245.0693920631
 20
154.5383783972
 10
245.3852332576
 20
154.7382042021
 10
245.6815070537
 20
154.9693120214
 10
245.9562155641
 20
155.230279273
 10
246.207492579
 20
155.5194769071
 10
246.4336178478
 20
155.8350782474
 10
246.6330305884
 20
156.1750694875
 10
246.8043420752
 20
156.537261812
 10
246.9463471577
 20
156.919305094
 10
247.05803457
 20
157.3187030977
 10
247.1385958942
 20
157.7328300929
 10
247.1874330553
 20
158.1589487654
 10
247.2041642349
 20
158.594229287
 10
247.1886281087
 20
159.0357693882
 10
247.1408863305
 20
159.4806152593
 10
247.0612242044
 20
159.9257830881
 10
246.9501495105
 20
160.3682810316
 10
246.8083894697
 20
160.8051314065
 10
246.6368858612
 20
161.2333928784
 10
246.4367883264
 20
161.6501824272
 10
246.2094459181
 20
162.0526968646
 10
245.9563969785
 20
162.4382336872
 10
245.6793574485
 20
162.8042110556
 10
245.3802077332
 20
163.1481867023
 10
245.060978263
 20
163.467875586
 10
244.723833909
 20
163.7611661305
 10
244.3710574188
 20
164.0261349032
 10
244.0050320513
 20
164.2610596142
 10
243.6282235929
 20
164.4644303395
 10
243.243161941
 20
164.6349588975
 10
242.8524224383
 20
164.7715863309
 10
242.4586071416
 20
164.8734884752
 10
242.064326196
 20
164.9400796139
 10
241.6721794827
 20
164.9710142462
 10
241.2847386938
 20
164.9661870147
 10
240.9045299736
 20
164.9257308556
 10
240.5340172563
 20
164.8500134546
 10
240.175586408
 20
164.7396321029
 10
239.8315302703
 20
164.59540706
 10
239.5040346851
 20
164.4183735386
 10
239.1951655617
 20
164.2097724326
 10
238.9068570364
 20
163.9710399135
 10
238.6409007568
 20
163.7037960193
 10
238.398936311
 20
163.4098323628
 10
238.1824428089
 20
163.0910990786
 10
237.9927316139
 20
162.7496911283
 10
237.8309402102
 20
162.3878340726
 10
237.6980271889
 20
162.0078694172
 10
237.594768324
 20
161.6122396266
 10
237.5217537088
 20
161.203472896
 10
237.4793859189
 20
160.7841677609
 10
237.4678791665
 20
160.356977616
  0
LWPOLYLINE
  5
490
330
1F
100
AcDbEntity
  8
0
  6
CONTINUOUS
 62
     7
100
AcDbPolyline
 90
        9
 70
   128
 43
0.0
 10
264.5147587019
 20
181.4487143842
 10
264.5752537534
 20
181.4625944616
 10
264.6328420221
 20
181.4493078889
 10
264.6853161176
 20
181.4094040677
 10
264.7306709469
 20
181.3444509168
 10
264.7671790151
 20
181.2569693971
 10
264.7934544572
 20
181.150332883
 10
264.808503697
 20
181.0286358065
 10
264.8117611813
 20
180.8965368735
  0
LINE
  5
491
330
1F
100
AcDbEntity
  8
0
  6
CONTINUOUS
 62
     7
100
AcDbLine
 10
264.5147587019
 20
181.4487143842
 30
0.0
 11
263.6364935164
 21
181.0555798419
 31
0.0
  0
ARC
  5
492
330
1F
100
AcDbEntity
  8
0
  6
CONTINUOUS
 62
     7
100
AcDbCircle
 10
264.0913649931
 20
180.4643828374
 30
0.0
 40
0.7459369667137419
100
AcDbArc
 50
127.574957234
 51
171.6524417652
  0
LWPOLYLINE
  5
493
330
1F
100
AcDbEntity
  8
0
  6
CONTINUOUS
 62
     7
100
AcDbPolyline
 90
        7
 70
   128
 43
0.0
 10
263.5406296454
 20
175.948189306
 10
263.4795355799
 20
175.9316479122
 10
263.421229106
 20
175.9422752715
 10
263.3679564733
 20
175.97970202
 10
263.3217763842
 20
176.042524939
 10
263.2844791438
 20
176.1283555201
 10
263.2719733297
 20
176.1699511326
  0
LINE
  5
494
330
1F
100
AcDbEntity
  8
0
  6
CONTINUOUS
 62
     7
100
AcDbLine
 10
263.5406296454
 20
175.948189306
 30
0.0
 11
263.5934352047
 21
175.9738499058
 31
0.0
  0
LINE
  5
495
330
1F
100
AcDbEntity
  8
0
  6
CONTINUOUS
 62
     7
100
AcDbLine
 10
264.7769941586
 20
179.1598414538
 30
0.0
 11
264.8117611813
 21
180.8965368735
 31
0.0
  0
ARC
  5
496
330
1F
100
AcDbEntity
  8
0
  6
CONTINUOUS
 62
     7
100
AcDbCircle
 10
264.0965879961
 20
182.262478975
 30
0.0
 40
1.232441523047611
100
AcDbArc
 50
358.1606321794
 51
10.9823853116
  0
LINE
  5
497
330
1F
100
AcDbEntity
  8
0
  6
CONTINUOUS
 62
     7
100
AcDbLine
 10
265.2078463913
 20
176.3534120572
 30
0.0
 11
265.328394494
 21
182.2229206701
 31
0.0
  0
ARC
  5
498
330
1F
100
AcDbEntity
  8
0
  6
CONTINUOUS
 62
     7
100
AcDbCircle
 10
264.1727056458
 20
176.2741659838
 30
0.0
 40
1.038169689033958
100
AcDbArc
 50
313.4806049168
 51
4.3777876401
  0
LINE
  5
499
330
1F
100
AcDbEntity
  8
0
  6
CONTINUOUS
 62
     7
100
AcDbLine
 10
263.2663374581
 20
174.7198705131
 30
0.0
 11
264.8870795432
 21
175.5208624342
 31
0.0
  0
LINE
  5
49A
330
1F
100
AcDbEntity
  8
0
  6
CONTINUOUS
 62
     7
100
AcDbLine
 10
265.4979559302
 20
175.4365211412
 30
0.0
 11
264.8870795432
 21
175.5208624342
 31
0.0
  0
LINE
  5
49B
330
1F
100
AcDbEntity
  8
0
  6
CONTINUOUS
 62
     7
100
AcDbLine
 10
265.9426772774
 20
182.1469723561
 30
0.0
 11
265.328394494
 21
182.2229206701
 31
0.0
  0
ARC
  5
49C
330
1F
100
AcDbEntity
  8
0
  6
CONTINUOUS
 62
     7
100
AcDbCircle
 10
265.0885099874
 20
151.6842750953
 30
0.0
 40
2.152880936658182
100
AcDbArc
 50
307.1340880967
 51
0.4930692127
  0
LINE
  5
49D
330
1F
100
AcDbEntity
  8
0
  6
CONTINUOUS
 62
     7
100
AcDbLine
 10
263.3504869953
 20
179.3457520005
 30
0.0
 11
263.3773554549
 21
180.7981057063
 31
0.0
  0
LINE
  5
49E
330
1F
100
AcDbEntity
  8
0
  6
CONTINUOUS
 62
     7
100
AcDbLine
 10
265.2078463913
 20
176.3534120572
 30
0.0
 11
265.8181492264
 21
176.2702919457
 31
0.0
  0
LINE
  5
49F
330
1F
100
AcDbEntity
  8
0
  6
CONTINUOUS
 62
     7
100
AcDbLine
 10
229.975419271
 20
189.6792439956
 30
0.0
 11
229.729641277
 21
189.6043610308
 31
0.0
  0
LINE
  5
4A0
330
1F
100
AcDbEntity
  8
0
  6
CONTINUOUS
 62
     7
100
AcDbLine
 10
230.1828817698
 20
177.3049104006
 30
0.0
 11
229.9406074137
 21
177.2128903951
 31
0.0
  0
ARC
  5
4A1
330
1F
100
AcDbEntity
  8
0
  6
CONTINUOUS
 62
     7
100
AcDbCircle
 10
237.800689728
 20
194.8915713259
 30
0.0
 40
1.858947379982413
100
AcDbArc
 50
84.1697791308
 51
110.5904743414
  0
LWPOLYLINE
  5
4A2
330
1F
100
AcDbEntity
  8
0
  6
CONTINUOUS
 62
     8
100
AcDbPolyline
 90
        3
 70
   128
 43
0.0
 10
245.5608049938
 20
160.1229090873
 10
245.5449491104
 20
160.3682683662
 10
245.525682994
 20
160.4893911965
  0
LWPOLYLINE
  5
4A3
330
1F
100
AcDbEntity
  8
0
  6
CONTINUOUS
 62
     8
100
AcDbPolyline
 90
       40
 70
   128
 43
0.0
 10
244.9022112352
 20
161.6345230282
 10
244.8492510071
 20
161.6830744361
 10
244.6556615666
 20
161.8336198406
 10
244.4491925844
 20
161.9547574774
 10
244.2340956362
 20
162.0440334698
 10
244.0147905875
 20
162.0996581237
 10
243.7957722857
 20
162.1205400721
 10
243.5815166074
 20
162.1063051279
 10
243.3763879707
 20
162.0572997409
 10
243.1845502997
 20
161.9745793338
 10
243.0098832628
 20
161.8598821302
 10
242.8559054017
 20
161.7155893881
 10
242.7257055385
 20
161.5446732008
 10
242.6218836076
 20
161.3506332235
 10
242.5465018155
 20
161.1374238301
 10
242.5010467918
 20
160.9093733059
 10
242.4864031738
 20
160.6710967375
 10
242.5028388553
 20
160.4274042892
 10
242.5500019439
 20
160.1832065503
 10
242.6269292995
 20
159.9434186168
 10
242.7320663742
 20
159.712864538
 10
242.8632979327
 20
159.4961837142
 10
243.0179891018
 20
159.2977407868
 10
243.1930360743
 20
159.1215405111
 10
243.3849256651
 20
158.9711490485
 10
243.5898027952
 20
158.8496230552
 10
243.8035448509
 20
158.7594478736
 10
244.0218417296
 20
158.7024860474
 10
244.2402802571
 20
158.6799372745
 10
244.4544315236
 20
158.6923107777
 10
244.6599395682
 20
158.7394109074
 10
244.8526097292
 20
158.8203365902
 10
245.0284948965
 20
158.9334949974
 10
245.1839778453
 20
159.076629533
 10
245.3158478232
 20
159.2468619345
 10
245.4213695955
 20
159.4407479446
 10
245.4983432458
 20
159.6543456658
 10
245.5451531806
 20
159.8832953564
 10
245.5608049938
 20
160.1229090873
 10
245.5608049938
 20
160.1229090873
  0
ARC
  5
4A4
330
1F
100
AcDbEntity
  8
0
  6
CONTINUOUS
 62
     8
100
AcDbCircle
 10
244.3996313028
 20
159.9275719659
 30
0.0
 40
1.40805933023177
100
AcDbArc
 50
304.7932001122
 51
323.9384408837
  0
ARC
  5
4A5
330
1F
100
AcDbEntity
  8
0
  6
CONTINUOUS
 62
     8
100
AcDbCircle
 10
243.8413261242
 20
161.0193341469
 30
0.0
 40
1.367284362203381
100
AcDbArc
 50
98.2797454244
 51
119.8403076595
  0
LINE
  5
4A6
330
1F
100
AcDbEntity
  8
0
  6
CONTINUOUS
 62
     8
100
AcDbLine
 10
227.9393231722
 20
191.7162095439
 30
0.0
 11
228.4887121475
 21
162.5930752043
 31
0.0
  0
LINE
  5
4A7
330
1F
100
AcDbEntity
  8
0
  6
CONTINUOUS
 62
     8
100
AcDbLine
 10
228.5901179065
 20
157.2175513552
 30
0.0
 11
228.6704849497
 21
152.9572907698
 31
0.0
  0
LINE
  5
4A8
330
1F
100
AcDbEntity
  8
0
  6
CONTINUOUS
 62
     8
100
AcDbLine
 10
229.9383076203
 20
151.29789251
 30
0.0
 11
231.2537170851
 21
151.0281005503
 31
0.0
  0
LINE
  5
4A9
330
1F
100
AcDbEntity
  8
0
  6
CONTINUOUS
 62
     8
100
AcDbLine
 10
248.6003256324
 20
147.4702916401
 30
0.0
 11
257.356932284
 21
145.6743017737
 31
0.0
  0
LINE
  5
4AA
330
1F
100
AcDbEntity
  8
0
  6
CONTINUOUS
 62
     8
100
AcDbLine
 10
263.3996211572
 20
174.5420018663
 30
0.0
 11
263.632819093
 21
174.509213533
 31
0.0
  0
LINE
  5
4AB
330
1F
100
AcDbEntity
  8
0
  6
CONTINUOUS
 62
     8
100
AcDbLine
 10
263.3116166919
 20
175.9796898093
 30
0.0
 11
263.5406296454
 21
175.948189306
 31
0.0
  0
ARC
  5
4AC
330
1F
100
AcDbEntity
  8
0
  6
CONTINUOUS
 62
     8
100
AcDbCircle
 10
258.2575822254
 20
146.9959064692
 30
0.0
 40
2.216032780570474
100
AcDbArc
 50
307.3556307954
 51
1.1852488059
  0
LWPOLYLINE
  5
4AD
330
1F
100
AcDbEntity
  8
0
  6
CONTINUOUS
 62
     8
100
AcDbPolyline
 90
        8
 70
   128
 43
0.0
 10
257.356932284
 20
145.6743017737
 10
257.3631165594
 20
145.4775715561
 10
257.3865709382
 20
145.2989033331
 10
257.4265547438
 20
145.1437600157
 10
257.4818174787
 20
145.0168613497
 10
257.5506411613
 20
144.9220398758
 10
257.6308972449
 20
144.8621273766
 10
257.6529566179
 20
144.8526507086
  0
LINE
  5
4AE
330
1F
100
AcDbEntity
  8
0
  6
CONTINUOUS
 62
     8
100
AcDbLine
 10
264.8117611813
 20
180.8965368735
 30
0.0
 11
263.773089338
 21
181.0280397268
 31
0.0
  0
LWPOLYLINE
  5
4AF
330
1F
100
AcDbEntity
  8
0
  6
CONTINUOUS
 62
     8
100
AcDbPolyline
 90
        8
 70
   128
 43
0.0
 10
229.9383076203
 20
151.29789251
 10
229.9515099365
 20
151.1113514972
 10
229.9839806537
 20
150.9411689871
 10
230.0347019025
 20
150.7925474523
 10
230.1020939145
 20
150.6700092895
 10
230.1840677277
 20
150.5772586641
 10
230.2780936687
 20
150.5170713451
 10
230.3037221923
 20
150.5071484119
  0
ARC
  5
4B0
330
1F
100
AcDbEntity
  8
0
  6
CONTINUOUS
 62
     8
100
AcDbCircle
 10
227.87220956
 20
192.435525629
 30
0.0
 40
0.7224402170679776
100
AcDbArc
 50
229.5458299529
 51
275.330377751
  0
ARC
  5
4B1
330
1F
100
AcDbEntity
  8
0
  6
CONTINUOUS
 62
     8
100
AcDbCircle
 10
229.6639534001
 20
192.6380050226
 30
0.0
 40
1.875931584163357
100
AcDbArc
 50
83.8797974494
 51
111.0648417636
  0
LWPOLYLINE
  5
4B2
330
1F
100
AcDbEntity
  8
0
  6
CONTINUOUS
 62
     8
100
AcDbPolyline
 90
        7
 70
   128
 43
0.0
 10
228.6704849497
 20
152.9572907698
 10
228.5113374576
 20
152.9965869756
 10
228.3769960634
 20
153.0449827495
 10
228.271536865
 20
153.100979985
 10
228.1981305026
 20
153.162851374
 10
228.1589499891
 20
153.2286960183
 10
228.1538693394
 20
153.2501710272
  0
OLE2FRAME
  5
4B3
330
1F
100
AcDbEntity
  8
0
100
AcDbOle2Frame
 70
     2
  3
Paintbrush Picture
 10
229.0524258301
 20
33.6996297921
 30
0.0
 11
265.1686469208
 21
28.555479607
 31
0.0
 71
     2
 72
     0
 90
     7296
310
80557333EF78ADA16C40002412788DD94040000000000000000041161DC7B292
310
7040002412788DD94040000000000000000041161DC7B2927040F6DD59E9338E
310
3C4000000000000000007333EF78ADA16C40F6DD59E9338E3C40000000000000
310
00000000000001000000000100000100000001000000000001000000001C0000
310
D0CF11E0A1B11AE1000000000000000000000000000000003E000300FEFF0900
310
0600000000000000000000000100000001000000000000000010000002000000
310
01000000FEFFFFFF0000000000000000FFFFFFFFFFFFFFFFFFFFFFFFFFFFFFFF
310
FFFFFFFFFFFFFFFFFFFFFFFFFFFFFFFFFFFFFFFFFFFFFFFFFFFFFFFFFFFFFFFF
310
FFFFFFFFFFFFFFFFFFFFFFFFFFFFFFFFFFFFFFFFFFFFFFFFFFFFFFFFFFFFFFFF
310
FFFFFFFFFFFFFFFFFFFFFFFFFFFFFFFFFFFFFFFFFFFFFFFFFFFFFFFFFFFFFFFF
310
FFFFFFFFFFFFFFFFFFFFFFFFFFFFFFFFFFFFFFFFFFFFFFFFFFFFFFFFFFFFFFFF
310
FFFFFFFFFFFFFFFFFFFFFFFFFFFFFFFFFFFFFFFFFFFFFFFFFFFFFFFFFFFFFFFF
310
FFFFFFFFFFFFFFFFFFFFFFFFFFFFFFFFFFFFFFFFFFFFFFFFFFFFFFFFFFFFFFFF
310
FFFFFFFFFFFFFFFFFFFFFFFFFFFFFFFFFFFFFFFFFFFFFFFFFFFFFFFFFFFFFFFF
310
FFFFFFFFFFFFFFFFFFFFFFFFFFFFFFFFFFFFFFFFFFFFFFFFFFFFFFFFFFFFFFFF
310
FFFFFFFFFFFFFFFFFFFFFFFFFFFFFFFFFFFFFFFFFFFFFFFFFFFFFFFFFFFFFFFF
310
FFFFFFFFFFFFFFFFFFFFFFFFFFFFFFFFFFFFFFFFFFFFFFFFFFFFFFFFFFFFFFFF
310
FFFFFFFFFFFFFFFFFFFFFFFFFFFFFFFFFFFFFFFFFFFFFFFFFFFFFFFFFFFFFFFF
310
FFFFFFFFFFFFFFFFFFFFFFFFFFFFFFFFFFFFFFFFFFFFFFFFFFFFFFFFFFFFFFFF
310
FFFFFFFFFFFFFFFFFFFFFFFFFFFFFFFFFFFFFFFFFFFFFFFFFFFFFFFFFFFFFFFF
310
FDFFFFFFFEFFFFFFFEFFFFFFFEFFFFFF05000000060000000700000008000000
310
090000000A0000000B0000000C000000FEFFFFFFFFFFFFFFFFFFFFFFFFFFFFFF
310
FFFFFFFFFFFFFFFFFFFFFFFFFFFFFFFFFFFFFFFFFFFFFFFFFFFFFFFFFFFFFFFF
310
FFFFFFFFFFFFFFFFFFFFFFFFFFFFFFFFFFFFFFFFFFFFFFFFFFFFFFFFFFFFFFFF
310
FFFFFFFFFFFFFFFFFFFFFFFFFFFFFFFFFFFFFFFFFFFFFFFFFFFFFFFFFFFFFFFF
310
FFFFFFFFFFFFFFFFFFFFFFFFFFFFFFFFFFFFFFFFFFFFFFFFFFFFFFFFFFFFFFFF
310
FFFFFFFFFFFFFFFFFFFFFFFFFFFFFFFFFFFFFFFFFFFFFFFFFFFFFFFFFFFFFFFF
310
FFFFFFFFFFFFFFFFFFFFFFFFFFFFFFFFFFFFFFFFFFFFFFFFFFFFFFFFFFFFFFFF
310
FFFFFFFFFFFFFFFFFFFFFFFFFFFFFFFFFFFFFFFFFFFFFFFFFFFFFFFFFFFFFFFF
310
FFFFFFFFFFFFFFFFFFFFFFFFFFFFFFFFFFFFFFFFFFFFFFFFFFFFFFFFFFFFFFFF
310
FFFFFFFFFFFFFFFFFFFFFFFFFFFFFFFFFFFFFFFFFFFFFFFFFFFFFFFFFFFFFFFF
310
FFFFFFFFFFFFFFFFFFFFFFFFFFFFFFFFFFFFFFFFFFFFFFFFFFFFFFFFFFFFFFFF
310
FFFFFFFFFFFFFFFFFFFFFFFFFFFFFFFFFFFFFFFFFFFFFFFFFFFFFFFFFFFFFFFF
310
FFFFFFFFFFFFFFFFFFFFFFFFFFFFFFFFFFFFFFFFFFFFFFFFFFFFFFFFFFFFFFFF
310
FFFFFFFFFFFFFFFFFFFFFFFFFFFFFFFFFFFFFFFFFFFFFFFFFFFFFFFFFFFFFFFF
310
FFFFFFFFFFFFFFFFFFFFFFFFFFFFFFFFFFFFFFFFFFFFFFFFFFFFFFFFFFFFFFFF
310
52006F006F007400200045006E00740072007900000000000000000000000000
310
0000000000000000000000000000000000000000000000000000000000000000
310
16000500FFFFFFFFFFFFFFFF020000000A00030000000000C000000000000046
310
0000000000000000000000003009F8CFE977D20103000000C000000000000000
310
01004F006C006500000000000000000000000000000000000000000000000000
310
0000000000000000000000000000000000000000000000000000000000000000
310
0A000200FFFFFFFFFFFFFFFFFFFFFFFF00000000000000000000000000000000
310
0000000000000000000000000000000000000000000000001400000000000000
310
010043006F006D0070004F0062006A0000000000000000000000000000000000
310
0000000000000000000000000000000000000000000000000000000000000000
310
120002010100000003000000FFFFFFFF00000000000000000000000000000000
310
0000000000000000000000000000000000000000010000004D00000000000000
310
01004F006C006500310030004E00610074006900760065000000000000000000
310
0000000000000000000000000000000000000000000000000000000000000000
310
1A000200FFFFFFFFFFFFFFFFFFFFFFFF00000000000000000000000000000000
310
000000000000000000000000000000000000000004000000E411000000000000
310
FEFFFFFF02000000FEFFFFFFFFFFFFFFFFFFFFFFFFFFFFFFFFFFFFFFFFFFFFFF
310
FFFFFFFFFFFFFFFFFFFFFFFFFFFFFFFFFFFFFFFFFFFFFFFFFFFFFFFFFFFFFFFF
310
FFFFFFFFFFFFFFFFFFFFFFFFFFFFFFFFFFFFFFFFFFFFFFFFFFFFFFFFFFFFFFFF
310
FFFFFFFFFFFFFFFFFFFFFFFFFFFFFFFFFFFFFFFFFFFFFFFFFFFFFFFFFFFFFFFF
310
FFFFFFFFFFFFFFFFFFFFFFFFFFFFFFFFFFFFFFFFFFFFFFFFFFFFFFFFFFFFFFFF
310
FFFFFFFFFFFFFFFFFFFFFFFFFFFFFFFFFFFFFFFFFFFFFFFFFFFFFFFFFFFFFFFF
310
FFFFFFFFFFFFFFFFFFFFFFFFFFFFFFFFFFFFFFFFFFFFFFFFFFFFFFFFFFFFFFFF
310
FFFFFFFFFFFFFFFFFFFFFFFFFFFFFFFFFFFFFFFFFFFFFFFFFFFFFFFFFFFFFFFF
310
FFFFFFFFFFFFFFFFFFFFFFFFFFFFFFFFFFFFFFFFFFFFFFFFFFFFFFFFFFFFFFFF
310
FFFFFFFFFFFFFFFFFFFFFFFFFFFFFFFFFFFFFFFFFFFFFFFFFFFFFFFFFFFFFFFF
310
FFFFFFFFFFFFFFFFFFFFFFFFFFFFFFFFFFFFFFFFFFFFFFFFFFFFFFFFFFFFFFFF
310
FFFFFFFFFFFFFFFFFFFFFFFFFFFFFFFFFFFFFFFFFFFFFFFFFFFFFFFFFFFFFFFF
310
FFFFFFFFFFFFFFFFFFFFFFFFFFFFFFFFFFFFFFFFFFFFFFFFFFFFFFFFFFFFFFFF
310
FFFFFFFFFFFFFFFFFFFFFFFFFFFFFFFFFFFFFFFFFFFFFFFFFFFFFFFFFFFFFFFF
310
FFFFFFFFFFFFFFFFFFFFFFFFFFFFFFFFFFFFFFFFFFFFFFFFFFFFFFFFFFFFFFFF
310
FFFFFFFFFFFFFFFFFFFFFFFFFFFFFFFFFFFFFFFFFFFFFFFFFFFFFFFFFFFFFFFF
310
0100000200000000000000000000000000000000000000000000000000000000
310
0000000000000000000000000000000000000000000000000000000000000000
310
0100FEFF030A0000FFFFFFFF0A00030000000000C00000000000004607000000
310
5042727573680007000000504272757368000700000050427275736800F439B2
310
7100000000000000000000000000000000000000000000000000000000000000
310
0000000000000000000000000000000000000000000000000000000000000000
310
0000000000000000000000000000000000000000000000000000000000000000
310
0000000000000000000000000000000000000000000000000000000000000000
310
0000000000000000000000000000000000000000000000000000000000000000
310
0000000000000000000000000000000000000000000000000000000000000000
310
0000000000000000000000000000000000000000000000000000000000000000
310
0000000000000000000000000000000000000000000000000000000000000000
310
0000000000000000000000000000000000000000000000000000000000000000
310
0000000000000000000000000000000000000000000000000000000000000000
310
0000000000000000000000000000000000000000000000000000000000000000
310
0000000000000000000000000000000000000000000000000000000000000000
310
E0110000424DDE11000000000000360400002800000096000000170000000100
310
08000000000000000000E7240000E72400000001000000010000000000FF0101
310
01FF020202FF030303FF040404FF050505FF060606FF070707FF080808FF0909
310
09FF0A0A0AFF0B0B0BFF0C0C0CFF0D0D0DFF0E0E0EFF0F0F0FFF101010FF1111
310
11FF121212FF131313FF141414FF151515FF161616FF171717FF181818FF1919
310
19FF1A1A1AFF1B1B1BFF1C1C1CFF1D1D1DFF1E1E1EFF1F1F1FFF202020FF2121
310
21FF222222FF232323FF242424FF252525FF262626FF272727FF282828FF2929
310
29FF2A2A2AFF2B2B2BFF2C2C2CFF2D2D2DFF2E2E2EFF2F2F2FFF303030FF3131
310
31FF323232FF333333FF343434FF353535FF363636FF373737FF383838FF3939
310
39FF3A3A3AFF3B3B3BFF3C3C3CFF3D3D3DFF3E3E3EFF3F3F3FFF404040FF4141
310
41FF424242FF434343FF444444FF454545FF464646FF474747FF484848FF4949
310
49FF4A4A4AFF4B4B4BFF4C4C4CFF4D4D4DFF4E4E4EFF4F4F4FFF505050FF5151
310
51FF525252FF535353FF545454FF555555FF565656FF575757FF585858FF5959
310
59FF5A5A5AFF5B5B5BFF5C5C5CFF5D5D5DFF5E5E5EFF5F5F5FFF606060FF6161
310
61FF626262FF636363FF646464FF656565FF666666FF676767FF686868FF6969
310
69FF6A6A6AFF6B6B6BFF6C6C6CFF6D6D6DFF6E6E6EFF6F6F6FFF707070FF7171
310
71FF727272FF737373FF747474FF757575FF767676FF777777FF787878FF7979
310
79FF7A7A7AFF7B7B7BFF7C7C7CFF7D7D7DFF7E7E7EFF7F7F7FFF808080FF8181
310
81FF828282FF838383FF848484FF858585FF868686FF878787FF888888FF8989
310
89FF8A8A8AFF8B8B8BFF8C8C8CFF8D8D8DFF8E8E8EFF8F8F8FFF909090FF9191
310
91FF929292FF939393FF949494FF959595FF969696FF979797FF989898FF9999
310
99FF9A9A9AFF9B9B9BFF9C9C9CFF9D9D9DFF9E9E9EFF9F9F9FFFA0A0A0FFA1A1
310
A1FFA2A2A2FFA3A3A3FFA4A4A4FFA5A5A5FFA6A6A6FFA7A7A7FFA8A8A8FFA9A9
310
A9FFAAAAAAFFABABABFFACACACFFADADADFFAEAEAEFFAFAFAFFFB0B0B0FFB1B1
310
B1FFB2B2B2FFB3B3B3FFB4B4B4FFB5B5B5FFB6B6B6FFB7B7B7FFB8B8B8FFB9B9
310
B9FFBABABAFFBBBBBBFFBCBCBCFFBDBDBDFFBEBEBEFFBFBFBFFFC0C0C0FFC1C1
310
C1FFC2C2C2FFC3C3C3FFC4C4C4FFC5C5C5FFC6C6C6FFC7C7C7FFC8C8C8FFC9C9
310
C9FFCACACAFFCBCBCBFFCCCCCCFFCDCDCDFFCECECEFFCFCFCFFFD0D0D0FFD1D1
310
D1FFD2D2D2FFD3D3D3FFD4D4D4FFD5D5D5FFD6D6D6FFD7D7D7FFD8D8D8FFD9D9
310
D9FFDADADAFFDBDBDBFFDCDCDCFFDDDDDDFFDEDEDEFFDFDFDFFFE0E0E0FFE1E1
310
E1FFE2E2E2FFE3E3E3FFE4E4E4FFE5E5E5FFE6E6E6FFE7E7E7FFE8E8E8FFE9E9
310
E9FFEAEAEAFFEBEBEBFFECECECFFEDEDEDFFEEEEEEFFEFEFEFFFF0F0F0FFF1F1
310
F1FFF2F2F2FFF3F3F3FFF4F4F4FFF5F5F5FFF6F6F6FFF7F7F7FFF8F8F8FFF9F9
310
F9FFFAFAFAFFFBFBFBFFFCFCFCFFFDFDFDFFFEFEFEFFFFFFFFFFFFFFFFFFFFFF
310
C94E4E4E4F4E4EFFFFFFFFFFC94E4E4E4E4E72FFFFFFFFFFFFFF734E4D4E4E4E
310
C9FFFFFFFFFFAA683516171616265B9BE9FFFFFFFFFF4E4E4E4D4E4EFFFFFFFF
310
FFFFFFFF4E4E4F4E4D4E4E4E4F4E4E4F4D4E4E4E4E4E4D4E4F4E4D4E4E4EAAFF
310
FFFFFFFFFFEA4E4F4F4E4E4E4E4E4D4D4F4F4E4E4E4E4E5B7FAAFFFFFFFFFFFF
310
C9744E1716171616164D8DEAFFFFFFFF0000FFFFFFFFFFFFBA161617161716FF
310
FFFFFFFFB917171616174FFFFFFFFFFFFFFF4E1716161616B9FFFFFFB9341717
310
1716171617171616268CFFFFFFFF161617161617FFFFFFFFFFFFFFB917161717
310
1617167F807F7F7F7F7F7F807F7F807F7F807F7F7F414EFFFFFFFFFFFF8C167F
310
7F807F7F7F7E7F7F807F807F7F807F4E3417258EFFFFEA4E162674AABAEAEBBA
310
AA74341680FFFFFF0000FFFFFFFFFFFFB9171717171617FFFFFFFFFFBB161616
310
16164EFFFFFFFFFFFFFF4E1717171717B9FFFF9C171617171716161616171616
310
171766FFFFFF161717161617FFFFFFFFFFFFFF8E16171717161616FFFFFFFFFF
310
FFFFFFFFFFFFFFFFFFFFFFFFFFAA16D9FFFFFFFFFF3467FFFFFFFFEAFFFFFFFF
310
FFFFFFFFFFFFFFFFFFCA671667EB26278DFFFFFFFFFFFFFFFFFFFF8C2541EAFF
310
0000FFFFFFFFFFFFB9171717171716FFFFFFFFFFBA16171617174EFFFFFFFFFF
310
FFFF4E1717161616BAFF9B1617161616171716171617161616161667FFFF1616
310
16161716FFFFFFFFFFFFFF7F16161617174017FFFFFFFFFFFFFFFFFFFFFFFFFF
310
FFFFFFFFFFFF344E7F7F7F7E7417DAFFFFFFFF80FFFFFFFFFFFFFFFFFFFFFFFF
310
FFFFFF9B163425CAFFFFFFFFFFFFFFFFFFFFFFFFCA2667FF0000FFFFFFFFFFFF
310
BA171717171617FFFFFFFFFFB916171716164EFFFFFFFFFFFFFF4F1716161717
310
B9C91716171616161716161617171616161617168DFF161716161717FFFFFFFF
310
FFFFFF7F17171716164F16FFFFFFFFFFFFFFFFFFFFFFFFFFFFFFFFFFFFFF9B16
310
17161617174EFFFFFFFFFF34FFFFFFFFD9BABABABABADAFFFFFFFFFF7F16AAFF
310
FFFFFFFFFFFFFFFFFFFFFFFFFF9C16BA0000FFFFFFFFFFFFB9161717161717FF
310
FFFFFFFFB917161716174DFFFFFFFFFFFFFF4E1616161616BA4E161617171716
310
419BEAEAAA4E16161617161726E9171717161616FFFFFFFFFFFFFF4F16161717
310
164E16FFFFFFFFFFBAB9B9B9B9B9BABABACAFFFFFFFFFFFFFFFFFFFFFFFFFFFF
310
FFFFBA16FFFFFFFF7F1617161617174DEAFFFFFFEA41FFFFFFFFFFAA4D16174E
310
9BFFFFFFFFFF34730000FFFFFFFFFFFFB9161617171617FFFFFFFFFFBA161616
310
16164EFFFFFFFFFFFFFF4F16161717169B1617161716175BFFFFFFFFFFFF7417
310
16171616168D171717161617FFFFFFFFFFFFEA2616171717167416FFFFFFFFFF
310
16171616171717171717EAFFFFFFFFFFFFFFFFFFFFFFFFFFFFFF6716FFFFFFFF
310
7F4EFFFFFFFFBA2573FFFFFFFFBAFFFFFFFFAA167FB9BB9B269BFFFFFFFF664F
310
0000FFFFFFFFFFFFB9171616161616FFFFFFFFFFBA16161717164EFFFFFFFFFF
310
FFFF4E16161616174E161617171626EAFFFFFFFFFFFFFF4E16161616164E1716
310
16161617FFFFFFFFFFFF671616161716347F16FFFFFFFFFF16B9FFFFFFFFFFFF
310
D9168DFFFFFFFFFFFFFFFFFFFFFFFFFFFFEA1716FFFFFFFF7F4EFFFFFFFFFF7F
310
4EFFFFFFFFFFFFFFFFFF5B66FFFFFFEA347FFFFFFFFF7F4D0000FFFFFFFFFFFF
310
B9171616171617FFFFFFFFFFBA17161716174EFFFFFFFFFFFFFF4D1716161617
310
17161716161673FFFFFFFFFFFFFFFF9B1617161717161616171616174F4E4E4E
310
4E341616171616167E7F16FFFFFFFFFF16BAFFFFFFFFFFFFFF5B41FFFFFFFF34
310
1616171616BAFFFFFF9B1716FFFFFFFF7F4EFFFFFFFFFF4E4EFFFFFFFF734E4E
310
4E4E267EDA9B67164EEAFFFFFFFF744D0000FFFFFFFFFFFFBA171717161617FF
310
FFFFFFFFBA1616171616347F7F7F7F80807F331616161717161717161716B9FF
310
FFFFFFFFFFFFFFE9161616161616171716161716171616161616171616171734
310
EA7F16FFFFFFFFFF16BAFFFFFFFFFFFFFFAA17C9FFFFFF7326BABA5B25FFFFFF
310
FF401716FFFFFFFF7F264F4E4E4E4217AAFFFFFFEA16677F73261616164173CA
310
FFFFFFFFFFFF417F0000FFFFFFFFFFFFBA171616171617FFFFFFFFFFBA161616
310
17171616161616161616161717161616161616161617EAFFFFFFFFFFFFFFFFFF
310
261717161716161617161616161617161617161616174EEAFF8016FFFFFFFFFF
310
17BAFFFFFFFFFFFFFFFF3467FFFFFFC916C9FF3467FFFFFFDA166716FFFFFFFF
310
9C4D4E4E4E4E67AAFFFFFFFF6834FF7F262567AAEAFFFFFFFFFFFFFFFF9B17D9
310
0000FFFFFFFFFFFFB9161616161616FFFFFFFFFFBA1617161717171616161616
310
1716171716161716161617171716FFFFFFFFFFFFFFFFFFFF4E17161716171616
310
1617171616161716171717161616169BFF7F17FFFFFFFFFF17B9FFFFFFFFFFFF
310
FFFF7326FFFFFFFF3473DA16AAFFFFFF7317AA16FFFFFFFFFFFFFFFFFFFFFFFF
310
FFFFEA6725BA4E167FEAFFFFFFFFFFFFFFFFFFFF9C167FFF0000FFFFFFFFFFFF
310
B9161717171716FFFFFFFFFFBA16161716171616171717161617161716161616
310
171617171617EAFFFFFFFFFFFFFFFFFF26161717161616161616161617171616
310
1616161616171616AA8016FFFFFFFFFF16BAFFFFFFFFFFFFFFFFDA179BFFFFFF
310
74348D26FFFFFFFF2566B917FFFFFFFFD8BAB9BAB9BADAFFFFEA41169B7425C9
310
FFFFFFFFFFFFFFFFFFFFAB4F1680FFFF0000FFFFFFFFFFFFBA161717171617FF
310
FFFFFFFFBA17161717161617171617161616161617171616171716171617BBFF
310
FFFFFFFFFFFFFFE9171616161617161617161716FFFFFFFFFFD9671616161617
310
348017FFFFFFFFFF16BAFFFFFFFFFFFFFFFFFF4E5AFFFFFFC916265AFFFFFFAA
310
16AABA16FFFFFFFF7F1617161616179BFFFFEB4127168DFFFFFFFFFFFFFFD99B
310
6734175AC9FFFFFF0000FFFFFFFFFFFFB9161617171617FFFFFFFFFFBB161616
310
1616347F807F7F7F7F8033171716171617171616161672FFFFFFFFFFFFFFFF9C
310
171617171617161716161617FFFFFFFFFFFFFF4117161616174E17FFFFFFFFFF
310
16BAFFFFFFFFFFFFFFFFFF9B16DAFFFFFF34169BFFFFFF5A26FFB917FFFFFFFF
310
7F4EFFFFFFEA5B26FFFFFFEA2616EAFFFFFFFFDA743416331617414E4E4E4ECA
310
0000FFFFFFFFFFFFBA161716161616FFFFFFFFFFBA17171616164EFFFFFFFFFF
310
FFFF4E16161717174E161717171626EBFFFFFFFFFFFFFF4E16161617165B1616
310
16171617FFFFFFFFFFFFFF6716161616161617FFFFFFFFFF16BAFFFFFFFFFFFF
310
FFFFFFEA268CFFFFFF7316EAFFFFEB1774FFB916FFFFFFFF7F4EFFFFFFFF7316
310
FFFFFFFF6826FFFFFFFFEB264D9CEABA257F807F7F6616BA0000FFFFFFFFFFFF
310
BA161716161616FFFFFFFFFFBA16171616164DFFFFFFFFFFFFFF4E1617161617
310
9B1617171717165BEBFFFFFFFFFF671616161617179B171616161616FFFFFFFF
310
FFFFFF3417161617171617FFFFFFFFFF17BAFFFFFFFFFFFFFFFFFFFF6734FFFF
310
FFEBCAFFFFFF8D17C9FFBA17FFFFFFFF7F357F808066174FFFFFFFFF7F16FFFF
310
FFFFD91673B99B415BFFFFFFFFBA16DA00009B7F7F7F807F671617161616167F
310
80807F7E6617161616164EFFFFFFFFFFFFFF4E1616161617B94E171716161616
310
349BC9D9AA4E16171616161634FF161617161717B9B9BAB9BA9B411716171716
310
163416FFFFFFFFFF16B9FFFFFFFFFFFFFFFFFFFFC917CAFFFFFFFFFFFFFF3342
310
FFFFBA17FFFFFFFF9B4E4E4F4E4E66EAFFFFFFFF5B16C9FFFFFFFFAA4E164E73
310
EAFFFFFFFF8D26FF00004E161716161616171617171616171717171617161616
310
17174EFFFFFFFFFFFFFF4E1717171616B9D92616171716171716171717171716
310
16171716AAFF161717171617161617171616161617161716166717FFFFFFFFFF
310
17B9FFFFFFFFFFFFFFFFFFFFFF3467FFFFFFFFFFFFCA168CFFFFBB17FFFFFFFF
310
FFFFFFFFFFFFFFFFFFFFFFEA26265BFFFFFFFFFFFFFFFFFFFFFFFFFFEA3467FF
310
00004D16161616161617161717161617161616171617171616164EFFFFFFFFFF
310
FFFF4D1617161616BAFF9B1616161616161716161616171717161766FFFF1616
310
16171617161617161716171616171717667F16FFFFFFFFFF17BAFFFFFFFFFFFF
310
FFFFFFFFFF8C26EAFFFFFFFFFF6617EAFFFFBA17FFFFFFFFFFFFFFFFFFFFFFFF
310
FFFFEA5A25BA269BFFFFFFFFFFFFFFFFFFFFFFFF6616DAFF00004E1616171616
310
1616161616161716161617171616171616174EFFFFFFFFFFFFFF4D1717171716
310
B9FFFF9C161616161616161716161717171667FFFFFF17161717171716161617
310
1716161616161641E97E16FFFFFFFFFF16B9FFFFFFFFFFFFFFFFFFFFFFEA169B
310
FFFFFFFFEA265BFFFFFFB916FFFFFFFFFFFFFFFFFFFFFFFFFF9B3416AAFF9B17
310
67EAFFFFFFFFFFFFFFFFEA5B169BFFFF00004D17161716161616161717171616
310
161717161716171716174EFFFFFFFFFFFFFF4D1616161616BAFFFFFFBB411616
310
161716161616171634ABFFFFFFFF161716161617171716171617171617267FFF
310
FF7F164E4E4E4E4F17BAFFFFFFFFFFFFFFFFFFFFFFFF66344D4E4E4F4117AAFF
310
FFFFBA174E4E4E4D4E4D4D4E4E4E4E4116174EBBFFFFFFCA342666ABEAFFFFEA
310
AA6725269CFFFFFF0000724F4E4D4D4D4E4D4D4E4E4E4D4E4E4E4E4E4E4E4E4D
310
4E4E74FFFFFFFFFFFFFF734E4E4E4D4ECAFFFFFFFFFFAA663416171717265B9B
310
FFFFFFFFFFFF7F8080807F80807F7F7F7F7F807FBAFFFFFFFF9B4E4E4F4D4D4E
310
4DC9FFFFFFFFFFFFFFFFFFFFFFFFBA4E4E4E4E4D4E4EFFFFFFFFC94E4E4E4F4E
310
4E4E4D4E4E5A807F9CD9FFFFFFFFFFFFFF9B5B2617171716174E8DEAFFFFFFFF
310
0000000000000000000000000000000000000000000000000000000000000000
  1
OLE
  0
ENDSEC
  0
SECTION
  2
OBJECTS
  0
DICTIONARY
  5
C
330
0
100
AcDbDictionary
  3
ACAD_GROUP
350
D
  3
ACAD_MLINESTYLE
350
17
  3
ACAD_SCALELIST
350
47
  0
DICTIONARY
  5
D
102
{ACAD_REACTORS
330
C
102
}
330
C
100
AcDbDictionary
  0
DICTIONARY
  5
17
102
{ACAD_REACTORS
330
C
102
}
330
C
100
AcDbDictionary
  3
STANDARD
350
18
  0
DICTIONARY
  5
47
102
{ACAD_REACTORS
330
C
102
}
330
C
100
AcDbDictionary
  0
MLINESTYLE
  5
18
102
{ACAD_REACTORS
330
17
102
}
330
17
100
AcDbMlineStyle
  2
Standard
 70
     0
  3

 62
   256
 51
90.0
 52
90.0
 71
     2
 49
0.5
 62
   256
  6
BYLAYER
 49
-0.5
 62
   256
  6
BYLAYER
  0
ENDSEC
  0
EOF
