  0
SECTION
  2
HEADER
  9
$ACADVER
  1
AC1015
  9
$ACADMAINTVER
 70
     6
  9
$DWGCODEPAGE
  3
ANSI_1252
  9
$INSBASE
 10
0.0
 20
0.0
 30
0.0
  9
$EXTMIN
 10
0.0
 20
0.0
 30
0.0
  9
$EXTMAX
 10
11.0
 20
8.5
 30
0.0
  9
$LIMMIN
 10
0.0
 20
0.0
  9
$LIMMAX
 10
11.0
 20
8.5
  9
$ORTHOMODE
 70
     0
  9
$REGENMODE
 70
     1
  9
$FILLMODE
 70
     1
  9
$QTEXTMODE
 70
     0
  9
$MIRRTEXT
 70
     1
  9
$LTSCALE
 40
1.0
  9
$ATTMODE
 70
     1
  9
$TEXTSIZE
 40
0.1111111111
  9
$TRACEWID
 40
0.05
  9
$TEXTSTYLE
  7
Standard
  9
$CLAYER
  8
0
  9
$CELTYPE
  6
ByLayer
  9
$CECOLOR
 62
   256
  9
$CELTSCALE
 40
1.0
  9
$DISPSILH
 70
     0
  9
$DIMSCALE
 40
1.0
  9
$DIMASZ
 40
0.125
  9
$DIMEXO
 40
0.05
  9
$DIMDLI
 40
0.38
  9
$DIMRND
 40
0.0
  9
$DIMDLE
 40
0.0
  9
$DIMEXE
 40
0.07
  9
$DIMTP
 40
0.0
  9
$DIMTM
 40
0.0
  9
$DIMTXT
 40
0.1111111111
  9
$DIMCEN
 40
0.09
  9
$DIMTSZ
 40
0.0
  9
$DIMTOL
 70
     0
  9
$DIMLIM
 70
     0
  9
$DIMTIH
 70
     1
  9
$DIMTOH
 70
     1
  9
$DIMSE1
 70
     0
  9
$DIMSE2
 70
     0
  9
$DIMTAD
 70
     0
  9
$DIMZIN
 70
     1
  9
$DIMBLK
  1

  9
$DIMASO
 70
     1
  9
$DIMSHO
 70
     1
  9
$DIMPOST
  1

  9
$DIMAPOST
  1

  9
$DIMALT
 70
     0
  9
$DIMALTD
 70
     2
  9
$DIMALTF
 40
25.4
  9
$DIMLFAC
 40
1.0
  9
$DIMTOFL
 70
     0
  9
$DIMTVP
 40
0.0
  9
$DIMTIX
 70
     0
  9
$DIMSOXD
 70
     0
  9
$DIMSAH
 70
     0
  9
$DIMBLK1
  1

  9
$DIMBLK2
  1

  9
$DIMSTYLE
  2
Standard
  9
$DIMCLRD
 70
     0
  9
$DIMCLRE
 70
     0
  9
$DIMCLRT
 70
     0
  9
$DIMTFAC
 40
1.0
  9
$DIMGAP
 40
0.1
  9
$DIMJUST
 70
     0
  9
$DIMSD1
 70
     0
  9
$DIMSD2
 70
     0
  9
$DIMTOLJ
 70
     1
  9
$DIMTZIN
 70
     1
  9
$DIMALTZ
 70
     0
  9
$DIMALTTZ
 70
     0
  9
$DIMUPT
 70
     0
  9
$DIMDEC
 70
     2
  9
$DIMTDEC
 70
     2
  9
$DIMALTU
 70
     2
  9
$DIMALTTD
 70
     2
  9
$DIMTXSTY
  7
Standard
  9
$DIMAUNIT
 70
     0
  9
$DIMADEC
 70
     0
  9
$DIMALTRND
 40
0.0
  9
$DIMAZIN
 70
     0
  9
$DIMDSEP
 70
    46
  9
$DIMATFIT
 70
     3
  9
$DIMFRAC
 70
     0
  9
$DIMLDRBLK
  1

  9
$DIMLUNIT
 70
     2
  9
$DIMLWD
 70
    -2
  9
$DIMLWE
 70
    -2
  9
$DIMTMOVE
 70
     0
  9
$LUNITS
 70
     2
  9
$LUPREC
 70
     3
  9
$SKETCHINC
 40
0.1
  9
$FILLETRAD
 40
0.5
  9
$AUNITS
 70
     0
  9
$AUPREC
 70
     0
  9
$MENU
  1
.
  9
$ELEVATION
 40
0.0
  9
$PELEVATION
 40
0.0
  9
$THICKNESS
 40
0.0
  9
$LIMCHECK
 70
     0
  9
$CHAMFERA
 40
0.0
  9
$CHAMFERB
 40
0.0
  9
$CHAMFERC
 40
0.0
  9
$CHAMFERD
 40
0.0
  9
$SKPOLY
 70
     0
  9
$TDCREATE
 40
2458880.554388843
  9
$TDUCREATE
 40
2458880.762722176
  9
$TDUPDATE
 40
2458880.554393912
  9
$TDUUPDATE
 40
2458880.762727245
  9
$TDINDWG
 40
0.0000000116
  9
$TDUSRTIMER
 40
0.0000000116
  9
$USRTIMER
 70
     1
  9
$ANGBASE
 50
0.0
  9
$ANGDIR
 70
     0
  9
$PDMODE
 70
     0
  9
$PDSIZE
 40
-1.0
  9
$PLINEWID
 40
0.0
  9
$SPLFRAME
 70
     0
  9
$SPLINETYPE
 70
     6
  9
$SPLINESEGS
 70
     8
  9
$HANDSEED
  5
29E
  9
$SURFTAB1
 70
     6
  9
$SURFTAB2
 70
     6
  9
$SURFTYPE
 70
     6
  9
$SURFU
 70
     6
  9
$SURFV
 70
     6
  9
$UCSBASE
  2

  9
$UCSNAME
  2

  9
$UCSORG
 10
0.0
 20
0.0
 30
0.0
  9
$UCSXDIR
 10
1.0
 20
0.0
 30
0.0
  9
$UCSYDIR
 10
0.0
 20
1.0
 30
0.0
  9
$UCSORTHOREF
  2

  9
$UCSORTHOVIEW
 70
     0
  9
$UCSORGTOP
 10
0.0
 20
0.0
 30
0.0
  9
$UCSORGBOTTOM
 10
0.0
 20
0.0
 30
0.0
  9
$UCSORGLEFT
 10
0.0
 20
0.0
 30
0.0
  9
$UCSORGRIGHT
 10
0.0
 20
0.0
 30
0.0
  9
$UCSORGFRONT
 10
0.0
 20
0.0
 30
0.0
  9
$UCSORGBACK
 10
0.0
 20
0.0
 30
0.0
  9
$PUCSBASE
  2

  9
$PUCSNAME
  2

  9
$PUCSORG
 10
0.0
 20
0.0
 30
0.0
  9
$PUCSXDIR
 10
1.0
 20
0.0
 30
0.0
  9
$PUCSYDIR
 10
0.0
 20
1.0
 30
0.0
  9
$PUCSORTHOREF
  2

  9
$PUCSORTHOVIEW
 70
     0
  9
$PUCSORGTOP
 10
0.0
 20
0.0
 30
0.0
  9
$PUCSORGBOTTOM
 10
0.0
 20
0.0
 30
0.0
  9
$PUCSORGLEFT
 10
0.0
 20
0.0
 30
0.0
  9
$PUCSORGRIGHT
 10
0.0
 20
0.0
 30
0.0
  9
$PUCSORGFRONT
 10
0.0
 20
0.0
 30
0.0
  9
$PUCSORGBACK
 10
0.0
 20
0.0
 30
0.0
  9
$USERI1
 70
     0
  9
$USERI2
 70
     0
  9
$USERI3
 70
     0
  9
$USERI4
 70
     0
  9
$USERI5
 70
     0
  9
$USERR1
 40
0.0
  9
$USERR2
 40
0.0
  9
$USERR3
 40
0.0
  9
$USERR4
 40
0.0
  9
$USERR5
 40
0.0
  9
$WORLDVIEW
 70
     1
  9
$SHADEDGE
 70
     3
  9
$SHADEDIF
 70
    70
  9
$TILEMODE
 70
     1
  9
$MAXACTVP
 70
    64
  9
$PINSBASE
 10
0.0
 20
0.0
 30
0.0
  9
$PLIMCHECK
 70
     0
  9
$PEXTMIN
 10
1.0000000000E+20
 20
1.0000000000E+20
 30
1.0000000000E+20
  9
$PEXTMAX
 10
-1.0000000000E+20
 20
-1.0000000000E+20
 30
-1.0000000000E+20
  9
$PLIMMIN
 10
0.0
 20
0.0
  9
$PLIMMAX
 10
12.0
 20
9.0
  9
$UNITMODE
 70
     0
  9
$VISRETAIN
 70
     1
  9
$PLINEGEN
 70
     0
  9
$PSLTSCALE
 70
     1
  9
$TREEDEPTH
 70
  3020
  9
$CMLSTYLE
  2
Standard
  9
$CMLJUST
 70
     0
  9
$CMLSCALE
 40
1.0
  9
$PROXYGRAPHICS
 70
     1
  9
$MEASUREMENT
 70
     0
  9
$CELWEIGHT
370
    -1
  9
$ENDCAPS
280
     0
  9
$JOINSTYLE
280
     0
  9
$LWDISPLAY
290
     1
  9
$INSUNITS
 70
     1
  9
$HYPERLINKBASE
  1

  9
$STYLESHEET
  1

  9
$XEDIT
290
     1
  9
$CEPSNTYPE
380
     0
  9
$PSTYLEMODE
290
     1
  9
$FINGERPRINTGUID
  2
{A501327B-4837-466D-80B5-AF5C365332CE}
  9
$VERSIONGUID
  2
{FAEB1C32-E019-11D5-929B-00C0DF256EC4}
  9
$EXTNAMES
290
     1
  9
$PSVPSCALE
 40
0.0
  9
$OLESTARTUP
290
     0
  0
ENDSEC
  0
SECTION
  2
CLASSES
  0
CLASS
  1
ACDBDICTIONARYWDFLT
  2
AcDbDictionaryWithDefault
  3
ObjectDBX Classes
 90
        0
280
     0
281
     0
  0
CLASS
  1
VISUALSTYLE
  2
AcDbVisualStyle
  3
ObjectDBX Classes
 90
     4095
280
     0
281
     0
  0
CLASS
  1
MATERIAL
  2
AcDbMaterial
  3
ObjectDBX Classes
 90
     1153
280
     0
281
     0
  0
CLASS
  1
SCALE
  2
AcDbScale
  3
ObjectDBX Classes
 90
     1153
280
     0
281
     0
  0
CLASS
  1
TABLESTYLE
  2
AcDbTableStyle
  3
ObjectDBX Classes
 90
     4095
280
     0
281
     0
  0
CLASS
  1
MLEADERSTYLE
  2
AcDbMLeaderStyle
  3
ACDB_MLEADERSTYLE_CLASS
 90
     4095
280
     0
281
     0
  0
CLASS
  1
SUN
  2
AcDbSun
  3
SCENEOE
 90
     1153
280
     0
281
     0
  0
CLASS
  1
ACDBPLACEHOLDER
  2
AcDbPlaceHolder
  3
ObjectDBX Classes
 90
        0
280
     0
281
     0
  0
CLASS
  1
LAYOUT
  2
AcDbLayout
  3
ObjectDBX Classes
 90
        0
280
     0
281
     0
  0
ENDSEC
  0
SECTION
  2
TABLES
  0
TABLE
  2
VPORT
  5
8
330
0
100
AcDbSymbolTable
 70
     1
  0
VPORT
  5
29
330
8
100
AcDbSymbolTableRecord
100
AcDbViewportTableRecord
  2
*Active
 70
     0
 10
0.0
 20
0.0
 11
1.0
 21
1.0
 12
5.5
 22
4.25
 13
0.0
 23
0.0
 14
0.5
 24
0.5
 15
0.5
 25
0.5
 16
0.0
 26
0.0
 36
1.0
 17
0.0
 27
0.0
 37
0.0
 40
8.5
 41
1.2941176471
 42
50.0
 43
0.0
 44
0.0
 50
0.0
 51
0.0
 71
     0
 72
  2000
 73
     1
 74
     3
 75
     0
 76
     0
 77
     0
 78
     0
281
     0
 65
     1
110
0.0
120
0.0
130
0.0
111
1.0
121
0.0
131
0.0
112
0.0
122
1.0
132
0.0
 79
     0
146
0.0
  0
ENDTAB
  0
TABLE
  2
LTYPE
  5
5
330
0
100
AcDbSymbolTable
 70
     6
  0
LTYPE
  5
14
330
5
100
AcDbSymbolTableRecord
100
AcDbLinetypeTableRecord
  2
ByBlock
 70
     0
  3

 72
    65
 73
     0
 40
0.0
  0
LTYPE
  5
15
330
5
100
AcDbSymbolTableRecord
100
AcDbLinetypeTableRecord
  2
ByLayer
 70
     0
  3

 72
    65
 73
     0
 40
0.0
  0
LTYPE
  5
16
330
5
100
AcDbSymbolTableRecord
100
AcDbLinetypeTableRecord
  2
Continuous
 70
     0
  3
Solid line
 72
    65
 73
     0
 40
0.0
  0
LTYPE
  5
6E
330
5
100
AcDbSymbolTableRecord
100
AcDbLinetypeTableRecord
  2
HIDDEN
 70
     0
  3
Hidden __ __ __ __ __ __ __ __ __ __ __ __ __ __
 72
    65
 73
     2
 40
0.075
 49
0.05
 74
     0
 49
-0.025
 74
     0
  0
LTYPE
  5
6F
330
5
100
AcDbSymbolTableRecord
100
AcDbLinetypeTableRecord
  2
PHANTOM
 70
     0
  3
Phantom ______  __  __  ______  __  __  ______
 72
    65
 73
     6
 40
0.5
 49
0.25
 74
     0
 49
-0.05
 74
     0
 49
0.05
 74
     0
 49
-0.05
 74
     0
 49
0.05
 74
     0
 49
-0.05
 74
     0
  0
LTYPE
  5
70
330
5
100
AcDbSymbolTableRecord
100
AcDbLinetypeTableRecord
  2
CENTER
 70
     0
  3
Center ____ _ ____ _ ____ _ ____ _ ____ _ ____
 72
    65
 73
     4
 40
0.4
 49
0.25
 74
     0
 49
-0.05
 74
     0
 49
0.05
 74
     0
 49
-0.05
 74
     0
  0
LTYPE
  5
71
330
5
100
AcDbSymbolTableRecord
100
AcDbLinetypeTableRecord
  2
CENTERX2
 70
     0
  3
Center (2x) ________  __  ________  __  _____
 72
    65
 73
     4
 40
0.8
 49
0.5
 74
     0
 49
-0.1
 74
     0
 49
0.1
 74
     0
 49
-0.1
 74
     0
  0
LTYPE
  5
72
330
5
100
AcDbSymbolTableRecord
100
AcDbLinetypeTableRecord
  2
DOT2
 70
     0
  3
Dot (.5x) ........................................
 72
    65
 73
     2
 40
0.025
 49
0.0
 74
     0
 49
-0.025
 74
     0
  0
ENDTAB
  0
TABLE
  2
LAYER
  5
2
330
0
100
AcDbSymbolTable
 70
     2
  0
LAYER
  5
10
330
2
100
AcDbSymbolTableRecord
100
AcDbLayerTableRecord
  2
0
 70
     0
 62
     7
  6
Continuous
370
    -3
390
F
  0
LAYER
  5
73
330
2
100
AcDbSymbolTableRecord
100
AcDbLayerTableRecord
  2
FORMAT
 70
     0
 62
     7
  6
Continuous
370
    -3
390
F
  0
ENDTAB
  0
TABLE
  2
STYLE
  5
3
330
0
100
AcDbSymbolTable
 70
     5
  0
STYLE
  5
11
330
3
100
AcDbSymbolTableRecord
100
AcDbTextStyleTableRecord
  2
Standard
 70
     0
 40
0.0
 41
1.0
 50
0.0
 71
     0
 42
0.1111111111
  3
txt
  4

  0
STYLE
  5
9A
330
3
100
AcDbSymbolTableRecord
100
AcDbTextStyleTableRecord
  2
SLDTEXTSTYLE0
 70
     0
 40
0.0
 41
0.75
 50
0.0
 71
     0
 42
0.1111111111
  3
TXT
  4

  0
STYLE
  5
A6
330
3
100
AcDbSymbolTableRecord
100
AcDbTextStyleTableRecord
  2
SLDTEXTSTYLE1
 70
     0
 40
0.0
 41
0.6
 50
0.0
 71
     0
 42
0.1111111111
  3
TXT
  4

  0
STYLE
  5
AB
330
3
100
AcDbSymbolTableRecord
100
AcDbTextStyleTableRecord
  2
SLDTEXTSTYLE2
 70
     0
 40
0.0
 41
0.6875
 50
0.0
 71
     0
 42
0.1111111111
  3
TXT
  4

  0
STYLE
  5
1C8
330
3
100
AcDbSymbolTableRecord
100
AcDbTextStyleTableRecord
  2
SLDTEXTSTYLE3
 70
     0
 40
0.0
 41
0.7
 50
0.0
 71
     0
 42
0.1111111111
  3
TXT
  4

  0
ENDTAB
  0
TABLE
  2
VIEW
  5
6
330
0
100
AcDbSymbolTable
 70
     0
  0
ENDTAB
  0
TABLE
  2
UCS
  5
7
330
0
100
AcDbSymbolTable
 70
     0
  0
ENDTAB
  0
TABLE
  2
APPID
  5
9
330
0
100
AcDbSymbolTable
 70
     1
  0
APPID
  5
12
330
9
100
AcDbSymbolTableRecord
100
AcDbRegAppTableRecord
  2
ACAD
 70
     0
  0
ENDTAB
  0
TABLE
  2
DIMSTYLE
  5
A
330
0
100
AcDbSymbolTable
 70
     5
100
AcDbDimStyleTable
  0
DIMSTYLE
105
27
330
A
100
AcDbSymbolTableRecord
100
AcDbDimStyleTableRecord
  2
Standard
 70
     0
178
     0
340
11
  0
DIMSTYLE
105
124
102
{ACAD_REACTORS
330
123
102
}
330
A
100
AcDbSymbolTableRecord
100
AcDbDimStyleTableRecord
  2
SLDDIMSTYLE0
 70
     0
 41
0.125
 44
0.0
 45
0.000000001
 78
     4
 79
     1
140
0.0833333333
141
0.0
147
0.0208333333
148
0.000000001
170
     1
171
     1
173
     1
178
     0
271
     2
272
     2
274
     1
276
     2
284
    12
340
9A
  0
DIMSTYLE
105
188
102
{ACAD_REACTORS
330
187
330
19C
102
}
330
A
100
AcDbSymbolTableRecord
100
AcDbDimStyleTableRecord
  2
SLDDIMSTYLE1
 70
     0
 41
0.125
 44
0.0
 45
0.000000001
 78
     8
 79
     2
140
0.0833333333
147
0.0208333333
148
0.000000001
170
     1
171
     1
172
     1
173
     1
178
     0
271
     2
272
     2
274
     1
276
     2
284
    12
289
     0
340
9A
  0
DIMSTYLE
105
1B1
102
{ACAD_REACTORS
330
1B0
102
}
330
A
100
AcDbSymbolTableRecord
100
AcDbDimStyleTableRecord
  2
SLDDIMSTYLE2
 70
     0
 41
0.125
 44
0.0
 45
0.000000001
 78
     4
 79
     1
140
0.0833333333
147
0.0208333333
148
0.000000001
170
     1
171
     1
173
     1
178
     0
271
     2
272
     2
274
     1
276
     2
284
    12
340
9A
  0
DIMSTYLE
105
1D2
330
A
100
AcDbSymbolTableRecord
100
AcDbDimStyleTableRecord
  2
SLDDIMSTYLE3
 70
     0
 41
0.125
 44
0.0
 45
0.000000001
146
0.125
147
0.0
173
     1
178
     0
271
     0
272
     0
276
     2
340
11
  0
ENDTAB
  0
TABLE
  2
BLOCK_RECORD
  5
1
330
0
100
AcDbSymbolTable
 70
    21
  0
BLOCK_RECORD
  5
1F
330
1
100
AcDbSymbolTableRecord
100
AcDbBlockTableRecord
  2
*Model_Space
340
22
  0
BLOCK_RECORD
  5
1B
330
1
100
AcDbSymbolTableRecord
100
AcDbBlockTableRecord
  2
*Paper_Space
340
1E
  0
BLOCK_RECORD
  5
23
330
1
100
AcDbSymbolTableRecord
100
AcDbBlockTableRecord
  2
*Paper_Space0
340
26
  0
BLOCK_RECORD
  5
74
330
1
100
AcDbSymbolTableRecord
100
AcDbBlockTableRecord
  2
Third Angle Projection Block
340
0
102
{BLKREFS
331
99
102
}
  0
BLOCK_RECORD
  5
AD
330
1
100
AcDbSymbolTableRecord
100
AcDbBlockTableRecord
  2
SW_NOTE_0
340
0
102
{BLKREFS
331
B2
102
}
  0
BLOCK_RECORD
  5
B3
330
1
100
AcDbSymbolTableRecord
100
AcDbBlockTableRecord
  2
SW_NOTE_1
340
0
102
{BLKREFS
331
B8
102
}
  0
BLOCK_RECORD
  5
BB
330
1
100
AcDbSymbolTableRecord
100
AcDbBlockTableRecord
  2
SW_NOTE_2
340
0
102
{BLKREFS
331
C0
102
}
  0
BLOCK_RECORD
  5
C1
330
1
100
AcDbSymbolTableRecord
100
AcDbBlockTableRecord
  2
SW_NOTE_3
340
0
102
{BLKREFS
331
D8
102
}
  0
BLOCK_RECORD
  5
D9
330
1
100
AcDbSymbolTableRecord
100
AcDbBlockTableRecord
  2
SW_NOTE_4
340
0
102
{BLKREFS
331
E0
102
}
  0
BLOCK_RECORD
  5
E1
330
1
100
AcDbSymbolTableRecord
100
AcDbBlockTableRecord
  2
SW_TABLEANNOTATION_0
340
0
102
{BLKREFS
331
10A
102
}
  0
BLOCK_RECORD
  5
EF
330
1
100
AcDbSymbolTableRecord
100
AcDbBlockTableRecord
  2
SW_SYMBOL_C#_1
340
0
102
{BLKREFS
331
F4
102
}
  0
BLOCK_RECORD
  5
F8
330
1
100
AcDbSymbolTableRecord
100
AcDbBlockTableRecord
  2
SW_SYMBOL_C#_2
340
0
102
{BLKREFS
331
FD
102
}
  0
BLOCK_RECORD
  5
100
330
1
100
AcDbSymbolTableRecord
100
AcDbBlockTableRecord
  2
SW_SYMBOL_C#_3
340
0
102
{BLKREFS
331
105
102
}
  0
BLOCK_RECORD
  5
125
330
1
100
AcDbSymbolTableRecord
100
AcDbBlockTableRecord
  2
_D
340
0
  0
BLOCK_RECORD
  5
189
330
1
100
AcDbSymbolTableRecord
100
AcDbBlockTableRecord
  2
_D_1
340
0
  0
BLOCK_RECORD
  5
19D
330
1
100
AcDbSymbolTableRecord
100
AcDbBlockTableRecord
  2
_D_2
340
0
  0
BLOCK_RECORD
  5
1B2
330
1
100
AcDbSymbolTableRecord
100
AcDbBlockTableRecord
  2
_D_3
340
0
  0
BLOCK_RECORD
  5
1C5
330
1
100
AcDbSymbolTableRecord
100
AcDbBlockTableRecord
  2
SW_NOTE_5
340
0
102
{BLKREFS
331
1D1
102
}
  0
BLOCK_RECORD
  5
1CA
330
1
100
AcDbSymbolTableRecord
100
AcDbBlockTableRecord
  2
SW_SYMBOL_HOLE_DIAM
340
0
102
{BLKREFS
331
1CF
331
1D8
102
}
  0
BLOCK_RECORD
  5
1D4
330
1
100
AcDbSymbolTableRecord
100
AcDbBlockTableRecord
  2
SW_NOTE_6
340
0
102
{BLKREFS
331
1DA
102
}
  0
BLOCK_RECORD
  5
1DC
330
1
100
AcDbSymbolTableRecord
100
AcDbBlockTableRecord
  2
SW_NOTE_7
340
0
102
{BLKREFS
331
1E1
102
}
  0
BLOCK_RECORD
  5
1E3
330
1
100
AcDbSymbolTableRecord
100
AcDbBlockTableRecord
  2
SW_NOTE_8
340
0
102
{BLKREFS
331
1E8
102
}
  0
BLOCK_RECORD
  5
1EA
330
1
100
AcDbSymbolTableRecord
100
AcDbBlockTableRecord
  2
SW_NOTE_9
340
0
102
{BLKREFS
331
1EF
102
}
  0
ENDTAB
  0
ENDSEC
  0
SECTION
  2
BLOCKS
  0
BLOCK
  5
20
330
1F
100
AcDbEntity
  8
0
100
AcDbBlockBegin
  2
*Model_Space
 70
     0
 10
0.0
 20
0.0
 30
0.0
  3
*Model_Space
  1

  0
ENDBLK
  5
21
330
1F
100
AcDbEntity
  8
0
100
AcDbBlockEnd
  0
BLOCK
  5
1C
330
1B
100
AcDbEntity
 67
     1
  8
0
100
AcDbBlockBegin
  2
*Paper_Space
 70
     0
 10
0.0
 20
0.0
 30
0.0
  3
*Paper_Space
  1

  0
ENDBLK
  5
1D
330
1B
100
AcDbEntity
 67
     1
  8
0
100
AcDbBlockEnd
  0
BLOCK
  5
24
330
23
100
AcDbEntity
  8
0
100
AcDbBlockBegin
  2
*Paper_Space0
 70
     0
 10
0.0
 20
0.0
 30
0.0
  3
*Paper_Space0
  1

  0
ENDBLK
  5
25
330
23
100
AcDbEntity
  8
0
100
AcDbBlockEnd
  0
BLOCK
  5
75
330
74
100
AcDbEntity
  8
0
100
AcDbBlockBegin
  2
Third Angle Projection Block
 70
     0
 10
0.0
 20
0.0
 30
0.0
  3
Third Angle Projection Block
  1

  0
CIRCLE
  5
77
330
74
100
AcDbEntity
  8
0
  6
Continuous
 62
     7
370
    35
100
AcDbCircle
 10
3.9951432636
 20
0.7456853688
 30
0.0
 40
0.0696152422706639
  0
CIRCLE
  5
78
330
74
100
AcDbEntity
  8
0
  6
Continuous
 62
     7
370
    35
100
AcDbCircle
 10
3.9951432636
 20
0.7456853688
 30
0.0
 40
0.1535916633280245
  0
LINE
  5
79
330
74
100
AcDbEntity
  8
0
  6
CENTERX2
 62
     7
370
    18
100
AcDbLine
 10
4.3360937897
 20
0.7456853688
 30
0.0
 11
4.7028635231
 21
0.7456853688
 31
0.0
  0
LINE
  5
7A
330
74
100
AcDbEntity
  8
0
  6
Continuous
 62
     7
370
    35
100
AcDbLine
 10
4.3701432636
 20
0.815300611
 30
0.0
 11
4.3701432636
 21
0.6760701265
 31
0.0
  0
LINE
  5
7B
330
74
100
AcDbEntity
  8
0
  6
Continuous
 62
     7
370
    35
100
AcDbLine
 10
4.3701432636
 20
0.6760701265
 30
0.0
 11
4.6701432636
 21
0.5956853688
 31
0.0
  0
LINE
  5
7C
330
74
100
AcDbEntity
  8
0
  6
Continuous
 62
     7
370
    35
100
AcDbLine
 10
4.6701432636
 20
0.5956853688
 30
0.0
 11
4.6701432636
 21
0.8956853688
 31
0.0
  0
LINE
  5
7D
330
74
100
AcDbEntity
  8
0
  6
Continuous
 62
     7
370
    35
100
AcDbLine
 10
4.6701432636
 20
0.8956853688
 30
0.0
 11
4.3701432636
 21
0.815300611
 31
0.0
  0
LINE
  5
7E
330
74
100
AcDbEntity
  8
0
  6
CENTERX2
 62
     7
370
    18
100
AcDbLine
 10
3.8032513961
 20
0.7456853688
 30
0.0
 11
4.187035131
 21
0.7456853688
 31
0.0
  0
LINE
  5
7F
330
74
100
AcDbEntity
  8
0
  6
CENTERX2
 62
     7
370
    18
100
AcDbLine
 10
3.9951432636
 20
0.9375772362
 30
0.0
 11
3.9951432636
 21
0.5537935013
 31
0.0
  0
POINT
  5
80
330
74
100
AcDbEntity
  8
0
  6
Continuous
 62
     7
370
     0
100
AcDbPoint
 10
3.9951432636
 20
0.7456853688
 30
0.0
  0
ENDBLK
  5
76
330
74
100
AcDbEntity
  8
0
100
AcDbBlockEnd
  0
BLOCK
  5
AE
330
AD
100
AcDbEntity
  8
0
100
AcDbBlockBegin
  2
SW_NOTE_0
 70
     0
 10
0.0
 20
0.0
 30
0.0
  3
SW_NOTE_0
  1

  0
MTEXT
  5
B0
330
AD
100
AcDbEntity
  8
0
  6
Continuous
 62
     0
370
     0
100
AcDbMText
 10
0.78375
 20
0.0773440644
 30
0.0
 40
0.06
 41
0.0
 71
     2
 72
     1
  1
VALUES IN PARENTHESIS ARE CALCULATED
  7
SLDTEXTSTYLE0
 73
     1
 44
1.0
  0
MTEXT
  5
B1
330
AD
100
AcDbEntity
  8
0
  6
Continuous
 62
     0
370
     0
100
AcDbMText
 10
0.7825936818
 20
-0.0220260102
 30
0.0
 40
0.06
 41
0.0
 71
     2
 72
     1
  1
AND MAY CONTAIN ROUNDOFF ERRORS
  7
SLDTEXTSTYLE0
 73
     1
 44
1.0
  0
ENDBLK
  5
AF
330
AD
100
AcDbEntity
  8
0
100
AcDbBlockEnd
  0
BLOCK
  5
B4
330
B3
100
AcDbEntity
  8
0
100
AcDbBlockBegin
  2
SW_NOTE_1
 70
     0
 10
0.0
 20
0.0
 30
0.0
  3
SW_NOTE_1
  1

  0
MTEXT
  5
B6
330
B3
100
AcDbEntity
  8
0
  6
Continuous
 62
     0
370
     0
100
AcDbMText
 10
0.0
 20
0.1074223116
 30
0.0
 40
0.0833333333
 41
0.0
 71
     1
 72
     1
  1
DRAWING
  7
SLDTEXTSTYLE0
 73
     1
 44
1.0
  0
MTEXT
  5
B7
330
B3
100
AcDbEntity
  8
0
  6
Continuous
 62
     0
370
     0
100
AcDbMText
 10
0.0
 20
-0.0036887981
 30
0.0
 40
0.0833333333
 41
0.0
 71
     1
 72
     1
  1
PROJECTION
  7
SLDTEXTSTYLE0
 73
     1
 44
1.0
  0
ENDBLK
  5
B5
330
B3
100
AcDbEntity
  8
0
100
AcDbBlockEnd
  0
BLOCK
  5
BC
330
BB
100
AcDbEntity
  8
0
100
AcDbBlockBegin
  2
SW_NOTE_2
 70
     0
 10
0.0
 20
0.0
 30
0.0
  3
SW_NOTE_2
  1

  0
MTEXT
  5
BE
330
BB
100
AcDbEntity
  8
0
  6
Continuous
 62
     0
370
     0
100
AcDbMText
 10
0.986328125
 20
0.1611334675
 30
0.0
 40
0.125
 41
0.0
 71
     2
 72
     1
  1
FOR INFORMATION ONLY
  7
SLDTEXTSTYLE0
 73
     1
 44
1.0
  0
MTEXT
  5
BF
330
BB
100
AcDbEntity
  8
0
  6
Continuous
 62
     0
370
     0
100
AcDbMText
 10
0.999088459
 20
-0.0055331972
 30
0.0
 40
0.125
 41
0.0
 71
     2
 72
     1
  1
NOT FOR MANUFACTURING PURPOSES
  7
SLDTEXTSTYLE0
 73
     1
 44
1.0
  0
ENDBLK
  5
BD
330
BB
100
AcDbEntity
  8
0
100
AcDbBlockEnd
  0
BLOCK
  5
C2
330
C1
100
AcDbEntity
  8
0
100
AcDbBlockBegin
  2
SW_NOTE_3
 70
     0
 10
0.0
 20
0.0
 30
0.0
  3
SW_NOTE_3
  1

  0
MTEXT
  5
C4
330
C1
100
AcDbEntity
  8
0
  6
Continuous
 62
     0
370
     0
100
AcDbMText
 10
0.0
 20
0.1342778896
 30
0.0
 40
0.1041666667
 41
0.0
 71
     1
 72
     1
  1
NOTES/SPECIFICATIONS:
  7
SLDTEXTSTYLE0
 73
     1
 44
1.0
  0
MTEXT
  5
C5
330
C1
100
AcDbEntity
  8
0
  6
Continuous
 62
     0
370
     0
100
AcDbMText
 10
0.3937007786
 20
-0.1434998849
 30
0.0
 40
0.1041666667
 41
0.0
 71
     1
 72
     1
  1
DESIGN WAVELENGTH: 587.6 nm
  7
SLDTEXTSTYLE0
 73
     1
 44
1.0
  0
MTEXT
  5
C6
330
C1
100
AcDbEntity
  8
0
  6
Continuous
 62
     0
370
     0
100
AcDbMText
 10
0.0
 20
-0.1434998849
 30
0.0
 40
0.1041666667
 41
0.0
 71
     1
 72
     1
  1
1.
  7
SLDTEXTSTYLE0
 73
     1
 44
1.0
  0
MTEXT
  5
C7
330
C1
100
AcDbEntity
  8
0
  6
Continuous
 62
     0
370
     0
100
AcDbMText
 10
0.3937007786
 20
-0.2823887721
 30
0.0
 40
0.1041666667
 41
0.0
 71
     1
 72
     1
  1
FOCAL LENGTH: f=249.2 mm
  7
SLDTEXTSTYLE0
 73
     1
 44
1.0
  0
MTEXT
  5
C8
330
C1
100
AcDbEntity
  8
0
  6
Continuous
 62
     0
370
     0
100
AcDbMText
 10
2.2663860252
 20
-0.2823887721
 30
0.0
 40
0.1041666667
 41
0.0
 71
     1
 72
     1
  1
%%p
  7
SLDTEXTSTYLE0
 73
     1
 44
1.0
  0
MTEXT
  5
C9
330
C1
100
AcDbEntity
  8
0
  6
Continuous
 62
     0
370
     0
100
AcDbMText
 10
2.365691558
 20
-0.2823887721
 30
0.0
 40
0.1041666667
 41
0.0
 71
     1
 72
     1
  1
1%
  7
SLDTEXTSTYLE0
 73
     1
 44
1.0
  0
MTEXT
  5
CA
330
C1
100
AcDbEntity
  8
0
  6
Continuous
 62
     0
370
     0
100
AcDbMText
 10
0.0
 20
-0.2823887721
 30
0.0
 40
0.1041666667
 41
0.0
 71
     1
 72
     1
  1
2.
  7
SLDTEXTSTYLE0
 73
     1
 44
1.0
  0
MTEXT
  5
CB
330
C1
100
AcDbEntity
  8
0
  6
Continuous
 62
     0
370
     0
100
AcDbMText
 10
0.3937007786
 20
-0.4212776593
 30
0.0
 40
0.1041666667
 41
0.0
 71
     1
 72
     1
  1
WORKING DISTANCE (REF): 241.7 mm
  7
SLDTEXTSTYLE0
 73
     1
 44
1.0
  0
MTEXT
  5
CC
330
C1
100
AcDbEntity
  8
0
  6
Continuous
 62
     0
370
     0
100
AcDbMText
 10
0.0
 20
-0.4212776593
 30
0.0
 40
0.1041666667
 41
0.0
 71
     1
 72
     1
  1
3.
  7
SLDTEXTSTYLE0
 73
     1
 44
1.0
  0
MTEXT
  5
CD
330
C1
100
AcDbEntity
  8
0
  6
Continuous
 62
     0
370
     0
100
AcDbMText
 10
0.3937007786
 20
-0.5601665465
 30
0.0
 40
0.1041666667
 41
0.0
 71
     1
 72
     1
  1
CLEAR APERTURE:
  7
SLDTEXTSTYLE0
 73
     1
 44
1.0
  0
MTEXT
  5
CE
330
C1
100
AcDbEntity
  8
0
  6
Continuous
 62
     0
370
     0
100
AcDbMText
 10
1.6001050954
 20
-0.5601665465
 30
0.0
 40
0.1041666667
 41
0.0
 71
     1
 72
     1
  1
%%c
  7
SLDTEXTSTYLE0
 73
     1
 44
1.0
  0
MTEXT
  5
CF
330
C1
100
AcDbEntity
  8
0
  6
Continuous
 62
     0
370
     0
100
AcDbMText
 10
1.7573388924
 20
-0.5601665465
 30
0.0
 40
0.1041666667
 41
0.0
 71
     1
 72
     1
  1
45.7 mm
  7
SLDTEXTSTYLE0
 73
     1
 44
1.0
  0
MTEXT
  5
D0
330
C1
100
AcDbEntity
  8
0
  6
Continuous
 62
     0
370
     0
100
AcDbMText
 10
0.0
 20
-0.5601665465
 30
0.0
 40
0.1041666667
 41
0.0
 71
     1
 72
     1
  1
4.
  7
SLDTEXTSTYLE0
 73
     1
 44
1.0
  0
MTEXT
  5
D1
330
C1
100
AcDbEntity
  8
0
  6
Continuous
 62
     0
370
     0
100
AcDbMText
 10
0.3937007786
 20
-0.6990554337
 30
0.0
 40
0.1041666667
 41
0.0
 71
     1
 72
     1
  1
SURFACE QUALITY: 40-20 SCRATCH-DIG
  7
SLDTEXTSTYLE0
 73
     1
 44
1.0
  0
MTEXT
  5
D2
330
C1
100
AcDbEntity
  8
0
  6
Continuous
 62
     0
370
     0
100
AcDbMText
 10
0.0
 20
-0.6990554337
 30
0.0
 40
0.1041666667
 41
0.0
 71
     1
 72
     1
  1
5.
  7
SLDTEXTSTYLE0
 73
     1
 44
1.0
  0
MTEXT
  5
D3
330
C1
100
AcDbEntity
  8
0
  6
Continuous
 62
     0
370
     0
100
AcDbMText
 10
0.3937007786
 20
-0.8379443209
 30
0.0
 40
0.1041666667
 41
0.0
 71
     1
 72
     1
  1
COATING: BBAR Ravg<0.5% FROM 350-700 nm, 0
  7
SLDTEXTSTYLE0
 73
     1
 44
1.0
  0
MTEXT
  5
D4
330
C1
100
AcDbEntity
  8
0
  6
Continuous
 62
     0
370
     0
100
AcDbMText
 10
3.6317409992
 20
-0.8379443209
 30
0.0
 40
0.1041666667
 41
0.0
 71
     1
 72
     1
  1
%%d
  7
SLDTEXTSTYLE0
 73
     1
 44
1.0
  0
MTEXT
  5
D5
330
C1
100
AcDbEntity
  8
0
  6
Continuous
 62
     0
370
     0
100
AcDbMText
 10
3.7370071877
 20
-0.8379443209
 30
0.0
 40
0.1041666667
 41
0.0
 71
     1
 72
     1
  1
AOI,
  7
SLDTEXTSTYLE0
 73
     1
 44
1.0
  0
MTEXT
  5
D6
330
C1
100
AcDbEntity
  8
0
  6
Continuous
 62
     0
370
     0
100
AcDbMText
 10
0.0
 20
-0.8379443209
 30
0.0
 40
0.1041666667
 41
0.0
 71
     1
 72
     1
  1
6.
  7
SLDTEXTSTYLE0
 73
     1
 44
1.0
  0
MTEXT
  5
D7
330
C1
100
AcDbEntity
  8
0
  6
Continuous
 62
     0
370
     0
100
AcDbMText
 10
0.3937007874
 20
-0.9768332081
 30
0.0
 40
0.1041666667
 41
0.0
 71
     1
 72
     1
  1
ON BOTH OPTICAL SURFACES
  7
SLDTEXTSTYLE0
 73
     1
 44
1.0
  0
ENDBLK
  5
C3
330
C1
100
AcDbEntity
  8
0
100
AcDbBlockEnd
  0
BLOCK
  5
DA
330
D9
100
AcDbEntity
  8
0
100
AcDbBlockBegin
  2
SW_NOTE_4
 70
     0
 10
0.0
 20
0.0
 30
0.0
  3
SW_NOTE_4
  1

  0
MTEXT
  5
DC
330
D9
100
AcDbEntity
  8
0
  6
Continuous
 62
     0
370
     0
100
AcDbMText
 10
0.3336588542
 20
0.1342778896
 30
0.0
 40
0.1041666667
 41
0.0
 71
     2
 72
     1
  1
MOUNTED
  7
SLDTEXTSTYLE0
 73
     1
 44
1.0
  0
MTEXT
  5
DD
330
D9
100
AcDbEntity
  8
0
  6
Continuous
 62
     0
370
     0
100
AcDbMText
 10
0.7540750588
 20
0.1342778896
 30
0.0
 40
0.1041666667
 41
0.0
 71
     2
 72
     1
  1
%%c
  7
SLDTEXTSTYLE0
 73
     1
 44
1.0
  0
MTEXT
  5
DE
330
D9
100
AcDbEntity
  8
0
  6
Continuous
 62
     0
370
     0
100
AcDbMText
 10
1.2352020849
 20
0.1342778896
 30
0.0
 40
0.1041666667
 41
0.0
 71
     2
 72
     1
  1
2" f=250 mm
  7
SLDTEXTSTYLE0
 73
     1
 44
1.0
  0
MTEXT
  5
DF
330
D9
100
AcDbEntity
  8
0
  6
Continuous
 62
     0
370
     0
100
AcDbMText
 10
0.8212743181
 20
-0.0046109977
 30
0.0
 40
0.1041666667
 41
0.0
 71
     2
 72
     1
  1
PLANO CONVEX LENS, -A COATED
  7
SLDTEXTSTYLE0
 73
     1
 44
1.0
  0
ENDBLK
  5
DB
330
D9
100
AcDbEntity
  8
0
100
AcDbBlockEnd
  0
BLOCK
  5
E2
330
E1
100
AcDbEntity
  8
0
100
AcDbBlockBegin
  2
SW_TABLEANNOTATION_0
 70
     0
 10
0.0
 20
0.0
 30
0.0
  3
SW_TABLEANNOTATION_0
  1

  0
LINE
  5
E4
330
E1
100
AcDbEntity
  8
0
  6
Continuous
 62
     0
370
     0
100
AcDbLine
 10
0.0
 20
0.0
 30
0.0
 11
0.0
 21
-0.9619992186
 31
0.0
  0
LINE
  5
E5
330
E1
100
AcDbEntity
  8
0
  6
Continuous
 62
     0
370
     0
100
AcDbLine
 10
0.0
 20
-0.9619992186
 30
0.0
 11
3.2061602982
 21
-0.9619992186
 31
0.0
  0
LINE
  5
E6
330
E1
100
AcDbEntity
  8
0
  6
Continuous
 62
     0
370
     0
100
AcDbLine
 10
3.2061602982
 20
-0.9619992186
 30
0.0
 11
3.2061602982
 21
0.0
 31
0.0
  0
LINE
  5
E7
330
E1
100
AcDbEntity
  8
0
  6
Continuous
 62
     0
370
     0
100
AcDbLine
 10
3.2061602982
 20
0.0
 30
0.0
 11
0.0
 21
0.0
 31
0.0
  0
LINE
  5
E8
330
E1
100
AcDbEntity
  8
0
  6
Continuous
 62
     0
370
     0
100
AcDbLine
 10
1.0687200994
 20
0.0
 30
0.0
 11
1.0687200994
 21
-0.9619992186
 31
0.0
  0
LINE
  5
E9
330
E1
100
AcDbEntity
  8
0
  6
Continuous
 62
     0
370
     0
100
AcDbLine
 10
2.1374401988
 20
0.0
 30
0.0
 11
2.1374401988
 21
-0.9619992186
 31
0.0
  0
LINE
  5
EA
330
E1
100
AcDbEntity
  8
0
  6
Continuous
 62
     0
370
     0
100
AcDbLine
 10
0.0
 20
-0.1504811885
 30
0.0
 11
3.2061602982
 21
-0.1504811885
 31
0.0
  0
LINE
  5
EB
330
E1
100
AcDbEntity
  8
0
  6
Continuous
 62
     0
370
     0
100
AcDbLine
 10
0.0
 20
-0.4120734868
 30
0.0
 11
3.2061602982
 21
-0.4120734868
 31
0.0
  0
LINE
  5
EC
330
E1
100
AcDbEntity
  8
0
  6
Continuous
 62
     0
370
     0
100
AcDbLine
 10
0.0
 20
-0.6377468089
 30
0.0
 11
3.2061602982
 21
-0.6377468089
 31
0.0
  0
MTEXT
  5
ED
330
E1
100
AcDbEntity
  8
0
  6
Continuous
 62
     0
370
     0
100
AcDbMText
 10
1.1074783443
 20
-0.0338202706
 30
0.0
 40
0.0833333333
 41
0.0
 71
     1
 72
     1
  1
PART DESCRIPTION
  7
SLDTEXTSTYLE0
 73
     1
 44
1.0
  0
MTEXT
  5
EE
330
E1
100
AcDbEntity
  8
0
  6
Continuous
 62
     0
370
     0
100
AcDbMText
 10
2.4130039465
 20
-0.0338202706
 30
0.0
 40
0.0833333333
 41
0.0
 71
     1
 72
     1
  1
MATERIAL
  7
SLDTEXTSTYLE0
 73
     1
 44
1.0
  0
INSERT
  5
F4
330
E1
100
AcDbEntity
  8
0
  6
Continuous
 62
     0
370
     0
100
AcDbBlockReference
  2
SW_SYMBOL_C#_1
 10
0.4218137498
 20
-0.3357233361
 30
0.0
 41
0.0027037109
 42
0.0027037109
 43
0.0027037109
  0
MTEXT
  5
F5
330
E1
100
AcDbEntity
  8
0
  6
Continuous
 62
     0
370
     0
100
AcDbMText
 10
1.4260739706
 20
-0.239857014
 30
0.0
 40
0.0833333333
 41
0.0
 71
     1
 72
     1
  1
SM2RR
  7
SLDTEXTSTYLE0
 73
     1
 44
1.0
  0
MTEXT
  5
F6
330
E1
100
AcDbEntity
  8
0
  6
Continuous
 62
     0
370
     0
100
AcDbMText
 10
2.3894699933
 20
-0.1843014592
 30
0.0
 40
0.0833333333
 41
0.0
 71
     1
 72
     1
  1
ANODIZED
  7
SLDTEXTSTYLE0
 73
     1
 44
1.0
  0
MTEXT
  5
F7
330
E1
100
AcDbEntity
  8
0
  6
Continuous
 62
     0
370
     0
100
AcDbMText
 10
2.376429864
 20
-0.2954125689
 30
0.0
 40
0.0833333333
 41
0.0
 71
     1
 72
     1
  1
ALUMINUM
  7
SLDTEXTSTYLE0
 73
     1
 44
1.0
  0
INSERT
  5
FD
330
E1
100
AcDbEntity
  8
0
  6
Continuous
 62
     0
370
     0
100
AcDbBlockReference
  2
SW_SYMBOL_C#_2
 10
0.4218137498
 20
-0.5793561463
 30
0.0
 41
0.0027037109
 42
0.0027037109
 43
0.0027037109
  0
MTEXT
  5
FE
330
E1
100
AcDbEntity
  8
0
  6
Continuous
 62
     0
370
     0
100
AcDbMText
 10
1.3535431001
 20
-0.4834898242
 30
0.0
 40
0.0833333333
 41
0.0
 71
     1
 72
     1
  1
LA1301-A
  7
SLDTEXTSTYLE0
 73
     1
 44
1.0
  0
MTEXT
  5
FF
330
E1
100
AcDbEntity
  8
0
  6
Continuous
 62
     0
370
     0
100
AcDbMText
 10
2.5167848143
 20
-0.4834898242
 30
0.0
 40
0.0833333333
 41
0.0
 71
     1
 72
     1
  1
N-BK7
  7
SLDTEXTSTYLE0
 73
     1
 44
1.0
  0
INSERT
  5
105
330
E1
100
AcDbEntity
  8
0
  6
Continuous
 62
     0
370
     0
100
AcDbBlockReference
  2
SW_SYMBOL_C#_3
 10
0.4218137498
 20
-0.8543190122
 30
0.0
 41
0.0027037109
 42
0.0027037109
 43
0.0027037109
  0
MTEXT
  5
106
330
E1
100
AcDbEntity
  8
0
  6
Continuous
 62
     0
370
     0
100
AcDbMText
 10
1.2986820039
 20
-0.7028971353
 30
0.0
 40
0.0833333333
 41
0.0
 71
     1
 72
     1
  1
ENGRAVED
  7
SLDTEXTSTYLE0
 73
     1
 44
1.0
  0
MTEXT
  5
107
330
E1
100
AcDbEntity
  8
0
  6
Continuous
 62
     0
370
     0
100
AcDbMText
 10
1.3506110106
 20
-0.814008245
 30
0.0
 40
0.0833333333
 41
0.0
 71
     1
 72
     1
  1
HOUSING
  7
SLDTEXTSTYLE0
 73
     1
 44
1.0
  0
MTEXT
  5
108
330
E1
100
AcDbEntity
  8
0
  6
Continuous
 62
     0
370
     0
100
AcDbMText
 10
2.3894699933
 20
-0.7028971353
 30
0.0
 40
0.0833333333
 41
0.0
 71
     1
 72
     1
  1
ANODIZED
  7
SLDTEXTSTYLE0
 73
     1
 44
1.0
  0
MTEXT
  5
109
330
E1
100
AcDbEntity
  8
0
  6
Continuous
 62
     0
370
     0
100
AcDbMText
 10
2.376429864
 20
-0.814008245
 30
0.0
 40
0.0833333333
 41
0.0
 71
     1
 72
     1
  1
ALUMINUM
  7
SLDTEXTSTYLE0
 73
     1
 44
1.0
  0
ENDBLK
  5
E3
330
E1
100
AcDbEntity
  8
0
100
AcDbBlockEnd
  0
BLOCK
  5
F0
330
EF
100
AcDbEntity
  8
0
100
AcDbBlockBegin
  2
SW_SYMBOL_C#_1
 70
     0
 10
0.0
 20
0.0
 30
0.0
  3
SW_SYMBOL_C#_1
  1

  0
CIRCLE
  5
F2
330
EF
100
AcDbEntity
  8
0
  6
Continuous
 62
     0
370
     0
100
AcDbCircle
 10
31.4960629921
 20
19.6850393701
 30
0.0
 40
31.49606299212599
  0
MTEXT
  5
F3
330
EF
100
AcDbEntity
  8
0
  6
Continuous
 62
     0
370
     0
100
AcDbMText
 10
31.4960629921
 20
19.6850393701
 30
0.0
 40
30.821835344
 41
0.0
 71
     5
 72
     1
  1
1
  7
SLDTEXTSTYLE0
 73
     1
 44
1.0
  0
ENDBLK
  5
F1
330
EF
100
AcDbEntity
  8
0
100
AcDbBlockEnd
  0
BLOCK
  5
F9
330
F8
100
AcDbEntity
  8
0
100
AcDbBlockBegin
  2
SW_SYMBOL_C#_2
 70
     0
 10
0.0
 20
0.0
 30
0.0
  3
SW_SYMBOL_C#_2
  1

  0
CIRCLE
  5
FB
330
F8
100
AcDbEntity
  8
0
  6
Continuous
 62
     0
370
     0
100
AcDbCircle
 10
31.4960629921
 20
19.6850393701
 30
0.0
 40
31.49606299212599
  0
MTEXT
  5
FC
330
F8
100
AcDbEntity
  8
0
  6
Continuous
 62
     0
370
     0
100
AcDbMText
 10
31.4960629921
 20
19.6850393701
 30
0.0
 40
30.821835344
 41
0.0
 71
     5
 72
     1
  1
2
  7
SLDTEXTSTYLE0
 73
     1
 44
1.0
  0
ENDBLK
  5
FA
330
F8
100
AcDbEntity
  8
0
100
AcDbBlockEnd
  0
BLOCK
  5
101
330
100
100
AcDbEntity
  8
0
100
AcDbBlockBegin
  2
SW_SYMBOL_C#_3
 70
     0
 10
0.0
 20
0.0
 30
0.0
  3
SW_SYMBOL_C#_3
  1

  0
CIRCLE
  5
103
330
100
100
AcDbEntity
  8
0
  6
Continuous
 62
     0
370
     0
100
AcDbCircle
 10
31.4960629921
 20
19.6850393701
 30
0.0
 40
31.49606299212599
  0
MTEXT
  5
104
330
100
100
AcDbEntity
  8
0
  6
Continuous
 62
     0
370
     0
100
AcDbMText
 10
31.4960629921
 20
19.6850393701
 30
0.0
 40
30.821835344
 41
0.0
 71
     5
 72
     1
  1
3
  7
SLDTEXTSTYLE0
 73
     1
 44
1.0
  0
ENDBLK
  5
102
330
100
100
AcDbEntity
  8
0
100
AcDbBlockEnd
  0
BLOCK
  5
126
330
125
100
AcDbEntity
  8
0
100
AcDbBlockBegin
  2
_D
 70
     0
 10
0.0
 20
0.0
 30
0.0
  3
_D
  1

  0
SOLID
  5
128
330
125
100
AcDbEntity
  8
0
  6
Continuous
 62
     7
370
    18
100
AcDbTrace
 10
3.3718366173
 20
5.3334678806
 30
0.0
 11
3.4516571254
 21
5.4317210561
 31
0.0
 12
3.4170161092
 22
5.4517210561
 32
0.0
 13
3.4170161092
 23
5.4517210561
 33
0.0
  0
LINE
  5
129
330
125
100
AcDbEntity
  8
0
  6
Continuous
 62
     7
370
    18
100
AcDbLine
 10
3.8719368513
 20
5.7902218814
 30
0.0
 11
3.8465896287
 21
5.7902218814
 31
0.0
  0
LINE
  5
12A
330
125
100
AcDbEntity
  8
0
  6
Continuous
 62
     7
370
    18
100
AcDbLine
 10
3.8465896287
 20
5.7902218814
 30
0.0
 11
3.8465896287
 21
5.6578144768
 31
0.0
  0
LINE
  5
12B
330
125
100
AcDbEntity
  8
0
  6
Continuous
 62
     7
370
    18
100
AcDbLine
 10
3.8465896287
 20
5.6578144768
 30
0.0
 11
3.8719368513
 21
5.6578144768
 31
0.0
  0
LINE
  5
12C
330
125
100
AcDbEntity
  8
0
  6
Continuous
 62
     7
370
    18
100
AcDbLine
 10
4.2957022992
 20
5.7902218814
 30
0.0
 11
4.3210495218
 21
5.7902218814
 31
0.0
  0
LINE
  5
12D
330
125
100
AcDbEntity
  8
0
  6
Continuous
 62
     7
370
    18
100
AcDbLine
 10
4.3210495218
 20
5.7902218814
 30
0.0
 11
4.3210495218
 21
5.6578144768
 31
0.0
  0
LINE
  5
12E
330
125
100
AcDbEntity
  8
0
  6
Continuous
 62
     7
370
    18
100
AcDbLine
 10
4.3210495218
 20
5.6578144768
 30
0.0
 11
4.2957022992
 21
5.6578144768
 31
0.0
  0
LINE
  5
12F
330
125
100
AcDbEntity
  8
0
  6
Continuous
 62
     7
370
    18
100
AcDbLine
 10
3.3718366173
 20
5.3334678806
 30
0.0
 11
3.6712424061
 21
5.8520539188
 31
0.0
  0
LINE
  5
130
330
125
100
AcDbEntity
  8
0
  6
Continuous
 62
     7
370
    18
100
AcDbLine
 10
3.6712424061
 20
5.8520539188
 30
0.0
 11
3.8212424061
 21
5.8520539188
 31
0.0
  0
MTEXT
  5
131
330
125
100
AcDbEntity
  8
0
  6
Continuous
 62
     7
370
    18
100
AcDbMText
 10
3.8212424061
 20
5.91454234
 30
0.0
 40
0.0833333333
 41
0.0
 71
     1
 72
     1
  1
%%c
  7
SLDTEXTSTYLE0
 73
     1
 44
1.0
  0
MTEXT
  5
132
330
125
100
AcDbEntity
  8
0
  6
Continuous
 62
     7
370
    18
100
AcDbMText
 10
3.9470294455
 20
5.91454234
 30
0.0
 40
0.0833333333
 41
0.0
 71
     1
 72
     1
  1
2.20in
  7
SLDTEXTSTYLE0
 73
     1
 44
1.0
  0
MTEXT
  5
133
330
125
100
AcDbEntity
  8
0
  6
Continuous
 62
     7
370
    18
100
AcDbMText
 10
3.8719368513
 20
5.7652367839
 30
0.0
 40
0.0833333333
 41
0.0
 71
     1
 72
     1
  1
55.9mm
  7
SLDTEXTSTYLE0
 73
     1
 44
1.0
  0
ENDBLK
  5
127
330
125
100
AcDbEntity
  8
0
100
AcDbBlockEnd
  0
BLOCK
  5
18A
330
189
100
AcDbEntity
  8
0
100
AcDbBlockBegin
  2
_D_1
 70
     0
 10
0.0
 20
0.0
 30
0.0
  3
_D_1
  1

  0
SOLID
  5
18C
330
189
100
AcDbEntity
  8
0
  6
Continuous
 62
     7
370
    18
100
AcDbTrace
 10
7.5454461999
 20
6.2967472168
 30
0.0
 11
7.6704461999
 21
6.2767472168
 31
0.0
 12
7.6704461999
 22
6.3167472168
 32
0.0
 13
7.6704461999
 23
6.3167472168
 33
0.0
  0
SOLID
  5
18D
330
189
100
AcDbEntity
  8
0
  6
Continuous
 62
     7
370
    18
100
AcDbTrace
 10
7.0354461999
 20
6.2967472168
 30
0.0
 11
6.9104461999
 21
6.3167472168
 31
0.0
 12
6.9104461999
 22
6.2767472168
 32
0.0
 13
6.9104461999
 23
6.2767472168
 33
0.0
  0
LINE
  5
18E
330
189
100
AcDbEntity
  8
0
  6
Continuous
 62
     7
370
    18
100
AcDbLine
 10
6.0742381841
 20
6.2967472076
 30
0.0
 11
6.0488909615
 21
6.2967472076
 31
0.0
  0
LINE
  5
18F
330
189
100
AcDbEntity
  8
0
  6
Continuous
 62
     7
370
    18
100
AcDbLine
 10
6.0488909615
 20
6.2967472076
 30
0.0
 11
6.0488909615
 21
6.164339803
 31
0.0
  0
LINE
  5
190
330
189
100
AcDbEntity
  8
0
  6
Continuous
 62
     7
370
    18
100
AcDbLine
 10
6.0488909615
 20
6.164339803
 30
0.0
 11
6.0742381841
 21
6.164339803
 31
0.0
  0
LINE
  5
191
330
189
100
AcDbEntity
  8
0
  6
Continuous
 62
     7
370
    18
100
AcDbLine
 10
6.4980036321
 20
6.2967472076
 30
0.0
 11
6.5233508547
 21
6.2967472076
 31
0.0
  0
LINE
  5
192
330
189
100
AcDbEntity
  8
0
  6
Continuous
 62
     7
370
    18
100
AcDbLine
 10
6.5233508547
 20
6.2967472076
 30
0.0
 11
6.5233508547
 21
6.164339803
 31
0.0
  0
LINE
  5
193
330
189
100
AcDbEntity
  8
0
  6
Continuous
 62
     7
370
    18
100
AcDbLine
 10
6.5233508547
 20
6.164339803
 30
0.0
 11
6.4980036321
 21
6.164339803
 31
0.0
  0
LINE
  5
194
330
189
100
AcDbEntity
  8
0
  6
Continuous
 62
     7
370
    18
100
AcDbLine
 10
7.5454461999
 20
5.4310194283
 30
0.0
 11
7.5454461999
 21
6.3667472168
 31
0.0
  0
LINE
  5
195
330
189
100
AcDbEntity
  8
0
  6
Continuous
 62
     7
370
    18
100
AcDbLine
 10
7.0354461999
 20
5.5208399364
 30
0.0
 11
7.0354461999
 21
6.3667472168
 31
0.0
  0
LINE
  5
196
330
189
100
AcDbEntity
  8
0
  6
Continuous
 62
     7
370
    18
100
AcDbLine
 10
7.5454461999
 20
6.2967472168
 30
0.0
 11
7.7954461999
 21
6.2967472168
 31
0.0
  0
LINE
  5
197
330
189
100
AcDbEntity
  8
0
  6
Continuous
 62
     7
370
    18
100
AcDbLine
 10
7.0354461999
 20
6.2967472168
 30
0.0
 11
6.6270151617
 21
6.2967472168
 31
0.0
  0
MTEXT
  5
198
330
189
100
AcDbEntity
  8
0
  6
Continuous
 62
     7
370
    18
100
AcDbMText
 10
6.0246239868
 20
6.4210676661
 30
0.0
 40
0.0833333333
 41
0.0
 71
     1
 72
     1
  1

  7
SLDTEXTSTYLE0
 73
     1
 44
1.0
  0
MTEXT
  5
199
330
189
100
AcDbEntity
  8
0
  6
Continuous
 62
     7
370
    18
100
AcDbMText
 10
6.133420278
 20
6.4210676661
 30
0.0
 40
0.0833333333
 41
0.0
 71
     1
 72
     1
  1
0.51in
  7
SLDTEXTSTYLE0
 73
     1
 44
1.0
  0
MTEXT
  5
19A
330
189
100
AcDbEntity
  8
0
  6
Continuous
 62
     7
370
    18
100
AcDbMText
 10
6.0742381841
 20
6.2717621101
 30
0.0
 40
0.0833333333
 41
0.0
 71
     1
 72
     1
  1
13.0mm
  7
SLDTEXTSTYLE0
 73
     1
 44
1.0
  0
MTEXT
  5
19B
330
189
100
AcDbEntity
  8
0
  6
Continuous
 62
     7
370
    18
100
AcDbMText
 10
6.6111980773
 20
6.4210676661
 30
0.0
 40
0.0833333333
 41
0.0
 71
     1
 72
     1
  1

  7
SLDTEXTSTYLE0
 73
     1
 44
1.0
  0
ENDBLK
  5
18B
330
189
100
AcDbEntity
  8
0
100
AcDbBlockEnd
  0
BLOCK
  5
19E
330
19D
100
AcDbEntity
  8
0
100
AcDbBlockBegin
  2
_D_2
 70
     0
 10
0.0
 20
0.0
 30
0.0
  3
_D_2
  1

  0
SOLID
  5
1A0
330
19D
100
AcDbEntity
  8
0
  6
Continuous
 62
     7
370
    18
100
AcDbTrace
 10
7.5454461999
 20
5.8745407238
 30
0.0
 11
7.6704461999
 21
5.8545407238
 31
0.0
 12
7.6704461999
 22
5.8945407238
 32
0.0
 13
7.6704461999
 23
5.8945407238
 33
0.0
  0
SOLID
  5
1A1
330
19D
100
AcDbEntity
  8
0
  6
Continuous
 62
     7
370
    18
100
AcDbTrace
 10
7.4254461999
 20
5.8745407238
 30
0.0
 11
7.3004461999
 21
5.8945407238
 31
0.0
 12
7.3004461999
 22
5.8545407238
 32
0.0
 13
7.3004461999
 23
5.8545407238
 33
0.0
  0
LINE
  5
1A2
330
19D
100
AcDbEntity
  8
0
  6
Continuous
 62
     7
370
    18
100
AcDbLine
 10
7.856060186
 20
5.8745407147
 30
0.0
 11
7.8307129634
 21
5.8745407147
 31
0.0
  0
LINE
  5
1A3
330
19D
100
AcDbEntity
  8
0
  6
Continuous
 62
     7
370
    18
100
AcDbLine
 10
7.8307129634
 20
5.8745407147
 30
0.0
 11
7.8307129634
 21
5.7421333101
 31
0.0
  0
LINE
  5
1A4
330
19D
100
AcDbEntity
  8
0
  6
Continuous
 62
     7
370
    18
100
AcDbLine
 10
7.8307129634
 20
5.7421333101
 30
0.0
 11
7.856060186
 21
5.7421333101
 31
0.0
  0
LINE
  5
1A5
330
19D
100
AcDbEntity
  8
0
  6
Continuous
 62
     7
370
    18
100
AcDbLine
 10
8.2182515352
 20
5.8745407147
 30
0.0
 11
8.2435987578
 21
5.8745407147
 31
0.0
  0
LINE
  5
1A6
330
19D
100
AcDbEntity
  8
0
  6
Continuous
 62
     7
370
    18
100
AcDbLine
 10
8.2435987578
 20
5.8745407147
 30
0.0
 11
8.2435987578
 21
5.7421333101
 31
0.0
  0
LINE
  5
1A7
330
19D
100
AcDbEntity
  8
0
  6
Continuous
 62
     7
370
    18
100
AcDbLine
 10
8.2435987578
 20
5.7421333101
 30
0.0
 11
8.2182515352
 21
5.7421333101
 31
0.0
  0
LINE
  5
1A8
330
19D
100
AcDbEntity
  8
0
  6
Continuous
 62
     7
370
    18
100
AcDbLine
 10
7.5454461999
 20
5.3808399364
 30
0.0
 11
7.5454461999
 21
5.9445407238
 31
0.0
  0
LINE
  5
1A9
330
19D
100
AcDbEntity
  8
0
  6
Continuous
 62
     7
370
    18
100
AcDbLine
 10
7.4254461999
 20
5.5208399364
 30
0.0
 11
7.4254461999
 21
5.9445407238
 31
0.0
  0
LINE
  5
1AA
330
19D
100
AcDbEntity
  8
0
  6
Continuous
 62
     7
370
    18
100
AcDbLine
 10
7.5454461999
 20
5.8745407238
 30
0.0
 11
7.7270486747
 21
5.8745407238
 31
0.0
  0
LINE
  5
1AB
330
19D
100
AcDbEntity
  8
0
  6
Continuous
 62
     7
370
    18
100
AcDbLine
 10
7.4254461999
 20
5.8745407238
 30
0.0
 11
7.1754461999
 21
5.8745407238
 31
0.0
  0
MTEXT
  5
1AC
330
19D
100
AcDbEntity
  8
0
  6
Continuous
 62
     7
370
    18
100
AcDbMText
 10
7.8064459886
 20
5.9988611732
 30
0.0
 40
0.0833333333
 41
0.0
 71
     1
 72
     1
  1

  7
SLDTEXTSTYLE0
 73
     1
 44
1.0
  0
MTEXT
  5
1AD
330
19D
100
AcDbEntity
  8
0
  6
Continuous
 62
     7
370
    18
100
AcDbMText
 10
7.8844552304
 20
5.9988611732
 30
0.0
 40
0.0833333333
 41
0.0
 71
     1
 72
     1
  1
0.12in
  7
SLDTEXTSTYLE0
 73
     1
 44
1.0
  0
MTEXT
  5
1AE
330
19D
100
AcDbEntity
  8
0
  6
Continuous
 62
     7
370
    18
100
AcDbMText
 10
7.856060186
 20
5.8495556171
 30
0.0
 40
0.0833333333
 41
0.0
 71
     1
 72
     1
  1
3.0mm
  7
SLDTEXTSTYLE0
 73
     1
 44
1.0
  0
MTEXT
  5
1AF
330
19D
100
AcDbEntity
  8
0
  6
Continuous
 62
     7
370
    18
100
AcDbMText
 10
8.3314459438
 20
5.9988611732
 30
0.0
 40
0.0833333333
 41
0.0
 71
     1
 72
     1
  1

  7
SLDTEXTSTYLE0
 73
     1
 44
1.0
  0
ENDBLK
  5
19F
330
19D
100
AcDbEntity
  8
0
100
AcDbBlockEnd
  0
BLOCK
  5
1B3
330
1B2
100
AcDbEntity
  8
0
100
AcDbBlockBegin
  2
_D_3
 70
     0
 10
0.0
 20
0.0
 30
0.0
  3
_D_3
  1

  0
SOLID
  5
1B5
330
1B2
100
AcDbEntity
  8
0
  6
Continuous
 62
     7
370
    18
100
AcDbTrace
 10
8.5998566868
 20
3.4308399364
 30
0.0
 11
8.6198566868
 21
3.5558399364
 31
0.0
 12
8.5798566868
 22
3.5558399364
 32
0.0
 13
8.5798566868
 23
3.5558399364
 33
0.0
  0
SOLID
  5
1B6
330
1B2
100
AcDbEntity
  8
0
  6
Continuous
 62
     7
370
    18
100
AcDbTrace
 10
8.5998566868
 20
5.3308399364
 30
0.0
 11
8.5798566868
 21
5.2058399364
 31
0.0
 12
8.6198566868
 22
5.2058399364
 32
0.0
 13
8.6198566868
 23
5.2058399364
 33
0.0
  0
LINE
  5
1B7
330
1B2
100
AcDbEntity
  8
0
  6
Continuous
 62
     7
370
    18
100
AcDbLine
 10
8.3879739719
 20
4.3914880792
 30
0.0
 11
8.3626267493
 21
4.3914880792
 31
0.0
  0
LINE
  5
1B8
330
1B2
100
AcDbEntity
  8
0
  6
Continuous
 62
     7
370
    18
100
AcDbLine
 10
8.3626267493
 20
4.3914880792
 30
0.0
 11
8.3626267493
 21
4.2590806747
 31
0.0
  0
LINE
  5
1B9
330
1B2
100
AcDbEntity
  8
0
  6
Continuous
 62
     7
370
    18
100
AcDbLine
 10
8.3626267493
 20
4.2590806747
 30
0.0
 11
8.3879739719
 21
4.2590806747
 31
0.0
  0
LINE
  5
1BA
330
1B2
100
AcDbEntity
  8
0
  6
Continuous
 62
     7
370
    18
100
AcDbLine
 10
8.8117394199
 20
4.3914880792
 30
0.0
 11
8.8370866425
 21
4.3914880792
 31
0.0
  0
LINE
  5
1BB
330
1B2
100
AcDbEntity
  8
0
  6
Continuous
 62
     7
370
    18
100
AcDbLine
 10
8.8370866425
 20
4.3914880792
 30
0.0
 11
8.8370866425
 21
4.2590806747
 31
0.0
  0
LINE
  5
1BC
330
1B2
100
AcDbEntity
  8
0
  6
Continuous
 62
     7
370
    18
100
AcDbLine
 10
8.8370866425
 20
4.2590806747
 30
0.0
 11
8.8117394199
 21
4.2590806747
 31
0.0
  0
LINE
  5
1BD
330
1B2
100
AcDbEntity
  8
0
  6
Continuous
 62
     7
370
    18
100
AcDbLine
 10
7.5954461999
 20
3.4308399364
 30
0.0
 11
8.6698566868
 21
3.4308399364
 31
0.0
  0
LINE
  5
1BE
330
1B2
100
AcDbEntity
  8
0
  6
Continuous
 62
     7
370
    18
100
AcDbLine
 10
7.5954461999
 20
5.3308399364
 30
0.0
 11
8.6698566868
 21
5.3308399364
 31
0.0
  0
LINE
  5
1BF
330
1B2
100
AcDbEntity
  8
0
  6
Continuous
 62
     7
370
    18
100
AcDbLine
 10
8.5998566868
 20
3.4308399364
 30
0.0
 11
8.5998566868
 21
4.2421825324
 31
0.0
  0
LINE
  5
1C0
330
1B2
100
AcDbEntity
  8
0
  6
Continuous
 62
     7
370
    18
100
AcDbLine
 10
8.5998566868
 20
5.3308399364
 30
0.0
 11
8.5998566868
 21
4.5194973405
 31
0.0
  0
MTEXT
  5
1C1
330
1B2
100
AcDbEntity
  8
0
  6
Continuous
 62
     7
370
    18
100
AcDbMText
 10
8.3842625506
 20
4.5158085378
 30
0.0
 40
0.0833333333
 41
0.0
 71
     1
 72
     1
  1
%%c
  7
SLDTEXTSTYLE0
 73
     1
 44
1.0
  0
MTEXT
  5
1C2
330
1B2
100
AcDbEntity
  8
0
  6
Continuous
 62
     7
370
    18
100
AcDbMText
 10
8.51004959
 20
4.5158085378
 30
0.0
 40
0.0833333333
 41
0.0
 71
     1
 72
     1
  1
1.90in
  7
SLDTEXTSTYLE0
 73
     1
 44
1.0
  0
MTEXT
  5
1C3
330
1B2
100
AcDbEntity
  8
0
  6
Continuous
 62
     7
370
    18
100
AcDbMText
 10
8.3879739719
 20
4.3665029817
 30
0.0
 40
0.0833333333
 41
0.0
 71
     1
 72
     1
  1
48.3mm
  7
SLDTEXTSTYLE0
 73
     1
 44
1.0
  0
ENDBLK
  5
1B4
330
1B2
100
AcDbEntity
  8
0
100
AcDbBlockEnd
  0
BLOCK
  5
1C6
330
1C5
100
AcDbEntity
  8
0
100
AcDbBlockBegin
  2
SW_NOTE_5
 70
     0
 10
0.0
 20
0.0
 30
0.0
  3
SW_NOTE_5
  1

  0
MTEXT
  5
1C9
330
1C5
100
AcDbEntity
  8
0
  6
Continuous
 62
     0
370
     0
100
AcDbMText
 10
-2.2690989686
 20
0.0367991928
 30
0.0
 40
0.0833333333
 41
0.0
 71
     1
 72
     1
  1
SM2 (
  7
SLDTEXTSTYLE3
 73
     1
 44
1.0
  0
INSERT
  5
1CF
330
1C5
100
AcDbEntity
  8
0
  6
Continuous
 62
     0
370
     0
100
AcDbBlockReference
  2
SW_SYMBOL_HOLE_DIAM
 10
-1.9474940338
 20
-0.0590671293
 30
0.0
 41
0.0027037109
 42
0.0027037109
 43
0.0027037109
  0
MTEXT
  5
1D0
330
1C5
100
AcDbEntity
  8
0
  6
Continuous
 62
     0
370
     0
100
AcDbMText
 10
-1.8217070036
 20
0.0367991928
 30
0.0
 40
0.0833333333
 41
0.0
 71
     1
 72
     1
  1
2.035-40) SERIES INTERNAL THREAD
  7
SLDTEXTSTYLE0
 73
     1
 44
1.0
  0
ENDBLK
  5
1C7
330
1C5
100
AcDbEntity
  8
0
100
AcDbBlockEnd
  0
BLOCK
  5
1CB
330
1CA
100
AcDbEntity
  8
0
100
AcDbBlockBegin
  2
SW_SYMBOL_HOLE_DIAM
 70
     0
 10
0.0
 20
0.0
 30
0.0
  3
SW_SYMBOL_HOLE_DIAM
  1

  0
CIRCLE
  5
1CD
330
1CA
100
AcDbEntity
  8
0
  6
Continuous
 62
     0
370
     0
100
AcDbCircle
 10
19.6850393701
 20
19.6850393701
 30
0.0
 40
13.77952755905512
  0
LINE
  5
1CE
330
1CA
100
AcDbEntity
  8
0
  6
Continuous
 62
     0
370
     0
100
AcDbLine
 10
11.811023622
 20
0.0
 30
0.0
 11
27.5590551181
 21
39.3700787402
 31
0.0
  0
ENDBLK
  5
1CC
330
1CA
100
AcDbEntity
  8
0
100
AcDbBlockEnd
  0
BLOCK
  5
1D5
330
1D4
100
AcDbEntity
  8
0
100
AcDbBlockBegin
  2
SW_NOTE_6
 70
     0
 10
0.0
 20
0.0
 30
0.0
  3
SW_NOTE_6
  1

  0
MTEXT
  5
1D7
330
1D4
100
AcDbEntity
  8
0
  6
Continuous
 62
     0
370
     0
100
AcDbMText
 10
0.0229516067
 20
0.0381799548
 30
0.0
 40
0.0833333333
 41
0.0
 71
     1
 72
     1
  1
SM2 (
  7
SLDTEXTSTYLE3
 73
     1
 44
1.0
  0
INSERT
  5
1D8
330
1D4
100
AcDbEntity
  8
0
  6
Continuous
 62
     0
370
     0
100
AcDbBlockReference
  2
SW_SYMBOL_HOLE_DIAM
 10
0.3445565415
 20
-0.0576863672
 30
0.0
 41
0.0027037109
 42
0.0027037109
 43
0.0027037109
  0
MTEXT
  5
1D9
330
1D4
100
AcDbEntity
  8
0
  6
Continuous
 62
     0
370
     0
100
AcDbMText
 10
0.4703435718
 20
0.0381799548
 30
0.0
 40
0.0833333333
 41
0.0
 71
     1
 72
     1
  1
2.035-40) SERIES EXTERNAL THREAD
  7
SLDTEXTSTYLE0
 73
     1
 44
1.0
  0
ENDBLK
  5
1D6
330
1D4
100
AcDbEntity
  8
0
100
AcDbBlockEnd
  0
BLOCK
  5
1DD
330
1DC
100
AcDbEntity
  8
0
100
AcDbBlockBegin
  2
SW_NOTE_7
 70
     0
 10
0.0
 20
0.0
 30
0.0
  3
SW_NOTE_7
  1

  0
CIRCLE
  5
1DF
330
1DC
100
AcDbEntity
  8
0
  6
Continuous
 62
     0
370
     0
100
AcDbCircle
 10
-0.1756984532
 20
0.0
 30
0.0
 40
0.1756984532045934
  0
MTEXT
  5
1E0
330
1DC
100
AcDbEntity
  8
0
  6
Continuous
 62
     0
370
     0
100
AcDbMText
 10
-0.1769571339
 20
0.0629278797
 30
0.0
 40
0.125
 41
0.0
 71
     2
 72
     1
  1
3
  7
SLDTEXTSTYLE0
 73
     1
 44
1.0
  0
ENDBLK
  5
1DE
330
1DC
100
AcDbEntity
  8
0
100
AcDbBlockEnd
  0
BLOCK
  5
1E4
330
1E3
100
AcDbEntity
  8
0
100
AcDbBlockBegin
  2
SW_NOTE_8
 70
     0
 10
0.0
 20
0.0
 30
0.0
  3
SW_NOTE_8
  1

  0
CIRCLE
  5
1E6
330
1E3
100
AcDbEntity
  8
0
  6
Continuous
 62
     0
370
     0
100
AcDbCircle
 10
0.1756984532
 20
0.0
 30
0.0
 40
0.1756984532045915
  0
MTEXT
  5
1E7
330
1E3
100
AcDbEntity
  8
0
  6
Continuous
 62
     0
370
     0
100
AcDbMText
 10
0.1744397725
 20
0.0629278797
 30
0.0
 40
0.125
 41
0.0
 71
     2
 72
     1
  1
2
  7
SLDTEXTSTYLE0
 73
     1
 44
1.0
  0
ENDBLK
  5
1E5
330
1E3
100
AcDbEntity
  8
0
100
AcDbBlockEnd
  0
BLOCK
  5
1EB
330
1EA
100
AcDbEntity
  8
0
100
AcDbBlockBegin
  2
SW_NOTE_9
 70
     0
 10
0.0
 20
0.0
 30
0.0
  3
SW_NOTE_9
  1

  0
CIRCLE
  5
1ED
330
1EA
100
AcDbEntity
  8
0
  6
Continuous
 62
     0
370
     0
100
AcDbCircle
 10
-0.1756984532
 20
0.0
 30
0.0
 40
0.1756984532045915
  0
MTEXT
  5
1EE
330
1EA
100
AcDbEntity
  8
0
  6
Continuous
 62
     0
370
     0
100
AcDbMText
 10
-0.1769571339
 20
0.0629278797
 30
0.0
 40
0.125
 41
0.0
 71
     2
 72
     1
  1
1
  7
SLDTEXTSTYLE0
 73
     1
 44
1.0
  0
ENDBLK
  5
1EC
330
1EA
100
AcDbEntity
  8
0
100
AcDbBlockEnd
  0
ENDSEC
  0
SECTION
  2
ENTITIES
  0
LINE
  5
81
330
1F
100
AcDbEntity
  8
0
  6
Continuous
 62
     7
370
    18
100
AcDbLine
 10
0.0621791378
 20
8.4506055117
 30
0.0
 11
10.9444569626
 21
8.4506055117
 31
0.0
  0
LINE
  5
82
330
1F
100
AcDbEntity
  8
0
  6
Continuous
 62
     7
370
    18
100
AcDbLine
 10
0.0621791378
 20
8.4506055117
 30
0.0
 11
0.0621791378
 21
0.035557648
 31
0.0
  0
LINE
  5
83
330
1F
100
AcDbEntity
  8
0
  6
Continuous
 62
     7
370
    18
100
AcDbLine
 10
10.9444569626
 20
0.035557648
 30
0.0
 11
0.0621791378
 21
0.035557648
 31
0.0
  0
LINE
  5
84
330
1F
100
AcDbEntity
  8
0
  6
Continuous
 62
     7
370
    18
100
AcDbLine
 10
10.9444569626
 20
0.035557648
 30
0.0
 11
10.9444569626
 21
8.4506055117
 31
0.0
  0
LINE
  5
85
330
1F
100
AcDbEntity
  8
0
  6
Continuous
 62
     7
370
    18
100
AcDbLine
 10
8.4938096065
 20
0.4840901186
 30
0.0
 11
6.7571952625
 21
0.4840901186
 31
0.0
  0
LINE
  5
86
330
1F
100
AcDbEntity
  8
0
  6
Continuous
 62
     7
370
    18
100
AcDbLine
 10
6.7571952625
 20
0.4840901186
 30
0.0
 11
6.7571952625
 21
1.030163002
 31
0.0
  0
LINE
  5
87
330
1F
100
AcDbEntity
  8
0
  6
Continuous
 62
     7
370
    18
100
AcDbLine
 10
6.7571952625
 20
0.035557648
 30
0.0
 11
6.7571952625
 21
1.030163002
 31
0.0
  0
LINE
  5
88
330
1F
100
AcDbEntity
  8
0
  6
Continuous
 62
     7
370
    18
100
AcDbLine
 10
8.4938096065
 20
0.6756085809
 30
0.0
 11
10.9444569626
 21
0.6756085809
 31
0.0
  0
LINE
  5
89
330
1F
100
AcDbEntity
  8
0
  6
Continuous
 62
     7
370
    18
100
AcDbLine
 10
8.4938096065
 20
1.3873799542
 30
0.0
 11
8.4938096065
 21
0.035557648
 31
0.0
  0
LINE
  5
8A
330
1F
100
AcDbEntity
  8
0
  6
Continuous
 62
     7
370
    18
100
AcDbLine
 10
8.4938096065
 20
1.030163002
 30
0.0
 11
6.7571952625
 21
1.030163002
 31
0.0
  0
LINE
  5
8B
330
1F
100
AcDbEntity
  8
0
  6
Continuous
 62
     7
370
    18
100
AcDbLine
 10
8.4938096065
 20
0.3598787426
 30
0.0
 11
10.9444569626
 21
0.3598787426
 31
0.0
  0
LINE
  5
8C
330
1F
100
AcDbEntity
  8
0
  6
Continuous
 62
     7
370
    18
100
AcDbLine
 10
8.4938096065
 20
0.6662079686
 30
0.0
 11
6.7571952625
 21
0.6662079686
 31
0.0
  0
LINE
  5
8D
330
1F
100
AcDbEntity
  8
0
  6
Continuous
 62
     7
370
    18
100
AcDbLine
 10
8.4938096065
 20
0.8459606517
 30
0.0
 11
6.7571952625
 21
0.8459606517
 31
0.0
  0
LINE
  5
8E
330
1F
100
AcDbEntity
  8
0
  6
Continuous
 62
     7
370
    18
100
AcDbLine
 10
7.3281027587
 20
1.030163002
 30
0.0
 11
7.3281027587
 21
0.4840901186
 31
0.0
  0
LINE
  5
8F
330
1F
100
AcDbEntity
  8
0
  6
Continuous
 62
     7
370
    18
100
AcDbLine
 10
7.8037240401
 20
1.030163002
 30
0.0
 11
7.8037240401
 21
0.4840901186
 31
0.0
  0
LINE
  5
90
330
1F
100
AcDbEntity
  8
0
  6
Continuous
 62
     7
370
    18
100
AcDbLine
 10
9.990119718
 20
0.3598787426
 30
0.0
 11
9.990119718
 21
0.035557648
 31
0.0
  0
LINE
  5
91
330
1F
100
AcDbEntity
  8
0
  6
Continuous
 62
     7
370
    18
100
AcDbLine
 10
6.7571952625
 20
0.4840901186
 30
0.0
 11
6.7571952625
 21
0.297745443
 31
0.0
  0
LINE
  5
92
330
1F
100
AcDbEntity
  8
0
  6
Continuous
 62
     7
370
    18
100
AcDbLine
 10
6.7571952625
 20
0.297745443
 30
0.0
 11
8.4938096065
 21
0.297745443
 31
0.0
  0
LINE
  5
93
330
1F
100
AcDbEntity
  8
0
  6
Continuous
 62
     7
370
    18
100
AcDbLine
 10
6.7571952625
 20
0.297745443
 30
0.0
 11
6.7571952625
 21
1.3873799542
 31
0.0
  0
LINE
  5
94
330
1F
100
AcDbEntity
  8
0
  6
Continuous
 62
     7
370
    18
100
AcDbLine
 10
6.7571952625
 20
1.3873799542
 30
0.0
 11
8.4938096065
 21
1.3873799542
 31
0.0
  0
LINE
  5
95
330
1F
100
AcDbEntity
  8
0
  6
Continuous
 62
     7
370
    18
100
AcDbLine
 10
10.6365495992
 20
0.6756085809
 30
0.0
 11
10.6365495992
 21
0.3598787426
 31
0.0
  0
LINE
  5
96
330
1F
100
AcDbEntity
  8
0
  6
Continuous
 62
     7
370
    18
100
AcDbLine
 10
8.4938096065
 20
1.3873799542
 30
0.0
 11
10.9444569626
 21
1.3873799542
 31
0.0
  0
LINE
  5
97
330
1F
100
AcDbEntity
  8
0
  6
Continuous
 62
     7
370
    18
100
AcDbLine
 10
10.9444569626
 20
1.3873799542
 30
0.0
 11
10.9444569626
 21
1.9698084888
 31
0.0
  0
LINE
  5
98
330
1F
100
AcDbEntity
  8
0
  6
Continuous
 62
     7
370
    18
100
AcDbLine
 10
8.4938096065
 20
0.9800288797
 30
0.0
 11
10.9444569626
 21
0.9800288797
 31
0.0
  0
INSERT
  5
99
330
1F
100
AcDbEntity
  8
0
  6
Continuous
 62
     7
100
AcDbBlockReference
  2
Third Angle Projection Block
 10
4.6348905679
 20
0.6108753523
 30
0.0
 41
0.8
 42
0.8
 43
0.8
  0
MTEXT
  5
9B
330
1F
100
AcDbEntity
  8
0
  6
Continuous
 62
     7
370
     0
100
AcDbMText
 10
10.7892734632
 20
0.5227176726
 30
0.0
 40
0.125
 41
0.0
 71
     2
 72
     1
  1
A
  7
SLDTEXTSTYLE0
 73
     1
 44
1.0
  0
MTEXT
  5
9C
330
1F
100
AcDbEntity
  8
0
  6
Continuous
 62
     7
370
     0
100
AcDbMText
 10
9.2303561469
 20
0.2019943461
 30
0.0
 40
0.125
 41
0.0
 71
     2
 72
     1
  1
LA1301-A-ML
  7
SLDTEXTSTYLE0
 73
     1
 44
1.0
  0
MTEXT
  5
9D
330
1F
100
AcDbEntity
  8
0
  6
Continuous
 62
     7
370
     0
100
AcDbMText
 10
8.5204715199
 20
0.6623747189
 30
0.0
 40
0.0833333333
 41
0.0
 71
     1
 72
     1
  1
MATERIAL
  7
SLDTEXTSTYLE0
 73
     1
 44
1.0
  0
MTEXT
  5
9E
330
1F
100
AcDbEntity
  8
0
  6
Continuous
 62
     7
370
     0
100
AcDbMText
 10
6.8594860853
 20
0.7895493672
 30
0.0
 40
0.0729166667
 41
0.0
 71
     1
 72
     1
  1
DRAWN
  7
SLDTEXTSTYLE0
 73
     1
 44
1.0
  0
MTEXT
  5
9F
330
1F
100
AcDbEntity
  8
0
  6
Continuous
 62
     7
370
     0
100
AcDbMText
 10
6.7872445848
 20
0.613335314
 30
0.0
 40
0.0729166667
 41
0.0
 71
     1
 72
     1
  1
APPROVAL
  7
SLDTEXTSTYLE0
 73
     1
 44
1.0
  0
MTEXT
  5
A0
330
1F
100
AcDbEntity
  8
0
  6
Continuous
 62
     7
370
     0
100
AcDbMText
 10
10.6936137314
 20
0.6373332609
 30
0.0
 40
0.0833333333
 41
0.0
 71
     1
 72
     1
  1
REV
  7
SLDTEXTSTYLE0
 73
     1
 44
1.0
  0
MTEXT
  5
A1
330
1F
100
AcDbEntity
  8
0
  6
Continuous
 62
     7
370
     0
100
AcDbMText
 10
7.4919633718
 20
0.7999100272
 30
0.0
 40
0.0833333333
 41
0.0
 71
     1
 72
     1
  1
GG
  7
SLDTEXTSTYLE0
 73
     1
 44
1.0
  0
MTEXT
  5
A2
330
1F
100
AcDbEntity
  8
0
  6
Continuous
 62
     7
370
     0
100
AcDbMText
 10
7.4919633718
 20
0.623695974
 30
0.0
 40
0.0833333333
 41
0.0
 71
     1
 72
     1
  1
DD
  7
SLDTEXTSTYLE0
 73
     1
 44
1.0
  0
MTEXT
  5
A3
330
1F
100
AcDbEntity
  8
0
  6
Continuous
 62
     7
370
     0
100
AcDbMText
 10
7.8687497515
 20
0.7999100272
 30
0.0
 40
0.0833333333
 41
0.0
 71
     1
 72
     1
  1
20/JAN/20
  7
SLDTEXTSTYLE0
 73
     1
 44
1.0
  0
MTEXT
  5
A4
330
1F
100
AcDbEntity
  8
0
  6
Continuous
 62
     7
370
     0
100
AcDbMText
 10
8.0163191884
 20
0.9772495896
 30
0.0
 40
0.0833333333
 41
0.0
 71
     1
 72
     1
  1
DATE
  7
SLDTEXTSTYLE0
 73
     1
 44
1.0
  0
MTEXT
  5
A5
330
1F
100
AcDbEntity
  8
0
  6
Continuous
 62
     7
370
     0
100
AcDbMText
 10
7.8687497515
 20
0.623695974
 30
0.0
 40
0.0833333333
 41
0.0
 71
     1
 72
     1
  1
20/JAN/20
  7
SLDTEXTSTYLE0
 73
     1
 44
1.0
  0
MTEXT
  5
A7
330
1F
100
AcDbEntity
  8
0
  6
Continuous
 62
     7
370
     0
100
AcDbMText
 10
9.0316104912
 20
1.0943207896
 30
0.0
 40
0.0833333333
 41
0.0
 71
     1
 72
     1
  1
w w w . t h o r  l a b s . c o m
  7
SLDTEXTSTYLE1
 73
     1
 44
1.0
  0
MTEXT
  5
A8
330
1F
100
AcDbEntity
  8
0
  6
Continuous
 62
     7
370
     0
100
AcDbMText
 10
8.5315119501
 20
0.328719653
 30
0.0
 40
0.0833333333
 41
0.0
 71
     1
 72
     1
  1
ITEM #
  7
SLDTEXTSTYLE0
 73
     1
 44
1.0
  0
MTEXT
  5
A9
330
1F
100
AcDbEntity
  8
0
  6
Continuous
 62
     7
370
     0
100
AcDbMText
 10
10.0209370115
 20
0.328719653
 30
0.0
 40
0.0833333333
 41
0.0
 71
     1
 72
     1
  1
APPROX WEIGHT
  7
SLDTEXTSTYLE0
 73
     1
 44
1.0
  0
MTEXT
  5
AA
330
1F
100
AcDbEntity
  8
0
  6
Continuous
 62
     7
370
     0
100
AcDbMText
 10
9.5949135982
 20
0.5414715262
 30
0.0
 40
0.125
 41
0.0
 71
     2
 72
     1
  1
SEE TABLE
  7
SLDTEXTSTYLE0
 73
     1
 44
1.0
  0
MTEXT
  5
AC
330
1F
100
AcDbEntity
  8
0
  6
Continuous
 62
     7
370
     0
100
AcDbMText
 10
10.4826226539
 20
0.2019943461
 30
0.0
 40
0.125
 41
0.0
 71
     2
 72
     1
  1
36 g
  7
SLDTEXTSTYLE2
 73
     1
 44
1.0
  0
INSERT
  5
B2
330
1F
100
AcDbEntity
  8
0
  6
Continuous
 62
     7
370
     0
100
AcDbBlockReference
  2
SW_NOTE_0
 10
6.8835832285
 20
0.1754273811
 30
0.0
  0
INSERT
  5
B8
330
1F
100
AcDbEntity
  8
0
  6
Continuous
 62
     7
370
     0
100
AcDbBlockReference
  2
SW_NOTE_1
 10
6.8719828753
 20
1.2001390658
 30
0.0
  0
MTEXT
  5
B9
330
1F
100
AcDbEntity
  8
0
  6
Continuous
 62
     7
370
     0
100
AcDbMText
 10
7.3987149145
 20
0.9772495896
 30
0.0
 40
0.0833333333
 41
0.0
 71
     1
 72
     1
  1
NAME
  7
SLDTEXTSTYLE0
 73
     1
 44
1.0
  0
MTEXT
  5
BA
330
1F
100
AcDbEntity
  8
0
  6
Continuous
 62
     7
370
     0
100
AcDbMText
 10
7.0281258754
 20
0.4200025137
 30
0.0
 40
0.0625
 41
0.0
 71
     1
 72
     1
  1
COPYRIGHT © 2020 BY THORLABS
  7
SLDTEXTSTYLE0
 73
     1
 44
1.0
  0
INSERT
  5
C0
330
1F
100
AcDbEntity
  8
0
  6
Continuous
 62
     7
370
     0
100
AcDbBlockReference
  2
SW_NOTE_2
 10
2.1096529316
 20
0.3219551564
 30
0.0
  0
INSERT
  5
D8
330
1F
100
AcDbEntity
  8
0
  6
Continuous
 62
     7
370
     0
100
AcDbBlockReference
  2
SW_NOTE_3
 10
0.1906281265
 20
1.7165575354
 30
0.0
  0
INSERT
  5
E0
330
1F
100
AcDbEntity
  8
0
  6
Continuous
 62
     7
370
     0
100
AcDbBlockReference
  2
SW_NOTE_4
 10
8.9379418536
 20
0.8252423426
 30
0.0
  0
INSERT
  5
10A
330
1F
100
AcDbEntity
  8
0
  6
Continuous
 62
     7
370
     0
100
AcDbBlockReference
  2
SW_TABLEANNOTATION_0
 10
0.0606243368
 20
8.450539681
 30
0.0
  0
ARC
  5
10B
330
1F
100
AcDbEntity
  8
0
  6
Continuous
 62
     7
370
    18
100
AcDbCircle
 10
2.8218366173
 20
4.3808399364
 30
0.0
 40
1.000179491924313
100
AcDbArc
 50
0.8593146732
 51
179.1406853268
  0
LINE
  5
10C
330
1F
100
AcDbEntity
  8
0
  6
Continuous
 62
     7
370
    18
100
AcDbLine
 10
1.8217696035
 20
4.3958399361
 30
0.0
 11
1.8044472236
 21
4.3958399361
 31
0.0
  0
LINE
  5
10D
330
1F
100
AcDbEntity
  8
0
  6
Continuous
 62
     7
370
    18
100
AcDbLine
 10
3.839226011
 20
4.3958399361
 30
0.0
 11
3.8219036311
 21
4.3958399361
 31
0.0
  0
ARC
  5
10E
330
1F
100
AcDbEntity
  8
0
  6
Continuous
 62
     7
370
    18
100
AcDbCircle
 10
2.8218366173
 20
4.3808399364
 30
0.0
 40
0.9500000000000001
100
AcDbArc
 50
0.9047077972
 51
179.0952922028
  0
LINE
  5
10F
330
1F
100
AcDbEntity
  8
0
  6
Continuous
 62
     7
370
    18
100
AcDbLine
 10
1.8719550571
 20
4.3958399361
 30
0.0
 11
1.861953826
 21
4.3958399361
 31
0.0
  0
ARC
  5
110
330
1F
100
AcDbEntity
  8
0
  6
Continuous
 62
     7
370
    18
100
AcDbCircle
 10
2.8218366173
 20
4.3808399364
 30
0.0
 40
0.9600000000000013
100
AcDbArc
 50
0.8952829866
 51
179.1047170134
  0
LINE
  5
111
330
1F
100
AcDbEntity
  8
0
  6
Continuous
 62
     7
370
    18
100
AcDbLine
 10
3.7817194087
 20
4.3958399361
 30
0.0
 11
3.7717181775
 21
4.3958399361
 31
0.0
  0
LINE
  5
112
330
1F
100
AcDbEntity
  8
0
  6
Continuous
 62
     7
370
    18
100
AcDbLine
 10
3.8219036311
 20
4.3958399361
 30
0.0
 11
3.7817194087
 21
4.3958399361
 31
0.0
  0
LINE
  5
113
330
1F
100
AcDbEntity
  8
0
  6
Continuous
 62
     7
370
    18
100
AcDbLine
 10
1.861953826
 20
4.3958399361
 30
0.0
 11
1.8217696035
 21
4.3958399361
 31
0.0
  0
ARC
  5
114
330
1F
100
AcDbEntity
  8
0
  6
Continuous
 62
     7
370
    18
100
AcDbCircle
 10
2.8218366173
 20
4.3808399364
 30
0.0
 40
0.9500000000000001
100
AcDbArc
 50
180.9047077972
 51
359.0952922028
  0
LINE
  5
115
330
1F
100
AcDbEntity
  8
0
  6
Continuous
 62
     7
370
    18
100
AcDbLine
 10
3.7717181775
 20
4.3658399368
 30
0.0
 11
3.7817194087
 21
4.3658399368
 31
0.0
  0
ARC
  5
116
330
1F
100
AcDbEntity
  8
0
  6
Continuous
 62
     7
370
    18
100
AcDbCircle
 10
2.8218366173
 20
4.3808399364
 30
0.0
 40
0.9600000000000013
100
AcDbArc
 50
180.8952829866
 51
359.1047170134
  0
LINE
  5
117
330
1F
100
AcDbEntity
  8
0
  6
Continuous
 62
     7
370
    18
100
AcDbLine
 10
1.861953826
 20
4.3658399368
 30
0.0
 11
1.8719550571
 21
4.3658399368
 31
0.0
  0
ARC
  5
118
330
1F
100
AcDbEntity
  8
0
  6
Continuous
 62
     7
370
    18
100
AcDbCircle
 10
2.8218366173
 20
4.3808399364
 30
0.0
 40
1.000179491924313
100
AcDbArc
 50
180.8593146732
 51
359.1406853268
  0
LINE
  5
119
330
1F
100
AcDbEntity
  8
0
  6
Continuous
 62
     7
370
    18
100
AcDbLine
 10
3.7817194087
 20
4.3658399368
 30
0.0
 11
3.8219036311
 21
4.3658399368
 31
0.0
  0
LINE
  5
11A
330
1F
100
AcDbEntity
  8
0
  6
Continuous
 62
     7
370
    18
100
AcDbLine
 10
1.8217696035
 20
4.3658399368
 30
0.0
 11
1.861953826
 21
4.3658399368
 31
0.0
  0
LINE
  5
11B
330
1F
100
AcDbEntity
  8
0
  6
Continuous
 62
     7
370
    18
100
AcDbLine
 10
3.8219036311
 20
4.3658399368
 30
0.0
 11
3.839226011
 21
4.3658399368
 31
0.0
  0
LINE
  5
11C
330
1F
100
AcDbEntity
  8
0
  6
Continuous
 62
     7
370
    18
100
AcDbLine
 10
1.8044472236
 20
4.3658399368
 30
0.0
 11
1.8217696035
 21
4.3658399368
 31
0.0
  0
ARC
  5
11D
330
1F
100
AcDbEntity
  8
0
  6
Continuous
 62
     7
370
    18
100
AcDbCircle
 10
2.8218366173
 20
4.3808399364
 30
0.0
 40
0.9499999999999997
100
AcDbArc
 50
179.0952922028
 51
180.9047077972
  0
ARC
  5
11E
330
1F
100
AcDbEntity
  8
0
  6
Continuous
 62
     7
370
    18
100
AcDbCircle
 10
2.8218366173
 20
4.3808399364
 30
0.0
 40
0.9500000000000001
100
AcDbArc
 50
359.0952922028
 51
0.9047077972
  0
CIRCLE
  5
11F
330
1F
100
AcDbEntity
  8
0
  6
Continuous
 62
     7
370
    18
100
AcDbCircle
 10
2.8218366173
 20
4.3808399364
 30
0.0
 40
1.034820508075689
  0
CIRCLE
  5
120
330
1F
100
AcDbEntity
  8
0
  6
Continuous
 62
     7
370
    18
100
AcDbCircle
 10
2.8218366173
 20
4.3808399364
 30
0.0
 40
1.0175
  0
CIRCLE
  5
121
330
1F
100
AcDbEntity
  8
0
  6
Continuous
 62
     7
370
    18
100
AcDbCircle
 10
2.8218366173
 20
4.3808399364
 30
0.0
 40
1.090000000000001
  0
CIRCLE
  5
122
330
1F
100
AcDbEntity
  8
0
  6
Continuous
 62
     7
370
    18
100
AcDbCircle
 10
2.8218366173
 20
4.3808399364
 30
0.0
 40
1.1
  0
DIMENSION
  5
123
330
1F
100
AcDbEntity
  8
0
  6
Continuous
 62
     7
370
    18
100
AcDbDimension
  2
_D
 10
2.2718366173
 20
3.4282119923
 30
0.0
 11
4.0838195661
 21
5.8520539188
 31
0.0
 70
   163
  1
<>
 71
     1
 42
-1.0
  3
SLDDIMSTYLE0
100
AcDbDiametricDimension
 15
3.3718366173
 25
5.3334678806
 35
0.0
 40
0.0
  0
LINE
  5
134
330
1F
100
AcDbEntity
  8
0
  6
PHANTOM
 62
     7
370
    35
100
AcDbLine
 10
2.8218366173
 20
5.6555479427
 30
0.0
 11
2.8218366173
 21
3.1406012826
 31
0.0
  0
LINE
  5
135
330
1F
100
AcDbEntity
  8
0
  6
Continuous
 62
     7
370
    35
100
AcDbLine
 10
2.8218366173
 20
5.6555479427
 30
0.0
 11
2.4718366173
 21
5.6555479427
 31
0.0
  0
SOLID
  5
136
330
1F
100
AcDbEntity
  8
0
  6
Continuous
 62
     7
370
    35
100
AcDbTrace
 10
2.4718366173
 20
5.6555479427
 30
0.0
 11
2.6218366173
 21
5.6305479427
 31
0.0
 12
2.6218366173
 22
5.6805479427
 32
0.0
 13
2.6218366173
 23
5.6805479427
 33
0.0
  0
LINE
  5
137
330
1F
100
AcDbEntity
  8
0
  6
Continuous
 62
     7
370
    35
100
AcDbLine
 10
2.8218366173
 20
3.1406012826
 30
0.0
 11
2.4718366173
 21
3.1406012826
 31
0.0
  0
SOLID
  5
138
330
1F
100
AcDbEntity
  8
0
  6
Continuous
 62
     7
370
    35
100
AcDbTrace
 10
2.4718366173
 20
3.1406012826
 30
0.0
 11
2.6218366173
 21
3.1156012826
 31
0.0
 12
2.6218366173
 22
3.1656012826
 32
0.0
 13
2.6218366173
 23
3.1656012826
 33
0.0
  0
MTEXT
  5
139
330
1F
100
AcDbEntity
  8
0
  6
Continuous
 62
     7
100
AcDbMText
 10
2.3377406636
 20
5.7382930064
 30
0.0
 40
0.1041666667
 41
0.0
 71
     1
 72
     1
  1
A
  7
SLDTEXTSTYLE0
 73
     1
 44
1.0
  0
MTEXT
  5
13A
330
1F
100
AcDbEntity
  8
0
  6
Continuous
 62
     7
100
AcDbMText
 10
2.3377406636
 20
3.2233463464
 30
0.0
 40
0.1041666667
 41
0.0
 71
     1
 72
     1
  1
A
  7
SLDTEXTSTYLE0
 73
     1
 44
1.0
  0
LINE
  5
13B
330
1F
100
AcDbEntity
  8
0
  6
Continuous
 62
     7
370
    18
100
AcDbLine
 10
7.2777272783
 20
5.3808399243
 30
0.0
 11
7.3954462019
 21
5.3808399243
 31
0.0
  0
LINE
  5
13C
330
1F
100
AcDbEntity
  8
0
  6
Continuous
 62
     7
370
    18
100
AcDbLine
 10
7.3954462019
 20
3.3808399485
 30
0.0
 11
7.2777272783
 21
3.3808399485
 31
0.0
  0
ARC
  5
13D
330
1F
100
AcDbEntity
  8
0
  6
Continuous
 62
     7
370
    18
100
AcDbCircle
 10
12.2478084046
 20
4.3808399364
 30
0.0
 40
5.069685039370079
100
AcDbArc
 50
168.6237542746
 51
191.3762457254
  0
LINE
  5
13E
330
1F
100
AcDbEntity
  8
0
  6
Continuous
 62
     7
370
    18
100
AcDbLine
 10
7.3954462019
 20
5.3808399243
 30
0.0
 11
7.3954462019
 21
3.3808399485
 31
0.0
  0
LINE
  5
13F
330
1F
100
AcDbEntity
  8
0
  6
Continuous
 62
     7
370
    18
100
AcDbLine
 10
7.2779282459
 20
5.388339931
 30
0.0
 11
7.2606077383
 21
5.3983399155
 31
0.0
  0
LINE
  5
140
330
1F
100
AcDbEntity
  8
0
  6
Continuous
 62
     7
370
    18
100
AcDbLine
 10
7.2606077383
 20
3.3633399573
 30
0.0
 11
7.2779282459
 21
3.3733399418
 31
0.0
  0
LINE
  5
141
330
1F
100
AcDbEntity
  8
0
  6
Continuous
 62
     7
370
    18
100
AcDbLine
 10
7.177928243
 20
5.3408399131
 30
0.0
 11
7.1952487529
 21
5.3308399286
 31
0.0
  0
LINE
  5
142
330
1F
100
AcDbEntity
  8
0
  6
Continuous
 62
     7
370
    18
100
AcDbLine
 10
7.177928243
 20
5.3408399131
 30
0.0
 11
7.177928243
 21
5.3810194423
 31
0.0
  0
LINE
  5
143
330
1F
100
AcDbEntity
  8
0
  6
Continuous
 62
     7
370
    18
100
AcDbLine
 10
7.1879282458
 20
5.3983399155
 30
0.0
 11
7.177928243
 21
5.3810194423
 31
0.0
  0
LINE
  5
144
330
1F
100
AcDbEntity
  8
0
  6
Continuous
 62
     7
370
    18
100
AcDbLine
 10
7.1879282458
 20
5.3983399155
 30
0.0
 11
7.2606077383
 21
5.3983399155
 31
0.0
  0
LINE
  5
145
330
1F
100
AcDbEntity
  8
0
  6
Continuous
 62
     7
370
    18
100
AcDbLine
 10
7.2679282454
 20
5.3308399286
 30
0.0
 11
7.2779282459
 21
5.3481604752
 31
0.0
  0
LINE
  5
146
330
1F
100
AcDbEntity
  8
0
  6
Continuous
 62
     7
370
    18
100
AcDbLine
 10
7.2679282454
 20
5.3308399286
 30
0.0
 11
7.1952487529
 21
5.3308399286
 31
0.0
  0
LINE
  5
147
330
1F
100
AcDbEntity
  8
0
  6
Continuous
 62
     7
370
    18
100
AcDbLine
 10
7.2779282459
 20
5.388339931
 30
0.0
 11
7.2779282459
 21
5.3481604752
 31
0.0
  0
LINE
  5
148
330
1F
100
AcDbEntity
  8
0
  6
Continuous
 62
     7
370
    18
100
AcDbLine
 10
7.2779282459
 20
3.4135193977
 30
0.0
 11
7.2679282454
 21
3.4308399442
 31
0.0
  0
LINE
  5
149
330
1F
100
AcDbEntity
  8
0
  6
Continuous
 62
     7
370
    18
100
AcDbLine
 10
7.2606077383
 20
3.3633399573
 30
0.0
 11
7.1879282458
 21
3.3633399573
 31
0.0
  0
LINE
  5
14A
330
1F
100
AcDbEntity
  8
0
  6
Continuous
 62
     7
370
    18
100
AcDbLine
 10
7.177928243
 20
3.3806604306
 30
0.0
 11
7.1879282458
 21
3.3633399573
 31
0.0
  0
LINE
  5
14B
330
1F
100
AcDbEntity
  8
0
  6
Continuous
 62
     7
370
    18
100
AcDbLine
 10
7.177928243
 20
3.3806604306
 30
0.0
 11
7.177928243
 21
3.4208399598
 31
0.0
  0
LINE
  5
14C
330
1F
100
AcDbEntity
  8
0
  6
Continuous
 62
     7
370
    18
100
AcDbLine
 10
7.1952487529
 20
3.4308399442
 30
0.0
 11
7.177928243
 21
3.4208399598
 31
0.0
  0
LINE
  5
14D
330
1F
100
AcDbEntity
  8
0
  6
Continuous
 62
     7
370
    18
100
AcDbLine
 10
7.1952487529
 20
3.4308399442
 30
0.0
 11
7.2679282454
 21
3.4308399442
 31
0.0
  0
LINE
  5
14E
330
1F
100
AcDbEntity
  8
0
  6
Continuous
 62
     7
370
    18
100
AcDbLine
 10
7.2779282459
 20
3.4135193977
 30
0.0
 11
7.2779282459
 21
3.3733399418
 31
0.0
  0
LINE
  5
14F
330
1F
100
AcDbEntity
  8
0
  6
Continuous
 62
     7
370
    18
100
AcDbLine
 10
7.1952487529
 20
5.3308399286
 30
0.0
 11
7.1952487529
 21
4.7971900034
 31
0.0
  0
LINE
  5
150
330
1F
100
AcDbEntity
  8
0
  6
Continuous
 62
     7
370
    18
100
AcDbLine
 10
7.1952487529
 20
3.9644898695
 30
0.0
 11
7.1952487529
 21
3.4308399442
 31
0.0
  0
LINE
  5
151
330
1F
100
AcDbEntity
  8
0
  6
Continuous
 62
     7
370
    18
100
AcDbLine
 10
7.1781501746
 20
4.3958399361
 30
0.0
 11
7.177928243
 21
4.3958399361
 31
0.0
  0
LINE
  5
152
330
1F
100
AcDbEntity
  8
0
  6
Continuous
 62
     7
370
    18
100
AcDbLine
 10
7.177928243
 20
4.3958399361
 30
0.0
 11
7.177928243
 21
5.3408399131
 31
0.0
  0
LINE
  5
153
330
1F
100
AcDbEntity
  8
0
  6
Continuous
 62
     7
370
    18
100
AcDbLine
 10
7.177928243
 20
3.4208399598
 30
0.0
 11
7.177928243
 21
4.3658399368
 31
0.0
  0
LINE
  5
154
330
1F
100
AcDbEntity
  8
0
  6
Continuous
 62
     7
370
    18
100
AcDbLine
 10
7.177928243
 20
4.3658399368
 30
0.0
 11
7.1781539696
 21
4.3658399368
 31
0.0
  0
LINE
  5
155
330
1F
100
AcDbEntity
  8
0
  6
Continuous
 62
     7
370
    18
100
AcDbLine
 10
7.1052393227
 20
5.4808399158
 30
0.0
 11
7.1154708362
 21
5.4808399158
 31
0.0
  0
LINE
  5
156
330
1F
100
AcDbEntity
  8
0
  6
Continuous
 62
     7
370
    18
100
AcDbLine
 10
7.1154708362
 20
5.4808399158
 30
0.0
 11
7.2114191436
 21
5.4808399158
 31
0.0
  0
LINE
  5
157
330
1F
100
AcDbEntity
  8
0
  6
Continuous
 62
     7
370
    18
100
AcDbLine
 10
7.2114191436
 20
5.4808399158
 30
0.0
 11
7.243340312
 21
5.4808399158
 31
0.0
  0
LINE
  5
158
330
1F
100
AcDbEntity
  8
0
  6
Continuous
 62
     7
370
    18
100
AcDbLine
 10
7.243340312
 20
5.4808399158
 30
0.0
 11
7.3493431082
 21
5.4808399158
 31
0.0
  0
LINE
  5
159
330
1F
100
AcDbEntity
  8
0
  6
Continuous
 62
     7
370
    18
100
AcDbLine
 10
7.3493431082
 20
5.4808399158
 30
0.0
 11
7.370446204
 21
5.4808399158
 31
0.0
  0
LINE
  5
15A
330
1F
100
AcDbEntity
  8
0
  6
Continuous
 62
     7
370
    18
100
AcDbLine
 10
7.370446204
 20
5.4808399158
 30
0.0
 11
7.4154461984
 21
5.4808399158
 31
0.0
  0
LINE
  5
15B
330
1F
100
AcDbEntity
  8
0
  6
Continuous
 62
     7
370
    18
100
AcDbLine
 10
7.4254462012
 20
5.4708399313
 30
0.0
 11
7.4154461984
 21
5.4808399158
 31
0.0
  0
LINE
  5
15C
330
1F
100
AcDbEntity
  8
0
  6
Continuous
 62
     7
370
    18
100
AcDbLine
 10
7.4254462012
 20
5.4708399313
 30
0.0
 11
7.4254462012
 21
5.388339931
 31
0.0
  0
LINE
  5
15D
330
1F
100
AcDbEntity
  8
0
  6
Continuous
 62
     7
370
    18
100
AcDbLine
 10
7.4254462012
 20
5.388339931
 30
0.0
 11
7.435446204
 21
5.388339931
 31
0.0
  0
LINE
  5
15E
330
1F
100
AcDbEntity
  8
0
  6
Continuous
 62
     7
370
    18
100
AcDbLine
 10
7.435446204
 20
5.388339931
 30
0.0
 11
7.435446204
 21
5.3983399155
 31
0.0
  0
LINE
  5
15F
330
1F
100
AcDbEntity
  8
0
  6
Continuous
 62
     7
370
    18
100
AcDbLine
 10
7.435446204
 20
5.3983399155
 30
0.0
 11
7.5354462046
 21
5.3983399155
 31
0.0
  0
LINE
  5
160
330
1F
100
AcDbEntity
  8
0
  6
Continuous
 62
     7
370
    18
100
AcDbLine
 10
7.5454462074
 20
5.3810194423
 30
0.0
 11
7.5354462046
 21
5.3983399155
 31
0.0
  0
LINE
  5
161
330
1F
100
AcDbEntity
  8
0
  6
Continuous
 62
     7
370
    18
100
AcDbLine
 10
7.5454462074
 20
5.3810194423
 30
0.0
 11
7.5454462074
 21
5.3308399286
 31
0.0
  0
LINE
  5
162
330
1F
100
AcDbEntity
  8
0
  6
Continuous
 62
     7
370
    18
100
AcDbLine
 10
7.5454462074
 20
5.3308399286
 30
0.0
 11
7.3954462019
 21
5.3308399286
 31
0.0
  0
LINE
  5
163
330
1F
100
AcDbEntity
  8
0
  6
Continuous
 62
     7
370
    18
100
AcDbLine
 10
7.3954462019
 20
5.3308399286
 30
0.0
 11
7.3954462019
 21
5.4083399
 31
0.0
  0
LINE
  5
164
330
1F
100
AcDbEntity
  8
0
  6
Continuous
 62
     7
370
    18
100
AcDbLine
 10
7.3954462019
 20
5.4083399
 30
0.0
 11
7.3854461991
 21
5.4083399
 31
0.0
  0
LINE
  5
165
330
1F
100
AcDbEntity
  8
0
  6
Continuous
 62
     7
370
    18
100
AcDbLine
 10
7.3854461991
 20
5.4083399
 30
0.0
 11
7.3854461991
 21
5.3983399155
 31
0.0
  0
LINE
  5
166
330
1F
100
AcDbEntity
  8
0
  6
Continuous
 62
     7
370
    18
100
AcDbLine
 10
7.3854461991
 20
5.3983399155
 30
0.0
 11
7.0454461951
 21
5.3983399155
 31
0.0
  0
LINE
  5
167
330
1F
100
AcDbEntity
  8
0
  6
Continuous
 62
     7
370
    18
100
AcDbLine
 10
7.0354461923
 20
5.4156604621
 30
0.0
 11
7.0454461951
 21
5.3983399155
 31
0.0
  0
LINE
  5
168
330
1F
100
AcDbEntity
  8
0
  6
Continuous
 62
     7
370
    18
100
AcDbLine
 10
7.0354461923
 20
5.4156604621
 30
0.0
 11
7.0354461923
 21
5.4708399313
 31
0.0
  0
LINE
  5
169
330
1F
100
AcDbEntity
  8
0
  6
Continuous
 62
     7
370
    18
100
AcDbLine
 10
7.0454461951
 20
5.4808399158
 30
0.0
 11
7.0354461923
 21
5.4708399313
 31
0.0
  0
LINE
  5
16A
330
1F
100
AcDbEntity
  8
0
  6
Continuous
 62
     7
370
    18
100
AcDbLine
 10
7.0454461951
 20
5.4808399158
 30
0.0
 11
7.1052393227
 21
5.4808399158
 31
0.0
  0
LINE
  5
16B
330
1F
100
AcDbEntity
  8
0
  6
Continuous
 62
     7
370
    18
100
AcDbLine
 10
7.3854461991
 20
3.3633399573
 30
0.0
 11
7.3854461991
 21
3.3533399729
 31
0.0
  0
LINE
  5
16C
330
1F
100
AcDbEntity
  8
0
  6
Continuous
 62
     7
370
    18
100
AcDbLine
 10
7.3854461991
 20
3.3533399729
 30
0.0
 11
7.3954462019
 21
3.3533399729
 31
0.0
  0
LINE
  5
16D
330
1F
100
AcDbEntity
  8
0
  6
Continuous
 62
     7
370
    18
100
AcDbLine
 10
7.3954462019
 20
3.3533399729
 30
0.0
 11
7.3954462019
 21
3.4308399442
 31
0.0
  0
LINE
  5
16E
330
1F
100
AcDbEntity
  8
0
  6
Continuous
 62
     7
370
    18
100
AcDbLine
 10
7.3954462019
 20
3.4308399442
 30
0.0
 11
7.5454462074
 21
3.4308399442
 31
0.0
  0
LINE
  5
16F
330
1F
100
AcDbEntity
  8
0
  6
Continuous
 62
     7
370
    18
100
AcDbLine
 10
7.5354462046
 20
3.3633399573
 30
0.0
 11
7.5454462074
 21
3.3806604306
 31
0.0
  0
LINE
  5
170
330
1F
100
AcDbEntity
  8
0
  6
Continuous
 62
     7
370
    18
100
AcDbLine
 10
7.5354462046
 20
3.3633399573
 30
0.0
 11
7.435446204
 21
3.3633399573
 31
0.0
  0
LINE
  5
171
330
1F
100
AcDbEntity
  8
0
  6
Continuous
 62
     7
370
    18
100
AcDbLine
 10
7.435446204
 20
3.3633399573
 30
0.0
 11
7.435446204
 21
3.3733399418
 31
0.0
  0
LINE
  5
172
330
1F
100
AcDbEntity
  8
0
  6
Continuous
 62
     7
370
    18
100
AcDbLine
 10
7.435446204
 20
3.3733399418
 30
0.0
 11
7.4254462012
 21
3.3733399418
 31
0.0
  0
LINE
  5
173
330
1F
100
AcDbEntity
  8
0
  6
Continuous
 62
     7
370
    18
100
AcDbLine
 10
7.4254462012
 20
3.3733399418
 30
0.0
 11
7.4254462012
 21
3.2908399415
 31
0.0
  0
LINE
  5
174
330
1F
100
AcDbEntity
  8
0
  6
Continuous
 62
     7
370
    18
100
AcDbLine
 10
7.4154461984
 20
3.2808399571
 30
0.0
 11
7.4254462012
 21
3.2908399415
 31
0.0
  0
LINE
  5
175
330
1F
100
AcDbEntity
  8
0
  6
Continuous
 62
     7
370
    18
100
AcDbLine
 10
7.4154461984
 20
3.2808399571
 30
0.0
 11
7.2744461995
 21
3.2808399571
 31
0.0
  0
LINE
  5
176
330
1F
100
AcDbEntity
  8
0
  6
Continuous
 62
     7
370
    18
100
AcDbLine
 10
7.2744461995
 20
3.2808399571
 30
0.0
 11
7.1883962813
 21
3.2808399571
 31
0.0
  0
LINE
  5
177
330
1F
100
AcDbEntity
  8
0
  6
Continuous
 62
     7
370
    18
100
AcDbLine
 10
7.1883962813
 20
3.2808399571
 30
0.0
 11
7.0454461951
 21
3.2808399571
 31
0.0
  0
LINE
  5
178
330
1F
100
AcDbEntity
  8
0
  6
Continuous
 62
     7
370
    18
100
AcDbLine
 10
7.0354461923
 20
3.2908399415
 30
0.0
 11
7.0454461951
 21
3.2808399571
 31
0.0
  0
LINE
  5
179
330
1F
100
AcDbEntity
  8
0
  6
Continuous
 62
     7
370
    18
100
AcDbLine
 10
7.0354461923
 20
3.2908399415
 30
0.0
 11
7.0354461923
 21
3.3460194108
 31
0.0
  0
LINE
  5
17A
330
1F
100
AcDbEntity
  8
0
  6
Continuous
 62
     7
370
    18
100
AcDbLine
 10
7.0454461951
 20
3.3633399573
 30
0.0
 11
7.0354461923
 21
3.3460194108
 31
0.0
  0
LINE
  5
17B
330
1F
100
AcDbEntity
  8
0
  6
Continuous
 62
     7
370
    18
100
AcDbLine
 10
7.0454461951
 20
3.3633399573
 30
0.0
 11
7.3854461991
 21
3.3633399573
 31
0.0
  0
LINE
  5
17C
330
1F
100
AcDbEntity
  8
0
  6
Continuous
 62
     7
370
    18
100
AcDbLine
 10
7.5454462074
 20
3.4308399442
 30
0.0
 11
7.5454462074
 21
3.3806604306
 31
0.0
  0
LINE
  5
17D
330
1F
100
AcDbEntity
  8
0
  6
Continuous
 62
     7
370
    18
100
AcDbLine
 10
7.5454462074
 20
3.4308399442
 30
0.0
 11
7.5454462074
 21
5.3308399286
 31
0.0
  0
LINE
  5
17E
330
1F
100
AcDbEntity
  8
0
  6
Continuous
 62
     7
370
    18
100
AcDbLine
 10
7.0454461951
 20
5.3983399155
 30
0.0
 11
7.0454461951
 21
3.3633399573
 31
0.0
  0
LINE
  5
17F
330
1F
100
AcDbEntity
  8
0
  6
Continuous
 62
     7
370
    18
100
AcDbLine
 10
7.3854461991
 20
3.3633399573
 30
0.0
 11
7.3854461991
 21
3.3808399485
 31
0.0
  0
LINE
  5
180
330
1F
100
AcDbEntity
  8
0
  6
Continuous
 62
     7
370
    18
100
AcDbLine
 10
7.3854461991
 20
5.3808399243
 30
0.0
 11
7.3854461991
 21
5.3983399155
 31
0.0
  0
LINE
  5
181
330
1F
100
AcDbEntity
  8
0
  6
Continuous
 62
     7
370
    18
100
AcDbLine
 10
7.0354461923
 20
3.3460194108
 30
0.0
 11
7.0354461923
 21
5.4156604621
 31
0.0
  0
HATCH
  5
182
330
1F
100
AcDbEntity
  8
0
  6
Continuous
 62
     7
370
    18
100
AcDbHatch
 10
0.0
 20
0.0
 30
0.0
210
0.0
220
0.0
230
1.0
  2
ANSI31
 70
     0
 71
     0
 91
        1
 92
        0
 93
       22
 72
     1
 10
7.105239323343554
 20
5.480839936423989
 11
7.045446199873579
 21
5.480839936423989
 72
     1
 10
7.045446199873579
 20
5.480839936423989
 11
7.03544619987358
 21
5.470839936423991
 72
     1
 10
7.03544619987358
 20
5.470839936423991
 11
7.03544619987358
 21
5.415660444499679
 72
     1
 10
7.03544619987358
 20
5.415660444499679
 11
7.04544619987358
 21
5.39833993642399
 72
     1
 10
7.04544619987358
 20
5.39833993642399
 11
7.385446199873581
 21
5.39833993642399
 72
     1
 10
7.385446199873581
 20
5.39833993642399
 11
7.385446199873581
 21
5.40833993642399
 72
     1
 10
7.385446199873581
 20
5.40833993642399
 11
7.395446199873581
 21
5.40833993642399
 72
     1
 10
7.395446199873581
 20
5.40833993642399
 11
7.395446199873581
 21
5.330839936423989
 72
     1
 10
7.395446199873581
 20
5.330839936423989
 11
7.545446199873581
 21
5.330839936423989
 72
     1
 10
7.545446199873581
 20
5.330839936423989
 11
7.545446199873581
 21
5.3810194283483
 72
     1
 10
7.545446199873581
 20
5.3810194283483
 11
7.535446199873581
 21
5.39833993642399
 72
     1
 10
7.535446199873581
 20
5.39833993642399
 11
7.435446199873581
 21
5.39833993642399
 72
     1
 10
7.435446199873581
 20
5.39833993642399
 11
7.435446199873581
 21
5.388339936423989
 72
     1
 10
7.435446199873581
 20
5.388339936423989
 11
7.42544619987358
 21
5.388339936423989
 72
     1
 10
7.42544619987358
 20
5.388339936423989
 11
7.42544619987358
 21
5.47083993642399
 72
     1
 10
7.42544619987358
 20
5.47083993642399
 11
7.415446199873581
 21
5.480839936423989
 72
     1
 10
7.415446199873581
 20
5.480839936423989
 11
7.370446199873581
 21
5.480839936423989
 72
     1
 10
7.370446199873581
 20
5.480839936423989
 11
7.349343110515894
 21
5.480839936423989
 72
     1
 10
7.349343110515894
 20
5.480839936423989
 11
7.24334031193436
 21
5.480839936423989
 72
     1
 10
7.24334031193436
 20
5.480839936423989
 11
7.211419143085787
 21
5.480839936423989
 72
     1
 10
7.211419143085787
 20
5.480839936423989
 11
7.115470830318886
 21
5.480839936423989
 72
     1
 10
7.115470830318886
 20
5.480839936423989
 11
7.105239323343554
 21
5.480839936423989
 97
        0
 75
     0
 76
     1
 52
0.0
 41
1.0
 77
     0
 78
     1
 53
45.0
 43
0.0
 44
0.0
 45
-0.0883883476483184
 46
0.0883883476483184
 79
     0
 98
        1
 10
0.0
 20
0.0
  0
HATCH
  5
183
330
1F
100
AcDbEntity
  8
0
  6
Continuous
 62
     7
370
    18
100
AcDbHatch
 10
0.0
 20
0.0
 30
0.0
210
0.0
220
0.0
230
1.0
  2
ANSI31
 70
     0
 71
     0
 91
        1
 92
        0
 93
       18
 72
     1
 10
7.385446199873581
 20
3.363339936423989
 11
7.04544619987358
 21
3.363339936423989
 72
     1
 10
7.04544619987358
 20
3.363339936423989
 11
7.03544619987358
 21
3.3460194283483
 72
     1
 10
7.03544619987358
 20
3.3460194283483
 11
7.03544619987358
 21
3.290839936423988
 72
     1
 10
7.03544619987358
 20
3.290839936423988
 11
7.045446199873579
 21
3.280839936423989
 72
     1
 10
7.045446199873579
 20
3.280839936423989
 11
7.188396278168482
 21
3.280839936423989
 72
     1
 10
7.188396278168482
 20
3.280839936423989
 11
7.274446199873578
 21
3.280839936423989
 72
     1
 10
7.274446199873578
 20
3.280839936423989
 11
7.415446199873581
 21
3.280839936423989
 72
     1
 10
7.415446199873581
 20
3.280839936423989
 11
7.42544619987358
 21
3.290839936423989
 72
     1
 10
7.42544619987358
 20
3.290839936423989
 11
7.42544619987358
 21
3.373339936423989
 72
     1
 10
7.42544619987358
 20
3.373339936423989
 11
7.435446199873581
 21
3.373339936423989
 72
     1
 10
7.435446199873581
 20
3.373339936423989
 11
7.435446199873581
 21
3.363339936423989
 72
     1
 10
7.435446199873581
 20
3.363339936423989
 11
7.535446199873581
 21
3.36333993642399
 72
     1
 10
7.535446199873581
 20
3.36333993642399
 11
7.545446199873581
 21
3.380660444499678
 72
     1
 10
7.545446199873581
 20
3.380660444499678
 11
7.545446199873581
 21
3.43083993642399
 72
     1
 10
7.545446199873581
 20
3.43083993642399
 11
7.395446199873581
 21
3.43083993642399
 72
     1
 10
7.395446199873581
 20
3.43083993642399
 11
7.395446199873581
 21
3.35333993642399
 72
     1
 10
7.395446199873581
 20
3.35333993642399
 11
7.385446199873581
 21
3.35333993642399
 72
     1
 10
7.385446199873581
 20
3.35333993642399
 11
7.385446199873581
 21
3.363339936423989
 97
        0
 75
     0
 76
     1
 52
0.0
 41
1.0
 77
     0
 78
     1
 53
45.0
 43
0.0
 44
0.0
 45
-0.0883883476483184
 46
0.0883883476483184
 79
     0
 98
        1
 10
0.0
 20
0.0
  0
HATCH
  5
184
330
1F
100
AcDbEntity
  8
0
  6
Continuous
 62
     7
370
    18
100
AcDbHatch
 10
0.0
 20
0.0
 30
0.0
210
0.0
220
0.0
230
1.0
  2
ANSI31
 70
     0
 71
     0
 91
        1
 92
        0
 93
        8
 72
     1
 10
7.195248753632421
 20
5.330839936423989
 11
7.267928245556731
 21
5.330839936423989
 72
     1
 10
7.267928245556731
 20
5.330839936423989
 11
7.277928245556731
 21
5.348160444499679
 72
     1
 10
7.277928245556731
 20
5.348160444499679
 11
7.277928245556731
 21
5.388339936423988
 72
     1
 10
7.277928245556731
 20
5.388339936423988
 11
7.26060773748104
 21
5.39833993642399
 72
     1
 10
7.26060773748104
 20
5.39833993642399
 11
7.18792824555673
 21
5.39833993642399
 72
     1
 10
7.18792824555673
 20
5.39833993642399
 11
7.17792824555673
 21
5.381019428348302
 72
     1
 10
7.17792824555673
 20
5.381019428348302
 11
7.17792824555673
 21
5.340839936423991
 72
     1
 10
7.17792824555673
 20
5.340839936423991
 11
7.195248753632421
 21
5.330839936423989
 97
        0
 75
     0
 76
     1
 52
90.0
 41
1.0
 77
     0
 78
     1
 53
135.0000000000002
 43
0.0
 44
0.0
 45
-0.0883883476483181
 46
-0.0883883476483188
 79
     0
 98
        1
 10
0.0
 20
0.0
  0
HATCH
  5
185
330
1F
100
AcDbEntity
  8
0
  6
Continuous
 62
     7
370
    18
100
AcDbHatch
 10
0.0
 20
0.0
 30
0.0
210
0.0
220
0.0
230
1.0
  2
ANSI31
 70
     0
 71
     0
 91
        1
 92
        0
 93
        8
 72
     1
 10
7.277928245556731
 20
3.37333993642399
 11
7.277928245556731
 21
3.413519428348301
 72
     1
 10
7.277928245556731
 20
3.413519428348301
 11
7.267928245556731
 21
3.43083993642399
 72
     1
 10
7.267928245556731
 20
3.43083993642399
 11
7.195248753632421
 21
3.43083993642399
 72
     1
 10
7.195248753632421
 20
3.43083993642399
 11
7.17792824555673
 21
3.420839936423988
 72
     1
 10
7.17792824555673
 20
3.420839936423988
 11
7.17792824555673
 21
3.380660444499677
 72
     1
 10
7.17792824555673
 20
3.380660444499677
 11
7.18792824555673
 21
3.363339936423989
 72
     1
 10
7.18792824555673
 20
3.363339936423989
 11
7.26060773748104
 21
3.363339936423989
 72
     1
 10
7.26060773748104
 20
3.363339936423989
 11
7.277928245556731
 21
3.37333993642399
 97
        0
 75
     0
 76
     1
 52
90.0
 41
1.0
 77
     0
 78
     1
 53
135.0000000000002
 43
0.0
 44
0.0
 45
-0.0883883476483181
 46
-0.0883883476483188
 79
     0
 98
        1
 10
0.0
 20
0.0
  0
HATCH
  5
186
330
1F
100
AcDbEntity
  8
0
  6
Continuous
 62
     7
370
    18
100
AcDbHatch
 10
0.0
 20
0.0
 30
0.0
210
0.0
220
0.0
230
1.0
  2
ANSI31
 70
     0
 71
     0
 91
        1
 92
        0
 93
        4
 72
     2
 10
12.24780840459799
 20
4.38083993642399
 40
5.069685039370079
 50
168.623754274628
 51
191.3762457253728
 73
     1
 72
     1
 10
7.27772727865922
 20
3.38083993642399
 11
7.395446199873581
 21
3.38083993642399
 72
     1
 10
7.395446199873581
 20
3.38083993642399
 11
7.395446199873581
 21
5.380839936423989
 72
     1
 10
7.395446199873581
 20
5.380839936423989
 11
7.27772727865922
 21
5.380839936423989
 97
        0
 75
     0
 76
     1
 52
0.0
 41
1.0
 77
     0
 78
     1
 53
45.0
 43
0.0
 44
0.0
 45
-0.0883883476483184
 46
0.0883883476483184
 79
     0
 98
        1
 10
0.0
 20
0.0
  0
DIMENSION
  5
187
330
1F
100
AcDbEntity
  8
0
  6
Continuous
 62
     7
370
    18
100
AcDbDimension
  2
_D_1
 10
7.0354461999
 20
6.2967472168
 30
0.0
 11
6.2861209173
 21
6.2967472168
 31
0.0
 70
   160
  1
<>
 71
     2
 42
-1.0
  3
SLDDIMSTYLE1
100
AcDbAlignedDimension
 13
7.5454461999
 23
5.3810194283
 33
0.0
 14
7.0354461999
 24
5.4708399364
 34
0.0
100
AcDbRotatedDimension
  0
DIMENSION
  5
19C
330
1F
100
AcDbEntity
  8
0
  6
Continuous
 62
     7
370
    18
100
AcDbDimension
  2
_D_2
 10
7.4254461999
 20
5.8745407238
 30
0.0
 11
8.0371558514
 21
5.8745407238
 31
0.0
 70
   160
  1
<>
 71
     2
 42
-1.0
  3
SLDDIMSTYLE1
100
AcDbAlignedDimension
 13
7.5454461999
 23
5.3308399364
 33
0.0
 14
7.4254461999
 24
5.4708399364
 34
0.0
100
AcDbRotatedDimension
  0
DIMENSION
  5
1B0
330
1F
100
AcDbEntity
  8
0
  6
Continuous
 62
     7
370
    18
100
AcDbDimension
  2
_D_3
 10
8.5998566868
 20
5.3308399364
 30
0.0
 11
8.5998566868
 21
4.3808399364
 31
0.0
 70
   160
  1
%%c<>
 71
     2
 42
-1.0
  3
SLDDIMSTYLE2
100
AcDbAlignedDimension
 13
7.5454461999
 23
3.4308399364
 33
0.0
 14
7.5454461999
 24
5.3308399364
 34
0.0
 50
90.0
100
AcDbRotatedDimension
  0
MTEXT
  5
1C4
330
1F
100
AcDbEntity
  8
0
  6
Continuous
 62
     7
370
     0
100
AcDbMText
 10
7.2833184814
 20
2.8654846814
 30
0.0
 40
0.0833333333
 41
0.0
 71
     2
 72
     1
  1
SECTION A-A
  7
SLDTEXTSTYLE0
 73
     1
 44
1.0
  0
INSERT
  5
1D1
102
{ACAD_REACTORS
330
1D3
102
}
330
1F
100
AcDbEntity
  8
0
  6
Continuous
 62
     7
370
     0
100
AcDbBlockReference
  2
SW_NOTE_5
 10
6.3814187463
 20
3.6538611115
 30
0.0
  0
LEADER
  5
1D3
330
1F
100
AcDbEntity
  8
0
  6
Continuous
 62
     7
370
     0
100
AcDbLeader
  3
SLDDIMSTYLE3
 73
     2
 76
     3
 10
7.1574847851
 20
3.3633399364
 30
0.0
 10
6.6314187463
 20
3.6538611115
 30
0.0
 10
6.3814187463
 20
3.6538611115
 30
0.0
340
1D1
  0
INSERT
  5
1DA
102
{ACAD_REACTORS
330
1DB
102
}
330
1F
100
AcDbEntity
  8
0
  6
Continuous
 62
     7
370
     0
100
AcDbBlockReference
  2
SW_NOTE_6
 10
7.9432442268
 20
3.1079734651
 30
0.0
  0
LEADER
  5
1DB
330
1F
100
AcDbEntity
  8
0
  6
Continuous
 62
     7
370
     0
100
AcDbLeader
  3
SLDDIMSTYLE3
 73
     2
 76
     3
 10
7.5013616331
 20
3.3633399364
 30
0.0
 10
7.6932442268
 20
3.1079734651
 30
0.0
 10
7.9432442268
 20
3.1079734651
 30
0.0
340
1DA
  0
INSERT
  5
1E1
102
{ACAD_REACTORS
330
1E2
102
}
330
1F
100
AcDbEntity
  8
0
  6
Continuous
 62
     7
370
     0
100
AcDbBlockReference
  2
SW_NOTE_7
 10
6.5051002927
 20
2.847974426
 30
0.0
  0
LEADER
  5
1E2
330
1F
100
AcDbEntity
  8
0
  6
Continuous
 62
     7
370
     0
100
AcDbLeader
  3
SLDDIMSTYLE3
 73
     2
 76
     3
 10
7.1288837116
 20
3.2808399364
 30
0.0
 10
6.7511632848
 20
2.847974426
 30
0.0
 10
6.5051002927
 20
2.847974426
 30
0.0
340
1E1
  0
INSERT
  5
1E8
102
{ACAD_REACTORS
330
1E9
102
}
330
1F
100
AcDbEntity
  8
0
  6
Continuous
 62
     7
370
     0
100
AcDbBlockReference
  2
SW_NOTE_8
 10
8.1098007859
 20
4.9901698869
 30
0.0
  0
LEADER
  5
1E9
330
1F
100
AcDbEntity
  8
0
  6
Continuous
 62
     7
370
     0
100
AcDbLeader
  3
SLDDIMSTYLE3
 73
     2
 76
     3
 10
7.3954461999
 20
4.5659206501
 30
0.0
 10
7.8637377937
 20
4.9901698869
 30
0.0
 10
8.1098007859
 20
4.9901698869
 30
0.0
340
1E8
  0
INSERT
  5
1EF
102
{ACAD_REACTORS
330
1F0
102
}
330
1F
100
AcDbEntity
  8
0
  6
Continuous
 62
     7
370
     0
100
AcDbBlockReference
  2
SW_NOTE_9
 10
6.4223900432
 20
5.7221555945
 30
0.0
  0
LEADER
  5
1F0
330
1F
100
AcDbEntity
  8
0
  6
Continuous
 62
     7
370
     0
100
AcDbLeader
  3
SLDDIMSTYLE3
 73
     2
 76
     3
 10
7.1779282456
 20
5.3810194283
 30
0.0
 10
6.6684530354
 20
5.7221555945
 30
0.0
 10
6.4223900432
 20
5.7221555945
 30
0.0
340
1EF
  0
LINE
  5
1F1
330
1F
100
AcDbEntity
  8
0
  6
Continuous
 62
     7
370
    18
100
AcDbLine
 10
8.7826925073
 20
7.4080955089
 30
0.0
 11
8.7826925073
 21
7.3999314278
 31
0.0
  0
LINE
  5
1F2
330
1F
100
AcDbEntity
  8
0
  6
Continuous
 62
     7
370
    18
100
AcDbLine
 10
9.5533136308
 20
6.0650318493
 30
0.0
 11
9.5603835494
 21
6.0609491453
 31
0.0
  0
LINE
  5
1F3
330
1F
100
AcDbEntity
  8
0
  6
Continuous
 62
     7
370
    18
100
AcDbLine
 10
9.2721841727
 20
8.0627602967
 30
0.0
 11
9.0105546636
 21
7.911724796
 31
0.0
  0
LINE
  5
1F4
330
1F
100
AcDbEntity
  8
0
  6
Continuous
 62
     7
370
    18
100
AcDbLine
 10
10.1104652695
 20
6.0064172988
 30
0.0
 11
10.3720947786
 21
6.1574527994
 31
0.0
  0
LINE
  5
1F5
330
1F
100
AcDbEntity
  8
0
  6
Continuous
 62
     7
370
    18
100
AcDbLine
 10
10.5999569349
 20
6.6610820866
 30
0.0
 11
10.5999569349
 21
6.6692461677
 31
0.0
  0
LINE
  5
1F6
330
1F
100
AcDbEntity
  8
0
  6
Continuous
 62
     7
370
    18
100
AcDbLine
 10
9.8293358114
 20
8.0041457462
 30
0.0
 11
9.8222658928
 21
8.0082284502
 31
0.0
  0
LWPOLYLINE
  5
1F7
330
1F
100
AcDbEntity
  8
0
  6
Continuous
 62
     7
370
    18
100
AcDbPolyline
 90
       31
 70
   128
 43
0.0
 10
9.1539396081
 20
7.8792393977
 10
9.1449674603
 20
7.873862094
 10
9.1324139435
 20
7.8656726687
 10
9.1202112296
 20
7.8569100709
 10
9.1083675226
 20
7.8475801918
 10
9.0968907855
 20
7.8376893042
 10
9.0857887344
 20
7.8272440579
 10
9.0750688334
 20
7.8162514757
 10
9.0647382899
 20
7.804718948
 10
9.0548040492
 20
7.7926542286
 10
9.0452727906
 20
7.7800654288
 10
9.036150922
 20
7.7669610124
 10
9.0274445764
 20
7.7533497898
 10
9.0191596072
 20
7.7392409123
 10
9.0113015847
 20
7.7246438655
 10
9.003875792
 20
7.7095684635
 10
8.9968872216
 20
7.6940248419
 10
8.9903405722
 20
7.678023451
 10
8.9842402453
 20
7.6615750489
 10
8.9785903421
 20
7.6446906944
 10
8.9733946614
 20
7.6273817392
 10
8.9686566963
 20
7.6096598207
 10
8.9643796323
 20
7.5915368537
 10
8.9605663449
 20
7.5730250227
 10
8.9572193979
 20
7.5541367737
 10
8.9543410415
 20
7.5348848059
 10
8.9519332111
 20
7.5152820627
 10
8.9499975253
 20
7.4953417236
 10
8.9485352856
 20
7.4750771951
 10
8.9475474752
 20
7.4545021015
 10
8.9470347581
 20
7.4336302759
  0
LINE
  5
1F8
330
1F
100
AcDbEntity
  8
0
  6
Continuous
 62
     7
370
    18
100
AcDbLine
 10
8.9470347581
 20
7.4336302759
 30
0.0
 11
8.941857023
 21
7.4447833998
 31
0.0
  0
ARC
  5
1F9
330
1F
100
AcDbEntity
  8
0
  6
Continuous
 62
     7
370
    18
100
AcDbCircle
 10
9.4832767005
 20
7.4766790779
 30
0.0
 40
0.5423583699663974
100
AcDbArc
 50
134.2718835178
 51
183.3714659668
  0
LWPOLYLINE
  5
1FA
330
1F
100
AcDbEntity
  8
0
  6
Continuous
 62
     7
370
    18
100
AcDbPolyline
 90
        3
 70
   128
 43
0.0
 10
8.952420159
 20
7.4305213501
 10
8.9524294189
 20
7.4294918654
 10
8.9524636247
 20
7.4264102363
  0
LINE
  5
1FB
330
1F
100
AcDbEntity
  8
0
  6
Continuous
 62
     7
370
    18
100
AcDbLine
 10
8.941857023
 20
7.4202871755
 30
0.0
 11
8.9524636247
 21
7.4264102363
 31
0.0
  0
LWPOLYLINE
  5
1FC
330
1F
100
AcDbEntity
  8
0
  6
Continuous
 62
     7
370
    18
100
AcDbPolyline
 90
       88
 70
   128
 43
0.0
 10
10.1170941027
 20
6.1112769856
 10
10.1104628876
 20
6.1089100378
 10
10.0957378323
 20
6.1041777022
 10
10.0807205705
 20
6.1000594386
 10
10.0654212019
 20
6.0965580169
 10
10.049850016
 20
6.0936757918
 10
10.0340174853
 20
6.0914147018
 10
10.0179342577
 20
6.0897762676
 10
10.0016111502
 20
6.0887615911
 10
9.9850591406
 20
6.0883713547
 10
9.968289361
 20
6.0886058209
 10
9.9513130898
 20
6.089464832
 10
9.9341417444
 20
6.0909478102
 10
9.9167868734
 20
6.0930537583
 10
9.8992601486
 20
6.0957812597
 10
9.8815733576
 20
6.0991284803
 10
9.8637383956
 20
6.1030931687
 10
9.8457672575
 20
6.1076726587
 10
9.8276720296
 20
6.1128638701
 10
9.8094648819
 20
6.1186633118
 10
9.7911580594
 20
6.1250670834
 10
9.7727638745
 20
6.1320708779
 10
9.754294698
 20
6.139669985
 10
9.7357629514
 20
6.147859294
 10
9.717181098
 20
6.1566332971
 10
9.6985616351
 20
6.1659860935
 10
9.6799170851
 20
6.175911393
 10
9.6612599873
 20
6.1864025202
 10
9.6426028895
 20
6.1974524195
 10
9.6239583395
 20
6.2090536593
 10
9.6053388766
 20
6.2211984373
 10
9.5867570232
 20
6.2338785853
 10
9.5682252766
 20
6.2470855756
 10
9.5497561001
 20
6.2608105258
 10
9.5313619152
 20
6.2750442051
 10
9.5130550927
 20
6.2897770408
 10
9.494847945
 20
6.3049991244
 10
9.4767527171
 20
6.3207002184
 10
9.458781579
 20
6.3368697629
 10
9.440946617
 20
6.3534968832
 10
9.423259826
 20
6.3705703969
 10
9.4057331012
 20
6.3880788211
 10
9.3883782302
 20
6.4060103807
 10
9.3712068848
 20
6.4243530158
 10
9.3542306136
 20
6.4430943902
 10
9.337460834
 20
6.4622218994
 10
9.3209088244
 20
6.4817226793
 10
9.3045857169
 20
6.5015836147
 10
9.2885024893
 20
6.5217913481
 10
9.2726699586
 20
6.542332289
 10
9.2570987727
 20
6.5631926226
 10
9.2417994041
 20
6.5843583194
 10
9.2267821422
 20
6.6058151444
 10
9.212057087
 20
6.627548667
 10
9.1976341416
 20
6.6495442703
 10
9.1835230062
 20
6.6717871612
 10
9.1697331711
 20
6.6942623804
 10
9.1562739108
 20
6.7169548123
 10
9.143154277
 20
6.739849195
 10
9.1303830935
 20
6.7629301312
 10
9.1179689495
 20
6.7861820978
 10
9.1059201939
 20
6.8095894567
 10
9.0942449302
 20
6.8331364654
 10
9.0829510106
 20
6.8568072875
 10
9.0720460307
 20
6.8805860032
 10
9.0615373246
 20
6.9044566202
 10
9.0514319599
 20
6.9284030845
 10
9.041736733
 20
6.9524092909
 10
9.0324581643
 20
6.9764590941
 10
9.0236024941
 20
7.0005363195
 10
9.0151756783
 20
7.0246247741
 10
9.0071833843
 20
7.0487082573
 10
8.9996309872
 20
7.0727705717
 10
8.9925235665
 20
7.0967955344
 10
8.9858659021
 20
7.1207669874
 10
8.9796624717
 20
7.1446688089
 10
8.9739174474
 20
7.1684849237
 10
8.968634693
 20
7.1921993144
 10
8.9638177613
 20
7.215796032
 10
8.959469892
 20
7.2392592066
 10
8.9555940092
 20
7.262573058
 10
8.9521927197
 20
7.2857219067
 10
8.9492683109
 20
7.308690184
 10
8.9468227497
 20
7.3314624426
 10
8.9448576808
 20
7.3540233672
 10
8.9433744258
 20
7.3763577844
 10
8.9423739822
 20
7.3984506733
 10
8.941857023
 20
7.4202871755
  0
LWPOLYLINE
  5
1FD
330
1F
100
AcDbEntity
  8
0
  6
Continuous
 62
     7
370
    18
100
AcDbPolyline
 90
       40
 70
   128
 43
0.0
 10
8.9754492787
 20
7.4172269223
 10
8.9759521489
 20
7.4372455179
 10
8.9769106473
 20
7.4569792137
 10
8.9783241301
 20
7.4764147528
 10
8.9801916477
 20
7.4955390789
 10
8.9825119455
 20
7.5143393444
 10
8.9852834647
 20
7.5328029198
 10
8.9885043436
 20
7.5509174014
 10
8.9921724184
 20
7.5686706203
 10
8.996285225
 20
7.5860506501
 10
9.0008400003
 20
7.6030458152
 10
9.0058336847
 20
7.6196446986
 10
9.0112629234
 20
7.6358361494
 10
9.0171240691
 20
7.6516092905
 10
9.0234131845
 20
7.6669535256
 10
9.0301260446
 20
7.6818585469
 10
9.0372581398
 20
7.6963143413
 10
9.0448046789
 20
7.7103111977
 10
9.0527605923
 20
7.7238397133
 10
9.0611205353
 20
7.7368907998
 10
9.0698788918
 20
7.7494556896
 10
9.0790297781
 20
7.761525942
 10
9.0885670468
 20
7.7730934483
 10
9.0984842909
 20
7.7841504377
 10
9.1087748483
 20
7.7946894823
 10
9.1194318058
 20
7.804703502
 10
9.1304480042
 20
7.8141857697
 10
9.1418160432
 20
7.8231299154
 10
9.1535282858
 20
7.8315299304
 10
9.1655768639
 20
7.8393801718
 10
9.1779536835
 20
7.8466753659
 10
9.1906504301
 20
7.853410612
 10
9.2036585741
 20
7.8595813855
 10
9.216969377
 20
7.8651835408
 10
9.2305738968
 20
7.8702133146
 10
9.2444629941
 20
7.8746673279
 10
9.2586273386
 20
7.8785425887
 10
9.2730574147
 20
7.8818364935
 10
9.2877435288
 20
7.8845468296
 10
9.2907382199
 20
7.8850229751
  0
LINE
  5
1FE
330
1F
100
AcDbEntity
  8
0
  6
Continuous
 62
     7
370
    18
100
AcDbLine
 10
8.9754492787
 20
7.4172269223
 30
0.0
 11
8.9470347581
 21
7.4336302759
 31
0.0
  0
LWPOLYLINE
  5
1FF
330
1F
100
AcDbEntity
  8
0
  6
Continuous
 62
     7
370
    18
100
AcDbPolyline
 90
       40
 70
   128
 43
0.0
 10
9.306730648
 20
7.8830049325
 10
9.3038422233
 20
7.8825456551
 10
9.2893100354
 20
7.8798652118
 10
9.2750311412
 20
7.876607396
 10
9.2610151309
 20
7.8727743957
 10
9.2472714183
 20
7.8683687853
 10
9.2338092342
 20
7.8633935238
 10
9.2206376204
 20
7.8578519528
 10
9.2077654234
 20
7.8517477942
 10
9.1952012889
 20
7.8450851478
 10
9.1829536553
 20
7.8378684887
 10
9.1710307487
 20
7.8301026636
 10
9.159440577
 20
7.8217928886
 10
9.1481909247
 20
7.8129447448
 10
9.1372893474
 20
7.803564175
 10
9.1267431672
 20
7.7936574795
 10
9.1165594672
 20
7.7832313121
 10
9.1067450874
 20
7.7722926755
 10
9.0973066193
 20
7.7608489164
 10
9.0882504023
 20
7.7489077211
 10
9.079582519
 20
7.7364771096
 10
9.0713087909
 20
7.7235654309
 10
9.0634347752
 20
7.7101813571
 10
9.0559657603
 20
7.6963338774
 10
9.0489067627
 20
7.6820322923
 10
9.0422625235
 20
7.6672862075
 10
9.0360375053
 20
7.6521055269
 10
9.0302358891
 20
7.6365004465
 10
9.0248615714
 20
7.6204814475
 10
9.0199181619
 20
7.6040592887
 10
9.0154089808
 20
7.587245
 10
9.0113370566
 20
7.5700498746
 10
9.0077051241
 20
7.5524854614
 10
9.0045156229
 20
7.5345635574
 10
9.001770695
 20
7.5162961997
 10
8.9994721841
 20
7.4976956574
 10
8.9976216339
 20
7.4787744234
 10
8.9962202873
 20
7.459545206
 10
8.9952690856
 20
7.4400209204
 10
8.9947686676
 20
7.4202146797
  0
LINE
  5
200
330
1F
100
AcDbEntity
  8
0
  6
Continuous
 62
     7
370
    18
100
AcDbLine
 10
8.9947686676
 20
7.4202146797
 30
0.0
 11
8.9754492787
 21
7.4172269223
 31
0.0
  0
LWPOLYLINE
  5
201
330
1F
100
AcDbEntity
  8
0
  6
Continuous
 62
     7
370
    18
100
AcDbPolyline
 90
      100
 70
   128
 43
0.0
 10
8.9947686676
 20
7.3957184554
 10
8.9952690856
 20
7.3753344444
 10
8.9962202873
 20
7.3547119247
 10
8.9976216339
 20
7.333864747
 10
8.9994721841
 20
7.3128069132
 10
9.001770695
 20
7.2915525667
 10
9.0045156229
 20
7.2701159827
 10
9.0077051241
 20
7.248511559
 10
9.0113370566
 20
7.2267538059
 10
9.0154089808
 20
7.2048573368
 10
9.0199181619
 20
7.1828368584
 10
9.0248615714
 20
7.1607071605
 10
9.0302358891
 20
7.1384831063
 10
9.0360375053
 20
7.1161796224
 10
9.0422625235
 20
7.0938116888
 10
9.0489067627
 20
7.0713943287
 10
9.0559657603
 20
7.0489425985
 10
9.0634347752
 20
7.0264715777
 10
9.0713087909
 20
7.0039963588
 10
9.079582519
 20
6.9815320371
 10
9.0882504023
 20
6.9590937005
 10
9.0973066193
 20
6.9366964196
 10
9.1067450874
 20
6.9143552373
 10
9.1165594672
 20
6.8920851589
 10
9.1267431672
 20
6.8699011418
 10
9.1372893474
 20
6.8478180858
 10
9.1481909247
 20
6.8258508228
 10
9.159440577
 20
6.8040141069
 10
9.1710307487
 20
6.7823226045
 10
9.1829536553
 20
6.7607908845
 10
9.1952012889
 20
6.7394334086
 10
9.2077654234
 20
6.7182645213
 10
9.2206376204
 20
6.6972984404
 10
9.2338092342
 20
6.6765492478
 10
9.2472714183
 20
6.6560308794
 10
9.2610151309
 20
6.6357571161
 10
9.2750311412
 20
6.6157415748
 10
9.2893100354
 20
6.5959976986
 10
9.3038422233
 20
6.5765387484
 10
9.3186179445
 20
6.5573777935
 10
9.3336272748
 20
6.5385277033
 10
9.3488601335
 20
6.5200011384
 10
9.3643062896
 20
6.5018105418
 10
9.3799553687
 20
6.4839681311
 10
9.3957968603
 20
6.4664858902
 10
9.4118201246
 20
6.4493755606
 10
9.4280143997
 20
6.4326486345
 10
9.4443688088
 20
6.4163163464
 10
9.4608723677
 20
6.4003896656
 10
9.4775139919
 20
6.3848792893
 10
9.4942825042
 20
6.3697956347
 10
9.5111666421
 20
6.3551488328
 10
9.5281550657
 20
6.3409487209
 10
9.5452363646
 20
6.3272048364
 10
9.5623990665
 20
6.3139264103
 10
9.5796316441
 20
6.3011223609
 10
9.5969225234
 20
6.2888012879
 10
9.6142600911
 20
6.2769714667
 10
9.6316327025
 20
6.2656408426
 10
9.6490286895
 20
6.2548170259
 10
9.6664363682
 20
6.2445072861
 10
9.6838440469
 20
6.2347185478
 10
9.7012400339
 20
6.2254573855
 10
9.7186126453
 20
6.2167300194
 10
9.735950213
 20
6.2085423111
 10
9.7532410923
 20
6.2008997598
 10
9.7704736699
 20
6.1938074986
 10
9.7876363718
 20
6.1872702909
 10
9.8047176707
 20
6.1812925274
 10
9.8217060943
 20
6.175878223
 10
9.8385902322
 20
6.1710310142
 10
9.8553587445
 20
6.1667541566
 10
9.8720003687
 20
6.1630505226
 10
9.8885039276
 20
6.1599225998
 10
9.9048583367
 20
6.1573724891
 10
9.9210526118
 20
6.1554019031
 10
9.9370758761
 20
6.1540121655
 10
9.9529173677
 20
6.1532042096
 10
9.9685664468
 20
6.1529785781
 10
9.9840126029
 20
6.1533354225
 10
9.9992454616
 20
6.1542745032
 10
10.0142547919
 20
6.1557951894
 10
10.0290305131
 20
6.1578964597
 10
10.043562701
 20
6.160576903
 10
10.0578415952
 20
6.1638347188
 10
10.0718576055
 20
6.1676677191
 10
10.0856013181
 20
6.1720733295
 10
10.0990635022
 20
6.177048591
 10
10.112235116
 20
6.1825901621
 10
10.125107313
 20
6.1886943206
 10
10.1376714475
 20
6.195356967
 10
10.1499190811
 20
6.2025736262
 10
10.1618419877
 20
6.2103394512
 10
10.1734321594
 20
6.2186492262
 10
10.1846818117
 20
6.22749737
 10
10.195583389
 20
6.2368779399
 10
10.2061295692
 20
6.2467846353
 10
10.2163132692
 20
6.2572108027
 10
10.226127649
 20
6.2681494394
 10
10.2337065464
 20
6.2772615934
  0
LINE
  5
202
330
1F
100
AcDbEntity
  8
0
  6
Continuous
 62
     7
370
    18
100
AcDbLine
 10
9.0001988884
 20
7.3988532551
 30
0.0
 11
8.9947686676
 21
7.3957184554
 31
0.0
  0
ARC
  5
203
330
1F
100
AcDbEntity
  8
0
  6
Continuous
 62
     7
370
    18
100
AcDbCircle
 10
9.8958528603
 20
7.4111013673
 30
0.0
 40
0.8957377147378155
100
AcDbArc
 50
179.2165262291
 51
180.7834737709
  0
LINE
  5
204
330
1F
100
AcDbEntity
  8
0
  6
Continuous
 62
     7
370
    18
100
AcDbLine
 10
8.9947686676
 20
7.4202146797
 30
0.0
 11
9.0001988884
 21
7.4233494795
 31
0.0
  0
LWPOLYLINE
  5
205
330
1F
100
AcDbEntity
  8
0
  6
Continuous
 62
     7
370
    18
100
AcDbPolyline
 90
       89
 70
   128
 43
0.0
 10
9.7178285298
 20
6.2741753495
 10
9.700244127
 20
6.2845924269
 10
9.6826717757
 20
6.2955340004
 10
9.6651235191
 20
6.3069925712
 10
9.6476113838
 20
6.3189602862
 10
9.6301473719
 20
6.3314289434
 10
9.6127434523
 20
6.3443899972
 10
9.5954115527
 20
6.3578345649
 10
9.5781635517
 20
6.3717534322
 10
9.56101127
 20
6.3861370599
 10
9.543966463
 20
6.4009755901
 10
9.5270408124
 20
6.4162588531
 10
9.5102459182
 20
6.4319763748
 10
9.4935932907
 20
6.4481173829
 10
9.4770943429
 20
6.4646708153
 10
9.4607603822
 20
6.4816253272
 10
9.4446026032
 20
6.4989692986
 10
9.4286320797
 20
6.516690843
 10
9.4128597569
 20
6.5347778148
 10
9.3972964445
 20
6.5532178182
 10
9.3819528087
 20
6.5719982153
 10
9.3668393654
 20
6.591106135
 10
9.3519664726
 20
6.6105284816
 10
9.3373443233
 20
6.630251944
 10
9.3229829389
 20
6.6502630048
 10
9.3088921619
 20
6.6705479494
 10
9.2950816495
 20
6.6910928755
 10
9.2815608667
 20
6.7118837026
 10
9.26833908
 20
6.7329061817
 10
9.2554253509
 20
6.7541459051
 10
9.2428285298
 20
6.7755883161
 10
9.23055725
 20
6.7972187192
 10
9.2186199216
 20
6.8190222899
 10
9.2070247258
 20
6.8409840853
 10
9.1957796094
 20
6.8630890537
 10
9.1848922793
 20
6.8853220456
 10
9.1743701971
 20
6.9076678235
 10
9.1642205741
 20
6.9301110728
 10
9.1544503663
 20
6.952636412
 10
9.1450662698
 20
6.9752284033
 10
9.1360747159
 20
6.9978715634
 10
9.127481867
 20
7.0205503737
 10
9.1192936122
 20
7.0432492913
 10
9.1115155634
 20
7.0659527595
 10
9.1041530512
 20
7.0886452185
 10
9.0972111215
 20
7.111311116
 10
9.090694532
 20
7.1339349179
 10
9.0846077487
 20
7.1565011191
 10
9.0789549434
 20
7.1789942537
 10
9.0737399902
 20
7.2013989061
 10
9.068966463
 20
7.2236997212
 10
9.0646376335
 20
7.2458814153
 10
9.0607564684
 20
7.267928786
 10
9.0573256277
 20
7.2898267233
 10
9.0543474626
 20
7.3115602192
 10
9.0518240144
 20
7.3331143789
 10
9.0497570124
 20
7.3544744302
 10
9.0481478732
 20
7.3756257338
 10
9.0469976997
 20
7.3965537939
 10
9.0463072801
 20
7.4172442673
 10
9.0460770877
 20
7.4376829739
 10
9.0463072801
 20
7.4578559059
 10
9.0469976997
 20
7.4777492379
 10
9.0481478732
 20
7.4973493359
 10
9.0497570124
 20
7.5166427671
 10
9.0518240144
 20
7.5356163086
 10
9.0543474626
 20
7.5542569569
 10
9.0573256277
 20
7.5725519367
 10
9.0607564684
 20
7.5904887096
 10
9.0646376335
 20
7.6080549825
 10
9.068966463
 20
7.6252387164
 10
9.0737399902
 20
7.6420281344
 10
9.0789549434
 20
7.6584117299
 10
9.0846077487
 20
7.6743782744
 10
9.090694532
 20
7.6899168252
 10
9.0972111215
 20
7.7050167331
 10
9.1041530512
 20
7.7196676491
 10
9.1115155634
 20
7.7338595325
 10
9.1192936122
 20
7.7475826566
 10
9.127481867
 20
7.7608276165
 10
9.1360747159
 20
7.7735853347
 10
9.1450662698
 20
7.7858470676
 10
9.1544503663
 20
7.7976044117
 10
9.1642205741
 20
7.8088493091
 10
9.1743701971
 20
7.819574053
 10
9.1848922793
 20
7.8297712934
 10
9.1957796094
 20
7.8394340415
 10
9.2070247258
 20
7.848555675
 10
9.2178664312
 20
7.856596944
  0
LWPOLYLINE
  5
206
330
1F
100
AcDbEntity
  8
0
  6
Continuous
 62
     7
370
    18
100
AcDbPolyline
 90
       29
 70
   128
 43
0.0
 10
10.1663984668
 20
6.2135132342
 10
10.1540961928
 20
6.2081797804
 10
10.14057541
 20
6.2029997169
 10
10.1267648976
 20
6.198400069
 10
10.1126741207
 20
6.1943839893
 10
10.0983127363
 20
6.19095423
 10
10.083690587
 20
6.1881131417
 10
10.0688176941
 20
6.1858626717
 10
10.0537042509
 20
6.1842043622
 10
10.0383606151
 20
6.1831393499
 10
10.0227973027
 20
6.1826683645
 10
10.0070249799
 20
6.1827917289
 10
9.9910544563
 20
6.1835093586
 10
9.9748966774
 20
6.1848207617
 10
9.9585627167
 20
6.1867250394
 10
9.9420637689
 20
6.1892208866
 10
9.9254111414
 20
6.1923065929
 10
9.9086162472
 20
6.1959800434
 10
9.8916905966
 20
6.2002387205
 10
9.8746457896
 20
6.2050797056
 10
9.8574935079
 20
6.2104996809
 10
9.8402455068
 20
6.2164949317
 10
9.8229136073
 20
6.2230613493
 10
9.8055096877
 20
6.2301944333
 10
9.7880456757
 20
6.2378892952
 10
9.7705335405
 20
6.2461406611
 10
9.7529852839
 20
6.2549428761
 10
9.7354129326
 20
6.2642899076
 10
9.7178285298
 20
6.2741753495
  0
LWPOLYLINE
  5
207
330
1F
100
AcDbEntity
  8
0
  6
Continuous
 62
     7
370
    18
100
AcDbPolyline
 90
       92
 70
   128
 43
0.0
 10
8.9470347581
 20
7.4091340515
 10
8.9475474752
 20
7.3876702554
 10
8.9485352856
 20
7.3659546601
 10
8.9499975253
 20
7.3440018655
 10
8.9519332111
 20
7.3218266313
 10
8.9543410415
 20
7.2994438662
 10
8.9572193979
 20
7.2768686189
 10
8.9605663449
 20
7.2541160672
 10
8.9643796323
 20
7.2312015083
 10
8.9686566963
 20
7.2081403482
 10
8.9733946614
 20
7.1849480916
 10
8.9785903421
 20
7.1616403311
 10
8.9842402453
 20
7.1382327373
 10
8.9903405722
 20
7.1147410477
 10
8.9968872216
 20
7.0911810562
 10
9.003875792
 20
7.067568603
 10
9.0113015847
 20
7.0439195632
 10
9.0191596072
 20
7.0202498368
 10
9.0274445764
 20
6.9965753375
 10
9.036150922
 20
6.9729119822
 10
9.0452727906
 20
6.9492756805
 10
9.0548040492
 20
6.9256823237
 10
9.0647382899
 20
6.9021477742
 10
9.0750688334
 20
6.8786878549
 10
9.0857887344
 20
6.8553183384
 10
9.0968907855
 20
6.8320549368
 10
9.1083675226
 20
6.8089132906
 10
9.1202112296
 20
6.7859089585
 10
9.1324139435
 20
6.763057407
 10
9.1449674603
 20
6.7403739997
 10
9.1578633399
 20
6.7178739872
 10
9.1710929121
 20
6.695572497
 10
9.1846472821
 20
6.6734845229
 10
9.1985173372
 20
6.6516249152
 10
9.2126937521
 20
6.6300083707
 10
9.2271669956
 20
6.6086494227
 10
9.241927337
 20
6.5875624314
 10
9.2569648526
 20
6.5667615742
 10
9.2722694321
 20
6.546260836
 10
9.2878307861
 20
6.5260739999
 10
9.3036384521
 20
6.5062146382
 10
9.3196818022
 20
6.4866961028
 10
9.3359500502
 20
6.4675315165
 10
9.3524322584
 20
6.4487337641
 10
9.3691173454
 20
6.4303154838
 10
9.3859940934
 20
6.4122890588
 10
9.4030511557
 20
6.3946666087
 10
9.4202770644
 20
6.3774599815
 10
9.4376602382
 20
6.3606807457
 10
9.4551889898
 20
6.3443401823
 10
9.4728515341
 20
6.3284492776
 10
9.4906359963
 20
6.3130187154
 10
9.5085304194
 20
6.2980588702
 10
9.5265227725
 20
6.2835797997
 10
9.5446009588
 20
6.2695912387
 10
9.5627528239
 20
6.256102592
 10
9.5809661639
 20
6.2431229284
 10
9.5992287335
 20
6.2306609744
 10
9.6175282542
 20
6.2187251086
 10
9.6358524228
 20
6.2073233557
 10
9.6541889195
 20
6.1964633814
 10
9.6725254162
 20
6.1861524872
 10
9.6908495848
 20
6.1763976053
 10
9.7091491055
 20
6.1672052943
 10
9.7274116751
 20
6.1585817343
 10
9.7456250151
 20
6.1505327232
 10
9.7637768802
 20
6.1430636725
 10
9.7818550665
 20
6.1361796039
 10
9.7998474196
 20
6.1298851457
 10
9.8177418426
 20
6.1241845298
 10
9.8355263048
 20
6.119081589
 10
9.8531888492
 20
6.114579754
 10
9.8707176008
 20
6.1106820516
 10
9.8881007745
 20
6.1073911022
 10
9.9053266833
 20
6.1047091185
 10
9.9223837456
 20
6.1026379037
 10
9.9392604936
 20
6.1011788502
 10
9.9559455806
 20
6.100332939
 10
9.9724277888
 20
6.1001007389
 10
9.9886960367
 20
6.100482406
 10
10.0047393869
 20
6.1014776836
 10
10.0205470529
 20
6.1030859027
 10
10.0361084068
 20
6.1053059819
 10
10.0514129864
 20
6.1081364286
 10
10.066450502
 20
6.11157534
 10
10.0812108434
 20
6.1156204038
 10
10.0956840869
 20
6.1202689005
 10
10.1098605018
 20
6.1255177048
 10
10.1237305568
 20
6.1313632878
 10
10.1372849269
 20
6.1378017193
 10
10.150514499
 20
6.1448286707
 10
10.154037738
 20
6.1468309142
  0
LINE
  5
208
330
1F
100
AcDbEntity
  8
0
  6
Continuous
 62
     7
370
    18
100
AcDbLine
 10
8.941857023
 20
7.4202871755
 30
0.0
 11
8.9470347581
 21
7.4091340515
 31
0.0
  0
LINE
  5
209
330
1F
100
AcDbEntity
  8
0
  6
Continuous
 62
     7
370
    18
100
AcDbLine
 10
8.9470347581
 20
7.4091340515
 30
0.0
 11
8.9754492787
 21
7.3927306979
 31
0.0
  0
LWPOLYLINE
  5
20A
330
1F
100
AcDbEntity
  8
0
  6
Continuous
 62
     7
370
    18
100
AcDbPolyline
 90
      100
 70
   128
 43
0.0
 10
10.2274566142
 20
6.2624033095
 10
10.2198107922
 20
6.2532080632
 10
10.209893548
 20
6.2421510738
 10
10.1996029907
 20
6.2316120292
 10
10.1889460332
 20
6.2215980095
 10
10.1779298348
 20
6.2121157418
 10
10.1665617958
 20
6.2031715962
 10
10.1548495532
 20
6.1947715812
 10
10.1428009751
 20
6.1869213397
 10
10.1304241555
 20
6.1796261456
 10
10.1177274089
 20
6.1728908995
 10
10.1047192648
 20
6.166720126
 10
10.0914084619
 20
6.1611179707
 10
10.0778039422
 20
6.1560881969
 10
10.0639148448
 20
6.1516341836
 10
10.0497505004
 20
6.1477589229
 10
10.0353204242
 20
6.144465018
 10
10.0206343102
 20
6.1417546819
 10
10.0057020243
 20
6.1396297353
 10
9.9905335976
 20
6.1380916057
 10
9.9751392201
 20
6.1371413263
 10
9.9595292336
 20
6.1367795356
 10
9.9437141245
 20
6.1370064765
 10
9.9277045171
 20
6.1378219967
 10
9.9115111665
 20
6.1392255483
 10
9.895144951
 20
6.1412161884
 10
9.8786168653
 20
6.1437925798
 10
9.8619380125
 20
6.1469529915
 10
9.8451195974
 20
6.1506953007
 10
9.8281729182
 20
6.1550169931
 10
9.8111093594
 20
6.1599151656
 10
9.7939403841
 20
6.1653865276
 10
9.776677526
 20
6.1714274037
 10
9.7593323822
 20
6.1780337356
 10
9.7419166046
 20
6.1852010853
 10
9.7244418931
 20
6.1929246379
 10
9.7069199868
 20
6.2011992048
 10
9.6893626566
 20
6.2100192274
 10
9.6717816973
 20
6.2193787804
 10
9.6541889195
 20
6.2292715764
 10
9.6365961416
 20
6.2396909694
 10
9.6190151823
 20
6.2506299599
 10
9.6014578522
 20
6.2620811992
 10
9.5839359459
 20
6.2740369947
 10
9.5664612343
 20
6.2864893146
 10
9.5490454568
 20
6.2994297936
 10
9.5317003129
 20
6.3128497386
 10
9.5144374549
 20
6.3267401342
 10
9.4972684795
 20
6.3410916491
 10
9.4802049208
 20
6.3558946422
 10
9.4632582416
 20
6.3711391691
 10
9.4464398264
 20
6.3868149888
 10
9.4297609737
 20
6.4029115704
 10
9.413232888
 20
6.4194181007
 10
9.3968666725
 20
6.4363234908
 10
9.3806733219
 20
6.4536163839
 10
9.3646637145
 20
6.4712851629
 10
9.3488486054
 20
6.4893179582
 10
9.3332386188
 20
6.5077026558
 10
9.3178442414
 20
6.5264269051
 10
9.3026758147
 20
6.5454781274
 10
9.2877435288
 20
6.5648435244
 10
9.2730574147
 20
6.5845100868
 10
9.2586273386
 20
6.6044646029
 10
9.2444629941
 20
6.6246936677
 10
9.2305738968
 20
6.6451836914
 10
9.216969377
 20
6.6659209094
 10
9.2036585741
 20
6.6868913906
 10
9.1906504301
 20
6.7080810475
 10
9.1779536835
 20
6.7294756452
 10
9.1655768639
 20
6.7510608111
 10
9.1535282858
 20
6.7728220447
 10
9.1418160432
 20
6.7947447272
 10
9.1304480042
 20
6.8168141312
 10
9.1194318058
 20
6.8390154309
 10
9.1087748483
 20
6.8613337119
 10
9.0984842909
 20
6.883753981
 10
9.0885670468
 20
6.9062611768
 10
9.0790297781
 20
6.9288401791
 10
9.0698788918
 20
6.95147582
 10
9.0611205353
 20
6.9741528931
 10
9.0527605923
 20
6.9968561642
 10
9.0448046789
 20
7.0195703818
 10
9.0372581398
 20
7.0422802868
 10
9.0301260446
 20
7.0649706231
 10
9.0234131845
 20
7.0876261477
 10
9.0171240691
 20
7.1102316409
 10
9.0112629234
 20
7.1327719167
 10
9.0058336847
 20
7.1552318331
 10
9.0008400003
 20
7.1775963017
 10
8.996285225
 20
7.1998502986
 10
8.9921724184
 20
7.2219788737
 10
8.9885043436
 20
7.2439671616
 10
8.9852834647
 20
7.2658003909
 10
8.9825119455
 20
7.2874638943
 10
8.9801916477
 20
7.3089431186
 10
8.9783241301
 20
7.3302236346
 10
8.9769106473
 20
7.3512911462
 10
8.9759521489
 20
7.3721315007
 10
8.9754492787
 20
7.3927306979
  0
LINE
  5
20B
330
1F
100
AcDbEntity
  8
0
  6
Continuous
 62
     7
370
    18
100
AcDbLine
 10
8.9754492787
 20
7.3927306979
 30
0.0
 11
8.9947686676
 21
7.3957184554
 31
0.0
  0
LINE
  5
20C
330
1F
100
AcDbEntity
  8
0
  6
Continuous
 62
     7
370
    18
100
AcDbLine
 10
8.9524636247
 20
7.4264102363
 30
0.0
 11
9.0001988884
 21
7.3988532551
 31
0.0
  0
LWPOLYLINE
  5
20D
330
1F
100
AcDbEntity
  8
0
  6
Continuous
 62
     7
370
    18
100
AcDbPolyline
 90
       62
 70
   128
 43
0.0
 10
10.3383274259
 20
6.5100465859
 10
10.3380608873
 20
6.4866884541
 10
10.3372614541
 20
6.4636540697
 10
10.3359296743
 20
6.4409592193
 10
10.3340664605
 20
6.418619457
 10
10.3316730897
 20
6.3966500931
 10
10.3287512023
 20
6.3750661845
 10
10.3253028006
 20
6.3538825237
 10
10.3213302482
 20
6.3331136288
 10
10.3168362676
 20
6.3127737339
 10
10.3118239387
 20
6.2928767788
 10
10.3062966967
 20
6.2734364001
 10
10.3002583298
 20
6.2544659211
 10
10.2937129762
 20
6.2359783432
 10
10.286665122
 20
6.217986337
 10
10.2791195973
 20
6.2005022332
 10
10.2710815734
 20
6.1835380146
 10
10.2625565593
 20
6.1671053075
 10
10.2535503975
 20
6.1512153743
 10
10.2440692604
 20
6.135879105
 10
10.2341196459
 20
6.1211070103
 10
10.2237083729
 20
6.1069092143
 10
10.212842577
 20
6.0932954474
 10
10.2015297048
 20
6.0802750399
 10
10.1897775097
 20
6.0678569153
 10
10.1775940461
 20
6.0560495843
 10
10.1649876638
 20
6.0448611392
 10
10.1519670028
 20
6.0342992478
 10
10.1385409866
 20
6.0243711489
 10
10.1247188169
 20
6.0150836465
 10
10.1105099666
 20
6.006443106
 10
10.0959241738
 20
5.9984554491
 10
10.0809714348
 20
5.9911261501
 10
10.0656619975
 20
5.9844602322
 10
10.0500063543
 20
5.9784622639
 10
10.0340152346
 20
5.9731363559
 10
10.0176995982
 20
5.9684861582
 10
10.0010706267
 20
5.964514858
 10
9.9841397171
 20
5.9612251769
 10
9.9669184727
 20
5.9586193695
 10
9.9494186963
 20
5.9566992217
 10
9.9316523812
 20
5.9554660495
 10
9.9136317037
 20
5.954920698
 10
9.8953690141
 20
5.955063541
 10
9.8768768289
 20
5.9558944806
 10
9.8581678217
 20
5.9574129473
 10
9.8392548146
 20
5.9596179005
 10
9.8201507697
 20
5.9625078289
 10
9.80086878
 20
5.9660807519
 10
9.7814220604
 20
5.9703342209
 10
9.7618239387
 20
5.9752653208
 10
9.7420878464
 20
5.9808706719
 10
9.7222273097
 20
5.9871464327
 10
9.70225594
 20
5.9940883021
 10
9.6821874247
 20
6.0016915225
 10
9.6620355178
 20
6.009950883
 10
9.6418140303
 20
6.018860723
 10
9.6215368211
 20
6.0284149362
 10
9.6012177871
 20
6.0386069746
 10
9.580870854
 20
6.0494298531
 10
9.5605099666
 20
6.0608761543
 10
9.5603835494
 20
6.0609491453
  0
LWPOLYLINE
  5
20E
330
1F
100
AcDbEntity
  8
0
  6
Continuous
 62
     7
370
    18
100
AcDbPolyline
 90
      121
 70
   128
 43
0.0
 10
8.7826925073
 20
7.4080955089
 10
8.7829590459
 20
7.4314536407
 10
8.7837584791
 20
7.4544880251
 10
8.7850902589
 20
7.4771828754
 10
8.7869534727
 20
7.4995226378
 10
8.7893468435
 20
7.5214920016
 10
8.7922687309
 20
7.5430759102
 10
8.7957171325
 20
7.5642595711
 10
8.799689685
 20
7.585028466
 10
8.8041836656
 20
7.6053683609
 10
8.8091959945
 20
7.6252653159
 10
8.8147232365
 20
7.6447056947
 10
8.8207616034
 20
7.6636761737
 10
8.827306957
 20
7.6821637515
 10
8.8343548112
 20
7.7001557578
 10
8.8419003359
 20
7.7176398616
 10
8.8499383598
 20
7.7346040802
 10
8.8584633739
 20
7.7510367872
 10
8.8674695357
 20
7.7669267205
 10
8.8769506728
 20
7.7822629898
 10
8.8869002873
 20
7.7970350845
 10
8.8973115603
 20
7.8112328805
 10
8.9081773562
 20
7.8248466473
 10
8.9194902284
 20
7.8378670548
 10
8.9312424235
 20
7.8502851795
 10
8.9434258871
 20
7.8620925104
 10
8.9560322693
 20
7.8732809556
 10
8.9690529304
 20
7.8838428469
 10
8.9824789465
 20
7.8937709459
 10
8.9963011163
 20
7.9030584482
 10
9.0105099666
 20
7.9116989887
 10
9.0250957594
 20
7.9196866457
 10
9.0400484984
 20
7.9270159446
 10
9.0553579357
 20
7.9336818625
 10
9.0710135789
 20
7.9396798308
 10
9.0870046986
 20
7.9450057389
 10
9.103320335
 20
7.9496559365
 10
9.1199493065
 20
7.9536272368
 10
9.1368802161
 20
7.9569169179
 10
9.1541014605
 20
7.9595227253
 10
9.1716012369
 20
7.9614428731
 10
9.189367552
 20
7.9626760453
 10
9.2073882295
 20
7.9632213968
 10
9.2256509191
 20
7.9630785538
 10
9.2441431043
 20
7.9622476142
 10
9.2628521115
 20
7.9607291474
 10
9.2817651186
 20
7.9585241943
 10
9.3008691634
 20
7.9556342659
 10
9.3201511532
 20
7.9520613428
 10
9.3395978728
 20
7.9478078738
 10
9.3591959945
 20
7.942876774
 10
9.3789320868
 20
7.9372714229
 10
9.3987926235
 20
7.930995662
 10
9.4187639932
 20
7.9240537926
 10
9.4388325085
 20
7.9164505723
 10
9.4589844154
 20
7.9081912118
 10
9.4792059029
 20
7.8992813718
 10
9.4994831121
 20
7.8897271586
 10
9.5198021461
 20
7.8795351201
 10
9.5401490792
 20
7.8687122416
 10
9.5605099666
 20
7.8572659405
 10
9.580870854
 20
7.8452040614
 10
9.6012177871
 20
7.832534871
 10
9.6215368211
 20
7.8192670521
 10
9.6418140303
 20
7.8054096979
 10
9.6620355178
 20
7.7909723055
 10
9.6821874247
 20
7.7759647694
 10
9.70225594
 20
7.7603973752
 10
9.7222273097
 20
7.744280792
 10
9.7420878464
 20
7.7276260653
 10
9.7618239387
 20
7.7104446093
 10
9.7814220604
 20
7.6927481994
 10
9.80086878
 20
7.6745489638
 10
9.8201507697
 20
7.6558593755
 10
9.8392548146
 20
7.6366922432
 10
9.8581678217
 20
7.6170607032
 10
9.8768768289
 20
7.5969782099
 10
9.8953690141
 20
7.5764585269
 10
9.9136317037
 20
7.5555157174
 10
9.9316523812
 20
7.5341641345
 10
9.9494186963
 20
7.5124184116
 10
9.9669184727
 20
7.490293452
 10
9.9841397171
 20
7.4678044191
 10
10.0010706267
 20
7.4449667257
 10
10.0176995982
 20
7.4217960237
 10
10.0340152346
 20
7.3983081932
 10
10.0500063543
 20
7.3745193314
 10
10.0656619975
 20
7.3504457422
 10
10.0809714348
 20
7.3261039242
 10
10.0959241738
 20
7.3015105603
 10
10.1105099666
 20
7.2766825055
 10
10.1247188169
 20
7.2516367756
 10
10.1385409866
 20
7.2263905357
 10
10.1519670028
 20
7.2009610885
 10
10.1649876638
 20
7.1753658619
 10
10.1775940461
 20
7.1496223976
 10
10.1897775097
 20
7.123748339
 10
10.2015297048
 20
7.0977614187
 10
10.212842577
 20
7.071679447
 10
10.2237083729
 20
7.0455202992
 10
10.2341196459
 20
7.0193019033
 10
10.2440692604
 20
6.9930422283
 10
10.2535503975
 20
6.966759271
 10
10.2625565593
 20
6.9404710447
 10
10.2710815734
 20
6.9141955658
 10
10.2791195973
 20
6.8879508424
 10
10.286665122
 20
6.8617548612
 10
10.2937129762
 20
6.8356255757
 10
10.3002583298
 20
6.8095808935
 10
10.3062966967
 20
6.7836386644
 10
10.3118239387
 20
6.7578166679
 10
10.3168362676
 20
6.7321326011
 10
10.3213302482
 20
6.7066040666
 10
10.3253028006
 20
6.6812485603
 10
10.3287512023
 20
6.6560834597
 10
10.3316730897
 20
6.6311260117
 10
10.3340664605
 20
6.6063933207
 10
10.3359296743
 20
6.5819023375
 10
10.3372614541
 20
6.5576698469
 10
10.3380608873
 20
6.5337124566
 10
10.3383274259
 20
6.5100465859
  0
LWPOLYLINE
  5
20F
330
1F
100
AcDbEntity
  8
0
  6
Continuous
 62
     7
370
    18
100
AcDbPolyline
 90
      241
 70
   128
 43
0.0
 10
10.3241852903
 20
6.5100465859
 10
10.3239211747
 20
6.5334973124
 10
10.3231290091
 20
6.5572369082
 10
10.3218093364
 20
6.5812491034
 10
10.3199630609
 20
6.6055174413
 10
10.3175914481
 20
6.6300252896
 10
10.3146961232
 20
6.6547558518
 10
10.3112790707
 20
6.6796921787
 10
10.3073426324
 20
6.7048171804
 10
10.3028895061
 20
6.7301136373
 10
10.2979227438
 20
6.7555642126
 10
10.2924457495
 20
6.7811514637
 10
10.2864622768
 20
6.8068578544
 10
10.2799764265
 20
6.8326657667
 10
10.2729926437
 20
6.8585575133
 10
10.2655157146
 20
6.8845153492
 10
10.2575507637
 20
6.9105214842
 10
10.2491032497
 20
6.9365580951
 10
10.2401789621
 20
6.9626073375
 10
10.2307840172
 20
6.9886513588
 10
10.2209248537
 20
7.0146723095
 10
10.2106082287
 20
7.0406523563
 10
10.1998412127
 20
7.0665736938
 10
10.1886311848
 20
7.0924185566
 10
10.1769858279
 20
7.1181692321
 10
10.164913123
 20
7.143808072
 10
10.1524213442
 20
7.1693175048
 10
10.1395190528
 20
7.1946800475
 10
10.1262150914
 20
7.219878318
 10
10.1125185777
 20
7.2448950466
 10
10.0984388988
 20
7.269713088
 10
10.0839857041
 20
7.2943154333
 10
10.0691688991
 20
7.3186852212
 10
10.0539986385
 20
7.3428057498
 10
10.0384853193
 20
7.3666604883
 10
10.0226395735
 20
7.3902330877
 10
10.006472261
 20
7.4135073925
 10
9.989994462
 20
7.4364674517
 10
9.9732174697
 20
7.4590975297
 10
9.9561527821
 20
7.4813821168
 10
9.9388120945
 20
7.5033059404
 10
9.9212072914
 20
7.524853975
 10
9.9033504382
 20
7.5460114526
 10
9.8852537731
 20
7.5667638729
 10
9.8669296987
 20
7.5870970133
 10
9.8483907734
 20
7.6069969385
 10
9.8296497027
 20
7.6264500099
 10
9.810719331
 20
7.6454428956
 10
9.7916126321
 20
7.6639625786
 10
9.7723427008
 20
7.6819963666
 10
9.7529227438
 20
7.6995319
 10
9.7333660706
 20
7.7165571609
 10
9.7136860842
 20
7.7330604811
 10
9.6938962725
 20
7.7490305499
 10
9.6740101982
 20
7.7644564223
 10
9.6540414904
 20
7.7793275262
 10
9.6340038347
 20
7.7936336696
 10
9.6139109637
 20
7.8073650479
 10
9.5937766482
 20
7.8205122502
 10
9.5736146872
 20
7.8330662661
 10
9.5534388988
 20
7.8450184918
 10
9.5332631103
 20
7.8563607357
 10
9.5131011494
 20
7.8670852244
 10
9.4929668339
 20
7.8771846079
 10
9.4728739629
 20
7.8866519646
 10
9.4528363071
 20
7.8954808061
 10
9.4328675994
 20
7.9036650815
 10
9.4129815251
 20
7.9111991817
 10
9.3931917133
 20
7.9180779432
 10
9.373511727
 20
7.9242966516
 10
9.3539550537
 20
7.929851045
 10
9.3345350967
 20
7.9347373167
 10
9.3152651655
 20
7.9389521178
 10
9.2961584666
 20
7.9424925597
 10
9.2772280948
 20
7.945356216
 10
9.2584870242
 20
7.9475411242
 10
9.2399480988
 20
7.9490457866
 10
9.2216240244
 20
7.9498691722
 10
9.2035273593
 20
7.9500107167
 10
9.1856705061
 20
7.9494703229
 10
9.168065703
 20
7.9482483614
 10
9.1507250155
 20
7.9463456695
 10
9.1336603279
 20
7.9437635512
 10
9.1168833356
 20
7.9405037763
 10
9.1004055366
 20
7.9365685788
 10
9.0842382241
 20
7.9319606557
 10
9.0683924783
 20
7.926683165
 10
9.0528791591
 20
7.9207397236
 10
9.0377088985
 20
7.914134405
 10
9.0228920935
 20
7.906871736
 10
9.0084388988
 20
7.8989566942
 10
8.9943592198
 20
7.890394704
 10
8.9806627062
 20
7.8811916335
 10
8.9673587447
 20
7.87135379
 10
8.9544564533
 20
7.8608879159
 10
8.9419646746
 20
7.8498011838
 10
8.9298919697
 20
7.8381011922
 10
8.9182466128
 20
7.8257959597
 10
8.9070365849
 20
7.8128939195
 10
8.8962695689
 20
7.7994039142
 10
8.8859529439
 20
7.7853351891
 10
8.8760937804
 20
7.7706973861
 10
8.8666988355
 20
7.7555005374
 10
8.8577745479
 20
7.7397550581
 10
8.8493270338
 20
7.7234717393
 10
8.8413620829
 20
7.7066617409
 10
8.8338851539
 20
7.6893365835
 10
8.8269013711
 20
7.6715081409
 10
8.8204155207
 20
7.653188632
 10
8.814432048
 20
7.6343906119
 10
8.8089550537
 20
7.6151269638
 10
8.8039882914
 20
7.5954108902
 10
8.7995351652
 20
7.5752559034
 10
8.7955987269
 20
7.5546758167
 10
8.7921816744
 20
7.5336847346
 10
8.7892863495
 20
7.5122970433
 10
8.7869147367
 20
7.490527401
 10
8.7850684612
 20
7.4683907273
 10
8.7837487884
 20
7.4459021938
 10
8.7829566228
 20
7.4230772129
 10
8.7826925073
 20
7.3999314278
 10
8.7829566228
 20
7.3764807013
 10
8.7837487884
 20
7.3527411055
 10
8.7850684612
 20
7.3287289102
 10
8.7869147367
 20
7.3044605723
 10
8.7892863495
 20
7.279952724
 10
8.7921816744
 20
7.2552221619
 10
8.7955987269
 20
7.2302858349
 10
8.7995351652
 20
7.2051608332
 10
8.8039882914
 20
7.1798643763
 10
8.8089550537
 20
7.154413801
 10
8.814432048
 20
7.1288265499
 10
8.8204155207
 20
7.1031201593
 10
8.8269013711
 20
7.0773122469
 10
8.8338851539
 20
7.0514205004
 10
8.8413620829
 20
7.0254626645
 10
8.8493270338
 20
6.9994565294
 10
8.8577745479
 20
6.9734199186
 10
8.8666988355
 20
6.9473706761
 10
8.8760937804
 20
6.9213266549
 10
8.8859529439
 20
6.8953057041
 10
8.8962695689
 20
6.8693256573
 10
8.9070365849
 20
6.8434043199
 10
8.9182466128
 20
6.817559457
 10
8.9298919697
 20
6.7918087815
 10
8.9419646746
 20
6.7661699416
 10
8.9544564533
 20
6.7406605088
 10
8.9673587447
 20
6.7152979661
 10
8.9806627062
 20
6.6900996956
 10
8.9943592198
 20
6.6650829671
 10
9.0084388988
 20
6.6402649256
 10
9.0228920935
 20
6.6156625804
 10
9.0377088985
 20
6.5912927925
 10
9.0528791591
 20
6.5671722638
 10
9.0683924783
 20
6.5433175254
 10
9.0842382241
 20
6.519744926
 10
9.1004055366
 20
6.4964706211
 10
9.1168833356
 20
6.4735105619
 10
9.1336603279
 20
6.450880484
 10
9.1507250155
 20
6.4285958968
 10
9.168065703
 20
6.4066720732
 10
9.1856705061
 20
6.3851240386
 10
9.2035273593
 20
6.363966561
 10
9.2216240244
 20
6.3432141407
 10
9.2399480988
 20
6.3228810003
 10
9.2584870242
 20
6.3029810752
 10
9.2772280948
 20
6.2835280037
 10
9.2961584666
 20
6.2645351181
 10
9.3152651655
 20
6.246015435
 10
9.3345350967
 20
6.2279816471
 10
9.3539550537
 20
6.2104461137
 10
9.373511727
 20
6.1934208527
 10
9.3931917133
 20
6.1769175326
 10
9.4129815251
 20
6.1609474638
 10
9.4328675994
 20
6.1455215913
 10
9.4528363071
 20
6.1306504875
 10
9.4728739629
 20
6.116344344
 10
9.4929668339
 20
6.1026129657
 10
9.5131011494
 20
6.0894657634
 10
9.5332631103
 20
6.0769117475
 10
9.5534388988
 20
6.0649595219
 10
9.5736146872
 20
6.053617278
 10
9.5937766482
 20
6.0428927893
 10
9.6139109637
 20
6.0327934057
 10
9.6340038347
 20
6.023326049
 10
9.6540414904
 20
6.0144972075
 10
9.6740101982
 20
6.0063129321
 10
9.6938962725
 20
5.998778832
 10
9.7136860842
 20
5.9919000705
 10
9.7333660706
 20
5.985681362
 10
9.7529227438
 20
5.9801269686
 10
9.7723427008
 20
5.975240697
 10
9.7916126321
 20
5.9710258959
 10
9.810719331
 20
5.9674854539
 10
9.8296497027
 20
5.9646217976
 10
9.8483907734
 20
5.9624368895
 10
9.8669296987
 20
5.960932227
 10
9.8852537731
 20
5.9601088414
 10
9.9033504382
 20
5.959967297
 10
9.9212072914
 20
5.9605076907
 10
9.9388120945
 20
5.9617296523
 10
9.9561527821
 20
5.9636323442
 10
9.9732174697
 20
5.9662144624
 10
9.989994462
 20
5.9694742373
 10
10.006472261
 20
5.9734094348
 10
10.0226395735
 20
5.978017358
 10
10.0384853193
 20
5.9832948487
 10
10.0539986385
 20
5.98923829
 10
10.0691688991
 20
5.9958436086
 10
10.0839857041
 20
6.0031062776
 10
10.0984388988
 20
6.0110213195
 10
10.1125185777
 20
6.0195833096
 10
10.1262150914
 20
6.0287863801
 10
10.1395190528
 20
6.0386242236
 10
10.1524213442
 20
6.0490900978
 10
10.164913123
 20
6.0601768298
 10
10.1769858279
 20
6.0718768214
 10
10.1886311848
 20
6.084182054
 10
10.1998412127
 20
6.0970840941
 10
10.2106082287
 20
6.1105740995
 10
10.2209248537
 20
6.1246428246
 10
10.2307840172
 20
6.1392806275
 10
10.2401789621
 20
6.1544774762
 10
10.2491032497
 20
6.1702229555
 10
10.2575507637
 20
6.1865062743
 10
10.2655157146
 20
6.2033162728
 10
10.2729926437
 20
6.2206414302
 10
10.2799764265
 20
6.2384698727
 10
10.2864622768
 20
6.2567893817
 10
10.2924457495
 20
6.2755874018
 10
10.2979227438
 20
6.2948510498
 10
10.3028895061
 20
6.3145671234
 10
10.3073426324
 20
6.3347221102
 10
10.3112790707
 20
6.3553021969
 10
10.3146961232
 20
6.3762932791
 10
10.3175914481
 20
6.3976809703
 10
10.3199630609
 20
6.4194506127
 10
10.3218093364
 20
6.4415872863
 10
10.3231290091
 20
6.4640758198
 10
10.3239211747
 20
6.4869008007
 10
10.3241852903
 20
6.5100465859
  0
SPLINE
  5
210
330
1F
100
AcDbEntity
  8
0
  6
Continuous
 62
     7
370
    18
100
AcDbSpline
210
0.0
220
0.0
230
1.0
 70
     8
 71
     3
 72
    17
 73
    13
 74
     0
 42
0.000000001
 43
0.00000001
 40
0.0
 40
0.0
 40
0.0
 40
0.0
 40
0.0649799410717243
 40
0.1280836113924427
 40
0.1897079297598107
 40
0.2502789042594361
 40
0.3774812424974808
 40
0.5001953352973952
 40
0.6245489084624756
 40
0.7500187165876837
 40
0.871251713749072
 40
1.0
 40
1.0
 40
1.0
 40
1.0
 10
9.794856031478766
 20
7.865985886470996
 30
0.0
 10
9.793748245722492
 20
7.865377930071615
 30
0.0
 10
9.791564661096647
 20
7.864179571779538
 30
0.0
 10
9.788047253119345
 20
7.862635658265853
 30
0.0
 10
9.784418173624449
 20
7.861318671075495
 30
0.0
 10
9.779273536703828
 20
7.859846788573565
 30
0.0
 10
9.77241145971637
 20
7.858616423253313
 30
0.0
 10
9.76365557494189
 20
7.858340862894786
 30
0.0
 10
9.75484132972517
 20
7.859310405075774
 30
0.0
 10
9.746465882461576
 20
7.861537598869063
 30
0.0
 10
9.738692315584442
 20
7.864761172660109
 30
0.0
 10
9.734335925399687
 20
7.867504202061369
 30
0.0
 10
9.732092246341514
 20
7.868916949166782
 30
0.0
  0
SPLINE
  5
211
330
1F
100
AcDbEntity
  8
0
  6
Continuous
 62
     7
370
    18
100
AcDbSpline
210
0.0
220
0.0
230
1.0
 70
     8
 71
     3
 72
    17
 73
    13
 74
     0
 42
0.000000001
 43
0.00000001
 40
0.0
 40
0.0
 40
0.0
 40
0.0
 40
0.0656418389433564
 40
0.1288704050212811
 40
0.190210393082006
 40
0.2502360437117533
 40
0.3756464130848171
 40
0.5000402932136864
 40
0.6226917194603067
 40
0.7499407324634457
 40
0.8719789841799164
 40
1.0
 40
1.0
 40
1.0
 40
1.0
 10
9.796905883161967
 20
7.906485392575274
 30
0.0
 10
9.797976012717386
 20
7.905714382609822
 30
0.0
 10
9.800076929319543
 20
7.904200708280724
 30
0.0
 10
9.802803478378731
 20
7.901763104245121
 30
0.0
 10
9.805126213679163
 20
7.899263623521099
 30
0.0
 10
9.807713016430444
 20
7.895752161350679
 30
0.0
 10
9.809889883385363
 20
7.891063727279953
 30
0.0
 10
9.810418188678627
 20
7.885282359224669
 30
0.0
 10
9.808968951676603
 20
7.879649119084337
 30
0.0
 10
9.805690147713316
 20
7.87450861609985
 30
0.0
 10
9.800985457070762
 20
7.869833488489096
 30
0.0
 10
9.796931504136886
 20
7.867288715368751
 30
0.0
 10
9.794856031478766
 20
7.865985886470996
 30
0.0
  0
SPLINE
  5
212
330
1F
100
AcDbEntity
  8
0
  6
Continuous
 62
     7
370
    18
100
AcDbSpline
210
0.0
220
0.0
230
1.0
 70
     8
 71
     3
 72
    23
 73
    19
 74
     0
 42
0.000000001
 43
0.00000001
 40
0.0
 40
0.0
 40
0.0
 40
0.0
 40
0.0328633598303704
 40
0.064512754065496
 40
0.0952089195952465
 40
0.1252374342236674
 40
0.1880094909865193
 40
0.2502605020005574
 40
0.3116517122426407
 40
0.3753309205631367
 40
0.5000678500562489
 40
0.6248047276262227
 40
0.6884698071350475
 40
0.7498751387777719
 40
0.8121125649356559
 40
0.8748982111172176
 40
0.93554846808785
 40
0.9999999999999999
 40
0.9999999999999999
 40
0.9999999999999999
 40
0.9999999999999999
 10
9.732092246341514
 20
7.868916949166782
 30
0.0
 10
9.73101988186811
 20
7.869681483778225
 30
0.0
 10
9.72891476583925
 20
7.871182311253479
 30
0.0
 10
9.726175775073473
 20
7.873563634056162
 30
0.0
 10
9.723836829002183
 20
7.875984322140072
 30
0.0
 10
9.721221704195797
 20
7.879360559651537
 30
0.0
 10
9.71899796803702
 20
7.883830801622085
 30
0.0
 10
9.718396509832974
 20
7.889323545177443
 30
0.0
 10
9.719772046041452
 20
7.894687598525904
 30
0.0
 10
9.724049692468583
 20
7.901333382110485
 30
0.0
 10
9.733070844064182
 20
7.908418382199803
 30
0.0
 10
9.745149148226059
 20
7.913561939816232
 30
0.0
 10
9.756256403849576
 20
7.915833000147559
 30
0.0
 10
9.765085675193212
 20
7.916384597665167
 30
0.0
 10
9.773977208992848
 20
7.915695763800917
 30
0.0
 10
9.782425795941084
 20
7.913701659864758
 30
0.0
 10
9.79026244868054
 20
7.910631828839167
 30
0.0
 10
9.794646996176024
 20
7.907895255341399
 30
0.0
 10
9.796905883161967
 20
7.906485392575274
 30
0.0
  0
LINE
  5
213
330
1F
100
AcDbEntity
  8
0
  6
Continuous
 62
     7
370
    18
100
AcDbLine
 10
9.8786059866
 20
7.8423003381
 30
0.0
 11
9.8302522463
 21
7.814386318
 31
0.0
  0
ARC
  5
214
330
1F
100
AcDbEntity
  8
0
  6
Continuous
 62
     7
370
    18
100
AcDbCircle
 10
9.0320197594
 20
6.80228054
 30
0.0
 40
1.341025510815663
100
AcDbArc
 50
50.8540756317
 51
51.7300782731
  0
LINE
  5
215
330
1F
100
AcDbEntity
  8
0
  6
Continuous
 62
     7
370
    18
100
AcDbLine
 10
9.8369444442
 20
7.8403073643
 30
0.0
 11
9.8626066618
 21
7.8551218472
 31
0.0
  0
ARC
  5
216
330
1F
100
AcDbEntity
  8
0
  6
Continuous
 62
     7
370
    18
100
AcDbCircle
 10
9.0300840079
 20
6.8175952132
 30
0.0
 40
1.302675672480769
100
AcDbArc
 50
51.7286128889
 51
52.9052001599
  0
LINE
  5
217
330
1F
100
AcDbEntity
  8
0
  6
Continuous
 62
     7
370
    18
100
AcDbLine
 10
9.8414362944
 20
7.8714741904
 30
0.0
 11
9.8157740768
 21
7.8566597075
 31
0.0
  0
ARC
  5
218
330
1F
100
AcDbEntity
  8
0
  6
Continuous
 62
     7
370
    18
100
AcDbCircle
 10
9.079043402
 20
6.863171494
 30
0.0
 40
1.264087516689458
100
AcDbArc
 50
52.9065233834
 51
53.8178327405
  0
LINE
  5
219
330
1F
100
AcDbEntity
  8
0
  6
Continuous
 62
     7
370
    18
100
AcDbLine
 10
9.7630457549
 20
7.8475318479
 30
0.0
 11
9.8253031314
 21
7.8834722664
 31
0.0
  0
ARC
  5
21A
330
1F
100
AcDbEntity
  8
0
  6
Continuous
 62
     7
370
    18
100
AcDbCircle
 10
9.016786092
 20
6.8272311656
 30
0.0
 40
1.264087404734167
100
AcDbArc
 50
52.9065294815
 51
53.8178327674
  0
LINE
  5
21B
330
1F
100
AcDbEntity
  8
0
  6
Continuous
 62
     7
370
    18
100
AcDbLine
 10
9.8018723436
 20
7.8486345521
 30
0.0
 11
9.7791788096
 21
7.8355338537
 31
0.0
  0
ARC
  5
21C
330
1F
100
AcDbEntity
  8
0
  6
Continuous
 62
     7
370
    18
100
AcDbCircle
 10
9.0161825194
 20
6.8095701526
 30
0.0
 40
1.302675449235535
100
AcDbArc
 50
51.7286188249
 51
52.9052062305
  0
LINE
  5
21D
330
1F
100
AcDbEntity
  8
0
  6
Continuous
 62
     7
370
    18
100
AcDbLine
 10
9.8003491775
 20
7.8191815137
 30
0.0
 11
9.8230427116
 21
7.832282212
 31
0.0
  0
ARC
  5
21E
330
1F
100
AcDbEntity
  8
0
  6
Continuous
 62
     7
370
    18
100
AcDbCircle
 10
8.936926578
 20
6.7258413733
 30
0.0
 40
1.393158730271639
100
AcDbArc
 50
48.1299388776
 51
51.7014657396
  0
LINE
  5
21F
330
1F
100
AcDbEntity
  8
0
  6
Continuous
 62
     7
370
    18
100
AcDbLine
 10
9.8807463506
 20
7.7713333344
 30
0.0
 11
9.8667813696
 21
7.7632715225
 31
0.0
  0
ARC
  5
220
330
1F
100
AcDbEntity
  8
0
  6
Continuous
 62
     7
370
    18
100
AcDbCircle
 10
8.9189805213
 20
6.6973384597
 30
0.0
 40
1.441685992647446
100
AcDbArc
 50
48.1554535082
 51
49.1114550107
  0
LINE
  5
221
330
1F
100
AcDbEntity
  8
0
  6
Continuous
 62
     7
370
    18
100
AcDbLine
 10
9.9109856961
 20
7.8151091213
 30
0.0
 11
9.8626933005
 21
7.7872305147
 31
0.0
  0
ARC
  5
222
330
1F
100
AcDbEntity
  8
0
  6
Continuous
 62
     7
370
    18
100
AcDbCircle
 10
8.9897064836
 20
6.7511100985
 30
0.0
 40
1.407426484029652
100
AcDbArc
 50
49.111866736
 51
49.9601735983
  0
LINE
  5
223
330
1F
100
AcDbEntity
  8
0
  6
Continuous
 62
     7
370
    18
100
AcDbLine
 10
9.846778255
 20
7.8007182129
 30
0.0
 11
9.8951319954
 21
7.8286322331
 31
0.0
  0
ARC
  5
224
330
1F
100
AcDbEntity
  8
0
  6
Continuous
 62
     7
370
    18
100
AcDbCircle
 10
8.9625885914
 20
6.7484755591
 30
0.0
 40
1.374411133507537
100
AcDbArc
 50
49.9599783939
 51
50.8540131104
  0
LINE
  5
225
330
1F
100
AcDbEntity
  8
0
  6
Continuous
 62
     7
370
    18
100
AcDbLine
 10
9.6908474443
 20
7.9353870637
 30
0.0
 11
9.6910224277
 21
7.9354880794
 31
0.0
  0
SPLINE
  5
226
330
1F
100
AcDbEntity
  8
0
  6
Continuous
 62
     7
370
    18
100
AcDbSpline
210
0.0
220
0.0
230
1.0
 70
     8
 71
     3
 72
    13
 73
     9
 74
     0
 42
0.000000001
 43
0.00000001
 40
0.0
 40
0.0
 40
0.0
 40
0.0
 40
0.131753313445465
 40
0.2576848676703473
 40
0.3799688372895814
 40
0.5009761680105822
 40
0.750183621127418
 40
1.0
 40
1.0
 40
1.0
 40
1.0
 10
9.66540899142914
 20
7.931926750715964
 30
0.0
 10
9.666301347601827
 20
7.932407085750769
 30
0.0
 10
9.668046629570533
 20
7.9333465313453
 30
0.0
 10
9.670968990020752
 20
7.934493615673442
 30
0.0
 10
9.674031807019597
 20
7.935392225624383
 30
0.0
 10
9.678356225490628
 20
7.936237784723343
 30
0.0
 10
9.684225005481823
 20
7.93665784973359
 30
0.0
 10
9.688638169674102
 20
7.935811003467092
 30
0.0
 10
9.690847444316336
 20
7.935387063658617
 30
0.0
  0
SPLINE
  5
227
330
1F
100
AcDbEntity
  8
0
  6
Continuous
 62
     7
370
    18
100
AcDbSpline
210
0.0
220
0.0
230
1.0
 70
     8
 71
     3
 72
    16
 73
    12
 74
     0
 42
0.000000001
 43
0.00000001
 40
0.0
 40
0.0
 40
0.0
 40
0.0
 40
0.0865406246504819
 40
0.1698059077232998
 40
0.2503370399274635
 40
0.3800853527404683
 40
0.5004248982067017
 40
0.6274174790597707
 40
0.7501654555139103
 40
0.8703886356507488
 40
1.0
 40
1.0
 40
1.0
 40
1.0
 10
9.669774270217005
 20
7.909197289623688
 30
0.0
 10
9.668883148106312
 20
7.909746553569078
 30
0.0
 10
9.667134630580474
 20
7.910824293222603
 30
0.0
 10
9.664825209871209
 20
7.912537770360441
 30
0.0
 10
9.662398968564917
 20
7.914651195787301
 30
0.0
 10
9.660157885248314
 20
7.9171947697621
 30
0.0
 10
9.658538018665688
 20
7.92029506519499
 30
0.0
 10
9.658117605591366
 20
7.923468816317478
 30
0.0
 10
9.659192746839931
 20
7.926589428956591
 30
0.0
 10
9.661625319380102
 20
7.9294922117313
 30
0.0
 10
9.664116562429099
 20
7.931095159408701
 30
0.0
 10
9.66540899142914
 20
7.931926750715964
 30
0.0
  0
ARC
  5
228
330
1F
100
AcDbEntity
  8
0
  6
Continuous
 62
     7
370
    18
100
AcDbCircle
 10
9.1155051618
 20
6.9725600426
 30
0.0
 40
1.088349014381592
100
AcDbArc
 50
57.4138535525
 51
59.3844400434
  0
LINE
  5
229
330
1F
100
AcDbEntity
  8
0
  6
Continuous
 62
     7
370
    18
100
AcDbLine
 10
9.763911481
 20
7.9255244488
 30
0.0
 11
9.7016541044
 21
7.8895840304
 31
0.0
  0
ARC
  5
22A
330
1F
100
AcDbEntity
  8
0
  6
Continuous
 62
     7
370
    18
100
AcDbCircle
 10
9.1693218513
 20
6.9950383052
 30
0.0
 40
1.10423787800337
100
AcDbArc
 50
57.4210294204
 51
58.4182849645
  0
LINE
  5
22B
330
1F
100
AcDbEntity
  8
0
  6
Continuous
 62
     7
370
    18
100
AcDbLine
 10
9.7249322197
 20
7.9226307727
 30
0.0
 11
9.7476267595
 21
7.9357320516
 31
0.0
  0
ARC
  5
22C
330
1F
100
AcDbEntity
  8
0
  6
Continuous
 62
     7
370
    18
100
AcDbCircle
 10
9.1618613764
 20
7.0066806353
 30
0.0
 40
1.075180649378481
100
AcDbArc
 50
58.4193099337
 51
59.1889790823
  0
SPLINE
  5
22D
330
1F
100
AcDbEntity
  8
0
  6
Continuous
 62
     7
370
    18
100
AcDbSpline
210
0.0
220
0.0
230
1.0
 70
     8
 71
     3
 72
    14
 73
    10
 74
     0
 42
0.000000001
 43
0.00000001
 40
0.0
 40
0.0
 40
0.0
 40
0.0
 40
0.2503856395185495
 40
0.3852109605690739
 40
0.5006446991361934
 40
0.6292544557372995
 40
0.7501687314855672
 40
0.8670111653138987
 40
1.0
 40
1.0
 40
1.0
 40
1.0
 10
9.716211074419759
 20
7.942840839994239
 30
0.0
 10
9.714853224719581
 20
7.941919453384362
 30
0.0
 10
9.71276421279254
 20
7.940501927116768
 30
0.0
 10
9.71053495413605
 20
7.93844615323003
 30
0.0
 10
9.709247499589841
 20
7.936763186272358
 30
0.0
 10
9.70865860108502
 20
7.934998822635232
 30
0.0
 10
9.709071544499956
 20
7.93319738075418
 30
0.0
 10
9.7104282596406
 20
7.931529187875228
 30
0.0
 10
9.711830928557227
 20
7.93060417762737
 30
0.0
 10
9.712577589716902
 20
7.930111781156477
 30
0.0
  0
SPLINE
  5
22E
330
1F
100
AcDbEntity
  8
0
  6
Continuous
 62
     7
370
    18
100
AcDbSpline
210
0.0
220
0.0
230
1.0
 70
     8
 71
     3
 72
    13
 73
     9
 74
     0
 42
0.000000001
 43
0.00000001
 40
0.0
 40
0.0
 40
0.0
 40
0.0
 40
0.0891837489011664
 40
0.2012962594528013
 40
0.3378868126221834
 40
0.4998035617496233
 40
0.7158043112504584
 40
1.0
 40
1.0
 40
1.0
 40
1.0
 10
9.724321666972434
 20
7.949654280846556
 30
0.0
 10
9.724199388786232
 20
7.949416351414213
 30
0.0
 10
9.723923395213424
 20
7.948879321906765
 30
0.0
 10
9.723155006895407
 20
7.948047465664665
 30
0.0
 10
9.722106462032048
 20
7.947082668403715
 30
0.0
 10
9.720650406192208
 20
7.945927393108219
 30
0.0
 10
9.718658412094298
 20
7.944495188866927
 30
0.0
 10
9.717097777373649
 20
7.943440232569868
 30
0.0
 10
9.716211074419759
 20
7.942840839994239
 30
0.0
  0
ARC
  5
22F
330
1F
100
AcDbEntity
  8
0
  6
Continuous
 62
     7
370
    18
100
AcDbCircle
 10
9.2373924375
 20
7.1121862166
 30
0.0
 40
0.9687377525272676
100
AcDbArc
 50
59.8249873488
 51
64.6731357578
  0
SPLINE
  5
230
330
1F
100
AcDbEntity
  8
0
  6
Continuous
 62
     7
370
    18
100
AcDbSpline
210
0.0
220
0.0
230
1.0
 70
     8
 71
     3
 72
     8
 73
     4
 74
     0
 42
0.000000001
 43
0.00000001
 40
0.0
 40
0.0
 40
0.0
 40
0.0
 40
1.0
 40
1.0
 40
1.0
 40
1.0
 10
9.63892541358305
 20
7.984239401687626
 30
0.0
 10
9.643216910136774
 20
7.985433446036784
 30
0.0
 10
9.647508687885288
 20
7.986623945515759
 30
0.0
 10
9.65180073286959
 20
7.98781090667425
 30
0.0
  0
ARC
  5
231
330
1F
100
AcDbEntity
  8
0
  6
Continuous
 62
     7
370
    18
100
AcDbCircle
 10
9.2675226678
 20
7.1880825315
 30
0.0
 40
0.8785247642771947
100
AcDbArc
 50
64.9912106705
 51
66.0678933471
  0
SPLINE
  5
232
330
1F
100
AcDbEntity
  8
0
  6
Continuous
 62
     7
370
    18
100
AcDbSpline
210
0.0
220
0.0
230
1.0
 70
     8
 71
     3
 72
     8
 73
     4
 74
     0
 42
0.000000001
 43
0.00000001
 40
0.0
 40
0.0
 40
0.0
 40
0.0
 40
1.0
 40
1.0
 40
1.0
 40
1.0
 10
9.629553737316353
 20
7.99793809444388
 30
0.0
 10
9.627668709614221
 20
7.995654586510232
 30
0.0
 10
9.625784005470845
 20
7.993367785332084
 30
0.0
 10
9.623899612584328
 20
7.991077696335483
 30
0.0
  0
ARC
  5
233
330
1F
100
AcDbEntity
  8
0
  6
Continuous
 62
     7
370
    18
100
AcDbCircle
 10
9.3012270662
 20
7.2499968091
 30
0.0
 40
0.816832032512158
100
AcDbArc
 50
66.2997815428
 51
69.7800499432
  0
SPLINE
  5
234
330
1F
100
AcDbEntity
  8
0
  6
Continuous
 62
     7
370
    18
100
AcDbSpline
210
0.0
220
0.0
230
1.0
 70
     8
 71
     3
 72
    14
 73
    10
 74
     0
 42
0.000000001
 43
0.00000001
 40
0.0
 40
0.0
 40
0.0
 40
0.0
 40
0.0804732113602412
 40
0.163230527186792
 40
0.2500780495111698
 40
0.3713168601815074
 40
0.5001882237288453
 40
0.7450219757954729
 40
1.0
 40
1.0
 40
1.0
 40
1.0
 10
9.555603034083752
 20
8.01717734882355
 30
0.0
 10
9.556383293064293
 20
8.017402681816357
 30
0.0
 10
9.55796595743897
 20
8.017859743521573
 30
0.0
 10
9.56052011111277
 20
8.018350420820378
 30
0.0
 10
9.563508157604833
 20
8.018739543855999
 30
0.0
 10
9.566948540310285
 20
8.01894642082185
 30
0.0
 10
9.571822912810317
 20
8.01887171905501
 30
0.0
 10
9.577697964403338
 20
8.018243727335813
 30
0.0
 10
9.581569529720621
 20
8.017082245324929
 30
0.0
 10
9.583544601381686
 20
8.016489717492764
 30
0.0
  0
SPLINE
  5
235
330
1F
100
AcDbEntity
  8
0
  6
Continuous
 62
     7
370
    18
100
AcDbSpline
210
0.0
220
0.0
230
1.0
 70
     8
 71
     3
 72
    15
 73
    11
 74
     0
 42
0.000000001
 43
0.00000001
 40
0.0
 40
0.0
 40
0.0
 40
0.0
 40
0.1373680278539619
 40
0.2659263655765321
 40
0.3865722300658686
 40
0.5003901138184124
 40
0.6301322731666066
 40
0.7504020288648166
 40
0.8797780717326181
 40
1.0
 40
1.0
 40
1.0
 40
1.0
 10
9.543497443260513
 20
8.031978183599016
 30
0.0
 10
9.544744122873459
 20
8.031551170263194
 30
0.0
 10
9.54715753000821
 20
8.030724528822523
 30
0.0
 10
9.550284317871407
 20
8.0292937668672
 30
0.0
 10
9.552877517795238
 20
8.027778225507772
 30
0.0
 10
9.555037451887266
 20
8.02606759573527
 30
0.0
 10
9.556645303993038
 20
8.024154929041625
 30
0.0
 10
9.557474533146982
 20
8.021940507779401
 30
0.0
 10
9.55739198429636
 20
8.019587027495852
 30
0.0
 10
9.556184590253341
 20
8.017960692870089
 30
0.0
 10
9.555603034083752
 20
8.01717734882355
 30
0.0
  0
SPLINE
  5
236
330
1F
100
AcDbEntity
  8
0
  6
Continuous
 62
     7
370
    18
100
AcDbSpline
210
0.0
220
0.0
230
1.0
 70
     8
 71
     3
 72
    17
 73
    13
 74
     0
 42
0.000000001
 43
0.00000001
 40
0.0
 40
0.0
 40
0.0
 40
0.0
 40
0.0634811461739584
 40
0.1256681828022378
 40
0.1875483702637878
 40
0.2501234940441555
 40
0.3725397558548474
 40
0.4999266825933977
 40
0.6223220259032011
 40
0.7499156360618657
 40
0.8724961443738565
 40
0.9999999999999999
 40
0.9999999999999999
 40
0.9999999999999999
 40
0.9999999999999999
 10
9.496693486911223
 20
8.02669796417712
 30
0.0
 10
9.497513677514187
 20
8.027152256550906
 30
0.0
 10
9.49913733853542
 20
8.028051580216518
 30
0.0
 10
9.501879658634287
 20
8.029283026172832
 30
0.0
 10
9.504799911593032
 20
8.030397840510998
 30
0.0
 10
9.508878423292382
 20
8.031692871388291
 30
0.0
 10
9.514314351909738
 20
8.03298097838828
 30
0.0
 10
9.520839417699655
 20
8.033874457284874
 30
0.0
 10
9.527234914963351
 20
8.034193752171104
 30
0.0
 10
9.533144314438356
 20
8.03394549384304
 30
0.0
 10
9.53868026393709
 20
8.033233021324248
 30
0.0
 10
9.541870779860664
 20
8.032401916755568
 30
0.0
 10
9.543497443260513
 20
8.031978183599016
 30
0.0
  0
SPLINE
  5
237
330
1F
100
AcDbEntity
  8
0
  6
Continuous
 62
     7
370
    18
100
AcDbSpline
210
0.0
220
0.0
230
1.0
 70
     8
 71
     3
 72
    15
 73
    11
 74
     0
 42
0.000000001
 43
0.00000001
 40
0.0
 40
0.0
 40
0.0
 40
0.0
 40
0.1350767677515606
 40
0.2502729565972471
 40
0.3828944742443288
 40
0.5002896875550039
 40
0.6245809172120081
 40
0.7499655923906206
 40
0.8675940066899225
 40
1.0
 40
1.0
 40
1.0
 40
1.0
 10
9.494021956774464
 20
8.010412959210294
 30
0.0
 10
9.493170415818767
 20
8.010987715257961
 30
0.0
 10
9.491592663580592
 20
8.01205263484233
 30
0.0
 10
9.489573650324157
 20
8.013798626789333
 30
0.0
 10
9.488171265885738
 20
8.015616373560137
 30
0.0
 10
9.487588887615736
 20
8.017683720065497
 30
0.0
 10
9.488191528983247
 20
8.019909120562957
 30
0.0
 10
9.490076603139986
 20
8.02221005475522
 30
0.0
 10
9.492975600264751
 20
8.024505698805404
 30
0.0
 10
9.495406304716933
 20
8.0259389725187
 30
0.0
 10
9.496693486911223
 20
8.02669796417712
 30
0.0
  0
SPLINE
  5
238
330
1F
100
AcDbEntity
  8
0
  6
Continuous
 62
     7
370
    18
100
AcDbSpline
210
0.0
220
0.0
230
1.0
 70
     8
 71
     3
 72
     8
 73
     4
 74
     0
 42
0.000000001
 43
0.00000001
 40
0.0
 40
0.0
 40
0.0
 40
0.0
 40
1.0
 40
1.0
 40
1.0
 40
1.0
 10
9.494324913108981
 20
8.010229150524067
 30
0.0
 10
9.494223918153372
 20
8.010290469421848
 30
0.0
 10
9.494122932701577
 20
8.010351738985925
 30
0.0
 10
9.494021956774464
 20
8.010412959210294
 30
0.0
  0
ARC
  5
239
330
1F
100
AcDbEntity
  8
0
  6
Continuous
 62
     7
370
    18
100
AcDbCircle
 10
9.3059268139
 20
7.3568535595
 30
0.0
 40
0.6799952255151648
100
AcDbArc
 50
73.9153064337
 51
75.3660786991
  0
SPLINE
  5
23A
330
1F
100
AcDbEntity
  8
0
  6
Continuous
 62
     7
370
    18
100
AcDbSpline
210
0.0
220
0.0
230
1.0
 70
     8
 71
     3
 72
    19
 73
    15
 74
     0
 42
0.000000001
 43
0.00000001
 40
0.0
 40
0.0
 40
0.0
 40
0.0
 40
0.1003249143882806
 40
0.1926720420798271
 40
0.2777795953008877
 40
0.3565894906851876
 40
0.4302855166687836
 40
0.5003112959171935
 40
0.6226583537086008
 40
0.7497611134067322
 40
0.8101800080816811
 40
0.8748658725929168
 40
0.9334996000369002
 40
1.0
 40
1.0
 40
1.0
 40
1.0
 10
9.479245054682877
 20
7.994095925268664
 30
0.0
 10
9.477958330042917
 20
7.99450596634359
 30
0.0
 10
9.475487200458735
 20
7.995293442233544
 30
0.0
 10
9.472321979313751
 20
7.99660690144002
 30
0.0
 10
9.469769662326504
 20
7.997966565705767
 30
0.0
 10
9.467852006926183
 20
7.999389262684033
 30
0.0
 10
9.466568473057892
 20
8.000880022153655
 30
0.0
 10
9.465755297430993
 20
8.002842717340089
 30
0.0
 10
9.466159251666772
 20
8.005473510261451
 30
0.0
 10
9.468288333480077
 20
8.008141882749273
 30
0.0
 10
9.470751536266954
 20
8.010257496345082
 30
0.0
 10
9.472822929345464
 20
8.011768167350123
 30
0.0
 10
9.475173620474584
 20
8.013291700911571
 30
0.0
 10
9.476837883354476
 20
8.014269791373332
 30
0.0
 10
9.477722327506122
 20
8.014789580884434
 30
0.0
  0
SPLINE
  5
23B
330
1F
100
AcDbEntity
  8
0
  6
Continuous
 62
     7
370
    18
100
AcDbSpline
210
0.0
220
0.0
230
1.0
 70
     8
 71
     3
 72
    14
 73
    10
 74
     0
 42
0.000000001
 43
0.00000001
 40
0.0
 40
0.0
 40
0.0
 40
0.0
 40
0.0822071011057607
 40
0.1652591792620892
 40
0.2502032011523536
 40
0.3737490902906015
 40
0.500311593453274
 40
0.7386054306514744
 40
1.0
 40
1.0
 40
1.0
 40
1.0
 10
9.514379399604405
 20
7.993471593771407
 30
0.0
 10
9.513335520009946
 20
7.993226503061988
 30
0.0
 10
9.511237031160345
 20
7.99273380244442
 30
0.0
 10
9.507980329011277
 20
7.992187735884722
 30
0.0
 10
9.504182365984686
 20
7.991723788160906
 30
0.0
 10
9.499853252696441
 20
7.99144437395367
 30
0.0
 10
9.493773005077857
 20
7.991467694453838
 30
0.0
 10
9.486489738076862
 20
7.992183281213855
 30
0.0
 10
9.481733247108426
 20
7.993439026106736
 30
0.0
 10
9.479245054682877
 20
7.994095925268664
 30
0.0
  0
SPLINE
  5
23C
330
1F
100
AcDbEntity
  8
0
  6
Continuous
 62
     7
370
    18
100
AcDbSpline
210
0.0
220
0.0
230
1.0
 70
     8
 71
     3
 72
    15
 73
    11
 74
     0
 42
0.000000001
 43
0.00000001
 40
0.0
 40
0.0
 40
0.0
 40
0.0
 40
0.19358750285899
 40
0.359841808746575
 40
0.5003822493256811
 40
0.6326835141163878
 40
0.7500607757674389
 40
0.8748534708448027
 40
0.9374227849174214
 40
1.0
 40
1.0
 40
1.0
 40
1.0
 10
9.526889352210585
 20
7.97846488003958
 30
0.0
 10
9.525096521902638
 20
7.979165030826478
 30
0.0
 10
9.52176399634567
 20
7.980466476022229
 30
0.0
 10
9.517623056005924
 20
7.98248405002675
 30
0.0
 10
9.514508985064513
 20
7.98445998357998
 30
0.0
 10
9.512530979121523
 20
7.986486034539804
 30
0.0
 10
9.511809081246666
 20
7.988720660403108
 30
0.0
 10
9.512515855204361
 20
7.990685555492338
 30
0.0
 10
9.513568938645466
 20
7.992277101065989
 30
0.0
 10
9.514109234581065
 20
7.993073412778133
 30
0.0
 10
9.514379399604405
 20
7.993471593771407
 30
0.0
  0
ARC
  5
23D
330
1F
100
AcDbEntity
  8
0
  6
Continuous
 62
     7
370
    18
100
AcDbCircle
 10
9.2415249147
 20
7.2208004133
 30
0.0
 40
0.8096223233074337
100
AcDbArc
 50
67.2919928501
 51
69.3617716903
  0
LINE
  5
23E
330
1F
100
AcDbEntity
  8
0
  6
Continuous
 62
     7
370
    18
100
AcDbLine
 10
9.5928820714
 20
7.9900713839
 30
0.0
 11
9.5540674394
 21
7.9676641737
 31
0.0
  0
SPLINE
  5
23F
330
1F
100
AcDbEntity
  8
0
  6
Continuous
 62
     7
370
    18
100
AcDbSpline
210
0.0
220
0.0
230
1.0
 70
     8
 71
     3
 72
     8
 73
     4
 74
     0
 42
0.000000001
 43
0.00000001
 40
0.0
 40
0.0
 40
0.0
 40
0.0
 40
1.0
 40
1.0
 40
1.0
 40
1.0
 10
9.568335123954231
 20
7.961541467088391
 30
0.0
 10
9.5765119330141
 20
7.971105421905757
 30
0.0
 10
9.584693977737881
 20
7.980615510503791
 30
0.0
 10
9.592882071441833
 20
7.990071383863229
 30
0.0
  0
ARC
  5
240
330
1F
100
AcDbEntity
  8
0
  6
Continuous
 62
     7
370
    18
100
AcDbCircle
 10
9.2148037741
 20
7.158187875
 30
0.0
 40
0.8777023466527354
100
AcDbArc
 50
64.8749957602
 51
66.247173226
  0
SPLINE
  5
241
330
1F
100
AcDbEntity
  8
0
  6
Continuous
 62
     7
370
    18
100
AcDbSpline
210
0.0
220
0.0
230
1.0
 70
     8
 71
     3
 72
     8
 73
     4
 74
     0
 42
0.000000001
 43
0.00000001
 40
0.0
 40
0.0
 40
0.0
 40
0.0
 40
1.0
 40
1.0
 40
1.0
 40
1.0
 10
9.648852424162131
 20
7.970301042875626
 30
0.0
 10
9.628387184339218
 20
7.964556850924982
 30
0.0
 10
9.607926400999746
 20
7.958738446614087
 30
0.0
 10
9.587471431793253
 20
7.952845176079883
 30
0.0
  0
ARC
  5
242
330
1F
100
AcDbEntity
  8
0
  6
Continuous
 62
     7
370
    18
100
AcDbCircle
 10
9.2285650353
 20
7.1202924281
 30
0.0
 40
0.948238437557068
100
AcDbArc
 50
62.2452145505
 51
63.6898723289
  0
LINE
  5
243
330
1F
100
AcDbEntity
  8
0
  6
Continuous
 62
     7
370
    18
100
AcDbLine
 10
9.6257462757
 20
7.9338018647
 30
0.0
 11
9.6701487089
 21
7.9594348437
 31
0.0
  0
ARC
  5
244
330
1F
100
AcDbEntity
  8
0
  6
Continuous
 62
     7
370
    18
100
AcDbCircle
 10
9.1648970344
 20
7.0580389879
 30
0.0
 40
0.9896174208122036
100
AcDbArc
 50
60.8517731111
 51
62.2454858078
  0
LINE
  5
245
330
1F
100
AcDbEntity
  8
0
  6
Continuous
 62
     7
370
    18
100
AcDbLine
 10
9.7063518638
 20
7.9566069681
 30
0.0
 11
9.6469106624
 21
7.9223337883
 31
0.0
  0
SPLINE
  5
246
330
1F
100
AcDbEntity
  8
0
  6
Continuous
 62
     7
370
    18
100
AcDbSpline
210
0.0
220
0.0
230
1.0
 70
     8
 71
     3
 72
    11
 73
     7
 74
     0
 42
0.000000001
 43
0.00000001
 40
0.0
 40
0.0
 40
0.0
 40
0.0
 40
0.2500399431615325
 40
0.5000697207014138
 40
0.7761336246641133
 40
1.0
 40
1.0
 40
1.0
 40
1.0
 10
9.696832504231521
 20
7.949271559501483
 30
0.0
 10
9.697690225890614
 20
7.949856110990301
 30
0.0
 10
9.699405634337277
 20
7.951025190202417
 30
0.0
 10
9.701993834285508
 20
7.952872848441786
 30
0.0
 10
9.704390118797772
 20
7.954708565236079
 30
0.0
 10
9.705745106705649
 20
7.956019802412951
 30
0.0
 10
9.706351863775827
 20
7.956606968116144
 30
0.0
  0
SPLINE
  5
247
330
1F
100
AcDbEntity
  8
0
  6
Continuous
 62
     7
370
    18
100
AcDbSpline
210
0.0
220
0.0
230
1.0
 70
     8
 71
     3
 72
    15
 73
    11
 74
     0
 42
0.000000001
 43
0.00000001
 40
0.0
 40
0.0
 40
0.0
 40
0.0
 40
0.0815800835109893
 40
0.1612516356651917
 40
0.2410188097200057
 40
0.3228787361171099
 40
0.4086825397721373
 40
0.5000419267569575
 40
0.7286508095996868
 40
1.0
 40
1.0
 40
1.0
 40
1.0
 10
9.691022427694879
 20
7.935488079412869
 30
0.0
 10
9.69067278198374
 20
7.935850187934196
 30
0.0
 10
9.689981670374163
 20
7.936565933602
 30
0.0
 10
9.689328458062585
 20
7.937732929816764
 30
0.0
 10
9.688991703595184
 20
7.93894028445715
 30
0.0
 10
9.688994557985973
 20
7.94019437566809
 30
0.0
 10
9.689327442762778
 20
7.941492429291271
 30
0.0
 10
9.690307250492033
 20
7.943468447543424
 30
0.0
 10
9.692634067308756
 20
7.946180854742583
 30
0.0
 10
9.69535547618623
 20
7.948184236363709
 30
0.0
 10
9.696832504231521
 20
7.949271559501483
 30
0.0
  0
LWPOLYLINE
  5
248
330
1F
100
AcDbEntity
  8
0
  6
Continuous
 62
     7
370
    18
100
AcDbPolyline
 90
      122
 70
   128
 43
0.0
 10
10.3720947786
 20
6.1574527994
 10
10.3721394756
 20
6.1574786067
 10
10.3863483259
 20
6.1661191472
 10
10.4001704957
 20
6.1754066496
 10
10.4135965118
 20
6.1853347485
 10
10.4266171729
 20
6.1958966399
 10
10.4392235551
 20
6.207085085
 10
10.4514070187
 20
6.218892416
 10
10.4631592138
 20
6.2313105406
 10
10.474472086
 20
6.2443309481
 10
10.485337882
 20
6.2579447149
 10
10.4957491549
 20
6.2721425109
 10
10.5056987694
 20
6.2869146056
 10
10.5151799065
 20
6.302250875
 10
10.5241860683
 20
6.3181408082
 10
10.5327110825
 20
6.3345735153
 10
10.5407491063
 20
6.3515377339
 10
10.548294631
 20
6.3690218377
 10
10.5553424853
 20
6.3870138439
 10
10.5618878388
 20
6.4055014218
 10
10.5679262057
 20
6.4244719008
 10
10.5734534477
 20
6.4439122795
 10
10.5784657766
 20
6.4638092346
 10
10.5829597573
 20
6.4841491295
 10
10.5869323097
 20
6.5049180243
 10
10.5903807113
 20
6.5261016852
 10
10.5933025988
 20
6.5476855938
 10
10.5956959695
 20
6.5696549577
 10
10.5975591833
 20
6.59199472
 10
10.5988909631
 20
6.6146895704
 10
10.5996903963
 20
6.6377239547
 10
10.5999569349
 20
6.6610820866
 10
10.5996903963
 20
6.6847479573
 10
10.5988909631
 20
6.7087053476
 10
10.5975591833
 20
6.7329378382
 10
10.5956959695
 20
6.7574288214
 10
10.5933025988
 20
6.7821615123
 10
10.5903807113
 20
6.8071189604
 10
10.5869323097
 20
6.832284061
 10
10.5829597573
 20
6.8576395673
 10
10.5784657766
 20
6.8831681018
 10
10.5734534477
 20
6.9088521686
 10
10.5679262057
 20
6.9346741651
 10
10.5618878388
 20
6.9606163942
 10
10.5553424853
 20
6.9866610764
 10
10.548294631
 20
7.0127903619
 10
10.5407491063
 20
7.0389863431
 10
10.5327110825
 20
7.0652310665
 10
10.5241860683
 20
7.0915065454
 10
10.5151799065
 20
7.1177947717
 10
10.5056987694
 20
7.1440777289
 10
10.4957491549
 20
7.170337404
 10
10.485337882
 20
7.1965557999
 10
10.474472086
 20
7.2227149477
 10
10.4631592138
 20
7.2487969194
 10
10.4514070187
 20
7.2747838397
 10
10.4392235551
 20
7.3006578983
 10
10.4266171729
 20
7.3264013626
 10
10.4135965118
 20
7.3519965892
 10
10.4001704957
 20
7.3774260364
 10
10.3863483259
 20
7.4026722762
 10
10.3721394756
 20
7.4277180061
 10
10.3575536828
 20
7.452546061
 10
10.3426009438
 20
7.4771394249
 10
10.3272915065
 20
7.5014812429
 10
10.3116358633
 20
7.5255548321
 10
10.2956447437
 20
7.5493436939
 10
10.2793291072
 20
7.5728315244
 10
10.2627001358
 20
7.5960022264
 10
10.2457692261
 20
7.6188399198
 10
10.2285479817
 20
7.6413289527
 10
10.2110482053
 20
7.6634539123
 10
10.1932818902
 20
7.6851996352
 10
10.1752612127
 20
7.7065512181
 10
10.1569985232
 20
7.7274940276
 10
10.138506338
 20
7.7480137106
 10
10.1197973307
 20
7.7680962038
 10
10.1008843236
 20
7.7877277439
 10
10.0817802788
 20
7.8068948762
 10
10.0624982891
 20
7.8255844645
 10
10.0430515695
 20
7.8437837001
 10
10.0234534477
 20
7.86148011
 10
10.0037173554
 20
7.878661566
 10
9.9838568187
 20
7.8953162927
 10
9.9638854491
 20
7.9114328759
 10
9.9438169338
 20
7.9270002701
 10
9.9236650268
 20
7.9420078061
 10
9.9034435394
 20
7.9564451986
 10
9.8831663301
 20
7.9703025528
 10
9.8628472962
 20
7.9835703717
 10
9.8425003631
 20
7.9962395621
 10
9.8221394756
 20
8.0083014411
 10
9.8017785882
 20
8.0197477423
 10
9.7814316551
 20
8.0305706208
 10
9.7611126211
 20
8.0407626593
 10
9.7408354119
 20
8.0503168725
 10
9.7206139244
 20
8.0592267125
 10
9.7004620175
 20
8.067486073
 10
9.6803935022
 20
8.0750892933
 10
9.6604221325
 20
8.0820311627
 10
9.6405615958
 20
8.0883069235
 10
9.6208255036
 20
8.0939122747
 10
9.6012273818
 20
8.0988433745
 10
9.5817806622
 20
8.1030968435
 10
9.5624986725
 20
8.1066697666
 10
9.5433946276
 20
8.109559695
 10
9.5244816206
 20
8.1117646481
 10
9.5057726133
 20
8.1132831148
 10
9.4872804281
 20
8.1141140544
 10
9.4690177386
 20
8.1142568975
 10
9.450997061
 20
8.113711546
 10
9.433230746
 20
8.1124783738
 10
9.4157309695
 20
8.110558226
 10
9.3985097252
 20
8.1079524186
 10
9.3815788155
 20
8.1046627375
 10
9.3649498441
 20
8.1006914372
 10
9.3486342076
 20
8.0960412396
 10
9.332643088
 20
8.0907153315
 10
9.3169874447
 20
8.0847173632
 10
9.3016780075
 20
8.0780514453
 10
9.2867252685
 20
8.0707221464
 10
9.2721841727
 20
8.0627602967
  0
LWPOLYLINE
  5
249
330
1F
100
AcDbEntity
  8
0
  6
Continuous
 62
     7
370
    18
100
AcDbPolyline
 90
      241
 70
   128
 43
0.0
 10
10.2851674974
 20
6.5325710783
 10
10.2849167522
 20
6.5105970112
 10
10.2841646887
 20
6.4889275081
 10
10.2829118223
 20
6.4675774203
 10
10.2811590115
 20
6.4465613801
 10
10.2789074578
 20
6.4258937908
 10
10.2761587041
 20
6.4055888169
 10
10.2729146343
 20
6.3856603745
 10
10.2691774719
 20
6.3661221214
 10
10.2649497779
 20
6.3469874483
 10
10.26023445
 20
6.3282694691
 10
10.2550347197
 20
6.3099810122
 10
10.2493541506
 20
6.2921346115
 10
10.243196636
 20
6.2747424982
 10
10.2365663959
 20
6.2578165918
 10
10.2294679744
 20
6.2413684925
 10
10.2219062362
 20
6.2254094731
 10
10.213886364
 20
6.2099504711
 10
10.205413854
 20
6.1950020813
 10
10.196494513
 20
6.1805745485
 10
10.1871344538
 20
6.1666777608
 10
10.1773400913
 20
6.1533212422
 10
10.1671181381
 20
6.1405141466
 10
10.1564755998
 20
6.1282652514
 10
10.1454197703
 20
6.1165829514
 10
10.1339582266
 20
6.105475253
 10
10.122098824
 20
6.0949497689
 10
10.1098496903
 20
6.0850137128
 10
10.0972192205
 20
6.0756738942
 10
10.0842160707
 20
6.0669367143
 10
10.0708491528
 20
6.0588081611
 10
10.0571276278
 20
6.0512938055
 10
10.0430608996
 20
6.0443987974
 10
10.028658609
 20
6.0381278624
 10
10.0139306266
 20
6.0324852982
 10
9.9988870461
 20
6.0274749719
 10
9.9835381777
 20
6.0231003175
 10
9.9678945408
 20
6.019364333
 10
9.9519668566
 20
6.0162695789
 10
9.9357660413
 20
6.0138181762
 10
9.9193031981
 20
6.012011805
 10
9.9025896097
 20
6.0108517033
 10
9.8856367309
 20
6.0103386661
 10
9.8684561803
 20
6.0104730451
 10
9.8510597326
 20
6.0112547482
 10
9.8334593104
 20
6.0126832395
 10
9.8156669763
 20
6.0147575402
 10
9.7976949241
 20
6.0174762285
 10
9.779555471
 20
6.0208374413
 10
9.7612610489
 20
6.0248388749
 10
9.7428241959
 20
6.0294777869
 10
9.7242575477
 20
6.0347509981
 10
9.7055738289
 20
6.0406548945
 10
9.6867858445
 20
6.0471854298
 10
9.6679064707
 20
6.0543381283
 10
9.6489486465
 20
6.0621080879
 10
9.6299253647
 20
6.0704899836
 10
9.6108496629
 20
6.0794780706
 10
9.5917346147
 20
6.0890661891
 10
9.5725933205
 20
6.0992477679
 10
9.5534388988
 20
6.110015829
 10
9.5342844771
 20
6.1213629925
 10
9.5151431829
 20
6.1332814816
 10
9.4960281346
 20
6.145763128
 10
9.4769524328
 20
6.1587993774
 10
9.4579291511
 20
6.1723812954
 10
9.4389713269
 20
6.1864995736
 10
9.4200919531
 20
6.2011445362
 10
9.4013039686
 20
6.216306146
 10
9.3826202498
 20
6.2319740122
 10
9.3640536016
 20
6.2481373967
 10
9.3456167486
 20
6.2647852221
 10
9.3273223266
 20
6.2819060786
 10
9.3091828735
 20
6.2994882326
 10
9.2912108213
 20
6.317519634
 10
9.2734184871
 20
6.3359879251
 10
9.255818065
 20
6.3548804486
 10
9.2384216172
 20
6.3741842566
 10
9.2212410666
 20
6.3938861191
 10
9.2042881878
 20
6.4139725335
 10
9.1875745995
 20
6.4344297336
 10
9.1711117563
 20
6.455243699
 10
9.154910941
 20
6.4764001649
 10
9.1389832568
 20
6.4978846316
 10
9.1233396199
 20
6.5196823749
 10
9.1079907515
 20
6.5417784556
 10
9.092947171
 20
6.5641577301
 10
9.0782191885
 20
6.5868048609
 10
9.0638168979
 20
6.6097043267
 10
9.0497501698
 20
6.6328404334
 10
9.0360286447
 20
6.6561973246
 10
9.0226617268
 20
6.6797589927
 10
9.0096585771
 20
6.7035092898
 10
8.9970281072
 20
6.7274319384
 10
8.9847789735
 20
6.7515105433
 10
8.9729195709
 20
6.7757286022
 10
8.9614580273
 20
6.8000695172
 10
8.9504021977
 20
6.8245166063
 10
8.9397596594
 20
6.8490531147
 10
8.9295377062
 20
6.8736622262
 10
8.9197433437
 20
6.898327075
 10
8.9103832845
 20
6.9230307571
 10
8.9014639435
 20
6.9477563418
 10
8.8929914336
 20
6.9724868834
 10
8.8849715613
 20
6.9972054328
 10
8.8774098232
 20
7.0218950492
 10
8.8703114017
 20
7.0465388115
 10
8.8636811616
 20
7.0711198302
 10
8.857523647
 20
7.0956212586
 10
8.8518430779
 20
7.1200263047
 10
8.8466433476
 20
7.1443182425
 10
8.8419280196
 20
7.1684804234
 10
8.8377003257
 20
7.192496288
 10
8.8339631632
 20
7.216349377
 10
8.8307190935
 20
7.2400233426
 10
8.8279703398
 20
7.26350196
 10
8.825718786
 20
7.286769138
 10
8.8239659753
 20
7.3098089304
 10
8.8227131088
 20
7.332605547
 10
8.8219610453
 20
7.3551433641
 10
8.8217103002
 20
7.3774069354
 10
8.8219610453
 20
7.3993810025
 10
8.8227131088
 20
7.4210505055
 10
8.8239659753
 20
7.4424005933
 10
8.825718786
 20
7.4634166335
 10
8.8279703398
 20
7.4840842228
 10
8.8307190935
 20
7.5043891967
 10
8.8339631632
 20
7.5243176392
 10
8.8377003257
 20
7.5438558922
 10
8.8419280196
 20
7.5629905653
 10
8.8466433476
 20
7.5817085445
 10
8.8518430779
 20
7.5999970014
 10
8.857523647
 20
7.6178434021
 10
8.8636811616
 20
7.6352355155
 10
8.8703114017
 20
7.6521614219
 10
8.8774098232
 20
7.6686095211
 10
8.8849715613
 20
7.6845685405
 10
8.8929914336
 20
7.7000275425
 10
8.9014639435
 20
7.7149759323
 10
8.9103832845
 20
7.7294034651
 10
8.9197433437
 20
7.7433002529
 10
8.9295377062
 20
7.7566567715
 10
8.9397596594
 20
7.769463867
 10
8.9504021977
 20
7.7817127622
 10
8.9614580273
 20
7.7933950622
 10
8.9729195709
 20
7.8045027606
 10
8.9847789735
 20
7.8150282447
 10
8.9970281072
 20
7.8249643009
 10
9.0096585771
 20
7.8343041194
 10
9.0226617268
 20
7.8430412993
 10
9.0360286447
 20
7.8511698525
 10
9.0497501698
 20
7.8586842082
 10
9.0638168979
 20
7.8655792162
 10
9.0782191885
 20
7.8718501513
 10
9.092947171
 20
7.8774927155
 10
9.1079907515
 20
7.8825030417
 10
9.1233396199
 20
7.8868776962
 10
9.1389832568
 20
7.8906136807
 10
9.154910941
 20
7.8937084347
 10
9.1711117563
 20
7.8961598374
 10
9.1875745995
 20
7.8979662086
 10
9.2042881878
 20
7.8991263103
 10
9.2212410666
 20
7.8996393475
 10
9.2384216172
 20
7.8995049685
 10
9.255818065
 20
7.8987232655
 10
9.2734184871
 20
7.8972947741
 10
9.2912108213
 20
7.8952204734
 10
9.3091828735
 20
7.8925017851
 10
9.3273223266
 20
7.8891405723
 10
9.3456167486
 20
7.8851391387
 10
9.3640536016
 20
7.8805002267
 10
9.3826202498
 20
7.8752270155
 10
9.4013039686
 20
7.8693231191
 10
9.4200919531
 20
7.8627925839
 10
9.4389713269
 20
7.8556398853
 10
9.4579291511
 20
7.8478699257
 10
9.4769524328
 20
7.8394880301
 10
9.4960281346
 20
7.830499943
 10
9.5151431829
 20
7.8209118245
 10
9.5342844771
 20
7.8107302457
 10
9.5534388988
 20
7.7999621846
 10
9.5725933205
 20
7.7886150212
 10
9.5917346147
 20
7.776696532
 10
9.6108496629
 20
7.7642148856
 10
9.6299253647
 20
7.7511786362
 10
9.6489486465
 20
7.7375967182
 10
9.6679064707
 20
7.72347844
 10
9.6867858445
 20
7.7088334775
 10
9.7055738289
 20
7.6936718676
 10
9.7242575477
 20
7.6780040014
 10
9.7428241959
 20
7.6618406169
 10
9.7612610489
 20
7.6451927916
 10
9.779555471
 20
7.628071935
 10
9.7976949241
 20
7.6104897811
 10
9.8156669763
 20
7.5924583796
 10
9.8334593104
 20
7.5739900885
 10
9.8510597326
 20
7.555097565
 10
9.8684561803
 20
7.5357937571
 10
9.8856367309
 20
7.5160918945
 10
9.9025896097
 20
7.4960054801
 10
9.9193031981
 20
7.4755482801
 10
9.9357660413
 20
7.4547343147
 10
9.9519668566
 20
7.4335778488
 10
9.9678945408
 20
7.412093382
 10
9.9835381777
 20
7.3902956388
 10
9.9988870461
 20
7.3681995581
 10
10.0139306266
 20
7.3458202835
 10
10.028658609
 20
7.3231731527
 10
10.0430608996
 20
7.3002736869
 10
10.0571276278
 20
7.2771375802
 10
10.0708491528
 20
7.253780689
 10
10.0842160707
 20
7.2302190209
 10
10.0972192205
 20
7.2064687239
 10
10.1098496903
 20
7.1825460752
 10
10.122098824
 20
7.1584674703
 10
10.1339582266
 20
7.1342494114
 10
10.1454197703
 20
7.1099084964
 10
10.1564755998
 20
7.0854614073
 10
10.1671181381
 20
7.060924899
 10
10.1773400913
 20
7.0363157874
 10
10.1871344538
 20
7.0116509386
 10
10.196494513
 20
6.9869472565
 10
10.205413854
 20
6.9622216718
 10
10.213886364
 20
6.9374911302
 10
10.2219062362
 20
6.9127725808
 10
10.2294679744
 20
6.8880829644
 10
10.2365663959
 20
6.8634392021
 10
10.243196636
 20
6.8388581834
 10
10.2493541506
 20
6.814356755
 10
10.2550347197
 20
6.7899517089
 10
10.26023445
 20
6.7656597712
 10
10.2649497779
 20
6.7414975902
 10
10.2691774719
 20
6.7174817256
 10
10.2729146343
 20
6.6936286366
 10
10.2761587041
 20
6.669954671
 10
10.2789074578
 20
6.6464760536
 10
10.2811590115
 20
6.6232088757
 10
10.2829118223
 20
6.6001690832
 10
10.2841646887
 20
6.5773724666
 10
10.2849167522
 20
6.5548346496
 10
10.2851674974
 20
6.5325710783
  0
LWPOLYLINE
  5
24A
330
1F
100
AcDbEntity
  8
0
  6
Continuous
 62
     7
370
    18
100
AcDbPolyline
 90
      241
 70
   128
 43
0.0
 10
10.2799911165
 20
6.5437234205
 10
10.2797445682
 20
6.5656143509
 10
10.2790050925
 20
6.587774937
 10
10.2777731962
 20
6.6101899908
 10
10.2760497234
 20
6.6328441502
 10
10.2738358555
 20
6.6557218893
 10
10.2711331096
 20
6.6788075288
 10
10.2679433381
 20
6.7020852469
 10
10.2642687271
 20
6.7255390902
 10
10.260111795
 20
6.7491529846
 10
10.2554753908
 20
6.7729107464
 10
10.2503626919
 20
6.7967960931
 10
10.2447772025
 20
6.8207926551
 10
10.2387227505
 20
6.8448839861
 10
10.2322034853
 20
6.8690535752
 10
10.225223875
 20
6.8932848578
 10
10.2177887029
 20
6.917561227
 10
10.2099030648
 20
6.9418660449
 10
10.2015723652
 20
6.9661826543
 10
10.1928023133
 20
6.9904943897
 10
10.1835989199
 20
7.0147845891
 10
10.1739684925
 20
7.0390366053
 10
10.1639176312
 20
7.0632338171
 10
10.1534532244
 20
7.0873596409
 10
10.142582444
 20
7.1113975421
 10
10.1313127401
 20
7.1353310463
 10
10.1196518366
 20
7.1591437508
 10
10.1076077251
 20
7.1828193354
 10
10.0951886601
 20
7.2063415741
 10
10.0824031531
 20
7.2296943459
 10
10.0692599666
 20
7.2528616461
 10
10.0557681082
 20
7.2758275968
 10
10.0419368247
 20
7.2985764585
 10
10.0277755952
 20
7.3210926401
 10
10.0132941252
 20
7.3433607101
 10
9.9985023395
 20
7.3653654073
 10
9.9834103758
 20
7.3870916505
 10
9.9680285772
 20
7.4085245498
 10
9.9523674858
 20
7.4296494162
 10
9.9364378347
 20
7.4504517716
 10
9.9202505415
 20
7.4709173593
 10
9.9038167001
 20
7.491032153
 10
9.8871475734
 20
7.5107823672
 10
9.8702545856
 20
7.530154466
 10
9.8531493142
 20
7.5491351727
 10
9.8358434825
 20
7.567711479
 10
9.818348951
 20
7.5858706535
 10
9.8006777095
 20
7.6036002509
 10
9.782841869
 20
7.6208881201
 10
9.7648536534
 20
7.637722413
 10
9.7467253908
 20
7.6540915921
 10
9.7284695054
 20
7.6699844389
 10
9.710098509
 20
7.6853900612
 10
9.691624992
 20
7.7002979007
 10
9.6730616154
 20
7.7146977403
 10
9.6544211015
 20
7.7285797111
 10
9.6357162255
 20
7.7419342991
 10
9.616959807
 20
7.7547523518
 10
9.5981647006
 20
7.7670250842
 10
9.5793437875
 20
7.7787440853
 10
9.5605099666
 20
7.7899013235
 10
9.5416761457
 20
7.800489152
 10
9.5228552326
 20
7.8105003147
 10
9.5040601262
 20
7.8199279502
 10
9.4853037077
 20
7.8287655974
 10
9.4665988317
 20
7.8370071995
 10
9.4479583178
 20
7.8446471079
 10
9.4293949412
 20
7.8516800867
 10
9.4109214242
 20
7.8581013159
 10
9.3925504278
 20
7.8639063947
 10
9.3742945424
 20
7.8690913445
 10
9.3561662798
 20
7.8736526118
 10
9.3381780642
 20
7.8775870707
 10
9.3203422237
 20
7.8808920245
 10
9.3026709822
 20
7.8835652083
 10
9.2851764506
 20
7.8856047899
 10
9.2678706189
 20
7.8870093716
 10
9.2507653476
 20
7.8877779908
 10
9.2338723598
 20
7.8879101206
 10
9.2172032331
 20
7.8874056705
 10
9.2007693917
 20
7.8862649862
 10
9.1845820985
 20
7.8844888494
 10
9.1686524474
 20
7.8820784776
 10
9.152991356
 20
7.8790355226
 10
9.1376095574
 20
7.8753620698
 10
9.1225175937
 20
7.871060637
 10
9.107725808
 20
7.8661341721
 10
9.093244338
 20
7.8605860514
 10
9.0790831085
 20
7.8544200773
 10
9.065251825
 20
7.8476404758
 10
9.0517599666
 20
7.8402518931
 10
9.0386167801
 20
7.8322593932
 10
9.0258312731
 20
7.8236684535
 10
9.0134122081
 20
7.814484962
 10
9.0013680966
 20
7.8047152125
 10
8.9897071931
 20
7.7943659007
 10
8.9784374892
 20
7.7834441196
 10
8.9675667088
 20
7.7719573543
 10
8.957102302
 20
7.7599134774
 10
8.9470514407
 20
7.747320743
 10
8.9374210133
 20
7.7341877817
 10
8.9282176199
 20
7.7205235941
 10
8.919447568
 20
7.706337545
 10
8.9111168684
 20
7.6916393567
 10
8.9032312303
 20
7.6764391027
 10
8.8957960582
 20
7.6607472005
 10
8.8888164479
 20
7.6445744045
 10
8.8822971827
 20
7.6279317987
 10
8.8762427307
 20
7.6108307892
 10
8.8706572412
 20
7.5932830961
 10
8.8655445424
 20
7.5753007458
 10
8.8609081382
 20
7.5568960624
 10
8.8567512061
 20
7.5380816596
 10
8.8530765951
 20
7.5188704318
 10
8.8498868236
 20
7.4992755455
 10
8.8471840777
 20
7.4793104301
 10
8.8449702098
 20
7.4589887685
 10
8.843246737
 20
7.4383244883
 10
8.8420148407
 20
7.4173317518
 10
8.841275365
 20
7.3960249462
 10
8.8410288167
 20
7.3744186743
 10
8.841275365
 20
7.3525277438
 10
8.8420148407
 20
7.3303671578
 10
8.843246737
 20
7.307952104
 10
8.8449702098
 20
7.2852979445
 10
8.8471840777
 20
7.2624202054
 10
8.8498868236
 20
7.239334566
 10
8.8530765951
 20
7.2160568479
 10
8.8567512061
 20
7.1926030046
 10
8.8609081382
 20
7.1689891102
 10
8.8655445424
 20
7.1452313484
 10
8.8706572412
 20
7.1213460016
 10
8.8762427307
 20
7.0973494397
 10
8.8822971827
 20
7.0732581087
 10
8.8888164479
 20
7.0490885196
 10
8.8957960582
 20
7.024857237
 10
8.9032312303
 20
7.0005808678
 10
8.9111168684
 20
6.9762760499
 10
8.919447568
 20
6.9519594405
 10
8.9282176199
 20
6.9276477051
 10
8.9374210133
 20
6.9033575056
 10
8.9470514407
 20
6.8791054895
 10
8.957102302
 20
6.8549082777
 10
8.9675667088
 20
6.8307824539
 10
8.9784374892
 20
6.8067445527
 10
8.9897071931
 20
6.7828110484
 10
9.0013680966
 20
6.758998344
 10
9.0134122081
 20
6.7353227594
 10
9.0258312731
 20
6.7118005207
 10
9.0386167801
 20
6.6884477488
 10
9.0517599666
 20
6.6652804487
 10
9.065251825
 20
6.6423144979
 10
9.0790831085
 20
6.6195656363
 10
9.093244338
 20
6.5970494547
 10
9.107725808
 20
6.5747813846
 10
9.1225175937
 20
6.5527766875
 10
9.1376095574
 20
6.5310504442
 10
9.152991356
 20
6.5096175449
 10
9.1686524474
 20
6.4884926786
 10
9.1845820985
 20
6.4676903231
 10
9.2007693917
 20
6.4472247355
 10
9.2172032331
 20
6.4271099418
 10
9.2338723598
 20
6.4073597276
 10
9.2507653476
 20
6.3879876288
 10
9.2678706189
 20
6.3690069221
 10
9.2851764506
 20
6.3504306158
 10
9.3026709822
 20
6.3322714413
 10
9.3203422237
 20
6.3145418439
 10
9.3381780642
 20
6.2972539746
 10
9.3561662798
 20
6.2804196818
 10
9.3742945424
 20
6.2640505026
 10
9.3925504278
 20
6.2481576558
 10
9.4109214242
 20
6.2327520336
 10
9.4293949412
 20
6.2178441941
 10
9.4479583178
 20
6.2034443545
 10
9.4665988317
 20
6.1895623837
 10
9.4853037077
 20
6.1762077956
 10
9.5040601262
 20
6.163389743
 10
9.5228552326
 20
6.1511170105
 10
9.5416761457
 20
6.1393980094
 10
9.5605099666
 20
6.1282407713
 10
9.5793437875
 20
6.1176529427
 10
9.5981647006
 20
6.1076417801
 10
9.616959807
 20
6.0982141445
 10
9.6357162255
 20
6.0893764973
 10
9.6544211015
 20
6.0811348953
 10
9.6730616154
 20
6.0734949868
 10
9.691624992
 20
6.066462008
 10
9.710098509
 20
6.0600407788
 10
9.7284695054
 20
6.0542357001
 10
9.7467253908
 20
6.0490507503
 10
9.7648536534
 20
6.0444894829
 10
9.782841869
 20
6.0405550241
 10
9.8006777095
 20
6.0372500703
 10
9.818348951
 20
6.0345768865
 10
9.8358434825
 20
6.0325373048
 10
9.8531493142
 20
6.0311327231
 10
9.8702545856
 20
6.030364104
 10
9.8871475734
 20
6.0302319742
 10
9.9038167001
 20
6.0307364243
 10
9.9202505415
 20
6.0318771086
 10
9.9364378347
 20
6.0336532453
 10
9.9523674858
 20
6.0360636172
 10
9.9680285772
 20
6.0391065722
 10
9.9834103758
 20
6.0427800249
 10
9.9985023395
 20
6.0470814577
 10
10.0132941252
 20
6.0520079227
 10
10.0277755952
 20
6.0575560434
 10
10.0419368247
 20
6.0637220174
 10
10.0557681082
 20
6.070501619
 10
10.0692599666
 20
6.0778902016
 10
10.0824031531
 20
6.0858827016
 10
10.0951886601
 20
6.0944736413
 10
10.1076077251
 20
6.1036571328
 10
10.1196518366
 20
6.1134268823
 10
10.1313127401
 20
6.1237761941
 10
10.142582444
 20
6.1346979752
 10
10.1534532244
 20
6.1461847405
 10
10.1639176312
 20
6.1582286174
 10
10.1739684925
 20
6.1708213517
 10
10.1835989199
 20
6.183954313
 10
10.1928023133
 20
6.1976185006
 10
10.2015723652
 20
6.2118045498
 10
10.2099030648
 20
6.226502738
 10
10.2177887029
 20
6.241702992
 10
10.225223875
 20
6.2573948943
 10
10.2322034853
 20
6.2735676903
 10
10.2387227505
 20
6.290210296
 10
10.2447772025
 20
6.3073113055
 10
10.2503626919
 20
6.3248589986
 10
10.2554753908
 20
6.342841349
 10
10.260111795
 20
6.3612460324
 10
10.2642687271
 20
6.3800604352
 10
10.2679433381
 20
6.3992716629
 10
10.2711331096
 20
6.4188665492
 10
10.2738358555
 20
6.4388316647
 10
10.2760497234
 20
6.4591533263
 10
10.2777731962
 20
6.4798176064
 10
10.2790050925
 20
6.500810343
 10
10.2797445682
 20
6.5221171486
 10
10.2799911165
 20
6.5437234205
  0
ARC
  5
24B
330
1F
100
AcDbEntity
  8
0
  6
Continuous
 62
     7
370
    18
100
AcDbCircle
 10
8.9265364889
 20
6.5930859489
 30
0.0
 40
1.67515264029745
100
AcDbArc
 50
2.60583048
 51
57.3887929873
  0
LWPOLYLINE
  5
24C
330
1F
100
AcDbEntity
  8
0
  6
Continuous
 62
     7
370
    18
100
AcDbPolyline
 90
       89
 70
   128
 43
0.0
 10
10.5830309089
 20
6.4844950212
 10
10.5852050733
 20
6.4902302834
 10
10.5912595253
 20
6.5073312929
 10
10.5968450147
 20
6.524878986
 10
10.6019577136
 20
6.5428613364
 10
10.6065941178
 20
6.5612660198
 10
10.6107510499
 20
6.5800804226
 10
10.6144256609
 20
6.5992916503
 10
10.6176154324
 20
6.6188865366
 10
10.6203181783
 20
6.6388516521
 10
10.6225320462
 20
6.6591733136
 10
10.624255519
 20
6.6798375938
 10
10.6254874153
 20
6.7008303304
 10
10.626226891
 20
6.722137136
 10
10.6264734392
 20
6.7437434079
 10
10.626226891
 20
6.7656343383
 10
10.6254874153
 20
6.7877949243
 10
10.624255519
 20
6.8102099782
 10
10.6225320462
 20
6.8328641376
 10
10.6203181783
 20
6.8557418767
 10
10.6176154324
 20
6.8788275162
 10
10.6144256609
 20
6.9021052343
 10
10.6107510499
 20
6.9255590775
 10
10.6065941178
 20
6.949172972
 10
10.6019577136
 20
6.9729307338
 10
10.5968450147
 20
6.9968160805
 10
10.5912595253
 20
7.0208126424
 10
10.5852050733
 20
7.0449039735
 10
10.5786858081
 20
7.0690735626
 10
10.5717061978
 20
7.0933048452
 10
10.5642710257
 20
7.1175812144
 10
10.5563853876
 20
7.1418860323
 10
10.5480546879
 20
7.1662026417
 10
10.5392846361
 20
7.1905143771
 10
10.5300812427
 20
7.2148045765
 10
10.5204508152
 20
7.2390565927
 10
10.510399954
 20
7.2632538045
 10
10.4999355472
 20
7.2873796283
 10
10.4890647667
 20
7.3114175295
 10
10.4777950629
 20
7.3353510337
 10
10.4661341593
 20
7.3591637382
 10
10.4540900479
 20
7.3828393228
 10
10.4416709829
 20
7.4063615615
 10
10.4288854759
 20
7.4297143333
 10
10.4157422894
 20
7.4528816335
 10
10.402250431
 20
7.4758475842
 10
10.3884191474
 20
7.4985964459
 10
10.374257918
 20
7.5211126275
 10
10.359776448
 20
7.5433806975
 10
10.3449846623
 20
7.5653853946
 10
10.3298926986
 20
7.5871116379
 10
10.3145109
 20
7.6085445372
 10
10.2988498085
 20
7.6296694036
 10
10.2829201575
 20
7.650471759
 10
10.2667328643
 20
7.6709373467
 10
10.2502990229
 20
7.6910521404
 10
10.2336298962
 20
7.7108023546
 10
10.2167369083
 20
7.7301744534
 10
10.199631637
 20
7.7491551601
 10
10.1823258053
 20
7.7677314664
 10
10.1648312738
 20
7.7858906409
 10
10.1471600323
 20
7.8036202383
 10
10.1293241918
 20
7.8209081075
 10
10.1113359762
 20
7.8377424004
 10
10.0932077136
 20
7.8541115795
 10
10.0749518282
 20
7.8700044263
 10
10.0565808318
 20
7.8854100486
 10
10.0381073148
 20
7.900317888
 10
10.0195439382
 20
7.9147177277
 10
10.0009034242
 20
7.9285996985
 10
9.9821985483
 20
7.9419542865
 10
9.9634421298
 20
7.9547723392
 10
9.9446470234
 20
7.9670450716
 10
9.9258261102
 20
7.9787640727
 10
9.9069922894
 20
7.9899213109
 10
9.8881584685
 20
8.0005091394
 10
9.8693375554
 20
8.0105203021
 10
9.850542449
 20
8.0199479376
 10
9.8317860304
 20
8.0287855848
 10
9.8130811545
 20
8.0370271869
 10
9.7944406406
 20
8.0446670953
 10
9.775877264
 20
8.0517000741
 10
9.757403747
 20
8.0581213033
 10
9.7390327506
 20
8.0639263821
 10
9.7207768652
 20
8.0691113319
 10
9.7026486026
 20
8.0736725992
 10
9.6846603869
 20
8.0776070581
 10
9.6668245465
 20
8.0809120119
 10
9.6608809057
 20
8.0818787587
  0
SPLINE
  5
24D
330
1F
100
AcDbEntity
  8
0
  6
Continuous
 62
     7
370
    18
100
AcDbSpline
210
0.0
220
0.0
230
1.0
 70
     8
 71
     3
 72
    16
 73
    12
 74
     0
 42
0.000000001
 43
0.00000001
 40
0.0
 40
0.0
 40
0.0
 40
0.0
 40
0.0878883172481914
 40
0.1705610270297456
 40
0.2500690649785269
 40
0.3724192379051497
 40
0.4997472056386918
 40
0.6198016199038393
 40
0.749794330245194
 40
0.8711133748445946
 40
0.9999999999999999
 40
0.9999999999999999
 40
0.9999999999999999
 40
0.9999999999999999
 10
9.745081255624099
 20
7.876441529005813
 30
0.0
 10
9.744338622591146
 20
7.876988172400337
 30
0.0
 10
9.742897427028723
 20
7.878049019412869
 30
0.0
 10
9.741229720994651
 20
7.879798192341602
 30
0.0
 10
9.73983476054529
 20
7.881917760494488
 30
0.0
 10
9.739101283085553
 20
7.884510447608617
 30
0.0
 10
9.73952880765743
 20
7.887381702676125
 30
0.0
 10
9.740952431534934
 20
7.890127277210497
 30
0.0
 10
9.743110238066699
 20
7.892593380484695
 30
0.0
 10
9.74584399234227
 20
7.894894316574166
 30
0.0
 10
9.747985859387846
 20
7.896215429734766
 30
0.0
 10
9.749089183766172
 20
7.896895965139439
 30
0.0
  0
SPLINE
  5
24E
330
1F
100
AcDbEntity
  8
0
  6
Continuous
 62
     7
370
    18
100
AcDbSpline
210
0.0
220
0.0
230
1.0
 70
     8
 71
     3
 72
    16
 73
    12
 74
     0
 42
0.000000001
 43
0.00000001
 40
0.0
 40
0.0
 40
0.0
 40
0.0
 40
0.086853702907488
 40
0.1701341436560083
 40
0.2503433596347182
 40
0.3802929851010923
 40
0.5004514139803401
 40
0.6277618781034624
 40
0.7501897212674503
 40
0.8702844003015076
 40
1.0
 40
1.0
 40
1.0
 40
1.0
 10
9.778054506340515
 20
7.877051662636504
 30
0.0
 10
9.77727116413659
 20
7.876620863450815
 30
0.0
 10
9.775736707336327
 20
7.875776988658015
 30
0.0
 10
9.773287854248604
 20
7.874684938426614
 30
0.0
 10
9.770255304816605
 20
7.873560671456667
 30
0.0
 10
9.766585854115037
 20
7.872566159324866
 30
0.0
 10
9.762077129442464
 20
7.871935815205356
 30
0.0
 10
9.757439918440694
 20
7.871944465193821
 30
0.0
 10
9.752862879693362
 20
7.872744744141697
 30
0.0
 10
9.748614437739377
 20
7.87425522760249
 30
0.0
 10
9.746288838197446
 20
7.875694287740404
 30
0.0
 10
9.745081255624099
 20
7.876441529005813
 30
0.0
  0
SPLINE
  5
24F
330
1F
100
AcDbEntity
  8
0
  6
Continuous
 62
     7
370
    18
100
AcDbSpline
210
0.0
220
0.0
230
1.0
 70
     8
 71
     3
 72
    16
 73
    12
 74
     0
 42
0.000000001
 43
0.00000001
 40
0.0
 40
0.0
 40
0.0
 40
0.0
 40
0.0878845782537854
 40
0.1705569909686231
 40
0.2500689206308396
 40
0.3724169225348817
 40
0.49974729848618
 40
0.6198049751022207
 40
0.7497944661634262
 40
0.8711190266325007
 40
1.0
 40
1.0
 40
1.0
 40
1.0
 10
9.782087726113696
 20
7.897804909687113
 30
0.0
 10
9.782830198994494
 20
7.897256805987221
 30
0.0
 10
9.784271110960402
 20
7.896193104941489
 30
0.0
 10
9.785936835021813
 20
7.894422135644193
 30
0.0
 10
9.78732849238703
 20
7.892266435630916
 30
0.0
 10
9.788057065532698
 20
7.889619084387224
 30
0.0
 10
9.787624202269285
 20
7.886685360367001
 30
0.0
 10
9.786196228704785
 20
7.883886055270071
 30
0.0
 10
9.784035471010492
 20
7.881382193431108
 30
0.0
 10
9.78129998282138
 20
7.879057615328551
 30
0.0
 10
9.779157896094427
 20
7.877733641896032
 30
0.0
 10
9.778054506340515
 20
7.877051662636504
 30
0.0
  0
SPLINE
  5
250
330
1F
100
AcDbEntity
  8
0
  6
Continuous
 62
     7
370
    18
100
AcDbSpline
210
0.0
220
0.0
230
1.0
 70
     8
 71
     3
 72
    16
 73
    12
 74
     0
 42
0.000000001
 43
0.00000001
 40
0.0
 40
0.0
 40
0.0
 40
0.0
 40
0.0868539517372725
 40
0.1701344596354663
 40
0.2503434097777292
 40
0.3802944903286864
 40
0.5004515211464571
 40
0.627762784986452
 40
0.750189753891091
 40
0.8702832122706724
 40
0.9999999999999999
 40
0.9999999999999999
 40
0.9999999999999999
 40
0.9999999999999999
 10
9.749089183766172
 20
7.896895965139439
 30
0.0
 10
9.749872589505316
 20
7.897327459858881
 30
0.0
 10
9.75140716921572
 20
7.898172696252383
 30
0.0
 10
9.753856874045242
 20
7.899275034865989
 30
0.0
 10
9.75689105040807
 20
7.900418863515984
 30
0.0
 10
9.760563293765504
 20
7.901447136219024
 30
0.0
 10
9.765076521907769
 20
7.902131180740301
 30
0.0
 10
9.769719042767454
 20
7.902185306487719
 30
0.0
 10
9.774301289416886
 20
7.901445879661844
 30
0.0
 10
9.778553703651868
 20
7.899981739280972
 30
0.0
 10
9.780879848938582
 20
7.898548918195528
 30
0.0
 10
9.782087726113696
 20
7.897804909687113
 30
0.0
  0
SPLINE
  5
251
330
1F
100
AcDbEntity
  8
0
  6
Continuous
 62
     7
370
    18
100
AcDbSpline
210
0.0
220
0.0
230
1.0
 70
     8
 71
     3
 72
    13
 73
     9
 74
     0
 42
0.000000001
 43
0.00000001
 40
0.0
 40
0.0
 40
0.0
 40
0.0
 40
0.1425908343581913
 40
0.2703746640135877
 40
0.3879246576976379
 40
0.5010618644878004
 40
0.7288700430560033
 40
1.0
 40
1.0
 40
1.0
 40
1.0
 10
9.683829985653146
 20
7.923841466288245
 30
0.0
 10
9.684422192802812
 20
7.924155911237079
 30
0.0
 10
9.685545110764812
 20
7.924752148349897
 30
0.0
 10
9.687431948125731
 20
7.925404535518672
 30
0.0
 10
9.68935140396405
 20
7.925791570090189
 30
0.0
 10
9.69194367787786
 20
7.925930281709692
 30
0.0
 10
9.695411604439547
 20
7.925357480290119
 30
0.0
 10
9.697538717721875
 20
7.9242422518325
 30
0.0
 10
9.698694620812065
 20
7.92363622110008
 30
0.0
  0
SPLINE
  5
252
330
1F
100
AcDbEntity
  8
0
  6
Continuous
 62
     7
370
    18
100
AcDbSpline
210
0.0
220
0.0
230
1.0
 70
     8
 71
     3
 72
    12
 73
     8
 74
     0
 42
0.000000001
 43
0.00000001
 40
0.0
 40
0.0
 40
0.0
 40
0.0
 40
0.1856938502256431
 40
0.3507146240742365
 40
0.5020056907033543
 40
0.7428233595072898
 40
1.0
 40
1.0
 40
1.0
 40
1.0
 10
9.685344514103514
 20
7.915107820535173
 30
0.0
 10
9.684635163695278
 20
7.915565680134315
 30
0.0
 10
9.683295434019474
 20
7.916430426365797
 30
0.0
 10
9.681864078804196
 20
7.917882774234106
 30
0.0
 10
9.680905898716098
 20
7.919635002721026
 30
0.0
 10
9.681085819870528
 20
7.9218915220288
 30
0.0
 10
9.682895448463752
 20
7.923177404576215
 30
0.0
 10
9.683829985653146
 20
7.923841466288245
 30
0.0
  0
ARC
  5
253
330
1F
100
AcDbEntity
  8
0
  6
Continuous
 62
     7
370
    18
100
AcDbCircle
 10
9.1355615755
 20
6.9918412233
 30
0.0
 40
1.074561533439337
100
AcDbArc
 50
58.4191651996
 51
59.2272240533
  0
LINE
  5
254
330
1F
100
AcDbEntity
  8
0
  6
Continuous
 62
     7
370
    18
100
AcDbLine
 10
9.7123614652
 20
7.9153739611
 30
0.0
 11
9.698310501
 21
7.9072625121
 31
0.0
  0
ARC
  5
255
330
1F
100
AcDbEntity
  8
0
  6
Continuous
 62
     7
370
    18
100
AcDbCircle
 10
9.1499811454
 20
7.0005588259
 30
0.0
 40
1.073852110669342
100
AcDbArc
 50
58.4189823391
 51
59.2710866448
  0
SPLINE
  5
256
330
1F
100
AcDbEntity
  8
0
  6
Continuous
 62
     7
370
    18
100
AcDbSpline
210
0.0
220
0.0
230
1.0
 70
     8
 71
     3
 72
    16
 73
    12
 74
     0
 42
0.000000001
 43
0.00000001
 40
0.0
 40
0.0
 40
0.0
 40
0.0
 40
0.4001205164517837
 40
0.6401822362263498
 40
0.7842069733878606
 40
0.8706078660468012
 40
0.9224338039729233
 40
0.9535181679161095
 40
0.9721615460706085
 40
0.9856197803892062
 40
1.0
 40
1.0
 40
1.0
 40
1.0
 10
9.524719009514534
 20
8.01410144094366
 30
0.0
 10
9.523417028436667
 20
8.015010669226582
 30
0.0
 10
9.521333893171962
 20
8.016465410414469
 30
0.0
 10
9.519032692388844
 20
8.018300597092011
 30
0.0
 10
9.517820943425784
 20
8.019450418695765
 30
0.0
 10
9.517238615642942
 20
8.020181473374409
 30
0.0
 10
9.517008925902578
 20
8.020651307085865
 30
0.0
 10
9.51697713920487
 20
8.02095532522989
 30
0.0
 10
9.517039730332089
 20
8.021155923474685
 30
0.0
 10
9.517179891308002
 20
8.02130843748882
 30
0.0
 10
9.517327375655642
 20
8.021387448799686
 30
0.0
 10
9.517403560105882
 20
8.02142826284794
 30
0.0
  0
SPLINE
  5
257
330
1F
100
AcDbEntity
  8
0
  6
Continuous
 62
     7
370
    18
100
AcDbSpline
210
0.0
220
0.0
230
1.0
 70
     8
 71
     3
 72
    12
 73
     8
 74
     0
 42
0.000000001
 43
0.00000001
 40
0.0
 40
0.0
 40
0.0
 40
0.0
 40
0.1939642670862794
 40
0.3579085709614428
 40
0.5005142249745261
 40
0.7492203065063914
 40
1.0
 40
1.0
 40
1.0
 40
1.0
 10
9.527202288921156
 20
8.020332833276719
 30
0.0
 10
9.527637197712608
 20
8.02001516937121
 30
0.0
 10
9.528439704207155
 20
8.019429006588885
 30
0.0
 10
9.529049220231117
 20
8.018435332410755
 30
0.0
 10
9.52900371939347
 20
8.017178162871355
 30
0.0
 10
9.527407122266748
 20
8.015642401215459
 30
0.0
 10
9.52561752360103
 20
8.014616514022274
 30
0.0
 10
9.524719009514534
 20
8.01410144094366
 30
0.0
  0
SPLINE
  5
258
330
1F
100
AcDbEntity
  8
0
  6
Continuous
 62
     7
370
    18
100
AcDbSpline
210
0.0
220
0.0
230
1.0
 70
     8
 71
     3
 72
    12
 73
     8
 74
     0
 42
0.000000001
 43
0.00000001
 40
0.0
 40
0.0
 40
0.0
 40
0.0
 40
0.1365151570279644
 40
0.2503499218986185
 40
0.4975047058764682
 40
0.7123240158311344
 40
1.0
 40
1.0
 40
1.0
 40
1.0
 10
9.517403560105882
 20
8.02142826284794
 30
0.0
 10
9.517934782329906
 20
8.021627450430671
 30
0.0
 10
9.518908970436124
 20
8.02199273291553
 30
0.0
 10
9.521123118813591
 20
8.022445917534316
 30
0.0
 10
9.523438203975351
 20
8.022185191388274
 30
0.0
 10
9.52546082066575
 20
8.021381071287502
 30
0.0
 10
9.526568276260818
 20
8.020714463069751
 30
0.0
 10
9.527202288921156
 20
8.020332833276719
 30
0.0
  0
SPLINE
  5
259
330
1F
100
AcDbEntity
  8
0
  6
Continuous
 62
     7
370
    18
100
AcDbSpline
210
0.0
220
0.0
230
1.0
 70
     8
 71
     3
 72
    15
 73
    11
 74
     0
 42
0.000000001
 43
0.00000001
 40
0.0
 40
0.0
 40
0.0
 40
0.0
 40
0.1172105103674157
 40
0.2376344990800131
 40
0.364300352965583
 40
0.499818647120072
 40
0.622658946721093
 40
0.7499125374139876
 40
0.8772880032803354
 40
1.0
 40
1.0
 40
1.0
 40
1.0
 10
9.538844597815755
 20
8.009413430406838
 30
0.0
 10
9.538415359112099
 20
8.00914189271397
 30
0.0
 10
9.537545113568335
 20
8.00859137276978
 30
0.0
 10
9.536544379348292
 20
8.007674399844438
 30
0.0
 10
9.535761430767332
 20
8.00669032670919
 30
0.0
 10
9.535248485162253
 20
8.005693174838505
 30
0.0
 10
9.534952227714617
 20
8.004703147481836
 30
0.0
 10
9.534859193285264
 20
8.0037496914556
 30
0.0
 10
9.534925313436817
 20
8.00281364470529
 30
0.0
 10
9.535133254883894
 20
8.002220005645746
 30
0.0
 10
9.535235286828668
 20
8.001928721014465
 30
0.0
  0
ARC
  5
25A
330
1F
100
AcDbEntity
  8
0
  6
Continuous
 62
     7
370
    18
100
AcDbCircle
 10
9.3061920678
 20
7.3172490452
 30
0.0
 40
0.7302182795917513
100
AcDbArc
 50
71.4213073298
 51
72.5650678993
  0
SPLINE
  5
25B
330
1F
100
AcDbEntity
  8
0
  6
Continuous
 62
     7
370
    18
100
AcDbSpline
210
0.0
220
0.0
230
1.0
 70
     8
 71
     3
 72
     8
 73
     4
 74
     0
 42
0.000000001
 43
0.00000001
 40
0.0
 40
0.0
 40
0.0
 40
0.0
 40
1.0
 40
1.0
 40
1.0
 40
1.0
 10
9.526897110397522
 20
8.01262129886645
 30
0.0
 10
9.52625835072768
 20
8.013056080974625
 30
0.0
 10
9.525619947879463
 20
8.013488819903689
 30
0.0
 10
9.524981907492922
 20
8.01391951387056
 30
0.0
  0
SPLINE
  5
25C
330
1F
100
AcDbEntity
  8
0
  6
Continuous
 62
     7
370
    18
100
AcDbSpline
210
0.0
220
0.0
230
1.0
 70
     8
 71
     3
 72
    14
 73
    10
 74
     0
 42
0.000000001
 43
0.00000001
 40
0.0
 40
0.0
 40
0.0
 40
0.0
 40
0.0834612178672428
 40
0.1660606705290535
 40
0.2500601790359253
 40
0.3706672473649859
 40
0.5001133223702247
 40
0.73779238286907
 40
1.0
 40
1.0
 40
1.0
 40
1.0
 10
9.526779229863768
 20
8.000192214367027
 30
0.0
 10
9.527333528693411
 20
8.00053982203355
 30
0.0
 10
9.528436403030456
 20
8.001231448200276
 30
0.0
 10
9.529692785398586
 20
8.00236531108585
 30
0.0
 10
9.530734940843264
 20
8.003700014117639
 30
0.0
 10
9.53136695537449
 20
8.005260989926649
 30
0.0
 10
9.531389946915308
 20
8.007447157798602
 30
0.0
 10
9.530191899494504
 20
8.010067565709337
 30
0.0
 10
9.528030721820686
 20
8.011742656563891
 30
0.0
 10
9.526897110397522
 20
8.01262129886645
 30
0.0
  0
SPLINE
  5
25D
330
1F
100
AcDbEntity
  8
0
  6
Continuous
 62
     7
370
    18
100
AcDbSpline
210
0.0
220
0.0
230
1.0
 70
     8
 71
     3
 72
    11
 73
     7
 74
     0
 42
0.000000001
 43
0.00000001
 40
0.0
 40
0.0
 40
0.0
 40
0.0
 40
0.250291853252565
 40
0.5005304601898904
 40
0.758204616865194
 40
0.9999999999999999
 40
0.9999999999999999
 40
0.9999999999999999
 40
0.9999999999999999
 10
9.535235286828668
 20
8.001928721014465
 30
0.0
 10
9.5345116116217
 20
8.001828326118249
 30
0.0
 10
9.533064415160188
 20
8.001627557683516
 30
0.0
 10
9.530873928227129
 20
8.00132206636732
 30
0.0
 10
9.528715723667622
 20
8.000870124298821
 30
0.0
 10
9.527410900467283
 20
8.000413343799455
 30
0.0
 10
9.526779229863768
 20
8.000192214367027
 30
0.0
  0
SPLINE
  5
25E
330
1F
100
AcDbEntity
  8
0
  6
Continuous
 62
     7
370
    18
100
AcDbSpline
210
0.0
220
0.0
230
1.0
 70
     8
 71
     3
 72
    16
 73
    12
 74
     0
 42
0.000000001
 43
0.00000001
 40
0.0
 40
0.0
 40
0.0
 40
0.0
 40
0.041988797764177
 40
0.082712356796362
 40
0.1246246182170234
 40
0.1818243070108836
 40
0.2495508204580934
 40
0.3579904118142161
 40
0.4996262300809818
 40
0.749814685588154
 40
1.0
 40
1.0
 40
1.0
 40
1.0
 10
9.50569206746363
 20
8.002418283170512
 30
0.0
 10
9.505934633445603
 20
8.002577458312027
 30
0.0
 10
9.506412456224913
 20
8.002891012207334
 30
0.0
 10
9.506855868720155
 20
8.003407660542607
 30
0.0
 10
9.507067485207962
 20
8.003980162779987
 30
0.0
 10
9.506963890004073
 20
8.00462042300646
 30
0.0
 10
9.506469501667544
 20
8.005433716631764
 30
0.0
 10
9.505397514226445
 20
8.0064207345504
 30
0.0
 10
9.503368025102656
 20
8.00783604090086
 30
0.0
 10
9.50044475952369
 20
8.009503620517943
 30
0.0
 10
9.498280590088095
 20
8.01081808636005
 30
0.0
 10
9.497198512163083
 20
8.011475315155327
 30
0.0
  0
SPLINE
  5
25F
330
1F
100
AcDbEntity
  8
0
  6
Continuous
 62
     7
370
    18
100
AcDbSpline
210
0.0
220
0.0
230
1.0
 70
     8
 71
     3
 72
    12
 73
     8
 74
     0
 42
0.000000001
 43
0.00000001
 40
0.0
 40
0.0
 40
0.0
 40
0.0
 40
0.1850757725174462
 40
0.3513991439191592
 40
0.5030708375501383
 40
0.7553262096964192
 40
1.0
 40
1.0
 40
1.0
 40
1.0
 10
9.493990221203939
 20
8.001788739887845
 30
0.0
 10
9.494582492012299
 20
8.001626358492482
 30
0.0
 10
9.49570702307433
 20
8.001318048644345
 30
0.0
 10
9.497569482232548
 20
8.001034451912036
 30
0.0
 10
9.4998515153973
 20
8.000899177865993
 30
0.0
 10
9.502929944697597
 20
8.001138824965036
 30
0.0
 10
9.504780772485718
 20
8.001996157169657
 30
0.0
 10
9.50569206746363
 20
8.002418283170512
 30
0.0
  0
SPLINE
  5
260
330
1F
100
AcDbEntity
  8
0
  6
Continuous
 62
     7
370
    18
100
AcDbSpline
210
0.0
220
0.0
230
1.0
 70
     8
 71
     3
 72
    14
 73
    10
 74
     0
 42
0.000000001
 43
0.00000001
 40
0.0
 40
0.0
 40
0.0
 40
0.0
 40
0.1068615746810479
 40
0.2052659519871004
 40
0.3000605039169162
 40
0.3966376896667714
 40
0.5001116402248097
 40
0.7287113645081605
 40
1.0
 40
1.0
 40
1.0
 40
1.0
 10
9.491928756473271
 20
8.008301264065253
 30
0.0
 10
9.491474194807662
 20
8.008035675326932
 30
0.0
 10
9.490601046219815
 20
8.0075255169714
 30
0.0
 10
9.489670353369828
 20
8.006708333382864
 30
0.0
 10
9.4891368118
 20
8.005906232880877
 30
0.0
 10
9.489022483327398
 20
8.005119847244183
 30
0.0
 10
9.489427826489864
 20
8.004079787430276
 30
0.0
 10
9.49093344705444
 20
8.00285077000891
 30
0.0
 10
9.492914893369845
 20
8.002162346341567
 30
0.0
 10
9.493990221203939
 20
8.001788739887845
 30
0.0
  0
ARC
  5
261
330
1F
100
AcDbEntity
  8
0
  6
Continuous
 62
     7
370
    18
100
AcDbCircle
 10
9.3021296467
 20
7.3523390922
 30
0.0
 40
0.6828690013693905
100
AcDbArc
 50
73.8624858013
 51
75.0990437217
  0
SPLINE
  5
262
330
1F
100
AcDbEntity
  8
0
  6
Continuous
 62
     7
370
    18
100
AcDbSpline
210
0.0
220
0.0
230
1.0
 70
     8
 71
     3
 72
    16
 73
    12
 74
     0
 42
0.000000001
 43
0.00000001
 40
0.0
 40
0.0
 40
0.0
 40
0.0
 40
0.0858887189072808
 40
0.1691317071373654
 40
0.2503206416192116
 40
0.3795480212532122
 40
0.5004108523673095
 40
0.6276529205939549
 40
0.7501891122953628
 40
0.8711465880943917
 40
1.0
 40
1.0
 40
1.0
 40
1.0
 10
9.481527629014078
 20
7.995607474907978
 30
0.0
 10
9.480647581910514
 20
7.995890902475856
 30
0.0
 10
9.478914596823758
 20
7.996449026860699
 30
0.0
 10
9.476644528112638
 20
7.997413936389131
 30
0.0
 10
9.474284009717108
 20
7.998667850312811
 30
0.0
 10
9.472135536982128
 20
8.00027574973971
 30
0.0
 10
9.470632853222765
 20
8.002386449547453
 30
0.0
 10
9.47030092210302
 20
8.004720719385098
 30
0.0
 10
9.47142315813609
 20
8.007241206757215
 30
0.0
 10
9.473883386855794
 20
8.009812604561736
 30
0.0
 10
9.476420184426525
 20
8.011416918467983
 30
0.0
 10
9.477728674321845
 20
8.01224442972054
 30
0.0
  0
SPLINE
  5
263
330
1F
100
AcDbEntity
  8
0
  6
Continuous
 62
     7
370
    18
100
AcDbSpline
210
0.0
220
0.0
230
1.0
 70
     8
 71
     3
 72
    17
 73
    13
 74
     0
 42
0.000000001
 43
0.00000001
 40
0.0
 40
0.0
 40
0.0
 40
0.0
 40
0.0655383645488515
 40
0.1283369618941107
 40
0.1894667056585361
 40
0.2500870193887258
 40
0.3707596034393053
 40
0.4997779185932086
 40
0.620214103539645
 40
0.7498367643295519
 40
0.873178975909541
 40
1.0
 40
1.0
 40
1.0
 40
1.0
 10
9.520971787841924
 20
7.998287562199146
 30
0.0
 10
9.520249311532966
 20
7.997892780563451
 30
0.0
 10
9.518834561330236
 20
7.997119720752064
 30
0.0
 10
9.516469187940293
 20
7.996099289396527
 30
0.0
 10
9.513992606301564
 20
7.995223596143744
 30
0.0
 10
9.510545419030812
 20
7.994265372787362
 30
0.0
 10
9.505889689467317
 20
7.993429443123529
 30
0.0
 10
9.500395364062385
 20
7.993070138590137
 30
0.0
 10
9.495057837868552
 20
7.993190912288102
 30
0.0
 10
9.49017466961587
 20
7.993700312145452
 30
0.0
 10
9.48556605785897
 20
7.994497213901664
 30
0.0
 10
9.48288619417579
 20
7.995233972741289
 30
0.0
 10
9.481527629014078
 20
7.995607474907978
 30
0.0
  0
SPLINE
  5
264
330
1F
100
AcDbEntity
  8
0
  6
Continuous
 62
     7
370
    18
100
AcDbSpline
210
0.0
220
0.0
230
1.0
 70
     8
 71
     3
 72
    14
 73
    10
 74
     0
 42
0.000000001
 43
0.00000001
 40
0.0
 40
0.0
 40
0.0
 40
0.0
 40
0.1353446981155584
 40
0.2504337965203048
 40
0.5001146929610825
 40
0.6280243657334145
 40
0.7500318906504422
 40
0.8699430627773563
 40
1.0
 40
1.0
 40
1.0
 40
1.0
 10
9.521052707304568
 20
8.01285810511431
 30
0.0
 10
9.521790140456545
 20
8.01234008452121
 30
0.0
 10
9.52315464299341
 20
8.01138156996089
 30
0.0
 10
9.525506790150285
 20
8.009311535500608
 30
0.0
 10
9.527124939304242
 20
8.006990463623948
 30
0.0
 10
9.527108531288075
 20
8.004306551401788
 30
0.0
 10
9.52604827738123
 20
8.002233518531996
 30
0.0
 10
9.52399720663273
 20
8.000182973593834
 30
0.0
 10
9.522007184601419
 20
7.998936233656445
 30
0.0
 10
9.520971787841924
 20
7.998287562199146
 30
0.0
  0
SPLINE
  5
265
330
1F
100
AcDbEntity
  8
0
  6
Continuous
 62
     7
370
    18
100
AcDbSpline
210
0.0
220
0.0
230
1.0
 70
     8
 71
     3
 72
    15
 73
    11
 74
     0
 42
0.000000001
 43
0.00000001
 40
0.0
 40
0.0
 40
0.0
 40
0.0
 40
0.0636354733929328
 40
0.1245575091145006
 40
0.1828822692052722
 40
0.2494729841288476
 40
0.3589168746543335
 40
0.4995287311819471
 40
0.7497549244030919
 40
1.0
 40
1.0
 40
1.0
 40
1.0
 10
9.51350058632128
 20
8.02227600903161
 30
0.0
 10
9.513126658984422
 20
8.022030128405842
 30
0.0
 10
9.512394748696254
 20
8.02154885158566
 30
0.0
 10
9.51184894444663
 20
8.02078163270094
 30
0.0
 10
9.511749781197192
 20
8.020046159844936
 30
0.0
 10
9.512045155253084
 20
8.019191595232499
 30
0.0
 10
9.512950653674428
 20
8.018165293240019
 30
0.0
 10
9.514857532232375
 20
8.016696521405716
 30
0.0
 10
9.517750514450164
 20
8.014965186379612
 30
0.0
 10
9.519951948666991
 20
8.013560483202182
 30
0.0
 10
9.521052707304568
 20
8.01285810511431
 30
0.0
  0
SPLINE
  5
266
330
1F
100
AcDbEntity
  8
0
  6
Continuous
 62
     7
370
    18
100
AcDbSpline
210
0.0
220
0.0
230
1.0
 70
     8
 71
     3
 72
    12
 73
     8
 74
     0
 42
0.000000001
 43
0.00000001
 40
0.0
 40
0.0
 40
0.0
 40
0.0
 40
0.1846929186959972
 40
0.3512136735780778
 40
0.5031505542975973
 40
0.7609110650788653
 40
1.0
 40
1.0
 40
1.0
 40
1.0
 10
9.527969486142258
 20
8.02302435575427
 30
0.0
 10
9.52723902463506
 20
8.02322311237369
 30
0.0
 10
9.525849972628293
 20
8.023601069703872
 30
0.0
 10
9.523565094229667
 20
8.02394552348011
 30
0.0
 10
9.520747930272806
 20
8.02411025985928
 30
0.0
 10
9.516953644150934
 20
8.023849553371294
 30
0.0
 10
9.514622402957631
 20
8.022787216287723
 30
0.0
 10
9.51350058632128
 20
8.02227600903161
 30
0.0
  0
SPLINE
  5
267
330
1F
100
AcDbEntity
  8
0
  6
Continuous
 62
     7
370
    18
100
AcDbSpline
210
0.0
220
0.0
230
1.0
 70
     8
 71
     3
 72
    13
 73
     9
 74
     0
 42
0.000000001
 43
0.00000001
 40
0.0
 40
0.0
 40
0.0
 40
0.0
 40
0.1432438844984063
 40
0.2703169009185618
 40
0.3869363478405152
 40
0.5004107579319228
 40
0.7202417245554179
 40
1.0
 40
1.0
 40
1.0
 40
1.0
 10
9.529618881689574
 20
8.01478709091501
 30
0.0
 10
9.530298064181341
 20
8.015237793169891
 30
0.0
 10
9.531579755940648
 20
8.016088317694575
 30
0.0
 10
9.532901209090605
 20
8.017399068399367
 30
0.0
 10
9.533564783746312
 20
8.01862640926488
 30
0.0
 10
9.533504941965004
 20
8.020092690035295
 30
0.0
 10
9.531751360902325
 20
8.021724586681922
 30
0.0
 10
9.529327045814995
 20
8.022557784493074
 30
0.0
 10
9.527969486142258
 20
8.02302435575427
 30
0.0
  0
ARC
  5
268
330
1F
100
AcDbEntity
  8
0
  6
Continuous
 62
     7
370
    18
100
AcDbCircle
 10
9.3077990853
 20
7.3156845119
 30
0.0
 40
0.7334496834016621
100
AcDbArc
 50
71.2691101219
 51
72.3961730362
  0
SPLINE
  5
269
330
1F
100
AcDbEntity
  8
0
  6
Continuous
 62
     7
370
    18
100
AcDbSpline
210
0.0
220
0.0
230
1.0
 70
     8
 71
     3
 72
    13
 73
     9
 74
     0
 42
0.000000001
 43
0.00000001
 40
0.0
 40
0.0
 40
0.0
 40
0.0
 40
0.1295958158308226
 40
0.2542697054819068
 40
0.3769362042452181
 40
0.5006518019749001
 40
0.7451248262444934
 40
1.0
 40
1.0
 40
1.0
 40
1.0
 10
9.540909666311746
 20
8.00016804134355
 30
0.0
 10
9.540478050120045
 20
8.000527958394352
 30
0.0
 10
9.539631210110267
 20
8.001234123187707
 30
0.0
 10
9.538867368140608
 20
8.002424426005678
 30
0.0
 10
9.53853064808281
 20
8.003679375864744
 30
0.0
 10
9.538694579106169
 20
8.005417371137089
 30
0.0
 10
9.539919792854837
 20
8.007722632472683
 30
0.0
 10
9.54217566523624
 20
8.00942155443387
 30
0.0
 10
9.543327097978871
 20
8.010288710922602
 30
0.0
  0
SPLINE
  5
26A
330
1F
100
AcDbEntity
  8
0
  6
Continuous
 62
     7
370
    18
100
AcDbSpline
210
0.0
220
0.0
230
1.0
 70
     8
 71
     3
 72
    13
 73
     9
 74
     0
 42
0.000000001
 43
0.00000001
 40
0.0
 40
0.0
 40
0.0
 40
0.0
 40
0.1276872447700861
 40
0.251793957842993
 40
0.3750979998822296
 40
0.5004306133703601
 40
0.7438333130114492
 40
1.0
 40
1.0
 40
1.0
 40
1.0
 10
9.522325717547279
 20
7.996170589384355
 30
0.0
 10
9.522958547428294
 20
7.996511953782335
 30
0.0
 10
9.524206461741658
 20
7.99718511023574
 30
0.0
 10
9.526345947032139
 20
7.998056894400815
 30
0.0
 10
9.528632721864428
 20
7.998795904615871
 30
0.0
 10
9.53181032001917
 20
7.999566537479894
 30
0.0
 10
9.536035288357958
 20
8.00019961924477
 30
0.0
 10
9.539257431761696
 20
8.000178745088705
 30
0.0
 10
9.540909666311746
 20
8.00016804134355
 30
0.0
  0
SPLINE
  5
26B
330
1F
100
AcDbEntity
  8
0
  6
Continuous
 62
     7
370
    18
100
AcDbSpline
210
0.0
220
0.0
230
1.0
 70
     8
 71
     3
 72
    15
 73
    11
 74
     0
 42
0.000000001
 43
0.00000001
 40
0.0
 40
0.0
 40
0.0
 40
0.0
 40
0.1458867130972056
 40
0.276809978778031
 40
0.3943411289714265
 40
0.5006470255732008
 40
0.6263788819591923
 40
0.7446183697339246
 40
0.8658882858660403
 40
1.0
 40
1.0
 40
1.0
 40
1.0
 10
9.52825616639735
 20
7.980893011361108
 30
0.0
 10
9.526918300395616
 20
7.98139861950918
 30
0.0
 10
9.52437979190718
 20
7.982357976106955
 30
0.0
 10
9.521218860226607
 20
7.983936064818882
 30
0.0
 10
9.518823573483045
 20
7.985534207433846
 30
0.0
 10
9.517082836599895
 20
7.987312577324054
 30
0.0
 10
9.516245776725935
 20
7.989333536841832
 30
0.0
 10
9.516829872969756
 20
7.991633686578669
 30
0.0
 10
9.518871525792694
 20
7.993986959438933
 30
0.0
 10
9.521136358129935
 20
7.995418714264471
 30
0.0
 10
9.522325717547279
 20
7.996170589384355
 30
0.0
  0
ARC
  5
26C
330
1F
100
AcDbEntity
  8
0
  6
Continuous
 62
     7
370
    18
100
AcDbCircle
 10
9.2461073399
 20
7.2263771794
 30
0.0
 40
0.8055445990314012
100
AcDbArc
 50
67.508092275
 51
69.4968743051
  0
LINE
  5
26D
330
1F
100
AcDbEntity
  8
0
  6
Continuous
 62
     7
370
    18
100
AcDbLine
 10
9.6067024543
 20
8.0009150301
 30
0.0
 11
9.5542707967
 21
7.9706468784
 31
0.0
  0
SPLINE
  5
26E
330
1F
100
AcDbEntity
  8
0
  6
Continuous
 62
     7
370
    18
100
AcDbSpline
210
0.0
220
0.0
230
1.0
 70
     8
 71
     3
 72
     8
 73
     4
 74
     0
 42
0.000000001
 43
0.00000001
 40
0.0
 40
0.0
 40
0.0
 40
0.0
 40
1.0
 40
1.0
 40
1.0
 40
1.0
 10
9.573971832183139
 20
7.962197697999359
 30
0.0
 10
9.58487161911195
 20
7.975206374298071
 30
0.0
 10
9.595781112674258
 20
7.988112457783124
 30
0.0
 10
9.606702454302624
 20
8.000915030058627
 30
0.0
  0
ARC
  5
26F
330
1F
100
AcDbEntity
  8
0
  6
Continuous
 62
     7
370
    18
100
AcDbCircle
 10
9.2175727029
 20
7.1593034261
 30
0.0
 40
0.8784415468396422
100
AcDbArc
 50
65.0016267879
 51
66.0639013035
  0
SPLINE
  5
270
330
1F
100
AcDbEntity
  8
0
  6
Continuous
 62
     7
370
    18
100
AcDbSpline
210
0.0
220
0.0
230
1.0
 70
     8
 71
     3
 72
     8
 73
     4
 74
     0
 42
0.000000001
 43
0.00000001
 40
0.0
 40
0.0
 40
0.0
 40
0.0
 40
1.0
 40
1.0
 40
1.0
 40
1.0
 10
9.6486312084294
 20
7.972768917739226
 30
0.0
 10
9.628681286458894
 20
7.967065584258322
 30
0.0
 10
9.608735661088952
 20
7.961293597536838
 30
0.0
 10
9.588795537716733
 20
7.955452380827312
 30
0.0
  0
ARC
  5
271
330
1F
100
AcDbEntity
  8
0
  6
Continuous
 62
     7
370
    18
100
AcDbCircle
 10
9.2304516814
 20
7.1208847203
 30
0.0
 40
0.9489893585845548
100
AcDbArc
 50
62.027434267
 51
63.8541435222
  0
LINE
  5
272
330
1F
100
AcDbEntity
  8
0
  6
Continuous
 62
     7
370
    18
100
AcDbLine
 10
9.6320543689
 20
7.9338825041
 30
0.0
 11
9.675573942
 21
7.9590058188
 31
0.0
  0
ARC
  5
273
330
1F
100
AcDbEntity
  8
0
  6
Continuous
 62
     7
370
    18
100
AcDbCircle
 10
9.1679867929
 20
7.0598711058
 30
0.0
 40
0.9895729580900565
100
AcDbArc
 50
61.0676069359
 51
62.0333586796
  0
LINE
  5
274
330
1F
100
AcDbEntity
  8
0
  6
Continuous
 62
     7
370
    18
100
AcDbLine
 10
9.7029607565
 20
7.958403883
 30
0.0
 11
9.6467196907
 21
7.9259366068
 31
0.0
  0
ARC
  5
275
330
1F
100
AcDbEntity
  8
0
  6
Continuous
 62
     7
370
    18
100
AcDbCircle
 10
9.241487443
 20
7.1245269396
 30
0.0
 40
0.9530521370117762
100
AcDbArc
 50
61.0395523637
 51
64.5520124677
  0
SPLINE
  5
276
330
1F
100
AcDbEntity
  8
0
  6
Continuous
 62
     7
370
    18
100
AcDbSpline
210
0.0
220
0.0
230
1.0
 70
     8
 71
     3
 72
     8
 73
     4
 74
     0
 42
0.000000001
 43
0.00000001
 40
0.0
 40
0.0
 40
0.0
 40
0.0
 40
1.0
 40
1.0
 40
1.0
 40
1.0
 10
9.637265253458045
 20
7.981644729293277
 30
0.0
 10
9.641845111485063
 20
7.98280449142481
 30
0.0
 10
9.646425335837378
 20
7.98395953978735
 30
0.0
 10
9.651005905080613
 20
7.985109884497736
 30
0.0
  0
ARC
  5
277
330
1F
100
AcDbEntity
  8
0
  6
Continuous
 62
     7
370
    18
100
AcDbCircle
 10
9.264281549
 20
7.1861634524
 30
0.0
 40
0.8785825548115779
100
AcDbArc
 50
64.8791506757
 51
66.175270185
  0
SPLINE
  5
278
330
1F
100
AcDbEntity
  8
0
  6
Continuous
 62
     7
370
    18
100
AcDbSpline
210
0.0
220
0.0
230
1.0
 70
     8
 71
     3
 72
     8
 73
     4
 74
     0
 42
0.000000001
 43
0.00000001
 40
0.0
 40
0.0
 40
0.0
 40
0.0
 40
1.0
 40
1.0
 40
1.0
 40
1.0
 10
9.624574540613281
 20
7.997221783026013
 30
0.0
 10
9.622774685752749
 20
7.994778418548686
 30
0.0
 10
9.620975290969831
 20
7.99233047169922
 30
0.0
 10
9.619176336108293
 20
7.989877951312602
 30
0.0
  0
ARC
  5
279
330
1F
100
AcDbEntity
  8
0
  6
Continuous
 62
     7
370
    18
100
AcDbCircle
 10
9.2981620436
 20
7.247942065
 30
0.0
 40
0.8172913886988384
100
AcDbArc
 50
66.4603714199
 51
69.5380909236
  0
SPLINE
  5
27A
330
1F
100
AcDbEntity
  8
0
  6
Continuous
 62
     7
370
    18
100
AcDbSpline
210
0.0
220
0.0
230
1.0
 70
     8
 71
     3
 72
    16
 73
    12
 74
     0
 42
0.000000001
 43
0.00000001
 40
0.0
 40
0.0
 40
0.0
 40
0.0
 40
0.0766651208529868
 40
0.1494856279547333
 40
0.2196357611453269
 40
0.2884266436626062
 40
0.3572471290063254
 40
0.4274843142351672
 40
0.5004445390924682
 40
0.7278988217780475
 40
1.0
 40
1.0
 40
1.0
 40
1.0
 10
9.548107521703972
 20
8.012897651541577
 30
0.0
 10
9.548956693264605
 20
8.013274721165105
 30
0.0
 10
9.550612452005609
 20
8.014009951069244
 30
0.0
 10
9.55327450098669
 20
8.014946183145677
 30
0.0
 10
9.555975450740373
 20
8.015711864953982
 30
0.0
 10
9.558729747238685
 20
8.016296794339068
 30
0.0
 10
9.561530083189973
 20
8.016700624193263
 30
0.0
 10
9.564375337455743
 20
8.01692173533043
 30
0.0
 10
9.569233535576167
 20
8.016981650709742
 30
0.0
 10
9.576252411933735
 20
8.016180010018987
 30
0.0
 10
9.581186816735398
 20
8.014552679037926
 30
0.0
 10
9.583874521035371
 20
8.01366629361738
 30
0.0
  0
SPLINE
  5
27B
330
1F
100
AcDbEntity
  8
0
  6
Continuous
 62
     7
370
    18
100
AcDbSpline
210
0.0
220
0.0
230
1.0
 70
     8
 71
     3
 72
    16
 73
    12
 74
     0
 42
0.000000001
 43
0.00000001
 40
0.0
 40
0.0
 40
0.0
 40
0.0
 40
0.086090284846683
 40
0.1693397472366583
 40
0.2502354798648647
 40
0.3786318569387676
 40
0.5002969722943514
 40
0.6274173014675839
 40
0.7501738374730219
 40
0.8729045632741854
 40
1.0
 40
1.0
 40
1.0
 40
1.0
 10
9.54085019997832
 20
8.029717795308816
 30
0.0
 10
9.541708247508739
 20
8.029440904729732
 30
0.0
 10
9.543396028565303
 20
8.0288962604559
 30
0.0
 10
9.545638289129036
 20
8.027941884026951
 30
0.0
 10
9.548000690361402
 20
8.026695605736347
 30
0.0
 10
9.550228207279776
 20
8.025078571699488
 30
0.0
 10
9.551981113415849
 20
8.022954379282686
 30
0.0
 10
9.552778687290957
 20
8.020608193002692
 30
0.0
 10
9.552417849429139
 20
8.018067235310252
 30
0.0
 10
9.550937560770118
 20
8.015445253708204
 30
0.0
 10
9.549061791907048
 20
8.01375668591534
 30
0.0
 10
9.548107521703972
 20
8.012897651541577
 30
0.0
  0
SPLINE
  5
27C
330
1F
100
AcDbEntity
  8
0
  6
Continuous
 62
     7
370
    18
100
AcDbSpline
210
0.0
220
0.0
230
1.0
 70
     8
 71
     3
 72
    17
 73
    13
 74
     0
 42
0.000000001
 43
0.00000001
 40
0.0
 40
0.0
 40
0.0
 40
0.0
 40
0.0666422575220026
 40
0.130022980176573
 40
0.1909111116916793
 40
0.2501727024458189
 40
0.3728979504945038
 40
0.4998076111857817
 40
0.6197138309478314
 40
0.7498145665246202
 40
0.8710535484117972
 40
1.0
 40
1.0
 40
1.0
 40
1.0
 10
9.497581421601115
 20
8.025178595487047
 30
0.0
 10
9.498388498153037
 20
8.025626122481693
 30
0.0
 10
9.499963152170078
 20
8.02649927407825
 30
0.0
 10
9.502532830200815
 20
8.027694122946338
 30
0.0
 10
9.505174884696894
 20
8.02875399800122
 30
0.0
 10
9.508882540438597
 20
8.03000186618225
 30
0.0
 10
9.513929502316703
 20
8.03123820249122
 30
0.0
 10
9.520019744949241
 20
8.03200285148151
 30
0.0
 10
9.525927708228924
 20
8.032143852852844
 30
0.0
 10
9.531302853575923
 20
8.031747162195671
 30
0.0
 10
9.53637250056463
 20
8.030943558645754
 30
0.0
 10
9.539327290739028
 20
8.030134689373947
 30
0.0
 10
9.54085019997832
 20
8.029717795308816
 30
0.0
  0
SPLINE
  5
27D
330
1F
100
AcDbEntity
  8
0
  6
Continuous
 62
     7
370
    18
100
AcDbSpline
210
0.0
220
0.0
230
1.0
 70
     8
 71
     3
 72
    14
 73
    10
 74
     0
 42
0.000000001
 43
0.00000001
 40
0.0
 40
0.0
 40
0.0
 40
0.0
 40
0.1341992962798413
 40
0.2504286215702354
 40
0.5000937814065262
 40
0.6278940825071085
 40
0.7500229071213566
 40
0.8700558668824141
 40
1.0
 40
1.0
 40
1.0
 40
1.0
 10
9.497198512163083
 20
8.011475315155327
 30
0.0
 10
9.496474900150229
 20
8.011957248455177
 30
0.0
 10
9.495124571467786
 20
8.012856581725295
 30
0.0
 10
9.49283825630739
 20
8.014773366498302
 30
0.0
 10
9.491308377093443
 20
8.01690770952206
 30
0.0
 10
9.491408319649928
 20
8.019391357704777
 30
0.0
 10
9.492507497411394
 20
8.021339575030412
 30
0.0
 10
9.494569990292629
 20
8.023306667138517
 30
0.0
 10
9.49655142431734
 20
8.024538341429459
 30
0.0
 10
9.497581421601115
 20
8.025178595487047
 30
0.0
  0
SPLINE
  5
27E
330
1F
100
AcDbEntity
  8
0
  6
Continuous
 62
     7
370
    18
100
AcDbSpline
210
0.0
220
0.0
230
1.0
 70
     8
 71
     3
 72
    14
 73
    10
 74
     0
 42
0.000000001
 43
0.00000001
 40
0.0
 40
0.0
 40
0.0
 40
0.0
 40
0.0500215402793573
 40
0.1196778106588052
 40
0.2161622536774142
 40
0.3421539577120852
 40
0.4988255278625208
 40
0.7617587989614917
 40
1.0
 40
1.0
 40
1.0
 40
1.0
 10
9.502726299129645
 20
8.003453247903689
 30
0.0
 10
9.502607041456205
 20
8.003417211021352
 30
0.0
 10
9.502321714431453
 20
8.00333099186143
 30
0.0
 10
9.501783091476392
 20
8.003322277700889
 30
0.0
 10
9.501128646537131
 20
8.003355856797624
 30
0.0
 10
9.500321178555891
 20
8.003455072430928
 30
0.0
 10
9.499218467349449
 20
8.003637205911584
 30
0.0
 10
9.497932402496255
 20
8.003891585516891
 30
0.0
 10
9.49705477331848
 20
8.004146957629594
 30
0.0
 10
9.49663757842727
 20
8.004268352796796
 30
0.0
  0
SPLINE
  5
27F
330
1F
100
AcDbEntity
  8
0
  6
Continuous
 62
     7
370
    18
100
AcDbSpline
210
0.0
220
0.0
230
1.0
 70
     8
 71
     3
 72
    12
 73
     8
 74
     0
 42
0.000000001
 43
0.00000001
 40
0.0
 40
0.0
 40
0.0
 40
0.0
 40
0.5007705020966231
 40
0.7510601359945905
 40
0.8758674357418679
 40
0.9380112285325072
 40
0.9999999999999999
 40
0.9999999999999999
 40
0.9999999999999999
 40
0.9999999999999999
 10
9.49704261725562
 20
8.008660896153133
 30
0.0
 10
9.498351125782992
 20
8.007885940413159
 30
0.0
 10
9.500313638727352
 20
8.006723654773294
 30
0.0
 10
9.502509010628708
 20
8.005297755986438
 30
0.0
 10
9.503346016377767
 20
8.004486408766788
 30
0.0
 10
9.50335128125623
 20
8.003885484844227
 30
0.0
 10
9.502934452988336
 20
8.003597206879817
 30
0.0
 10
9.502726299129645
 20
8.003453247903689
 30
0.0
  0
SPLINE
  5
280
330
1F
100
AcDbEntity
  8
0
  6
Continuous
 62
     7
370
    18
100
AcDbSpline
210
0.0
220
0.0
230
1.0
 70
     8
 71
     3
 72
     9
 73
     5
 74
     0
 42
0.000000001
 43
0.00000001
 40
0.0
 40
0.0
 40
0.0
 40
0.0
 40
0.4434327670453146
 40
1.0
 40
1.0
 40
1.0
 40
1.0
 10
9.494844035150633
 20
8.007266547471556
 30
0.0
 10
9.49514794313992
 20
8.007477656208522
 30
0.0
 10
9.495833296167193
 20
8.007953734551519
 30
0.0
 10
9.496610211589042
 20
8.00840804297241
 30
0.0
 10
9.49704261725562
 20
8.008660896153133
 30
0.0
  0
SPLINE
  5
281
330
1F
100
AcDbEntity
  8
0
  6
Continuous
 62
     7
370
    18
100
AcDbSpline
210
0.0
220
0.0
230
1.0
 70
     8
 71
     3
 72
    12
 73
     8
 74
     0
 42
0.000000001
 43
0.00000001
 40
0.0
 40
0.0
 40
0.0
 40
0.0
 40
0.2914904187915345
 40
0.5010839696514215
 40
0.6312439031985794
 40
0.7509855482039451
 40
1.0
 40
1.0
 40
1.0
 40
1.0
 10
9.49663757842727
 20
8.004268352796796
 30
0.0
 10
9.49608978322342
 20
8.004460623611433
 30
0.0
 10
9.49514810082974
 20
8.004791145017402
 30
0.0
 10
9.49416952550919
 20
8.005312910092671
 30
0.0
 10
9.493793656357672
 20
8.005810575032339
 30
0.0
 10
9.49384743776093
 20
8.006455841584614
 30
0.0
 10
9.49444232103004
 20
8.00693976355079
 30
0.0
 10
9.494844035150633
 20
8.007266547471556
 30
0.0
  0
SPLINE
  5
282
330
1F
100
AcDbEntity
  8
0
  6
Continuous
 62
     7
370
    18
100
AcDbSpline
210
0.0
220
0.0
230
1.0
 70
     8
 71
     3
 72
    15
 73
    11
 74
     0
 42
0.000000001
 43
0.00000001
 40
0.0
 40
0.0
 40
0.0
 40
0.0
 40
0.1375214139001971
 40
0.2635386387488261
 40
0.3825735425318358
 40
0.4999577031901857
 40
0.6227240525596994
 40
0.749930557828531
 40
0.8735857133890396
 40
1.0
 40
1.0
 40
1.0
 40
1.0
 10
9.557867802212709
 20
8.006518021568398
 30
0.0
 10
9.558455693027826
 20
8.006833821713597
 30
0.0
 10
9.559582295356549
 20
8.007439004121357
 30
0.0
 10
9.561500036171756
 20
8.00817735190401
 30
0.0
 10
9.56348328842339
 20
8.008719724726397
 30
0.0
 10
9.565548708673179
 20
8.00905451854542
 30
0.0
 10
9.567657168551127
 20
8.009177587406064
 30
0.0
 10
9.569688843030107
 20
8.009070232552755
 30
0.0
 10
9.571587988744694
 20
8.008778073327695
 30
0.0
 10
9.572651459820719
 20
8.00843709044028
 30
0.0
 10
9.57318906224123
 20
8.00826471788614
 30
0.0
  0
SPLINE
  5
283
330
1F
100
AcDbEntity
  8
0
  6
Continuous
 62
     7
370
    18
100
AcDbSpline
210
0.0
220
0.0
230
1.0
 70
     8
 71
     3
 72
    13
 73
     9
 74
     0
 42
0.000000001
 43
0.00000001
 40
0.0
 40
0.0
 40
0.0
 40
0.0
 40
0.1408132423001844
 40
0.2679832737438108
 40
0.386189726274733
 40
0.5012115288965949
 40
0.7296708823348564
 40
1.0
 40
1.0
 40
1.0
 40
1.0
 10
9.557490840728326
 20
7.999202327505144
 30
0.0
 10
9.556938889285483
 20
7.999430893584838
 30
0.0
 10
9.555888464253119
 20
7.999865880275739
 30
0.0
 10
9.554748512419001
 20
8.000665262084167
 30
0.0
 10
9.554077404015999
 20
8.001536251567437
 30
0.0
 10
9.553841430818231
 20
8.002781052955294
 30
0.0
 10
9.554844488963223
 20
8.004583982562867
 30
0.0
 10
9.556805169378544
 20
8.005838246374683
 30
0.0
 10
9.557867802212709
 20
8.006518021568398
 30
0.0
  0
ARC
  5
284
330
1F
100
AcDbEntity
  8
0
  6
Continuous
 62
     7
370
    18
100
AcDbCircle
 10
9.2814885606
 20
7.2562019421
 30
0.0
 40
0.7926076149876263
100
AcDbArc
 50
68.514614714
 51
69.6214838506
  0
LINE
  5
285
330
1F
100
AcDbEntity
  8
0
  6
Continuous
 62
     7
370
    18
100
AcDbLine
 10
9.5874903293
 20
8.0027944551
 30
0.0
 11
9.5717921078
 21
7.9937320647
 31
0.0
  0
ARC
  5
286
330
1F
100
AcDbEntity
  8
0
  6
Continuous
 62
     7
370
    18
100
AcDbCircle
 10
9.2971867821
 20
7.2652643325
 30
0.0
 40
0.7926076149953688
100
AcDbArc
 50
68.514614714
 51
69.6214838506
  0
SPLINE
  5
287
330
1F
100
AcDbEntity
  8
0
  6
Continuous
 62
     7
370
    18
100
AcDbSpline
210
0.0
220
0.0
230
1.0
 70
     8
 71
     3
 72
    15
 73
    11
 74
     0
 42
0.000000001
 43
0.00000001
 40
0.0
 40
0.0
 40
0.0
 40
0.0
 40
0.1367191620454263
 40
0.2621732916584518
 40
0.3813174715640569
 40
0.4999004382998267
 40
0.6222380598081227
 40
0.749899466188745
 40
0.8734602337256187
 40
1.0
 40
1.0
 40
1.0
 40
1.0
 10
9.538856583106908
 20
7.993507326482558
 30
0.0
 10
9.539374447420009
 20
7.993784416237443
 30
0.0
 10
9.540367506399946
 20
7.994315764821184
 30
0.0
 10
9.542071836129592
 20
7.994956295349107
 30
0.0
 10
9.543842976176503
 20
7.995417382363826
 30
0.0
 10
9.545679036387288
 20
7.995686014767711
 30
0.0
 10
9.547541349477521
 20
7.995765106025684
 30
0.0
 10
9.549322234472625
 20
7.995646042298347
 30
0.0
 10
9.550988276589335
 20
7.995370778191278
 30
0.0
 10
9.551926132287923
 20
7.995065722509906
 30
0.0
 10
9.552400645632975
 20
7.994911377878835
 30
0.0
  0
SPLINE
  5
288
330
1F
100
AcDbEntity
  8
0
  6
Continuous
 62
     7
370
    18
100
AcDbSpline
210
0.0
220
0.0
230
1.0
 70
     8
 71
     3
 72
    13
 73
     9
 74
     0
 42
0.000000001
 43
0.00000001
 40
0.0
 40
0.0
 40
0.0
 40
0.0
 40
0.1414836658516789
 40
0.2691970036095089
 40
0.3873893927156887
 40
0.5013800087223191
 40
0.7307147324236053
 40
1.0
 40
1.0
 40
1.0
 40
1.0
 10
9.538779094678953
 20
7.987047823893531
 30
0.0
 10
9.538287810017994
 20
7.987251392313294
 30
0.0
 10
9.53735305646992
 20
7.987638716237226
 30
0.0
 10
9.5363205525885
 20
7.988342007460478
 30
0.0
 10
9.535688150889856
 20
7.989102797539337
 30
0.0
 10
9.535403542841294
 20
7.990193664498836
 30
0.0
 10
9.536197032505743
 20
7.991794078576344
 30
0.0
 10
9.537923944884927
 20
7.992906533070181
 30
0.0
 10
9.538856583106908
 20
7.993507326482558
 30
0.0
  0
ARC
  5
289
330
1F
100
AcDbEntity
  8
0
  6
Continuous
 62
     7
370
    18
100
AcDbCircle
 10
9.2609021563
 20
7.2434118264
 30
0.0
 40
0.7938577263175721
100
AcDbArc
 50
68.5151673984
 51
69.5106250816
  0
LINE
  5
28A
330
1F
100
AcDbEntity
  8
0
  6
Continuous
 62
     7
370
    18
100
AcDbLine
 10
9.5652779996
 20
7.9899715501
 30
0.0
 11
9.5516564486
 21
7.9821079961
 31
0.0
  0
ARC
  5
28B
330
1F
100
AcDbEntity
  8
0
  6
Continuous
 62
     7
370
    18
100
AcDbCircle
 10
9.2745237073
 20
7.2512753804
 30
0.0
 40
0.7938577263348031
100
AcDbArc
 50
68.5151673984
 51
69.5106250816
  0
ARC
  5
28C
330
1F
100
AcDbEntity
  8
0
  6
Continuous
 62
     7
370
    18
100
AcDbCircle
 10
9.2324548102
 20
7.168049187
 30
0.0
 40
0.8782404688979306
100
AcDbArc
 50
65.45911759
 51
65.6223927142
  0
SPLINE
  5
28D
330
1F
100
AcDbEntity
  8
0
  6
Continuous
 62
     7
370
    18
100
AcDbSpline
210
0.0
220
0.0
230
1.0
 70
     8
 71
     3
 72
     8
 73
     4
 74
     0
 42
0.000000001
 43
0.00000001
 40
0.0
 40
0.0
 40
0.0
 40
0.0
 40
1.0
 40
1.0
 40
1.0
 40
1.0
 10
9.627053321152568
 20
7.976565962954012
 30
0.0
 10
9.617109526850111
 20
7.973375927505545
 30
0.0
 10
9.607166828605118
 20
7.970171932626076
 30
0.0
 10
9.59722533549884
 20
7.96695392790875
 30
0.0
  0
ARC
  5
28E
330
1F
100
AcDbEntity
  8
0
  6
Continuous
 62
     7
370
    18
100
AcDbCircle
 10
9.2548975925
 20
7.1808340153
 30
0.0
 40
0.8784584332135303
100
AcDbArc
 50
64.9349867542
 51
66.1291080778
  0
SPLINE
  5
28F
330
1F
100
AcDbEntity
  8
0
  6
Continuous
 62
     7
370
    18
100
AcDbSpline
210
0.0
220
0.0
230
1.0
 70
     8
 71
     3
 72
     8
 73
     4
 74
     0
 42
0.000000001
 43
0.00000001
 40
0.0
 40
0.0
 40
0.0
 40
0.0
 40
1.0
 40
1.0
 40
1.0
 40
1.0
 10
9.594947227823937
 20
7.967990165034291
 30
0.0
 10
9.600093485103718
 20
7.973389505945851
 30
0.0
 10
9.605240900507757
 20
7.978775738050737
 30
0.0
 10
9.610389572474439
 20
7.984148817267712
 30
0.0
  0
SPLINE
  5
290
330
1F
100
AcDbEntity
  8
0
  6
Continuous
 62
     7
370
    18
100
AcDbSpline
210
0.0
220
0.0
230
1.0
 70
     8
 71
     3
 72
     8
 73
     4
 74
     0
 42
0.000000001
 43
0.00000001
 40
0.0
 40
0.0
 40
0.0
 40
0.0
 40
1.0
 40
1.0
 40
1.0
 40
1.0
 10
9.602167020591583
 20
7.970826539357694
 30
0.0
 10
9.605283695303248
 20
7.97408117526135
 30
0.0
 10
9.60840077783649
 20
7.977331125143652
 30
0.0
 10
9.611518289258354
 20
7.980576379484324
 30
0.0
  0
SPLINE
  5
291
330
1F
100
AcDbEntity
  8
0
  6
Continuous
 62
     7
370
    18
100
AcDbSpline
210
0.0
220
0.0
230
1.0
 70
     8
 71
     3
 72
     8
 73
     4
 74
     0
 42
0.000000001
 43
0.00000001
 40
0.0
 40
0.0
 40
0.0
 40
0.0
 40
1.0
 40
1.0
 40
1.0
 40
1.0
 10
9.620121919032746
 20
7.976659951891329
 30
0.0
 10
9.614136532167233
 20
7.974720486790289
 30
0.0
 10
9.608151558245883
 20
7.972776019509465
 30
0.0
 10
9.602167020591583
 20
7.970826539357694
 30
0.0
  0
ARC
  5
292
330
1F
100
AcDbEntity
  8
0
  6
Continuous
 62
     7
370
    18
100
AcDbCircle
 10
9.2517968603
 20
7.1789298923
 30
0.0
 40
0.8786561311965022
100
AcDbArc
 50
65.216454797
 51
65.8328786413
  0
LINE
  5
293
330
1F
100
AcDbEntity
  8
0
  6
Continuous
 62
     7
370
    18
100
AcDbLine
 10
9.5596851993
 20
7.9894762153
 30
0.0
 11
9.551823015
 21
7.984937473
 31
0.0
  0
ARC
  5
294
330
1F
100
AcDbEntity
  8
0
  6
Continuous
 62
     7
370
    18
100
AcDbCircle
 10
9.2722924156
 20
7.2511087278
 30
0.0
 40
0.792326421874794
100
AcDbArc
 50
68.7326540344
 51
69.4284674472
  0
SPLINE
  5
295
330
1F
100
AcDbEntity
  8
0
  6
Continuous
 62
     7
370
    18
100
AcDbSpline
210
0.0
220
0.0
230
1.0
 70
     8
 71
     3
 72
    12
 73
     8
 74
     0
 42
0.000000001
 43
0.00000001
 40
0.0
 40
0.0
 40
0.0
 40
0.0
 40
0.173357947243625
 40
0.3337872692237381
 40
0.4995705626103883
 40
0.7365469734644676
 40
1.0
 40
1.0
 40
1.0
 40
1.0
 10
9.542059396593537
 20
7.992418747533281
 30
0.0
 10
9.54249361933027
 20
7.992638633456921
 30
0.0
 10
9.543329681500092
 20
7.993062006732615
 30
0.0
 10
9.54491871008802
 20
7.993471057012422
 30
0.0
 10
9.546761902715977
 20
7.993632665223327
 30
0.0
 10
9.548831245950085
 20
7.993492673139396
 30
0.0
 10
9.550053734876144
 20
7.993112166695597
 30
0.0
 10
9.550697318932981
 20
7.992911847596149
 30
0.0
  0
SPLINE
  5
296
330
1F
100
AcDbEntity
  8
0
  6
Continuous
 62
     7
370
    18
100
AcDbSpline
210
0.0
220
0.0
230
1.0
 70
     8
 71
     3
 72
    12
 73
     8
 74
     0
 42
0.000000001
 43
0.00000001
 40
0.0
 40
0.0
 40
0.0
 40
0.0
 40
0.1887982055439577
 40
0.3538910702534611
 40
0.5021142380590381
 40
0.7381915180883312
 40
0.9999999999999999
 40
0.9999999999999999
 40
0.9999999999999999
 40
0.9999999999999999
 10
9.542835134705697
 20
7.988373105251585
 30
0.0
 10
9.542417195365367
 20
7.988547228458574
 30
0.0
 10
9.541633792789984
 20
7.988873612111955
 30
0.0
 10
9.540797795504727
 20
7.989466405783481
 30
0.0
 10
9.540244376772124
 20
7.990225445192278
 30
0.0
 10
9.540419693150941
 20
7.99131085308712
 30
0.0
 10
9.54149431627002
 20
7.99203694108231
 30
0.0
 10
9.542059396593537
 20
7.992418747533281
 30
0.0
  0
ARC
  5
297
330
1F
100
AcDbEntity
  8
0
  6
Continuous
 62
     7
370
    18
100
AcDbCircle
 10
9.2644302314
 20
7.2465699854
 30
0.0
 40
0.7923264218982368
100
AcDbArc
 50
68.7326540345
 51
69.4284674472
  0
LINE
  5
298
330
1F
100
AcDbEntity
  8
0
  6
Continuous
 62
     7
370
    18
100
AcDbLine
 10
9.5820690179
 20
8.0023261655
 30
0.0
 11
9.5719682532
 21
7.9964951181
 31
0.0
  0
ARC
  5
299
330
1F
100
AcDbEntity
  8
0
  6
Continuous
 62
     7
370
    18
100
AcDbCircle
 10
9.2951047619
 20
7.265296068
 30
0.0
 40
0.7909246795949303
100
AcDbArc
 50
68.7264418674
 51
69.5587307727
  0
SPLINE
  5
29A
330
1F
100
AcDbEntity
  8
0
  6
Continuous
 62
     7
370
    18
100
AcDbSpline
210
0.0
220
0.0
230
1.0
 70
     8
 71
     3
 72
    15
 73
    11
 74
     0
 42
0.000000001
 43
0.00000001
 40
0.0
 40
0.0
 40
0.0
 40
0.0
 40
0.1339452701138689
 40
0.2574857444729987
 40
0.3770447169527423
 40
0.4996727418485503
 40
0.6209116201576468
 40
0.7497892000951039
 40
0.8726763029194352
 40
1.0
 40
1.0
 40
1.0
 40
1.0
 10
9.560664313710577
 20
8.005605486547994
 30
0.0
 10
9.561068565367748
 20
8.005818343183263
 30
0.0
 10
9.561845666633156
 20
8.006227521866105
 30
0.0
 10
9.56321240438111
 20
8.006702626763776
 30
0.0
 10
9.564651013045108
 20
8.007021645356835
 30
0.0
 10
9.566117602410225
 20
8.00717053211028
 30
0.0
 10
9.567576089343909
 20
8.007169606223227
 30
0.0
 10
9.568941068253977
 20
8.007030124710486
 30
0.0
 10
9.570223987382542
 20
8.00678334642337
 30
0.0
 10
9.570958909162371
 20
8.006540388022898
 30
0.0
 10
9.571332885657824
 20
8.006416754823226
 30
0.0
  0
SPLINE
  5
29B
330
1F
100
AcDbEntity
  8
0
  6
Continuous
 62
     7
370
    18
100
AcDbSpline
210
0.0
220
0.0
230
1.0
 70
     8
 71
     3
 72
    12
 73
     8
 74
     0
 42
0.000000001
 43
0.00000001
 40
0.0
 40
0.0
 40
0.0
 40
0.0
 40
0.1877311042223065
 40
0.3521745312553163
 40
0.5016951665274672
 40
0.7348616159268863
 40
1.0
 40
1.0
 40
1.0
 40
1.0
 10
9.561232120963679
 20
8.00058570748263
 30
0.0
 10
9.560720850761125
 20
8.000799103105518
 30
0.0
 10
9.559761732427084
 20
8.001199423040639
 30
0.0
 10
9.55877859547282
 20
8.001945779563876
 30
0.0
 10
9.558210303419415
 20
8.002905020667761
 30
0.0
 10
9.558607426765219
 20
8.004245999120535
 30
0.0
 10
9.559949971545528
 20
8.005133346261198
 30
0.0
 10
9.560664313710577
 20
8.005605486547994
 30
0.0
  0
ARC
  5
29C
330
1F
100
AcDbEntity
  8
0
  6
Continuous
 62
     7
370
    18
100
AcDbCircle
 10
9.2850039972
 20
7.2594650206
 30
0.0
 40
0.790924679625552
100
AcDbArc
 50
68.7264418674
 51
69.5587307727
  0
OLE2FRAME
  5
29D
330
1F
100
AcDbEntity
  8
0
100
AcDbOle2Frame
 70
     2
  3
Paintbrush Picture
 10
9.0178120406
 20
1.3267570784
 30
0.0
 11
10.4397105087
 21
1.1242314806
 31
0.0
 71
     2
 72
     0
 73
     1
 90
     7296
310
8055C64EE7A81E092240C05F59A1653AF53F0000000000000000FD155DBC21E1
310
2440C05F59A1653AF53F0000000000000000FD155DBC21E12440A1732426DAFC
310
F13F0000000000000000C64EE7A81E092240A1732426DAFCF13F000000000000
310
00000000000001000000000100000100000001000000000001000000001C0000
310
D0CF11E0A1B11AE1000000000000000000000000000000003E000300FEFF0900
310
0600000000000000000000000100000001000000000000000010000002000000
310
01000000FEFFFFFF0000000000000000FFFFFFFFFFFFFFFFFFFFFFFFFFFFFFFF
310
FFFFFFFFFFFFFFFFFFFFFFFFFFFFFFFFFFFFFFFFFFFFFFFFFFFFFFFFFFFFFFFF
310
FFFFFFFFFFFFFFFFFFFFFFFFFFFFFFFFFFFFFFFFFFFFFFFFFFFFFFFFFFFFFFFF
310
FFFFFFFFFFFFFFFFFFFFFFFFFFFFFFFFFFFFFFFFFFFFFFFFFFFFFFFFFFFFFFFF
310
FFFFFFFFFFFFFFFFFFFFFFFFFFFFFFFFFFFFFFFFFFFFFFFFFFFFFFFFFFFFFFFF
310
FFFFFFFFFFFFFFFFFFFFFFFFFFFFFFFFFFFFFFFFFFFFFFFFFFFFFFFFFFFFFFFF
310
FFFFFFFFFFFFFFFFFFFFFFFFFFFFFFFFFFFFFFFFFFFFFFFFFFFFFFFFFFFFFFFF
310
FFFFFFFFFFFFFFFFFFFFFFFFFFFFFFFFFFFFFFFFFFFFFFFFFFFFFFFFFFFFFFFF
310
FFFFFFFFFFFFFFFFFFFFFFFFFFFFFFFFFFFFFFFFFFFFFFFFFFFFFFFFFFFFFFFF
310
FFFFFFFFFFFFFFFFFFFFFFFFFFFFFFFFFFFFFFFFFFFFFFFFFFFFFFFFFFFFFFFF
310
FFFFFFFFFFFFFFFFFFFFFFFFFFFFFFFFFFFFFFFFFFFFFFFFFFFFFFFFFFFFFFFF
310
FFFFFFFFFFFFFFFFFFFFFFFFFFFFFFFFFFFFFFFFFFFFFFFFFFFFFFFFFFFFFFFF
310
FFFFFFFFFFFFFFFFFFFFFFFFFFFFFFFFFFFFFFFFFFFFFFFFFFFFFFFFFFFFFFFF
310
FFFFFFFFFFFFFFFFFFFFFFFFFFFFFFFFFFFFFFFFFFFFFFFFFFFFFFFFFFFFFFFF
310
FDFFFFFFFEFFFFFFFEFFFFFFFEFFFFFF05000000060000000700000008000000
310
090000000A0000000B0000000C000000FEFFFFFFFFFFFFFFFFFFFFFFFFFFFFFF
310
FFFFFFFFFFFFFFFFFFFFFFFFFFFFFFFFFFFFFFFFFFFFFFFFFFFFFFFFFFFFFFFF
310
FFFFFFFFFFFFFFFFFFFFFFFFFFFFFFFFFFFFFFFFFFFFFFFFFFFFFFFFFFFFFFFF
310
FFFFFFFFFFFFFFFFFFFFFFFFFFFFFFFFFFFFFFFFFFFFFFFFFFFFFFFFFFFFFFFF
310
FFFFFFFFFFFFFFFFFFFFFFFFFFFFFFFFFFFFFFFFFFFFFFFFFFFFFFFFFFFFFFFF
310
FFFFFFFFFFFFFFFFFFFFFFFFFFFFFFFFFFFFFFFFFFFFFFFFFFFFFFFFFFFFFFFF
310
FFFFFFFFFFFFFFFFFFFFFFFFFFFFFFFFFFFFFFFFFFFFFFFFFFFFFFFFFFFFFFFF
310
FFFFFFFFFFFFFFFFFFFFFFFFFFFFFFFFFFFFFFFFFFFFFFFFFFFFFFFFFFFFFFFF
310
FFFFFFFFFFFFFFFFFFFFFFFFFFFFFFFFFFFFFFFFFFFFFFFFFFFFFFFFFFFFFFFF
310
FFFFFFFFFFFFFFFFFFFFFFFFFFFFFFFFFFFFFFFFFFFFFFFFFFFFFFFFFFFFFFFF
310
FFFFFFFFFFFFFFFFFFFFFFFFFFFFFFFFFFFFFFFFFFFFFFFFFFFFFFFFFFFFFFFF
310
FFFFFFFFFFFFFFFFFFFFFFFFFFFFFFFFFFFFFFFFFFFFFFFFFFFFFFFFFFFFFFFF
310
FFFFFFFFFFFFFFFFFFFFFFFFFFFFFFFFFFFFFFFFFFFFFFFFFFFFFFFFFFFFFFFF
310
FFFFFFFFFFFFFFFFFFFFFFFFFFFFFFFFFFFFFFFFFFFFFFFFFFFFFFFFFFFFFFFF
310
FFFFFFFFFFFFFFFFFFFFFFFFFFFFFFFFFFFFFFFFFFFFFFFFFFFFFFFFFFFFFFFF
310
52006F006F007400200045006E00740072007900000000000000000000000000
310
0000000000000000000000000000000000000000000000000000000000000000
310
16000500FFFFFFFFFFFFFFFF020000000A00030000000000C000000000000046
310
00000000000000000000000020A5A7D062D8D50103000000C000000000000000
310
01004F006C006500000000000000000000000000000000000000000000000000
310
0000000000000000000000000000000000000000000000000000000000000000
310
0A000200FFFFFFFFFFFFFFFFFFFFFFFF00000000000000000000000000000000
310
0000000000000000000000000000000000000000000000001400000000000000
310
010043006F006D0070004F0062006A0000000000000000000000000000000000
310
0000000000000000000000000000000000000000000000000000000000000000
310
120002010100000003000000FFFFFFFF00000000000000000000000000000000
310
0000000000000000000000000000000000000000010000004D00000000000000
310
01004F006C006500310030004E00610074006900760065000000000000000000
310
0000000000000000000000000000000000000000000000000000000000000000
310
1A000200FFFFFFFFFFFFFFFFFFFFFFFF00000000000000000000000000000000
310
000000000000000000000000000000000000000004000000E411000000000000
310
FEFFFFFF02000000FEFFFFFFFFFFFFFFFFFFFFFFFFFFFFFFFFFFFFFFFFFFFFFF
310
FFFFFFFFFFFFFFFFFFFFFFFFFFFFFFFFFFFFFFFFFFFFFFFFFFFFFFFFFFFFFFFF
310
FFFFFFFFFFFFFFFFFFFFFFFFFFFFFFFFFFFFFFFFFFFFFFFFFFFFFFFFFFFFFFFF
310
FFFFFFFFFFFFFFFFFFFFFFFFFFFFFFFFFFFFFFFFFFFFFFFFFFFFFFFFFFFFFFFF
310
FFFFFFFFFFFFFFFFFFFFFFFFFFFFFFFFFFFFFFFFFFFFFFFFFFFFFFFFFFFFFFFF
310
FFFFFFFFFFFFFFFFFFFFFFFFFFFFFFFFFFFFFFFFFFFFFFFFFFFFFFFFFFFFFFFF
310
FFFFFFFFFFFFFFFFFFFFFFFFFFFFFFFFFFFFFFFFFFFFFFFFFFFFFFFFFFFFFFFF
310
FFFFFFFFFFFFFFFFFFFFFFFFFFFFFFFFFFFFFFFFFFFFFFFFFFFFFFFFFFFFFFFF
310
FFFFFFFFFFFFFFFFFFFFFFFFFFFFFFFFFFFFFFFFFFFFFFFFFFFFFFFFFFFFFFFF
310
FFFFFFFFFFFFFFFFFFFFFFFFFFFFFFFFFFFFFFFFFFFFFFFFFFFFFFFFFFFFFFFF
310
FFFFFFFFFFFFFFFFFFFFFFFFFFFFFFFFFFFFFFFFFFFFFFFFFFFFFFFFFFFFFFFF
310
FFFFFFFFFFFFFFFFFFFFFFFFFFFFFFFFFFFFFFFFFFFFFFFFFFFFFFFFFFFFFFFF
310
FFFFFFFFFFFFFFFFFFFFFFFFFFFFFFFFFFFFFFFFFFFFFFFFFFFFFFFFFFFFFFFF
310
FFFFFFFFFFFFFFFFFFFFFFFFFFFFFFFFFFFFFFFFFFFFFFFFFFFFFFFFFFFFFFFF
310
FFFFFFFFFFFFFFFFFFFFFFFFFFFFFFFFFFFFFFFFFFFFFFFFFFFFFFFFFFFFFFFF
310
FFFFFFFFFFFFFFFFFFFFFFFFFFFFFFFFFFFFFFFFFFFFFFFFFFFFFFFFFFFFFFFF
310
0100000200000000000000000000000000000000000000000000000000000000
310
0000000000000000000000000000000000000000000000000000000000000000
310
0100FEFF030A0000FFFFFFFF0A00030000000000C00000000000004607000000
310
5042727573680007000000504272757368000700000050427275736800F439B2
310
7100000000000000000000000000000000000000000000000000000000000000
310
0000000000000000000000000000000000000000000000000000000000000000
310
0000000000000000000000000000000000000000000000000000000000000000
310
0000000000000000000000000000000000000000000000000000000000000000
310
0000000000000000000000000000000000000000000000000000000000000000
310
0000000000000000000000000000000000000000000000000000000000000000
310
0000000000000000000000000000000000000000000000000000000000000000
310
0000000000000000000000000000000000000000000000000000000000000000
310
0000000000000000000000000000000000000000000000000000000000000000
310
0000000000000000000000000000000000000000000000000000000000000000
310
0000000000000000000000000000000000000000000000000000000000000000
310
0000000000000000000000000000000000000000000000000000000000000000
310
E0110000424DDE11000000000000360400002800000096000000170000000100
310
08000000000000000000E7240000E72400000001000000010000000000FF0101
310
01FF020202FF030303FF040404FF050505FF060606FF070707FF080808FF0909
310
09FF0A0A0AFF0B0B0BFF0C0C0CFF0D0D0DFF0E0E0EFF0F0F0FFF101010FF1111
310
11FF121212FF131313FF141414FF151515FF161616FF171717FF181818FF1919
310
19FF1A1A1AFF1B1B1BFF1C1C1CFF1D1D1DFF1E1E1EFF1F1F1FFF202020FF2121
310
21FF222222FF232323FF242424FF252525FF262626FF272727FF282828FF2929
310
29FF2A2A2AFF2B2B2BFF2C2C2CFF2D2D2DFF2E2E2EFF2F2F2FFF303030FF3131
310
31FF323232FF333333FF343434FF353535FF363636FF373737FF383838FF3939
310
39FF3A3A3AFF3B3B3BFF3C3C3CFF3D3D3DFF3E3E3EFF3F3F3FFF404040FF4141
310
41FF424242FF434343FF444444FF454545FF464646FF474747FF484848FF4949
310
49FF4A4A4AFF4B4B4BFF4C4C4CFF4D4D4DFF4E4E4EFF4F4F4FFF505050FF5151
310
51FF525252FF535353FF545454FF555555FF565656FF575757FF585858FF5959
310
59FF5A5A5AFF5B5B5BFF5C5C5CFF5D5D5DFF5E5E5EFF5F5F5FFF606060FF6161
310
61FF626262FF636363FF646464FF656565FF666666FF676767FF686868FF6969
310
69FF6A6A6AFF6B6B6BFF6C6C6CFF6D6D6DFF6E6E6EFF6F6F6FFF707070FF7171
310
71FF727272FF737373FF747474FF757575FF767676FF777777FF787878FF7979
310
79FF7A7A7AFF7B7B7BFF7C7C7CFF7D7D7DFF7E7E7EFF7F7F7FFF808080FF8181
310
81FF828282FF838383FF848484FF858585FF868686FF878787FF888888FF8989
310
89FF8A8A8AFF8B8B8BFF8C8C8CFF8D8D8DFF8E8E8EFF8F8F8FFF909090FF9191
310
91FF929292FF939393FF949494FF959595FF969696FF979797FF989898FF9999
310
99FF9A9A9AFF9B9B9BFF9C9C9CFF9D9D9DFF9E9E9EFF9F9F9FFFA0A0A0FFA1A1
310
A1FFA2A2A2FFA3A3A3FFA4A4A4FFA5A5A5FFA6A6A6FFA7A7A7FFA8A8A8FFA9A9
310
A9FFAAAAAAFFABABABFFACACACFFADADADFFAEAEAEFFAFAFAFFFB0B0B0FFB1B1
310
B1FFB2B2B2FFB3B3B3FFB4B4B4FFB5B5B5FFB6B6B6FFB7B7B7FFB8B8B8FFB9B9
310
B9FFBABABAFFBBBBBBFFBCBCBCFFBDBDBDFFBEBEBEFFBFBFBFFFC0C0C0FFC1C1
310
C1FFC2C2C2FFC3C3C3FFC4C4C4FFC5C5C5FFC6C6C6FFC7C7C7FFC8C8C8FFC9C9
310
C9FFCACACAFFCBCBCBFFCCCCCCFFCDCDCDFFCECECEFFCFCFCFFFD0D0D0FFD1D1
310
D1FFD2D2D2FFD3D3D3FFD4D4D4FFD5D5D5FFD6D6D6FFD7D7D7FFD8D8D8FFD9D9
310
D9FFDADADAFFDBDBDBFFDCDCDCFFDDDDDDFFDEDEDEFFDFDFDFFFE0E0E0FFE1E1
310
E1FFE2E2E2FFE3E3E3FFE4E4E4FFE5E5E5FFE6E6E6FFE7E7E7FFE8E8E8FFE9E9
310
E9FFEAEAEAFFEBEBEBFFECECECFFEDEDEDFFEEEEEEFFEFEFEFFFF0F0F0FFF1F1
310
F1FFF2F2F2FFF3F3F3FFF4F4F4FFF5F5F5FFF6F6F6FFF7F7F7FFF8F8F8FFF9F9
310
F9FFFAFAFAFFFBFBFBFFFCFCFCFFFDFDFDFFFEFEFEFFFFFFFFFFFFFFFFFFFFFF
310
C94E4E4E4F4E4EFFFFFFFFFFC94E4E4E4E4E72FFFFFFFFFFFFFF734E4D4E4E4E
310
C9FFFFFFFFFFAA683516171616265B9BE9FFFFFFFFFF4E4E4E4D4E4EFFFFFFFF
310
FFFFFFFF4E4E4F4E4D4E4E4E4F4E4E4F4D4E4E4E4E4E4D4E4F4E4D4E4E4EAAFF
310
FFFFFFFFFFEA4E4F4F4E4E4E4E4E4D4D4F4F4E4E4E4E4E5B7FAAFFFFFFFFFFFF
310
C9744E1716171616164D8DEAFFFFFFFF0000FFFFFFFFFFFFBA161617161716FF
310
FFFFFFFFB917171616174FFFFFFFFFFFFFFF4E1716161616B9FFFFFFB9341717
310
1716171617171616268CFFFFFFFF161617161617FFFFFFFFFFFFFFB917161717
310
1617167F807F7F7F7F7F7F807F7F807F7F807F7F7F414EFFFFFFFFFFFF8C167F
310
7F807F7F7F7E7F7F807F807F7F807F4E3417258EFFFFEA4E162674AABAEAEBBA
310
AA74341680FFFFFF0000FFFFFFFFFFFFB9171717171617FFFFFFFFFFBB161616
310
16164EFFFFFFFFFFFFFF4E1717171717B9FFFF9C171617171716161616171616
310
171766FFFFFF161717161617FFFFFFFFFFFFFF8E16171717161616FFFFFFFFFF
310
FFFFFFFFFFFFFFFFFFFFFFFFFFAA16D9FFFFFFFFFF3467FFFFFFFFEAFFFFFFFF
310
FFFFFFFFFFFFFFFFFFCA671667EB26278DFFFFFFFFFFFFFFFFFFFF8C2541EAFF
310
0000FFFFFFFFFFFFB9171717171716FFFFFFFFFFBA16171617174EFFFFFFFFFF
310
FFFF4E1717161616BAFF9B1617161616171716171617161616161667FFFF1616
310
16161716FFFFFFFFFFFFFF7F16161617174017FFFFFFFFFFFFFFFFFFFFFFFFFF
310
FFFFFFFFFFFF344E7F7F7F7E7417DAFFFFFFFF80FFFFFFFFFFFFFFFFFFFFFFFF
310
FFFFFF9B163425CAFFFFFFFFFFFFFFFFFFFFFFFFCA2667FF0000FFFFFFFFFFFF
310
BA171717171617FFFFFFFFFFB916171716164EFFFFFFFFFFFFFF4F1716161717
310
B9C91716171616161716161617171616161617168DFF161716161717FFFFFFFF
310
FFFFFF7F17171716164F16FFFFFFFFFFFFFFFFFFFFFFFFFFFFFFFFFFFFFF9B16
310
17161617174EFFFFFFFFFF34FFFFFFFFD9BABABABABADAFFFFFFFFFF7F16AAFF
310
FFFFFFFFFFFFFFFFFFFFFFFFFF9C16BA0000FFFFFFFFFFFFB9161717161717FF
310
FFFFFFFFB917161716174DFFFFFFFFFFFFFF4E1616161616BA4E161617171716
310
419BEAEAAA4E16161617161726E9171717161616FFFFFFFFFFFFFF4F16161717
310
164E16FFFFFFFFFFBAB9B9B9B9B9BABABACAFFFFFFFFFFFFFFFFFFFFFFFFFFFF
310
FFFFBA16FFFFFFFF7F1617161617174DEAFFFFFFEA41FFFFFFFFFFAA4D16174E
310
9BFFFFFFFFFF34730000FFFFFFFFFFFFB9161617171617FFFFFFFFFFBA161616
310
16164EFFFFFFFFFFFFFF4F16161717169B1617161716175BFFFFFFFFFFFF7417
310
16171616168D171717161617FFFFFFFFFFFFEA2616171717167416FFFFFFFFFF
310
16171616171717171717EAFFFFFFFFFFFFFFFFFFFFFFFFFFFFFF6716FFFFFFFF
310
7F4EFFFFFFFFBA2573FFFFFFFFBAFFFFFFFFAA167FB9BB9B269BFFFFFFFF664F
310
0000FFFFFFFFFFFFB9171616161616FFFFFFFFFFBA16161717164EFFFFFFFFFF
310
FFFF4E16161616174E161617171626EAFFFFFFFFFFFFFF4E16161616164E1716
310
16161617FFFFFFFFFFFF671616161716347F16FFFFFFFFFF16B9FFFFFFFFFFFF
310
D9168DFFFFFFFFFFFFFFFFFFFFFFFFFFFFEA1716FFFFFFFF7F4EFFFFFFFFFF7F
310
4EFFFFFFFFFFFFFFFFFF5B66FFFFFFEA347FFFFFFFFF7F4D0000FFFFFFFFFFFF
310
B9171616171617FFFFFFFFFFBA17161716174EFFFFFFFFFFFFFF4D1716161617
310
17161716161673FFFFFFFFFFFFFFFF9B1617161717161616171616174F4E4E4E
310
4E341616171616167E7F16FFFFFFFFFF16BAFFFFFFFFFFFFFF5B41FFFFFFFF34
310
1616171616BAFFFFFF9B1716FFFFFFFF7F4EFFFFFFFFFF4E4EFFFFFFFF734E4E
310
4E4E267EDA9B67164EEAFFFFFFFF744D0000FFFFFFFFFFFFBA171717161617FF
310
FFFFFFFFBA1616171616347F7F7F7F80807F331616161717161717161716B9FF
310
FFFFFFFFFFFFFFE9161616161616171716161716171616161616171616171734
310
EA7F16FFFFFFFFFF16BAFFFFFFFFFFFFFFAA17C9FFFFFF7326BABA5B25FFFFFF
310
FF401716FFFFFFFF7F264F4E4E4E4217AAFFFFFFEA16677F73261616164173CA
310
FFFFFFFFFFFF417F0000FFFFFFFFFFFFBA171616171617FFFFFFFFFFBA161616
310
17171616161616161616161717161616161616161617EAFFFFFFFFFFFFFFFFFF
310
261717161716161617161616161617161617161616174EEAFF8016FFFFFFFFFF
310
17BAFFFFFFFFFFFFFFFF3467FFFFFFC916C9FF3467FFFFFFDA166716FFFFFFFF
310
9C4D4E4E4E4E67AAFFFFFFFF6834FF7F262567AAEAFFFFFFFFFFFFFFFF9B17D9
310
0000FFFFFFFFFFFFB9161616161616FFFFFFFFFFBA1617161717171616161616
310
1716171716161716161617171716FFFFFFFFFFFFFFFFFFFF4E17161716171616
310
1617171616161716171717161616169BFF7F17FFFFFFFFFF17B9FFFFFFFFFFFF
310
FFFF7326FFFFFFFF3473DA16AAFFFFFF7317AA16FFFFFFFFFFFFFFFFFFFFFFFF
310
FFFFEA6725BA4E167FEAFFFFFFFFFFFFFFFFFFFF9C167FFF0000FFFFFFFFFFFF
310
B9161717171716FFFFFFFFFFBA16161716171616171717161617161716161616
310
171617171617EAFFFFFFFFFFFFFFFFFF26161717161616161616161617171616
310
1616161616171616AA8016FFFFFFFFFF16BAFFFFFFFFFFFFFFFFDA179BFFFFFF
310
74348D26FFFFFFFF2566B917FFFFFFFFD8BAB9BAB9BADAFFFFEA41169B7425C9
310
FFFFFFFFFFFFFFFFFFFFAB4F1680FFFF0000FFFFFFFFFFFFBA161717171617FF
310
FFFFFFFFBA17161717161617171617161616161617171616171716171617BBFF
310
FFFFFFFFFFFFFFE9171616161617161617161716FFFFFFFFFFD9671616161617
310
348017FFFFFFFFFF16BAFFFFFFFFFFFFFFFFFF4E5AFFFFFFC916265AFFFFFFAA
310
16AABA16FFFFFFFF7F1617161616179BFFFFEB4127168DFFFFFFFFFFFFFFD99B
310
6734175AC9FFFFFF0000FFFFFFFFFFFFB9161617171617FFFFFFFFFFBB161616
310
1616347F807F7F7F7F8033171716171617171616161672FFFFFFFFFFFFFFFF9C
310
171617171617161716161617FFFFFFFFFFFFFF4117161616174E17FFFFFFFFFF
310
16BAFFFFFFFFFFFFFFFFFF9B16DAFFFFFF34169BFFFFFF5A26FFB917FFFFFFFF
310
7F4EFFFFFFEA5B26FFFFFFEA2616EAFFFFFFFFDA743416331617414E4E4E4ECA
310
0000FFFFFFFFFFFFBA161716161616FFFFFFFFFFBA17171616164EFFFFFFFFFF
310
FFFF4E16161717174E161717171626EBFFFFFFFFFFFFFF4E16161617165B1616
310
16171617FFFFFFFFFFFFFF6716161616161617FFFFFFFFFF16BAFFFFFFFFFFFF
310
FFFFFFEA268CFFFFFF7316EAFFFFEB1774FFB916FFFFFFFF7F4EFFFFFFFF7316
310
FFFFFFFF6826FFFFFFFFEB264D9CEABA257F807F7F6616BA0000FFFFFFFFFFFF
310
BA161716161616FFFFFFFFFFBA16171616164DFFFFFFFFFFFFFF4E1617161617
310
9B1617171717165BEBFFFFFFFFFF671616161617179B171616161616FFFFFFFF
310
FFFFFF3417161617171617FFFFFFFFFF17BAFFFFFFFFFFFFFFFFFFFF6734FFFF
310
FFEBCAFFFFFF8D17C9FFBA17FFFFFFFF7F357F808066174FFFFFFFFF7F16FFFF
310
FFFFD91673B99B415BFFFFFFFFBA16DA00009B7F7F7F807F671617161616167F
310
80807F7E6617161616164EFFFFFFFFFFFFFF4E1616161617B94E171716161616
310
349BC9D9AA4E16171616161634FF161617161717B9B9BAB9BA9B411716171716
310
163416FFFFFFFFFF16B9FFFFFFFFFFFFFFFFFFFFC917CAFFFFFFFFFFFFFF3342
310
FFFFBA17FFFFFFFF9B4E4E4F4E4E66EAFFFFFFFF5B16C9FFFFFFFFAA4E164E73
310
EAFFFFFFFF8D26FF00004E161716161616171617171616171717171617161616
310
17174EFFFFFFFFFFFFFF4E1717171616B9D92616171716171716171717171716
310
16171716AAFF161717171617161617171616161617161716166717FFFFFFFFFF
310
17B9FFFFFFFFFFFFFFFFFFFFFF3467FFFFFFFFFFFFCA168CFFFFBB17FFFFFFFF
310
FFFFFFFFFFFFFFFFFFFFFFEA26265BFFFFFFFFFFFFFFFFFFFFFFFFFFEA3467FF
310
00004D16161616161617161717161617161616171617171616164EFFFFFFFFFF
310
FFFF4D1617161616BAFF9B1616161616161716161616171717161766FFFF1616
310
16171617161617161716171616171717667F16FFFFFFFFFF17BAFFFFFFFFFFFF
310
FFFFFFFFFF8C26EAFFFFFFFFFF6617EAFFFFBA17FFFFFFFFFFFFFFFFFFFFFFFF
310
FFFFEA5A25BA269BFFFFFFFFFFFFFFFFFFFFFFFF6616DAFF00004E1616171616
310
1616161616161716161617171616171616174EFFFFFFFFFFFFFF4D1717171716
310
B9FFFF9C161616161616161716161717171667FFFFFF17161717171716161617
310
1716161616161641E97E16FFFFFFFFFF16B9FFFFFFFFFFFFFFFFFFFFFFEA169B
310
FFFFFFFFEA265BFFFFFFB916FFFFFFFFFFFFFFFFFFFFFFFFFF9B3416AAFF9B17
310
67EAFFFFFFFFFFFFFFFFEA5B169BFFFF00004D17161716161616161717171616
310
161717161716171716174EFFFFFFFFFFFFFF4D1616161616BAFFFFFFBB411616
310
161716161616171634ABFFFFFFFF161716161617171716171617171617267FFF
310
FF7F164E4E4E4E4F17BAFFFFFFFFFFFFFFFFFFFFFFFF66344D4E4E4F4117AAFF
310
FFFFBA174E4E4E4D4E4D4D4E4E4E4E4116174EBBFFFFFFCA342666ABEAFFFFEA
310
AA6725269CFFFFFF0000724F4E4D4D4D4E4D4D4E4E4E4D4E4E4E4E4E4E4E4E4D
310
4E4E74FFFFFFFFFFFFFF734E4E4E4D4ECAFFFFFFFFFFAA663416171717265B9B
310
FFFFFFFFFFFF7F8080807F80807F7F7F7F7F807FBAFFFFFFFF9B4E4E4F4D4D4E
310
4DC9FFFFFFFFFFFFFFFFFFFFFFFFBA4E4E4E4E4D4E4EFFFFFFFFC94E4E4E4F4E
310
4E4E4D4E4E5A807F9CD9FFFFFFFFFFFFFF9B5B2617171716174E8DEAFFFFFFFF
310
0000000000000000000000000000000000000000000000000000000000000000
  1
OLE
  0
ENDSEC
  0
SECTION
  2
OBJECTS
  0
DICTIONARY
  5
C
330
0
100
AcDbDictionary
281
     1
  3
ACAD_GROUP
350
D
  3
ACAD_LAYOUT
350
1A
  3
ACAD_MLINESTYLE
350
17
  3
ACAD_PLOTSETTINGS
350
19
  3
ACAD_PLOTSTYLENAME
350
E
  3
ACAD_SCALELIST
350
47
  0
DICTIONARY
  5
D
102
{ACAD_REACTORS
330
C
102
}
330
C
100
AcDbDictionary
281
     1
  0
DICTIONARY
  5
1A
102
{ACAD_REACTORS
330
C
102
}
330
C
100
AcDbDictionary
281
     1
  3
Layout1
350
1E
  3
Layout2
350
26
  3
Model
350
22
  0
DICTIONARY
  5
17
102
{ACAD_REACTORS
330
C
102
}
330
C
100
AcDbDictionary
281
     1
  3
Standard
350
18
  0
DICTIONARY
  5
19
102
{ACAD_REACTORS
330
C
102
}
330
C
100
AcDbDictionary
281
     1
  0
ACDBDICTIONARYWDFLT
  5
E
102
{ACAD_REACTORS
330
C
102
}
330
C
100
AcDbDictionary
281
     1
  3
Normal
350
F
100
AcDbDictionaryWithDefault
340
F
  0
DICTIONARY
  5
47
102
{ACAD_REACTORS
330
C
102
}
330
C
100
AcDbDictionary
281
     1
  3
A0
350
48
  3
A1
350
49
  3
A2
350
4A
  3
A3
350
4B
  3
A4
350
4C
  3
A5
350
4D
  3
A6
350
4E
  3
A7
350
4F
  3
A8
350
50
  3
A9
350
51
  3
B0
350
52
  3
B1
350
53
  3
B2
350
54
  3
B3
350
55
  3
B4
350
56
  3
B5
350
57
  3
B6
350
58
  3
B7
350
59
  3
B8
350
5A
  3
B9
350
5B
  3
C0
350
5C
  3
C1
350
5D
  3
C2
350
5E
  3
C3
350
5F
  3
C4
350
60
  3
C5
350
61
  3
C6
350
62
  3
C7
350
63
  3
C8
350
64
  3
C9
350
65
  3
D0
350
66
  3
D1
350
67
  3
D2
350
68
  0
LAYOUT
  5
1E
102
{ACAD_REACTORS
330
1A
102
}
330
1A
100
AcDbPlotSettings
  1

  2
none_device
  4

  6

 40
0.0
 41
0.0
 42
0.0
 43
0.0
 44
0.0
 45
0.0
 46
0.0
 47
0.0
 48
0.0
 49
0.0
140
0.0
141
0.0
142
1.0
143
1.0
 70
   688
 72
     0
 73
     0
 74
     5
  7

 75
    16
147
1.0
148
0.0
149
0.0
100
AcDbLayout
  1
Layout1
 70
     1
 71
     1
 10
0.0
 20
0.0
 11
12.0
 21
9.0
 12
0.0
 22
0.0
 32
0.0
 14
1.0000000000E+20
 24
1.0000000000E+20
 34
1.0000000000E+20
 15
-1.0000000000E+20
 25
-1.0000000000E+20
 35
-1.0000000000E+20
146
0.0
 13
0.0
 23
0.0
 33
0.0
 16
1.0
 26
0.0
 36
0.0
 17
0.0
 27
1.0
 37
0.0
 76
     0
330
1B
  0
LAYOUT
  5
26
102
{ACAD_REACTORS
330
1A
102
}
330
1A
100
AcDbPlotSettings
  1

  2
none_device
  4

  6

 40
0.0
 41
0.0
 42
0.0
 43
0.0
 44
0.0
 45
0.0
 46
0.0
 47
0.0
 48
0.0
 49
0.0
140
0.0
141
0.0
142
1.0
143
1.0
 70
   688
 72
     0
 73
     0
 74
     5
  7

 75
    16
147
1.0
148
0.0
149
0.0
100
AcDbLayout
  1
Layout2
 70
     1
 71
     2
 10
0.0
 20
0.0
 11
0.0
 21
0.0
 12
0.0
 22
0.0
 32
0.0
 14
0.0
 24
0.0
 34
0.0
 15
0.0
 25
0.0
 35
0.0
146
0.0
 13
0.0
 23
0.0
 33
0.0
 16
1.0
 26
0.0
 36
0.0
 17
0.0
 27
1.0
 37
0.0
 76
     0
330
23
  0
LAYOUT
  5
22
102
{ACAD_REACTORS
330
1A
102
}
330
1A
100
AcDbPlotSettings
  1

  2
none_device
  4
Letter_(8.50_x_11.00_Inches)
  6

 40
6.35
 41
6.35
 42
6.35000508
 43
6.35000508
 44
215.9
 45
279.4
 46
0.0
 47
0.0
 48
0.0
 49
0.0
140
0.0
141
0.0
142
1.0
143
1.0
 70
  1712
 72
     0
 73
     0
 74
     0
  7

 75
     0
147
1.0
148
0.0
149
0.0
100
AcDbLayout
  1
Model
 70
     1
 71
     0
 10
0.0
 20
0.0
 11
11.0
 21
8.5
 12
0.0
 22
0.0
 32
0.0
 14
0.0
 24
0.0
 34
0.0
 15
11.0
 25
8.5
 35
0.0
146
0.0
 13
0.0
 23
0.0
 33
0.0
 16
1.0
 26
0.0
 36
0.0
 17
0.0
 27
1.0
 37
0.0
 76
     0
330
1F
331
29
  0
MLINESTYLE
  5
18
102
{ACAD_REACTORS
330
17
102
}
330
17
100
AcDbMlineStyle
  2
Standard
 70
     0
  3

 62
   256
 51
90.0
 52
90.0
 71
     2
 49
0.5
 62
   256
  6
BYLAYER
 49
-0.5
 62
   256
  6
BYLAYER
  0
ACDBPLACEHOLDER
  5
F
102
{ACAD_REACTORS
330
E
102
}
330
E
  0
SCALE
  5
48
102
{ACAD_REACTORS
330
47
102
}
330
47
100
AcDbScale
 70
     0
300
1:1
140
1.0
141
1.0
290
     1
  0
SCALE
  5
49
102
{ACAD_REACTORS
330
47
102
}
330
47
100
AcDbScale
 70
     0
300
1:2
140
1.0
141
2.0
290
     0
  0
SCALE
  5
4A
102
{ACAD_REACTORS
330
47
102
}
330
47
100
AcDbScale
 70
     0
300
1:4
140
1.0
141
4.0
290
     0
  0
SCALE
  5
4B
102
{ACAD_REACTORS
330
47
102
}
330
47
100
AcDbScale
 70
     0
300
1:5
140
1.0
141
5.0
290
     0
  0
SCALE
  5
4C
102
{ACAD_REACTORS
330
47
102
}
330
47
100
AcDbScale
 70
     0
300
1:8
140
1.0
141
8.0
290
     0
  0
SCALE
  5
4D
102
{ACAD_REACTORS
330
47
102
}
330
47
100
AcDbScale
 70
     0
300
1:10
140
1.0
141
10.0
290
     0
  0
SCALE
  5
4E
102
{ACAD_REACTORS
330
47
102
}
330
47
100
AcDbScale
 70
     0
300
1:16
140
1.0
141
16.0
290
     0
  0
SCALE
  5
4F
102
{ACAD_REACTORS
330
47
102
}
330
47
100
AcDbScale
 70
     0
300
1:20
140
1.0
141
20.0
290
     0
  0
SCALE
  5
50
102
{ACAD_REACTORS
330
47
102
}
330
47
100
AcDbScale
 70
     0
300
1:30
140
1.0
141
30.0
290
     0
  0
SCALE
  5
51
102
{ACAD_REACTORS
330
47
102
}
330
47
100
AcDbScale
 70
     0
300
1:40
140
1.0
141
40.0
290
     0
  0
SCALE
  5
52
102
{ACAD_REACTORS
330
47
102
}
330
47
100
AcDbScale
 70
     0
300
1:50
140
1.0
141
50.0
290
     0
  0
SCALE
  5
53
102
{ACAD_REACTORS
330
47
102
}
330
47
100
AcDbScale
 70
     0
300
1:100
140
1.0
141
100.0
290
     0
  0
SCALE
  5
54
102
{ACAD_REACTORS
330
47
102
}
330
47
100
AcDbScale
 70
     0
300
2:1
140
2.0
141
1.0
290
     0
  0
SCALE
  5
55
102
{ACAD_REACTORS
330
47
102
}
330
47
100
AcDbScale
 70
     0
300
4:1
140
4.0
141
1.0
290
     0
  0
SCALE
  5
56
102
{ACAD_REACTORS
330
47
102
}
330
47
100
AcDbScale
 70
     0
300
8:1
140
8.0
141
1.0
290
     0
  0
SCALE
  5
57
102
{ACAD_REACTORS
330
47
102
}
330
47
100
AcDbScale
 70
     0
300
10:1
140
10.0
141
1.0
290
     0
  0
SCALE
  5
58
102
{ACAD_REACTORS
330
47
102
}
330
47
100
AcDbScale
 70
     0
300
100:1
140
100.0
141
1.0
290
     0
  0
SCALE
  5
59
102
{ACAD_REACTORS
330
47
102
}
330
47
100
AcDbScale
 70
     0
300
1/128" = 1'-0"
140
0.0078125
141
12.0
290
     0
  0
SCALE
  5
5A
102
{ACAD_REACTORS
330
47
102
}
330
47
100
AcDbScale
 70
     0
300
1/64" = 1'-0"
140
0.015625
141
12.0
290
     0
  0
SCALE
  5
5B
102
{ACAD_REACTORS
330
47
102
}
330
47
100
AcDbScale
 70
     0
300
1/32" = 1'-0"
140
0.03125
141
12.0
290
     0
  0
SCALE
  5
5C
102
{ACAD_REACTORS
330
47
102
}
330
47
100
AcDbScale
 70
     0
300
1/16" = 1'-0"
140
0.0625
141
12.0
290
     0
  0
SCALE
  5
5D
102
{ACAD_REACTORS
330
47
102
}
330
47
100
AcDbScale
 70
     0
300
3/32" = 1'-0"
140
0.09375
141
12.0
290
     0
  0
SCALE
  5
5E
102
{ACAD_REACTORS
330
47
102
}
330
47
100
AcDbScale
 70
     0
300
1/8" = 1'-0"
140
0.125
141
12.0
290
     0
  0
SCALE
  5
5F
102
{ACAD_REACTORS
330
47
102
}
330
47
100
AcDbScale
 70
     0
300
3/16" = 1'-0"
140
0.1875
141
12.0
290
     0
  0
SCALE
  5
60
102
{ACAD_REACTORS
330
47
102
}
330
47
100
AcDbScale
 70
     0
300
1/4" = 1'-0"
140
0.25
141
12.0
290
     0
  0
SCALE
  5
61
102
{ACAD_REACTORS
330
47
102
}
330
47
100
AcDbScale
 70
     0
300
3/8" = 1'-0"
140
0.375
141
12.0
290
     0
  0
SCALE
  5
62
102
{ACAD_REACTORS
330
47
102
}
330
47
100
AcDbScale
 70
     0
300
1/2" = 1'-0"
140
0.5
141
12.0
290
     0
  0
SCALE
  5
63
102
{ACAD_REACTORS
330
47
102
}
330
47
100
AcDbScale
 70
     0
300
3/4" = 1'-0"
140
0.75
141
12.0
290
     0
  0
SCALE
  5
64
102
{ACAD_REACTORS
330
47
102
}
330
47
100
AcDbScale
 70
     0
300
1" = 1'-0"
140
1.0
141
12.0
290
     0
  0
SCALE
  5
65
102
{ACAD_REACTORS
330
47
102
}
330
47
100
AcDbScale
 70
     0
300
1-1/2" = 1'-0"
140
1.5
141
12.0
290
     0
  0
SCALE
  5
66
102
{ACAD_REACTORS
330
47
102
}
330
47
100
AcDbScale
 70
     0
300
3" = 1'-0"
140
3.0
141
12.0
290
     0
  0
SCALE
  5
67
102
{ACAD_REACTORS
330
47
102
}
330
47
100
AcDbScale
 70
     0
300
6" = 1'-0"
140
6.0
141
12.0
290
     0
  0
SCALE
  5
68
102
{ACAD_REACTORS
330
47
102
}
330
47
100
AcDbScale
 70
     0
300
1'-0" = 1'-0"
140
12.0
141
12.0
290
     0
  0
ENDSEC
  0
EOF
