  0
SECTION
  2
HEADER
  9
$ACADVER
  1
AC1015
  9
$ACADMAINTVER
 70
     6
  9
$DWGCODEPAGE
  3
ANSI_1252
  9
$INSBASE
 10
0.0
 20
0.0
 30
0.0
  9
$EXTMIN
 10
0.0
 20
0.0
 30
0.0
  9
$EXTMAX
 10
11.0
 20
8.5
 30
0.0
  9
$LIMMIN
 10
0.0
 20
0.0
  9
$LIMMAX
 10
0.0
 20
0.0
  9
$ORTHOMODE
 70
     0
  9
$REGENMODE
 70
     1
  9
$FILLMODE
 70
     1
  9
$QTEXTMODE
 70
     0
  9
$MIRRTEXT
 70
     1
  9
$LTSCALE
 40
1.0
  9
$ATTMODE
 70
     1
  9
$TEXTSIZE
 40
0.09
  9
$TRACEWID
 40
0.05
  9
$TEXTSTYLE
  7
Standard
  9
$CLAYER
  8
0
  9
$CELTYPE
  6
ByLayer
  9
$CECOLOR
 62
   256
  9
$CELTSCALE
 40
1.0
  9
$DISPSILH
 70
     0
  9
$DIMSCALE
 40
1.0
  9
$DIMASZ
 40
0.16
  9
$DIMEXO
 40
0.05
  9
$DIMDLI
 40
0.38
  9
$DIMRND
 40
0.0
  9
$DIMDLE
 40
0.0
  9
$DIMEXE
 40
0.125
  9
$DIMTP
 40
0.0
  9
$DIMTM
 40
0.0
  9
$DIMTXT
 40
0.09
  9
$DIMCEN
 40
0.09
  9
$DIMTSZ
 40
0.0
  9
$DIMTOL
 70
     0
  9
$DIMLIM
 70
     0
  9
$DIMTIH
 70
     1
  9
$DIMTOH
 70
     1
  9
$DIMSE1
 70
     0
  9
$DIMSE2
 70
     0
  9
$DIMTAD
 70
     0
  9
$DIMZIN
 70
     1
  9
$DIMBLK
  1

  9
$DIMASO
 70
     1
  9
$DIMSHO
 70
     1
  9
$DIMPOST
  1

  9
$DIMAPOST
  1

  9
$DIMALT
 70
     0
  9
$DIMALTD
 70
     2
  9
$DIMALTF
 40
25.4
  9
$DIMLFAC
 40
1.0
  9
$DIMTOFL
 70
     0
  9
$DIMTVP
 40
0.0
  9
$DIMTIX
 70
     0
  9
$DIMSOXD
 70
     0
  9
$DIMSAH
 70
     0
  9
$DIMBLK1
  1

  9
$DIMBLK2
  1

  9
$DIMSTYLE
  2
Standard
  9
$DIMCLRD
 70
     0
  9
$DIMCLRE
 70
     0
  9
$DIMCLRT
 70
     0
  9
$DIMTFAC
 40
1.0
  9
$DIMGAP
 40
0.1
  9
$DIMJUST
 70
     0
  9
$DIMSD1
 70
     0
  9
$DIMSD2
 70
     0
  9
$DIMTOLJ
 70
     1
  9
$DIMTZIN
 70
     1
  9
$DIMALTZ
 70
     0
  9
$DIMALTTZ
 70
     0
  9
$DIMUPT
 70
     0
  9
$DIMDEC
 70
     4
  9
$DIMTDEC
 70
     4
  9
$DIMALTU
 70
     2
  9
$DIMALTTD
 70
     2
  9
$DIMTXSTY
  7
Standard
  9
$DIMAUNIT
 70
     0
  9
$DIMADEC
 70
     0
  9
$DIMALTRND
 40
0.0
  9
$DIMAZIN
 70
     0
  9
$DIMDSEP
 70
    46
  9
$DIMATFIT
 70
     3
  9
$DIMFRAC
 70
     0
  9
$DIMLDRBLK
  1

  9
$DIMLUNIT
 70
     2
  9
$DIMLWD
 70
    -2
  9
$DIMLWE
 70
    -2
  9
$DIMTMOVE
 70
     0
  9
$LUNITS
 70
     2
  9
$LUPREC
 70
     3
  9
$SKETCHINC
 40
0.1
  9
$FILLETRAD
 40
0.5
  9
$AUNITS
 70
     0
  9
$AUPREC
 70
     0
  9
$MENU
  1
.
  9
$ELEVATION
 40
0.0
  9
$PELEVATION
 40
0.0
  9
$THICKNESS
 40
0.0
  9
$LIMCHECK
 70
     0
  9
$CHAMFERA
 40
0.5
  9
$CHAMFERB
 40
0.5
  9
$CHAMFERC
 40
1.0
  9
$CHAMFERD
 40
0.0
  9
$SKPOLY
 70
     0
  9
$TDCREATE
 40
2454805.304462847
  9
$TDUCREATE
 40
2454805.51279618
  9
$TDUPDATE
 40
2454805.304462859
  9
$TDUUPDATE
 40
2454805.512796192
  9
$TDINDWG
 40
0.0000000116
  9
$TDUSRTIMER
 40
0.0000000116
  9
$USRTIMER
 70
     1
  9
$ANGBASE
 50
0.0
  9
$ANGDIR
 70
     0
  9
$PDMODE
 70
     0
  9
$PDSIZE
 40
-1.0
  9
$PLINEWID
 40
0.0
  9
$SPLFRAME
 70
     0
  9
$SPLINETYPE
 70
     6
  9
$SPLINESEGS
 70
     8
  9
$HANDSEED
  5
476
  9
$SURFTAB1
 70
     6
  9
$SURFTAB2
 70
     6
  9
$SURFTYPE
 70
     6
  9
$SURFU
 70
     6
  9
$SURFV
 70
     6
  9
$UCSBASE
  2

  9
$UCSNAME
  2

  9
$UCSORG
 10
0.0
 20
0.0
 30
0.0
  9
$UCSXDIR
 10
1.0
 20
0.0
 30
0.0
  9
$UCSYDIR
 10
0.0
 20
1.0
 30
0.0
  9
$UCSORTHOREF
  2

  9
$UCSORTHOVIEW
 70
     0
  9
$UCSORGTOP
 10
0.0
 20
0.0
 30
0.0
  9
$UCSORGBOTTOM
 10
0.0
 20
0.0
 30
0.0
  9
$UCSORGLEFT
 10
0.0
 20
0.0
 30
0.0
  9
$UCSORGRIGHT
 10
0.0
 20
0.0
 30
0.0
  9
$UCSORGFRONT
 10
0.0
 20
0.0
 30
0.0
  9
$UCSORGBACK
 10
0.0
 20
0.0
 30
0.0
  9
$PUCSBASE
  2

  9
$PUCSNAME
  2

  9
$PUCSORG
 10
0.0
 20
0.0
 30
0.0
  9
$PUCSXDIR
 10
1.0
 20
0.0
 30
0.0
  9
$PUCSYDIR
 10
0.0
 20
1.0
 30
0.0
  9
$PUCSORTHOREF
  2

  9
$PUCSORTHOVIEW
 70
     0
  9
$PUCSORGTOP
 10
0.0
 20
0.0
 30
0.0
  9
$PUCSORGBOTTOM
 10
0.0
 20
0.0
 30
0.0
  9
$PUCSORGLEFT
 10
0.0
 20
0.0
 30
0.0
  9
$PUCSORGRIGHT
 10
0.0
 20
0.0
 30
0.0
  9
$PUCSORGFRONT
 10
0.0
 20
0.0
 30
0.0
  9
$PUCSORGBACK
 10
0.0
 20
0.0
 30
0.0
  9
$USERI1
 70
     0
  9
$USERI2
 70
     0
  9
$USERI3
 70
     0
  9
$USERI4
 70
     0
  9
$USERI5
 70
     0
  9
$USERR1
 40
0.0
  9
$USERR2
 40
0.0
  9
$USERR3
 40
0.0
  9
$USERR4
 40
0.0
  9
$USERR5
 40
0.0
  9
$WORLDVIEW
 70
     1
  9
$SHADEDGE
 70
     3
  9
$SHADEDIF
 70
    70
  9
$TILEMODE
 70
     1
  9
$MAXACTVP
 70
    64
  9
$PINSBASE
 10
0.0
 20
0.0
 30
0.0
  9
$PLIMCHECK
 70
     0
  9
$PEXTMIN
 10
1.0000000000E+20
 20
1.0000000000E+20
 30
1.0000000000E+20
  9
$PEXTMAX
 10
-1.0000000000E+20
 20
-1.0000000000E+20
 30
-1.0000000000E+20
  9
$PLIMMIN
 10
0.0
 20
0.0
  9
$PLIMMAX
 10
12.0
 20
9.0
  9
$UNITMODE
 70
     0
  9
$VISRETAIN
 70
     1
  9
$PLINEGEN
 70
     0
  9
$PSLTSCALE
 70
     1
  9
$TREEDEPTH
 70
  3020
  9
$CMLSTYLE
  2
Standard
  9
$CMLJUST
 70
     0
  9
$CMLSCALE
 40
1.0
  9
$PROXYGRAPHICS
 70
     1
  9
$MEASUREMENT
 70
     0
  9
$CELWEIGHT
370
    -1
  9
$ENDCAPS
280
     0
  9
$JOINSTYLE
280
     0
  9
$LWDISPLAY
290
     1
  9
$INSUNITS
 70
     1
  9
$HYPERLINKBASE
  1

  9
$STYLESHEET
  1

  9
$XEDIT
290
     1
  9
$CEPSNTYPE
380
     0
  9
$PSTYLEMODE
290
     1
  9
$FINGERPRINTGUID
  2
{D5FA3194-D19C-4CB3-AF41-3733A17D2CE3}
  9
$VERSIONGUID
  2
{FAEB1C32-E019-11D5-929B-00C0DF256EC4}
  9
$EXTNAMES
290
     1
  9
$PSVPSCALE
 40
0.0
  9
$OLESTARTUP
290
     0
  0
ENDSEC
  0
SECTION
  2
CLASSES
  0
CLASS
  1
ACDBDICTIONARYWDFLT
  2
AcDbDictionaryWithDefault
  3
ObjectDBX Classes
 90
        0
280
     0
281
     0
  0
CLASS
  1
ACDBPLACEHOLDER
  2
AcDbPlaceHolder
  3
ObjectDBX Classes
 90
        0
280
     0
281
     0
  0
CLASS
  1
LAYOUT
  2
AcDbLayout
  3
ObjectDBX Classes
 90
        0
280
     0
281
     0
  0
ENDSEC
  0
SECTION
  2
TABLES
  0
TABLE
  2
VPORT
  5
8
330
0
100
AcDbSymbolTable
 70
     1
  0
VPORT
  5
29
330
8
100
AcDbSymbolTableRecord
100
AcDbViewportTableRecord
  2
*Active
 70
     0
 10
0.0
 20
0.0
 11
1.0
 21
1.0
 12
5.5
 22
4.25
 13
0.0
 23
0.0
 14
0.5
 24
0.5
 15
0.5
 25
0.5
 16
0.0
 26
0.0
 36
1.0
 17
0.0
 27
0.0
 37
0.0
 40
8.5
 41
1.2941176471
 42
50.0
 43
0.0
 44
0.0
 50
0.0
 51
0.0
 71
     0
 72
  2000
 73
     1
 74
     3
 75
     0
 76
     0
 77
     0
 78
     0
281
     0
 65
     1
110
0.0
120
0.0
130
0.0
111
1.0
121
0.0
131
0.0
112
0.0
122
1.0
132
0.0
 79
     0
146
0.0
  0
ENDTAB
  0
TABLE
  2
LTYPE
  5
5
330
0
100
AcDbSymbolTable
 70
     6
  0
LTYPE
  5
14
330
5
100
AcDbSymbolTableRecord
100
AcDbLinetypeTableRecord
  2
ByBlock
 70
     0
  3

 72
    65
 73
     0
 40
0.0
  0
LTYPE
  5
15
330
5
100
AcDbSymbolTableRecord
100
AcDbLinetypeTableRecord
  2
ByLayer
 70
     0
  3

 72
    65
 73
     0
 40
0.0
  0
LTYPE
  5
16
330
5
100
AcDbSymbolTableRecord
100
AcDbLinetypeTableRecord
  2
Continuous
 70
     0
  3
Solid line
 72
    65
 73
     0
 40
0.0
  0
LTYPE
  5
2A
330
5
100
AcDbSymbolTableRecord
100
AcDbLinetypeTableRecord
  2
HIDDEN
 70
     0
  3
Hidden __ __ __ __ __ __ __ __ __ __ __ __ __ __
 72
    65
 73
     2
 40
0.075
 49
0.05
 74
     0
 49
-0.025
 74
     0
  0
LTYPE
  5
2B
330
5
100
AcDbSymbolTableRecord
100
AcDbLinetypeTableRecord
  2
PHANTOM
 70
     0
  3
Phantom ______  __  __  ______  __  __  ______
 72
    65
 73
     6
 40
0.5
 49
0.25
 74
     0
 49
-0.05
 74
     0
 49
0.05
 74
     0
 49
-0.05
 74
     0
 49
0.05
 74
     0
 49
-0.05
 74
     0
  0
LTYPE
  5
2C
330
5
100
AcDbSymbolTableRecord
100
AcDbLinetypeTableRecord
  2
CENTER
 70
     0
  3
Center ____ _ ____ _ ____ _ ____ _ ____ _ ____
 72
    65
 73
     4
 40
0.4
 49
0.25
 74
     0
 49
-0.05
 74
     0
 49
0.05
 74
     0
 49
-0.05
 74
     0
  0
LTYPE
  5
2D
330
5
100
AcDbSymbolTableRecord
100
AcDbLinetypeTableRecord
  2
CENTERX2
 70
     0
  3
Center (2x) ________  __  ________  __  _____
 72
    65
 73
     4
 40
0.8
 49
0.5
 74
     0
 49
-0.1
 74
     0
 49
0.1
 74
     0
 49
-0.1
 74
     0
  0
LTYPE
  5
2E
330
5
100
AcDbSymbolTableRecord
100
AcDbLinetypeTableRecord
  2
DOT2
 70
     0
  3
Dot (.5x) ........................................
 72
    65
 73
     2
 40
0.025
 49
0.0
 74
     0
 49
-0.025
 74
     0
  0
ENDTAB
  0
TABLE
  2
LAYER
  5
2
330
0
100
AcDbSymbolTable
 70
     2
  0
LAYER
  5
10
330
2
100
AcDbSymbolTableRecord
100
AcDbLayerTableRecord
  2
0
 70
     0
 62
     7
  6
Continuous
370
    -3
390
F
  0
LAYER
  5
2F
330
2
100
AcDbSymbolTableRecord
100
AcDbLayerTableRecord
  2
FORMAT
 70
     0
 62
     7
  6
Continuous
370
    -3
390
F
  0
ENDTAB
  0
TABLE
  2
STYLE
  5
3
330
0
100
AcDbSymbolTable
 70
    18
  0
STYLE
  5
11
330
3
100
AcDbSymbolTableRecord
100
AcDbTextStyleTableRecord
  2
Standard
 70
     0
 40
0.0
 41
1.0
 50
0.0
 71
     0
 42
0.2
  3
txt
  4

  0
STYLE
  5
4D
330
3
100
AcDbSymbolTableRecord
100
AcDbTextStyleTableRecord
  2
SLDTEXTSTYLE0
 70
     0
 40
0.0
 41
0.75
 50
0.0
 71
     0
 42
0.2
  3
TXT
  4

  0
STYLE
  5
56
330
3
100
AcDbSymbolTableRecord
100
AcDbTextStyleTableRecord
  2
SLDTEXTSTYLE1
 70
     0
 40
0.0
 41
0.6428571429
 50
0.0
 71
     0
 42
0.2
  3
TXT
  4

  0
STYLE
  5
58
330
3
100
AcDbSymbolTableRecord
100
AcDbTextStyleTableRecord
  2
SLDTEXTSTYLE2
 70
     0
 40
0.0
 41
0.7211538462
 50
0.0
 71
     0
 42
0.2
  3
TXT
  4

  0
STYLE
  5
63
330
3
100
AcDbSymbolTableRecord
100
AcDbTextStyleTableRecord
  2
SLDTEXTSTYLE3
 70
     0
 40
0.0
 41
0.6375
 50
0.0
 71
     0
 42
0.2
  3
TXT
  4

  0
STYLE
  5
69
330
3
100
AcDbSymbolTableRecord
100
AcDbTextStyleTableRecord
  2
SLDTEXTSTYLE4
 70
     0
 40
0.0
 41
0.7016129032
 50
0.0
 71
     0
 42
0.2
  3
TXT
  4

  0
STYLE
  5
6B
330
3
100
AcDbSymbolTableRecord
100
AcDbTextStyleTableRecord
  2
SLDTEXTSTYLE5
 70
     0
 40
0.0
 41
0.6853448276
 50
0.0
 71
     0
 42
0.2
  3
TXT
  4

  0
STYLE
  5
6D
330
3
100
AcDbSymbolTableRecord
100
AcDbTextStyleTableRecord
  2
SLDTEXTSTYLE6
 70
     0
 40
0.0
 41
0.689516129
 50
0.0
 71
     0
 42
0.2
  3
TXT
  4

  0
STYLE
  5
6F
330
3
100
AcDbSymbolTableRecord
100
AcDbTextStyleTableRecord
  2
SLDTEXTSTYLE7
 70
     0
 40
0.0
 41
0.6666666667
 50
0.0
 71
     0
 42
0.2
  3
TXT
  4

  0
STYLE
  5
71
330
3
100
AcDbSymbolTableRecord
100
AcDbTextStyleTableRecord
  2
SLDTEXTSTYLE8
 70
     0
 40
0.0
 41
0.7010869565
 50
0.0
 71
     0
 42
0.2
  3
TXT
  4

  0
STYLE
  5
73
330
3
100
AcDbSymbolTableRecord
100
AcDbTextStyleTableRecord
  2
SLDTEXTSTYLE9
 70
     0
 40
0.0
 41
0.7083333333
 50
0.0
 71
     0
 42
0.2
  3
TXT
  4

  0
STYLE
  5
82
330
3
100
AcDbSymbolTableRecord
100
AcDbTextStyleTableRecord
  2
SLDTEXTSTYLE10
 70
     0
 40
0.0
 41
0.65625
 50
0.0
 71
     0
 42
0.2
  3
TXT
  4

  0
STYLE
  5
8B
330
3
100
AcDbSymbolTableRecord
100
AcDbTextStyleTableRecord
  2
SLDTEXTSTYLE11
 70
     0
 40
0.0
 41
0.69375
 50
0.0
 71
     0
 42
0.2
  3
TXT
  4

  0
STYLE
  5
8D
330
3
100
AcDbSymbolTableRecord
100
AcDbTextStyleTableRecord
  2
SLDTEXTSTYLE12
 70
     0
 40
0.0
 41
0.6988636364
 50
0.0
 71
     0
 42
0.2
  3
TXT
  4

  0
STYLE
  5
8F
330
3
100
AcDbSymbolTableRecord
100
AcDbTextStyleTableRecord
  2
SLDTEXTSTYLE13
 70
     0
 40
0.0
 41
0.7115384615
 50
0.0
 71
     0
 42
0.2
  3
TXT
  4

  0
STYLE
  5
92
330
3
100
AcDbSymbolTableRecord
100
AcDbTextStyleTableRecord
  2
SLDTEXTSTYLE14
 70
     0
 40
0.0
 41
0.6796875
 50
0.0
 71
     0
 42
0.2
  3
TXT
  4

  0
STYLE
  5
A2
330
3
100
AcDbSymbolTableRecord
100
AcDbTextStyleTableRecord
  2
SLDTEXTSTYLE15
 70
     0
 40
0.0
 41
0.6995192308
 50
0.0
 71
     0
 42
0.2
  3
TXT
  4

  0
STYLE
  5
442
330
3
100
AcDbSymbolTableRecord
100
AcDbTextStyleTableRecord
  2
SLDTEXTSTYLE16
 70
     0
 40
0.0
 41
0.6875
 50
0.0
 71
     0
 42
0.2
  3
TXT
  4

  0
ENDTAB
  0
TABLE
  2
VIEW
  5
6
330
0
100
AcDbSymbolTable
 70
     0
  0
ENDTAB
  0
TABLE
  2
UCS
  5
7
330
0
100
AcDbSymbolTable
 70
     0
  0
ENDTAB
  0
TABLE
  2
APPID
  5
9
330
0
100
AcDbSymbolTable
 70
     1
  0
APPID
  5
12
330
9
100
AcDbSymbolTableRecord
100
AcDbRegAppTableRecord
  2
ACAD
 70
     0
  0
ENDTAB
  0
TABLE
  2
DIMSTYLE
  5
A
330
0
100
AcDbSymbolTable
 70
     6
100
AcDbDimStyleTable
  0
DIMSTYLE
105
27
330
A
100
AcDbSymbolTableRecord
100
AcDbDimStyleTableRecord
  2
Standard
 70
     0
340
11
  0
DIMSTYLE
105
D1
102
{ACAD_REACTORS
330
D0
102
}
330
A
100
AcDbSymbolTableRecord
100
AcDbDimStyleTableRecord
  2
SLDDIMSTYLE0
 70
     0
 41
0.16
 44
0.0
 78
     4
140
0.09
147
0.0225
170
     1
171
     1
172
     1
173
     1
271
     3
272
     3
274
     1
284
    12
340
4D
  0
DIMSTYLE
105
3BE
102
{ACAD_REACTORS
330
3BD
330
3D0
330
3E2
330
3F4
330
42C
102
}
330
A
100
AcDbSymbolTableRecord
100
AcDbDimStyleTableRecord
  2
SLDDIMSTYLE1
 70
     0
 41
0.16
 44
0.0
 78
    12
140
0.09
147
0.0225
170
     1
171
     1
173
     1
271
     3
272
     3
274
     1
284
    12
340
4D
  0
DIMSTYLE
105
407
102
{ACAD_REACTORS
330
406
102
}
330
A
100
AcDbSymbolTableRecord
100
AcDbDimStyleTableRecord
  2
SLDDIMSTYLE2
 70
     0
 41
0.16
 44
0.0
 78
     4
140
0.09
147
0.0225
170
     1
171
     1
173
     1
271
     3
272
     3
274
     1
284
    12
340
4D
  0
DIMSTYLE
105
41A
102
{ACAD_REACTORS
330
419
102
}
330
A
100
AcDbSymbolTableRecord
100
AcDbDimStyleTableRecord
  2
SLDDIMSTYLE3
 70
     0
 41
0.16
 44
0.0
 78
     8
140
0.09
147
0.0225
170
     1
171
     1
173
     1
271
     3
272
     3
274
     1
284
    12
340
4D
  0
DIMSTYLE
105
446
330
A
100
AcDbSymbolTableRecord
100
AcDbDimStyleTableRecord
  2
SLDDIMSTYLE4
 70
     0
 41
0.16
 44
0.0
140
0.16
147
0.04
173
     1
271
     0
272
     0
340
11
  0
ENDTAB
  0
TABLE
  2
BLOCK_RECORD
  5
1
330
0
100
AcDbSymbolTable
 70
    21
  0
BLOCK_RECORD
  5
1F
330
1
100
AcDbSymbolTableRecord
100
AcDbBlockTableRecord
  2
*Model_Space
340
22
  0
BLOCK_RECORD
  5
1B
330
1
100
AcDbSymbolTableRecord
100
AcDbBlockTableRecord
  2
*Paper_Space
340
1E
  0
BLOCK_RECORD
  5
23
330
1
100
AcDbSymbolTableRecord
100
AcDbBlockTableRecord
  2
*Paper_Space0
340
26
  0
BLOCK_RECORD
  5
66
330
1
100
AcDbSymbolTableRecord
100
AcDbBlockTableRecord
  2
SW_NOTE_0
340
0
102
{BLKREFS
331
75
102
}
1001
ACAD
1000
DesignCenter Data
1002
{
1070
     1
1070
     0
1002
}
  0
BLOCK_RECORD
  5
7F
330
1
100
AcDbSymbolTableRecord
100
AcDbBlockTableRecord
  2
SW_NOTE_1
340
0
102
{BLKREFS
331
85
102
}
1001
ACAD
1000
DesignCenter Data
1002
{
1070
     1
1070
     0
1002
}
  0
BLOCK_RECORD
  5
87
330
1
100
AcDbSymbolTableRecord
100
AcDbBlockTableRecord
  2
SW_NOTE_2
340
0
102
{BLKREFS
331
96
102
}
1001
ACAD
1000
DesignCenter Data
1002
{
1070
     1
1070
     0
1002
}
  0
BLOCK_RECORD
  5
97
330
1
100
AcDbSymbolTableRecord
100
AcDbBlockTableRecord
  2
SW_NOTE_3
340
0
102
{BLKREFS
331
9C
102
}
1001
ACAD
1000
DesignCenter Data
1002
{
1070
     1
1070
     0
1002
}
  0
BLOCK_RECORD
  5
9E
330
1
100
AcDbSymbolTableRecord
100
AcDbBlockTableRecord
  2
SW_NOTE_4
340
0
102
{BLKREFS
331
A4
102
}
1001
ACAD
1000
DesignCenter Data
1002
{
1070
     1
1070
     0
1002
}
  0
BLOCK_RECORD
  5
A5
330
1
100
AcDbSymbolTableRecord
100
AcDbBlockTableRecord
  2
SW_TABLEANNOTATION_0
340
0
102
{BLKREFS
331
BD
102
}
1001
ACAD
1000
DesignCenter Data
1002
{
1070
     1
1070
     0
1002
}
  0
BLOCK_RECORD
  5
D2
330
1
100
AcDbSymbolTableRecord
100
AcDbBlockTableRecord
  2
*D7
340
0
  0
BLOCK_RECORD
  5
3BF
330
1
100
AcDbSymbolTableRecord
100
AcDbBlockTableRecord
  2
*D8
340
0
  0
BLOCK_RECORD
  5
3D1
330
1
100
AcDbSymbolTableRecord
100
AcDbBlockTableRecord
  2
*D9
340
0
  0
BLOCK_RECORD
  5
3E3
330
1
100
AcDbSymbolTableRecord
100
AcDbBlockTableRecord
  2
*D10
340
0
  0
BLOCK_RECORD
  5
3F5
330
1
100
AcDbSymbolTableRecord
100
AcDbBlockTableRecord
  2
*D11
340
0
  0
BLOCK_RECORD
  5
408
330
1
100
AcDbSymbolTableRecord
100
AcDbBlockTableRecord
  2
*D12
340
0
  0
BLOCK_RECORD
  5
41B
330
1
100
AcDbSymbolTableRecord
100
AcDbBlockTableRecord
  2
*D13
340
0
  0
BLOCK_RECORD
  5
42D
330
1
100
AcDbSymbolTableRecord
100
AcDbBlockTableRecord
  2
*D14
340
0
  0
BLOCK_RECORD
  5
43F
330
1
100
AcDbSymbolTableRecord
100
AcDbBlockTableRecord
  2
SW_NOTE_5
340
0
102
{BLKREFS
331
445
102
}
1001
ACAD
1000
DesignCenter Data
1002
{
1070
     1
1070
     0
1002
}
  0
BLOCK_RECORD
  5
449
330
1
100
AcDbSymbolTableRecord
100
AcDbBlockTableRecord
  2
SW_NOTE_6
340
0
102
{BLKREFS
331
44E
102
}
1001
ACAD
1000
DesignCenter Data
1002
{
1070
     1
1070
     0
1002
}
  0
BLOCK_RECORD
  5
450
330
1
100
AcDbSymbolTableRecord
100
AcDbBlockTableRecord
  2
SW_NOTE_7
340
0
102
{BLKREFS
331
455
102
}
1001
ACAD
1000
DesignCenter Data
1002
{
1070
     1
1070
     0
1002
}
  0
BLOCK_RECORD
  5
457
330
1
100
AcDbSymbolTableRecord
100
AcDbBlockTableRecord
  2
SW_NOTE_8
340
0
102
{BLKREFS
331
45C
102
}
1001
ACAD
1000
DesignCenter Data
1002
{
1070
     1
1070
     0
1002
}
  0
BLOCK_RECORD
  5
45E
330
1
100
AcDbSymbolTableRecord
100
AcDbBlockTableRecord
  2
SW_NOTE_9
340
0
102
{BLKREFS
331
463
102
}
1001
ACAD
1000
DesignCenter Data
1002
{
1070
     1
1070
     0
1002
}
  0
BLOCK_RECORD
  5
465
330
1
100
AcDbSymbolTableRecord
100
AcDbBlockTableRecord
  2
SW_NOTE_10
340
0
102
{BLKREFS
331
46A
102
}
1001
ACAD
1000
DesignCenter Data
1002
{
1070
     1
1070
     0
1002
}
  0
ENDTAB
  0
ENDSEC
  0
SECTION
  2
BLOCKS
  0
BLOCK
  5
20
330
1F
100
AcDbEntity
  8
0
100
AcDbBlockBegin
  2
*Model_Space
 70
     0
 71
     0
 10
0.0
 20
0.0
 30
0.0
  3
*Model_Space
  1

  0
ENDBLK
  5
21
330
1F
100
AcDbEntity
  8
0
100
AcDbBlockEnd
  0
BLOCK
  5
1C
330
1B
100
AcDbEntity
 67
     1
  8
0
100
AcDbBlockBegin
  2
*Paper_Space
 70
     0
 71
     0
 10
0.0
 20
0.0
 30
0.0
  3
*Paper_Space
  1

  0
ENDBLK
  5
1D
330
1B
100
AcDbEntity
 67
     1
  8
0
100
AcDbBlockEnd
  0
BLOCK
  5
24
330
23
100
AcDbEntity
  8
0
100
AcDbBlockBegin
  2
*Paper_Space0
 70
     0
 71
     0
 10
0.0
 20
0.0
 30
0.0
  3
*Paper_Space0
  1

  0
ENDBLK
  5
25
330
23
100
AcDbEntity
  8
0
100
AcDbBlockEnd
  0
BLOCK
  5
67
330
66
100
AcDbEntity
  8
0
100
AcDbBlockBegin
  2
SW_NOTE_0
 70
     0
 71
     0
 10
0.0
 20
0.0
 30
0.0
  3
SW_NOTE_0
  1

  0
MTEXT
  5
6A
330
66
100
AcDbEntity
  8
0
  6
Continuous
 62
     0
370
     0
100
AcDbMText
 10
0.0
 20
0.076640625
 30
0.0
 40
0.06
 41
0.0
 71
     1
 72
     1
  1
THE INFORMATION CONTAINED IN THIS
  7
SLDTEXTSTYLE4
 73
     1
 44
1.0
  0
MTEXT
  5
6C
330
66
100
AcDbEntity
  8
0
  6
Continuous
 62
     0
370
     0
100
AcDbMText
 10
0.0
 20
-0.0227294496
 30
0.0
 40
0.06
 41
0.0
 71
     1
 72
     1
  1
DRAWING IS THE SOLE PROPERTY OF
  7
SLDTEXTSTYLE5
 73
     1
 44
1.0
  0
MTEXT
  5
6E
330
66
100
AcDbEntity
  8
0
  6
Continuous
 62
     0
370
     0
100
AcDbMText
 10
0.0
 20
-0.1220995241
 30
0.0
 40
0.06
 41
0.0
 71
     1
 72
     1
  1
THORLABS, INC.  ANY REPRODUCTION 
  7
SLDTEXTSTYLE6
 73
     1
 44
1.0
  0
MTEXT
  5
70
330
66
100
AcDbEntity
  8
0
  6
Continuous
 62
     0
370
     0
100
AcDbMText
 10
0.0
 20
-0.2214695987
 30
0.0
 40
0.06
 41
0.0
 71
     1
 72
     1
  1
IN PART OR AS A WHOLE WITHOUT
  7
SLDTEXTSTYLE7
 73
     1
 44
1.0
  0
MTEXT
  5
72
330
66
100
AcDbEntity
  8
0
  6
Continuous
 62
     0
370
     0
100
AcDbMText
 10
0.0
 20
-0.3208396733
 30
0.0
 40
0.06
 41
0.0
 71
     1
 72
     1
  1
THE WRITTEN PERMISSION OF
  7
SLDTEXTSTYLE8
 73
     1
 44
1.0
  0
MTEXT
  5
74
330
66
100
AcDbEntity
  8
0
  6
Continuous
 62
     0
370
     0
100
AcDbMText
 10
0.0
 20
-0.4202097478
 30
0.0
 40
0.06
 41
0.0
 71
     1
 72
     1
  1
THORLABS, INC. IS PROHIBITED.
  7
SLDTEXTSTYLE9
 73
     1
 44
1.0
  0
ENDBLK
  5
68
330
66
100
AcDbEntity
  8
0
100
AcDbBlockEnd
  0
BLOCK
  5
80
330
7F
100
AcDbEntity
  8
0
100
AcDbBlockBegin
  2
SW_NOTE_1
 70
     0
 71
     0
 10
0.0
 20
0.0
 30
0.0
  3
SW_NOTE_1
  1

  0
MTEXT
  5
83
330
7F
100
AcDbEntity
  8
0
  6
Continuous
 62
     0
370
     0
100
AcDbMText
 10
0.0
 20
0.1149609375
 30
0.0
 40
0.09
 41
0.0
 71
     1
 72
     1
  1
PO BOX 366
  7
SLDTEXTSTYLE10
 73
     1
 44
1.0
  0
MTEXT
  5
84
330
7F
100
AcDbEntity
  8
0
  6
Continuous
 62
     0
370
     0
100
AcDbMText
 10
0.0
 20
-0.0144091455
 30
0.0
 40
0.09
 41
0.0
 71
     1
 72
     1
  1
NEWTON NJ
  7
SLDTEXTSTYLE0
 73
     1
 44
1.0
  0
ENDBLK
  5
81
330
7F
100
AcDbEntity
  8
0
100
AcDbBlockEnd
  0
BLOCK
  5
88
330
87
100
AcDbEntity
  8
0
100
AcDbBlockBegin
  2
SW_NOTE_2
 70
     0
 71
     0
 10
0.0
 20
0.0
 30
0.0
  3
SW_NOTE_2
  1

  0
LINE
  5
8A
330
87
100
AcDbEntity
  8
0
  6
Continuous
 62
     0
370
     0
100
AcDbLine
 10
1.0817708433
 20
-0.6526041506
 30
0.0
 11
1.4039930543
 21
-0.6526041506
 31
0.0
  0
MTEXT
  5
8C
330
87
100
AcDbEntity
  8
0
  6
Continuous
 62
     0
370
     0
100
AcDbMText
 10
0.0
 20
0.1197509766
 30
0.0
 40
0.09375
 41
0.0
 71
     1
 72
     1
  1
DESIGN WAVELENGTH:  486.1, 587.6 & 656.3nm
  7
SLDTEXTSTYLE11
 73
     1
 44
1.0
  0
MTEXT
  5
8E
330
87
100
AcDbEntity
  8
0
  6
Continuous
 62
     0
370
     0
100
AcDbMText
 10
0.0
 20
-0.0052490219
 30
0.0
 40
0.09375
 41
0.0
 71
     1
 72
     1
  1
COATING:  BBAR 400-700nm
  7
SLDTEXTSTYLE12
 73
     1
 44
1.0
  0
MTEXT
  5
90
330
87
100
AcDbEntity
  8
0
  6
Continuous
 62
     0
370
     0
100
AcDbMText
 10
0.0
 20
-0.1302490204
 30
0.0
 40
0.09375
 41
0.0
 71
     1
 72
     1
  1
COATING RANGE: R(AVG)<0.5% FROM 400-700nm
  7
SLDTEXTSTYLE13
 73
     1
 44
1.0
  0
MTEXT
  5
91
330
87
100
AcDbEntity
  8
0
  6
Continuous
 62
     0
370
     0
100
AcDbMText
 10
0.0
 20
-0.2552490189
 30
0.0
 40
0.09375
 41
0.0
 71
     1
 72
     1
  1
MAGNIFICATION: 1:1
  7
SLDTEXTSTYLE0
 73
     1
 44
1.0
  0
MTEXT
  5
93
330
87
100
AcDbEntity
  8
0
  6
Continuous
 62
     0
370
     0
100
AcDbMText
 10
0.0
 20
-0.6091552547
 30
0.0
 40
0.09375
 41
0.0
 71
     1
 72
     1
  1
Dimensions are in 
  7
SLDTEXTSTYLE14
 73
     1
 44
1.0
  0
MTEXT
  5
94
330
87
100
AcDbEntity
  8
0
  6
Continuous
 62
     0
370
     0
100
AcDbMText
 10
1.0817708433
 20
-0.5052490159
 30
0.0
 40
0.09375
 41
0.0
 71
     1
 72
     1
  1
[mm]
  7
SLDTEXTSTYLE0
 73
     1
 44
1.0
  0
MTEXT
  5
95
330
87
100
AcDbEntity
  8
0
  6
Continuous
 62
     0
370
     0
100
AcDbMText
 10
1.1922743109
 20
-0.6854573399
 30
0.0
 40
0.09375
 41
0.0
 71
     1
 72
     1
  1
in
  7
SLDTEXTSTYLE0
 73
     1
 44
1.0
  0
ENDBLK
  5
89
330
87
100
AcDbEntity
  8
0
100
AcDbBlockEnd
  0
BLOCK
  5
98
330
97
100
AcDbEntity
  8
0
100
AcDbBlockBegin
  2
SW_NOTE_3
 70
     0
 71
     0
 10
0.0
 20
0.0
 30
0.0
  3
SW_NOTE_3
  1

  0
MTEXT
  5
9A
330
97
100
AcDbEntity
  8
0
  6
Continuous
 62
     0
370
     0
100
AcDbMText
 10
0.0
 20
0.1596679688
 30
0.0
 40
0.125
 41
0.0
 71
     1
 72
     1
  1
Matched Achromatic Pair 
  7
SLDTEXTSTYLE12
 73
     1
 44
1.0
  0
MTEXT
  5
9B
330
97
100
AcDbEntity
  8
0
  6
Continuous
 62
     0
370
     0
100
AcDbMText
 10
0.0
 20
-0.0069986959
 30
0.0
 40
0.125
 41
0.0
 71
     1
 72
     1
  1
F1=50mm, F2=50mm
  7
SLDTEXTSTYLE0
 73
     1
 44
1.0
  0
ENDBLK
  5
99
330
97
100
AcDbEntity
  8
0
100
AcDbBlockEnd
  0
BLOCK
  5
9F
330
9E
100
AcDbEntity
  8
0
100
AcDbBlockBegin
  2
SW_NOTE_4
 70
     0
 71
     0
 10
0.0
 20
0.0
 30
0.0
  3
SW_NOTE_4
  1

  0
MTEXT
  5
A1
330
9E
100
AcDbEntity
  8
0
  6
Continuous
 62
     0
370
     0
100
AcDbMText
 10
0.0
 20
0.1149609375
 30
0.0
 40
0.09
 41
0.0
 71
     1
 72
     1
  1
NOTE:
  7
SLDTEXTSTYLE0
 73
     1
 44
1.0
  0
MTEXT
  5
A3
330
9E
100
AcDbEntity
  8
0
  6
Continuous
 62
     0
370
     0
100
AcDbMText
 10
0.0
 20
-0.0144091455
 30
0.0
 40
0.09
 41
0.0
 71
     1
 72
     1
  1
FOR INFORMATION ONLY.  NOT INTENDED FOR MANUFACTURING.
  7
SLDTEXTSTYLE15
 73
     1
 44
1.0
  0
ENDBLK
  5
A0
330
9E
100
AcDbEntity
  8
0
100
AcDbBlockEnd
  0
BLOCK
  5
A6
330
A5
100
AcDbEntity
  8
0
100
AcDbBlockBegin
  2
SW_TABLEANNOTATION_0
 70
     0
 71
     0
 10
0.0
 20
0.0
 30
0.0
  3
SW_TABLEANNOTATION_0
  1

  0
LINE
  5
A8
330
A5
100
AcDbEntity
  8
0
  6
Continuous
 62
     0
370
     0
100
AcDbLine
 10
0.0
 20
0.0
 30
0.0
 11
0.0
 21
-0.6229803075
 31
0.0
  0
LINE
  5
A9
330
A5
100
AcDbEntity
  8
0
  6
Continuous
 62
     0
370
     0
100
AcDbLine
 10
0.0
 20
-0.6229803075
 30
0.0
 11
3.4645866928
 21
-0.6229803075
 31
0.0
  0
LINE
  5
AA
330
A5
100
AcDbEntity
  8
0
  6
Continuous
 62
     0
370
     0
100
AcDbLine
 10
3.4645866928
 20
-0.6229803075
 30
0.0
 11
3.4645866928
 21
0.0
 31
0.0
  0
LINE
  5
AB
330
A5
100
AcDbEntity
  8
0
  6
Continuous
 62
     0
370
     0
100
AcDbLine
 10
3.4645866928
 20
0.0
 30
0.0
 11
0.0
 21
0.0
 31
0.0
  0
LINE
  5
AC
330
A5
100
AcDbEntity
  8
0
  6
Continuous
 62
     0
370
     0
100
AcDbLine
 10
1.1548622309
 20
0.0
 30
0.0
 11
1.1548622309
 21
-0.6229803075
 31
0.0
  0
LINE
  5
AD
330
A5
100
AcDbEntity
  8
0
  6
Continuous
 62
     0
370
     0
100
AcDbLine
 10
2.3097244619
 20
0.0
 30
0.0
 11
2.3097244619
 21
-0.6229803075
 31
0.0
  0
LINE
  5
AE
330
A5
100
AcDbEntity
  8
0
  6
Continuous
 62
     0
370
     0
100
AcDbLine
 10
0.0
 20
-0.1557450769
 30
0.0
 11
3.4645866928
 21
-0.1557450769
 31
0.0
  0
LINE
  5
AF
330
A5
100
AcDbEntity
  8
0
  6
Continuous
 62
     0
370
     0
100
AcDbLine
 10
0.0
 20
-0.3114901537
 30
0.0
 11
3.4645866928
 21
-0.3114901537
 31
0.0
  0
LINE
  5
B0
330
A5
100
AcDbEntity
  8
0
  6
Continuous
 62
     0
370
     0
100
AcDbLine
 10
0.0
 20
-0.4672352306
 30
0.0
 11
3.4645866928
 21
-0.4672352306
 31
0.0
  0
MTEXT
  5
B1
330
A5
100
AcDbEntity
  8
0
  6
Continuous
 62
     0
370
     0
100
AcDbMText
 10
0.4355561111
 20
-0.0320134969
 30
0.0
 40
0.09
 41
0.0
 71
     1
 72
     1
  1
PART
  7
SLDTEXTSTYLE0
 73
     1
 44
1.0
  0
MTEXT
  5
B2
330
A5
100
AcDbEntity
  8
0
  6
Continuous
 62
     0
370
     0
100
AcDbMText
 10
1.4606683143
 20
-0.0320134969
 30
0.0
 40
0.09
 41
0.0
 71
     1
 72
     1
  1
PART NO.
  7
SLDTEXTSTYLE0
 73
     1
 44
1.0
  0
MTEXT
  5
B3
330
A5
100
AcDbEntity
  8
0
  6
Continuous
 62
     0
370
     0
100
AcDbMText
 10
2.6078430823
 20
-0.0320134969
 30
0.0
 40
0.09
 41
0.0
 71
     1
 72
     1
  1
MATERIAL
  7
SLDTEXTSTYLE0
 73
     1
 44
1.0
  0
MTEXT
  5
B4
330
A5
100
AcDbEntity
  8
0
  6
Continuous
 62
     0
370
     0
100
AcDbMText
 10
0.5330561156
 20
-0.1877585737
 30
0.0
 40
0.09
 41
0.0
 71
     1
 72
     1
  1
A
  7
SLDTEXTSTYLE0
 73
     1
 44
1.0
  0
MTEXT
  5
B5
330
A5
100
AcDbEntity
  8
0
  6
Continuous
 62
     0
370
     0
100
AcDbMText
 10
1.3221683642
 20
-0.1877585737
 30
0.0
 40
0.09
 41
0.0
 71
     1
 72
     1
  1
AC254-050-A1
  7
SLDTEXTSTYLE0
 73
     1
 44
1.0
  0
MTEXT
  5
B6
330
A5
100
AcDbEntity
  8
0
  6
Continuous
 62
     0
370
     0
100
AcDbMText
 10
2.5674055878
 20
-0.1877585737
 30
0.0
 40
0.09
 41
0.0
 71
     1
 72
     1
  1
BAF10-SF10
  7
SLDTEXTSTYLE0
 73
     1
 44
1.0
  0
MTEXT
  5
B7
330
A5
100
AcDbEntity
  8
0
  6
Continuous
 62
     0
370
     0
100
AcDbMText
 10
0.5429936162
 20
-0.3435036506
 30
0.0
 40
0.09
 41
0.0
 71
     1
 72
     1
  1
B
  7
SLDTEXTSTYLE0
 73
     1
 44
1.0
  0
MTEXT
  5
B8
330
A5
100
AcDbEntity
  8
0
  6
Continuous
 62
     0
370
     0
100
AcDbMText
 10
1.3650433389
 20
-0.3435036506
 30
0.0
 40
0.09
 41
0.0
 71
     1
 72
     1
  1
LENS MOUNT
  7
SLDTEXTSTYLE0
 73
     1
 44
1.0
  0
MTEXT
  5
B9
330
A5
100
AcDbEntity
  8
0
  6
Continuous
 62
     0
370
     0
100
AcDbMText
 10
2.3399055926
 20
-0.3435036506
 30
0.0
 40
0.09
 41
0.0
 71
     1
 72
     1
  1
6061-T6 ALUMINUM
  7
SLDTEXTSTYLE0
 73
     1
 44
1.0
  0
MTEXT
  5
BA
330
A5
100
AcDbEntity
  8
0
  6
Continuous
 62
     0
370
     0
100
AcDbMText
 10
0.5286811132
 20
-0.4992487275
 30
0.0
 40
0.09
 41
0.0
 71
     1
 72
     1
  1
C
  7
SLDTEXTSTYLE0
 73
     1
 44
1.0
  0
MTEXT
  5
BB
330
A5
100
AcDbEntity
  8
0
  6
Continuous
 62
     0
370
     0
100
AcDbMText
 10
1.541168336
 20
-0.4992487275
 30
0.0
 40
0.09
 41
0.0
 71
     1
 72
     1
  1
SM1RR
  7
SLDTEXTSTYLE0
 73
     1
 44
1.0
  0
MTEXT
  5
BC
330
A5
100
AcDbEntity
  8
0
  6
Continuous
 62
     0
370
     0
100
AcDbMText
 10
2.3399055926
 20
-0.4992487275
 30
0.0
 40
0.09
 41
0.0
 71
     1
 72
     1
  1
6061-T6 ALUMINUM
  7
SLDTEXTSTYLE0
 73
     1
 44
1.0
  0
ENDBLK
  5
A7
330
A5
100
AcDbEntity
  8
0
100
AcDbBlockEnd
  0
BLOCK
  5
D3
330
D2
100
AcDbEntity
  8
0
100
AcDbBlockBegin
  2
*D7
 70
     1
 71
     0
 10
0.0
 20
0.0
 30
0.0
  3
*D7
  1

  0
SOLID
  5
D5
330
D2
100
AcDbEntity
  8
0
  6
Continuous
 62
     7
370
     0
100
AcDbTrace
 10
2.1950553435
 20
4.7706664586
 30
0.0
 11
2.0999587976
 21
4.9019396354
 31
0.0
 12
2.0632857004
 22
4.8650738797
 32
0.0
 13
2.0632857004
 23
4.8650738797
 33
0.0
  0
LINE
  5
D6
330
D2
100
AcDbEntity
  8
0
  6
Continuous
 62
     7
370
     0
100
AcDbLine
 10
1.3173451943
 20
5.1075446462
 30
0.0
 11
1.3173451943
 21
4.9861983816
 31
0.0
  0
LINE
  5
D7
330
D2
100
AcDbEntity
  8
0
  6
Continuous
 62
     7
370
     0
100
AcDbLine
 10
1.3173451943
 20
4.9861983816
 30
0.0
 11
1.3356086185
 21
4.9861983816
 31
0.0
  0
LINE
  5
D8
330
D2
100
AcDbEntity
  8
0
  6
Continuous
 62
     7
370
     0
100
AcDbLine
 10
1.3173451943
 20
5.1075446462
 30
0.0
 11
1.3356086185
 21
5.1075446462
 31
0.0
  0
LINE
  5
D9
330
D2
100
AcDbEntity
  8
0
  6
Continuous
 62
     7
370
     0
100
AcDbLine
 10
1.6230938325
 20
5.1075446462
 30
0.0
 11
1.6230938325
 21
4.9861983816
 31
0.0
  0
LINE
  5
DA
330
D2
100
AcDbEntity
  8
0
  6
Continuous
 62
     7
370
     0
100
AcDbLine
 10
1.6230938325
 20
4.9861983816
 30
0.0
 11
1.6048304083
 21
4.9861983816
 31
0.0
  0
LINE
  5
DB
330
D2
100
AcDbEntity
  8
0
  6
Continuous
 62
     7
370
     0
100
AcDbLine
 10
1.6230938325
 20
5.1075446462
 30
0.0
 11
1.6048304083
 21
5.1075446462
 31
0.0
  0
LINE
  5
DC
330
D2
100
AcDbEntity
  8
0
  6
Continuous
 62
     7
370
     0
100
AcDbLine
 10
2.1950553435
 20
4.7706664586
 30
0.0
 11
1.9891544161
 21
4.9754913582
 31
0.0
  0
LINE
  5
DD
330
D2
100
AcDbEntity
  8
0
  6
Continuous
 62
     7
370
     0
100
AcDbLine
 10
1.9891544161
 20
4.9754913582
 30
0.0
 11
1.7391544161
 21
4.9754913582
 31
0.0
  0
MTEXT
  5
DE
330
D2
100
AcDbEntity
  8
0
  6
Continuous
 62
     7
370
     0
100
AcDbMText
 10
1.2563773733
 20
4.9476919844
 30
0.0
 40
0.09
 41
0.0
 71
     1
 72
     1
  1
%%c
  7
SLDTEXTSTYLE0
 73
     1
 44
1.0
  0
MTEXT
  5
DF
330
D2
100
AcDbEntity
  8
0
  6
Continuous
 62
     7
370
     0
100
AcDbMText
 10
1.3848616535
 20
4.9476919913
 30
0.0
 40
0.09
 41
0.0
 71
     1
 72
     1
  1
1.200
  7
SLDTEXTSTYLE0
 73
     1
 44
1.0
  0
MTEXT
  5
E0
330
D2
100
AcDbEntity
  8
0
  6
Continuous
 62
     7
370
     0
100
AcDbMText
 10
1.3538720426
 20
5.0904523026
 30
0.0
 40
0.09
 41
0.0
 71
     1
 72
     1
  1
30.5
  7
SLDTEXTSTYLE0
 73
     1
 44
1.0
  0
ENDBLK
  5
D4
330
D2
100
AcDbEntity
  8
0
100
AcDbBlockEnd
  0
BLOCK
  5
3C0
330
3BF
100
AcDbEntity
  8
0
100
AcDbBlockBegin
  2
*D8
 70
     1
 71
     0
 10
0.0
 20
0.0
 30
0.0
  3
*D8
  1

  0
SOLID
  5
3C2
330
3BF
100
AcDbEntity
  8
0
  6
Continuous
 62
     7
370
     0
100
AcDbTrace
 10
6.8864532851
 20
5.1372574396
 30
0.0
 11
6.7264532851
 21
5.1632574396
 31
0.0
 12
6.7264532851
 22
5.1112574396
 32
0.0
 13
6.7264532851
 23
5.1112574396
 33
0.0
  0
SOLID
  5
3C3
330
3BF
100
AcDbEntity
  8
0
  6
Continuous
 62
     7
370
     0
100
AcDbTrace
 10
5.1636995347
 20
5.1372574396
 30
0.0
 11
5.3236995347
 21
5.1112574396
 31
0.0
 12
5.3236995347
 22
5.1632574396
 32
0.0
 13
5.3236995347
 23
5.1632574396
 33
0.0
  0
LINE
  5
3C4
330
3BF
100
AcDbEntity
  8
0
  6
Continuous
 62
     7
370
     0
100
AcDbLine
 10
5.8775574991
 20
5.2693107276
 30
0.0
 11
5.8775574991
 21
5.147964463
 31
0.0
  0
LINE
  5
3C5
330
3BF
100
AcDbEntity
  8
0
  6
Continuous
 62
     7
370
     0
100
AcDbLine
 10
5.8775574991
 20
5.147964463
 30
0.0
 11
5.8958209232
 21
5.147964463
 31
0.0
  0
LINE
  5
3C6
330
3BF
100
AcDbEntity
  8
0
  6
Continuous
 62
     7
370
     0
100
AcDbLine
 10
5.8775574991
 20
5.2693107276
 30
0.0
 11
5.8958209232
 21
5.2693107276
 31
0.0
  0
LINE
  5
3C7
330
3BF
100
AcDbEntity
  8
0
  6
Continuous
 62
     7
370
     0
100
AcDbLine
 10
6.1833061372
 20
5.2693107276
 30
0.0
 11
6.1833061372
 21
5.147964463
 31
0.0
  0
LINE
  5
3C8
330
3BF
100
AcDbEntity
  8
0
  6
Continuous
 62
     7
370
     0
100
AcDbLine
 10
6.1833061372
 20
5.147964463
 30
0.0
 11
6.1650427131
 21
5.147964463
 31
0.0
  0
LINE
  5
3C9
330
3BF
100
AcDbEntity
  8
0
  6
Continuous
 62
     7
370
     0
100
AcDbLine
 10
6.1833061372
 20
5.2693107276
 30
0.0
 11
6.1650427131
 21
5.2693107276
 31
0.0
  0
LINE
  5
3CA
330
3BF
100
AcDbEntity
  8
0
  6
Continuous
 62
     7
370
     0
100
AcDbLine
 10
6.8864532851
 20
4.3975153374
 30
0.0
 11
6.8864532851
 21
5.2622574396
 31
0.0
  0
LINE
  5
3CB
330
3BF
100
AcDbEntity
  8
0
  6
Continuous
 62
     7
370
     0
100
AcDbLine
 10
5.1636995347
 20
4.3975153374
 30
0.0
 11
5.1636995347
 21
5.2622574396
 31
0.0
  0
LINE
  5
3CC
330
3BF
100
AcDbEntity
  8
0
  6
Continuous
 62
     7
370
     0
100
AcDbLine
 10
6.8864532851
 20
5.1372574396
 30
0.0
 11
6.3005964096
 21
5.1372574396
 31
0.0
  0
LINE
  5
3CD
330
3BF
100
AcDbEntity
  8
0
  6
Continuous
 62
     7
370
     0
100
AcDbLine
 10
5.1636995347
 20
5.1372574396
 30
0.0
 11
5.7602672267
 21
5.1372574396
 31
0.0
  0
MTEXT
  5
3CE
330
3BF
100
AcDbEntity
  8
0
  6
Continuous
 62
     7
370
     0
100
AcDbMText
 10
5.8808318181
 20
5.1094580727
 30
0.0
 40
0.09
 41
0.0
 71
     1
 72
     1
  1
1.723
  7
SLDTEXTSTYLE0
 73
     1
 44
1.0
  0
MTEXT
  5
3CF
330
3BF
100
AcDbEntity
  8
0
  6
Continuous
 62
     7
370
     0
100
AcDbMText
 10
5.9140843473
 20
5.252218384
 30
0.0
 40
0.09
 41
0.0
 71
     1
 72
     1
  1
43.8
  7
SLDTEXTSTYLE0
 73
     1
 44
1.0
  0
ENDBLK
  5
3C1
330
3BF
100
AcDbEntity
  8
0
100
AcDbBlockEnd
  0
BLOCK
  5
3D2
330
3D1
100
AcDbEntity
  8
0
100
AcDbBlockBegin
  2
*D9
 70
     1
 71
     0
 10
0.0
 20
0.0
 30
0.0
  3
*D9
  1

  0
SOLID
  5
3D4
330
3D1
100
AcDbEntity
  8
0
  6
Continuous
 62
     7
370
     0
100
AcDbTrace
 10
7.9494240626
 20
5.1372574396
 30
0.0
 11
8.1094240626
 21
5.1112574396
 31
0.0
 12
8.1094240626
 22
5.1632574396
 32
0.0
 13
8.1094240626
 23
5.1632574396
 33
0.0
  0
SOLID
  5
3D5
330
3D1
100
AcDbEntity
  8
0
  6
Continuous
 62
     7
370
     0
100
AcDbTrace
 10
9.6670066213
 20
5.1372574396
 30
0.0
 11
9.5070066213
 21
5.1632574396
 31
0.0
 12
9.5070066213
 22
5.1112574396
 32
0.0
 13
9.5070066213
 23
5.1112574396
 33
0.0
  0
LINE
  5
3D6
330
3D1
100
AcDbEntity
  8
0
  6
Continuous
 62
     7
370
     0
100
AcDbLine
 10
8.6474000188
 20
5.2693107276
 30
0.0
 11
8.6474000188
 21
5.147964463
 31
0.0
  0
LINE
  5
3D7
330
3D1
100
AcDbEntity
  8
0
  6
Continuous
 62
     7
370
     0
100
AcDbLine
 10
8.6474000188
 20
5.147964463
 30
0.0
 11
8.6656634429
 21
5.147964463
 31
0.0
  0
LINE
  5
3D8
330
3D1
100
AcDbEntity
  8
0
  6
Continuous
 62
     7
370
     0
100
AcDbLine
 10
8.6474000188
 20
5.2693107276
 30
0.0
 11
8.6656634429
 21
5.2693107276
 31
0.0
  0
LINE
  5
3D9
330
3D1
100
AcDbEntity
  8
0
  6
Continuous
 62
     7
370
     0
100
AcDbLine
 10
8.9531486569
 20
5.2693107276
 30
0.0
 11
8.9531486569
 21
5.147964463
 31
0.0
  0
LINE
  5
3DA
330
3D1
100
AcDbEntity
  8
0
  6
Continuous
 62
     7
370
     0
100
AcDbLine
 10
8.9531486569
 20
5.147964463
 30
0.0
 11
8.9348852328
 21
5.147964463
 31
0.0
  0
LINE
  5
3DB
330
3D1
100
AcDbEntity
  8
0
  6
Continuous
 62
     7
370
     0
100
AcDbLine
 10
8.9531486569
 20
5.2693107276
 30
0.0
 11
8.9348852328
 21
5.2693107276
 31
0.0
  0
LINE
  5
3DC
330
3D1
100
AcDbEntity
  8
0
  6
Continuous
 62
     7
370
     0
100
AcDbLine
 10
7.9494240626
 20
4.3975153374
 30
0.0
 11
7.9494240626
 21
5.2622574396
 31
0.0
  0
LINE
  5
3DD
330
3D1
100
AcDbEntity
  8
0
  6
Continuous
 62
     7
370
     0
100
AcDbLine
 10
9.6670066213
 20
4.3975153374
 30
0.0
 11
9.6670066213
 21
5.2622574396
 31
0.0
  0
LINE
  5
3DE
330
3D1
100
AcDbEntity
  8
0
  6
Continuous
 62
     7
370
     0
100
AcDbLine
 10
7.9494240626
 20
5.1372574396
 30
0.0
 11
8.5301097464
 21
5.1372574396
 31
0.0
  0
LINE
  5
3DF
330
3D1
100
AcDbEntity
  8
0
  6
Continuous
 62
     7
370
     0
100
AcDbLine
 10
9.6670066213
 20
5.1372574396
 30
0.0
 11
9.0704389293
 21
5.1372574396
 31
0.0
  0
MTEXT
  5
3E0
330
3D1
100
AcDbEntity
  8
0
  6
Continuous
 62
     7
370
     0
100
AcDbMText
 10
8.6506743378
 20
5.1094580727
 30
0.0
 40
0.09
 41
0.0
 71
     1
 72
     1
  1
1.718
  7
SLDTEXTSTYLE0
 73
     1
 44
1.0
  0
MTEXT
  5
3E1
330
3D1
100
AcDbEntity
  8
0
  6
Continuous
 62
     7
370
     0
100
AcDbMText
 10
8.683926867
 20
5.252218384
 30
0.0
 40
0.09
 41
0.0
 71
     1
 72
     1
  1
43.6
  7
SLDTEXTSTYLE0
 73
     1
 44
1.0
  0
ENDBLK
  5
3D3
330
3D1
100
AcDbEntity
  8
0
100
AcDbBlockEnd
  0
BLOCK
  5
3E4
330
3E3
100
AcDbEntity
  8
0
100
AcDbBlockBegin
  2
*D10
 70
     1
 71
     0
 10
0.0
 20
0.0
 30
0.0
  3
*D10
  1

  0
SOLID
  5
3E6
330
3E3
100
AcDbEntity
  8
0
  6
Continuous
 62
     7
370
     0
100
AcDbTrace
 10
5.1636995347
 20
2.9555651249
 30
0.0
 11
5.3236995347
 21
2.9295651249
 31
0.0
 12
5.3236995347
 22
2.9815651249
 32
0.0
 13
5.3236995347
 23
2.9815651249
 33
0.0
  0
SOLID
  5
3E7
330
3E3
100
AcDbEntity
  8
0
  6
Continuous
 62
     7
370
     0
100
AcDbTrace
 10
6.660353078
 20
2.9555651249
 30
0.0
 11
6.500353078
 21
2.9815651249
 31
0.0
 12
6.500353078
 22
2.9295651249
 32
0.0
 13
6.500353078
 23
2.9295651249
 33
0.0
  0
LINE
  5
3E8
330
3E3
100
AcDbEntity
  8
0
  6
Continuous
 62
     7
370
     0
100
AcDbLine
 10
5.7498158527
 20
3.0876184129
 30
0.0
 11
5.7498158527
 21
2.9662721483
 31
0.0
  0
LINE
  5
3E9
330
3E3
100
AcDbEntity
  8
0
  6
Continuous
 62
     7
370
     0
100
AcDbLine
 10
5.7498158527
 20
2.9662721483
 30
0.0
 11
5.7680792769
 21
2.9662721483
 31
0.0
  0
LINE
  5
3EA
330
3E3
100
AcDbEntity
  8
0
  6
Continuous
 62
     7
370
     0
100
AcDbLine
 10
5.7498158527
 20
3.0876184129
 30
0.0
 11
5.7680792769
 21
3.0876184129
 31
0.0
  0
LINE
  5
3EB
330
3E3
100
AcDbEntity
  8
0
  6
Continuous
 62
     7
370
     0
100
AcDbLine
 10
6.0555644909
 20
3.0876184129
 30
0.0
 11
6.0555644909
 21
2.9662721483
 31
0.0
  0
LINE
  5
3EC
330
3E3
100
AcDbEntity
  8
0
  6
Continuous
 62
     7
370
     0
100
AcDbLine
 10
6.0555644909
 20
2.9662721483
 30
0.0
 11
6.0373010668
 21
2.9662721483
 31
0.0
  0
LINE
  5
3ED
330
3E3
100
AcDbEntity
  8
0
  6
Continuous
 62
     7
370
     0
100
AcDbLine
 10
6.0555644909
 20
3.0876184129
 30
0.0
 11
6.0373010668
 21
3.0876184129
 31
0.0
  0
LINE
  5
3EE
330
3E3
100
AcDbEntity
  8
0
  6
Continuous
 62
     7
370
     0
100
AcDbLine
 10
5.1636995347
 20
4.2975153374
 30
0.0
 11
5.1636995347
 21
2.8305651249
 31
0.0
  0
LINE
  5
3EF
330
3E3
100
AcDbEntity
  8
0
  6
Continuous
 62
     7
370
     0
100
AcDbLine
 10
6.660353078
 20
3.7075153374
 30
0.0
 11
6.660353078
 21
2.8305651249
 31
0.0
  0
LINE
  5
3F0
330
3E3
100
AcDbEntity
  8
0
  6
Continuous
 62
     7
370
     0
100
AcDbLine
 10
5.1636995347
 20
2.9555651249
 30
0.0
 11
5.6325255804
 21
2.9555651249
 31
0.0
  0
LINE
  5
3F1
330
3E3
100
AcDbEntity
  8
0
  6
Continuous
 62
     7
370
     0
100
AcDbLine
 10
6.660353078
 20
2.9555651249
 30
0.0
 11
6.1728547633
 21
2.9555651249
 31
0.0
  0
MTEXT
  5
3F2
330
3E3
100
AcDbEntity
  8
0
  6
Continuous
 62
     7
370
     0
100
AcDbMText
 10
5.7530901718
 20
2.927765758
 30
0.0
 40
0.09
 41
0.0
 71
     1
 72
     1
  1
1.494
  7
SLDTEXTSTYLE0
 73
     1
 44
1.0
  0
MTEXT
  5
3F3
330
3E3
100
AcDbEntity
  8
0
  6
Continuous
 62
     7
370
     0
100
AcDbMText
 10
5.786342701
 20
3.0705260693
 30
0.0
 40
0.09
 41
0.0
 71
     1
 72
     1
  1
38.0
  7
SLDTEXTSTYLE0
 73
     1
 44
1.0
  0
ENDBLK
  5
3E5
330
3E3
100
AcDbEntity
  8
0
100
AcDbBlockEnd
  0
BLOCK
  5
3F6
330
3F5
100
AcDbEntity
  8
0
100
AcDbBlockBegin
  2
*D11
 70
     1
 71
     0
 10
0.0
 20
0.0
 30
0.0
  3
*D11
  1

  0
SOLID
  5
3F8
330
3F5
100
AcDbEntity
  8
0
  6
Continuous
 62
     7
370
     0
100
AcDbTrace
 10
9.6670066213
 20
2.9555651249
 30
0.0
 11
9.5070066213
 21
2.9815651249
 31
0.0
 12
9.5070066213
 22
2.9295651249
 32
0.0
 13
9.5070066213
 23
2.9295651249
 33
0.0
  0
SOLID
  5
3F9
330
3F5
100
AcDbEntity
  8
0
  6
Continuous
 62
     7
370
     0
100
AcDbTrace
 10
8.170353078
 20
2.9555651249
 30
0.0
 11
8.330353078
 21
2.9295651249
 31
0.0
 12
8.330353078
 22
2.9815651249
 32
0.0
 13
8.330353078
 23
2.9815651249
 33
0.0
  0
LINE
  5
3FA
330
3F5
100
AcDbEntity
  8
0
  6
Continuous
 62
     7
370
     0
100
AcDbLine
 10
8.7592575957
 20
3.0876184129
 30
0.0
 11
8.7592575957
 21
2.9662721483
 31
0.0
  0
LINE
  5
3FB
330
3F5
100
AcDbEntity
  8
0
  6
Continuous
 62
     7
370
     0
100
AcDbLine
 10
8.7592575957
 20
2.9662721483
 30
0.0
 11
8.7775210199
 21
2.9662721483
 31
0.0
  0
LINE
  5
3FC
330
3F5
100
AcDbEntity
  8
0
  6
Continuous
 62
     7
370
     0
100
AcDbLine
 10
8.7592575957
 20
3.0876184129
 30
0.0
 11
8.7775210199
 21
3.0876184129
 31
0.0
  0
LINE
  5
3FD
330
3F5
100
AcDbEntity
  8
0
  6
Continuous
 62
     7
370
     0
100
AcDbLine
 10
9.0650062339
 20
3.0876184129
 30
0.0
 11
9.0650062339
 21
2.9662721483
 31
0.0
  0
LINE
  5
3FE
330
3F5
100
AcDbEntity
  8
0
  6
Continuous
 62
     7
370
     0
100
AcDbLine
 10
9.0650062339
 20
2.9662721483
 30
0.0
 11
9.0467428097
 21
2.9662721483
 31
0.0
  0
LINE
  5
3FF
330
3F5
100
AcDbEntity
  8
0
  6
Continuous
 62
     7
370
     0
100
AcDbLine
 10
9.0650062339
 20
3.0876184129
 30
0.0
 11
9.0467428097
 21
3.0876184129
 31
0.0
  0
LINE
  5
400
330
3F5
100
AcDbEntity
  8
0
  6
Continuous
 62
     7
370
     0
100
AcDbLine
 10
9.6670066213
 20
4.2975153374
 30
0.0
 11
9.6670066213
 21
2.8305651249
 31
0.0
  0
LINE
  5
401
330
3F5
100
AcDbEntity
  8
0
  6
Continuous
 62
     7
370
     0
100
AcDbLine
 10
8.170353078
 20
3.7075153374
 30
0.0
 11
8.170353078
 21
2.8305651249
 31
0.0
  0
LINE
  5
402
330
3F5
100
AcDbEntity
  8
0
  6
Continuous
 62
     7
370
     0
100
AcDbLine
 10
9.6670066213
 20
2.9555651249
 30
0.0
 11
9.1822965062
 21
2.9555651249
 31
0.0
  0
LINE
  5
403
330
3F5
100
AcDbEntity
  8
0
  6
Continuous
 62
     7
370
     0
100
AcDbLine
 10
8.170353078
 20
2.9555651249
 30
0.0
 11
8.6419673234
 21
2.9555651249
 31
0.0
  0
MTEXT
  5
404
330
3F5
100
AcDbEntity
  8
0
  6
Continuous
 62
     7
370
     0
100
AcDbMText
 10
8.7625319148
 20
2.927765758
 30
0.0
 40
0.09
 41
0.0
 71
     1
 72
     1
  1
1.494
  7
SLDTEXTSTYLE0
 73
     1
 44
1.0
  0
MTEXT
  5
405
330
3F5
100
AcDbEntity
  8
0
  6
Continuous
 62
     7
370
     0
100
AcDbMText
 10
8.795784444
 20
3.0705260693
 30
0.0
 40
0.09
 41
0.0
 71
     1
 72
     1
  1
38.0
  7
SLDTEXTSTYLE0
 73
     1
 44
1.0
  0
ENDBLK
  5
3F7
330
3F5
100
AcDbEntity
  8
0
100
AcDbBlockEnd
  0
BLOCK
  5
409
330
408
100
AcDbEntity
  8
0
100
AcDbBlockBegin
  2
*D12
 70
     1
 71
     0
 10
0.0
 20
0.0
 30
0.0
  3
*D12
  1

  0
SOLID
  5
40B
330
408
100
AcDbEntity
  8
0
  6
Continuous
 62
     7
370
     0
100
AcDbTrace
 10
8.170353078
 20
2.4831241801
 30
0.0
 11
8.010353078
 21
2.5091241801
 31
0.0
 12
8.010353078
 22
2.4571241801
 32
0.0
 13
8.010353078
 23
2.4571241801
 33
0.0
  0
SOLID
  5
40C
330
408
100
AcDbEntity
  8
0
  6
Continuous
 62
     7
370
     0
100
AcDbTrace
 10
6.660353078
 20
2.4831241801
 30
0.0
 11
6.820353078
 21
2.4571241801
 31
0.0
 12
6.820353078
 22
2.5091241801
 32
0.0
 13
6.820353078
 23
2.5091241801
 33
0.0
  0
LINE
  5
40D
330
408
100
AcDbEntity
  8
0
  6
Continuous
 62
     7
370
     0
100
AcDbLine
 10
7.2395711036
 20
2.615177468
 30
0.0
 11
7.2395711036
 21
2.4938312034
 31
0.0
  0
LINE
  5
40E
330
408
100
AcDbEntity
  8
0
  6
Continuous
 62
     7
370
     0
100
AcDbLine
 10
7.2395711036
 20
2.4938312034
 30
0.0
 11
7.2578345278
 21
2.4938312034
 31
0.0
  0
LINE
  5
40F
330
408
100
AcDbEntity
  8
0
  6
Continuous
 62
     7
370
     0
100
AcDbLine
 10
7.2395711036
 20
2.615177468
 30
0.0
 11
7.2578345278
 21
2.615177468
 31
0.0
  0
LINE
  5
410
330
408
100
AcDbEntity
  8
0
  6
Continuous
 62
     7
370
     0
100
AcDbLine
 10
7.5453197418
 20
2.615177468
 30
0.0
 11
7.5453197418
 21
2.4938312034
 31
0.0
  0
LINE
  5
411
330
408
100
AcDbEntity
  8
0
  6
Continuous
 62
     7
370
     0
100
AcDbLine
 10
7.5453197418
 20
2.4938312034
 30
0.0
 11
7.5270563176
 21
2.4938312034
 31
0.0
  0
LINE
  5
412
330
408
100
AcDbEntity
  8
0
  6
Continuous
 62
     7
370
     0
100
AcDbLine
 10
7.5453197418
 20
2.615177468
 30
0.0
 11
7.5270563176
 21
2.615177468
 31
0.0
  0
LINE
  5
413
330
408
100
AcDbEntity
  8
0
  6
Continuous
 62
     7
370
     0
100
AcDbLine
 10
8.170353078
 20
3.7075153374
 30
0.0
 11
8.170353078
 21
2.3581241801
 31
0.0
  0
LINE
  5
414
330
408
100
AcDbEntity
  8
0
  6
Continuous
 62
     7
370
     0
100
AcDbLine
 10
6.660353078
 20
3.7075153374
 30
0.0
 11
6.660353078
 21
2.3581241801
 31
0.0
  0
LINE
  5
415
330
408
100
AcDbEntity
  8
0
  6
Continuous
 62
     7
370
     0
100
AcDbLine
 10
8.170353078
 20
2.4831241801
 30
0.0
 11
7.6626100141
 21
2.4831241801
 31
0.0
  0
LINE
  5
416
330
408
100
AcDbEntity
  8
0
  6
Continuous
 62
     7
370
     0
100
AcDbLine
 10
6.660353078
 20
2.4831241801
 30
0.0
 11
7.1222808313
 21
2.4831241801
 31
0.0
  0
MTEXT
  5
417
330
408
100
AcDbEntity
  8
0
  6
Continuous
 62
     7
370
     0
100
AcDbMText
 10
7.2428454227
 20
2.4553248131
 30
0.0
 40
0.09
 41
0.0
 71
     1
 72
     1
  1
1.510
  7
SLDTEXTSTYLE0
 73
     1
 44
1.0
  0
MTEXT
  5
418
330
408
100
AcDbEntity
  8
0
  6
Continuous
 62
     7
370
     0
100
AcDbMText
 10
7.2760979519
 20
2.5980851244
 30
0.0
 40
0.09
 41
0.0
 71
     1
 72
     1
  1
38.4
  7
SLDTEXTSTYLE0
 73
     1
 44
1.0
  0
ENDBLK
  5
40A
330
408
100
AcDbEntity
  8
0
100
AcDbBlockEnd
  0
BLOCK
  5
41C
330
41B
100
AcDbEntity
  8
0
100
AcDbBlockBegin
  2
*D13
 70
     1
 71
     0
 10
0.0
 20
0.0
 30
0.0
  3
*D13
  1

  0
SOLID
  5
41E
330
41B
100
AcDbEntity
  8
0
  6
Continuous
 62
     7
370
     0
100
AcDbTrace
 10
7.3392091906
 20
3.1917855974
 30
0.0
 11
7.1792091906
 21
3.2177855974
 31
0.0
 12
7.1792091906
 22
3.1657855974
 32
0.0
 13
7.1792091906
 23
3.1657855974
 33
0.0
  0
SOLID
  5
41F
330
41B
100
AcDbEntity
  8
0
  6
Continuous
 62
     7
370
     0
100
AcDbTrace
 10
7.4966681571
 20
3.1917855974
 30
0.0
 11
7.6566681571
 21
3.1657855974
 31
0.0
 12
7.6566681571
 22
3.2177855974
 32
0.0
 13
7.6566681571
 23
3.2177855974
 33
0.0
  0
LINE
  5
420
330
41B
100
AcDbEntity
  8
0
  6
Continuous
 62
     7
370
     0
100
AcDbLine
 10
7.8890350945
 20
3.3238388853
 30
0.0
 11
7.8890350945
 21
3.2024926207
 31
0.0
  0
LINE
  5
421
330
41B
100
AcDbEntity
  8
0
  6
Continuous
 62
     7
370
     0
100
AcDbLine
 10
7.8890350945
 20
3.2024926207
 30
0.0
 11
7.9072985187
 21
3.2024926207
 31
0.0
  0
LINE
  5
422
330
41B
100
AcDbEntity
  8
0
  6
Continuous
 62
     7
370
     0
100
AcDbLine
 10
7.8890350945
 20
3.3238388853
 30
0.0
 11
7.9072985187
 21
3.3238388853
 31
0.0
  0
LINE
  5
423
330
41B
100
AcDbEntity
  8
0
  6
Continuous
 62
     7
370
     0
100
AcDbLine
 10
8.1282786743
 20
3.3238388853
 30
0.0
 11
8.1282786743
 21
3.2024926207
 31
0.0
  0
LINE
  5
424
330
41B
100
AcDbEntity
  8
0
  6
Continuous
 62
     7
370
     0
100
AcDbLine
 10
8.1282786743
 20
3.2024926207
 30
0.0
 11
8.1100152502
 21
3.2024926207
 31
0.0
  0
LINE
  5
425
330
41B
100
AcDbEntity
  8
0
  6
Continuous
 62
     7
370
     0
100
AcDbLine
 10
8.1282786743
 20
3.3238388853
 30
0.0
 11
8.1100152502
 21
3.3238388853
 31
0.0
  0
LINE
  5
426
330
41B
100
AcDbEntity
  8
0
  6
Continuous
 62
     7
370
     0
100
AcDbLine
 10
7.3392091906
 20
4.2975153374
 30
0.0
 11
7.3392091906
 21
3.0667855974
 31
0.0
  0
LINE
  5
427
330
41B
100
AcDbEntity
  8
0
  6
Continuous
 62
     7
370
     0
100
AcDbLine
 10
7.4966681571
 20
4.2975153374
 30
0.0
 11
7.4966681571
 21
3.0667855974
 31
0.0
  0
LINE
  5
428
330
41B
100
AcDbEntity
  8
0
  6
Continuous
 62
     7
370
     0
100
AcDbLine
 10
7.3392091906
 20
3.1917855974
 30
0.0
 11
6.9892091906
 21
3.1917855974
 31
0.0
  0
LINE
  5
429
330
41B
100
AcDbEntity
  8
0
  6
Continuous
 62
     7
370
     0
100
AcDbLine
 10
7.4966681571
 20
3.1917855974
 30
0.0
 11
7.7717448222
 21
3.1917855974
 31
0.0
  0
MTEXT
  5
42A
330
41B
100
AcDbEntity
  8
0
  6
Continuous
 62
     7
370
     0
100
AcDbMText
 10
7.8590568844
 20
3.1639862305
 30
0.0
 40
0.09
 41
0.0
 71
     1
 72
     1
  1
0.157
  7
SLDTEXTSTYLE0
 73
     1
 44
1.0
  0
MTEXT
  5
42B
330
41B
100
AcDbEntity
  8
0
  6
Continuous
 62
     7
370
     0
100
AcDbMText
 10
7.9255619428
 20
3.3067465418
 30
0.0
 40
0.09
 41
0.0
 71
     1
 72
     1
  1
4.0
  7
SLDTEXTSTYLE0
 73
     1
 44
1.0
  0
ENDBLK
  5
41D
330
41B
100
AcDbEntity
  8
0
100
AcDbBlockEnd
  0
BLOCK
  5
42E
330
42D
100
AcDbEntity
  8
0
100
AcDbBlockBegin
  2
*D14
 70
     1
 71
     0
 10
0.0
 20
0.0
 30
0.0
  3
*D14
  1

  0
SOLID
  5
430
330
42D
100
AcDbEntity
  8
0
  6
Continuous
 62
     7
370
     0
100
AcDbTrace
 10
6.8864532851
 20
5.3447044273
 30
0.0
 11
7.0464532851
 21
5.3187044273
 31
0.0
 12
7.0464532851
 22
5.3707044273
 32
0.0
 13
7.0464532851
 23
5.3707044273
 33
0.0
  0
SOLID
  5
431
330
42D
100
AcDbEntity
  8
0
  6
Continuous
 62
     7
370
     0
100
AcDbTrace
 10
7.9494240626
 20
5.3447044273
 30
0.0
 11
7.7894240626
 21
5.3707044273
 31
0.0
 12
7.7894240626
 22
5.3187044273
 32
0.0
 13
7.7894240626
 23
5.3187044273
 33
0.0
  0
LINE
  5
432
330
42D
100
AcDbEntity
  8
0
  6
Continuous
 62
     7
370
     0
100
AcDbLine
 10
7.2624787589
 20
5.4767577152
 30
0.0
 11
7.2624787589
 21
5.3554114506
 31
0.0
  0
LINE
  5
433
330
42D
100
AcDbEntity
  8
0
  6
Continuous
 62
     7
370
     0
100
AcDbLine
 10
7.2624787589
 20
5.3554114506
 30
0.0
 11
7.2807421831
 21
5.3554114506
 31
0.0
  0
LINE
  5
434
330
42D
100
AcDbEntity
  8
0
  6
Continuous
 62
     7
370
     0
100
AcDbLine
 10
7.2624787589
 20
5.4767577152
 30
0.0
 11
7.2807421831
 21
5.4767577152
 31
0.0
  0
LINE
  5
435
330
42D
100
AcDbEntity
  8
0
  6
Continuous
 62
     7
370
     0
100
AcDbLine
 10
7.5682273971
 20
5.4767577152
 30
0.0
 11
7.5682273971
 21
5.3554114506
 31
0.0
  0
LINE
  5
436
330
42D
100
AcDbEntity
  8
0
  6
Continuous
 62
     7
370
     0
100
AcDbLine
 10
7.5682273971
 20
5.3554114506
 30
0.0
 11
7.5499639729
 21
5.3554114506
 31
0.0
  0
LINE
  5
437
330
42D
100
AcDbEntity
  8
0
  6
Continuous
 62
     7
370
     0
100
AcDbLine
 10
7.5682273971
 20
5.4767577152
 30
0.0
 11
7.5499639729
 21
5.4767577152
 31
0.0
  0
LINE
  5
438
330
42D
100
AcDbEntity
  8
0
  6
Continuous
 62
     7
370
     0
100
AcDbLine
 10
6.8864532851
 20
4.3975153374
 30
0.0
 11
6.8864532851
 21
5.4697044273
 31
0.0
  0
LINE
  5
439
330
42D
100
AcDbEntity
  8
0
  6
Continuous
 62
     7
370
     0
100
AcDbLine
 10
7.9494240626
 20
4.3975153374
 30
0.0
 11
7.9494240626
 21
5.4697044273
 31
0.0
  0
LINE
  5
43A
330
42D
100
AcDbEntity
  8
0
  6
Continuous
 62
     7
370
     0
100
AcDbLine
 10
6.8864532851
 20
5.3447044273
 30
0.0
 11
7.1451884866
 21
5.3447044273
 31
0.0
  0
LINE
  5
43B
330
42D
100
AcDbEntity
  8
0
  6
Continuous
 62
     7
370
     0
100
AcDbLine
 10
7.9494240626
 20
5.3447044273
 30
0.0
 11
7.6855176694
 21
5.3447044273
 31
0.0
  0
MTEXT
  5
43C
330
42D
100
AcDbEntity
  8
0
  6
Continuous
 62
     7
370
     0
100
AcDbMText
 10
7.265753078
 20
5.3169050603
 30
0.0
 40
0.09
 41
0.0
 71
     1
 72
     1
  1
1.063
  7
SLDTEXTSTYLE0
 73
     1
 44
1.0
  0
MTEXT
  5
43D
330
42D
100
AcDbEntity
  8
0
  6
Continuous
 62
     7
370
     0
100
AcDbMText
 10
7.2990056072
 20
5.4596653716
 30
0.0
 40
0.09
 41
0.0
 71
     1
 72
     1
  1
27.0
  7
SLDTEXTSTYLE0
 73
     1
 44
1.0
  0
ENDBLK
  5
42F
330
42D
100
AcDbEntity
  8
0
100
AcDbBlockEnd
  0
BLOCK
  5
440
330
43F
100
AcDbEntity
  8
0
100
AcDbBlockBegin
  2
SW_NOTE_5
 70
     0
 71
     0
 10
0.0
 20
0.0
 30
0.0
  3
SW_NOTE_5
  1

  0
MTEXT
  5
443
330
43F
100
AcDbEntity
  8
0
  6
Continuous
 62
     0
370
     0
100
AcDbMText
 10
0.0197863066
 20
0.0370082839
 30
0.0
 40
0.09
 41
0.0
 71
     1
 72
     1
  1
INTERNAL  SM1 THREAD
  7
SLDTEXTSTYLE16
 73
     1
 44
1.0
  0
MTEXT
  5
444
330
43F
100
AcDbEntity
  8
0
  6
Continuous
 62
     0
370
     0
100
AcDbMText
 10
0.4003488187
 20
-0.0923617991
 30
0.0
 40
0.09
 41
0.0
 71
     1
 72
     1
  1
(1.035-40)
  7
SLDTEXTSTYLE0
 73
     1
 44
1.0
  0
ENDBLK
  5
441
330
43F
100
AcDbEntity
  8
0
100
AcDbBlockEnd
  0
BLOCK
  5
44A
330
449
100
AcDbEntity
  8
0
100
AcDbBlockBegin
  2
SW_NOTE_6
 70
     0
 71
     0
 10
0.0
 20
0.0
 30
0.0
  3
SW_NOTE_6
  1

  0
CIRCLE
  5
44C
330
449
100
AcDbEntity
  8
0
  6
Continuous
 62
     0
370
     0
100
AcDbCircle
 10
-0.1283269337
 20
0.0088602183
 30
0.0
 40
0.1286324429531544
  0
MTEXT
  5
44D
330
449
100
AcDbEntity
  8
0
  6
Continuous
 62
     0
370
     0
100
AcDbMText
 10
-0.1727019336
 20
0.0551542089
 30
0.0
 40
0.09
 41
0.0
 71
     1
 72
     1
  1
A
  7
SLDTEXTSTYLE0
 73
     1
 44
1.0
  0
ENDBLK
  5
44B
330
449
100
AcDbEntity
  8
0
100
AcDbBlockEnd
  0
BLOCK
  5
451
330
450
100
AcDbEntity
  8
0
100
AcDbBlockBegin
  2
SW_NOTE_7
 70
     0
 71
     0
 10
0.0
 20
0.0
 30
0.0
  3
SW_NOTE_7
  1

  0
CIRCLE
  5
453
330
450
100
AcDbEntity
  8
0
  6
Continuous
 62
     0
370
     0
100
AcDbCircle
 10
0.1281615907
 20
0.0109960019
 30
0.0
 40
0.1286324429531534
  0
MTEXT
  5
454
330
450
100
AcDbEntity
  8
0
  6
Continuous
 62
     0
370
     0
100
AcDbMText
 10
0.0837865908
 20
0.0572899925
 30
0.0
 40
0.09
 41
0.0
 71
     1
 72
     1
  1
A
  7
SLDTEXTSTYLE0
 73
     1
 44
1.0
  0
ENDBLK
  5
452
330
450
100
AcDbEntity
  8
0
100
AcDbBlockEnd
  0
BLOCK
  5
458
330
457
100
AcDbEntity
  8
0
100
AcDbBlockBegin
  2
SW_NOTE_8
 70
     0
 71
     0
 10
0.0
 20
0.0
 30
0.0
  3
SW_NOTE_8
  1

  0
CIRCLE
  5
45A
330
457
100
AcDbEntity
  8
0
  6
Continuous
 62
     0
370
     0
100
AcDbCircle
 10
-0.1162016401
 20
-0.0551677824
 30
0.0
 40
0.1286324429531548
  0
MTEXT
  5
45B
330
457
100
AcDbEntity
  8
0
  6
Continuous
 62
     0
370
     0
100
AcDbMText
 10
-0.1506391394
 20
-0.0088737918
 30
0.0
 40
0.09
 41
0.0
 71
     1
 72
     1
  1
B
  7
SLDTEXTSTYLE0
 73
     1
 44
1.0
  0
ENDBLK
  5
459
330
457
100
AcDbEntity
  8
0
100
AcDbBlockEnd
  0
BLOCK
  5
45F
330
45E
100
AcDbEntity
  8
0
100
AcDbBlockBegin
  2
SW_NOTE_9
 70
     0
 71
     0
 10
0.0
 20
0.0
 30
0.0
  3
SW_NOTE_9
  1

  0
CIRCLE
  5
461
330
45E
100
AcDbEntity
  8
0
  6
Continuous
 62
     0
370
     0
100
AcDbCircle
 10
-0.1285765518
 20
-0.0037915298
 30
0.0
 40
0.1286324429531548
  0
MTEXT
  5
462
330
45E
100
AcDbEntity
  8
0
  6
Continuous
 62
     0
370
     0
100
AcDbMText
 10
-0.1773265541
 20
0.0425024608
 30
0.0
 40
0.09
 41
0.0
 71
     1
 72
     1
  1
C
  7
SLDTEXTSTYLE0
 73
     1
 44
1.0
  0
ENDBLK
  5
460
330
45E
100
AcDbEntity
  8
0
100
AcDbBlockEnd
  0
BLOCK
  5
466
330
465
100
AcDbEntity
  8
0
100
AcDbBlockBegin
  2
SW_NOTE_10
 70
     0
 71
     0
 10
0.0
 20
0.0
 30
0.0
  3
SW_NOTE_10
  1

  0
CIRCLE
  5
468
330
465
100
AcDbEntity
  8
0
  6
Continuous
 62
     0
370
     0
100
AcDbCircle
 10
0.1282705914
 20
-0.0096416157
 30
0.0
 40
0.1286324429531548
  0
MTEXT
  5
469
330
465
100
AcDbEntity
  8
0
  6
Continuous
 62
     0
370
     0
100
AcDbMText
 10
0.0795205892
 20
0.0366523748
 30
0.0
 40
0.09
 41
0.0
 71
     1
 72
     1
  1
C
  7
SLDTEXTSTYLE0
 73
     1
 44
1.0
  0
ENDBLK
  5
467
330
465
100
AcDbEntity
  8
0
100
AcDbBlockEnd
  0
ENDSEC
  0
SECTION
  2
ENTITIES
  0
LINE
  5
30
330
1F
100
AcDbEntity
  8
0
  6
Continuous
 62
     7
370
     0
100
AcDbLine
 10
0.329927
 20
8.1920731707
 30
0.0
 11
10.629927
 21
8.1920731707
 31
0.0
  0
LINE
  5
31
330
1F
100
AcDbEntity
  8
0
  6
Continuous
 62
     7
370
     0
100
AcDbLine
 10
0.329927
 20
8.1920731707
 30
0.0
 11
0.329927
 21
0.3920731707
 31
0.0
  0
LINE
  5
32
330
1F
100
AcDbEntity
  8
0
  6
Continuous
 62
     7
370
     0
100
AcDbLine
 10
10.629927
 20
0.3920731707
 30
0.0
 11
0.329927
 21
0.3920731707
 31
0.0
  0
LINE
  5
33
330
1F
100
AcDbEntity
  8
0
  6
Continuous
 62
     7
370
     0
100
AcDbLine
 10
10.629927
 20
0.3920731707
 30
0.0
 11
10.629927
 21
8.1920731707
 31
0.0
  0
LINE
  5
34
330
1F
100
AcDbEntity
  8
0
  6
Continuous
 62
     7
370
     0
100
AcDbLine
 10
7.8832069922
 20
1.2010186622
 30
0.0
 11
6.3491817542
 21
1.2010186622
 31
0.0
  0
LINE
  5
35
330
1F
100
AcDbEntity
  8
0
  6
Continuous
 62
     7
370
     0
100
AcDbLine
 10
6.3491817542
 20
0.3920731707
 30
0.0
 11
6.3491817542
 21
1.6988536355
 31
0.0
  0
LINE
  5
36
330
1F
100
AcDbEntity
  8
0
  6
Continuous
 62
     7
370
     0
100
AcDbLine
 10
7.8832069922
 20
1.270166923
 30
0.0
 11
10.629927
 21
1.270166923
 31
0.0
  0
LINE
  5
37
330
1F
100
AcDbEntity
  8
0
  6
Continuous
 62
     7
370
     0
100
AcDbLine
 10
7.8832069922
 20
1.9437769943
 30
0.0
 11
7.8832069922
 21
0.3920731707
 31
0.0
  0
LINE
  5
38
330
1F
100
AcDbEntity
  8
0
  6
Continuous
 62
     7
370
     0
100
AcDbLine
 10
7.8832069922
 20
1.323339557
 30
0.0
 11
6.3491817542
 21
1.323339557
 31
0.0
  0
LINE
  5
39
330
1F
100
AcDbEntity
  8
0
  6
Continuous
 62
     7
370
     0
100
AcDbLine
 10
7.8832069922
 20
1.6988536355
 30
0.0
 11
6.3491817542
 21
1.6988536355
 31
0.0
  0
LINE
  5
3A
330
1F
100
AcDbEntity
  8
0
  6
Continuous
 62
     7
370
     0
100
AcDbLine
 10
7.8832069922
 20
0.7890359178
 30
0.0
 11
10.629927
 21
0.7890359178
 31
0.0
  0
LINE
  5
3B
330
1F
100
AcDbEntity
  8
0
  6
Continuous
 62
     7
370
     0
100
AcDbLine
 10
7.8832069922
 20
1.4456604517
 30
0.0
 11
6.3491817542
 21
1.4456604517
 31
0.0
  0
LINE
  5
3C
330
1F
100
AcDbEntity
  8
0
  6
Continuous
 62
     7
370
     0
100
AcDbLine
 10
7.8832069922
 20
1.5679813464
 30
0.0
 11
6.3491817542
 21
1.5679813464
 31
0.0
  0
LINE
  5
3D
330
1F
100
AcDbEntity
  8
0
  6
Continuous
 62
     7
370
     0
100
AcDbLine
 10
6.9294188505
 20
1.6988536355
 30
0.0
 11
6.9294188505
 21
1.2010186622
 31
0.0
  0
LINE
  5
3E
330
1F
100
AcDbEntity
  8
0
  6
Continuous
 62
     7
370
     0
100
AcDbLine
 10
7.2989435727
 20
1.6988536355
 30
0.0
 11
7.2989435727
 21
1.2010186622
 31
0.0
  0
LINE
  5
3F
330
1F
100
AcDbEntity
  8
0
  6
Continuous
 62
     7
370
     0
100
AcDbLine
 10
8.9000563418
 20
0.7890359178
 30
0.0
 11
8.9000563418
 21
0.3920731707
 31
0.0
  0
LINE
  5
40
330
1F
100
AcDbEntity
  8
0
  6
Continuous
 62
     7
370
     0
100
AcDbLine
 10
9.3113942988
 20
0.96139916
 30
0.0
 11
9.3113942988
 21
0.7890359178
 31
0.0
  0
LINE
  5
41
330
1F
100
AcDbEntity
  8
0
  6
Continuous
 62
     7
370
     0
100
AcDbLine
 10
10.0324602448
 20
1.270166923
 30
0.0
 11
10.0324602448
 21
0.96139916
 31
0.0
  0
LINE
  5
42
330
1F
100
AcDbEntity
  8
0
  6
Continuous
 62
     7
370
     0
100
AcDbLine
 10
6.3491817542
 20
1.0381709011
 30
0.0
 11
7.8832069922
 21
1.0381709011
 31
0.0
  0
LINE
  5
43
330
1F
100
AcDbEntity
  8
0
  6
Continuous
 62
     7
370
     0
100
AcDbLine
 10
7.8832069922
 20
1.9437769943
 30
0.0
 11
10.629927
 21
1.9437769943
 31
0.0
  0
LINE
  5
44
330
1F
100
AcDbEntity
  8
0
  6
Continuous
 62
     7
370
     0
100
AcDbLine
 10
10.315241862
 20
1.2693980507
 30
0.0
 11
10.315241862
 21
0.96139916
 31
0.0
  0
LINE
  5
45
330
1F
100
AcDbEntity
  8
0
  6
Continuous
 62
     7
370
     0
100
AcDbLine
 10
7.8832069922
 20
0.96139916
 30
0.0
 11
10.629927
 21
0.96139916
 31
0.0
  0
LINE
  5
46
330
1F
100
AcDbEntity
  8
0
  6
Continuous
 62
     7
370
     0
100
AcDbLine
 10
10.629927
 20
1.9437769943
 30
0.0
 11
10.629927
 21
1.9698084888
 31
0.0
  0
LINE
  5
47
330
1F
100
AcDbEntity
  8
0
  6
Continuous
 62
     7
370
     0
100
AcDbLine
 10
7.8832069922
 20
1.6268095213
 30
0.0
 11
10.629927
 21
1.6268095213
 31
0.0
  0
LINE
  5
48
330
1F
100
AcDbEntity
  8
0
  6
Continuous
 62
     7
370
     0
100
AcDbLine
 10
6.692177
 20
0.3920731707
 30
0.0
 11
6.692177
 21
0.3072739649
 31
0.0
  0
LINE
  5
49
330
1F
100
AcDbEntity
  8
0
  6
Continuous
 62
     7
370
     0
100
AcDbLine
 10
2.754677
 20
0.3920731707
 30
0.0
 11
2.754677
 21
0.3072739649
 31
0.0
  0
LINE
  5
4A
330
1F
100
AcDbEntity
  8
0
  6
Continuous
 62
     7
370
     0
100
AcDbLine
 10
2.754677
 20
0.3920731707
 30
0.0
 11
2.7672319738
 21
0.3575
 31
0.0
  0
LINE
  5
4B
330
1F
100
AcDbEntity
  8
0
  6
Continuous
 62
     7
370
     0
100
AcDbLine
 10
2.7672319738
 20
0.3575
 30
0.0
 11
2.7414258825
 21
0.3575
 31
0.0
  0
LINE
  5
4C
330
1F
100
AcDbEntity
  8
0
  6
Continuous
 62
     7
370
     0
100
AcDbLine
 10
2.7414258825
 20
0.3575
 30
0.0
 11
2.754677
 21
0.3920731707
 31
0.0
  0
MTEXT
  5
4E
330
1F
100
AcDbEntity
  8
0
  6
Continuous
 62
     7
370
     0
100
AcDbMText
 10
10.4043270877
 20
1.1203120088
 30
0.0
 40
0.1041666667
 41
0.0
 71
     1
 72
     1
  1
C
  7
SLDTEXTSTYLE0
 73
     1
 44
1.0
  0
MTEXT
  5
4F
330
1F
100
AcDbEntity
  8
0
  6
Continuous
 62
     7
370
     0
100
AcDbMText
 10
1.7387909509
 20
0.3094873007
 30
0.0
 40
0.09375
 41
0.0
 71
     1
 72
     1
  1
5
  7
SLDTEXTSTYLE0
 73
     1
 44
1.0
  0
MTEXT
  5
50
330
1F
100
AcDbEntity
  8
0
  6
Continuous
 62
     7
370
     0
100
AcDbMText
 10
3.723800327
 20
0.3126246278
 30
0.0
 40
0.09375
 41
0.0
 71
     1
 72
     1
  1
4
  7
SLDTEXTSTYLE0
 73
     1
 44
1.0
  0
MTEXT
  5
51
330
1F
100
AcDbEntity
  8
0
  6
Continuous
 62
     7
370
     0
100
AcDbMText
 10
5.6324457277
 20
0.3105200602
 30
0.0
 40
0.09375
 41
0.0
 71
     1
 72
     1
  1
3
  7
SLDTEXTSTYLE0
 73
     1
 44
1.0
  0
MTEXT
  5
52
330
1F
100
AcDbEntity
  8
0
  6
Continuous
 62
     7
370
     0
100
AcDbMText
 10
7.6059721724
 20
0.3113400111
 30
0.0
 40
0.09375
 41
0.0
 71
     1
 72
     1
  1
2
  7
SLDTEXTSTYLE0
 73
     1
 44
1.0
  0
MTEXT
  5
53
330
1F
100
AcDbEntity
  8
0
  6
Continuous
 62
     7
370
     0
100
AcDbMText
 10
9.6619921328
 20
0.300272888
 30
0.0
 40
0.09375
 41
0.0
 71
     1
 72
     1
  1
1
  7
SLDTEXTSTYLE0
 73
     1
 44
1.0
  0
MTEXT
  5
54
330
1F
100
AcDbEntity
  8
0
  6
Continuous
 62
     7
370
     0
100
AcDbMText
 10
9.1092505508
 20
0.6032387684
 30
0.0
 40
0.125
 41
0.0
 71
     1
 72
     1
  1
MAP105050-A1
  7
SLDTEXTSTYLE0
 73
     1
 44
1.0
  0
MTEXT
  5
55
330
1F
100
AcDbEntity
  8
0
  6
Continuous
 62
     7
370
     0
100
AcDbMText
 10
7.9301743649
 20
1.2499730493
 30
0.0
 40
0.0833333333
 41
0.0
 71
     1
 72
     1
  1
MATERIAL:
  7
SLDTEXTSTYLE0
 73
     1
 44
1.0
  0
MTEXT
  5
57
330
1F
100
AcDbEntity
  8
0
  6
Continuous
 62
     7
370
     0
100
AcDbMText
 10
8.9438302275
 20
0.7457341193
 30
0.0
 40
0.0833333333
 41
0.0
 71
     1
 72
     1
  1
PART  NO.
  7
SLDTEXTSTYLE1
 73
     1
 44
1.0
  0
MTEXT
  5
59
330
1F
100
AcDbEntity
  8
0
  6
Continuous
 62
     7
370
     0
100
AcDbMText
 10
6.3927073562
 20
1.1440291591
 30
0.0
 40
0.06
 41
0.0
 71
     1
 72
     1
  1
PROPRIETARY AND CONFIDENTIAL
  7
SLDTEXTSTYLE2
 73
     1
 44
1.0
  0
MTEXT
  5
5A
330
1F
100
AcDbEntity
  8
0
  6
Continuous
 62
     7
370
     0
100
AcDbMText
 10
6.4985660702
 20
1.5406501707
 30
0.0
 40
0.065
 41
0.0
 71
     1
 72
     1
  1
DRAWN
  7
SLDTEXTSTYLE0
 73
     1
 44
1.0
  0
MTEXT
  5
5B
330
1F
100
AcDbEntity
  8
0
  6
Continuous
 62
     7
370
     0
100
AcDbMText
 10
6.4369653776
 20
1.4183941661
 30
0.0
 40
0.065
 41
0.0
 71
     1
 72
     1
  1
ENG APPR.
  7
SLDTEXTSTYLE0
 73
     1
 44
1.0
  0
MTEXT
  5
5C
330
1F
100
AcDbEntity
  8
0
  6
Continuous
 62
     7
370
     0
100
AcDbMText
 10
6.4273055419
 20
1.298296273
 30
0.0
 40
0.065
 41
0.0
 71
     1
 72
     1
  1
MFG APPR.
  7
SLDTEXTSTYLE0
 73
     1
 44
1.0
  0
MTEXT
  5
5D
330
1F
100
AcDbEntity
  8
0
  6
Continuous
 62
     7
370
     0
100
AcDbMText
 10
6.9752663896
 20
1.6608078346
 30
0.0
 40
0.065
 41
0.0
 71
     1
 72
     1
  1
NAME
  7
SLDTEXTSTYLE0
 73
     1
 44
1.0
  0
MTEXT
  5
5E
330
1F
100
AcDbEntity
  8
0
  6
Continuous
 62
     7
370
     0
100
AcDbMText
 10
7.9386050459
 20
1.5661804433
 30
0.0
 40
0.1
 41
0.0
 71
     1
 72
     1
  1
TITLE:
  7
SLDTEXTSTYLE0
 73
     1
 44
1.0
  0
MTEXT
  5
5F
330
1F
100
AcDbEntity
  8
0
  6
Continuous
 62
     7
370
     0
100
AcDbMText
 10
10.0657693915
 20
1.2262994671
 30
0.0
 40
0.0833333333
 41
0.0
 71
     1
 72
     1
  1
SIZE
  7
SLDTEXTSTYLE0
 73
     1
 44
1.0
  0
MTEXT
  5
60
330
1F
100
AcDbEntity
  8
0
  6
Continuous
 62
     7
370
     0
100
AcDbMText
 10
10.1162261111
 20
1.1164461388
 30
0.0
 40
0.1041666667
 41
0.0
 71
     1
 72
     1
  1
A
  7
SLDTEXTSTYLE0
 73
     1
 44
1.0
  0
MTEXT
  5
61
330
1F
100
AcDbEntity
  8
0
  6
Continuous
 62
     7
370
     0
100
AcDbMText
 10
10.335100974
 20
1.2278993505
 30
0.0
 40
0.0833333333
 41
0.0
 71
     1
 72
     1
  1
REV.
  7
SLDTEXTSTYLE0
 73
     1
 44
1.0
  0
MTEXT
  5
62
330
1F
100
AcDbEntity
  8
0
  6
Continuous
 62
     7
370
     0
100
AcDbMText
 10
8.3227727705
 20
0.9309786574
 30
0.0
 40
0.0833333333
 41
0.0
 71
     1
 72
     1
  1
SCALE: 1:1
  7
SLDTEXTSTYLE0
 73
     1
 44
1.0
  0
MTEXT
  5
64
330
1F
100
AcDbEntity
  8
0
  6
Continuous
 62
     7
370
     0
100
AcDbMText
 10
9.6378279873
 20
0.926579063
 30
0.0
 40
0.0833333333
 41
0.0
 71
     1
 72
     1
  1
SHEET 1 OF 1
  7
SLDTEXTSTYLE3
 73
     1
 44
1.0
  0
MTEXT
  5
65
330
1F
100
AcDbEntity
  8
0
  6
Continuous
 62
     7
370
     0
100
AcDbMText
 10
7.9973448277
 20
0.6032387684
 30
0.0
 40
0.125
 41
0.0
 71
     1
 72
     1
  1
13296-E01
  7
SLDTEXTSTYLE0
 73
     1
 44
1.0
  0
INSERT
  5
75
330
1F
100
AcDbEntity
  8
0
  6
Continuous
 62
     7
370
     0
100
AcDbBlockReference
  2
SW_NOTE_0
 10
6.3891646717
 20
0.9312082413
 30
0.0
  0
MTEXT
  5
76
330
1F
100
AcDbEntity
  8
0
  6
Continuous
 62
     7
370
     0
100
AcDbMText
 10
7.9076399399
 20
0.7468305835
 30
0.0
 40
0.0833333333
 41
0.0
 71
     1
 72
     1
  1
DWG.  NO.
  7
SLDTEXTSTYLE1
 73
     1
 44
1.0
  0
MTEXT
  5
77
330
1F
100
AcDbEntity
  8
0
  6
Continuous
 62
     7
370
     0
100
AcDbMText
 10
7.0592138229
 20
1.5434434118
 30
0.0
 40
0.065
 41
0.0
 71
     1
 72
     1
  1
AP
  7
SLDTEXTSTYLE0
 73
     1
 44
1.0
  0
MTEXT
  5
78
330
1F
100
AcDbEntity
  8
0
  6
Continuous
 62
     7
370
     0
100
AcDbMText
 10
7.0628716471
 20
1.4267005168
 30
0.0
 40
0.065
 41
0.0
 71
     1
 72
     1
  1
DJ
  7
SLDTEXTSTYLE0
 73
     1
 44
1.0
  0
MTEXT
  5
79
330
1F
100
AcDbEntity
  8
0
  6
Continuous
 62
     7
370
     0
100
AcDbMText
 10
7.0636219211
 20
1.3041261123
 30
0.0
 40
0.065
 41
0.0
 71
     1
 72
     1
  1
DD
  7
SLDTEXTSTYLE0
 73
     1
 44
1.0
  0
MTEXT
  5
7A
330
1F
100
AcDbEntity
  8
0
  6
Continuous
 62
     7
370
     0
100
AcDbMText
 10
7.3775562039
 20
1.5451308061
 30
0.0
 40
0.065
 41
0.0
 71
     1
 72
     1
  1
10/26/2007
  7
SLDTEXTSTYLE0
 73
     1
 44
1.0
  0
MTEXT
  5
7B
330
1F
100
AcDbEntity
  8
0
  6
Continuous
 62
     7
370
     0
100
AcDbMText
 10
7.4731545031
 20
1.6582684693
 30
0.0
 40
0.065
 41
0.0
 71
     1
 72
     1
  1
DATE
  7
SLDTEXTSTYLE0
 73
     1
 44
1.0
  0
MTEXT
  5
7C
330
1F
100
AcDbEntity
  8
0
  6
Continuous
 62
     7
370
     0
100
AcDbMText
 10
7.3821011998
 20
1.4184142209
 30
0.0
 40
0.065
 41
0.0
 71
     1
 72
     1
  1
01/10/2008
  7
SLDTEXTSTYLE0
 73
     1
 44
1.0
  0
MTEXT
  5
7D
330
1F
100
AcDbEntity
  8
0
  6
Continuous
 62
     7
370
     0
100
AcDbMText
 10
7.3821011998
 20
1.2979456571
 30
0.0
 40
0.065
 41
0.0
 71
     1
 72
     1
  1
01/11/2008
  7
SLDTEXTSTYLE0
 73
     1
 44
1.0
  0
MTEXT
  5
7E
330
1F
100
AcDbEntity
  8
0
  6
Continuous
 62
     7
370
     0
100
AcDbMText
 10
7.9182509893
 20
1.8945248266
 30
0.0
 40
0.1875
 41
0.0
 71
     1
 72
     1
  1
THORLABS INC.
  7
SLDTEXTSTYLE0
 73
     1
 44
1.0
  0
INSERT
  5
85
330
1F
100
AcDbEntity
  8
0
  6
Continuous
 62
     7
370
     0
100
AcDbBlockReference
  2
SW_NOTE_1
 10
9.7899715108
 20
1.7882142597
 30
0.0
  0
MTEXT
  5
86
330
1F
100
AcDbEntity
  8
0
  6
Continuous
 62
     7
370
     0
100
AcDbMText
 10
0.7257045785
 20
2.1039704868
 30
0.0
 40
0.09
 41
0.0
 71
     1
 72
     1
  1
SPECIFICATIONS:
  7
SLDTEXTSTYLE0
 73
     1
 44
1.0
  0
INSERT
  5
96
330
1F
100
AcDbEntity
  8
0
  6
Continuous
 62
     7
370
     0
100
AcDbBlockReference
  2
SW_NOTE_2
 10
0.7066965232
 20
1.7976517907
 30
0.0
  0
INSERT
  5
9C
330
1F
100
AcDbEntity
  8
0
  6
Continuous
 62
     7
370
     0
100
AcDbBlockReference
  2
SW_NOTE_3
 10
8.3649842166
 20
1.4399093991
 30
0.0
  0
MTEXT
  5
9D
330
1F
100
AcDbEntity
  8
0
  6
Continuous
 62
     7
370
     0
100
AcDbMText
 10
8.5021403846
 20
1.1403464748
 30
0.0
 40
0.1041666667
 41
0.0
 71
     1
 72
     1
  1
SEE TABLE
  7
SLDTEXTSTYLE0
 73
     1
 44
1.0
  0
INSERT
  5
A4
330
1F
100
AcDbEntity
  8
0
  6
Continuous
 62
     7
370
     0
100
AcDbBlockReference
  2
SW_NOTE_4
 10
0.4001107216
 20
0.5376622624
 30
0.0
  0
INSERT
  5
BD
330
1F
100
AcDbEntity
  8
0
  6
Continuous
 62
     7
370
     0
100
AcDbBlockReference
  2
SW_TABLEANNOTATION_0
 10
0.3212452612
 20
8.1969456457
 30
0.0
  0
ARC
  5
BE
330
1F
100
AcDbEntity
  8
0
  6
Continuous
 62
     7
370
     0
100
AcDbCircle
 10
2.6204294479
 20
4.3475153374
 30
0.0
 40
0.4500000000000079
100
AcDbArc
 50
150.8433122246
 51
328.933364477
  0
LINE
  5
BF
330
1F
100
AcDbEntity
  8
0
  6
Continuous
 62
     7
370
     0
100
AcDbLine
 10
3.0492980859
 20
4.0901222227
 30
0.0
 11
3.005884925
 21
4.1152997585
 31
0.0
  0
ARC
  5
C0
330
1F
100
AcDbEntity
  8
0
  6
Continuous
 62
     7
370
     0
100
AcDbCircle
 10
2.6204294479
 20
4.3475153374
 30
0.0
 40
0.5001794919243211
100
AcDbArc
 50
150.7474988278
 51
329.0291778739
  0
LINE
  5
C1
330
1F
100
AcDbEntity
  8
0
  6
Continuous
 62
     7
370
     0
100
AcDbLine
 10
2.1840355076
 20
4.5919327122
 30
0.0
 11
2.2274486684
 21
4.5667551765
 31
0.0
  0
SPLINE
  5
C2
330
1F
100
AcDbEntity
  8
0
  6
Continuous
 62
     7
370
     0
100
AcDbSpline
210
0.0
220
0.0
230
1.0
 70
    24
 71
     1
 72
     4
 73
     2
 74
     0
 42
0.00000001
 43
0.00000001
 40
0.0
 40
0.0
 40
1.0
 40
1.0
 10
3.049298085852131
 20
4.090122222748027
 30
0.0
 10
3.054228485078191
 20
4.087262829413571
 30
0.0
  0
SPLINE
  5
C3
330
1F
100
AcDbEntity
  8
0
  6
Continuous
 62
     7
370
     0
100
AcDbSpline
210
0.0
220
0.0
230
1.0
 70
    24
 71
     1
 72
     4
 73
     2
 74
     0
 42
0.00000001
 43
0.00000001
 40
0.0
 40
0.0
 40
1.0
 40
1.0
 10
2.179390122275706
 20
4.594626811239107
 30
0.0
 10
2.184035507633656
 20
4.591932712177454
 30
0.0
  0
LINE
  5
C4
330
1F
100
AcDbEntity
  8
0
  6
Continuous
 62
     7
370
     0
100
AcDbLine
 10
2.1915608099
 20
4.6049084521
 30
0.0
 11
2.2349739707
 21
4.5797309164
 31
0.0
  0
ARC
  5
C5
330
1F
100
AcDbEntity
  8
0
  6
Continuous
 62
     7
370
     0
100
AcDbCircle
 10
2.6204294479
 20
4.3475153374
 30
0.0
 40
0.5001794919243208
100
AcDbArc
 50
330.7474988278
 51
149.0291778739
  0
LINE
  5
C6
330
1F
100
AcDbEntity
  8
0
  6
Continuous
 62
     7
370
     0
100
AcDbLine
 10
3.0568233881
 20
4.1030979627
 30
0.0
 11
3.0134102273
 21
4.1282754984
 31
0.0
  0
ARC
  5
C7
330
1F
100
AcDbEntity
  8
0
  6
Continuous
 62
     7
370
     0
100
AcDbCircle
 10
2.6204294479
 20
4.3475153374
 30
0.0
 40
0.4500000000000073
100
AcDbArc
 50
330.8433122246
 51
148.933364477
  0
SPLINE
  5
C8
330
1F
100
AcDbEntity
  8
0
  6
Continuous
 62
     7
370
     0
100
AcDbSpline
210
0.0
220
0.0
230
1.0
 70
    24
 71
     1
 72
     4
 73
     2
 74
     0
 42
0.00000001
 43
0.00000001
 40
0.0
 40
0.0
 40
1.0
 40
1.0
 10
2.191560809853414
 20
4.604908452098604
 30
0.0
 10
2.186814316358148
 20
4.607661188994769
 30
0.0
  0
SPLINE
  5
C9
330
1F
100
AcDbEntity
  8
0
  6
Continuous
 62
     7
370
     0
100
AcDbSpline
210
0.0
220
0.0
230
1.0
 70
    24
 71
     1
 72
     4
 73
     2
 74
     0
 42
0.00000001
 43
0.00000001
 40
0.0
 40
0.0
 40
1.0
 40
1.0
 10
3.061538422526816
 20
4.100363470496434
 30
0.0
 10
3.056823388071888
 20
4.103097962669175
 30
0.0
  0
ARC
  5
CA
330
1F
100
AcDbEntity
  8
0
  6
Continuous
 62
     7
370
     0
100
AcDbCircle
 10
2.6204294479
 20
4.3475153374
 30
0.0
 40
0.450000000000006
100
AcDbArc
 50
148.933364477
 51
150.8433122246
  0
ARC
  5
CB
330
1F
100
AcDbEntity
  8
0
  6
Continuous
 62
     7
370
     0
100
AcDbCircle
 10
2.6204294479
 20
4.3475153374
 30
0.0
 40
0.4500000000000065
100
AcDbArc
 50
328.933364477
 51
330.8433122246
  0
CIRCLE
  5
CC
330
1F
100
AcDbEntity
  8
0
  6
Continuous
 62
     7
370
     0
100
AcDbCircle
 10
2.6204294479
 20
4.3475153374
 30
0.0
 40
0.506000000000003
  0
CIRCLE
  5
CD
330
1F
100
AcDbEntity
  8
0
  6
Continuous
 62
     7
370
     0
100
AcDbCircle
 10
2.6204294479
 20
4.3475153374
 30
0.0
 40
0.5160000000000039
  0
CIRCLE
  5
CE
330
1F
100
AcDbEntity
  8
0
  6
Continuous
 62
     7
370
     0
100
AcDbCircle
 10
2.6204294479
 20
4.3475153374
 30
0.0
 40
0.5900000000000054
  0
CIRCLE
  5
CF
330
1F
100
AcDbEntity
  8
0
  6
Continuous
 62
     7
370
     0
100
AcDbCircle
 10
2.6204294479
 20
4.3475153374
 30
0.0
 40
0.6000000000000039
  0
DIMENSION
  5
D0
330
1F
100
AcDbEntity
  8
0
  6
Continuous
 62
     7
370
     0
100
AcDbDimension
  2
*D7
 10
3.0458035522
 20
3.9243642163
 30
0.0
 11
1.4628777624
 21
4.9754913582
 31
0.0
 70
   163
  1
<>
 71
     1
 42
-1.0
  3
SLDDIMSTYLE0
100
AcDbDiametricDimension
 15
2.1950553435
 25
4.7706664586
 35
0.0
 40
0.0
  0
LINE
  5
E1
330
1F
100
AcDbEntity
  8
0
  6
PHANTOM
 62
     7
370
     0
100
AcDbLine
 10
2.6204294479
 20
5.2767791411
 30
0.0
 11
2.6204294479
 21
3.441196319
 31
0.0
  0
LINE
  5
E2
330
1F
100
AcDbEntity
  8
0
  6
Continuous
 62
     7
370
     0
100
AcDbLine
 10
2.6204294479
 20
5.2767791411
 30
0.0
 11
2.2204294479
 21
5.2767791411
 31
0.0
  0
SOLID
  5
E3
330
1F
100
AcDbEntity
  8
0
  6
Continuous
 62
     7
370
     0
100
AcDbTrace
 10
2.2204294479
 20
5.2767791411
 30
0.0
 11
2.3954294479
 21
5.2392791411
 31
0.0
 12
2.3954294479
 22
5.3142791411
 32
0.0
 13
2.3954294479
 23
5.3142791411
 33
0.0
  0
LINE
  5
E4
330
1F
100
AcDbEntity
  8
0
  6
Continuous
 62
     7
370
     0
100
AcDbLine
 10
2.6204294479
 20
3.441196319
 30
0.0
 11
2.2204294479
 21
3.441196319
 31
0.0
  0
SOLID
  5
E5
330
1F
100
AcDbEntity
  8
0
  6
Continuous
 62
     7
370
     0
100
AcDbTrace
 10
2.2204294479
 20
3.441196319
 30
0.0
 11
2.3954294479
 21
3.403696319
 31
0.0
 12
2.3954294479
 22
3.478696319
 32
0.0
 13
2.3954294479
 23
3.478696319
 33
0.0
  0
MTEXT
  5
E6
330
1F
100
AcDbEntity
  8
0
  6
Continuous
 62
     7
100
AcDbMText
 10
2.059696763
 20
5.3759546275
 30
0.0
 40
0.125
 41
0.0
 71
     1
 72
     1
  1
A
  7
SLDTEXTSTYLE0
 73
     1
 44
1.0
  0
MTEXT
  5
E7
330
1F
100
AcDbEntity
  8
0
  6
Continuous
 62
     7
100
AcDbMText
 10
2.059696763
 20
3.5403718054
 30
0.0
 40
0.125
 41
0.0
 71
     1
 72
     1
  1
A
  7
SLDTEXTSTYLE0
 73
     1
 44
1.0
  0
LINE
  5
E8
330
1F
100
AcDbEntity
  8
0
  6
Continuous
 62
     7
370
     0
100
AcDbLine
 10
4.1610441032
 20
6.9392272133
 30
0.0
 11
4.1610441032
 21
6.9310631322
 31
0.0
  0
LINE
  5
E9
330
1F
100
AcDbEntity
  8
0
  6
Continuous
 62
     7
370
     0
100
AcDbLine
 10
4.5781692985
 20
6.2085028099
 30
0.0
 11
4.5852392171
 21
6.2044201058
 31
0.0
  0
LINE
  5
EA
330
1F
100
AcDbEntity
  8
0
  6
Continuous
 62
     7
370
     0
100
AcDbLine
 10
5.3389216561
 20
7.8221581405
 30
0.0
 11
4.2853325521
 21
7.2139340972
 31
0.0
  0
LINE
  5
EB
330
1F
100
AcDbEntity
  8
0
  6
Continuous
 62
     7
370
     0
100
AcDbLine
 10
4.8852837917
 20
6.1746754623
 30
0.0
 11
5.9388728957
 21
6.7828995056
 31
0.0
  0
LINE
  5
EC
330
1F
100
AcDbEntity
  8
0
  6
Continuous
 62
     7
370
     0
100
AcDbLine
 10
6.0631613446
 20
7.0576063895
 30
0.0
 11
6.0631613446
 21
7.0657704706
 31
0.0
  0
LINE
  5
ED
330
1F
100
AcDbEntity
  8
0
  6
Continuous
 62
     7
370
     0
100
AcDbLine
 10
5.6460361493
 20
7.7883307929
 30
0.0
 11
5.6389662307
 21
7.7924134969
 31
0.0
  0
LWPOLYLINE
  5
EE
330
1F
100
AcDbEntity
  8
0
  6
Continuous
 62
     7
370
     0
100
AcDbPolyline
 90
        3
 70
   128
 43
0.0
 10
4.3972036408
 20
7.1543582932
 10
4.3939144226
 20
7.1507230277
 10
4.3838984958
 20
7.1383372664
  0
SPLINE
  5
EF
330
1F
100
AcDbEntity
  8
0
  6
Continuous
 62
     7
370
     0
100
AcDbSpline
210
0.0
220
0.0
230
1.0
 70
    24
 71
     1
 72
     4
 73
     2
 74
     0
 42
0.00000001
 43
0.00000001
 40
0.0
 40
0.0
 40
1.0
 40
1.0
 10
4.38389849580471
 20
7.138337266399922
 30
0.0
 10
4.382714017716099
 20
7.144149194276106
 30
0.0
  0
ARC
  5
F0
330
1F
100
AcDbEntity
  8
0
  6
Continuous
 62
     7
370
     0
100
AcDbCircle
 10
4.5400605897
 20
7.008151869
 30
0.0
 40
0.1555246665314454
100
AcDbArc
 50
113.7377641732
 51
143.7763781837
  0
LINE
  5
F1
330
1F
100
AcDbEntity
  8
0
  6
Continuous
 62
     7
370
     0
100
AcDbLine
 10
4.3838984958
 20
7.1383372664
 30
0.0
 11
4.4145962362
 21
7.1000573526
 31
0.0
  0
LWPOLYLINE
  5
F2
330
1F
100
AcDbEntity
  8
0
  6
Continuous
 62
     7
370
     0
100
AcDbPolyline
 90
       53
 70
   128
 43
0.0
 10
4.409275044
 20
7.0925339903
 10
4.4009622316
 20
7.0789223125
 10
4.3935632187
 20
7.064270296
 10
4.3871016298
 20
7.0486247241
 10
4.3815980967
 20
7.0320355523
 10
4.3770701918
 20
7.0145557493
 10
4.3735323725
 20
6.9962411273
 10
4.370995935
 20
6.977150164
 10
4.3694689779
 20
6.9573438161
 10
4.3689563769
 20
6.9368853245
 10
4.3694597685
 20
6.9158400122
 10
4.3709775456
 20
6.894275076
 10
4.3735048618
 20
6.8722593717
 10
4.3770336477
 20
6.8498631947
 10
4.3815526358
 20
6.827158055
 10
4.3870473974
 20
6.804216449
 10
4.3935003878
 20
6.7811116283
 10
4.4008910029
 20
6.7579173658
 10
4.4091956449
 20
6.7347077195
 10
4.4183877973
 20
6.711556797
 10
4.42843811
 20
6.6885385181
 10
4.4393144928
 20
6.6657263792
 10
4.4509822178
 20
6.6431932186
 10
4.4634040306
 20
6.6210109836
 10
4.4765402687
 20
6.5992505011
 10
4.4903489888
 20
6.5779812514
 10
4.5047861002
 20
6.5572711464
 10
4.5198055058
 20
6.5371863125
 10
4.5353592493
 20
6.5177908797
 10
4.5513976683
 20
6.4991467768
 10
4.5678695528
 20
6.4813135336
 10
4.5847223087
 20
6.464348091
 10
4.601902126
 20
6.4483046188
 10
4.6193541501
 20
6.4332343432
 10
4.6370226577
 20
6.4191853828
 10
4.6548512337
 20
6.4062025956
 10
4.6727829525
 20
6.3943274348
 10
4.6907605587
 20
6.3835978174
 10
4.7087266507
 20
6.3740480026
 10
4.7266238635
 20
6.3657084826
 10
4.744395052
 20
6.3586058851
 10
4.7619834737
 20
6.3527628883
 10
4.7793329693
 20
6.3481981488
 10
4.7963881428
 20
6.3449262415
 10
4.8130945377
 20
6.3429576135
 10
4.8293988112
 20
6.3422985505
 10
4.8452489045
 20
6.3429511569
 10
4.8605942088
 20
6.3449133489
 10
4.8753857273
 20
6.3481788615
 10
4.8895762314
 20
6.3527372678
 10
4.9031204112
 20
6.3585740131
 10
4.9159750209
 20
6.365670461
 10
4.9264437798
 20
6.3727612804
  0
LINE
  5
F3
330
1F
100
AcDbEntity
  8
0
  6
Continuous
 62
     7
370
     0
100
AcDbLine
 10
4.409275044
 20
7.0925339903
 30
0.0
 11
4.4269527135
 21
7.1027390917
 31
0.0
  0
ARC
  5
F4
330
1F
100
AcDbEntity
  8
0
  6
Continuous
 62
     7
370
     0
100
AcDbCircle
 10
4.5771088277
 20
7.0021787993
 30
0.0
 40
0.1807186516044551
100
AcDbArc
 50
143.2677089568
 51
146.1895840896
  0
LINE
  5
F5
330
1F
100
AcDbEntity
  8
0
  6
Continuous
 62
     7
370
     0
100
AcDbLine
 10
4.4145962362
 20
7.1000573526
 30
0.0
 11
4.4322739057
 21
7.110262454
 31
0.0
  0
LWPOLYLINE
  5
F6
330
1F
100
AcDbEntity
  8
0
  6
Continuous
 62
     7
370
     0
100
AcDbPolyline
 90
       22
 70
   128
 43
0.0
 10
4.5840871936
 20
6.5600548209
 10
4.599631249
 20
6.5413279324
 10
4.6156206837
 20
6.5233565561
 10
4.6320060752
 20
6.5061962406
 10
4.6487367771
 20
6.4899000272
 10
4.665761076
 20
6.4745182868
 10
4.6830263505
 20
6.4600985633
 10
4.7004792348
 20
6.4466854273
 10
4.7180657829
 20
6.4343203381
 10
4.7357316359
 20
6.4230415154
 10
4.7534221897
 20
6.4128838215
 10
4.7710827637
 20
6.4038786531
 10
4.7886587701
 20
6.3960538448
 10
4.8060958825
 20
6.3894335826
 10
4.8233402037
 20
6.3840383292
 10
4.8403384326
 20
6.3798847613
 10
4.8570380287
 20
6.3769857171
 10
4.8733873743
 20
6.3753501574
 10
4.8893359347
 20
6.3749831378
 10
4.9048344137
 20
6.3758857925
 10
4.9198349065
 20
6.3780553317
 10
4.9286925187
 20
6.3799911457
  0
LWPOLYLINE
  5
F7
330
1F
100
AcDbEntity
  8
0
  6
Continuous
 62
     7
370
     0
100
AcDbPolyline
 90
       31
 70
   128
 43
0.0
 10
4.4848394068
 20
7.1488505941
 10
4.4753605556
 20
7.1381108224
 10
4.4662735421
 20
7.1258291759
 10
4.4580441088
 20
7.1124963818
 10
4.4506976925
 20
7.0981536509
 10
4.4442570004
 20
7.0828453158
 10
4.4387419406
 20
7.0666186937
 10
4.4341695595
 20
7.0495239402
 10
4.4305539903
 20
7.0316138941
 10
4.4279064084
 20
7.0129439144
 10
4.4262349974
 20
6.993571709
 10
4.4255449235
 20
6.9735571561
 10
4.4258383197
 20
6.9529621196
 10
4.4271142791
 20
6.9318502577
 10
4.4293688577
 20
6.9102868258
 10
4.4325950869
 20
6.8883384753
 10
4.4367829945
 20
6.8660730474
 10
4.441919636
 20
6.843559363
 10
4.4479891342
 20
6.8208670108
 10
4.4549727288
 20
6.7980661316
 10
4.4628488337
 20
6.7752272015
 10
4.4715931045
 20
6.7524208143
 10
4.4811785131
 20
6.7297174633
 10
4.4915754315
 20
6.7071873233
 10
4.5027517235
 20
6.6849000336
 10
4.5146728438
 20
6.662924483
 10
4.5273019448
 20
6.6413285966
 10
4.5405999908
 20
6.620179126
 10
4.5545258783
 20
6.5995414431
 10
4.5690365631
 20
6.5794793378
 10
4.5840871936
 20
6.5600548209
  0
LWPOLYLINE
  5
F8
330
1F
100
AcDbEntity
  8
0
  6
Continuous
 62
     7
370
     0
100
AcDbPolyline
 90
       53
 70
   128
 43
0.0
 10
4.3785773036
 20
7.1308139041
 10
4.3698957257
 20
7.116764217
 10
4.362096368
 20
7.1017032653
 10
4.3552009187
 20
7.0856729299
 10
4.3492285523
 20
7.0687177872
 10
4.3441958766
 20
7.0508849856
 10
4.3401168862
 20
7.0322241137
 10
4.3370029238
 20
7.0127870629
 10
4.3348626487
 20
6.992627883
 10
4.3337020123
 20
6.9718026318
 10
4.3335242422
 20
6.9503692194
 10
4.3343298327
 20
6.9283872468
 10
4.3361165436
 20
6.9059178408
 10
4.3388794065
 20
6.8830234833
 10
4.3426107386
 20
6.8597678381
 10
4.3473001638
 20
6.8362155734
 10
4.3529346422
 20
6.8124321826
 10
4.3594985054
 20
6.7884838014
 10
4.3669735011
 20
6.7644370246
 10
4.3753388429
 20
6.7403587205
 10
4.384571269
 20
6.7163158451
 10
4.3946451062
 20
6.6923752558
 10
4.4055323415
 20
6.6686035257
 10
4.4172027001
 20
6.6450667583
 10
4.4296237297
 20
6.6218304035
 10
4.4427608902
 20
6.5989590762
 10
4.4565776504
 20
6.5765163761
 10
4.4710355893
 20
6.5545647108
 10
4.4860945026
 20
6.5331651227
 10
4.5017125154
 20
6.5123771189
 10
4.5178461975
 20
6.4922585059
 10
4.5344506851
 20
6.4728652286
 10
4.5514798051
 20
6.4542512152
 10
4.5688862036
 20
6.4364682267
 10
4.5866214776
 20
6.4195657133
 10
4.6046363096
 20
6.403590677
 10
4.6228806046
 20
6.3885875403
 10
4.6413036297
 20
6.3745980235
 10
4.6598541547
 20
6.361661028
 10
4.6784805953
 20
6.3498125285
 10
4.6971311557
 20
6.3390854728
 10
4.7157539731
 20
6.3295096904
 10
4.7342972621
 20
6.321111809
 10
4.7527094582
 20
6.3139151814
 10
4.7709393614
 20
6.3079398194
 10
4.7889362788
 20
6.3032023392
 10
4.8066501653
 20
6.2997159146
 10
4.8240317629
 20
6.2974902405
 10
4.8410327374
 20
6.2965315059
 10
4.8576058132
 20
6.2968423769
 10
4.8737049047
 20
6.298421989
 10
4.8892852441
 20
6.3012659496
 10
4.889637063
 20
6.301346161
  0
SPLINE
  5
F9
330
1F
100
AcDbEntity
  8
0
  6
Continuous
 62
     7
370
     0
100
AcDbSpline
210
0.0
220
0.0
230
1.0
 70
    24
 71
     1
 72
     4
 73
     2
 74
     0
 42
0.00000001
 43
0.00000001
 40
0.0
 40
0.0
 40
1.0
 40
1.0
 10
4.37739281888547
 20
7.136625832154168
 30
0.0
 10
4.37857730357464
 20
7.130813904077952
 30
0.0
  0
LINE
  5
FA
330
1F
100
AcDbEntity
  8
0
  6
Continuous
 62
     7
370
     0
100
AcDbLine
 10
4.3785773036
 20
7.1308139041
 30
0.0
 11
4.409275044
 21
7.0925339903
 31
0.0
  0
LINE
  5
FB
330
1F
100
AcDbEntity
  8
0
  6
Continuous
 62
     7
370
     0
100
AcDbLine
 10
4.4245125738
 20
7.1057819325
 30
0.0
 11
4.4269527135
 21
7.1027390917
 31
0.0
  0
LWPOLYLINE
  5
FC
330
1F
100
AcDbEntity
  8
0
  6
Continuous
 62
     7
370
     0
100
AcDbPolyline
 90
      130
 70
   128
 43
0.0
 10
4.9729274145
 20
6.3062893981
 10
4.9790401907
 20
6.3251362096
 10
4.9842023062
 20
6.344848966
 10
4.9884015171
 20
6.3653809109
 10
4.9916278634
 20
6.3866833446
 10
4.9938736924
 20
6.4087057403
 10
4.9951336774
 20
6.4313958632
 10
4.9954048297
 20
6.4546998948
 10
4.9946865063
 20
6.4785625607
 10
4.9929804109
 20
6.502927261
 10
4.9902905903
 20
6.5277362056
 10
4.9866234242
 20
6.5529305502
 10
4.981987611
 20
6.5784505368
 10
4.9763941461
 20
6.6042356347
 10
4.9698562968
 20
6.6302246845
 10
4.9623895699
 20
6.656356043
 10
4.9540116759
 20
6.6825677296
 10
4.9447424861
 20
6.7087975731
 10
4.934603986
 20
6.7349833591
 10
4.9236202231
 20
6.7610629778
 10
4.9118172496
 20
6.7869745713
 10
4.8992230608
 20
6.8126566802
 10
4.8858675288
 20
6.8380483893
 10
4.8717823314
 20
6.8630894723
 10
4.8570008771
 20
6.8877205344
 10
4.841558226
 20
6.9118831537
 10
4.8254910063
 20
6.9355200189
 10
4.8088373276
 20
6.9585750661
 10
4.7916366907
 20
6.9809936112
 10
4.7739298935
 20
7.0027224799
 10
4.7557589347
 20
7.0237101338
 10
4.7371669137
 20
7.0439067924
 10
4.7181979287
 20
7.0632645515
 10
4.6988969722
 20
7.0817374966
 10
4.6793098237
 20
7.099281812
 10
4.6594829419
 20
7.1158558845
 10
4.639463354
 20
7.1314204021
 10
4.6192985442
 20
7.1459384477
 10
4.5990363412
 20
7.1593755859
 10
4.5787248047
 20
7.1716999455
 10
4.5584121114
 20
7.1828822943
 10
4.5381464408
 20
7.192896109
 10
4.5179758608
 20
7.2017176381
 10
4.4979482139
 20
7.2093259577
 10
4.4781110033
 20
7.2157030219
 10
4.4585112808
 20
7.2208337049
 10
4.4391955347
 20
7.2247058373
 10
4.4202095798
 20
7.2273102349
 10
4.4015984488
 20
7.2286407202
 10
4.3834062851
 20
7.2286941376
 10
4.3656762386
 20
7.2274703604
 10
4.348450363
 20
7.2249722911
 10
4.3317695162
 20
7.221205855
 10
4.3156732633
 20
7.2161799855
 10
4.3001997827
 20
7.2099066036
 10
4.285385776
 20
7.202400589
 10
4.2712663803
 20
7.1936797451
 10
4.2578750852
 20
7.1837647569
 10
4.2452436535
 20
7.1726791415
 10
4.2334020454
 20
7.1604491927
 10
4.222378348
 20
7.1471039189
 10
4.2121987082
 20
7.1326749733
 10
4.2028872711
 20
7.1171965799
 10
4.1944661223
 20
7.1007054517
 10
4.1869552358
 20
7.0832407039
 10
4.1803724268
 20
7.0648437609
 10
4.1747333088
 20
7.0455582582
 10
4.1700512572
 20
7.0254299389
 10
4.1663373773
 20
7.0045065452
 10
4.1636004781
 20
6.982837705
 10
4.1618470512
 20
6.9604748145
 10
4.1610812554
 20
6.9374709159
 10
4.1613049073
 20
6.9138805719
 10
4.1625174762
 20
6.8897597362
 10
4.1647160862
 20
6.8651656209
 10
4.1678955224
 20
6.8401565603
 10
4.1720482434
 20
6.8147918733
 10
4.1771643995
 20
6.7891317221
 10
4.1832318558
 20
6.7632369697
 10
4.1902362209
 20
6.7371690356
 10
4.1981608813
 20
6.7109897501
 10
4.2069870404
 20
6.6847612075
 10
4.2166937637
 20
6.6585456191
 10
4.2272580278
 20
6.6324051653
 10
4.2386547755
 20
6.6064018483
 10
4.250856975
 20
6.5805973453
 10
4.263835684
 20
6.5550528616
 10
4.2775601184
 20
6.529828986
 10
4.2919977254
 20
6.5049855466
 10
4.3071142606
 20
6.4805814693
 10
4.3228738692
 20
6.456674638
 10
4.3392391712
 20
6.433321757
 10
4.3561713499
 20
6.4105782167
 10
4.373630244
 20
6.3884979623
 10
4.391574443
 20
6.3671333658
 10
4.4099613852
 20
6.3465351015
 10
4.4287474589
 20
6.3267520264
 10
4.4478881054
 20
6.3078310636
 10
4.4673379254
 20
6.2898170917
 10
4.4870507859
 20
6.2727528377
 10
4.5069799304
 20
6.2566787762
 10
4.5270780889
 20
6.241633033
 10
4.5472975911
 20
6.2276512951
 10
4.5675904783
 20
6.2147667256
 10
4.5879086181
 20
6.2030098852
 10
4.6082038182
 20
6.1924086598
 10
4.6284279405
 20
6.1829881945
 10
4.6485330158
 20
6.1747708334
 10
4.6684713568
 20
6.1677760673
 10
4.6881956722
 20
6.162020487
 10
4.7076591781
 20
6.1575177441
 10
4.7268157091
 20
6.1542785186
 10
4.745619828
 20
6.1523104936
 10
4.7640269336
 20
6.1516183369
 10
4.7819933663
 20
6.1522036905
 10
4.7994765116
 20
6.1540651657
 10
4.8164349015
 20
6.1571983475
 10
4.8328283125
 20
6.1615958043
 10
4.8486178613
 20
6.1672471057
 10
4.8637660968
 20
6.1741388476
 10
4.8782370891
 20
6.1822546834
 10
4.8919965146
 20
6.1915753633
 10
4.9050117374
 20
6.2020787798
 10
4.9172518869
 20
6.2137400197
 10
4.9286879308
 20
6.2265314241
 10
4.939292744
 20
6.240422653
 10
4.9490411732
 20
6.255380758
 10
4.9579100961
 20
6.2713702601
 10
4.9658784765
 20
6.2883532341
 10
4.9729274145
 20
6.3062893981
  0
LWPOLYLINE
  5
FD
330
1F
100
AcDbEntity
  8
0
  6
Continuous
 62
     7
370
     0
100
AcDbPolyline
 90
       27
 70
   128
 43
0.0
 10
4.9866881486
 20
6.3038640939
 10
4.9795784706
 20
6.2857605905
 10
4.9715479559
 20
6.268611261
 10
4.9626153604
 20
6.2524561585
 10
4.9528015465
 20
6.2373330139
 10
4.9421294347
 20
6.2232771479
 10
4.9306239504
 20
6.2103213889
 10
4.9183119651
 20
6.1984959955
 10
4.905222234
 20
6.1878285865
 10
4.8913853287
 20
6.1783440761
 10
4.8768335661
 20
6.1700646158
 10
4.8616009324
 20
6.1630095427
 10
4.8457230042
 20
6.1571953343
 10
4.829236865
 20
6.1526355699
 10
4.8121810191
 20
6.149340899
 10
4.7945953012
 20
6.1473190165
 10
4.7765207834
 20
6.1465746446
 10
4.7579996798
 20
6.1471095218
 10
4.7390752471
 20
6.1489223988
 10
4.7197916843
 20
6.1520090417
 10
4.700194029
 20
6.1563622415
 10
4.6803280525
 20
6.1619718309
 10
4.6602401527
 20
6.1688247086
 10
4.6399772457
 20
6.1769048694
 10
4.6195866566
 20
6.1861934416
 10
4.5991160085
 20
6.1966687315
 10
4.5852392171
 20
6.2044201058
  0
LWPOLYLINE
  5
FE
330
1F
100
AcDbEntity
  8
0
  6
Continuous
 62
     7
370
     0
100
AcDbPolyline
 90
       74
 70
   128
 43
0.0
 10
4.1610441032
 20
6.9392272133
 10
4.1613825734
 20
6.9585977063
 10
4.1626962267
 20
6.9814675261
 10
4.1649969098
 20
7.003666664
 10
4.1682792494
 20
7.0251432729
 10
4.1725355793
 20
7.0458471932
 10
4.1777559587
 20
7.0657300698
 10
4.1839281953
 20
7.0847454655
 10
4.1910378733
 20
7.1028489689
 10
4.1990683879
 20
7.1199982984
 10
4.2080009834
 20
7.136153401
 10
4.2178147974
 20
7.1512765456
 10
4.2284869091
 20
7.1653324115
 10
4.2399923935
 20
7.1782881705
 10
4.2523043788
 20
7.1901135639
 10
4.2653941099
 20
7.200780973
 10
4.2792310152
 20
7.2102654834
 10
4.2937827778
 20
7.2185449436
 10
4.3090154115
 20
7.2256000167
 10
4.3248933397
 20
7.2314142251
 10
4.3413794788
 20
7.2359739896
 10
4.3584353247
 20
7.2392686605
 10
4.3760210427
 20
7.241290543
 10
4.3940955604
 20
7.2420349149
 10
4.4126166641
 20
7.2415000377
 10
4.4315410968
 20
7.2396871606
 10
4.4508246596
 20
7.2366005177
 10
4.4704223148
 20
7.232247318
 10
4.4902882914
 20
7.2266377285
 10
4.5103761912
 20
7.2197848508
 10
4.5306390982
 20
7.21170469
 10
4.5510296873
 20
7.2024161178
 10
4.5715003354
 20
7.191940828
 10
4.5920032323
 20
7.1803032861
 10
4.6124904927
 20
7.1675306722
 10
4.6329142674
 20
7.1536528174
 10
4.6532268559
 20
7.1387021338
 10
4.6733808172
 20
7.1227135397
 10
4.6933290808
 20
7.1057243771
 10
4.7130250565
 20
7.0877743249
 10
4.7324227435
 20
7.0689053064
 10
4.7514768376
 20
7.049161391
 10
4.770142837
 20
7.0285886915
 10
4.7883771466
 20
7.0072352565
 10
4.8061371792
 20
6.9851509578
 10
4.8233814553
 20
6.9623873744
 10
4.8400697003
 20
6.9389976717
 10
4.856162938
 20
6.9150364774
 10
4.8716235818
 20
6.890559754
 10
4.8864155226
 20
6.865624668
 10
4.9005042133
 20
6.8402894565
 10
4.9138567491
 20
6.814613291
 10
4.9264419444
 20
6.7886561394
 10
4.938230406
 20
6.7624786258
 10
4.9491946014
 20
6.7361418891
 10
4.9593089231
 20
6.7097074398
 10
4.9685497488
 20
6.6832370169
 10
4.976895496
 20
6.6567924433
 10
4.9843266728
 20
6.6304354815
 10
4.9908259235
 20
6.6042276894
 10
4.9963780687
 20
6.5782302765
 10
5.000970141
 20
6.552503961
 10
5.0045914156
 20
6.5271088278
 10
5.0072334348
 20
6.5021041886
 10
5.0088900279
 20
6.4775484428
 10
5.009557326
 20
6.4534989414
 10
5.0092337705
 20
6.4300118532
 10
5.0079201172
 20
6.4071420334
 10
5.005619434
 20
6.3849428955
 10
5.0023370945
 20
6.3634662866
 10
4.9980807646
 20
6.3427623663
 10
4.9928603851
 20
6.3228794896
 10
4.9866881486
 20
6.3038640939
 10
4.9866881486
 20
6.3038640939
  0
LINE
  5
FF
330
1F
100
AcDbEntity
  8
0
  6
Continuous
 62
     7
370
     0
100
AcDbLine
 10
5.6352984989
 20
7.7073979127
 30
0.0
 11
5.656006626
 21
7.71935246
 31
0.0
  0
ARC
  5
100
330
1F
100
AcDbEntity
  8
0
  6
Continuous
 62
     7
370
     0
100
AcDbCircle
 10
5.6276145752
 20
7.718638629
 30
0.0
 40
0.0136160341838003
100
AcDbArc
 50
236.8162710947
 51
304.3557126223
  0
ARC
  5
101
330
1F
100
AcDbEntity
  8
0
  6
Continuous
 62
     7
370
     0
100
AcDbCircle
 10
5.6218401381
 20
7.7106446494
 30
0.0
 40
0.0037929019941874
100
AcDbArc
 50
145.7752415662
 51
243.7431115299
  0
SPLINE
  5
102
330
1F
100
AcDbEntity
  8
0
  6
Continuous
 62
     7
370
     0
100
AcDbSpline
210
0.0
220
0.0
230
1.0
 70
    24
 71
     1
 72
     4
 73
     2
 74
     0
 42
0.00000001
 43
0.00000001
 40
0.0
 40
0.0
 40
1.0
 40
1.0
 10
5.622024182269808
 20
7.715110798132804
 30
0.0
 10
5.618704024051196
 20
7.7127779319216
 30
0.0
  0
LINE
  5
103
330
1F
100
AcDbEntity
  8
0
  6
Continuous
 62
     7
370
     0
100
AcDbLine
 10
5.6443738073
 20
7.728012962
 30
0.0
 11
5.6220241823
 21
7.7151107981
 31
0.0
  0
ARC
  5
104
330
1F
100
AcDbEntity
  8
0
  6
Continuous
 62
     7
370
     0
100
AcDbCircle
 10
5.2545262022
 20
7.1927724943
 30
0.0
 40
0.6621657749928773
100
AcDbArc
 50
53.9319125726
 51
55.5564582644
  0
LINE
  5
105
330
1F
100
AcDbEntity
  8
0
  6
Continuous
 62
     7
370
     0
100
AcDbLine
 10
5.6080480114
 20
7.7267297436
 30
0.0
 11
5.6290431137
 21
7.7388499581
 31
0.0
  0
ARC
  5
106
330
1F
100
AcDbEntity
  8
0
  6
Continuous
 62
     7
370
     0
100
AcDbCircle
 10
5.6002634303
 20
7.7377870925
 30
0.0
 40
0.0135227462835862
100
AcDbArc
 50
238.4870762455
 51
305.1462641211
  0
ARC
  5
107
330
1F
100
AcDbEntity
  8
0
  6
Continuous
 62
     7
370
     0
100
AcDbCircle
 10
5.5949969602
 20
7.7296608741
 30
0.0
 40
0.0038498594874427
100
AcDbArc
 50
171.8421059186
 51
242.0952516489
  0
SPLINE
  5
108
330
1F
100
AcDbEntity
  8
0
  6
Continuous
 62
     7
370
     0
100
AcDbSpline
210
0.0
220
0.0
230
1.0
 70
     8
 71
     3
 72
     9
 73
     5
 74
     0
 42
0.00000001
 43
0.00000001
 40
0.0
 40
0.0
 40
0.0
 40
0.0
 40
0.5015771373280751
 40
1.0
 40
1.0
 40
1.0
 40
1.0
 10
5.594150208044966
 20
7.733315597473007
 30
0.0
 10
5.593431034030946
 20
7.732882460969537
 30
0.0
 10
5.591997208681867
 20
7.732018911833749
 30
0.0
 10
5.591455872610361
 20
7.730809816003072
 30
0.0
 10
5.591186058335932
 20
7.730207174997902
 30
0.0
  0
LINE
  5
109
330
1F
100
AcDbEntity
  8
0
  6
Continuous
 62
     7
370
     0
100
AcDbLine
 10
5.6173263215
 20
7.746694883
 30
0.0
 11
5.594150208
 21
7.7333155975
 31
0.0
  0
ARC
  5
10A
330
1F
100
AcDbEntity
  8
0
  6
Continuous
 62
     7
370
     0
100
AcDbCircle
 10
5.2855138093
 20
7.2390622938
 30
0.0
 40
0.606457244084606
100
AcDbArc
 50
56.8294829867
 51
58.5520549538
  0
LINE
  5
10B
330
1F
100
AcDbEntity
  8
0
  6
Continuous
 62
     7
370
     0
100
AcDbLine
 10
5.5761924735
 20
7.7415893629
 30
0.0
 11
5.6019169264
 21
7.7564397734
 31
0.0
  0
SPLINE
  5
10C
330
1F
100
AcDbEntity
  8
0
  6
Continuous
 62
     7
370
     0
100
AcDbSpline
210
0.0
220
0.0
230
1.0
 70
     8
 71
     3
 72
    13
 73
     9
 74
     0
 42
0.00000001
 43
0.00000001
 40
0.0
 40
0.0
 40
0.0
 40
0.0
 40
0.2493660811200574
 40
0.3758557512762052
 40
0.4995069154470345
 40
0.6185141978888229
 40
0.7497784962541254
 40
1.0
 40
1.0
 40
1.0
 40
1.0
 10
5.574145007482539
 20
7.723371742701536
 30
0.0
 10
5.572245603386141
 20
7.724785330881112
 30
0.0
 10
5.569382736269561
 20
7.726915954440029
 30
0.0
 10
5.56770337134591
 20
7.730337194459787
 30
0.0
 10
5.567565829899095
 20
7.732919236798236
 30
0.0
 10
5.568605148957426
 20
7.735423966469829
 30
0.0
 10
5.571248580966493
 20
7.73846385480356
 30
0.0
 10
5.574234180134083
 20
7.740351338048652
 30
0.0
 10
5.576192473494315
 20
7.741589362880162
 30
0.0
  0
ARC
  5
10D
330
1F
100
AcDbEntity
  8
0
  6
Continuous
 62
     7
370
     0
100
AcDbCircle
 10
5.593158073
 20
7.752779461
 30
0.0
 40
0.0350187171772532
100
AcDbArc
 50
237.1159912735
 51
273.8836727375
  0
SPLINE
  5
10E
330
1F
100
AcDbEntity
  8
0
  6
Continuous
 62
     7
370
     0
100
AcDbSpline
210
0.0
220
0.0
230
1.0
 70
     8
 71
     3
 72
    12
 73
     8
 74
     0
 42
0.00000001
 43
0.00000001
 40
0.0
 40
0.0
 40
0.0
 40
0.0
 40
0.2503744450472427
 40
0.4999656501733779
 40
0.7494635411019134
 40
0.8746935204661317
 40
1.0
 40
1.0
 40
1.0
 40
1.0
 10
5.600984202972497
 20
7.704938215979053
 30
0.0
 10
5.599766871547378
 20
7.705879668566647
 30
0.0
 10
5.597336016843653
 20
7.707759628619979
 30
0.0
 10
5.594811419769655
 20
7.711047850264242
 30
0.0
 10
5.594376379857349
 20
7.713980943460724
 30
0.0
 10
5.594803893606938
 20
7.716229438849521
 30
0.0
 10
5.595287865347882
 20
7.717303810310451
 30
0.0
 10
5.595529925107639
 20
7.717841160068138
 30
0.0
  0
ARC
  5
10F
330
1F
100
AcDbEntity
  8
0
  6
Continuous
 62
     7
370
     0
100
AcDbCircle
 10
5.6211793698
 20
7.7330514676
 30
0.0
 40
0.0346150210237859
100
AcDbArc
 50
234.3084062303
 51
271.7261961758
  0
LINE
  5
110
330
1F
100
AcDbEntity
  8
0
  6
Continuous
 62
     7
370
     0
100
AcDbLine
 10
5.6159086333
 20
7.6948074761
 30
0.0
 11
5.6222220867
 21
7.6984521552
 31
0.0
  0
ARC
  5
111
330
1F
100
AcDbEntity
  8
0
  6
Continuous
 62
     7
370
     0
100
AcDbCircle
 10
5.1794938931
 20
7.1235377524
 30
0.0
 40
0.7188928450412058
100
AcDbArc
 50
51.1897663839
 51
52.6224098897
  0
LINE
  5
112
330
1F
100
AcDbEntity
  8
0
  6
Continuous
 62
     7
370
     0
100
AcDbLine
 10
5.6711957091
 20
7.7074678275
 30
0.0
 11
5.6300549509
 21
7.6837177733
 31
0.0
  0
ARC
  5
113
330
1F
100
AcDbEntity
  8
0
  6
Continuous
 62
     7
370
     0
100
AcDbCircle
 10
5.2213031627
 20
7.1481338419
 30
0.0
 40
0.7178146074522711
100
AcDbArc
 50
51.1890220429
 51
52.7284780493
  0
SPLINE
  5
114
330
1F
100
AcDbEntity
  8
0
  6
Continuous
 62
     7
370
     0
100
AcDbSpline
210
0.0
220
0.0
230
1.0
 70
    24
 71
     1
 72
     4
 73
     2
 74
     0
 42
0.00000001
 43
0.00000001
 40
0.0
 40
0.0
 40
1.0
 40
1.0
 10
5.730413639695294
 20
7.613672887744393
 30
0.0
 10
5.736049116042982
 20
7.611595138774284
 30
0.0
  0
SPLINE
  5
115
330
1F
100
AcDbEntity
  8
0
  6
Continuous
 62
     7
370
     0
100
AcDbSpline
210
0.0
220
0.0
230
1.0
 70
    24
 71
     1
 72
     4
 73
     2
 74
     0
 42
0.00000001
 43
0.00000001
 40
0.0
 40
0.0
 40
1.0
 40
1.0
 10
5.725400467748835
 20
7.617495640296189
 30
0.0
 10
5.730413639695296
 20
7.613672887744393
 30
0.0
  0
SPLINE
  5
116
330
1F
100
AcDbEntity
  8
0
  6
Continuous
 62
     7
370
     0
100
AcDbSpline
210
0.0
220
0.0
230
1.0
 70
     8
 71
     3
 72
    13
 73
     9
 74
     0
 42
0.00000001
 43
0.00000001
 40
0.0
 40
0.0
 40
0.0
 40
0.0
 40
0.2498702615310053
 40
0.3782858079710478
 40
0.4999708345516676
 40
0.6240802108173972
 40
0.7501947010536135
 40
1.0
 40
1.0
 40
1.0
 40
1.0
 10
5.726003913727669
 20
7.629850208973356
 30
0.0
 10
5.724979400652702
 20
7.629169070148471
 30
0.0
 10
5.723428360709148
 20
7.628137874402592
 30
0.0
 10
5.722178674728346
 20
7.626182417536628
 30
0.0
 10
5.72186295641148
 20
7.624466786761051
 30
0.0
 10
5.722116010814106
 20
7.622665082129627
 30
0.0
 10
5.723062577799196
 20
7.620234119638529
 30
0.0
 10
5.724467122884048
 20
7.618588910589725
 30
0.0
 10
5.725400467748835
 20
7.617495640296189
 30
0.0
  0
ARC
  5
117
330
1F
100
AcDbEntity
  8
0
  6
Continuous
 62
     7
370
     0
100
AcDbCircle
 10
5.7319773371
 20
7.6190509253
 30
0.0
 40
0.0123412443998898
100
AcDbArc
 50
39.1177467492
 51
118.948360903
  0
ARC
  5
118
330
1F
100
AcDbEntity
  8
0
  6
Continuous
 62
     7
370
     0
100
AcDbCircle
 10
5.7368368961
 20
7.6205034746
 30
0.0
 40
0.0078962870905039
100
AcDbArc
 50
315.5172650177
 51
53.3326785682
  0
SPLINE
  5
119
330
1F
100
AcDbEntity
  8
0
  6
Continuous
 62
     7
370
     0
100
AcDbSpline
210
0.0
220
0.0
230
1.0
 70
    24
 71
     1
 72
     4
 73
     2
 74
     0
 42
0.00000001
 43
0.00000001
 40
0.0
 40
0.0
 40
1.0
 40
1.0
 10
5.757960060404763
 20
7.600292776006418
 30
0.0
 10
5.742470593927831
 20
7.614970591195175
 30
0.0
  0
SPLINE
  5
11A
330
1F
100
AcDbEntity
  8
0
  6
Continuous
 62
     7
370
     0
100
AcDbSpline
210
0.0
220
0.0
230
1.0
 70
     8
 71
     3
 72
    12
 73
     8
 74
     0
 42
0.00000001
 43
0.00000001
 40
0.0
 40
0.0
 40
0.0
 40
0.0
 40
0.2504209395099076
 40
0.4998161593112395
 40
0.6249761228546454
 40
0.7501447819711344
 40
1.0
 40
1.0
 40
1.0
 40
1.0
 10
5.752402465554733
 20
7.633377953981974
 30
0.0
 10
5.75473250130874
 20
7.630759122276476
 30
0.0
 10
5.759383029031801
 20
7.625532185553511
 30
0.0
 10
5.762902338010265
 20
7.617880889066652
 30
0.0
 10
5.763273499263345
 20
7.611861042081768
 30
0.0
 10
5.762332007547778
 20
7.606064831442622
 30
0.0
 10
5.759708164662153
 20
7.602600707541694
 30
0.0
 10
5.757960060404763
 20
7.600292776006418
 30
0.0
  0
ARC
  5
11B
330
1F
100
AcDbEntity
  8
0
  6
Continuous
 62
     7
370
     0
100
AcDbCircle
 10
5.7248462992
 20
7.6119350732
 30
0.0
 40
0.0349161773306462
100
AcDbArc
 50
37.888334113
 51
114.7790124045
  0
SPLINE
  5
11C
330
1F
100
AcDbEntity
  8
0
  6
Continuous
 62
     7
370
     0
100
AcDbSpline
210
0.0
220
0.0
230
1.0
 70
     8
 71
     3
 72
    13
 73
     9
 74
     0
 42
0.00000001
 43
0.00000001
 40
0.0
 40
0.0
 40
0.0
 40
0.0
 40
0.2498250059078456
 40
0.3743050054257867
 40
0.5003223264671692
 40
0.6265707930957868
 40
0.7507535245015907
 40
1.0
 40
1.0
 40
1.0
 40
1.0
 10
5.710204060121896
 20
7.615514132422976
 30
0.0
 10
5.70811915087299
 20
7.617954422680923
 30
0.0
 10
5.704995396447814
 20
7.621610633374972
 30
0.0
 10
5.702876183754996
 20
7.626992946402383
 30
0.0
 10
5.702309897920514
 20
7.631018951789927
 30
0.0
 10
5.702753342900561
 20
7.63486455318458
 30
0.0
 10
5.704665758824511
 20
7.639599216579143
 30
0.0
 10
5.707992082363894
 20
7.642020477312871
 30
0.0
 10
5.710212247265917
 20
7.643636555254786
 30
0.0
  0
SPLINE
  5
11D
330
1F
100
AcDbEntity
  8
0
  6
Continuous
 62
     7
370
     0
100
AcDbSpline
210
0.0
220
0.0
230
1.0
 70
     8
 71
     3
 72
     9
 73
     5
 74
     0
 42
0.00000001
 43
0.00000001
 40
0.0
 40
0.0
 40
0.0
 40
0.0
 40
0.5003485402245694
 40
1.0
 40
1.0
 40
1.0
 40
1.0
 10
5.722405315954156
 20
7.607187653478777
 30
0.0
 10
5.720138756163305
 20
7.608320045356968
 30
0.0
 10
5.715608794329431
 20
7.610583251476613
 30
0.0
 10
5.71200480076659
 20
7.613871269445202
 30
0.0
 10
5.710204060121896
 20
7.615514132422976
 30
0.0
  0
SPLINE
  5
11E
330
1F
100
AcDbEntity
  8
0
  6
Continuous
 62
     7
370
     0
100
AcDbSpline
210
0.0
220
0.0
230
1.0
 70
    24
 71
     1
 72
     4
 73
     2
 74
     0
 42
0.00000001
 43
0.00000001
 40
0.0
 40
0.0
 40
1.0
 40
1.0
 10
5.71234480426666
 20
7.603659347805012
 30
0.0
 10
5.722405315954156
 20
7.607187653478777
 30
0.0
  0
ARC
  5
11F
330
1F
100
AcDbEntity
  8
0
  6
Continuous
 62
     7
370
     0
100
AcDbCircle
 10
5.0716484766
 20
7.0046390223
 30
0.0
 40
0.8771072537962233
100
AcDbArc
 50
43.0745922031
 51
45.2262001635
  0
LINE
  5
120
330
1F
100
AcDbEntity
  8
0
  6
Continuous
 62
     7
370
     0
100
AcDbLine
 10
5.6761797771
 20
7.619657268
 30
0.0
 11
5.6894035922
 21
7.627291214
 31
0.0
  0
ARC
  5
121
330
1F
100
AcDbEntity
  8
0
  6
Continuous
 62
     7
370
     0
100
AcDbCircle
 10
5.0512906259
 20
6.9900350151
 30
0.0
 40
0.8870798343773335
100
AcDbArc
 50
42.0335001771
 51
45.2161681969
  0
SPLINE
  5
122
330
1F
100
AcDbEntity
  8
0
  6
Continuous
 62
     7
370
     0
100
AcDbSpline
210
0.0
220
0.0
230
1.0
 70
    24
 71
     1
 72
     4
 73
     2
 74
     0
 42
0.00000001
 43
0.00000001
 40
0.0
 40
0.0
 40
1.0
 40
1.0
 10
5.746696608990403
 20
7.597184038601172
 30
0.0
 10
5.710172247161097
 20
7.583992624498572
 30
0.0
  0
SPLINE
  5
123
330
1F
100
AcDbEntity
  8
0
  6
Continuous
 62
     7
370
     0
100
AcDbSpline
210
0.0
220
0.0
230
1.0
 70
    24
 71
     1
 72
     4
 73
     2
 74
     0
 42
0.00000001
 43
0.00000001
 40
0.0
 40
0.0
 40
1.0
 40
1.0
 10
5.736049116042982
 20
7.611595138774284
 30
0.0
 10
5.746696608990403
 20
7.597184038601172
 30
0.0
  0
LINE
  5
124
330
1F
100
AcDbEntity
  8
0
  6
Continuous
 62
     7
370
     0
100
AcDbLine
 10
5.7365564281
 20
7.5754416546
 30
0.0
 11
5.7490455868
 21
7.5826514925
 31
0.0
  0
ARC
  5
125
330
1F
100
AcDbEntity
  8
0
  6
Continuous
 62
     7
370
     0
100
AcDbCircle
 10
5.0042823487
 20
6.944734497
 30
0.0
 40
0.966445469711743
100
AcDbArc
 50
37.3116331872
 51
40.7382977912
  0
LINE
  5
126
330
1F
100
AcDbEntity
  8
0
  6
Continuous
 62
     7
370
     0
100
AcDbLine
 10
5.7854343236
 20
7.5377551584
 30
0.0
 11
5.7729451649
 21
7.5305453206
 31
0.0
  0
ARC
  5
127
330
1F
100
AcDbEntity
  8
0
  6
Continuous
 62
     7
370
     0
100
AcDbCircle
 10
5.0167715074
 20
6.9519443349
 30
0.0
 40
0.9664454697116059
100
AcDbArc
 50
37.3116331872
 51
40.7382977912
  0
LINE
  5
128
330
1F
100
AcDbEntity
  8
0
  6
Continuous
 62
     7
370
     0
100
AcDbLine
 10
5.8626900053
 20
7.4408073479
 30
0.0
 11
5.8854643535
 21
7.4539546993
 31
0.0
  0
ARC
  5
129
330
1F
100
AcDbEntity
  8
0
  6
Continuous
 62
     7
370
     0
100
AcDbCircle
 10
4.9681550865
 20
6.9153426237
 30
0.0
 40
1.037451636100263
100
AcDbArc
 50
30.4306863017
 51
32.1510552278
  0
LINE
  5
12A
330
1F
100
AcDbEntity
  8
0
  6
Continuous
 62
     7
370
     0
100
AcDbLine
 10
5.8347570049
 20
7.4606401262
 30
0.0
 11
5.8465115073
 21
7.467425856
 31
0.0
  0
ARC
  5
12B
330
1F
100
AcDbEntity
  8
0
  6
Continuous
 62
     7
370
     0
100
AcDbCircle
 10
4.9564005842
 20
6.908556894
 30
0.0
 40
1.037451636092541
100
AcDbArc
 50
30.4306863017
 51
32.1510552278
  0
LINE
  5
12C
330
1F
100
AcDbEntity
  8
0
  6
Continuous
 62
     7
370
     0
100
AcDbLine
 10
5.8421196262
 20
7.4289323208
 30
0.0
 11
5.8509355029
 21
7.4340216181
 31
0.0
  0
ARC
  5
12D
330
1F
100
AcDbEntity
  8
0
  6
Continuous
 62
     7
370
     0
100
AcDbCircle
 10
4.9479441713
 20
6.9036840137
 30
0.0
 40
1.037032076755329
100
AcDbArc
 50
30.4304356253
 51
32.4380514672
  0
LINE
  5
12E
330
1F
100
AcDbEntity
  8
0
  6
Continuous
 62
     7
370
     0
100
AcDbLine
 10
5.809946272
 20
7.4523010224
 30
0.0
 11
5.8231700871
 21
7.4599349683
 31
0.0
  0
ARC
  5
12F
330
1F
100
AcDbEntity
  8
0
  6
Continuous
 62
     7
370
     0
100
AcDbCircle
 10
4.9337975701
 20
6.8954831011
 30
0.0
 40
1.038114996172052
100
AcDbArc
 50
29.0554946307
 51
32.4371426222
  0
LINE
  5
130
330
1F
100
AcDbEntity
  8
0
  6
Continuous
 62
     7
370
     0
100
AcDbLine
 10
5.8978340539
 20
7.4323067398
 30
0.0
 11
5.8412655114
 21
7.3996504153
 31
0.0
  0
ARC
  5
131
330
1F
100
AcDbEntity
  8
0
  6
Continuous
 62
     7
370
     0
100
AcDbCircle
 10
4.9895769168
 20
6.927684269
 30
0.0
 40
1.039025921350591
100
AcDbArc
 50
29.0562995606
 51
30.4312195219
  0
ARC
  5
132
330
1F
100
AcDbEntity
  8
0
  6
Continuous
 62
     7
370
     0
100
AcDbCircle
 10
4.6757504417
 20
7.1769761906
 30
0.0
 40
0.2281352475273379
100
AcDbArc
 50
98.1939371568
 51
100.2402901921
  0
ARC
  5
133
330
1F
100
AcDbEntity
  8
0
  6
Continuous
 62
     7
370
     0
100
AcDbCircle
 10
4.7433409092
 20
7.2869327679
 30
0.0
 40
0.1531085188479868
100
AcDbArc
 50
124.1793707251
 51
130.8301618706
  0
ARC
  5
134
330
1F
100
AcDbEntity
  8
0
  6
Continuous
 62
     7
370
     0
100
AcDbCircle
 10
4.7958705792
 20
7.207337701
 30
0.0
 40
0.2484697530946131
100
AcDbArc
 50
119.7091441783
 51
123.8891751854
  0
ARC
  5
135
330
1F
100
AcDbEntity
  8
0
  6
Continuous
 62
     7
370
     0
100
AcDbCircle
 10
4.9117716989
 20
7.001253883
 30
0.0
 40
0.4849068583398511
100
AcDbArc
 50
113.7210583046
 51
119.5356422459
  0
ARC
  5
136
330
1F
100
AcDbEntity
  8
0
  6
Continuous
 62
     7
370
     0
100
AcDbCircle
 10
4.7492160813
 20
7.2193870016
 30
0.0
 40
0.2281352475228828
100
AcDbArc
 50
98.1939371567
 51
100.2402901921
  0
ARC
  5
137
330
1F
100
AcDbEntity
  8
0
  6
Continuous
 62
     7
370
     0
100
AcDbCircle
 10
4.8704829915
 20
7.0487512704
 30
0.0
 40
0.4269897608526576
100
AcDbArc
 50
112.2710204604
 51
119.5852836402
  0
ARC
  5
138
330
1F
100
AcDbEntity
  8
0
  6
Continuous
 62
     7
370
     0
100
AcDbCircle
 10
4.6887328756
 20
7.3564041245
 30
0.0
 40
0.0699863581566094
100
AcDbArc
 50
114.535783088
 51
139.9070167642
  0
LINE
  5
139
330
1F
100
AcDbEntity
  8
0
  6
Continuous
 62
     7
370
     0
100
AcDbLine
 10
4.7851749193
 20
7.4186447535
 30
0.0
 11
4.8047121878
 21
7.4299233785
 31
0.0
  0
ARC
  5
13A
330
1F
100
AcDbEntity
  8
0
  6
Continuous
 62
     7
370
     0
100
AcDbCircle
 10
4.7714706753
 20
7.4381141255
 30
0.0
 40
0.0238088796459984
100
AcDbArc
 50
262.8008916034
 51
305.1412285496
  0
SPLINE
  5
13B
330
1F
100
AcDbEntity
  8
0
  6
Continuous
 62
     7
370
     0
100
AcDbSpline
210
0.0
220
0.0
230
1.0
 70
     8
 71
     3
 72
    14
 73
    10
 74
     0
 42
0.00000001
 43
0.00000001
 40
0.0
 40
0.0
 40
0.0
 40
0.0
 40
0.2862256784763524
 40
0.4003765273182235
 40
0.4998375199897411
 40
0.6220848349101634
 40
0.7496735307788397
 40
0.8747568150767616
 40
1.0
 40
1.0
 40
1.0
 40
1.0
 10
4.769721966119821
 20
7.419723669515225
 30
0.0
 10
4.768745927255055
 20
7.419125165003162
 30
0.0
 10
4.767380630286303
 20
7.418287968426668
 30
0.0
 10
4.76622309627932
 20
7.417203604330719
 30
0.0
 10
4.765777867183191
 20
7.416491685477946
 30
0.0
 10
4.765804294293116
 20
7.415822280438797
 30
0.0
 10
4.766345512169994
 20
7.415241870679347
 30
0.0
 10
4.767267019204455
 20
7.414793473544173
 30
0.0
 10
4.768080165912764
 20
7.41459316018163
 30
0.0
 10
4.768486998973107
 20
7.414492939523441
 30
0.0
  0
LINE
  5
13C
330
1F
100
AcDbEntity
  8
0
  6
Continuous
 62
     7
370
     0
100
AcDbLine
 10
4.7920945492
 20
7.4326390868
 30
0.0
 11
4.7697219661
 21
7.4197236695
 31
0.0
  0
ARC
  5
13D
330
1F
100
AcDbEntity
  8
0
  6
Continuous
 62
     7
370
     0
100
AcDbCircle
 10
4.7301963784
 20
7.1162046729
 30
0.0
 40
0.3224315769898262
100
AcDbArc
 50
78.9320488698
 51
81.556846102
  0
LINE
  5
13E
330
1F
100
AcDbEntity
  8
0
  6
Continuous
 62
     7
370
     0
100
AcDbLine
 10
4.7515154823
 20
7.4201190404
 30
0.0
 11
4.7775383894
 21
7.4351417448
 31
0.0
  0
SPLINE
  5
13F
330
1F
100
AcDbEntity
  8
0
  6
Continuous
 62
     7
370
     0
100
AcDbSpline
210
0.0
220
0.0
230
1.0
 70
     8
 71
     3
 72
    13
 73
     9
 74
     0
 42
0.00000001
 43
0.00000001
 40
0.0
 40
0.0
 40
0.0
 40
0.0
 40
0.249475574773343
 40
0.3754880958266173
 40
0.4996600461637806
 40
0.6190635158134791
 40
0.7498995324328843
 40
0.9999999999999999
 40
0.9999999999999999
 40
0.9999999999999999
 40
0.9999999999999999
 10
4.749216894953346
 20
7.408659130472643
 30
0.0
 10
4.747419851732448
 20
7.409105686096392
 30
0.0
 10
4.744715104633475
 20
7.409777801276384
 30
0.0
 10
4.743129614097255
 20
7.411443235178817
 30
0.0
 10
4.742993744892303
 20
7.412947909741958
 30
0.0
 10
4.743986475312374
 20
7.414678970559631
 30
0.0
 10
4.746589235204218
 20
7.417109362778075
 30
0.0
 10
4.749563050380215
 20
7.418926207248938
 30
0.0
 10
4.751515482338953
 20
7.420119040360289
 30
0.0
  0
ARC
  5
140
330
1F
100
AcDbEntity
  8
0
  6
Continuous
 62
     7
370
     0
100
AcDbCircle
 10
4.7573313016
 20
7.4627474075
 30
0.0
 40
0.0546935581784156
100
AcDbArc
 50
261.468027408
 51
284.9958241819
  0
LINE
  5
141
330
1F
100
AcDbEntity
  8
0
  6
Continuous
 62
     7
370
     0
100
AcDbLine
 10
4.764584303
 20
7.4059338153
 30
0.0
 11
4.7714831857
 21
7.4099164556
 31
0.0
  0
ARC
  5
142
330
1F
100
AcDbEntity
  8
0
  6
Continuous
 62
     7
370
     0
100
AcDbCircle
 10
4.6804723698
 20
7.0528659023
 30
0.0
 40
0.3629487133741126
100
AcDbArc
 50
74.3405381677
 51
76.6001087652
  0
LINE
  5
143
330
1F
100
AcDbEntity
  8
0
  6
Continuous
 62
     7
370
     0
100
AcDbLine
 10
4.8195799726
 20
7.4260930886
 30
0.0
 11
4.7784392144
 21
7.4023430344
 31
0.0
  0
ARC
  5
144
330
1F
100
AcDbEntity
  8
0
  6
Continuous
 62
     7
370
     0
100
AcDbCircle
 10
4.7218135861
 20
7.077370529
 30
0.0
 40
0.3621680409633388
100
AcDbArc
 50
74.3388523761
 51
76.7679514353
  0
ARC
  5
145
330
1F
100
AcDbEntity
  8
0
  6
Continuous
 62
     7
370
     0
100
AcDbCircle
 10
4.8812857266
 20
7.3464445673
 30
0.0
 40
0.0518422368086249
100
AcDbArc
 50
65.2561704451
 51
127.0084125676
  0
SPLINE
  5
146
330
1F
100
AcDbEntity
  8
0
  6
Continuous
 62
     7
370
     0
100
AcDbSpline
210
0.0
220
0.0
230
1.0
 70
    24
 71
     1
 72
     4
 73
     2
 74
     0
 42
0.00000001
 43
0.00000001
 40
0.0
 40
0.0
 40
1.0
 40
1.0
 10
4.838591841763746
 20
7.379566300541864
 30
0.0
 10
4.850080210892769
 20
7.387843037199663
 30
0.0
  0
SPLINE
  5
147
330
1F
100
AcDbEntity
  8
0
  6
Continuous
 62
     7
370
     0
100
AcDbSpline
210
0.0
220
0.0
230
1.0
 70
     8
 71
     3
 72
    12
 73
     8
 74
     0
 42
0.00000001
 43
0.00000001
 40
0.0
 40
0.0
 40
0.0
 40
0.0
 40
0.250323678091759
 40
0.4997580205826749
 40
0.6249322649114011
 40
0.7501892985659852
 40
1.0
 40
1.0
 40
1.0
 40
1.0
 10
4.844522974713576
 20
7.36024044561818
 30
0.0
 10
4.842198109592425
 20
7.361519963977618
 30
0.0
 10
4.837556638997532
 20
7.36407445489708
 30
0.0
 10
4.83421660003717
 20
7.368221221847682
 30
0.0
 10
4.833855975940769
 20
7.371775828307411
 30
0.0
 10
4.834591982593865
 20
7.375379412094752
 30
0.0
 10
4.836992798547555
 20
7.377892487718973
 30
0.0
 10
4.838591841763745
 20
7.379566300541864
 30
0.0
  0
ARC
  5
148
330
1F
100
AcDbEntity
  8
0
  6
Continuous
 62
     7
370
     0
100
AcDbCircle
 10
4.8679082185
 20
7.4054683409
 30
0.0
 40
0.0509159320404812
100
AcDbArc
 50
242.6586151838
 51
305.1198747306
  0
ARC
  5
149
330
1F
100
AcDbEntity
  8
0
  6
Continuous
 62
     7
370
     0
100
AcDbCircle
 10
4.8815431781
 20
7.3974056766
 30
0.0
 40
0.0370541585881236
100
AcDbArc
 50
294.994289488
 51
328.5886268251
  0
SPLINE
  5
14A
330
1F
100
AcDbEntity
  8
0
  6
Continuous
 62
     7
370
     0
100
AcDbSpline
210
0.0
220
0.0
230
1.0
 70
     8
 71
     3
 72
    13
 73
     9
 74
     0
 42
0.00000001
 43
0.00000001
 40
0.0
 40
0.0
 40
0.0
 40
0.0
 40
0.1650114498671004
 40
0.3381100142487822
 40
0.500387001260942
 40
0.7497868842030858
 40
0.8748611374758825
 40
1.0
 40
1.0
 40
1.0
 40
1.0
 10
4.902984913437745
 20
7.393527077961595
 30
0.0
 10
4.904169336841224
 20
7.392885726008141
 30
0.0
 10
4.906596231545498
 20
7.39157158981762
 30
0.0
 10
4.909687681409587
 20
7.389322416568714
 30
0.0
 10
4.912548903622013
 20
7.386367690106312
 30
0.0
 10
4.913762131752952
 20
7.383256565948646
 30
0.0
 10
4.913821886524132
 20
7.380297277348634
 30
0.0
 10
4.913385301021806
 20
7.378828435796185
 30
0.0
 10
4.91316695190377
 20
7.378093825380116
 30
0.0
  0
LINE
  5
14B
330
1F
100
AcDbEntity
  8
0
  6
Continuous
 62
     7
370
     0
100
AcDbLine
 10
4.9556566498
 20
7.327088806
 30
0.0
 11
4.9681458086
 21
7.3342986439
 31
0.0
  0
ARC
  5
14C
330
1F
100
AcDbEntity
  8
0
  6
Continuous
 62
     7
370
     0
100
AcDbCircle
 10
4.5365220263
 20
6.757362846
 30
0.0
 40
0.7072916669562652
100
AcDbArc
 50
51.2898868022
 51
53.6589154858
  0
LINE
  5
14D
330
1F
100
AcDbEntity
  8
0
  6
Continuous
 62
     7
370
     0
100
AcDbLine
 10
4.9913375301
 20
7.3164865418
 30
0.0
 11
4.9788483714
 21
7.309276704
 31
0.0
  0
ARC
  5
14E
330
1F
100
AcDbEntity
  8
0
  6
Continuous
 62
     7
370
     0
100
AcDbCircle
 10
4.549011185
 20
6.7645726839
 30
0.0
 40
0.7072916669547662
100
AcDbArc
 50
51.2898868022
 51
53.6589154858
  0
ARC
  5
14F
330
1F
100
AcDbEntity
  8
0
  6
Continuous
 62
     7
370
     0
100
AcDbCircle
 10
5.0556465947
 20
7.2291874627
 30
0.0
 40
0.0380438729083291
100
AcDbArc
 50
41.3745115388
 51
127.1489306988
  0
SPLINE
  5
150
330
1F
100
AcDbEntity
  8
0
  6
Continuous
 62
     7
370
     0
100
AcDbSpline
210
0.0
220
0.0
230
1.0
 70
    24
 71
     1
 72
     4
 73
     2
 74
     0
 42
0.00000001
 43
0.00000001
 40
0.0
 40
0.0
 40
1.0
 40
1.0
 10
5.021107447829381
 20
7.25047995375258
 30
0.0
 10
5.032672321903419
 20
7.259511035310502
 30
0.0
  0
SPLINE
  5
151
330
1F
100
AcDbEntity
  8
0
  6
Continuous
 62
     7
370
     0
100
AcDbSpline
210
0.0
220
0.0
230
1.0
 70
     8
 71
     3
 72
    12
 73
     8
 74
     0
 42
0.00000001
 43
0.00000001
 40
0.0
 40
0.0
 40
0.0
 40
0.0
 40
0.2503236780917596
 40
0.4997580205826778
 40
0.624932264911402
 40
0.7501892985659824
 40
1.0
 40
1.0
 40
1.0
 40
1.0
 10
5.02576286531187
 20
7.221239240795487
 30
0.0
 10
5.023602773525867
 20
7.223618864531781
 30
0.0
 10
5.019290264204017
 20
7.228369657813694
 30
0.0
 10
5.016287019899747
 20
7.235173240396628
 30
0.0
 10
5.016123402880121
 20
7.240401201981305
 30
0.0
 10
5.017018803985791
 20
7.245435194797739
 30
0.0
 10
5.01947291073099
 20
7.248463185851151
 30
0.0
 10
5.021107447829381
 20
7.25047995375258
 30
0.0
  0
ARC
  5
152
330
1F
100
AcDbEntity
  8
0
  6
Continuous
 62
     7
370
     0
100
AcDbCircle
 10
5.0548887046
 20
7.2449843651
 30
0.0
 40
0.0375785236768659
100
AcDbArc
 50
219.1889753781
 51
305.0618785948
  0
ARC
  5
153
330
1F
100
AcDbEntity
  8
0
  6
Continuous
 62
     7
370
     0
100
AcDbCircle
 10
5.0613102792
 20
7.2459365956
 30
0.0
 40
0.0351513658346723
100
AcDbArc
 50
295.559175992
 51
333.7903706906
  0
ARC
  5
154
330
1F
100
AcDbEntity
  8
0
  6
Continuous
 62
     7
370
     0
100
AcDbCircle
 10
5.0690997083
 20
7.2353478747
 30
0.0
 40
0.0242553940031484
100
AcDbArc
 50
348.2579562897
 51
51.5124704588
  0
ARC
  5
155
330
1F
100
AcDbEntity
  8
0
  6
Continuous
 62
     7
370
     0
100
AcDbCircle
 10
4.3064468029
 20
6.5334541466
 30
0.0
 40
1.034653772281527
100
AcDbArc
 50
32.1229916347
 51
32.2441768042
  0
ARC
  5
156
330
1F
100
AcDbEntity
  8
0
  6
Continuous
 62
     7
370
     0
100
AcDbCircle
 10
5.1916858351
 20
7.09210486
 30
0.0
 40
0.0121232131761429
100
AcDbArc
 50
183.6324172476
 51
213.1726222588
  0
SPLINE
  5
157
330
1F
100
AcDbEntity
  8
0
  6
Continuous
 62
     7
370
     0
100
AcDbSpline
210
0.0
220
0.0
230
1.0
 70
    24
 71
     1
 72
     4
 73
     2
 74
     0
 42
0.00000001
 43
0.00000001
 40
0.0
 40
0.0
 40
1.0
 40
1.0
 10
5.181499116527349
 20
7.097596894621276
 30
0.0
 10
5.179586976975413
 20
7.091336791610133
 30
0.0
  0
SPLINE
  5
158
330
1F
100
AcDbEntity
  8
0
  6
Continuous
 62
     7
370
     0
100
AcDbSpline
210
0.0
220
0.0
230
1.0
 70
    24
 71
     1
 72
     4
 73
     2
 74
     0
 42
0.00000001
 43
0.00000001
 40
0.0
 40
0.0
 40
1.0
 40
1.0
 10
5.191472443418229
 20
7.118466737311365
 30
0.0
 10
5.181499116527349
 20
7.097596894621276
 30
0.0
  0
ARC
  5
159
330
1F
100
AcDbEntity
  8
0
  6
Continuous
 62
     7
370
     0
100
AcDbCircle
 10
4.3402620713
 20
6.5538603506
 30
0.0
 40
1.021439900081614
100
AcDbArc
 50
33.5562487767
 51
35.1252562914
  0
SPLINE
  5
15A
330
1F
100
AcDbEntity
  8
0
  6
Continuous
 62
     7
370
     0
100
AcDbSpline
210
0.0
220
0.0
230
1.0
 70
    24
 71
     1
 72
     4
 73
     2
 74
     0
 42
0.00000001
 43
0.00000001
 40
0.0
 40
0.0
 40
1.0
 40
1.0
 10
5.166564444700968
 20
7.122174795100671
 30
0.0
 10
5.175693856052613
 20
7.141561977737478
 30
0.0
  0
SPLINE
  5
15B
330
1F
100
AcDbEntity
  8
0
  6
Continuous
 62
     7
370
     0
100
AcDbSpline
210
0.0
220
0.0
230
1.0
 70
     8
 71
     3
 72
     9
 73
     5
 74
     0
 42
0.00000001
 43
0.00000001
 40
0.0
 40
0.0
 40
0.0
 40
0.0
 40
0.4997923707376961
 40
1.0
 40
1.0
 40
1.0
 40
1.0
 10
5.164089925531322
 20
7.112323969677226
 30
0.0
 10
5.164317892707922
 20
7.114050856662736
 30
0.0
 10
5.164774016470405
 20
7.117506065438651
 30
0.0
 10
5.165967470093518
 20
7.120618121110781
 30
0.0
 10
5.166564444700969
 20
7.12217479510067
 30
0.0
  0
SPLINE
  5
15C
330
1F
100
AcDbEntity
  8
0
  6
Continuous
 62
     7
370
     0
100
AcDbSpline
210
0.0
220
0.0
230
1.0
 70
    24
 71
     1
 72
     4
 73
     2
 74
     0
 42
0.00000001
 43
0.00000001
 40
0.0
 40
0.0
 40
1.0
 40
1.0
 10
5.165503982638167
 20
7.105823255328064
 30
0.0
 10
5.164089925531322
 20
7.112323969677226
 30
0.0
  0
SPLINE
  5
15D
330
1F
100
AcDbEntity
  8
0
  6
Continuous
 62
     7
370
     0
100
AcDbSpline
210
0.0
220
0.0
230
1.0
 70
    24
 71
     1
 72
     4
 73
     2
 74
     0
 42
0.00000001
 43
0.00000001
 40
0.0
 40
0.0
 40
1.0
 40
1.0
 10
5.158303937524821
 20
7.111885676851654
 30
0.0
 10
5.165503982638167
 20
7.105823255328064
 30
0.0
  0
ARC
  5
15E
330
1F
100
AcDbEntity
  8
0
  6
Continuous
 62
     7
370
     0
100
AcDbCircle
 10
5.1474813236
 20
7.0955967237
 30
0.0
 40
0.0195565581809335
100
AcDbArc
 50
56.3993672614
 51
117.5287530135
  0
SPLINE
  5
15F
330
1F
100
AcDbEntity
  8
0
  6
Continuous
 62
     7
370
     0
100
AcDbSpline
210
0.0
220
0.0
230
1.0
 70
     8
 71
     3
 72
    14
 73
    10
 74
     0
 42
0.00000001
 43
0.00000001
 40
0.0
 40
0.0
 40
0.0
 40
0.0
 40
0.2503559932327169
 40
0.3755319224477831
 40
0.5003832560243578
 40
0.6254487105400289
 40
0.7509248313647071
 40
0.8746156774029185
 40
1.0
 40
1.0
 40
1.0
 40
1.0
 10
5.140002734286108
 20
7.078047905423357
 30
0.0
 10
5.138048978927349
 20
7.081142994628139
 30
0.0
 10
5.135118362023025
 20
7.085785602876539
 30
0.0
 10
5.131978754211159
 20
7.092289884273697
 30
0.0
 10
5.130507258000585
 20
7.097385723970999
 30
0.0
 10
5.130576539510902
 20
7.102384262614864
 30
0.0
 10
5.132027376934133
 20
7.106822915069665
 30
0.0
 10
5.134696201622861
 20
7.110481755885854
 30
0.0
 10
5.13718802376676
 20
7.112116260113341
 30
0.0
 10
5.138442405860555
 20
7.112939068771741
 30
0.0
  0
ARC
  5
160
330
1F
100
AcDbEntity
  8
0
  6
Continuous
 62
     7
370
     0
100
AcDbCircle
 10
4.271912695
 20
6.5134652571
 30
0.0
 40
1.035535553799533
100
AcDbArc
 50
30.7449963368
 51
33.0389038579
  0
LINE
  5
161
330
1F
100
AcDbEntity
  8
0
  6
Continuous
 62
     7
370
     0
100
AcDbLine
 10
5.2184733665
 20
7.0755060293
 30
0.0
 11
5.161904824
 21
7.0428497048
 31
0.0
  0
ARC
  5
162
330
1F
100
AcDbEntity
  8
0
  6
Continuous
 62
     7
370
     0
100
AcDbCircle
 10
4.3271195568
 20
6.5452916254
 30
0.0
 40
1.037130140401178
100
AcDbArc
 50
30.7459460436
 51
32.1225410489
  0
LINE
  5
163
330
1F
100
AcDbEntity
  8
0
  6
Continuous
 62
     7
370
     0
100
AcDbLine
 10
5.1827039949
 20
7.08361936
 30
0.0
 11
5.2054783431
 21
7.0967667114
 31
0.0
  0
SPLINE
  5
164
330
1F
100
AcDbEntity
  8
0
  6
Continuous
 62
     7
370
     0
100
AcDbSpline
210
0.0
220
0.0
230
1.0
 70
    24
 71
     1
 72
     4
 73
     2
 74
     0
 42
0.00000001
 43
0.00000001
 40
0.0
 40
0.0
 40
1.0
 40
1.0
 10
5.2731409712913
 20
6.968097664812389
 30
0.0
 10
5.27832880762082
 20
6.958552821154981
 30
0.0
  0
SPLINE
  5
165
330
1F
100
AcDbEntity
  8
0
  6
Continuous
 62
     7
370
     0
100
AcDbSpline
210
0.0
220
0.0
230
1.0
 70
    24
 71
     1
 72
     4
 73
     2
 74
     0
 42
0.00000001
 43
0.00000001
 40
0.0
 40
0.0
 40
1.0
 40
1.0
 10
5.267418301419717
 20
6.975451656241514
 30
0.0
 10
5.2731409712913
 20
6.968097664812389
 30
0.0
  0
ARC
  5
166
330
1F
100
AcDbEntity
  8
0
  6
Continuous
 62
     7
370
     0
100
AcDbCircle
 10
5.2570315789
 20
6.9632664573
 30
0.0
 40
0.0160113421783771
100
AcDbArc
 50
49.5555657205
 51
119.643176264
  0
ARC
  5
167
330
1F
100
AcDbEntity
  8
0
  6
Continuous
 62
     7
370
     0
100
AcDbCircle
 10
5.2602090475
 20
6.9608096034
 30
0.0
 40
0.0197787650259603
100
AcDbArc
 50
124.1275808328
 51
203.1113539538
  0
ARC
  5
168
330
1F
100
AcDbEntity
  8
0
  6
Continuous
 62
     7
370
     0
100
AcDbCircle
 10
5.2259141948
 20
6.940536167
 30
0.0
 40
0.0203916315239482
100
AcDbArc
 50
37.8416627033
 51
64.4600446663
  0
SPLINE
  5
169
330
1F
100
AcDbEntity
  8
0
  6
Continuous
 62
     7
370
     0
100
AcDbSpline
210
0.0
220
0.0
230
1.0
 70
     8
 71
     3
 72
     9
 73
     5
 74
     0
 42
0.00000001
 43
0.00000001
 40
0.0
 40
0.0
 40
0.0
 40
0.0
 40
0.5001271528873925
 40
1.0
 40
1.0
 40
1.0
 40
1.0
 10
5.22446891630031
 20
6.958210286934319
 30
0.0
 10
5.226093323744987
 20
6.958942548709551
 30
0.0
 10
5.229341312652004
 20
6.960406699917908
 30
0.0
 10
5.232917974885247
 20
6.959425634911827
 30
0.0
 10
5.234705851218938
 20
6.958935227154034
 30
0.0
  0
SPLINE
  5
16A
330
1F
100
AcDbEntity
  8
0
  6
Continuous
 62
     7
370
     0
100
AcDbSpline
210
0.0
220
0.0
230
1.0
 70
     8
 71
     3
 72
    13
 73
     9
 74
     0
 42
0.00000001
 43
0.00000001
 40
0.0
 40
0.0
 40
0.0
 40
0.0
 40
0.2502281213438425
 40
0.4993954334786939
 40
0.624695568104704
 40
0.7497449465017539
 40
0.8748148151652817
 40
1.0
 40
1.0
 40
1.0
 40
1.0
 10
5.220462391657012
 20
6.928880596386764
 30
0.0
 10
5.219415067925694
 20
6.931536390754071
 30
0.0
 10
5.217324860454265
 20
6.93683672059777
 30
0.0
 10
5.216675372598164
 20
6.944164504075783
 30
0.0
 10
5.217729017495057
 20
6.94955792509037
 30
0.0
 10
5.219254730121043
 20
6.953210004300581
 30
0.0
 10
5.221529463566153
 20
6.956223839347706
 30
0.0
 10
5.223488797772066
 20
6.957547934360181
 30
0.0
 10
5.22446891630031
 20
6.958210286934319
 30
0.0
  0
ARC
  5
16B
330
1F
100
AcDbEntity
  8
0
  6
Continuous
 62
     7
370
     0
100
AcDbCircle
 10
4.317578828
 20
6.5343045754
 30
0.0
 40
0.9853369808985394
100
AcDbArc
 50
20.9865018774
 51
23.6061752698
  0
LINE
  5
16C
330
1F
100
AcDbEntity
  8
0
  6
Continuous
 62
     7
370
     0
100
AcDbLine
 10
5.2941218526
 20
6.9198573693
 30
0.0
 11
5.2375533101
 21
6.8872010449
 31
0.0
  0
ARC
  5
16D
330
1F
100
AcDbEntity
  8
0
  6
Continuous
 62
     7
370
     0
100
AcDbCircle
 10
4.3752734384
 20
6.5674119384
 30
0.0
 40
0.98412407247881
100
AcDbArc
 50
20.9854644054
 51
23.4189110153
  0
ARC
  5
16E
330
1F
100
AcDbEntity
  8
0
  6
Continuous
 62
     7
370
     0
100
AcDbCircle
 10
4.5155533071
 20
6.617429455
 30
0.0
 40
0.853420671816767
100
AcDbArc
 50
14.2142418165
 51
15.0634063717
  0
ARC
  5
16F
330
1F
100
AcDbEntity
  8
0
  6
Continuous
 62
     7
370
     0
100
AcDbCircle
 10
5.2521328895
 20
6.8933521579
 30
0.0
 40
0.1029033528294692
100
AcDbArc
 50
302.1664559101
 51
328.2631726103
  0
ARC
  5
170
330
1F
100
AcDbEntity
  8
0
  6
Continuous
 62
     7
370
     0
100
AcDbCircle
 10
5.2723767359
 20
6.8645983564
 30
0.0
 40
0.0678103399640297
100
AcDbArc
 50
284.3907773397
 51
300.6212539965
  0
ARC
  5
171
330
1F
100
AcDbEntity
  8
0
  6
Continuous
 62
     7
370
     0
100
AcDbCircle
 10
5.2697002704
 20
6.8855888861
 30
0.0
 40
0.0888462145012429
100
AcDbArc
 50
267.7316757442
 51
282.6981066049
  0
ARC
  5
172
330
1F
100
AcDbEntity
  8
0
  6
Continuous
 62
     7
370
     0
100
AcDbCircle
 10
4.4420876674
 20
6.575018644
 30
0.0
 40
0.8534206718550315
100
AcDbArc
 50
14.2142418165
 51
15.0634063716
  0
ARC
  5
173
330
1F
100
AcDbEntity
  8
0
  6
Continuous
 62
     7
370
     0
100
AcDbCircle
 10
5.2875543384
 20
6.8270546483
 30
0.0
 40
0.046204361276543
100
AcDbArc
 50
246.8375039416
 51
299.8024022948
  0
ARC
  5
174
330
1F
100
AcDbEntity
  8
0
  6
Continuous
 62
     7
370
     0
100
AcDbCircle
 10
5.2673044179
 20
6.8549324311
 30
0.0
 40
0.0805453523766803
100
AcDbArc
 50
302.4468619794
 51
339.6978126126
  0
LINE
  5
175
330
1F
100
AcDbEntity
  8
0
  6
Continuous
 62
     7
370
     0
100
AcDbLine
 10
4.5864829278
 20
7.3458081323
 30
0.0
 11
4.627623686
 21
7.3695581865
 31
0.0
  0
ARC
  5
176
330
1F
100
AcDbEntity
  8
0
  6
Continuous
 62
     7
370
     0
100
AcDbCircle
 10
4.5750978512
 20
7.0634914181
 30
0.0
 40
0.2825461857531887
100
AcDbArc
 50
84.8243075718
 51
87.6906660746
  0
LINE
  5
177
330
1F
100
AcDbEntity
  8
0
  6
Continuous
 62
     7
370
     0
100
AcDbLine
 10
4.6417271208
 20
7.3686356493
 30
0.0
 11
4.6005863627
 21
7.3448855951
 31
0.0
  0
ARC
  5
178
330
1F
100
AcDbEntity
  8
0
  6
Continuous
 62
     7
370
     0
100
AcDbCircle
 10
4.6162386094
 20
7.0872414723
 30
0.0
 40
0.2825461857549471
100
AcDbArc
 50
84.8243075718
 51
87.6906660746
  0
SPLINE
  5
179
330
1F
100
AcDbEntity
  8
0
  6
Continuous
 62
     7
370
     0
100
AcDbSpline
210
0.0
220
0.0
230
1.0
 70
     8
 71
     3
 72
    13
 73
     9
 74
     0
 42
0.00000001
 43
0.00000001
 40
0.0
 40
0.0
 40
0.0
 40
0.0
 40
0.2502398385317881
 40
0.3849594567101471
 40
0.5001800652195285
 40
0.6158554116436841
 40
0.7499175228773438
 40
0.9999999999999999
 40
0.9999999999999999
 40
0.9999999999999999
 40
0.9999999999999999
 10
4.639302121285492
 20
7.350766911148776
 30
0.0
 10
4.638624173084365
 20
7.350359317131115
 30
0.0
 10
4.637581243338587
 20
7.349732289985807
 30
0.0
 10
4.636628551546492
 20
7.348891464266288
 30
0.0
 10
4.636266387249009
 20
7.348295839758513
 30
0.0
 10
4.636440811292227
 20
7.347805358030128
 30
0.0
 10
4.637227914021267
 20
7.347315554783632
 30
0.0
 10
4.638206657958137
 20
7.347108116595055
 30
0.0
 10
4.638843831344462
 20
7.346973071985235
 30
0.0
  0
ARC
  5
17A
330
1F
100
AcDbEntity
  8
0
  6
Continuous
 62
     7
370
     0
100
AcDbCircle
 10
4.6435377792
 20
7.2023748156
 30
0.0
 40
0.1484525338827258
100
AcDbArc
 50
83.7628738484
 51
91.6349890039
  0
ARC
  5
17B
330
1F
100
AcDbEntity
  8
0
  6
Continuous
 62
     7
370
     0
100
AcDbCircle
 10
4.6662042769
 20
7.4032199323
 30
0.0
 40
0.0536710237174498
100
AcDbArc
 50
263.0029684918
 51
277.9528586539
  0
SPLINE
  5
17C
330
1F
100
AcDbEntity
  8
0
  6
Continuous
 62
     7
370
     0
100
AcDbSpline
210
0.0
220
0.0
230
1.0
 70
     8
 71
     3
 72
     9
 73
     5
 74
     0
 42
0.00000001
 43
0.00000001
 40
0.0
 40
0.0
 40
0.0
 40
0.0
 40
0.500513882886907
 40
1.0
 40
1.0
 40
1.0
 40
1.0
 10
4.683468878023211
 20
7.353528311719138
 30
0.0
 10
4.682038822966264
 20
7.35277996854829
 30
0.0
 10
4.679181649357614
 20
7.351284818870262
 30
0.0
 10
4.675479353408948
 20
7.350471396668361
 30
0.0
 10
4.673630107981145
 20
7.35006510357116
 30
0.0
  0
SPLINE
  5
17D
330
1F
100
AcDbEntity
  8
0
  6
Continuous
 62
     7
370
     0
100
AcDbSpline
210
0.0
220
0.0
230
1.0
 70
     8
 71
     3
 72
    13
 73
     9
 74
     0
 42
0.00000001
 43
0.00000001
 40
0.0
 40
0.0
 40
0.0
 40
0.0
 40
0.2503303002146216
 40
0.4997885355111526
 40
0.6246840460600771
 40
0.7518137683252522
 40
0.8751147274696235
 40
1.0
 40
1.0
 40
1.0
 40
1.0
 10
4.680033314873439
 20
7.363299771100865
 30
0.0
 10
4.681623184237766
 20
7.362893219546852
 30
0.0
 10
4.684797384406778
 20
7.362081532725018
 30
0.0
 10
4.687380257678595
 20
7.360264765446481
 30
0.0
 10
4.687797414076719
 20
7.358336495150271
 30
0.0
 10
4.687320361014442
 20
7.356748886799211
 30
0.0
 10
4.685901203566415
 20
7.355076711114825
 30
0.0
 10
4.684283096302875
 20
7.354046636700641
 30
0.0
 10
4.683468878023211
 20
7.353528311719138
 30
0.0
  0
ARC
  5
17E
330
1F
100
AcDbEntity
  8
0
  6
Continuous
 62
     7
370
     0
100
AcDbCircle
 10
4.6711811142
 20
7.3213656965
 30
0.0
 40
0.0428582321710163
100
AcDbArc
 50
78.0799788156
 51
92.8497965523
  0
SPLINE
  5
17F
330
1F
100
AcDbEntity
  8
0
  6
Continuous
 62
     7
370
     0
100
AcDbSpline
210
0.0
220
0.0
230
1.0
 70
    24
 71
     1
 72
     4
 73
     2
 74
     0
 42
0.00000001
 43
0.00000001
 40
0.0
 40
0.0
 40
1.0
 40
1.0
 10
4.658971370664082
 20
7.362749866654352
 30
0.0
 10
4.669050296032013
 20
7.364170926121058
 30
0.0
  0
SPLINE
  5
180
330
1F
100
AcDbEntity
  8
0
  6
Continuous
 62
     7
370
     0
100
AcDbSpline
210
0.0
220
0.0
230
1.0
 70
     8
 71
     3
 72
     9
 73
     5
 74
     0
 42
0.00000001
 43
0.00000001
 40
0.0
 40
0.0
 40
0.0
 40
0.0
 40
0.4998875207461151
 40
1.0
 40
1.0
 40
1.0
 40
1.0
 10
4.66257217451724
 20
7.366012755747569
 30
0.0
 10
4.662167856702067
 20
7.365474939825376
 30
0.0
 10
4.661359039121327
 20
7.364399065954006
 30
0.0
 10
4.659767379502288
 20
7.363299682192814
 30
0.0
 10
4.658971370664082
 20
7.362749866654352
 30
0.0
  0
ARC
  5
181
330
1F
100
AcDbEntity
  8
0
  6
Continuous
 62
     7
370
     0
100
AcDbCircle
 10
4.6135914218
 20
7.061447916
 30
0.0
 40
0.3084782906026916
100
AcDbArc
 50
80.8638026574
 51
83.4585491174
  0
SPLINE
  5
182
330
1F
100
AcDbEntity
  8
0
  6
Continuous
 62
     7
370
     0
100
AcDbSpline
210
0.0
220
0.0
230
1.0
 70
     8
 71
     3
 72
     9
 73
     5
 74
     0
 42
0.00000001
 43
0.00000001
 40
0.0
 40
0.0
 40
0.0
 40
0.0
 40
0.5000611520588083
 40
0.9999999999999999
 40
0.9999999999999999
 40
0.9999999999999999
 40
0.9999999999999999
 10
4.641855678910469
 20
7.362672615742
 30
0.0
 10
4.643364927869074
 20
7.363554165035202
 30
0.0
 10
4.646383056656708
 20
7.365317048013758
 30
0.0
 10
4.647950337381885
 20
7.367051033246809
 30
0.0
 10
4.648733881902031
 20
7.367917919826567
 30
0.0
  0
LINE
  5
183
330
1F
100
AcDbEntity
  8
0
  6
Continuous
 62
     7
370
     0
100
AcDbLine
 10
4.6237647652
 20
7.3522289535
 30
0.0
 11
4.6418556789
 21
7.3626726157
 31
0.0
  0
ARC
  5
184
330
1F
100
AcDbEntity
  8
0
  6
Continuous
 62
     7
370
     0
100
AcDbCircle
 10
4.6271206056
 20
7.3418718475
 30
0.0
 40
0.0108872085318025
100
AcDbArc
 50
107.9530155242
 51
161.2400659279
  0
ARC
  5
185
330
1F
100
AcDbEntity
  8
0
  6
Continuous
 62
     7
370
     0
100
AcDbCircle
 10
4.6282839284
 20
7.3550886634
 30
0.0
 40
0.0150332964659391
100
AcDbArc
 50
220.2603707068
 51
277.1777336173
  0
SPLINE
  5
186
330
1F
100
AcDbEntity
  8
0
  6
Continuous
 62
     7
370
     0
100
AcDbSpline
210
0.0
220
0.0
230
1.0
 70
     8
 71
     3
 72
     9
 73
     5
 74
     0
 42
0.00000001
 43
0.00000001
 40
0.0
 40
0.0
 40
0.0
 40
0.0
 40
0.4912634297410819
 40
1.0
 40
1.0
 40
1.0
 40
1.0
 10
4.646573453841494
 20
7.338989014187527
 30
0.0
 10
4.643532721881123
 20
7.338953711505598
 30
0.0
 10
4.637343105931138
 20
7.338881850504364
 30
0.0
 10
4.632583625450201
 20
7.339737750342938
 30
0.0
 10
4.630162303674115
 20
7.3401731778913
 30
0.0
  0
ARC
  5
187
330
1F
100
AcDbEntity
  8
0
  6
Continuous
 62
     7
370
     0
100
AcDbCircle
 10
4.6419190986
 20
7.3919119454
 30
0.0
 40
0.0531272027758346
100
AcDbArc
 50
275.0259981095
 51
295.923295638
  0
SPLINE
  5
188
330
1F
100
AcDbEntity
  8
0
  6
Continuous
 62
     7
370
     0
100
AcDbSpline
210
0.0
220
0.0
230
1.0
 70
    24
 71
     1
 72
     4
 73
     2
 74
     0
 42
0.00000001
 43
0.00000001
 40
0.0
 40
0.0
 40
1.0
 40
1.0
 10
4.651135175054125
 20
7.348547181312696
 30
0.0
 10
4.665144585018771
 20
7.344130396106832
 30
0.0
  0
SPLINE
  5
189
330
1F
100
AcDbEntity
  8
0
  6
Continuous
 62
     7
370
     0
100
AcDbSpline
210
0.0
220
0.0
230
1.0
 70
     8
 71
     3
 72
     9
 73
     5
 74
     0
 42
0.00000001
 43
0.00000001
 40
0.0
 40
0.0
 40
0.0
 40
0.0
 40
0.4983736149775529
 40
1.0
 40
1.0
 40
1.0
 40
1.0
 10
4.64518271796195
 20
7.346764088297017
 30
0.0
 10
4.646223564754897
 20
7.346986513476457
 30
0.0
 10
4.648312051708591
 20
7.347432815553367
 30
0.0
 10
4.650192095488916
 20
7.348174921426335
 30
0.0
 10
4.651135175054124
 20
7.348547181312696
 30
0.0
  0
SPLINE
  5
18A
330
1F
100
AcDbEntity
  8
0
  6
Continuous
 62
     7
370
     0
100
AcDbSpline
210
0.0
220
0.0
230
1.0
 70
     8
 71
     3
 72
     9
 73
     5
 74
     0
 42
0.00000001
 43
0.00000001
 40
0.0
 40
0.0
 40
0.0
 40
0.0
 40
0.5014235387978935
 40
1.0
 40
1.0
 40
1.0
 40
1.0
 10
4.638843831344462
 20
7.346973071985235
 30
0.0
 10
4.639745379181927
 20
7.346816122358158
 30
0.0
 10
4.64154335587769
 20
7.346503114262341
 30
0.0
 10
4.643971902020302
 20
7.346677262223044
 30
0.0
 10
4.64518271796195
 20
7.346764088297017
 30
0.0
  0
ARC
  5
18B
330
1F
100
AcDbEntity
  8
0
  6
Continuous
 62
     7
370
     0
100
AcDbCircle
 10
4.8426378197
 20
7.2857948113
 30
0.0
 40
0.0409775523984075
100
AcDbArc
 50
230.5723461047
 51
296.6601080962
  0
SPLINE
  5
18C
330
1F
100
AcDbEntity
  8
0
  6
Continuous
 62
     7
370
     0
100
AcDbSpline
210
0.0
220
0.0
230
1.0
 70
     8
 71
     3
 72
    17
 73
    13
 74
     0
 42
0.00000001
 43
0.00000001
 40
0.0
 40
0.0
 40
0.0
 40
0.0
 40
0.0900823167327033
 40
0.1692719809757966
 40
0.2502720310950062
 40
0.3751466318243001
 40
0.4999546517870025
 40
0.6244812841526951
 40
0.7498293171955577
 40
0.8314739451404468
 40
0.91616208029331
 40
1.0
 40
1.0
 40
1.0
 40
1.0
 10
4.858676011814104
 20
7.279134064952117
 30
0.0
 10
4.859739232578113
 20
7.278345649584624
 30
0.0
 10
4.861737110646374
 20
7.276864153149722
 30
0.0
 10
4.864429078560582
 20
7.274508489617999
 30
0.0
 10
4.867174899674389
 20
7.271673033848576
 30
0.0
 10
4.869659749094589
 20
7.26809001198643
 30
0.0
 10
4.870733436042185
 20
7.26375468267883
 30
0.0
 10
4.87028599872681
 20
7.259488703592928
 30
0.0
 10
4.868704562297662
 20
7.255939264768103
 30
0.0
 10
4.866430626177347
 20
7.253152514162099
 30
0.0
 10
4.863984703891297
 20
7.251006175963346
 30
0.0
 10
4.86200778997646
 20
7.249782552972696
 30
0.0
 10
4.861024319793187
 20
7.249173828071807
 30
0.0
  0
ARC
  5
18D
330
1F
100
AcDbEntity
  8
0
  6
Continuous
 62
     7
370
     0
100
AcDbCircle
 10
4.8310062946
 20
7.2441684713
 30
0.0
 40
0.0445893035589274
100
AcDbArc
 50
51.6439773719
 51
99.2346442957
  0
SPLINE
  5
18E
330
1F
100
AcDbEntity
  8
0
  6
Continuous
 62
     7
370
     0
100
AcDbSpline
210
0.0
220
0.0
230
1.0
 70
    24
 71
     1
 72
     4
 73
     2
 74
     0
 42
0.00000001
 43
0.00000001
 40
0.0
 40
0.0
 40
1.0
 40
1.0
 10
4.8384834118008
 20
7.276437144739917
 30
0.0
 10
4.823850690650255
 20
7.288179871235896
 30
0.0
  0
SPLINE
  5
18F
330
1F
100
AcDbEntity
  8
0
  6
Continuous
 62
     7
370
     0
100
AcDbSpline
210
0.0
220
0.0
230
1.0
 70
    24
 71
     1
 72
     4
 73
     2
 74
     0
 42
0.00000001
 43
0.00000001
 40
0.0
 40
0.0
 40
1.0
 40
1.0
 10
4.843667889406267
 20
7.276041811151316
 30
0.0
 10
4.8384834118008
 20
7.276437144739917
 30
0.0
  0
ARC
  5
190
330
1F
100
AcDbEntity
  8
0
  6
Continuous
 62
     7
370
     0
100
AcDbCircle
 10
4.8401106839
 20
7.2606499565
 30
0.0
 40
0.0157975599398979
100
AcDbArc
 50
55.5563325318
 51
76.9868683848
  0
SPLINE
  5
191
330
1F
100
AcDbEntity
  8
0
  6
Continuous
 62
     7
370
     0
100
AcDbSpline
210
0.0
220
0.0
230
1.0
 70
     8
 71
     3
 72
    10
 73
     6
 74
     0
 42
0.00000001
 43
0.00000001
 40
0.0
 40
0.0
 40
0.0
 40
0.0
 40
0.2507543750767183
 40
0.5012538042790625
 40
1.0
 40
1.0
 40
1.0
 40
1.0
 10
4.852178136348751
 20
7.268023390490611
 30
0.0
 10
4.852198427101374
 20
7.268525115596658
 30
0.0
 10
4.852238987976698
 20
7.269528055697031
 30
0.0
 10
4.851482466396337
 20
7.271558442388168
 30
0.0
 10
4.850019536320585
 20
7.272830900400974
 30
0.0
 10
4.849045715739435
 20
7.273677930496302
 30
0.0
  0
SPLINE
  5
192
330
1F
100
AcDbEntity
  8
0
  6
Continuous
 62
     7
370
     0
100
AcDbSpline
210
0.0
220
0.0
230
1.0
 70
     8
 71
     3
 72
     9
 73
     5
 74
     0
 42
0.00000001
 43
0.00000001
 40
0.0
 40
0.0
 40
0.0
 40
0.0
 40
0.5011160372996565
 40
1.0
 40
1.0
 40
1.0
 40
1.0
 10
4.848658396833875
 20
7.263406709557575
 30
0.0
 10
4.84952041093294
 20
7.264072957016554
 30
0.0
 10
4.851240599541771
 20
7.265402484330366
 30
0.0
 10
4.85186608945981
 20
7.267151056084728
 30
0.0
 10
4.852178136348751
 20
7.268023390490611
 30
0.0
  0
ARC
  5
193
330
1F
100
AcDbEntity
  8
0
  6
Continuous
 62
     7
370
     0
100
AcDbCircle
 10
4.4597339608
 20
6.7379204969
 30
0.0
 40
0.6537568176765665
100
AcDbArc
 50
53.4940051284
 51
56.8488753118
  0
LINE
  5
194
330
1F
100
AcDbEntity
  8
0
  6
Continuous
 62
     7
370
     0
100
AcDbLine
 10
4.8154840885
 20
7.2842521528
 30
0.0
 11
4.8172403764
 21
7.2852660362
 31
0.0
  0
SPLINE
  5
195
330
1F
100
AcDbEntity
  8
0
  6
Continuous
 62
     7
370
     0
100
AcDbSpline
210
0.0
220
0.0
230
1.0
 70
     8
 71
     3
 72
    19
 73
    15
 74
     0
 42
0.00000001
 43
0.00000001
 40
0.0
 40
0.0
 40
0.0
 40
0.0
 40
0.090803642922298
 40
0.16939067857374
 40
0.2501596763840034
 40
0.374989970977032
 40
0.4370329929748429
 40
0.5000098610085754
 40
0.561464956173615
 40
0.6250174061016766
 40
0.6861456321924753
 40
0.7500333303646448
 40
0.8749561780689608
 40
1.0
 40
1.0
 40
1.0
 40
1.0
 10
4.816612836840248
 20
7.254142638145762
 30
0.0
 10
4.8154700069991
 20
7.254990873408309
 30
0.0
 10
4.813338102198187
 20
7.256573223434023
 30
0.0
 10
4.810455897318016
 20
7.259016270962926
 30
0.0
 10
4.807546558121524
 20
7.261916417259506
 30
0.0
 10
4.805454109102046
 20
7.264848727846302
 30
0.0
 10
4.804395232515194
 20
7.267687971743364
 30
0.0
 10
4.803994361949943
 20
7.26982402468126
 30
0.0
 10
4.804119056311356
 20
7.271959294790809
 30
0.0
 10
4.804674722300578
 20
7.274021275549592
 30
0.0
 10
4.805699262188886
 20
7.276019380734923
 30
0.0
 10
4.807572655982103
 20
7.278521238612837
 30
0.0
 10
4.810783435707195
 20
7.281357018650932
 30
0.0
 10
4.813916698769925
 20
7.283286796751036
 30
0.0
 10
4.815484088490525
 20
7.284252152770171
 30
0.0
  0
ARC
  5
196
330
1F
100
AcDbEntity
  8
0
  6
Continuous
 62
     7
370
     0
100
AcDbCircle
 10
4.9391093248
 20
7.1825038933
 30
0.0
 40
0.0141725372536717
100
AcDbArc
 50
225.6383117777
 51
305.3115407695
  0
SPLINE
  5
197
330
1F
100
AcDbEntity
  8
0
  6
Continuous
 62
     7
370
     0
100
AcDbSpline
210
0.0
220
0.0
230
1.0
 70
     8
 71
     3
 72
    12
 73
     8
 74
     0
 42
0.00000001
 43
0.00000001
 40
0.0
 40
0.0
 40
0.0
 40
0.0
 40
0.2500493229280389
 40
0.3777940145854788
 40
0.5004632484749656
 40
0.7497937219072672
 40
1.0
 40
1.0
 40
1.0
 40
1.0
 10
4.92800946608709
 20
7.181767081910928
 30
0.0
 10
4.927479765139174
 20
7.181119655339987
 30
0.0
 10
4.926679451643823
 20
7.180141472793755
 30
0.0
 10
4.926262432489949
 20
7.178545908267416
 30
0.0
 10
4.926277497213305
 20
7.176857529746628
 30
0.0
 10
4.927138081890891
 20
7.174660569515475
 30
0.0
 10
4.928511953108861
 20
7.173135330769455
 30
0.0
 10
4.929200093076497
 20
7.172371374346469
 30
0.0
  0
SPLINE
  5
198
330
1F
100
AcDbEntity
  8
0
  6
Continuous
 62
     7
370
     0
100
AcDbSpline
210
0.0
220
0.0
230
1.0
 70
    24
 71
     1
 72
     4
 73
     2
 74
     0
 42
0.00000001
 43
0.00000001
 40
0.0
 40
0.0
 40
1.0
 40
1.0
 10
4.910543162396639
 20
7.195443605167915
 30
0.0
 10
4.92800946608709
 20
7.181767081910928
 30
0.0
  0
SPLINE
  5
199
330
1F
100
AcDbEntity
  8
0
  6
Continuous
 62
     7
370
     0
100
AcDbSpline
210
0.0
220
0.0
230
1.0
 70
     8
 71
     3
 72
    12
 73
     8
 74
     0
 42
0.00000001
 43
0.00000001
 40
0.0
 40
0.0
 40
0.0
 40
0.0
 40
0.2504683035452823
 40
0.500142932469956
 40
0.6230764238578249
 40
0.7505102236605333
 40
0.9999999999999999
 40
0.9999999999999999
 40
0.9999999999999999
 40
0.9999999999999999
 10
4.918148141874203
 20
7.166042670791144
 30
0.0
 10
4.91597146946187
 20
7.168398268214308
 30
0.0
 10
4.91162502199558
 20
7.173101998731358
 30
0.0
 10
4.907734718035584
 20
7.179620004686038
 30
0.0
 10
4.906732273787499
 20
7.184914530565865
 30
0.0
 10
4.907041185661821
 20
7.190066271323319
 30
0.0
 10
4.909148384669034
 20
7.193301904623258
 30
0.0
 10
4.910543162396639
 20
7.195443605167915
 30
0.0
  0
ARC
  5
19A
330
1F
100
AcDbEntity
  8
0
  6
Continuous
 62
     7
370
     0
100
AcDbCircle
 10
4.9616913902
 20
7.2067839731
 30
0.0
 40
0.059631100846995
100
AcDbArc
 50
223.0959667806
 51
239.0744882581
  0
SPLINE
  5
19B
330
1F
100
AcDbEntity
  8
0
  6
Continuous
 62
     7
370
     0
100
AcDbSpline
210
0.0
220
0.0
230
1.0
 70
     8
 71
     3
 72
     9
 73
     5
 74
     0
 42
0.00000001
 43
0.00000001
 40
0.0
 40
0.0
 40
0.0
 40
0.0
 40
0.4999204603709789
 40
1.0
 40
1.0
 40
1.0
 40
1.0
 10
4.949393708851066
 20
7.150946929056807
 30
0.0
 10
4.946271151391725
 20
7.1511158893955
 30
0.0
 10
4.940025042846732
 20
7.151453863837611
 30
0.0
 10
4.93403905176781
 20
7.154237979336507
 30
0.0
 10
4.93104558010484
 20
7.155630258533469
 30
0.0
  0
SPLINE
  5
19C
330
1F
100
AcDbEntity
  8
0
  6
Continuous
 62
     7
370
     0
100
AcDbSpline
210
0.0
220
0.0
230
1.0
 70
     8
 71
     3
 72
     9
 73
     5
 74
     0
 42
0.00000001
 43
0.00000001
 40
0.0
 40
0.0
 40
0.0
 40
0.0
 40
0.5005686757546087
 40
1.0
 40
1.0
 40
1.0
 40
1.0
 10
4.961850139341236
 20
7.154806131403906
 30
0.0
 10
4.959989429597107
 20
7.153815369083151
 30
0.0
 10
4.956272237862478
 20
7.151836095571359
 30
0.0
 10
4.95168481268322
 20
7.151243093077563
 30
0.0
 10
4.949393708851066
 20
7.150946929056807
 30
0.0
  0
SPLINE
  5
19D
330
1F
100
AcDbEntity
  8
0
  6
Continuous
 62
     7
370
     0
100
AcDbSpline
210
0.0
220
0.0
230
1.0
 70
     8
 71
     3
 72
    14
 73
    10
 74
     0
 42
0.00000001
 43
0.00000001
 40
0.0
 40
0.0
 40
0.0
 40
0.0
 40
0.2500888268766897
 40
0.3795192796358464
 40
0.5000296728403236
 40
0.6249893082497486
 40
0.7499368310487392
 40
0.8616937558418715
 40
1.0
 40
1.0
 40
1.0
 40
1.0
 10
4.959751736952903
 20
7.191671144970917
 30
0.0
 10
4.96258751837493
 20
7.188603668745209
 30
0.0
 10
4.966890924232492
 20
7.183948657235821
 30
0.0
 10
4.970619495540427
 20
7.176978428901338
 30
0.0
 10
4.971935402178067
 20
7.171562906786803
 30
0.0
 10
4.971603160595773
 20
7.166385106187126
 30
0.0
 10
4.969984089072295
 20
7.161700784271169
 30
0.0
 10
4.966565652143188
 20
7.157782409640222
 30
0.0
 10
4.963529429323668
 20
7.155866044596191
 30
0.0
 10
4.961850139341236
 20
7.154806131403906
 30
0.0
  0
ARC
  5
19E
330
1F
100
AcDbEntity
  8
0
  6
Continuous
 62
     7
370
     0
100
AcDbCircle
 10
4.9315714879
 20
7.1678123195
 30
0.0
 40
0.0369238403503673
100
AcDbArc
 50
40.252941515
 51
103.3137907329
  0
SPLINE
  5
19F
330
1F
100
AcDbEntity
  8
0
  6
Continuous
 62
     7
370
     0
100
AcDbSpline
210
0.0
220
0.0
230
1.0
 70
    24
 71
     1
 72
     4
 73
     2
 74
     0
 42
0.00000001
 43
0.00000001
 40
0.0
 40
0.0
 40
1.0
 40
1.0
 10
4.936870722525152
 20
7.187971938780335
 30
0.0
 10
4.923068519452766
 20
7.20374377528005
 30
0.0
  0
ARC
  5
1A0
330
1F
100
AcDbEntity
  8
0
  6
Continuous
 62
     7
370
     0
100
AcDbCircle
 10
4.9400402603
 20
7.1747468236
 30
0.0
 40
0.0135996191544368
100
AcDbArc
 50
43.5378871398
 51
103.4773396582
  0
ARC
  5
1A1
330
1F
100
AcDbEntity
  8
0
  6
Continuous
 62
     7
370
     0
100
AcDbCircle
 10
4.9445941626
 20
7.1783164957
 30
0.0
 40
0.0078587077982628
100
AcDbArc
 50
290.1503113624
 51
47.5449337374
  0
SPLINE
  5
1A2
330
1F
100
AcDbEntity
  8
0
  6
Continuous
 62
     7
370
     0
100
AcDbSpline
210
0.0
220
0.0
230
1.0
 70
     8
 71
     3
 72
    13
 73
     9
 74
     0
 42
0.00000001
 43
0.00000001
 40
0.0
 40
0.0
 40
0.0
 40
0.0
 40
0.2502398385319716
 40
0.3849594567174357
 40
0.5001800652206276
 40
0.615855411643437
 40
0.7499175228771455
 40
1.0
 40
1.0
 40
1.0
 40
1.0
 10
5.00755854851286
 20
7.090452957450506
 30
0.0
 10
5.006878362139439
 20
7.090023497347082
 30
0.0
 10
5.00583198927445
 20
7.089362832246491
 30
0.0
 10
5.00483884843691
 20
7.088131245498413
 30
0.0
 10
5.004422565776275
 20
7.087017687803569
 30
0.0
 10
5.004513293903553
 20
7.085738739195665
 30
0.0
 10
5.005164964357292
 20
7.083996522953896
 30
0.0
 10
5.006029341248239
 20
7.082778422855723
 30
0.0
 10
5.006592060392561
 20
7.08198542589789
 30
0.0
  0
ARC
  5
1A3
330
1F
100
AcDbEntity
  8
0
  6
Continuous
 62
     7
370
     0
100
AcDbCircle
 10
4.9125958315
 20
6.9682576218
 30
0.0
 40
0.154756640177046
100
AcDbArc
 50
42.9062762548
 51
52.1478404042
  0
ARC
  5
1A4
330
1F
100
AcDbEntity
  8
0
  6
Continuous
 62
     7
370
     0
100
AcDbCircle
 10
5.0512575746
 20
7.0949679569
 30
0.0
 40
0.0331114176449329
100
AcDbArc
 50
220.1543057957
 51
247.2604405722
  0
SPLINE
  5
1A5
330
1F
100
AcDbEntity
  8
0
  6
Continuous
 62
     7
370
     0
100
AcDbSpline
210
0.0
220
0.0
230
1.0
 70
     8
 71
     3
 72
     9
 73
     5
 74
     0
 42
0.00000001
 43
0.00000001
 40
0.0
 40
0.0
 40
0.0
 40
0.0
 40
0.5005138828869135
 40
1.0
 40
1.0
 40
1.0
 40
1.0
 10
5.047865973340341
 20
7.065397048906997
 30
0.0
 10
5.046451418161785
 20
7.064733810152732
 30
0.0
 10
5.043625212482143
 20
7.063408694552661
 30
0.0
 10
5.040179617657744
 20
7.06408995994978
 30
0.0
 10
5.03845859087776
 20
7.064430242557711
 30
0.0
  0
SPLINE
  5
1A6
330
1F
100
AcDbEntity
  8
0
  6
Continuous
 62
     7
370
     0
100
AcDbSpline
210
0.0
220
0.0
230
1.0
 70
     8
 71
     3
 72
    13
 73
     9
 74
     0
 42
0.00000001
 43
0.00000001
 40
0.0
 40
0.0
 40
0.0
 40
0.0
 40
0.2503303002145851
 40
0.499788535511089
 40
0.6246840460599833
 40
0.7518137683319179
 40
0.8751147274703485
 40
1.0
 40
1.0
 40
1.0
 40
1.0
 10
5.046591000891741
 20
7.088904298635705
 30
0.0
 10
5.04795227507328
 20
7.086892175169051
 30
0.0
 10
5.050670081223943
 20
7.082874937783869
 30
0.0
 10
5.052640355177412
 20
7.077210880402111
 30
0.0
 10
5.052644549367736
 20
7.072803795147417
 30
0.0
 10
5.051913243969094
 20
7.069733921671003
 30
0.0
 10
5.050326759827557
 20
7.06710638786436
 30
0.0
 10
5.048689718889479
 20
7.065969248228398
 30
0.0
 10
5.047865973340341
 20
7.065397048906997
 30
0.0
  0
ARC
  5
1A7
330
1F
100
AcDbEntity
  8
0
  6
Continuous
 62
     7
370
     0
100
AcDbCircle
 10
5.0112192268
 20
7.0638521273
 30
0.0
 40
0.0433448231014696
100
AcDbArc
 50
35.3081551053
 51
53.8921944746
  0
SPLINE
  5
1A8
330
1F
100
AcDbEntity
  8
0
  6
Continuous
 62
     7
370
     0
100
AcDbSpline
210
0.0
220
0.0
230
1.0
 70
    24
 71
     1
 72
     4
 73
     2
 74
     0
 42
0.00000001
 43
0.00000001
 40
0.0
 40
0.0
 40
1.0
 40
1.0
 10
5.027314195938549
 20
7.103283582957913
 30
0.0
 10
5.036762609616741
 20
7.098870826370142
 30
0.0
  0
SPLINE
  5
1A9
330
1F
100
AcDbEntity
  8
0
  6
Continuous
 62
     7
370
     0
100
AcDbSpline
210
0.0
220
0.0
230
1.0
 70
     8
 71
     3
 72
     9
 73
     5
 74
     0
 42
0.00000001
 43
0.00000001
 40
0.0
 40
0.0
 40
0.0
 40
0.0
 40
0.4998875207461441
 40
1.0
 40
1.0
 40
1.0
 40
1.0
 10
5.031074424738248
 20
7.10815804499278
 30
0.0
 10
5.030629372136067
 20
7.107204990941741
 30
0.0
 10
5.029739066649914
 20
7.105298453947944
 30
0.0
 10
5.028122607387759
 20
7.103955307338675
 30
0.0
 10
5.027314195938549
 20
7.103283582957913
 30
0.0
  0
ARC
  5
1AA
330
1F
100
AcDbEntity
  8
0
  6
Continuous
 62
     7
370
     0
100
AcDbCircle
 10
4.2561135768
 20
6.5108750397
 30
0.0
 40
0.9784228657714786
100
AcDbArc
 50
37.622400447
 51
38.8243294899
  0
SPLINE
  5
1AB
330
1F
100
AcDbEntity
  8
0
  6
Continuous
 62
     7
370
     0
100
AcDbSpline
210
0.0
220
0.0
230
1.0
 70
     8
 71
     3
 72
     9
 73
     5
 74
     0
 42
0.00000001
 43
0.00000001
 40
0.0
 40
0.0
 40
0.0
 40
0.0
 40
0.5000611520588074
 40
1.0
 40
1.0
 40
1.0
 40
1.0
 10
5.011371162646573
 20
7.117123563525381
 30
0.0
 10
5.012881674108594
 20
7.118019575151567
 30
0.0
 10
5.015902327594276
 20
7.119811379258915
 30
0.0
 10
5.017551016196536
 20
7.122792095082392
 30
0.0
 10
5.018375259676963
 20
7.124282270717221
 30
0.0
  0
LINE
  5
1AC
330
1F
100
AcDbEntity
  8
0
  6
Continuous
 62
     7
370
     0
100
AcDbLine
 10
4.9932802489
 20
7.1066799013
 30
0.0
 11
5.0113711626
 21
7.1171235635
 31
0.0
  0
ARC
  5
1AD
330
1F
100
AcDbEntity
  8
0
  6
Continuous
 62
     7
370
     0
100
AcDbCircle
 10
4.9996303528
 20
7.0945998553
 30
0.0
 40
0.0136473928042894
100
AcDbArc
 50
117.7295064733
 51
175.591419057
  0
ARC
  5
1AE
330
1F
100
AcDbEntity
  8
0
  6
Continuous
 62
     7
370
     0
100
AcDbCircle
 10
5.0263005064
 20
7.1018400324
 30
0.0
 40
0.0407502174221723
100
AcDbArc
 50
188.7387096868
 51
225.303683659
  0
SPLINE
  5
1AF
330
1F
100
AcDbEntity
  8
0
  6
Continuous
 62
     7
370
     0
100
AcDbSpline
210
0.0
220
0.0
230
1.0
 70
     8
 71
     3
 72
     9
 73
     5
 74
     0
 42
0.00000001
 43
0.00000001
 40
0.0
 40
0.0
 40
0.0
 40
0.0
 40
0.4912634296922902
 40
0.9999999999999999
 40
0.9999999999999999
 40
0.9999999999999999
 40
0.9999999999999999
 10
5.012252308200784
 20
7.058603486237439
 30
0.0
 10
5.009519750307396
 20
7.060609377922367
 30
0.0
 10
5.003957443552546
 20
7.064692506369732
 30
0.0
 10
4.999769461316296
 20
7.070114559675103
 30
0.0
 10
4.997638881596917
 20
7.072872956477703
 30
0.0
  0
ARC
  5
1B0
330
1F
100
AcDbEntity
  8
0
  6
Continuous
 62
     7
370
     0
100
AcDbCircle
 10
5.0223782159
 20
7.0766571892
 30
0.0
 40
0.0206995217064607
100
AcDbArc
 50
240.7129332118
 51
290.9302470821
  0
SPLINE
  5
1B1
330
1F
100
AcDbEntity
  8
0
  6
Continuous
 62
     7
370
     0
100
AcDbSpline
210
0.0
220
0.0
230
1.0
 70
    24
 71
     1
 72
     4
 73
     2
 74
     0
 42
0.00000001
 43
0.00000001
 40
0.0
 40
0.0
 40
1.0
 40
1.0
 10
5.018015651434608
 20
7.07653188082111
 30
0.0
 10
5.029772729389571
 20
7.057323504381225
 30
0.0
  0
SPLINE
  5
1B2
330
1F
100
AcDbEntity
  8
0
  6
Continuous
 62
     7
370
     0
100
AcDbSpline
210
0.0
220
0.0
230
1.0
 70
     8
 71
     3
 72
     9
 73
     5
 74
     0
 42
0.00000001
 43
0.00000001
 40
0.0
 40
0.0
 40
0.0
 40
0.0
 40
0.498373614977601
 40
1.0
 40
1.0
 40
1.0
 40
1.0
 10
5.012331864781914
 20
7.076818263675018
 30
0.0
 10
5.013311637772044
 20
7.076565270373225
 30
0.0
 10
5.015277578505432
 20
7.076057632540501
 30
0.0
 10
5.017100983419255
 20
7.076373455627614
 30
0.0
 10
5.018015651434608
 20
7.07653188082111
 30
0.0
  0
SPLINE
  5
1B3
330
1F
100
AcDbEntity
  8
0
  6
Continuous
 62
     7
370
     0
100
AcDbSpline
210
0.0
220
0.0
230
1.0
 70
     8
 71
     3
 72
     9
 73
     5
 74
     0
 42
0.00000001
 43
0.00000001
 40
0.0
 40
0.0
 40
0.0
 40
0.0
 40
0.501423538797895
 40
1.0
 40
1.0
 40
1.0
 40
1.0
 10
5.006592060392561
 20
7.08198542589789
 30
0.0
 10
5.007391352019035
 20
7.080949856022075
 30
0.0
 10
5.008985396902506
 20
7.078884596225341
 30
0.0
 10
5.011218494756402
 20
7.077505732614561
 30
0.0
 10
5.012331864781914
 20
7.076818263675018
 30
0.0
  0
LINE
  5
1B4
330
1F
100
AcDbEntity
  8
0
  6
Continuous
 62
     7
370
     0
100
AcDbLine
 10
5.1517378459
 20
6.8609012337
 30
0.0
 11
5.1679002866
 21
6.8702316121
 31
0.0
  0
ARC
  5
1B5
330
1F
100
AcDbEntity
  8
0
  6
Continuous
 62
     7
370
     0
100
AcDbCircle
 10
4.2486037112
 20
6.4927931411
 30
0.0
 40
0.9752716714147968
100
AcDbArc
 50
20.9203617561
 51
22.1752987632
  0
LINE
  5
1B6
330
1F
100
AcDbEntity
  8
0
  6
Continuous
 62
     7
370
     0
100
AcDbLine
 10
5.175745611
 20
6.85036375
 30
0.0
 11
5.1595831703
 21
6.8410333716
 31
0.0
  0
ARC
  5
1B7
330
1F
100
AcDbEntity
  8
0
  6
Continuous
 62
     7
370
     0
100
AcDbCircle
 10
4.2647661519
 20
6.5021235195
 30
0.0
 40
0.9752716714253337
100
AcDbArc
 50
20.9203617561
 51
22.1752987632
  0
LINE
  5
1B8
330
1F
100
AcDbEntity
  8
0
  6
Continuous
 62
     7
370
     0
100
AcDbLine
 10
4.6546729431
 20
7.2384446726
 30
0.0
 11
4.6753810703
 21
7.2503992199
 31
0.0
  0
ARC
  5
1B9
330
1F
100
AcDbEntity
  8
0
  6
Continuous
 62
     7
370
     0
100
AcDbCircle
 10
4.64566008
 20
7.251779633
 30
0.0
 40
0.0160951194922026
100
AcDbArc
 50
247.3730424903
 51
304.0540628346
  0
SPLINE
  5
1BA
330
1F
100
AcDbEntity
  8
0
  6
Continuous
 62
     7
370
     0
100
AcDbSpline
210
0.0
220
0.0
230
1.0
 70
     8
 71
     3
 72
    11
 73
     7
 74
     0
 42
0.00000001
 43
0.00000001
 40
0.0
 40
0.0
 40
0.0
 40
0.0
 40
0.2494089565911127
 40
0.4981576612169523
 40
0.7500292138135133
 40
1.0
 40
1.0
 40
1.0
 40
1.0
 10
4.637970346026994
 20
7.241424903146339
 30
0.0
 10
4.637704202406422
 20
7.241032103466396
 30
0.0
 10
4.637172619718357
 20
7.240247543951927
 30
0.0
 10
4.637271929815735
 20
7.239000426978849
 30
0.0
 10
4.637968392654329
 20
7.237822714480934
 30
0.0
 10
4.638969268065512
 20
7.237222390914356
 30
0.0
 10
4.63946781032485
 20
7.23692336601688
 30
0.0
  0
SPLINE
  5
1BB
330
1F
100
AcDbEntity
  8
0
  6
Continuous
 62
     7
370
     0
100
AcDbSpline
210
0.0
220
0.0
230
1.0
 70
    24
 71
     1
 72
     4
 73
     2
 74
     0
 42
0.00000001
 43
0.00000001
 40
0.0
 40
0.0
 40
1.0
 40
1.0
 10
4.641288295225371
 20
7.243689781872355
 30
0.0
 10
4.637970346026994
 20
7.241424903146339
 30
0.0
  0
LINE
  5
1BC
330
1F
100
AcDbEntity
  8
0
  6
Continuous
 62
     7
370
     0
100
AcDbLine
 10
4.6636379203
 20
7.2565919458
 30
0.0
 11
4.6412882952
 21
7.2436897819
 31
0.0
  0
ARC
  5
1BD
330
1F
100
AcDbEntity
  8
0
  6
Continuous
 62
     7
370
     0
100
AcDbCircle
 10
4.434483929
 20
6.8086034258
 30
0.0
 40
0.5031950573832008
100
AcDbArc
 50
62.9094588524
 51
64.8603024179
  0
LINE
  5
1BE
330
1F
100
AcDbEntity
  8
0
  6
Continuous
 62
     7
370
     0
100
AcDbLine
 10
4.6272595462
 20
7.2520129525
 30
0.0
 11
4.6482546485
 21
7.2641331671
 31
0.0
  0
ARC
  5
1BF
330
1F
100
AcDbEntity
  8
0
  6
Continuous
 62
     7
370
     0
100
AcDbCircle
 10
4.6180602826
 20
7.2651475804
 30
0.0
 40
0.0160357382732608
100
AcDbArc
 50
249.3911406341
 51
305.0067264483
  0
ARC
  5
1C0
330
1F
100
AcDbEntity
  8
0
  6
Continuous
 62
     7
370
     0
100
AcDbCircle
 10
4.613136625
 20
7.2527855458
 30
0.0
 40
0.0027438407919441
100
AcDbArc
 50
171.5934766918
 51
254.7718989394
  0
SPLINE
  5
1C1
330
1F
100
AcDbEntity
  8
0
  6
Continuous
 62
     7
370
     0
100
AcDbSpline
210
0.0
220
0.0
230
1.0
 70
     8
 71
     3
 72
     9
 73
     5
 74
     0
 42
0.00000001
 43
0.00000001
 40
0.0
 40
0.0
 40
0.0
 40
0.0
 40
0.5015771373281067
 40
1.0
 40
1.0
 40
1.0
 40
1.0
 10
4.613391994375824
 20
7.256046910236425
 30
0.0
 10
4.612672725866845
 20
7.255616999981415
 30
0.0
 10
4.611238712122097
 20
7.254759883053597
 30
0.0
 10
4.610693841048658
 20
7.253709979369077
 30
0.0
 10
4.610422264848448
 20
7.253186683369108
 30
0.0
  0
LINE
  5
1C2
330
1F
100
AcDbEntity
  8
0
  6
Continuous
 62
     7
370
     0
100
AcDbLine
 10
4.6365681079
 20
7.2694261958
 30
0.0
 11
4.6133919944
 21
7.2560469102
 31
0.0
  0
ARC
  5
1C3
330
1F
100
AcDbEntity
  8
0
  6
Continuous
 62
     7
370
     0
100
AcDbCircle
 10
4.455184448
 20
6.8542919379
 30
0.0
 40
0.4530303346916478
100
AcDbArc
 50
66.398150075
 51
68.4904795097
  0
LINE
  5
1C4
330
1F
100
AcDbEntity
  8
0
  6
Continuous
 62
     7
370
     0
100
AcDbLine
 10
4.5955662056
 20
7.2609213145
 30
0.0
 11
4.6212906584
 21
7.2757717251
 31
0.0
  0
SPLINE
  5
1C5
330
1F
100
AcDbEntity
  8
0
  6
Continuous
 62
     7
370
     0
100
AcDbSpline
210
0.0
220
0.0
230
1.0
 70
     8
 71
     3
 72
    13
 73
     9
 74
     0
 42
0.00000001
 43
0.00000001
 40
0.0
 40
0.0
 40
0.0
 40
0.0
 40
0.2493660811199527
 40
0.3758557512662082
 40
0.4995069154470441
 40
0.6185141978850704
 40
0.7497784962542307
 40
1.0
 40
1.0
 40
1.0
 40
1.0
 10
4.593393922937272
 20
7.245816870699828
 30
0.0
 10
4.591507938748125
 20
7.246779379140959
 30
0.0
 10
4.588665298718237
 20
7.248230115069503
 30
0.0
 10
4.587019422195518
 20
7.250846951255326
 30
0.0
 10
4.586904415894184
 20
7.252937971747398
 30
0.0
 10
4.587961338986026
 20
7.255089022005986
 30
0.0
 10
4.590619517519323
 20
7.257846651761189
 30
0.0
 10
4.593606804889691
 20
7.259703429696127
 30
0.0
 10
4.595566205564081
 20
7.260921314514977
 30
0.0
  0
ARC
  5
1C6
330
1F
100
AcDbEntity
  8
0
  6
Continuous
 62
     7
370
     0
100
AcDbCircle
 10
4.6082251498
 20
7.2814676327
 30
0.0
 40
0.0386127196466934
100
AcDbArc
 50
247.4119909334
 51
279.716375608
  0
SPLINE
  5
1C7
330
1F
100
AcDbEntity
  8
0
  6
Continuous
 62
     7
370
     0
100
AcDbSpline
210
0.0
220
0.0
230
1.0
 70
     8
 71
     3
 72
    12
 73
     8
 74
     0
 42
0.00000001
 43
0.00000001
 40
0.0
 40
0.0
 40
0.0
 40
0.0
 40
0.250374445047251
 40
0.499965650173372
 40
0.7494635411019033
 40
0.8746935204661307
 40
1.0
 40
1.0
 40
1.0
 40
1.0
 10
4.620238443643467
 20
7.2331938754808
 30
0.0
 10
4.619013905454183
 20
7.233864396956876
 30
0.0
 10
4.616568659766857
 20
7.235203342333979
 30
0.0
 10
4.614031149867428
 20
7.237697477624153
 30
0.0
 10
4.613590952847714
 20
7.240092373014651
 30
0.0
 10
4.614016492646696
 20
7.242000597461094
 30
0.0
 10
4.61450002216919
 20
7.242939304900755
 30
0.0
 10
4.614741860752208
 20
7.243408801935612
 30
0.0
  0
ARC
  5
1C8
330
1F
100
AcDbEntity
  8
0
  6
Continuous
 62
     7
370
     0
100
AcDbCircle
 10
4.6366784881
 20
7.2668448055
 30
0.0
 40
0.0374521048150809
100
AcDbArc
 50
243.96233945
 51
277.565503213
  0
LINE
  5
1C9
330
1F
100
AcDbEntity
  8
0
  6
Continuous
 62
     7
370
     0
100
AcDbLine
 10
4.6352959628
 20
7.2260740426
 30
0.0
 11
4.6416094162
 21
7.2297187217
 31
0.0
  0
ARC
  5
1CA
330
1F
100
AcDbEntity
  8
0
  6
Continuous
 62
     7
370
     0
100
AcDbCircle
 10
4.3681310278
 20
6.7371268867
 30
0.0
 40
0.5571771924384403
100
AcDbArc
 50
59.6494914208
 51
61.3474278265
  0
LINE
  5
1CB
330
1F
100
AcDbEntity
  8
0
  6
Continuous
 62
     7
370
     0
100
AcDbLine
 10
4.6908070396
 20
7.2416932517
 30
0.0
 11
4.6496662814
 21
7.2179431975
 31
0.0
  0
ARC
  5
1CC
330
1F
100
AcDbEntity
  8
0
  6
Continuous
 62
     7
370
     0
100
AcDbCircle
 10
4.4097945049
 20
6.7617910263
 30
0.0
 40
0.556124258179825
100
AcDbArc
 50
59.6483790974
 51
61.4733841578
  0
ARC
  5
1CD
330
1F
100
AcDbEntity
  8
0
  6
Continuous
 62
     7
370
     0
100
AcDbCircle
 10
4.773398932
 20
7.1315738788
 30
0.0
 40
0.0406602481906002
100
AcDbArc
 50
46.9700147591
 51
127.1574144129
  0
SPLINE
  5
1CE
330
1F
100
AcDbEntity
  8
0
  6
Continuous
 62
     7
370
     0
100
AcDbSpline
210
0.0
220
0.0
230
1.0
 70
    24
 71
     1
 72
     4
 73
     2
 74
     0
 42
0.00000001
 43
0.00000001
 40
0.0
 40
0.0
 40
1.0
 40
1.0
 10
4.737323869954817
 20
7.155122598244332
 30
0.0
 10
4.748839860671031
 20
7.163979245662424
 30
0.0
  0
SPLINE
  5
1CF
330
1F
100
AcDbEntity
  8
0
  6
Continuous
 62
     7
370
     0
100
AcDbSpline
210
0.0
220
0.0
230
1.0
 70
     8
 71
     3
 72
    12
 73
     8
 74
     0
 42
0.00000001
 43
0.00000001
 40
0.0
 40
0.0
 40
0.0
 40
0.0
 40
0.2503236780917601
 40
0.499758020582679
 40
0.6249322649114023
 40
0.750189298565987
 40
1.0
 40
1.0
 40
1.0
 40
1.0
 10
4.742697301958086
 20
7.128158173678111
 30
0.0
 10
4.740451051179964
 20
7.130286642598472
 30
0.0
 10
4.735966529974601
 20
7.134536018536938
 30
0.0
 10
4.73277229573679
 20
7.140729333080071
 30
0.0
 10
4.73249261196374
 20
7.145572007957241
 30
0.0
 10
4.733291315747596
 20
7.150276104437379
 30
0.0
 10
4.735711756084025
 20
7.153185091768435
 30
0.0
 10
4.737323869954816
 20
7.155122598244332
 30
0.0
  0
ARC
  5
1D0
330
1F
100
AcDbEntity
  8
0
  6
Continuous
 62
     7
370
     0
100
AcDbCircle
 10
4.7712554118
 20
7.1564259345
 30
0.0
 40
0.0401824830396396
100
AcDbArc
 50
224.7072525415
 51
305.0738635234
  0
ARC
  5
1D1
330
1F
100
AcDbEntity
  8
0
  6
Continuous
 62
     7
370
     0
100
AcDbCircle
 10
4.7794782714
 20
7.1550096506
 30
0.0
 40
0.0348047115075028
100
AcDbArc
 50
295.2876424441
 51
333.1627550051
  0
ARC
  5
1D2
330
1F
100
AcDbEntity
  8
0
  6
Continuous
 62
     7
370
     0
100
AcDbCircle
 10
4.78935928
 20
7.1432627513
 30
0.0
 40
0.0215431752147552
100
AcDbArc
 50
349.3917244917
 51
56.8343743289
  0
LINE
  5
1D3
330
1F
100
AcDbEntity
  8
0
  6
Continuous
 62
     7
370
     0
100
AcDbLine
 10
4.8540963484
 20
7.0660082942
 30
0.0
 11
4.8665855071
 21
7.073218132
 31
0.0
  0
ARC
  5
1D4
330
1F
100
AcDbEntity
  8
0
  6
Continuous
 62
     7
370
     0
100
AcDbCircle
 10
4.121822269
 20
6.4353011366
 30
0.0
 40
0.9664454697101877
100
AcDbArc
 50
37.3116331872
 51
40.7382977912
  0
LINE
  5
1D5
330
1F
100
AcDbEntity
  8
0
  6
Continuous
 62
     7
370
     0
100
AcDbLine
 10
4.9029742439
 20
7.028321798
 30
0.0
 11
4.8904850852
 21
7.0211119601
 31
0.0
  0
ARC
  5
1D6
330
1F
100
AcDbEntity
  8
0
  6
Continuous
 62
     7
370
     0
100
AcDbCircle
 10
4.1343114277
 20
6.4425109745
 30
0.0
 40
0.9664454697092153
100
AcDbArc
 50
37.3116331872
 51
40.7382977912
  0
LINE
  5
1D7
330
1F
100
AcDbEntity
  8
0
  6
Continuous
 62
     7
370
     0
100
AcDbLine
 10
4.9611288593
 20
6.9203471766
 30
0.0
 11
4.9839032075
 21
6.933494528
 31
0.0
  0
ARC
  5
1D8
330
1F
100
AcDbEntity
  8
0
  6
Continuous
 62
     7
370
     0
100
AcDbCircle
 10
4.0665939405
 20
6.3948824524
 30
0.0
 40
1.037451636094894
100
AcDbArc
 50
30.4306863017
 51
32.1510552278
  0
LINE
  5
1D9
330
1F
100
AcDbEntity
  8
0
  6
Continuous
 62
     7
370
     0
100
AcDbLine
 10
4.9331958589
 20
6.9401799549
 30
0.0
 11
4.9449503613
 21
6.9469656847
 31
0.0
  0
ARC
  5
1DA
330
1F
100
AcDbEntity
  8
0
  6
Continuous
 62
     7
370
     0
100
AcDbCircle
 10
4.0548394382
 20
6.3880967227
 30
0.0
 40
1.037451636097629
100
AcDbArc
 50
30.4306863017
 51
32.1510552278
  0
LINE
  5
1DB
330
1F
100
AcDbEntity
  8
0
  6
Continuous
 62
     7
370
     0
100
AcDbLine
 10
4.9405584802
 20
6.9084721495
 30
0.0
 11
4.9493743569
 21
6.9135614468
 31
0.0
  0
ARC
  5
1DC
330
1F
100
AcDbEntity
  8
0
  6
Continuous
 62
     7
370
     0
100
AcDbCircle
 10
4.0463830253
 20
6.3832238425
 30
0.0
 40
1.037032076754205
100
AcDbArc
 50
30.4304356253
 51
32.4380514672
  0
LINE
  5
1DD
330
1F
100
AcDbEntity
  8
0
  6
Continuous
 62
     7
370
     0
100
AcDbLine
 10
4.908385126
 20
6.9318408511
 30
0.0
 11
4.9216089411
 21
6.9394747971
 31
0.0
  0
ARC
  5
1DE
330
1F
100
AcDbEntity
  8
0
  6
Continuous
 62
     7
370
     0
100
AcDbCircle
 10
4.0322364241
 20
6.3750229298
 30
0.0
 40
1.038114996171868
100
AcDbArc
 50
29.0554946307
 51
32.4371426222
  0
LINE
  5
1DF
330
1F
100
AcDbEntity
  8
0
  6
Continuous
 62
     7
370
     0
100
AcDbLine
 10
4.9962729079
 20
6.9118465685
 30
0.0
 11
4.9397043654
 21
6.879190244
 31
0.0
  0
ARC
  5
1E0
330
1F
100
AcDbEntity
  8
0
  6
Continuous
 62
     7
370
     0
100
AcDbCircle
 10
4.0880157707
 20
6.4072240977
 30
0.0
 40
1.039025921362395
100
AcDbArc
 50
29.0562995606
 51
30.4312195219
  0
LWPOLYLINE
  5
1E1
330
1F
100
AcDbEntity
  8
0
  6
Continuous
 62
     7
370
     0
100
AcDbPolyline
 90
       57
 70
   128
 43
0.0
 10
6.0402772526
 20
6.9120881372
 10
6.0464494891
 20
6.9311035329
 10
6.0516698685
 20
6.9509864096
 10
6.0559261985
 20
6.9716903299
 10
6.059208538
 20
6.9931669388
 10
6.0615092211
 20
7.0153660767
 10
6.0628228745
 20
7.0382358965
 10
6.06314643
 20
7.0617229847
 10
6.0624791319
 20
7.0857724861
 10
6.0608225387
 20
7.1103282319
 10
6.0581805196
 20
7.1353328711
 10
6.054559245
 20
7.1607280043
 10
6.0499671726
 20
7.1864543198
 10
6.0444150275
 20
7.2124517327
 10
6.0379157768
 20
7.2386595248
 10
6.0304845999
 20
7.2650164866
 10
6.0221388527
 20
7.2914610602
 10
6.0128980271
 20
7.3179314831
 10
6.0027837053
 20
7.3443659324
 10
5.99181951
 20
7.3707026691
 10
5.9800310484
 20
7.3968801827
 10
5.9674458531
 20
7.4228373343
 10
5.9540933173
 20
7.4485134998
 10
5.9400046266
 20
7.4738487113
 10
5.9252126857
 20
7.4987837973
 10
5.9097520419
 20
7.5232605207
 10
5.8936588043
 20
7.547221715
 10
5.8769705593
 20
7.5706114177
 10
5.8597262831
 20
7.5933750011
 10
5.8419662506
 20
7.6154592998
 10
5.823731941
 20
7.6368127348
 10
5.8050659415
 20
7.6573854343
 10
5.7860118474
 20
7.6771293497
 10
5.7666141604
 20
7.6959983682
 10
5.7469181847
 20
7.7139484204
 10
5.7269699212
 20
7.730937583
 10
5.7068159599
 20
7.7469261772
 10
5.6865033714
 20
7.7618768607
 10
5.6660795966
 20
7.7757547156
 10
5.6455923363
 20
7.7885273294
 10
5.6250894394
 20
7.8001648713
 10
5.6046187913
 20
7.8106401611
 10
5.5842282021
 20
7.8199287333
 10
5.5639652952
 20
7.8280088941
 10
5.5438773953
 20
7.8348617718
 10
5.5240114188
 20
7.8404713613
 10
5.5044137635
 20
7.844824561
 10
5.4851302007
 20
7.8479112039
 10
5.4662057681
 20
7.849724081
 10
5.4476846644
 20
7.8502589582
 10
5.4296101467
 20
7.8495145863
 10
5.4120244287
 20
7.8474927038
 10
5.3949685828
 20
7.8441980329
 10
5.3784824437
 20
7.8396382685
 10
5.3626045154
 20
7.83382406
 10
5.3473718818
 20
7.8267689869
 10
5.3389216561
 20
7.8221581405
  0
ARC
  5
1E2
330
1F
100
AcDbEntity
  8
0
  6
Continuous
 62
     7
370
     0
100
AcDbCircle
 10
5.8160492829
 20
6.9836998562
 30
0.0
 40
0.2353856849227058
100
AcDbArc
 50
301.4528876269
 51
342.2880702768
  0
ARC
  5
1E3
330
1F
100
AcDbEntity
  8
0
  6
Continuous
 62
     7
370
     0
100
AcDbCircle
 10
4.8823068412
 20
6.9222387905
 30
0.0
 40
0.0437227395410784
100
AcDbArc
 50
41.5218282606
 51
86.7939833928
  0
LINE
  5
1E4
330
1F
100
AcDbEntity
  8
0
  6
Continuous
 62
     7
370
     0
100
AcDbLine
 10
4.9282660124
 20
6.9588567737
 30
0.0
 11
4.9150421973
 21
6.9512228277
 31
0.0
  0
ARC
  5
1E5
330
1F
100
AcDbEntity
  8
0
  6
Continuous
 62
     7
370
     0
100
AcDbCircle
 10
4.874926937
 20
6.9043809861
 30
0.0
 40
0.0762408577881803
100
AcDbArc
 50
45.6040576802
 51
65.4710748563
  0
LINE
  5
1E6
330
1F
100
AcDbEntity
  8
0
  6
Continuous
 62
     7
370
     0
100
AcDbLine
 10
4.9444018507
 20
6.9955761848
 30
0.0
 11
4.9065785253
 21
6.9737412439
 31
0.0
  0
ARC
  5
1E7
330
1F
100
AcDbEntity
  8
0
  6
Continuous
 62
     7
370
     0
100
AcDbCircle
 10
4.1085634422
 20
6.4207832204
 30
0.0
 40
1.01440268004206
100
AcDbArc
 50
34.5156934545
 51
35.7963553098
  0
LINE
  5
1E8
330
1F
100
AcDbEntity
  8
0
  6
Continuous
 62
     7
370
     0
100
AcDbLine
 10
4.8740432994
 20
6.9810330835
 30
0.0
 11
4.9313464983
 21
7.014113516
 31
0.0
  0
ARC
  5
1E9
330
1F
100
AcDbEntity
  8
0
  6
Continuous
 62
     7
370
     0
100
AcDbCircle
 10
4.0521386541
 20
6.3883272344
 30
0.0
 40
1.013324957487453
100
AcDbArc
 50
34.7482052877
 51
35.7967679878
  0
LINE
  5
1EA
330
1F
100
AcDbEntity
  8
0
  6
Continuous
 62
     7
370
     0
100
AcDbLine
 10
4.8349952821
 20
7.0549814833
 30
0.0
 11
4.8474844408
 21
7.0621913212
 31
0.0
  0
ARC
  5
1EB
330
1F
100
AcDbEntity
  8
0
  6
Continuous
 62
     7
370
     0
100
AcDbCircle
 10
4.1027212027
 20
6.4242743258
 30
0.0
 40
0.966445469708291
100
AcDbArc
 50
37.3116331872
 51
40.7382977912
  0
LINE
  5
1EC
330
1F
100
AcDbEntity
  8
0
  6
Continuous
 62
     7
370
     0
100
AcDbLine
 10
4.8838731776
 20
7.0172949872
 30
0.0
 11
4.8713840189
 21
7.0100851493
 31
0.0
  0
ARC
  5
1ED
330
1F
100
AcDbEntity
  8
0
  6
Continuous
 62
     7
370
     0
100
AcDbCircle
 10
4.1152103614
 20
6.4314841636
 30
0.0
 40
0.9664454697105217
100
AcDbArc
 50
37.3116331872
 51
40.7382977912
  0
SPLINE
  5
1EE
330
1F
100
AcDbEntity
  8
0
  6
Continuous
 62
     7
370
     0
100
AcDbSpline
210
0.0
220
0.0
230
1.0
 70
    24
 71
     1
 72
     4
 73
     2
 74
     0
 42
0.00000001
 43
0.00000001
 40
0.0
 40
0.0
 40
1.0
 40
1.0
 10
4.828852493682446
 20
7.093212716457417
 30
0.0
 10
4.834487970030133
 20
7.091134967487308
 30
0.0
  0
SPLINE
  5
1EF
330
1F
100
AcDbEntity
  8
0
  6
Continuous
 62
     7
370
     0
100
AcDbSpline
210
0.0
220
0.0
230
1.0
 70
    24
 71
     1
 72
     4
 73
     2
 74
     0
 42
0.00000001
 43
0.00000001
 40
0.0
 40
0.0
 40
1.0
 40
1.0
 10
4.823839321735987
 20
7.097035469009214
 30
0.0
 10
4.828852493682446
 20
7.093212716457417
 30
0.0
  0
SPLINE
  5
1F0
330
1F
100
AcDbEntity
  8
0
  6
Continuous
 62
     7
370
     0
100
AcDbSpline
210
0.0
220
0.0
230
1.0
 70
     8
 71
     3
 72
    13
 73
     9
 74
     0
 42
0.00000001
 43
0.00000001
 40
0.0
 40
0.0
 40
0.0
 40
0.0
 40
0.2498702615309246
 40
0.3782858079803437
 40
0.4999708345516921
 40
0.6240802108356571
 40
0.7501947010537015
 40
0.9999999999999999
 40
0.9999999999999999
 40
0.9999999999999999
 40
0.9999999999999999
 10
4.82444276771482
 20
7.109390037686381
 30
0.0
 10
4.823418254639858
 20
7.108708898861493
 30
0.0
 10
4.821867214696272
 20
7.107677703115587
 30
0.0
 10
4.820617528715457
 20
7.10572224624962
 30
0.0
 10
4.820301810398634
 20
7.104006615473946
 30
0.0
 10
4.82055486480126
 20
7.102204910842561
 30
0.0
 10
4.821501431786425
 20
7.099773948351475
 30
0.0
 10
4.822905976871204
 20
7.098128739302751
 30
0.0
 10
4.823839321735987
 20
7.097035469009214
 30
0.0
  0
ARC
  5
1F1
330
1F
100
AcDbEntity
  8
0
  6
Continuous
 62
     7
370
     0
100
AcDbCircle
 10
4.8304161911
 20
7.0985907541
 30
0.0
 40
0.0123412443998859
100
AcDbArc
 50
39.1177467492
 51
118.948360903
  0
ARC
  5
1F2
330
1F
100
AcDbEntity
  8
0
  6
Continuous
 62
     7
370
     0
100
AcDbCircle
 10
4.8352757501
 20
7.1000433033
 30
0.0
 40
0.0078962870904894
100
AcDbArc
 50
315.5172650176
 51
53.3326785684
  0
SPLINE
  5
1F3
330
1F
100
AcDbEntity
  8
0
  6
Continuous
 62
     7
370
     0
100
AcDbSpline
210
0.0
220
0.0
230
1.0
 70
    24
 71
     1
 72
     4
 73
     2
 74
     0
 42
0.00000001
 43
0.00000001
 40
0.0
 40
0.0
 40
1.0
 40
1.0
 10
4.856398914391914
 20
7.079832604719442
 30
0.0
 10
4.840909447914982
 20
7.094510419908199
 30
0.0
  0
SPLINE
  5
1F4
330
1F
100
AcDbEntity
  8
0
  6
Continuous
 62
     7
370
     0
100
AcDbSpline
210
0.0
220
0.0
230
1.0
 70
     8
 71
     3
 72
    12
 73
     8
 74
     0
 42
0.00000001
 43
0.00000001
 40
0.0
 40
0.0
 40
0.0
 40
0.0
 40
0.2504209395099086
 40
0.4998161593112383
 40
0.6249761228546429
 40
0.7501447819711423
 40
1.0
 40
1.0
 40
1.0
 40
1.0
 10
4.850841319541884
 20
7.112917782694998
 30
0.0
 10
4.853171355295891
 20
7.110298950989501
 30
0.0
 10
4.857821883018952
 20
7.105072014266535
 30
0.0
 10
4.861341191997415
 20
7.097420717779677
 30
0.0
 10
4.861712353250495
 20
7.091400870794792
 30
0.0
 10
4.860770861534928
 20
7.085604660155647
 30
0.0
 10
4.858147018649305
 20
7.082140536254719
 30
0.0
 10
4.856398914391914
 20
7.079832604719442
 30
0.0
  0
ARC
  5
1F5
330
1F
100
AcDbEntity
  8
0
  6
Continuous
 62
     7
370
     0
100
AcDbCircle
 10
4.8232851532
 20
7.0914749019
 30
0.0
 40
0.0349161773306437
100
AcDbArc
 50
37.888334113
 51
114.7790124045
  0
SPLINE
  5
1F6
330
1F
100
AcDbEntity
  8
0
  6
Continuous
 62
     7
370
     0
100
AcDbSpline
210
0.0
220
0.0
230
1.0
 70
     8
 71
     3
 72
    13
 73
     9
 74
     0
 42
0.00000001
 43
0.00000001
 40
0.0
 40
0.0
 40
0.0
 40
0.0
 40
0.2498250059077933
 40
0.3743050054293181
 40
0.5003223264676737
 40
0.6265707931043186
 40
0.7507535245016425
 40
1.0
 40
1.0
 40
1.0
 40
1.0
 10
4.808642914109046
 20
7.095053961136
 30
0.0
 10
4.806558004860178
 20
7.09749425139395
 30
0.0
 10
4.803434250435029
 20
7.101150462088039
 30
0.0
 10
4.80131503774196
 20
7.10653277511544
 30
0.0
 10
4.800748751907675
 20
7.110558780503074
 30
0.0
 10
4.801192196887839
 20
7.114404381897653
 30
0.0
 10
4.803104612811676
 20
7.119139045292247
 30
0.0
 10
4.806430936351021
 20
7.121560306025906
 30
0.0
 10
4.808651101253068
 20
7.12317638396781
 30
0.0
  0
SPLINE
  5
1F7
330
1F
100
AcDbEntity
  8
0
  6
Continuous
 62
     7
370
     0
100
AcDbSpline
210
0.0
220
0.0
230
1.0
 70
     8
 71
     3
 72
     9
 73
     5
 74
     0
 42
0.00000001
 43
0.00000001
 40
0.0
 40
0.0
 40
0.0
 40
0.0
 40
0.5003485402245665
 40
1.0
 40
1.0
 40
1.0
 40
1.0
 10
4.820844169941308
 20
7.086727482191801
 30
0.0
 10
4.818577610150457
 20
7.087859874069992
 30
0.0
 10
4.814047648316582
 20
7.090123080189637
 30
0.0
 10
4.810443654753741
 20
7.093411098158227
 30
0.0
 10
4.808642914109046
 20
7.095053961136
 30
0.0
  0
SPLINE
  5
1F8
330
1F
100
AcDbEntity
  8
0
  6
Continuous
 62
     7
370
     0
100
AcDbSpline
210
0.0
220
0.0
230
1.0
 70
    24
 71
     1
 72
     4
 73
     2
 74
     0
 42
0.00000001
 43
0.00000001
 40
0.0
 40
0.0
 40
1.0
 40
1.0
 10
4.810783658253812
 20
7.083199176518036
 30
0.0
 10
4.820844169941308
 20
7.086727482191801
 30
0.0
  0
ARC
  5
1F9
330
1F
100
AcDbEntity
  8
0
  6
Continuous
 62
     7
370
     0
100
AcDbCircle
 10
4.1700873306
 20
6.484178851
 30
0.0
 40
0.8771072538050142
100
AcDbArc
 50
43.0745922031
 51
45.2262001635
  0
LINE
  5
1FA
330
1F
100
AcDbEntity
  8
0
  6
Continuous
 62
     7
370
     0
100
AcDbLine
 10
4.7746186311
 20
7.0991970967
 30
0.0
 11
4.7878424462
 21
7.1068310427
 31
0.0
  0
ARC
  5
1FB
330
1F
100
AcDbEntity
  8
0
  6
Continuous
 62
     7
370
     0
100
AcDbCircle
 10
4.1497294799
 20
6.4695748438
 30
0.0
 40
0.887079834377768
100
AcDbArc
 50
42.0335001771
 51
45.2161681969
  0
SPLINE
  5
1FC
330
1F
100
AcDbEntity
  8
0
  6
Continuous
 62
     7
370
     0
100
AcDbSpline
210
0.0
220
0.0
230
1.0
 70
    24
 71
     1
 72
     4
 73
     2
 74
     0
 42
0.00000001
 43
0.00000001
 40
0.0
 40
0.0
 40
1.0
 40
1.0
 10
4.845135462977555
 20
7.076723867314198
 30
0.0
 10
4.808611101148248
 20
7.063532453211597
 30
0.0
  0
SPLINE
  5
1FD
330
1F
100
AcDbEntity
  8
0
  6
Continuous
 62
     7
370
     0
100
AcDbSpline
210
0.0
220
0.0
230
1.0
 70
    24
 71
     1
 72
     4
 73
     2
 74
     0
 42
0.00000001
 43
0.00000001
 40
0.0
 40
0.0
 40
1.0
 40
1.0
 10
4.834487970030133
 20
7.091134967487308
 30
0.0
 10
4.845135462977555
 20
7.076723867314198
 30
0.0
  0
LINE
  5
1FE
330
1F
100
AcDbEntity
  8
0
  6
Continuous
 62
     7
370
     0
100
AcDbLine
 10
4.7337373529
 20
7.1869377414
 30
0.0
 11
4.75444548
 21
7.1988922888
 31
0.0
  0
ARC
  5
1FF
330
1F
100
AcDbEntity
  8
0
  6
Continuous
 62
     7
370
     0
100
AcDbCircle
 10
4.7260534292
 20
7.1981784577
 30
0.0
 40
0.0136160341838006
100
AcDbArc
 50
236.8162710947
 51
304.3557126223
  0
ARC
  5
200
330
1F
100
AcDbEntity
  8
0
  6
Continuous
 62
     7
370
     0
100
AcDbCircle
 10
4.7202789921
 20
7.1901844781
 30
0.0
 40
0.0037929019942306
100
AcDbArc
 50
145.7752415669
 51
243.7431115292
  0
SPLINE
  5
201
330
1F
100
AcDbEntity
  8
0
  6
Continuous
 62
     7
370
     0
100
AcDbSpline
210
0.0
220
0.0
230
1.0
 70
    24
 71
     1
 72
     4
 73
     2
 74
     0
 42
0.00000001
 43
0.00000001
 40
0.0
 40
0.0
 40
1.0
 40
1.0
 10
4.720463036256959
 20
7.194650626845828
 30
0.0
 10
4.717142878038348
 20
7.192317760634625
 30
0.0
  0
LINE
  5
202
330
1F
100
AcDbEntity
  8
0
  6
Continuous
 62
     7
370
     0
100
AcDbLine
 10
4.7428126613
 20
7.2075527908
 30
0.0
 11
4.7204630363
 21
7.1946506268
 31
0.0
  0
ARC
  5
203
330
1F
100
AcDbEntity
  8
0
  6
Continuous
 62
     7
370
     0
100
AcDbCircle
 10
4.3529650562
 20
6.672312323
 30
0.0
 40
0.6621657749909249
100
AcDbArc
 50
53.9319125726
 51
55.5564582644
  0
LINE
  5
204
330
1F
100
AcDbEntity
  8
0
  6
Continuous
 62
     7
370
     0
100
AcDbLine
 10
4.7064868654
 20
7.2062695723
 30
0.0
 11
4.7274819677
 21
7.2183897869
 31
0.0
  0
ARC
  5
205
330
1F
100
AcDbEntity
  8
0
  6
Continuous
 62
     7
370
     0
100
AcDbCircle
 10
4.6987022843
 20
7.2173269212
 30
0.0
 40
0.0135227462835658
100
AcDbArc
 50
238.4870762454
 51
305.1462641212
  0
ARC
  5
206
330
1F
100
AcDbEntity
  8
0
  6
Continuous
 62
     7
370
     0
100
AcDbCircle
 10
4.6934358142
 20
7.2092007028
 30
0.0
 40
0.0038498594874447
100
AcDbArc
 50
171.8421059186
 51
242.0952516489
  0
SPLINE
  5
207
330
1F
100
AcDbEntity
  8
0
  6
Continuous
 62
     7
370
     0
100
AcDbSpline
210
0.0
220
0.0
230
1.0
 70
     8
 71
     3
 72
     9
 73
     5
 74
     0
 42
0.00000001
 43
0.00000001
 40
0.0
 40
0.0
 40
0.0
 40
0.0
 40
0.5015771373280751
 40
1.0
 40
1.0
 40
1.0
 40
1.0
 10
4.692589062032117
 20
7.212855426186032
 30
0.0
 10
4.691869888018098
 20
7.212422289682562
 30
0.0
 10
4.690436062669017
 20
7.211558740546773
 30
0.0
 10
4.689894726597512
 20
7.210349644716096
 30
0.0
 10
4.689624912323084
 20
7.209747003710926
 30
0.0
  0
LINE
  5
208
330
1F
100
AcDbEntity
  8
0
  6
Continuous
 62
     7
370
     0
100
AcDbLine
 10
4.7157651755
 20
7.2262347117
 30
0.0
 11
4.692589062
 21
7.2128554262
 31
0.0
  0
ARC
  5
209
330
1F
100
AcDbEntity
  8
0
  6
Continuous
 62
     7
370
     0
100
AcDbCircle
 10
4.3839526632
 20
6.7186021225
 30
0.0
 40
0.6064572440938255
100
AcDbArc
 50
56.8294829867
 51
58.5520549537
  0
LINE
  5
20A
330
1F
100
AcDbEntity
  8
0
  6
Continuous
 62
     7
370
     0
100
AcDbLine
 10
4.6746313275
 20
7.2211291916
 30
0.0
 11
4.7003557803
 21
7.2359796021
 31
0.0
  0
SPLINE
  5
20B
330
1F
100
AcDbEntity
  8
0
  6
Continuous
 62
     7
370
     0
100
AcDbSpline
210
0.0
220
0.0
230
1.0
 70
     8
 71
     3
 72
    13
 73
     9
 74
     0
 42
0.00000001
 43
0.00000001
 40
0.0
 40
0.0
 40
0.0
 40
0.0
 40
0.2493660811199447
 40
0.3758557512737666
 40
0.4995069154468976
 40
0.6185141978938755
 40
0.7497784962542366
 40
1.0
 40
1.0
 40
1.0
 40
1.0
 10
4.67258386146969
 20
7.20291157141456
 30
0.0
 10
4.670684457373296
 20
7.204325159594136
 30
0.0
 10
4.667821590256743
 20
7.206455783153042
 30
0.0
 10
4.666142225333041
 20
7.209877023172794
 30
0.0
 10
4.666004683886265
 20
7.212459065511278
 30
0.0
 10
4.66704400294451
 20
7.214963795182908
 30
0.0
 10
4.669687434953729
 20
7.218003683516595
 30
0.0
 10
4.672673034121253
 20
7.219891166761671
 30
0.0
 10
4.674631327481466
 20
7.221129191593186
 30
0.0
  0
ARC
  5
20C
330
1F
100
AcDbEntity
  8
0
  6
Continuous
 62
     7
370
     0
100
AcDbCircle
 10
4.6915969269
 20
7.2323192897
 30
0.0
 40
0.0350187171772513
100
AcDbArc
 50
237.1159912735
 51
273.8836727375
  0
SPLINE
  5
20D
330
1F
100
AcDbEntity
  8
0
  6
Continuous
 62
     7
370
     0
100
AcDbSpline
210
0.0
220
0.0
230
1.0
 70
     8
 71
     3
 72
    12
 73
     8
 74
     0
 42
0.00000001
 43
0.00000001
 40
0.0
 40
0.0
 40
0.0
 40
0.0
 40
0.2503744450472418
 40
0.4999656501733792
 40
0.749463541101909
 40
0.874693520466138
 40
1.0
 40
1.0
 40
1.0
 40
1.0
 10
4.699423056959648
 20
7.184478044692077
 30
0.0
 10
4.69820572553453
 20
7.185419497279671
 30
0.0
 10
4.695774870830804
 20
7.187299457333003
 30
0.0
 10
4.693250273756805
 20
7.190587678977266
 30
0.0
 10
4.692815233844501
 20
7.193520772173749
 30
0.0
 10
4.693242747594089
 20
7.195769267562545
 30
0.0
 10
4.693726719335032
 20
7.196843639023475
 30
0.0
 10
4.693968779094789
 20
7.197380988781163
 30
0.0
  0
ARC
  5
20E
330
1F
100
AcDbEntity
  8
0
  6
Continuous
 62
     7
370
     0
100
AcDbCircle
 10
4.7196182238
 20
7.2125912963
 30
0.0
 40
0.0346150210239188
100
AcDbArc
 50
234.3084062304
 51
271.7261961757
  0
LINE
  5
20F
330
1F
100
AcDbEntity
  8
0
  6
Continuous
 62
     7
370
     0
100
AcDbLine
 10
4.7143474873
 20
7.1743473048
 30
0.0
 11
4.7206609407
 21
7.1779919839
 31
0.0
  0
ARC
  5
210
330
1F
100
AcDbEntity
  8
0
  6
Continuous
 62
     7
370
     0
100
AcDbCircle
 10
4.2779327471
 20
6.6030775811
 30
0.0
 40
0.718892845041497
100
AcDbArc
 50
51.189766384
 51
52.6224098897
  0
LINE
  5
211
330
1F
100
AcDbEntity
  8
0
  6
Continuous
 62
     7
370
     0
100
AcDbLine
 10
4.7696345631
 20
7.1870076562
 30
0.0
 11
4.7284938049
 21
7.163257602
 31
0.0
  0
ARC
  5
212
330
1F
100
AcDbEntity
  8
0
  6
Continuous
 62
     7
370
     0
100
AcDbCircle
 10
4.3197420167
 20
6.6276736707
 30
0.0
 40
0.717814607454491
100
AcDbArc
 50
51.1890220429
 51
52.7284780493
  0
ARC
  5
213
330
1F
100
AcDbEntity
  8
0
  6
Continuous
 62
     7
370
     0
100
AcDbCircle
 10
5.1293797148
 20
6.746753433
 30
0.0
 40
0.0290753113048044
100
AcDbArc
 50
23.7653867471
 51
82.2789266473
  0
LINE
  5
214
330
1F
100
AcDbEntity
  8
0
  6
Continuous
 62
     7
370
     0
100
AcDbLine
 10
5.1692133505
 20
6.7661045109
 30
0.0
 11
5.1559895354
 21
6.7584705649
 31
0.0
  0
ARC
  5
215
330
1F
100
AcDbEntity
  8
0
  6
Continuous
 62
     7
370
     0
100
AcDbCircle
 10
5.1226439842
 20
6.7395269555
 30
0.0
 40
0.0536197009073146
100
AcDbArc
 50
29.7137907533
 51
54.2042652328
  0
LINE
  5
216
330
1F
100
AcDbEntity
  8
0
  6
Continuous
 62
     7
370
     0
100
AcDbLine
 10
5.1918293277
 20
6.8048532307
 30
0.0
 11
5.1540060023
 21
6.7830182897
 31
0.0
  0
ARC
  5
217
330
1F
100
AcDbEntity
  8
0
  6
Continuous
 62
     7
370
     0
100
AcDbCircle
 10
4.3078335817
 20
6.5178528501
 30
0.0
 40
0.9294179346792388
100
AcDbArc
 50
17.9866764722
 51
19.3442653073
  0
LINE
  5
218
330
1F
100
AcDbEntity
  8
0
  6
Continuous
 62
     7
370
     0
100
AcDbLine
 10
5.1274783279
 20
6.7926360219
 30
0.0
 11
5.1847815268
 21
6.8257164545
 31
0.0
  0
ARC
  5
219
330
1F
100
AcDbEntity
  8
0
  6
Continuous
 62
     7
370
     0
100
AcDbCircle
 10
4.2484867691
 20
6.4840714376
 30
0.0
 40
0.9315783719434299
100
AcDbArc
 50
18.2342686205
 51
19.3433103112
  0
LINE
  5
21A
330
1F
100
AcDbEntity
  8
0
  6
Continuous
 62
     7
370
     0
100
AcDbLine
 10
5.1267595284
 20
6.846481558
 30
0.0
 11
5.1429219691
 21
6.8558119364
 31
0.0
  0
ARC
  5
21B
330
1F
100
AcDbEntity
  8
0
  6
Continuous
 62
     7
370
     0
100
AcDbCircle
 10
4.2236253937
 20
6.4783734654
 30
0.0
 40
0.975271671435114
100
AcDbArc
 50
20.9203617561
 51
22.1752987632
  0
LINE
  5
21C
330
1F
100
AcDbEntity
  8
0
  6
Continuous
 62
     7
370
     0
100
AcDbLine
 10
5.1507672936
 20
6.8359440742
 30
0.0
 11
5.1346048529
 21
6.8266136958
 31
0.0
  0
ARC
  5
21D
330
1F
100
AcDbEntity
  8
0
  6
Continuous
 62
     7
370
     0
100
AcDbCircle
 10
4.2397878344
 20
6.4877038438
 30
0.0
 40
0.9752716714382638
100
AcDbArc
 50
20.9203617561
 51
22.1752987632
  0
ARC
  5
21E
330
1F
100
AcDbEntity
  8
0
  6
Continuous
 62
     7
370
     0
100
AcDbCircle
 10
5.0889251261
 20
6.8428897038
 30
0.0
 40
0.0349606504470752
100
AcDbArc
 50
30.6824176828
 51
83.2170960857
  0
LINE
  5
21F
330
1F
100
AcDbEntity
  8
0
  6
Continuous
 62
     7
370
     0
100
AcDbLine
 10
5.1322154118
 20
6.8683633366
 30
0.0
 11
5.1189915967
 21
6.8607293906
 31
0.0
  0
ARC
  5
220
330
1F
100
AcDbEntity
  8
0
  6
Continuous
 62
     7
370
     0
100
AcDbCircle
 10
5.0807390211
 20
6.8311310238
 30
0.0
 40
0.0635300237065405
100
AcDbArc
 50
35.8778060454
 51
58.1666559989
  0
LINE
  5
221
330
1F
100
AcDbEntity
  8
0
  6
Continuous
 62
     7
370
     0
100
AcDbLine
 10
5.1520712773
 20
6.906940176
 30
0.0
 11
5.1142479519
 21
6.885105235
 31
0.0
  0
ARC
  5
222
330
1F
100
AcDbEntity
  8
0
  6
Continuous
 62
     7
370
     0
100
AcDbCircle
 10
4.2265335271
 20
6.4857407526
 30
0.0
 40
1.016872204983274
100
AcDbArc
 50
24.4696250114
 51
25.7482125217
  0
LINE
  5
223
330
1F
100
AcDbEntity
  8
0
  6
Continuous
 62
     7
370
     0
100
AcDbLine
 10
5.0851391147
 20
6.8944070531
 30
0.0
 11
5.1424423136
 21
6.9274874857
 31
0.0
  0
ARC
  5
224
330
1F
100
AcDbEntity
  8
0
  6
Continuous
 62
     7
370
     0
100
AcDbCircle
 10
4.1682836485
 20
6.4522115988
 30
0.0
 40
1.017919822832953
100
AcDbArc
 50
24.7024089101
 51
25.7478137018
  0
LINE
  5
225
330
1F
100
AcDbEntity
  8
0
  6
Continuous
 62
     7
370
     0
100
AcDbLine
 10
5.058541449
 20
6.9783815648
 30
0.0
 11
5.1018517394
 21
7.0033840632
 31
0.0
  0
SPLINE
  5
226
330
1F
100
AcDbEntity
  8
0
  6
Continuous
 62
     7
370
     0
100
AcDbSpline
210
0.0
220
0.0
230
1.0
 70
    24
 71
     1
 72
     4
 73
     2
 74
     0
 42
0.00000001
 43
0.00000001
 40
0.0
 40
0.0
 40
1.0
 40
1.0
 10
5.094076426990815
 20
7.016357998807124
 30
0.0
 10
5.058541449029642
 20
6.978381564823138
 30
0.0
  0
ARC
  5
227
330
1F
100
AcDbEntity
  8
0
  6
Continuous
 62
     7
370
     0
100
AcDbCircle
 10
4.2094891917
 20
6.47743049
 30
0.0
 40
1.035826933729939
100
AcDbArc
 50
31.351519167
 51
32.3767675992
  0
SPLINE
  5
228
330
1F
100
AcDbEntity
  8
0
  6
Continuous
 62
     7
370
     0
100
AcDbSpline
210
0.0
220
0.0
230
1.0
 70
    24
 71
     1
 72
     4
 73
     2
 74
     0
 42
0.00000001
 43
0.00000001
 40
0.0
 40
0.0
 40
1.0
 40
1.0
 10
5.032797240601673
 20
7.019798395200032
 30
0.0
 10
5.084291777993703
 20
7.032099645086292
 30
0.0
  0
LINE
  5
229
330
1F
100
AcDbEntity
  8
0
  6
Continuous
 62
     7
370
     0
100
AcDbLine
 10
5.0761075309
 20
7.0448008936
 30
0.0
 11
5.0327972406
 21
7.0197983952
 31
0.0
  0
ARC
  5
22A
330
1F
100
AcDbEntity
  8
0
  6
Continuous
 62
     7
370
     0
100
AcDbCircle
 10
4.2180729046
 20
6.4829882611
 30
0.0
 40
1.02560072837521
100
AcDbArc
 50
33.2154499567
 51
34.3712010235
  0
LINE
  5
22B
330
1F
100
AcDbEntity
  8
0
  6
Continuous
 62
     7
370
     0
100
AcDbLine
 10
5.0080325033
 20
7.0293370836
 30
0.0
 11
5.0646010458
 21
7.0619934081
 31
0.0
  0
ARC
  5
22C
330
1F
100
AcDbEntity
  8
0
  6
Continuous
 62
     7
370
     0
100
AcDbCircle
 10
4.1596608385
 20
6.4490944119
 30
0.0
 40
1.0278210153763
100
AcDbArc
 50
32.5290353705
 51
34.3701242707
  0
SPLINE
  5
22D
330
1F
100
AcDbEntity
  8
0
  6
Continuous
 62
     7
370
     0
100
AcDbSpline
210
0.0
220
0.0
230
1.0
 70
    24
 71
     1
 72
     4
 73
     2
 74
     0
 42
0.00000001
 43
0.00000001
 40
0.0
 40
0.0
 40
1.0
 40
1.0
 10
5.066953091430114
 20
7.011465302076698
 30
0.0
 10
5.026236320749367
 20
7.001781460129617
 30
0.0
  0
SPLINE
  5
22E
330
1F
100
AcDbEntity
  8
0
  6
Continuous
 62
     7
370
     0
100
AcDbSpline
210
0.0
220
0.0
230
1.0
 70
    24
 71
     1
 72
     4
 73
     2
 74
     0
 42
0.00000001
 43
0.00000001
 40
0.0
 40
0.0
 40
1.0
 40
1.0
 10
5.038881060766711
 20
6.981441310275536
 30
0.0
 10
5.066953091430114
 20
7.011465302076698
 30
0.0
  0
ARC
  5
22F
330
1F
100
AcDbEntity
  8
0
  6
Continuous
 62
     7
370
     0
100
AcDbCircle
 10
4.1502619627
 20
6.4431576131
 30
0.0
 40
1.038938515986448
100
AcDbArc
 50
29.3713156291
 51
31.2055116696
  0
LINE
  5
230
330
1F
100
AcDbEntity
  8
0
  6
Continuous
 62
     7
370
     0
100
AcDbLine
 10
5.11222331
 20
6.9853795459
 30
0.0
 11
5.0556547675
 21
6.9527232214
 31
0.0
  0
ARC
  5
231
330
1F
100
AcDbEntity
  8
0
  6
Continuous
 62
     7
370
     0
100
AcDbCircle
 10
4.2066810104
 20
6.4757280163
 30
0.0
 40
1.039110936313461
100
AcDbArc
 50
29.3714013484
 51
30.5171124832
  0
ARC
  5
232
330
1F
100
AcDbEntity
  8
0
  6
Continuous
 62
     7
370
     0
100
AcDbCircle
 10
4.2289425845
 20
6.4983915907
 30
0.0
 40
0.96047583087591
100
AcDbArc
 50
39.2051364384
 51
39.6881106506
  0
LINE
  5
233
330
1F
100
AcDbEntity
  8
0
  6
Continuous
 62
     7
370
     0
100
AcDbLine
 10
4.9849581149
 20
7.1122929139
 30
0.0
 11
4.9732036126
 21
7.1055071841
 31
0.0
  0
ARC
  5
234
330
1F
100
AcDbEntity
  8
0
  6
Continuous
 62
     7
370
     0
100
AcDbCircle
 10
4.2406970868
 20
6.5051773205
 30
0.0
 40
0.9604758308505655
100
AcDbArc
 50
39.2051364384
 51
39.6881106506
  0
LINE
  5
235
330
1F
100
AcDbEntity
  8
0
  6
Continuous
 62
     7
370
     0
100
AcDbLine
 10
4.9940939422
 20
7.1267886124
 30
0.0
 11
4.9798140585
 21
7.118545011
 31
0.0
  0
SPLINE
  5
236
330
1F
100
AcDbEntity
  8
0
  6
Continuous
 62
     7
370
     0
100
AcDbSpline
210
0.0
220
0.0
230
1.0
 70
     8
 71
     3
 72
    13
 73
     9
 74
     0
 42
0.00000001
 43
0.00000001
 40
0.0
 40
0.0
 40
0.0
 40
0.0
 40
0.2501169684099825
 40
0.3749835486738725
 40
0.499682713420276
 40
0.6244446207057345
 40
0.7495630419260039
 40
1.0
 40
1.0
 40
1.0
 40
1.0
 10
4.997440698214439
 20
7.150681297830185
 30
0.0
 10
4.999265884430121
 20
7.148478392486746
 30
0.0
 10
5.002002263367138
 20
7.145175724665661
 30
0.0
 10
5.004077493729434
 20
7.140158076120442
 30
0.0
 10
5.004019815452846
 20
7.136428637833714
 30
0.0
 10
5.002585428283954
 20
7.133205137976367
 30
0.0
 10
4.999222173865102
 20
7.129921609002422
 30
0.0
 10
4.996145562755666
 20
7.12804201136518
 30
0.0
 10
4.994093942222707
 20
7.126788612424234
 30
0.0
  0
SPLINE
  5
237
330
1F
100
AcDbEntity
  8
0
  6
Continuous
 62
     7
370
     0
100
AcDbSpline
210
0.0
220
0.0
230
1.0
 70
    24
 71
     1
 72
     4
 73
     2
 74
     0
 42
0.00000001
 43
0.00000001
 40
0.0
 40
0.0
 40
1.0
 40
1.0
 10
4.986388323938465
 20
7.161090549786659
 30
0.0
 10
4.997440698214439
 20
7.150681297830185
 30
0.0
  0
SPLINE
  5
238
330
1F
100
AcDbEntity
  8
0
  6
Continuous
 62
     7
370
     0
100
AcDbSpline
210
0.0
220
0.0
230
1.0
 70
    24
 71
     1
 72
     4
 73
     2
 74
     0
 42
0.00000001
 43
0.00000001
 40
0.0
 40
0.0
 40
1.0
 40
1.0
 10
4.976723858476408
 20
7.153676828797583
 30
0.0
 10
4.986388323938465
 20
7.161090549786659
 30
0.0
  0
SPLINE
  5
239
330
1F
100
AcDbEntity
  8
0
  6
Continuous
 62
     7
370
     0
100
AcDbSpline
210
0.0
220
0.0
230
1.0
 70
    24
 71
     1
 72
     4
 73
     2
 74
     0
 42
0.00000001
 43
0.00000001
 40
0.0
 40
0.0
 40
1.0
 40
1.0
 10
4.982253480987444
 20
7.149104926830197
 30
0.0
 10
4.976723858476408
 20
7.153676828797583
 30
0.0
  0
ARC
  5
23A
330
1F
100
AcDbEntity
  8
0
  6
Continuous
 62
     7
370
     0
100
AcDbCircle
 10
4.9800273531
 20
7.1463409646
 30
0.0
 40
0.003548962204287
100
AcDbArc
 50
345.9251753874
 51
51.1516205905
  0
SPLINE
  5
23B
330
1F
100
AcDbEntity
  8
0
  6
Continuous
 62
     7
370
     0
100
AcDbSpline
210
0.0
220
0.0
230
1.0
 70
     8
 71
     3
 72
     9
 73
     5
 74
     0
 42
0.00000001
 43
0.00000001
 40
0.0
 40
0.0
 40
0.0
 40
0.0
 40
0.50177380758129
 40
1.0
 40
1.0
 40
1.0
 40
1.0
 10
4.980500195340455
 20
7.142964123133789
 30
0.0
 10
4.981091852388245
 20
7.143298967781125
 30
0.0
 10
4.982270983380834
 20
7.14396628967453
 30
0.0
 10
4.983071121854755
 20
7.144975220713881
 30
0.0
 10
4.983469771800024
 20
7.145477896584031
 30
0.0
  0
LINE
  5
23C
330
1F
100
AcDbEntity
  8
0
  6
Continuous
 62
     7
370
     0
100
AcDbLine
 10
4.9661284796
 20
7.1346675082
 30
0.0
 11
4.9805001953
 21
7.1429641231
 31
0.0
  0
ARC
  5
23D
330
1F
100
AcDbEntity
  8
0
  6
Continuous
 62
     7
370
     0
100
AcDbCircle
 10
4.264433148
 20
6.5253812198
 30
0.0
 40
0.9293041050798118
100
AcDbArc
 50
40.9679791828
 51
41.7085500404
  0
LINE
  5
23E
330
1F
100
AcDbEntity
  8
0
  6
Continuous
 62
     7
370
     0
100
AcDbLine
 10
4.9464403138
 20
7.1369003238
 30
0.0
 11
4.9581948161
 21
7.1436860536
 31
0.0
  0
ARC
  5
23F
330
1F
100
AcDbEntity
  8
0
  6
Continuous
 62
     7
370
     0
100
AcDbCircle
 10
4.2526786456
 20
6.51859549
 30
0.0
 40
0.929304105102629
100
AcDbArc
 50
40.9679791828
 51
41.7085500404
  0
LINE
  5
240
330
1F
100
AcDbEntity
  8
0
  6
Continuous
 62
     7
370
     0
100
AcDbLine
 10
4.9389461929
 20
7.1189755082
 30
0.0
 11
4.9543739773
 21
7.1278817785
 31
0.0
  0
SPLINE
  5
241
330
1F
100
AcDbEntity
  8
0
  6
Continuous
 62
     7
370
     0
100
AcDbSpline
210
0.0
220
0.0
230
1.0
 70
    24
 71
     1
 72
     4
 73
     2
 74
     0
 42
0.00000001
 43
0.00000001
 40
0.0
 40
0.0
 40
1.0
 40
1.0
 10
4.960609681172039
 20
7.107458559971419
 30
0.0
 10
4.938946192939558
 20
7.118975508159777
 30
0.0
  0
LINE
  5
242
330
1F
100
AcDbEntity
  8
0
  6
Continuous
 62
     7
370
     0
100
AcDbLine
 10
4.9680595562
 20
7.1117592813
 30
0.0
 11
4.9606096812
 21
7.10745856
 31
0.0
  0
LINE
  5
243
330
1F
100
AcDbEntity
  8
0
  6
Continuous
 62
     7
370
     0
100
AcDbLine
 10
4.8970971847
 20
7.2203811585
 30
0.0
 11
4.9166344532
 21
7.2316597835
 31
0.0
  0
ARC
  5
244
330
1F
100
AcDbEntity
  8
0
  6
Continuous
 62
     7
370
     0
100
AcDbCircle
 10
4.8889559102
 20
7.2312061311
 30
0.0
 40
0.0135447547481095
100
AcDbArc
 50
230.4225960265
 51
306.9461919403
  0
SPLINE
  5
245
330
1F
100
AcDbEntity
  8
0
  6
Continuous
 62
     7
370
     0
100
AcDbSpline
210
0.0
220
0.0
230
1.0
 70
     8
 71
     3
 72
    14
 73
    10
 74
     0
 42
0.00000001
 43
0.00000001
 40
0.0
 40
0.0
 40
0.0
 40
0.0
 40
0.2862256784701821
 40
0.4003765273135926
 40
0.499837519989104
 40
0.6220848349041033
 40
0.7496735307787064
 40
0.8747568150766916
 40
1.0
 40
1.0
 40
1.0
 40
1.0
 10
4.881439342624978
 20
7.229877435511561
 30
0.0
 10
4.880464471199679
 20
7.229248240984739
 30
0.0
 10
4.879100807261753
 20
7.228368114781527
 30
0.0
 10
4.877956542612846
 20
7.226920935893816
 30
0.0
 10
4.877525389349088
 20
7.225813543422929
 30
0.0
 10
4.877572083319206
 20
7.224551337353557
 30
0.0
 10
4.878137793621709
 20
7.223202988860978
 30
0.0
 10
4.879084036244683
 20
7.2219170742319
 30
0.0
 10
4.879912019209019
 20
7.221150064086054
 30
0.0
 10
4.880326275135843
 20
7.220766314042229
 30
0.0
  0
LINE
  5
246
330
1F
100
AcDbEntity
  8
0
  6
Continuous
 62
     7
370
     0
100
AcDbLine
 10
4.9038119257
 20
7.2427928528
 30
0.0
 11
4.8814393426
 21
7.2298774355
 31
0.0
  0
ARC
  5
247
330
1F
100
AcDbEntity
  8
0
  6
Continuous
 62
     7
370
     0
100
AcDbCircle
 10
4.4185037437
 20
6.6713916708
 30
0.0
 40
0.7496821608667408
100
AcDbArc
 50
49.6577561754
 51
51.153269225
  0
LINE
  5
248
330
1F
100
AcDbEntity
  8
0
  6
Continuous
 62
     7
370
     0
100
AcDbLine
 10
4.8627109022
 20
7.2402414077
 30
0.0
 11
4.8887338092
 21
7.2552641122
 31
0.0
  0
SPLINE
  5
249
330
1F
100
AcDbEntity
  8
0
  6
Continuous
 62
     7
370
     0
100
AcDbSpline
210
0.0
220
0.0
230
1.0
 70
     8
 71
     3
 72
    13
 73
     9
 74
     0
 42
0.00000001
 43
0.00000001
 40
0.0
 40
0.0
 40
0.0
 40
0.0
 40
0.2494371146689695
 40
0.3754477577659153
 40
0.4996183605642684
 40
0.6192560375265287
 40
0.749843684999688
 40
1.0
 40
1.0
 40
1.0
 40
1.0
 10
4.860829989938988
 20
7.219556517800155
 30
0.0
 10
4.858990571348551
 20
7.221318123219495
 30
0.0
 10
4.856221915263471
 20
7.223969656475233
 30
0.0
 10
4.854573618047695
 20
7.227999940365955
 30
0.0
 10
4.854370161885995
 20
7.23096755497988
 30
0.0
 10
4.855293134718024
 20
7.233779395921801
 30
0.0
 10
4.857820717545764
 20
7.237082849312087
 30
0.0
 10
4.860771910200071
 20
7.238989017511325
 30
0.0
 10
4.862710902152726
 20
7.240241407724934
 30
0.0
  0
ARC
  5
24A
330
1F
100
AcDbEntity
  8
0
  6
Continuous
 62
     7
370
     0
100
AcDbCircle
 10
4.8839592712
 20
7.2465611014
 30
0.0
 40
0.0355557475558115
100
AcDbArc
 50
229.4201222115
 51
265.3244576351
  0
LINE
  5
24B
330
1F
100
AcDbEntity
  8
0
  6
Continuous
 62
     7
370
     0
100
AcDbLine
 10
4.8600659107
 20
7.1990034591
 30
0.0
 11
4.881061013
 21
7.2111236736
 31
0.0
  0
ARC
  5
24C
330
1F
100
AcDbEntity
  8
0
  6
Continuous
 62
     7
370
     0
100
AcDbCircle
 10
4.3251966974
 20
6.5963987145
 30
0.0
 40
0.8057403760133832
100
AcDbArc
 50
46.9825718973
 51
48.4078867071
  0
LINE
  5
24D
330
1F
100
AcDbEntity
  8
0
  6
Continuous
 62
     7
370
     0
100
AcDbLine
 10
4.9314580757
 20
7.2181690684
 30
0.0
 11
4.8748895333
 21
7.185512744
 31
0.0
  0
ARC
  5
24E
330
1F
100
AcDbEntity
  8
0
  6
Continuous
 62
     7
370
     0
100
AcDbCircle
 10
4.3817652398
 20
6.629055039
 30
0.0
 40
0.8057403760154985
100
AcDbArc
 50
46.9825718973
 51
48.4078867071
  0
LINE
  5
24F
330
1F
100
AcDbEntity
  8
0
  6
Continuous
 62
     7
370
     0
100
AcDbLine
 10
4.7623904572
 20
7.2944142796
 30
0.0
 11
4.7430598107
 21
7.2832549349
 31
0.0
  0
SPLINE
  5
250
330
1F
100
AcDbEntity
  8
0
  6
Continuous
 62
     7
370
     0
100
AcDbSpline
210
0.0
220
0.0
230
1.0
 70
     8
 71
     3
 72
    11
 73
     7
 74
     0
 42
0.00000001
 43
0.00000001
 40
0.0
 40
0.0
 40
0.0
 40
0.0
 40
0.4989329945542874
 40
0.7492901348338215
 40
0.8746213841025496
 40
0.9999999999999999
 40
0.9999999999999999
 40
0.9999999999999999
 40
0.9999999999999999
 10
4.76977102676934
 20
7.284829957125453
 30
0.0
 10
4.767729673877504
 20
7.286230621383294
 30
0.0
 10
4.764664000530058
 20
7.288334118089405
 30
0.0
 10
4.762979767726332
 20
7.291332893445218
 30
0.0
 10
4.762453821266138
 20
7.293084262593248
 30
0.0
 10
4.762411581182905
 20
7.293970884752377
 30
0.0
 10
4.762390457151077
 20
7.294414279586729
 30
0.0
  0
ARC
  5
251
330
1F
100
AcDbEntity
  8
0
  6
Continuous
 62
     7
370
     0
100
AcDbCircle
 10
4.7877235613
 20
7.3177507936
 30
0.0
 40
0.037497666203637
100
AcDbArc
 50
241.3952887351
 51
302.7498141972
  0
SPLINE
  5
252
330
1F
100
AcDbEntity
  8
0
  6
Continuous
 62
     7
370
     0
100
AcDbSpline
210
0.0
220
0.0
230
1.0
 70
     8
 71
     3
 72
    13
 73
     9
 74
     0
 42
0.00000001
 43
0.00000001
 40
0.0
 40
0.0
 40
0.0
 40
0.0
 40
0.1251769627290468
 40
0.2502035253638935
 40
0.3715292301675172
 40
0.5002657486418411
 40
0.7499196546721828
 40
1.0
 40
1.0
 40
1.0
 40
1.0
 10
4.812484401270067
 20
7.309367151776095
 30
0.0
 10
4.813716774194782
 20
7.308554439633821
 30
0.0
 10
4.816180039348406
 20
7.30692999182274
 30
0.0
 10
4.818600126586174
 20
7.303945950803926
 30
0.0
 10
4.819576425867448
 20
7.300650455877149
 30
0.0
 10
4.818767019634562
 20
7.296257674889865
 30
0.0
 10
4.815338386838554
 20
7.291023377703604
 30
0.0
 10
4.810453344600312
 20
7.287817856121078
 30
0.0
 10
4.808008739199421
 20
7.286213727642521
 30
0.0
  0
SPLINE
  5
253
330
1F
100
AcDbEntity
  8
0
  6
Continuous
 62
     7
370
     0
100
AcDbSpline
210
0.0
220
0.0
230
1.0
 70
    24
 71
     1
 72
     4
 73
     2
 74
     0
 42
0.00000001
 43
0.00000001
 40
0.0
 40
0.0
 40
1.0
 40
1.0
 10
4.803198026624153
 20
7.31280820921714
 30
0.0
 10
4.812484401270067
 20
7.309367151776095
 30
0.0
  0
SPLINE
  5
254
330
1F
100
AcDbEntity
  8
0
  6
Continuous
 62
     7
370
     0
100
AcDbSpline
210
0.0
220
0.0
230
1.0
 70
    24
 71
     1
 72
     4
 73
     2
 74
     0
 42
0.00000001
 43
0.00000001
 40
0.0
 40
0.0
 40
1.0
 40
1.0
 10
4.792614857100846
 20
7.313138082066428
 30
0.0
 10
4.803198026624153
 20
7.31280820921714
 30
0.0
  0
LINE
  5
255
330
1F
100
AcDbEntity
  8
0
  6
Continuous
 62
     7
370
     0
100
AcDbLine
 10
4.7985035873
 20
7.3165375736
 30
0.0
 11
4.7926148571
 21
7.3131380821
 31
0.0
  0
ARC
  5
256
330
1F
100
AcDbEntity
  8
0
  6
Continuous
 62
     7
370
     0
100
AcDbCircle
 10
4.5384957511
 20
6.8484593742
 30
0.0
 40
0.5354449324440007
100
AcDbArc
 50
60.9487266691
 51
62.6839469274
  0
LINE
  5
257
330
1F
100
AcDbEntity
  8
0
  6
Continuous
 62
     7
370
     0
100
AcDbLine
 10
4.7276420894
 20
7.2915398183
 30
0.0
 11
4.7842106319
 21
7.3241961428
 31
0.0
  0
ARC
  5
258
330
1F
100
AcDbEntity
  8
0
  6
Continuous
 62
     7
370
     0
100
AcDbCircle
 10
4.4814125768
 20
6.8148317553
 30
0.0
 40
0.5365440803767473
100
AcDbArc
 50
60.8135753481
 51
62.6827168558
  0
LINE
  5
259
330
1F
100
AcDbEntity
  8
0
  6
Continuous
 62
     7
370
     0
100
AcDbLine
 10
4.7089605435
 20
7.3364220666
 30
0.0
 11
4.7295309226
 21
7.3482970936
 31
0.0
  0
ARC
  5
25A
330
1F
100
AcDbEntity
  8
0
  6
Continuous
 62
     7
370
     0
100
AcDbCircle
 10
4.5676110488
 20
6.948229255
 30
0.0
 40
0.4131262985782471
100
AcDbArc
 50
69.9923283062
 51
71.3581047189
  0
ARC
  5
25B
330
1F
100
AcDbEntity
  8
0
  6
Continuous
 62
     7
370
     0
100
AcDbCircle
 10
4.685231601
 20
7.2956040765
 30
0.0
 40
0.0463806641813452
100
AcDbArc
 50
71.8651447753
 51
121.3004731494
  0
SPLINE
  5
25C
330
1F
100
AcDbEntity
  8
0
  6
Continuous
 62
     7
370
     0
100
AcDbSpline
210
0.0
220
0.0
230
1.0
 70
     8
 71
     3
 72
    13
 73
     9
 74
     0
 42
0.00000001
 43
0.00000001
 40
0.0
 40
0.0
 40
0.0
 40
0.0
 40
0.250070892387462
 40
0.3787289805500592
 40
0.5002560144199663
 40
0.6252705329656836
 40
0.7503456335436219
 40
1.0
 40
1.0
 40
1.0
 40
1.0
 10
4.66190592594578
 20
7.319489880825067
 30
0.0
 10
4.659618810087262
 20
7.320345037102644
 30
0.0
 10
4.656155004087187
 20
7.321640159706182
 30
0.0
 10
4.653374019802752
 20
7.324016437563651
 30
0.0
 10
4.652472144556112
 20
7.326105182033882
 30
0.0
 10
4.652989780621333
 20
7.328391928296751
 30
0.0
 10
4.655335592754531
 20
7.33156148066237
 30
0.0
 10
4.658816537664309
 20
7.333765722943156
 30
0.0
 10
4.661135632298095
 20
7.335234245593591
 30
0.0
  0
ARC
  5
25D
330
1F
100
AcDbEntity
  8
0
  6
Continuous
 62
     7
370
     0
100
AcDbCircle
 10
4.5271943583
 20
6.9148523976
 30
0.0
 40
0.4264723898322618
100
AcDbArc
 50
67.505203366
 51
71.5864116026
  0
LINE
  5
25E
330
1F
100
AcDbEntity
  8
0
  6
Continuous
 62
     7
370
     0
100
AcDbLine
 10
4.7469310358
 20
7.3415326541
 30
0.0
 11
4.6903624933
 21
7.3088763296
 31
0.0
  0
ARC
  5
25F
330
1F
100
AcDbEntity
  8
0
  6
Continuous
 62
     7
370
     0
100
AcDbCircle
 10
4.5802140756
 20
6.9384492685
 30
0.0
 40
0.4362003674631006
100
AcDbArc
 50
67.5298098503
 51
69.9821719469
  0
LINE
  5
260
330
1F
100
AcDbEntity
  8
0
  6
Continuous
 62
     7
370
     0
100
AcDbLine
 10
4.5710551435
 20
7.336901862
 30
0.0
 11
4.5813403331
 21
7.3428393755
 31
0.0
  0
ARC
  5
261
330
1F
100
AcDbEntity
  8
0
  6
Continuous
 62
     7
370
     0
100
AcDbCircle
 10
4.5596700669
 20
7.0545851478
 30
0.0
 40
0.2825461857514019
100
AcDbArc
 50
84.8243075718
 51
87.6906660746
  0
LINE
  5
262
330
1F
100
AcDbEntity
  8
0
  6
Continuous
 62
     7
370
     0
100
AcDbLine
 10
4.5954437679
 20
7.3419168384
 30
0.0
 11
4.5851585783
 21
7.3359793248
 31
0.0
  0
ARC
  5
263
330
1F
100
AcDbEntity
  8
0
  6
Continuous
 62
     7
370
     0
100
AcDbCircle
 10
4.5699552564
 20
7.0605226613
 30
0.0
 40
0.2825461857531398
100
AcDbArc
 50
84.8243075718
 51
87.6906660746
  0
LINE
  5
264
330
1F
100
AcDbEntity
  8
0
  6
Continuous
 62
     7
370
     0
100
AcDbLine
 10
4.5904158685
 20
7.3616092963
 30
0.0
 11
4.6040070119
 21
7.3694552964
 31
0.0
  0
ARC
  5
265
330
1F
100
AcDbEntity
  8
0
  6
Continuous
 62
     7
370
     0
100
AcDbCircle
 10
4.531731703
 20
7.4589214117
 30
0.0
 40
0.1136374897550177
100
AcDbArc
 50
292.3530567544
 51
301.0921186164
  0
ARC
  5
266
330
1F
100
AcDbEntity
  8
0
  6
Continuous
 62
     7
370
     0
100
AcDbCircle
 10
4.5653180608
 20
7.3772827409
 30
0.0
 40
0.0253600007325576
100
AcDbArc
 50
276.403449198
 51
292.3205637071
  0
SPLINE
  5
267
330
1F
100
AcDbEntity
  8
0
  6
Continuous
 62
     7
370
     0
100
AcDbSpline
210
0.0
220
0.0
230
1.0
 70
    24
 71
     1
 72
     4
 73
     2
 74
     0
 42
0.00000001
 43
0.00000001
 40
0.0
 40
0.0
 40
1.0
 40
1.0
 10
4.565380596096571
 20
7.35241211863252
 30
0.0
 10
4.568146430169808
 20
7.352080955983905
 30
0.0
  0
SPLINE
  5
268
330
1F
100
AcDbEntity
  8
0
  6
Continuous
 62
     7
370
     0
100
AcDbSpline
210
0.0
220
0.0
230
1.0
 70
    24
 71
     1
 72
     4
 73
     2
 74
     0
 42
0.00000001
 43
0.00000001
 40
0.0
 40
0.0
 40
1.0
 40
1.0
 10
4.549469798256393
 20
7.345268003385972
 30
0.0
 10
4.565380596096571
 20
7.35241211863252
 30
0.0
  0
ARC
  5
269
330
1F
100
AcDbEntity
  8
0
  6
Continuous
 62
     7
370
     0
100
AcDbCircle
 10
4.5527952449
 20
7.3539170261
 30
0.0
 40
0.0092662932164332
100
AcDbArc
 50
248.9688402474
 51
278.4735943416
  0
ARC
  5
26A
330
1F
100
AcDbEntity
  8
0
  6
Continuous
 62
     7
370
     0
100
AcDbCircle
 10
4.5469915926
 20
7.3983878663
 30
0.0
 40
0.0541129755494563
100
AcDbArc
 50
277.6131253572
 51
296.0987979147
  0
LINE
  5
26B
330
1F
100
AcDbEntity
  8
0
  6
Continuous
 62
     7
370
     0
100
AcDbLine
 10
4.5637947968
 20
7.3457501422
 30
0.0
 11
4.5707969906
 21
7.3497924226
 31
0.0
  0
ARC
  5
26C
330
1F
100
AcDbEntity
  8
0
  6
Continuous
 62
     7
370
     0
100
AcDbCircle
 10
4.5756911861
 20
7.0887687453
 30
0.0
 40
0.2572566081342448
100
AcDbArc
 50
89.8080952146
 51
92.6504899872
  0
LINE
  5
26D
330
1F
100
AcDbEntity
  8
0
  6
Continuous
 62
     7
370
     0
100
AcDbLine
 10
4.6176935903
 20
7.3697739646
 30
0.0
 11
4.5765528321
 21
7.3460239104
 31
0.0
  0
ARC
  5
26E
330
1F
100
AcDbEntity
  8
0
  6
Continuous
 62
     7
370
     0
100
AcDbCircle
 10
4.6168255376
 20
7.1129823672
 30
0.0
 40
0.2567930645079658
100
AcDbArc
 50
89.8063193396
 51
92.8612641176
  0
SPLINE
  5
26F
330
1F
100
AcDbEntity
  8
0
  6
Continuous
 62
     7
370
     0
100
AcDbSpline
210
0.0
220
0.0
230
1.0
 70
    24
 71
     1
 72
     4
 73
     2
 74
     0
 42
0.00000001
 43
0.00000001
 40
0.0
 40
0.0
 40
1.0
 40
1.0
 10
5.304506394127918
 20
6.888692934727023
 30
0.0
 10
5.308710897170661
 20
6.879058841352175
 30
0.0
  0
SPLINE
  5
270
330
1F
100
AcDbEntity
  8
0
  6
Continuous
 62
     7
370
     0
100
AcDbSpline
210
0.0
220
0.0
230
1.0
 70
    24
 71
     1
 72
     4
 73
     2
 74
     0
 42
0.00000001
 43
0.00000001
 40
0.0
 40
0.0
 40
1.0
 40
1.0
 10
5.299608566430443
 20
6.896143643257593
 30
0.0
 10
5.304506394127918
 20
6.888692934727023
 30
0.0
  0
ARC
  5
271
330
1F
100
AcDbEntity
  8
0
  6
Continuous
 62
     7
370
     0
100
AcDbCircle
 10
5.2897088851
 20
6.8857540489
 30
0.0
 40
0.0143508662203355
100
AcDbArc
 50
46.3832182712
 51
121.3521707771
  0
ARC
  5
272
330
1F
100
AcDbEntity
  8
0
  6
Continuous
 62
     7
370
     0
100
AcDbCircle
 10
5.2944181569
 20
6.8799893909
 30
0.0
 40
0.0217480611997677
100
AcDbArc
 50
124.0464782728
 51
196.9035688715
  0
ARC
  5
273
330
1F
100
AcDbEntity
  8
0
  6
Continuous
 62
     7
370
     0
100
AcDbCircle
 10
5.2586517196
 20
6.8638993328
 30
0.0
 40
0.0178641271952916
100
AcDbArc
 50
33.1418104541
 51
61.8559791677
  0
SPLINE
  5
274
330
1F
100
AcDbEntity
  8
0
  6
Continuous
 62
     7
370
     0
100
AcDbSpline
210
0.0
220
0.0
230
1.0
 70
     8
 71
     3
 72
     9
 73
     5
 74
     0
 42
0.00000001
 43
0.00000001
 40
0.0
 40
0.0
 40
0.0
 40
0.0
 40
0.5001271528873926
 40
1.0
 40
1.0
 40
1.0
 40
1.0
 10
5.257237708718984
 20
6.878982330440639
 30
0.0
 10
5.258846505972857
 20
6.879712165686958
 30
0.0
 10
5.262063282435772
 20
6.881171465071333
 30
0.0
 10
5.265406737986032
 20
6.880157929108321
 30
0.0
 10
5.267078040631134
 20
6.879651290000838
 30
0.0
  0
ARC
  5
275
330
1F
100
AcDbEntity
  8
0
  6
Continuous
 62
     7
370
     0
100
AcDbCircle
 10
5.2717750159
 20
6.8605692039
 30
0.0
 40
0.0234601050547202
100
AcDbArc
 50
128.291367536
 51
208.401696143
  0
ARC
  5
276
330
1F
100
AcDbEntity
  8
0
  6
Continuous
 62
     7
370
     0
100
AcDbCircle
 10
4.3957415922
 20
6.562142868
 30
0.0
 40
0.9023451908619718
100
AcDbArc
 50
15.7856098841
 51
18.5635670326
  0
LINE
  5
277
330
1F
100
AcDbEntity
  8
0
  6
Continuous
 62
     7
370
     0
100
AcDbLine
 10
5.3206245928
 20
6.8402718902
 30
0.0
 11
5.2640560503
 21
6.8076155657
 31
0.0
  0
ARC
  5
278
330
1F
100
AcDbEntity
  8
0
  6
Continuous
 62
     7
370
     0
100
AcDbCircle
 10
4.4540613971
 20
6.5953238341
 30
0.0
 40
0.900517252675193
100
AcDbArc
 50
15.783800086
 51
18.3656454857
  0
SPLINE
  5
279
330
1F
100
AcDbEntity
  8
0
  6
Continuous
 62
     7
370
     0
100
AcDbSpline
210
0.0
220
0.0
230
1.0
 70
    24
 71
     1
 72
     4
 73
     2
 74
     0
 42
0.00000001
 43
0.00000001
 40
0.0
 40
0.0
 40
1.0
 40
1.0
 10
5.18079159800419
 20
7.009730918047159
 30
0.0
 10
5.22269362653701
 20
7.068346343887933
 30
0.0
  0
ARC
  5
27A
330
1F
100
AcDbEntity
  8
0
  6
Continuous
 62
     7
370
     0
100
AcDbCircle
 10
4.2726629155
 20
6.5136990481
 30
0.0
 40
1.034768244581518
100
AcDbArc
 50
27.0884447311
 51
28.6439493866
  0
SPLINE
  5
27B
330
1F
100
AcDbEntity
  8
0
  6
Continuous
 62
     7
370
     0
100
AcDbSpline
210
0.0
220
0.0
230
1.0
 70
    24
 71
     1
 72
     4
 73
     2
 74
     0
 42
0.00000001
 43
0.00000001
 40
0.0
 40
0.0
 40
1.0
 40
1.0
 10
5.263412863137315
 20
6.991376483873478
 30
0.0
 10
5.193921905315315
 20
6.984896664471767
 30
0.0
  0
ARC
  5
27C
330
1F
100
AcDbEntity
  8
0
  6
Continuous
 62
     7
370
     0
100
AcDbCircle
 10
4.3376720902
 20
6.550644421
 30
0.0
 40
1.025300312084995
100
AcDbArc
 50
25.4584572855
 51
26.8672947145
  0
SPLINE
  5
27D
330
1F
100
AcDbEntity
  8
0
  6
Continuous
 62
     7
370
     0
100
AcDbSpline
210
0.0
220
0.0
230
1.0
 70
    24
 71
     1
 72
     4
 73
     2
 74
     0
 42
0.00000001
 43
0.00000001
 40
0.0
 40
0.0
 40
1.0
 40
1.0
 10
5.240917794258045
 20
7.012082831134825
 30
0.0
 10
5.252297017064126
 20
7.014003863639874
 30
0.0
  0
ARC
  5
27E
330
1F
100
AcDbEntity
  8
0
  6
Continuous
 62
     7
370
     0
100
AcDbCircle
 10
4.3196966214
 20
6.5408501167
 30
0.0
 40
1.034750559524819
100
AcDbArc
 50
27.0911285078
 51
28.6313926293
  0
SPLINE
  5
27F
330
1F
100
AcDbEntity
  8
0
  6
Continuous
 62
     7
370
     0
100
AcDbSpline
210
0.0
220
0.0
230
1.0
 70
    24
 71
     1
 72
     4
 73
     2
 74
     0
 42
0.00000001
 43
0.00000001
 40
0.0
 40
0.0
 40
1.0
 40
1.0
 10
5.235526160684742
 20
7.045730353119373
 30
0.0
 10
5.227918468302724
 20
7.036674478027051
 30
0.0
  0
ARC
  5
280
330
1F
100
AcDbEntity
  8
0
  6
Continuous
 62
     7
370
     0
100
AcDbCircle
 10
4.3255968597
 20
6.5443762247
 30
0.0
 40
1.038906778735162
100
AcDbArc
 50
28.8539471387
 51
30.2880528132
  0
LINE
  5
281
330
1F
100
AcDbEntity
  8
0
  6
Continuous
 62
     7
370
     0
100
AcDbLine
 10
5.1060174806
 20
7.2131478684
 30
0.0
 11
5.1155680137
 21
7.2186612738
 31
0.0
  0
ARC
  5
282
330
1F
100
AcDbEntity
  8
0
  6
Continuous
 62
     7
370
     0
100
AcDbCircle
 10
4.4005924457
 20
6.6032636286
 30
0.0
 40
0.9325144855191294
100
AcDbArc
 50
40.8454735079
 51
41.4611994298
  0
LINE
  5
283
330
1F
100
AcDbEntity
  8
0
  6
Continuous
 62
     7
370
     0
100
AcDbLine
 10
5.0861989714
 20
7.2130593713
 30
0.0
 11
5.0994227865
 21
7.2206933173
 31
0.0
  0
ARC
  5
284
330
1F
100
AcDbEntity
  8
0
  6
Continuous
 62
     7
370
     0
100
AcDbCircle
 10
4.3873686306
 20
6.5956296826
 30
0.0
 40
0.9325144855483065
100
AcDbArc
 50
40.8454735079
 51
41.4611994298
  0
LINE
  5
285
330
1F
100
AcDbEntity
  8
0
  6
Continuous
 62
     7
370
     0
100
AcDbLine
 10
5.0582648148
 20
7.1855808412
 30
0.0
 11
5.0927936655
 21
7.2055139224
 31
0.0
  0
ARC
  5
286
330
1F
100
AcDbEntity
  8
0
  6
Continuous
 62
     7
370
     0
100
AcDbCircle
 10
4.3415589814
 20
6.5659736613
 30
0.0
 40
0.9474071506802604
100
AcDbArc
 50
39.6865223905
 51
40.8441001922
  0
SPLINE
  5
287
330
1F
100
AcDbEntity
  8
0
  6
Continuous
 62
     7
370
     0
100
AcDbSpline
210
0.0
220
0.0
230
1.0
 70
    24
 71
     1
 72
     4
 73
     2
 74
     0
 42
0.00000001
 43
0.00000001
 40
0.0
 40
0.0
 40
1.0
 40
1.0
 10
5.129937017642302
 20
7.15993004040379
 30
0.0
 10
5.070635955484914
 20
7.170975376138795
 30
0.0
  0
LINE
  5
288
330
1F
100
AcDbEntity
  8
0
  6
Continuous
 62
     7
370
     0
100
AcDbLine
 10
5.1430804797
 20
7.1675175996
 30
0.0
 11
5.1299370176
 21
7.1599300404
 31
0.0
  0
ARC
  5
289
330
1F
100
AcDbEntity
  8
0
  6
Continuous
 62
     7
370
     0
100
AcDbCircle
 10
4.3686843662
 20
6.5765334871
 30
0.0
 40
0.9741414485659501
100
AcDbArc
 50
37.3492370516
 51
39.6815570005
  0
LINE
  5
28A
330
1F
100
AcDbEntity
  8
0
  6
Continuous
 62
     7
370
     0
100
AcDbLine
 10
5.1279391544
 20
7.2040558087
 30
0.0
 11
5.1183886212
 21
7.1985424033
 31
0.0
  0
ARC
  5
28B
330
1F
100
AcDbEntity
  8
0
  6
Continuous
 62
     7
370
     0
100
AcDbCircle
 10
4.3988621803
 20
6.5990540939
 30
0.0
 40
0.9474071506698063
100
AcDbArc
 50
39.6865223905
 51
40.8441001922
  0
ARC
  5
28C
330
1F
100
AcDbEntity
  8
0
  6
Continuous
 62
     7
370
     0
100
AcDbCircle
 10
5.0063754634
 20
7.2722767515
 30
0.0
 40
0.0409419438468344
100
AcDbArc
 50
47.545889321
 51
127.1601929966
  0
SPLINE
  5
28D
330
1F
100
AcDbEntity
  8
0
  6
Continuous
 62
     7
370
     0
100
AcDbSpline
210
0.0
220
0.0
230
1.0
 70
    24
 71
     1
 72
     4
 73
     2
 74
     0
 42
0.00000001
 43
0.00000001
 40
0.0
 40
0.0
 40
1.0
 40
1.0
 10
4.970132431593231
 20
7.296067038833312
 30
0.0
 10
4.981644663651174
 20
7.304905424630911
 30
0.0
  0
SPLINE
  5
28E
330
1F
100
AcDbEntity
  8
0
  6
Continuous
 62
     7
370
     0
100
AcDbSpline
210
0.0
220
0.0
230
1.0
 70
     8
 71
     3
 72
    12
 73
     8
 74
     0
 42
0.00000001
 43
0.00000001
 40
0.0
 40
0.0
 40
0.0
 40
0.0
 40
0.2503236780917599
 40
0.4997580205826762
 40
0.6249322649114017
 40
0.7501892985659857
 40
1.0
 40
1.0
 40
1.0
 40
1.0
 10
4.97556260316351
 20
7.269341635533666
 30
0.0
 10
4.97330942606012
 20
7.27144367005659
 30
0.0
 10
4.968811076811672
 20
7.275640271114793
 30
0.0
 10
4.965601775613139
 20
7.281769518033704
 30
0.0
 10
4.965313012716513
 20
7.286571784738331
 30
0.0
 10
4.966104200227482
 20
7.291241306243051
 30
0.0
 10
4.968522045885866
 20
7.294137832170309
 30
0.0
 10
4.970132431593231
 20
7.296067038833312
 30
0.0
  0
ARC
  5
28F
330
1F
100
AcDbEntity
  8
0
  6
Continuous
 62
     7
370
     0
100
AcDbCircle
 10
5.0040351364
 20
7.2980879248
 30
0.0
 40
0.0404602804662873
100
AcDbArc
 50
225.2741222066
 51
305.0788421006
  0
ARC
  5
290
330
1F
100
AcDbEntity
  8
0
  6
Continuous
 62
     7
370
     0
100
AcDbCircle
 10
5.0124372153
 20
7.2964446261
 30
0.0
 40
0.0347960549810407
100
AcDbArc
 50
295.2639463226
 51
333.0745265373
  0
ARC
  5
291
330
1F
100
AcDbEntity
  8
0
  6
Continuous
 62
     7
370
     0
100
AcDbCircle
 10
5.0225500605
 20
7.2845685859
 30
0.0
 40
0.0212682300774324
100
AcDbArc
 50
349.4866554169
 51
57.3920270516
  0
ARC
  5
292
330
1F
100
AcDbEntity
  8
0
  6
Continuous
 62
     7
370
     0
100
AcDbCircle
 10
4.9064630485
 20
7.4946592245
 30
0.0
 40
0.1543534647730654
100
AcDbArc
 50
270.1311116198
 51
293.5965941444
  0
ARC
  5
293
330
1F
100
AcDbEntity
  8
0
  6
Continuous
 62
     7
370
     0
100
AcDbCircle
 10
4.6045870938
 20
6.8298989094
 30
0.0
 40
0.6372652566506191
100
AcDbArc
 50
55.2036264138
 51
56.870221336
  0
ARC
  5
294
330
1F
100
AcDbEntity
  8
0
  6
Continuous
 62
     7
370
     0
100
AcDbCircle
 10
4.8955590402
 20
7.4786185173
 30
0.0
 40
0.1285384081512057
100
AcDbArc
 50
286.7584738687
 51
296.4819294675
  0
ARC
  5
295
330
1F
100
AcDbEntity
  8
0
  6
Continuous
 62
     7
370
     0
100
AcDbCircle
 10
4.8919996672
 20
7.492534936
 30
0.0
 40
0.1428913593331284
100
AcDbArc
 50
276.4140334821
 51
286.5161126367
  0
ARC
  5
296
330
1F
100
AcDbEntity
  8
0
  6
Continuous
 62
     7
370
     0
100
AcDbCircle
 10
4.8924398032
 20
7.4972571299
 30
0.0
 40
0.1475379817295012
100
AcDbArc
 50
267.6260820488
 51
276.0393125668
  0
LINE
  5
297
330
1F
100
AcDbEntity
  8
0
  6
Continuous
 62
     7
370
     0
100
AcDbLine
 10
4.8757564927
 20
7.3437425861
 30
0.0
 11
4.8863286574
 21
7.3498457669
 31
0.0
  0
ARC
  5
298
330
1F
100
AcDbEntity
  8
0
  6
Continuous
 62
     7
370
     0
100
AcDbCircle
 10
4.5546576238
 20
6.8066735887
 30
0.0
 40
0.6257376379785409
100
AcDbArc
 50
54.1453933876
 51
59.1259509152
  0
LINE
  5
299
330
1F
100
AcDbEntity
  8
0
  6
Continuous
 62
     7
370
     0
100
AcDbLine
 10
4.9343949996
 20
7.3214716121
 30
0.0
 11
4.9211711844
 21
7.3138376661
 31
0.0
  0
ARC
  5
29A
330
1F
100
AcDbEntity
  8
0
  6
Continuous
 62
     7
370
     0
100
AcDbCircle
 10
4.5574171061
 20
6.7990853219
 30
0.0
 40
0.644204756541889
100
AcDbArc
 50
54.1840565415
 51
57.1546861308
  0
ARC
  5
29B
330
1F
100
AcDbEntity
  8
0
  6
Continuous
 62
     7
370
     0
100
AcDbCircle
 10
4.8335085704
 20
7.3596792805
 30
0.0
 40
0.0595187994390312
100
AcDbArc
 50
73.4288808157
 51
126.6248920895
  0
SPLINE
  5
29C
330
1F
100
AcDbEntity
  8
0
  6
Continuous
 62
     7
370
     0
100
AcDbSpline
210
0.0
220
0.0
230
1.0
 70
    24
 71
     1
 72
     4
 73
     2
 74
     0
 42
0.00000001
 43
0.00000001
 40
0.0
 40
0.0
 40
1.0
 40
1.0
 10
4.786478915960963
 20
7.399417321390739
 30
0.0
 10
4.798001225804554
 20
7.407446591163666
 30
0.0
  0
SPLINE
  5
29D
330
1F
100
AcDbEntity
  8
0
  6
Continuous
 62
     7
370
     0
100
AcDbSpline
210
0.0
220
0.0
230
1.0
 70
     8
 71
     3
 72
    12
 73
     8
 74
     0
 42
0.00000001
 43
0.00000001
 40
0.0
 40
0.0
 40
0.0
 40
0.0
 40
0.2503236780917602
 40
0.4997580205826803
 40
0.6249322649114014
 40
0.7501892985659833
 40
1.0
 40
1.0
 40
1.0
 40
1.0
 10
4.79202789666344
 20
7.383375159346273
 30
0.0
 10
4.789739935188075
 20
7.384287663616804
 30
0.0
 10
4.785172140775597
 20
7.386109430265048
 30
0.0
 10
4.781935699941214
 20
7.38937686963146
 30
0.0
 10
4.781643904328016
 20
7.392379383604031
 30
0.0
 10
4.782440879512936
 20
7.395512066702938
 30
0.0
 10
4.784864610428015
 20
7.397856098669938
 30
0.0
 10
4.786478915960963
 20
7.399417321390739
 30
0.0
  0
ARC
  5
29E
330
1F
100
AcDbEntity
  8
0
  6
Continuous
 62
     7
370
     0
100
AcDbCircle
 10
4.8112379476
 20
7.4381633143
 30
0.0
 40
0.0580583153584497
100
AcDbArc
 50
250.6781008607
 51
304.8788601139
  0
ARC
  5
29F
330
1F
100
AcDbEntity
  8
0
  6
Continuous
 62
     7
370
     0
100
AcDbCircle
 10
4.8273927448
 20
7.4267756333
 30
0.0
 40
0.0400496289689539
100
AcDbArc
 50
295.1891774648
 51
325.6095481124
  0
SPLINE
  5
2A0
330
1F
100
AcDbEntity
  8
0
  6
Continuous
 62
     7
370
     0
100
AcDbSpline
210
0.0
220
0.0
230
1.0
 70
     8
 71
     3
 72
    13
 73
     9
 74
     0
 42
0.00000001
 43
0.00000001
 40
0.0
 40
0.0
 40
0.0
 40
0.0
 40
0.1650114498702352
 40
0.3381100142502149
 40
0.5003870012609235
 40
0.7497868842030779
 40
0.8748611374758769
 40
1.0
 40
1.0
 40
1.0
 40
1.0
 10
4.850483645864318
 20
7.416726053392028
 30
0.0
 10
4.851650851492957
 20
7.416267917402679
 30
0.0
 10
4.854042466814455
 20
7.415329192447476
 30
0.0
 10
4.857087148783241
 20
7.413628743983899
 30
0.0
 10
4.859899497187405
 20
7.411293402174185
 30
0.0
 10
4.861077133066985
 20
7.408687032948004
 30
0.0
 10
4.861111403695322
 20
7.40612026217191
 30
0.0
 10
4.860665175969443
 20
7.404809814623834
 30
0.0
 10
4.860442004494735
 20
7.404154421659956
 30
0.0
  0
LINE
  5
2A1
330
1F
100
AcDbEntity
  8
0
  6
Continuous
 62
     7
370
     0
100
AcDbLine
 10
4.7336857213
 20
7.425711534
 30
0.0
 11
4.7543938485
 21
7.4376660814
 31
0.0
  0
ARC
  5
2A2
330
1F
100
AcDbEntity
  8
0
  6
Continuous
 62
     7
370
     0
100
AcDbCircle
 10
4.7175976205
 20
7.4509125177
 30
0.0
 40
0.0298984375139362
100
AcDbArc
 50
272.7844079645
 51
302.5538262905
  0
SPLINE
  5
2A3
330
1F
100
AcDbEntity
  8
0
  6
Continuous
 62
     7
370
     0
100
AcDbSpline
210
0.0
220
0.0
230
1.0
 70
     8
 71
     3
 72
    11
 73
     7
 74
     0
 42
0.00000001
 43
0.00000001
 40
0.0
 40
0.0
 40
0.0
 40
0.0
 40
0.2494089566137892
 40
0.4981576612354841
 40
0.7500292138327322
 40
1.0
 40
1.0
 40
1.0
 40
1.0
 10
4.718004475486672
 20
7.423186536762029
 30
0.0
 10
4.717717610594716
 20
7.422899901238892
 30
0.0
 10
4.717144640218641
 20
7.422327388993253
 30
0.0
 10
4.717132374926024
 20
7.421657367556885
 30
0.0
 10
4.717695718988308
 20
7.421175836729409
 30
0.0
 10
4.718599731419003
 20
7.421091424648814
 30
0.0
 10
4.719050025626069
 20
7.421049378467136
 30
0.0
  0
SPLINE
  5
2A4
330
1F
100
AcDbEntity
  8
0
  6
Continuous
 62
     7
370
     0
100
AcDbSpline
210
0.0
220
0.0
230
1.0
 70
    24
 71
     1
 72
     4
 73
     2
 74
     0
 42
0.00000001
 43
0.00000001
 40
0.0
 40
0.0
 40
1.0
 40
1.0
 10
4.721352793240679
 20
7.425296162521729
 30
0.0
 10
4.718004475486672
 20
7.423186536762029
 30
0.0
  0
LINE
  5
2A5
330
1F
100
AcDbEntity
  8
0
  6
Continuous
 62
     7
370
     0
100
AcDbLine
 10
4.7437024183
 20
7.4381983264
 30
0.0
 11
4.7213527932
 21
7.4252961625
 31
0.0
  0
ARC
  5
2A6
330
1F
100
AcDbEntity
  8
0
  6
Continuous
 62
     7
370
     0
100
AcDbCircle
 10
4.7356331516
 20
7.1741735484
 30
0.0
 40
0.2641480578596745
100
AcDbArc
 50
88.2494406145
 51
91.2474062247
  0
LINE
  5
2A7
330
1F
100
AcDbEntity
  8
0
  6
Continuous
 62
     7
370
     0
100
AcDbLine
 10
4.7088876449
 20
7.4261387922
 30
0.0
 11
4.7298827472
 21
7.4382590068
 31
0.0
  0
ARC
  5
2A8
330
1F
100
AcDbEntity
  8
0
  6
Continuous
 62
     7
370
     0
100
AcDbCircle
 10
4.6912364342
 20
7.4533273895
 30
0.0
 40
0.0324158150153491
100
AcDbArc
 50
276.2456320026
 51
302.9921867745
  0
SPLINE
  5
2A9
330
1F
100
AcDbEntity
  8
0
  6
Continuous
 62
     7
370
     0
100
AcDbSpline
210
0.0
220
0.0
230
1.0
 70
     8
 71
     3
 72
    10
 73
     6
 74
     0
 42
0.00000001
 43
0.00000001
 40
0.0
 40
0.0
 40
0.0
 40
0.0
 40
0.4987030191499582
 40
0.749133174320573
 40
1.0
 40
1.0
 40
1.0
 40
1.0
 10
4.693246350977893
 20
7.422135039286609
 30
0.0
 10
4.693150220383919
 20
7.421825104619116
 30
0.0
 10
4.693005816571935
 20
7.421359532259665
 30
0.0
 10
4.693771213269855
 20
7.421094657873921
 30
0.0
 10
4.694432203206898
 20
7.421100866926464
 30
0.0
 10
4.694762986063461
 20
7.421103974157031
 30
0.0
  0
SPLINE
  5
2AA
330
1F
100
AcDbEntity
  8
0
  6
Continuous
 62
     7
370
     0
100
AcDbSpline
210
0.0
220
0.0
230
1.0
 70
     8
 71
     3
 72
     9
 73
     5
 74
     0
 42
0.00000001
 43
0.00000001
 40
0.0
 40
0.0
 40
0.0
 40
0.0
 40
0.5015771373281229
 40
1.0
 40
1.0
 40
1.0
 40
1.0
 10
4.696349835496132
 20
7.424439896199068
 30
0.0
 10
4.695628791481013
 20
7.424017186746934
 30
0.0
 10
4.694191237889635
 20
7.423174426141085
 30
0.0
 10
4.693560650266288
 20
7.422480772246468
 30
0.0
 10
4.693246350977893
 20
7.422135039286609
 30
0.0
  0
LINE
  5
2AB
330
1F
100
AcDbEntity
  8
0
  6
Continuous
 62
     7
370
     0
100
AcDbLine
 10
4.719525949
 20
7.4378191817
 30
0.0
 11
4.6963498355
 21
7.4244398962
 31
0.0
  0
ARC
  5
2AC
330
1F
100
AcDbEntity
  8
0
  6
Continuous
 62
     7
370
     0
100
AcDbCircle
 10
4.7346929145
 20
7.1970861637
 30
0.0
 40
0.2412103289665594
100
AcDbArc
 50
93.6050560812
 51
96.7902049034
  0
LINE
  5
2AD
330
1F
100
AcDbEntity
  8
0
  6
Continuous
 62
     7
370
     0
100
AcDbLine
 10
4.6804491483
 20
7.4217541691
 30
0.0
 11
4.7061736012
 21
7.4366045797
 31
0.0
  0
SPLINE
  5
2AE
330
1F
100
AcDbEntity
  8
0
  6
Continuous
 62
     7
370
     0
100
AcDbSpline
210
0.0
220
0.0
230
1.0
 70
     8
 71
     3
 72
    13
 73
     9
 74
     0
 42
0.00000001
 43
0.00000001
 40
0.0
 40
0.0
 40
0.0
 40
0.0
 40
0.2493660811199694
 40
0.3758557512689337
 40
0.4995069154471351
 40
0.6185141978863461
 40
0.7497784962542072
 40
1.0
 40
1.0
 40
1.0
 40
1.0
 10
4.676507158224497
 20
7.413570061808197
 30
0.0
 10
4.674869766463368
 20
7.41352595974384
 30
0.0
 10
4.672401816100046
 20
7.41345948713274
 30
0.0
 10
4.671215284806719
 20
7.414289233060447
 30
0.0
 10
4.671384182632293
 20
7.415291131729512
 30
0.0
 10
4.672647901866766
 20
7.416658841794121
 30
0.0
 10
4.675472286867271
 20
7.41879189901535
 30
0.0
 10
4.678477795847635
 20
7.420580803425884
 30
0.0
 10
4.680449148313236
 20
7.421754169116511
 30
0.0
  0
ARC
  5
2AF
330
1F
100
AcDbEntity
  8
0
  6
Continuous
 62
     7
370
     0
100
AcDbCircle
 10
4.6702457174
 20
7.4848898189
 30
0.0
 40
0.071594087686375
100
AcDbArc
 50
275.0173564471
 51
291.2791449044
  0
SPLINE
  5
2B0
330
1F
100
AcDbEntity
  8
0
  6
Continuous
 62
     7
370
     0
100
AcDbSpline
210
0.0
220
0.0
230
1.0
 70
     8
 71
     3
 72
    12
 73
     8
 74
     0
 42
0.00000001
 43
0.00000001
 40
0.0
 40
0.0
 40
0.0
 40
0.0
 40
0.2503744450472473
 40
0.4999656501733756
 40
0.7494635411019013
 40
0.8746935204661302
 40
1.0
 40
1.0
 40
1.0
 40
1.0
 10
4.700448425741926
 20
7.414062457182729
 30
0.0
 10
4.699347584728249
 20
7.414115626747969
 30
0.0
 10
4.697149346433455
 20
7.414221799549466
 30
0.0
 10
4.694988161212911
 20
7.414913363553124
 30
0.0
 10
4.694809051903347
 20
7.416089555946779
 30
0.0
 10
4.69540182073192
 20
7.417228340642375
 30
0.0
 10
4.695952601944289
 20
7.41786056500073
 30
0.0
 10
4.696228076639745
 20
7.418176773703324
 30
0.0
  0
ARC
  5
2B1
330
1F
100
AcDbEntity
  8
0
  6
Continuous
 62
     7
370
     0
100
AcDbCircle
 10
4.700524799
 20
7.474139502
 30
0.0
 40
0.060077093385078
100
AcDbArc
 50
269.9271624881
 51
289.4541775017
  0
LINE
  5
2B2
330
1F
100
AcDbEntity
  8
0
  6
Continuous
 62
     7
370
     0
100
AcDbLine
 10
4.7142201941
 20
7.4138476418
 30
0.0
 11
4.7205336475
 21
7.4174923209
 31
0.0
  0
ARC
  5
2B3
330
1F
100
AcDbEntity
  8
0
  6
Continuous
 62
     7
370
     0
100
AcDbCircle
 10
4.6930084847
 20
7.1218208587
 30
0.0
 40
0.2927961384145987
100
AcDbArc
 50
83.2380989243
 51
85.8455496317
  0
LINE
  5
2B4
330
1F
100
AcDbEntity
  8
0
  6
Continuous
 62
     7
370
     0
100
AcDbLine
 10
4.7686241342
 20
7.4363303676
 30
0.0
 11
4.7274833761
 21
7.4125803135
 31
0.0
  0
ARC
  5
2B5
330
1F
100
AcDbEntity
  8
0
  6
Continuous
 62
     7
370
     0
100
AcDbCircle
 10
4.7342097988
 20
7.1461609821
 30
0.0
 40
0.2922030437517259
100
AcDbArc
 50
83.2362670742
 51
86.0391155165
  0
SPLINE
  5
2B6
330
1F
100
AcDbEntity
  8
0
  6
Continuous
 62
     7
370
     0
100
AcDbSpline
210
0.0
220
0.0
230
1.0
 70
    24
 71
     1
 72
     4
 73
     2
 74
     0
 42
0.00000001
 43
0.00000001
 40
0.0
 40
0.0
 40
1.0
 40
1.0
 10
5.814996246884153
 20
7.518062835755948
 30
0.0
 10
5.831017122715548
 20
7.510898478928032
 30
0.0
  0
ARC
  5
2B7
330
1F
100
AcDbEntity
  8
0
  6
Continuous
 62
     7
370
     0
100
AcDbCircle
 10
5.7949147763
 20
7.4898213321
 30
0.0
 40
0.0346532536837097
100
AcDbArc
 50
54.5847994166
 51
109.3471806503
  0
SPLINE
  5
2B8
330
1F
100
AcDbEntity
  8
0
  6
Continuous
 62
     7
370
     0
100
AcDbSpline
210
0.0
220
0.0
230
1.0
 70
     8
 71
     3
 72
    13
 73
     9
 74
     0
 42
0.00000001
 43
0.00000001
 40
0.0
 40
0.0
 40
0.0
 40
0.0
 40
0.2505475735897053
 40
0.499749722843715
 40
0.6243951525444242
 40
0.749872353900313
 40
0.8749015124953792
 40
1.0
 40
1.0
 40
1.0
 40
1.0
 10
5.785724691091679
 20
7.487200773732914
 30
0.0
 10
5.783666735691559
 20
7.490274651841373
 30
0.0
 10
5.779561875979291
 20
7.496405901530798
 30
0.0
 10
5.776159511289957
 20
7.504899329703534
 30
0.0
 10
5.776041092384785
 20
7.511521320415637
 30
0.0
 10
5.777261259574176
 20
7.516046211915979
 30
0.0
 10
5.779675572661784
 20
7.519941592816645
 30
0.0
 10
5.782181258882968
 20
7.521658814559569
 30
0.0
 10
5.783434449249243
 20
7.522517663415742
 30
0.0
  0
ARC
  5
2B9
330
1F
100
AcDbEntity
  8
0
  6
Continuous
 62
     7
370
     0
100
AcDbCircle
 10
5.8124676425
 20
7.4985314927
 30
0.0
 40
0.0290442875875078
100
AcDbArc
 50
202.9618837602
 51
288.1252742667
  0
SPLINE
  5
2BA
330
1F
100
AcDbEntity
  8
0
  6
Continuous
 62
     7
370
     0
100
AcDbSpline
210
0.0
220
0.0
230
1.0
 70
    24
 71
     1
 72
     4
 73
     2
 74
     0
 42
0.00000001
 43
0.00000001
 40
0.0
 40
0.0
 40
1.0
 40
1.0
 10
5.810676738782293
 20
7.489719737622345
 30
0.0
 10
5.821503195193503
 20
7.470928423458434
 30
0.0
  0
ARC
  5
2BB
330
1F
100
AcDbEntity
  8
0
  6
Continuous
 62
     7
370
     0
100
AcDbCircle
 10
5.8059381506
 20
7.4997801027
 30
0.0
 40
0.0111204839740653
100
AcDbArc
 50
211.1628443082
 51
295.2211636882
  0
SPLINE
  5
2BC
330
1F
100
AcDbEntity
  8
0
  6
Continuous
 62
     7
370
     0
100
AcDbSpline
210
0.0
220
0.0
230
1.0
 70
     8
 71
     3
 72
    13
 73
     9
 74
     0
 42
0.00000001
 43
0.00000001
 40
0.0
 40
0.0
 40
0.0
 40
0.0
 40
0.1252813892214285
 40
0.2503590421080559
 40
0.3724199931779841
 40
0.5007372410115253
 40
0.7500966135201811
 40
1.0
 40
1.0
 40
1.0
 40
1.0
 10
5.796901381842311
 20
7.50550852980135
 30
0.0
 10
5.796492887006699
 20
7.505231620353528
 30
0.0
 10
5.795676561641971
 20
7.504678251776291
 30
0.0
 10
5.794826002863528
 20
7.503470624120985
 30
0.0
 10
5.794314608339185
 20
7.502038489579087
 30
0.0
 10
5.794095589738294
 20
7.499948060843438
 30
0.0
 10
5.794533314789805
 20
7.497102923033671
 30
0.0
 10
5.795792215887565
 20
7.495052093462665
 30
0.0
 10
5.796422352307536
 20
7.494025561349743
 30
0.0
  0
SPLINE
  5
2BD
330
1F
100
AcDbEntity
  8
0
  6
Continuous
 62
     7
370
     0
100
AcDbSpline
210
0.0
220
0.0
230
1.0
 70
     8
 71
     3
 72
    12
 73
     8
 74
     0
 42
0.00000001
 43
0.00000001
 40
0.0
 40
0.0
 40
0.0
 40
0.0
 40
0.5004267133846261
 40
0.750047386796779
 40
0.8749721717644032
 40
0.9374509307661247
 40
1.0
 40
1.0
 40
1.0
 40
1.0
 10
5.818376187459981
 20
7.499906540571645
 30
0.0
 10
5.81482148665382
 20
7.501616969716581
 30
0.0
 10
5.809493645475091
 20
7.504180587677306
 30
0.0
 10
5.802984483024455
 20
7.506248427365271
 30
0.0
 10
5.799767099861071
 20
7.506369301075722
 30
0.0
 10
5.798033888899844
 20
7.506061177075984
 30
0.0
 10
5.797279025695606
 20
7.505692814609923
 30
0.0
 10
5.796901381842311
 20
7.50550852980135
 30
0.0
  0
ARC
  5
2BE
330
1F
100
AcDbEntity
  8
0
  6
Continuous
 62
     7
370
     0
100
AcDbCircle
 10
5.8485397285
 20
7.5415848287
 30
0.0
 40
0.051448215827034
100
AcDbArc
 50
234.1058709199
 51
285.2105417613
  0
ARC
  5
2BF
330
1F
100
AcDbEntity
  8
0
  6
Continuous
 62
     7
370
     0
100
AcDbCircle
 10
5.0078224027
 20
6.9395336347
 30
0.0
 40
1.017268868398187
100
AcDbArc
 50
32.8899947747
 51
36.6661810632
  0
LINE
  5
2C0
330
1F
100
AcDbEntity
  8
0
  6
Continuous
 62
     7
370
     0
100
AcDbLine
 10
5.8105786887
 20
7.5393636178
 30
0.0
 11
5.8238025038
 21
7.5469975638
 31
0.0
  0
ARC
  5
2C1
330
1F
100
AcDbEntity
  8
0
  6
Continuous
 62
     7
370
     0
100
AcDbCircle
 10
5.0011622264
 20
6.9366192616
 30
0.0
 40
1.009185695725621
100
AcDbArc
 50
34.6841506954
 51
36.67377666
  0
LINE
  5
2C2
330
1F
100
AcDbEntity
  8
0
  6
Continuous
 62
     7
370
     0
100
AcDbLine
 10
5.7556574944
 20
7.5864684655
 30
0.0
 11
5.7681466531
 21
7.5936783033
 31
0.0
  0
ARC
  5
2C3
330
1F
100
AcDbEntity
  8
0
  6
Continuous
 62
     7
370
     0
100
AcDbCircle
 10
5.023383415
 20
6.9557613079
 30
0.0
 40
0.9664454697107445
100
AcDbArc
 50
37.3116331872
 51
40.7382977912
  0
LINE
  5
2C4
330
1F
100
AcDbEntity
  8
0
  6
Continuous
 62
     7
370
     0
100
AcDbLine
 10
5.8045353899
 20
7.5487819693
 30
0.0
 11
5.7920462312
 21
7.5415721314
 31
0.0
  0
ARC
  5
2C5
330
1F
100
AcDbEntity
  8
0
  6
Continuous
 62
     7
370
     0
100
AcDbCircle
 10
5.0358725737
 20
6.9629711458
 30
0.0
 40
0.9664454697104868
100
AcDbArc
 50
37.3116331872
 51
40.7382977912
  0
ARC
  5
2C6
330
1F
100
AcDbEntity
  8
0
  6
Continuous
 62
     7
370
     0
100
AcDbCircle
 10
5.674960078
 20
7.6520340501
 30
0.0
 40
0.0406602481906452
100
AcDbArc
 50
46.9700147592
 51
127.1574144129
  0
SPLINE
  5
2C7
330
1F
100
AcDbEntity
  8
0
  6
Continuous
 62
     7
370
     0
100
AcDbSpline
210
0.0
220
0.0
230
1.0
 70
    24
 71
     1
 72
     4
 73
     2
 74
     0
 42
0.00000001
 43
0.00000001
 40
0.0
 40
0.0
 40
1.0
 40
1.0
 10
5.638885015967666
 20
7.675582769531307
 30
0.0
 10
5.650401006683881
 20
7.6844394169494
 30
0.0
  0
SPLINE
  5
2C8
330
1F
100
AcDbEntity
  8
0
  6
Continuous
 62
     7
370
     0
100
AcDbSpline
210
0.0
220
0.0
230
1.0
 70
     8
 71
     3
 72
    12
 73
     8
 74
     0
 42
0.00000001
 43
0.00000001
 40
0.0
 40
0.0
 40
0.0
 40
0.0
 40
0.2503236780917597
 40
0.4997580205826775
 40
0.6249322649113989
 40
0.7501892985659794
 40
1.0
 40
1.0
 40
1.0
 40
1.0
 10
5.644258447970935
 20
7.648618344965086
 30
0.0
 10
5.642012197192813
 20
7.650746813885448
 30
0.0
 10
5.637527675987451
 20
7.654996189823914
 30
0.0
 10
5.634333441749639
 20
7.661189504367047
 30
0.0
 10
5.634053757976589
 20
7.666032179244216
 30
0.0
 10
5.634852461760444
 20
7.670736275724355
 30
0.0
 10
5.637272902096874
 20
7.673645263055411
 30
0.0
 10
5.638885015967666
 20
7.675582769531307
 30
0.0
  0
ARC
  5
2C9
330
1F
100
AcDbEntity
  8
0
  6
Continuous
 62
     7
370
     0
100
AcDbCircle
 10
5.6728165578
 20
7.6768861058
 30
0.0
 40
0.0401824830396546
100
AcDbArc
 50
224.7072525415
 51
305.0738635234
  0
ARC
  5
2CA
330
1F
100
AcDbEntity
  8
0
  6
Continuous
 62
     7
370
     0
100
AcDbCircle
 10
5.6810394175
 20
7.6754698219
 30
0.0
 40
0.0348047115075382
100
AcDbArc
 50
295.2876424441
 51
333.1627550051
  0
ARC
  5
2CB
330
1F
100
AcDbEntity
  8
0
  6
Continuous
 62
     7
370
     0
100
AcDbCircle
 10
5.690920426
 20
7.6637229226
 30
0.0
 40
0.0215431752145863
100
AcDbArc
 50
349.3917244914
 51
56.8343743292
  0
LINE
  5
2CC
330
1F
100
AcDbEntity
  8
0
  6
Continuous
 62
     7
370
     0
100
AcDbLine
 10
5.5562340891
 20
7.7589048438
 30
0.0
 11
5.5769422163
 21
7.7708593912
 31
0.0
  0
ARC
  5
2CD
330
1F
100
AcDbEntity
  8
0
  6
Continuous
 62
     7
370
     0
100
AcDbCircle
 10
5.547221226
 20
7.7722398043
 30
0.0
 40
0.0160951194922078
100
AcDbArc
 50
247.3730424903
 51
304.0540628346
  0
SPLINE
  5
2CE
330
1F
100
AcDbEntity
  8
0
  6
Continuous
 62
     7
370
     0
100
AcDbSpline
210
0.0
220
0.0
230
1.0
 70
     8
 71
     3
 72
    11
 73
     7
 74
     0
 42
0.00000001
 43
0.00000001
 40
0.0
 40
0.0
 40
0.0
 40
0.0
 40
0.2494089566129764
 40
0.4981576612250647
 40
0.7500292138280621
 40
0.9999999999999999
 40
0.9999999999999999
 40
0.9999999999999999
 40
0.9999999999999999
 10
5.539531492039844
 20
7.761885074433315
 30
0.0
 10
5.539265348419248
 20
7.761492274753334
 30
0.0
 10
5.538733765731174
 20
7.76070771523885
 30
0.0
 10
5.538833075828637
 20
7.759460598265752
 30
0.0
 10
5.539529538667169
 20
7.75828288576786
 30
0.0
 10
5.540530414078373
 20
7.757682562201307
 30
0.0
 10
5.541028956337698
 20
7.757383537303856
 30
0.0
  0
SPLINE
  5
2CF
330
1F
100
AcDbEntity
  8
0
  6
Continuous
 62
     7
370
     0
100
AcDbSpline
210
0.0
220
0.0
230
1.0
 70
    24
 71
     1
 72
     4
 73
     2
 74
     0
 42
0.00000001
 43
0.00000001
 40
0.0
 40
0.0
 40
1.0
 40
1.0
 10
5.54284944123822
 20
7.76414995315933
 30
0.0
 10
5.539531492039844
 20
7.761885074433315
 30
0.0
  0
LINE
  5
2D0
330
1F
100
AcDbEntity
  8
0
  6
Continuous
 62
     7
370
     0
100
AcDbLine
 10
5.5651990663
 20
7.7770521171
 30
0.0
 11
5.5428494412
 21
7.7641499532
 31
0.0
  0
ARC
  5
2D1
330
1F
100
AcDbEntity
  8
0
  6
Continuous
 62
     7
370
     0
100
AcDbCircle
 10
5.336045075
 20
7.3290635971
 30
0.0
 40
0.50319505738336
100
AcDbArc
 50
62.9094588524
 51
64.8603024179
  0
LINE
  5
2D2
330
1F
100
AcDbEntity
  8
0
  6
Continuous
 62
     7
370
     0
100
AcDbLine
 10
5.5288206922
 20
7.7724731238
 30
0.0
 11
5.5498157945
 21
7.7845933384
 31
0.0
  0
ARC
  5
2D3
330
1F
100
AcDbEntity
  8
0
  6
Continuous
 62
     7
370
     0
100
AcDbCircle
 10
5.5196214286
 20
7.7856077517
 30
0.0
 40
0.016035738273393
100
AcDbArc
 50
249.3911406343
 51
305.0067264481
  0
ARC
  5
2D4
330
1F
100
AcDbEntity
  8
0
  6
Continuous
 62
     7
370
     0
100
AcDbCircle
 10
5.514697771
 20
7.773245717
 30
0.0
 40
0.0027438407919417
100
AcDbArc
 50
171.5934766918
 51
254.7718989394
  0
SPLINE
  5
2D5
330
1F
100
AcDbEntity
  8
0
  6
Continuous
 62
     7
370
     0
100
AcDbSpline
210
0.0
220
0.0
230
1.0
 70
     8
 71
     3
 72
     9
 73
     5
 74
     0
 42
0.00000001
 43
0.00000001
 40
0.0
 40
0.0
 40
0.0
 40
0.0
 40
0.5015771373280933
 40
1.0
 40
1.0
 40
1.0
 40
1.0
 10
5.514953140388672
 20
7.776507081523401
 30
0.0
 10
5.514233871879694
 20
7.77607717126839
 30
0.0
 10
5.512799858134947
 20
7.775220054340572
 30
0.0
 10
5.512254987061508
 20
7.774170150656053
 30
0.0
 10
5.511983410861298
 20
7.773646854656084
 30
0.0
  0
LINE
  5
2D6
330
1F
100
AcDbEntity
  8
0
  6
Continuous
 62
     7
370
     0
100
AcDbLine
 10
5.5381292539
 20
7.7898863671
 30
0.0
 11
5.5149531404
 21
7.7765070815
 31
0.0
  0
ARC
  5
2D7
330
1F
100
AcDbEntity
  8
0
  6
Continuous
 62
     7
370
     0
100
AcDbCircle
 10
5.356745594
 20
7.3747521091
 30
0.0
 40
0.4530303346977615
100
AcDbArc
 50
66.398150075
 51
68.4904795097
  0
LINE
  5
2D8
330
1F
100
AcDbEntity
  8
0
  6
Continuous
 62
     7
370
     0
100
AcDbLine
 10
5.4971273516
 20
7.7813814858
 30
0.0
 11
5.5228518044
 21
7.7962318963
 31
0.0
  0
SPLINE
  5
2D9
330
1F
100
AcDbEntity
  8
0
  6
Continuous
 62
     7
370
     0
100
AcDbSpline
210
0.0
220
0.0
230
1.0
 70
     8
 71
     3
 72
    13
 73
     9
 74
     0
 42
0.00000001
 43
0.00000001
 40
0.0
 40
0.0
 40
0.0
 40
0.0
 40
0.2493660811200351
 40
0.3758557512807201
 40
0.4995069154475399
 40
0.6185141978927094
 40
0.7497784962541416
 40
1.0
 40
1.0
 40
1.0
 40
1.0
 10
5.494955068950121
 20
7.766277041986804
 30
0.0
 10
5.493069084760988
 20
7.767239550427937
 30
0.0
 10
5.490226444731012
 20
7.768690286356542
 30
0.0
 10
5.488580568208278
 20
7.77130712254237
 30
0.0
 10
5.488465561907047
 20
7.773398143034498
 30
0.0
 10
5.489522484999058
 20
7.775549193292992
 30
0.0
 10
5.492180663532153
 20
7.778306823048212
 30
0.0
 10
5.495167950902509
 20
7.780163600983107
 30
0.0
 10
5.49712735157693
 20
7.781381485801951
 30
0.0
  0
ARC
  5
2DA
330
1F
100
AcDbEntity
  8
0
  6
Continuous
 62
     7
370
     0
100
AcDbCircle
 10
5.5097862958
 20
7.801927804
 30
0.0
 40
0.0386127196466676
100
AcDbArc
 50
247.4119909334
 51
279.716375608
  0
SPLINE
  5
2DB
330
1F
100
AcDbEntity
  8
0
  6
Continuous
 62
     7
370
     0
100
AcDbSpline
210
0.0
220
0.0
230
1.0
 70
     8
 71
     3
 72
    12
 73
     8
 74
     0
 42
0.00000001
 43
0.00000001
 40
0.0
 40
0.0
 40
0.0
 40
0.0
 40
0.250374445047252
 40
0.4999656501733788
 40
0.7494635411019058
 40
0.8746935204661217
 40
1.0
 40
1.0
 40
1.0
 40
1.0
 10
5.521799589656316
 20
7.753654046767775
 30
0.0
 10
5.520575051467031
 20
7.754324568243851
 30
0.0
 10
5.518129805779707
 20
7.755663513620955
 30
0.0
 10
5.515592295880277
 20
7.758157648911129
 30
0.0
 10
5.515152098860562
 20
7.760552544301627
 30
0.0
 10
5.515577638659546
 20
7.76246076874807
 30
0.0
 10
5.51606116818204
 20
7.76339947618773
 30
0.0
 10
5.516303006765057
 20
7.763868973222587
 30
0.0
  0
ARC
  5
2DC
330
1F
100
AcDbEntity
  8
0
  6
Continuous
 62
     7
370
     0
100
AcDbCircle
 10
5.5382396341
 20
7.7873049768
 30
0.0
 40
0.0374521048151137
100
AcDbArc
 50
243.96233945
 51
277.565503213
  0
LINE
  5
2DD
330
1F
100
AcDbEntity
  8
0
  6
Continuous
 62
     7
370
     0
100
AcDbLine
 10
5.5368571088
 20
7.7465342139
 30
0.0
 11
5.5431705622
 21
7.750178893
 31
0.0
  0
ARC
  5
2DE
330
1F
100
AcDbEntity
  8
0
  6
Continuous
 62
     7
370
     0
100
AcDbCircle
 10
5.2696921738
 20
7.257587058
 30
0.0
 40
0.5571771924414808
100
AcDbArc
 50
59.6494914208
 51
61.3474278265
  0
LINE
  5
2DF
330
1F
100
AcDbEntity
  8
0
  6
Continuous
 62
     7
370
     0
100
AcDbLine
 10
5.5923681856
 20
7.762153423
 30
0.0
 11
5.5512274274
 21
7.7384033688
 31
0.0
  0
ARC
  5
2E0
330
1F
100
AcDbEntity
  8
0
  6
Continuous
 62
     7
370
     0
100
AcDbCircle
 10
5.3113556509
 20
7.2822511976
 30
0.0
 40
0.5561242581882306
100
AcDbArc
 50
59.6483790974
 51
61.4733841577
  0
LWPOLYLINE
  5
2E1
330
1F
100
AcDbEntity
  8
0
  6
Continuous
 62
     7
370
     0
100
AcDbPolyline
 90
      122
 70
   128
 43
0.0
 10
4.9234238841
 20
6.3544437494
 10
4.9168229464
 20
6.3377490622
 10
4.9093092413
 20
6.3220045817
 10
4.9009030241
 20
6.3072527523
 10
4.8916269567
 20
6.2935333423
 10
4.8815060457
 20
6.2808833367
 10
4.8705675752
 20
6.2693368378
 10
4.8588410334
 20
6.2589249729
 10
4.8463580331
 20
6.2496758105
 10
4.8331522261
 20
6.2416142848
 10
4.8192592131
 20
6.2347621281
 10
4.804716447
 20
6.2291378127
 10
4.7895631327
 20
6.2247565007
 10
4.7738401208
 20
6.2216300035
 10
4.7575897977
 20
6.2197667494
 10
4.7408559714
 20
6.2191717615
 10
4.7236837535
 20
6.2198466437
 10
4.7061194371
 20
6.2217895767
 10
4.6882103725
 20
6.2249953227
 10
4.6700048395
 20
6.2294552396
 10
4.6515519168
 20
6.2351573042
 10
4.6329013504
 20
6.2420861447
 10
4.6141034188
 20
6.2502230823
 10
4.595208798
 20
6.2595461812
 10
4.5762684245
 20
6.2700303079
 10
4.5573333583
 20
6.2816471991
 10
4.5384546448
 20
6.2943655378
 10
4.5196831778
 20
6.3081510374
 10
4.5010695618
 20
6.3229665349
 10
4.4826639759
 20
6.3387720901
 10
4.4645160382
 20
6.3555250941
 10
4.4466746725
 20
6.3731803839
 10
4.4291879758
 20
6.3916903637
 10
4.4121030891
 20
6.4110051341
 10
4.3954660705
 20
6.4310726257
 10
4.3793217702
 20
6.4518387403
 10
4.3637137105
 20
6.4732474959
 10
4.3486839679
 20
6.4952411785
 10
4.33427306
 20
6.5177604969
 10
4.320519836
 20
6.540744743
 10
4.3074613722
 20
6.5641319553
 10
4.2951328719
 20
6.5878590861
 10
4.2835675706
 20
6.6118621712
 10
4.2727966463
 20
6.6360765026
 10
4.2628491354
 20
6.6604368026
 10
4.2537518547
 20
6.6848774003
 10
4.2455293289
 20
6.709332408
 10
4.2382037244
 20
6.7337358994
 10
4.2317947898
 20
6.7580220871
 10
4.2263198024
 20
6.7821254997
 10
4.2217935219
 20
6.8059811587
 10
4.2182281502
 20
6.8295247535
 10
4.215633299
 20
6.8526928147
 10
4.2140159636
 20
6.8754228852
 10
4.213380504
 20
6.897653689
 10
4.2137286332
 20
6.9193252955
 10
4.2150594129
 20
6.9403792821
 10
4.2173692554
 20
6.9607588909
 10
4.2206519338
 20
6.980409182
 10
4.2248985987
 20
6.9992771818
 10
4.2300978016
 20
7.0173120254
 10
4.2362355266
 20
7.0344650942
 10
4.2432952274
 20
7.0506901464
 10
4.2512578722
 20
7.0659434422
 10
4.2601019952
 20
7.0801838614
 10
4.2698037543
 20
7.0933730144
 10
4.2803369951
 20
7.1054753456
 10
4.291673322
 20
7.1164582291
 10
4.3037821741
 20
7.1262920571
 10
4.3166309083
 20
7.1349503193
 10
4.3301848864
 20
7.1424096746
 10
4.3444075695
 20
7.1486500138
 10
4.3592606157
 20
7.1536545142
 10
4.3747039838
 20
7.1574096844
 10
4.3906960412
 20
7.1599054013
 10
4.4071936761
 20
7.1611349367
 10
4.4241524139
 20
7.161094976
 10
4.4415265368
 20
7.1597856271
 10
4.4592692071
 20
7.1572104197
 10
4.4773325939
 20
7.153376296
 10
4.4956680015
 20
7.1482935922
 10
4.5142260007
 20
7.1419760104
 10
4.5329565625
 20
7.1344405816
 10
4.5518091927
 20
7.1257076201
 10
4.5707330678
 20
7.1158006683
 10
4.5896771725
 20
7.1047464337
 10
4.6085904369
 20
7.0925747165
 10
4.6274218739
 20
7.0793183295
 10
4.6461207176
 20
7.0650130095
 10
4.664636559
 20
7.0496973213
 10
4.6829194828
 20
7.0334125531
 10
4.7009202013
 20
7.0162026059
 10
4.718590188
 20
6.9981138745
 10
4.7358818075
 20
6.9791951232
 10
4.7527484448
 20
6.9594973533
 10
4.7691446304
 20
6.9390736667
 10
4.785026163
 20
6.917979122
 10
4.8003502289
 20
6.8962705864
 10
4.8150755171
 20
6.8740065822
 10
4.8291623308
 20
6.8512471292
 10
4.8425726944
 20
6.828053583
 10
4.855270456
 20
6.8044884691
 10
4.8672213847
 20
6.7806153151
 10
4.8783932629
 20
6.7564984787
 10
4.8887559731
 20
6.7322029745
 10
4.8982815793
 20
6.7077942991
 10
4.9069444022
 20
6.6833382539
 10
4.9147210884
 20
6.658900768
 10
4.9215906732
 20
6.6345477207
 10
4.9275346375
 20
6.6103447633
 10
4.9325369574
 20
6.5863571428
 10
4.9365841476
 20
6.5626495256
 10
4.9396652975
 20
6.5392858233
 10
4.9417721008
 20
6.5163290202
 10
4.9428988781
 20
6.4938410038
 10
4.9430425917
 20
6.4718823978
 10
4.9422028543
 20
6.4505123988
 10
4.9403819295
 20
6.4297886165
 10
4.9375847262
 20
6.4097669186
 10
4.9338187854
 20
6.3905012799
 10
4.9290942591
 20
6.3720436374
 10
4.9234238841
 20
6.3544437494
  0
ARC
  5
2E2
330
1F
100
AcDbEntity
  8
0
  6
Continuous
 62
     7
370
     0
100
AcDbCircle
 10
4.5699718129
 20
6.4834258115
 30
0.0
 40
0.3731151997984483
100
AcDbArc
 50
341.499759293
 51
0.0423258842
  0
LWPOLYLINE
  5
2E3
330
1F
100
AcDbEntity
  8
0
  6
Continuous
 62
     7
370
     0
100
AcDbPolyline
 90
       85
 70
   128
 43
0.0
 10
4.5818486569
 20
7.1094522522
 10
4.5664043177
 20
7.1178103193
 10
4.5475742258
 20
7.1269536572
 10
4.5288493051
 20
7.1348911251
 10
4.5102817455
 20
7.1416005998
 10
4.4919232979
 20
7.1470633809
 10
4.4738251308
 20
7.1512642425
 10
4.4560376868
 20
7.1541914761
 10
4.4386105429
 20
7.155836923
 10
4.4215922716
 20
7.1561959971
 10
4.4050303059
 20
7.1552676975
 10
4.388970807
 20
7.1530546116
 10
4.3734585354
 20
7.1495629076
 10
4.3585367269
 20
7.1448023175
 10
4.344246971
 20
7.13878611
 10
4.3306290959
 20
7.1315310533
 10
4.317721057
 20
7.1230573686
 10
4.3055588315
 20
7.1133886735
 10
4.2941763175
 20
7.1025519165
 10
4.2836052403
 20
7.0905773014
 10
4.2738750632
 20
7.0774982038
 10
4.265012906
 20
7.0633510773
 10
4.2570434693
 20
7.0481753527
 10
4.2499889651
 20
7.0320133272
 10
4.2438690556
 20
7.0149100475
 10
4.2387007983
 20
6.9969131834
 10
4.2344985978
 20
6.9780728954
 10
4.2312741666
 20
6.9584416948
 10
4.2290364916
 20
6.9380742972
 10
4.2277918097
 20
6.9170274702
 10
4.22754359
 20
6.8953598752
 10
4.2282925244
 20
6.8731319035
 10
4.2300365254
 20
6.8504055086
 10
4.2327707323
 20
6.8272440329
 10
4.2364875242
 20
6.8037120318
 10
4.2411765418
 20
6.7798750929
 10
4.246824716
 20
6.7557996543
 10
4.2534163042
 20
6.7315528184
 10
4.2609329347
 20
6.7072021656
 10
4.2693536571
 20
6.6828155654
 10
4.2786550014
 20
6.6584609877
 10
4.2888110431
 20
6.6342063131
 10
4.2997934755
 20
6.6101191437
 10
4.3115716885
 20
6.5862666148
 10
4.3241128542
 20
6.5627152076
 10
4.3373820182
 20
6.5395305642
 10
4.3513421967
 20
6.5167773042
 10
4.3659544805
 20
6.4945188452
 10
4.3811781422
 20
6.4728172254
 10
4.396970751
 20
6.4517329311
 10
4.41328829
 20
6.4313247281
 10
4.4300852792
 20
6.4116494977
 10
4.4473149025
 20
6.3927620782
 10
4.4649291378
 20
6.3747151123
 10
4.482878891
 20
6.3575589002
 10
4.501114133
 20
6.3413412592
 10
4.5195840389
 20
6.3261073908
 10
4.5382371297
 20
6.3118997547
 10
4.557021416
 20
6.2987579499
 10
4.5758845426
 20
6.286718605
 10
4.5947739344
 20
6.275815276
 10
4.6136369435
 20
6.2660783522
 10
4.6324209953
 20
6.2575349723
 10
4.6510737351
 20
6.2502089482
 10
4.6695431746
 20
6.2441206988
 10
4.6877778359
 20
6.2392871932
 10
4.705726896
 20
6.2357219032
 10
4.7233403274
 20
6.233434766
 10
4.7405690385
 20
6.2324321561
 10
4.7573650097
 20
6.2327168681
 10
4.7736814276
 20
6.2342881084
 10
4.7894728155
 20
6.2371414976
 10
4.8046951599
 20
6.2412690829
 10
4.8193060334
 20
6.24665936
 10
4.8332647129
 20
6.2532973051
 10
4.8465322931
 20
6.2611644172
 10
4.8590717948
 20
6.2702387691
 10
4.8708482681
 20
6.2804950691
 10
4.88182889
 20
6.2919047309
 10
4.8919830555
 20
6.3044359539
 10
4.9012824631
 20
6.3180538112
 10
4.9097011936
 20
6.3327203474
 10
4.9172157826
 20
6.3483946843
 10
4.9238052856
 20
6.3650331347
 10
4.9238052856
 20
6.3650331347
  0
SPLINE
  5
2E4
330
1F
100
AcDbEntity
  8
0
  6
Continuous
 62
     7
370
     0
100
AcDbSpline
210
0.0
220
0.0
230
1.0
 70
     8
 71
     3
 72
    13
 73
     9
 74
     0
 42
0.00000001
 43
0.00000001
 40
0.0
 40
0.0
 40
0.0
 40
0.0
 40
0.5004466743176812
 40
0.6281338580762663
 40
0.7515867387291455
 40
0.8133721073357909
 40
0.8755912436652636
 40
0.9999999999999999
 40
0.9999999999999999
 40
0.9999999999999999
 40
0.9999999999999999
 10
4.779806039089604
 20
7.137493810305052
 30
0.0
 10
4.783439009402897
 20
7.139665221553673
 30
0.0
 10
4.787998919132092
 20
7.142390660636522
 30
0.0
 10
4.791878738664703
 20
7.146778521930443
 30
0.0
 10
4.792700273191114
 20
7.148991883407705
 30
0.0
 10
4.792687966943762
 20
7.150862299605127
 30
0.0
 10
4.792128920166486
 20
7.152789715946994
 30
0.0
 10
4.790939731870221
 20
7.1540648970412
 30
0.0
 10
4.790147002365139
 20
7.154914950544817
 30
0.0
  0
SPLINE
  5
2E5
330
1F
100
AcDbEntity
  8
0
  6
Continuous
 62
     7
370
     0
100
AcDbSpline
210
0.0
220
0.0
230
1.0
 70
     8
 71
     3
 72
    17
 73
    13
 74
     0
 42
0.00000001
 43
0.00000001
 40
0.0
 40
0.0
 40
0.0
 40
0.0
 40
0.0625191415197289
 40
0.124957380397705
 40
0.1870829772476268
 40
0.2498824233788316
 40
0.3645937397409298
 40
0.4291208042382434
 40
0.4996845104524546
 40
0.6520438122602901
 40
0.8302311697955611
 40
1.0
 40
1.0
 40
1.0
 40
1.0
 10
4.790147002365139
 20
7.154914950544817
 30
0.0
 10
4.789687333063387
 20
7.155292487550203
 30
0.0
 10
4.788768589293079
 20
7.156047073010743
 30
0.0
 10
4.787114101925222
 20
7.156948134354147
 30
0.0
 10
4.785305218789789
 20
7.157600893940663
 30
0.0
 10
4.782887212357714
 20
7.158082412103199
 30
0.0
 10
4.780446541153169
 20
7.158060544333527
 30
0.0
 10
4.778105832101309
 20
7.157679636093243
 30
0.0
 10
4.775544692754447
 20
7.157010749080453
 30
0.0
 10
4.772249796155279
 20
7.155710320058522
 30
0.0
 10
4.768419334591817
 20
7.153810363241693
 30
0.0
 10
4.765877110101318
 20
7.152377459094402
 30
0.0
 10
4.764636751420896
 20
7.151678341017323
 30
0.0
  0
SPLINE
  5
2E6
330
1F
100
AcDbEntity
  8
0
  6
Continuous
 62
     7
370
     0
100
AcDbSpline
210
0.0
220
0.0
230
1.0
 70
     8
 71
     3
 72
    16
 73
    12
 74
     0
 42
0.00000001
 43
0.00000001
 40
0.0
 40
0.0
 40
0.0
 40
0.0
 40
0.1818488349566224
 40
0.3430108368011011
 40
0.5007680811927998
 40
0.5688733187503021
 40
0.6259479994856398
 40
0.7506455707027974
 40
0.8134826023443613
 40
0.875594116908928
 40
1.0
 40
1.0
 40
1.0
 40
1.0
 10
4.764636751420896
 20
7.151678341017323
 30
0.0
 10
4.7632906665186
 20
7.150879160285277
 30
0.0
 10
4.760751625183238
 20
7.149371712345236
 30
0.0
 10
4.757246407815163
 20
7.147004488358034
 30
0.0
 10
4.754776002295206
 20
7.144993929856683
 30
0.0
 10
4.753222059308228
 20
7.14336786963964
 30
0.0
 10
4.752046093580247
 20
7.141827931007295
 30
0.0
 10
4.751409221552045
 20
7.14006881958044
 30
0.0
 10
4.751503867329151
 20
7.13815318663304
 30
0.0
 10
4.752180571633338
 20
7.136204212379811
 30
0.0
 10
4.753414412027226
 20
7.134914570869332
 30
0.0
 10
4.754237375491892
 20
7.134054388425236
 30
0.0
  0
SPLINE
  5
2E7
330
1F
100
AcDbEntity
  8
0
  6
Continuous
 62
     7
370
     0
100
AcDbSpline
210
0.0
220
0.0
230
1.0
 70
     8
 71
     3
 72
    13
 73
     9
 74
     0
 42
0.00000001
 43
0.00000001
 40
0.0
 40
0.0
 40
0.0
 40
0.0
 40
0.1245476615473027
 40
0.186512493025241
 40
0.2496161896393968
 40
0.36120785456738
 40
0.4994992341854146
 40
0.9999999999999999
 40
0.9999999999999999
 40
0.9999999999999999
 40
0.9999999999999999
 10
4.754237375491892
 20
7.134054388425236
 30
0.0
 10
4.755202999780933
 20
7.133305397894325
 30
0.0
 10
4.756649040527404
 20
7.132183770322706
 30
0.0
 10
4.759101053466803
 20
7.131294194613339
 30
0.0
 10
4.761506730886274
 20
7.130834212759877
 30
0.0
 10
4.764645064169395
 20
7.130963462872605
 30
0.0
 10
4.771356714655193
 20
7.132740306596379
 30
0.0
 10
4.776094181227337
 20
7.135405556948074
 30
0.0
 10
4.779806039089604
 20
7.137493810305052
 30
0.0
  0
SPLINE
  5
2E8
330
1F
100
AcDbEntity
  8
0
  6
Continuous
 62
     7
370
     0
100
AcDbSpline
210
0.0
220
0.0
230
1.0
 70
     8
 71
     3
 72
     9
 73
     5
 74
     0
 42
0.00000001
 43
0.00000001
 40
0.0
 40
0.0
 40
0.0
 40
0.0
 40
0.4999994377870635
 40
1.0
 40
1.0
 40
1.0
 40
1.0
 10
5.015639768869278
 20
7.095118146660922
 30
0.0
 10
5.016884674459431
 20
7.094079189663975
 30
0.0
 10
5.019374488439349
 20
7.092001273333618
 30
0.0
 10
5.021741424609199
 20
7.089788066084602
 30
0.0
 10
5.022924894024847
 20
7.0886814612158
 30
0.0
  0
ARC
  5
2E9
330
1F
100
AcDbEntity
  8
0
  6
Continuous
 62
     7
370
     0
100
AcDbCircle
 10
5.0478326734
 20
7.1131927247
 30
0.0
 40
0.0349456651663145
100
AcDbArc
 50
224.540294649
 51
239.2597417565
  0
ARC
  5
2EA
330
1F
100
AcDbEntity
  8
0
  6
Continuous
 62
     7
370
     0
100
AcDbCircle
 10
5.0317792187
 20
7.0863956434
 30
0.0
 40
0.0037094420433778
100
AcDbArc
 50
240.8136496719
 51
296.2629403074
  0
SPLINE
  5
2EB
330
1F
100
AcDbEntity
  8
0
  6
Continuous
 62
     7
370
     0
100
AcDbSpline
210
0.0
220
0.0
230
1.0
 70
     8
 71
     3
 72
    13
 73
     9
 74
     0
 42
0.00000001
 43
0.00000001
 40
0.0
 40
0.0
 40
0.0
 40
0.0
 40
0.1250826238999857
 40
0.249997714966884
 40
0.3702186099531464
 40
0.500050582568647
 40
0.7496489762940449
 40
1.0
 40
1.0
 40
1.0
 40
1.0
 10
5.033420614269407
 20
7.083069116602307
 30
0.0
 10
5.033690695678006
 20
7.083256477037431
 30
0.0
 10
5.03423049675428
 20
7.08363094696136
 30
0.0
 10
5.034704891541897
 20
7.084495099433543
 30
0.0
 10
5.034900638436302
 20
7.085501671540228
 30
0.0
 10
5.034768398668671
 20
7.086942279598519
 30
0.0
 10
5.034046124311522
 20
7.088764979355204
 30
0.0
 10
5.03313507798836
 20
7.090063745239087
 30
0.0
 10
5.032678869076628
 20
7.090714105770069
 30
0.0
  0
SPLINE
  5
2EC
330
1F
100
AcDbEntity
  8
0
  6
Continuous
 62
     7
370
     0
100
AcDbSpline
210
0.0
220
0.0
230
1.0
 70
     8
 71
     3
 72
    12
 73
     8
 74
     0
 42
0.00000001
 43
0.00000001
 40
0.0
 40
0.0
 40
0.0
 40
0.0
 40
0.2502933385968463
 40
0.5004381403403083
 40
0.6292391096552835
 40
0.7506890446667067
 40
1.0
 40
1.0
 40
1.0
 40
1.0
 10
5.032678869076628
 20
7.090714105770069
 30
0.0
 10
5.031677743258228
 20
7.091888821405666
 30
0.0
 10
5.029676085740634
 20
7.09423755554059
 30
0.0
 10
5.026338195785325
 20
7.096379060994731
 30
0.0
 10
5.023509063343564
 20
7.097449000017979
 30
0.0
 10
5.0206093287597
 20
7.097693168008797
 30
0.0
 10
5.018866465503033
 20
7.096862733546598
 30
0.0
 10
5.017694510976948
 20
7.096304324031184
 30
0.0
  0
LINE
  5
2ED
330
1F
100
AcDbEntity
  8
0
  6
Continuous
 62
     7
370
     0
100
AcDbLine
 10
5.017694511
 20
7.096304324
 30
0.0
 11
5.0156397689
 21
7.0951181467
 31
0.0
  0
SPLINE
  5
2EE
330
1F
100
AcDbEntity
  8
0
  6
Continuous
 62
     7
370
     0
100
AcDbSpline
210
0.0
220
0.0
230
1.0
 70
    24
 71
     1
 72
     4
 73
     2
 74
     0
 42
0.00000001
 43
0.00000001
 40
0.0
 40
0.0
 40
1.0
 40
1.0
 10
5.202032872752275
 20
7.005465249171451
 30
0.0
 10
5.226019602689537
 20
7.009553136212362
 30
0.0
  0
ARC
  5
2EF
330
1F
100
AcDbEntity
  8
0
  6
Continuous
 62
     7
370
     0
100
AcDbCircle
 10
4.3071521655
 20
6.5336062206
 30
0.0
 40
1.034815362041784
100
AcDbArc
 50
27.3828578821
 51
28.338765705
  0
SPLINE
  5
2F0
330
1F
100
AcDbEntity
  8
0
  6
Continuous
 62
     7
370
     0
100
AcDbSpline
210
0.0
220
0.0
230
1.0
 70
    24
 71
     1
 72
     4
 73
     2
 74
     0
 42
0.00000001
 43
0.00000001
 40
0.0
 40
0.0
 40
1.0
 40
1.0
 10
5.217951517911874
 20
7.024816331708461
 30
0.0
 10
5.202032872752275
 20
7.005465249171451
 30
0.0
  0
ARC
  5
2F1
330
1F
100
AcDbEntity
  8
0
  6
Continuous
 62
     7
370
     0
100
AcDbCircle
 10
4.2962883845
 20
6.5276358778
 30
0.0
 40
1.033635300329255
100
AcDbArc
 50
32.1228743413
 51
32.7076379731
  0
SPLINE
  5
2F2
330
1F
100
AcDbEntity
  8
0
  6
Continuous
 62
     7
370
     0
100
AcDbSpline
210
0.0
220
0.0
230
1.0
 70
    24
 71
     1
 72
     4
 73
     2
 74
     0
 42
0.00000001
 43
0.00000001
 40
0.0
 40
0.0
 40
1.0
 40
1.0
 10
5.166029185989998
 20
7.086163291839104
 30
0.0
 10
5.161698047518077
 20
7.091300268655057
 30
0.0
  0
ARC
  5
2F3
330
1F
100
AcDbEntity
  8
0
  6
Continuous
 62
     7
370
     0
100
AcDbCircle
 10
5.1566028244
 20
7.0875750326
 30
0.0
 40
0.0063117891922637
100
AcDbArc
 50
36.1714058166
 51
116.6912338359
  0
SPLINE
  5
2F4
330
1F
100
AcDbEntity
  8
0
  6
Continuous
 62
     7
370
     0
100
AcDbSpline
210
0.0
220
0.0
230
1.0
 70
     8
 71
     3
 72
    12
 73
     8
 74
     0
 42
0.00000001
 43
0.00000001
 40
0.0
 40
0.0
 40
0.0
 40
0.0
 40
0.1254546188255721
 40
0.2504876406201975
 40
0.3765743807620028
 40
0.5007396466695128
 40
0.9999999999999999
 40
0.9999999999999999
 40
0.9999999999999999
 40
0.9999999999999999
 10
5.153767680337745
 20
7.093214238268919
 30
0.0
 10
5.153309725826364
 20
7.092909105052271
 30
0.0
 10
5.152395355784506
 20
7.09229986403565
 30
0.0
 10
5.151439337559741
 20
7.090903986143471
 30
0.0
 10
5.151009141900551
 20
7.089182237841906
 30
0.0
 10
5.151442245619196
 20
7.085392481249578
 30
0.0
 10
5.153291780655222
 20
7.08249222570245
 30
0.0
 10
5.154772950961813
 20
7.080169602819263
 30
0.0
  0
ARC
  5
2F5
330
1F
100
AcDbEntity
  8
0
  6
Continuous
 62
     7
370
     0
100
AcDbCircle
 10
4.285316349
 20
6.5213045059
 30
0.0
 40
1.03357872425992
100
AcDbArc
 50
32.1228634585
 51
32.7319020002
  0
LINE
  5
2F6
330
1F
100
AcDbEntity
  8
0
  6
Continuous
 62
     7
370
     0
100
AcDbLine
 10
5.160664303
 20
7.0708961167
 30
0.0
 11
5.1716841489
 21
7.0772577384
 31
0.0
  0
ARC
  5
2F7
330
1F
100
AcDbEntity
  8
0
  6
Continuous
 62
     7
370
     0
100
AcDbCircle
 10
4.3338586118
 20
6.5444555657
 30
0.0
 40
0.9908015229092987
100
AcDbArc
 50
22.4111434878
 51
22.9849229056
  0
SPLINE
  5
2F8
330
1F
100
AcDbEntity
  8
0
  6
Continuous
 62
     7
370
     0
100
AcDbSpline
210
0.0
220
0.0
230
1.0
 70
     8
 71
     3
 72
    13
 73
     9
 74
     0
 42
0.00000001
 43
0.00000001
 40
0.0
 40
0.0
 40
0.0
 40
0.0
 40
0.2504938046100794
 40
0.500033499971458
 40
0.6230922559610387
 40
0.7498346549126995
 40
0.8747951351445172
 40
0.9999999999999999
 40
0.9999999999999999
 40
0.9999999999999999
 40
0.9999999999999999
 10
5.245998063972513
 20
6.931352551401799
 30
0.0
 10
5.245539029034847
 20
6.932366298484537
 30
0.0
 10
5.244622707583915
 20
6.934389931375005
 30
0.0
 10
5.243051460908333
 20
6.936672932731798
 30
0.0
 10
5.24135921090728
 20
6.937795639502161
 30
0.0
 10
5.239969474105769
 20
6.938083633561453
 30
0.0
 10
5.238590481226784
 20
6.937923482083237
 30
0.0
 10
5.237768292289203
 20
6.937501651732203
 30
0.0
 10
5.237356796225352
 20
6.937290530515256
 30
0.0
  0
SPLINE
  5
2F9
330
1F
100
AcDbEntity
  8
0
  6
Continuous
 62
     7
370
     0
100
AcDbSpline
210
0.0
220
0.0
230
1.0
 70
     8
 71
     3
 72
    13
 73
     9
 74
     0
 42
0.00000001
 43
0.00000001
 40
0.0
 40
0.0
 40
0.0
 40
0.0
 40
0.1251919391449804
 40
0.2501125902691808
 40
0.3750126260007653
 40
0.4999319689166171
 40
0.7494681873120305
 40
1.0
 40
1.0
 40
1.0
 40
1.0
 10
5.237356796225352
 20
6.937290530515256
 30
0.0
 10
5.236976179743917
 20
6.937042465225223
 30
0.0
 10
5.236215771568112
 20
6.93654687219687
 30
0.0
 10
5.235344276206592
 20
6.935366267078249
 30
0.0
 10
5.234787774992667
 20
6.933918425487657
 30
0.0
 10
5.234591807661046
 20
6.931745110703818
 30
0.0
 10
5.235190319225887
 20
6.928997352970627
 30
0.0
 10
5.235990442652486
 20
6.926981580735249
 30
0.0
 10
5.236391300855731
 20
6.925971687999253
 30
0.0
  0
ARC
  5
2FA
330
1F
100
AcDbEntity
  8
0
  6
Continuous
 62
     7
370
     0
100
AcDbCircle
 10
4.3242598411
 20
6.5389220772
 30
0.0
 40
0.9908537737705442
100
AcDbArc
 50
22.4111536473
 51
22.9932281928
  0
LINE
  5
2FB
330
1F
100
AcDbEntity
  8
0
  6
Continuous
 62
     7
370
     0
100
AcDbLine
 10
5.2402762465
 20
6.9166854238
 30
0.0
 11
5.2498267797
 21
6.9221988293
 31
0.0
  0
ARC
  5
2FC
330
1F
100
AcDbEntity
  8
0
  6
Continuous
 62
     7
370
     0
100
AcDbCircle
 10
4.3551248878
 20
6.5568564753
 30
0.0
 40
0.9916394139307891
100
AcDbArc
 50
22.4113239617
 51
23.1186777718
  0
SPLINE
  5
2FD
330
1F
100
AcDbEntity
  8
0
  6
Continuous
 62
     7
370
     0
100
AcDbSpline
210
0.0
220
0.0
230
1.0
 70
     8
 71
     3
 72
    13
 73
     9
 74
     0
 42
0.00000001
 43
0.00000001
 40
0.0
 40
0.0
 40
0.0
 40
0.0
 40
0.2504428154806379
 40
0.4999444018818095
 40
0.625741580854467
 40
0.7498476432891347
 40
0.8748082861017201
 40
1.0
 40
1.0
 40
1.0
 40
1.0
 10
5.267129261715085
 20
6.946210747408205
 30
0.0
 10
5.266586283096803
 20
6.947395493806146
 30
0.0
 10
5.265502366514765
 20
6.949760534017675
 30
0.0
 10
5.263613760357358
 20
6.952402609368431
 30
0.0
 10
5.261637046319153
 20
6.953725798799018
 30
0.0
 10
5.260018034860436
 20
6.954144500111742
 30
0.0
 10
5.258398882269439
 20
6.954031384925915
 30
0.0
 10
5.257430533673469
 20
6.953551297187418
 30
0.0
 10
5.256945912133324
 20
6.953311031584509
 30
0.0
  0
SPLINE
  5
2FE
330
1F
100
AcDbEntity
  8
0
  6
Continuous
 62
     7
370
     0
100
AcDbSpline
210
0.0
220
0.0
230
1.0
 70
     8
 71
     3
 72
    13
 73
     9
 74
     0
 42
0.00000001
 43
0.00000001
 40
0.0
 40
0.0
 40
0.0
 40
0.0
 40
0.1251298544208378
 40
0.2499104925561857
 40
0.375198994881321
 40
0.4998595746950446
 40
0.7495444761676602
 40
1.0
 40
1.0
 40
1.0
 40
1.0
 10
5.256945912133324
 20
6.953311031584509
 30
0.0
 10
5.25649994279843
 20
6.953009798349305
 30
0.0
 10
5.255609248753722
 20
6.95240817256997
 30
0.0
 10
5.254642238731242
 20
6.950940229805743
 30
0.0
 10
5.254078583784095
 20
6.949178844013518
 30
0.0
 10
5.25393850343971
 20
6.946599047196541
 30
0.0
 10
5.254698715742487
 20
6.943376542823025
 30
0.0
 10
5.255651261091288
 20
6.940996712612985
 30
0.0
 10
5.256128267612331
 20
6.939804964072515
 30
0.0
  0
ARC
  5
2FF
330
1F
100
AcDbEntity
  8
0
  6
Continuous
 62
     7
370
     0
100
AcDbCircle
 10
4.3441209626
 20
6.550501496
 30
0.0
 40
0.9916221632636371
100
AcDbArc
 50
22.4113198677
 51
23.1159115598
  0
LINE
  5
300
330
1F
100
AcDbEntity
  8
0
  6
Continuous
 62
     7
370
     0
100
AcDbLine
 10
5.2608466256
 20
6.9285604509
 30
0.0
 11
5.2718664716
 21
6.9349220726
 31
0.0
  0
SPLINE
  5
301
330
1F
100
AcDbEntity
  8
0
  6
Continuous
 62
     7
370
     0
100
AcDbSpline
210
0.0
220
0.0
230
1.0
 70
    24
 71
     1
 72
     4
 73
     2
 74
     0
 42
0.00000001
 43
0.00000001
 40
0.0
 40
0.0
 40
1.0
 40
1.0
 10
5.087383825513342
 20
7.180643715709811
 30
0.0
 10
5.11830580111448
 20
7.17472010301123
 30
0.0
  0
ARC
  5
302
330
1F
100
AcDbEntity
  8
0
  6
Continuous
 62
     7
370
     0
100
AcDbCircle
 10
4.3616323184
 20
6.5739136218
 30
0.0
 40
0.9661900368258537
100
AcDbArc
 50
38.449934441
 51
39.6864158295
  0
LINE
  5
303
330
1F
100
AcDbEntity
  8
0
  6
Continuous
 62
     7
370
     0
100
AcDbLine
 10
5.1051648061
 20
7.1909084573
 30
0.0
 11
5.0873838255
 21
7.1806437157
 31
0.0
  0
ARC
  5
304
330
1F
100
AcDbEntity
  8
0
  6
Continuous
 62
     7
370
     0
100
AcDbCircle
 10
4.4093555643
 20
6.5719304331
 30
0.0
 40
0.9104349530723156
100
AcDbArc
 50
17.296536342
 51
17.9036038153
  0
SPLINE
  5
305
330
1F
100
AcDbEntity
  8
0
  6
Continuous
 62
     7
370
     0
100
AcDbSpline
210
0.0
220
0.0
230
1.0
 70
     8
 71
     3
 72
    13
 73
     9
 74
     0
 42
0.00000001
 43
0.00000001
 40
0.0
 40
0.0
 40
0.0
 40
0.0
 40
0.2504938046098585
 40
0.5000334999710513
 40
0.6230922559240625
 40
0.7498346549129172
 40
0.8747951351446226
 40
1.0
 40
1.0
 40
1.0
 40
1.0
 10
5.275702768244949
 20
6.851813133474505
 30
0.0
 10
5.275345572868198
 20
6.852832989120492
 30
0.0
 10
5.274632542641009
 20
6.854868815870464
 30
0.0
 10
5.273313919693523
 20
6.857169800844237
 30
0.0
 10
5.271787505826027
 20
6.858305175855947
 30
0.0
 10
5.270483744771425
 20
6.858600012432556
 30
0.0
 10
5.269154851903329
 20
6.858443942243995
 30
0.0
 10
5.268336821499081
 20
6.858022454520093
 30
0.0
 10
5.267927406733117
 20
6.857811504784065
 30
0.0
  0
SPLINE
  5
306
330
1F
100
AcDbEntity
  8
0
  6
Continuous
 62
     7
370
     0
100
AcDbSpline
210
0.0
220
0.0
230
1.0
 70
     8
 71
     3
 72
    13
 73
     9
 74
     0
 42
0.00000001
 43
0.00000001
 40
0.0
 40
0.0
 40
0.0
 40
0.0
 40
0.1251919391450108
 40
0.2501125902692311
 40
0.3750126260037039
 40
0.4999319689165144
 40
0.7494681873119767
 40
1.0
 40
1.0
 40
1.0
 40
1.0
 10
5.267927406733117
 20
6.857811504784065
 30
0.0
 10
5.267544558599533
 20
6.857563255575069
 30
0.0
 10
5.266779691955369
 20
6.857067295107342
 30
0.0
 10
5.265854820002802
 20
6.855882343752221
 30
0.0
 10
5.265209471365683
 20
6.854427448064476
 30
0.0
 10
5.264850768146776
 20
6.852241730944902
 30
0.0
 10
5.265204314239256
 20
6.849476548175394
 30
0.0
 10
5.265807145202968
 20
6.847448881738091
 30
0.0
 10
5.266109160778241
 20
6.846433030060942
 30
0.0
  0
ARC
  5
307
330
1F
100
AcDbEntity
  8
0
  6
Continuous
 62
     7
370
     0
100
AcDbCircle
 10
4.3997285956
 20
6.5663929272
 30
0.0
 40
0.9105150975799872
100
AcDbArc
 50
17.2965542792
 51
17.9123836437
  0
LINE
  5
308
330
1F
100
AcDbEntity
  8
0
  6
Continuous
 62
     7
370
     0
100
AcDbLine
 10
5.2690690001
 20
6.8371049588
 30
0.0
 11
5.2786195332
 21
6.8426183642
 31
0.0
  0
ARC
  5
309
330
1F
100
AcDbEntity
  8
0
  6
Continuous
 62
     7
370
     0
100
AcDbCircle
 10
4.4301668272
 20
6.5842658241
 30
0.0
 40
0.9117231461528335
100
AcDbArc
 50
17.296855597
 51
18.0449633465
  0
SPLINE
  5
30A
330
1F
100
AcDbEntity
  8
0
  6
Continuous
 62
     7
370
     0
100
AcDbSpline
210
0.0
220
0.0
230
1.0
 70
     8
 71
     3
 72
    13
 73
     9
 74
     0
 42
0.00000001
 43
0.00000001
 40
0.0
 40
0.0
 40
0.0
 40
0.0
 40
0.2504428154811917
 40
0.4999444018829006
 40
0.6257415808381422
 40
0.7498476432885889
 40
0.8748082861014506
 40
1.0
 40
1.0
 40
1.0
 40
1.0
 10
5.297045703179593
 20
6.866684147826296
 30
0.0
 10
5.296621659575758
 20
6.867876782866501
 30
0.0
 10
5.295775166033975
 20
6.870257570714997
 30
0.0
 10
5.294180897122993
 20
6.872923041080434
 30
0.0
 10
5.292397926852813
 20
6.874262817332107
 30
0.0
 10
5.290885111217846
 20
6.874691015828882
 30
0.0
 10
5.289330350011171
 20
6.874583818257162
 30
0.0
 10
5.288368183604488
 20
6.87410430595643
 30
0.0
 10
5.287886656014295
 20
6.873864328338177
 30
0.0
  0
SPLINE
  5
30B
330
1F
100
AcDbEntity
  8
0
  6
Continuous
 62
     7
370
     0
100
AcDbSpline
210
0.0
220
0.0
230
1.0
 70
     8
 71
     3
 72
    13
 73
     9
 74
     0
 42
0.00000001
 43
0.00000001
 40
0.0
 40
0.0
 40
0.0
 40
0.0
 40
0.1251298544205039
 40
0.2499104925555198
 40
0.3751989948752354
 40
0.4998595746963982
 40
0.7495444761683286
 40
1.0
 40
1.0
 40
1.0
 40
1.0
 10
5.287886656014295
 20
6.873864328338177
 30
0.0
 10
5.287437257581965
 20
6.873562775713244
 30
0.0
 10
5.28653971491241
 20
6.872960512045814
 30
0.0
 10
5.285501405638364
 20
6.871486023567074
 30
0.0
 10
5.284825048927989
 20
6.869714598419424
 30
0.0
 10
5.284488454992796
 20
6.867118075538332
 30
0.0
 10
5.284959856665256
 20
6.863872756677706
 30
0.0
 10
5.2856798044276
 20
6.861477540340299
 30
0.0
 10
5.286040332960842
 20
6.86027808688258
 30
0.0
  0
ARC
  5
30C
330
1F
100
AcDbEntity
  8
0
  6
Continuous
 62
     7
370
     0
100
AcDbCircle
 10
4.4191723314
 20
6.5779122175
 30
0.0
 40
0.9116965593815376
100
AcDbArc
 50
17.296848341
 51
18.0420406755
  0
LINE
  5
30D
330
1F
100
AcDbEntity
  8
0
  6
Continuous
 62
     7
370
     0
100
AcDbLine
 10
5.2896393792
 20
6.8489799858
 30
0.0
 11
5.3006592251
 21
6.8553416075
 31
0.0
  0
ARC
  5
30E
330
1F
100
AcDbEntity
  8
0
  6
Continuous
 62
     7
370
     0
100
AcDbCircle
 10
4.8342525596
 20
7.2723598055
 30
0.0
 40
0.0150368382500515
100
AcDbArc
 50
234.415255675
 51
268.9711282468
  0
ARC
  5
30F
330
1F
100
AcDbEntity
  8
0
  6
Continuous
 62
     7
370
     0
100
AcDbCircle
 10
4.833965436
 20
7.2730546494
 30
0.0
 40
0.0157292671065506
100
AcDbArc
 50
270.062356427
 51
294.7196268975
  0
ARC
  5
310
330
1F
100
AcDbEntity
  8
0
  6
Continuous
 62
     7
370
     0
100
AcDbCircle
 10
4.4419282557
 20
6.7197057387
 30
0.0
 40
0.6704330911544853
100
AcDbArc
 50
53.5185028959
 51
55.1260689495
  0
SPLINE
  5
311
330
1F
100
AcDbEntity
  8
0
  6
Continuous
 62
     7
370
     0
100
AcDbSpline
210
0.0
220
0.0
230
1.0
 70
     8
 71
     3
 72
    14
 73
    10
 74
     0
 42
0.00000001
 43
0.00000001
 40
0.0
 40
0.0
 40
0.0
 40
0.0
 40
0.2498651990132052
 40
0.3801695456143685
 40
0.4997833767987634
 40
0.6217495378869691
 40
0.7497988549977151
 40
0.8748232474916331
 40
1.0
 40
1.0
 40
1.0
 40
1.0
 10
4.825263563635938
 20
7.269737166320591
 30
0.0
 10
4.824442968000559
 20
7.269060951934625
 30
0.0
 10
4.823194432906168
 20
7.268032092706265
 30
0.0
 10
4.82221505319641
 20
7.266407713788409
 30
0.0
 10
4.821953476370137
 20
7.265096292472806
 30
0.0
 10
4.822225602434731
 20
7.263758939636351
 30
0.0
 10
4.822959625394335
 20
7.262447557248863
 30
0.0
 10
4.824078004051805
 20
7.261215659510897
 30
0.0
 10
4.825027492881295
 20
7.260492707026631
 30
0.0
 10
4.825502526391703
 20
7.260131010663501
 30
0.0
  0
SPLINE
  5
312
330
1F
100
AcDbEntity
  8
0
  6
Continuous
 62
     7
370
     0
100
AcDbSpline
210
0.0
220
0.0
230
1.0
 70
     8
 71
     3
 72
    13
 73
     9
 74
     0
 42
0.00000001
 43
0.00000001
 40
0.0
 40
0.0
 40
0.0
 40
0.0
 40
0.5004466743176422
 40
0.6281338580766271
 40
0.7515867387245685
 40
0.8133721073333768
 40
0.8755912436634435
 40
0.9999999999999999
 40
0.9999999999999999
 40
0.9999999999999999
 40
0.9999999999999999
 10
5.062556570507586
 20
7.229709183743305
 30
0.0
 10
5.066191554331717
 20
7.231885753605994
 30
0.0
 10
5.070753991311864
 20
7.234617667504887
 30
0.0
 10
5.074690781184757
 20
7.239157543852129
 30
0.0
 10
5.075558174072466
 20
7.241494473085092
 30
0.0
 10
5.07559496782385
 20
7.243499056402454
 30
0.0
 10
5.075094470166719
 20
7.245587820877835
 30
0.0
 10
5.073955574931806
 20
7.247005069632625
 30
0.0
 10
5.073196371482907
 20
7.247949827420347
 30
0.0
  0
SPLINE
  5
313
330
1F
100
AcDbEntity
  8
0
  6
Continuous
 62
     7
370
     0
100
AcDbSpline
210
0.0
220
0.0
230
1.0
 70
     8
 71
     3
 72
    17
 73
    13
 74
     0
 42
0.00000001
 43
0.00000001
 40
0.0
 40
0.0
 40
0.0
 40
0.0
 40
0.0625191415197347
 40
0.1249573803977118
 40
0.187082977252584
 40
0.2498824233790713
 40
0.3645937397488585
 40
0.4291208042441888
 40
0.4996845104524274
 40
0.6520438122636767
 40
0.8302311697959344
 40
0.9999999999999999
 40
0.9999999999999999
 40
0.9999999999999999
 40
0.9999999999999999
 10
5.073196371482907
 20
7.247949827420347
 30
0.0
 10
5.072753072802332
 20
7.24837413315266
 30
0.0
 10
5.071867049090041
 20
7.249222195546172
 30
0.0
 10
5.070259363457617
 20
7.250259154953372
 30
0.0
 10
5.068492980745305
 20
7.251036697926823
 30
0.0
 10
5.066121672183627
 20
7.251656864161904
 30
0.0
 10
5.063715211998524
 20
7.251737980218724
 30
0.0
 10
5.061398330451119
 20
7.251429311331069
 30
0.0
 10
5.058857012847334
 20
7.250820808591237
 30
0.0
 10
5.055576790931066
 20
7.24956535861933
 30
0.0
 10
5.051753909457161
 20
7.247688699366088
 30
0.0
 10
5.049212528967918
 20
7.246258392509193
 30
0.0
 10
5.047972582078142
 20
7.245560541657603
 30
0.0
  0
SPLINE
  5
314
330
1F
100
AcDbEntity
  8
0
  6
Continuous
 62
     7
370
     0
100
AcDbSpline
210
0.0
220
0.0
230
1.0
 70
     8
 71
     3
 72
    16
 73
    12
 74
     0
 42
0.00000001
 43
0.00000001
 40
0.0
 40
0.0
 40
0.0
 40
0.0
 40
0.1818488349450437
 40
0.3430108367890427
 40
0.500768081192906
 40
0.5688733187468337
 40
0.6259479994857876
 40
0.7506455707029785
 40
0.8134826023508888
 40
0.875594116908908
 40
0.9999999999999999
 40
0.9999999999999999
 40
0.9999999999999999
 40
0.9999999999999999
 10
5.047972582078142
 20
7.245560541657603
 30
0.0
 10
5.046625959462657
 20
7.244759706078673
 30
0.0
 10
5.044085903870244
 20
7.243249136697559
 30
0.0
 10
5.040572316763952
 20
7.240856193940161
 30
0.0
 10
5.038087654101362
 20
7.23880195195974
 30
0.0
 10
5.036515862751291
 20
7.237121523406379
 30
0.0
 10
5.035318762319188
 20
7.235517464124197
 30
0.0
 10
5.034647614039623
 20
7.233654967056351
 30
0.0
 10
5.034693255002574
 20
7.23159382208266
 30
0.0
 10
5.035311428731183
 20
7.229472691921737
 30
0.0
 10
5.036494389412933
 20
7.228037236085725
 30
0.0
 10
5.037283416442745
 20
7.227079796441122
 30
0.0
  0
SPLINE
  5
315
330
1F
100
AcDbEntity
  8
0
  6
Continuous
 62
     7
370
     0
100
AcDbSpline
210
0.0
220
0.0
230
1.0
 70
     8
 71
     3
 72
    13
 73
     9
 74
     0
 42
0.00000001
 43
0.00000001
 40
0.0
 40
0.0
 40
0.0
 40
0.0
 40
0.1245476615472845
 40
0.1865124930231017
 40
0.2496161896392401
 40
0.3612078545657515
 40
0.4994992341854973
 40
1.0
 40
1.0
 40
1.0
 40
1.0
 10
5.037283416442745
 20
7.227079796441122
 30
0.0
 10
5.038215530946855
 20
7.226236222027286
 30
0.0
 10
5.039611390152761
 20
7.224972953291284
 30
0.0
 10
5.042003393853164
 20
7.223918146494512
 30
0.0
 10
5.04436068230821
 20
7.223326130854334
 30
0.0
 10
5.047454635867433
 20
7.223335864149482
 30
0.0
 10
5.054110635999435
 20
7.224964288275993
 30
0.0
 10
5.05884620186787
 20
7.227624712057708
 30
0.0
 10
5.062556570507586
 20
7.229709183743305
 30
0.0
  0
SPLINE
  5
316
330
1F
100
AcDbEntity
  8
0
  6
Continuous
 62
     7
370
     0
100
AcDbSpline
210
0.0
220
0.0
230
1.0
 70
     8
 71
     3
 72
    13
 73
     9
 74
     0
 42
0.00000001
 43
0.00000001
 40
0.0
 40
0.0
 40
0.0
 40
0.0
 40
0.2504195029902246
 40
0.4999297354828711
 40
0.6263021955952237
 40
0.7501652606848007
 40
0.8700075835833672
 40
1.0
 40
1.0
 40
1.0
 40
1.0
 10
4.778702140599139
 20
7.303961140623209
 30
0.0
 10
4.777591975492514
 20
7.30327574786113
 30
0.0
 10
4.775375676276719
 20
7.301907450990651
 30
0.0
 10
4.773456149228004
 20
7.299790113825469
 30
0.0
 10
4.772968505623346
 20
7.297941895277851
 30
0.0
 10
4.77320584404655
 20
7.296564139024401
 30
0.0
 10
4.774087832265928
 20
7.295244448949232
 30
0.0
 10
4.775152060915345
 20
7.29453252459676
 30
0.0
 10
4.775705793571327
 20
7.294162100663174
 30
0.0
  0
ARC
  5
317
330
1F
100
AcDbEntity
  8
0
  6
Continuous
 62
     7
370
     0
100
AcDbCircle
 10
4.7820242148
 20
7.3099216043
 30
0.0
 40
0.0169789399437441
100
AcDbArc
 50
248.1527845427
 51
307.7009520595
  0
SPLINE
  5
318
330
1F
100
AcDbEntity
  8
0
  6
Continuous
 62
     7
370
     0
100
AcDbSpline
210
0.0
220
0.0
230
1.0
 70
     8
 71
     3
 72
    13
 73
     9
 74
     0
 42
0.00000001
 43
0.00000001
 40
0.0
 40
0.0
 40
0.0
 40
0.0
 40
0.2504239687922445
 40
0.5001722006333373
 40
0.6249919335402928
 40
0.7511981228010001
 40
0.8755762680227543
 40
1.0
 40
1.0
 40
1.0
 40
1.0
 10
4.79240751886756
 20
7.296487640001804
 30
0.0
 10
4.793493830604524
 20
7.29715822794762
 30
0.0
 10
4.795663522805601
 20
7.298497594343713
 30
0.0
 10
4.797737606947281
 20
7.300517523749832
 30
0.0
 10
4.798420762809201
 20
7.302345095607301
 30
0.0
 10
4.798350985378937
 20
7.303743155055423
 30
0.0
 10
4.797643950470583
 20
7.305102615178518
 30
0.0
 10
4.796602066832562
 20
7.305800643135928
 30
0.0
 10
4.79608102956392
 20
7.306149721062764
 30
0.0
  0
ARC
  5
319
330
1F
100
AcDbEntity
  8
0
  6
Continuous
 62
     7
370
     0
100
AcDbCircle
 10
4.7893030908
 20
7.2898767124
 30
0.0
 40
0.0176281383832552
100
AcDbArc
 50
67.3875801854
 51
126.9677407477
  0
SPLINE
  5
31A
330
1F
100
AcDbEntity
  8
0
  6
Continuous
 62
     7
370
     0
100
AcDbSpline
210
0.0
220
0.0
230
1.0
 70
     8
 71
     3
 72
    13
 73
     9
 74
     0
 42
0.00000001
 43
0.00000001
 40
0.0
 40
0.0
 40
0.0
 40
0.0
 40
0.500446674317643
 40
0.628133858073601
 40
0.7515867387234604
 40
0.8133721073325247
 40
0.8755912436628165
 40
1.0
 40
1.0
 40
1.0
 40
1.0
 10
5.012696947634318
 20
7.278768548825639
 30
0.0
 10
5.016329752273967
 20
7.280939414945906
 30
0.0
 10
5.020889454058462
 20
7.283664169812835
 30
0.0
 10
5.024764618461007
 20
7.288035988264165
 30
0.0
 10
5.02558241227711
 20
7.29023631309719
 30
0.0
 10
5.025566110884117
 20
7.292092580574289
 30
0.0
 10
5.025002307399415
 20
7.294002986243274
 30
0.0
 10
5.023809051737193
 20
7.295263200619774
 30
0.0
 10
5.023013610869232
 20
7.296103277100614
 30
0.0
  0
SPLINE
  5
31B
330
1F
100
AcDbEntity
  8
0
  6
Continuous
 62
     7
370
     0
100
AcDbSpline
210
0.0
220
0.0
230
1.0
 70
     8
 71
     3
 72
    17
 73
    13
 74
     0
 42
0.00000001
 43
0.00000001
 40
0.0
 40
0.0
 40
0.0
 40
0.0
 40
0.0625191415197301
 40
0.124957380397703
 40
0.1870829772513379
 40
0.2498824233789903
 40
0.3645937397472248
 40
0.4291208042429625
 40
0.4996845104524336
 40
0.6520438122685194
 40
0.8302311698036424
 40
1.0
 40
1.0
 40
1.0
 40
1.0
 10
5.023013610869232
 20
7.296103277100614
 30
0.0
 10
5.022552620433726
 20
7.296475888716383
 30
0.0
 10
5.021631236105518
 20
7.29722062977137
 30
0.0
 10
5.019972983506507
 20
7.298107386030122
 30
0.0
 10
5.018160688548758
 20
7.298747014727795
 30
0.0
 10
5.01573894158732
 20
7.299213947713104
 30
0.0
 10
5.013295537609665
 20
7.299181250729698
 30
0.0
 10
5.010952927964287
 20
7.298792747715869
 30
0.0
 10
5.008390209092613
 20
7.298117513147443
 30
0.0
 10
5.005094144590576
 20
7.296812356761722
 30
0.0
 10
5.001263080099126
 20
7.294909951523325
 30
0.0
 10
4.998720788493292
 20
7.293476774427245
 30
0.0
 10
4.997480397067133
 20
7.292777523177679
 30
0.0
  0
SPLINE
  5
31C
330
1F
100
AcDbEntity
  8
0
  6
Continuous
 62
     7
370
     0
100
AcDbSpline
210
0.0
220
0.0
230
1.0
 70
     8
 71
     3
 72
    16
 73
    12
 74
     0
 42
0.00000001
 43
0.00000001
 40
0.0
 40
0.0
 40
0.0
 40
0.0
 40
0.1818488349472667
 40
0.3430108367906395
 40
0.5007680811928447
 40
0.5688733187506771
 40
0.6259479994857318
 40
0.7506455707029064
 40
0.8134826023440435
 40
0.8755941169089194
 40
1.0
 40
1.0
 40
1.0
 40
1.0
 10
4.997480397067133
 20
7.292777523177679
 30
0.0
 10
4.996134354923529
 20
7.29197851635294
 30
0.0
 10
4.993595394241339
 20
7.290471396444065
 30
0.0
 10
4.990090842641718
 20
7.288106875348253
 30
0.0
 10
4.98762157187862
 20
7.286100908090177
 30
0.0
 10
4.986069051187683
 20
7.284480563049945
 30
0.0
 10
4.984894771020598
 20
7.282947365510582
 30
0.0
 10
4.984260635875701
 20
7.281199124940708
 30
0.0
 10
4.984359206891964
 20
7.279298799185013
 30
0.0
 10
4.985040608231532
 20
7.27736793987153
 30
0.0
 10
4.986278552243438
 20
7.276093653183121
 30
0.0
 10
4.987104252794455
 20
7.275243712304817
 30
0.0
  0
SPLINE
  5
31D
330
1F
100
AcDbEntity
  8
0
  6
Continuous
 62
     7
370
     0
100
AcDbSpline
210
0.0
220
0.0
230
1.0
 70
     8
 71
     3
 72
    13
 73
     9
 74
     0
 42
0.00000001
 43
0.00000001
 40
0.0
 40
0.0
 40
0.0
 40
0.0
 40
0.124547661547274
 40
0.1865124930175615
 40
0.2496161896390393
 40
0.3612078545583157
 40
0.4994992341855286
 40
1.0
 40
1.0
 40
1.0
 40
1.0
 10
4.987104252794455
 20
7.275243712304817
 30
0.0
 10
4.988072587529184
 20
7.274504686347784
 30
0.0
 10
4.989522687219584
 20
7.273397980915193
 30
0.0
 10
4.991979576244995
 20
7.272525825708517
 30
0.0
 10
4.99438919197509
 20
7.272079768224734
 30
0.0
 10
4.997531145711743
 20
7.272221627820479
 30
0.0
 10
5.004247343862286
 20
7.274014135187304
 30
0.0
 10
5.008984967056761
 20
7.276679895729077
 30
0.0
 10
5.012696947634318
 20
7.278768548825639
 30
0.0
  0
ARC
  5
31E
330
1F
100
AcDbEntity
  8
0
  6
Continuous
 62
     7
370
     0
100
AcDbCircle
 10
4.5543086393
 20
6.937116395
 30
0.0
 40
0.4177218836999869
100
AcDbArc
 50
69.9958978417
 51
70.5661287542
  0
ARC
  5
31F
330
1F
100
AcDbEntity
  8
0
  6
Continuous
 62
     7
370
     0
100
AcDbCircle
 10
4.6868030447
 20
7.3153934181
 30
0.0
 40
0.0169380892508163
100
AcDbArc
 50
67.4723919886
 51
118.3014589262
  0
SPLINE
  5
320
330
1F
100
AcDbEntity
  8
0
  6
Continuous
 62
     7
370
     0
100
AcDbSpline
210
0.0
220
0.0
230
1.0
 70
     8
 71
     3
 72
    13
 73
     9
 74
     0
 42
0.00000001
 43
0.00000001
 40
0.0
 40
0.0
 40
0.0
 40
0.0
 40
0.2490070663650873
 40
0.3741568162824986
 40
0.4990659824630481
 40
0.6166578040300684
 40
0.7494947776329357
 40
0.9999999999999999
 40
0.9999999999999999
 40
0.9999999999999999
 40
0.9999999999999999
 10
4.678772516593138
 20
7.330306817622942
 30
0.0
 10
4.677902804206043
 20
7.329717439104557
 30
0.0
 10
4.676595978570179
 20
7.328831841787005
 30
0.0
 10
4.675927131610474
 20
7.327548864525182
 30
0.0
 10
4.675865019431867
 20
7.326630788123748
 30
0.0
 10
4.67651728286032
 20
7.325831791356689
 30
0.0
 10
4.677851509228908
 20
7.324926191547821
 30
0.0
 10
4.679255172008368
 20
7.324397025394996
 30
0.0
 10
4.680172433036226
 20
7.324051227603424
 30
0.0
  0
ARC
  5
321
330
1F
100
AcDbEntity
  8
0
  6
Continuous
 62
     7
370
     0
100
AcDbCircle
 10
4.5420025454
 20
6.9304150777
 30
0.0
 40
0.4171814190168391
100
AcDbArc
 50
69.9956316407
 51
70.6584603048
  0
LINE
  5
322
330
1F
100
AcDbEntity
  8
0
  6
Continuous
 62
     7
370
     0
100
AcDbLine
 10
4.6847168824
 20
7.3224264989
 30
0.0
 11
4.6972060411
 21
7.3296363368
 31
0.0
  0
SPLINE
  5
323
330
1F
100
AcDbEntity
  8
0
  6
Continuous
 62
     7
370
     0
100
AcDbSpline
210
0.0
220
0.0
230
1.0
 70
     8
 71
     3
 72
    13
 73
     9
 74
     0
 42
0.00000001
 43
0.00000001
 40
0.0
 40
0.0
 40
0.0
 40
0.0
 40
0.5004466743176275
 40
0.6281338580741623
 40
0.7515867387253072
 40
0.813372107333375
 40
0.8755912436634496
 40
1.0
 40
1.0
 40
1.0
 40
1.0
 10
4.881947139854734
 20
7.372518289519791
 30
0.0
 10
4.885577895049424
 20
7.374672047593466
 30
0.0
 10
4.890135024480393
 20
7.377375329356745
 30
0.0
 10
4.893955389838896
 20
7.381245078529483
 30
0.0
 10
4.894729706261964
 20
7.383037684198095
 30
0.0
 10
4.89466783554229
 20
7.384451866329524
 30
0.0
 10
4.89405040942313
 20
7.385831061209676
 30
0.0
 10
4.892812919579095
 20
7.386624647465588
 30
0.0
 10
4.891987991588557
 20
7.387153663132716
 30
0.0
  0
ARC
  5
324
330
1F
100
AcDbEntity
  8
0
  6
Continuous
 62
     7
370
     0
100
AcDbCircle
 10
4.8848629309
 20
7.3597747609
 30
0.0
 40
0.0282908249572741
100
AcDbArc
 50
75.4129528518
 51
131.2139116972
  0
SPLINE
  5
325
330
1F
100
AcDbEntity
  8
0
  6
Continuous
 62
     7
370
     0
100
AcDbSpline
210
0.0
220
0.0
230
1.0
 70
     8
 71
     3
 72
    16
 73
    12
 74
     0
 42
0.00000001
 43
0.00000001
 40
0.0
 40
0.0
 40
0.0
 40
0.0
 40
0.1818488349578904
 40
0.3430108367808682
 40
0.5007680811927477
 40
0.568873318742974
 40
0.6259479994857403
 40
0.7506455707029027
 40
0.8134826023440307
 40
0.8755941169089216
 40
1.0
 40
1.0
 40
1.0
 40
1.0
 10
4.866222894741224
 20
7.381056674137291
 30
0.0
 10
4.864877253994767
 20
7.380263060527956
 30
0.0
 10
4.862339050444795
 20
7.378766113526442
 30
0.0
 10
4.858840767625681
 20
7.376485422277159
 30
0.0
 10
4.856382241663845
 20
7.374621876545335
 30
0.0
 10
4.854843339930556
 20
7.373178880141849
 30
0.0
 10
4.853685322266942
 20
7.371854917514265
 30
0.0
 10
4.853077880172286
 20
7.370444214167043
 30
0.0
 10
4.853215824110239
 20
7.369019629930321
 30
0.0
 10
4.853945115740955
 20
7.367652107384339
 30
0.0
 10
4.855226710145304
 20
7.366856106015399
 30
0.0
 10
4.856081525222296
 20
7.366325178313804
 30
0.0
  0
ARC
  5
326
330
1F
100
AcDbEntity
  8
0
  6
Continuous
 62
     7
370
     0
100
AcDbCircle
 10
4.8638464291
 20
7.3910055543
 30
0.0
 40
0.0258730494637224
100
AcDbArc
 50
252.5354579955
 51
314.3946894921
  0
SPLINE
  5
327
330
1F
100
AcDbEntity
  8
0
  6
Continuous
 62
     7
370
     0
100
AcDbSpline
210
0.0
220
0.0
230
1.0
 70
     8
 71
     3
 72
     9
 73
     5
 74
     0
 42
0.00000001
 43
0.00000001
 40
0.0
 40
0.0
 40
0.0
 40
0.0
 40
0.4999994377870728
 40
1.0
 40
1.0
 40
1.0
 40
1.0
 10
4.647383341641909
 20
7.355432100359192
 30
0.0
 10
4.648737518418842
 20
7.355435280769837
 30
0.0
 10
4.651445875018054
 20
7.355441641598278
 30
0.0
 10
4.654057692280118
 20
7.355329036772296
 30
0.0
 10
4.655363602379547
 20
7.355272734295998
 30
0.0
  0
ARC
  5
328
330
1F
100
AcDbEntity
  8
0
  6
Continuous
 62
     7
370
     0
100
AcDbCircle
 10
4.6588365602
 20
7.4075502202
 30
0.0
 40
0.0523927186970661
100
AcDbArc
 50
266.199245979
 51
274.6796785548
  0
ARC
  5
329
330
1F
100
AcDbEntity
  8
0
  6
Continuous
 62
     7
370
     0
100
AcDbCircle
 10
4.6620349411
 20
7.3652368562
 30
0.0
 40
0.009962980560314
100
AcDbArc
 50
276.2004893789
 51
298.0694734134
  0
SPLINE
  5
32A
330
1F
100
AcDbEntity
  8
0
  6
Continuous
 62
     7
370
     0
100
AcDbSpline
210
0.0
220
0.0
230
1.0
 70
     8
 71
     3
 72
    13
 73
     9
 74
     0
 42
0.00000001
 43
0.00000001
 40
0.0
 40
0.0
 40
0.0
 40
0.0
 40
0.1250826238999824
 40
0.2499977149668724
 40
0.3702186099521025
 40
0.5000505825686766
 40
0.7496489762940555
 40
1.0
 40
1.0
 40
1.0
 40
1.0
 10
4.666722940172489
 20
7.356445744410882
 30
0.0
 10
4.666990549786089
 20
7.356614965052442
 30
0.0
 10
4.667525410583034
 20
7.356953179685267
 30
0.0
 10
4.667953586623133
 20
7.35747664052081
 30
0.0
 10
4.66807989725639
 20
7.357966963419694
 30
0.0
 10
4.667831024861672
 20
7.358529956659747
 30
0.0
 10
4.666939395471398
 20
7.359054144479529
 30
0.0
 10
4.665895374666195
 20
7.359290093448956
 30
0.0
 10
4.665372578422735
 20
7.359408245533904
 30
0.0
  0
ARC
  5
32B
330
1F
100
AcDbEntity
  8
0
  6
Continuous
 62
     7
370
     0
100
AcDbCircle
 10
4.6612676498
 20
7.3359541907
 30
0.0
 40
0.0238105675400906
100
AcDbArc
 50
80.0726428652
 51
119.7898347672
  0
LINE
  5
32C
330
1F
100
AcDbEntity
  8
0
  6
Continuous
 62
     7
370
     0
100
AcDbLine
 10
4.6494380837
 20
7.3566182777
 30
0.0
 11
4.6473833416
 21
7.3554321004
 31
0.0
  0
SPLINE
  5
32D
330
1F
100
AcDbEntity
  8
0
  6
Continuous
 62
     7
370
     0
100
AcDbSpline
210
0.0
220
0.0
230
1.0
 70
     8
 71
     3
 72
    13
 73
     9
 74
     0
 42
0.00000001
 43
0.00000001
 40
0.0
 40
0.0
 40
0.0
 40
0.0
 40
0.5004466743177031
 40
0.6281338580793362
 40
0.7515867387265461
 40
0.81337210733157
 40
0.8755912436621314
 40
0.9999999999999999
 40
0.9999999999999999
 40
0.9999999999999999
 40
0.9999999999999999
 10
4.829338554067424
 20
7.396930298158466
 30
0.0
 10
4.832969882303079
 20
7.39907635245284
 30
0.0
 10
4.837527730984409
 20
7.401769964845033
 30
0.0
 10
4.841366775976731
 20
7.405414301816273
 30
0.0
 10
4.842156618376584
 20
7.407023983671925
 30
0.0
 10
4.842112130264988
 20
7.40824002076373
 30
0.0
 10
4.841515986085214
 20
7.409381266243972
 30
0.0
 10
4.840298190480831
 20
7.409966191903654
 30
0.0
 10
4.839486390945141
 20
7.410356111506937
 30
0.0
  0
ARC
  5
32E
330
1F
100
AcDbEntity
  8
0
  6
Continuous
 62
     7
370
     0
100
AcDbCircle
 10
4.8350097601
 20
7.3775220069
 30
0.0
 40
0.0331378733238734
100
AcDbArc
 50
82.236113855
 51
129.6850814474
  0
SPLINE
  5
32F
330
1F
100
AcDbEntity
  8
0
  6
Continuous
 62
     7
370
     0
100
AcDbSpline
210
0.0
220
0.0
230
1.0
 70
     8
 71
     3
 72
    16
 73
    12
 74
     0
 42
0.00000001
 43
0.00000001
 40
0.0
 40
0.0
 40
0.0
 40
0.0
 40
0.1818488349568407
 40
0.343010836796411
 40
0.5007680811928609
 40
0.5688733187530354
 40
0.6259479994857712
 40
0.7506455707029551
 40
0.8134826023452506
 40
0.8755941169089133
 40
1.0
 40
1.0
 40
1.0
 40
1.0
 10
4.813848992489823
 20
7.403023782556053
 30
0.0
 10
4.812503085845218
 20
7.402232566838316
 30
0.0
 10
4.809964380746965
 20
7.400740142839602
 30
0.0
 10
4.806461975244462
 20
7.398496727112977
 30
0.0
 10
4.803996478049586
 20
7.396696521955969
 30
0.0
 10
4.802448978791269
 20
7.395332429602205
 30
0.0
 10
4.801280885734811
 20
7.394101581966956
 30
0.0
 10
4.800657349764236
 20
7.392841148970158
 30
0.0
 10
4.800773220082377
 20
7.391628582631339
 30
0.0
 10
4.801476815571037
 20
7.390512274471569
 30
0.0
 10
4.802737635319039
 20
7.389929934639219
 30
0.0
 10
4.803578593836266
 20
7.389541517783669
 30
0.0
  0
ARC
  5
330
330
1F
100
AcDbEntity
  8
0
  6
Continuous
 62
     7
370
     0
100
AcDbCircle
 10
4.8090423308
 20
7.4190916135
 30
0.0
 40
0.0300509662990689
100
AcDbArc
 50
259.5244639445
 51
312.4847048125
  0
ARC
  5
331
330
1F
100
AcDbEntity
  8
0
  6
Continuous
 62
     7
370
     0
100
AcDbCircle
 10
5.1609929379
 20
7.0266405211
 30
0.0
 40
0.9030166039651003
100
AcDbArc
 50
2.4835458945
 51
57.5110775728
  0
SPLINE
  5
332
330
1F
100
AcDbEntity
  8
0
  6
Continuous
 62
     7
370
     0
100
AcDbSpline
210
0.0
220
0.0
230
1.0
 70
     8
 71
     3
 72
    13
 73
     9
 74
     0
 42
0.00000001
 43
0.00000001
 40
0.0
 40
0.0
 40
0.0
 40
0.0
 40
0.5004466743175742
 40
0.6281338580749938
 40
0.7515867387274696
 40
0.8133721073340788
 40
0.8755912436639435
 40
1.0
 40
1.0
 40
1.0
 40
1.0
 10
5.681367185102453
 20
7.657953981592027
 30
0.0
 10
5.685000155415711
 20
7.66012539284066
 30
0.0
 10
5.689560065144855
 20
7.662850831923517
 30
0.0
 10
5.693439884677605
 20
7.667238693217381
 30
0.0
 10
5.694261419203833
 20
7.669452054694673
 30
0.0
 10
5.694249112956687
 20
7.671322470892068
 30
0.0
 10
5.693690066179341
 20
7.673249887233954
 30
0.0
 10
5.692500877883074
 20
7.674525068328168
 30
0.0
 10
5.691708148377989
 20
7.675375121831792
 30
0.0
  0
SPLINE
  5
333
330
1F
100
AcDbEntity
  8
0
  6
Continuous
 62
     7
370
     0
100
AcDbSpline
210
0.0
220
0.0
230
1.0
 70
     8
 71
     3
 72
    17
 73
    13
 74
     0
 42
0.00000001
 43
0.00000001
 40
0.0
 40
0.0
 40
0.0
 40
0.0
 40
0.0625191415197334
 40
0.1249573803977182
 40
0.1870829772531959
 40
0.2498824233788331
 40
0.3645937397454906
 40
0.4291208042416457
 40
0.4996845104523965
 40
0.6520438122689696
 40
0.8302311698064008
 40
1.0
 40
1.0
 40
1.0
 40
1.0
 10
5.691708148377989
 20
7.675375121831792
 30
0.0
 10
5.691248479076236
 20
7.675752658837179
 30
0.0
 10
5.690329735305928
 20
7.676507244297719
 30
0.0
 10
5.688675247938023
 20
7.677408305641151
 30
0.0
 10
5.686866364802579
 20
7.67806106522765
 30
0.0
 10
5.684448358370461
 20
7.678542583390189
 30
0.0
 10
5.682007687165943
 20
7.678520715620482
 30
0.0
 10
5.679666978114078
 20
7.678139807380211
 30
0.0
 10
5.677105838767195
 20
7.677470920367387
 30
0.0
 10
5.67381094216795
 20
7.676170491345453
 30
0.0
 10
5.669980480604537
 20
7.674270534528574
 30
0.0
 10
5.667438256114092
 20
7.672837630381329
 30
0.0
 10
5.666197897433745
 20
7.672138512304299
 30
0.0
  0
SPLINE
  5
334
330
1F
100
AcDbEntity
  8
0
  6
Continuous
 62
     7
370
     0
100
AcDbSpline
210
0.0
220
0.0
230
1.0
 70
     8
 71
     3
 72
    16
 73
    12
 74
     0
 42
0.00000001
 43
0.00000001
 40
0.0
 40
0.0
 40
0.0
 40
0.0
 40
0.1818488349531917
 40
0.3430108367851245
 40
0.5007680811926486
 40
0.5688733187380006
 40
0.6259479994855414
 40
0.7506455707026792
 40
0.8134826023433569
 40
0.8755941169089521
 40
0.9999999999999999
 40
0.9999999999999999
 40
0.9999999999999999
 40
0.9999999999999999
 10
5.666197897433745
 20
7.672138512304299
 30
0.0
 10
5.664851812531472
 20
7.671339331572269
 30
0.0
 10
5.662312771196225
 20
7.669831883632301
 30
0.0
 10
5.658807553828158
 20
7.667464659645092
 30
0.0
 10
5.656337148308245
 20
7.665454101143799
 30
0.0
 10
5.654783205321102
 20
7.663828040926708
 30
0.0
 10
5.653607239593149
 20
7.662288102294347
 30
0.0
 10
5.652970367564913
 20
7.660528990867423
 30
0.0
 10
5.653065013341963
 20
7.658613357920022
 30
0.0
 10
5.653741717646199
 20
7.656664383666795
 30
0.0
 10
5.654975558040083
 20
7.655374742156308
 30
0.0
 10
5.65579852150474
 20
7.654514559712211
 30
0.0
  0
SPLINE
  5
335
330
1F
100
AcDbEntity
  8
0
  6
Continuous
 62
     7
370
     0
100
AcDbSpline
210
0.0
220
0.0
230
1.0
 70
     8
 71
     3
 72
    13
 73
     9
 74
     0
 42
0.00000001
 43
0.00000001
 40
0.0
 40
0.0
 40
0.0
 40
0.0
 40
0.1245476615472774
 40
0.1865124930234927
 40
0.2496161896389578
 40
0.3612078545637576
 40
0.4994992341855015
 40
1.0
 40
1.0
 40
1.0
 40
1.0
 10
5.65579852150474
 20
7.654514559712211
 30
0.0
 10
5.656764145793777
 20
7.653765569181289
 30
0.0
 10
5.658210186540227
 20
7.652643941609661
 30
0.0
 10
5.660662199479653
 20
7.651754365900376
 30
0.0
 10
5.663067876899069
 20
7.651294384046838
 30
0.0
 10
5.666206210182248
 20
7.6514236341595
 30
0.0
 10
5.672917860667964
 20
7.653200477883421
 30
0.0
 10
5.677655327240164
 20
7.655865728235085
 30
0.0
 10
5.681367185102453
 20
7.657953981592027
 30
0.0
  0
LINE
  5
336
330
1F
100
AcDbEntity
  8
0
  6
Continuous
 62
     7
370
     0
100
AcDbLine
 10
6.8864532851
 20
4.3475153374
 30
0.0
 11
5.1636995347
 21
4.3475153374
 31
0.0
  0
LINE
  5
337
330
1F
100
AcDbEntity
  8
0
  6
Continuous
 62
     7
370
     0
100
AcDbLine
 10
5.1636995347
 20
4.3475153374
 30
0.0
 11
6.8899358913
 21
4.6300137716
 31
0.0
  0
LINE
  5
338
330
1F
100
AcDbEntity
  8
0
  6
Continuous
 62
     7
370
     0
100
AcDbLine
 10
5.1636995347
 20
4.3475153374
 30
0.0
 11
6.8894578233
 21
4.0851193087
 31
0.0
  0
LINE
  5
339
330
1F
100
AcDbEntity
  8
0
  6
Continuous
 62
     7
370
     0
100
AcDbLine
 10
7.9494240626
 20
4.3475153374
 30
0.0
 11
9.6670066213
 21
4.3475153374
 31
0.0
  0
LINE
  5
33A
330
1F
100
AcDbEntity
  8
0
  6
Continuous
 62
     7
370
     0
100
AcDbLine
 10
9.6670066213
 20
4.3475153374
 30
0.0
 11
7.9459414565
 21
4.6300137716
 31
0.0
  0
LINE
  5
33B
330
1F
100
AcDbEntity
  8
0
  6
Continuous
 62
     7
370
     0
100
AcDbLine
 10
9.6670066213
 20
4.3475153374
 30
0.0
 11
7.9464195244
 21
4.0851193087
 31
0.0
  0
LINE
  5
33C
330
1F
100
AcDbEntity
  8
0
  6
Continuous
 62
     7
370
     0
100
AcDbLine
 10
6.8864532851
 20
4.3475153374
 30
0.0
 11
7.9494240626
 21
4.3475153374
 31
0.0
  0
LINE
  5
33D
330
1F
100
AcDbEntity
  8
0
  6
Continuous
 62
     7
370
     0
100
AcDbLine
 10
7.9568593574
 20
3.8300153374
 30
0.0
 11
8.0095388493
 21
3.8300153374
 31
0.0
  0
LINE
  5
33E
330
1F
100
AcDbEntity
  8
0
  6
Continuous
 62
     7
370
     0
100
AcDbLine
 10
8.0095388493
 20
4.8650153374
 30
0.0
 11
7.9568593574
 21
4.8650153374
 31
0.0
  0
LINE
  5
33F
330
1F
100
AcDbEntity
  8
0
  6
Continuous
 62
     7
370
     0
100
AcDbLine
 10
7.9395388493
 20
4.8550153374
 30
0.0
 11
7.9568593574
 21
4.8650153374
 31
0.0
  0
LINE
  5
340
330
1F
100
AcDbEntity
  8
0
  6
Continuous
 62
     7
370
     0
100
AcDbLine
 10
7.9568593574
 20
3.8300153374
 30
0.0
 11
7.9395388493
 21
3.8400153374
 31
0.0
  0
LINE
  5
341
330
1F
100
AcDbEntity
  8
0
  6
Continuous
 62
     7
370
     0
100
AcDbLine
 10
8.0195388493
 20
4.7373551978
 30
0.0
 11
7.9945388493
 21
4.7373551978
 31
0.0
  0
LINE
  5
342
330
1F
100
AcDbEntity
  8
0
  6
Continuous
 62
     7
370
     0
100
AcDbLine
 10
7.9945388493
 20
4.7296470805
 30
0.0
 11
7.9945388493
 21
4.7373551978
 31
0.0
  0
LINE
  5
343
330
1F
100
AcDbEntity
  8
0
  6
Continuous
 62
     7
370
     0
100
AcDbLine
 10
8.0195388493
 20
4.7296470805
 30
0.0
 11
7.9945388493
 21
4.7296470805
 31
0.0
  0
LINE
  5
344
330
1F
100
AcDbEntity
  8
0
  6
Continuous
 62
     7
370
     0
100
AcDbLine
 10
8.0195388493
 20
3.8975153374
 30
0.0
 11
8.0195388493
 21
4.7296470805
 31
0.0
  0
LINE
  5
345
330
1F
100
AcDbEntity
  8
0
  6
Continuous
 62
     7
370
     0
100
AcDbLine
 10
7.9395388493
 20
3.8975153374
 30
0.0
 11
8.0195388493
 21
3.8975153374
 31
0.0
  0
LINE
  5
346
330
1F
100
AcDbEntity
  8
0
  6
Continuous
 62
     7
370
     0
100
AcDbLine
 10
8.0195388493
 20
4.7975153374
 30
0.0
 11
7.9395388493
 21
4.7975153374
 31
0.0
  0
LINE
  5
347
330
1F
100
AcDbEntity
  8
0
  6
Continuous
 62
     7
370
     0
100
AcDbLine
 10
8.0195388493
 20
4.7373551978
 30
0.0
 11
8.0195388493
 21
4.7975153374
 31
0.0
  0
LINE
  5
348
330
1F
100
AcDbEntity
  8
0
  6
Continuous
 62
     7
370
     0
100
AcDbLine
 10
8.0195388493
 20
3.8473358455
 30
0.0
 11
8.0095388493
 21
3.8300153374
 31
0.0
  0
LINE
  5
349
330
1F
100
AcDbEntity
  8
0
  6
Continuous
 62
     7
370
     0
100
AcDbLine
 10
8.0095388493
 20
4.8650153374
 30
0.0
 11
8.0195388493
 21
4.8476948293
 31
0.0
  0
LINE
  5
34A
330
1F
100
AcDbEntity
  8
0
  6
Continuous
 62
     7
370
     0
100
AcDbLine
 10
8.0195388493
 20
4.8476948293
 30
0.0
 11
8.0195388493
 21
4.7975153374
 31
0.0
  0
LINE
  5
34B
330
1F
100
AcDbEntity
  8
0
  6
Continuous
 62
     7
370
     0
100
AcDbLine
 10
7.9395388493
 20
4.8550153374
 30
0.0
 11
7.9395388493
 21
4.7975153374
 31
0.0
  0
LINE
  5
34C
330
1F
100
AcDbEntity
  8
0
  6
Continuous
 62
     7
370
     0
100
AcDbLine
 10
8.0195388493
 20
3.8975153374
 30
0.0
 11
8.0195388493
 21
3.8473358455
 31
0.0
  0
LINE
  5
34D
330
1F
100
AcDbEntity
  8
0
  6
Continuous
 62
     7
370
     0
100
AcDbLine
 10
7.9395388493
 20
3.8975153374
 30
0.0
 11
7.9395388493
 21
3.8400153374
 31
0.0
  0
LINE
  5
34E
330
1F
100
AcDbEntity
  8
0
  6
Continuous
 62
     7
370
     0
100
AcDbLine
 10
8.0195388493
 20
4.7373551978
 30
0.0
 11
8.0195388493
 21
4.7296470805
 31
0.0
  0
LINE
  5
34F
330
1F
100
AcDbEntity
  8
0
  6
Continuous
 62
     7
370
     0
100
AcDbLine
 10
6.8943854204
 20
3.8400153374
 30
0.0
 11
6.8770649123
 21
3.8300153374
 31
0.0
  0
LINE
  5
350
330
1F
100
AcDbEntity
  8
0
  6
Continuous
 62
     7
370
     0
100
AcDbLine
 10
6.8770649123
 20
4.8650153374
 30
0.0
 11
6.8943854204
 21
4.8550153374
 31
0.0
  0
LINE
  5
351
330
1F
100
AcDbEntity
  8
0
  6
Continuous
 62
     7
370
     0
100
AcDbLine
 10
6.8770649123
 20
4.8650153374
 30
0.0
 11
6.8243854204
 21
4.8650153374
 31
0.0
  0
LINE
  5
352
330
1F
100
AcDbEntity
  8
0
  6
Continuous
 62
     7
370
     0
100
AcDbLine
 10
6.8243854204
 20
3.8300153374
 30
0.0
 11
6.8770649123
 21
3.8300153374
 31
0.0
  0
LINE
  5
353
330
1F
100
AcDbEntity
  8
0
  6
Continuous
 62
     7
370
     0
100
AcDbLine
 10
6.8143854204
 20
4.5667551765
 30
0.0
 11
6.8393854204
 21
4.5667551765
 31
0.0
  0
LINE
  5
354
330
1F
100
AcDbEntity
  8
0
  6
Continuous
 62
     7
370
     0
100
AcDbLine
 10
6.8393854204
 20
4.5797309164
 30
0.0
 11
6.8393854204
 21
4.5667551765
 31
0.0
  0
LINE
  5
355
330
1F
100
AcDbEntity
  8
0
  6
Continuous
 62
     7
370
     0
100
AcDbLine
 10
6.8143854204
 20
4.5797309164
 30
0.0
 11
6.8393854204
 21
4.5797309164
 31
0.0
  0
LINE
  5
356
330
1F
100
AcDbEntity
  8
0
  6
Continuous
 62
     7
370
     0
100
AcDbLine
 10
6.8143854204
 20
4.7975153374
 30
0.0
 11
6.8143854204
 21
4.5797309164
 31
0.0
  0
LINE
  5
357
330
1F
100
AcDbEntity
  8
0
  6
Continuous
 62
     7
370
     0
100
AcDbLine
 10
6.8943854204
 20
4.7975153374
 30
0.0
 11
6.8143854204
 21
4.7975153374
 31
0.0
  0
LINE
  5
358
330
1F
100
AcDbEntity
  8
0
  6
Continuous
 62
     7
370
     0
100
AcDbLine
 10
6.8143854204
 20
3.8975153374
 30
0.0
 11
6.8943854204
 21
3.8975153374
 31
0.0
  0
LINE
  5
359
330
1F
100
AcDbEntity
  8
0
  6
Continuous
 62
     7
370
     0
100
AcDbLine
 10
6.8143854204
 20
4.5667551765
 30
0.0
 11
6.8143854204
 21
3.8975153374
 31
0.0
  0
LINE
  5
35A
330
1F
100
AcDbEntity
  8
0
  6
Continuous
 62
     7
370
     0
100
AcDbLine
 10
6.8943854204
 20
4.7975153374
 30
0.0
 11
6.8943854204
 21
4.7738167312
 31
0.0
  0
LINE
  5
35B
330
1F
100
AcDbEntity
  8
0
  6
Continuous
 62
     7
370
     0
100
AcDbLine
 10
6.8943854204
 20
3.9212139436
 30
0.0
 11
6.8943854204
 21
3.8975153374
 31
0.0
  0
LINE
  5
35C
330
1F
100
AcDbEntity
  8
0
  6
Continuous
 62
     7
370
     0
100
AcDbLine
 10
6.8243854204
 20
3.8300153374
 30
0.0
 11
6.8143854204
 21
3.8473358455
 31
0.0
  0
LINE
  5
35D
330
1F
100
AcDbEntity
  8
0
  6
Continuous
 62
     7
370
     0
100
AcDbLine
 10
6.8143854204
 20
3.8473358455
 30
0.0
 11
6.8143854204
 21
3.8975153374
 31
0.0
  0
LINE
  5
35E
330
1F
100
AcDbEntity
  8
0
  6
Continuous
 62
     7
370
     0
100
AcDbLine
 10
6.8943854204
 20
3.8400153374
 30
0.0
 11
6.8943854204
 21
3.8975153374
 31
0.0
  0
LINE
  5
35F
330
1F
100
AcDbEntity
  8
0
  6
Continuous
 62
     7
370
     0
100
AcDbLine
 10
6.8143854204
 20
4.7975153374
 30
0.0
 11
6.8143854204
 21
4.8476948293
 31
0.0
  0
LINE
  5
360
330
1F
100
AcDbEntity
  8
0
  6
Continuous
 62
     7
370
     0
100
AcDbLine
 10
6.8143854204
 20
4.8476948293
 30
0.0
 11
6.8243854204
 21
4.8650153374
 31
0.0
  0
LINE
  5
361
330
1F
100
AcDbEntity
  8
0
  6
Continuous
 62
     7
370
     0
100
AcDbLine
 10
6.8943854204
 20
4.7975153374
 30
0.0
 11
6.8943854204
 21
4.8550153374
 31
0.0
  0
LINE
  5
362
330
1F
100
AcDbEntity
  8
0
  6
Continuous
 62
     7
370
     0
100
AcDbLine
 10
6.8143854204
 20
4.5797309164
 30
0.0
 11
6.8143854204
 21
4.5667551765
 31
0.0
  0
LINE
  5
363
330
1F
100
AcDbEntity
  8
0
  6
Continuous
 62
     7
370
     0
100
AcDbLine
 10
6.8093091469
 20
3.7475153374
 30
0.0
 11
6.9131866598
 21
3.7475153374
 31
0.0
  0
LINE
  5
364
330
1F
100
AcDbEntity
  8
0
  6
Continuous
 62
     7
370
     0
100
AcDbLine
 10
6.9725585108
 20
3.7475153374
 30
0.0
 11
8.160353078
 21
3.7475153374
 31
0.0
  0
LINE
  5
365
330
1F
100
AcDbEntity
  8
0
  6
Continuous
 62
     7
370
     0
100
AcDbLine
 10
8.160353078
 20
4.9475153374
 30
0.0
 11
8.090353078
 21
4.9475153374
 31
0.0
  0
LINE
  5
366
330
1F
100
AcDbEntity
  8
0
  6
Continuous
 62
     7
370
     0
100
AcDbLine
 10
8.0321712598
 20
4.9475153374
 30
0.0
 11
7.1211091404
 21
4.9475153374
 31
0.0
  0
LINE
  5
367
330
1F
100
AcDbEntity
  8
0
  6
Continuous
 62
     7
370
     0
100
AcDbLine
 10
7.1000335587
 20
4.9475153374
 30
0.0
 11
6.9832794192
 21
4.9475153374
 31
0.0
  0
LINE
  5
368
330
1F
100
AcDbEntity
  8
0
  6
Continuous
 62
     7
370
     0
100
AcDbLine
 10
6.9249497619
 20
4.9475153374
 30
0.0
 11
6.815353078
 21
4.9475153374
 31
0.0
  0
LINE
  5
369
330
1F
100
AcDbEntity
  8
0
  6
Continuous
 62
     7
370
     0
100
AcDbLine
 10
6.7571712598
 20
4.9475153374
 30
0.0
 11
6.670353078
 21
4.9475153374
 31
0.0
  0
LINE
  5
36A
330
1F
100
AcDbEntity
  8
0
  6
Continuous
 62
     7
370
     0
100
AcDbLine
 10
6.670353078
 20
3.7475153374
 30
0.0
 11
6.7423196524
 21
3.7475153374
 31
0.0
  0
LINE
  5
36B
330
1F
100
AcDbEntity
  8
0
  6
Continuous
 62
     7
370
     0
100
AcDbLine
 10
8.170353078
 20
3.7575153374
 30
0.0
 11
8.160353078
 21
3.7475153374
 31
0.0
  0
LINE
  5
36C
330
1F
100
AcDbEntity
  8
0
  6
Continuous
 62
     7
370
     0
100
AcDbLine
 10
8.160353078
 20
4.9475153374
 30
0.0
 11
8.170353078
 21
4.9375153374
 31
0.0
  0
LINE
  5
36D
330
1F
100
AcDbEntity
  8
0
  6
Continuous
 62
     7
370
     0
100
AcDbLine
 10
6.660353078
 20
4.9375153374
 30
0.0
 11
6.670353078
 21
4.9475153374
 31
0.0
  0
LINE
  5
36E
330
1F
100
AcDbEntity
  8
0
  6
Continuous
 62
     7
370
     0
100
AcDbLine
 10
6.670353078
 20
3.7475153374
 30
0.0
 11
6.660353078
 21
3.7575153374
 31
0.0
  0
LINE
  5
36F
330
1F
100
AcDbEntity
  8
0
  6
Continuous
 62
     7
370
     0
100
AcDbLine
 10
7.605353078
 20
3.8100153374
 30
0.0
 11
7.575353078
 21
3.8100153374
 31
0.0
  0
LINE
  5
370
330
1F
100
AcDbEntity
  8
0
  6
Continuous
 62
     7
370
     0
100
AcDbLine
 10
7.575353078
 20
4.8850153374
 30
0.0
 11
7.605353078
 21
4.8850153374
 31
0.0
  0
LINE
  5
371
330
1F
100
AcDbEntity
  8
0
  6
Continuous
 62
     7
370
     0
100
AcDbLine
 10
7.255353078
 20
4.8850153374
 30
0.0
 11
7.225353078
 21
4.8850153374
 31
0.0
  0
LINE
  5
372
330
1F
100
AcDbEntity
  8
0
  6
Continuous
 62
     7
370
     0
100
AcDbLine
 10
7.225353078
 20
3.8100153374
 30
0.0
 11
7.255353078
 21
3.8100153374
 31
0.0
  0
LINE
  5
373
330
1F
100
AcDbEntity
  8
0
  6
Continuous
 62
     7
370
     0
100
AcDbLine
 10
8.170353078
 20
4.8635153374
 30
0.0
 11
8.160353078
 21
4.8535153374
 31
0.0
  0
LINE
  5
374
330
1F
100
AcDbEntity
  8
0
  6
Continuous
 62
     7
370
     0
100
AcDbLine
 10
8.160353078
 20
3.8415153374
 30
0.0
 11
8.170353078
 21
3.8315153374
 31
0.0
  0
LINE
  5
375
330
1F
100
AcDbEntity
  8
0
  6
Continuous
 62
     7
370
     0
100
AcDbLine
 10
8.160353078
 20
3.8415153374
 30
0.0
 11
8.160353078
 21
4.8535153374
 31
0.0
  0
LINE
  5
376
330
1F
100
AcDbEntity
  8
0
  6
Continuous
 62
     7
370
     0
100
AcDbLine
 10
8.170353078
 20
4.8635153374
 30
0.0
 11
8.170353078
 21
3.8315153374
 31
0.0
  0
LINE
  5
377
330
1F
100
AcDbEntity
  8
0
  6
Continuous
 62
     7
370
     0
100
AcDbLine
 10
6.660353078
 20
3.8315153374
 30
0.0
 11
6.670353078
 21
3.8415153374
 31
0.0
  0
LINE
  5
378
330
1F
100
AcDbEntity
  8
0
  6
Continuous
 62
     7
370
     0
100
AcDbLine
 10
6.670353078
 20
4.8535153374
 30
0.0
 11
6.660353078
 21
4.8635153374
 31
0.0
  0
LINE
  5
379
330
1F
100
AcDbEntity
  8
0
  6
Continuous
 62
     7
370
     0
100
AcDbLine
 10
6.670353078
 20
4.8535153374
 30
0.0
 11
6.670353078
 21
3.8415153374
 31
0.0
  0
LINE
  5
37A
330
1F
100
AcDbEntity
  8
0
  6
Continuous
 62
     7
370
     0
100
AcDbLine
 10
6.660353078
 20
3.8315153374
 30
0.0
 11
6.660353078
 21
4.8635153374
 31
0.0
  0
LINE
  5
37B
330
1F
100
AcDbEntity
  8
0
  6
Continuous
 62
     7
370
     0
100
AcDbLine
 10
7.869353078
 20
3.8415153374
 30
0.0
 11
7.869353078
 21
3.8475153374
 31
0.0
  0
LINE
  5
37C
330
1F
100
AcDbEntity
  8
0
  6
Continuous
 62
     7
370
     0
100
AcDbLine
 10
7.869353078
 20
4.8475153374
 30
0.0
 11
7.869353078
 21
4.8535153374
 31
0.0
  0
LINE
  5
37D
330
1F
100
AcDbEntity
  8
0
  6
Continuous
 62
     7
370
     0
100
AcDbLine
 10
7.869353078
 20
4.8535153374
 30
0.0
 11
8.160353078
 21
4.8535153374
 31
0.0
  0
LINE
  5
37E
330
1F
100
AcDbEntity
  8
0
  6
Continuous
 62
     7
370
     0
100
AcDbLine
 10
8.160353078
 20
3.8415153374
 30
0.0
 11
7.869353078
 21
3.8415153374
 31
0.0
  0
LINE
  5
37F
330
1F
100
AcDbEntity
  8
0
  6
Continuous
 62
     7
370
     0
100
AcDbLine
 10
7.8681983775
 20
3.8435153374
 30
0.0
 11
7.8681983775
 21
3.8475153374
 31
0.0
  0
LINE
  5
380
330
1F
100
AcDbEntity
  8
0
  6
Continuous
 62
     7
370
     0
100
AcDbLine
 10
7.8681983775
 20
4.8475153374
 30
0.0
 11
7.8681983775
 21
4.8515153374
 31
0.0
  0
LINE
  5
381
330
1F
100
AcDbEntity
  8
0
  6
Continuous
 62
     7
370
     0
100
AcDbLine
 10
7.8681983775
 20
4.8515153374
 30
0.0
 11
7.869353078
 21
4.8535153374
 31
0.0
  0
LINE
  5
382
330
1F
100
AcDbEntity
  8
0
  6
Continuous
 62
     7
370
     0
100
AcDbLine
 10
7.869353078
 20
3.8415153374
 30
0.0
 11
7.8681983775
 21
3.8435153374
 31
0.0
  0
LINE
  5
383
330
1F
100
AcDbEntity
  8
0
  6
Continuous
 62
     7
370
     0
100
AcDbLine
 10
6.9625077785
 20
4.8515153374
 30
0.0
 11
6.9625077785
 21
4.8475153374
 31
0.0
  0
LINE
  5
384
330
1F
100
AcDbEntity
  8
0
  6
Continuous
 62
     7
370
     0
100
AcDbLine
 10
6.9625077785
 20
3.8475153374
 30
0.0
 11
6.9625077785
 21
3.8435153374
 31
0.0
  0
LINE
  5
385
330
1F
100
AcDbEntity
  8
0
  6
Continuous
 62
     7
370
     0
100
AcDbLine
 10
6.9625077785
 20
3.8435153374
 30
0.0
 11
6.961353078
 21
3.8415153374
 31
0.0
  0
LINE
  5
386
330
1F
100
AcDbEntity
  8
0
  6
Continuous
 62
     7
370
     0
100
AcDbLine
 10
6.961353078
 20
4.8535153374
 30
0.0
 11
6.961353078
 21
4.8475153374
 31
0.0
  0
LINE
  5
387
330
1F
100
AcDbEntity
  8
0
  6
Continuous
 62
     7
370
     0
100
AcDbLine
 10
6.961353078
 20
3.8475153374
 30
0.0
 11
6.961353078
 21
3.8415153374
 31
0.0
  0
LINE
  5
388
330
1F
100
AcDbEntity
  8
0
  6
Continuous
 62
     7
370
     0
100
AcDbLine
 10
6.961353078
 20
4.8535153374
 30
0.0
 11
6.9625077785
 21
4.8515153374
 31
0.0
  0
LINE
  5
389
330
1F
100
AcDbEntity
  8
0
  6
Continuous
 62
     7
370
     0
100
AcDbLine
 10
6.961353078
 20
3.8415153374
 30
0.0
 11
6.670353078
 21
3.8415153374
 31
0.0
  0
LINE
  5
38A
330
1F
100
AcDbEntity
  8
0
  6
Continuous
 62
     7
370
     0
100
AcDbLine
 10
6.670353078
 20
4.8535153374
 30
0.0
 11
6.961353078
 21
4.8535153374
 31
0.0
  0
LINE
  5
38B
330
1F
100
AcDbEntity
  8
0
  6
Continuous
 62
     7
370
     0
100
AcDbLine
 10
7.8681983775
 20
3.8435153374
 30
0.0
 11
7.605353078
 21
3.8435153374
 31
0.0
  0
LINE
  5
38C
330
1F
100
AcDbEntity
  8
0
  6
Continuous
 62
     7
370
     0
100
AcDbLine
 10
7.605353078
 20
4.8515153374
 30
0.0
 11
7.8681983775
 21
4.8515153374
 31
0.0
  0
LINE
  5
38D
330
1F
100
AcDbEntity
  8
0
  6
Continuous
 62
     7
370
     0
100
AcDbLine
 10
7.605353078
 20
4.8515153374
 30
0.0
 11
7.605353078
 21
3.8435153374
 31
0.0
  0
LINE
  5
38E
330
1F
100
AcDbEntity
  8
0
  6
Continuous
 62
     7
370
     0
100
AcDbLine
 10
7.225353078
 20
3.8435153374
 30
0.0
 11
6.9625077785
 21
3.8435153374
 31
0.0
  0
LINE
  5
38F
330
1F
100
AcDbEntity
  8
0
  6
Continuous
 62
     7
370
     0
100
AcDbLine
 10
6.9625077785
 20
4.8515153374
 30
0.0
 11
7.225353078
 21
4.8515153374
 31
0.0
  0
LINE
  5
390
330
1F
100
AcDbEntity
  8
0
  6
Continuous
 62
     7
370
     0
100
AcDbLine
 10
7.225353078
 20
3.8435153374
 30
0.0
 11
7.225353078
 21
3.8475153374
 31
0.0
  0
LINE
  5
391
330
1F
100
AcDbEntity
  8
0
  6
Continuous
 62
     7
370
     0
100
AcDbLine
 10
7.225353078
 20
4.8475153374
 30
0.0
 11
7.225353078
 21
4.8515153374
 31
0.0
  0
LINE
  5
392
330
1F
100
AcDbEntity
  8
0
  6
Continuous
 62
     7
370
     0
100
AcDbLine
 10
7.575353078
 20
4.7985153374
 30
0.0
 11
7.255353078
 21
4.7985153374
 31
0.0
  0
LINE
  5
393
330
1F
100
AcDbEntity
  8
0
  6
Continuous
 62
     7
370
     0
100
AcDbLine
 10
7.255353078
 20
3.8965153374
 30
0.0
 11
7.575353078
 21
3.8965153374
 31
0.0
  0
LINE
  5
394
330
1F
100
AcDbEntity
  8
0
  6
Continuous
 62
     7
370
     0
100
AcDbLine
 10
7.575353078
 20
4.7985153374
 30
0.0
 11
7.575353078
 21
3.8965153374
 31
0.0
  0
LINE
  5
395
330
1F
100
AcDbEntity
  8
0
  6
Continuous
 62
     7
370
     0
100
AcDbLine
 10
6.815353078
 20
4.9475153374
 30
0.0
 11
6.7571712598
 21
4.9475153374
 31
0.0
  0
LINE
  5
396
330
1F
100
AcDbEntity
  8
0
  6
Continuous
 62
     7
370
     0
100
AcDbLine
 10
6.9396402259
 20
4.9475153374
 30
0.0
 11
6.9249497619
 21
4.9475153374
 31
0.0
  0
LINE
  5
397
330
1F
100
AcDbEntity
  8
0
  6
Continuous
 62
     7
370
     0
100
AcDbLine
 10
6.9687100943
 20
4.9475153374
 30
0.0
 11
6.9396402259
 21
4.9475153374
 31
0.0
  0
LINE
  5
398
330
1F
100
AcDbEntity
  8
0
  6
Continuous
 62
     7
370
     0
100
AcDbLine
 10
6.9832794192
 20
4.9475153374
 30
0.0
 11
6.9687100943
 21
4.9475153374
 31
0.0
  0
LINE
  5
399
330
1F
100
AcDbEntity
  8
0
  6
Continuous
 62
     7
370
     0
100
AcDbLine
 10
7.1211091404
 20
4.9475153374
 30
0.0
 11
7.1000335587
 21
4.9475153374
 31
0.0
  0
LINE
  5
39A
330
1F
100
AcDbEntity
  8
0
  6
Continuous
 62
     7
370
     0
100
AcDbLine
 10
8.090353078
 20
4.9475153374
 30
0.0
 11
8.0321712598
 21
4.9475153374
 31
0.0
  0
LINE
  5
39B
330
1F
100
AcDbEntity
  8
0
  6
Continuous
 62
     7
370
     0
100
AcDbLine
 10
7.255353078
 20
4.7985153374
 30
0.0
 11
7.255353078
 21
4.8850153374
 31
0.0
  0
LINE
  5
39C
330
1F
100
AcDbEntity
  8
0
  6
Continuous
 62
     7
370
     0
100
AcDbLine
 10
7.605353078
 20
4.8850153374
 30
0.0
 11
7.605353078
 21
4.8515153374
 31
0.0
  0
LINE
  5
39D
330
1F
100
AcDbEntity
  8
0
  6
Continuous
 62
     7
370
     0
100
AcDbLine
 10
7.225353078
 20
4.8515153374
 30
0.0
 11
7.225353078
 21
4.8850153374
 31
0.0
  0
LINE
  5
39E
330
1F
100
AcDbEntity
  8
0
  6
Continuous
 62
     7
370
     0
100
AcDbLine
 10
7.575353078
 20
4.7985153374
 30
0.0
 11
7.575353078
 21
4.8850153374
 31
0.0
  0
LINE
  5
39F
330
1F
100
AcDbEntity
  8
0
  6
Continuous
 62
     7
370
     0
100
AcDbLine
 10
6.660353078
 20
4.8635153374
 30
0.0
 11
6.660353078
 21
4.9375153374
 31
0.0
  0
LINE
  5
3A0
330
1F
100
AcDbEntity
  8
0
  6
Continuous
 62
     7
370
     0
100
AcDbLine
 10
8.170353078
 20
4.8635153374
 30
0.0
 11
8.170353078
 21
4.9375153374
 31
0.0
  0
LINE
  5
3A1
330
1F
100
AcDbEntity
  8
0
  6
Continuous
 62
     7
370
     0
100
AcDbLine
 10
6.9131866598
 20
3.7475153374
 30
0.0
 11
6.9725585108
 21
3.7475153374
 31
0.0
  0
LINE
  5
3A2
330
1F
100
AcDbEntity
  8
0
  6
Continuous
 62
     7
370
     0
100
AcDbLine
 10
6.7706063494
 20
3.7475153374
 30
0.0
 11
6.8093091469
 21
3.7475153374
 31
0.0
  0
LINE
  5
3A3
330
1F
100
AcDbEntity
  8
0
  6
Continuous
 62
     7
370
     0
100
AcDbLine
 10
6.7582406958
 20
3.7475153374
 30
0.0
 11
6.7706063494
 21
3.7475153374
 31
0.0
  0
LINE
  5
3A4
330
1F
100
AcDbEntity
  8
0
  6
Continuous
 62
     7
370
     0
100
AcDbLine
 10
6.7423196524
 20
3.7475153374
 30
0.0
 11
6.7582406958
 21
3.7475153374
 31
0.0
  0
LINE
  5
3A5
330
1F
100
AcDbEntity
  8
0
  6
Continuous
 62
     7
370
     0
100
AcDbLine
 10
7.255353078
 20
3.8100153374
 30
0.0
 11
7.255353078
 21
3.8965153374
 31
0.0
  0
LINE
  5
3A6
330
1F
100
AcDbEntity
  8
0
  6
Continuous
 62
     7
370
     0
100
AcDbLine
 10
7.605353078
 20
3.8435153374
 30
0.0
 11
7.605353078
 21
3.8100153374
 31
0.0
  0
LINE
  5
3A7
330
1F
100
AcDbEntity
  8
0
  6
Continuous
 62
     7
370
     0
100
AcDbLine
 10
7.225353078
 20
3.8100153374
 30
0.0
 11
7.225353078
 21
3.8435153374
 31
0.0
  0
LINE
  5
3A8
330
1F
100
AcDbEntity
  8
0
  6
Continuous
 62
     7
370
     0
100
AcDbLine
 10
7.575353078
 20
3.8100153374
 30
0.0
 11
7.575353078
 21
3.8965153374
 31
0.0
  0
LINE
  5
3A9
330
1F
100
AcDbEntity
  8
0
  6
Continuous
 62
     7
370
     0
100
AcDbLine
 10
6.660353078
 20
3.7575153374
 30
0.0
 11
6.660353078
 21
3.8315153374
 31
0.0
  0
LINE
  5
3AA
330
1F
100
AcDbEntity
  8
0
  6
Continuous
 62
     7
370
     0
100
AcDbLine
 10
8.170353078
 20
3.7575153374
 30
0.0
 11
8.170353078
 21
3.8315153374
 31
0.0
  0
LINE
  5
3AB
330
1F
100
AcDbEntity
  8
0
  6
Continuous
 62
     7
370
     0
100
AcDbLine
 10
6.8973665106
 20
3.8475153374
 30
0.0
 11
7.141336504
 21
3.8475153374
 31
0.0
  0
LINE
  5
3AC
330
1F
100
AcDbEntity
  8
0
  6
Continuous
 62
     7
370
     0
100
AcDbLine
 10
7.141336504
 20
4.8475153374
 30
0.0
 11
6.8973665106
 21
4.8475153374
 31
0.0
  0
ARC
  5
3AD
330
1F
100
AcDbEntity
  8
0
  6
Continuous
 62
     7
370
     0
100
AcDbCircle
 10
7.8620438363
 20
4.3475153374
 30
0.0
 40
0.8771653543307082
100
AcDbArc
 50
145.2485222972
 51
214.7514777028
  0
ARC
  5
3AE
330
1F
100
AcDbEntity
  8
0
  6
Continuous
 62
     7
370
     0
100
AcDbCircle
 10
18.345902104
 20
4.3475153374
 30
0.0
 40
11.45944881889772
100
AcDbArc
 50
177.4992700088
 51
182.5007299912
  0
ARC
  5
3AF
330
1F
100
AcDbEntity
  8
0
  6
Continuous
 62
     7
370
     0
100
AcDbCircle
 10
6.0266107654
 20
4.3475153374
 30
0.0
 40
1.312598425196853
100
AcDbArc
 50
337.609082359
 51
22.390917641
  0
LINE
  5
3B0
330
1F
100
AcDbEntity
  8
0
  6
Continuous
 62
     7
370
     0
100
AcDbLine
 10
7.141336504
 20
3.8475153374
 30
0.0
 11
7.2402477069
 21
3.8475153374
 31
0.0
  0
ARC
  5
3B1
330
1F
100
AcDbEntity
  8
0
  6
Continuous
 62
     7
370
     0
100
AcDbCircle
 10
7.8620438363
 20
4.3475153374
 30
0.0
 40
0.8771653543307082
100
AcDbArc
 50
145.2485222972
 51
214.7514777028
  0
LINE
  5
3B2
330
1F
100
AcDbEntity
  8
0
  6
Continuous
 62
     7
370
     0
100
AcDbLine
 10
7.2402477069
 20
4.8475153374
 30
0.0
 11
7.141336504
 21
4.8475153374
 31
0.0
  0
ARC
  5
3B3
330
1F
100
AcDbEntity
  8
0
  6
Continuous
 62
     7
370
     0
100
AcDbCircle
 10
-3.5100247563
 20
4.3475153374
 30
0.0
 40
11.45944881889772
100
AcDbArc
 50
357.4992700088
 51
2.5007299912
  0
LINE
  5
3B4
330
1F
100
AcDbEntity
  8
0
  6
Continuous
 62
     7
370
     0
100
AcDbLine
 10
7.6945408438
 20
3.8475153374
 30
0.0
 11
7.9385108371
 21
3.8475153374
 31
0.0
  0
ARC
  5
3B5
330
1F
100
AcDbEntity
  8
0
  6
Continuous
 62
     7
370
     0
100
AcDbCircle
 10
6.9738335115
 20
4.3475153374
 30
0.0
 40
0.8771653543307096
100
AcDbArc
 50
325.2485222972
 51
34.7514777028
  0
LINE
  5
3B6
330
1F
100
AcDbEntity
  8
0
  6
Continuous
 62
     7
370
     0
100
AcDbLine
 10
7.9385108371
 20
4.8475153374
 30
0.0
 11
7.6945408438
 21
4.8475153374
 31
0.0
  0
LINE
  5
3B7
330
1F
100
AcDbEntity
  8
0
  6
Continuous
 62
     7
370
     0
100
AcDbLine
 10
7.6945408438
 20
4.8475153374
 30
0.0
 11
7.6945408438
 21
3.8475153374
 31
0.0
  0
ARC
  5
3B8
330
1F
100
AcDbEntity
  8
0
  6
Continuous
 62
     7
370
     0
100
AcDbCircle
 10
-3.5100247563
 20
4.3475153374
 30
0.0
 40
11.45944881889772
100
AcDbArc
 50
357.4992700088
 51
2.5007299912
  0
LINE
  5
3B9
330
1F
100
AcDbEntity
  8
0
  6
Continuous
 62
     7
370
     0
100
AcDbLine
 10
7.6945408438
 20
3.8475153374
 30
0.0
 11
7.9385108371
 21
3.8475153374
 31
0.0
  0
ARC
  5
3BA
330
1F
100
AcDbEntity
  8
0
  6
Continuous
 62
     7
370
     0
100
AcDbCircle
 10
6.9738335115
 20
4.3475153374
 30
0.0
 40
0.8771653543307096
100
AcDbArc
 50
325.2485222972
 51
34.7514777028
  0
LINE
  5
3BB
330
1F
100
AcDbEntity
  8
0
  6
Continuous
 62
     7
370
     0
100
AcDbLine
 10
7.9385108371
 20
4.8475153374
 30
0.0
 11
7.6945408438
 21
4.8475153374
 31
0.0
  0
LINE
  5
3BC
330
1F
100
AcDbEntity
  8
0
  6
Continuous
 62
     7
370
     0
100
AcDbLine
 10
7.6945408438
 20
4.8475153374
 30
0.0
 11
7.6945408438
 21
3.8475153374
 31
0.0
  0
DIMENSION
  5
3BD
330
1F
100
AcDbEntity
  8
0
  6
Continuous
 62
     7
370
     0
100
AcDbDimension
  2
*D8
 10
5.1636995347
 20
5.1372574396
 30
0.0
 11
6.0304318181
 21
5.1372574396
 31
0.0
 70
   160
 71
     1
 42
-1.0
  3
SLDDIMSTYLE1
100
AcDbAlignedDimension
 13
6.8864532851
 23
4.3475153374
 33
0.0
 14
5.1636995347
 24
4.3475153374
 34
0.0
 50
0.0
100
AcDbRotatedDimension
  0
DIMENSION
  5
3D0
330
1F
100
AcDbEntity
  8
0
  6
Continuous
 62
     7
370
     0
100
AcDbDimension
  2
*D9
 10
9.6670066213
 20
5.1372574396
 30
0.0
 11
8.8002743378
 21
5.1372574396
 31
0.0
 70
   160
 71
     1
 42
-1.0
  3
SLDDIMSTYLE1
100
AcDbAlignedDimension
 13
7.9494240626
 23
4.3475153374
 33
0.0
 14
9.6670066213
 24
4.3475153374
 34
0.0
100
AcDbRotatedDimension
  0
DIMENSION
  5
3E2
330
1F
100
AcDbEntity
  8
0
  6
Continuous
 62
     7
370
     0
100
AcDbDimension
  2
*D10
 10
6.660353078
 20
2.9555651249
 30
0.0
 11
5.9026901718
 21
2.9555651249
 31
0.0
 70
   160
 71
     1
 42
-1.0
  3
SLDDIMSTYLE1
100
AcDbAlignedDimension
 13
5.1636995347
 23
4.3475153374
 33
0.0
 14
6.660353078
 24
3.7575153374
 34
0.0
100
AcDbRotatedDimension
  0
DIMENSION
  5
3F4
330
1F
100
AcDbEntity
  8
0
  6
Continuous
 62
     7
370
     0
100
AcDbDimension
  2
*D11
 10
8.170353078
 20
2.9555651249
 30
0.0
 11
8.9121319148
 21
2.9555651249
 31
0.0
 70
   160
 71
     1
 42
-1.0
  3
SLDDIMSTYLE1
100
AcDbAlignedDimension
 13
9.6670066213
 23
4.3475153374
 33
0.0
 14
8.170353078
 24
3.7575153374
 34
0.0
100
AcDbRotatedDimension
  0
DIMENSION
  5
406
330
1F
100
AcDbEntity
  8
0
  6
Continuous
 62
     7
370
     0
100
AcDbDimension
  2
*D12
 10
6.660353078
 20
2.4831241801
 30
0.0
 11
7.3924454227
 21
2.4831241801
 31
0.0
 70
   160
 71
     1
 42
-1.0
  3
SLDDIMSTYLE2
100
AcDbAlignedDimension
 13
8.170353078
 23
3.7575153374
 33
0.0
 14
6.660353078
 24
3.7575153374
 34
0.0
100
AcDbRotatedDimension
  0
DIMENSION
  5
419
330
1F
100
AcDbEntity
  8
0
  6
Continuous
 62
     7
370
     0
100
AcDbDimension
  2
*D13
 10
7.4966681571
 20
3.1917855974
 30
0.0
 11
8.0086568844
 21
3.1917855974
 31
0.0
 70
   160
 71
     1
 42
-1.0
  3
SLDDIMSTYLE3
100
AcDbAlignedDimension
 13
7.3392091906
 23
4.3475153374
 33
0.0
 14
7.4966681571
 24
4.3475153374
 34
0.0
100
AcDbRotatedDimension
  0
DIMENSION
  5
42C
330
1F
100
AcDbEntity
  8
0
  6
Continuous
 62
     7
370
     0
100
AcDbDimension
  2
*D14
 10
7.9494240626
 20
5.3447044273
 30
0.0
 11
7.415353078
 21
5.3447044273
 31
0.0
 70
   160
 71
     1
 42
-1.0
  3
SLDDIMSTYLE1
100
AcDbAlignedDimension
 13
6.8864532851
 23
4.3475153374
 33
0.0
 14
7.9494240626
 24
4.3475153374
 34
0.0
100
AcDbRotatedDimension
  0
MTEXT
  5
43E
330
1F
100
AcDbEntity
  8
0
  6
Continuous
 62
     7
370
     0
100
AcDbMText
 10
7.0206954405
 20
2.9337326124
 30
0.0
 40
0.09
 41
0.0
 71
     1
 72
     1
  1
SECTION A-A
  7
SLDTEXTSTYLE0
 73
     1
 44
1.0
  0
INSERT
  5
445
102
{ACAD_REACTORS
330
447
330
448
102
}
330
1F
100
AcDbEntity
  8
0
  6
Continuous
 62
     7
370
     0
100
AcDbBlockReference
  2
SW_NOTE_5
 10
8.2314706027
 20
3.5400912451
 30
0.0
  0
LEADER
  5
447
330
1F
100
AcDbEntity
  8
0
  6
Continuous
 62
     7
370
     0
100
AcDbLeader
  3
SLDDIMSTYLE4
 73
     2
 76
     3
 10
6.7349877919
 20
3.8415153374
 30
0.0
 10
7.9814706027
 20
3.5400912451
 30
0.0
 10
8.2314706027
 20
3.5400912451
 30
0.0
340
445
  0
LEADER
  5
448
330
1F
100
AcDbEntity
  8
0
  6
Continuous
 62
     7
370
     0
100
AcDbLeader
  3
SLDDIMSTYLE4
 73
     2
 76
     3
 10
8.0903687751
 20
3.8415153374
 30
0.0
 10
7.9814706027
 20
3.5400912451
 30
0.0
 10
8.2314706027
 20
3.5400912451
 30
0.0
340
445
  0
INSERT
  5
44E
102
{ACAD_REACTORS
330
44F
102
}
330
1F
100
AcDbEntity
  8
0
  6
Continuous
 62
     7
370
     0
100
AcDbBlockReference
  2
SW_NOTE_6
 10
6.2030063111
 20
4.7749144153
 30
0.0
  0
LEADER
  5
44F
330
1F
100
AcDbEntity
  8
0
  6
Continuous
 62
     7
370
     0
100
AcDbLeader
  3
SLDDIMSTYLE4
 73
     2
 76
     2
 10
7.2910538767
 20
4.6997911444
 30
0.0
 10
6.2030063111
 20
4.7749144153
 30
0.0
340
44E
  0
INSERT
  5
455
330
1F
100
AcDbEntity
  8
0
  6
Continuous
 62
     7
370
     0
100
AcDbBlockReference
  2
SW_NOTE_7
 10
8.8282096156
 20
4.7727786317
 30
0.0
  0
LEADER
  5
456
330
1F
100
AcDbEntity
  8
0
  6
Continuous
 62
     7
370
     0
100
AcDbLeader
  3
SLDDIMSTYLE4
 76
     2
 10
7.7842225424
 20
4.6832066798
 30
0.0
 10
8.8282096156
 20
4.7727786317
 30
0.0
  0
INSERT
  5
45C
330
1F
100
AcDbEntity
  8
0
  6
Continuous
 62
     7
370
     0
100
AcDbBlockReference
  2
SW_NOTE_8
 10
5.9843806285
 20
3.5859696533
 30
0.0
  0
LEADER
  5
45D
330
1F
100
AcDbEntity
  8
0
  6
Continuous
 62
     7
370
     0
100
AcDbLeader
  3
SLDDIMSTYLE4
 76
     2
 10
6.670353078
 20
3.9116412942
 30
0.0
 10
5.9843806285
 20
3.5859696533
 30
0.0
  0
INSERT
  5
463
102
{ACAD_REACTORS
330
464
102
}
330
1F
100
AcDbEntity
  8
0
  6
Continuous
 62
     7
370
     0
100
AcDbBlockReference
  2
SW_NOTE_9
 10
5.7137088476
 20
3.9366797821
 30
0.0
  0
LEADER
  5
464
330
1F
100
AcDbEntity
  8
0
  6
Continuous
 62
     7
370
     0
100
AcDbLeader
  3
SLDDIMSTYLE4
 73
     2
 76
     2
 10
6.8143854204
 20
3.9691370845
 30
0.0
 10
5.7137088476
 20
3.9366797821
 30
0.0
340
463
  0
INSERT
  5
46A
330
1F
100
AcDbEntity
  8
0
  6
Continuous
 62
     7
370
     0
100
AcDbBlockReference
  2
SW_NOTE_10
 10
8.8324663735
 20
3.942529868
 30
0.0
  0
LEADER
  5
46B
330
1F
100
AcDbEntity
  8
0
  6
Continuous
 62
     7
370
     0
100
AcDbLeader
  3
SLDDIMSTYLE4
 76
     2
 10
8.0195388493
 20
4.0036345587
 30
0.0
 10
8.8324663735
 20
3.942529868
 30
0.0
  0
HATCH
  5
46C
330
1F
100
AcDbEntity
  8
0
  6
Continuous
 62
     7
370
     0
100
AcDbHatch
 10
0.0
 20
0.0
 30
0.0
210
0.0
220
0.0
230
1.0
  2
ANSI35
 70
     0
 71
     0
 91
        1
 92
        0
 93
        4
 72
     1
 10
7.938510837117619
 20
4.847515337423313
 11
7.694540843757108
 21
4.847515337423317
 72
     2
 10
6.973833511452157
 20
4.347515337423316
 40
0.8771653543307086
 50
325.2485222972108
 51
394.7514777027908
 73
     0
 72
     1
 10
7.694540843757108
 20
3.847515337423317
 11
7.938510837117619
 21
3.847515337423321
 72
     2
 10
-3.510024756264457
 20
4.347515337423316
 40
11.45944881889772
 50
357.4992700087739
 51
362.5007299912277
 73
     1
 97
        0
 75
     0
 76
     1
 52
0.0
 41
1.0
 77
     0
 78
     2
 53
45.0
 43
0.0
 44
0.0
 45
-0.1767766952966369
 46
0.1767766952966369
 79
     0
 53
45.0
 43
0.176776695
 44
0.0
 45
-0.1767766952966369
 46
0.1767766952966369
 79
     4
 49
0.3125
 49
-0.0625
 49
0.0
 49
-0.0625
 98
        1
 10
0.0
 20
0.0
  0
HATCH
  5
46D
330
1F
100
AcDbEntity
  8
0
  6
Continuous
 62
     7
370
     0
100
AcDbHatch
 10
0.0
 20
0.0
 30
0.0
210
0.0
220
0.0
230
1.0
  2
ANSI35
 70
     0
 71
     0
 91
        1
 92
        0
 93
        4
 72
     1
 10
7.938510837117619
 20
4.847515337423313
 11
7.694540843757108
 21
4.847515337423317
 72
     2
 10
6.973833511452157
 20
4.347515337423316
 40
0.8771653543307086
 50
325.2485222972108
 51
394.7514777027908
 73
     0
 72
     1
 10
7.694540843757108
 20
3.847515337423317
 11
7.938510837117619
 21
3.847515337423321
 72
     2
 10
-3.510024756264457
 20
4.347515337423316
 40
11.45944881889772
 50
357.4992700087739
 51
362.5007299912277
 73
     1
 97
        0
 75
     0
 76
     1
 52
0.0
 41
1.0
 77
     0
 78
     2
 53
45.0
 43
0.0
 44
0.0
 45
-0.1767766952966369
 46
0.1767766952966369
 79
     0
 53
45.0
 43
0.176776695
 44
0.0
 45
-0.1767766952966369
 46
0.1767766952966369
 79
     4
 49
0.3125
 49
-0.0625
 49
0.0
 49
-0.0625
 98
        1
 10
0.0
 20
0.0
  0
HATCH
  5
46E
330
1F
100
AcDbEntity
  8
0
  6
Continuous
 62
     7
370
     0
100
AcDbHatch
 10
0.0
 20
0.0
 30
0.0
210
0.0
220
0.0
230
1.0
  2
ANSI31
 70
     0
 71
     0
 91
        1
 92
        0
 93
        6
 72
     1
 10
8.019538849325915
 20
3.897515337423316
 11
7.939538849325916
 21
3.897515337423316
 72
     1
 10
7.939538849325916
 20
3.897515337423316
 11
7.939538849325915
 21
3.840015337423316
 72
     1
 10
7.939538849325915
 20
3.840015337423316
 11
7.956859357401604
 21
3.830015337423316
 72
     1
 10
7.956859357401604
 20
3.830015337423316
 11
8.009538849325915
 21
3.830015337423316
 72
     1
 10
8.009538849325915
 20
3.830015337423316
 11
8.019538849325915
 21
3.847335845499005
 72
     1
 10
8.019538849325915
 20
3.847335845499005
 11
8.019538849325915
 21
3.897515337423316
 97
        0
 75
     0
 76
     1
 52
0.0
 41
1.0
 77
     0
 78
     1
 53
45.0
 43
0.0
 44
0.0
 45
-0.0883883476483184
 46
0.0883883476483184
 79
     0
 98
        1
 10
0.0
 20
0.0
  0
HATCH
  5
46F
330
1F
100
AcDbEntity
  8
0
  6
Continuous
 62
     7
370
     0
100
AcDbHatch
 10
0.0
 20
0.0
 30
0.0
210
0.0
220
0.0
230
1.0
  2
ANSI31
 70
     0
 71
     0
 91
        1
 92
        0
 93
        6
 72
     1
 10
8.019538849325915
 20
4.797515337423317
 11
8.019538849325915
 21
4.847694829347629
 72
     1
 10
8.019538849325915
 20
4.847694829347629
 11
8.009538849325915
 21
4.865015337423317
 72
     1
 10
8.009538849325915
 20
4.865015337423317
 11
7.956859357401604
 21
4.865015337423317
 72
     1
 10
7.956859357401604
 20
4.865015337423317
 11
7.939538849325915
 21
4.855015337423318
 72
     1
 10
7.939538849325915
 20
4.855015337423318
 11
7.939538849325916
 21
4.797515337423317
 72
     1
 10
7.939538849325916
 20
4.797515337423317
 11
8.019538849325915
 21
4.797515337423317
 97
        0
 75
     0
 76
     1
 52
0.0
 41
1.0
 77
     0
 78
     1
 53
45.0
 43
0.0
 44
0.0
 45
-0.0883883476483184
 46
0.0883883476483184
 79
     0
 98
        1
 10
0.0
 20
0.0
  0
HATCH
  5
470
330
1F
100
AcDbEntity
  8
0
  6
Continuous
 62
     7
370
     0
100
AcDbHatch
 10
0.0
 20
0.0
 30
0.0
210
0.0
220
0.0
230
1.0
  2
ANSI31
 70
     0
 71
     0
 91
        1
 92
        0
 93
        6
 72
     1
 10
6.814385420413614
 20
4.797515337423317
 11
6.894385420413614
 21
4.797515337423317
 72
     1
 10
6.894385420413614
 20
4.797515337423317
 11
6.894385420413614
 21
4.855015337423317
 72
     1
 10
6.894385420413614
 20
4.855015337423317
 11
6.877064912337925
 21
4.865015337423317
 72
     1
 10
6.877064912337925
 20
4.865015337423317
 11
6.824385420413613
 21
4.865015337423317
 72
     1
 10
6.824385420413613
 20
4.865015337423317
 11
6.814385420413614
 21
4.847694829347629
 72
     1
 10
6.814385420413614
 20
4.847694829347629
 11
6.814385420413614
 21
4.797515337423317
 97
        0
 75
     0
 76
     1
 52
0.0
 41
1.0
 77
     0
 78
     1
 53
45.0
 43
0.0
 44
0.0
 45
-0.0883883476483184
 46
0.0883883476483184
 79
     0
 98
        1
 10
0.0
 20
0.0
  0
HATCH
  5
471
330
1F
100
AcDbEntity
  8
0
  6
Continuous
 62
     7
370
     0
100
AcDbHatch
 10
0.0
 20
0.0
 30
0.0
210
0.0
220
0.0
230
1.0
  2
ANSI31
 70
     0
 71
     0
 91
        1
 92
        0
 93
        6
 72
     1
 10
6.814385420413614
 20
3.897515337423317
 11
6.814385420413614
 21
3.847335845499006
 72
     1
 10
6.814385420413614
 20
3.847335845499006
 11
6.824385420413613
 21
3.830015337423317
 72
     1
 10
6.824385420413613
 20
3.830015337423317
 11
6.877064912337925
 21
3.830015337423317
 72
     1
 10
6.877064912337925
 20
3.830015337423317
 11
6.894385420413614
 21
3.840015337423316
 72
     1
 10
6.894385420413614
 20
3.840015337423316
 11
6.894385420413614
 21
3.897515337423316
 72
     1
 10
6.894385420413614
 20
3.897515337423316
 11
6.814385420413614
 21
3.897515337423317
 97
        0
 75
     0
 76
     1
 52
0.0
 41
1.0
 77
     0
 78
     1
 53
45.0
 43
0.0
 44
0.0
 45
-0.0883883476483184
 46
0.0883883476483184
 79
     0
 98
        1
 10
0.0
 20
0.0
  0
HATCH
  5
472
330
1F
100
AcDbEntity
  8
0
  6
Continuous
 62
     7
370
     0
100
AcDbHatch
 10
0.0
 20
0.0
 30
0.0
210
0.0
220
0.0
230
1.0
  2
ANSI31
 70
     0
 71
     0
 91
        1
 92
        0
 93
       26
 72
     1
 10
8.170353077991852
 20
3.831515337423316
 11
8.160353077991852
 21
3.841515337423317
 72
     1
 10
8.160353077991852
 20
3.841515337423317
 11
7.869353077991854
 21
3.841515337423313
 72
     1
 10
7.869353077991854
 20
3.841515337423313
 11
7.868198377453473
 21
3.843515337423316
 72
     1
 10
7.868198377453473
 20
3.843515337423316
 11
7.605353077991852
 21
3.843515337423316
 72
     1
 10
7.605353077991852
 20
3.843515337423316
 11
7.605353077991852
 21
3.810015337423316
 72
     1
 10
7.605353077991852
 20
3.810015337423316
 11
7.575353077991851
 21
3.810015337423312
 72
     1
 10
7.575353077991851
 20
3.810015337423312
 11
7.575353077991851
 21
3.896515337423316
 72
     1
 10
7.575353077991851
 20
3.896515337423316
 11
7.255353077991852
 21
3.896515337423316
 72
     1
 10
7.255353077991852
 20
3.896515337423316
 11
7.255353077991852
 21
3.810015337423316
 72
     1
 10
7.255353077991852
 20
3.810015337423316
 11
7.225353077991852
 21
3.810015337423312
 72
     1
 10
7.225353077991852
 20
3.810015337423312
 11
7.225353077991851
 21
3.843515337423317
 72
     1
 10
7.225353077991851
 20
3.843515337423317
 11
6.96250777853023
 21
3.843515337423317
 72
     1
 10
6.96250777853023
 20
3.843515337423317
 11
6.961353077991852
 21
3.841515337423317
 72
     1
 10
6.961353077991852
 20
3.841515337423317
 11
6.670353077991852
 21
3.841515337423317
 72
     1
 10
6.670353077991852
 20
3.841515337423317
 11
6.660353077991852
 21
3.831515337423316
 72
     1
 10
6.660353077991852
 20
3.831515337423316
 11
6.660353077991852
 21
3.757515337423311
 72
     1
 10
6.660353077991852
 20
3.757515337423311
 11
6.670353077991851
 21
3.747515337423317
 72
     1
 10
6.670353077991851
 20
3.747515337423317
 11
6.742319652393995
 21
3.747515337423317
 72
     1
 10
6.742319652393995
 20
3.747515337423317
 11
6.75824069575101
 21
3.747515337423317
 72
     1
 10
6.75824069575101
 20
3.747515337423317
 11
6.770606349443246
 21
3.747515337423317
 72
     1
 10
6.770606349443246
 20
3.747515337423317
 11
6.809309146875068
 21
3.747515337423317
 72
     1
 10
6.809309146875068
 20
3.747515337423317
 11
6.913186659796802
 21
3.747515337423317
 72
     1
 10
6.913186659796802
 20
3.747515337423317
 11
6.972558510764377
 21
3.747515337423317
 72
     1
 10
6.972558510764377
 20
3.747515337423317
 11
8.16035307799185
 21
3.747515337423316
 72
     1
 10
8.16035307799185
 20
3.747515337423316
 11
8.170353077991852
 21
3.757515337423318
 72
     1
 10
8.170353077991852
 20
3.757515337423318
 11
8.170353077991852
 21
3.831515337423316
 97
        0
 75
     0
 76
     1
 52
0.0
 41
1.0
 77
     0
 78
     1
 53
45.0
 43
0.0
 44
0.0
 45
-0.0883883476483184
 46
0.0883883476483184
 79
     0
 98
        1
 10
0.0
 20
0.0
  0
HATCH
  5
473
330
1F
100
AcDbEntity
  8
0
  6
Continuous
 62
     7
370
     0
100
AcDbHatch
 10
0.0
 20
0.0
 30
0.0
210
0.0
220
0.0
230
1.0
  2
ANSI31
 70
     0
 71
     0
 91
        1
 92
        0
 93
       30
 72
     1
 10
8.160353077991852
 20
4.853515337423317
 11
8.170353077991852
 21
4.863515337423317
 72
     1
 10
8.170353077991852
 20
4.863515337423317
 11
8.170353077991852
 21
4.937515337423315
 72
     1
 10
8.170353077991852
 20
4.937515337423315
 11
8.16035307799185
 21
4.947515337423317
 72
     1
 10
8.16035307799185
 20
4.947515337423317
 11
8.090353077991852
 21
4.947515337423317
 72
     1
 10
8.090353077991852
 20
4.947515337423317
 11
8.032171259810031
 21
4.947515337423317
 72
     1
 10
8.032171259810031
 20
4.947515337423317
 11
7.12110914037012
 21
4.947515337423317
 72
     1
 10
7.12110914037012
 20
4.947515337423317
 11
7.100033558681844
 21
4.947515337423317
 72
     1
 10
7.100033558681844
 20
4.947515337423317
 11
6.983279419225251
 21
4.947515337423317
 72
     1
 10
6.983279419225251
 20
4.947515337423317
 11
6.968710094346264
 21
4.947515337423317
 72
     1
 10
6.968710094346264
 20
4.947515337423317
 11
6.939640225939403
 21
4.947515337423317
 72
     1
 10
6.939640225939403
 20
4.947515337423317
 11
6.924949761932613
 21
4.947515337423317
 72
     1
 10
6.924949761932613
 20
4.947515337423317
 11
6.815353077991852
 21
4.947515337423318
 72
     1
 10
6.815353077991852
 20
4.947515337423318
 11
6.757171259810034
 21
4.947515337423318
 72
     1
 10
6.757171259810034
 20
4.947515337423318
 11
6.670353077991851
 21
4.947515337423318
 72
     1
 10
6.670353077991851
 20
4.947515337423318
 11
6.660353077991852
 21
4.937515337423323
 72
     1
 10
6.660353077991852
 20
4.937515337423323
 11
6.660353077991852
 21
4.863515337423318
 72
     1
 10
6.660353077991852
 20
4.863515337423318
 11
6.670353077991852
 21
4.853515337423318
 72
     1
 10
6.670353077991852
 20
4.853515337423318
 11
6.961353077991852
 21
4.853515337423318
 72
     1
 10
6.961353077991852
 20
4.853515337423318
 11
6.96250777853023
 21
4.851515337423317
 72
     1
 10
6.96250777853023
 20
4.851515337423317
 11
7.225353077991851
 21
4.851515337423318
 72
     1
 10
7.225353077991851
 20
4.851515337423318
 11
7.225353077991852
 21
4.885015337423321
 72
     1
 10
7.225353077991852
 20
4.885015337423321
 11
7.255353077991852
 21
4.885015337423317
 72
     1
 10
7.255353077991852
 20
4.885015337423317
 11
7.255353077991852
 21
4.798515337423318
 72
     1
 10
7.255353077991852
 20
4.798515337423318
 11
7.575353077991851
 21
4.798515337423318
 72
     1
 10
7.575353077991851
 20
4.798515337423318
 11
7.575353077991851
 21
4.885015337423321
 72
     1
 10
7.575353077991851
 20
4.885015337423321
 11
7.605353077991852
 21
4.885015337423317
 72
     1
 10
7.605353077991852
 20
4.885015337423317
 11
7.605353077991852
 21
4.851515337423318
 72
     1
 10
7.605353077991852
 20
4.851515337423318
 11
7.868198377453473
 21
4.851515337423318
 72
     1
 10
7.868198377453473
 20
4.851515337423318
 11
7.869353077991853
 21
4.853515337423321
 72
     1
 10
7.869353077991853
 20
4.853515337423321
 11
8.160353077991852
 21
4.853515337423317
 97
        0
 75
     0
 76
     1
 52
0.0
 41
1.0
 77
     0
 78
     1
 53
45.0
 43
0.0
 44
0.0
 45
-0.0883883476483184
 46
0.0883883476483184
 79
     0
 98
        1
 10
0.0
 20
0.0
  0
HATCH
  5
474
330
1F
100
AcDbEntity
  8
0
  6
Continuous
 62
     7
370
     0
100
AcDbHatch
 10
0.0
 20
0.0
 30
0.0
210
0.0
220
0.0
230
1.0
  2
ANSI35
 70
     0
 71
     0
 91
        1
 92
        0
 93
        4
 72
     1
 10
7.141336503983349
 20
4.847515337423317
 11
6.897366510622836
 21
4.847515337423317
 72
     2
 10
18.34590210400491
 20
4.347515337423316
 40
11.45944881889772
 50
177.4992700087731
 51
182.5007299912278
 73
     1
 72
     1
 10
6.897366510622836
 20
3.847515337423317
 11
7.141336503983349
 21
3.847515337423316
 72
     2
 10
7.862043836288298
 20
4.347515337423316
 40
0.8771653543307086
 50
145.24852229721
 51
214.7514777027909
 73
     0
 97
        0
 75
     0
 76
     1
 52
0.0
 41
1.0
 77
     0
 78
     2
 53
45.0
 43
0.0
 44
0.0
 45
-0.1767766952966369
 46
0.1767766952966369
 79
     0
 53
45.0
 43
0.176776695
 44
0.0
 45
-0.1767766952966369
 46
0.1767766952966369
 79
     4
 49
0.3125
 49
-0.0625
 49
0.0
 49
-0.0625
 98
        1
 10
0.0
 20
0.0
  0
HATCH
  5
475
330
1F
100
AcDbEntity
  8
0
  6
Continuous
 62
     7
370
     0
100
AcDbHatch
 10
0.0
 20
0.0
 30
0.0
210
0.0
220
0.0
230
1.0
  2
ANSI35
 70
     0
 71
     0
 91
        1
 92
        0
 93
        4
 72
     1
 10
7.240247706945136
 20
4.847515337423317
 11
7.141336503983349
 21
4.847515337423317
 72
     2
 10
7.862043836288298
 20
4.347515337423316
 40
0.8771653543307086
 50
145.2485222972099
 51
214.7514777027908
 73
     1
 72
     1
 10
7.141336503983349
 20
3.847515337423317
 11
7.240247706945136
 21
3.847515337423316
 72
     2
 10
6.026610765422154
 20
4.347515337423316
 40
1.312598425196854
 50
337.6090823589627
 51
382.3909176410389
 73
     1
 97
        0
 75
     0
 76
     1
 52
0.0
 41
1.0
 77
     0
 78
     2
 53
45.0
 43
0.0
 44
0.0
 45
-0.1767766952966369
 46
0.1767766952966369
 79
     0
 53
45.0
 43
0.176776695
 44
0.0
 45
-0.1767766952966369
 46
0.1767766952966369
 79
     4
 49
0.3125
 49
-0.0625
 49
0.0
 49
-0.0625
 98
        1
 10
0.0
 20
0.0
  0
ENDSEC
  0
SECTION
  2
OBJECTS
  0
DICTIONARY
  5
C
330
0
100
AcDbDictionary
281
     1
  3
ACAD_GROUP
350
D
  3
ACAD_LAYOUT
350
1A
  3
ACAD_MLINESTYLE
350
17
  3
ACAD_PLOTSETTINGS
350
19
  3
ACAD_PLOTSTYLENAME
350
E
  0
DICTIONARY
  5
D
102
{ACAD_REACTORS
330
C
102
}
330
C
100
AcDbDictionary
281
     1
  0
DICTIONARY
  5
1A
102
{ACAD_REACTORS
330
C
102
}
330
C
100
AcDbDictionary
281
     1
  3
Layout1
350
1E
  3
Layout2
350
26
  3
Model
350
22
  0
DICTIONARY
  5
17
102
{ACAD_REACTORS
330
C
102
}
330
C
100
AcDbDictionary
281
     1
  3
Standard
350
18
  0
DICTIONARY
  5
19
102
{ACAD_REACTORS
330
C
102
}
330
C
100
AcDbDictionary
281
     1
  0
ACDBDICTIONARYWDFLT
  5
E
102
{ACAD_REACTORS
330
C
102
}
330
C
100
AcDbDictionary
281
     1
  3
Normal
350
F
100
AcDbDictionaryWithDefault
340
F
  0
LAYOUT
  5
1E
102
{ACAD_REACTORS
330
1A
102
}
330
1A
100
AcDbPlotSettings
  1

  2
none_device
  4

  6

 40
0.0
 41
0.0
 42
0.0
 43
0.0
 44
0.0
 45
0.0
 46
0.0
 47
0.0
 48
0.0
 49
0.0
140
0.0
141
0.0
142
1.0
143
1.0
 70
   688
 72
     0
 73
     0
 74
     5
  7

 75
    16
147
1.0
148
0.0
149
0.0
100
AcDbLayout
  1
Layout1
 70
     1
 71
     1
 10
0.0
 20
0.0
 11
12.0
 21
9.0
 12
0.0
 22
0.0
 32
0.0
 14
1.0000000000E+20
 24
1.0000000000E+20
 34
1.0000000000E+20
 15
-1.0000000000E+20
 25
-1.0000000000E+20
 35
-1.0000000000E+20
146
0.0
 13
0.0
 23
0.0
 33
0.0
 16
1.0
 26
0.0
 36
0.0
 17
0.0
 27
1.0
 37
0.0
 76
     0
330
1B
  0
LAYOUT
  5
26
102
{ACAD_REACTORS
330
1A
102
}
330
1A
100
AcDbPlotSettings
  1

  2
none_device
  4

  6

 40
0.0
 41
0.0
 42
0.0
 43
0.0
 44
0.0
 45
0.0
 46
0.0
 47
0.0
 48
0.0
 49
0.0
140
0.0
141
0.0
142
1.0
143
1.0
 70
   688
 72
     0
 73
     0
 74
     5
  7

 75
    16
147
1.0
148
0.0
149
0.0
100
AcDbLayout
  1
Layout2
 70
     1
 71
     2
 10
0.0
 20
0.0
 11
0.0
 21
0.0
 12
0.0
 22
0.0
 32
0.0
 14
0.0
 24
0.0
 34
0.0
 15
0.0
 25
0.0
 35
0.0
146
0.0
 13
0.0
 23
0.0
 33
0.0
 16
1.0
 26
0.0
 36
0.0
 17
0.0
 27
1.0
 37
0.0
 76
     0
330
23
  0
LAYOUT
  5
22
102
{ACAD_REACTORS
330
1A
102
}
330
1A
100
AcDbPlotSettings
  1

  2
none_device
  4

  6

 40
0.0
 41
0.0
 42
0.0
 43
0.0
 44
0.0
 45
0.0
 46
0.0
 47
0.0
 48
0.0
 49
0.0
140
0.0
141
0.0
142
1.0
143
1.0
 70
  1712
 72
     0
 73
     0
 74
     0
  7

 75
     0
147
1.0
148
0.0
149
0.0
100
AcDbLayout
  1
Model
 70
     1
 71
     0
 10
0.0
 20
0.0
 11
0.0
 21
0.0
 12
0.0
 22
0.0
 32
0.0
 14
0.0
 24
0.0
 34
0.0
 15
11.0
 25
8.5
 35
0.0
146
0.0
 13
0.0
 23
0.0
 33
0.0
 16
1.0
 26
0.0
 36
0.0
 17
0.0
 27
1.0
 37
0.0
 76
     0
330
1F
  0
MLINESTYLE
  5
18
102
{ACAD_REACTORS
330
17
102
}
330
17
100
AcDbMlineStyle
  2
Standard
 70
     0
  3

 62
   256
 51
90.0
 52
90.0
 71
     2
 49
0.5
 62
   256
  6
BYLAYER
 49
-0.5
 62
   256
  6
BYLAYER
  0
ACDBPLACEHOLDER
  5
F
102
{ACAD_REACTORS
330
E
102
}
330
E
  0
ENDSEC
  0
EOF
