  0
SECTION
  2
HEADER
  9
$ACADVER
  1
AC1015
  9
$ACADMAINTVER
 70
     6
  9
$DWGCODEPAGE
  3
ANSI_1252
  9
$INSBASE
 10
0.0
 20
0.0
 30
0.0
  9
$EXTMIN
 10
-0.0167828053431549
 20
-9.042356546319069
 30
-0.0000000349181948
  9
$EXTMAX
 10
198.0117810634101
 20
285.9710707165895
 30
0.0000000814935746
  9
$LIMMIN
 10
-200.0
 20
-200.0
  9
$LIMMAX
 10
500.0
 20
500.0
  9
$ORTHOMODE
 70
     1
  9
$REGENMODE
 70
     1
  9
$FILLMODE
 70
     1
  9
$QTEXTMODE
 70
     0
  9
$MIRRTEXT
 70
     1
  9
$LTSCALE
 40
5.0
  9
$ATTMODE
 70
     1
  9
$TEXTSIZE
 40
2.5
  9
$TRACEWID
 40
1.0
  9
$TEXTSTYLE
  7
STANDARD
  9
$CLAYER
  8
HILFSLINIEN4
  9
$CELTYPE
  6
BYLAYER
  9
$CECOLOR
 62
   256
  9
$CELTSCALE
 40
1.0
  9
$DISPSILH
 70
     0
  9
$DIMSCALE
 40
1.0
  9
$DIMASZ
 40
2.5
  9
$DIMEXO
 40
0.625
  9
$DIMDLI
 40
3.75
  9
$DIMRND
 40
0.0
  9
$DIMDLE
 40
0.0
  9
$DIMEXE
 40
1.25
  9
$DIMTP
 40
0.0
  9
$DIMTM
 40
0.0
  9
$DIMTXT
 40
2.5
  9
$DIMCEN
 40
2.5
  9
$DIMTSZ
 40
0.0
  9
$DIMTOL
 70
     0
  9
$DIMLIM
 70
     0
  9
$DIMTIH
 70
     0
  9
$DIMTOH
 70
     0
  9
$DIMSE1
 70
     0
  9
$DIMSE2
 70
     0
  9
$DIMTAD
 70
     0
  9
$DIMZIN
 70
     8
  9
$DIMBLK
  1

  9
$DIMASO
 70
     1
  9
$DIMSHO
 70
     1
  9
$DIMPOST
  1

  9
$DIMAPOST
  1

  9
$DIMALT
 70
     0
  9
$DIMALTD
 70
     4
  9
$DIMALTF
 40
0.0394
  9
$DIMLFAC
 40
1.0
  9
$DIMTOFL
 70
     1
  9
$DIMTVP
 40
0.0
  9
$DIMTIX
 70
     0
  9
$DIMSOXD
 70
     0
  9
$DIMSAH
 70
     0
  9
$DIMBLK1
  1

  9
$DIMBLK2
  1

  9
$DIMSTYLE
  2
STANDARD
  9
$DIMCLRD
 70
     0
  9
$DIMCLRE
 70
     0
  9
$DIMCLRT
 70
     0
  9
$DIMTFAC
 40
1.0
  9
$DIMGAP
 40
0.625
  9
$DIMJUST
 70
     0
  9
$DIMSD1
 70
     0
  9
$DIMSD2
 70
     0
  9
$DIMTOLJ
 70
     1
  9
$DIMTZIN
 70
     8
  9
$DIMALTZ
 70
     0
  9
$DIMALTTZ
 70
     0
  9
$DIMUPT
 70
     0
  9
$DIMDEC
 70
     4
  9
$DIMTDEC
 70
     4
  9
$DIMALTU
 70
     8
  9
$DIMALTTD
 70
     4
  9
$DIMTXSTY
  7
STANDARD
  9
$DIMAUNIT
 70
     1
  9
$DIMADEC
 70
     0
  9
$DIMALTRND
 40
0.0
  9
$DIMAZIN
 70
     0
  9
$DIMDSEP
 70
    46
  9
$DIMATFIT
 70
     3
  9
$DIMFRAC
 70
     0
  9
$DIMLDRBLK
  1

  9
$DIMLUNIT
 70
     2
  9
$DIMLWD
 70
    -2
  9
$DIMLWE
 70
    -2
  9
$DIMTMOVE
 70
     0
  9
$LUNITS
 70
     2
  9
$LUPREC
 70
     4
  9
$SKETCHINC
 40
1.0
  9
$FILLETRAD
 40
10.0
  9
$AUNITS
 70
     0
  9
$AUPREC
 70
     0
  9
$MENU
  1
acad
  9
$ELEVATION
 40
0.0
  9
$PELEVATION
 40
0.0
  9
$THICKNESS
 40
0.0
  9
$LIMCHECK
 70
     0
  9
$CHAMFERA
 40
0.0
  9
$CHAMFERB
 40
0.0
  9
$CHAMFERC
 40
0.0
  9
$CHAMFERD
 40
0.0
  9
$SKPOLY
 70
     1
  9
$TDCREATE
 40
2453143.619610798
  9
$TDUCREATE
 40
2453143.536277465
  9
$TDUPDATE
 40
2453143.643655231
  9
$TDUUPDATE
 40
2453143.560321898
  9
$TDINDWG
 40
0.0206130208
  9
$TDUSRTIMER
 40
0.0206130208
  9
$USRTIMER
 70
     1
  9
$ANGBASE
 50
0.0
  9
$ANGDIR
 70
     0
  9
$PDMODE
 70
     3
  9
$PDSIZE
 40
0.0
  9
$PLINEWID
 40
0.0
  9
$SPLFRAME
 70
     0
  9
$SPLINETYPE
 70
     6
  9
$SPLINESEGS
 70
     8
  9
$HANDSEED
  5
C5C
  9
$SURFTAB1
 70
     6
  9
$SURFTAB2
 70
     6
  9
$SURFTYPE
 70
     6
  9
$SURFU
 70
     6
  9
$SURFV
 70
     6
  9
$UCSBASE
  2

  9
$UCSNAME
  2

  9
$UCSORG
 10
0.0
 20
0.0
 30
0.0
  9
$UCSXDIR
 10
1.0
 20
0.0
 30
0.0
  9
$UCSYDIR
 10
0.0
 20
1.0
 30
0.0
  9
$UCSORTHOREF
  2

  9
$UCSORTHOVIEW
 70
     0
  9
$UCSORGTOP
 10
0.0
 20
0.0
 30
0.0
  9
$UCSORGBOTTOM
 10
0.0
 20
0.0
 30
0.0
  9
$UCSORGLEFT
 10
0.0
 20
0.0
 30
0.0
  9
$UCSORGRIGHT
 10
0.0
 20
0.0
 30
0.0
  9
$UCSORGFRONT
 10
0.0
 20
0.0
 30
0.0
  9
$UCSORGBACK
 10
0.0
 20
0.0
 30
0.0
  9
$PUCSBASE
  2

  9
$PUCSNAME
  2

  9
$PUCSORG
 10
0.0
 20
0.0
 30
0.0
  9
$PUCSXDIR
 10
1.0
 20
0.0
 30
0.0
  9
$PUCSYDIR
 10
0.0
 20
1.0
 30
0.0
  9
$PUCSORTHOREF
  2

  9
$PUCSORTHOVIEW
 70
     0
  9
$PUCSORGTOP
 10
0.0
 20
0.0
 30
0.0
  9
$PUCSORGBOTTOM
 10
0.0
 20
0.0
 30
0.0
  9
$PUCSORGLEFT
 10
0.0
 20
0.0
 30
0.0
  9
$PUCSORGRIGHT
 10
0.0
 20
0.0
 30
0.0
  9
$PUCSORGFRONT
 10
0.0
 20
0.0
 30
0.0
  9
$PUCSORGBACK
 10
0.0
 20
0.0
 30
0.0
  9
$USERI1
 70
     0
  9
$USERI2
 70
     0
  9
$USERI3
 70
     0
  9
$USERI4
 70
     0
  9
$USERI5
 70
     0
  9
$USERR1
 40
0.0
  9
$USERR2
 40
0.0
  9
$USERR3
 40
0.0
  9
$USERR4
 40
0.0
  9
$USERR5
 40
0.0
  9
$WORLDVIEW
 70
     1
  9
$SHADEDGE
 70
     3
  9
$SHADEDIF
 70
    70
  9
$TILEMODE
 70
     1
  9
$MAXACTVP
 70
    48
  9
$PINSBASE
 10
0.0
 20
0.0
 30
0.0
  9
$PLIMCHECK
 70
     0
  9
$PEXTMIN
 10
-10.0
 20
-10.0
 30
0.0
  9
$PEXTMAX
 10
297.5
 20
212.5
 30
0.0
  9
$PLIMMIN
 10
0.0
 20
0.0
  9
$PLIMMAX
 10
210.0
 20
297.0
  9
$UNITMODE
 70
     0
  9
$VISRETAIN
 70
     0
  9
$PLINEGEN
 70
     0
  9
$PSLTSCALE
 70
     1
  9
$TREEDEPTH
 70
  3020
  9
$CMLSTYLE
  2
STANDARD
  9
$CMLJUST
 70
     0
  9
$CMLSCALE
 40
1.0
  9
$PROXYGRAPHICS
 70
     1
  9
$MEASUREMENT
 70
     1
  9
$CELWEIGHT
370
    -1
  9
$ENDCAPS
280
     0
  9
$JOINSTYLE
280
     0
  9
$LWDISPLAY
290
     0
  9
$INSUNITS
 70
     0
  9
$HYPERLINKBASE
  1

  9
$STYLESHEET
  1
Thorlabs Ploteinstellung normal.ctb
  9
$XEDIT
290
     1
  9
$CEPSNTYPE
380
     0
  9
$PSTYLEMODE
290
     1
  9
$FINGERPRINTGUID
  2
{A4AF4F70-9B4A-11D7-A358-0050FC5F506F}
  9
$VERSIONGUID
  2
{159C654B-2058-4DAE-AB44-6FD75711CE7D}
  9
$EXTNAMES
290
     1
  9
$PSVPSCALE
 40
0.0
  9
$OLESTARTUP
290
     0
  0
ENDSEC
  0
SECTION
  2
CLASSES
  0
CLASS
  1
HATCH
  2
AcDbHatch
  3
AutoCAD 2000
 90
    32768
280
     0
281
     1
  0
CLASS
  1
LWPOLYLINE
  2
AcDbPolyline
  3
AutoCAD 2000
 90
    32768
280
     0
281
     1
  0
CLASS
  1
ACDBDICTIONARYWDFLT
  2
AcDbDictionaryWithDefault
  3
AutoCAD 2000
 90
        0
280
     0
281
     0
  0
CLASS
  1
ACDBPLACEHOLDER
  2
AcDbPlaceHolder
  3
AutoCAD 2000
 90
        0
280
     0
281
     0
  0
CLASS
  1
LAYOUT
  2
AcDbLayout
  3
AutoCAD 2000
 90
        0
280
     0
281
     0
  0
ENDSEC
  0
SECTION
  2
TABLES
  0
TABLE
  2
VPORT
  5
12
330
0
100
AcDbSymbolTable
 70
     6
  0
VPORT
  5
C5B
330
12
100
AcDbSymbolTableRecord
100
AcDbViewportTableRecord
  2
*Active
 70
     0
 10
0.0
 20
0.0
 11
1.0
 21
1.0
 12
72.73181419089178
 22
124.7706053929403
 13
0.0
 23
0.0
 14
1.0
 24
1.0
 15
10.0
 25
10.0
 16
0.0
 26
0.0
 36
1.0
 17
0.0
 27
0.0
 37
0.0
 40
376.3715749239141
 41
1.475967174677608
 42
50.0
 43
0.0
 44
0.0
 50
0.0
 51
0.0
 71
     0
 72
   100
 73
     1
 74
     1
 75
     1
 76
     1
 77
     0
 78
     0
281
     0
 65
     1
110
0.0
120
0.0
130
0.0
111
1.0
121
0.0
131
0.0
112
0.0
122
1.0
132
0.0
 79
     0
146
0.0
  0
ENDTAB
  0
TABLE
  2
LTYPE
  5
D
330
0
100
AcDbSymbolTable
 70
    25
  0
LTYPE
  5
E
330
D
100
AcDbSymbolTableRecord
100
AcDbLinetypeTableRecord
  2
BYBLOCK
 70
     0
  3

 72
    65
 73
     0
 40
0.0
  0
LTYPE
  5
F
330
D
100
AcDbSymbolTableRecord
100
AcDbLinetypeTableRecord
  2
BYLAYER
 70
     0
  3

 72
    65
 73
     0
 40
0.0
  0
LTYPE
  5
5
330
D
100
AcDbSymbolTableRecord
100
AcDbLinetypeTableRecord
  2
CONTINUOUS
 70
     0
  3
Solid line
 72
    65
 73
     0
 40
0.0
  0
LTYPE
  5
9F
330
D
100
AcDbSymbolTableRecord
100
AcDbLinetypeTableRecord
  2
MITTE2
 70
     0
  3
Mitte (.5x) ___ _ ___ _ ___ _ ___ _ ___ _ ___
 72
    65
 73
     4
 40
1.125
 49
0.75
 74
     0
 49
-0.125
 74
     0
 49
0.125
 74
     0
 49
-0.125
 74
     0
  0
ENDTAB
  0
TABLE
  2
LAYER
  5
A
330
0
100
AcDbSymbolTable
 70
    62
  0
LAYER
  5
4
330
A
100
AcDbSymbolTableRecord
100
AcDbLayerTableRecord
  2
0
 70
     0
 62
     7
  6
CONTINUOUS
370
    -3
390
597
  0
LAYER
  5
84
330
A
100
AcDbSymbolTableRecord
100
AcDbLayerTableRecord
  2
MECH_KONTUR1
 70
     0
 62
     7
  6
CONTINUOUS
370
    -3
390
597
  0
LAYER
  5
B7
330
A
100
AcDbSymbolTableRecord
100
AcDbLayerTableRecord
  2
MECH_SICHTLINIE
 70
     0
 62
     1
  6
CONTINUOUS
370
    -3
390
597
  0
LAYER
  5
B8
330
A
100
AcDbSymbolTableRecord
100
AcDbLayerTableRecord
  2
MECH_MITTELLINIE
 70
     0
 62
     3
  6
MITTE2
370
    -3
390
597
  0
LAYER
  5
C0
330
A
100
AcDbSymbolTableRecord
100
AcDbLayerTableRecord
  2
MECH_BEM_NORMAL
 70
     0
 62
     2
  6
CONTINUOUS
370
    -3
390
597
  0
LAYER
  5
F3
330
A
100
AcDbSymbolTableRecord
100
AcDbLayerTableRecord
  2
HILFSLINIEN4
 70
     0
 62
   151
  6
CONTINUOUS
370
    -3
390
597
  0
LAYER
  5
16B
330
A
100
AcDbSymbolTableRecord
100
AcDbLayerTableRecord
  2
RAHMEN013
 70
     0
 62
     2
  6
CONTINUOUS
370
    -3
390
597
  0
LAYER
  5
16D
330
A
100
AcDbSymbolTableRecord
100
AcDbLayerTableRecord
  2
RAHMEN025
 70
     0
 62
     7
  6
CONTINUOUS
370
    -3
390
597
  0
LAYER
  5
16E
330
A
100
AcDbSymbolTableRecord
100
AcDbLayerTableRecord
  2
RAHMEN035
 70
     0
 62
     5
  6
CONTINUOUS
370
    -3
390
597
  0
LAYER
  5
1B4
330
A
100
AcDbSymbolTableRecord
100
AcDbLayerTableRecord
  2
DEFPOINTS
 70
     0
 62
     7
  6
CONTINUOUS
290
     0
370
    -3
390
597
  0
LAYER
  5
500
330
A
100
AcDbSymbolTableRecord
100
AcDbLayerTableRecord
  2
RAHMEN_FÜR_HP5000
 70
     0
 62
    20
  6
CONTINUOUS
370
    -3
390
597
  0
LAYER
  5
5EE
330
A
100
AcDbSymbolTableRecord
100
AcDbLayerTableRecord
  2
Logo Farbe1
 70
     0
 62
     4
  6
CONTINUOUS
370
    -3
390
597
  0
LAYER
  5
5EF
330
A
100
AcDbSymbolTableRecord
100
AcDbLayerTableRecord
  2
Logo Farbe2
 70
     0
 62
   165
  6
CONTINUOUS
370
    -3
390
597
  0
LAYER
  5
C30
330
A
100
AcDbSymbolTableRecord
100
AcDbLayerTableRecord
  2
TEXT018
 70
     0
 62
     4
  6
CONTINUOUS
370
    -3
390
597
  0
ENDTAB
  0
TABLE
  2
STYLE
  5
B
330
0
100
AcDbSymbolTable
 70
     6
  0
STYLE
  5
C
330
B
100
AcDbSymbolTableRecord
100
AcDbTextStyleTableRecord
  2
STANDARD
 70
     0
 40
0.0
 41
1.0
 50
0.0
 71
     0
 42
2.5
  3
simplex.shx
  4

  0
STYLE
  5
490
330
B
100
AcDbSymbolTableRecord
100
AcDbTextStyleTableRecord
  2
HELV_N_BOLD
 70
     0
 40
0.0
 41
1.07
 50
0.0
 71
     0
 42
10.0
  3
swiss.ttf
  4

1001
ACAD
1000
Swis721 BT
1071
       34
  0
ENDTAB
  0
TABLE
  2
VIEW
  5
10
330
0
100
AcDbSymbolTable
 70
     0
  0
ENDTAB
  0
TABLE
  2
UCS
  5
11
330
0
100
AcDbSymbolTable
 70
     0
  0
ENDTAB
  0
TABLE
  2
APPID
  5
14
330
0
100
AcDbSymbolTable
 70
     6
  0
APPID
  5
15
330
14
100
AcDbSymbolTableRecord
100
AcDbRegAppTableRecord
  2
ACAD
 70
     0
  0
APPID
  5
5A7
330
14
100
AcDbSymbolTableRecord
100
AcDbRegAppTableRecord
  2
CONTENTTABDATA
 70
     0
  0
APPID
  5
5A8
330
14
100
AcDbSymbolTableRecord
100
AcDbRegAppTableRecord
  2
CONTENTCURRENTTAB
 70
     0
  0
APPID
  5
5A9
330
14
100
AcDbSymbolTableRecord
100
AcDbRegAppTableRecord
  2
CONTENTBLOCKDESCRIPTION
 70
     0
  0
APPID
  5
5AA
330
14
100
AcDbSymbolTableRecord
100
AcDbRegAppTableRecord
  2
CONTENTLONGBLOCKNAME
 70
     0
  0
APPID
  5
5AB
330
14
100
AcDbSymbolTableRecord
100
AcDbRegAppTableRecord
  2
CONTENTBLOCKICON
 70
     0
  0
ENDTAB
  0
TABLE
  2
DIMSTYLE
  5
16
330
0
100
AcDbSymbolTable
 70
     2
100
AcDbDimStyleTable
 71
     0
  0
DIMSTYLE
105
1D
102
{ACAD_REACTORS
330
927
330
928
330
93B
330
93C
330
93D
330
A00
330
A14
330
A59
102
}
330
16
100
AcDbSymbolTableRecord
100
AcDbDimStyleTableRecord
  2
STANDARD
 70
     0
 41
2.5
 42
0.625
 43
3.75
 44
1.25
 73
     0
 74
     0
 78
     8
140
2.5
141
2.5
143
0.0394
147
0.625
171
     4
172
     1
273
     8
274
     4
275
     1
284
     8
340
C
  0
ENDTAB
  0
TABLE
  2
BLOCK_RECORD
  5
1
330
0
100
AcDbSymbolTable
 70
    11
  0
BLOCK_RECORD
  5
2
330
1
100
AcDbSymbolTableRecord
100
AcDbBlockTableRecord
  2
*MODEL_SPACE
340
59A
  0
BLOCK_RECORD
  5
7
330
1
100
AcDbSymbolTableRecord
100
AcDbBlockTableRecord
  2
*PAPER_SPACE
340
59B
  0
BLOCK_RECORD
  5
6B7
330
1
100
AcDbSymbolTableRecord
100
AcDbBlockTableRecord
  2
Thorlabs_A4_hoch_engl_HP5000
340
0
102
{BLKREFS
331
8EB
102
}
  0
BLOCK_RECORD
  5
A9C
330
1
100
AcDbSymbolTableRecord
100
AcDbBlockTableRecord
  2
*D1
340
0
  0
BLOCK_RECORD
  5
AA9
330
1
100
AcDbSymbolTableRecord
100
AcDbBlockTableRecord
  2
*D2
340
0
  0
BLOCK_RECORD
  5
AB6
330
1
100
AcDbSymbolTableRecord
100
AcDbBlockTableRecord
  2
*D3
340
0
  0
BLOCK_RECORD
  5
AC3
330
1
100
AcDbSymbolTableRecord
100
AcDbBlockTableRecord
  2
*D4
340
0
  0
BLOCK_RECORD
  5
AD1
330
1
100
AcDbSymbolTableRecord
100
AcDbBlockTableRecord
  2
*D5
340
0
  0
BLOCK_RECORD
  5
ADE
330
1
100
AcDbSymbolTableRecord
100
AcDbBlockTableRecord
  2
*D6
340
0
  0
BLOCK_RECORD
  5
AED
330
1
100
AcDbSymbolTableRecord
100
AcDbBlockTableRecord
  2
*D7
340
0
  0
BLOCK_RECORD
  5
AFB
330
1
100
AcDbSymbolTableRecord
100
AcDbBlockTableRecord
  2
*D8
340
0
  0
BLOCK_RECORD
  5
C53
330
1
100
AcDbSymbolTableRecord
100
AcDbBlockTableRecord
  2
aaa Vorlage für Zeichnungen
340
0
102
{BLKREFS
331
C59
102
}
  0
ENDTAB
  0
ENDSEC
  0
SECTION
  2
BLOCKS
  0
BLOCK
  5
3
330
2
100
AcDbEntity
  8
0
100
AcDbBlockBegin
  2
*MODEL_SPACE
 70
     2
 10
0.0
 20
0.0
 30
0.0
  3
*MODEL_SPACE
  1

  0
ENDBLK
  5
6
330
2
100
AcDbEntity
  8
0
100
AcDbBlockEnd
  0
BLOCK
  5
8
330
7
100
AcDbEntity
 67
     1
  8
0
100
AcDbBlockBegin
  2
*PAPER_SPACE
 70
     0
 10
0.0
 20
0.0
 30
0.0
  3
*PAPER_SPACE
  1

  0
ENDBLK
  5
9
330
7
100
AcDbEntity
 67
     1
  8
0
100
AcDbBlockEnd
  0
BLOCK
  5
734
330
6B7
100
AcDbEntity
  8
0
100
AcDbBlockBegin
  2
Thorlabs_A4_hoch_engl_HP5000
 70
     2
 10
0.0
 20
0.0
 30
0.0
  3
Thorlabs_A4_hoch_engl_HP5000
  1

  0
LINE
  5
6B8
330
6B7
100
AcDbEntity
  8
RAHMEN013
100
AcDbLine
 10
0.0
 20
0.0
 30
0.0
 11
10.80000000000001
 21
0.0000000000000782
 31
0.0
  0
LINE
  5
6B9
330
6B7
100
AcDbEntity
  8
RAHMEN013
100
AcDbLine
 10
0.0
 20
285.95
 30
0.0
 11
0.0
 21
0.0
 31
0.0
  0
LINE
  5
6BA
330
6B7
100
AcDbEntity
  8
RAHMEN013
100
AcDbLine
 10
198.0
 20
285.95
 30
0.0
 11
198.0
 21
55.25000000000002
 31
0.0
  0
LINE
  5
6BB
330
6B7
100
AcDbEntity
  8
RAHMEN013
100
AcDbLine
 10
0.0
 20
285.95
 30
0.0
 11
198.0
 21
285.95
 31
0.0
  0
TEXT
  5
6BC
330
6B7
100
AcDbEntity
  8
RAHMEN_FÜR_HP5000
100
AcDbText
 10
-0.0000000000000002
 20
-9.0
 30
0.0
 40
3.5
  1
frame for HP5000
 11
0.0
 21
-5.5
 31
0.0
100
AcDbText
 73
     3
  0
LINE
  5
6BD
330
6B7
100
AcDbEntity
  8
RAHMEN025
100
AcDbLine
 10
10.80000000000001
 20
38.25000000000002
 30
0.0
 11
198.0
 21
38.25000000000002
 31
0.0
  0
LINE
  5
6BE
330
6B7
100
AcDbEntity
  8
RAHMEN025
100
AcDbLine
 10
65.39999999999998
 20
17.00000000000002
 30
0.0
 11
197.9999999999997
 21
17.00000000000002
 31
0.0
  0
LINE
  5
6BF
330
6B7
100
AcDbEntity
  8
RAHMEN025
100
AcDbLine
 10
10.80000000000001
 20
55.25000000000002
 30
0.0
 11
198.0
 21
55.25000000000002
 31
0.0
  0
LINE
  5
6C0
330
6B7
100
AcDbEntity
  8
RAHMEN013
100
AcDbLine
 10
10.80000000000001
 20
4.250000000000021
 30
0.0
 11
197.9999999999997
 21
4.250000000000021
 31
0.0
  0
LINE
  5
6C1
330
6B7
100
AcDbEntity
  8
RAHMEN013
100
AcDbLine
 10
10.80000000000001
 20
21.25000000000002
 30
0.0
 11
109.5999999999999
 21
21.25000000000002
 31
0.0
  0
LINE
  5
6C2
330
6B7
100
AcDbEntity
  8
RAHMEN013
100
AcDbLine
 10
10.80000000000001
 20
25.50000000000002
 30
0.0
 11
109.5999999999999
 21
25.50000000000002
 31
0.0
  0
LINE
  5
6C3
330
6B7
100
AcDbEntity
  8
RAHMEN013
100
AcDbLine
 10
10.80000000000001
 20
29.75000000000002
 30
0.0
 11
109.5999999999999
 21
29.75000000000002
 31
0.0
  0
LINE
  5
6C4
330
6B7
100
AcDbEntity
  8
RAHMEN013
100
AcDbLine
 10
10.80000000000001
 20
34.00000000000002
 30
0.0
 11
109.5999999999999
 21
34.00000000000002
 31
0.0
  0
LINE
  5
6C5
330
6B7
100
AcDbEntity
  8
RAHMEN013
100
AcDbLine
 10
10.80000000000001
 20
12.75000000000002
 30
0.0
 11
65.39999999999998
 21
12.75000000000002
 31
0.0
  0
LINE
  5
6C6
330
6B7
100
AcDbEntity
  8
RAHMEN013
100
AcDbLine
 10
10.80000000000001
 20
8.500000000000021
 30
0.0
 11
65.39999999999998
 21
8.500000000000021
 31
0.0
  0
LINE
  5
6C7
330
6B7
100
AcDbEntity
  8
RAHMEN025
100
AcDbLine
 10
10.80000000000001
 20
0.0000000000000782
 30
0.0
 11
10.80000000000001
 21
55.25000000000002
 31
0.0
  0
TEXT
  5
6C8
330
6B7
100
AcDbEntity
  8
RAHMEN013
100
AcDbText
 10
11.30714285714287
 20
0.8750000000000671
 30
0.0
 40
2.5
  1
state
 41
0.75
 72
     1
 11
14.70000000000001
 21
2.125000000000067
 31
0.0
100
AcDbText
 73
     2
  0
LINE
  5
6C9
330
6B7
100
AcDbEntity
  8
RAHMEN013
100
AcDbLine
 10
44.60000000000002
 20
38.25000000000002
 30
0.0
 11
44.60000000000002
 21
0.0000000000000213
 31
0.0
  0
LINE
  5
6CA
330
6B7
100
AcDbEntity
  8
RAHMEN013
100
AcDbLine
 10
18.60000000000002
 20
38.25000000000002
 30
0.0
 11
18.60000000000002
 21
0.0000000000000213
 31
0.0
  0
TEXT
  5
6CB
330
6B7
100
AcDbEntity
  8
RAHMEN013
100
AcDbText
 10
20.58809523809526
 20
0.8750000000000213
 30
0.0
 40
2.5
  1
modification
 72
     1
 11
31.60000000000002
 21
2.125000000000021
 31
0.0
100
AcDbText
 73
     2
  0
LINE
  5
6CC
330
6B7
100
AcDbEntity
  8
RAHMEN025
100
AcDbLine
 10
65.39999999999998
 20
55.25000000000002
 30
0.0
 11
65.39999999999998
 21
0.0000000000000213
 31
0.0
  0
LINE
  5
6CD
330
6B7
100
AcDbEntity
  8
RAHMEN013
100
AcDbLine
 10
57.60000000000002
 20
38.25000000000002
 30
0.0
 11
57.60000000000002
 21
0.0000000000000213
 31
0.0
  0
TEXT
  5
6CE
330
6B7
100
AcDbEntity
  8
RAHMEN013
100
AcDbText
 10
47.29047619047621
 20
0.8750000000000213
 30
0.0
 40
2.5
  1
date
 72
     1
 11
51.10000000000002
 21
2.125000000000021
 31
0.0
100
AcDbText
 73
     2
  0
TEXT
  5
6CF
330
6B7
100
AcDbEntity
  8
RAHMEN013
100
AcDbText
 10
58.16666666666666
 20
0.8750000000000213
 30
0.0
 40
2.5
  1
name
 41
0.7
 72
     1
 11
61.5
 21
2.125000000000021
 31
0.0
100
AcDbText
 73
     2
  0
TEXT
  5
6D0
330
6B7
100
AcDbEntity
  8
RAHMEN013
100
AcDbText
 10
66.65231252739364
 20
0.8750000000000213
 30
0.0
 40
2.5
  1
origin
100
AcDbText
  0
LINE
  5
6D1
330
6B7
100
AcDbEntity
  8
RAHMEN025
100
AcDbLine
 10
109.6
 20
55.25000000000002
 30
0.0
 11
109.5999999999999
 21
0.0000000000000213
 31
0.0
  0
TEXT
  5
6D2
330
6B7
100
AcDbEntity
  8
RAHMEN013
100
AcDbText
 10
110.2767000439926
 20
0.8750000000000213
 30
0.0
 40
2.5
  1
replacement for
 41
0.6
100
AcDbText
  0
TEXT
  5
6D3
330
6B7
100
AcDbEntity
  8
RAHMEN013
100
AcDbText
 10
154.7767000439925
 20
0.8750000000000213
 30
0.0
 40
2.5
  1
replaced by
 41
0.6
100
AcDbText
  0
LINE
  5
6D4
330
6B7
100
AcDbEntity
  8
RAHMEN013
100
AcDbLine
 10
153.7999999999998
 20
4.250000000000021
 30
0.0
 11
153.7999999999998
 21
-0.0000000000000639
 31
0.0
  0
LINE
  5
6D5
330
6B7
100
AcDbEntity
  8
RAHMEN013
100
AcDbLine
 10
184.9999999999997
 20
8.500000000000021
 30
0.0
 11
197.9999999999997
 21
8.500000000000021
 31
0.0
  0
TEXT
  5
6D6
330
6B7
100
AcDbEntity
  8
RAHMEN013
100
AcDbText
 10
185.9084594911223
 20
13.63219445009374
 30
0.0
 40
2.5
  1
sheet
100
AcDbText
  0
LINE
  5
6D7
330
6B7
100
AcDbEntity
  8
RAHMEN013
100
AcDbLine
 10
161.6
 20
55.24999999999996
 30
0.0
 11
161.6
 21
48.87500000000002
 31
0.0
  0
LINE
  5
6D8
330
6B7
100
AcDbEntity
  8
RAHMEN013
100
AcDbLine
 10
109.6
 20
48.87500000000002
 30
0.0
 11
198.0
 21
48.87500000000002
 31
0.0
  0
TEXT
  5
6D9
330
6B7
100
AcDbEntity
  8
RAHMEN013
100
AcDbText
 10
110.7262599024915
 20
50.81250000000002
 30
0.0
 40
2.5
  1
scale
100
AcDbText
  0
TEXT
  5
6DA
330
6B7
100
AcDbEntity
  8
RAHMEN013
100
AcDbText
 10
12.40366595510687
 20
50.81250000000002
 30
0.0
 40
2.5
  1
usage
100
AcDbText
  0
TEXT
  5
6DB
330
6B7
100
AcDbEntity
  8
RAHMEN013
100
AcDbText
 10
67.00366595510684
 20
50.81250000000002
 30
0.0
 40
2.5
  1
tolerance
100
AcDbText
  0
LINE
  5
6DC
330
6B7
100
AcDbEntity
  8
RAHMEN013
100
AcDbLine
 10
91.40000000000004
 20
55.25000000000002
 30
0.0
 11
91.39999999999998
 21
17.00000000000002
 31
0.0
  0
TEXT
  5
6DD
330
6B7
100
AcDbEntity
  8
RAHMEN013
100
AcDbText
 10
92.84609815315617
 20
50.81250000000002
 30
0.0
 40
2.5
  1
surface
100
AcDbText
  0
TEXT
  5
6DE
330
6B7
100
AcDbEntity
  8
RAHMEN013
100
AcDbText
 10
95.73809523809524
 20
34.87500000000002
 30
0.0
 40
2.5
  1
name
 72
     1
 11
100.5
 21
36.12500000000002
 31
0.0
100
AcDbText
 73
     2
  0
TEXT
  5
6DF
330
6B7
100
AcDbEntity
  8
RAHMEN013
100
AcDbText
 10
79.79047619047621
 20
34.87500000000002
 30
0.0
 40
2.5
  1
date
 72
     1
 11
83.60000000000002
 21
36.12500000000002
 31
0.0
100
AcDbText
 73
     2
  0
TEXT
  5
6E0
330
6B7
100
AcDbEntity
  8
RAHMEN013
100
AcDbText
 10
66.39893356388416
 20
30.62500000000002
 30
0.0
 40
2.5
  1
drawn
 41
0.8
100
AcDbText
  0
TEXT
  5
6E1
330
6B7
100
AcDbEntity
  8
RAHMEN013
100
AcDbText
 10
66.39893356388416
 20
26.37500000000002
 30
0.0
 40
2.5
  1
checked
 41
0.6
100
AcDbText
  0
LINE
  5
6E2
330
6B7
100
AcDbEntity
  8
RAHMEN013
100
AcDbLine
 10
75.80000000000001
 20
38.25000000000002
 30
0.0
 11
75.79999999999995
 21
17.00000000000005
 31
0.0
  0
LINE
  5
6E3
330
6B7
100
AcDbEntity
  8
RAHMEN025
100
AcDbLine
 10
184.9999999999998
 20
17.00000000000002
 30
0.0
 11
184.9999999999998
 21
4.250000000000021
 31
0.0
  0
TEXT
  5
6E4
330
6B7
100
AcDbEntity
  8
RAHMEN013
100
AcDbText
 10
185.6922294743792
 20
5.255790835553987
 30
0.0
 40
2.5
  1
of   sh.
 41
0.8
100
AcDbText
  0
LINE
  5
6E5
330
6B7
100
AcDbEntity
  8
RAHMEN013
100
AcDbLine
 10
10.80000000000001
 20
17.00000000000002
 30
0.0
 11
65.39999999999998
 21
17.00000000000002
 31
0.0
  0
LINE
  5
6E6
330
6B7
100
AcDbEntity
  8
RAHMEN025
100
AcDbLine
 10
10.80000000000001
 20
0.0000000000000213
 30
0.0
 11
198.0
 21
0.0000000000000213
 31
0.0
  0
LINE
  5
6E7
330
6B7
100
AcDbEntity
  8
RAHMEN025
100
AcDbLine
 10
198.0
 20
0.0000000000000213
 30
0.0
 11
198.0
 21
55.25000000000002
 31
0.0
  0
TEXT
  5
6E8
330
6B7
100
AcDbEntity
  8
RAHMEN013
100
AcDbText
 10
110.7620476356915
 20
45.3463500449782
 30
0.0
 40
2.5
  1
material
100
AcDbText
  0
TEXT
  5
6E9
330
6B7
100
AcDbEntity
  8
RAHMEN013
100
AcDbText
 10
110.7620476356915
 20
42.25715873595927
 30
0.0
 40
2.5
  1
semif. part
 41
0.9
100
AcDbText
  0
TEXT
  5
6EA
330
6B7
100
AcDbEntity
  8
RAHMEN013
100
AcDbText
 10
110.7620476356915
 20
39.12500000000002
 30
0.0
 40
2.5
  1
raw part no.
 41
0.85
100
AcDbText
  0
LINE
  5
6EB
330
6B7
100
AcDbEntity
  8
RAHMEN013
100
AcDbLine
 10
91.40000000000004
 20
59.50000000000003
 30
0.0
 11
198.0
 21
59.50000000000003
 31
0.0
  0
LINE
  5
6EC
330
6B7
100
AcDbEntity
  8
RAHMEN013
100
AcDbLine
 10
91.40000000000004
 20
55.25000000000002
 30
0.0
 11
91.40000000000004
 21
59.50000000000003
 31
0.0
  0
TEXT
  5
6ED
330
6B7
100
AcDbEntity
  8
RAHMEN013
100
AcDbText
 10
104.8964285714286
 20
56.12500000000003
 30
0.0
 40
2.5
  1
CAD drawing, may only be modified by CAD !
 41
0.9
 72
     1
 11
144.7
 21
57.37500000000003
 31
0.0
100
AcDbText
 73
     2
  0
ATTDEF
  5
6EE
330
6B7
100
AcDbEntity
  8
RAHMEN035
100
AcDbText
 10
153.8450880061339
 20
31.98184564905599
 30
0.0
 40
5.0
  1

 72
     4
 11
153.8450880061339
 21
31.98184564905599
 31
0.0
100
AcDbAttributeDefinition
  3
Benennung Zeile 1
  2
BENENNUNG1A
 70
     0
  0
ATTDEF
  5
6EF
330
6B7
100
AcDbEntity
  8
RAHMEN035
100
AcDbText
 10
111.0999999999999
 20
29.50000000000002
 30
0.0
 40
5.0
  1

 41
1.630363636363638
 72
     5
 11
196.5
 21
29.50000000000002
 31
0.0
100
AcDbAttributeDefinition
  3
oder Zeile 1 eingepaßt
  2
BENENNUNG1B
 70
     0
  0
ATTDEF
  5
6F0
330
6B7
100
AcDbEntity
  8
RAHMEN035
100
AcDbText
 10
153.8450880061339
 20
23.41041707762741
 30
0.0
 40
5.0
  1

 41
0.9
 72
     4
 11
153.8450880061339
 21
23.41041707762741
 31
0.0
100
AcDbAttributeDefinition
  3
Benennung Zeile 2
  2
BENENNUNG2A
 70
     0
  0
ATTDEF
  5
6F1
330
6B7
100
AcDbEntity
  8
RAHMEN035
100
AcDbText
 10
111.0999999999999
 20
20.92857142857143
 30
0.0
 40
5.0
  1

 41
1.601250000000002
 72
     5
 11
196.5
 21
20.92857142857143
 31
0.0
100
AcDbAttributeDefinition
  3
oder Zeile 2 eingepaßt
  2
BENENNUNG2B
 70
     0
  0
ATTDEF
  5
6F2
330
6B7
100
AcDbEntity
  8
RAHMEN035
100
AcDbText
 10
147.2535696603034
 20
10.32473610229668
 30
0.0
 40
5.0
  1

 72
     4
 11
147.2535696603034
 21
10.32473610229668
 31
0.0
100
AcDbAttributeDefinition
  3
Zeichnungsnummer
  2
ZEICHNUNGSNUMMER
 70
     0
  0
ATTDEF
  5
6F3
330
6B7
100
AcDbEntity
  8
RAHMEN013
100
AcDbText
 10
189.9889142732034
 20
10.79845418694665
 30
0.0
 40
2.5
  1

 72
     4
 11
189.9889142732034
 21
10.79845418694665
 31
0.0
100
AcDbAttributeDefinition
  3
Blatt
  2
BLATT
 70
     0
  0
ATTDEF
  5
6F4
330
6B7
100
AcDbEntity
  8
RAHMEN013
100
AcDbText
 10
190.9461
 20
6.520830598623682
 30
0.0
 40
2.5
  1

 72
     4
 11
190.9461
 21
6.520830598623682
 31
0.0
100
AcDbAttributeDefinition
  3
von ... Blättern
  2
BLÄTTER
 70
     0
  0
ATTDEF
  5
6F5
330
6B7
100
AcDbEntity
  8
RAHMEN013
100
AcDbText
 10
128.3916231867283
 20
50.81250000000002
 30
0.0
 40
2.5
  1

100
AcDbAttributeDefinition
  3
Maßstab
  2
MAßSTAB
 70
     0
  0
ATTDEF
  5
6F6
330
6B7
100
AcDbEntity
  8
RAHMEN013
100
AcDbText
 10
134.4346962179382
 20
44.31250000000002
 30
0.0
 40
2.5
  1

 11
134.4346962179382
 21
45.56250000000002
 31
0.0
100
AcDbAttributeDefinition
  3
Werkstoff, Rohteil Zeile 1
  2
WERKSTOFF1
 70
     0
 74
     2
  0
ATTDEF
  5
6F7
330
6B7
100
AcDbEntity
  8
RAHMEN013
100
AcDbText
 10
134.4346962179382
 20
40.02678571428574
 30
0.0
 40
2.5
  1

 11
134.4346962179382
 21
41.27678571428574
 31
0.0
100
AcDbAttributeDefinition
  3
Werkstoff, Rohteil Zeile 2
  2
WERKSTOFF2
 70
     0
 74
     2
  0
ATTDEF
  5
6F8
330
6B7
100
AcDbEntity
  8
RAHMEN025
100
AcDbText
 10
38.09999999999996
 20
43.56250000000001
 30
0.0
 40
3.5
  1

 72
     4
 11
38.09999999999996
 21
43.56250000000001
 31
0.0
100
AcDbAttributeDefinition
  3
Verwendung bei
  2
VERWENDUNGA
 70
     0
  0
ATTDEF
  5
6F9
330
6B7
100
AcDbEntity
  8
RAHMEN025
100
AcDbText
 10
12.50000000000001
 20
41.80000000000002
 30
0.0
 40
3.5
  1

 41
1.365333333333332
 72
     5
 11
63.69999999999997
 21
41.80000000000002
 31
0.0
100
AcDbAttributeDefinition
  3
Verwendung bei, eingepaßt
  2
VERWENDUNGB
 70
     0
  0
ATTDEF
  5
6FA
330
6B7
100
AcDbEntity
  8
RAHMEN013
100
AcDbText
 10
66.9892857142857
 20
44.31250000000002
 30
0.0
 40
2.5
  1
DIN ISO 2768
 41
0.9
 72
     4
 11
78.39999999999998
 21
45.56250000000002
 31
0.0
100
AcDbAttributeDefinition
  3
Zul. Abweichung Zeile 1
  2
ZUL_ABW1
 70
     0
  0
ATTDEF
  5
6FB
330
6B7
100
AcDbEntity
  8
RAHMEN013
100
AcDbText
 10
75.77499999999997
 20
40.02678571428574
 30
0.0
 40
2.5
  1
fein
 41
0.9
 72
     4
 11
78.39999999999998
 21
41.27678571428574
 31
0.0
100
AcDbAttributeDefinition
  3
Zul. Abweichung Zeile 2
  2
ZUL_ABW2
 70
     0
  0
ATTDEF
  5
6FC
330
6B7
100
AcDbEntity
  8
RAHMEN013
100
AcDbText
 10
92.20000000000004
 20
44.28571428571429
 30
0.0
 40
2.5
  1

 41
1.133658536585362
 72
     5
 11
108.7999999999999
 21
44.28571428571429
 31
0.0
100
AcDbAttributeDefinition
  3
Oberfläche Zeile 1
  2
OBERFL1
 70
     0
  0
ATTDEF
  5
6FD
330
6B7
100
AcDbEntity
  8
RAHMEN013
100
AcDbText
 10
92.2
 20
40.00000000000002
 30
0.0
 40
2.5
  1

 41
1.056363636363636
 72
     5
 11
108.8
 21
40.00000000000002
 31
0.0
100
AcDbAttributeDefinition
  3
Oberfläche Zeile 2
  2
OBERFL2
 70
     0
  0
ATTDEF
  5
6FE
330
6B7
100
AcDbEntity
  8
RAHMEN013
100
AcDbText
 10
76.45502135033757
 20
30.70603256725529
 30
0.0
 40
2.5
  1

 41
0.9
100
AcDbAttributeDefinition
  3
Bearbeitet am
  2
BEARBETET
 70
     0
  0
ATTDEF
  5
6FF
330
6B7
100
AcDbEntity
  8
RAHMEN013
100
AcDbText
 10
92.71813410214225
 20
30.70603256725529
 30
0.0
 40
2.5
  1

100
AcDbAttributeDefinition
  3
Bearbeitet von
  2
NAMEBEARB
 70
     0
  0
ATTDEF
  5
700
330
6B7
100
AcDbEntity
  8
RAHMEN013
100
AcDbText
 10
76.45502135033757
 20
26.4560325672553
 30
0.0
 40
2.5
  1

 41
0.9
100
AcDbAttributeDefinition
  3
Geprüft am
  2
GEPRÜFT
 70
     0
  0
ATTDEF
  5
701
330
6B7
100
AcDbEntity
  8
RAHMEN013
100
AcDbText
 10
92.71813410214219
 20
26.4560325672553
 30
0.0
 40
2.5
  1

100
AcDbAttributeDefinition
  3
Geprüft von
  2
NAMEGEPR
 70
     0
  0
ATTDEF
  5
702
330
6B7
100
AcDbEntity
  8
RAHMEN013
100
AcDbText
 10
139.1999999999998
 20
0.8750000000000213
 30
0.0
 40
2.5
  1

 72
     1
 11
139.1999999999998
 21
2.125000000000021
 31
0.0
100
AcDbAttributeDefinition
  3
Ersatz für
  2
ERSATZF
 70
     0
 74
     2
  0
ATTDEF
  5
703
330
6B7
100
AcDbEntity
  8
RAHMEN013
100
AcDbText
 10
183.3999999999998
 20
0.8749999999999076
 30
0.0
 40
2.5
  1

 72
     1
 11
183.3999999999998
 21
2.124999999999907
 31
0.0
100
AcDbAttributeDefinition
  3
Ersatz durch
  2
ERSATZD
 70
     0
 74
     2
  0
ATTDEF
  5
704
330
6B7
100
AcDbEntity
  8
RAHMEN013
100
AcDbText
 10
11.30000000000001
 20
67.00000000000002
 30
0.0
 40
2.5
  1

100
AcDbAttributeDefinition
  3
Bemerkung Zeile 1
  2
BEM1
 70
     0
  0
ATTDEF
  5
705
330
6B7
100
AcDbEntity
  8
RAHMEN013
100
AcDbText
 10
11.30000000000001
 20
62.71428571428574
 30
0.0
 40
2.5
  1

100
AcDbAttributeDefinition
  3
Bemerkung Zeile 2
  2
BEM2
 70
     0
  0
ATTDEF
  5
706
330
6B7
100
AcDbEntity
  8
RAHMEN013
100
AcDbText
 10
11.30000000000001
 20
58.42857142857145
 30
0.0
 40
2.5
  1

100
AcDbAttributeDefinition
  3
Bemerkung Zeile 3
  2
BEM3
 70
     0
  0
LINE
  5
707
330
6B7
100
AcDbEntity
  8
RAHMEN013
  6
MITTE2
100
AcDbLine
 10
183.6249999999999
 20
55.2125
 30
0.0
 11
183.6249999999999
 21
48.91249999999999
 31
0.0
  0
LINE
  5
708
330
6B7
100
AcDbEntity
  8
RAHMEN013
  6
MITTE2
100
AcDbLine
 10
180.4749999999999
 20
52.06249999999999
 30
0.0
 11
186.7749999999999
 21
52.06249999999999
 31
0.0
  0
CIRCLE
  5
709
330
6B7
100
AcDbEntity
  8
RAHMEN025
100
AcDbCircle
 10
183.6249999999999
 20
52.06249999999999
 30
0.0
 40
2.25
  0
LINE
  5
70A
330
6B7
100
AcDbEntity
  8
RAHMEN025
100
AcDbLine
 10
172.9249999999999
 20
50.82749999999998
 30
0.0
 11
178.125
 21
49.81249999999998
 31
0.0
  0
LINE
  5
70B
330
6B7
100
AcDbEntity
  8
RAHMEN025
100
AcDbLine
 10
172.9249999999999
 20
53.2975
 30
0.0
 11
178.1249999999999
 21
54.31249999999999
 31
0.0
  0
LINE
  5
70C
330
6B7
100
AcDbEntity
  8
RAHMEN013
  6
MITTE2
100
AcDbLine
 10
171.925
 20
52.06249999999999
 30
0.0
 11
179.1249999999999
 21
52.06249999999999
 31
0.0
  0
LINE
  5
70D
330
6B7
100
AcDbEntity
  8
RAHMEN025
100
AcDbLine
 10
172.9249999999999
 20
53.2975
 30
0.0
 11
172.9249999999999
 21
50.82749999999998
 31
0.0
  0
LINE
  5
70E
330
6B7
100
AcDbEntity
  8
RAHMEN025
100
AcDbLine
 10
178.1249999999999
 20
54.31249999999999
 30
0.0
 11
178.125
 21
49.81249999999998
 31
0.0
  0
CIRCLE
  5
70F
330
6B7
100
AcDbEntity
  8
RAHMEN025
100
AcDbCircle
 10
183.6249999999999
 20
52.06249999999999
 30
0.0
 40
1.235
  0
ATTDEF
  5
710
330
6B7
100
AcDbEntity
  8
RAHMEN013
100
AcDbText
 10
14.70000000000001
 20
36.12500000000002
 30
0.0
 40
2.5
  1

 72
     4
 11
14.70000000000001
 21
36.12500000000002
 31
0.0
100
AcDbAttributeDefinition
  3
Zustand 1
  2
ZUST1
 70
     0
  0
ATTDEF
  5
711
330
6B7
100
AcDbEntity
  8
RAHMEN013
100
AcDbText
 10
19.80000000000002
 20
34.85000000000002
 30
0.0
 40
2.5
  1

 41
2.831999999999999
 72
     5
 11
43.40000000000002
 21
34.85000000000002
 31
0.0
100
AcDbAttributeDefinition
  3
Änderung 1
  2
ÄND1
 70
     0
  0
ATTDEF
  5
712
330
6B7
100
AcDbEntity
  8
RAHMEN013
100
AcDbText
 10
45.40000000000001
 20
34.85000000000002
 30
0.0
 40
2.5
  1

 50
359.9999999999999
 41
1.45090909090909
 72
     5
 11
56.80000000000002
 21
34.85000000000002
 31
0.0
100
AcDbAttributeDefinition
  3
Datum 1
  2
DAT1
 70
     0
  0
ATTDEF
  5
713
330
6B7
100
AcDbEntity
  8
RAHMEN013
100
AcDbText
 10
58.40000000000002
 20
34.85000000000002
 30
0.0
 40
2.5
  1

 41
0.5660869565217355
 72
     5
 11
64.59999999999998
 21
34.85000000000002
 31
0.0
100
AcDbAttributeDefinition
  3
Name 1
  2
NAME1
 70
     0
  0
ATTDEF
  5
714
330
6B7
100
AcDbEntity
  8
RAHMEN013
100
AcDbText
 10
14.70000000000001
 20
31.87500000000002
 30
0.0
 40
2.5
  1

 72
     4
 11
14.70000000000001
 21
31.87500000000002
 31
0.0
100
AcDbAttributeDefinition
  3
Zustand 2
  2
ZUST2
 70
     0
  0
ATTDEF
  5
715
330
6B7
100
AcDbEntity
  8
RAHMEN013
100
AcDbText
 10
19.80000000000002
 20
30.60000000000002
 30
0.0
 40
2.5
  1

 41
2.509367088607594
 72
     5
 11
43.40000000000002
 21
30.60000000000002
 31
0.0
100
AcDbAttributeDefinition
  3
Änderung 2
  2
ÄND2
 70
     0
  0
ATTDEF
  5
716
330
6B7
100
AcDbEntity
  8
RAHMEN013
100
AcDbText
 10
45.40000000000001
 20
30.60000000000003
 30
0.0
 40
2.5
  1

 50
359.9999999999999
 41
1.2768
 72
     5
 11
56.80000000000002
 21
30.60000000000002
 31
0.0
100
AcDbAttributeDefinition
  3
Datum 2
  2
DAT2
 70
     0
  0
ATTDEF
  5
717
330
6B7
100
AcDbEntity
  8
RAHMEN013
100
AcDbText
 10
58.40000000000002
 20
30.60000000000003
 30
0.0
 40
2.5
  1

 41
0.5156435643564326
 72
     5
 11
64.59999999999998
 21
30.60000000000003
 31
0.0
100
AcDbAttributeDefinition
  3
Name 2
  2
NAME2
 70
     0
  0
ATTDEF
  5
718
330
6B7
100
AcDbEntity
  8
RAHMEN013
100
AcDbText
 10
14.70000000000001
 20
27.62500000000002
 30
0.0
 40
2.5
  1

 72
     4
 11
14.70000000000001
 21
27.62500000000002
 31
0.0
100
AcDbAttributeDefinition
  3
Zustand 3
  2
ZUST3
 70
     0
  0
ATTDEF
  5
719
330
6B7
100
AcDbEntity
  8
RAHMEN013
100
AcDbText
 10
19.80000000000002
 20
26.35000000000002
 30
0.0
 40
2.5
  1

 41
2.509367088607594
 72
     5
 11
43.40000000000002
 21
26.35000000000002
 31
0.0
100
AcDbAttributeDefinition
  3
Änderung 3
  2
ÄND3
 70
     0
  0
ATTDEF
  5
71A
330
6B7
100
AcDbEntity
  8
RAHMEN013
100
AcDbText
 10
45.40000000000001
 20
26.35000000000003
 30
0.0
 40
2.5
  1

 50
359.9999999999999
 41
1.2768
 72
     5
 11
56.80000000000002
 21
26.35000000000002
 31
0.0
100
AcDbAttributeDefinition
  3
Datum 3
  2
DAT3
 70
     0
  0
ATTDEF
  5
71B
330
6B7
100
AcDbEntity
  8
RAHMEN013
100
AcDbText
 10
58.40000000000002
 20
26.35000000000003
 30
0.0
 40
2.5
  1

 41
0.5156435643564324
 72
     5
 11
64.59999999999998
 21
26.35000000000003
 31
0.0
100
AcDbAttributeDefinition
  3
Name 3
  2
NAME3
 70
     0
  0
ATTDEF
  5
71C
330
6B7
100
AcDbEntity
  8
RAHMEN013
100
AcDbText
 10
14.70000000000001
 20
23.37500000000002
 30
0.0
 40
2.5
  1

 72
     4
 11
14.70000000000001
 21
23.37500000000002
 31
0.0
100
AcDbAttributeDefinition
  3
Zustand 4
  2
ZUST4
 70
     0
  0
ATTDEF
  5
71D
330
6B7
100
AcDbEntity
  8
RAHMEN013
100
AcDbText
 10
19.80000000000002
 20
22.10000000000002
 30
0.0
 40
2.5
  1

 41
2.477999999999999
 72
     5
 11
43.40000000000002
 21
22.10000000000002
 31
0.0
100
AcDbAttributeDefinition
  3
Änderung 4
  2
ÄND4
 70
     0
  0
ATTDEF
  5
71E
330
6B7
100
AcDbEntity
  8
RAHMEN013
100
AcDbText
 10
45.40000000000001
 20
22.10000000000003
 30
0.0
 40
2.5
  1

 50
359.9999999999999
 41
1.26
 72
     5
 11
56.80000000000002
 21
22.10000000000002
 31
0.0
100
AcDbAttributeDefinition
  3
Datum 4
  2
DAT4
 70
     0
  0
ATTDEF
  5
71F
330
6B7
100
AcDbEntity
  8
RAHMEN013
100
AcDbText
 10
58.40000000000002
 20
22.10000000000003
 30
0.0
 40
2.5
  1

 41
0.5105882352941145
 72
     5
 11
64.59999999999998
 21
22.10000000000003
 31
0.0
100
AcDbAttributeDefinition
  3
Name 4
  2
NAME4
 70
     0
  0
ATTDEF
  5
720
330
6B7
100
AcDbEntity
  8
RAHMEN013
100
AcDbText
 10
14.70000000000001
 20
19.12500000000002
 30
0.0
 40
2.5
  1

 72
     4
 11
14.70000000000001
 21
19.12500000000002
 31
0.0
100
AcDbAttributeDefinition
  3
Zustand 5
  2
ZUST5
 70
     0
  0
ATTDEF
  5
721
330
6B7
100
AcDbEntity
  8
RAHMEN013
100
AcDbText
 10
19.80000000000002
 20
17.85000000000002
 30
0.0
 40
2.5
  1

 41
2.509367088607594
 72
     5
 11
43.40000000000002
 21
17.85000000000002
 31
0.0
100
AcDbAttributeDefinition
  3
Änderung 5
  2
ÄND5
 70
     0
  0
ATTDEF
  5
722
330
6B7
100
AcDbEntity
  8
RAHMEN013
100
AcDbText
 10
45.40000000000001
 20
17.85000000000002
 30
0.0
 40
2.5
  1

 50
359.9999999999999
 41
1.276799999999999
 72
     5
 11
56.80000000000002
 21
17.85000000000002
 31
0.0
100
AcDbAttributeDefinition
  3
Datum 5
  2
DAT5
 70
     0
  0
ATTDEF
  5
723
330
6B7
100
AcDbEntity
  8
RAHMEN013
100
AcDbText
 10
58.40000000000002
 20
17.85000000000002
 30
0.0
 40
2.5
  1

 41
0.5156435643564321
 72
     5
 11
64.59999999999998
 21
17.85000000000002
 31
0.0
100
AcDbAttributeDefinition
  3
Name 5
  2
NAME5
 70
     0
  0
ATTDEF
  5
724
330
6B7
100
AcDbEntity
  8
RAHMEN013
100
AcDbText
 10
14.70000000000001
 20
14.87500000000002
 30
0.0
 40
2.5
  1

 72
     4
 11
14.70000000000001
 21
14.87500000000002
 31
0.0
100
AcDbAttributeDefinition
  3
Zustand 6
  2
ZUST6
 70
     0
  0
ATTDEF
  5
725
330
6B7
100
AcDbEntity
  8
RAHMEN013
100
AcDbText
 10
19.80000000000002
 20
13.60000000000002
 30
0.0
 40
2.5
  1

 41
2.541538461538461
 72
     5
 11
43.40000000000002
 21
13.60000000000002
 31
0.0
100
AcDbAttributeDefinition
  3
Änderung 6
  2
ÄND6
 70
     0
  0
ATTDEF
  5
726
330
6B7
100
AcDbEntity
  8
RAHMEN013
100
AcDbText
 10
45.40000000000001
 20
13.60000000000002
 30
0.0
 40
2.5
  1

 50
359.9999999999999
 41
1.294054054054053
 72
     5
 11
56.80000000000002
 21
13.60000000000002
 31
0.0
100
AcDbAttributeDefinition
  3
Datum 6
  2
DAT6
 70
     0
  0
ATTDEF
  5
727
330
6B7
100
AcDbEntity
  8
RAHMEN013
100
AcDbText
 10
58.40000000000002
 20
13.60000000000002
 30
0.0
 40
2.5
  1

 41
0.5207999999999968
 72
     5
 11
64.59999999999998
 21
13.60000000000002
 31
0.0
100
AcDbAttributeDefinition
  3
Name 6
  2
NAME6
 70
     0
  0
ATTDEF
  5
728
330
6B7
100
AcDbEntity
  8
RAHMEN013
100
AcDbText
 10
14.70000000000001
 20
10.62500000000002
 30
0.0
 40
2.5
  1

 72
     4
 11
14.70000000000001
 21
10.62500000000002
 31
0.0
100
AcDbAttributeDefinition
  3
Zustand 7
  2
ZUST7
 70
     0
  0
ATTDEF
  5
729
330
6B7
100
AcDbEntity
  8
RAHMEN013
100
AcDbText
 10
19.80000000000002
 20
9.350000000000022
 30
0.0
 40
2.5
  1

 41
2.509367088607594
 72
     5
 11
43.40000000000002
 21
9.350000000000022
 31
0.0
100
AcDbAttributeDefinition
  3
Änderung 7
  2
ÄND7
 70
     0
  0
ATTDEF
  5
72A
330
6B7
100
AcDbEntity
  8
RAHMEN013
100
AcDbText
 10
45.40000000000001
 20
9.350000000000029
 30
0.0
 40
2.5
  1

 50
359.9999999999999
 41
1.276799999999999
 72
     5
 11
56.80000000000002
 21
9.350000000000022
 31
0.0
100
AcDbAttributeDefinition
  3
Datum 7
  2
DAT7
 70
     0
  0
ATTDEF
  5
72B
330
6B7
100
AcDbEntity
  8
RAHMEN013
100
AcDbText
 10
58.40000000000002
 20
9.350000000000029
 30
0.0
 40
2.5
  1

 41
0.5156435643564324
 72
     5
 11
64.59999999999998
 21
9.350000000000029
 31
0.0
100
AcDbAttributeDefinition
  3
Name 7
  2
NAME7
 70
     0
  0
ATTDEF
  5
72C
330
6B7
100
AcDbEntity
  8
RAHMEN013
100
AcDbText
 10
14.70000000000001
 20
6.375000000000021
 30
0.0
 40
2.5
  1

 72
     4
 11
14.70000000000001
 21
6.375000000000021
 31
0.0
100
AcDbAttributeDefinition
  3
Zustand 8
  2
ZUST8
 70
     0
  0
ATTDEF
  5
72D
330
6B7
100
AcDbEntity
  8
RAHMEN013
100
AcDbText
 10
19.80000000000002
 20
5.100000000000022
 30
0.0
 40
2.5
  1

 41
2.509367088607594
 72
     5
 11
43.40000000000002
 21
5.100000000000022
 31
0.0
100
AcDbAttributeDefinition
  3
Änderung 8
  2
ÄND8
 70
     0
  0
ATTDEF
  5
72E
330
6B7
100
AcDbEntity
  8
RAHMEN013
100
AcDbText
 10
45.40000000000001
 20
5.100000000000029
 30
0.0
 40
2.5
  1

 50
359.9999999999999
 41
1.276799999999999
 72
     5
 11
56.80000000000002
 21
5.100000000000022
 31
0.0
100
AcDbAttributeDefinition
  3
Datum 8
  2
DAT8
 70
     0
  0
ATTDEF
  5
72F
330
6B7
100
AcDbEntity
  8
RAHMEN013
100
AcDbText
 10
58.40000000000002
 20
5.100000000000029
 30
0.0
 40
2.5
  1

 41
0.5156435643564324
 72
     5
 11
64.59999999999998
 21
5.100000000000029
 31
0.0
100
AcDbAttributeDefinition
  3
Name 8
  2
NAME8
 70
     0
  0
ATTDEF
  5
730
330
6B7
100
AcDbEntity
  8
RAHMEN035
 62
   151
100
AcDbText
 10
39.21397411162356
 20
2.961425038409687
 30
0.0
 40
20.0
  1
Preliminary
 50
15.0
  7
HELV_N_BOLD
 72
     4
 11
104.4
 21
27.62500000000002
 31
0.0
100
AcDbAttributeDefinition
  3
Entwurf
  2
ENTWURF
 70
     0
  0
HATCH
  5
731
330
6B7
100
AcDbEntity
  8
Logo Farbe1
100
AcDbHatch
 10
0.0
 20
0.0
 30
0.0
210
0.0
220
0.0
230
1.0
  2
SOLID
 70
     1
 71
     0
 91
        1
 92
        7
 72
     1
 73
     1
 93
       63
 10
68.8756874723958
 20
11.34725106956183
 42
0.0
 10
68.91644074122855
 20
11.51026414489283
 42
0.0
 10
68.95661522489828
 20
11.65087483773685
 42
0.0
 10
68.99795356041988
 20
11.787291344958
 42
0.0
 10
69.07968495961693
 20
11.99979298287037
 42
0.0
 10
69.16038909100272
 20
12.18541248505778
 42
0.0
 10
69.20323961579625
 20
12.27539858712413
 42
0.0
 10
69.24615741296609
 20
12.35265062202984
 42
0.0
 10
69.50352193873429
 20
12.7901703158358
 42
0.0
 10
69.62499999999997
 20
12.40144051978559
 42
0.0
 10
69.74647806126569
 20
12.79017031583579
 42
0.0
 10
70.0038425870339
 20
12.35265062202983
 42
0.0
 10
70.04676038420374
 20
12.27539858712412
 42
0.0
 10
70.08961090899721
 20
12.18541248505778
 42
0.0
 10
70.17031504038304
 20
11.99979298287039
 42
0.0
 10
70.25204643958011
 20
11.78729134495799
 42
0.0
 10
70.29338477510165
 20
11.65087483773686
 42
0.0
 10
70.33355925877138
 20
11.51026414489283
 42
0.0
 10
70.37431252760415
 20
11.3472510695618
 42
0.0
 10
70.41415841169302
 20
11.14802164911726
 42
0.0
 10
70.4539474386437
 20
10.94509761166899
 42
0.0
 10
70.49288731004023
 20
10.68420047331225
 42
0.0
 10
70.53156527361018
 20
10.48307506274838
 42
0.0
 10
70.57028273531206
 20
10.2430268001968
 42
0.0
 10
70.58923569712597
 20
10.15015728730867
 42
0.0
 10
70.60974929697365
 20
10.18297904706497
 42
0.0
 10
70.64863818586255
 20
10.24909015817606
 42
0.0
 10
70.85704620397091
 20
10.58254298714945
 42
0.0
 10
71.02668999387164
 20
10.20932664936783
 42
0.0
 10
71.1080185844754
 20
9.973473736616945
 42
0.0
 10
71.14588296569323
 20
9.85609415484167
 42
0.0
 10
71.18331642880304
 20
9.758767150756156
 42
0.0
 10
71.21676071075917
 20
9.668467589474637
 42
0.0
 10
71.22899969439233
 20
9.647661317298272
 42
0.0
 10
71.25850909084738
 20
9.715532929144899
 42
0.0
 10
71.3028363259949
 20
9.821918293498903
 42
0.0
 10
71.35309649675843
 20
9.902334566720604
 42
0.0
 10
71.42774790252348
 20
10.00684653479163
 42
0.0
 10
71.53452128311593
 20
10.04955588702863
 42
0.0
 10
71.60896407019514
 20
10.06444444444446
 42
0.0
 10
72.18944974002917
 20
10.06444444444446
 42
1.242198474718124
 10
67.0605502599708
 20
10.06444444444446
 42
0.0
 10
67.64103592980482
 20
10.06444444444446
 42
0.0
 10
67.71547871688401
 20
10.04955588702863
 42
0.0
 10
67.82225209747647
 20
10.00684653479164
 42
0.0
 10
67.89690350324154
 20
9.902334566720597
 42
0.0
 10
67.94716367400508
 20
9.821918293498903
 42
0.0
 10
67.99149090915254
 20
9.715532929144963
 42
0.0
 10
68.02100030560763
 20
9.647661317298243
 42
0.0
 10
68.03323928924079
 20
9.668467589474637
 42
0.0
 10
68.06668357119697
 20
9.758767150756291
 42
0.0
 10
68.10411703430673
 20
9.85609415484167
 42
0.0
 10
68.14198141552457
 20
9.973473736616988
 42
0.0
 10
68.2233100061283
 20
10.20932664936783
 42
0.0
 10
68.39295379602903
 20
10.58254298714943
 42
0.0
 10
68.6013618141374
 20
10.24909015817608
 42
0.0
 10
68.6402507030263
 20
10.18297904706495
 42
0.0
 10
68.66076430287399
 20
10.15015728730862
 42
0.0
 10
68.67971726468791
 20
10.24302680019681
 42
0.0
 10
68.71843472638976
 20
10.48307506274838
 42
0.0
 10
68.75711268995974
 20
10.68420047331228
 42
0.0
 10
68.79605256135628
 20
10.945097611669
 42
0.0
 10
68.83584158830692
 20
11.1480216491174
 42
0.0
 97
        0
 75
     0
 76
     1
 47
0.0260537930419125
 98
        1
 10
68.30947550351616
 20
11.29967567327039
  0
HATCH
  5
732
330
6B7
100
AcDbEntity
  8
Logo Farbe2
100
AcDbHatch
 10
0.0
 20
0.0
 30
0.0
210
0.0
220
0.0
230
1.0
  2
SOLID
 70
     1
 71
     0
 91
        1
 92
        7
 72
     1
 73
     1
 93
      103
 10
70.37374019348185
 20
10.00584527916007
 42
0.0
 10
70.33413612228627
 20
10.1999052280184
 42
0.0
 10
70.29520212097974
 20
10.44129603611886
 42
0.0
 10
70.25625772542799
 20
10.64380689298802
 42
0.0
 10
70.21738225298847
 20
10.90427255833274
 42
0.0
 10
70.1787302425369
 20
11.10139781163577
 42
0.0
 10
70.1400931944901
 20
11.29458305186971
 42
0.0
 10
70.10169493190223
 20
11.44817610222121
 42
0.0
 10
70.06314435742935
 20
11.58310311287629
 42
0.0
 10
70.02490005975959
 20
11.7093092951865
 42
0.0
 10
69.98666605302314
 20
11.80871771270124
 42
0.0
 10
69.94816270867109
 20
11.90882640801659
 42
0.0
 10
69.90970205274286
 20
11.99728591665152
 42
0.0
 10
69.87115502394809
 20
12.08594408287956
 42
0.0
 10
69.83330867082357
 20
12.16542142444103
 42
0.0
 10
69.81371262672425
 20
12.20069430381978
 42
0.0
 10
69.80883511001282
 20
12.18508625034322
 42
0.0
 10
69.76994622112396
 20
12.06064180589877
 42
0.0
 10
69.73098904726711
 20
11.93597884955684
 42
0.0
 10
69.69179206869722
 20
11.8144682159902
 42
0.0
 10
69.62499999999993
 20
11.62745042363795
 42
0.0
 10
69.55820793130275
 20
11.81446821599021
 42
0.0
 10
69.51901095273285
 20
11.93597884955685
 42
0.0
 10
69.48005377887601
 20
12.06064180589877
 42
0.0
 10
69.44116488998712
 20
12.18508625034321
 42
0.0
 10
69.43628737327569
 20
12.20069430381977
 42
0.0
 10
69.4166913291764
 20
12.16542142444104
 42
0.0
 10
69.37884497605188
 20
12.08594408287956
 42
0.0
 10
69.34029794725709
 20
11.99728591665151
 42
0.0
 10
69.30183729132885
 20
11.90882640801659
 42
0.0
 10
69.2633339469768
 20
11.80871771270124
 42
0.0
 10
69.22509994024036
 20
11.7093092951865
 42
0.0
 10
69.18685564257059
 20
11.58310311287629
 42
0.0
 10
69.14830506809771
 20
11.44817610222121
 42
0.0
 10
69.10990680550984
 20
11.29458305186971
 42
0.0
 10
69.07126975746305
 20
11.10139781163582
 42
0.0
 10
69.03261774701147
 20
10.90427255833274
 42
0.0
 10
68.99374227457196
 20
10.64380689298802
 42
0.0
 10
68.95479787902023
 20
10.44129603611886
 42
0.0
 10
68.91586387771368
 20
10.1999052280184
 42
0.0
 10
68.87625980651809
 20
10.00584527916008
 42
0.0
 10
68.83252472623976
 20
9.865893022269332
 42
0.0
 10
68.77683294432803
 20
9.81577041854878
 42
0.0
 10
68.71831565104255
 20
9.792363501234596
 42
0.0
 10
68.65424988893376
 20
9.798770077445482
 42
0.0
 10
68.60215662254983
 20
9.835235363914243
 42
0.0
 10
68.55759950169714
 20
9.875336772681649
 42
0.0
 10
68.51444317560127
 20
9.931439996606293
 42
0.0
 10
68.4742667514664
 20
9.995722275222078
 42
0.0
 10
68.43502174481762
 20
10.05851428586012
 42
0.0
 10
68.42881325644845
 20
10.0690687160877
 42
0.0
 10
68.40837976019241
 20
10.00981157694516
 42
0.0
 10
68.36965401345842
 20
9.897506911416613
 42
0.0
 10
68.33049551728767
 20
9.776115573287306
 42
0.0
 10
68.29122362161481
 20
9.674008644537842
 42
0.0
 10
68.25090194142783
 20
9.565140108033013
 42
0.0
 10
68.20769250238166
 20
9.491684061654545
 42
0.0
 10
68.16549930800249
 20
9.441052228399534
 42
0.0
 10
68.12093053846514
 20
9.392026581908439
 42
0.0
 10
68.06829830953128
 20
9.360447244548133
 42
0.0
 10
68.01111111111108
 20
9.349009804864095
 42
0.0
 10
67.95585054121698
 20
9.360061918842916
 42
0.0
 10
67.90491728133861
 20
9.385528548782083
 42
0.0
 10
67.85292212886978
 20
9.432324186004052
 42
0.0
 10
67.80970205274289
 20
9.531730361095938
 42
0.0
 10
67.77066028706508
 20
9.621526422154836
 42
0.0
 10
67.73320254192848
 20
9.711425010482763
 42
0.0
 10
67.69730609563815
 20
9.768859324547229
 42
0.0
 10
67.6678283954009
 20
9.810128104879417
 42
0.0
 10
67.64680384643401
 20
9.818537924466177
 42
0.0
 10
67.61727124654257
 20
9.824444444444466
 42
0.0
 10
67.12505284006455
 20
9.824444444444466
 42
0.7297932027057648
 10
72.12494715993539
 20
9.824444444444466
 42
0.0
 10
71.63272875345739
 20
9.824444444444466
 42
0.0
 10
71.60319615356596
 20
9.818537924466177
 42
0.0
 10
71.58217160459907
 20
9.810128104879417
 42
0.0
 10
71.55269390436179
 20
9.768859324547221
 42
0.0
 10
71.51679745807149
 20
9.711425010482763
 42
0.0
 10
71.47933971293487
 20
9.621526422154886
 42
0.0
 10
71.44029794725708
 20
9.531730361095945
 42
0.0
 10
71.39707787113015
 20
9.432324186004045
 42
0.0
 10
71.34508271866133
 20
9.385528548782083
 42
0.0
 10
71.29414945878297
 20
9.360061918842916
 42
0.0
 10
71.23888888888886
 20
9.349009804864095
 42
0.0
 10
71.18170169046866
 20
9.360447244548133
 42
0.0
 10
71.12906946153479
 20
9.392026581908439
 42
0.0
 10
71.08450069199744
 20
9.441052228399534
 42
0.0
 10
71.04230749761828
 20
9.491684061654545
 42
0.0
 10
70.99909805857212
 20
9.56514010803302
 42
0.0
 10
70.95877637838512
 20
9.67400864453787
 42
0.0
 10
70.91950448271226
 20
9.776115573287313
 42
0.0
 10
70.88034598654155
 20
9.897506911416606
 42
0.0
 10
70.84162023980754
 20
10.00981157694517
 42
0.0
 10
70.8211867435515
 20
10.06906871608769
 42
0.0
 10
70.81497825518235
 20
10.05851428586013
 42
0.0
 10
70.77573324853357
 20
9.995722275222078
 42
0.0
 10
70.7355568243987
 20
9.931439996606293
 42
0.0
 10
70.69240049830283
 20
9.875336772681649
 42
0.0
 10
70.64784337745016
 20
9.835235363914243
 42
0.0
 10
70.59575011106621
 20
9.798770077445482
 42
0.0
 10
70.53168434895738
 20
9.792363501234596
 42
0.0
 10
70.47316705567194
 20
9.815770418548787
 42
0.0
 10
70.41747527376021
 20
9.865893022269325
 42
0.0
 97
        0
 75
     0
 76
     1
 47
0.0248147754964865
 98
        1
 10
69.90748627157325
 20
9.733795630575464
  0
HATCH
  5
733
330
6B7
100
AcDbEntity
  8
Logo Farbe2
100
AcDbHatch
 10
0.0
 20
0.0
 30
0.0
210
0.0
220
0.0
230
1.0
  2
SOLID
 70
     1
 71
     0
 91
       17
 92
        7
 72
     0
 73
     1
 93
       88
 10
90.60352859269235
 20
8.148260986261817
 10
95.18496373128362
 20
8.148260986261817
 10
95.44243015455611
 20
8.961473155551729
 10
96.80698630596495
 20
8.961473155551736
 10
97.08284334988784
 20
8.148260986261817
 10
101.0006532724055
 20
8.148260986261817
 10
101.3537464128006
 20
8.216200434232376
 10
101.5875628971752
 20
8.306206693810416
 10
101.8265326472702
 20
8.42924343627903
 10
102.0703290331498
 20
8.593925469453196
 10
102.2124653712711
 20
8.735963210197795
 10
102.321485919497
 20
8.881222237411073
 10
102.4645182069114
 20
8.688542072308969
 10
102.6618031863129
 20
8.528946643021008
 10
102.8548602891816
 20
8.400331205908692
 10
103.0881386616675
 20
8.260461563992457
 10
103.3764755958892
 20
8.176809264399011
 10
103.6462568280892
 20
8.11173497877673
 10
104.9604806704159
 20
8.11173497877673
 10
105.2593952211895
 20
8.177077131782247
 10
105.5867693648702
 20
8.298588573830045
 10
105.8015920372102
 20
8.457259812097255
 10
106.0150589144395
 20
8.62420502374384
 10
106.1762164216714
 20
8.823142827442637
 10
106.2983348669984
 20
9.05782284763547
 10
106.3822350215206
 20
9.309348363975857
 10
106.4291223362088
 20
9.552995327489412
 10
106.4291223362088
 20
10.07356215853382
 10
106.3612009936162
 20
10.26749024403758
 10
106.2576556346736
 20
10.45562347175699
 10
106.1173533193219
 20
10.64256220577571
 10
105.9841295107615
 20
10.77569382638735
 10
105.759071574454
 20
10.92562838991931
 10
105.50041163066
 20
11.04563661977823
 10
105.2627687504051
 20
11.13697414765407
 10
105.0245481444729
 20
11.2193776389806
 10
104.767078098974
 20
11.28370067701887
 10
104.5037980801097
 20
11.32906207311329
 10
104.2005747284808
 20
11.39144692682417
 10
103.9911194375233
 20
11.46121693392638
 10
103.8595161833389
 20
11.530840721754
 10
103.8349026524678
 20
11.59233073722307
 10
103.8349026524678
 20
11.69824028276045
 10
103.9021821056729
 20
11.78564228345809
 10
104.0856856980195
 20
11.83347984240664
 10
104.3516708225083
 20
11.84205375596602
 10
104.5372280639994
 20
11.79368136573674
 10
104.6659405755612
 20
11.66505870212576
 10
104.727829149725
 20
11.5568286420233
 10
104.7384587537289
 20
11.29128264637614
 10
106.2844973757465
 20
11.29128264637614
 10
106.2844973757465
 20
11.77816129216266
 10
106.2269648653282
 20
12.00812905590947
 10
106.141459643251
 20
12.16952640125246
 10
106.029991960795
 20
12.34589495430962
 10
105.8995202421868
 20
12.5042143307091
 10
105.7859075237041
 20
12.61774861859711
 10
105.6573046098094
 20
12.70954370973162
 10
105.5448909479377
 20
12.80315627201696
 10
105.4022552572395
 20
12.86967336218041
 10
105.2115964767554
 20
12.95379782181178
 10
104.9854676509086
 20
13.02332454115248
 10
104.7503407624053
 20
13.05528570018245
 10
103.6476208305991
 20
13.05528570018245
 10
103.4486917444606
 20
13.01742124918787
 10
103.2806322847255
 20
12.95923849353397
 10
103.098127172234
 20
12.88419034894655
 10
102.9180821598872
 20
12.77568782044696
 10
102.7768760514356
 20
12.68161586075398
 10
102.6563342148273
 20
12.56115749035088
 10
102.5458859904303
 20
12.45998436012395
 10
102.4138613513681
 20
12.29977928952803
 10
102.306852435951
 20
12.11264447959679
 10
102.3061644675365
 20
12.11906099204947
 10
102.2276262361216
 20
12.31527057455201
 10
102.010204165598
 20
12.5703271490079
 10
101.827865479696
 20
12.7132040586938
 10
101.615320273931
 20
12.82437112084871
 10
101.364364107376
 20
12.92654139457687
 10
101.145946970789
 20
12.9739906318493
 10
98.16486077319579
 20
12.97399063184929
 10
98.16486077319579
 20
9.801125010072539
 10
96.88398436486657
 20
13.00108898796039
 10
95.38026457595703
 20
13.00108898796039
 10
94.03946857149771
 20
9.550480312772144
 10
92.17294420968929
 20
9.550480312772144
 10
92.17294420968929
 20
13.06523923812492
 10
90.60352859269235
 20
13.06523923812492
 97
        0
 92
       22
 72
     0
 73
     1
 93
      126
 10
90.71452859269234
 20
12.95423923812493
 10
92.0619442096893
 20
12.95423923812492
 10
92.0619442096893
 20
9.439480312772147
 10
94.11542273595342
 20
9.439480312772147
 10
95.45621874041273
 20
12.89008898796039
 10
96.8088531270914
 20
12.89008898796039
 10
98.27586077319578
 20
9.225120539565374
 10
98.27586077319578
 20
12.8629906318493
 10
101.1340290667792
 20
12.8629906318493
 10
101.3314093919247
 20
12.82011146024636
 10
101.5685645681407
 20
12.72355990065469
 10
101.7674084831824
 20
12.61955899513899
 10
101.9329645205156
 20
12.48983262973831
 10
102.1313413125318
 20
12.25711796143737
 10
102.1974280415792
 20
12.09201557395376
 10
102.2234137848464
 20
11.84965292801838
 10
102.2234137848464
 20
11.42719596933546
 10
102.1738540432916
 20
11.26211338564675
 10
102.0534773980827
 20
11.07910292382168
 10
101.9291476390903
 20
10.94953000237735
 10
101.693749324035
 20
10.83191277416508
 10
101.9305592711649
 20
10.7135895394459
 10
102.057616122245
 20
10.5950861225236
 10
102.1785322299961
 20
10.44836107794319
 10
102.3279683541278
 20
10.17605039487276
 10
102.4218248999912
 20
9.936361509791595
 10
103.5308717795521
 20
9.936361509791595
 10
103.5345304841607
 20
9.903457301045577
 10
103.5818763595993
 20
9.581730313120786
 10
103.6945147490526
 20
9.428239673160575
 10
103.8426621404774
 20
9.319673645678001
 10
104.0850901013241
 20
9.222770077603804
 10
104.5386482213773
 20
9.222770077603811
 10
104.7732040800618
 20
9.30090068751155
 10
104.8710985462048
 20
9.377350538998875
 10
104.9547644446721
 20
9.533481121969366
 10
104.9657983284672
 20
9.687842621773143
 10
104.8871038952549
 20
9.833887339653223
 10
104.6875522927297
 20
9.943564414848133
 10
104.4632108981087
 20
10.01829301503997
 10
104.1799470918968
 20
10.0822113094909
 10
103.8833935911315
 20
10.14507284704952
 10
103.5803735930424
 20
10.23413423978259
 10
103.2574639324194
 20
10.35962305299313
 10
103.0479185470067
 20
10.44389147290808
 10
102.8527526383026
 20
10.57052150719153
 10
102.6230832216783
 20
10.73824038628464
 10
102.4795914676002
 20
10.89006740739431
 10
102.3955791689768
 20
11.0831603224361
 10
102.3705700249619
 20
11.2164520671812
 10
102.3705700249619
 20
11.92707784566366
 10
102.4032079253231
 20
12.0575389471848
 10
102.5055300202876
 20
12.23647754980789
 10
102.6265990620343
 20
12.38338856973405
 10
102.733089679138
 20
12.4809364400688
 10
102.8475641036843
 20
12.59533159963892
 10
102.9775304965031
 20
12.68191562493885
 10
103.1481706157565
 20
12.78475037809946
 10
103.3199282969956
 20
12.85537905868634
 10
103.4773772572414
 20
12.90988842338606
 10
103.6580907935274
 20
12.94428570018246
 10
104.7428310931531
 20
12.94428570018246
 10
104.9615223811636
 20
12.91455865756703
 10
105.1727480423152
 20
12.84961414107097
 10
105.3563892047852
 20
12.76858606819839
 10
105.4849260153573
 20
12.70864388559112
 10
105.5894511949867
 20
12.62160046288321
 10
105.7139433627081
 20
12.53273956902447
 10
105.8172680849187
 20
12.4294861752665
 10
105.939891447927
 20
12.28069029390167
 10
106.0453612061641
 20
12.11381189254179
 10
106.1225597650108
 20
11.96809398012079
 10
106.1734973757465
 20
11.76448721333265
 10
106.1734973757465
 20
11.40228264637614
 10
104.8451044025218
 20
11.40228264637614
 10
104.8376551860646
 20
11.58837702959049
 10
104.754918799766
 20
11.73306551502975
 10
104.594379989596
 20
11.89349226085616
 10
104.364138368547
 20
11.95351329507131
 10
104.0696996700338
 20
11.9440221930616
 10
103.8374058006478
 20
11.88346549480824
 10
103.7239026524678
 20
11.73601479829073
 10
103.7239026524678
 20
11.57093994995951
 10
103.7716030026351
 20
11.45177398043565
 10
103.9473284898364
 20
11.35880763159693
 10
104.1717494810731
 20
11.28405251760155
 10
104.4831850130236
 20
11.2199780985414
 10
104.7441711762382
 20
11.17501191851826
 10
104.9928912939721
 20
11.11287485102804
 10
105.2247032103495
 20
11.03268820568789
 10
105.4570928524043
 20
10.94336974857081
 10
105.7046230718429
 20
10.82852528121459
 10
105.9134414177293
 20
10.6894096025514
 10
106.0333112899779
 20
10.56962267762096
 10
106.1641828767038
 20
10.39524944165384
 10
106.2594975388005
 20
10.22207069938714
 10
106.3181223362088
 20
10.05468598214694
 10
106.3181223362088
 20
9.563578631024213
 10
106.2746197510115
 20
9.337520200107412
 10
106.1958161246102
 20
9.101273640933086
 10
106.0829183087823
 20
8.884313282264173
 10
105.936745673821
 20
8.703873267650251
 10
105.7344150893174
 20
8.545637373206218
 10
105.5334388991179
 20
8.397193353709582
 10
105.228076739565
 20
8.283852098542233
 10
104.9484900476825
 20
8.22273497877672
 10
103.6594547960374
 20
8.222734978776728
 10
103.4049684453506
 20
8.284119965925476
 10
103.1328815565703
 20
8.363057802998362
 10
102.9142048264005
 20
8.494172554950417
 10
102.7276207076524
 20
8.61847566338011
 10
102.5452630646293
 20
8.765995491856116
 10
102.416139110811
 20
8.939939607482763
 10
102.3063766116372
 20
9.275752322858025
 10
102.2275530464537
 20
8.940983205510143
 10
102.1284233569206
 20
8.808902762842649
 10
101.9993871937716
 20
8.679956109718673
 10
101.769861961538
 20
8.524914098851141
 10
101.5420868843196
 20
8.407641082055775
 10
101.3230811662507
 20
8.323336138534344
 10
100.9900714434311
 20
8.259260986261821
 10
97.16240254505951
 20
8.259260986261814
 10
96.88654550113662
 20
9.072473155551726
 10
95.36114283672509
 20
9.072473155551726
 10
95.1036764134526
 20
8.259260986261814
 10
90.71452859269234
 20
8.259260986261814
 97
        0
 92
        6
 72
     0
 73
     1
 93
        3
 10
95.68769520456021
 20
10.10389448054773
 10
96.09754389952072
 20
11.39840870136534
 10
96.53666775889778
 20
10.10389448054773
 97
        0
 92
        6
 72
     0
 73
     1
 93
        3
 10
95.83926866434167
 20
10.21489448054773
 10
96.10118120015593
 20
11.04214977351537
 10
96.3818019388826
 20
10.21489448054773
 97
        0
 92
        6
 72
     0
 73
     1
 93
       15
 10
99.649086266762
 20
10.21927895051356
 10
100.6907943696882
 20
10.21927895051356
 10
100.7696579646699
 20
10.20634107463893
 10
100.8479770965181
 20
10.18260135395801
 10
100.9573236151404
 20
10.09761307103708
 10
101.004101942502
 20
10.02664417471722
 10
101.0341306090476
 20
9.944128497543985
 10
101.0358208759226
 20
9.662233474994359
 10
101.023968042917
 20
9.614856950831452
 10
100.9924933185236
 20
9.551413300314067
 10
100.937228675848
 20
9.482930090012636
 10
100.8711989954064
 20
9.437512443238688
 10
100.7933696584653
 20
9.398589587754244
 10
100.7030362429597
 20
9.377744643930668
 10
99.649086266762
 20
9.377744643930668
 97
        0
 92
        6
 72
     0
 73
     1
 93
       11
 10
99.649086266762
 20
11.15189938848934
 10
99.649086266762
 20
11.83689062937586
 10
100.545555334572
 20
11.83689062937586
 10
100.6626594161755
 20
11.81348622554154
 10
100.745933563236
 20
11.77187796249071
 10
100.867093935534
 20
11.57815706473469
 10
100.867093935534
 20
11.46435741376467
 10
100.8546404531269
 20
11.37724596604014
 10
100.7916895784862
 20
11.2640127925244
 10
100.6907747118748
 20
11.18837930464255
 10
100.5690905210059
 20
11.15189938848934
 97
        0
 92
        6
 72
     0
 73
     1
 93
       14
 10
99.76008626676199
 20
10.10827895051356
 10
100.6817498327348
 20
10.10827895051356
 10
100.7444644420942
 20
10.09799037780005
 10
100.7960968130656
 20
10.08233982044541
 10
100.8747330459267
 20
10.02122074239487
 10
100.9042510950766
 20
9.976437966099837
 10
100.9232478863423
 20
9.924236743877017
 10
100.9248038798228
 20
9.664735227424451
 10
100.8984672942255
 20
9.611648531205233
 10
100.8610012878301
 20
9.565221154298249
 10
100.8146497928229
 20
9.533338888420225
 10
100.7555375979577
 20
9.503776572865007
 10
100.6903953987862
 20
9.488744643930665
 10
99.76008626676199
 20
9.488744643930665
 97
        0
 92
        6
 72
     0
 73
     1
 93
       11
 10
99.76008626676199
 20
11.26289938848933
 10
99.76008626676199
 20
11.72589062937586
 10
100.5345717213679
 20
11.72589062937586
 10
100.6263364297634
 20
11.70755054879438
 10
100.6683841170255
 20
11.68654125246373
 10
100.7560939355341
 20
11.54630377661882
 10
100.7560939355341
 20
11.47225158220161
 10
100.7476599786184
 20
11.41325650171304
 10
100.7061764582595
 20
11.33863782984153
 10
100.6399960127098
 20
11.28903703171759
 10
100.5528100127724
 20
11.26289938848933
 97
        0
 92
       22
 72
     0
 73
     1
 93
       32
 10
101.9420906206925
 20
10.83191248809346
 10
101.9959422265617
 20
10.85881954822099
 10
102.1406193205804
 20
11.00959788069751
 10
102.261860285846
 20
11.19392238157453
 10
102.2887945407166
 20
11.05037033425275
 10
102.3855648434783
 20
10.82795456708644
 10
102.5494018307862
 20
10.65460048210531
 10
102.7897649364713
 20
10.47907240678137
 10
102.9965242936972
 20
10.34492016335018
 10
103.2166513674347
 20
10.25639633044481
 10
103.5445554296989
 20
10.12896659811331
 10
103.8561943151892
 20
10.03737200585345
 10
104.1562208775414
 20
9.973774270641378
 10
104.433380894332
 20
9.911233292320993
 10
104.6429157819052
 20
9.841436771415253
 10
104.8049279813429
 20
9.752392013290659
 10
104.8527810889387
 20
9.663584033955586
 10
104.8457361522722
 20
9.565026988217645
 10
104.7843218278682
 20
9.450420506394387
 10
104.7199677754965
 20
9.400163756035873
 10
104.5206473519872
 20
9.333770077603809
 10
104.1064529076521
 20
9.333770077603816
 10
103.8969257658433
 20
9.417522494522842
 10
103.7739006559978
 20
9.507678300359771
 10
103.6876790244116
 20
9.625171221510349
 10
103.6446335991578
 20
9.917675581871499
 10
103.6302134833051
 20
10.04736150979159
 10
102.4975664716645
 20
10.04736150979159
 10
102.4287192366042
 20
10.22318213967655
 10
102.2708252185426
 20
10.51090525991213
 10
102.1386476454846
 20
10.67129547309537
 10
101.9945305944871
 20
10.80571060171506
 97
        0
 92
        5
 93
       56
 72
     1
 10
88.5498840016567
 20
9.928643948394736
 11
88.75454149397597
 21
9.908068713360858
 72
     1
 10
88.75454149397597
 20
9.908068713360862
 11
88.90432601400098
 21
9.861028686969241
 72
     1
 10
88.90432601400098
 20
9.861028686969241
 11
88.99847615962475
 21
9.754118591193137
 72
     1
 10
88.99847615962475
 20
9.754118591193133
 11
89.08406700365896
 21
9.591615661363324
 72
     1
 10
89.08406700365896
 20
9.591615661363327
 11
89.16537855887527
 21
9.287991820858994
 72
     1
 10
89.16537855887526
 20
9.287991820858991
 11
89.21245363168701
 21
8.676467320269544
 72
     1
 10
89.21245363168702
 20
8.676467320269544
 11
89.25939925955466
 21
8.13920768130829
 72
     1
 10
89.25939925955466
 20
8.139207681308292
 11
90.49823551307886
 21
8.139207681308292
 72
     1
 10
90.49823551307886
 20
8.139207681308292
 11
90.48697372188872
 21
8.386802822432851
 72
     1
 10
90.48697372188872
 20
8.386802822432848
 11
90.40813838194287
 21
9.343419637162639
 72
     1
 10
90.40813838194287
 20
9.343419637162639
 11
90.36308981637493
 21
9.75982894696183
 72
     1
 10
90.36308981637493
 20
9.759828946961832
 11
90.26173019364497
 21
10.05244131076754
 72
     1
 10
90.26173019364497
 20
10.05244131076754
 11
90.11532270575074
 21
10.24376450716183
 72
     1
 10
90.11532270575074
 20
10.24376450716184
 11
89.92386595188481
 21
10.42383381426488
 72
     1
 10
89.92386595188481
 20
10.42383381426488
 11
89.75493418120676
 21
10.53637687096755
 72
     1
 10
89.75493418120676
 20
10.53637687096755
 11
89.92386595188481
 21
10.59264839931873
 72
     1
 10
89.92386595188481
 20
10.59264839931873
 11
90.04774985739889
 21
10.66017423334036
 72
     1
 10
90.04774985739889
 20
10.66017423334037
 11
90.22794411967089
 21
10.86275173540484
 72
     1
 10
90.22794411967089
 20
10.86275173540484
 11
90.37435230796877
 21
11.04282104250785
 72
     1
 10
90.37435230796877
 20
11.04282104250785
 11
90.46444943910476
 21
11.33543298993466
 72
     1
 10
90.46444943910476
 20
11.33543298993466
 11
90.47571123029488
 21
11.81936855013454
 72
     1
 10
90.47571123029488
 20
11.81936855013454
 11
90.4194008735368
 21
12.23577827631288
 72
     1
 10
90.4194008735368
 20
12.23577827631287
 11
90.31804125080688
 21
12.43835577837762
 72
     1
 10
90.31804125080688
 20
12.43835577837762
 11
90.20392307870563
 21
12.57098321705282
 72
     1
 10
90.20392307870563
 20
12.57098321705282
 11
90.1014141665968
 21
12.68738488384435
 72
     1
 10
90.1014141665968
 20
12.68738488384435
 11
89.991438800237
 21
12.77598536486421
 72
     1
 10
89.991438800237
 20
12.77598536486421
 11
89.74729306254685
 21
12.94812411855704
 72
     1
 10
89.74729306254685
 20
12.94812411855704
 11
89.43959352182686
 21
13.07985161796118
 72
     1
 10
89.43959352182686
 20
13.07985161796118
 11
89.04541822290481
 21
13.11361495135082
 72
     1
 10
89.04541822290481
 20
13.11361495135082
 11
86.08347398620216
 21
13.11361495135082
 72
     1
 10
86.08347398620216
 20
13.11361495135082
 11
86.08347398620216
 21
10.96009555955592
 72
     3
 10
83.58850010680621
 20
10.66013592648008
 11
-0.0000000000000225
 21
2.622255303064139
 40
0.9577478129195032
 50
-83.14448672197197
 51
85.86297439398109
 73
     1
 72
     1
 10
81.08304538635227
 20
10.84135662035816
 11
81.08304538635227
 21
13.10523740759824
 72
     1
 10
81.08304538635227
 20
13.10523740759824
 11
79.77778984937995
 21
13.10523740759824
 72
     1
 10
79.77778984937995
 20
13.10523740759824
 11
79.77778984937995
 21
11.30681818181824
 72
     1
 10
79.77778984937995
 20
11.30681818181824
 11
78.01767183396814
 21
11.30681818181824
 72
     1
 10
78.01767183396814
 20
11.30681818181824
 11
78.01767183396814
 21
13.12500000000001
 72
     1
 10
78.01767183396814
 20
13.12500000000002
 11
72.49999999999997
 21
13.12500000000002
 72
     1
 10
72.49999999999997
 20
13.12500000000002
 11
72.49999999999997
 21
12.01828066861794
 72
     1
 10
72.49999999999997
 20
12.01828066861794
 11
73.9832456287813
 21
12.01828066861794
 72
     1
 10
73.9832456287813
 20
12.01828066861794
 11
73.9832456287813
 21
8.125000000000021
 72
     1
 10
73.9832456287813
 20
8.125000000000021
 11
75.36760756193363
 21
8.125000000000021
 72
     1
 10
75.36760756193363
 20
8.125000000000021
 11
75.36760756193363
 21
12.03804367739861
 72
     1
 10
75.36760756193363
 20
12.03804367739861
 11
76.71241629699602
 21
12.03804367739861
 72
     1
 10
76.71241629699602
 20
12.03804367739861
 11
76.71241629699602
 21
8.125000000000017
 72
     1
 10
76.71241629699602
 20
8.125000000000021
 11
77.97811863587821
 21
8.125000000000021
 72
     1
 10
77.97811863587821
 20
8.125000000000021
 11
77.97811863587821
 21
10.18033625803439
 72
     1
 10
77.97811863587821
 20
10.18033625803439
 11
79.79756644842507
 21
10.18033625803439
 72
     1
 10
79.79756644842507
 20
10.18033625803439
 11
79.79756644842507
 21
8.125000000000021
 72
     1
 10
79.79756644842507
 20
8.125000000000021
 11
81.08304538635227
 21
8.125000000000021
 72
     1
 10
81.08304538635227
 20
8.125000000000021
 11
81.08304538635227
 21
10.478915232602
 72
     3
 10
83.58850010680621
 20
10.66013592648008
 11
0.0000000000000158
 21
2.622255303064139
 40
0.9577478129195032
 50
94.13702560601873
 51
263.1444867219718
 73
     1
 72
     1
 10
86.08347398620216
 20
10.3601762934042
 11
86.08347398620216
 21
8.127953375637986
 72
     1
 10
86.08347398620216
 20
8.127953375637986
 11
87.46871772762062
 21
8.127953375637986
 72
     1
 10
87.46871772762062
 20
8.127953375637986
 11
87.46871772762062
 21
9.928643948394736
 72
     1
 10
87.46871772762062
 20
9.928643948394736
 11
88.5498840016567
 21
9.928643948394736
 97
        0
 92
        7
 72
     0
 73
     1
 93
      162
 10
106.7367697599841
 20
8.55421309725191
 10
106.7445265071015
 20
8.527927059723076
 10
106.7534766118836
 20
8.502313461133638
 10
106.7636200743303
 20
8.477372612293812
 10
106.7749568944415
 20
8.453104202393738
 10
106.7874869168122
 20
8.429508542243468
 10
106.8012104522528
 20
8.406585476437804
 10
106.8161271899526
 20
8.384335160382292
 10
106.8322374407225
 20
8.362757283265878
 10
106.8495408937516
 20
8.341852000494206
 10
106.8680377044453
 20
8.321619467472544
 10
106.8877278728037
 20
8.302059528795389
 10
106.9086113988268
 20
8.283172029057688
 10
106.9294082086658
 20
8.266085677299294
 10
106.9507907412601
 20
8.249975426529374
 10
106.9727589966097
 20
8.234841742964256
 10
106.9953132855253
 20
8.220684315793029
 10
107.0184532971962
 20
8.207503300421095
 10
107.0421790316225
 20
8.195298696848482
 10
107.0664907996148
 20
8.184070505075169
 10
107.091388134957
 20
8.173818569695818
 10
107.1168715038652
 20
8.164543046115788
 10
107.1429405955287
 20
8.156243934335037
 10
107.1695955653529
 20
8.148921078948262
 10
107.1968362579323
 20
8.142574790766147
 10
107.2246629840778
 20
8.137204603572634
 10
107.2530752775732
 20
8.13281098358378
 10
107.2820736046347
 20
8.129393775394227
 10
107.3116576544514
 20
8.126952823598628
 10
107.3418275824288
 20
8.125488283602344
 10
107.3725832331615
 20
8.125000000000021
 10
107.4031491339647
 20
8.125493722789514
 10
107.4331400349816
 20
8.126974424941955
 10
107.4625559362122
 20
8.129442572673383
 10
107.4913969930618
 20
8.132897855173119
 10
107.5196628947198
 20
8.137340272441129
 10
107.5473539519967
 20
8.142770135288145
 10
107.5744700094873
 20
8.149186977498104
 10
107.6010110671917
 20
8.156591265287069
 10
107.6269771251097
 20
8.164982532438926
 10
107.6523681832414
 20
8.174361245169819
 10
107.6771843969921
 20
8.184727092669
 10
107.7014254555512
 20
8.196080074936489
 10
107.7250916697293
 20
8.208420347377618
 10
107.7481828841211
 20
8.221747754586992
 10
107.7706990987267
 20
8.236062451970113
 10
107.7926403135456
 20
8.25136443952676
 10
107.8140066839839
 20
8.267653561851759
 10
107.8347978992302
 20
8.284929818944974
 10
107.8558713305882
 20
8.303811879495654
 10
107.8757405259072
 20
8.323355500611107
 10
107.894405485187
 20
8.34356099310235
 10
107.9118662084279
 20
8.364428201563903
 10
107.9281228510353
 20
8.385957281400976
 10
107.9431752576037
 20
8.408147921803262
 10
107.957023428133
 20
8.431000433580969
 10
107.9696675180289
 20
8.454514816734501
 10
107.9811072164803
 20
8.478690915858102
 10
107.9913428342982
 20
8.50352873095219
 10
108.0003743714823
 20
8.529028262016531
 10
108.0082015172223
 20
8.555189509051331
 10
108.0148245823286
 20
8.582012627461629
 10
108.0202434113959
 20
8.609497617247477
 10
108.0244580044243
 20
8.637644167598516
 10
108.027468516819
 20
8.666452589324919
 10
108.0292747931748
 20
8.695922727022221
 10
108.0298769888969
 20
8.726054736094681
 10
108.0290160432709
 20
8.760056182918383
 10
108.026433672609
 20
8.792766522113822
 10
108.0221297215057
 20
8.824185753680943
 10
108.0161040345559
 20
8.854313877619823
 10
108.00835692257
 20
8.883150738525053
 10
107.9988880747373
 20
8.910696336396767
 10
107.987697801869
 20
8.936950826639829
 10
107.9750367727902
 20
8.961017364993615
 10
107.960152048592
 20
8.985012261481898
 10
107.9430434738688
 20
9.00893536069973
 10
107.9237113594315
 20
9.03278681805223
 10
107.9021555498745
 20
9.056566478134087
 10
107.878376045198
 20
9.080274340945393
 10
107.8523728454019
 20
9.103910561891368
 10
107.9999999999999
 20
9.137302508941651
 10
107.9999999999999
 20
9.27789974723322
 10
107.3391912861112
 20
9.27789974723322
 10
107.3391912861112
 20
8.743628905239276
 10
107.506151176768
 20
8.743628905239276
 10
107.506151176768
 20
9.07754853114752
 10
107.5545912567396
 20
9.0751759577049
 10
107.6132019915006
 20
9.064982786442122
 10
107.6658393170289
 20
9.047759122236847
 10
107.7124993996965
 20
9.023506297471563
 10
107.7532638049272
 20
8.992162788850066
 10
107.7876317545962
 20
8.954121019583418
 10
107.8146090108042
 20
8.910184295370065
 10
107.8342046393157
 20
8.86034282808211
 10
107.8464191888306
 20
8.804595821771869
 10
107.8512961046357
 20
8.742381192838742
 10
107.8486562529889
 20
8.679097323316348
 10
107.8379403442239
 20
8.621466328647478
 10
107.8191209185698
 20
8.568816071554813
 10
107.7921973937188
 20
8.521144798067112
 10
107.7571707508361
 20
8.478453357497485
 10
107.7137584367386
 20
8.440495034060624
 10
107.6680026142848
 20
8.411503730985053
 10
107.6198926401995
 20
8.388315426519142
 10
107.5679742456986
 20
8.370008381856749
 10
107.5122446403627
 20
8.356582785666844
 10
107.4527110587825
 20
8.348039981205701
 10
107.3891718424641
 20
8.344367230179031
 10
107.3236461294047
 20
8.345617681570345
 10
107.2622081993579
 20
8.351842253839663
 10
107.2045780815452
 20
8.363046340189548
 10
107.1507557785677
 20
8.379229893119266
 10
107.1007418222804
 20
8.400392668236889
 10
107.0543152321738
 20
8.426659514189971
 10
107.0081465583078
 20
8.460713102235921
 10
106.9687255546601
 20
8.500793023734026
 10
106.9376032333792
 20
8.545755672628914
 10
106.914780777647
 20
8.595599314220415
 10
106.9002573882879
 20
8.650324345422312
 10
106.8939754066961
 20
8.710481369023575
 10
106.8958426738421
 20
8.760952871774257
 10
106.9016529955165
 20
8.811039681457891
 10
106.9197297668986
 20
8.871798271156386
 10
106.9480237033715
 20
8.926314731001362
 10
106.9880567968406
 20
8.976960415204473
 10
107.0369790585546
 20
9.015050605261272
 10
107.0945086564784
 20
9.04022883720566
 10
107.14411235185
 20
9.049428710516373
 10
107.14411235185
 20
9.263839759214974
 10
107.115194680164
 20
9.259661375632617
 10
107.0871917243543
 20
9.254155985786645
 10
107.0601034844209
 20
9.247323434271727
 10
107.033929649553
 20
9.239163721087827
 10
107.0086705305615
 20
9.229677001640325
 10
106.9843261274462
 20
9.218863275929223
 10
106.9608961293966
 20
9.206722388549138
 10
106.9383808472232
 20
9.193254494905474
 10
106.9167801255207
 20
9.178459594998116
 10
106.8960939642893
 20
9.16233753342189
 10
106.876322518934
 20
9.144888310176625
 10
106.8574656340497
 20
9.126112080667745
 10
106.8395231542311
 20
9.106008844895427
 10
106.8224953902887
 20
9.084578447454006
 10
106.8066365853714
 20
9.061741787021638
 10
106.7920465097123
 20
9.038114579585837
 10
106.7787250079061
 20
9.013697135957166
 10
106.7666722353581
 20
8.98848945613571
 10
106.7558883474738
 20
8.962491229310799
 10
106.7463730334424
 20
8.935702921698371
 10
106.7381264486691
 20
8.908124067082212
 10
106.7311484377488
 20
8.879754976273439
 10
106.725439311492
 20
8.850595649271916
 10
106.7209987590882
 20
8.820645930672242
 10
106.7178270913479
 20
8.789905820474075
 10
106.7159239974605
 20
8.758375474083514
 10
106.7152896328314
 20
8.72605473609466
 10
106.7158862339611
 20
8.695732977092667
 10
106.7176763481607
 20
8.666083812435253
 10
106.7206596646196
 20
8.637107242122247
 10
106.7248363387431
 20
8.608803266154261
 10
106.7302063705312
 20
8.581171884530782
 97
        0
 92
        7
 72
     0
 73
     1
 93
       97
 10
107.9999999999999
 20
9.488503364914308
 10
107.9999999999999
 20
9.688855047216051
 10
107.4604570315868
 20
9.688855047216051
 10
107.4229877144301
 20
9.690823411349427
 10
107.3879085315203
 20
9.696728348344215
 10
107.3388745153479
 20
9.711491282957673
 10
107.2970122544885
 20
9.738064150550513
 10
107.2710719938583
 20
9.762035891642099
 10
107.2408085118616
 20
9.802422555687599
 10
107.2278383815464
 20
9.851666858333281
 10
107.2249560785635
 20
9.887449095035812
 10
107.2282512935551
 20
9.929079079565248
 10
107.2381369385301
 20
9.964338377272916
 10
107.2627798338589
 20
10.00754555144293
 10
107.3028337388117
 20
10.02958438005311
 10
107.3343583352045
 20
10.03947018043339
 10
107.3722539292298
 20
10.04540169174263
 10
107.4165202100768
 20
10.04737891398082
 10
107.9999999999999
 20
10.04737891398082
 10
107.9999999999999
 20
10.24772997466117
 10
107.4674869478932
 20
10.24772997466117
 10
107.4173726667452
 20
10.24920949808116
 10
107.3604515146969
 20
10.25907285558105
 10
107.3134299597901
 20
10.27682707777868
 10
107.2763083985547
 20
10.30247146385967
 10
107.24908557648
 20
10.3360068153775
 10
107.2317618409335
 20
10.37743309896983
 10
107.2240879031998
 20
10.42840774518499
 10
107.2276977397068
 20
10.48098159068255
 10
107.2359227231367
 20
10.51500619290311
 10
107.2564848747231
 20
10.55718507297605
 10
107.301627665983
 20
10.58702286668393
 10
107.3452373311617
 20
10.59739604742041
 10
107.3803867572886
 20
10.6023171131592
 10
107.4217224040895
 20
10.60526965935927
 10
107.4692441161591
 20
10.60625384142596
 10
107.9999999999999
 20
10.60625384142596
 10
107.9999999999999
 20
10.80660552372769
 10
107.3725832331615
 20
10.80660552372769
 10
107.3427677847821
 20
10.80584543617232
 10
107.3144813696183
 20
10.8035651735062
 10
107.28772398767
 20
10.79976458032399
 10
107.262495483532
 20
10.79444381203104
 10
107.2387960126094
 20
10.78760286862732
 10
107.2166255749025
 20
10.77924175011288
 10
107.1959840150058
 20
10.76936030108233
 10
107.17687164373
 20
10.75795883234639
 10
107.1592881502644
 20
10.74503703309437
 10
107.143233534609
 20
10.73059490332619
 10
107.1287081075746
 20
10.71463275385275
 10
107.1157115583503
 20
10.69715027386306
 10
107.1042440423416
 20
10.67814761876277
 10
107.0943055595485
 20
10.65762463314627
 10
107.0858959545655
 20
10.63558162782446
 10
107.0790155382036
 20
10.61201829198645
 10
107.0736639996517
 20
10.58693478103772
 10
107.0698414943155
 20
10.56033109497819
 10
107.0675480221948
 20
10.53220707840259
 10
107.0667834278844
 20
10.50256304212198
 10
107.0678330356024
 20
10.47373566094282
 10
107.0709818587566
 20
10.4458357388786
 10
107.0762298973469
 20
10.41886358673986
 10
107.0835771513732
 20
10.39281889371596
 10
107.0930236208357
 20
10.36770165980688
 10
107.1045693057342
 20
10.34351204041783
 10
107.1182142060689
 20
10.32025003554905
 10
107.1339581664344
 20
10.29791564520027
 10
107.1518014976412
 20
10.27650855856101
 10
107.1717438888788
 20
10.25602924184727
 10
107.1937854955525
 20
10.23647738424831
 10
107.217926162257
 20
10.21785298576411
 10
107.1937854955526
 20
10.20695440873318
 10
107.1717438888788
 20
10.19417604861704
 10
107.1518014976412
 20
10.1795183716317
 10
107.1339581664344
 20
10.16298106696654
 10
107.1182142060689
 20
10.14456429002677
 10
107.1045693057342
 20
10.12426804081256
 10
107.0930236208357
 20
10.10209216391844
 10
107.0835771513732
 20
10.07803681474985
 10
107.0762298973469
 20
10.05210183790135
 10
107.0709818587566
 20
10.02428754418361
 10
107.0678330356025
 20
9.994593467380894
 10
107.0667834278844
 20
9.963020073708719
 10
107.0678330356024
 20
9.933692287310364
 10
107.0709818587566
 20
9.905462905908997
 10
107.0762298973468
 20
9.878332084910432
 10
107.0835771513732
 20
9.852299513503602
 10
107.0930236208357
 20
9.827365347093994
 10
107.1045693057343
 20
9.803529741086883
 10
107.1182142060689
 20
9.780792384671713
 10
107.1339581664343
 20
9.75915358865916
 10
107.1518014976412
 20
9.738613042238398
 10
107.1717438888788
 20
9.719171056220233
 10
107.1937854955525
 20
9.700827475199254
 10
107.2253063505794
 20
9.678310172756376
 10
107.0913882903623
 20
9.678310172756376
 10
107.0913882903623
 20
9.488503364914308
 97
        0
 92
        7
 72
     0
 73
     1
 93
       79
 10
107.9999999999999
 20
11.02277436231359
 10
107.9999999999999
 20
11.21258070393962
 10
107.8752199179925
 20
11.21258070393962
 10
107.895798383318
 20
11.22427759824145
 10
107.9148524775885
 20
11.23765069462307
 10
107.9323823562091
 20
11.25269921605775
 10
107.9483878637746
 20
11.26942254092405
 10
107.962869000285
 20
11.28782020300604
 10
107.9758259211457
 20
11.30789142527687
 10
107.9872584709511
 20
11.32963543070987
 10
107.9971666497014
 20
11.35305175308884
 10
108.0055504573967
 20
11.37813977079263
 10
108.0124100494421
 20
11.40489886219973
 10
108.0177452704324
 20
11.4333282502835
 10
108.0215561203675
 20
11.46342746882761
 10
108.0238425992475
 20
11.49519558540035
 10
108.0246047070724
 20
11.52863228919059
 10
108.0235917750165
 20
11.56016947341674
 10
108.0205528234431
 20
11.59048812431193
 10
108.0154878523524
 20
11.61959057295617
 10
108.0083970171496
 20
11.64747852880861
 10
107.9992800070242
 20
11.67415416754412
 10
107.9881371327867
 20
11.69961950943196
 10
107.9749683944373
 20
11.72387657474186
 10
107.9597736365705
 20
11.74692738374317
 10
107.9425528591863
 20
11.768774112111
 10
107.9233060622848
 20
11.78941846930397
 10
107.9020334012712
 20
11.80886278640235
 10
107.8787348761458
 20
11.82710908367565
 10
107.8565832424859
 20
11.84234036179917
 10
107.8334799064769
 20
11.85625255933183
 10
107.809424401903
 20
11.86884443303079
 10
107.7844170395746
 20
11.88011536127474
 10
107.7584576640865
 20
11.89006394541545
 10
107.7315464308441
 20
11.89868940842624
 10
107.7036831844419
 20
11.90599066246971
 10
107.6748680802854
 20
11.91196677511371
 10
107.6451009629691
 20
11.9166165031155
 10
107.6143819878985
 20
11.91993906944833
 10
107.5827109996681
 20
11.92193338627477
 10
107.550087998278
 20
11.92259836575738
 10
107.5181206520496
 20
11.92196928491008
 10
107.4871101365468
 20
11.92008281939492
 10
107.4570564517694
 20
11.91693959083327
 10
107.4279592869069
 20
11.91254037625191
 10
107.3998189527698
 20
11.90688626348823
 10
107.3726354493584
 20
11.8999777187583
 10
107.3464086212669
 20
11.8918156744942
 10
107.3211384684957
 20
11.88240090772265
 10
107.29682514645
 20
11.8717341954704
 10
107.2734684997245
 20
11.85981647016957
 10
107.2510686837243
 20
11.84664850884687
 10
107.2296255430444
 20
11.83223093312361
 10
107.2091390776847
 20
11.81656467543212
 10
107.1880805652402
 20
11.79837649975873
 10
107.1687066467644
 20
11.7790972231396
 10
107.1510176330677
 20
11.75872762260125
 10
107.1350130579342
 20
11.73726847517045
 10
107.1206932321747
 20
11.7147207132795
 10
107.1080581557891
 20
11.69108495854959
 10
107.0971078287774
 20
11.6663619880073
 10
107.0878419403289
 20
11.64055288949044
 10
107.0802609566596
 20
11.61365812921484
 10
107.074364566959
 20
11.58567879501799
 10
107.0701527712269
 20
11.55661550852117
 10
107.067625880274
 20
11.52646904675149
 10
107.0667834278844
 20
11.49524034214048
 10
107.0683300219043
 20
11.46357075255826
 10
107.0729698039638
 20
11.43218244665511
 10
107.080702774063
 20
11.40107542443141
 10
107.0915289322019
 20
11.37024953048163
 10
107.1054482783805
 20
11.33970460940033
 10
107.1219683330522
 20
11.31070876882444
 10
107.1405973936968
 20
11.28453881909034
 10
107.1613356157198
 20
11.26120890208453
 10
107.1841828437157
 20
11.2407331596938
 10
107.2091390776847
 20
11.22312557839929
 10
106.7451666217285
 20
11.22312557839929
 10
106.7451666217285
 20
11.02277436231359
 97
        0
 92
       22
 72
     0
 73
     1
 93
       32
 10
107.3324672927888
 20
11.26208201513534
 10
107.2887775159995
 20
11.29586263383251
 10
107.254944634292
 20
11.33975191527509
 10
107.2334141437638
 20
11.39183327883886
 10
107.2240754894537
 20
11.45280618177855
 10
107.2273862559485
 20
11.51433480510503
 10
107.2435860457039
 20
11.56767287781062
 10
107.2727460550886
 20
11.61418829676063
 10
107.3143219672425
 20
11.65342205522677
 10
107.3631555465827
 20
11.68334728161663
 10
107.414011649747
 20
11.70399139213865
 10
107.4697001202907
 20
11.71710448909758
 10
107.5299552673187
 20
11.72268946266933
 10
107.5961399602753
 20
11.72092783370245
 10
107.6558356889681
 20
11.71211900361868
 10
107.7091612379235
 20
11.69623272778579
 10
107.7566866015572
 20
11.67296250337106
 10
107.8014718535716
 20
11.63904696601495
 10
107.8359083222517
 20
11.59570664159009
 10
107.8578227868825
 20
11.54461526670713
 10
107.8672592848381
 20
11.48552066607628
 10
107.8640843928788
 20
11.42277241913316
 10
107.8484335720463
 20
11.36822576565354
 10
107.8202623307113
 20
11.32094178777592
 10
107.7797068115356
 20
11.28099954476547
 10
107.732282640188
 20
11.25148041438264
 10
107.6814832499254
 20
11.23083681022222
 10
107.625191582494
 20
11.21772363645749
 10
107.5636631064071
 20
11.21213689168477
 10
107.4957697588524
 20
11.21390001531283
 10
107.4348650298462
 20
11.2227089370696
 10
107.3807721728536
 20
11.23859474352501
 97
        0
 92
        7
 72
     0
 73
     1
 93
       12
 10
107.9999999999999
 20
12.11445543635103
 10
107.9999999999999
 20
12.33413923309017
 10
107.4340950008429
 20
12.33413923309017
 10
107.4340950008429
 20
12.90531682488227
 10
107.9999999999999
 20
12.90531682488227
 10
107.9999999999999
 20
13.12500000000002
 10
106.7451666217285
 20
13.12500000000002
 10
106.7451666217285
 20
12.90531682488227
 10
107.2442881930009
 20
12.90531682488227
 10
107.2442881930009
 20
12.33413923309017
 10
106.7451666217285
 20
12.33413923309017
 10
106.7451666217285
 20
12.11445543635103
 97
        0
 92
       20
 93
        1
 72
     3
 10
83.58850010680621
 20
10.66013592648008
 11
0.0
 21
1.418043763589117
 40
0.8418553211183608
 50
0.0
 51
360.0
 73
     1
 97
        0
 92
       20
 93
        4
 72
     1
 10
87.46871772762062
 20
12.05514613969579
 11
87.46871772762062
 21
10.96404090281622
 72
     1
 10
87.46871772762062
 20
10.96404090281622
 11
88.73199227765496
 21
10.96404090281622
 72
     3
 10
88.65394338537985
 20
11.51076505629556
 11
-0.4194136260840624
 21
0.3644058831363924
 40
0.9861367087070348
 50
139.1101149142422
 51
302.702408729263
 73
     1
 72
     1
 10
88.7331970553733
 20
12.05514613969579
 11
87.46871772762062
 21
12.05514613969579
 97
        0
 75
     0
 76
     1
 47
0.0690960993340888
 98
       17
 10
90.65799772978804
 20
10.33540167395251
 10
90.65799772978804
 20
10.33540167395251
 10
90.65799772978804
 20
10.33540167395251
 10
90.65799772978804
 20
10.33540167395251
 10
90.65799772978804
 20
10.33540167395251
 10
90.65799772978804
 20
10.33540167395251
 10
90.65799772978804
 20
10.33540167395251
 10
90.65799772978804
 20
10.33540167395251
 10
90.65799772978804
 20
10.33540167395251
 10
88.51508367913755
 20
10.36994970406551
 10
106.7989785594333
 20
8.573451094389106
 10
107.3174254367424
 20
9.540796459453297
 10
107.3174254367424
 20
11.13000678407166
 10
107.3174254367424
 20
11.13000678407166
 10
107.3174254367424
 20
12.20099634385491
 10
82.88129379040247
 20
10.64633404934952
 10
88.54964679389485
 20
11.54458335418774
  0
ENDBLK
  5
735
330
6B7
100
AcDbEntity
  8
0
100
AcDbBlockEnd
  0
BLOCK
  5
AA7
330
A9C
100
AcDbEntity
  8
0
100
AcDbBlockBegin
  2
*D1
 70
     1
 10
0.0
 20
0.0
 30
0.0
  3
*D1
  1

  0
LINE
  5
BC9
330
A9C
100
AcDbEntity
  8
MECH_BEM_NORMAL
 62
     0
370
    -2
100
AcDbLine
 10
122.1249999999999
 20
200.0
 30
0.0
 11
151.25
 21
200.0
 31
0.0
  0
LINE
  5
BCA
330
A9C
100
AcDbEntity
  8
MECH_BEM_NORMAL
 62
     0
370
    -2
100
AcDbLine
 10
122.1249999999999
 20
216.5
 30
0.0
 11
151.25
 21
216.5
 31
0.0
  0
LINE
  5
BCB
330
A9C
100
AcDbEntity
  8
MECH_BEM_NORMAL
 62
     0
370
    -2
100
AcDbLine
 10
150.0
 20
202.4999999999999
 30
0.0
 11
150.0
 21
203.8035714285713
 31
0.0
  0
LINE
  5
BCC
330
A9C
100
AcDbEntity
  8
MECH_BEM_NORMAL
 62
     0
370
    -2
100
AcDbLine
 10
150.0
 20
214.0
 30
0.0
 11
150.0
 21
212.1964285714285
 31
0.0
  0
SOLID
  5
BCD
330
A9C
100
AcDbEntity
  8
MECH_BEM_NORMAL
 62
     0
100
AcDbTrace
 10
149.5833333333334
 20
202.4999999999999
 30
0.0
 11
150.4166666666667
 21
202.4999999999999
 31
0.0
 12
150.0
 22
200.0
 32
0.0
 13
150.0
 23
200.0
 33
0.0
  0
SOLID
  5
BCE
330
A9C
100
AcDbEntity
  8
MECH_BEM_NORMAL
 62
     0
100
AcDbTrace
 10
149.5833333333334
 20
214.0
 30
0.0
 11
150.4166666666667
 21
214.0
 31
0.0
 12
150.0
 22
216.5
 32
0.0
 13
150.0
 23
216.5
 33
0.0
  0
MTEXT
  5
BCF
330
A9C
100
AcDbEntity
  8
MECH_BEM_NORMAL
 62
     0
100
AcDbMText
 10
150.0
 20
208.0
 30
0.0
 40
2.5
 41
0.0
 71
     5
 72
     1
  1
\A1;16.5
 11
0.0000000000000001
 21
1.0
 31
0.0
 73
     1
 44
1.0
  0
POINT
  5
BD0
330
A9C
100
AcDbEntity
  8
DEFPOINTS
 62
     0
100
AcDbPoint
 10
121.5
 20
200.0
 30
0.0
  0
POINT
  5
BD1
330
A9C
100
AcDbEntity
  8
DEFPOINTS
 62
     0
100
AcDbPoint
 10
121.5
 20
216.5
 30
0.0
  0
POINT
  5
BD2
330
A9C
100
AcDbEntity
  8
DEFPOINTS
 62
     0
100
AcDbPoint
 10
150.0
 20
216.5
 30
0.0
  0
ENDBLK
  5
AA8
330
A9C
100
AcDbEntity
  8
0
100
AcDbBlockEnd
  0
BLOCK
  5
AB4
330
AA9
100
AcDbEntity
  8
0
100
AcDbBlockBegin
  2
*D2
 70
     1
 10
0.0
 20
0.0
 30
0.0
  3
*D2
  1

  0
LINE
  5
BD8
330
AA9
100
AcDbEntity
  8
MECH_BEM_NORMAL
 62
     0
370
    -2
100
AcDbLine
 10
122.1249999999999
 20
143.25
 30
0.0
 11
151.25
 21
143.25
 31
0.0
  0
LINE
  5
BD9
330
AA9
100
AcDbEntity
  8
MECH_BEM_NORMAL
 62
     0
370
    -2
100
AcDbLine
 10
122.1249999999999
 20
152.75
 30
0.0
 11
151.25
 21
152.75
 31
0.0
  0
LINE
  5
BDA
330
AA9
100
AcDbEntity
  8
MECH_BEM_NORMAL
 62
     0
370
    -2
100
AcDbLine
 10
150.0
 20
145.75
 30
0.0
 11
150.0
 21
150.2499999999999
 31
0.0
  0
LINE
  5
BDB
330
AA9
100
AcDbEntity
  8
MECH_BEM_NORMAL
 62
     0
370
    -2
100
AcDbLine
 10
150.0
 20
152.75
 30
0.0
 11
150.0
 21
155.25
 31
0.0
  0
SOLID
  5
BDC
330
AA9
100
AcDbEntity
  8
MECH_BEM_NORMAL
 62
     0
100
AcDbTrace
 10
149.5833333333333
 20
145.75
 30
0.0
 11
150.4166666666666
 21
145.75
 31
0.0
 12
150.0
 22
143.25
 32
0.0
 13
150.0
 23
143.25
 33
0.0
  0
SOLID
  5
BDD
330
AA9
100
AcDbEntity
  8
MECH_BEM_NORMAL
 62
     0
100
AcDbTrace
 10
149.5833333333333
 20
150.2499999999999
 30
0.0
 11
150.4166666666666
 21
150.2499999999999
 31
0.0
 12
150.0
 22
152.75
 32
0.0
 13
150.0
 23
152.75
 33
0.0
  0
MTEXT
  5
BDE
330
AA9
100
AcDbEntity
  8
MECH_BEM_NORMAL
 62
     0
100
AcDbMText
 10
150.0
 20
158.4940476190476
 30
0.0
 40
2.5
 41
0.0
 71
     5
 72
     1
  1
\A1;9.5
 11
0.0000000000000001
 21
1.0
 31
0.0
 73
     1
 44
1.0
  0
POINT
  5
BDF
330
AA9
100
AcDbEntity
  8
DEFPOINTS
 62
     0
100
AcDbPoint
 10
121.5
 20
143.25
 30
0.0
  0
POINT
  5
BE0
330
AA9
100
AcDbEntity
  8
DEFPOINTS
 62
     0
100
AcDbPoint
 10
121.5
 20
152.75
 30
0.0
  0
POINT
  5
BE1
330
AA9
100
AcDbEntity
  8
DEFPOINTS
 62
     0
100
AcDbPoint
 10
150.0
 20
152.75
 30
0.0
  0
ENDBLK
  5
AB5
330
AA9
100
AcDbEntity
  8
0
100
AcDbBlockEnd
  0
BLOCK
  5
AC1
330
AB6
100
AcDbEntity
  8
0
100
AcDbBlockBegin
  2
*D3
 70
     1
 10
0.0
 20
0.0
 30
0.0
  3
*D3
  1

  0
LINE
  5
B7D
330
AB6
100
AcDbEntity
  8
MECH_BEM_NORMAL
 62
     0
370
    -2
100
AcDbLine
 10
80.0
 20
205.125
 30
0.0
 11
80.0
 21
184.75
 31
0.0
  0
LINE
  5
B7E
330
AB6
100
AcDbEntity
  8
MECH_BEM_NORMAL
 62
     0
370
    -2
100
AcDbLine
 10
120.0
 20
205.125
 30
0.0
 11
120.0
 21
184.75
 31
0.0
  0
LINE
  5
B7F
330
AB6
100
AcDbEntity
  8
MECH_BEM_NORMAL
 62
     0
370
    -2
100
AcDbLine
 10
82.5
 20
186.0
 30
0.0
 11
97.35119047619049
 21
186.0
 31
0.0
  0
LINE
  5
B80
330
AB6
100
AcDbEntity
  8
MECH_BEM_NORMAL
 62
     0
370
    -2
100
AcDbLine
 10
117.5
 20
186.0
 30
0.0
 11
102.6488095238095
 21
186.0
 31
0.0
  0
SOLID
  5
B81
330
AB6
100
AcDbEntity
  8
MECH_BEM_NORMAL
 62
     0
100
AcDbTrace
 10
82.5
 20
186.4166666666666
 30
0.0
 11
82.5
 21
185.5833333333333
 31
0.0
 12
80.0
 22
186.0
 32
0.0
 13
80.0
 23
186.0
 33
0.0
  0
SOLID
  5
B82
330
AB6
100
AcDbEntity
  8
MECH_BEM_NORMAL
 62
     0
100
AcDbTrace
 10
117.5
 20
186.4166666666666
 30
0.0
 11
117.5
 21
185.5833333333333
 31
0.0
 12
120.0
 22
186.0
 32
0.0
 13
120.0
 23
186.0
 33
0.0
  0
MTEXT
  5
B83
330
AB6
100
AcDbEntity
  8
MECH_BEM_NORMAL
 62
     0
100
AcDbMText
 10
100.0
 20
186.0
 30
0.0
 40
2.5
 41
0.0
 71
     5
 72
     1
  1
\A1;40
 73
     1
 44
1.0
  0
POINT
  5
B84
330
AB6
100
AcDbEntity
  8
DEFPOINTS
 62
     0
100
AcDbPoint
 10
80.0
 20
205.75
 30
0.0
  0
POINT
  5
B85
330
AB6
100
AcDbEntity
  8
DEFPOINTS
 62
     0
100
AcDbPoint
 10
120.0
 20
205.75
 30
0.0
  0
POINT
  5
B86
330
AB6
100
AcDbEntity
  8
DEFPOINTS
 62
     0
100
AcDbPoint
 10
120.0
 20
186.0
 30
0.0
  0
ENDBLK
  5
AC2
330
AB6
100
AcDbEntity
  8
0
100
AcDbBlockEnd
  0
BLOCK
  5
ACF
330
AC3
100
AcDbEntity
  8
0
100
AcDbBlockBegin
  2
*D4
 70
     1
 10
0.0
 20
0.0
 30
0.0
  3
*D4
  1

  0
LINE
  5
B91
330
AC3
100
AcDbEntity
  8
MECH_BEM_NORMAL
 62
     0
370
    -2
100
AcDbLine
 10
91.53999999999999
 20
218.1249999999999
 30
0.0
 11
91.53999999999999
 21
231.25
 31
0.0
  0
LINE
  5
B92
330
AC3
100
AcDbEntity
  8
MECH_BEM_NORMAL
 62
     0
370
    -2
100
AcDbLine
 10
94.07999999999999
 20
218.1249999999999
 30
0.0
 11
94.07999999999999
 21
231.25
 31
0.0
  0
LINE
  5
B93
330
AC3
100
AcDbEntity
  8
MECH_BEM_NORMAL
 62
     0
370
    -2
100
AcDbLine
 10
89.03999999999999
 20
230.0
 30
0.0
 11
86.53999999999999
 21
230.0
 31
0.0
  0
LINE
  5
B94
330
AC3
100
AcDbEntity
  8
MECH_BEM_NORMAL
 62
     0
370
    -2
100
AcDbLine
 10
96.58000000000001
 20
230.0
 30
0.0
 11
99.08000000000001
 21
230.0
 31
0.0
  0
LINE
  5
B95
330
AC3
100
AcDbEntity
  8
MECH_BEM_NORMAL
 62
     0
370
    -2
100
AcDbLine
 10
91.53999999999999
 20
230.0
 30
0.0
 11
94.07999999999999
 21
230.0
 31
0.0
  0
SOLID
  5
B96
330
AC3
100
AcDbEntity
  8
MECH_BEM_NORMAL
 62
     0
100
AcDbTrace
 10
89.03999999999999
 20
230.4166666666666
 30
0.0
 11
89.03999999999999
 21
229.5833333333333
 31
0.0
 12
91.53999999999999
 22
230.0
 32
0.0
 13
91.53999999999999
 23
230.0
 33
0.0
  0
SOLID
  5
B97
330
AC3
100
AcDbEntity
  8
MECH_BEM_NORMAL
 62
     0
100
AcDbTrace
 10
96.58000000000001
 20
230.4166666666666
 30
0.0
 11
96.58000000000001
 21
229.5833333333333
 31
0.0
 12
94.07999999999999
 22
230.0
 32
0.0
 13
94.07999999999999
 23
230.0
 33
0.0
  0
MTEXT
  5
B98
330
AC3
100
AcDbEntity
  8
MECH_BEM_NORMAL
 62
     0
100
AcDbMText
 10
103.5740476190476
 20
230.0
 30
0.0
 40
2.5
 41
0.0
 71
     5
 72
     1
  1
\A1;2.54
 73
     1
 44
1.0
  0
POINT
  5
B99
330
AC3
100
AcDbEntity
  8
DEFPOINTS
 62
     0
100
AcDbPoint
 10
91.53999999999999
 20
217.5
 30
0.0
  0
POINT
  5
B9A
330
AC3
100
AcDbEntity
  8
DEFPOINTS
 62
     0
100
AcDbPoint
 10
94.07999999999999
 20
217.5
 30
0.0
  0
POINT
  5
B9B
330
AC3
100
AcDbEntity
  8
DEFPOINTS
 62
     0
100
AcDbPoint
 10
94.07999999999999
 20
230.0
 30
0.0
  0
ENDBLK
  5
AD0
330
AC3
100
AcDbEntity
  8
0
100
AcDbBlockEnd
  0
BLOCK
  5
ADC
330
AD1
100
AcDbEntity
  8
0
100
AcDbBlockBegin
  2
*D5
 70
     1
 10
0.0
 20
0.0
 30
0.0
  3
*D5
  1

  0
LINE
  5
B87
330
AD1
100
AcDbEntity
  8
MECH_BEM_NORMAL
 62
     0
370
    -2
100
AcDbLine
 10
78.5
 20
217.125
 30
0.0
 11
78.5
 21
241.25
 31
0.0
  0
LINE
  5
B88
330
AD1
100
AcDbEntity
  8
MECH_BEM_NORMAL
 62
     0
370
    -2
100
AcDbLine
 10
121.5
 20
217.125
 30
0.0
 11
121.5
 21
241.25
 31
0.0
  0
LINE
  5
B89
330
AD1
100
AcDbEntity
  8
MECH_BEM_NORMAL
 62
     0
370
    -2
100
AcDbLine
 10
81.0
 20
240.0
 30
0.0
 11
97.35119047619049
 21
240.0
 31
0.0
  0
LINE
  5
B8A
330
AD1
100
AcDbEntity
  8
MECH_BEM_NORMAL
 62
     0
370
    -2
100
AcDbLine
 10
119.0
 20
240.0
 30
0.0
 11
102.6488095238095
 21
240.0
 31
0.0
  0
SOLID
  5
B8B
330
AD1
100
AcDbEntity
  8
MECH_BEM_NORMAL
 62
     0
100
AcDbTrace
 10
81.0
 20
240.4166666666666
 30
0.0
 11
81.0
 21
239.5833333333333
 31
0.0
 12
78.5
 22
240.0
 32
0.0
 13
78.5
 23
240.0
 33
0.0
  0
SOLID
  5
B8C
330
AD1
100
AcDbEntity
  8
MECH_BEM_NORMAL
 62
     0
100
AcDbTrace
 10
119.0
 20
240.4166666666666
 30
0.0
 11
119.0
 21
239.5833333333333
 31
0.0
 12
121.5
 22
240.0
 32
0.0
 13
121.5
 23
240.0
 33
0.0
  0
MTEXT
  5
B8D
330
AD1
100
AcDbEntity
  8
MECH_BEM_NORMAL
 62
     0
100
AcDbMText
 10
100.0
 20
240.0
 30
0.0
 40
2.5
 41
0.0
 71
     5
 72
     1
  1
\A1;43
 73
     1
 44
1.0
  0
POINT
  5
B8E
330
AD1
100
AcDbEntity
  8
DEFPOINTS
 62
     0
100
AcDbPoint
 10
78.5
 20
216.5
 30
0.0
  0
POINT
  5
B8F
330
AD1
100
AcDbEntity
  8
DEFPOINTS
 62
     0
100
AcDbPoint
 10
121.5
 20
216.5
 30
0.0
  0
POINT
  5
B90
330
AD1
100
AcDbEntity
  8
DEFPOINTS
 62
     0
100
AcDbPoint
 10
121.5
 20
240.0
 30
0.0
  0
ENDBLK
  5
ADD
330
AD1
100
AcDbEntity
  8
0
100
AcDbBlockEnd
  0
BLOCK
  5
AEB
330
ADE
100
AcDbEntity
  8
0
100
AcDbBlockBegin
  2
*D6
 70
     1
 10
0.0
 20
0.0
 30
0.0
  3
*D6
  1

  0
LINE
  5
B9C
330
ADE
100
AcDbEntity
  8
MECH_BEM_NORMAL
 62
     0
370
    -2
100
AcDbLine
 10
78.5
 20
217.125
 30
0.0
 11
78.5
 21
236.25
 31
0.0
  0
LINE
  5
B9D
330
ADE
100
AcDbEntity
  8
MECH_BEM_NORMAL
 62
     0
370
    -2
100
AcDbLine
 10
89.0
 20
218.1249999999999
 30
0.0
 11
89.0
 21
236.25
 31
0.0
  0
LINE
  5
B9E
330
ADE
100
AcDbEntity
  8
MECH_BEM_NORMAL
 62
     0
370
    -2
100
AcDbLine
 10
76.0
 20
235.0
 30
0.0
 11
73.5
 21
235.0
 31
0.0
  0
LINE
  5
B9F
330
ADE
100
AcDbEntity
  8
MECH_BEM_NORMAL
 62
     0
370
    -2
100
AcDbLine
 10
91.5
 20
235.0
 30
0.0
 11
94.0
 21
235.0
 31
0.0
  0
LINE
  5
BA0
330
ADE
100
AcDbEntity
  8
MECH_BEM_NORMAL
 62
     0
370
    -2
100
AcDbLine
 10
78.5
 20
235.0
 30
0.0
 11
79.55357142857143
 21
235.0
 31
0.0
  0
LINE
  5
BA1
330
ADE
100
AcDbEntity
  8
MECH_BEM_NORMAL
 62
     0
370
    -2
100
AcDbLine
 10
89.0
 20
235.0
 30
0.0
 11
87.94642857142857
 21
235.0
 31
0.0
  0
SOLID
  5
BA2
330
ADE
100
AcDbEntity
  8
MECH_BEM_NORMAL
 62
     0
100
AcDbTrace
 10
76.0
 20
235.4166666666666
 30
0.0
 11
76.0
 21
234.5833333333333
 31
0.0
 12
78.5
 22
235.0
 32
0.0
 13
78.5
 23
235.0
 33
0.0
  0
SOLID
  5
BA3
330
ADE
100
AcDbEntity
  8
MECH_BEM_NORMAL
 62
     0
100
AcDbTrace
 10
91.5
 20
235.4166666666666
 30
0.0
 11
91.5
 21
234.5833333333333
 31
0.0
 12
89.0
 22
235.0
 32
0.0
 13
89.0
 23
235.0
 33
0.0
  0
MTEXT
  5
BA4
330
ADE
100
AcDbEntity
  8
MECH_BEM_NORMAL
 62
     0
100
AcDbMText
 10
83.75
 20
235.0
 30
0.0
 40
2.5
 41
0.0
 71
     5
 72
     1
  1
\A1;10.5
 73
     1
 44
1.0
  0
POINT
  5
BA5
330
ADE
100
AcDbEntity
  8
DEFPOINTS
 62
     0
100
AcDbPoint
 10
78.5
 20
216.5
 30
0.0
  0
POINT
  5
BA6
330
ADE
100
AcDbEntity
  8
DEFPOINTS
 62
     0
100
AcDbPoint
 10
89.0
 20
217.5
 30
0.0
  0
POINT
  5
BA7
330
ADE
100
AcDbEntity
  8
DEFPOINTS
 62
     0
100
AcDbPoint
 10
89.0
 20
235.0
 30
0.0
  0
ENDBLK
  5
AEC
330
ADE
100
AcDbEntity
  8
0
100
AcDbBlockEnd
  0
BLOCK
  5
AF9
330
AED
100
AcDbEntity
  8
0
100
AcDbBlockBegin
  2
*D7
 70
     1
 10
0.0
 20
0.0
 30
0.0
  3
*D7
  1

  0
LINE
  5
B5E
330
AED
100
AcDbEntity
  8
MECH_BEM_NORMAL
 62
     0
370
    -2
100
AcDbLine
 10
119.0
 20
207.6249999999999
 30
0.0
 11
119.0
 21
188.75
 31
0.0
  0
LINE
  5
B5F
330
AED
100
AcDbEntity
  8
MECH_BEM_NORMAL
 62
     0
370
    -2
100
AcDbLine
 10
121.0
 20
207.6249999999999
 30
0.0
 11
121.0
 21
188.75
 31
0.0
  0
LINE
  5
B60
330
AED
100
AcDbEntity
  8
MECH_BEM_NORMAL
 62
     0
370
    -2
100
AcDbLine
 10
116.5
 20
190.0
 30
0.0
 11
114.0
 21
190.0
 31
0.0
  0
LINE
  5
B61
330
AED
100
AcDbEntity
  8
MECH_BEM_NORMAL
 62
     0
370
    -2
100
AcDbLine
 10
123.5
 20
190.0
 30
0.0
 11
126.0
 21
190.0
 31
0.0
  0
LINE
  5
B62
330
AED
100
AcDbEntity
  8
MECH_BEM_NORMAL
 62
     0
370
    -2
100
AcDbLine
 10
119.0
 20
190.0
 30
0.0
 11
121.0
 21
190.0
 31
0.0
  0
SOLID
  5
B63
330
AED
100
AcDbEntity
  8
MECH_BEM_NORMAL
 62
     0
100
AcDbTrace
 10
116.5
 20
190.4166666666666
 30
0.0
 11
116.5
 21
189.5833333333333
 31
0.0
 12
119.0
 22
190.0
 32
0.0
 13
119.0
 23
190.0
 33
0.0
  0
SOLID
  5
B64
330
AED
100
AcDbEntity
  8
MECH_BEM_NORMAL
 62
     0
100
AcDbTrace
 10
123.5
 20
190.4166666666666
 30
0.0
 11
123.5
 21
189.5833333333333
 31
0.0
 12
121.0
 22
190.0
 32
0.0
 13
121.0
 23
190.0
 33
0.0
  0
MTEXT
  5
B65
330
AED
100
AcDbEntity
  8
MECH_BEM_NORMAL
 62
     0
100
AcDbMText
 10
128.8869047619047
 20
190.0
 30
0.0
 40
2.5
 41
0.0
 71
     5
 72
     1
  1
\A1;M2
 73
     1
 44
1.0
  0
POINT
  5
B66
330
AED
100
AcDbEntity
  8
DEFPOINTS
 62
     0
100
AcDbPoint
 10
119.0
 20
208.25
 30
0.0
  0
POINT
  5
B67
330
AED
100
AcDbEntity
  8
DEFPOINTS
 62
     0
100
AcDbPoint
 10
121.0
 20
208.25
 30
0.0
  0
POINT
  5
B68
330
AED
100
AcDbEntity
  8
DEFPOINTS
 62
     0
100
AcDbPoint
 10
121.0
 20
190.0
 30
0.0
  0
ENDBLK
  5
AFA
330
AED
100
AcDbEntity
  8
0
100
AcDbBlockEnd
  0
BLOCK
  5
B07
330
AFB
100
AcDbEntity
  8
0
100
AcDbBlockBegin
  2
*D8
 70
     1
 10
0.0
 20
0.0
 30
0.0
  3
*D8
  1

  0
LINE
  5
BA8
330
AFB
100
AcDbEntity
  8
MECH_BEM_NORMAL
 62
     0
370
    -2
100
AcDbLine
 10
97.20500000000001
 20
215.0
 30
0.0
 11
111.25
 21
215.0
 31
0.0
  0
LINE
  5
BA9
330
AFB
100
AcDbEntity
  8
MECH_BEM_NORMAL
 62
     0
370
    -2
100
AcDbLine
 10
97.20500000000001
 20
216.5
 30
0.0
 11
111.25
 21
216.5
 31
0.0
  0
LINE
  5
BAA
330
AFB
100
AcDbEntity
  8
MECH_BEM_NORMAL
 62
     0
370
    -2
100
AcDbLine
 10
110.0
 20
212.5
 30
0.0
 11
110.0
 21
210.0
 31
0.0
  0
LINE
  5
BAB
330
AFB
100
AcDbEntity
  8
MECH_BEM_NORMAL
 62
     0
370
    -2
100
AcDbLine
 10
110.0
 20
219.0
 30
0.0
 11
110.0
 21
221.4999999999999
 31
0.0
  0
LINE
  5
BAC
330
AFB
100
AcDbEntity
  8
MECH_BEM_NORMAL
 62
     0
370
    -2
100
AcDbLine
 10
110.0
 20
215.0
 30
0.0
 11
110.0
 21
216.5
 31
0.0
  0
SOLID
  5
BAD
330
AFB
100
AcDbEntity
  8
MECH_BEM_NORMAL
 62
     0
100
AcDbTrace
 10
109.5833333333333
 20
212.5
 30
0.0
 11
110.4166666666666
 21
212.5
 31
0.0
 12
110.0
 22
215.0
 32
0.0
 13
110.0
 23
215.0
 33
0.0
  0
SOLID
  5
BAE
330
AFB
100
AcDbEntity
  8
MECH_BEM_NORMAL
 62
     0
100
AcDbTrace
 10
109.5833333333333
 20
219.0
 30
0.0
 11
110.4166666666666
 21
219.0
 31
0.0
 12
110.0
 22
216.5
 32
0.0
 13
110.0
 23
216.5
 33
0.0
  0
MTEXT
  5
BAF
330
AFB
100
AcDbEntity
  8
MECH_BEM_NORMAL
 62
     0
100
AcDbMText
 10
109.9999999999999
 20
224.5059523809524
 30
0.0
 40
2.5
 41
0.0
 71
     5
 72
     1
  1
\A1;1.5
 11
0.0000000000000001
 21
1.0
 31
0.0
 73
     1
 44
1.0
  0
POINT
  5
BB0
330
AFB
100
AcDbEntity
  8
DEFPOINTS
 62
     0
100
AcDbPoint
 10
96.58000000000001
 20
215.0
 30
0.0
  0
POINT
  5
BB1
330
AFB
100
AcDbEntity
  8
DEFPOINTS
 62
     0
100
AcDbPoint
 10
96.58000000000001
 20
216.5
 30
0.0
  0
POINT
  5
BB2
330
AFB
100
AcDbEntity
  8
DEFPOINTS
 62
     0
100
AcDbPoint
 10
110.0
 20
216.5
 30
0.0
  0
ENDBLK
  5
B08
330
AFB
100
AcDbEntity
  8
0
100
AcDbBlockEnd
  0
BLOCK
  5
C54
330
C53
100
AcDbEntity
  8
0
100
AcDbBlockBegin
  2
aaa Vorlage für Zeichnungen
 70
     0
 10
0.0
 20
0.0
 30
0.0
  3
aaa Vorlage für Zeichnungen
  1

  0
ENDBLK
  5
C55
330
C53
100
AcDbEntity
  8
0
100
AcDbBlockEnd
  0
ENDSEC
  0
SECTION
  2
ENTITIES
  0
INSERT
  5
8EB
330
2
100
AcDbEntity
  8
RAHMEN_FÜR_HP5000
100
AcDbBlockReference
 66
     1
  2
Thorlabs_A4_hoch_engl_HP5000
 10
0.0
 20
0.0
 30
0.0
  0
ATTRIB
  5
8EC
330
8EB
100
AcDbEntity
  8
RAHMEN035
100
AcDbText
 10
125.1546118156577
 20
29.48184564905599
 30
0.0
 40
5.0
  1
OSW12-xxx-SM
 72
     4
 11
153.8450880061339
 21
31.98184564905599
 31
0.0
100
AcDbAttribute
  2
BENENNUNG1A
 70
     0
  0
ATTRIB
  5
8ED
330
8EB
100
AcDbEntity
  8
RAHMEN035
100
AcDbText
 10
111.0999999999999
 20
29.50000000000002
 30
0.0
 40
5.0
  1

 41
1.630363636363638
 72
     5
 11
196.5
 21
29.50000000000002
 31
0.0
100
AcDbAttribute
  2
BENENNUNG1B
 70
     0
  0
ATTRIB
  5
8EE
330
8EB
100
AcDbEntity
  8
RAHMEN035
100
AcDbText
 10
153.8450880061339
 20
23.41041707762741
 30
0.0
 40
5.0
  1

 41
0.9
 72
     4
 11
153.8450880061339
 21
23.41041707762741
 31
0.0
100
AcDbAttribute
  2
BENENNUNG2A
 70
     0
  0
ATTRIB
  5
8EF
330
8EB
100
AcDbEntity
  8
RAHMEN035
100
AcDbText
 10
111.0999999999999
 20
20.92857142857143
 30
0.0
 40
5.0
  1

 41
1.601250000000002
 72
     5
 11
196.5
 21
20.92857142857143
 31
0.0
100
AcDbAttribute
  2
BENENNUNG2B
 70
     0
  0
ATTRIB
  5
8F0
330
8EB
100
AcDbEntity
  8
RAHMEN035
100
AcDbText
 10
147.2535696603034
 20
10.32473610229668
 30
0.0
 40
5.0
  1

 72
     4
 11
147.2535696603034
 21
10.32473610229668
 31
0.0
100
AcDbAttribute
  2
ZEICHNUNGSNUMMER
 70
     0
  0
ATTRIB
  5
8F1
330
8EB
100
AcDbEntity
  8
RAHMEN013
100
AcDbText
 10
189.6912952255843
 20
9.548454186946649
 30
0.0
 40
2.5
  1
1
 72
     4
 11
189.9889142732034
 21
10.79845418694665
 31
0.0
100
AcDbAttribute
  2
BLATT
 70
     0
  0
ATTRIB
  5
8F2
330
8EB
100
AcDbEntity
  8
RAHMEN013
100
AcDbText
 10
190.6484809523809
 20
5.270830598623682
 30
0.0
 40
2.5
  1
1
 72
     4
 11
190.9461
 21
6.520830598623682
 31
0.0
100
AcDbAttribute
  2
BLÄTTER
 70
     0
  0
ATTRIB
  5
8F3
330
8EB
100
AcDbEntity
  8
RAHMEN013
100
AcDbText
 10
128.3916231867283
 20
50.81250000000002
 30
0.0
 40
2.5
  1
1 : 1
100
AcDbAttribute
  2
MAßSTAB
 70
     0
  0
ATTRIB
  5
8F4
330
8EB
100
AcDbEntity
  8
RAHMEN013
100
AcDbText
 10
134.4346962179382
 20
44.31250000000002
 30
0.0
 40
2.5
  1

 11
134.4346962179382
 21
45.56250000000002
 31
0.0
100
AcDbAttribute
  2
WERKSTOFF1
 70
     0
 74
     2
  0
ATTRIB
  5
8F5
330
8EB
100
AcDbEntity
  8
RAHMEN013
100
AcDbText
 10
134.4346962179382
 20
40.02678571428574
 30
0.0
 40
2.5
  1

 11
134.4346962179382
 21
41.27678571428574
 31
0.0
100
AcDbAttribute
  2
WERKSTOFF2
 70
     0
 74
     2
  0
ATTRIB
  5
8F6
330
8EB
100
AcDbEntity
  8
RAHMEN025
100
AcDbText
 10
38.09999999999996
 20
43.56250000000001
 30
0.0
 40
3.5
  1

 72
     4
 11
38.09999999999996
 21
43.56250000000001
 31
0.0
100
AcDbAttribute
  2
VERWENDUNGA
 70
     0
  0
ATTRIB
  5
8F7
330
8EB
100
AcDbEntity
  8
RAHMEN025
100
AcDbText
 10
12.50000000000001
 20
41.80000000000002
 30
0.0
 40
3.499999999999999
  1
WEB, mech. drawing
 41
0.963009404388714
 72
     5
 11
63.69999999999999
 21
41.80000000000002
 31
0.0
100
AcDbAttribute
  2
VERWENDUNGB
 70
     0
  0
ATTRIB
  5
8F8
330
8EB
100
AcDbEntity
  8
RAHMEN013
100
AcDbText
 10
78.39999999999998
 20
45.56250000000002
 30
0.0
 40
2.5
  1

 41
0.9
 72
     4
 11
78.39999999999998
 21
45.56250000000002
 31
0.0
100
AcDbAttribute
  2
ZUL_ABW1
 70
     0
  0
ATTRIB
  5
8F9
330
8EB
100
AcDbEntity
  8
RAHMEN013
100
AcDbText
 10
78.39999999999998
 20
41.27678571428574
 30
0.0
 40
2.5
  1

 41
0.9
 72
     4
 11
78.39999999999998
 21
41.27678571428574
 31
0.0
100
AcDbAttribute
  2
ZUL_ABW2
 70
     0
  0
ATTRIB
  5
8FA
330
8EB
100
AcDbEntity
  8
RAHMEN013
100
AcDbText
 10
92.20000000000004
 20
44.28571428571429
 30
0.0
 40
2.5
  1

 41
1.133658536585362
 72
     5
 11
108.7999999999999
 21
44.28571428571429
 31
0.0
100
AcDbAttribute
  2
OBERFL1
 70
     0
  0
ATTRIB
  5
8FB
330
8EB
100
AcDbEntity
  8
RAHMEN013
100
AcDbText
 10
92.19999999999998
 20
40.00000000000002
 30
0.0
 40
2.5
  1

 41
1.056363636363636
 72
     5
 11
108.8
 21
40.00000000000002
 31
0.0
100
AcDbAttribute
  2
OBERFL2
 70
     0
  0
ATTRIB
  5
8FC
330
8EB
100
AcDbEntity
  8
RAHMEN013
100
AcDbText
 10
76.45502135033757
 20
30.70603256725529
 30
0.0
 40
2.5
  1
17.05.05
 41
0.9
100
AcDbAttribute
  2
BEARBETET
 70
     0
  0
ATTRIB
  5
8FD
330
8EB
100
AcDbEntity
  8
RAHMEN013
100
AcDbText
 10
92.71813410214225
 20
30.70603256725529
 30
0.0
 40
2.5
  1
Hit.
100
AcDbAttribute
  2
NAMEBEARB
 70
     0
  0
ATTRIB
  5
8FE
330
8EB
100
AcDbEntity
  8
RAHMEN013
100
AcDbText
 10
76.45502135033757
 20
26.4560325672553
 30
0.0
 40
2.5
  1

 41
0.9
100
AcDbAttribute
  2
GEPRÜFT
 70
     0
  0
ATTRIB
  5
8FF
330
8EB
100
AcDbEntity
  8
RAHMEN013
100
AcDbText
 10
92.71813410214219
 20
26.4560325672553
 30
0.0
 40
2.5
  1

100
AcDbAttribute
  2
NAMEGEPR
 70
     0
  0
ATTRIB
  5
900
330
8EB
100
AcDbEntity
  8
RAHMEN013
100
AcDbText
 10
139.1999999999998
 20
0.8750000000000213
 30
0.0
 40
2.5
  1

 72
     1
 11
139.1999999999998
 21
2.125000000000021
 31
0.0
100
AcDbAttribute
  2
ERSATZF
 70
     0
 74
     2
  0
ATTRIB
  5
901
330
8EB
100
AcDbEntity
  8
RAHMEN013
100
AcDbText
 10
183.3999999999998
 20
0.8749999999999076
 30
0.0
 40
2.5
  1

 72
     1
 11
183.3999999999998
 21
2.124999999999907
 31
0.0
100
AcDbAttribute
  2
ERSATZD
 70
     0
 74
     2
  0
ATTRIB
  5
902
330
8EB
100
AcDbEntity
  8
RAHMEN013
100
AcDbText
 10
11.30000000000001
 20
67.00000000000002
 30
0.0
 40
2.5
  1
dimensions are mm
100
AcDbAttribute
  2
BEM1
 70
     0
  0
ATTRIB
  5
903
330
8EB
100
AcDbEntity
  8
RAHMEN013
100
AcDbText
 10
11.30000000000001
 20
62.71428571428574
 30
0.0
 40
2.5
  1
information only,
100
AcDbAttribute
  2
BEM2
 70
     0
  0
ATTRIB
  5
904
330
8EB
100
AcDbEntity
  8
RAHMEN013
100
AcDbText
 10
11.30000000000001
 20
58.42857142857145
 30
0.0
 40
2.5
  1
not for manufacturing
100
AcDbAttribute
  2
BEM3
 70
     0
  0
ATTRIB
  5
905
330
8EB
100
AcDbEntity
  8
RAHMEN013
100
AcDbText
 10
14.70000000000001
 20
36.12500000000002
 30
0.0
 40
2.5
  1

 72
     4
 11
14.70000000000001
 21
36.12500000000002
 31
0.0
100
AcDbAttribute
  2
ZUST1
 70
     0
  0
ATTRIB
  5
906
330
8EB
100
AcDbEntity
  8
RAHMEN013
100
AcDbText
 10
19.80000000000002
 20
34.85000000000002
 30
0.0
 40
2.5
  1

 41
2.831999999999999
 72
     5
 11
43.40000000000002
 21
34.85000000000002
 31
0.0
100
AcDbAttribute
  2
ÄND1
 70
     0
  0
ATTRIB
  5
907
330
8EB
100
AcDbEntity
  8
RAHMEN013
100
AcDbText
 10
45.40000000000001
 20
34.85000000000002
 30
0.0
 40
2.499999999999999
  1

 50
359.9999999999999
 41
1.450909090909091
 72
     5
 11
56.80000000000001
 21
34.85000000000002
 31
0.0
100
AcDbAttribute
  2
DAT1
 70
     0
  0
ATTRIB
  5
908
330
8EB
100
AcDbEntity
  8
RAHMEN013
100
AcDbText
 10
58.40000000000003
 20
34.85000000000002
 30
0.0
 40
2.5
  1

 41
0.5660869565217355
 72
     5
 11
64.59999999999997
 21
34.85000000000002
 31
0.0
100
AcDbAttribute
  2
NAME1
 70
     0
  0
ATTRIB
  5
909
330
8EB
100
AcDbEntity
  8
RAHMEN013
100
AcDbText
 10
14.70000000000001
 20
31.87500000000002
 30
0.0
 40
2.5
  1

 72
     4
 11
14.70000000000001
 21
31.87500000000002
 31
0.0
100
AcDbAttribute
  2
ZUST2
 70
     0
  0
ATTRIB
  5
90A
330
8EB
100
AcDbEntity
  8
RAHMEN013
100
AcDbText
 10
19.80000000000002
 20
30.60000000000002
 30
0.0
 40
2.5
  1

 41
2.509367088607594
 72
     5
 11
43.40000000000002
 21
30.60000000000002
 31
0.0
100
AcDbAttribute
  2
ÄND2
 70
     0
  0
ATTRIB
  5
90B
330
8EB
100
AcDbEntity
  8
RAHMEN013
100
AcDbText
 10
45.40000000000001
 20
30.60000000000003
 30
0.0
 40
2.5
  1

 50
359.9999999999999
 41
1.2768
 72
     5
 11
56.80000000000001
 21
30.60000000000002
 31
0.0
100
AcDbAttribute
  2
DAT2
 70
     0
  0
ATTRIB
  5
90C
330
8EB
100
AcDbEntity
  8
RAHMEN013
100
AcDbText
 10
58.40000000000003
 20
30.60000000000003
 30
0.0
 40
2.5
  1

 41
0.5156435643564326
 72
     5
 11
64.59999999999997
 21
30.60000000000003
 31
0.0
100
AcDbAttribute
  2
NAME2
 70
     0
  0
ATTRIB
  5
90D
330
8EB
100
AcDbEntity
  8
RAHMEN013
100
AcDbText
 10
14.70000000000001
 20
27.62500000000002
 30
0.0
 40
2.5
  1

 72
     4
 11
14.70000000000001
 21
27.62500000000002
 31
0.0
100
AcDbAttribute
  2
ZUST3
 70
     0
  0
ATTRIB
  5
90E
330
8EB
100
AcDbEntity
  8
RAHMEN013
100
AcDbText
 10
19.80000000000002
 20
26.35000000000002
 30
0.0
 40
2.5
  1

 41
2.509367088607594
 72
     5
 11
43.40000000000002
 21
26.35000000000002
 31
0.0
100
AcDbAttribute
  2
ÄND3
 70
     0
  0
ATTRIB
  5
90F
330
8EB
100
AcDbEntity
  8
RAHMEN013
100
AcDbText
 10
45.40000000000001
 20
26.35000000000003
 30
0.0
 40
2.5
  1

 50
359.9999999999999
 41
1.2768
 72
     5
 11
56.80000000000001
 21
26.35000000000002
 31
0.0
100
AcDbAttribute
  2
DAT3
 70
     0
  0
ATTRIB
  5
910
330
8EB
100
AcDbEntity
  8
RAHMEN013
100
AcDbText
 10
58.40000000000003
 20
26.35000000000003
 30
0.0
 40
2.5
  1

 41
0.5156435643564324
 72
     5
 11
64.59999999999997
 21
26.35000000000003
 31
0.0
100
AcDbAttribute
  2
NAME3
 70
     0
  0
ATTRIB
  5
911
330
8EB
100
AcDbEntity
  8
RAHMEN013
100
AcDbText
 10
14.70000000000001
 20
23.37500000000002
 30
0.0
 40
2.5
  1

 72
     4
 11
14.70000000000001
 21
23.37500000000002
 31
0.0
100
AcDbAttribute
  2
ZUST4
 70
     0
  0
ATTRIB
  5
912
330
8EB
100
AcDbEntity
  8
RAHMEN013
100
AcDbText
 10
19.80000000000002
 20
22.10000000000002
 30
0.0
 40
2.5
  1

 41
2.477999999999999
 72
     5
 11
43.40000000000002
 21
22.10000000000002
 31
0.0
100
AcDbAttribute
  2
ÄND4
 70
     0
  0
ATTRIB
  5
913
330
8EB
100
AcDbEntity
  8
RAHMEN013
100
AcDbText
 10
45.40000000000001
 20
22.10000000000003
 30
0.0
 40
2.5
  1

 50
359.9999999999999
 41
1.26
 72
     5
 11
56.80000000000001
 21
22.10000000000002
 31
0.0
100
AcDbAttribute
  2
DAT4
 70
     0
  0
ATTRIB
  5
914
330
8EB
100
AcDbEntity
  8
RAHMEN013
100
AcDbText
 10
58.40000000000003
 20
22.10000000000003
 30
0.0
 40
2.5
  1

 41
0.5105882352941145
 72
     5
 11
64.59999999999997
 21
22.10000000000003
 31
0.0
100
AcDbAttribute
  2
NAME4
 70
     0
  0
ATTRIB
  5
915
330
8EB
100
AcDbEntity
  8
RAHMEN013
100
AcDbText
 10
14.70000000000001
 20
19.12500000000002
 30
0.0
 40
2.5
  1

 72
     4
 11
14.70000000000001
 21
19.12500000000002
 31
0.0
100
AcDbAttribute
  2
ZUST5
 70
     0
  0
ATTRIB
  5
916
330
8EB
100
AcDbEntity
  8
RAHMEN013
100
AcDbText
 10
19.80000000000002
 20
17.85000000000002
 30
0.0
 40
2.5
  1

 41
2.509367088607594
 72
     5
 11
43.40000000000002
 21
17.85000000000002
 31
0.0
100
AcDbAttribute
  2
ÄND5
 70
     0
  0
ATTRIB
  5
917
330
8EB
100
AcDbEntity
  8
RAHMEN013
100
AcDbText
 10
45.40000000000001
 20
17.85000000000002
 30
0.0
 40
2.5
  1

 50
359.9999999999999
 41
1.276799999999999
 72
     5
 11
56.80000000000001
 21
17.85000000000002
 31
0.0
100
AcDbAttribute
  2
DAT5
 70
     0
  0
ATTRIB
  5
918
330
8EB
100
AcDbEntity
  8
RAHMEN013
100
AcDbText
 10
58.40000000000003
 20
17.85000000000002
 30
0.0
 40
2.5
  1

 41
0.5156435643564321
 72
     5
 11
64.59999999999997
 21
17.85000000000002
 31
0.0
100
AcDbAttribute
  2
NAME5
 70
     0
  0
ATTRIB
  5
919
330
8EB
100
AcDbEntity
  8
RAHMEN013
100
AcDbText
 10
14.70000000000001
 20
14.87500000000002
 30
0.0
 40
2.5
  1

 72
     4
 11
14.70000000000001
 21
14.87500000000002
 31
0.0
100
AcDbAttribute
  2
ZUST6
 70
     0
  0
ATTRIB
  5
91A
330
8EB
100
AcDbEntity
  8
RAHMEN013
100
AcDbText
 10
19.80000000000002
 20
13.60000000000002
 30
0.0
 40
2.5
  1

 41
2.541538461538461
 72
     5
 11
43.40000000000002
 21
13.60000000000002
 31
0.0
100
AcDbAttribute
  2
ÄND6
 70
     0
  0
ATTRIB
  5
91B
330
8EB
100
AcDbEntity
  8
RAHMEN013
100
AcDbText
 10
45.40000000000001
 20
13.60000000000002
 30
0.0
 40
2.5
  1

 50
359.9999999999999
 41
1.294054054054053
 72
     5
 11
56.80000000000001
 21
13.60000000000002
 31
0.0
100
AcDbAttribute
  2
DAT6
 70
     0
  0
ATTRIB
  5
91C
330
8EB
100
AcDbEntity
  8
RAHMEN013
100
AcDbText
 10
58.40000000000003
 20
13.60000000000002
 30
0.0
 40
2.5
  1

 41
0.5207999999999968
 72
     5
 11
64.59999999999997
 21
13.60000000000002
 31
0.0
100
AcDbAttribute
  2
NAME6
 70
     0
  0
ATTRIB
  5
91D
330
8EB
100
AcDbEntity
  8
RAHMEN013
100
AcDbText
 10
14.70000000000001
 20
10.62500000000002
 30
0.0
 40
2.5
  1

 72
     4
 11
14.70000000000001
 21
10.62500000000002
 31
0.0
100
AcDbAttribute
  2
ZUST7
 70
     0
  0
ATTRIB
  5
91E
330
8EB
100
AcDbEntity
  8
RAHMEN013
100
AcDbText
 10
19.80000000000002
 20
9.350000000000022
 30
0.0
 40
2.5
  1

 41
2.509367088607594
 72
     5
 11
43.40000000000002
 21
9.350000000000022
 31
0.0
100
AcDbAttribute
  2
ÄND7
 70
     0
  0
ATTRIB
  5
91F
330
8EB
100
AcDbEntity
  8
RAHMEN013
100
AcDbText
 10
45.40000000000001
 20
9.350000000000029
 30
0.0
 40
2.5
  1

 50
359.9999999999999
 41
1.276799999999999
 72
     5
 11
56.80000000000001
 21
9.350000000000022
 31
0.0
100
AcDbAttribute
  2
DAT7
 70
     0
  0
ATTRIB
  5
920
330
8EB
100
AcDbEntity
  8
RAHMEN013
100
AcDbText
 10
58.40000000000003
 20
9.350000000000029
 30
0.0
 40
2.5
  1

 41
0.5156435643564324
 72
     5
 11
64.59999999999997
 21
9.350000000000029
 31
0.0
100
AcDbAttribute
  2
NAME7
 70
     0
  0
ATTRIB
  5
921
330
8EB
100
AcDbEntity
  8
RAHMEN013
100
AcDbText
 10
14.70000000000001
 20
6.375000000000021
 30
0.0
 40
2.5
  1

 72
     4
 11
14.70000000000001
 21
6.375000000000021
 31
0.0
100
AcDbAttribute
  2
ZUST8
 70
     0
  0
ATTRIB
  5
922
330
8EB
100
AcDbEntity
  8
RAHMEN013
100
AcDbText
 10
19.80000000000002
 20
5.100000000000022
 30
0.0
 40
2.5
  1

 41
2.509367088607594
 72
     5
 11
43.40000000000002
 21
5.100000000000022
 31
0.0
100
AcDbAttribute
  2
ÄND8
 70
     0
  0
ATTRIB
  5
923
330
8EB
100
AcDbEntity
  8
RAHMEN013
100
AcDbText
 10
45.40000000000001
 20
5.100000000000029
 30
0.0
 40
2.5
  1

 50
359.9999999999999
 41
1.276799999999999
 72
     5
 11
56.80000000000001
 21
5.100000000000022
 31
0.0
100
AcDbAttribute
  2
DAT8
 70
     0
  0
ATTRIB
  5
924
330
8EB
100
AcDbEntity
  8
RAHMEN013
100
AcDbText
 10
58.40000000000003
 20
5.100000000000029
 30
0.0
 40
2.5
  1

 41
0.5156435643564324
 72
     5
 11
64.59999999999997
 21
5.100000000000029
 31
0.0
100
AcDbAttribute
  2
NAME8
 70
     0
  0
ATTRIB
  5
925
330
8EB
100
AcDbEntity
  8
RAHMEN035
 62
   151
100
AcDbText
 10
104.4
 20
27.62500000000002
 30
0.0
 40
20.0
  1

 50
15.00000000000003
  7
HELV_N_BOLD
 72
     4
 11
104.4
 21
27.62500000000002
 31
0.0
100
AcDbAttribute
  2
ENTWURF
 70
     0
  0
SEQEND
  5
926
330
8EB
100
AcDbEntity
  8
HILFSLINIEN4
  0
DIMENSION
  5
927
330
2
100
AcDbEntity
  8
MECH_BEM_NORMAL
100
AcDbDimension
  2
*D1
 10
150.0
 20
216.5
 30
0.0
 11
150.0
 21
208.0
 31
0.0
 70
   160
 71
     5
 42
16.5
  3
STANDARD
100
AcDbAlignedDimension
 13
121.5
 23
200.0
 33
0.0
 14
121.5
 24
216.5
 34
0.0
 50
90.0
100
AcDbRotatedDimension
  0
DIMENSION
  5
928
330
2
100
AcDbEntity
  8
MECH_BEM_NORMAL
100
AcDbDimension
  2
*D2
 10
150.0
 20
152.75
 30
0.0
 11
150.0
 21
158.4940476190476
 31
0.0
 70
   160
 71
     5
 42
9.5
  3
STANDARD
100
AcDbAlignedDimension
 13
121.5
 23
143.25
 33
0.0
 14
121.5
 24
152.75
 34
0.0
 50
90.0
100
AcDbRotatedDimension
  0
LINE
  5
929
330
2
100
AcDbEntity
  8
MECH_KONTUR1
100
AcDbLine
 10
94.38
 20
143.25
 30
0.0
 11
94.38
 21
138.9
 31
0.0
  0
LINE
  5
92A
330
2
100
AcDbEntity
  8
MECH_KONTUR1
100
AcDbLine
 10
93.78
 20
143.25
 30
0.0
 11
93.78
 21
138.9
 31
0.0
  0
LINE
  5
92B
330
2
100
AcDbEntity
  8
MECH_MITTELLINIE
100
AcDbLine
 10
94.07999999999999
 20
136.25
 30
0.0
 11
94.07999999999999
 21
146.25
 31
0.0
  0
LINE
  5
92C
330
2
100
AcDbEntity
  8
MECH_KONTUR1
100
AcDbLine
 10
91.84000000000001
 20
143.25
 30
0.0
 11
91.84000000000001
 21
138.9
 31
0.0
  0
LINE
  5
92D
330
2
100
AcDbEntity
  8
MECH_KONTUR1
100
AcDbLine
 10
91.24
 20
143.25
 30
0.0
 11
91.24
 21
138.9
 31
0.0
  0
LINE
  5
92E
330
2
100
AcDbEntity
  8
MECH_MITTELLINIE
100
AcDbLine
 10
91.53999999999999
 20
136.25
 30
0.0
 11
91.53999999999999
 21
146.25
 31
0.0
  0
LINE
  5
92F
330
2
100
AcDbEntity
  8
MECH_MITTELLINIE
100
AcDbLine
 10
89.0
 20
136.25
 30
0.0
 11
89.0
 21
146.25
 31
0.0
  0
LINE
  5
930
330
2
100
AcDbEntity
  8
MECH_KONTUR1
100
AcDbLine
 10
89.29999999999999
 20
143.25
 30
0.0
 11
89.29999999999999
 21
138.9
 31
0.0
  0
LINE
  5
931
330
2
100
AcDbEntity
  8
MECH_KONTUR1
100
AcDbLine
 10
88.7
 20
143.25
 30
0.0
 11
88.7
 21
138.9
 31
0.0
  0
LINE
  5
932
330
2
100
AcDbEntity
  8
MECH_KONTUR1
100
AcDbLine
 10
93.78
 20
138.9
 30
0.0
 11
93.92999999999998
 21
138.7499999999999
 31
0.0
  0
LINE
  5
933
330
2
100
AcDbEntity
  8
MECH_KONTUR1
100
AcDbLine
 10
94.23
 20
138.7499999999999
 30
0.0
 11
94.38
 21
138.9
 31
0.0
  0
LINE
  5
934
330
2
100
AcDbEntity
  8
MECH_KONTUR1
100
AcDbLine
 10
93.92999999999998
 20
138.7499999999999
 30
0.0
 11
94.23
 21
138.7499999999999
 31
0.0
  0
LINE
  5
935
330
2
100
AcDbEntity
  8
MECH_KONTUR1
100
AcDbLine
 10
91.24
 20
138.9
 30
0.0
 11
91.39000000000001
 21
138.7499999999999
 31
0.0
  0
LINE
  5
936
330
2
100
AcDbEntity
  8
MECH_KONTUR1
100
AcDbLine
 10
91.69
 20
138.7499999999999
 30
0.0
 11
91.84000000000001
 21
138.9
 31
0.0
  0
LINE
  5
937
330
2
100
AcDbEntity
  8
MECH_KONTUR1
100
AcDbLine
 10
91.39000000000001
 20
138.7499999999999
 30
0.0
 11
91.69
 21
138.7499999999999
 31
0.0
  0
LINE
  5
938
330
2
100
AcDbEntity
  8
MECH_KONTUR1
100
AcDbLine
 10
89.15
 20
138.7499999999999
 30
0.0
 11
89.29999999999999
 21
138.9
 31
0.0
  0
LINE
  5
939
330
2
100
AcDbEntity
  8
MECH_KONTUR1
100
AcDbLine
 10
88.7
 20
138.9
 30
0.0
 11
88.84999999999999
 21
138.7499999999999
 31
0.0
  0
LINE
  5
93A
330
2
100
AcDbEntity
  8
MECH_KONTUR1
100
AcDbLine
 10
88.84999999999999
 20
138.7499999999999
 30
0.0
 11
89.15
 21
138.7499999999999
 31
0.0
  0
DIMENSION
  5
93B
330
2
100
AcDbEntity
  8
MECH_BEM_NORMAL
100
AcDbDimension
  2
*D3
 10
120.0
 20
186.0
 30
0.0
 11
100.0
 21
186.0
 31
0.0
 70
   160
 71
     5
 42
40.0
  3
STANDARD
100
AcDbAlignedDimension
 13
80.0
 23
205.75
 33
0.0
 14
120.0
 24
205.75
 34
0.0
100
AcDbRotatedDimension
  0
DIMENSION
  5
93C
330
2
100
AcDbEntity
  8
MECH_BEM_NORMAL
100
AcDbDimension
  2
*D4
 10
94.07999999999999
 20
230.0
 30
0.0
 11
103.5740476190476
 21
230.0
 31
0.0
 70
   160
 71
     5
 42
2.540000000000006
  3
STANDARD
100
AcDbAlignedDimension
 13
91.53999999999999
 23
217.5
 33
0.0
 14
94.07999999999999
 24
217.5
 34
0.0
100
AcDbRotatedDimension
  0
DIMENSION
  5
93D
330
2
100
AcDbEntity
  8
MECH_BEM_NORMAL
100
AcDbDimension
  2
*D5
 10
121.5
 20
240.0
 30
0.0
 11
100.0
 21
240.0
 31
0.0
 70
   160
 71
     5
 42
43.0
  3
STANDARD
100
AcDbAlignedDimension
 13
78.5
 23
216.5
 33
0.0
 14
121.5
 24
216.5
 34
0.0
100
AcDbRotatedDimension
  0
LINE
  5
93E
330
2
100
AcDbEntity
  8
MECH_KONTUR1
100
AcDbLine
 10
78.5
 20
144.25
 30
0.0
 11
121.5
 21
144.25
 31
0.0
  0
LINE
  5
93F
330
2
100
AcDbEntity
  8
MECH_KONTUR1
100
AcDbLine
 10
78.5
 20
152.75
 30
0.0
 11
121.5
 21
152.75
 31
0.0
  0
LINE
  5
940
330
2
100
AcDbEntity
  8
MECH_KONTUR1
100
AcDbLine
 10
78.5
 20
143.25
 30
0.0
 11
121.5
 21
143.25
 31
0.0
  0
LINE
  5
941
330
2
100
AcDbEntity
  8
MECH_MITTELLINIE
100
AcDbLine
 10
86.5
 20
215.0
 30
0.0
 11
96.58000000000001
 21
215.0
 31
0.0
  0
LINE
  5
942
330
2
100
AcDbEntity
  8
MECH_KONTUR1
100
AcDbLine
 10
78.5
 20
200.0
 30
0.0
 11
121.5
 21
200.0
 31
0.0
  0
LINE
  5
943
330
2
100
AcDbEntity
  8
MECH_KONTUR1
100
AcDbLine
 10
78.5
 20
216.5
 30
0.0
 11
121.5
 21
216.5
 31
0.0
  0
LINE
  5
944
330
2
100
AcDbEntity
  8
MECH_MITTELLINIE
100
AcDbLine
 10
75.5
 20
208.25
 30
0.0
 11
124.5
 21
208.25
 31
0.0
  0
CIRCLE
  5
945
330
2
100
AcDbEntity
  8
MECH_KONTUR1
100
AcDbCircle
 10
80.29999999999999
 20
205.2
 30
0.0
 40
1.5
  0
LINE
  5
946
330
2
100
AcDbEntity
  8
MECH_KONTUR1
100
AcDbLine
 10
79.02154558140722
 20
204.4154273140233
 30
0.0
 11
81.78366650458817
 21
205.4207571135051
 31
0.0
  0
LINE
  5
947
330
2
100
AcDbEntity
  8
MECH_KONTUR1
100
AcDbLine
 10
78.5
 20
199.8499999999999
 30
0.0
 11
78.5
 21
216.65
 31
0.0
  0
LINE
  5
948
330
2
100
AcDbEntity
  8
MECH_MITTELLINIE
100
AcDbLine
 10
81.5
 20
147.05
 30
0.0
 11
66.5
 21
147.05
 31
0.0
  0
LINE
  5
949
330
2
100
AcDbEntity
  8
MECH_KONTUR1
100
AcDbLine
 10
72.5
 20
148.1499999999999
 30
0.0
 11
65.5
 21
147.8
 31
0.0
  0
LINE
  5
94A
330
2
100
AcDbEntity
  8
MECH_KONTUR1
100
AcDbLine
 10
72.5
 20
145.95
 30
0.0
 11
65.5
 21
146.3
 31
0.0
  0
LINE
  5
94B
330
2
100
AcDbEntity
  8
MECH_KONTUR1
100
AcDbLine
 10
72.5
 20
203.35
 30
0.0
 11
65.5
 21
203.0
 31
0.0
  0
LINE
  5
94C
330
2
100
AcDbEntity
  8
MECH_KONTUR1
100
AcDbLine
 10
72.5
 20
201.15
 30
0.0
 11
65.5
 21
201.5
 31
0.0
  0
LINE
  5
94D
330
2
100
AcDbEntity
  8
MECH_MITTELLINIE
100
AcDbLine
 10
81.5
 20
202.2499999999999
 30
0.0
 11
66.5
 21
202.2499999999999
 31
0.0
  0
POLYLINE
  5
94E
330
2
100
AcDbEntity
  8
MECH_KONTUR1
100
AcDb2dPolyline
 66
     1
 10
0.0
 20
0.0
 30
0.0
  0
VERTEX
  5
94F
330
94E
100
AcDbEntity
  8
MECH_KONTUR1
100
AcDbVertex
100
AcDb2dVertex
 10
65.50000000000003
 20
147.5011932817796
 30
0.0
  0
VERTEX
  5
950
330
94E
100
AcDbEntity
  8
MECH_KONTUR1
100
AcDbVertex
100
AcDb2dVertex
 10
64.23135534947343
 20
147.4087430602457
 30
0.0
 42
0.0062775119741092
  0
VERTEX
  5
951
330
94E
100
AcDbEntity
  8
MECH_KONTUR1
100
AcDbVertex
100
AcDb2dVertex
 10
64.22009735432422
 20
147.4077804231368
 30
0.0
  0
VERTEX
  5
952
330
94E
100
AcDbEntity
  8
MECH_KONTUR1
100
AcDbVertex
100
AcDb2dVertex
 10
62.98626581720403
 20
147.286657790494
 30
0.0
 42
0.0071826673229219
  0
VERTEX
  5
953
330
94E
100
AcDbEntity
  8
MECH_KONTUR1
100
AcDbVertex
100
AcDb2dVertex
 10
62.97341900090724
 20
147.2852100456343
 30
0.0
  0
VERTEX
  5
954
330
94E
100
AcDbEntity
  8
MECH_KONTUR1
100
AcDbVertex
100
AcDb2dVertex
 10
61.74220715051628
 20
147.12851986657
 30
0.0
 42
0.0080727901192959
  0
VERTEX
  5
955
330
94E
100
AcDbEntity
  8
MECH_KONTUR1
100
AcDbVertex
100
AcDb2dVertex
 10
61.72782482591142
 20
147.1264530267332
 30
0.0
  0
VERTEX
  5
956
330
94E
100
AcDbEntity
  8
MECH_KONTUR1
100
AcDbVertex
100
AcDb2dVertex
 10
60.49974545655564
 20
146.9296835735931
 30
0.0
 42
0.0089376934688357
  0
VERTEX
  5
957
330
94E
100
AcDbEntity
  8
MECH_KONTUR1
100
AcDbVertex
100
AcDb2dVertex
 10
60.48390951620286
 20
146.9268550564744
 30
0.0
  0
VERTEX
  5
958
330
94E
100
AcDbEntity
  8
MECH_KONTUR1
100
AcDbVertex
100
AcDb2dVertex
 10
59.25947542218821
 20
146.6854946016039
 30
0.0
 42
0.0097646401835691
  0
VERTEX
  5
959
330
94E
100
AcDbEntity
  8
MECH_KONTUR1
100
AcDbVertex
100
AcDb2dVertex
 10
59.24230221006187
 20
146.6817596259087
 30
0.0
  0
VERTEX
  5
95A
330
94E
100
AcDbEntity
  8
MECH_KONTUR1
100
AcDbVertex
100
AcDb2dVertex
 10
58.02202618569431
 20
146.3912964416535
 30
0.0
 42
0.0105386534299599
  0
VERTEX
  5
95B
330
94E
100
AcDbEntity
  8
MECH_KONTUR1
100
AcDbVertex
100
AcDb2dVertex
 10
58.00367090738207
 20
146.3865164143976
 30
0.0
  0
VERTEX
  5
95C
330
94E
100
AcDbEntity
  8
MECH_KONTUR1
100
AcDbVertex
100
AcDb2dVertex
 10
56.78806574696756
 20
146.0424387731032
 30
0.0
 42
0.0112431669720447
  0
VERTEX
  5
95D
330
94E
100
AcDbEntity
  8
MECH_KONTUR1
100
AcDbVertex
100
AcDb2dVertex
 10
56.76872436126011
 20
146.0364913537501
 30
0.0
  0
VERTEX
  5
95E
330
94E
100
AcDbEntity
  8
MECH_KONTUR1
100
AcDbVertex
100
AcDb2dVertex
 10
55.55830285910457
 20
145.634287527762
 30
0.0
  0
SEQEND
  5
95F
330
94E
100
AcDbEntity
  8
MECH_KONTUR1
  0
POLYLINE
  5
960
330
2
100
AcDbEntity
  8
MECH_KONTUR1
100
AcDb2dPolyline
 66
     1
 10
0.0
 20
0.0
 30
0.0
  0
VERTEX
  5
961
330
960
100
AcDbEntity
  8
MECH_KONTUR1
100
AcDbVertex
100
AcDb2dVertex
 10
65.50000000000003
 20
146.5988067182203
 30
0.0
  0
VERTEX
  5
962
330
960
100
AcDbEntity
  8
MECH_KONTUR1
100
AcDbVertex
100
AcDb2dVertex
 10
64.30240283221838
 20
146.5115339555726
 30
0.0
  0
VERTEX
  5
963
330
960
100
AcDbEntity
  8
MECH_KONTUR1
100
AcDbVertex
100
AcDb2dVertex
 10
63.08062805682311
 20
146.3915949097302
 30
0.0
  0
VERTEX
  5
964
330
960
100
AcDbEntity
  8
MECH_KONTUR1
100
AcDbVertex
100
AcDb2dVertex
 10
61.86303706392855
 20
146.2366381891276
 30
0.0
  0
VERTEX
  5
965
330
960
100
AcDbEntity
  8
MECH_KONTUR1
100
AcDbVertex
100
AcDb2dVertex
 10
60.65007542323847
 20
146.0422909794324
 30
0.0
  0
VERTEX
  5
966
330
960
100
AcDbEntity
  8
MECH_KONTUR1
100
AcDbVertex
100
AcDb2dVertex
 10
59.44215709719632
 20
145.8041861128291
 30
0.0
  0
VERTEX
  5
967
330
960
100
AcDbEntity
  8
MECH_KONTUR1
100
AcDbVertex
100
AcDb2dVertex
 10
58.23965922452252
 20
145.517954674874
 30
0.0
  0
VERTEX
  5
968
330
960
100
AcDbEntity
  8
MECH_KONTUR1
100
AcDbVertex
100
AcDb2dVertex
 10
57.04291889175454
 20
145.1792167323661
 30
0.0
  0
VERTEX
  5
969
330
960
100
AcDbEntity
  8
MECH_KONTUR1
100
AcDbVertex
100
AcDb2dVertex
 10
55.84210120617007
 20
144.7802041019757
 30
0.0
  0
SEQEND
  5
96A
330
960
100
AcDbEntity
  8
MECH_KONTUR1
  0
POLYLINE
  5
96B
330
2
100
AcDbEntity
  8
MECH_KONTUR1
100
AcDb2dPolyline
 66
     1
 10
0.0
 20
0.0
 30
0.0
 70
     4
 75
     6
  0
VERTEX
  5
96C
330
96B
100
AcDbEntity
  8
MECH_KONTUR1
100
AcDbVertex
100
AcDb2dVertex
 10
55.55830285910457
 20
145.634287527762
 30
0.0
 70
    16
  0
VERTEX
  5
96D
330
96B
100
AcDbEntity
  8
MECH_KONTUR1
100
AcDbVertex
100
AcDb2dVertex
 10
55.55830285910457
 20
145.634287527762
 30
0.0
 70
     8
  0
VERTEX
  5
96E
330
96B
100
AcDbEntity
  8
MECH_KONTUR1
100
AcDbVertex
100
AcDb2dVertex
 10
55.60372778184149
 20
145.5601281650519
 30
0.0
 70
     8
  0
VERTEX
  5
96F
330
96B
100
AcDbEntity
  8
MECH_KONTUR1
100
AcDbVertex
100
AcDb2dVertex
 10
55.63930340226619
 20
145.4919092233945
 30
0.0
 70
     8
  0
VERTEX
  5
970
330
96B
100
AcDbEntity
  8
MECH_KONTUR1
100
AcDbVertex
100
AcDb2dVertex
 10
55.66669616310107
 20
145.4291566157412
 30
0.0
 70
     8
  0
VERTEX
  5
971
330
96B
100
AcDbEntity
  8
MECH_KONTUR1
100
AcDbVertex
100
AcDb2dVertex
 10
55.68757250706851
 20
145.3713962550435
 30
0.0
 70
     8
  0
VERTEX
  5
972
330
96B
100
AcDbEntity
  8
MECH_KONTUR1
100
AcDbVertex
100
AcDb2dVertex
 10
55.70359887689089
 20
145.3181540542526
 30
0.0
 70
     8
  0
VERTEX
  5
973
330
96B
100
AcDbEntity
  8
MECH_KONTUR1
100
AcDbVertex
100
AcDb2dVertex
 10
55.71644171529061
 20
145.2689559263199
 30
0.0
 70
     8
  0
VERTEX
  5
974
330
96B
100
AcDbEntity
  8
MECH_KONTUR1
100
AcDbVertex
100
AcDb2dVertex
 10
55.72776746499005
 20
145.2233277841969
 30
0.0
 70
     8
  0
VERTEX
  5
975
330
96B
100
AcDbEntity
  8
MECH_KONTUR1
100
AcDbVertex
100
AcDb2dVertex
 10
55.7392425687116
 20
145.1807955408349
 30
0.0
 70
     8
  0
VERTEX
  5
976
330
96B
100
AcDbEntity
  8
MECH_KONTUR1
100
AcDbVertex
100
AcDb2dVertex
 10
55.75215399249055
 20
145.1406607041042
 30
0.0
 70
     8
  0
VERTEX
  5
977
330
96B
100
AcDbEntity
  8
MECH_KONTUR1
100
AcDbVertex
100
AcDb2dVertex
 10
55.76627079561377
 20
145.1013271615505
 30
0.0
 70
     8
  0
VERTEX
  5
978
330
96B
100
AcDbEntity
  8
MECH_KONTUR1
100
AcDbVertex
100
AcDb2dVertex
 10
55.78098256068103
 20
145.0609743956388
 30
0.0
 70
     8
  0
VERTEX
  5
979
330
96B
100
AcDbEntity
  8
MECH_KONTUR1
100
AcDbVertex
100
AcDb2dVertex
 10
55.7956788702921
 20
145.0177818888338
 30
0.0
 70
     8
  0
VERTEX
  5
97A
330
96B
100
AcDbEntity
  8
MECH_KONTUR1
100
AcDbVertex
100
AcDb2dVertex
 10
55.80974930704678
 20
144.9699291236002
 30
0.0
 70
     8
  0
VERTEX
  5
97B
330
96B
100
AcDbEntity
  8
MECH_KONTUR1
100
AcDbVertex
100
AcDb2dVertex
 10
55.82258345354482
 20
144.9155955824028
 30
0.0
 70
     8
  0
VERTEX
  5
97C
330
96B
100
AcDbEntity
  8
MECH_KONTUR1
100
AcDbVertex
100
AcDb2dVertex
 10
55.83357089238599
 20
144.8529607477064
 30
0.0
 70
     8
  0
VERTEX
  5
97D
330
96B
100
AcDbEntity
  8
MECH_KONTUR1
100
AcDbVertex
100
AcDb2dVertex
 10
55.84210120617007
 20
144.7802041019757
 30
0.0
 70
     8
  0
VERTEX
  5
97E
330
96B
100
AcDbEntity
  8
MECH_KONTUR1
100
AcDbVertex
100
AcDb2dVertex
 10
55.69404967190587
 20
145.4281872550881
 30
0.0
 70
    16
  0
VERTEX
  5
97F
330
96B
100
AcDbEntity
  8
MECH_KONTUR1
100
AcDbVertex
100
AcDb2dVertex
 10
55.71987407010363
 20
145.1528295492363
 30
0.0
 70
    16
  0
VERTEX
  5
980
330
96B
100
AcDbEntity
  8
MECH_KONTUR1
100
AcDbVertex
100
AcDb2dVertex
 10
55.82317246273328
 20
144.9893358097789
 30
0.0
 70
    16
  0
VERTEX
  5
981
330
96B
100
AcDbEntity
  8
MECH_KONTUR1
100
AcDbVertex
100
AcDb2dVertex
 10
55.84210120617007
 20
144.7802041019757
 30
0.0
 70
    16
  0
SEQEND
  5
982
330
96B
100
AcDbEntity
  8
MECH_KONTUR1
  0
LINE
  5
983
330
2
100
AcDbEntity
  8
MECH_KONTUR1
100
AcDbLine
 10
65.50000000000001
 20
146.3
 30
0.0
 11
65.50000000000001
 21
147.8
 31
0.0
  0
POLYLINE
  5
984
330
2
100
AcDbEntity
  8
MECH_KONTUR1
100
AcDb2dPolyline
 66
     1
 10
0.0
 20
0.0
 30
0.0
  0
VERTEX
  5
985
330
984
100
AcDbEntity
  8
MECH_KONTUR1
100
AcDbVertex
100
AcDb2dVertex
 10
65.50000000000003
 20
202.7011932817796
 30
0.0
  0
VERTEX
  5
986
330
984
100
AcDbEntity
  8
MECH_KONTUR1
100
AcDbVertex
100
AcDb2dVertex
 10
64.23135534947343
 20
202.6087430602457
 30
0.0
 42
0.0062775119741092
  0
VERTEX
  5
987
330
984
100
AcDbEntity
  8
MECH_KONTUR1
100
AcDbVertex
100
AcDb2dVertex
 10
64.22009735432422
 20
202.6077804231368
 30
0.0
  0
VERTEX
  5
988
330
984
100
AcDbEntity
  8
MECH_KONTUR1
100
AcDbVertex
100
AcDb2dVertex
 10
62.98626581720403
 20
202.486657790494
 30
0.0
 42
0.0071826673229219
  0
VERTEX
  5
989
330
984
100
AcDbEntity
  8
MECH_KONTUR1
100
AcDbVertex
100
AcDb2dVertex
 10
62.97341900090724
 20
202.4852100456342
 30
0.0
  0
VERTEX
  5
98A
330
984
100
AcDbEntity
  8
MECH_KONTUR1
100
AcDbVertex
100
AcDb2dVertex
 10
61.74220715051628
 20
202.32851986657
 30
0.0
 42
0.0080727901192959
  0
VERTEX
  5
98B
330
984
100
AcDbEntity
  8
MECH_KONTUR1
100
AcDbVertex
100
AcDb2dVertex
 10
61.72782482591142
 20
202.3264530267332
 30
0.0
  0
VERTEX
  5
98C
330
984
100
AcDbEntity
  8
MECH_KONTUR1
100
AcDbVertex
100
AcDb2dVertex
 10
60.49974545655564
 20
202.1296835735931
 30
0.0
 42
0.0089376934688357
  0
VERTEX
  5
98D
330
984
100
AcDbEntity
  8
MECH_KONTUR1
100
AcDbVertex
100
AcDb2dVertex
 10
60.48390951620286
 20
202.1268550564744
 30
0.0
  0
VERTEX
  5
98E
330
984
100
AcDbEntity
  8
MECH_KONTUR1
100
AcDbVertex
100
AcDb2dVertex
 10
59.25947542218821
 20
201.8854946016039
 30
0.0
 42
0.0097646401835691
  0
VERTEX
  5
98F
330
984
100
AcDbEntity
  8
MECH_KONTUR1
100
AcDbVertex
100
AcDb2dVertex
 10
59.24230221006187
 20
201.8817596259087
 30
0.0
  0
VERTEX
  5
990
330
984
100
AcDbEntity
  8
MECH_KONTUR1
100
AcDbVertex
100
AcDb2dVertex
 10
58.02202618569431
 20
201.5912964416535
 30
0.0
 42
0.0105386534299599
  0
VERTEX
  5
991
330
984
100
AcDbEntity
  8
MECH_KONTUR1
100
AcDbVertex
100
AcDb2dVertex
 10
58.00367090738207
 20
201.5865164143976
 30
0.0
  0
VERTEX
  5
992
330
984
100
AcDbEntity
  8
MECH_KONTUR1
100
AcDbVertex
100
AcDb2dVertex
 10
56.78806574696756
 20
201.2424387731032
 30
0.0
 42
0.0112431669720447
  0
VERTEX
  5
993
330
984
100
AcDbEntity
  8
MECH_KONTUR1
100
AcDbVertex
100
AcDb2dVertex
 10
56.76872436126011
 20
201.2364913537501
 30
0.0
  0
VERTEX
  5
994
330
984
100
AcDbEntity
  8
MECH_KONTUR1
100
AcDbVertex
100
AcDb2dVertex
 10
55.55830285910457
 20
200.834287527762
 30
0.0
  0
SEQEND
  5
995
330
984
100
AcDbEntity
  8
MECH_KONTUR1
  0
POLYLINE
  5
996
330
2
100
AcDbEntity
  8
MECH_KONTUR1
100
AcDb2dPolyline
 66
     1
 10
0.0
 20
0.0
 30
0.0
  0
VERTEX
  5
997
330
996
100
AcDbEntity
  8
MECH_KONTUR1
100
AcDbVertex
100
AcDb2dVertex
 10
65.50000000000003
 20
201.7988067182204
 30
0.0
  0
VERTEX
  5
998
330
996
100
AcDbEntity
  8
MECH_KONTUR1
100
AcDbVertex
100
AcDb2dVertex
 10
64.30240283221838
 20
201.7115339555726
 30
0.0
  0
VERTEX
  5
999
330
996
100
AcDbEntity
  8
MECH_KONTUR1
100
AcDbVertex
100
AcDb2dVertex
 10
63.08062805682311
 20
201.5915949097302
 30
0.0
  0
VERTEX
  5
99A
330
996
100
AcDbEntity
  8
MECH_KONTUR1
100
AcDbVertex
100
AcDb2dVertex
 10
61.86303706392855
 20
201.4366381891276
 30
0.0
  0
VERTEX
  5
99B
330
996
100
AcDbEntity
  8
MECH_KONTUR1
100
AcDbVertex
100
AcDb2dVertex
 10
60.65007542323847
 20
201.2422909794324
 30
0.0
  0
VERTEX
  5
99C
330
996
100
AcDbEntity
  8
MECH_KONTUR1
100
AcDbVertex
100
AcDb2dVertex
 10
59.44215709719632
 20
201.0041861128291
 30
0.0
  0
VERTEX
  5
99D
330
996
100
AcDbEntity
  8
MECH_KONTUR1
100
AcDbVertex
100
AcDb2dVertex
 10
58.23965922452252
 20
200.717954674874
 30
0.0
  0
VERTEX
  5
99E
330
996
100
AcDbEntity
  8
MECH_KONTUR1
100
AcDbVertex
100
AcDb2dVertex
 10
57.04291889175454
 20
200.3792167323661
 30
0.0
  0
VERTEX
  5
99F
330
996
100
AcDbEntity
  8
MECH_KONTUR1
100
AcDbVertex
100
AcDb2dVertex
 10
55.84210120617007
 20
199.9802041019757
 30
0.0
  0
SEQEND
  5
9A0
330
996
100
AcDbEntity
  8
MECH_KONTUR1
  0
POLYLINE
  5
9A1
330
2
100
AcDbEntity
  8
MECH_KONTUR1
100
AcDb2dPolyline
 66
     1
 10
0.0
 20
0.0
 30
0.0
 70
     4
 75
     6
  0
VERTEX
  5
9A2
330
9A1
100
AcDbEntity
  8
MECH_KONTUR1
100
AcDbVertex
100
AcDb2dVertex
 10
55.55830285910457
 20
200.834287527762
 30
0.0
 70
    16
  0
VERTEX
  5
9A3
330
9A1
100
AcDbEntity
  8
MECH_KONTUR1
100
AcDbVertex
100
AcDb2dVertex
 10
55.55830285910457
 20
200.834287527762
 30
0.0
 70
     8
  0
VERTEX
  5
9A4
330
9A1
100
AcDbEntity
  8
MECH_KONTUR1
100
AcDbVertex
100
AcDb2dVertex
 10
55.60372778184149
 20
200.7601281650519
 30
0.0
 70
     8
  0
VERTEX
  5
9A5
330
9A1
100
AcDbEntity
  8
MECH_KONTUR1
100
AcDbVertex
100
AcDb2dVertex
 10
55.63930340226619
 20
200.6919092233945
 30
0.0
 70
     8
  0
VERTEX
  5
9A6
330
9A1
100
AcDbEntity
  8
MECH_KONTUR1
100
AcDbVertex
100
AcDb2dVertex
 10
55.66669616310107
 20
200.6291566157412
 30
0.0
 70
     8
  0
VERTEX
  5
9A7
330
9A1
100
AcDbEntity
  8
MECH_KONTUR1
100
AcDbVertex
100
AcDb2dVertex
 10
55.68757250706851
 20
200.5713962550435
 30
0.0
 70
     8
  0
VERTEX
  5
9A8
330
9A1
100
AcDbEntity
  8
MECH_KONTUR1
100
AcDbVertex
100
AcDb2dVertex
 10
55.7035988768909
 20
200.5181540542526
 30
0.0
 70
     8
  0
VERTEX
  5
9A9
330
9A1
100
AcDbEntity
  8
MECH_KONTUR1
100
AcDbVertex
100
AcDb2dVertex
 10
55.71644171529062
 20
200.46895592632
 30
0.0
 70
     8
  0
VERTEX
  5
9AA
330
9A1
100
AcDbEntity
  8
MECH_KONTUR1
100
AcDbVertex
100
AcDb2dVertex
 10
55.72776746499005
 20
200.423327784197
 30
0.0
 70
     8
  0
VERTEX
  5
9AB
330
9A1
100
AcDbEntity
  8
MECH_KONTUR1
100
AcDbVertex
100
AcDb2dVertex
 10
55.7392425687116
 20
200.3807955408349
 30
0.0
 70
     8
  0
VERTEX
  5
9AC
330
9A1
100
AcDbEntity
  8
MECH_KONTUR1
100
AcDbVertex
100
AcDb2dVertex
 10
55.75215399249055
 20
200.3406607041042
 30
0.0
 70
     8
  0
VERTEX
  5
9AD
330
9A1
100
AcDbEntity
  8
MECH_KONTUR1
100
AcDbVertex
100
AcDb2dVertex
 10
55.76627079561376
 20
200.3013271615505
 30
0.0
 70
     8
  0
VERTEX
  5
9AE
330
9A1
100
AcDbEntity
  8
MECH_KONTUR1
100
AcDbVertex
100
AcDb2dVertex
 10
55.78098256068102
 20
200.2609743956388
 30
0.0
 70
     8
  0
VERTEX
  5
9AF
330
9A1
100
AcDbEntity
  8
MECH_KONTUR1
100
AcDbVertex
100
AcDb2dVertex
 10
55.7956788702921
 20
200.2177818888338
 30
0.0
 70
     8
  0
VERTEX
  5
9B0
330
9A1
100
AcDbEntity
  8
MECH_KONTUR1
100
AcDbVertex
100
AcDb2dVertex
 10
55.80974930704678
 20
200.1699291236002
 30
0.0
 70
     8
  0
VERTEX
  5
9B1
330
9A1
100
AcDbEntity
  8
MECH_KONTUR1
100
AcDbVertex
100
AcDb2dVertex
 10
55.82258345354482
 20
200.1155955824028
 30
0.0
 70
     8
  0
VERTEX
  5
9B2
330
9A1
100
AcDbEntity
  8
MECH_KONTUR1
100
AcDbVertex
100
AcDb2dVertex
 10
55.83357089238599
 20
200.0529607477063
 30
0.0
 70
     8
  0
VERTEX
  5
9B3
330
9A1
100
AcDbEntity
  8
MECH_KONTUR1
100
AcDbVertex
100
AcDb2dVertex
 10
55.84210120617007
 20
199.9802041019757
 30
0.0
 70
     8
  0
VERTEX
  5
9B4
330
9A1
100
AcDbEntity
  8
MECH_KONTUR1
100
AcDbVertex
100
AcDb2dVertex
 10
55.69404967190587
 20
200.6281872550881
 30
0.0
 70
    16
  0
VERTEX
  5
9B5
330
9A1
100
AcDbEntity
  8
MECH_KONTUR1
100
AcDbVertex
100
AcDb2dVertex
 10
55.71987407010363
 20
200.3528295492363
 30
0.0
 70
    16
  0
VERTEX
  5
9B6
330
9A1
100
AcDbEntity
  8
MECH_KONTUR1
100
AcDbVertex
100
AcDb2dVertex
 10
55.82317246273328
 20
200.1893358097789
 30
0.0
 70
    16
  0
VERTEX
  5
9B7
330
9A1
100
AcDbEntity
  8
MECH_KONTUR1
100
AcDbVertex
100
AcDb2dVertex
 10
55.84210120617007
 20
199.9802041019757
 30
0.0
 70
    16
  0
SEQEND
  5
9B8
330
9A1
100
AcDbEntity
  8
MECH_KONTUR1
  0
LINE
  5
9B9
330
2
100
AcDbEntity
  8
MECH_KONTUR1
100
AcDbLine
 10
65.50000000000001
 20
201.5
 30
0.0
 11
65.50000000000001
 21
203.0
 31
0.0
  0
LINE
  5
9BA
330
2
100
AcDbEntity
  8
MECH_KONTUR1
100
AcDbLine
 10
76.5
 20
149.4499999999999
 30
0.0
 11
72.5
 21
148.1499999999999
 31
0.0
  0
LINE
  5
9BB
330
2
100
AcDbEntity
  8
MECH_KONTUR1
100
AcDbLine
 10
76.5
 20
144.65
 30
0.0
 11
72.5
 21
145.95
 31
0.0
  0
LINE
  5
9BC
330
2
100
AcDbEntity
  8
MECH_KONTUR1
100
AcDbLine
 10
72.5
 20
145.95
 30
0.0
 11
72.5
 21
148.1499999999999
 31
0.0
  0
LINE
  5
9BD
330
2
100
AcDbEntity
  8
MECH_KONTUR1
100
AcDbLine
 10
76.5
 20
144.65
 30
0.0
 11
76.5
 21
149.4499999999999
 31
0.0
  0
LINE
  5
9BE
330
2
100
AcDbEntity
  8
MECH_KONTUR1
100
AcDbLine
 10
78.5
 20
149.4499999999999
 30
0.0
 11
76.5
 21
149.4499999999999
 31
0.0
  0
LINE
  5
9BF
330
2
100
AcDbEntity
  8
MECH_KONTUR1
100
AcDbLine
 10
78.5
 20
144.65
 30
0.0
 11
76.5
 21
144.65
 31
0.0
  0
LINE
  5
9C0
330
2
100
AcDbEntity
  8
MECH_KONTUR1
100
AcDbLine
 10
78.5
 20
152.75
 30
0.0
 11
78.5
 21
143.25
 31
0.0
  0
LINE
  5
9C1
330
2
100
AcDbEntity
  8
MECH_KONTUR1
100
AcDbLine
 10
76.5
 20
204.6499999999999
 30
0.0
 11
72.5
 21
203.35
 31
0.0
  0
LINE
  5
9C2
330
2
100
AcDbEntity
  8
MECH_KONTUR1
100
AcDbLine
 10
76.5
 20
199.8499999999999
 30
0.0
 11
72.5
 21
201.15
 31
0.0
  0
LINE
  5
9C3
330
2
100
AcDbEntity
  8
MECH_KONTUR1
100
AcDbLine
 10
72.5
 20
201.15
 30
0.0
 11
72.5
 21
203.35
 31
0.0
  0
LINE
  5
9C4
330
2
100
AcDbEntity
  8
MECH_KONTUR1
100
AcDbLine
 10
76.5
 20
199.8499999999999
 30
0.0
 11
76.5
 21
204.6499999999999
 31
0.0
  0
LINE
  5
9C5
330
2
100
AcDbEntity
  8
MECH_KONTUR1
100
AcDbLine
 10
78.5
 20
204.6499999999999
 30
0.0
 11
76.5
 21
204.6499999999999
 31
0.0
  0
LINE
  5
9C6
330
2
100
AcDbEntity
  8
MECH_KONTUR1
100
AcDbLine
 10
78.5
 20
199.8499999999999
 30
0.0
 11
76.5
 21
199.8499999999999
 31
0.0
  0
LINE
  5
9C7
330
2
100
AcDbEntity
  8
MECH_KONTUR1
100
AcDbLine
 10
72.5
 20
215.35
 30
0.0
 11
65.5
 21
215.0
 31
0.0
  0
LINE
  5
9C8
330
2
100
AcDbEntity
  8
MECH_MITTELLINIE
100
AcDbLine
 10
81.5
 20
214.25
 30
0.0
 11
66.5
 21
214.25
 31
0.0
  0
LINE
  5
9C9
330
2
100
AcDbEntity
  8
MECH_KONTUR1
100
AcDbLine
 10
72.5
 20
213.1499999999999
 30
0.0
 11
65.5
 21
213.5
 31
0.0
  0
POLYLINE
  5
9CA
330
2
100
AcDbEntity
  8
MECH_KONTUR1
100
AcDb2dPolyline
 66
     1
 10
0.0
 20
0.0
 30
0.0
  0
VERTEX
  5
9CB
330
9CA
100
AcDbEntity
  8
MECH_KONTUR1
100
AcDbVertex
100
AcDb2dVertex
 10
65.50000000000003
 20
213.7988067182203
 30
0.0
  0
VERTEX
  5
9CC
330
9CA
100
AcDbEntity
  8
MECH_KONTUR1
100
AcDbVertex
100
AcDb2dVertex
 10
64.30240283221838
 20
213.7115339555726
 30
0.0
  0
VERTEX
  5
9CD
330
9CA
100
AcDbEntity
  8
MECH_KONTUR1
100
AcDbVertex
100
AcDb2dVertex
 10
63.08062805682311
 20
213.5915949097302
 30
0.0
  0
VERTEX
  5
9CE
330
9CA
100
AcDbEntity
  8
MECH_KONTUR1
100
AcDbVertex
100
AcDb2dVertex
 10
61.86303706392855
 20
213.4366381891276
 30
0.0
  0
VERTEX
  5
9CF
330
9CA
100
AcDbEntity
  8
MECH_KONTUR1
100
AcDbVertex
100
AcDb2dVertex
 10
60.65007542323847
 20
213.2422909794324
 30
0.0
  0
VERTEX
  5
9D0
330
9CA
100
AcDbEntity
  8
MECH_KONTUR1
100
AcDbVertex
100
AcDb2dVertex
 10
59.44215709719632
 20
213.0041861128292
 30
0.0
  0
VERTEX
  5
9D1
330
9CA
100
AcDbEntity
  8
MECH_KONTUR1
100
AcDbVertex
100
AcDb2dVertex
 10
58.23965922452252
 20
212.717954674874
 30
0.0
  0
VERTEX
  5
9D2
330
9CA
100
AcDbEntity
  8
MECH_KONTUR1
100
AcDbVertex
100
AcDb2dVertex
 10
57.04291889175454
 20
212.3792167323661
 30
0.0
  0
VERTEX
  5
9D3
330
9CA
100
AcDbEntity
  8
MECH_KONTUR1
100
AcDbVertex
100
AcDb2dVertex
 10
55.84210120617007
 20
211.9802041019757
 30
0.0
  0
SEQEND
  5
9D4
330
9CA
100
AcDbEntity
  8
MECH_KONTUR1
  0
POLYLINE
  5
9D5
330
2
100
AcDbEntity
  8
MECH_KONTUR1
100
AcDb2dPolyline
 66
     1
 10
0.0
 20
0.0
 30
0.0
  0
VERTEX
  5
9D6
330
9D5
100
AcDbEntity
  8
MECH_KONTUR1
100
AcDbVertex
100
AcDb2dVertex
 10
65.50000000000003
 20
214.7011932817796
 30
0.0
  0
VERTEX
  5
9D7
330
9D5
100
AcDbEntity
  8
MECH_KONTUR1
100
AcDbVertex
100
AcDb2dVertex
 10
64.23135534947343
 20
214.6087430602457
 30
0.0
 42
0.0062775119741092
  0
VERTEX
  5
9D8
330
9D5
100
AcDbEntity
  8
MECH_KONTUR1
100
AcDbVertex
100
AcDb2dVertex
 10
64.22009735432422
 20
214.6077804231369
 30
0.0
  0
VERTEX
  5
9D9
330
9D5
100
AcDbEntity
  8
MECH_KONTUR1
100
AcDbVertex
100
AcDb2dVertex
 10
62.98626581720403
 20
214.486657790494
 30
0.0
 42
0.0071826673229219
  0
VERTEX
  5
9DA
330
9D5
100
AcDbEntity
  8
MECH_KONTUR1
100
AcDbVertex
100
AcDb2dVertex
 10
62.97341900090724
 20
214.4852100456343
 30
0.0
  0
VERTEX
  5
9DB
330
9D5
100
AcDbEntity
  8
MECH_KONTUR1
100
AcDbVertex
100
AcDb2dVertex
 10
61.74220715051628
 20
214.32851986657
 30
0.0
 42
0.0080727901192959
  0
VERTEX
  5
9DC
330
9D5
100
AcDbEntity
  8
MECH_KONTUR1
100
AcDbVertex
100
AcDb2dVertex
 10
61.72782482591142
 20
214.3264530267332
 30
0.0
  0
VERTEX
  5
9DD
330
9D5
100
AcDbEntity
  8
MECH_KONTUR1
100
AcDbVertex
100
AcDb2dVertex
 10
60.49974545655564
 20
214.1296835735931
 30
0.0
 42
0.0089376934688357
  0
VERTEX
  5
9DE
330
9D5
100
AcDbEntity
  8
MECH_KONTUR1
100
AcDbVertex
100
AcDb2dVertex
 10
60.48390951620286
 20
214.1268550564744
 30
0.0
  0
VERTEX
  5
9DF
330
9D5
100
AcDbEntity
  8
MECH_KONTUR1
100
AcDbVertex
100
AcDb2dVertex
 10
59.25947542218821
 20
213.8854946016039
 30
0.0
 42
0.0097646401835691
  0
VERTEX
  5
9E0
330
9D5
100
AcDbEntity
  8
MECH_KONTUR1
100
AcDbVertex
100
AcDb2dVertex
 10
59.24230221006187
 20
213.8817596259087
 30
0.0
  0
VERTEX
  5
9E1
330
9D5
100
AcDbEntity
  8
MECH_KONTUR1
100
AcDbVertex
100
AcDb2dVertex
 10
58.02202618569431
 20
213.5912964416535
 30
0.0
 42
0.0105386534299599
  0
VERTEX
  5
9E2
330
9D5
100
AcDbEntity
  8
MECH_KONTUR1
100
AcDbVertex
100
AcDb2dVertex
 10
58.00367090738207
 20
213.5865164143976
 30
0.0
  0
VERTEX
  5
9E3
330
9D5
100
AcDbEntity
  8
MECH_KONTUR1
100
AcDbVertex
100
AcDb2dVertex
 10
56.78806574696756
 20
213.2424387731032
 30
0.0
 42
0.0112431669720447
  0
VERTEX
  5
9E4
330
9D5
100
AcDbEntity
  8
MECH_KONTUR1
100
AcDbVertex
100
AcDb2dVertex
 10
56.76872436126011
 20
213.2364913537501
 30
0.0
  0
VERTEX
  5
9E5
330
9D5
100
AcDbEntity
  8
MECH_KONTUR1
100
AcDbVertex
100
AcDb2dVertex
 10
55.55830285910457
 20
212.834287527762
 30
0.0
  0
SEQEND
  5
9E6
330
9D5
100
AcDbEntity
  8
MECH_KONTUR1
  0
POLYLINE
  5
9E7
330
2
100
AcDbEntity
  8
MECH_KONTUR1
100
AcDb2dPolyline
 66
     1
 10
0.0
 20
0.0
 30
0.0
 70
     4
 75
     6
  0
VERTEX
  5
9E8
330
9E7
100
AcDbEntity
  8
MECH_KONTUR1
100
AcDbVertex
100
AcDb2dVertex
 10
55.55830285910457
 20
212.834287527762
 30
0.0
 70
    16
  0
VERTEX
  5
9E9
330
9E7
100
AcDbEntity
  8
MECH_KONTUR1
100
AcDbVertex
100
AcDb2dVertex
 10
55.55830285910457
 20
212.834287527762
 30
0.0
 70
     8
  0
VERTEX
  5
9EA
330
9E7
100
AcDbEntity
  8
MECH_KONTUR1
100
AcDbVertex
100
AcDb2dVertex
 10
55.60372778184149
 20
212.7601281650519
 30
0.0
 70
     8
  0
VERTEX
  5
9EB
330
9E7
100
AcDbEntity
  8
MECH_KONTUR1
100
AcDbVertex
100
AcDb2dVertex
 10
55.63930340226619
 20
212.6919092233945
 30
0.0
 70
     8
  0
VERTEX
  5
9EC
330
9E7
100
AcDbEntity
  8
MECH_KONTUR1
100
AcDbVertex
100
AcDb2dVertex
 10
55.66669616310107
 20
212.6291566157413
 30
0.0
 70
     8
  0
VERTEX
  5
9ED
330
9E7
100
AcDbEntity
  8
MECH_KONTUR1
100
AcDbVertex
100
AcDb2dVertex
 10
55.68757250706851
 20
212.5713962550435
 30
0.0
 70
     8
  0
VERTEX
  5
9EE
330
9E7
100
AcDbEntity
  8
MECH_KONTUR1
100
AcDbVertex
100
AcDb2dVertex
 10
55.7035988768909
 20
212.5181540542526
 30
0.0
 70
     8
  0
VERTEX
  5
9EF
330
9E7
100
AcDbEntity
  8
MECH_KONTUR1
100
AcDbVertex
100
AcDb2dVertex
 10
55.71644171529062
 20
212.46895592632
 30
0.0
 70
     8
  0
VERTEX
  5
9F0
330
9E7
100
AcDbEntity
  8
MECH_KONTUR1
100
AcDbVertex
100
AcDb2dVertex
 10
55.72776746499005
 20
212.423327784197
 30
0.0
 70
     8
  0
VERTEX
  5
9F1
330
9E7
100
AcDbEntity
  8
MECH_KONTUR1
100
AcDbVertex
100
AcDb2dVertex
 10
55.7392425687116
 20
212.3807955408349
 30
0.0
 70
     8
  0
VERTEX
  5
9F2
330
9E7
100
AcDbEntity
  8
MECH_KONTUR1
100
AcDbVertex
100
AcDb2dVertex
 10
55.75215399249055
 20
212.3406607041042
 30
0.0
 70
     8
  0
VERTEX
  5
9F3
330
9E7
100
AcDbEntity
  8
MECH_KONTUR1
100
AcDbVertex
100
AcDb2dVertex
 10
55.76627079561376
 20
212.3013271615505
 30
0.0
 70
     8
  0
VERTEX
  5
9F4
330
9E7
100
AcDbEntity
  8
MECH_KONTUR1
100
AcDbVertex
100
AcDb2dVertex
 10
55.78098256068102
 20
212.2609743956388
 30
0.0
 70
     8
  0
VERTEX
  5
9F5
330
9E7
100
AcDbEntity
  8
MECH_KONTUR1
100
AcDbVertex
100
AcDb2dVertex
 10
55.7956788702921
 20
212.2177818888338
 30
0.0
 70
     8
  0
VERTEX
  5
9F6
330
9E7
100
AcDbEntity
  8
MECH_KONTUR1
100
AcDbVertex
100
AcDb2dVertex
 10
55.80974930704678
 20
212.1699291236001
 30
0.0
 70
     8
  0
VERTEX
  5
9F7
330
9E7
100
AcDbEntity
  8
MECH_KONTUR1
100
AcDbVertex
100
AcDb2dVertex
 10
55.82258345354482
 20
212.1155955824028
 30
0.0
 70
     8
  0
VERTEX
  5
9F8
330
9E7
100
AcDbEntity
  8
MECH_KONTUR1
100
AcDbVertex
100
AcDb2dVertex
 10
55.83357089238599
 20
212.0529607477064
 30
0.0
 70
     8
  0
VERTEX
  5
9F9
330
9E7
100
AcDbEntity
  8
MECH_KONTUR1
100
AcDbVertex
100
AcDb2dVertex
 10
55.84210120617007
 20
211.9802041019757
 30
0.0
 70
     8
  0
VERTEX
  5
9FA
330
9E7
100
AcDbEntity
  8
MECH_KONTUR1
100
AcDbVertex
100
AcDb2dVertex
 10
55.69404967190587
 20
212.6281872550881
 30
0.0
 70
    16
  0
VERTEX
  5
9FB
330
9E7
100
AcDbEntity
  8
MECH_KONTUR1
100
AcDbVertex
100
AcDb2dVertex
 10
55.71987407010363
 20
212.3528295492363
 30
0.0
 70
    16
  0
VERTEX
  5
9FC
330
9E7
100
AcDbEntity
  8
MECH_KONTUR1
100
AcDbVertex
100
AcDb2dVertex
 10
55.82317246273328
 20
212.1893358097789
 30
0.0
 70
    16
  0
VERTEX
  5
9FD
330
9E7
100
AcDbEntity
  8
MECH_KONTUR1
100
AcDbVertex
100
AcDb2dVertex
 10
55.84210120617007
 20
211.9802041019757
 30
0.0
 70
    16
  0
SEQEND
  5
9FE
330
9E7
100
AcDbEntity
  8
MECH_KONTUR1
  0
LINE
  5
9FF
330
2
100
AcDbEntity
  8
MECH_KONTUR1
100
AcDbLine
 10
65.50000000000001
 20
213.5
 30
0.0
 11
65.50000000000001
 21
215.0
 31
0.0
  0
DIMENSION
  5
A00
330
2
100
AcDbEntity
  8
MECH_BEM_NORMAL
100
AcDbDimension
  2
*D6
 10
89.0
 20
235.0
 30
0.0
 11
83.75
 21
235.0
 31
0.0
 70
   160
 71
     5
 42
10.5
  3
STANDARD
100
AcDbAlignedDimension
 13
78.5
 23
216.5
 33
0.0
 14
89.0
 24
217.5
 34
0.0
100
AcDbRotatedDimension
  0
LINE
  5
A01
330
2
100
AcDbEntity
  8
MECH_KONTUR1
100
AcDbLine
 10
76.5
 20
216.65
 30
0.0
 11
72.5
 21
215.35
 31
0.0
  0
LINE
  5
A02
330
2
100
AcDbEntity
  8
MECH_KONTUR1
100
AcDbLine
 10
76.5
 20
211.85
 30
0.0
 11
72.5
 21
213.1499999999999
 31
0.0
  0
LINE
  5
A03
330
2
100
AcDbEntity
  8
MECH_KONTUR1
100
AcDbLine
 10
72.5
 20
213.1499999999999
 30
0.0
 11
72.5
 21
215.35
 31
0.0
  0
LINE
  5
A04
330
2
100
AcDbEntity
  8
MECH_KONTUR1
100
AcDbLine
 10
78.5
 20
216.65
 30
0.0
 11
76.5
 21
216.65
 31
0.0
  0
ARC
  5
A05
330
2
100
AcDbEntity
  8
MECH_SICHTLINIE
100
AcDbCircle
 10
80.0
 20
208.25
 30
0.0
 40
1.0
100
AcDbArc
 50
69.99999999999997
 51
339.9999999999999
  0
LINE
  5
A06
330
2
100
AcDbEntity
  8
MECH_MITTELLINIE
100
AcDbLine
 10
80.0
 20
205.75
 30
0.0
 11
80.0
 21
210.7499999999999
 31
0.0
  0
CIRCLE
  5
A07
330
2
100
AcDbEntity
  8
MECH_KONTUR1
100
AcDbCircle
 10
80.0
 20
208.25
 30
0.0
 40
0.7850000000000001
  0
LINE
  5
A08
330
2
100
AcDbEntity
  8
MECH_KONTUR1
100
AcDbLine
 10
78.81633349541182
 20
204.9792428864948
 30
0.0
 11
81.57845441859278
 21
205.9845726859766
 31
0.0
  0
LINE
  5
A09
330
2
100
AcDbEntity
  8
MECH_KONTUR1
100
AcDbLine
 10
78.5
 20
211.85
 30
0.0
 11
76.5
 21
211.85
 31
0.0
  0
LINE
  5
A0A
330
2
100
AcDbEntity
  8
MECH_KONTUR1
100
AcDbLine
 10
76.5
 20
211.85
 30
0.0
 11
76.5
 21
216.65
 31
0.0
  0
CIRCLE
  5
A0B
330
2
100
AcDbEntity
  8
MECH_KONTUR1
100
AcDbCircle
 10
89.0
 20
215.0
 30
0.0
 40
0.95
  0
CIRCLE
  5
A0C
330
2
100
AcDbEntity
  8
MECH_KONTUR1
100
AcDbCircle
 10
94.07999999999999
 20
215.0
 30
0.0
 40
0.3
  0
CIRCLE
  5
A0D
330
2
100
AcDbEntity
  8
MECH_KONTUR1
100
AcDbCircle
 10
94.07999999999999
 20
215.0
 30
0.0
 40
0.95
  0
LINE
  5
A0E
330
2
100
AcDbEntity
  8
MECH_MITTELLINIE
100
AcDbLine
 10
94.07999999999999
 20
212.5
 30
0.0
 11
94.07999999999999
 21
217.5
 31
0.0
  0
CIRCLE
  5
A0F
330
2
100
AcDbEntity
  8
MECH_KONTUR1
100
AcDbCircle
 10
89.0
 20
215.0
 30
0.0
 40
0.3
  0
LINE
  5
A10
330
2
100
AcDbEntity
  8
MECH_MITTELLINIE
100
AcDbLine
 10
89.0
 20
212.5
 30
0.0
 11
89.0
 21
217.5
 31
0.0
  0
LINE
  5
A11
330
2
100
AcDbEntity
  8
MECH_MITTELLINIE
100
AcDbLine
 10
91.53999999999999
 20
212.5
 30
0.0
 11
91.53999999999999
 21
217.5
 31
0.0
  0
CIRCLE
  5
A12
330
2
100
AcDbEntity
  8
MECH_KONTUR1
100
AcDbCircle
 10
91.53999999999999
 20
215.0
 30
0.0
 40
0.3
  0
CIRCLE
  5
A13
330
2
100
AcDbEntity
  8
MECH_KONTUR1
100
AcDbCircle
 10
91.53999999999999
 20
215.0
 30
0.0
 40
0.95
  0
DIMENSION
  5
A14
330
2
100
AcDbEntity
  8
MECH_BEM_NORMAL
100
AcDbDimension
  2
*D7
 10
121.0
 20
190.0
 30
0.0
 11
128.8869047619047
 21
190.0
 31
0.0
 70
   160
  1
M<>
 71
     5
 42
2.0
  3
STANDARD
100
AcDbAlignedDimension
 13
119.0
 23
208.25
 33
0.0
 14
121.0
 24
208.25
 34
0.0
100
AcDbRotatedDimension
  0
LINE
  5
A15
330
2
100
AcDbEntity
  8
MECH_KONTUR1
100
AcDbLine
 10
121.5
 20
200.0
 30
0.0
 11
121.5
 21
216.65
 31
0.0
  0
LINE
  5
A16
330
2
100
AcDbEntity
  8
MECH_KONTUR1
100
AcDbLine
 10
121.5
 20
144.65
 30
0.0
 11
123.5
 21
144.65
 31
0.0
  0
LINE
  5
A17
330
2
100
AcDbEntity
  8
MECH_KONTUR1
100
AcDbLine
 10
121.5
 20
149.4499999999999
 30
0.0
 11
123.5
 21
149.4499999999999
 31
0.0
  0
LINE
  5
A18
330
2
100
AcDbEntity
  8
MECH_MITTELLINIE
100
AcDbLine
 10
118.5
 20
147.05
 30
0.0
 11
133.4999999999999
 21
147.05
 31
0.0
  0
LINE
  5
A19
330
2
100
AcDbEntity
  8
MECH_KONTUR1
100
AcDbLine
 10
121.5
 20
152.75
 30
0.0
 11
121.5
 21
143.25
 31
0.0
  0
POLYLINE
  5
A1A
330
2
100
AcDbEntity
  8
MECH_KONTUR1
100
AcDb2dPolyline
 66
     1
 10
0.0
 20
0.0
 30
0.0
  0
VERTEX
  5
A1B
330
A1A
100
AcDbEntity
  8
MECH_KONTUR1
100
AcDbVertex
100
AcDb2dVertex
 10
134.4999999999999
 20
146.5988067182203
 30
0.0
  0
VERTEX
  5
A1C
330
A1A
100
AcDbEntity
  8
MECH_KONTUR1
100
AcDbVertex
100
AcDb2dVertex
 10
135.6975971677816
 20
146.5115339555726
 30
0.0
  0
VERTEX
  5
A1D
330
A1A
100
AcDbEntity
  8
MECH_KONTUR1
100
AcDbVertex
100
AcDb2dVertex
 10
136.9193719431768
 20
146.3915949097302
 30
0.0
  0
VERTEX
  5
A1E
330
A1A
100
AcDbEntity
  8
MECH_KONTUR1
100
AcDbVertex
100
AcDb2dVertex
 10
138.1369629360714
 20
146.2366381891276
 30
0.0
  0
VERTEX
  5
A1F
330
A1A
100
AcDbEntity
  8
MECH_KONTUR1
100
AcDbVertex
100
AcDb2dVertex
 10
139.3499245767615
 20
146.0422909794324
 30
0.0
  0
VERTEX
  5
A20
330
A1A
100
AcDbEntity
  8
MECH_KONTUR1
100
AcDbVertex
100
AcDb2dVertex
 10
140.5578429028036
 20
145.8041861128291
 30
0.0
  0
VERTEX
  5
A21
330
A1A
100
AcDbEntity
  8
MECH_KONTUR1
100
AcDbVertex
100
AcDb2dVertex
 10
141.7603407754774
 20
145.517954674874
 30
0.0
  0
VERTEX
  5
A22
330
A1A
100
AcDbEntity
  8
MECH_KONTUR1
100
AcDbVertex
100
AcDb2dVertex
 10
142.9570811082454
 20
145.1792167323661
 30
0.0
  0
VERTEX
  5
A23
330
A1A
100
AcDbEntity
  8
MECH_KONTUR1
100
AcDbVertex
100
AcDb2dVertex
 10
144.1578987938299
 20
144.7802041019757
 30
0.0
  0
SEQEND
  5
A24
330
A1A
100
AcDbEntity
  8
MECH_KONTUR1
  0
POLYLINE
  5
A25
330
2
100
AcDbEntity
  8
MECH_KONTUR1
100
AcDb2dPolyline
 66
     1
 10
0.0
 20
0.0
 30
0.0
  0
VERTEX
  5
A26
330
A25
100
AcDbEntity
  8
MECH_KONTUR1
100
AcDbVertex
100
AcDb2dVertex
 10
134.4999999999999
 20
147.5011932817796
 30
0.0
  0
VERTEX
  5
A27
330
A25
100
AcDbEntity
  8
MECH_KONTUR1
100
AcDbVertex
100
AcDb2dVertex
 10
135.7686446505265
 20
147.4087430602457
 30
0.0
 42
-0.0062775119741092
  0
VERTEX
  5
A28
330
A25
100
AcDbEntity
  8
MECH_KONTUR1
100
AcDbVertex
100
AcDb2dVertex
 10
135.7799026456757
 20
147.4077804231368
 30
0.0
  0
VERTEX
  5
A29
330
A25
100
AcDbEntity
  8
MECH_KONTUR1
100
AcDbVertex
100
AcDb2dVertex
 10
137.0137341827959
 20
147.286657790494
 30
0.0
 42
-0.0071826673229219
  0
VERTEX
  5
A2A
330
A25
100
AcDbEntity
  8
MECH_KONTUR1
100
AcDbVertex
100
AcDb2dVertex
 10
137.0265809990927
 20
147.2852100456343
 30
0.0
  0
VERTEX
  5
A2B
330
A25
100
AcDbEntity
  8
MECH_KONTUR1
100
AcDbVertex
100
AcDb2dVertex
 10
138.2577928494837
 20
147.12851986657
 30
0.0
 42
-0.0080727901192959
  0
VERTEX
  5
A2C
330
A25
100
AcDbEntity
  8
MECH_KONTUR1
100
AcDbVertex
100
AcDb2dVertex
 10
138.2721751740885
 20
147.1264530267332
 30
0.0
  0
VERTEX
  5
A2D
330
A25
100
AcDbEntity
  8
MECH_KONTUR1
100
AcDbVertex
100
AcDb2dVertex
 10
139.5002545434443
 20
146.9296835735931
 30
0.0
 42
-0.0089376934688357
  0
VERTEX
  5
A2E
330
A25
100
AcDbEntity
  8
MECH_KONTUR1
100
AcDbVertex
100
AcDb2dVertex
 10
139.5160904837971
 20
146.9268550564744
 30
0.0
  0
VERTEX
  5
A2F
330
A25
100
AcDbEntity
  8
MECH_KONTUR1
100
AcDbVertex
100
AcDb2dVertex
 10
140.7405245778117
 20
146.6854946016039
 30
0.0
 42
-0.0097646401835691
  0
VERTEX
  5
A30
330
A25
100
AcDbEntity
  8
MECH_KONTUR1
100
AcDbVertex
100
AcDb2dVertex
 10
140.7576977899381
 20
146.6817596259087
 30
0.0
  0
VERTEX
  5
A31
330
A25
100
AcDbEntity
  8
MECH_KONTUR1
100
AcDbVertex
100
AcDb2dVertex
 10
141.9779738143057
 20
146.3912964416535
 30
0.0
 42
-0.0105386534299599
  0
VERTEX
  5
A32
330
A25
100
AcDbEntity
  8
MECH_KONTUR1
100
AcDbVertex
100
AcDb2dVertex
 10
141.9963290926179
 20
146.3865164143976
 30
0.0
  0
VERTEX
  5
A33
330
A25
100
AcDbEntity
  8
MECH_KONTUR1
100
AcDbVertex
100
AcDb2dVertex
 10
143.2119342530324
 20
146.0424387731032
 30
0.0
 42
-0.0112431669720447
  0
VERTEX
  5
A34
330
A25
100
AcDbEntity
  8
MECH_KONTUR1
100
AcDbVertex
100
AcDb2dVertex
 10
143.2312756387398
 20
146.0364913537501
 30
0.0
  0
VERTEX
  5
A35
330
A25
100
AcDbEntity
  8
MECH_KONTUR1
100
AcDbVertex
100
AcDb2dVertex
 10
144.4416971408954
 20
145.634287527762
 30
0.0
  0
SEQEND
  5
A36
330
A25
100
AcDbEntity
  8
MECH_KONTUR1
  0
LINE
  5
A37
330
2
100
AcDbEntity
  8
MECH_KONTUR1
100
AcDbLine
 10
127.5
 20
145.95
 30
0.0
 11
134.4999999999999
 21
146.3
 31
0.0
  0
LINE
  5
A38
330
2
100
AcDbEntity
  8
MECH_KONTUR1
100
AcDbLine
 10
127.5
 20
148.1499999999999
 30
0.0
 11
134.4999999999999
 21
147.8
 31
0.0
  0
LINE
  5
A39
330
2
100
AcDbEntity
  8
MECH_KONTUR1
100
AcDbLine
 10
123.5
 20
144.65
 30
0.0
 11
123.5
 21
149.4499999999999
 31
0.0
  0
LINE
  5
A3A
330
2
100
AcDbEntity
  8
MECH_KONTUR1
100
AcDbLine
 10
127.5
 20
145.95
 30
0.0
 11
127.5
 21
148.1499999999999
 31
0.0
  0
LINE
  5
A3B
330
2
100
AcDbEntity
  8
MECH_KONTUR1
100
AcDbLine
 10
123.5
 20
144.65
 30
0.0
 11
127.5
 21
145.95
 31
0.0
  0
LINE
  5
A3C
330
2
100
AcDbEntity
  8
MECH_KONTUR1
100
AcDbLine
 10
123.5
 20
149.4499999999999
 30
0.0
 11
127.5
 21
148.1499999999999
 31
0.0
  0
LINE
  5
A3D
330
2
100
AcDbEntity
  8
MECH_KONTUR1
100
AcDbLine
 10
134.4999999999999
 20
146.3
 30
0.0
 11
134.4999999999999
 21
147.8
 31
0.0
  0
POLYLINE
  5
A3E
330
2
100
AcDbEntity
  8
MECH_KONTUR1
100
AcDb2dPolyline
 66
     1
 10
0.0
 20
0.0
 30
0.0
 70
     4
 75
     6
  0
VERTEX
  5
A3F
330
A3E
100
AcDbEntity
  8
MECH_KONTUR1
100
AcDbVertex
100
AcDb2dVertex
 10
144.4416971408954
 20
145.634287527762
 30
0.0
 70
    16
  0
VERTEX
  5
A40
330
A3E
100
AcDbEntity
  8
MECH_KONTUR1
100
AcDbVertex
100
AcDb2dVertex
 10
144.4416971408954
 20
145.634287527762
 30
0.0
 70
     8
  0
VERTEX
  5
A41
330
A3E
100
AcDbEntity
  8
MECH_KONTUR1
100
AcDbVertex
100
AcDb2dVertex
 10
144.3962722181585
 20
145.5601281650519
 30
0.0
 70
     8
  0
VERTEX
  5
A42
330
A3E
100
AcDbEntity
  8
MECH_KONTUR1
100
AcDbVertex
100
AcDb2dVertex
 10
144.3606965977338
 20
145.4919092233945
 30
0.0
 70
     8
  0
VERTEX
  5
A43
330
A3E
100
AcDbEntity
  8
MECH_KONTUR1
100
AcDbVertex
100
AcDb2dVertex
 10
144.3333038368989
 20
145.4291566157412
 30
0.0
 70
     8
  0
VERTEX
  5
A44
330
A3E
100
AcDbEntity
  8
MECH_KONTUR1
100
AcDbVertex
100
AcDb2dVertex
 10
144.3124274929314
 20
145.3713962550435
 30
0.0
 70
     8
  0
VERTEX
  5
A45
330
A3E
100
AcDbEntity
  8
MECH_KONTUR1
100
AcDbVertex
100
AcDb2dVertex
 10
144.296401123109
 20
145.3181540542526
 30
0.0
 70
     8
  0
VERTEX
  5
A46
330
A3E
100
AcDbEntity
  8
MECH_KONTUR1
100
AcDbVertex
100
AcDb2dVertex
 10
144.2835582847093
 20
145.2689559263199
 30
0.0
 70
     8
  0
VERTEX
  5
A47
330
A3E
100
AcDbEntity
  8
MECH_KONTUR1
100
AcDbVertex
100
AcDb2dVertex
 10
144.2722325350098
 20
145.2233277841969
 30
0.0
 70
     8
  0
VERTEX
  5
A48
330
A3E
100
AcDbEntity
  8
MECH_KONTUR1
100
AcDbVertex
100
AcDb2dVertex
 10
144.2607574312883
 20
145.1807955408349
 30
0.0
 70
     8
  0
VERTEX
  5
A49
330
A3E
100
AcDbEntity
  8
MECH_KONTUR1
100
AcDbVertex
100
AcDb2dVertex
 10
144.2478460075094
 20
145.1406607041042
 30
0.0
 70
     8
  0
VERTEX
  5
A4A
330
A3E
100
AcDbEntity
  8
MECH_KONTUR1
100
AcDbVertex
100
AcDb2dVertex
 10
144.2337292043862
 20
145.1013271615505
 30
0.0
 70
     8
  0
VERTEX
  5
A4B
330
A3E
100
AcDbEntity
  8
MECH_KONTUR1
100
AcDbVertex
100
AcDb2dVertex
 10
144.2190174393189
 20
145.0609743956388
 30
0.0
 70
     8
  0
VERTEX
  5
A4C
330
A3E
100
AcDbEntity
  8
MECH_KONTUR1
100
AcDbVertex
100
AcDb2dVertex
 10
144.2043211297078
 20
145.0177818888338
 30
0.0
 70
     8
  0
VERTEX
  5
A4D
330
A3E
100
AcDbEntity
  8
MECH_KONTUR1
100
AcDbVertex
100
AcDb2dVertex
 10
144.1902506929532
 20
144.9699291236002
 30
0.0
 70
     8
  0
VERTEX
  5
A4E
330
A3E
100
AcDbEntity
  8
MECH_KONTUR1
100
AcDbVertex
100
AcDb2dVertex
 10
144.1774165464551
 20
144.9155955824028
 30
0.0
 70
     8
  0
VERTEX
  5
A4F
330
A3E
100
AcDbEntity
  8
MECH_KONTUR1
100
AcDbVertex
100
AcDb2dVertex
 10
144.166429107614
 20
144.8529607477064
 30
0.0
 70
     8
  0
VERTEX
  5
A50
330
A3E
100
AcDbEntity
  8
MECH_KONTUR1
100
AcDbVertex
100
AcDb2dVertex
 10
144.1578987938299
 20
144.7802041019757
 30
0.0
 70
     8
  0
VERTEX
  5
A51
330
A3E
100
AcDbEntity
  8
MECH_KONTUR1
100
AcDbVertex
100
AcDb2dVertex
 10
144.3059503280941
 20
145.4281872550881
 30
0.0
 70
    16
  0
VERTEX
  5
A52
330
A3E
100
AcDbEntity
  8
MECH_KONTUR1
100
AcDbVertex
100
AcDb2dVertex
 10
144.2801259298963
 20
145.1528295492363
 30
0.0
 70
    16
  0
VERTEX
  5
A53
330
A3E
100
AcDbEntity
  8
MECH_KONTUR1
100
AcDbVertex
100
AcDb2dVertex
 10
144.1768275372667
 20
144.9893358097789
 30
0.0
 70
    16
  0
VERTEX
  5
A54
330
A3E
100
AcDbEntity
  8
MECH_KONTUR1
100
AcDbVertex
100
AcDb2dVertex
 10
144.1578987938299
 20
144.7802041019757
 30
0.0
 70
    16
  0
SEQEND
  5
A55
330
A3E
100
AcDbEntity
  8
MECH_KONTUR1
  0
LINE
  5
A56
330
2
100
AcDbEntity
  8
MECH_KONTUR1
100
AcDbLine
 10
121.5
 20
216.65
 30
0.0
 11
123.5
 21
216.65
 31
0.0
  0
LINE
  5
A57
330
2
100
AcDbEntity
  8
MECH_KONTUR1
100
AcDbLine
 10
121.5
 20
211.85
 30
0.0
 11
123.5
 21
211.85
 31
0.0
  0
LINE
  5
A58
330
2
100
AcDbEntity
  8
MECH_MITTELLINIE
100
AcDbLine
 10
118.5
 20
214.25
 30
0.0
 11
133.4999999999999
 21
214.25
 31
0.0
  0
DIMENSION
  5
A59
330
2
100
AcDbEntity
  8
MECH_BEM_NORMAL
100
AcDbDimension
  2
*D8
 10
110.0
 20
216.5
 30
0.0
 11
109.9999999999999
 21
224.5059523809524
 31
0.0
 70
    32
 71
     5
 42
1.5
  3
STANDARD
100
AcDbAlignedDimension
 13
96.58000000000001
 23
215.0
 33
0.0
 14
96.58000000000001
 24
216.5
 34
0.0
 50
90.0
100
AcDbRotatedDimension
  0
CIRCLE
  5
A5A
330
2
100
AcDbEntity
  8
MECH_KONTUR1
100
AcDbCircle
 10
120.0
 20
208.25
 30
0.0
 40
0.7850000000000001
  0
LINE
  5
A5B
330
2
100
AcDbEntity
  8
MECH_MITTELLINIE
100
AcDbLine
 10
120.0
 20
205.75
 30
0.0
 11
120.0
 21
210.7499999999999
 31
0.0
  0
ARC
  5
A5C
330
2
100
AcDbEntity
  8
MECH_SICHTLINIE
100
AcDbCircle
 10
120.0
 20
208.25
 30
0.0
 40
1.0
100
AcDbArc
 50
69.99999999999997
 51
339.9999999999999
  0
CIRCLE
  5
A5D
330
2
100
AcDbEntity
  8
MECH_KONTUR1
100
AcDbCircle
 10
119.6999999999999
 20
211.2999999999999
 30
0.0
 40
1.5
  0
LINE
  5
A5E
330
2
100
AcDbEntity
  8
MECH_KONTUR1
100
AcDbLine
 10
118.2163334954118
 20
211.0792428864949
 30
0.0
 11
120.9784544185927
 21
212.0845726859766
 31
0.0
  0
LINE
  5
A5F
330
2
100
AcDbEntity
  8
MECH_KONTUR1
100
AcDbLine
 10
118.4215455814072
 20
210.5154273140233
 30
0.0
 11
121.1836665045881
 21
211.5207571135051
 31
0.0
  0
POLYLINE
  5
A60
330
2
100
AcDbEntity
  8
MECH_KONTUR1
100
AcDb2dPolyline
 66
     1
 10
0.0
 20
0.0
 30
0.0
  0
VERTEX
  5
A61
330
A60
100
AcDbEntity
  8
MECH_KONTUR1
100
AcDbVertex
100
AcDb2dVertex
 10
134.4999999999999
 20
214.7011932817796
 30
0.0
  0
VERTEX
  5
A62
330
A60
100
AcDbEntity
  8
MECH_KONTUR1
100
AcDbVertex
100
AcDb2dVertex
 10
135.7686446505265
 20
214.6087430602457
 30
0.0
 42
-0.0062775119741092
  0
VERTEX
  5
A63
330
A60
100
AcDbEntity
  8
MECH_KONTUR1
100
AcDbVertex
100
AcDb2dVertex
 10
135.7799026456757
 20
214.6077804231369
 30
0.0
  0
VERTEX
  5
A64
330
A60
100
AcDbEntity
  8
MECH_KONTUR1
100
AcDbVertex
100
AcDb2dVertex
 10
137.0137341827959
 20
214.486657790494
 30
0.0
 42
-0.0071826673229219
  0
VERTEX
  5
A65
330
A60
100
AcDbEntity
  8
MECH_KONTUR1
100
AcDbVertex
100
AcDb2dVertex
 10
137.0265809990927
 20
214.4852100456343
 30
0.0
  0
VERTEX
  5
A66
330
A60
100
AcDbEntity
  8
MECH_KONTUR1
100
AcDbVertex
100
AcDb2dVertex
 10
138.2577928494837
 20
214.32851986657
 30
0.0
 42
-0.0080727901192959
  0
VERTEX
  5
A67
330
A60
100
AcDbEntity
  8
MECH_KONTUR1
100
AcDbVertex
100
AcDb2dVertex
 10
138.2721751740885
 20
214.3264530267332
 30
0.0
  0
VERTEX
  5
A68
330
A60
100
AcDbEntity
  8
MECH_KONTUR1
100
AcDbVertex
100
AcDb2dVertex
 10
139.5002545434443
 20
214.1296835735931
 30
0.0
 42
-0.0089376934688357
  0
VERTEX
  5
A69
330
A60
100
AcDbEntity
  8
MECH_KONTUR1
100
AcDbVertex
100
AcDb2dVertex
 10
139.5160904837971
 20
214.1268550564744
 30
0.0
  0
VERTEX
  5
A6A
330
A60
100
AcDbEntity
  8
MECH_KONTUR1
100
AcDbVertex
100
AcDb2dVertex
 10
140.7405245778117
 20
213.8854946016039
 30
0.0
 42
-0.0097646401835691
  0
VERTEX
  5
A6B
330
A60
100
AcDbEntity
  8
MECH_KONTUR1
100
AcDbVertex
100
AcDb2dVertex
 10
140.7576977899381
 20
213.8817596259087
 30
0.0
  0
VERTEX
  5
A6C
330
A60
100
AcDbEntity
  8
MECH_KONTUR1
100
AcDbVertex
100
AcDb2dVertex
 10
141.9779738143057
 20
213.5912964416535
 30
0.0
 42
-0.0105386534299599
  0
VERTEX
  5
A6D
330
A60
100
AcDbEntity
  8
MECH_KONTUR1
100
AcDbVertex
100
AcDb2dVertex
 10
141.9963290926179
 20
213.5865164143976
 30
0.0
  0
VERTEX
  5
A6E
330
A60
100
AcDbEntity
  8
MECH_KONTUR1
100
AcDbVertex
100
AcDb2dVertex
 10
143.2119342530324
 20
213.2424387731032
 30
0.0
 42
-0.0112431669720447
  0
VERTEX
  5
A6F
330
A60
100
AcDbEntity
  8
MECH_KONTUR1
100
AcDbVertex
100
AcDb2dVertex
 10
143.2312756387398
 20
213.2364913537501
 30
0.0
  0
VERTEX
  5
A70
330
A60
100
AcDbEntity
  8
MECH_KONTUR1
100
AcDbVertex
100
AcDb2dVertex
 10
144.4416971408954
 20
212.834287527762
 30
0.0
  0
SEQEND
  5
A71
330
A60
100
AcDbEntity
  8
MECH_KONTUR1
  0
POLYLINE
  5
A72
330
2
100
AcDbEntity
  8
MECH_KONTUR1
100
AcDb2dPolyline
 66
     1
 10
0.0
 20
0.0
 30
0.0
  0
VERTEX
  5
A73
330
A72
100
AcDbEntity
  8
MECH_KONTUR1
100
AcDbVertex
100
AcDb2dVertex
 10
134.4999999999999
 20
213.7988067182203
 30
0.0
  0
VERTEX
  5
A74
330
A72
100
AcDbEntity
  8
MECH_KONTUR1
100
AcDbVertex
100
AcDb2dVertex
 10
135.6975971677816
 20
213.7115339555726
 30
0.0
  0
VERTEX
  5
A75
330
A72
100
AcDbEntity
  8
MECH_KONTUR1
100
AcDbVertex
100
AcDb2dVertex
 10
136.9193719431768
 20
213.5915949097302
 30
0.0
  0
VERTEX
  5
A76
330
A72
100
AcDbEntity
  8
MECH_KONTUR1
100
AcDbVertex
100
AcDb2dVertex
 10
138.1369629360714
 20
213.4366381891276
 30
0.0
  0
VERTEX
  5
A77
330
A72
100
AcDbEntity
  8
MECH_KONTUR1
100
AcDbVertex
100
AcDb2dVertex
 10
139.3499245767615
 20
213.2422909794324
 30
0.0
  0
VERTEX
  5
A78
330
A72
100
AcDbEntity
  8
MECH_KONTUR1
100
AcDbVertex
100
AcDb2dVertex
 10
140.5578429028036
 20
213.0041861128292
 30
0.0
  0
VERTEX
  5
A79
330
A72
100
AcDbEntity
  8
MECH_KONTUR1
100
AcDbVertex
100
AcDb2dVertex
 10
141.7603407754774
 20
212.717954674874
 30
0.0
  0
VERTEX
  5
A7A
330
A72
100
AcDbEntity
  8
MECH_KONTUR1
100
AcDbVertex
100
AcDb2dVertex
 10
142.9570811082454
 20
212.3792167323661
 30
0.0
  0
VERTEX
  5
A7B
330
A72
100
AcDbEntity
  8
MECH_KONTUR1
100
AcDbVertex
100
AcDb2dVertex
 10
144.1578987938299
 20
211.9802041019757
 30
0.0
  0
SEQEND
  5
A7C
330
A72
100
AcDbEntity
  8
MECH_KONTUR1
  0
LINE
  5
A7D
330
2
100
AcDbEntity
  8
MECH_KONTUR1
100
AcDbLine
 10
127.5
 20
215.35
 30
0.0
 11
134.4999999999999
 21
215.0
 31
0.0
  0
LINE
  5
A7E
330
2
100
AcDbEntity
  8
MECH_KONTUR1
100
AcDbLine
 10
127.5
 20
213.1499999999999
 30
0.0
 11
134.4999999999999
 21
213.5
 31
0.0
  0
LINE
  5
A7F
330
2
100
AcDbEntity
  8
MECH_KONTUR1
100
AcDbLine
 10
123.5
 20
216.65
 30
0.0
 11
127.5
 21
215.35
 31
0.0
  0
LINE
  5
A80
330
2
100
AcDbEntity
  8
MECH_KONTUR1
100
AcDbLine
 10
123.5
 20
211.85
 30
0.0
 11
127.5
 21
213.1499999999999
 31
0.0
  0
LINE
  5
A81
330
2
100
AcDbEntity
  8
MECH_KONTUR1
100
AcDbLine
 10
123.5
 20
211.85
 30
0.0
 11
123.5
 21
216.65
 31
0.0
  0
LINE
  5
A82
330
2
100
AcDbEntity
  8
MECH_KONTUR1
100
AcDbLine
 10
127.5
 20
213.1499999999999
 30
0.0
 11
127.5
 21
215.35
 31
0.0
  0
LINE
  5
A83
330
2
100
AcDbEntity
  8
MECH_KONTUR1
100
AcDbLine
 10
134.4999999999999
 20
213.5
 30
0.0
 11
134.4999999999999
 21
215.0
 31
0.0
  0
POLYLINE
  5
A84
330
2
100
AcDbEntity
  8
MECH_KONTUR1
100
AcDb2dPolyline
 66
     1
 10
0.0
 20
0.0
 30
0.0
 70
     4
 75
     6
  0
VERTEX
  5
A85
330
A84
100
AcDbEntity
  8
MECH_KONTUR1
100
AcDbVertex
100
AcDb2dVertex
 10
144.4416971408954
 20
212.834287527762
 30
0.0
 70
    16
  0
VERTEX
  5
A86
330
A84
100
AcDbEntity
  8
MECH_KONTUR1
100
AcDbVertex
100
AcDb2dVertex
 10
144.4416971408954
 20
212.834287527762
 30
0.0
 70
     8
  0
VERTEX
  5
A87
330
A84
100
AcDbEntity
  8
MECH_KONTUR1
100
AcDbVertex
100
AcDb2dVertex
 10
144.3962722181585
 20
212.7601281650519
 30
0.0
 70
     8
  0
VERTEX
  5
A88
330
A84
100
AcDbEntity
  8
MECH_KONTUR1
100
AcDbVertex
100
AcDb2dVertex
 10
144.3606965977338
 20
212.6919092233945
 30
0.0
 70
     8
  0
VERTEX
  5
A89
330
A84
100
AcDbEntity
  8
MECH_KONTUR1
100
AcDbVertex
100
AcDb2dVertex
 10
144.3333038368989
 20
212.6291566157413
 30
0.0
 70
     8
  0
VERTEX
  5
A8A
330
A84
100
AcDbEntity
  8
MECH_KONTUR1
100
AcDbVertex
100
AcDb2dVertex
 10
144.3124274929314
 20
212.5713962550435
 30
0.0
 70
     8
  0
VERTEX
  5
A8B
330
A84
100
AcDbEntity
  8
MECH_KONTUR1
100
AcDbVertex
100
AcDb2dVertex
 10
144.296401123109
 20
212.5181540542526
 30
0.0
 70
     8
  0
VERTEX
  5
A8C
330
A84
100
AcDbEntity
  8
MECH_KONTUR1
100
AcDbVertex
100
AcDb2dVertex
 10
144.2835582847093
 20
212.46895592632
 30
0.0
 70
     8
  0
VERTEX
  5
A8D
330
A84
100
AcDbEntity
  8
MECH_KONTUR1
100
AcDbVertex
100
AcDb2dVertex
 10
144.2722325350099
 20
212.423327784197
 30
0.0
 70
     8
  0
VERTEX
  5
A8E
330
A84
100
AcDbEntity
  8
MECH_KONTUR1
100
AcDbVertex
100
AcDb2dVertex
 10
144.2607574312883
 20
212.3807955408349
 30
0.0
 70
     8
  0
VERTEX
  5
A8F
330
A84
100
AcDbEntity
  8
MECH_KONTUR1
100
AcDbVertex
100
AcDb2dVertex
 10
144.2478460075094
 20
212.3406607041042
 30
0.0
 70
     8
  0
VERTEX
  5
A90
330
A84
100
AcDbEntity
  8
MECH_KONTUR1
100
AcDbVertex
100
AcDb2dVertex
 10
144.2337292043862
 20
212.3013271615505
 30
0.0
 70
     8
  0
VERTEX
  5
A91
330
A84
100
AcDbEntity
  8
MECH_KONTUR1
100
AcDbVertex
100
AcDb2dVertex
 10
144.2190174393189
 20
212.2609743956388
 30
0.0
 70
     8
  0
VERTEX
  5
A92
330
A84
100
AcDbEntity
  8
MECH_KONTUR1
100
AcDbVertex
100
AcDb2dVertex
 10
144.2043211297078
 20
212.2177818888338
 30
0.0
 70
     8
  0
VERTEX
  5
A93
330
A84
100
AcDbEntity
  8
MECH_KONTUR1
100
AcDbVertex
100
AcDb2dVertex
 10
144.1902506929532
 20
212.1699291236001
 30
0.0
 70
     8
  0
VERTEX
  5
A94
330
A84
100
AcDbEntity
  8
MECH_KONTUR1
100
AcDbVertex
100
AcDb2dVertex
 10
144.1774165464551
 20
212.1155955824028
 30
0.0
 70
     8
  0
VERTEX
  5
A95
330
A84
100
AcDbEntity
  8
MECH_KONTUR1
100
AcDbVertex
100
AcDb2dVertex
 10
144.166429107614
 20
212.0529607477064
 30
0.0
 70
     8
  0
VERTEX
  5
A96
330
A84
100
AcDbEntity
  8
MECH_KONTUR1
100
AcDbVertex
100
AcDb2dVertex
 10
144.1578987938299
 20
211.9802041019757
 30
0.0
 70
     8
  0
VERTEX
  5
A97
330
A84
100
AcDbEntity
  8
MECH_KONTUR1
100
AcDbVertex
100
AcDb2dVertex
 10
144.3059503280941
 20
212.6281872550881
 30
0.0
 70
    16
  0
VERTEX
  5
A98
330
A84
100
AcDbEntity
  8
MECH_KONTUR1
100
AcDbVertex
100
AcDb2dVertex
 10
144.2801259298963
 20
212.3528295492363
 30
0.0
 70
    16
  0
VERTEX
  5
A99
330
A84
100
AcDbEntity
  8
MECH_KONTUR1
100
AcDbVertex
100
AcDb2dVertex
 10
144.1768275372667
 20
212.1893358097789
 30
0.0
 70
    16
  0
VERTEX
  5
A9A
330
A84
100
AcDbEntity
  8
MECH_KONTUR1
100
AcDbVertex
100
AcDb2dVertex
 10
144.1578987938299
 20
211.9802041019757
 30
0.0
 70
    16
  0
SEQEND
  5
A9B
330
A84
100
AcDbEntity
  8
MECH_KONTUR1
  0
TEXT
  5
BB8
330
2
100
AcDbEntity
  8
MECH_BEM_NORMAL
100
AcDbText
 10
88.76190476190476
 20
209.5
 30
0.0
 40
2.0
  1
1
 72
     1
 11
89.0
 21
211.5
 31
0.0
100
AcDbText
 73
     3
  0
TEXT
  5
BB9
330
2
100
AcDbEntity
  8
MECH_BEM_NORMAL
100
AcDbText
 10
90.87333333333333
 20
209.5
 30
0.0
 40
2.0
  1
2
 72
     1
 11
91.54000000000001
 21
211.5
 31
0.0
100
AcDbText
 73
     3
  0
TEXT
  5
BBA
330
2
100
AcDbEntity
  8
MECH_BEM_NORMAL
100
AcDbText
 10
93.41333333333333
 20
209.5
 30
0.0
 40
2.0
  1
3
 72
     1
 11
94.07999999999999
 21
211.5
 31
0.0
100
AcDbText
 73
     3
  0
TEXT
  5
BBB
330
2
100
AcDbEntity
  8
TEXT018
100
AcDbText
 10
42.88095238095237
 20
212.7499999999999
 30
0.0
 40
2.5
  1
out 4
 72
     1
 11
48.0
 21
214.0
 31
0.0
100
AcDbText
 73
     2
  0
TEXT
  5
BBC
330
2
100
AcDbEntity
  8
TEXT018
100
AcDbText
 10
44.42857142857143
 20
200.7499999999999
 30
0.0
 40
2.5
  1
in 2
 72
     1
 11
48.0
 21
202.0
 31
0.0
100
AcDbText
 73
     2
  0
TEXT
  5
BBD
330
2
100
AcDbEntity
  8
TEXT018
100
AcDbText
 10
130.9404761904761
 20
207.75
 30
0.0
 40
2.5
  1
out 3
 72
     1
 11
136.0
 21
209.0
 31
0.0
100
AcDbText
 73
     2
  0
TEXT
  5
BD5
330
2
100
AcDbEntity
  8
TEXT018
100
AcDbText
 10
75.25
 20
249.25
 30
0.0
 40
3.5
  1
view from pin side
 72
     1
 11
100.0
 21
251.0
 31
0.0
100
AcDbText
 73
     2
  0
TEXT
  5
BD7
330
2
100
AcDbEntity
  8
TEXT018
100
AcDbText
 10
88.41666666666666
 20
159.25
 30
0.0
 40
3.5
  1
side view
 72
     1
 11
100.0
 21
161.0
 31
0.0
100
AcDbText
 73
     2
  0
INSERT
  5
C59
330
2
100
AcDbEntity
  8
HILFSLINIEN4
100
AcDbBlockReference
  2
aaa Vorlage für Zeichnungen
 10
28.0
 20
121.0
 30
0.0
  0
VIEWPORT
  5
2AD
330
7
100
AcDbEntity
 67
     1
  8
0
100
AcDbViewport
 10
147.575977527902
 20
98.41145264833025
 30
0.0
 40
370.4084766411162
 41
240.9589805310206
 68
     1
 69
     1
 12
147.575977527902
 22
98.41145264833025
 13
0.0
 23
0.0
 14
2.5
 24
2.5
 15
10.0
 25
10.0
 16
0.0
 26
0.0
 36
1.0
 17
0.0
 27
0.0
 37
0.0
 42
50.0
 43
0.0
 44
0.0
 45
240.9589805310206
 50
0.0
 51
0.0
 72
   100
 90
    33056
  1

281
     0
 71
     1
 74
     0
110
0.0
120
0.0
130
0.0
111
1.0
121
0.0
131
0.0
112
0.0
122
1.0
132
0.0
 79
     0
146
0.0
  0
ENDSEC
  0
SECTION
  2
OBJECTS
  0
DICTIONARY
  5
1A
330
0
100
AcDbDictionary
281
     1
  3
ACAD_GROUP
350
18
  3
ACAD_LAYOUT
350
598
  3
ACAD_MLINESTYLE
350
19
  3
ACAD_PLOTSETTINGS
350
599
  3
ACAD_PLOTSTYLENAME
350
596
  0
DICTIONARY
  5
18
102
{ACAD_REACTORS
330
1A
102
}
330
0
100
AcDbDictionary
281
     1
  0
DICTIONARY
  5
598
102
{ACAD_REACTORS
330
1A
102
}
330
1A
100
AcDbDictionary
281
     1
  3
Layout1
350
59B
  3
Model
350
59A
  0
DICTIONARY
  5
19
102
{ACAD_REACTORS
330
1A
102
}
330
0
100
AcDbDictionary
281
     1
  3
STANDARD
350
1C
  0
DICTIONARY
  5
599
102
{ACAD_REACTORS
330
1A
102
}
330
1A
100
AcDbDictionary
281
     1
  0
ACDBDICTIONARYWDFLT
  5
596
102
{ACAD_REACTORS
330
1A
102
}
330
1A
100
AcDbDictionary
281
     1
  3
Normal
350
597
100
AcDbDictionaryWithDefault
340
597
  0
LAYOUT
  5
59B
102
{ACAD_REACTORS
330
598
102
}
330
598
100
AcDbPlotSettings
  1

  2
Symantec Fax Starter Edition
  4

  6

 40
0.0
 41
0.0
 42
0.0
 43
0.0
 44
0.0
 45
0.0
 46
0.0
 47
0.0
 48
0.0
 49
0.0
140
0.0
141
0.0
142
1.0
143
1.0
 70
   688
 72
     0
 73
     0
 74
     5
  7
Thorlabs Ploteinstellung normal.ctb
 75
    16
147
1.0
148
0.0
149
0.0
100
AcDbLayout
  1
Layout1
 70
     1
 71
     1
 10
0.0
 20
0.0
 11
210.0
 21
297.0
 12
0.0
 22
0.0
 32
0.0
 14
-10.0
 24
-10.0
 34
0.0
 15
297.5
 25
212.5
 35
0.0
146
0.0
 13
0.0
 23
0.0
 33
0.0
 16
1.0
 26
0.0
 36
0.0
 17
0.0
 27
1.0
 37
0.0
 76
     0
330
7
331
2AD
  0
LAYOUT
  5
59A
102
{ACAD_REACTORS
330
598
102
}
330
598
100
AcDbPlotSettings
  1

  2
\\file-server01\HP LaserJet 5000 Series PS
  4
A4
  6

 40
5.746749877929687
 41
5.365768432617187
 42
5.70440673828125
 43
5.746734619140625
 44
209.8886566162109
 45
297.0530090332031
 46
0.22
 47
0.0
 48
0.0
 49
0.0
140
198.0
141
285.95
142
1.0
143
1.0
 70
 11956
 72
     1
 73
     0
 74
     4
  7
Thorlabs Ploteinstellung normal.ctb
 75
    16
147
1.0
148
0.0
149
0.0
100
AcDbLayout
  1
Model
 70
     1
 71
     0
 10
0.0
 20
0.0
 11
12.0
 21
9.0
 12
0.0
 22
0.0
 32
0.0
 14
0.0
 24
0.0
 34
0.0
 15
0.0
 25
0.0
 35
0.0
146
0.0
 13
0.0
 23
0.0
 33
0.0
 16
1.0
 26
0.0
 36
0.0
 17
0.0
 27
1.0
 37
0.0
 76
     0
330
2
  0
MLINESTYLE
  5
1C
102
{ACAD_REACTORS
330
19
102
}
330
0
100
AcDbMlineStyle
  2
STANDARD
 70
     0
  3

 62
     0
 51
90.0
 52
90.0
 71
     2
 49
0.5
 62
   256
  6
BYLAYER
 49
-0.5
 62
   256
  6
BYLAYER
  0
ACDBPLACEHOLDER
  5
597
102
{ACAD_REACTORS
330
596
102
}
330
596
  0
ENDSEC
  0
EOF
