  0
SECTION
  2
HEADER
  9
$ACADVER
  1
AC1015
  9
$ACADMAINTVER
 70
     6
  9
$DWGCODEPAGE
  3
ANSI_1252
  9
$INSBASE
 10
0.0
 20
0.0
 30
0.0
  9
$EXTMIN
 10
0.0
 20
0.0
 30
0.0
  9
$EXTMAX
 10
11.0
 20
8.5
 30
0.0
  9
$LIMMIN
 10
0.0
 20
0.0
  9
$LIMMAX
 10
11.0
 20
8.5
  9
$ORTHOMODE
 70
     0
  9
$REGENMODE
 70
     1
  9
$FILLMODE
 70
     1
  9
$QTEXTMODE
 70
     0
  9
$MIRRTEXT
 70
     1
  9
$LTSCALE
 40
1.0
  9
$ATTMODE
 70
     1
  9
$TEXTSIZE
 40
0.1111111111
  9
$TRACEWID
 40
0.05
  9
$TEXTSTYLE
  7
Standard
  9
$CLAYER
  8
0
  9
$CELTYPE
  6
ByLayer
  9
$CECOLOR
 62
   256
  9
$CELTSCALE
 40
1.0
  9
$DISPSILH
 70
     0
  9
$DIMSCALE
 40
1.0
  9
$DIMASZ
 40
0.125
  9
$DIMEXO
 40
0.05
  9
$DIMDLI
 40
0.38
  9
$DIMRND
 40
0.0
  9
$DIMDLE
 40
0.0
  9
$DIMEXE
 40
0.07
  9
$DIMTP
 40
0.0
  9
$DIMTM
 40
0.0
  9
$DIMTXT
 40
0.1111111111
  9
$DIMCEN
 40
0.09
  9
$DIMTSZ
 40
0.0
  9
$DIMTOL
 70
     0
  9
$DIMLIM
 70
     0
  9
$DIMTIH
 70
     1
  9
$DIMTOH
 70
     1
  9
$DIMSE1
 70
     0
  9
$DIMSE2
 70
     0
  9
$DIMTAD
 70
     0
  9
$DIMZIN
 70
     1
  9
$DIMBLK
  1

  9
$DIMASO
 70
     1
  9
$DIMSHO
 70
     1
  9
$DIMPOST
  1

  9
$DIMAPOST
  1

  9
$DIMALT
 70
     0
  9
$DIMALTD
 70
     2
  9
$DIMALTF
 40
25.4
  9
$DIMLFAC
 40
1.0
  9
$DIMTOFL
 70
     0
  9
$DIMTVP
 40
0.0
  9
$DIMTIX
 70
     0
  9
$DIMSOXD
 70
     0
  9
$DIMSAH
 70
     0
  9
$DIMBLK1
  1

  9
$DIMBLK2
  1

  9
$DIMSTYLE
  2
Standard
  9
$DIMCLRD
 70
     0
  9
$DIMCLRE
 70
     0
  9
$DIMCLRT
 70
     0
  9
$DIMTFAC
 40
1.0
  9
$DIMGAP
 40
0.1
  9
$DIMJUST
 70
     0
  9
$DIMSD1
 70
     0
  9
$DIMSD2
 70
     0
  9
$DIMTOLJ
 70
     1
  9
$DIMTZIN
 70
     1
  9
$DIMALTZ
 70
     0
  9
$DIMALTTZ
 70
     0
  9
$DIMUPT
 70
     0
  9
$DIMDEC
 70
     2
  9
$DIMTDEC
 70
     2
  9
$DIMALTU
 70
     2
  9
$DIMALTTD
 70
     2
  9
$DIMTXSTY
  7
Standard
  9
$DIMAUNIT
 70
     0
  9
$DIMADEC
 70
     0
  9
$DIMALTRND
 40
0.0
  9
$DIMAZIN
 70
     0
  9
$DIMDSEP
 70
    46
  9
$DIMATFIT
 70
     3
  9
$DIMFRAC
 70
     0
  9
$DIMLDRBLK
  1

  9
$DIMLUNIT
 70
     2
  9
$DIMLWD
 70
    -2
  9
$DIMLWE
 70
    -2
  9
$DIMTMOVE
 70
     0
  9
$LUNITS
 70
     2
  9
$LUPREC
 70
     2
  9
$SKETCHINC
 40
0.1
  9
$FILLETRAD
 40
0.5
  9
$AUNITS
 70
     0
  9
$AUPREC
 70
     0
  9
$MENU
  1
.
  9
$ELEVATION
 40
0.0
  9
$PELEVATION
 40
0.0
  9
$THICKNESS
 40
0.0
  9
$LIMCHECK
 70
     0
  9
$CHAMFERA
 40
0.0
  9
$CHAMFERB
 40
0.0
  9
$CHAMFERC
 40
0.0
  9
$CHAMFERD
 40
0.0
  9
$SKPOLY
 70
     0
  9
$TDCREATE
 40
2457427.46959919
  9
$TDUCREATE
 40
2457427.677932523
  9
$TDUPDATE
 40
2457427.469601898
  9
$TDUUPDATE
 40
2457427.677935231
  9
$TDINDWG
 40
0.0000000116
  9
$TDUSRTIMER
 40
0.0000000116
  9
$USRTIMER
 70
     1
  9
$ANGBASE
 50
0.0
  9
$ANGDIR
 70
     0
  9
$PDMODE
 70
     0
  9
$PDSIZE
 40
-1.0
  9
$PLINEWID
 40
0.0
  9
$SPLFRAME
 70
     0
  9
$SPLINETYPE
 70
     6
  9
$SPLINESEGS
 70
     8
  9
$HANDSEED
  5
210
  9
$SURFTAB1
 70
     6
  9
$SURFTAB2
 70
     6
  9
$SURFTYPE
 70
     6
  9
$SURFU
 70
     6
  9
$SURFV
 70
     6
  9
$UCSBASE
  2

  9
$UCSNAME
  2

  9
$UCSORG
 10
0.0
 20
0.0
 30
0.0
  9
$UCSXDIR
 10
1.0
 20
0.0
 30
0.0
  9
$UCSYDIR
 10
0.0
 20
1.0
 30
0.0
  9
$UCSORTHOREF
  2

  9
$UCSORTHOVIEW
 70
     0
  9
$UCSORGTOP
 10
0.0
 20
0.0
 30
0.0
  9
$UCSORGBOTTOM
 10
0.0
 20
0.0
 30
0.0
  9
$UCSORGLEFT
 10
0.0
 20
0.0
 30
0.0
  9
$UCSORGRIGHT
 10
0.0
 20
0.0
 30
0.0
  9
$UCSORGFRONT
 10
0.0
 20
0.0
 30
0.0
  9
$UCSORGBACK
 10
0.0
 20
0.0
 30
0.0
  9
$PUCSBASE
  2

  9
$PUCSNAME
  2

  9
$PUCSORG
 10
0.0
 20
0.0
 30
0.0
  9
$PUCSXDIR
 10
1.0
 20
0.0
 30
0.0
  9
$PUCSYDIR
 10
0.0
 20
1.0
 30
0.0
  9
$PUCSORTHOREF
  2

  9
$PUCSORTHOVIEW
 70
     0
  9
$PUCSORGTOP
 10
0.0
 20
0.0
 30
0.0
  9
$PUCSORGBOTTOM
 10
0.0
 20
0.0
 30
0.0
  9
$PUCSORGLEFT
 10
0.0
 20
0.0
 30
0.0
  9
$PUCSORGRIGHT
 10
0.0
 20
0.0
 30
0.0
  9
$PUCSORGFRONT
 10
0.0
 20
0.0
 30
0.0
  9
$PUCSORGBACK
 10
0.0
 20
0.0
 30
0.0
  9
$USERI1
 70
     0
  9
$USERI2
 70
     0
  9
$USERI3
 70
     0
  9
$USERI4
 70
     0
  9
$USERI5
 70
     0
  9
$USERR1
 40
0.0
  9
$USERR2
 40
0.0
  9
$USERR3
 40
0.0
  9
$USERR4
 40
0.0
  9
$USERR5
 40
0.0
  9
$WORLDVIEW
 70
     1
  9
$SHADEDGE
 70
     3
  9
$SHADEDIF
 70
    70
  9
$TILEMODE
 70
     1
  9
$MAXACTVP
 70
    64
  9
$PINSBASE
 10
0.0
 20
0.0
 30
0.0
  9
$PLIMCHECK
 70
     0
  9
$PEXTMIN
 10
1.0000000000E+20
 20
1.0000000000E+20
 30
1.0000000000E+20
  9
$PEXTMAX
 10
-1.0000000000E+20
 20
-1.0000000000E+20
 30
-1.0000000000E+20
  9
$PLIMMIN
 10
0.0
 20
0.0
  9
$PLIMMAX
 10
12.0
 20
9.0
  9
$UNITMODE
 70
     0
  9
$VISRETAIN
 70
     1
  9
$PLINEGEN
 70
     0
  9
$PSLTSCALE
 70
     1
  9
$TREEDEPTH
 70
  3020
  9
$CMLSTYLE
  2
Standard
  9
$CMLJUST
 70
     0
  9
$CMLSCALE
 40
1.0
  9
$PROXYGRAPHICS
 70
     1
  9
$MEASUREMENT
 70
     0
  9
$CELWEIGHT
370
    -1
  9
$ENDCAPS
280
     0
  9
$JOINSTYLE
280
     0
  9
$LWDISPLAY
290
     1
  9
$INSUNITS
 70
     1
  9
$HYPERLINKBASE
  1

  9
$STYLESHEET
  1

  9
$XEDIT
290
     1
  9
$CEPSNTYPE
380
     0
  9
$PSTYLEMODE
290
     1
  9
$FINGERPRINTGUID
  2
{DFAA0A56-35FE-4E33-8962-9BB0535BF230}
  9
$VERSIONGUID
  2
{FAEB1C32-E019-11D5-929B-00C0DF256EC4}
  9
$EXTNAMES
290
     1
  9
$PSVPSCALE
 40
0.0
  9
$OLESTARTUP
290
     0
  0
ENDSEC
  0
SECTION
  2
CLASSES
  0
CLASS
  1
ACDBDICTIONARYWDFLT
  2
AcDbDictionaryWithDefault
  3
ObjectDBX Classes
 90
        0
280
     0
281
     0
  0
CLASS
  1
VISUALSTYLE
  2
AcDbVisualStyle
  3
ObjectDBX Classes
 90
     4095
280
     0
281
     0
  0
CLASS
  1
MATERIAL
  2
AcDbMaterial
  3
ObjectDBX Classes
 90
     1153
280
     0
281
     0
  0
CLASS
  1
SCALE
  2
AcDbScale
  3
ObjectDBX Classes
 90
     1153
280
     0
281
     0
  0
CLASS
  1
SUN
  2
AcDbSun
  3
SCENEOE
 90
     1153
280
     0
281
     0
  0
CLASS
  1
ACDBPLACEHOLDER
  2
AcDbPlaceHolder
  3
ObjectDBX Classes
 90
        0
280
     0
281
     0
  0
CLASS
  1
LAYOUT
  2
AcDbLayout
  3
ObjectDBX Classes
 90
        0
280
     0
281
     0
  0
ENDSEC
  0
SECTION
  2
TABLES
  0
TABLE
  2
VPORT
  5
8
330
0
100
AcDbSymbolTable
 70
     1
  0
VPORT
  5
29
330
8
100
AcDbSymbolTableRecord
100
AcDbViewportTableRecord
  2
*Active
 70
     0
 10
0.0
 20
0.0
 11
1.0
 21
1.0
 12
5.5
 22
4.25
 13
0.0
 23
0.0
 14
0.5
 24
0.5
 15
0.5
 25
0.5
 16
0.0
 26
0.0
 36
1.0
 17
0.0
 27
0.0
 37
0.0
 40
8.5
 41
1.2941176471
 42
50.0
 43
0.0
 44
0.0
 50
0.0
 51
0.0
 71
     0
 72
  2000
 73
     1
 74
     3
 75
     0
 76
     0
 77
     0
 78
     0
281
     0
 65
     1
110
0.0
120
0.0
130
0.0
111
1.0
121
0.0
131
0.0
112
0.0
122
1.0
132
0.0
 79
     0
146
0.0
  0
ENDTAB
  0
TABLE
  2
LTYPE
  5
5
330
0
100
AcDbSymbolTable
 70
     6
  0
LTYPE
  5
14
330
5
100
AcDbSymbolTableRecord
100
AcDbLinetypeTableRecord
  2
ByBlock
 70
     0
  3

 72
    65
 73
     0
 40
0.0
  0
LTYPE
  5
15
330
5
100
AcDbSymbolTableRecord
100
AcDbLinetypeTableRecord
  2
ByLayer
 70
     0
  3

 72
    65
 73
     0
 40
0.0
  0
LTYPE
  5
16
330
5
100
AcDbSymbolTableRecord
100
AcDbLinetypeTableRecord
  2
Continuous
 70
     0
  3
Solid line
 72
    65
 73
     0
 40
0.0
  0
LTYPE
  5
6A
330
5
100
AcDbSymbolTableRecord
100
AcDbLinetypeTableRecord
  2
HIDDEN
 70
     0
  3
Hidden __ __ __ __ __ __ __ __ __ __ __ __ __ __
 72
    65
 73
     2
 40
0.075
 49
0.05
 74
     0
 49
-0.025
 74
     0
  0
LTYPE
  5
6B
330
5
100
AcDbSymbolTableRecord
100
AcDbLinetypeTableRecord
  2
PHANTOM
 70
     0
  3
Phantom ______  __  __  ______  __  __  ______
 72
    65
 73
     6
 40
0.5
 49
0.25
 74
     0
 49
-0.05
 74
     0
 49
0.05
 74
     0
 49
-0.05
 74
     0
 49
0.05
 74
     0
 49
-0.05
 74
     0
  0
LTYPE
  5
6C
330
5
100
AcDbSymbolTableRecord
100
AcDbLinetypeTableRecord
  2
CENTER
 70
     0
  3
Center ____ _ ____ _ ____ _ ____ _ ____ _ ____
 72
    65
 73
     4
 40
0.4
 49
0.25
 74
     0
 49
-0.05
 74
     0
 49
0.05
 74
     0
 49
-0.05
 74
     0
  0
LTYPE
  5
6D
330
5
100
AcDbSymbolTableRecord
100
AcDbLinetypeTableRecord
  2
CENTERX2
 70
     0
  3
Center (2x) ________  __  ________  __  _____
 72
    65
 73
     4
 40
0.8
 49
0.5
 74
     0
 49
-0.1
 74
     0
 49
0.1
 74
     0
 49
-0.1
 74
     0
  0
LTYPE
  5
6E
330
5
100
AcDbSymbolTableRecord
100
AcDbLinetypeTableRecord
  2
DOT2
 70
     0
  3
Dot (.5x) ........................................
 72
    65
 73
     2
 40
0.025
 49
0.0
 74
     0
 49
-0.025
 74
     0
  0
ENDTAB
  0
TABLE
  2
LAYER
  5
2
330
0
100
AcDbSymbolTable
 70
     2
  0
LAYER
  5
10
330
2
100
AcDbSymbolTableRecord
100
AcDbLayerTableRecord
  2
0
 70
     0
 62
     7
  6
Continuous
370
    -3
390
F
  0
LAYER
  5
6F
330
2
100
AcDbSymbolTableRecord
100
AcDbLayerTableRecord
  2
FORMAT
 70
     0
 62
     7
  6
Continuous
370
    -3
390
F
  0
ENDTAB
  0
TABLE
  2
STYLE
  5
3
330
0
100
AcDbSymbolTable
 70
     5
  0
STYLE
  5
11
330
3
100
AcDbSymbolTableRecord
100
AcDbTextStyleTableRecord
  2
Standard
 70
     0
 40
0.0
 41
1.0
 50
0.0
 71
     0
 42
0.1111111111
  3
txt
  4

  0
STYLE
  5
96
330
3
100
AcDbSymbolTableRecord
100
AcDbTextStyleTableRecord
  2
SLDTEXTSTYLE0
 70
     0
 40
0.0
 41
0.75
 50
0.0
 71
     0
 42
0.1111111111
  3
TXT
  4

  0
STYLE
  5
A2
330
3
100
AcDbSymbolTableRecord
100
AcDbTextStyleTableRecord
  2
SLDTEXTSTYLE1
 70
     0
 40
0.0
 41
0.6
 50
0.0
 71
     0
 42
0.1111111111
  3
TXT
  4

  0
STYLE
  5
A7
330
3
100
AcDbSymbolTableRecord
100
AcDbTextStyleTableRecord
  2
SLDTEXTSTYLE2
 70
     0
 40
0.0
 41
0.6875
 50
0.0
 71
     0
 42
0.1111111111
  3
TXT
  4

  0
STYLE
  5
1FA
330
3
100
AcDbSymbolTableRecord
100
AcDbTextStyleTableRecord
  2
SLDTEXTSTYLE3
 70
     0
 40
0.0
 41
0.7
 50
0.0
 71
     0
 42
0.1111111111
  3
TXT
  4

  0
ENDTAB
  0
TABLE
  2
VIEW
  5
6
330
0
100
AcDbSymbolTable
 70
     0
  0
ENDTAB
  0
TABLE
  2
UCS
  5
7
330
0
100
AcDbSymbolTable
 70
     0
  0
ENDTAB
  0
TABLE
  2
APPID
  5
9
330
0
100
AcDbSymbolTable
 70
     1
  0
APPID
  5
12
330
9
100
AcDbSymbolTableRecord
100
AcDbRegAppTableRecord
  2
ACAD
 70
     0
  0
ENDTAB
  0
TABLE
  2
DIMSTYLE
  5
A
330
0
100
AcDbSymbolTable
 70
     5
100
AcDbDimStyleTable
  0
DIMSTYLE
105
27
330
A
100
AcDbSymbolTableRecord
100
AcDbDimStyleTableRecord
  2
Standard
 70
     0
178
     0
340
11
  0
DIMSTYLE
105
11A
102
{ACAD_REACTORS
330
119
102
}
330
A
100
AcDbSymbolTableRecord
100
AcDbDimStyleTableRecord
  2
SLDDIMSTYLE0
 70
     0
 41
0.125
 44
0.0
 45
0.000000001
 78
     4
 79
     1
140
0.0833333333
141
0.0
147
0.0208333333
148
0.000000001
170
     1
171
     1
173
     1
178
     0
271
     2
272
     2
274
     1
276
     2
284
    12
340
96
  0
DIMSTYLE
105
1AC
102
{ACAD_REACTORS
330
1AB
102
}
330
A
100
AcDbSymbolTableRecord
100
AcDbDimStyleTableRecord
  2
SLDDIMSTYLE1
 70
     0
 41
0.125
 44
0.0
 45
0.000000001
 78
     4
 79
     1
140
0.0833333333
147
0.0208333333
148
0.000000001
170
     1
171
     1
173
     1
178
     0
271
     2
272
     2
274
     1
276
     2
284
    12
340
96
  0
DIMSTYLE
105
1C0
102
{ACAD_REACTORS
330
1BF
330
1D4
102
}
330
A
100
AcDbSymbolTableRecord
100
AcDbDimStyleTableRecord
  2
SLDDIMSTYLE2
 70
     0
 41
0.125
 44
0.0
 45
0.000000001
 78
     8
 79
     2
140
0.0833333333
147
0.0208333333
148
0.000000001
170
     1
171
     1
172
     1
173
     1
178
     0
271
     2
272
     2
274
     1
276
     2
284
    12
289
     0
340
96
  0
DIMSTYLE
105
1EE
330
A
100
AcDbSymbolTableRecord
100
AcDbDimStyleTableRecord
  2
SLDDIMSTYLE3
 70
     0
 41
0.125
 44
0.0
 45
0.000000001
146
0.125
147
0.0
173
     1
178
     0
271
     0
272
     0
276
     2
340
11
  0
ENDTAB
  0
TABLE
  2
BLOCK_RECORD
  5
1
330
0
100
AcDbSymbolTable
 70
    20
  0
BLOCK_RECORD
  5
1F
330
1
100
AcDbSymbolTableRecord
100
AcDbBlockTableRecord
  2
*Model_Space
340
22
  0
BLOCK_RECORD
  5
1B
330
1
100
AcDbSymbolTableRecord
100
AcDbBlockTableRecord
  2
*Paper_Space
340
1E
  0
BLOCK_RECORD
  5
23
330
1
100
AcDbSymbolTableRecord
100
AcDbBlockTableRecord
  2
*Paper_Space0
340
26
  0
BLOCK_RECORD
  5
70
330
1
100
AcDbSymbolTableRecord
100
AcDbBlockTableRecord
  2
Third Angle Projection Block
340
0
102
{BLKREFS
331
95
102
}
  0
BLOCK_RECORD
  5
A9
330
1
100
AcDbSymbolTableRecord
100
AcDbBlockTableRecord
  2
SW_NOTE_0
340
0
102
{BLKREFS
331
AE
102
}
  0
BLOCK_RECORD
  5
AF
330
1
100
AcDbSymbolTableRecord
100
AcDbBlockTableRecord
  2
SW_NOTE_1
340
0
102
{BLKREFS
331
B4
102
}
  0
BLOCK_RECORD
  5
B6
330
1
100
AcDbSymbolTableRecord
100
AcDbBlockTableRecord
  2
SW_NOTE_2
340
0
102
{BLKREFS
331
BC
102
}
  0
BLOCK_RECORD
  5
BE
330
1
100
AcDbSymbolTableRecord
100
AcDbBlockTableRecord
  2
SW_NOTE_3
340
0
102
{BLKREFS
331
C3
102
}
  0
BLOCK_RECORD
  5
C4
330
1
100
AcDbSymbolTableRecord
100
AcDbBlockTableRecord
  2
SW_NOTE_4
340
0
102
{BLKREFS
331
D6
102
}
  0
BLOCK_RECORD
  5
D7
330
1
100
AcDbSymbolTableRecord
100
AcDbBlockTableRecord
  2
SW_TABLEANNOTATION_0
340
0
102
{BLKREFS
331
100
102
}
  0
BLOCK_RECORD
  5
E5
330
1
100
AcDbSymbolTableRecord
100
AcDbBlockTableRecord
  2
SW_SYMBOL_C#_1
340
0
102
{BLKREFS
331
EA
102
}
  0
BLOCK_RECORD
  5
EE
330
1
100
AcDbSymbolTableRecord
100
AcDbBlockTableRecord
  2
SW_SYMBOL_C#_2
340
0
102
{BLKREFS
331
F3
102
}
  0
BLOCK_RECORD
  5
F6
330
1
100
AcDbSymbolTableRecord
100
AcDbBlockTableRecord
  2
SW_SYMBOL_C#_3
340
0
102
{BLKREFS
331
FB
102
}
  0
BLOCK_RECORD
  5
11B
330
1
100
AcDbSymbolTableRecord
100
AcDbBlockTableRecord
  2
_D
340
0
  0
BLOCK_RECORD
  5
1AD
330
1
100
AcDbSymbolTableRecord
100
AcDbBlockTableRecord
  2
_D_1
340
0
  0
BLOCK_RECORD
  5
1C1
330
1
100
AcDbSymbolTableRecord
100
AcDbBlockTableRecord
  2
_D_2
340
0
  0
BLOCK_RECORD
  5
1D5
330
1
100
AcDbSymbolTableRecord
100
AcDbBlockTableRecord
  2
_D_3
340
0
  0
BLOCK_RECORD
  5
1E8
330
1
100
AcDbSymbolTableRecord
100
AcDbBlockTableRecord
  2
SW_NOTE_5
340
0
102
{BLKREFS
331
1ED
102
}
  0
BLOCK_RECORD
  5
1F0
330
1
100
AcDbSymbolTableRecord
100
AcDbBlockTableRecord
  2
SW_NOTE_6
340
0
102
{BLKREFS
331
1F5
102
}
  0
BLOCK_RECORD
  5
1F7
330
1
100
AcDbSymbolTableRecord
100
AcDbBlockTableRecord
  2
SW_NOTE_7
340
0
102
{BLKREFS
331
1FE
102
}
  0
BLOCK_RECORD
  5
200
330
1
100
AcDbSymbolTableRecord
100
AcDbBlockTableRecord
  2
SW_NOTE_8
340
0
102
{BLKREFS
331
205
102
}
  0
BLOCK_RECORD
  5
207
330
1
100
AcDbSymbolTableRecord
100
AcDbBlockTableRecord
  2
SW_NOTE_9
340
0
102
{BLKREFS
331
20D
102
}
  0
ENDTAB
  0
ENDSEC
  0
SECTION
  2
BLOCKS
  0
BLOCK
  5
20
330
1F
100
AcDbEntity
  8
0
100
AcDbBlockBegin
  2
*Model_Space
 70
     0
 10
0.0
 20
0.0
 30
0.0
  3
*Model_Space
  1
*Model_Space
  0
ENDBLK
  5
21
330
1F
100
AcDbEntity
  8
0
100
AcDbBlockEnd
  0
BLOCK
  5
1C
330
1B
100
AcDbEntity
 67
     1
  8
0
100
AcDbBlockBegin
  2
*Paper_Space
 70
     0
 10
0.0
 20
0.0
 30
0.0
  3
*Paper_Space
  1
*Paper_Space
  0
ENDBLK
  5
1D
330
1B
100
AcDbEntity
 67
     1
  8
0
100
AcDbBlockEnd
  0
BLOCK
  5
24
330
23
100
AcDbEntity
  8
0
100
AcDbBlockBegin
  2
*Paper_Space0
 70
     0
 10
0.0
 20
0.0
 30
0.0
  3
*Paper_Space0
  1
*Paper_Space0
  0
ENDBLK
  5
25
330
23
100
AcDbEntity
  8
0
100
AcDbBlockEnd
  0
BLOCK
  5
71
330
70
100
AcDbEntity
  8
0
100
AcDbBlockBegin
  2
Third Angle Projection Block
 70
     0
 10
0.0
 20
0.0
 30
0.0
  3
Third Angle Projection Block
  1
Third Angle Projection Block
  0
CIRCLE
  5
73
330
70
100
AcDbEntity
  8
0
  6
Continuous
 62
     7
370
    30
100
AcDbCircle
 10
3.9951432636
 20
0.7456853688
 30
0.0
 40
0.0696152422706639
  0
CIRCLE
  5
74
330
70
100
AcDbEntity
  8
0
  6
Continuous
 62
     7
370
    30
100
AcDbCircle
 10
3.9951432636
 20
0.7456853688
 30
0.0
 40
0.1535916633280245
  0
LINE
  5
75
330
70
100
AcDbEntity
  8
0
  6
CENTERX2
 62
     7
370
     0
100
AcDbLine
 10
4.3360937897
 20
0.7456853688
 30
0.0
 11
4.7028635231
 21
0.7456853688
 31
0.0
  0
LINE
  5
76
330
70
100
AcDbEntity
  8
0
  6
Continuous
 62
     7
370
    30
100
AcDbLine
 10
4.3701432636
 20
0.815300611
 30
0.0
 11
4.3701432636
 21
0.6760701265
 31
0.0
  0
LINE
  5
77
330
70
100
AcDbEntity
  8
0
  6
Continuous
 62
     7
370
    30
100
AcDbLine
 10
4.3701432636
 20
0.6760701265
 30
0.0
 11
4.6701432636
 21
0.5956853688
 31
0.0
  0
LINE
  5
78
330
70
100
AcDbEntity
  8
0
  6
Continuous
 62
     7
370
    30
100
AcDbLine
 10
4.6701432636
 20
0.5956853688
 30
0.0
 11
4.6701432636
 21
0.8956853688
 31
0.0
  0
LINE
  5
79
330
70
100
AcDbEntity
  8
0
  6
Continuous
 62
     7
370
    30
100
AcDbLine
 10
4.6701432636
 20
0.8956853688
 30
0.0
 11
4.3701432636
 21
0.815300611
 31
0.0
  0
LINE
  5
7A
330
70
100
AcDbEntity
  8
0
  6
CENTERX2
 62
     7
370
     0
100
AcDbLine
 10
3.8032513961
 20
0.7456853688
 30
0.0
 11
4.187035131
 21
0.7456853688
 31
0.0
  0
LINE
  5
7B
330
70
100
AcDbEntity
  8
0
  6
CENTERX2
 62
     7
370
     0
100
AcDbLine
 10
3.9951432636
 20
0.9375772362
 30
0.0
 11
3.9951432636
 21
0.5537935013
 31
0.0
  0
POINT
  5
7C
330
70
100
AcDbEntity
  8
0
  6
Continuous
 62
     7
370
     0
100
AcDbPoint
 10
3.9951432636
 20
0.7456853688
 30
0.0
  0
ENDBLK
  5
72
330
70
100
AcDbEntity
  8
0
100
AcDbBlockEnd
  0
BLOCK
  5
AA
330
A9
100
AcDbEntity
  8
0
100
AcDbBlockBegin
  2
SW_NOTE_0
 70
     0
 10
0.0
 20
0.0
 30
0.0
  3
SW_NOTE_0
  1
SW_NOTE_0
  0
MTEXT
  5
AC
330
A9
100
AcDbEntity
  8
0
  6
Continuous
 62
     0
370
     0
100
AcDbMText
 10
0.78375
 20
0.0773440644
 30
0.0
 40
0.06
 41
0.0
 71
     2
 72
     1
  1
VALUES IN PARENTHESIS ARE CALCULATED
  7
SLDTEXTSTYLE0
 73
     1
 44
1.0
  0
MTEXT
  5
AD
330
A9
100
AcDbEntity
  8
0
  6
Continuous
 62
     0
370
     0
100
AcDbMText
 10
0.7825936818
 20
-0.0220260102
 30
0.0
 40
0.06
 41
0.0
 71
     2
 72
     1
  1
AND MAY CONTAIN ROUNDOFF ERRORS
  7
SLDTEXTSTYLE0
 73
     1
 44
1.0
  0
ENDBLK
  5
AB
330
A9
100
AcDbEntity
  8
0
100
AcDbBlockEnd
  0
BLOCK
  5
B0
330
AF
100
AcDbEntity
  8
0
100
AcDbBlockBegin
  2
SW_NOTE_1
 70
     0
 10
0.0
 20
0.0
 30
0.0
  3
SW_NOTE_1
  1
SW_NOTE_1
  0
MTEXT
  5
B2
330
AF
100
AcDbEntity
  8
0
  6
Continuous
 62
     0
370
     0
100
AcDbMText
 10
0.0
 20
0.1074223116
 30
0.0
 40
0.0833333333
 41
0.0
 71
     1
 72
     1
  1
DRAWING
  7
SLDTEXTSTYLE0
 73
     1
 44
1.0
  0
MTEXT
  5
B3
330
AF
100
AcDbEntity
  8
0
  6
Continuous
 62
     0
370
     0
100
AcDbMText
 10
0.0
 20
-0.0036887981
 30
0.0
 40
0.0833333333
 41
0.0
 71
     1
 72
     1
  1
PROJECTION
  7
SLDTEXTSTYLE0
 73
     1
 44
1.0
  0
ENDBLK
  5
B1
330
AF
100
AcDbEntity
  8
0
100
AcDbBlockEnd
  0
BLOCK
  5
B7
330
B6
100
AcDbEntity
  8
0
100
AcDbBlockBegin
  2
SW_NOTE_2
 70
     0
 10
0.0
 20
0.0
 30
0.0
  3
SW_NOTE_2
  1
SW_NOTE_2
  0
MTEXT
  5
B9
330
B6
100
AcDbEntity
  8
0
  6
Continuous
 62
     0
370
     0
100
AcDbMText
 10
0.0823567708
 20
0.1477056785
 30
0.0
 40
0.1145833333
 41
0.0
 71
     2
 72
     1
  1
%%c
  7
SLDTEXTSTYLE0
 73
     1
 44
1.0
  0
MTEXT
  5
BA
330
B6
100
AcDbEntity
  8
0
  6
Continuous
 62
     0
370
     0
100
AcDbMText
 10
1.2471759303
 20
0.1477056785
 30
0.0
 40
0.1145833333
 41
0.0
 71
     2
 72
     1
  1
2" MOUNTED PLANO-CONVEX
  7
SLDTEXTSTYLE0
 73
     1
 44
1.0
  0
MTEXT
  5
BB
330
B6
100
AcDbEntity
  8
0
  6
Continuous
 62
     0
370
     0
100
AcDbMText
 10
1.1879905698
 20
-0.0050720974
 30
0.0
 40
0.1145833333
 41
0.0
 71
     2
 72
     1
  1
LENS, f=200mm
  7
SLDTEXTSTYLE0
 73
     1
 44
1.0
  0
ENDBLK
  5
B8
330
B6
100
AcDbEntity
  8
0
100
AcDbBlockEnd
  0
BLOCK
  5
BF
330
BE
100
AcDbEntity
  8
0
100
AcDbBlockBegin
  2
SW_NOTE_3
 70
     0
 10
0.0
 20
0.0
 30
0.0
  3
SW_NOTE_3
  1
SW_NOTE_3
  0
MTEXT
  5
C1
330
BE
100
AcDbEntity
  8
0
  6
Continuous
 62
     0
370
     0
100
AcDbMText
 10
0.986328125
 20
0.1611334675
 30
0.0
 40
0.125
 41
0.0
 71
     2
 72
     1
  1
FOR INFORMATION ONLY
  7
SLDTEXTSTYLE0
 73
     1
 44
1.0
  0
MTEXT
  5
C2
330
BE
100
AcDbEntity
  8
0
  6
Continuous
 62
     0
370
     0
100
AcDbMText
 10
0.999088459
 20
-0.0055331972
 30
0.0
 40
0.125
 41
0.0
 71
     2
 72
     1
  1
NOT FOR MANUFACTURING PURPOSES
  7
SLDTEXTSTYLE0
 73
     1
 44
1.0
  0
ENDBLK
  5
C0
330
BE
100
AcDbEntity
  8
0
100
AcDbBlockEnd
  0
BLOCK
  5
C5
330
C4
100
AcDbEntity
  8
0
100
AcDbBlockBegin
  2
SW_NOTE_4
 70
     0
 10
0.0
 20
0.0
 30
0.0
  3
SW_NOTE_4
  1
SW_NOTE_4
  0
MTEXT
  5
C7
330
C4
100
AcDbEntity
  8
0
  6
Continuous
 62
     0
370
     0
100
AcDbMText
 10
0.0
 20
0.1074223116
 30
0.0
 40
0.0833333333
 41
0.0
 71
     1
 72
     1
  1
NOTES/SPECIFICATIONS:
  7
SLDTEXTSTYLE0
 73
     1
 44
1.0
  0
MTEXT
  5
C8
330
C4
100
AcDbEntity
  8
0
  6
Continuous
 62
     0
370
     0
100
AcDbMText
 10
0.4183921567
 20
-0.1147999079
 30
0.0
 40
0.0833333333
 41
0.0
 71
     1
 72
     1
  1
DESIGN WAVELENGTH: 546nm
  7
SLDTEXTSTYLE0
 73
     1
 44
1.0
  0
MTEXT
  5
C9
330
C4
100
AcDbEntity
  8
0
  6
Continuous
 62
     0
370
     0
100
AcDbMText
 10
0.0
 20
-0.1147999079
 30
0.0
 40
0.0833333333
 41
0.0
 71
     1
 72
     1
  1
1.
  7
SLDTEXTSTYLE0
 73
     1
 44
1.0
  0
MTEXT
  5
CA
330
C4
100
AcDbEntity
  8
0
  6
Continuous
 62
     0
370
     0
100
AcDbMText
 10
0.4183921567
 20
-0.2259110177
 30
0.0
 40
0.0833333333
 41
0.0
 71
     1
 72
     1
  1
FOCAL LENGTH: f=200.0mm
  7
SLDTEXTSTYLE0
 73
     1
 44
1.0
  0
MTEXT
  5
CB
330
C4
100
AcDbEntity
  8
0
  6
Continuous
 62
     0
370
     0
100
AcDbMText
 10
1.8858304981
 20
-0.2259110177
 30
0.0
 40
0.0833333333
 41
0.0
 71
     1
 72
     1
  1
%%p
  7
SLDTEXTSTYLE0
 73
     1
 44
1.0
  0
MTEXT
  5
CC
330
C4
100
AcDbEntity
  8
0
  6
Continuous
 62
     0
370
     0
100
AcDbMText
 10
1.9652749536
 20
-0.2259110177
 30
0.0
 40
0.0833333333
 41
0.0
 71
     1
 72
     1
  1
1%
  7
SLDTEXTSTYLE0
 73
     1
 44
1.0
  0
MTEXT
  5
CD
330
C4
100
AcDbEntity
  8
0
  6
Continuous
 62
     0
370
     0
100
AcDbMText
 10
0.0
 20
-0.2259110177
 30
0.0
 40
0.0833333333
 41
0.0
 71
     1
 72
     1
  1
2.
  7
SLDTEXTSTYLE0
 73
     1
 44
1.0
  0
MTEXT
  5
CE
330
C4
100
AcDbEntity
  8
0
  6
Continuous
 62
     0
370
     0
100
AcDbMText
 10
0.4183921567
 20
-0.3370221274
 30
0.0
 40
0.0833333333
 41
0.0
 71
     1
 72
     1
  1
WORKING DISTANCE (REF): 191.7mm
  7
SLDTEXTSTYLE0
 73
     1
 44
1.0
  0
MTEXT
  5
CF
330
C4
100
AcDbEntity
  8
0
  6
Continuous
 62
     0
370
     0
100
AcDbMText
 10
0.0
 20
-0.3370221274
 30
0.0
 40
0.0833333333
 41
0.0
 71
     1
 72
     1
  1
3.
  7
SLDTEXTSTYLE0
 73
     1
 44
1.0
  0
MTEXT
  5
D0
330
C4
100
AcDbEntity
  8
0
  6
Continuous
 62
     0
370
     0
100
AcDbMText
 10
0.4183921567
 20
-0.4481332372
 30
0.0
 40
0.0833333333
 41
0.0
 71
     1
 72
     1
  1
CLEAR APERTURE: >
  7
SLDTEXTSTYLE0
 73
     1
 44
1.0
  0
MTEXT
  5
D1
330
C4
100
AcDbEntity
  8
0
  6
Continuous
 62
     0
370
     0
100
AcDbMText
 10
1.4507996036
 20
-0.4481332372
 30
0.0
 40
0.0833333333
 41
0.0
 71
     1
 72
     1
  1
%%c
  7
SLDTEXTSTYLE0
 73
     1
 44
1.0
  0
MTEXT
  5
D2
330
C4
100
AcDbEntity
  8
0
  6
Continuous
 62
     0
370
     0
100
AcDbMText
 10
1.5765865971
 20
-0.4481332372
 30
0.0
 40
0.0833333333
 41
0.0
 71
     1
 72
     1
  1
45.72mm
  7
SLDTEXTSTYLE0
 73
     1
 44
1.0
  0
MTEXT
  5
D3
330
C4
100
AcDbEntity
  8
0
  6
Continuous
 62
     0
370
     0
100
AcDbMText
 10
0.0
 20
-0.4481332372
 30
0.0
 40
0.0833333333
 41
0.0
 71
     1
 72
     1
  1
4.
  7
SLDTEXTSTYLE0
 73
     1
 44
1.0
  0
MTEXT
  5
D4
330
C4
100
AcDbEntity
  8
0
  6
Continuous
 62
     0
370
     0
100
AcDbMText
 10
0.4183921567
 20
-0.559244347
 30
0.0
 40
0.0833333333
 41
0.0
 71
     1
 72
     1
  1
SURFACE QUALITY: 40-20 SCRATCH-DIG
  7
SLDTEXTSTYLE0
 73
     1
 44
1.0
  0
MTEXT
  5
D5
330
C4
100
AcDbEntity
  8
0
  6
Continuous
 62
     0
370
     0
100
AcDbMText
 10
0.0
 20
-0.559244347
 30
0.0
 40
0.0833333333
 41
0.0
 71
     1
 72
     1
  1
5.
  7
SLDTEXTSTYLE0
 73
     1
 44
1.0
  0
ENDBLK
  5
C6
330
C4
100
AcDbEntity
  8
0
100
AcDbBlockEnd
  0
BLOCK
  5
D8
330
D7
100
AcDbEntity
  8
0
100
AcDbBlockBegin
  2
SW_TABLEANNOTATION_0
 70
     0
 10
0.0
 20
0.0
 30
0.0
  3
SW_TABLEANNOTATION_0
  1
SW_TABLEANNOTATION_0
  0
LINE
  5
DA
330
D7
100
AcDbEntity
  8
0
  6
Continuous
 62
     0
370
     0
100
AcDbLine
 10
0.0
 20
0.0
 30
0.0
 11
0.0
 21
-1.2444444391
 31
0.0
  0
LINE
  5
DB
330
D7
100
AcDbEntity
  8
0
  6
Continuous
 62
     0
370
     0
100
AcDbLine
 10
0.0
 20
-1.2444444391
 30
0.0
 11
3.3
 21
-1.2444444391
 31
0.0
  0
LINE
  5
DC
330
D7
100
AcDbEntity
  8
0
  6
Continuous
 62
     0
370
     0
100
AcDbLine
 10
3.3
 20
-1.2444444391
 30
0.0
 11
3.3
 21
0.0
 31
0.0
  0
LINE
  5
DD
330
D7
100
AcDbEntity
  8
0
  6
Continuous
 62
     0
370
     0
100
AcDbLine
 10
3.3
 20
0.0
 30
0.0
 11
0.0
 21
0.0
 31
0.0
  0
LINE
  5
DE
330
D7
100
AcDbEntity
  8
0
  6
Continuous
 62
     0
370
     0
100
AcDbLine
 10
1.1
 20
0.0
 30
0.0
 11
1.1
 21
-1.2444444391
 31
0.0
  0
LINE
  5
DF
330
D7
100
AcDbEntity
  8
0
  6
Continuous
 62
     0
370
     0
100
AcDbLine
 10
2.2
 20
0.0
 30
0.0
 11
2.2
 21
-1.2444444391
 31
0.0
  0
LINE
  5
E0
330
D7
100
AcDbEntity
  8
0
  6
Continuous
 62
     0
370
     0
100
AcDbLine
 10
0.0
 20
-0.3111111098
 30
0.0
 11
3.3
 21
-0.3111111098
 31
0.0
  0
LINE
  5
E1
330
D7
100
AcDbEntity
  8
0
  6
Continuous
 62
     0
370
     0
100
AcDbLine
 10
0.0
 20
-0.6222222195
 30
0.0
 11
3.3
 21
-0.6222222195
 31
0.0
  0
LINE
  5
E2
330
D7
100
AcDbEntity
  8
0
  6
Continuous
 62
     0
370
     0
100
AcDbLine
 10
0.0
 20
-0.9333333293
 30
0.0
 11
3.3
 21
-0.9333333293
 31
0.0
  0
MTEXT
  5
E3
330
D7
100
AcDbEntity
  8
0
  6
Continuous
 62
     0
370
     0
100
AcDbMText
 10
1.1543981952
 20
-0.1141206209
 30
0.0
 40
0.0833333333
 41
0.0
 71
     1
 72
     1
  1
PART DESCRIPTION
  7
SLDTEXTSTYLE0
 73
     1
 44
1.0
  0
MTEXT
  5
E4
330
D7
100
AcDbEntity
  8
0
  6
Continuous
 62
     0
370
     0
100
AcDbMText
 10
2.491203698
 20
-0.1141206209
 30
0.0
 40
0.0833333333
 41
0.0
 71
     1
 72
     1
  1
MATERIAL
  7
SLDTEXTSTYLE0
 73
     1
 44
1.0
  0
INSERT
  5
EA
330
D7
100
AcDbEntity
  8
0
  6
Continuous
 62
     0
370
     0
100
AcDbBlockReference
  2
SW_SYMBOL_C#_1
 10
0.4374537001
 20
-0.5210980527
 30
0.0
 41
0.0027037109
 42
0.0027037109
 43
0.0027037109
  0
MTEXT
  5
EB
330
D7
100
AcDbEntity
  8
0
  6
Continuous
 62
     0
370
     0
100
AcDbMText
 10
1.4729938215
 20
-0.4252317307
 30
0.0
 40
0.0833333333
 41
0.0
 71
     1
 72
     1
  1
SM2RR
  7
SLDTEXTSTYLE0
 73
     1
 44
1.0
  0
MTEXT
  5
EC
330
D7
100
AcDbEntity
  8
0
  6
Continuous
 62
     0
370
     0
100
AcDbMText
 10
2.4676697448
 20
-0.3696761758
 30
0.0
 40
0.0833333333
 41
0.0
 71
     1
 72
     1
  1
ANODIZED
  7
SLDTEXTSTYLE0
 73
     1
 44
1.0
  0
MTEXT
  5
ED
330
D7
100
AcDbEntity
  8
0
  6
Continuous
 62
     0
370
     0
100
AcDbMText
 10
2.4546296155
 20
-0.4807872855
 30
0.0
 40
0.0833333333
 41
0.0
 71
     1
 72
     1
  1
ALUMINUM
  7
SLDTEXTSTYLE0
 73
     1
 44
1.0
  0
INSERT
  5
F3
330
D7
100
AcDbEntity
  8
0
  6
Continuous
 62
     0
370
     0
100
AcDbBlockReference
  2
SW_SYMBOL_C#_2
 10
0.4374537001
 20
-0.8322091625
 30
0.0
 41
0.0027037109
 42
0.0027037109
 43
0.0027037109
  0
MTEXT
  5
F4
330
D7
100
AcDbEntity
  8
0
  6
Continuous
 62
     0
370
     0
100
AcDbMText
 10
1.4600308562
 20
-0.7363428404
 30
0.0
 40
0.0833333333
 41
0.0
 71
     1
 72
     1
  1
LA4984
  7
SLDTEXTSTYLE0
 73
     1
 44
1.0
  0
MTEXT
  5
F5
330
D7
100
AcDbEntity
  8
0
  6
Continuous
 62
     0
370
     0
100
AcDbMText
 10
2.3169753357
 20
-0.7363428404
 30
0.0
 40
0.0833333333
 41
0.0
 71
     1
 72
     1
  1
UV FUSED SILICA
  7
SLDTEXTSTYLE0
 73
     1
 44
1.0
  0
INSERT
  5
FB
330
D7
100
AcDbEntity
  8
0
  6
Continuous
 62
     0
370
     0
100
AcDbBlockReference
  2
SW_SYMBOL_C#_3
 10
0.4374537001
 20
-1.1433202723
 30
0.0
 41
0.0027037109
 42
0.0027037109
 43
0.0027037109
  0
MTEXT
  5
FC
330
D7
100
AcDbEntity
  8
0
  6
Continuous
 62
     0
370
     0
100
AcDbMText
 10
1.3456018548
 20
-0.9918983953
 30
0.0
 40
0.0833333333
 41
0.0
 71
     1
 72
     1
  1
ENGRAVED
  7
SLDTEXTSTYLE0
 73
     1
 44
1.0
  0
MTEXT
  5
FD
330
D7
100
AcDbEntity
  8
0
  6
Continuous
 62
     0
370
     0
100
AcDbMText
 10
1.3975308615
 20
-1.1030095051
 30
0.0
 40
0.0833333333
 41
0.0
 71
     1
 72
     1
  1
HOUSING
  7
SLDTEXTSTYLE0
 73
     1
 44
1.0
  0
MTEXT
  5
FE
330
D7
100
AcDbEntity
  8
0
  6
Continuous
 62
     0
370
     0
100
AcDbMText
 10
2.4676697448
 20
-0.9918983953
 30
0.0
 40
0.0833333333
 41
0.0
 71
     1
 72
     1
  1
ANODIZED
  7
SLDTEXTSTYLE0
 73
     1
 44
1.0
  0
MTEXT
  5
FF
330
D7
100
AcDbEntity
  8
0
  6
Continuous
 62
     0
370
     0
100
AcDbMText
 10
2.4546296155
 20
-1.1030095051
 30
0.0
 40
0.0833333333
 41
0.0
 71
     1
 72
     1
  1
ALUMINUM
  7
SLDTEXTSTYLE0
 73
     1
 44
1.0
  0
ENDBLK
  5
D9
330
D7
100
AcDbEntity
  8
0
100
AcDbBlockEnd
  0
BLOCK
  5
E6
330
E5
100
AcDbEntity
  8
0
100
AcDbBlockBegin
  2
SW_SYMBOL_C#_1
 70
     0
 10
0.0
 20
0.0
 30
0.0
  3
SW_SYMBOL_C#_1
  1
SW_SYMBOL_C#_1
  0
CIRCLE
  5
E8
330
E5
100
AcDbEntity
  8
0
  6
Continuous
 62
     0
370
     0
100
AcDbCircle
 10
31.4960629921
 20
19.6850393701
 30
0.0
 40
31.49606299212599
  0
MTEXT
  5
E9
330
E5
100
AcDbEntity
  8
0
  6
Continuous
 62
     0
370
     0
100
AcDbMText
 10
31.4960629921
 20
19.6850393701
 30
0.0
 40
30.821835344
 41
0.0
 71
     5
 72
     1
  1
1
  7
SLDTEXTSTYLE0
 73
     1
 44
1.0
  0
ENDBLK
  5
E7
330
E5
100
AcDbEntity
  8
0
100
AcDbBlockEnd
  0
BLOCK
  5
EF
330
EE
100
AcDbEntity
  8
0
100
AcDbBlockBegin
  2
SW_SYMBOL_C#_2
 70
     0
 10
0.0
 20
0.0
 30
0.0
  3
SW_SYMBOL_C#_2
  1
SW_SYMBOL_C#_2
  0
CIRCLE
  5
F1
330
EE
100
AcDbEntity
  8
0
  6
Continuous
 62
     0
370
     0
100
AcDbCircle
 10
31.4960629921
 20
19.6850393701
 30
0.0
 40
31.49606299212599
  0
MTEXT
  5
F2
330
EE
100
AcDbEntity
  8
0
  6
Continuous
 62
     0
370
     0
100
AcDbMText
 10
31.4960629921
 20
19.6850393701
 30
0.0
 40
30.821835344
 41
0.0
 71
     5
 72
     1
  1
2
  7
SLDTEXTSTYLE0
 73
     1
 44
1.0
  0
ENDBLK
  5
F0
330
EE
100
AcDbEntity
  8
0
100
AcDbBlockEnd
  0
BLOCK
  5
F7
330
F6
100
AcDbEntity
  8
0
100
AcDbBlockBegin
  2
SW_SYMBOL_C#_3
 70
     0
 10
0.0
 20
0.0
 30
0.0
  3
SW_SYMBOL_C#_3
  1
SW_SYMBOL_C#_3
  0
CIRCLE
  5
F9
330
F6
100
AcDbEntity
  8
0
  6
Continuous
 62
     0
370
     0
100
AcDbCircle
 10
31.4960629921
 20
19.6850393701
 30
0.0
 40
31.49606299212599
  0
MTEXT
  5
FA
330
F6
100
AcDbEntity
  8
0
  6
Continuous
 62
     0
370
     0
100
AcDbMText
 10
31.4960629921
 20
19.6850393701
 30
0.0
 40
30.821835344
 41
0.0
 71
     5
 72
     1
  1
3
  7
SLDTEXTSTYLE0
 73
     1
 44
1.0
  0
ENDBLK
  5
F8
330
F6
100
AcDbEntity
  8
0
100
AcDbBlockEnd
  0
BLOCK
  5
11C
330
11B
100
AcDbEntity
  8
0
100
AcDbBlockBegin
  2
_D
 70
     0
 10
0.0
 20
0.0
 30
0.0
  3
_D
  1
_D
  0
SOLID
  5
11E
330
11B
100
AcDbEntity
  8
0
  6
Continuous
 62
     7
370
     0
100
AcDbTrace
 10
3.9693113758
 20
5.1201159179
 30
0.0
 11
4.061222664
 21
5.2071636928
 31
0.0
 12
4.0294742768
 22
5.231495563
 32
0.0
 13
4.0294742768
 23
5.231495563
 33
0.0
  0
LINE
  5
11F
330
11B
100
AcDbEntity
  8
0
  6
Continuous
 62
     7
370
     0
100
AcDbLine
 10
4.5558058049
 20
5.5831219022
 30
0.0
 11
4.5389076568
 21
5.5831219022
 31
0.0
  0
LINE
  5
120
330
11B
100
AcDbEntity
  8
0
  6
Continuous
 62
     7
370
     0
100
AcDbLine
 10
4.5389076568
 20
5.5831219022
 30
0.0
 11
4.5389076568
 21
5.4507144976
 31
0.0
  0
LINE
  5
121
330
11B
100
AcDbEntity
  8
0
  6
Continuous
 62
     7
370
     0
100
AcDbLine
 10
4.5389076568
 20
5.4507144976
 30
0.0
 11
4.5558058049
 21
5.4507144976
 31
0.0
  0
LINE
  5
122
330
11B
100
AcDbEntity
  8
0
  6
Continuous
 62
     7
370
     0
100
AcDbLine
 10
5.0218166246
 20
5.5831219022
 30
0.0
 11
5.0387147726
 21
5.5831219022
 31
0.0
  0
LINE
  5
123
330
11B
100
AcDbEntity
  8
0
  6
Continuous
 62
     7
370
     0
100
AcDbLine
 10
5.0387147726
 20
5.5831219022
 30
0.0
 11
5.0387147726
 21
5.4507144976
 31
0.0
  0
LINE
  5
124
330
11B
100
AcDbEntity
  8
0
  6
Continuous
 62
     7
370
     0
100
AcDbLine
 10
5.0387147726
 20
5.4507144976
 30
0.0
 11
5.0218166246
 21
5.4507144976
 31
0.0
  0
LINE
  5
125
330
11B
100
AcDbEntity
  8
0
  6
Continuous
 62
     7
370
     0
100
AcDbLine
 10
3.9693113758
 20
5.1201159179
 30
0.0
 11
4.3762340455
 21
5.651071341
 31
0.0
  0
LINE
  5
126
330
11B
100
AcDbEntity
  8
0
  6
Continuous
 62
     7
370
     0
100
AcDbLine
 10
4.3762340455
 20
5.651071341
 30
0.0
 11
4.5262340455
 21
5.651071341
 31
0.0
  0
MTEXT
  5
127
330
11B
100
AcDbEntity
  8
0
  6
Continuous
 62
     7
370
     0
100
AcDbMText
 10
4.5262340455
 20
5.7074423607
 30
0.0
 40
0.0833333333
 41
0.0
 71
     1
 72
     1
  1
%%c
  7
SLDTEXTSTYLE0
 73
     1
 44
1.0
  0
MTEXT
  5
128
330
11B
100
AcDbEntity
  8
0
  6
Continuous
 62
     7
370
     0
100
AcDbMText
 10
4.6520210849
 20
5.7074423607
 30
0.0
 40
0.0833333333
 41
0.0
 71
     1
 72
     1
  1
2.20in
  7
SLDTEXTSTYLE0
 73
     1
 44
1.0
  0
MTEXT
  5
129
330
11B
100
AcDbEntity
  8
0
  6
Continuous
 62
     7
370
     0
100
AcDbMText
 10
4.5769284907
 20
5.5581368047
 30
0.0
 40
0.0833333333
 41
0.0
 71
     1
 72
     1
  1
55.9mm
  7
SLDTEXTSTYLE0
 73
     1
 44
1.0
  0
ENDBLK
  5
11D
330
11B
100
AcDbEntity
  8
0
100
AcDbBlockEnd
  0
BLOCK
  5
1AE
330
1AD
100
AcDbEntity
  8
0
100
AcDbBlockBegin
  2
_D_1
 70
     0
 10
0.0
 20
0.0
 30
0.0
  3
_D_1
  1
_D_1
  0
SOLID
  5
1B0
330
1AD
100
AcDbEntity
  8
0
  6
Continuous
 62
     7
370
     0
100
AcDbTrace
 10
8.2168730683
 20
5.1970352703
 30
0.0
 11
8.1968730683
 21
5.0720352703
 31
0.0
 12
8.2368730683
 22
5.0720352703
 32
0.0
 13
8.2368730683
 23
5.0720352703
 33
0.0
  0
SOLID
  5
1B1
330
1AD
100
AcDbEntity
  8
0
  6
Continuous
 62
     7
370
     0
100
AcDbTrace
 10
8.2168730683
 20
3.2970352703
 30
0.0
 11
8.2368730683
 21
3.4220352703
 31
0.0
 12
8.1968730683
 22
3.4220352703
 32
0.0
 13
8.1968730683
 23
3.4220352703
 33
0.0
  0
LINE
  5
1B2
330
1AD
100
AcDbEntity
  8
0
  6
Continuous
 62
     7
370
     0
100
AcDbLine
 10
7.9838676676
 20
4.2576834131
 30
0.0
 11
7.9669695195
 21
4.2576834131
 31
0.0
  0
LINE
  5
1B3
330
1AD
100
AcDbEntity
  8
0
  6
Continuous
 62
     7
370
     0
100
AcDbLine
 10
7.9669695195
 20
4.2576834131
 30
0.0
 11
7.9669695195
 21
4.1252760085
 31
0.0
  0
LINE
  5
1B4
330
1AD
100
AcDbEntity
  8
0
  6
Continuous
 62
     7
370
     0
100
AcDbLine
 10
7.9669695195
 20
4.1252760085
 30
0.0
 11
7.9838676676
 21
4.1252760085
 31
0.0
  0
LINE
  5
1B5
330
1AD
100
AcDbEntity
  8
0
  6
Continuous
 62
     7
370
     0
100
AcDbLine
 10
8.4498784873
 20
4.2576834131
 30
0.0
 11
8.4667766353
 21
4.2576834131
 31
0.0
  0
LINE
  5
1B6
330
1AD
100
AcDbEntity
  8
0
  6
Continuous
 62
     7
370
     0
100
AcDbLine
 10
8.4667766353
 20
4.2576834131
 30
0.0
 11
8.4667766353
 21
4.1252760085
 31
0.0
  0
LINE
  5
1B7
330
1AD
100
AcDbEntity
  8
0
  6
Continuous
 62
     7
370
     0
100
AcDbLine
 10
8.4667766353
 20
4.1252760085
 30
0.0
 11
8.4498784873
 21
4.1252760085
 31
0.0
  0
LINE
  5
1B8
330
1AD
100
AcDbEntity
  8
0
  6
Continuous
 62
     7
370
     0
100
AcDbLine
 10
7.5651160685
 20
5.1970352703
 30
0.0
 11
8.2868730683
 21
5.1970352703
 31
0.0
  0
LINE
  5
1B9
330
1AD
100
AcDbEntity
  8
0
  6
Continuous
 62
     7
370
     0
100
AcDbLine
 10
7.5651160685
 20
3.2970352703
 30
0.0
 11
8.2868730683
 21
3.2970352703
 31
0.0
  0
LINE
  5
1BA
330
1AD
100
AcDbEntity
  8
0
  6
Continuous
 62
     7
370
     0
100
AcDbLine
 10
8.2168730683
 20
5.1970352703
 30
0.0
 11
8.2168730683
 21
4.3856926743
 31
0.0
  0
LINE
  5
1BB
330
1AD
100
AcDbEntity
  8
0
  6
Continuous
 62
     7
370
     0
100
AcDbLine
 10
8.2168730683
 20
3.2970352703
 30
0.0
 11
8.2168730683
 21
4.1083778662
 31
0.0
  0
MTEXT
  5
1BC
330
1AD
100
AcDbEntity
  8
0
  6
Continuous
 62
     7
370
     0
100
AcDbMText
 10
8.0012789322
 20
4.3820038716
 30
0.0
 40
0.0833333333
 41
0.0
 71
     1
 72
     1
  1
%%c
  7
SLDTEXTSTYLE0
 73
     1
 44
1.0
  0
MTEXT
  5
1BD
330
1AD
100
AcDbEntity
  8
0
  6
Continuous
 62
     7
370
     0
100
AcDbMText
 10
8.1270659715
 20
4.3820038716
 30
0.0
 40
0.0833333333
 41
0.0
 71
     1
 72
     1
  1
1.90in
  7
SLDTEXTSTYLE0
 73
     1
 44
1.0
  0
MTEXT
  5
1BE
330
1AD
100
AcDbEntity
  8
0
  6
Continuous
 62
     7
370
     0
100
AcDbMText
 10
8.0049903534
 20
4.2326983156
 30
0.0
 40
0.0833333333
 41
0.0
 71
     1
 72
     1
  1
48.3mm
  7
SLDTEXTSTYLE0
 73
     1
 44
1.0
  0
ENDBLK
  5
1AF
330
1AD
100
AcDbEntity
  8
0
100
AcDbBlockEnd
  0
BLOCK
  5
1C2
330
1C1
100
AcDbEntity
  8
0
100
AcDbBlockBegin
  2
_D_2
 70
     0
 10
0.0
 20
0.0
 30
0.0
  3
_D_2
  1
_D_2
  0
SOLID
  5
1C4
330
1C1
100
AcDbEntity
  8
0
  6
Continuous
 62
     7
370
     0
100
AcDbTrace
 10
7.3951160685
 20
5.6423924498
 30
0.0
 11
7.2701160685
 21
5.6623924498
 31
0.0
 12
7.2701160685
 22
5.6223924498
 32
0.0
 13
7.2701160685
 23
5.6223924498
 33
0.0
  0
SOLID
  5
1C5
330
1C1
100
AcDbEntity
  8
0
  6
Continuous
 62
     7
370
     0
100
AcDbTrace
 10
7.5151160685
 20
5.6423924498
 30
0.0
 11
7.6401160685
 21
5.6223924498
 31
0.0
 12
7.6401160685
 22
5.6623924498
 32
0.0
 13
7.6401160685
 23
5.6623924498
 33
0.0
  0
LINE
  5
1C6
330
1C1
100
AcDbEntity
  8
0
  6
Continuous
 62
     7
370
     0
100
AcDbLine
 10
8.0275301985
 20
5.6423924406
 30
0.0
 11
8.0106320505
 21
5.6423924406
 31
0.0
  0
LINE
  5
1C7
330
1C1
100
AcDbEntity
  8
0
  6
Continuous
 62
     7
370
     0
100
AcDbLine
 10
8.0106320505
 20
5.6423924406
 30
0.0
 11
8.0106320505
 21
5.509985036
 31
0.0
  0
LINE
  5
1C8
330
1C1
100
AcDbEntity
  8
0
  6
Continuous
 62
     7
370
     0
100
AcDbLine
 10
8.0106320505
 20
5.509985036
 30
0.0
 11
8.0275301985
 21
5.509985036
 31
0.0
  0
LINE
  5
1C9
330
1C1
100
AcDbEntity
  8
0
  6
Continuous
 62
     7
370
     0
100
AcDbLine
 10
8.4319669195
 20
5.6423924406
 30
0.0
 11
8.4488650675
 21
5.6423924406
 31
0.0
  0
LINE
  5
1CA
330
1C1
100
AcDbEntity
  8
0
  6
Continuous
 62
     7
370
     0
100
AcDbLine
 10
8.4488650675
 20
5.6423924406
 30
0.0
 11
8.4488650675
 21
5.509985036
 31
0.0
  0
LINE
  5
1CB
330
1C1
100
AcDbEntity
  8
0
  6
Continuous
 62
     7
370
     0
100
AcDbLine
 10
8.4488650675
 20
5.509985036
 30
0.0
 11
8.4319669195
 21
5.509985036
 31
0.0
  0
LINE
  5
1CC
330
1C1
100
AcDbEntity
  8
0
  6
Continuous
 62
     7
370
     0
100
AcDbLine
 10
7.3951160685
 20
5.3870352703
 30
0.0
 11
7.3951160685
 21
5.7123924498
 31
0.0
  0
LINE
  5
1CD
330
1C1
100
AcDbEntity
  8
0
  6
Continuous
 62
     7
370
     0
100
AcDbLine
 10
7.5151160685
 20
5.2972147622
 30
0.0
 11
7.5151160685
 21
5.7123924498
 31
0.0
  0
LINE
  5
1CE
330
1C1
100
AcDbEntity
  8
0
  6
Continuous
 62
     7
370
     0
100
AcDbLine
 10
7.3951160685
 20
5.6423924498
 30
0.0
 11
7.1451160685
 21
5.6423924498
 31
0.0
  0
LINE
  5
1CF
330
1C1
100
AcDbEntity
  8
0
  6
Continuous
 62
     7
370
     0
100
AcDbLine
 10
7.5151160685
 20
5.6423924498
 30
0.0
 11
7.919640947
 21
5.6423924498
 31
0.0
  0
MTEXT
  5
1D0
330
1C1
100
AcDbEntity
  8
0
  6
Continuous
 62
     7
370
     0
100
AcDbMText
 10
7.999038687
 20
5.7667128992
 30
0.0
 40
0.0833333333
 41
0.0
 71
     1
 72
     1
  1

  7
SLDTEXTSTYLE0
 73
     1
 44
1.0
  0
MTEXT
  5
1D1
330
1C1
100
AcDbEntity
  8
0
  6
Continuous
 62
     7
370
     0
100
AcDbMText
 10
8.0770479288
 20
5.7667128992
 30
0.0
 40
0.0833333333
 41
0.0
 71
     1
 72
     1
  1
0.12in
  7
SLDTEXTSTYLE0
 73
     1
 44
1.0
  0
MTEXT
  5
1D2
330
1C1
100
AcDbEntity
  8
0
  6
Continuous
 62
     7
370
     0
100
AcDbMText
 10
8.0486528844
 20
5.6174073431
 30
0.0
 40
0.0833333333
 41
0.0
 71
     1
 72
     1
  1
3.0mm
  7
SLDTEXTSTYLE0
 73
     1
 44
1.0
  0
MTEXT
  5
1D3
330
1C1
100
AcDbEntity
  8
0
  6
Continuous
 62
     7
370
     0
100
AcDbMText
 10
8.5240386422
 20
5.7667128992
 30
0.0
 40
0.0833333333
 41
0.0
 71
     1
 72
     1
  1

  7
SLDTEXTSTYLE0
 73
     1
 44
1.0
  0
ENDBLK
  5
1C3
330
1C1
100
AcDbEntity
  8
0
100
AcDbBlockEnd
  0
BLOCK
  5
1D6
330
1D5
100
AcDbEntity
  8
0
100
AcDbBlockBegin
  2
_D_3
 70
     0
 10
0.0
 20
0.0
 30
0.0
  3
_D_3
  1
_D_3
  0
SOLID
  5
1D8
330
1D5
100
AcDbEntity
  8
0
  6
Continuous
 62
     7
370
     0
100
AcDbTrace
 10
7.0051160685
 20
6.1123475274
 30
0.0
 11
6.8801160685
 21
6.1323475274
 31
0.0
 12
6.8801160685
 22
6.0923475274
 32
0.0
 13
6.8801160685
 23
6.0923475274
 33
0.0
  0
SOLID
  5
1D9
330
1D5
100
AcDbEntity
  8
0
  6
Continuous
 62
     7
370
     0
100
AcDbTrace
 10
7.5151160685
 20
6.1123475274
 30
0.0
 11
7.6401160685
 21
6.0923475274
 31
0.0
 12
7.6401160685
 22
6.1323475274
 32
0.0
 13
7.6401160685
 23
6.1323475274
 33
0.0
  0
LINE
  5
1DA
330
1D5
100
AcDbEntity
  8
0
  6
Continuous
 62
     7
370
     0
100
AcDbLine
 10
7.9967431308
 20
6.1123475182
 30
0.0
 11
7.9798449828
 21
6.1123475182
 31
0.0
  0
LINE
  5
1DB
330
1D5
100
AcDbEntity
  8
0
  6
Continuous
 62
     7
370
     0
100
AcDbLine
 10
7.9798449828
 20
6.1123475182
 30
0.0
 11
7.9798449828
 21
5.9799401137
 31
0.0
  0
LINE
  5
1DC
330
1D5
100
AcDbEntity
  8
0
  6
Continuous
 62
     7
370
     0
100
AcDbLine
 10
7.9798449828
 20
5.9799401137
 30
0.0
 11
7.9967431308
 21
5.9799401137
 31
0.0
  0
LINE
  5
1DD
330
1D5
100
AcDbEntity
  8
0
  6
Continuous
 62
     7
370
     0
100
AcDbLine
 10
8.4627539505
 20
6.1123475182
 30
0.0
 11
8.4796520986
 21
6.1123475182
 31
0.0
  0
LINE
  5
1DE
330
1D5
100
AcDbEntity
  8
0
  6
Continuous
 62
     7
370
     0
100
AcDbLine
 10
8.4796520986
 20
6.1123475182
 30
0.0
 11
8.4796520986
 21
5.9799401137
 31
0.0
  0
LINE
  5
1DF
330
1D5
100
AcDbEntity
  8
0
  6
Continuous
 62
     7
370
     0
100
AcDbLine
 10
8.4796520986
 20
5.9799401137
 30
0.0
 11
8.4627539505
 21
5.9799401137
 31
0.0
  0
LINE
  5
1E0
330
1D5
100
AcDbEntity
  8
0
  6
Continuous
 62
     7
370
     0
100
AcDbLine
 10
7.0051160685
 20
5.3870352703
 30
0.0
 11
7.0051160685
 21
6.1823475274
 31
0.0
  0
LINE
  5
1E1
330
1D5
100
AcDbEntity
  8
0
  6
Continuous
 62
     7
370
     0
100
AcDbLine
 10
7.5151160685
 20
5.2972147622
 30
0.0
 11
7.5151160685
 21
6.1823475274
 31
0.0
  0
LINE
  5
1E2
330
1D5
100
AcDbEntity
  8
0
  6
Continuous
 62
     7
370
     0
100
AcDbLine
 10
7.0051160685
 20
6.1123475274
 30
0.0
 11
6.7551160685
 21
6.1123475274
 31
0.0
  0
LINE
  5
1E3
330
1D5
100
AcDbEntity
  8
0
  6
Continuous
 62
     7
370
     0
100
AcDbLine
 10
7.5151160685
 20
6.1123475274
 30
0.0
 11
7.8888538793
 21
6.1123475274
 31
0.0
  0
MTEXT
  5
1E4
330
1D5
100
AcDbEntity
  8
0
  6
Continuous
 62
     7
370
     0
100
AcDbMText
 10
7.9682516193
 20
6.2366679768
 30
0.0
 40
0.0833333333
 41
0.0
 71
     1
 72
     1
  1

  7
SLDTEXTSTYLE0
 73
     1
 44
1.0
  0
MTEXT
  5
1E5
330
1D5
100
AcDbEntity
  8
0
  6
Continuous
 62
     7
370
     0
100
AcDbMText
 10
8.0770479105
 20
6.2366679768
 30
0.0
 40
0.0833333333
 41
0.0
 71
     1
 72
     1
  1
0.51in
  7
SLDTEXTSTYLE0
 73
     1
 44
1.0
  0
MTEXT
  5
1E6
330
1D5
100
AcDbEntity
  8
0
  6
Continuous
 62
     7
370
     0
100
AcDbMText
 10
8.0178658167
 20
6.0873624207
 30
0.0
 40
0.0833333333
 41
0.0
 71
     1
 72
     1
  1
13.0mm
  7
SLDTEXTSTYLE0
 73
     1
 44
1.0
  0
MTEXT
  5
1E7
330
1D5
100
AcDbEntity
  8
0
  6
Continuous
 62
     7
370
     0
100
AcDbMText
 10
8.5548257099
 20
6.2366679768
 30
0.0
 40
0.0833333333
 41
0.0
 71
     1
 72
     1
  1

  7
SLDTEXTSTYLE0
 73
     1
 44
1.0
  0
ENDBLK
  5
1D7
330
1D5
100
AcDbEntity
  8
0
100
AcDbBlockEnd
  0
BLOCK
  5
1E9
330
1E8
100
AcDbEntity
  8
0
100
AcDbBlockBegin
  2
SW_NOTE_5
 70
     0
 10
0.0
 20
0.0
 30
0.0
  3
SW_NOTE_5
  1
SW_NOTE_5
  0
CIRCLE
  5
1EB
330
1E8
100
AcDbEntity
  8
0
  6
Continuous
 62
     0
370
     0
100
AcDbCircle
 10
-0.1778468128
 20
0.0
 30
0.0
 40
0.1778468128131543
  0
MTEXT
  5
1EC
330
1E8
100
AcDbEntity
  8
0
  6
Continuous
 62
     0
370
     0
100
AcDbMText
 10
-0.1791054935
 20
0.0644701083
 30
0.0
 40
0.125
 41
0.0
 71
     2
 72
     1
  1
1
  7
SLDTEXTSTYLE0
 73
     1
 44
1.0
  0
ENDBLK
  5
1EA
330
1E8
100
AcDbEntity
  8
0
100
AcDbBlockEnd
  0
BLOCK
  5
1F1
330
1F0
100
AcDbEntity
  8
0
100
AcDbBlockBegin
  2
SW_NOTE_6
 70
     0
 10
0.0
 20
0.0
 30
0.0
  3
SW_NOTE_6
  1
SW_NOTE_6
  0
CIRCLE
  5
1F3
330
1F0
100
AcDbEntity
  8
0
  6
Continuous
 62
     0
370
     0
100
AcDbCircle
 10
-0.1778468128
 20
0.0
 30
0.0
 40
0.1778468128131543
  0
MTEXT
  5
1F4
330
1F0
100
AcDbEntity
  8
0
  6
Continuous
 62
     0
370
     0
100
AcDbMText
 10
-0.1791054935
 20
0.0644701083
 30
0.0
 40
0.125
 41
0.0
 71
     2
 72
     1
  1
3
  7
SLDTEXTSTYLE0
 73
     1
 44
1.0
  0
ENDBLK
  5
1F2
330
1F0
100
AcDbEntity
  8
0
100
AcDbBlockEnd
  0
BLOCK
  5
1F8
330
1F7
100
AcDbEntity
  8
0
100
AcDbBlockBegin
  2
SW_NOTE_7
 70
     0
 10
0.0
 20
0.0
 30
0.0
  3
SW_NOTE_7
  1
SW_NOTE_7
  0
MTEXT
  5
1FB
330
1F7
100
AcDbEntity
  8
0
  6
Continuous
 62
     0
370
     0
100
AcDbMText
 10
0.0230996547
 20
0.0393836884
 30
0.0
 40
0.0833333333
 41
0.0
 71
     1
 72
     1
  1
SM2 (
  7
SLDTEXTSTYLE3
 73
     1
 44
1.0
  0
MTEXT
  5
1FC
330
1F7
100
AcDbEntity
  8
0
  6
Continuous
 62
     0
370
     0
100
AcDbMText
 10
0.3447045895
 20
0.0393836884
 30
0.0
 40
0.0833333333
 41
0.0
 71
     1
 72
     1
  1
%%c
  7
SLDTEXTSTYLE0
 73
     1
 44
1.0
  0
MTEXT
  5
1FD
330
1F7
100
AcDbEntity
  8
0
  6
Continuous
 62
     0
370
     0
100
AcDbMText
 10
0.4704916197
 20
0.0393836884
 30
0.0
 40
0.0833333333
 41
0.0
 71
     1
 72
     1
  1
2.035-40) SERIES EXTERNAL THREAD
  7
SLDTEXTSTYLE0
 73
     1
 44
1.0
  0
ENDBLK
  5
1F9
330
1F7
100
AcDbEntity
  8
0
100
AcDbBlockEnd
  0
BLOCK
  5
201
330
200
100
AcDbEntity
  8
0
100
AcDbBlockBegin
  2
SW_NOTE_8
 70
     0
 10
0.0
 20
0.0
 30
0.0
  3
SW_NOTE_8
  1
SW_NOTE_8
  0
CIRCLE
  5
203
330
200
100
AcDbEntity
  8
0
  6
Continuous
 62
     0
370
     0
100
AcDbCircle
 10
0.1778468128
 20
0.0
 30
0.0
 40
0.1778468128131553
  0
MTEXT
  5
204
330
200
100
AcDbEntity
  8
0
  6
Continuous
 62
     0
370
     0
100
AcDbMText
 10
0.1765881321
 20
0.0644701083
 30
0.0
 40
0.125
 41
0.0
 71
     2
 72
     1
  1
2
  7
SLDTEXTSTYLE0
 73
     1
 44
1.0
  0
ENDBLK
  5
202
330
200
100
AcDbEntity
  8
0
100
AcDbBlockEnd
  0
BLOCK
  5
208
330
207
100
AcDbEntity
  8
0
100
AcDbBlockBegin
  2
SW_NOTE_9
 70
     0
 10
0.0
 20
0.0
 30
0.0
  3
SW_NOTE_9
  1
SW_NOTE_9
  0
MTEXT
  5
20A
330
207
100
AcDbEntity
  8
0
  6
Continuous
 62
     0
370
     0
100
AcDbMText
 10
-2.2703988178
 20
0.0374988739
 30
0.0
 40
0.0833333333
 41
0.0
 71
     1
 72
     1
  1
SM2 (
  7
SLDTEXTSTYLE3
 73
     1
 44
1.0
  0
MTEXT
  5
20B
330
207
100
AcDbEntity
  8
0
  6
Continuous
 62
     0
370
     0
100
AcDbMText
 10
-1.948793883
 20
0.0374988739
 30
0.0
 40
0.0833333333
 41
0.0
 71
     1
 72
     1
  1
%%c
  7
SLDTEXTSTYLE0
 73
     1
 44
1.0
  0
MTEXT
  5
20C
330
207
100
AcDbEntity
  8
0
  6
Continuous
 62
     0
370
     0
100
AcDbMText
 10
-1.8230068528
 20
0.0374988739
 30
0.0
 40
0.0833333333
 41
0.0
 71
     1
 72
     1
  1
2.035-40) SERIES INTERNAL THREAD
  7
SLDTEXTSTYLE0
 73
     1
 44
1.0
  0
ENDBLK
  5
209
330
207
100
AcDbEntity
  8
0
100
AcDbBlockEnd
  0
ENDSEC
  0
SECTION
  2
ENTITIES
  0
LINE
  5
7D
330
1F
100
AcDbEntity
  8
0
  6
Continuous
 62
     7
370
     0
100
AcDbLine
 10
0.0621791378
 20
8.4506055117
 30
0.0
 11
10.9444569626
 21
8.4506055117
 31
0.0
  0
LINE
  5
7E
330
1F
100
AcDbEntity
  8
0
  6
Continuous
 62
     7
370
     0
100
AcDbLine
 10
0.0621791378
 20
8.4506055117
 30
0.0
 11
0.0621791378
 21
0.035557648
 31
0.0
  0
LINE
  5
7F
330
1F
100
AcDbEntity
  8
0
  6
Continuous
 62
     7
370
     0
100
AcDbLine
 10
10.9444569626
 20
0.035557648
 30
0.0
 11
0.0621791378
 21
0.035557648
 31
0.0
  0
LINE
  5
80
330
1F
100
AcDbEntity
  8
0
  6
Continuous
 62
     7
370
     0
100
AcDbLine
 10
10.9444569626
 20
0.035557648
 30
0.0
 11
10.9444569626
 21
8.4506055117
 31
0.0
  0
LINE
  5
81
330
1F
100
AcDbEntity
  8
0
  6
Continuous
 62
     7
370
     0
100
AcDbLine
 10
8.4938096065
 20
0.4840901186
 30
0.0
 11
6.7571952625
 21
0.4840901186
 31
0.0
  0
LINE
  5
82
330
1F
100
AcDbEntity
  8
0
  6
Continuous
 62
     7
370
     0
100
AcDbLine
 10
6.7571952625
 20
0.4840901186
 30
0.0
 11
6.7571952625
 21
1.030163002
 31
0.0
  0
LINE
  5
83
330
1F
100
AcDbEntity
  8
0
  6
Continuous
 62
     7
370
     0
100
AcDbLine
 10
6.7571952625
 20
0.035557648
 30
0.0
 11
6.7571952625
 21
1.030163002
 31
0.0
  0
LINE
  5
84
330
1F
100
AcDbEntity
  8
0
  6
Continuous
 62
     7
370
     0
100
AcDbLine
 10
8.4938096065
 20
0.6756085809
 30
0.0
 11
10.9444569626
 21
0.6756085809
 31
0.0
  0
LINE
  5
85
330
1F
100
AcDbEntity
  8
0
  6
Continuous
 62
     7
370
     0
100
AcDbLine
 10
8.4938096065
 20
1.3873799542
 30
0.0
 11
8.4938096065
 21
0.035557648
 31
0.0
  0
LINE
  5
86
330
1F
100
AcDbEntity
  8
0
  6
Continuous
 62
     7
370
     0
100
AcDbLine
 10
8.4938096065
 20
1.030163002
 30
0.0
 11
6.7571952625
 21
1.030163002
 31
0.0
  0
LINE
  5
87
330
1F
100
AcDbEntity
  8
0
  6
Continuous
 62
     7
370
     0
100
AcDbLine
 10
8.4938096065
 20
0.3598787426
 30
0.0
 11
10.9444569626
 21
0.3598787426
 31
0.0
  0
LINE
  5
88
330
1F
100
AcDbEntity
  8
0
  6
Continuous
 62
     7
370
     0
100
AcDbLine
 10
8.4938096065
 20
0.6662079686
 30
0.0
 11
6.7571952625
 21
0.6662079686
 31
0.0
  0
LINE
  5
89
330
1F
100
AcDbEntity
  8
0
  6
Continuous
 62
     7
370
     0
100
AcDbLine
 10
8.4938096065
 20
0.8459606517
 30
0.0
 11
6.7571952625
 21
0.8459606517
 31
0.0
  0
LINE
  5
8A
330
1F
100
AcDbEntity
  8
0
  6
Continuous
 62
     7
370
     0
100
AcDbLine
 10
7.3281027587
 20
1.030163002
 30
0.0
 11
7.3281027587
 21
0.4840901186
 31
0.0
  0
LINE
  5
8B
330
1F
100
AcDbEntity
  8
0
  6
Continuous
 62
     7
370
     0
100
AcDbLine
 10
7.8037240401
 20
1.030163002
 30
0.0
 11
7.8037240401
 21
0.4840901186
 31
0.0
  0
LINE
  5
8C
330
1F
100
AcDbEntity
  8
0
  6
Continuous
 62
     7
370
     0
100
AcDbLine
 10
9.990119718
 20
0.3598787426
 30
0.0
 11
9.990119718
 21
0.035557648
 31
0.0
  0
LINE
  5
8D
330
1F
100
AcDbEntity
  8
0
  6
Continuous
 62
     7
370
     0
100
AcDbLine
 10
6.7571952625
 20
0.4840901186
 30
0.0
 11
6.7571952625
 21
0.297745443
 31
0.0
  0
LINE
  5
8E
330
1F
100
AcDbEntity
  8
0
  6
Continuous
 62
     7
370
     0
100
AcDbLine
 10
6.7571952625
 20
0.297745443
 30
0.0
 11
8.4938096065
 21
0.297745443
 31
0.0
  0
LINE
  5
8F
330
1F
100
AcDbEntity
  8
0
  6
Continuous
 62
     7
370
     0
100
AcDbLine
 10
6.7571952625
 20
0.297745443
 30
0.0
 11
6.7571952625
 21
1.3873799542
 31
0.0
  0
LINE
  5
90
330
1F
100
AcDbEntity
  8
0
  6
Continuous
 62
     7
370
     0
100
AcDbLine
 10
6.7571952625
 20
1.3873799542
 30
0.0
 11
8.4938096065
 21
1.3873799542
 31
0.0
  0
LINE
  5
91
330
1F
100
AcDbEntity
  8
0
  6
Continuous
 62
     7
370
     0
100
AcDbLine
 10
10.6365495992
 20
0.6756085809
 30
0.0
 11
10.6365495992
 21
0.3598787426
 31
0.0
  0
LINE
  5
92
330
1F
100
AcDbEntity
  8
0
  6
Continuous
 62
     7
370
     0
100
AcDbLine
 10
8.4938096065
 20
1.3873799542
 30
0.0
 11
10.9444569626
 21
1.3873799542
 31
0.0
  0
LINE
  5
93
330
1F
100
AcDbEntity
  8
0
  6
Continuous
 62
     7
370
     0
100
AcDbLine
 10
10.9444569626
 20
1.3873799542
 30
0.0
 11
10.9444569626
 21
1.9698084888
 31
0.0
  0
LINE
  5
94
330
1F
100
AcDbEntity
  8
0
  6
Continuous
 62
     7
370
     0
100
AcDbLine
 10
8.4938096065
 20
0.9800288797
 30
0.0
 11
10.9444569626
 21
0.9800288797
 31
0.0
  0
INSERT
  5
95
330
1F
100
AcDbEntity
  8
0
  6
Continuous
 62
     7
100
AcDbBlockReference
  2
Third Angle Projection Block
 10
4.6348905679
 20
0.6108753523
 30
0.0
 41
0.8
 42
0.8
 43
0.8
  0
MTEXT
  5
97
330
1F
100
AcDbEntity
  8
0
  6
Continuous
 62
     7
370
     0
100
AcDbMText
 10
10.7943805235
 20
0.5227176726
 30
0.0
 40
0.125
 41
0.0
 71
     2
 72
     1
  1
B
  7
SLDTEXTSTYLE0
 73
     1
 44
1.0
  0
MTEXT
  5
98
330
1F
100
AcDbEntity
  8
0
  6
Continuous
 62
     7
370
     0
100
AcDbMText
 10
9.2283885477
 20
0.2019943461
 30
0.0
 40
0.125
 41
0.0
 71
     2
 72
     1
  1
LA4984-ML
  7
SLDTEXTSTYLE0
 73
     1
 44
1.0
  0
MTEXT
  5
99
330
1F
100
AcDbEntity
  8
0
  6
Continuous
 62
     7
370
     0
100
AcDbMText
 10
8.5204715199
 20
0.6623747189
 30
0.0
 40
0.0833333333
 41
0.0
 71
     1
 72
     1
  1
MATERIAL
  7
SLDTEXTSTYLE0
 73
     1
 44
1.0
  0
MTEXT
  5
9A
330
1F
100
AcDbEntity
  8
0
  6
Continuous
 62
     7
370
     0
100
AcDbMText
 10
6.8594860853
 20
0.7895493672
 30
0.0
 40
0.0729166667
 41
0.0
 71
     1
 72
     1
  1
DRAWN
  7
SLDTEXTSTYLE0
 73
     1
 44
1.0
  0
MTEXT
  5
9B
330
1F
100
AcDbEntity
  8
0
  6
Continuous
 62
     7
370
     0
100
AcDbMText
 10
6.7872445848
 20
0.613335314
 30
0.0
 40
0.0729166667
 41
0.0
 71
     1
 72
     1
  1
APPROVAL
  7
SLDTEXTSTYLE0
 73
     1
 44
1.0
  0
MTEXT
  5
9C
330
1F
100
AcDbEntity
  8
0
  6
Continuous
 62
     7
370
     0
100
AcDbMText
 10
10.6936137314
 20
0.6373332609
 30
0.0
 40
0.0833333333
 41
0.0
 71
     1
 72
     1
  1
REV
  7
SLDTEXTSTYLE0
 73
     1
 44
1.0
  0
MTEXT
  5
9D
330
1F
100
AcDbEntity
  8
0
  6
Continuous
 62
     7
370
     0
100
AcDbMText
 10
7.4919633718
 20
0.7999100272
 30
0.0
 40
0.0833333333
 41
0.0
 71
     1
 72
     1
  1
GG
  7
SLDTEXTSTYLE0
 73
     1
 44
1.0
  0
MTEXT
  5
9E
330
1F
100
AcDbEntity
  8
0
  6
Continuous
 62
     7
370
     0
100
AcDbMText
 10
7.4919633718
 20
0.623695974
 30
0.0
 40
0.0833333333
 41
0.0
 71
     1
 72
     1
  1
DD
  7
SLDTEXTSTYLE0
 73
     1
 44
1.0
  0
MTEXT
  5
9F
330
1F
100
AcDbEntity
  8
0
  6
Continuous
 62
     7
370
     0
100
AcDbMText
 10
7.8687497515
 20
0.7999100272
 30
0.0
 40
0.0833333333
 41
0.0
 71
     1
 72
     1
  1
13/OCT/15
  7
SLDTEXTSTYLE0
 73
     1
 44
1.0
  0
MTEXT
  5
A0
330
1F
100
AcDbEntity
  8
0
  6
Continuous
 62
     7
370
     0
100
AcDbMText
 10
8.0163191884
 20
0.9772495896
 30
0.0
 40
0.0833333333
 41
0.0
 71
     1
 72
     1
  1
DATE
  7
SLDTEXTSTYLE0
 73
     1
 44
1.0
  0
MTEXT
  5
A1
330
1F
100
AcDbEntity
  8
0
  6
Continuous
 62
     7
370
     0
100
AcDbMText
 10
7.8687497515
 20
0.623695974
 30
0.0
 40
0.0833333333
 41
0.0
 71
     1
 72
     1
  1
08/FEB/15
  7
SLDTEXTSTYLE0
 73
     1
 44
1.0
  0
MTEXT
  5
A3
330
1F
100
AcDbEntity
  8
0
  6
Continuous
 62
     7
370
     0
100
AcDbMText
 10
9.0316104912
 20
1.0943207896
 30
0.0
 40
0.0833333333
 41
0.0
 71
     1
 72
     1
  1
w w w . t h o r  l a b s . c o m
  7
SLDTEXTSTYLE1
 73
     1
 44
1.0
  0
MTEXT
  5
A4
330
1F
100
AcDbEntity
  8
0
  6
Continuous
 62
     7
370
     0
100
AcDbMText
 10
8.5315119501
 20
0.328719653
 30
0.0
 40
0.0833333333
 41
0.0
 71
     1
 72
     1
  1
ITEM #
  7
SLDTEXTSTYLE0
 73
     1
 44
1.0
  0
MTEXT
  5
A5
330
1F
100
AcDbEntity
  8
0
  6
Continuous
 62
     7
370
     0
100
AcDbMText
 10
10.0209370115
 20
0.328719653
 30
0.0
 40
0.0833333333
 41
0.0
 71
     1
 72
     1
  1
APPROX WEIGHT
  7
SLDTEXTSTYLE0
 73
     1
 44
1.0
  0
MTEXT
  5
A6
330
1F
100
AcDbEntity
  8
0
  6
Continuous
 62
     7
370
     0
100
AcDbMText
 10
9.5949135982
 20
0.5414715262
 30
0.0
 40
0.125
 41
0.0
 71
     2
 72
     1
  1
SEE TABLE
  7
SLDTEXTSTYLE0
 73
     1
 44
1.0
  0
MTEXT
  5
A8
330
1F
100
AcDbEntity
  8
0
  6
Continuous
 62
     7
370
     0
100
AcDbMText
 10
10.4826226539
 20
0.2019943461
 30
0.0
 40
0.125
 41
0.0
 71
     2
 72
     1
  1
24 g
  7
SLDTEXTSTYLE2
 73
     1
 44
1.0
  0
INSERT
  5
AE
330
1F
100
AcDbEntity
  8
0
  6
Continuous
 62
     7
370
     0
100
AcDbBlockReference
  2
SW_NOTE_0
 10
6.8835832285
 20
0.1754273811
 30
0.0
  0
INSERT
  5
B4
330
1F
100
AcDbEntity
  8
0
  6
Continuous
 62
     7
370
     0
100
AcDbBlockReference
  2
SW_NOTE_1
 10
6.8719828753
 20
1.2001390658
 30
0.0
  0
MTEXT
  5
B5
330
1F
100
AcDbEntity
  8
0
  6
Continuous
 62
     7
370
     0
100
AcDbMText
 10
7.3987149145
 20
0.9772495896
 30
0.0
 40
0.0833333333
 41
0.0
 71
     1
 72
     1
  1
NAME
  7
SLDTEXTSTYLE0
 73
     1
 44
1.0
  0
INSERT
  5
BC
330
1F
100
AcDbEntity
  8
0
  6
Continuous
 62
     7
370
     0
100
AcDbBlockReference
  2
SW_NOTE_2
 10
8.5544172856
 20
0.8160048101
 30
0.0
  0
MTEXT
  5
BD
330
1F
100
AcDbEntity
  8
0
  6
Continuous
 62
     7
370
     0
100
AcDbMText
 10
7.0281258754
 20
0.4200025137
 30
0.0
 40
0.0625
 41
0.0
 71
     1
 72
     1
  1
COPYRIGHT © 2016 BY THORLABS
  7
SLDTEXTSTYLE0
 73
     1
 44
1.0
  0
INSERT
  5
C3
330
1F
100
AcDbEntity
  8
0
  6
Continuous
 62
     7
370
     0
100
AcDbBlockReference
  2
SW_NOTE_3
 10
2.1096529316
 20
0.3219551564
 30
0.0
  0
INSERT
  5
D6
330
1F
100
AcDbEntity
  8
0
  6
Continuous
 62
     7
370
     0
100
AcDbBlockReference
  2
SW_NOTE_4
 10
0.2229009106
 20
1.7636814979
 30
0.0
  0
INSERT
  5
100
330
1F
100
AcDbEntity
  8
0
  6
Continuous
 62
     7
370
     0
100
AcDbBlockReference
  2
SW_TABLEANNOTATION_0
 10
0.0612779343
 20
8.4504327236
 30
0.0
  0
ARC
  5
101
330
1F
100
AcDbEntity
  8
0
  6
Continuous
 62
     7
370
     0
100
AcDbCircle
 10
3.3001849432
 20
4.2470352703
 30
0.0
 40
1.000179491924312
100
AcDbArc
 50
0.8593146732
 51
179.1406853268
  0
LINE
  5
102
330
1F
100
AcDbEntity
  8
0
  6
Continuous
 62
     7
370
     0
100
AcDbLine
 10
2.3001179374
 20
4.2620352703
 30
0.0
 11
2.2827955144
 21
4.2620352703
 31
0.0
  0
LINE
  5
103
330
1F
100
AcDbEntity
  8
0
  6
Continuous
 62
     7
370
     0
100
AcDbLine
 10
4.3175743721
 20
4.2620352703
 30
0.0
 11
4.300251949
 21
4.2620352703
 31
0.0
  0
ARC
  5
104
330
1F
100
AcDbEntity
  8
0
  6
Continuous
 62
     7
370
     0
100
AcDbCircle
 10
3.3001849432
 20
4.2470352703
 30
0.0
 40
1.000179491924312
100
AcDbArc
 50
180.8593146732
 51
359.1406853268
  0
LINE
  5
105
330
1F
100
AcDbEntity
  8
0
  6
Continuous
 62
     7
370
     0
100
AcDbLine
 10
4.300251949
 20
4.2320352703
 30
0.0
 11
4.3175743721
 21
4.2320352703
 31
0.0
  0
LINE
  5
106
330
1F
100
AcDbEntity
  8
0
  6
Continuous
 62
     7
370
     0
100
AcDbLine
 10
2.2827955144
 20
4.2320352703
 30
0.0
 11
2.3001179374
 21
4.2320352703
 31
0.0
  0
ARC
  5
107
330
1F
100
AcDbEntity
  8
0
  6
Continuous
 62
     7
370
     0
100
AcDbCircle
 10
3.3001849432
 20
4.2470352703
 30
0.0
 40
0.9500000000000001
100
AcDbArc
 50
0.9047077972
 51
179.0952922028
  0
ARC
  5
108
330
1F
100
AcDbEntity
  8
0
  6
Continuous
 62
     7
370
     0
100
AcDbCircle
 10
3.3001849432
 20
4.2470352703
 30
0.0
 40
0.9600000000000013
100
AcDbArc
 50
0.8952829866
 51
179.1047170134
  0
LINE
  5
109
330
1F
100
AcDbEntity
  8
0
  6
Continuous
 62
     7
370
     0
100
AcDbLine
 10
4.2600677486
 20
4.2620352703
 30
0.0
 11
4.2500665148
 21
4.2620352703
 31
0.0
  0
LINE
  5
10A
330
1F
100
AcDbEntity
  8
0
  6
Continuous
 62
     7
370
     0
100
AcDbLine
 10
2.3503033717
 20
4.2620352703
 30
0.0
 11
2.3403021379
 21
4.2620352703
 31
0.0
  0
LINE
  5
10B
330
1F
100
AcDbEntity
  8
0
  6
Continuous
 62
     7
370
     0
100
AcDbLine
 10
2.3001179374
 20
4.2320352703
 30
0.0
 11
2.3403021379
 21
4.2320352703
 31
0.0
  0
ARC
  5
10C
330
1F
100
AcDbEntity
  8
0
  6
Continuous
 62
     7
370
     0
100
AcDbCircle
 10
3.3001849432
 20
4.2470352703
 30
0.0
 40
0.9600000000000009
100
AcDbArc
 50
180.8952829866
 51
359.1047170134
  0
LINE
  5
10D
330
1F
100
AcDbEntity
  8
0
  6
Continuous
 62
     7
370
     0
100
AcDbLine
 10
4.2600677486
 20
4.2320352703
 30
0.0
 11
4.300251949
 21
4.2320352703
 31
0.0
  0
LINE
  5
10E
330
1F
100
AcDbEntity
  8
0
  6
Continuous
 62
     7
370
     0
100
AcDbLine
 10
4.300251949
 20
4.2620352703
 30
0.0
 11
4.2600677486
 21
4.2620352703
 31
0.0
  0
LINE
  5
10F
330
1F
100
AcDbEntity
  8
0
  6
Continuous
 62
     7
370
     0
100
AcDbLine
 10
2.3403021379
 20
4.2620352703
 30
0.0
 11
2.3001179374
 21
4.2620352703
 31
0.0
  0
ARC
  5
110
330
1F
100
AcDbEntity
  8
0
  6
Continuous
 62
     7
370
     0
100
AcDbCircle
 10
3.3001849432
 20
4.2470352703
 30
0.0
 40
0.9500000000000001
100
AcDbArc
 50
180.9047077972
 51
359.0952922028
  0
LINE
  5
111
330
1F
100
AcDbEntity
  8
0
  6
Continuous
 62
     7
370
     0
100
AcDbLine
 10
4.2500665148
 20
4.2320352703
 30
0.0
 11
4.2600677486
 21
4.2320352703
 31
0.0
  0
LINE
  5
112
330
1F
100
AcDbEntity
  8
0
  6
Continuous
 62
     7
370
     0
100
AcDbLine
 10
2.3403021379
 20
4.2320352703
 30
0.0
 11
2.3503033717
 21
4.2320352703
 31
0.0
  0
ARC
  5
113
330
1F
100
AcDbEntity
  8
0
  6
Continuous
 62
     7
370
     0
100
AcDbCircle
 10
3.3001849432
 20
4.2470352703
 30
0.0
 40
0.9500000000000001
100
AcDbArc
 50
179.0952922028
 51
180.9047077972
  0
ARC
  5
114
330
1F
100
AcDbEntity
  8
0
  6
Continuous
 62
     7
370
     0
100
AcDbCircle
 10
3.3001849432
 20
4.2470352703
 30
0.0
 40
0.9500000000000001
100
AcDbArc
 50
359.0952922028
 51
0.9047077972
  0
CIRCLE
  5
115
330
1F
100
AcDbEntity
  8
0
  6
Continuous
 62
     7
370
     0
100
AcDbCircle
 10
3.3001849432
 20
4.2470352703
 30
0.0
 40
1.1
  0
CIRCLE
  5
116
330
1F
100
AcDbEntity
  8
0
  6
Continuous
 62
     7
370
     0
100
AcDbCircle
 10
3.3001849432
 20
4.2470352703
 30
0.0
 40
1.090000000000001
  0
CIRCLE
  5
117
330
1F
100
AcDbEntity
  8
0
  6
Continuous
 62
     7
370
     0
100
AcDbCircle
 10
3.3001849432
 20
4.2470352703
 30
0.0
 40
1.034820508075689
  0
CIRCLE
  5
118
330
1F
100
AcDbEntity
  8
0
  6
Continuous
 62
     7
370
     0
100
AcDbCircle
 10
3.3001849432
 20
4.2470352703
 30
0.0
 40
1.0175
  0
DIMENSION
  5
119
330
1F
100
AcDbEntity
  8
0
  6
Continuous
 62
     7
370
     0
100
AcDbDimension
  2
_D
 10
2.6310585107
 20
3.3739546227
 30
0.0
 11
4.7888112056
 21
5.6449370831
 31
0.0
 70
   163
  1
<>
 71
     1
 42
-1.0
  3
SLDDIMSTYLE0
100
AcDbDiametricDimension
 15
3.9693113758
 25
5.1201159179
 35
0.0
 40
0.0
  0
LINE
  5
12A
330
1F
100
AcDbEntity
  8
0
  6
PHANTOM
 62
     7
370
    30
100
AcDbLine
 10
3.3001849432
 20
5.6110352703
 30
0.0
 11
3.3001849432
 21
2.8830352703
 31
0.0
  0
LINE
  5
12B
330
1F
100
AcDbEntity
  8
0
  6
Continuous
 62
     7
370
    30
100
AcDbLine
 10
3.3001849432
 20
5.6110352703
 30
0.0
 11
2.9501849432
 21
5.6110352703
 31
0.0
  0
SOLID
  5
12C
330
1F
100
AcDbEntity
  8
0
  6
Continuous
 62
     7
370
    30
100
AcDbTrace
 10
2.9501849432
 20
5.6110352703
 30
0.0
 11
3.1001849432
 21
5.5860352703
 31
0.0
 12
3.1001849432
 22
5.6360352703
 32
0.0
 13
3.1001849432
 23
5.6360352703
 33
0.0
  0
LINE
  5
12D
330
1F
100
AcDbEntity
  8
0
  6
Continuous
 62
     7
370
    30
100
AcDbLine
 10
3.3001849432
 20
2.8830352703
 30
0.0
 11
2.9501849432
 21
2.8830352703
 31
0.0
  0
SOLID
  5
12E
330
1F
100
AcDbEntity
  8
0
  6
Continuous
 62
     7
370
    30
100
AcDbTrace
 10
2.9501849432
 20
2.8830352703
 30
0.0
 11
3.1001849432
 21
2.8580352703
 31
0.0
 12
3.1001849432
 22
2.9080352703
 32
0.0
 13
3.1001849432
 23
2.9080352703
 33
0.0
  0
MTEXT
  5
12F
330
1F
100
AcDbEntity
  8
0
  6
Continuous
 62
     7
100
AcDbMText
 10
2.8160844782
 20
5.6937666056
 30
0.0
 40
0.1041666667
 41
0.0
 71
     1
 72
     1
  1
A
  7
SLDTEXTSTYLE0
 73
     1
 44
1.0
  0
MTEXT
  5
130
330
1F
100
AcDbEntity
  8
0
  6
Continuous
 62
     7
100
AcDbMText
 10
2.8160844782
 20
2.9657666056
 30
0.0
 40
0.1041666667
 41
0.0
 71
     1
 72
     1
  1
A
  7
SLDTEXTSTYLE0
 73
     1
 44
1.0
  0
LINE
  5
131
330
1F
100
AcDbEntity
  8
0
  6
Continuous
 62
     7
370
     0
100
AcDbLine
 10
8.7796064154
 20
7.4747685174
 30
0.0
 11
8.7796064154
 21
7.4666044362
 31
0.0
  0
LINE
  5
132
330
1F
100
AcDbEntity
  8
0
  6
Continuous
 62
     7
370
     0
100
AcDbLine
 10
9.550227539
 20
6.1317048578
 30
0.0
 11
9.5572974575
 21
6.1276221538
 31
0.0
  0
LINE
  5
133
330
1F
100
AcDbEntity
  8
0
  6
Continuous
 62
     7
370
     0
100
AcDbLine
 10
9.2690980808
 20
8.1294333052
 30
0.0
 11
9.0074685718
 21
7.9783978045
 31
0.0
  0
LINE
  5
134
330
1F
100
AcDbEntity
  8
0
  6
Continuous
 62
     7
370
     0
100
AcDbLine
 10
10.1073791777
 20
6.0730903072
 30
0.0
 11
10.3690086867
 21
6.2241258079
 31
0.0
  0
LINE
  5
135
330
1F
100
AcDbEntity
  8
0
  6
Continuous
 62
     7
370
     0
100
AcDbLine
 10
10.5968708431
 20
6.727755095
 30
0.0
 11
10.5968708431
 21
6.7359191762
 31
0.0
  0
LINE
  5
136
330
1F
100
AcDbEntity
  8
0
  6
Continuous
 62
     7
370
     0
100
AcDbLine
 10
9.8262497196
 20
8.0708187547
 30
0.0
 11
9.819179801
 21
8.0749014587
 31
0.0
  0
LWPOLYLINE
  5
137
330
1F
100
AcDbEntity
  8
0
  6
Continuous
 62
     7
370
     0
100
AcDbPolyline
 90
       21
 70
   128
 43
0.0
 10
9.1511643665
 20
7.9459786795
 10
9.1378843874
 20
7.9383349451
 10
9.1185925432
 20
7.925702237
 10
9.1001369723
 20
7.9117172048
 10
9.082547041
 20
7.8964021012
 10
9.0658507381
 20
7.8797812953
 10
9.0500746305
 20
7.8618812338
 10
9.0352438206
 20
7.842730399
 10
9.0213819072
 20
7.8223592634
 10
9.008510947
 20
7.8008002412
 10
8.9966514201
 20
7.7780876366
 10
8.9858221971
 20
7.7542575895
 10
8.9760405093
 20
7.729348018
 10
8.9673219212
 20
7.7033985576
 10
8.9596803055
 20
7.6764504988
 10
8.9531278216
 20
7.6485467206
 10
8.9476748956
 20
7.6197316232
 10
8.943330204
 20
7.5900510566
 10
8.9401006602
 20
7.559552248
 10
8.9379914028
 20
7.5282837266
 10
8.9370057881
 20
7.4962952462
  0
LINE
  5
138
330
1F
100
AcDbEntity
  8
0
  6
Continuous
 62
     7
370
     0
100
AcDbLine
 10
8.9370057881
 20
7.4962952462
 30
0.0
 11
8.9318280531
 21
7.5074483701
 31
0.0
  0
LWPOLYLINE
  5
139
330
1F
100
AcDbEntity
  8
0
  6
Continuous
 62
     7
370
     0
100
AcDbPolyline
 90
       19
 70
   128
 43
0.0
 10
8.9318280531
 20
7.5074483701
 10
8.93282367
 20
7.5400006126
 10
8.934962779
 20
7.5718205074
 10
8.9382419752
 20
7.6028574067
 10
8.942656039
 20
7.6330619089
 10
8.9481979447
 20
7.6623859374
 10
8.9548588711
 20
7.690782817
 10
8.962628216
 20
7.7182073482
 10
8.9714936129
 20
7.7446158794
 10
8.9814409508
 20
7.769966376
 10
8.9924543963
 20
7.7942184874
 10
9.0045164194
 20
7.8173336114
 10
9.0176078208
 20
7.8392749558
 10
9.031707763
 20
7.8600075962
 10
9.046793803
 20
7.8794985324
 10
9.0628419283
 20
7.8977167408
 10
9.079826595
 20
7.9146332231
 10
9.0977207685
 20
7.9302210536
 10
9.097784984
 20
7.9302732655
  0
LWPOLYLINE
  5
13A
330
1F
100
AcDbEntity
  8
0
  6
Continuous
 62
     7
370
     0
100
AcDbPolyline
 90
        3
 70
   128
 43
0.0
 10
8.9423911891
 20
7.4931863203
 10
8.9424004489
 20
7.4921568356
 10
8.9424346548
 20
7.4890752066
  0
LINE
  5
13B
330
1F
100
AcDbEntity
  8
0
  6
Continuous
 62
     7
370
     0
100
AcDbLine
 10
8.9318280531
 20
7.4829521457
 30
0.0
 11
8.9424346548
 21
7.4890752066
 31
0.0
  0
LWPOLYLINE
  5
13C
330
1F
100
AcDbEntity
  8
0
  6
Continuous
 62
     7
370
     0
100
AcDbPolyline
 90
       58
 70
   128
 43
0.0
 10
10.1108699081
 20
6.1753685569
 10
10.1026727415
 20
6.1723573659
 10
10.0799670257
 20
6.1651858933
 10
10.056578889
 20
6.1594703714
 10
10.0325455584
 20
6.1552198978
 10
10.0079052878
 20
6.1524412379
 10
9.9826972972
 20
6.1511388144
 10
9.9569617104
 20
6.1513147005
 10
9.9307394907
 20
6.1529686163
 10
9.9040723762
 20
6.1560979291
 10
9.877002813
 20
6.160697658
 10
9.8495738879
 20
6.1667604817
 10
9.8218292596
 20
6.1742767499
 10
9.7938130893
 20
6.1832344988
 10
9.7655699706
 20
6.1936194706
 10
9.7371448581
 20
6.2054151352
 10
9.7085829961
 20
6.2186027176
 10
9.6799298467
 20
6.233161227
 10
9.6512310173
 20
6.2490674905
 10
9.6225321879
 20
6.2662961901
 10
9.5938790386
 20
6.2848199028
 10
9.5653171766
 20
6.3046091443
 10
9.5368920641
 20
6.325632416
 10
9.5086489454
 20
6.3478562551
 10
9.4806327751
 20
6.3712452878
 10
9.4528881468
 20
6.3957622856
 10
9.4254592217
 20
6.4213682248
 10
9.3983896585
 20
6.4480223482
 10
9.371722544
 20
6.4756822304
 10
9.3455003243
 20
6.5043038451
 10
9.3197647375
 20
6.5338416351
 10
9.2945567469
 20
6.5642485849
 10
9.2699164763
 20
6.5954762958
 10
9.2458831457
 20
6.6274750623
 10
9.222495009
 20
6.660193952
 10
9.1997892932
 20
6.6935808861
 10
9.1778021391
 20
6.7275827223
 10
9.1565685438
 20
6.7621453399
 10
9.1361223049
 20
6.7972137254
 10
9.1164959667
 20
6.8327320603
 10
9.0977207685
 20
6.8686438099
 10
9.079826595
 20
6.9048918133
 10
9.0628419283
 20
6.9414183745
 10
9.046793803
 20
6.9781653539
 10
9.031707763
 20
7.0150742612
 10
9.0176078208
 20
7.0520863483
 10
9.0045164194
 20
7.089142703
 10
8.9924543963
 20
7.1261843425
 10
8.9814409508
 20
7.1631523074
 10
8.9714936129
 20
7.1999877558
 10
8.962628216
 20
7.2366320564
 10
8.9548588711
 20
7.2730268823
 10
8.9481979447
 20
7.3091143039
 10
8.942656039
 20
7.3448368804
 10
8.9382419752
 20
7.3801377523
 10
8.934962779
 20
7.4149607309
 10
8.93282367
 20
7.4492503884
 10
8.9318280531
 20
7.4829521457
  0
LWPOLYLINE
  5
13D
330
1F
100
AcDbEntity
  8
0
  6
Continuous
 62
     7
370
     0
100
AcDbPolyline
 90
       27
 70
   128
 43
0.0
 10
8.9654203087
 20
7.4798918926
 10
8.9664225998
 20
7.5113708389
 10
8.9685598748
 20
7.5421203758
 10
8.9718285546
 20
7.5720890079
 10
8.9762231652
 20
7.6012265478
 10
8.9817363471
 20
7.6294841998
 10
8.9883588676
 20
7.6568146418
 10
8.9960796361
 20
7.6831721045
 10
9.004885723
 20
7.7085124478
 10
9.014762381
 20
7.7327932351
 10
9.02569307
 20
7.7559738043
 10
9.0376594846
 20
7.7780153355
 10
9.0506415853
 20
7.7988809167
 10
9.0646176312
 20
7.8185356048
 10
9.0795642172
 20
7.8369464849
 10
9.0954563127
 20
7.8540827249
 10
9.1122673038
 20
7.8699156272
 10
9.1299690376
 20
7.8844186771
 10
9.1485318697
 20
7.8975675868
 10
9.1679247135
 20
7.9093403362
 10
9.1881150925
 20
7.91971721
 10
9.2090691945
 20
7.9286808302
 10
9.2307519284
 20
7.9362161859
 10
9.2531269828
 20
7.9423106578
 10
9.2761568869
 20
7.9469540398
 10
9.2998030735
 20
7.9501385556
 10
9.3001002524
 20
7.9501688883
  0
LINE
  5
13E
330
1F
100
AcDbEntity
  8
0
  6
Continuous
 62
     7
370
     0
100
AcDbLine
 10
8.9654203087
 20
7.4798918926
 30
0.0
 11
8.9370057881
 21
7.4962952462
 31
0.0
  0
LWPOLYLINE
  5
13F
330
1F
100
AcDbEntity
  8
0
  6
Continuous
 62
     7
370
     0
100
AcDbPolyline
 90
       26
 70
   128
 43
0.0
 10
9.3146443046
 20
7.9479982277
 10
9.2922719104
 20
7.9449557194
 10
9.2694833465
 20
7.9403634007
 10
9.2473426143
 20
7.934335397
 10
9.2258867843
 20
7.9268818013
 10
9.2051517802
 20
7.9180150931
 10
9.1851723189
 20
7.9077501181
 10
9.1659818523
 20
7.8961040631
 10
9.1476125111
 20
7.8830964271
 10
9.1300950515
 20
7.8687489892
 10
9.1134588031
 20
7.8530857712
 10
9.0977316201
 20
7.8361329984
 10
9.0829398348
 20
7.8179190549
 10
9.0691082133
 20
7.7984744367
 10
9.056259914
 20
7.7778317001
 10
9.044416449
 20
7.7560254074
 10
9.0335976479
 20
7.7330920692
 10
9.0238216248
 20
7.7090700831
 10
9.0151047478
 20
7.6839996693
 10
9.0074616116
 20
7.6579228037
 10
9.0009050133
 20
7.6308831469
 10
8.9954459307
 20
7.6029259718
 10
8.991093504
 20
7.5740980875
 10
8.9878550204
 20
7.5444477609
 10
8.9857359023
 20
7.5140246358
 10
8.9847396977
 20
7.48287965
  0
LINE
  5
140
330
1F
100
AcDbEntity
  8
0
  6
Continuous
 62
     7
370
     0
100
AcDbLine
 10
8.9847396977
 20
7.48287965
 30
0.0
 11
8.9654203087
 21
7.4798918926
 31
0.0
  0
LWPOLYLINE
  5
141
330
1F
100
AcDbEntity
  8
0
  6
Continuous
 62
     7
370
     0
100
AcDbPolyline
 90
       65
 70
   128
 43
0.0
 10
8.9847396977
 20
7.4583834256
 10
8.9857359023
 20
7.4260882465
 10
8.9878550204
 20
7.3932184397
 10
8.991093504
 20
7.3598290395
 10
8.9954459307
 20
7.3259759503
 10
9.0009050133
 20
7.2917158526
 10
9.0074616116
 20
7.2571061086
 10
9.0151047478
 20
7.2222046658
 10
9.0238216248
 20
7.18706996
 10
9.0335976479
 20
7.1517608179
 10
9.044416449
 20
7.1163363578
 10
9.056259914
 20
7.0808558915
 10
9.0691082133
 20
7.0453788242
 10
9.0829398348
 20
7.0099645557
 10
9.0977316201
 20
6.9746723805
 10
9.1134588031
 20
6.9395613888
 10
9.1300950515
 20
6.9046903672
 10
9.1476125111
 20
6.8701177008
 10
9.1659818523
 20
6.835901275
 10
9.1851723189
 20
6.8020983789
 10
9.2051517802
 20
6.7687656089
 10
9.2258867843
 20
6.7359587745
 10
9.2473426143
 20
6.7037328048
 10
9.2694833465
 20
6.6721416559
 10
9.2922719104
 20
6.6412382213
 10
9.3156701507
 20
6.611074243
 10
9.3396388916
 20
6.581700225
 10
9.3641380019
 20
6.5531653485
 10
9.3891264625
 20
6.5255173899
 10
9.4145624347
 20
6.4988026403
 10
9.440403331
 20
6.4730658287
 10
9.4666058855
 20
6.4483500466
 10
9.4931262269
 20
6.4246966757
 10
9.5199199521
 20
6.4021453194
 10
9.5469421998
 20
6.3807337356
 10
9.5741477265
 20
6.3604977739
 10
9.6014909816
 20
6.3414713158
 10
9.6289261838
 20
6.3236862173
 10
9.6564073982
 20
6.3071722564
 10
9.6838886127
 20
6.2919570825
 10
9.7113238149
 20
6.2780661707
 10
9.73866707
 20
6.2655227785
 10
9.7658725967
 20
6.2543479077
 10
9.7928948444
 20
6.2445602684
 10
9.8196885696
 20
6.2361762481
 10
9.846208911
 20
6.2292098844
 10
9.8724114655
 20
6.2236728411
 10
9.8982523618
 20
6.219574389
 10
9.923688334
 20
6.21692139
 10
9.9486767946
 20
6.2157182863
 10
9.9731759049
 20
6.2159670921
 10
9.9971446458
 20
6.217667391
 10
10.0205428861
 20
6.2208163359
 10
10.04333145
 20
6.2254086547
 10
10.0654721822
 20
6.2314366583
 10
10.0869280122
 20
6.2388902541
 10
10.1076630163
 20
6.2477569622
 10
10.1276424776
 20
6.2580219372
 10
10.1468329442
 20
6.2696679923
 10
10.1652022854
 20
6.2826756282
 10
10.182719745
 20
6.2970230662
 10
10.1993559934
 20
6.3126862842
 10
10.2150831764
 20
6.329639057
 10
10.2298749617
 20
6.3478530004
 10
10.2346666271
 20
6.3543001405
  0
LINE
  5
142
330
1F
100
AcDbEntity
  8
0
  6
Continuous
 62
     7
370
     0
100
AcDbLine
 10
8.9901699185
 20
7.4615182254
 30
0.0
 11
8.9847396977
 21
7.4583834256
 31
0.0
  0
ARC
  5
143
330
1F
100
AcDbEntity
  8
0
  6
Continuous
 62
     7
370
     0
100
AcDbCircle
 10
9.8858238904
 20
7.4737663376
 30
0.0
 40
0.8957377147315794
100
AcDbArc
 50
179.2165262291
 51
180.7834737709
  0
LINE
  5
144
330
1F
100
AcDbEntity
  8
0
  6
Continuous
 62
     7
370
     0
100
AcDbLine
 10
8.9847396977
 20
7.48287965
 30
0.0
 11
8.9901699185
 21
7.4860144498
 31
0.0
  0
LWPOLYLINE
  5
145
330
1F
100
AcDbEntity
  8
0
  6
Continuous
 62
     7
370
     0
100
AcDbPolyline
 90
       58
 70
   128
 43
0.0
 10
9.7077995598
 20
6.3368403198
 10
9.6803997683
 20
6.3533034322
 10
9.6530455811
 20
6.3710302425
 10
9.6257825264
 20
6.389991246
 10
9.598655981
 20
6.4101548841
 10
9.5717110943
 20
6.4314875963
 10
9.5449927134
 20
6.4539538765
 10
9.5185453085
 20
6.4775163317
 10
9.4924128986
 20
6.5021357447
 10
9.4666389785
 20
6.5277711387
 10
9.4412664464
 20
6.5543798462
 10
9.4163375324
 20
6.5819175797
 10
9.3918937281
 20
6.6103385053
 10
9.367975718
 20
6.6395953192
 10
9.344623311
 20
6.6696393263
 10
9.3218753751
 20
6.7004205212
 10
9.299769772
 20
6.7318876719
 10
9.2783432941
 20
6.7639884042
 10
9.2576316038
 20
6.7966692897
 10
9.2376691737
 20
6.8298759343
 10
9.2184892291
 20
6.8635530688
 10
9.2001236934
 20
6.8976446409
 10
9.182603134
 20
6.9320939086
 10
9.1659567122
 20
6.9668435344
 10
9.1502121344
 20
7.0018356811
 10
9.1353956058
 20
7.0370121077
 10
9.1215317871
 20
7.0723142664
 10
9.1086437533
 20
7.1076834003
 10
9.0967529552
 20
7.1430606411
 10
9.0858791838
 20
7.1783871067
 10
9.0760405375
 20
7.2136039997
 10
9.0672533918
 20
7.2486527051
 10
9.059532372
 20
7.2834748878
 10
9.0528903289
 20
7.3180125898
 10
9.0473383176
 20
7.3522083263
 10
9.0428855788
 20
7.386005182
 10
9.0395395238
 20
7.4193469053
 10
9.0373057216
 20
7.4521780023
 10
9.0361878903
 20
7.4844438288
 10
9.0361878903
 20
7.5160906816
 10
9.0373057216
 20
7.5470658875
 10
9.0395395238
 20
7.5773178914
 10
9.0428855788
 20
7.6067963418
 10
9.0473383176
 20
7.6354521748
 10
9.0528903289
 20
7.6632376955
 10
9.059532372
 20
7.6901066577
 10
9.0672533918
 20
7.7160143407
 10
9.0760405375
 20
7.7409176236
 10
9.0858791838
 20
7.7647750574
 10
9.0967529552
 20
7.7875469338
 10
9.1086437533
 20
7.8091953513
 10
9.1215317871
 20
7.8296842781
 10
9.1353956058
 20
7.8489796125
 10
9.1502121344
 20
7.8670492393
 10
9.1659567122
 20
7.8838630833
 10
9.182603134
 20
7.8993931597
 10
9.2001236934
 20
7.9136136201
 10
9.2078374613
 20
7.9192619142
  0
LWPOLYLINE
  5
146
330
1F
100
AcDbEntity
  8
0
  6
Continuous
 62
     7
370
     0
100
AcDbPolyline
 90
       19
 70
   128
 43
0.0
 10
10.1563694968
 20
6.2761782045
 10
10.1372558256
 20
6.268148754
 10
10.1158293477
 20
6.2607865065
 10
10.0937237445
 20
6.254841942
 10
10.0709758086
 20
6.2503249547
 10
10.0476234017
 20
6.2472430628
 10
10.0237053916
 20
6.2456013957
 10
9.9992615873
 20
6.2454026857
 10
9.9743326733
 20
6.2466472637
 10
9.9489601412
 20
6.2493330582
 10
9.9231862211
 20
6.2534555989
 10
9.8970538112
 20
6.2590080242
 10
9.8706064063
 20
6.2659810927
 10
9.8438880254
 20
6.2743631985
 10
9.8169431387
 20
6.2841403902
 10
9.7898165933
 20
6.2952963948
 10
9.7625535386
 20
6.3078126442
 10
9.7351993514
 20
6.3216683063
 10
9.7077995598
 20
6.3368403198
  0
LWPOLYLINE
  5
147
330
1F
100
AcDbEntity
  8
0
  6
Continuous
 62
     7
370
     0
100
AcDbPolyline
 90
       61
 70
   128
 43
0.0
 10
8.9370057881
 20
7.4717990218
 10
8.9379914028
 20
7.4386725749
 10
8.9401006602
 20
7.4049687567
 10
8.943330204
 20
7.3707411961
 10
8.9476748956
 20
7.3360443555
 10
8.9531278216
 20
7.3009334437
 10
8.9596803055
 20
7.2654643286
 10
8.9673219212
 20
7.2296934481
 10
8.9760405093
 20
7.1936777201
 10
8.9858221971
 20
7.1574744522
 10
8.9966514201
 20
7.1211412505
 10
9.008510947
 20
7.0847359276
 10
9.0213819072
 20
7.048316411
 10
9.0352438206
 20
7.0119406508
 10
9.0500746305
 20
6.9756665275
 10
9.0658507381
 20
6.9395517598
 10
9.082547041
 20
6.9036538129
 10
9.1001369723
 20
6.8680298069
 10
9.1185925432
 20
6.8327364262
 10
9.1378843874
 20
6.7978298288
 10
9.1579818083
 20
6.7633655576
 10
9.178852827
 20
6.7293984516
 10
9.2004642341
 20
6.6959825584
 10
9.2227816418
 20
6.663171049
 10
9.2457695391
 20
6.6310161323
 10
9.2693913481
 20
6.5995689728
 10
9.2936094821
 20
6.5688796085
 10
9.3183854058
 20
6.5389968719
 10
9.343679696
 20
6.5099683117
 10
9.369452105
 20
6.4818401179
 10
9.3956616242
 20
6.4546570473
 10
9.4222665494
 20
6.4284623532
 10
9.4492245475
 20
6.4032977162
 10
9.4764927233
 20
6.3792031778
 10
9.5040276881
 20
6.3562170767
 10
9.5317856289
 20
6.3343759881
 10
9.5597223776
 20
6.313714665
 10
9.5877934819
 20
6.2942659835
 10
9.6159542756
 20
6.2760608898
 10
9.6441599495
 20
6.2591283517
 10
9.6723656235
 20
6.2434953118
 10
9.7005264171
 20
6.2291866452
 10
9.7285975215
 20
6.2162251196
 10
9.7565342702
 20
6.2046313591
 10
9.784292211
 20
6.1944238115
 10
9.8118271758
 20
6.1856187189
 10
9.8390953516
 20
6.1782300917
 10
9.8660533496
 20
6.1722696867
 10
9.8926582749
 20
6.1677469879
 10
9.9188677941
 20
6.1646691917
 10
9.9446402031
 20
6.1630411956
 10
9.9699344933
 20
6.1628655898
 10
9.9947104169
 20
6.1641426539
 10
10.018928551
 20
6.1668703558
 10
10.0425503599
 20
6.1710443552
 10
10.0655382573
 20
6.1766580106
 10
10.087855665
 20
6.1837023895
 10
10.1094670721
 20
6.1921662832
 10
10.1303380908
 20
6.202036224
 10
10.1504355116
 20
6.213296507
 10
10.1511644878
 20
6.2137399702
  0
LINE
  5
148
330
1F
100
AcDbEntity
  8
0
  6
Continuous
 62
     7
370
     0
100
AcDbLine
 10
8.9318280531
 20
7.4829521457
 30
0.0
 11
8.9370057881
 21
7.4717990218
 31
0.0
  0
LINE
  5
149
330
1F
100
AcDbEntity
  8
0
  6
Continuous
 62
     7
370
     0
100
AcDbLine
 10
8.9370057881
 20
7.4717990218
 30
0.0
 11
8.9654203087
 21
7.4553956682
 31
0.0
  0
LWPOLYLINE
  5
14A
330
1F
100
AcDbEntity
  8
0
  6
Continuous
 62
     7
370
     0
100
AcDbPolyline
 90
       65
 70
   128
 43
0.0
 10
10.2292731645
 20
6.3406197975
 10
10.2237022679
 20
6.3330958472
 10
10.2087556819
 20
6.3146849672
 10
10.1928635863
 20
6.2975487272
 10
10.1760525953
 20
6.2817158248
 10
10.1583508614
 20
6.2672127749
 10
10.1397880293
 20
6.2540638653
 10
10.1203951855
 20
6.2422911158
 10
10.1002048066
 20
6.2319142421
 10
10.0792507046
 20
6.2229506219
 10
10.0575679707
 20
6.2154152662
 10
10.0351929163
 20
6.2093207942
 10
10.0121630121
 20
6.2046774123
 10
9.9885168256
 20
6.2014928964
 10
9.9642939561
 20
6.1997725797
 10
9.939534969
 20
6.199519343
 10
9.9142813272
 20
6.2007336104
 10
9.8885753223
 20
6.2034133484
 10
9.8624600031
 20
6.2075540695
 10
9.8359791041
 20
6.2131488392
 10
9.8091769721
 20
6.2201882881
 10
9.7820984915
 20
6.2286606277
 10
9.75478901
 20
6.2385516694
 10
9.7272942616
 20
6.2498448491
 10
9.699660291
 20
6.2625212545
 10
9.6719333759
 20
6.2765596569
 10
9.6441599495
 20
6.2919365466
 10
9.6163865232
 20
6.3086261725
 10
9.588659608
 20
6.3266005849
 10
9.5610256374
 20
6.3458296828
 10
9.5335308891
 20
6.3662812638
 10
9.5062214075
 20
6.3879210783
 10
9.479142927
 20
6.4107128869
 10
9.4523407949
 20
6.434618521
 10
9.425859896
 20
6.4595979464
 10
9.3997445768
 20
6.4856093311
 10
9.3740385718
 20
6.5126091146
 10
9.3487849301
 20
6.5405520813
 10
9.3240259429
 20
6.5693914361
 10
9.2998030735
 20
6.5990788827
 10
9.2761568869
 20
6.6295647044
 10
9.2531269828
 20
6.6607978477
 10
9.2307519284
 20
6.6927260076
 10
9.2090691945
 20
6.7252957149
 10
9.1881150925
 20
6.7584524264
 10
9.1679247135
 20
6.7921406154
 10
9.1485318697
 20
6.8263038657
 10
9.1299690376
 20
6.8608849652
 10
9.1122673038
 20
6.8958260019
 10
9.0954563127
 20
6.9310684614
 10
9.0795642172
 20
6.9665533243
 10
9.0646176312
 20
7.0022211652
 10
9.0506415853
 20
7.0380122525
 10
9.0376594846
 20
7.0738666481
 10
9.02569307
 20
7.1097243076
 10
9.014762381
 20
7.1455251816
 10
9.004885723
 20
7.1812093155
 10
8.9960796361
 20
7.2167169504
 10
8.9883588676
 20
7.2519886226
 10
8.9817363471
 20
7.286965264
 10
8.9762231652
 20
7.3215883004
 10
8.9718285546
 20
7.3557997497
 10
8.9685598748
 20
7.3895423192
 10
8.9664225998
 20
7.4227595012
 10
8.9654203087
 20
7.4553956682
  0
LINE
  5
14B
330
1F
100
AcDbEntity
  8
0
  6
Continuous
 62
     7
370
     0
100
AcDbLine
 10
8.9654203087
 20
7.4553956682
 30
0.0
 11
8.9847396977
 21
7.4583834256
 31
0.0
  0
LINE
  5
14C
330
1F
100
AcDbEntity
  8
0
  6
Continuous
 62
     7
370
     0
100
AcDbLine
 10
8.9424346548
 20
7.4890752066
 30
0.0
 11
8.9901699185
 21
7.4615182254
 31
0.0
  0
LWPOLYLINE
  5
14D
330
1F
100
AcDbEntity
  8
0
  6
Continuous
 62
     7
370
     0
100
AcDbPolyline
 90
      125
 70
   128
 43
0.0
 10
8.7796064154
 20
7.4747685174
 10
8.7801702959
 20
7.508637912
 10
8.7818611198
 20
7.5418071567
 10
8.7846764355
 20
7.5742281593
 10
8.7886121611
 20
7.6058539124
 10
8.7936625902
 20
7.6366385616
 10
8.7998204002
 20
7.6665374722
 10
8.8070766627
 20
7.6955072936
 10
8.815420857
 20
7.7235060223
 10
8.8248408848
 20
7.7504930629
 10
8.8353230878
 20
7.7764292867
 10
8.8468522679
 20
7.8012770887
 10
8.859411709
 20
7.8250004419
 10
8.8729832009
 20
7.8475649498
 10
8.8875470664
 20
7.868937896
 10
8.9030821892
 20
7.8890882917
 10
8.9195660449
 20
7.9079869207
 10
8.9369747335
 20
7.925606382
 10
8.955283014
 20
7.941921129
 10
8.9744643412
 20
7.9569075067
 10
8.994490904
 20
7.9705437865
 10
9.0153336658
 20
7.982810197
 10
9.0369624066
 20
7.9936889531
 10
9.0593457667
 20
8.0031642816
 10
9.0824512925
 20
8.0112224443
 10
9.1062454831
 20
8.0178517575
 10
9.1306938392
 20
8.0230426093
 10
9.1557609131
 20
8.0267874737
 10
9.1814103599
 20
8.0290809207
 10
9.2076049904
 20
8.0299196252
 10
9.2343068248
 20
8.0293023712
 10
9.261477148
 20
8.0272300535
 10
9.2890765657
 20
8.0237056769
 10
9.3170650613
 20
8.0187343513
 10
9.3454020542
 20
8.0123232848
 10
9.3740464585
 20
8.0044817726
 10
9.4029567425
 20
7.9952211844
 10
9.4320909891
 20
7.984554947
 10
9.4614069564
 20
7.9724985254
 10
9.4908621391
 20
7.9590694004
 10
9.5204138299
 20
7.9442870429
 10
9.5500191817
 20
7.9281728859
 10
9.5796352696
 20
7.9107502933
 10
9.6092191531
 20
7.8920445263
 10
9.6387279385
 20
7.8720827064
 10
9.6681188407
 20
7.8508937764
 10
9.6973492458
 20
7.8285084582
 10
9.7263767724
 20
7.8049592083
 10
9.7551593336
 20
7.780280171
 10
9.7836551972
 20
7.7545071284
 10
9.811823047
 20
7.7276774491
 10
9.8396220423
 20
7.6998300334
 10
9.8670118773
 20
7.6710052575
 10
9.8939528393
 20
7.6412449146
 10
9.9204058664
 20
7.6105921542
 10
9.9463326044
 20
7.5790914201
 10
9.9716954619
 20
7.5467883851
 10
9.9964576652
 20
7.5137298857
 10
10.0205833114
 20
7.4799638535
 10
10.0440374208
 20
7.445539246
 10
10.066785987
 20
7.4105059756
 10
10.0887960269
 20
7.3749148372
 10
10.1100356279
 20
7.3388174345
 10
10.1304739948
 20
7.3022661054
 10
10.1500814937
 20
7.2653138458
 10
10.1688296958
 20
7.2280142328
 10
10.1866914178
 20
7.1904213474
 10
10.2036407621
 20
7.1525896958
 10
10.2196531537
 20
7.11457413
 10
10.2347053762
 20
7.0764297691
 10
10.2487756052
 20
7.0382119189
 10
10.2618434403
 20
6.9999759913
 10
10.2738899343
 20
6.9617774251
 10
10.2848976211
 20
6.9236716043
 10
10.2948505405
 20
6.8857137788
 10
10.3037342617
 20
6.8479589838
 10
10.3115359042
 20
6.8104619602
 10
10.3182441564
 20
6.7732770751
 10
10.3238492919
 20
6.7364582429
 10
10.3283431838
 20
6.7000588475
 10
10.3317193164
 20
6.6641316645
 10
10.3339727946
 20
6.628728785
 10
10.3351003512
 20
6.5939015396
 10
10.3351003512
 20
6.5597004245
 10
10.3339727946
 20
6.5261750282
 10
10.3317193164
 20
6.4933739592
 10
10.3283431838
 20
6.461344776
 10
10.3238492919
 20
6.4301339178
 10
10.3182441564
 20
6.3997866373
 10
10.3115359042
 20
6.3703469352
 10
10.3037342617
 20
6.3418574963
 10
10.2948505405
 20
6.3143596275
 10
10.2848976211
 20
6.2878931982
 10
10.2738899343
 20
6.262496582
 10
10.2618434403
 20
6.2382066017
 10
10.2487756052
 20
6.2150584755
 10
10.2347053762
 20
6.1930857658
 10
10.2196531537
 20
6.172320331
 10
10.2036407621
 20
6.1527922791
 10
10.1866914178
 20
6.1345299238
 10
10.1688296958
 20
6.1175597437
 10
10.1500814937
 20
6.1019063441
 10
10.1304739948
 20
6.0875924209
 10
10.1100356279
 20
6.0746387278
 10
10.0887960269
 20
6.0630640466
 10
10.066785987
 20
6.0528851593
 10
10.0440374208
 20
6.0441168244
 10
10.0205833114
 20
6.0367717552
 10
9.9964576652
 20
6.0308606012
 10
9.9716954619
 20
6.0263919332
 10
9.9463326044
 20
6.0233722302
 10
9.9204058664
 20
6.0218058705
 10
9.8939528393
 20
6.0216951252
 10
9.8670118773
 20
6.0230401548
 10
9.8396220423
 20
6.0258390093
 10
9.811823047
 20
6.0300876304
 10
9.7836551972
 20
6.0357798582
 10
9.7551593336
 20
6.0429074395
 10
9.7263767724
 20
6.0514600399
 10
9.6973492458
 20
6.061425259
 10
9.6681188407
 20
6.0727886481
 10
9.6387279385
 20
6.0855337315
 10
9.6092191531
 20
6.0996420299
 10
9.5796352696
 20
6.1150930878
 10
9.5572974575
 20
6.1276221538
  0
LWPOLYLINE
  5
14E
330
1F
100
AcDbEntity
  8
0
  6
Continuous
 62
     7
370
     0
100
AcDbPolyline
 90
      165
 70
   128
 43
0.0
 10
8.7796064154
 20
7.4666044362
 10
8.7801720037
 20
7.4321873667
 10
8.7818679386
 20
7.3971677946
 10
8.784691731
 20
7.361597116
 10
8.7886392365
 20
7.3255275358
 10
8.7937046618
 20
7.289011991
 10
8.7998805726
 20
7.2521040733
 10
8.8071579048
 20
7.21485795
 10
8.8155259781
 20
7.1773282851
 10
8.8249725111
 20
7.1395701585
 10
8.8354836396
 20
7.1016389854
 10
8.8470439373
 20
7.0635904351
 10
8.8596364377
 20
7.025480349
 10
8.8732426597
 20
6.987364659
 10
8.8878426341
 20
6.9492993051
 10
8.9034149336
 20
6.9113401535
 10
8.9199367036
 20
6.8735429144
 10
8.9373836962
 20
6.8359630605
 10
8.9557303055
 20
6.7986557455
 10
8.9749496053
 20
6.7616757228
 10
8.9950133887
 20
6.725077266
 10
9.0158922092
 20
6.6889140881
 10
9.0375554244
 20
6.6532392637
 10
9.0599712404
 20
6.6181051505
 10
9.083106759
 20
6.5835633127
 10
9.1069280256
 20
6.5496644451
 10
9.1314000792
 20
6.516458299
 10
9.1564870038
 20
6.4839936091
 10
9.1821519807
 20
6.4523180217
 10
9.2083573431
 20
6.4214780251
 10
9.235064631
 20
6.3915188813
 10
9.2622346477
 20
6.3624845594
 10
9.2898275176
 20
6.3344176713
 10
9.3178027443
 20
6.3073594091
 10
9.3461192703
 20
6.2813494845
 10
9.3747355372
 20
6.2564260706
 10
9.4036095466
 20
6.2326257459
 10
9.432698922
 20
6.2099834408
 10
9.4619609706
 20
6.1885323859
 10
9.4913527465
 20
6.1683040637
 10
9.5208311132
 20
6.1493281619
 10
9.5503528069
 20
6.1316325303
 10
9.5798745007
 20
6.1152431398
 10
9.6093528673
 20
6.1001840439
 10
9.6387446432
 20
6.0864773441
 10
9.6680066919
 20
6.0741431567
 10
9.6970960673
 20
6.0631995838
 10
9.7259700767
 20
6.0536626868
 10
9.7545863436
 20
6.0455464623
 10
9.7829028695
 20
6.0388628219
 10
9.8108780962
 20
6.0336215749
 10
9.8384709661
 20
6.0298304135
 10
9.8656409829
 20
6.0274949018
 10
9.8923482708
 20
6.0266184673
 10
9.9185536332
 20
6.0272023965
 10
9.9442186101
 20
6.0292458323
 10
9.9693055346
 20
6.0327457757
 10
9.9937775883
 20
6.0376970901
 10
10.0175988549
 20
6.0440925087
 10
10.0407343735
 20
6.0519226453
 10
10.0631501895
 20
6.0611760082
 10
10.0848134047
 20
6.0718390168
 10
10.1056922252
 20
6.0838960216
 10
10.1257560086
 20
6.0973293273
 10
10.1449753084
 20
6.1121192186
 10
10.1633219176
 20
6.1282439895
 10
10.1807689102
 20
6.1456799745
 10
10.1972906803
 20
6.164401584
 10
10.2128629798
 20
6.1843813413
 10
10.2274629542
 20
6.2055899235
 10
10.2410691761
 20
6.2279962041
 10
10.2536616766
 20
6.2515672986
 10
10.2652219742
 20
6.2762686134
 10
10.2757331028
 20
6.3020638957
 10
10.2851796358
 20
6.3289152875
 10
10.293547709
 20
6.3567833807
 10
10.3008250413
 20
6.385627275
 10
10.3070009521
 20
6.4154046379
 10
10.3120663773
 20
6.4460717672
 10
10.3160138829
 20
6.4775836545
 10
10.3188376753
 20
6.5098940518
 10
10.3205336101
 20
6.5429555392
 10
10.3210991984
 20
6.5767195944
 10
10.3205336101
 20
6.6111366639
 10
10.3188376753
 20
6.646156236
 10
10.3160138829
 20
6.6817269146
 10
10.3120663773
 20
6.7177964948
 10
10.3070009521
 20
6.7543120396
 10
10.3008250413
 20
6.7912199573
 10
10.293547709
 20
6.8284660806
 10
10.2851796358
 20
6.8659957455
 10
10.2757331028
 20
6.9037538721
 10
10.2652219742
 20
6.9416850452
 10
10.2536616766
 20
6.9797335955
 10
10.2410691761
 20
7.0178436816
 10
10.2274629542
 20
7.0559593716
 10
10.2128629798
 20
7.0940247255
 10
10.1972906803
 20
7.1319838771
 10
10.1807689102
 20
7.1697811162
 10
10.1633219176
 20
7.2073609701
 10
10.1449753084
 20
7.2446682852
 10
10.1257560086
 20
7.2816483078
 10
10.1056922252
 20
7.3182467646
 10
10.0848134047
 20
7.3544099425
 10
10.0631501895
 20
7.3900847669
 10
10.0407343735
 20
7.4252188801
 10
10.0175988549
 20
7.4597607179
 10
9.9937775883
 20
7.4936595855
 10
9.9693055346
 20
7.5268657316
 10
9.9442186101
 20
7.5593304215
 10
9.9185536332
 20
7.5910060089
 10
9.8923482708
 20
7.6218460055
 10
9.8656409829
 20
7.6518051493
 10
9.8384709661
 20
7.6808394712
 10
9.8108780962
 20
7.7089063593
 10
9.7829028695
 20
7.7359646215
 10
9.7545863436
 20
7.7619745461
 10
9.7259700767
 20
7.78689796
 10
9.6970960673
 20
7.8106982847
 10
9.6680066919
 20
7.8333405898
 10
9.6387446432
 20
7.8547916447
 10
9.6093528673
 20
7.8750199669
 10
9.5798745007
 20
7.8939958687
 10
9.5503528069
 20
7.9116915003
 10
9.5208311132
 20
7.9280808908
 10
9.4913527465
 20
7.9431399867
 10
9.4619609706
 20
7.9568466865
 10
9.432698922
 20
7.9691808739
 10
9.4036095466
 20
7.9801244468
 10
9.3747355372
 20
7.9896613438
 10
9.3461192703
 20
7.9977775683
 10
9.3178027443
 20
8.0044612087
 10
9.2898275176
 20
8.0097024557
 10
9.2622346477
 20
8.0134936171
 10
9.235064631
 20
8.0158291288
 10
9.2083573431
 20
8.0167055633
 10
9.1821519807
 20
8.0161216341
 10
9.1564870038
 20
8.0140781983
 10
9.1314000792
 20
8.0105782549
 10
9.1069280256
 20
8.0056269405
 10
9.083106759
 20
7.9992315219
 10
9.0599712404
 20
7.9914013853
 10
9.0375554244
 20
7.9821480224
 10
9.0158922092
 20
7.9714850138
 10
8.9950133887
 20
7.959428009
 10
8.9749496053
 20
7.9459947033
 10
8.9557303055
 20
7.931204812
 10
8.9373836962
 20
7.9150800411
 10
8.9199367036
 20
7.8976440561
 10
8.9034149336
 20
7.8789224466
 10
8.8878426341
 20
7.8589426893
 10
8.8732426597
 20
7.8377341071
 10
8.8596364377
 20
7.8153278265
 10
8.8470439373
 20
7.791756732
 10
8.8354836396
 20
7.7670554172
 10
8.8249725111
 20
7.7412601349
 10
8.8155259781
 20
7.7144087431
 10
8.8071579048
 20
7.6865406499
 10
8.7998805726
 20
7.6576967556
 10
8.7937046618
 20
7.6279193927
 10
8.7886392365
 20
7.5972522634
 10
8.784691731
 20
7.5657403761
 10
8.7818679386
 20
7.5334299788
 10
8.7801720037
 20
7.5003684914
 10
8.7796064154
 20
7.4666044362
  0
LWPOLYLINE
  5
14F
330
1F
100
AcDbEntity
  8
0
  6
Continuous
 62
     7
370
     0
100
AcDbPolyline
 90
       63
 70
   128
 43
0.0
 10
10.5968708431
 20
6.727755095
 10
10.5963069626
 20
6.7622755322
 10
10.5946161388
 20
6.7973969606
 10
10.591800823
 20
6.8330684575
 10
10.5878650974
 20
6.8692383027
 10
10.5828146683
 20
6.9058540532
 10
10.5766568584
 20
6.9428626198
 10
10.5694005958
 20
6.9802103437
 10
10.5610564015
 20
7.0178430741
 10
10.5516363738
 20
7.0557062472
 10
10.5411541707
 20
7.093744965
 10
10.5296249906
 20
7.131904075
 10
10.5170655496
 20
7.1701282502
 10
10.5034940576
 20
7.2083620692
 10
10.4889301921
 20
7.2465500965
 10
10.4733950693
 20
7.2846369632
 10
10.4569112136
 20
7.322567447
 10
10.439502525
 20
7.3602865523
 10
10.4211942445
 20
7.39773959
 10
10.4020129173
 20
7.4348722567
 10
10.3819863545
 20
7.4716307137
 10
10.3611435927
 20
7.5079616648
 10
10.339514852
 20
7.5438124334
 10
10.3171314918
 20
7.5791310395
 10
10.2940259661
 20
7.6138662743
 10
10.2702317754
 20
7.6479677752
 10
10.2457834193
 20
7.6813860983
 10
10.2207163454
 20
7.7140727901
 10
10.1950668986
 20
7.745980458
 10
10.1688722681
 20
7.7770628391
 10
10.1421704338
 20
7.8072748668
 10
10.1150001105
 20
7.8365727366
 10
10.0874006929
 20
7.8649139694
 10
10.0594121972
 20
7.892257473
 10
10.0310752043
 20
7.9185636021
 10
10.0024308
 20
7.9437942152
 10
9.973520516
 20
7.9679127304
 10
9.9443862694
 20
7.9908841781
 10
9.9150703021
 20
8.0126752519
 10
9.8856151195
 20
8.0332543569
 10
9.8560634287
 20
8.0525916553
 10
9.8264580768
 20
8.0706591099
 10
9.7968419889
 20
8.0874305246
 10
9.7672581054
 20
8.1028815825
 10
9.7377493201
 20
8.1169898809
 10
9.7083584179
 20
8.1297349643
 10
9.6791280128
 20
8.1410983535
 10
9.6501004861
 20
8.1510635725
 10
9.621317925
 20
8.1596161729
 10
9.5928220614
 20
8.1667437542
 10
9.5646542115
 20
8.172435982
 10
9.5368552162
 20
8.1766846031
 10
9.5094653812
 20
8.1794834576
 10
9.4825244192
 20
8.1808284873
 10
9.4560713921
 20
8.1807177419
 10
9.4301446541
 20
8.1791513823
 10
9.4047817967
 20
8.1761316792
 10
9.3800195934
 20
8.1716630112
 10
9.3558939471
 20
8.1657518572
 10
9.3324398377
 20
8.158406788
 10
9.3096912715
 20
8.1496384531
 10
9.2876812316
 20
8.1394595658
 10
9.2690980808
 20
8.1294333052
  0
LWPOLYLINE
  5
150
330
1F
100
AcDbEntity
  8
0
  6
Continuous
 62
     7
370
     0
100
AcDbPolyline
 90
       22
 70
   128
 43
0.0
 10
10.3690086867
 20
6.2241258079
 10
10.3819863545
 20
6.2319798259
 10
10.4020129173
 20
6.2456161057
 10
10.4211942445
 20
6.2606024834
 10
10.439502525
 20
6.2769172304
 10
10.4569112136
 20
6.2945366917
 10
10.4733950693
 20
6.3134353208
 10
10.4889301921
 20
6.3335857165
 10
10.5034940576
 20
6.3549586626
 10
10.5170655496
 20
6.3775231705
 10
10.5296249906
 20
6.4012465237
 10
10.5411541707
 20
6.4260943257
 10
10.5516363738
 20
6.4520305495
 10
10.5610564015
 20
6.4790175901
 10
10.5694005958
 20
6.5070163189
 10
10.5766568584
 20
6.5359861402
 10
10.5828146683
 20
6.5658850508
 10
10.5878650974
 20
6.5966697001
 10
10.591800823
 20
6.6282954531
 10
10.5946161388
 20
6.6607164557
 10
10.5963069626
 20
6.6938857004
 10
10.5968708431
 20
6.727755095
  0
LWPOLYLINE
  5
151
330
1F
100
AcDbEntity
  8
0
  6
Continuous
 62
     7
370
     0
100
AcDbPolyline
 90
      161
 70
   128
 43
0.0
 10
8.8186242084
 20
7.4440799438
 10
8.8191883446
 20
7.4769277662
 10
8.8208798834
 20
7.5090736018
 10
8.8236962166
 20
7.540467884
 10
8.8276330016
 20
7.5710622052
 10
8.8326841682
 20
7.6008093911
 10
8.8388419278
 20
7.6296635738
 10
8.8460967856
 20
7.6575802621
 10
8.8544375551
 20
7.6845164106
 10
8.8638513755
 20
7.7104304856
 10
8.8743237314
 20
7.7352825296
 10
8.8858384751
 20
7.7590342225
 10
8.8983778517
 20
7.7816489408
 10
8.9119225264
 20
7.8030918144
 10
8.9264516144
 20
7.8233297799
 10
8.9419427128
 20
7.8423316319
 10
8.9583719354
 20
7.8600680707
 10
8.9757139497
 20
7.8765117482
 10
8.9939420154
 20
7.8916373094
 10
9.0130280262
 20
7.9054214317
 10
9.0329425529
 20
7.917842861
 10
9.0536548887
 20
7.9288824445
 10
9.0751330967
 20
7.9385231598
 10
9.097344059
 20
7.9467501416
 10
9.120253528
 20
7.9535507046
 10
9.1438261789
 20
7.9589143629
 10
9.1680256644
 20
7.9628328459
 10
9.1928146707
 20
7.9653001117
 10
9.2181549748
 20
7.966312356
 10
9.2440075039
 20
7.9658680179
 10
9.2703323953
 20
7.9639677826
 10
9.2970890578
 20
7.9606145801
 10
9.3242362347
 20
7.9558135808
 10
9.351732067
 20
7.9495721875
 10
9.379534158
 20
7.941900024
 10
9.407599639
 20
7.9328089201
 10
9.4358852351
 20
7.9223128938
 10
9.4643473318
 20
7.9104281291
 10
9.4929420428
 20
7.8971729515
 10
9.521625277
 20
7.8825677995
 10
9.5503528069
 20
7.8666351931
 10
9.5790803369
 20
7.8493996994
 10
9.6077635711
 20
7.8308878941
 10
9.6363582821
 20
7.8111283212
 10
9.6648203788
 20
7.7901514485
 10
9.6931059749
 20
7.7679896207
 10
9.7211714559
 20
7.7446770099
 10
9.7489735469
 20
7.7202495624
 10
9.7764693792
 20
7.6947449435
 10
9.8036165561
 20
7.6682024795
 10
9.8303732186
 20
7.640663097
 10
9.85669811
 20
7.6121692597
 10
9.8825506391
 20
7.582764903
 10
9.9078909432
 20
7.5524953664
 10
9.9326799495
 20
7.5214073231
 10
9.956879435
 20
7.4895487089
 10
9.9804520859
 20
7.4569686473
 10
10.0033615548
 20
7.4237173743
 10
10.0255725172
 20
7.3898461612
 10
10.0470507252
 20
7.3554072348
 10
10.067763061
 20
7.3204536975
 10
10.0876775877
 20
7.285039445
 10
10.1067635985
 20
7.2492190837
 10
10.1249916642
 20
7.2130478458
 10
10.1423336784
 20
7.1765815049
 10
10.1587629011
 20
7.1398762893
 10
10.1742539995
 20
7.1029887959
 10
10.1887830874
 20
7.0659759025
 10
10.2023277622
 20
7.0288946803
 10
10.2148671388
 20
6.9918023059
 10
10.2263818825
 20
6.9547559729
 10
10.2368542384
 20
6.9178128042
 10
10.2462680588
 20
6.8810297635
 10
10.2546088283
 20
6.8444635675
 10
10.2618636861
 20
6.8081705987
 10
10.2680214457
 20
6.7722068182
 10
10.2730726122
 20
6.7366276795
 10
10.2770093972
 20
6.7014880431
 10
10.2798257304
 20
6.6668420917
 10
10.2815172693
 20
6.632743247
 10
10.2820814055
 20
6.5992440868
 10
10.2815172693
 20
6.5663962644
 10
10.2798257304
 20
6.5342504288
 10
10.2770093972
 20
6.5028561466
 10
10.2730726122
 20
6.4722618254
 10
10.2680214457
 20
6.4425146395
 10
10.2618636861
 20
6.4136604568
 10
10.2546088283
 20
6.3857437685
 10
10.2462680588
 20
6.35880762
 10
10.2368542384
 20
6.332893545
 10
10.2263818825
 20
6.308041501
 10
10.2148671388
 20
6.2842898081
 10
10.2023277622
 20
6.2616750898
 10
10.1887830874
 20
6.2402322162
 10
10.1742539995
 20
6.2199942507
 10
10.1587629011
 20
6.2009923987
 10
10.1423336784
 20
6.1832559599
 10
10.1249916642
 20
6.1668122824
 10
10.1067635985
 20
6.1516867212
 10
10.0876775877
 20
6.1379025989
 10
10.067763061
 20
6.1254811696
 10
10.0470507252
 20
6.1144415861
 10
10.0255725172
 20
6.1048008708
 10
10.0033615548
 20
6.096573889
 10
9.9804520859
 20
6.089773326
 10
9.956879435
 20
6.0844096677
 10
9.9326799495
 20
6.0804911847
 10
9.9078909432
 20
6.0780239189
 10
9.8825506391
 20
6.0770116746
 10
9.85669811
 20
6.0774560127
 10
9.8303732186
 20
6.079356248
 10
9.8036165561
 20
6.0827094505
 10
9.7764693792
 20
6.0875104498
 10
9.7489735469
 20
6.0937518431
 10
9.7211714559
 20
6.1014240066
 10
9.6931059749
 20
6.1105151105
 10
9.6648203788
 20
6.1210111368
 10
9.6363582821
 20
6.1328959015
 10
9.6077635711
 20
6.1461510791
 10
9.5790803369
 20
6.1607562311
 10
9.5503528069
 20
6.1766888375
 10
9.521625277
 20
6.1939243312
 10
9.4929420428
 20
6.2124361365
 10
9.4643473318
 20
6.2321957094
 10
9.4358852351
 20
6.2531725821
 10
9.407599639
 20
6.2753344099
 10
9.379534158
 20
6.2986470207
 10
9.351732067
 20
6.3230744682
 10
9.3242362347
 20
6.3485790871
 10
9.2970890578
 20
6.3751215511
 10
9.2703323953
 20
6.4026609336
 10
9.2440075039
 20
6.4311547709
 10
9.2181549748
 20
6.4605591276
 10
9.1928146707
 20
6.4908286642
 10
9.1680256644
 20
6.5219167075
 10
9.1438261789
 20
6.5537753217
 10
9.120253528
 20
6.5863553834
 10
9.097344059
 20
6.6196066563
 10
9.0751330967
 20
6.6534778694
 10
9.0536548887
 20
6.6879167958
 10
9.0329425529
 20
6.7228703331
 10
9.0130280262
 20
6.7582845856
 10
8.9939420154
 20
6.7941049469
 10
8.9757139497
 20
6.8302761848
 10
8.9583719354
 20
6.8667425257
 10
8.9419427128
 20
6.9034477413
 10
8.9264516144
 20
6.9403352347
 10
8.9119225264
 20
6.9773481281
 10
8.8983778517
 20
7.0144293503
 10
8.8858384751
 20
7.0515217248
 10
8.8743237314
 20
7.0885680577
 10
8.8638513755
 20
7.1255112264
 10
8.8544375551
 20
7.1622942671
 10
8.8460967856
 20
7.1988604631
 10
8.8388419278
 20
7.2351534319
 10
8.8326841682
 20
7.2711172124
 10
8.8276330016
 20
7.3066963511
 10
8.8236962166
 20
7.3418359875
 10
8.8208798834
 20
7.3764819389
 10
8.8191883446
 20
7.4105807836
 10
8.8186242084
 20
7.4440799438
  0
LWPOLYLINE
  5
152
330
1F
100
AcDbEntity
  8
0
  6
Continuous
 62
     7
370
     0
100
AcDbPolyline
 90
      160
 70
   128
 43
0.0
 10
8.8379427249
 20
7.4410916828
 10
8.8385044171
 20
7.4079441415
 10
8.8401886167
 20
7.3741998401
 10
8.842992694
 20
7.3399114664
 10
8.8469122708
 20
7.3051325576
 10
8.8519412271
 20
7.2699174168
 10
8.8580717108
 20
7.2343210282
 10
8.8652941499
 20
7.1983989715
 10
8.8735972675
 20
7.1622073347
 10
8.8829680991
 20
7.1258026266
 10
8.8933920133
 20
7.089241689
 10
8.9048527344
 20
7.0525816073
 10
8.9173323679
 20
7.015879622
 10
8.9308114284
 20
6.9791930388
 10
8.9452688697
 20
6.9425791395
 10
8.9606821185
 20
6.9060950924
 10
8.9770271086
 20
6.8697978629
 10
8.9942783195
 20
6.8337441249
 10
9.0124088152
 20
6.7979901719
 10
9.0313902873
 20
6.7625918297
 10
9.0511930983
 20
6.7276043684
 10
9.0717863287
 20
6.6930824168
 10
9.0931378244
 20
6.6590798769
 10
9.1152142477
 20
6.6256498396
 10
9.1379811288
 20
6.5928445019
 10
9.1614029199
 20
6.5607150854
 10
9.1854430508
 20
6.5293117565
 10
9.2100639856
 20
6.4986835477
 10
9.2352272816
 20
6.4688782814
 10
9.2608936493
 20
6.4399424948
 10
9.2870230138
 20
6.4119213678
 10
9.3135745772
 20
6.3848586521
 10
9.3405068822
 20
6.3587966029
 10
9.3677778774
 20
6.3337759129
 10
9.3953449823
 20
6.3098356491
 10
9.4231651542
 20
6.2870131912
 10
9.4511949551
 20
6.2653441739
 10
9.4793906199
 20
6.2448624308
 10
9.5077081243
 20
6.2255999416
 10
9.536103254
 20
6.2075867825
 10
9.5645316733
 20
6.1908510788
 10
9.5929489946
 20
6.1754189614
 10
9.6213108476
 20
6.1613145257
 10
9.6495729487
 20
6.1485597941
 10
9.67769117
 20
6.1371746816
 10
9.7056216082
 20
6.1271769647
 10
9.7333206532
 20
6.1185822536
 10
9.7607450563
 20
6.1114039681
 10
9.7878519975
 20
6.105653316
 10
9.8145991525
 20
6.1013392764
 10
9.8409447588
 20
6.0984685851
 10
9.866847681
 20
6.0970457244
 10
9.8922674746
 20
6.0970729158
 10
9.9171644497
 20
6.0985501171
 10
9.9414997325
 20
6.1014750216
 10
9.9652353266
 20
6.1058430625
 10
9.9883341714
 20
6.1116474196
 10
10.010760201
 20
6.11887903
 10
10.0324783997
 20
6.1275266026
 10
10.0534548571
 20
6.1375766351
 10
10.0736568211
 20
6.1490134356
 10
10.0930527486
 20
6.1618191469
 10
10.1116123552
 20
6.1759737743
 10
10.1293066622
 20
6.1914552172
 10
10.1461080422
 20
6.2082393031
 10
10.1619902617
 20
6.2262998256
 10
10.1769285226
 20
6.2456085854
 10
10.1908995005
 20
6.2661354341
 10
10.2038813815
 20
6.2878483214
 10
10.2158538957
 20
6.3107133454
 10
10.2267983497
 20
6.334694805
 10
10.2366976548
 20
6.3597552559
 10
10.2455363546
 20
6.3858555693
 10
10.2533006485
 20
6.4129549926
 10
10.2599784133
 20
6.4410112133
 10
10.2655592227
 20
6.4699804249
 10
10.2700343628
 20
6.4998173954
 10
10.2733968461
 20
6.530475538
 10
10.2756414227
 20
6.5619069836
 10
10.2767645878
 20
6.5940626557
 10
10.2767645878
 20
6.6268923471
 10
10.2756414227
 20
6.660344798
 10
10.2733968461
 20
6.6943677766
 10
10.2700343628
 20
6.7289081598
 10
10.2655592227
 20
6.7639120171
 10
10.2599784133
 20
6.799324694
 10
10.2533006485
 20
6.8350908979
 10
10.2455363546
 20
6.8711547841
 10
10.2366976548
 20
6.907460043
 10
10.2267983497
 20
6.9439499884
 10
10.2158538957
 20
6.9805676455
 10
10.2038813815
 20
7.0172558403
 10
10.1908995005
 20
7.0539572883
 10
10.1769285226
 20
7.0906146848
 10
10.1619902617
 20
7.1271707934
 10
10.1461080422
 20
7.1635685363
 10
10.1293066622
 20
7.1997510826
 10
10.1116123552
 20
7.2356619376
 10
10.0930527486
 20
7.2712450307
 10
10.0736568211
 20
7.3064448032
 10
10.0534548571
 20
7.3412062948
 10
10.0324783997
 20
7.3754752295
 10
10.010760201
 20
7.4091981006
 10
9.9883341714
 20
7.4423222536
 10
9.9652353266
 20
7.4747959693
 10
9.9414997325
 20
7.5065685437
 10
9.9171644497
 20
7.5375903677
 10
9.8922674746
 20
7.5678130045
 10
9.866847681
 20
7.597189265
 10
9.8409447588
 20
7.6256732816
 10
9.8145991525
 20
7.65322058
 10
9.7878519975
 20
7.6797881482
 10
9.7607450563
 20
7.7053345042
 10
9.7333206532
 20
7.7298197605
 10
9.7056216082
 20
7.753205686
 10
9.67769117
 20
7.7754557666
 10
9.6495729487
 20
7.7965352614
 10
9.6213108476
 20
7.8164112572
 10
9.5929489946
 20
7.83505272
 10
9.5645316733
 20
7.8524305434
 10
9.536103254
 20
7.868517594
 10
9.5077081243
 20
7.8832887538
 10
9.4793906199
 20
7.8967209593
 10
9.4511949551
 20
7.9087932377
 10
9.4231651542
 20
7.9194867397
 10
9.3953449823
 20
7.9287847686
 10
9.3677778774
 20
7.9366728066
 10
9.3405068822
 20
7.9431385375
 10
9.3135745772
 20
7.9481718658
 10
9.2870230138
 20
7.9517649326
 10
9.2608936493
 20
7.9539121277
 10
9.2352272816
 20
7.9546100986
 10
9.2100639856
 20
7.9538577554
 10
9.1854430508
 20
7.9516562728
 10
9.1614029199
 20
7.9480090882
 10
9.1379811288
 20
7.9429218962
 10
9.1152142477
 20
7.9364026399
 10
9.0931378244
 20
7.9284614984
 10
9.0717863287
 20
7.9191108707
 10
9.0511930983
 20
7.9083653567
 10
9.0313902873
 20
7.8962417344
 10
9.0124088152
 20
7.8827589333
 10
8.9942783195
 20
7.8679380052
 10
8.9770271086
 20
7.8518020913
 10
8.9606821185
 20
7.8343763857
 10
8.9452688697
 20
7.8156880968
 10
8.9308114284
 20
7.795766404
 10
8.9173323679
 20
7.7746424127
 10
8.9048527344
 20
7.7523491056
 10
8.8933920133
 20
7.7289212909
 10
8.8829680991
 20
7.7043955484
 10
8.8735972675
 20
7.6788101722
 10
8.8652941499
 20
7.6522051108
 10
8.8580717108
 20
7.6246219048
 10
8.8519412271
 20
7.5961036221
 10
8.8469122708
 20
7.5666947907
 10
8.842992694
 20
7.5364413289
 10
8.8401886167
 20
7.5053904739
 10
8.8385044171
 20
7.473590708
 10
8.8379427249
 20
7.4410916828
  0
ARC
  5
153
330
1F
100
AcDbEntity
  8
0
  6
Continuous
 62
     7
370
     0
100
AcDbCircle
 10
8.9248304541
 20
6.6605556474
 30
0.0
 40
1.673737949627875
100
AcDbArc
 50
2.5807340673
 51
57.4138894
  0
LWPOLYLINE
  5
154
330
1F
100
AcDbEntity
  8
0
  6
Continuous
 62
     7
370
     0
100
AcDbPolyline
 90
       50
 70
   128
 43
0.0
 10
10.6233873474
 20
6.8104164164
 10
10.6228256552
 20
6.8435639577
 10
10.6211414556
 20
6.877308259
 10
10.6183373783
 20
6.9115966327
 10
10.6144178015
 20
6.9463755416
 10
10.6093888452
 20
6.9815906824
 10
10.6032583614
 20
7.0171870709
 10
10.5960359223
 20
7.0531091276
 10
10.5877328048
 20
7.0893007644
 10
10.5783619732
 20
7.1257054725
 10
10.567938059
 20
7.1622664102
 10
10.5564773379
 20
7.1989264918
 10
10.5439977043
 20
7.2356284771
 10
10.5305186439
 20
7.2723150603
 10
10.5160612025
 20
7.3089289596
 10
10.5006479538
 20
7.3454130067
 10
10.4843029636
 20
7.3817102362
 10
10.4670517528
 20
7.4177639743
 10
10.4489212571
 20
7.4535179272
 10
10.429939785
 20
7.4889162694
 10
10.4101369739
 20
7.5239037307
 10
10.3895437436
 20
7.5584256823
 10
10.3681922479
 20
7.5924282222
 10
10.3461158246
 20
7.6258582596
 10
10.3233489435
 20
7.6586635973
 10
10.2999271523
 20
7.6907930137
 10
10.2758870215
 20
7.7221963426
 10
10.2512660867
 20
7.7528245514
 10
10.2261027907
 20
7.7826298178
 10
10.2004364229
 20
7.8115656043
 10
10.1743070585
 20
7.8395867313
 10
10.1477554951
 20
7.866649447
 10
10.1208231901
 20
7.8927114962
 10
10.0935521949
 20
7.9177321862
 10
10.0659850899
 20
7.94167245
 10
10.0381649181
 20
7.9644949079
 10
10.0101351172
 20
7.9861639252
 10
9.9819394524
 20
8.0066456683
 10
9.953621948
 20
8.0259081575
 10
9.9252268183
 20
8.0439213166
 10
9.896798399
 20
8.0606570203
 10
9.8683810777
 20
8.0760891377
 10
9.8400192247
 20
8.0901935734
 10
9.8117571235
 20
8.102948305
 10
9.7836389022
 20
8.1143334175
 10
9.7557084641
 20
8.1243311344
 10
9.7280094191
 20
8.1329258455
 10
9.700585016
 20
8.1401041311
 10
9.6734780748
 20
8.1458547831
 10
9.6577948138
 20
8.1485517672
  0
ARC
  5
155
330
1F
100
AcDbEntity
  8
0
  6
Continuous
 62
     7
370
     0
100
AcDbCircle
 10
9.8988096353
 20
6.7985706321
 30
0.0
 40
0.7246745362101595
100
AcDbArc
 50
340.0379154229
 51
0.9366186332
  0
LINE
  5
156
330
1F
100
AcDbEntity
  8
0
  6
Continuous
 62
     7
370
     0
100
AcDbLine
 10
7.2470058322
 20
3.2470352703
 30
0.0
 11
7.3651160685
 21
3.2470352703
 31
0.0
  0
ARC
  5
157
330
1F
100
AcDbEntity
  8
0
  6
Continuous
 62
     7
370
     0
100
AcDbCircle
 10
10.7288955308
 20
4.2477225325
 30
0.0
 40
3.62283464566929
100
AcDbArc
 50
180.0108691748
 51
196.0345318924
  0
ARC
  5
158
330
1F
100
AcDbEntity
  8
0
  6
Continuous
 62
     7
370
     0
100
AcDbCircle
 10
10.7288955308
 20
4.2463480081
 30
0.0
 40
3.62283464566929
100
AcDbArc
 50
163.9654681076
 51
179.9891308252
  0
LINE
  5
159
330
1F
100
AcDbEntity
  8
0
  6
Continuous
 62
     7
370
     0
100
AcDbLine
 10
7.3651160685
 20
5.2470352703
 30
0.0
 11
7.2470058322
 21
5.2470352703
 31
0.0
  0
LINE
  5
15A
330
1F
100
AcDbEntity
  8
0
  6
Continuous
 62
     7
370
     0
100
AcDbLine
 10
7.3651160685
 20
3.2470352703
 30
0.0
 11
7.3651160685
 21
5.2470352703
 31
0.0
  0
LINE
  5
15B
330
1F
100
AcDbEntity
  8
0
  6
Continuous
 62
     7
370
     0
100
AcDbLine
 10
7.2377794018
 20
3.2395352703
 30
0.0
 11
7.2204588937
 21
3.2295352703
 31
0.0
  0
LINE
  5
15C
330
1F
100
AcDbEntity
  8
0
  6
Continuous
 62
     7
370
     0
100
AcDbLine
 10
7.2204588937
 20
5.2645352703
 30
0.0
 11
7.2377794018
 21
5.2545352703
 31
0.0
  0
LINE
  5
15D
330
1F
100
AcDbEntity
  8
0
  6
Continuous
 62
     7
370
     0
100
AcDbLine
 10
7.2377794018
 20
5.2143557784
 30
0.0
 11
7.2277794018
 21
5.1970352703
 31
0.0
  0
LINE
  5
15E
330
1F
100
AcDbEntity
  8
0
  6
Continuous
 62
     7
370
     0
100
AcDbLine
 10
7.2277794018
 20
3.2970352703
 30
0.0
 11
7.2377794018
 21
3.2797147622
 31
0.0
  0
LINE
  5
15F
330
1F
100
AcDbEntity
  8
0
  6
Continuous
 62
     7
370
     0
100
AcDbLine
 10
7.2277794018
 20
3.2970352703
 30
0.0
 11
7.2277794018
 21
3.3165315098
 31
0.0
  0
LINE
  5
160
330
1F
100
AcDbEntity
  8
0
  6
Continuous
 62
     7
370
     0
100
AcDbLine
 10
7.2277794018
 20
5.1775390308
 30
0.0
 11
7.2277794018
 21
5.1970352703
 31
0.0
  0
LINE
  5
161
330
1F
100
AcDbEntity
  8
0
  6
Continuous
 62
     7
370
     0
100
AcDbLine
 10
7.2277794018
 20
3.2970352703
 30
0.0
 11
7.1550999098
 21
3.2970352703
 31
0.0
  0
LINE
  5
162
330
1F
100
AcDbEntity
  8
0
  6
Continuous
 62
     7
370
     0
100
AcDbLine
 10
7.1550999098
 20
3.6536554241
 30
0.0
 11
7.1550999098
 21
3.2970352703
 31
0.0
  0
LINE
  5
163
330
1F
100
AcDbEntity
  8
0
  6
Continuous
 62
     7
370
     0
100
AcDbLine
 10
7.1550999098
 20
5.1970352703
 30
0.0
 11
7.1550999098
 21
4.8404151165
 31
0.0
  0
LINE
  5
164
330
1F
100
AcDbEntity
  8
0
  6
Continuous
 62
     7
370
     0
100
AcDbLine
 10
7.1550999098
 20
5.1970352703
 30
0.0
 11
7.2277794018
 21
5.1970352703
 31
0.0
  0
LINE
  5
165
330
1F
100
AcDbEntity
  8
0
  6
Continuous
 62
     7
370
     0
100
AcDbLine
 10
7.1477794018
 20
3.2295352703
 30
0.0
 11
7.2204588937
 21
3.2295352703
 31
0.0
  0
LINE
  5
166
330
1F
100
AcDbEntity
  8
0
  6
Continuous
 62
     7
370
     0
100
AcDbLine
 10
7.2204588937
 20
5.2645352703
 30
0.0
 11
7.1477794018
 21
5.2645352703
 31
0.0
  0
LINE
  5
167
330
1F
100
AcDbEntity
  8
0
  6
Continuous
 62
     7
370
     0
100
AcDbLine
 10
7.1550999098
 20
5.1970352703
 30
0.0
 11
7.1377794018
 21
5.2070352703
 31
0.0
  0
LINE
  5
168
330
1F
100
AcDbEntity
  8
0
  6
Continuous
 62
     7
370
     0
100
AcDbLine
 10
7.1377794018
 20
5.2472147622
 30
0.0
 11
7.1377794018
 21
5.2070352703
 31
0.0
  0
LINE
  5
169
330
1F
100
AcDbEntity
  8
0
  6
Continuous
 62
     7
370
     0
100
AcDbLine
 10
7.1377794018
 20
5.2472147622
 30
0.0
 11
7.1477794018
 21
5.2645352703
 31
0.0
  0
LINE
  5
16A
330
1F
100
AcDbEntity
  8
0
  6
Continuous
 62
     7
370
     0
100
AcDbLine
 10
7.2377794018
 20
5.2143557784
 30
0.0
 11
7.2377794018
 21
5.2545352703
 31
0.0
  0
LINE
  5
16B
330
1F
100
AcDbEntity
  8
0
  6
Continuous
 62
     7
370
     0
100
AcDbLine
 10
7.1477794018
 20
3.2295352703
 30
0.0
 11
7.1377794018
 21
3.2468557784
 31
0.0
  0
LINE
  5
16C
330
1F
100
AcDbEntity
  8
0
  6
Continuous
 62
     7
370
     0
100
AcDbLine
 10
7.1377794018
 20
3.2870352703
 30
0.0
 11
7.1377794018
 21
3.2468557784
 31
0.0
  0
LINE
  5
16D
330
1F
100
AcDbEntity
  8
0
  6
Continuous
 62
     7
370
     0
100
AcDbLine
 10
7.1377794018
 20
3.2870352703
 30
0.0
 11
7.1550999098
 21
3.2970352703
 31
0.0
  0
LINE
  5
16E
330
1F
100
AcDbEntity
  8
0
  6
Continuous
 62
     7
370
     0
100
AcDbLine
 10
7.2377794018
 20
3.2395352703
 30
0.0
 11
7.2377794018
 21
3.2797147622
 31
0.0
  0
LINE
  5
16F
330
1F
100
AcDbEntity
  8
0
  6
Continuous
 62
     7
370
     0
100
AcDbLine
 10
7.1377794018
 20
4.7246949716
 30
0.0
 11
7.1377794018
 21
5.2070352703
 31
0.0
  0
LINE
  5
170
330
1F
100
AcDbEntity
  8
0
  6
Continuous
 62
     7
370
     0
100
AcDbLine
 10
7.1377794018
 20
3.2870352703
 30
0.0
 11
7.1377794018
 21
3.769375569
 31
0.0
  0
LINE
  5
171
330
1F
100
AcDbEntity
  8
0
  6
Continuous
 62
     7
370
     0
100
AcDbLine
 10
7.2195966342
 20
3.1470352703
 30
0.0
 11
7.2401160685
 21
3.1470352703
 31
0.0
  0
LINE
  5
172
330
1F
100
AcDbEntity
  8
0
  6
Continuous
 62
     7
370
     0
100
AcDbLine
 10
7.1663182157
 20
3.1470352703
 30
0.0
 11
7.1963299477
 21
3.1470352703
 31
0.0
  0
LINE
  5
173
330
1F
100
AcDbEntity
  8
0
  6
Continuous
 62
     7
370
     0
100
AcDbLine
 10
7.1963299477
 20
3.1470352703
 30
0.0
 11
7.2195966342
 21
3.1470352703
 31
0.0
  0
LINE
  5
174
330
1F
100
AcDbEntity
  8
0
  6
Continuous
 62
     7
370
     0
100
AcDbLine
 10
7.5151160685
 20
3.2468557784
 30
0.0
 11
7.5051160685
 21
3.2295352703
 31
0.0
  0
LINE
  5
175
330
1F
100
AcDbEntity
  8
0
  6
Continuous
 62
     7
370
     0
100
AcDbLine
 10
7.5051160685
 20
5.2645352703
 30
0.0
 11
7.5151160685
 21
5.2472147622
 31
0.0
  0
LINE
  5
176
330
1F
100
AcDbEntity
  8
0
  6
Continuous
 62
     7
370
     0
100
AcDbLine
 10
7.1815224621
 20
5.3470352703
 30
0.0
 11
7.1514169497
 21
5.3470352703
 31
0.0
  0
LINE
  5
177
330
1F
100
AcDbEntity
  8
0
  6
Continuous
 62
     7
370
     0
100
AcDbLine
 10
7.1909535178
 20
5.3470352703
 30
0.0
 11
7.1815224621
 21
5.3470352703
 31
0.0
  0
LINE
  5
178
330
1F
100
AcDbEntity
  8
0
  6
Continuous
 62
     7
370
     0
100
AcDbLine
 10
7.2101160685
 20
5.3470352703
 30
0.0
 11
7.1909535178
 21
5.3470352703
 31
0.0
  0
LINE
  5
179
330
1F
100
AcDbEntity
  8
0
  6
Continuous
 62
     7
370
     0
100
AcDbLine
 10
7.2193468377
 20
5.3470352703
 30
0.0
 11
7.2101160685
 21
5.3470352703
 31
0.0
  0
LINE
  5
17A
330
1F
100
AcDbEntity
  8
0
  6
Continuous
 62
     7
370
     0
100
AcDbLine
 10
7.2439622223
 20
5.3470352703
 30
0.0
 11
7.2193468377
 21
5.3470352703
 31
0.0
  0
LINE
  5
17B
330
1F
100
AcDbEntity
  8
0
  6
Continuous
 62
     7
370
     0
100
AcDbLine
 10
7.2531929915
 20
5.3470352703
 30
0.0
 11
7.2439622223
 21
5.3470352703
 31
0.0
  0
LINE
  5
17C
330
1F
100
AcDbEntity
  8
0
  6
Continuous
 62
     7
370
     0
100
AcDbLine
 10
7.2808852992
 20
5.3470352703
 30
0.0
 11
7.2531929915
 21
5.3470352703
 31
0.0
  0
LINE
  5
17D
330
1F
100
AcDbEntity
  8
0
  6
Continuous
 62
     7
370
     0
100
AcDbLine
 10
7.2901160685
 20
5.3470352703
 30
0.0
 11
7.2808852992
 21
5.3470352703
 31
0.0
  0
LINE
  5
17E
330
1F
100
AcDbEntity
  8
0
  6
Continuous
 62
     7
370
     0
100
AcDbLine
 10
7.3851160685
 20
5.3470352703
 30
0.0
 11
7.2901160685
 21
5.3470352703
 31
0.0
  0
LINE
  5
17F
330
1F
100
AcDbEntity
  8
0
  6
Continuous
 62
     7
370
     0
100
AcDbLine
 10
7.3851160685
 20
5.3470352703
 30
0.0
 11
7.3951160685
 21
5.3370352703
 31
0.0
  0
LINE
  5
180
330
1F
100
AcDbEntity
  8
0
  6
Continuous
 62
     7
370
     0
100
AcDbLine
 10
7.3951160685
 20
5.2545352703
 30
0.0
 11
7.3951160685
 21
5.3370352703
 31
0.0
  0
LINE
  5
181
330
1F
100
AcDbEntity
  8
0
  6
Continuous
 62
     7
370
     0
100
AcDbLine
 10
7.4051160685
 20
5.2545352703
 30
0.0
 11
7.3951160685
 21
5.2545352703
 31
0.0
  0
LINE
  5
182
330
1F
100
AcDbEntity
  8
0
  6
Continuous
 62
     7
370
     0
100
AcDbLine
 10
7.4051160685
 20
5.2645352703
 30
0.0
 11
7.4051160685
 21
5.2545352703
 31
0.0
  0
LINE
  5
183
330
1F
100
AcDbEntity
  8
0
  6
Continuous
 62
     7
370
     0
100
AcDbLine
 10
7.5051160685
 20
5.2645352703
 30
0.0
 11
7.4051160685
 21
5.2645352703
 31
0.0
  0
LINE
  5
184
330
1F
100
AcDbEntity
  8
0
  6
Continuous
 62
     7
370
     0
100
AcDbLine
 10
7.5151160685
 20
5.1970352703
 30
0.0
 11
7.5151160685
 21
5.2472147622
 31
0.0
  0
LINE
  5
185
330
1F
100
AcDbEntity
  8
0
  6
Continuous
 62
     7
370
     0
100
AcDbLine
 10
7.3651160685
 20
5.1970352703
 30
0.0
 11
7.5151160685
 21
5.1970352703
 31
0.0
  0
LINE
  5
186
330
1F
100
AcDbEntity
  8
0
  6
Continuous
 62
     7
370
     0
100
AcDbLine
 10
7.3651160685
 20
5.2745352703
 30
0.0
 11
7.3651160685
 21
5.1970352703
 31
0.0
  0
LINE
  5
187
330
1F
100
AcDbEntity
  8
0
  6
Continuous
 62
     7
370
     0
100
AcDbLine
 10
7.3551160685
 20
5.2745352703
 30
0.0
 11
7.3651160685
 21
5.2745352703
 31
0.0
  0
LINE
  5
188
330
1F
100
AcDbEntity
  8
0
  6
Continuous
 62
     7
370
     0
100
AcDbLine
 10
7.3551160685
 20
5.2645352703
 30
0.0
 11
7.3551160685
 21
5.2745352703
 31
0.0
  0
LINE
  5
189
330
1F
100
AcDbEntity
  8
0
  6
Continuous
 62
     7
370
     0
100
AcDbLine
 10
7.0151160685
 20
5.2645352703
 30
0.0
 11
7.3551160685
 21
5.2645352703
 31
0.0
  0
LINE
  5
18A
330
1F
100
AcDbEntity
  8
0
  6
Continuous
 62
     7
370
     0
100
AcDbLine
 10
7.0151160685
 20
5.2645352703
 30
0.0
 11
7.0051160685
 21
5.2818557784
 31
0.0
  0
LINE
  5
18B
330
1F
100
AcDbEntity
  8
0
  6
Continuous
 62
     7
370
     0
100
AcDbLine
 10
7.0051160685
 20
5.3370352703
 30
0.0
 11
7.0051160685
 21
5.2818557784
 31
0.0
  0
LINE
  5
18C
330
1F
100
AcDbEntity
  8
0
  6
Continuous
 62
     7
370
     0
100
AcDbLine
 10
7.0051160685
 20
5.3370352703
 30
0.0
 11
7.0151160685
 21
5.3470352703
 31
0.0
  0
LINE
  5
18D
330
1F
100
AcDbEntity
  8
0
  6
Continuous
 62
     7
370
     0
100
AcDbLine
 10
7.1103046302
 20
5.3470352703
 30
0.0
 11
7.0151160685
 21
5.3470352703
 31
0.0
  0
LINE
  5
18E
330
1F
100
AcDbEntity
  8
0
  6
Continuous
 62
     7
370
     0
100
AcDbLine
 10
7.1197011584
 20
5.3470352703
 30
0.0
 11
7.1103046302
 21
5.3470352703
 31
0.0
  0
LINE
  5
18F
330
1F
100
AcDbEntity
  8
0
  6
Continuous
 62
     7
370
     0
100
AcDbLine
 10
7.1415581179
 20
5.3470352703
 30
0.0
 11
7.1197011584
 21
5.3470352703
 31
0.0
  0
LINE
  5
190
330
1F
100
AcDbEntity
  8
0
  6
Continuous
 62
     7
370
     0
100
AcDbLine
 10
7.1514169497
 20
5.3470352703
 30
0.0
 11
7.1415581179
 21
5.3470352703
 31
0.0
  0
LINE
  5
191
330
1F
100
AcDbEntity
  8
0
  6
Continuous
 62
     7
370
     0
100
AcDbLine
 10
7.3551160685
 20
3.2295352703
 30
0.0
 11
7.0151160685
 21
3.2295352703
 31
0.0
  0
LINE
  5
192
330
1F
100
AcDbEntity
  8
0
  6
Continuous
 62
     7
370
     0
100
AcDbLine
 10
7.3551160685
 20
3.2195352703
 30
0.0
 11
7.3551160685
 21
3.2295352703
 31
0.0
  0
LINE
  5
193
330
1F
100
AcDbEntity
  8
0
  6
Continuous
 62
     7
370
     0
100
AcDbLine
 10
7.3651160685
 20
3.2195352703
 30
0.0
 11
7.3551160685
 21
3.2195352703
 31
0.0
  0
LINE
  5
194
330
1F
100
AcDbEntity
  8
0
  6
Continuous
 62
     7
370
     0
100
AcDbLine
 10
7.3651160685
 20
3.2970352703
 30
0.0
 11
7.3651160685
 21
3.2195352703
 31
0.0
  0
LINE
  5
195
330
1F
100
AcDbEntity
  8
0
  6
Continuous
 62
     7
370
     0
100
AcDbLine
 10
7.5151160685
 20
3.2970352703
 30
0.0
 11
7.3651160685
 21
3.2970352703
 31
0.0
  0
LINE
  5
196
330
1F
100
AcDbEntity
  8
0
  6
Continuous
 62
     7
370
     0
100
AcDbLine
 10
7.5151160685
 20
3.2468557784
 30
0.0
 11
7.5151160685
 21
3.2970352703
 31
0.0
  0
LINE
  5
197
330
1F
100
AcDbEntity
  8
0
  6
Continuous
 62
     7
370
     0
100
AcDbLine
 10
7.4051160685
 20
3.2295352703
 30
0.0
 11
7.5051160685
 21
3.2295352703
 31
0.0
  0
LINE
  5
198
330
1F
100
AcDbEntity
  8
0
  6
Continuous
 62
     7
370
     0
100
AcDbLine
 10
7.4051160685
 20
3.2395352703
 30
0.0
 11
7.4051160685
 21
3.2295352703
 31
0.0
  0
LINE
  5
199
330
1F
100
AcDbEntity
  8
0
  6
Continuous
 62
     7
370
     0
100
AcDbLine
 10
7.3951160685
 20
3.2395352703
 30
0.0
 11
7.4051160685
 21
3.2395352703
 31
0.0
  0
LINE
  5
19A
330
1F
100
AcDbEntity
  8
0
  6
Continuous
 62
     7
370
     0
100
AcDbLine
 10
7.3951160685
 20
3.1570352703
 30
0.0
 11
7.3951160685
 21
3.2395352703
 31
0.0
  0
LINE
  5
19B
330
1F
100
AcDbEntity
  8
0
  6
Continuous
 62
     7
370
     0
100
AcDbLine
 10
7.3951160685
 20
3.1570352703
 30
0.0
 11
7.3851160685
 21
3.1470352703
 31
0.0
  0
LINE
  5
19C
330
1F
100
AcDbEntity
  8
0
  6
Continuous
 62
     7
370
     0
100
AcDbLine
 10
7.2401160685
 20
3.1470352703
 30
0.0
 11
7.3851160685
 21
3.1470352703
 31
0.0
  0
LINE
  5
19D
330
1F
100
AcDbEntity
  8
0
  6
Continuous
 62
     7
370
     0
100
AcDbLine
 10
7.0151160685
 20
3.1470352703
 30
0.0
 11
7.1663182157
 21
3.1470352703
 31
0.0
  0
LINE
  5
19E
330
1F
100
AcDbEntity
  8
0
  6
Continuous
 62
     7
370
     0
100
AcDbLine
 10
7.0151160685
 20
3.1470352703
 30
0.0
 11
7.0051160685
 21
3.1570352703
 31
0.0
  0
LINE
  5
19F
330
1F
100
AcDbEntity
  8
0
  6
Continuous
 62
     7
370
     0
100
AcDbLine
 10
7.0051160685
 20
3.2122147622
 30
0.0
 11
7.0051160685
 21
3.1570352703
 31
0.0
  0
LINE
  5
1A0
330
1F
100
AcDbEntity
  8
0
  6
Continuous
 62
     7
370
     0
100
AcDbLine
 10
7.0051160685
 20
3.2122147622
 30
0.0
 11
7.0151160685
 21
3.2295352703
 31
0.0
  0
LINE
  5
1A1
330
1F
100
AcDbEntity
  8
0
  6
Continuous
 62
     7
370
     0
100
AcDbLine
 10
7.5151160685
 20
3.2970352703
 30
0.0
 11
7.5151160685
 21
5.1970352703
 31
0.0
  0
LINE
  5
1A2
330
1F
100
AcDbEntity
  8
0
  6
Continuous
 62
     7
370
     0
100
AcDbLine
 10
7.0151160685
 20
5.2645352703
 30
0.0
 11
7.0151160685
 21
3.2295352703
 31
0.0
  0
LINE
  5
1A3
330
1F
100
AcDbEntity
  8
0
  6
Continuous
 62
     7
370
     0
100
AcDbLine
 10
7.3551160685
 20
3.2295352703
 30
0.0
 11
7.3551160685
 21
3.2470352703
 31
0.0
  0
LINE
  5
1A4
330
1F
100
AcDbEntity
  8
0
  6
Continuous
 62
     7
370
     0
100
AcDbLine
 10
7.3551160685
 20
5.2470352703
 30
0.0
 11
7.3551160685
 21
5.2645352703
 31
0.0
  0
LINE
  5
1A5
330
1F
100
AcDbEntity
  8
0
  6
Continuous
 62
     7
370
     0
100
AcDbLine
 10
7.0051160685
 20
3.2122147622
 30
0.0
 11
7.0051160685
 21
5.2818557784
 31
0.0
  0
HATCH
  5
1A6
330
1F
100
AcDbEntity
  8
0
  6
Continuous
 62
     7
370
     0
100
AcDbHatch
 10
0.0
 20
0.0
 30
0.0
210
0.0
220
0.0
230
1.0
  2
ANSI31
 70
     0
 71
     0
 91
        1
 92
        0
 93
       20
 72
     1
 10
7.015116068451808
 20
3.229535270298096
 11
7.005116068451808
 21
3.212214762222407
 72
     1
 10
7.005116068451808
 20
3.212214762222407
 11
7.005116068451808
 21
3.157035270298095
 72
     1
 10
7.005116068451808
 20
3.157035270298095
 11
7.015116068451807
 21
3.147035270298096
 72
     1
 10
7.015116068451807
 20
3.147035270298096
 11
7.166318215676346
 21
3.147035270298096
 72
     1
 10
7.166318215676346
 20
3.147035270298096
 11
7.196329947743787
 21
3.147035270298096
 72
     1
 10
7.196329947743787
 20
3.147035270298096
 11
7.219596634182399
 21
3.147035270298096
 72
     1
 10
7.219596634182399
 20
3.147035270298096
 11
7.240116068451807
 21
3.147035270298096
 72
     1
 10
7.240116068451807
 20
3.147035270298096
 11
7.385116068451809
 21
3.147035270298096
 72
     1
 10
7.385116068451809
 20
3.147035270298096
 11
7.395116068451808
 21
3.157035270298096
 72
     1
 10
7.395116068451808
 20
3.157035270298096
 11
7.395116068451808
 21
3.239535270298096
 72
     1
 10
7.395116068451808
 20
3.239535270298096
 11
7.405116068451807
 21
3.239535270298096
 72
     1
 10
7.405116068451807
 20
3.239535270298096
 11
7.405116068451807
 21
3.229535270298096
 72
     1
 10
7.405116068451807
 20
3.229535270298096
 11
7.505116068451808
 21
3.229535270298096
 72
     1
 10
7.505116068451808
 20
3.229535270298096
 11
7.515116068451809
 21
3.246855778373785
 72
     1
 10
7.515116068451809
 20
3.246855778373785
 11
7.515116068451809
 21
3.297035270298097
 72
     1
 10
7.515116068451809
 20
3.297035270298097
 11
7.365116068451808
 21
3.297035270298097
 72
     1
 10
7.365116068451808
 20
3.297035270298097
 11
7.365116068451808
 21
3.219535270298097
 72
     1
 10
7.365116068451808
 20
3.219535270298097
 11
7.355116068451808
 21
3.219535270298097
 72
     1
 10
7.355116068451808
 20
3.219535270298097
 11
7.355116068451808
 21
3.229535270298096
 72
     1
 10
7.355116068451808
 20
3.229535270298096
 11
7.015116068451808
 21
3.229535270298096
 97
        0
 75
     0
 76
     1
 52
0.0
 41
1.0
 77
     0
 78
     1
 53
45.0
 43
0.0
 44
0.0
 45
-0.0883883476483184
 46
0.0883883476483184
 79
     0
 98
        1
 10
0.0
 20
0.0
  0
HATCH
  5
1A7
330
1F
100
AcDbEntity
  8
0
  6
Continuous
 62
     7
370
     0
100
AcDbHatch
 10
0.0
 20
0.0
 30
0.0
210
0.0
220
0.0
230
1.0
  2
ANSI31
 70
     0
 71
     0
 91
        1
 92
        0
 93
       28
 72
     1
 10
7.151416949705155
 20
5.347035270298097
 11
7.141558117938889
 21
5.347035270298097
 72
     1
 10
7.141558117938889
 20
5.347035270298097
 11
7.119701158376052
 21
5.347035270298097
 72
     1
 10
7.119701158376052
 20
5.347035270298097
 11
7.110304630241814
 21
5.347035270298097
 72
     1
 10
7.110304630241814
 20
5.347035270298097
 11
7.015116068451807
 21
5.347035270298097
 72
     1
 10
7.015116068451807
 20
5.347035270298097
 11
7.005116068451808
 21
5.337035270298098
 72
     1
 10
7.005116068451808
 20
5.337035270298098
 11
7.005116068451808
 21
5.281855778373786
 72
     1
 10
7.005116068451808
 20
5.281855778373786
 11
7.015116068451808
 21
5.264535270298097
 72
     1
 10
7.015116068451808
 20
5.264535270298097
 11
7.355116068451808
 21
5.264535270298097
 72
     1
 10
7.355116068451808
 20
5.264535270298097
 11
7.355116068451808
 21
5.274535270298097
 72
     1
 10
7.355116068451808
 20
5.274535270298097
 11
7.365116068451808
 21
5.274535270298097
 72
     1
 10
7.365116068451808
 20
5.274535270298097
 11
7.365116068451808
 21
5.197035270298096
 72
     1
 10
7.365116068451808
 20
5.197035270298096
 11
7.515116068451809
 21
5.197035270298096
 72
     1
 10
7.515116068451809
 20
5.197035270298096
 11
7.515116068451809
 21
5.247214762222407
 72
     1
 10
7.515116068451809
 20
5.247214762222407
 11
7.505116068451808
 21
5.264535270298097
 72
     1
 10
7.505116068451808
 20
5.264535270298097
 11
7.405116068451807
 21
5.264535270298097
 72
     1
 10
7.405116068451807
 20
5.264535270298097
 11
7.405116068451807
 21
5.254535270298097
 72
     1
 10
7.405116068451807
 20
5.254535270298097
 11
7.395116068451808
 21
5.254535270298097
 72
     1
 10
7.395116068451808
 20
5.254535270298097
 11
7.395116068451808
 21
5.337035270298097
 72
     1
 10
7.395116068451808
 20
5.337035270298097
 11
7.385116068451809
 21
5.347035270298097
 72
     1
 10
7.385116068451809
 20
5.347035270298097
 11
7.290116068451807
 21
5.347035270298097
 72
     1
 10
7.290116068451807
 20
5.347035270298097
 11
7.280885299221038
 21
5.347035270298097
 72
     1
 10
7.280885299221038
 20
5.347035270298097
 11
7.253192991528731
 21
5.347035270298097
 72
     1
 10
7.253192991528731
 20
5.347035270298097
 11
7.243962222297961
 21
5.347035270298097
 72
     1
 10
7.243962222297961
 20
5.347035270298097
 11
7.219346837682576
 21
5.347035270298097
 72
     1
 10
7.219346837682576
 20
5.347035270298097
 11
7.210116068451807
 21
5.347035270298097
 72
     1
 10
7.210116068451807
 20
5.347035270298097
 11
7.190953517794162
 21
5.347035270298097
 72
     1
 10
7.190953517794162
 20
5.347035270298097
 11
7.181522462061542
 21
5.347035270298097
 72
     1
 10
7.181522462061542
 20
5.347035270298097
 11
7.151416949705155
 21
5.347035270298097
 97
        0
 75
     0
 76
     1
 52
0.0
 41
1.0
 77
     0
 78
     1
 53
45.0
 43
0.0
 44
0.0
 45
-0.0883883476483184
 46
0.0883883476483184
 79
     0
 98
        1
 10
0.0
 20
0.0
  0
HATCH
  5
1A8
330
1F
100
AcDbEntity
  8
0
  6
Continuous
 62
     7
370
     0
100
AcDbHatch
 10
0.0
 20
0.0
 30
0.0
210
0.0
220
0.0
230
1.0
  2
ANSI31
 70
     0
 71
     0
 91
        1
 92
        0
 93
        8
 72
     1
 10
7.2377794017644
 20
3.279714762222408
 11
7.2277794017644
 21
3.297035270298097
 72
     1
 10
7.2277794017644
 20
3.297035270298097
 11
7.155099909840091
 21
3.297035270298097
 72
     1
 10
7.155099909840091
 20
3.297035270298097
 11
7.137779401764401
 21
3.287035270298095
 72
     1
 10
7.137779401764401
 20
3.287035270298095
 11
7.137779401764401
 21
3.246855778373784
 72
     1
 10
7.137779401764401
 20
3.246855778373784
 11
7.1477794017644
 21
3.229535270298096
 72
     1
 10
7.1477794017644
 20
3.229535270298096
 11
7.22045889368871
 21
3.229535270298096
 72
     1
 10
7.22045889368871
 20
3.229535270298096
 11
7.2377794017644
 21
3.239535270298097
 72
     1
 10
7.2377794017644
 20
3.239535270298097
 11
7.2377794017644
 21
3.279714762222408
 97
        0
 75
     0
 76
     1
 52
90.0
 41
0.25
 77
     0
 78
     1
 53
135.0000000000002
 43
0.0
 44
0.0
 45
-0.0220970869120795
 46
-0.0220970869120797
 79
     0
 98
        1
 10
0.0
 20
0.0
  0
HATCH
  5
1A9
330
1F
100
AcDbEntity
  8
0
  6
Continuous
 62
     7
370
     0
100
AcDbHatch
 10
0.0
 20
0.0
 30
0.0
210
0.0
220
0.0
230
1.0
  2
ANSI31
 70
     0
 71
     0
 91
        1
 92
        0
 93
        8
 72
     1
 10
7.2277794017644
 20
5.197035270298096
 11
7.2377794017644
 21
5.214355778373784
 72
     1
 10
7.2377794017644
 20
5.214355778373784
 11
7.2377794017644
 21
5.254535270298096
 72
     1
 10
7.2377794017644
 20
5.254535270298096
 11
7.22045889368871
 21
5.264535270298097
 72
     1
 10
7.22045889368871
 20
5.264535270298097
 11
7.1477794017644
 21
5.264535270298097
 72
     1
 10
7.1477794017644
 20
5.264535270298097
 11
7.137779401764401
 21
5.247214762222408
 72
     1
 10
7.137779401764401
 20
5.247214762222408
 11
7.137779401764401
 21
5.207035270298098
 72
     1
 10
7.137779401764401
 20
5.207035270298098
 11
7.155099909840091
 21
5.197035270298096
 72
     1
 10
7.155099909840091
 20
5.197035270298096
 11
7.2277794017644
 21
5.197035270298096
 97
        0
 75
     0
 76
     1
 52
90.0
 41
0.25
 77
     0
 78
     1
 53
135.0000000000002
 43
0.0
 44
0.0
 45
-0.0220970869120795
 46
-0.0220970869120797
 79
     0
 98
        1
 10
0.0
 20
0.0
  0
HATCH
  5
1AA
330
1F
100
AcDbEntity
  8
0
  6
Continuous
 62
     7
370
     0
100
AcDbHatch
 10
0.0
 20
0.0
 30
0.0
210
0.0
220
0.0
230
1.0
  2
ANSI31
 70
     0
 71
     0
 91
        1
 92
        0
 93
        5
 72
     1
 10
7.365116068451808
 20
3.247035270298097
 11
7.365116068451808
 21
5.247035270298096
 72
     1
 10
7.365116068451808
 20
5.247035270298096
 11
7.247005832231336
 21
5.247035270298096
 72
     2
 10
10.72889553082305
 20
4.246348008111442
 40
3.622834645669291
 50
163.9654681076318
 51
179.9891308252234
 73
     1
 72
     2
 10
10.72889553082305
 20
4.247722532484751
 40
3.622834645669291
 50
180.0108691747774
 51
196.034531892369
 73
     1
 72
     1
 10
7.247005832231336
 20
3.247035270298097
 11
7.365116068451808
 21
3.247035270298097
 97
        0
 75
     0
 76
     1
 52
0.0
 41
1.0
 77
     0
 78
     1
 53
45.0
 43
0.0
 44
0.0
 45
-0.0883883476483184
 46
0.0883883476483184
 79
     0
 98
        1
 10
0.0
 20
0.0
  0
DIMENSION
  5
1AB
330
1F
100
AcDbEntity
  8
0
  6
Continuous
 62
     7
370
     0
100
AcDbDimension
  2
_D_1
 10
8.2168730683
 20
3.2970352703
 30
0.0
 11
8.2168730683
 21
4.2470352703
 31
0.0
 70
   160
  1
%%c<>
 71
     2
 42
-1.0
  3
SLDDIMSTYLE1
100
AcDbAlignedDimension
 13
7.5151160685
 23
5.1970352703
 33
0.0
 14
7.5151160685
 24
3.2970352703
 34
0.0
 50
90.0
100
AcDbRotatedDimension
  0
DIMENSION
  5
1BF
330
1F
100
AcDbEntity
  8
0
  6
Continuous
 62
     7
370
     0
100
AcDbDimension
  2
_D_2
 10
7.5151160685
 20
5.6423924498
 30
0.0
 11
8.2297485498
 21
5.6423924498
 31
0.0
 70
   160
  1
<>
 71
     2
 42
-1.0
  3
SLDDIMSTYLE2
100
AcDbAlignedDimension
 13
7.3951160685
 23
5.3370352703
 33
0.0
 14
7.5151160685
 24
5.2472147622
 34
0.0
100
AcDbRotatedDimension
  0
DIMENSION
  5
1D4
330
1F
100
AcDbEntity
  8
0
  6
Continuous
 62
     7
370
     0
100
AcDbDimension
  2
_D_3
 10
7.5151160685
 20
6.1123475274
 30
0.0
 11
8.2297485498
 21
6.1123475274
 31
0.0
 70
   160
  1
<>
 71
     2
 42
-1.0
  3
SLDDIMSTYLE2
100
AcDbAlignedDimension
 13
7.0051160685
 23
5.3370352703
 33
0.0
 14
7.5151160685
 24
5.2472147622
 34
0.0
100
AcDbRotatedDimension
  0
INSERT
  5
1ED
102
{ACAD_REACTORS
330
1EF
102
}
330
1F
100
AcDbEntity
  8
0
  6
Continuous
 62
     7
370
     0
100
AcDbBlockReference
  2
SW_NOTE_5
 10
6.5168271675
 20
3.8958999443
 30
0.0
  0
LEADER
  5
1EF
330
1F
100
AcDbEntity
  8
0
  6
Continuous
 62
     7
370
     0
100
AcDbLeader
  3
SLDDIMSTYLE3
 73
     2
 76
     3
 10
7.1377794018
 20
3.3831555871
 30
0.0
 10
6.7628901597
 20
3.8958999443
 30
0.0
 10
6.5168271675
 20
3.8958999443
 30
0.0
340
1ED
  0
INSERT
  5
1F5
102
{ACAD_REACTORS
330
1F6
102
}
330
1F
100
AcDbEntity
  8
0
  6
Continuous
 62
     7
370
     0
100
AcDbBlockReference
  2
SW_NOTE_6
 10
6.3140116104
 20
2.7386582359
 30
0.0
  0
LEADER
  5
1F6
330
1F
100
AcDbEntity
  8
0
  6
Continuous
 62
     7
370
     0
100
AcDbLeader
  3
SLDDIMSTYLE3
 73
     2
 76
     3
 10
7.1039540622
 20
3.1470352703
 30
0.0
 10
6.5600746025
 20
2.7386582359
 30
0.0
 10
6.3140116104
 20
2.7386582359
 30
0.0
340
1F5
  0
INSERT
  5
1FE
102
{ACAD_REACTORS
330
1FF
102
}
330
1F
100
AcDbEntity
  8
0
  6
Continuous
 62
     7
370
     0
100
AcDbBlockReference
  2
SW_NOTE_7
 10
8.0889604709
 20
2.7086416971
 30
0.0
  0
LEADER
  5
1FF
330
1F
100
AcDbEntity
  8
0
  6
Continuous
 62
     7
370
     0
100
AcDbLeader
  3
SLDDIMSTYLE3
 73
     2
 76
     3
 10
7.4426315476
 20
3.2295352703
 30
0.0
 10
7.8389604709
 20
2.7086416971
 30
0.0
 10
8.0889604709
 20
2.7086416971
 30
0.0
340
1FE
  0
INSERT
  5
205
102
{ACAD_REACTORS
330
206
102
}
330
1F
100
AcDbEntity
  8
0
  6
Continuous
 62
     7
370
     0
100
AcDbBlockReference
  2
SW_NOTE_8
 10
8.0540787419
 20
3.0528235107
 30
0.0
  0
LEADER
  5
206
330
1F
100
AcDbEntity
  8
0
  6
Continuous
 62
     7
370
     0
100
AcDbLeader
  3
SLDDIMSTYLE3
 73
     2
 76
     3
 10
7.3651160685
 20
3.5885829143
 30
0.0
 10
7.8080157498
 20
3.0528235107
 30
0.0
 10
8.0540787419
 20
3.0528235107
 30
0.0
340
205
  0
INSERT
  5
20D
102
{ACAD_REACTORS
330
20E
102
}
330
1F
100
AcDbEntity
  8
0
  6
Continuous
 62
     7
370
     0
100
AcDbBlockReference
  2
SW_NOTE_9
 10
6.5716815611
 20
3.5079735988
 30
0.0
  0
LEADER
  5
20E
330
1F
100
AcDbEntity
  8
0
  6
Continuous
 62
     7
370
     0
100
AcDbLeader
  3
SLDDIMSTYLE3
 73
     2
 76
     3
 10
7.0558359495
 20
3.2295352703
 30
0.0
 10
6.8216815611
 20
3.5079735988
 30
0.0
 10
6.5716815611
 20
3.5079735988
 30
0.0
340
20D
  0
OLE2FRAME
  5
20F
330
1F
100
AcDbEntity
  8
0
100
AcDbOle2Frame
 70
     2
  3
Paintbrush Picture
 10
9.0178120406
 20
1.3267570784
 30
0.0
 11
10.4397105087
 21
1.1242314806
 31
0.0
 71
     2
 72
     0
 73
     1
 90
     7296
310
8055C64EE7A81E092240C05F59A1653AF53F0000000000000000FD155DBC21E1
310
2440C05F59A1653AF53F0000000000000000FD155DBC21E12440A1732426DAFC
310
F13F0000000000000000C64EE7A81E092240A1732426DAFCF13F000000000000
310
00000000000001000000000100000100000001000000000001000000001C0000
310
D0CF11E0A1B11AE1000000000000000000000000000000003E000300FEFF0900
310
0600000000000000000000000100000001000000000000000010000002000000
310
01000000FEFFFFFF0000000000000000FFFFFFFFFFFFFFFFFFFFFFFFFFFFFFFF
310
FFFFFFFFFFFFFFFFFFFFFFFFFFFFFFFFFFFFFFFFFFFFFFFFFFFFFFFFFFFFFFFF
310
FFFFFFFFFFFFFFFFFFFFFFFFFFFFFFFFFFFFFFFFFFFFFFFFFFFFFFFFFFFFFFFF
310
FFFFFFFFFFFFFFFFFFFFFFFFFFFFFFFFFFFFFFFFFFFFFFFFFFFFFFFFFFFFFFFF
310
FFFFFFFFFFFFFFFFFFFFFFFFFFFFFFFFFFFFFFFFFFFFFFFFFFFFFFFFFFFFFFFF
310
FFFFFFFFFFFFFFFFFFFFFFFFFFFFFFFFFFFFFFFFFFFFFFFFFFFFFFFFFFFFFFFF
310
FFFFFFFFFFFFFFFFFFFFFFFFFFFFFFFFFFFFFFFFFFFFFFFFFFFFFFFFFFFFFFFF
310
FFFFFFFFFFFFFFFFFFFFFFFFFFFFFFFFFFFFFFFFFFFFFFFFFFFFFFFFFFFFFFFF
310
FFFFFFFFFFFFFFFFFFFFFFFFFFFFFFFFFFFFFFFFFFFFFFFFFFFFFFFFFFFFFFFF
310
FFFFFFFFFFFFFFFFFFFFFFFFFFFFFFFFFFFFFFFFFFFFFFFFFFFFFFFFFFFFFFFF
310
FFFFFFFFFFFFFFFFFFFFFFFFFFFFFFFFFFFFFFFFFFFFFFFFFFFFFFFFFFFFFFFF
310
FFFFFFFFFFFFFFFFFFFFFFFFFFFFFFFFFFFFFFFFFFFFFFFFFFFFFFFFFFFFFFFF
310
FFFFFFFFFFFFFFFFFFFFFFFFFFFFFFFFFFFFFFFFFFFFFFFFFFFFFFFFFFFFFFFF
310
FFFFFFFFFFFFFFFFFFFFFFFFFFFFFFFFFFFFFFFFFFFFFFFFFFFFFFFFFFFFFFFF
310
FDFFFFFFFEFFFFFFFEFFFFFFFEFFFFFF05000000060000000700000008000000
310
090000000A0000000B0000000C000000FEFFFFFFFFFFFFFFFFFFFFFFFFFFFFFF
310
FFFFFFFFFFFFFFFFFFFFFFFFFFFFFFFFFFFFFFFFFFFFFFFFFFFFFFFFFFFFFFFF
310
FFFFFFFFFFFFFFFFFFFFFFFFFFFFFFFFFFFFFFFFFFFFFFFFFFFFFFFFFFFFFFFF
310
FFFFFFFFFFFFFFFFFFFFFFFFFFFFFFFFFFFFFFFFFFFFFFFFFFFFFFFFFFFFFFFF
310
FFFFFFFFFFFFFFFFFFFFFFFFFFFFFFFFFFFFFFFFFFFFFFFFFFFFFFFFFFFFFFFF
310
FFFFFFFFFFFFFFFFFFFFFFFFFFFFFFFFFFFFFFFFFFFFFFFFFFFFFFFFFFFFFFFF
310
FFFFFFFFFFFFFFFFFFFFFFFFFFFFFFFFFFFFFFFFFFFFFFFFFFFFFFFFFFFFFFFF
310
FFFFFFFFFFFFFFFFFFFFFFFFFFFFFFFFFFFFFFFFFFFFFFFFFFFFFFFFFFFFFFFF
310
FFFFFFFFFFFFFFFFFFFFFFFFFFFFFFFFFFFFFFFFFFFFFFFFFFFFFFFFFFFFFFFF
310
FFFFFFFFFFFFFFFFFFFFFFFFFFFFFFFFFFFFFFFFFFFFFFFFFFFFFFFFFFFFFFFF
310
FFFFFFFFFFFFFFFFFFFFFFFFFFFFFFFFFFFFFFFFFFFFFFFFFFFFFFFFFFFFFFFF
310
FFFFFFFFFFFFFFFFFFFFFFFFFFFFFFFFFFFFFFFFFFFFFFFFFFFFFFFFFFFFFFFF
310
FFFFFFFFFFFFFFFFFFFFFFFFFFFFFFFFFFFFFFFFFFFFFFFFFFFFFFFFFFFFFFFF
310
FFFFFFFFFFFFFFFFFFFFFFFFFFFFFFFFFFFFFFFFFFFFFFFFFFFFFFFFFFFFFFFF
310
FFFFFFFFFFFFFFFFFFFFFFFFFFFFFFFFFFFFFFFFFFFFFFFFFFFFFFFFFFFFFFFF
310
52006F006F007400200045006E00740072007900000000000000000000000000
310
0000000000000000000000000000000000000000000000000000000000000000
310
16000500FFFFFFFFFFFFFFFF020000000A00030000000000C000000000000046
310
000000000000000000000000406EC9078C62D10103000000C000000000000000
310
01004F006C006500000000000000000000000000000000000000000000000000
310
0000000000000000000000000000000000000000000000000000000000000000
310
0A000200FFFFFFFFFFFFFFFFFFFFFFFF00000000000000000000000000000000
310
0000000000000000000000000000000000000000000000001400000000000000
310
010043006F006D0070004F0062006A0000000000000000000000000000000000
310
0000000000000000000000000000000000000000000000000000000000000000
310
120002010100000003000000FFFFFFFF00000000000000000000000000000000
310
0000000000000000000000000000000000000000010000004D00000000000000
310
01004F006C006500310030004E00610074006900760065000000000000000000
310
0000000000000000000000000000000000000000000000000000000000000000
310
1A000200FFFFFFFFFFFFFFFFFFFFFFFF00000000000000000000000000000000
310
000000000000000000000000000000000000000004000000E411000000000000
310
FEFFFFFF02000000FEFFFFFFFFFFFFFFFFFFFFFFFFFFFFFFFFFFFFFFFFFFFFFF
310
FFFFFFFFFFFFFFFFFFFFFFFFFFFFFFFFFFFFFFFFFFFFFFFFFFFFFFFFFFFFFFFF
310
FFFFFFFFFFFFFFFFFFFFFFFFFFFFFFFFFFFFFFFFFFFFFFFFFFFFFFFFFFFFFFFF
310
FFFFFFFFFFFFFFFFFFFFFFFFFFFFFFFFFFFFFFFFFFFFFFFFFFFFFFFFFFFFFFFF
310
FFFFFFFFFFFFFFFFFFFFFFFFFFFFFFFFFFFFFFFFFFFFFFFFFFFFFFFFFFFFFFFF
310
FFFFFFFFFFFFFFFFFFFFFFFFFFFFFFFFFFFFFFFFFFFFFFFFFFFFFFFFFFFFFFFF
310
FFFFFFFFFFFFFFFFFFFFFFFFFFFFFFFFFFFFFFFFFFFFFFFFFFFFFFFFFFFFFFFF
310
FFFFFFFFFFFFFFFFFFFFFFFFFFFFFFFFFFFFFFFFFFFFFFFFFFFFFFFFFFFFFFFF
310
FFFFFFFFFFFFFFFFFFFFFFFFFFFFFFFFFFFFFFFFFFFFFFFFFFFFFFFFFFFFFFFF
310
FFFFFFFFFFFFFFFFFFFFFFFFFFFFFFFFFFFFFFFFFFFFFFFFFFFFFFFFFFFFFFFF
310
FFFFFFFFFFFFFFFFFFFFFFFFFFFFFFFFFFFFFFFFFFFFFFFFFFFFFFFFFFFFFFFF
310
FFFFFFFFFFFFFFFFFFFFFFFFFFFFFFFFFFFFFFFFFFFFFFFFFFFFFFFFFFFFFFFF
310
FFFFFFFFFFFFFFFFFFFFFFFFFFFFFFFFFFFFFFFFFFFFFFFFFFFFFFFFFFFFFFFF
310
FFFFFFFFFFFFFFFFFFFFFFFFFFFFFFFFFFFFFFFFFFFFFFFFFFFFFFFFFFFFFFFF
310
FFFFFFFFFFFFFFFFFFFFFFFFFFFFFFFFFFFFFFFFFFFFFFFFFFFFFFFFFFFFFFFF
310
FFFFFFFFFFFFFFFFFFFFFFFFFFFFFFFFFFFFFFFFFFFFFFFFFFFFFFFFFFFFFFFF
310
0100000200000000000000000000000000000000000000000000000000000000
310
0000000000000000000000000000000000000000000000000000000000000000
310
0100FEFF030A0000FFFFFFFF0A00030000000000C00000000000004607000000
310
5042727573680007000000504272757368000700000050427275736800F439B2
310
7100000000000000000000000000000000000000000000000000000000000000
310
0000000000000000000000000000000000000000000000000000000000000000
310
0000000000000000000000000000000000000000000000000000000000000000
310
0000000000000000000000000000000000000000000000000000000000000000
310
0000000000000000000000000000000000000000000000000000000000000000
310
0000000000000000000000000000000000000000000000000000000000000000
310
0000000000000000000000000000000000000000000000000000000000000000
310
0000000000000000000000000000000000000000000000000000000000000000
310
0000000000000000000000000000000000000000000000000000000000000000
310
0000000000000000000000000000000000000000000000000000000000000000
310
0000000000000000000000000000000000000000000000000000000000000000
310
0000000000000000000000000000000000000000000000000000000000000000
310
E0110000424DDE11000000000000360400002800000096000000170000000100
310
08000000000000000000E7240000E72400000001000000010000000000FF0101
310
01FF020202FF030303FF040404FF050505FF060606FF070707FF080808FF0909
310
09FF0A0A0AFF0B0B0BFF0C0C0CFF0D0D0DFF0E0E0EFF0F0F0FFF101010FF1111
310
11FF121212FF131313FF141414FF151515FF161616FF171717FF181818FF1919
310
19FF1A1A1AFF1B1B1BFF1C1C1CFF1D1D1DFF1E1E1EFF1F1F1FFF202020FF2121
310
21FF222222FF232323FF242424FF252525FF262626FF272727FF282828FF2929
310
29FF2A2A2AFF2B2B2BFF2C2C2CFF2D2D2DFF2E2E2EFF2F2F2FFF303030FF3131
310
31FF323232FF333333FF343434FF353535FF363636FF373737FF383838FF3939
310
39FF3A3A3AFF3B3B3BFF3C3C3CFF3D3D3DFF3E3E3EFF3F3F3FFF404040FF4141
310
41FF424242FF434343FF444444FF454545FF464646FF474747FF484848FF4949
310
49FF4A4A4AFF4B4B4BFF4C4C4CFF4D4D4DFF4E4E4EFF4F4F4FFF505050FF5151
310
51FF525252FF535353FF545454FF555555FF565656FF575757FF585858FF5959
310
59FF5A5A5AFF5B5B5BFF5C5C5CFF5D5D5DFF5E5E5EFF5F5F5FFF606060FF6161
310
61FF626262FF636363FF646464FF656565FF666666FF676767FF686868FF6969
310
69FF6A6A6AFF6B6B6BFF6C6C6CFF6D6D6DFF6E6E6EFF6F6F6FFF707070FF7171
310
71FF727272FF737373FF747474FF757575FF767676FF777777FF787878FF7979
310
79FF7A7A7AFF7B7B7BFF7C7C7CFF7D7D7DFF7E7E7EFF7F7F7FFF808080FF8181
310
81FF828282FF838383FF848484FF858585FF868686FF878787FF888888FF8989
310
89FF8A8A8AFF8B8B8BFF8C8C8CFF8D8D8DFF8E8E8EFF8F8F8FFF909090FF9191
310
91FF929292FF939393FF949494FF959595FF969696FF979797FF989898FF9999
310
99FF9A9A9AFF9B9B9BFF9C9C9CFF9D9D9DFF9E9E9EFF9F9F9FFFA0A0A0FFA1A1
310
A1FFA2A2A2FFA3A3A3FFA4A4A4FFA5A5A5FFA6A6A6FFA7A7A7FFA8A8A8FFA9A9
310
A9FFAAAAAAFFABABABFFACACACFFADADADFFAEAEAEFFAFAFAFFFB0B0B0FFB1B1
310
B1FFB2B2B2FFB3B3B3FFB4B4B4FFB5B5B5FFB6B6B6FFB7B7B7FFB8B8B8FFB9B9
310
B9FFBABABAFFBBBBBBFFBCBCBCFFBDBDBDFFBEBEBEFFBFBFBFFFC0C0C0FFC1C1
310
C1FFC2C2C2FFC3C3C3FFC4C4C4FFC5C5C5FFC6C6C6FFC7C7C7FFC8C8C8FFC9C9
310
C9FFCACACAFFCBCBCBFFCCCCCCFFCDCDCDFFCECECEFFCFCFCFFFD0D0D0FFD1D1
310
D1FFD2D2D2FFD3D3D3FFD4D4D4FFD5D5D5FFD6D6D6FFD7D7D7FFD8D8D8FFD9D9
310
D9FFDADADAFFDBDBDBFFDCDCDCFFDDDDDDFFDEDEDEFFDFDFDFFFE0E0E0FFE1E1
310
E1FFE2E2E2FFE3E3E3FFE4E4E4FFE5E5E5FFE6E6E6FFE7E7E7FFE8E8E8FFE9E9
310
E9FFEAEAEAFFEBEBEBFFECECECFFEDEDEDFFEEEEEEFFEFEFEFFFF0F0F0FFF1F1
310
F1FFF2F2F2FFF3F3F3FFF4F4F4FFF5F5F5FFF6F6F6FFF7F7F7FFF8F8F8FFF9F9
310
F9FFFAFAFAFFFBFBFBFFFCFCFCFFFDFDFDFFFEFEFEFFFFFFFFFFFFFFFFFFFFFF
310
C94E4E4E4F4E4EFFFFFFFFFFC94E4E4E4E4E72FFFFFFFFFFFFFF734E4D4E4E4E
310
C9FFFFFFFFFFAA683516171616265B9BE9FFFFFFFFFF4E4E4E4D4E4EFFFFFFFF
310
FFFFFFFF4E4E4F4E4D4E4E4E4F4E4E4F4D4E4E4E4E4E4D4E4F4E4D4E4E4EAAFF
310
FFFFFFFFFFEA4E4F4F4E4E4E4E4E4D4D4F4F4E4E4E4E4E5B7FAAFFFFFFFFFFFF
310
C9744E1716171616164D8DEAFFFFFFFF0000FFFFFFFFFFFFBA161617161716FF
310
FFFFFFFFB917171616174FFFFFFFFFFFFFFF4E1716161616B9FFFFFFB9341717
310
1716171617171616268CFFFFFFFF161617161617FFFFFFFFFFFFFFB917161717
310
1617167F807F7F7F7F7F7F807F7F807F7F807F7F7F414EFFFFFFFFFFFF8C167F
310
7F807F7F7F7E7F7F807F807F7F807F4E3417258EFFFFEA4E162674AABAEAEBBA
310
AA74341680FFFFFF0000FFFFFFFFFFFFB9171717171617FFFFFFFFFFBB161616
310
16164EFFFFFFFFFFFFFF4E1717171717B9FFFF9C171617171716161616171616
310
171766FFFFFF161717161617FFFFFFFFFFFFFF8E16171717161616FFFFFFFFFF
310
FFFFFFFFFFFFFFFFFFFFFFFFFFAA16D9FFFFFFFFFF3467FFFFFFFFEAFFFFFFFF
310
FFFFFFFFFFFFFFFFFFCA671667EB26278DFFFFFFFFFFFFFFFFFFFF8C2541EAFF
310
0000FFFFFFFFFFFFB9171717171716FFFFFFFFFFBA16171617174EFFFFFFFFFF
310
FFFF4E1717161616BAFF9B1617161616171716171617161616161667FFFF1616
310
16161716FFFFFFFFFFFFFF7F16161617174017FFFFFFFFFFFFFFFFFFFFFFFFFF
310
FFFFFFFFFFFF344E7F7F7F7E7417DAFFFFFFFF80FFFFFFFFFFFFFFFFFFFFFFFF
310
FFFFFF9B163425CAFFFFFFFFFFFFFFFFFFFFFFFFCA2667FF0000FFFFFFFFFFFF
310
BA171717171617FFFFFFFFFFB916171716164EFFFFFFFFFFFFFF4F1716161717
310
B9C91716171616161716161617171616161617168DFF161716161717FFFFFFFF
310
FFFFFF7F17171716164F16FFFFFFFFFFFFFFFFFFFFFFFFFFFFFFFFFFFFFF9B16
310
17161617174EFFFFFFFFFF34FFFFFFFFD9BABABABABADAFFFFFFFFFF7F16AAFF
310
FFFFFFFFFFFFFFFFFFFFFFFFFF9C16BA0000FFFFFFFFFFFFB9161717161717FF
310
FFFFFFFFB917161716174DFFFFFFFFFFFFFF4E1616161616BA4E161617171716
310
419BEAEAAA4E16161617161726E9171717161616FFFFFFFFFFFFFF4F16161717
310
164E16FFFFFFFFFFBAB9B9B9B9B9BABABACAFFFFFFFFFFFFFFFFFFFFFFFFFFFF
310
FFFFBA16FFFFFFFF7F1617161617174DEAFFFFFFEA41FFFFFFFFFFAA4D16174E
310
9BFFFFFFFFFF34730000FFFFFFFFFFFFB9161617171617FFFFFFFFFFBA161616
310
16164EFFFFFFFFFFFFFF4F16161717169B1617161716175BFFFFFFFFFFFF7417
310
16171616168D171717161617FFFFFFFFFFFFEA2616171717167416FFFFFFFFFF
310
16171616171717171717EAFFFFFFFFFFFFFFFFFFFFFFFFFFFFFF6716FFFFFFFF
310
7F4EFFFFFFFFBA2573FFFFFFFFBAFFFFFFFFAA167FB9BB9B269BFFFFFFFF664F
310
0000FFFFFFFFFFFFB9171616161616FFFFFFFFFFBA16161717164EFFFFFFFFFF
310
FFFF4E16161616174E161617171626EAFFFFFFFFFFFFFF4E16161616164E1716
310
16161617FFFFFFFFFFFF671616161716347F16FFFFFFFFFF16B9FFFFFFFFFFFF
310
D9168DFFFFFFFFFFFFFFFFFFFFFFFFFFFFEA1716FFFFFFFF7F4EFFFFFFFFFF7F
310
4EFFFFFFFFFFFFFFFFFF5B66FFFFFFEA347FFFFFFFFF7F4D0000FFFFFFFFFFFF
310
B9171616171617FFFFFFFFFFBA17161716174EFFFFFFFFFFFFFF4D1716161617
310
17161716161673FFFFFFFFFFFFFFFF9B1617161717161616171616174F4E4E4E
310
4E341616171616167E7F16FFFFFFFFFF16BAFFFFFFFFFFFFFF5B41FFFFFFFF34
310
1616171616BAFFFFFF9B1716FFFFFFFF7F4EFFFFFFFFFF4E4EFFFFFFFF734E4E
310
4E4E267EDA9B67164EEAFFFFFFFF744D0000FFFFFFFFFFFFBA171717161617FF
310
FFFFFFFFBA1616171616347F7F7F7F80807F331616161717161717161716B9FF
310
FFFFFFFFFFFFFFE9161616161616171716161716171616161616171616171734
310
EA7F16FFFFFFFFFF16BAFFFFFFFFFFFFFFAA17C9FFFFFF7326BABA5B25FFFFFF
310
FF401716FFFFFFFF7F264F4E4E4E4217AAFFFFFFEA16677F73261616164173CA
310
FFFFFFFFFFFF417F0000FFFFFFFFFFFFBA171616171617FFFFFFFFFFBA161616
310
17171616161616161616161717161616161616161617EAFFFFFFFFFFFFFFFFFF
310
261717161716161617161616161617161617161616174EEAFF8016FFFFFFFFFF
310
17BAFFFFFFFFFFFFFFFF3467FFFFFFC916C9FF3467FFFFFFDA166716FFFFFFFF
310
9C4D4E4E4E4E67AAFFFFFFFF6834FF7F262567AAEAFFFFFFFFFFFFFFFF9B17D9
310
0000FFFFFFFFFFFFB9161616161616FFFFFFFFFFBA1617161717171616161616
310
1716171716161716161617171716FFFFFFFFFFFFFFFFFFFF4E17161716171616
310
1617171616161716171717161616169BFF7F17FFFFFFFFFF17B9FFFFFFFFFFFF
310
FFFF7326FFFFFFFF3473DA16AAFFFFFF7317AA16FFFFFFFFFFFFFFFFFFFFFFFF
310
FFFFEA6725BA4E167FEAFFFFFFFFFFFFFFFFFFFF9C167FFF0000FFFFFFFFFFFF
310
B9161717171716FFFFFFFFFFBA16161716171616171717161617161716161616
310
171617171617EAFFFFFFFFFFFFFFFFFF26161717161616161616161617171616
310
1616161616171616AA8016FFFFFFFFFF16BAFFFFFFFFFFFFFFFFDA179BFFFFFF
310
74348D26FFFFFFFF2566B917FFFFFFFFD8BAB9BAB9BADAFFFFEA41169B7425C9
310
FFFFFFFFFFFFFFFFFFFFAB4F1680FFFF0000FFFFFFFFFFFFBA161717171617FF
310
FFFFFFFFBA17161717161617171617161616161617171616171716171617BBFF
310
FFFFFFFFFFFFFFE9171616161617161617161716FFFFFFFFFFD9671616161617
310
348017FFFFFFFFFF16BAFFFFFFFFFFFFFFFFFF4E5AFFFFFFC916265AFFFFFFAA
310
16AABA16FFFFFFFF7F1617161616179BFFFFEB4127168DFFFFFFFFFFFFFFD99B
310
6734175AC9FFFFFF0000FFFFFFFFFFFFB9161617171617FFFFFFFFFFBB161616
310
1616347F807F7F7F7F8033171716171617171616161672FFFFFFFFFFFFFFFF9C
310
171617171617161716161617FFFFFFFFFFFFFF4117161616174E17FFFFFFFFFF
310
16BAFFFFFFFFFFFFFFFFFF9B16DAFFFFFF34169BFFFFFF5A26FFB917FFFFFFFF
310
7F4EFFFFFFEA5B26FFFFFFEA2616EAFFFFFFFFDA743416331617414E4E4E4ECA
310
0000FFFFFFFFFFFFBA161716161616FFFFFFFFFFBA17171616164EFFFFFFFFFF
310
FFFF4E16161717174E161717171626EBFFFFFFFFFFFFFF4E16161617165B1616
310
16171617FFFFFFFFFFFFFF6716161616161617FFFFFFFFFF16BAFFFFFFFFFFFF
310
FFFFFFEA268CFFFFFF7316EAFFFFEB1774FFB916FFFFFFFF7F4EFFFFFFFF7316
310
FFFFFFFF6826FFFFFFFFEB264D9CEABA257F807F7F6616BA0000FFFFFFFFFFFF
310
BA161716161616FFFFFFFFFFBA16171616164DFFFFFFFFFFFFFF4E1617161617
310
9B1617171717165BEBFFFFFFFFFF671616161617179B171616161616FFFFFFFF
310
FFFFFF3417161617171617FFFFFFFFFF17BAFFFFFFFFFFFFFFFFFFFF6734FFFF
310
FFEBCAFFFFFF8D17C9FFBA17FFFFFFFF7F357F808066174FFFFFFFFF7F16FFFF
310
FFFFD91673B99B415BFFFFFFFFBA16DA00009B7F7F7F807F671617161616167F
310
80807F7E6617161616164EFFFFFFFFFFFFFF4E1616161617B94E171716161616
310
349BC9D9AA4E16171616161634FF161617161717B9B9BAB9BA9B411716171716
310
163416FFFFFFFFFF16B9FFFFFFFFFFFFFFFFFFFFC917CAFFFFFFFFFFFFFF3342
310
FFFFBA17FFFFFFFF9B4E4E4F4E4E66EAFFFFFFFF5B16C9FFFFFFFFAA4E164E73
310
EAFFFFFFFF8D26FF00004E161716161616171617171616171717171617161616
310
17174EFFFFFFFFFFFFFF4E1717171616B9D92616171716171716171717171716
310
16171716AAFF161717171617161617171616161617161716166717FFFFFFFFFF
310
17B9FFFFFFFFFFFFFFFFFFFFFF3467FFFFFFFFFFFFCA168CFFFFBB17FFFFFFFF
310
FFFFFFFFFFFFFFFFFFFFFFEA26265BFFFFFFFFFFFFFFFFFFFFFFFFFFEA3467FF
310
00004D16161616161617161717161617161616171617171616164EFFFFFFFFFF
310
FFFF4D1617161616BAFF9B1616161616161716161616171717161766FFFF1616
310
16171617161617161716171616171717667F16FFFFFFFFFF17BAFFFFFFFFFFFF
310
FFFFFFFFFF8C26EAFFFFFFFFFF6617EAFFFFBA17FFFFFFFFFFFFFFFFFFFFFFFF
310
FFFFEA5A25BA269BFFFFFFFFFFFFFFFFFFFFFFFF6616DAFF00004E1616171616
310
1616161616161716161617171616171616174EFFFFFFFFFFFFFF4D1717171716
310
B9FFFF9C161616161616161716161717171667FFFFFF17161717171716161617
310
1716161616161641E97E16FFFFFFFFFF16B9FFFFFFFFFFFFFFFFFFFFFFEA169B
310
FFFFFFFFEA265BFFFFFFB916FFFFFFFFFFFFFFFFFFFFFFFFFF9B3416AAFF9B17
310
67EAFFFFFFFFFFFFFFFFEA5B169BFFFF00004D17161716161616161717171616
310
161717161716171716174EFFFFFFFFFFFFFF4D1616161616BAFFFFFFBB411616
310
161716161616171634ABFFFFFFFF161716161617171716171617171617267FFF
310
FF7F164E4E4E4E4F17BAFFFFFFFFFFFFFFFFFFFFFFFF66344D4E4E4F4117AAFF
310
FFFFBA174E4E4E4D4E4D4D4E4E4E4E4116174EBBFFFFFFCA342666ABEAFFFFEA
310
AA6725269CFFFFFF0000724F4E4D4D4D4E4D4D4E4E4E4D4E4E4E4E4E4E4E4E4D
310
4E4E74FFFFFFFFFFFFFF734E4E4E4D4ECAFFFFFFFFFFAA663416171717265B9B
310
FFFFFFFFFFFF7F8080807F80807F7F7F7F7F807FBAFFFFFFFF9B4E4E4F4D4D4E
310
4DC9FFFFFFFFFFFFFFFFFFFFFFFFBA4E4E4E4E4D4E4EFFFFFFFFC94E4E4E4F4E
310
4E4E4D4E4E5A807F9CD9FFFFFFFFFFFFFF9B5B2617171716174E8DEAFFFFFFFF
310
0000000000000000000000000000000000000000000000000000000000000000
  1
OLE
  0
ENDSEC
  0
SECTION
  2
OBJECTS
  0
DICTIONARY
  5
C
330
0
100
AcDbDictionary
281
     1
  3
ACAD_GROUP
350
D
  3
ACAD_LAYOUT
350
1A
  3
ACAD_MLINESTYLE
350
17
  3
ACAD_PLOTSETTINGS
350
19
  3
ACAD_PLOTSTYLENAME
350
E
  3
ACAD_SCALELIST
350
47
  0
DICTIONARY
  5
D
102
{ACAD_REACTORS
330
C
102
}
330
C
100
AcDbDictionary
281
     1
  0
DICTIONARY
  5
1A
102
{ACAD_REACTORS
330
C
102
}
330
C
100
AcDbDictionary
281
     1
  3
Layout1
350
1E
  3
Layout2
350
26
  3
Model
350
22
  0
DICTIONARY
  5
17
102
{ACAD_REACTORS
330
C
102
}
330
C
100
AcDbDictionary
281
     1
  3
Standard
350
18
  0
DICTIONARY
  5
19
102
{ACAD_REACTORS
330
C
102
}
330
C
100
AcDbDictionary
281
     1
  0
ACDBDICTIONARYWDFLT
  5
E
102
{ACAD_REACTORS
330
C
102
}
330
C
100
AcDbDictionary
281
     1
  3
Normal
350
F
100
AcDbDictionaryWithDefault
340
F
  0
DICTIONARY
  5
47
102
{ACAD_REACTORS
330
C
102
}
330
C
100
AcDbDictionary
281
     1
  3
A0
350
48
  3
A1
350
49
  3
A2
350
4A
  3
A3
350
4B
  3
A4
350
4C
  3
A5
350
4D
  3
A6
350
4E
  3
A7
350
4F
  3
A8
350
50
  3
A9
350
51
  3
B0
350
52
  3
B1
350
53
  3
B2
350
54
  3
B3
350
55
  3
B4
350
56
  3
B5
350
57
  3
B6
350
58
  3
B7
350
59
  3
B8
350
5A
  3
B9
350
5B
  3
C0
350
5C
  3
C1
350
5D
  3
C2
350
5E
  3
C3
350
5F
  3
C4
350
60
  3
C5
350
61
  3
C6
350
62
  3
C7
350
63
  3
C8
350
64
  3
C9
350
65
  3
D0
350
66
  3
D1
350
67
  3
D2
350
68
  0
LAYOUT
  5
1E
102
{ACAD_REACTORS
330
1A
102
}
330
1A
100
AcDbPlotSettings
  1

  2
none_device
  4

  6

 40
0.0
 41
0.0
 42
0.0
 43
0.0
 44
0.0
 45
0.0
 46
0.0
 47
0.0
 48
0.0
 49
0.0
140
0.0
141
0.0
142
1.0
143
1.0
 70
   688
 72
     0
 73
     0
 74
     5
  7

 75
    16
147
1.0
148
0.0
149
0.0
100
AcDbLayout
  1
Layout1
 70
     1
 71
     1
 10
0.0
 20
0.0
 11
12.0
 21
9.0
 12
0.0
 22
0.0
 32
0.0
 14
1.0000000000E+20
 24
1.0000000000E+20
 34
1.0000000000E+20
 15
-1.0000000000E+20
 25
-1.0000000000E+20
 35
-1.0000000000E+20
146
0.0
 13
0.0
 23
0.0
 33
0.0
 16
1.0
 26
0.0
 36
0.0
 17
0.0
 27
1.0
 37
0.0
 76
     0
330
1B
  0
LAYOUT
  5
26
102
{ACAD_REACTORS
330
1A
102
}
330
1A
100
AcDbPlotSettings
  1

  2
none_device
  4

  6

 40
0.0
 41
0.0
 42
0.0
 43
0.0
 44
0.0
 45
0.0
 46
0.0
 47
0.0
 48
0.0
 49
0.0
140
0.0
141
0.0
142
1.0
143
1.0
 70
   688
 72
     0
 73
     0
 74
     5
  7

 75
    16
147
1.0
148
0.0
149
0.0
100
AcDbLayout
  1
Layout2
 70
     1
 71
     2
 10
0.0
 20
0.0
 11
0.0
 21
0.0
 12
0.0
 22
0.0
 32
0.0
 14
0.0
 24
0.0
 34
0.0
 15
0.0
 25
0.0
 35
0.0
146
0.0
 13
0.0
 23
0.0
 33
0.0
 16
1.0
 26
0.0
 36
0.0
 17
0.0
 27
1.0
 37
0.0
 76
     0
330
23
  0
LAYOUT
  5
22
102
{ACAD_REACTORS
330
1A
102
}
330
1A
100
AcDbPlotSettings
  1

  2
none_device
  4
Letter_(8.50_x_11.00_Inches)
  6

 40
6.35
 41
6.35
 42
6.35000508
 43
6.35000508
 44
215.9
 45
279.4
 46
0.0
 47
0.0
 48
0.0
 49
0.0
140
0.0
141
0.0
142
1.0
143
1.0
 70
  1712
 72
     0
 73
     0
 74
     0
  7

 75
     0
147
1.0
148
0.0
149
0.0
100
AcDbLayout
  1
Model
 70
     1
 71
     0
 10
0.0
 20
0.0
 11
11.0
 21
8.5
 12
0.0
 22
0.0
 32
0.0
 14
0.0
 24
0.0
 34
0.0
 15
11.0
 25
8.5
 35
0.0
146
0.0
 13
0.0
 23
0.0
 33
0.0
 16
1.0
 26
0.0
 36
0.0
 17
0.0
 27
1.0
 37
0.0
 76
     0
330
1F
331
29
  0
MLINESTYLE
  5
18
102
{ACAD_REACTORS
330
17
102
}
330
17
100
AcDbMlineStyle
  2
Standard
 70
     0
  3

 62
   256
 51
90.0
 52
90.0
 71
     2
 49
0.5
 62
   256
  6
BYLAYER
 49
-0.5
 62
   256
  6
BYLAYER
  0
ACDBPLACEHOLDER
  5
F
102
{ACAD_REACTORS
330
E
102
}
330
E
  0
SCALE
  5
48
102
{ACAD_REACTORS
330
47
102
}
330
47
100
AcDbScale
 70
     0
300
1:1
140
1.0
141
1.0
290
     1
  0
SCALE
  5
49
102
{ACAD_REACTORS
330
47
102
}
330
47
100
AcDbScale
 70
     0
300
1:2
140
1.0
141
2.0
290
     0
  0
SCALE
  5
4A
102
{ACAD_REACTORS
330
47
102
}
330
47
100
AcDbScale
 70
     0
300
1:4
140
1.0
141
4.0
290
     0
  0
SCALE
  5
4B
102
{ACAD_REACTORS
330
47
102
}
330
47
100
AcDbScale
 70
     0
300
1:5
140
1.0
141
5.0
290
     0
  0
SCALE
  5
4C
102
{ACAD_REACTORS
330
47
102
}
330
47
100
AcDbScale
 70
     0
300
1:8
140
1.0
141
8.0
290
     0
  0
SCALE
  5
4D
102
{ACAD_REACTORS
330
47
102
}
330
47
100
AcDbScale
 70
     0
300
1:10
140
1.0
141
10.0
290
     0
  0
SCALE
  5
4E
102
{ACAD_REACTORS
330
47
102
}
330
47
100
AcDbScale
 70
     0
300
1:16
140
1.0
141
16.0
290
     0
  0
SCALE
  5
4F
102
{ACAD_REACTORS
330
47
102
}
330
47
100
AcDbScale
 70
     0
300
1:20
140
1.0
141
20.0
290
     0
  0
SCALE
  5
50
102
{ACAD_REACTORS
330
47
102
}
330
47
100
AcDbScale
 70
     0
300
1:30
140
1.0
141
30.0
290
     0
  0
SCALE
  5
51
102
{ACAD_REACTORS
330
47
102
}
330
47
100
AcDbScale
 70
     0
300
1:40
140
1.0
141
40.0
290
     0
  0
SCALE
  5
52
102
{ACAD_REACTORS
330
47
102
}
330
47
100
AcDbScale
 70
     0
300
1:50
140
1.0
141
50.0
290
     0
  0
SCALE
  5
53
102
{ACAD_REACTORS
330
47
102
}
330
47
100
AcDbScale
 70
     0
300
1:100
140
1.0
141
100.0
290
     0
  0
SCALE
  5
54
102
{ACAD_REACTORS
330
47
102
}
330
47
100
AcDbScale
 70
     0
300
2:1
140
2.0
141
1.0
290
     0
  0
SCALE
  5
55
102
{ACAD_REACTORS
330
47
102
}
330
47
100
AcDbScale
 70
     0
300
4:1
140
4.0
141
1.0
290
     0
  0
SCALE
  5
56
102
{ACAD_REACTORS
330
47
102
}
330
47
100
AcDbScale
 70
     0
300
8:1
140
8.0
141
1.0
290
     0
  0
SCALE
  5
57
102
{ACAD_REACTORS
330
47
102
}
330
47
100
AcDbScale
 70
     0
300
10:1
140
10.0
141
1.0
290
     0
  0
SCALE
  5
58
102
{ACAD_REACTORS
330
47
102
}
330
47
100
AcDbScale
 70
     0
300
100:1
140
100.0
141
1.0
290
     0
  0
SCALE
  5
59
102
{ACAD_REACTORS
330
47
102
}
330
47
100
AcDbScale
 70
     0
300
1/128" = 1'-0"
140
0.0078125
141
12.0
290
     0
  0
SCALE
  5
5A
102
{ACAD_REACTORS
330
47
102
}
330
47
100
AcDbScale
 70
     0
300
1/64" = 1'-0"
140
0.015625
141
12.0
290
     0
  0
SCALE
  5
5B
102
{ACAD_REACTORS
330
47
102
}
330
47
100
AcDbScale
 70
     0
300
1/32" = 1'-0"
140
0.03125
141
12.0
290
     0
  0
SCALE
  5
5C
102
{ACAD_REACTORS
330
47
102
}
330
47
100
AcDbScale
 70
     0
300
1/16" = 1'-0"
140
0.0625
141
12.0
290
     0
  0
SCALE
  5
5D
102
{ACAD_REACTORS
330
47
102
}
330
47
100
AcDbScale
 70
     0
300
3/32" = 1'-0"
140
0.09375
141
12.0
290
     0
  0
SCALE
  5
5E
102
{ACAD_REACTORS
330
47
102
}
330
47
100
AcDbScale
 70
     0
300
1/8" = 1'-0"
140
0.125
141
12.0
290
     0
  0
SCALE
  5
5F
102
{ACAD_REACTORS
330
47
102
}
330
47
100
AcDbScale
 70
     0
300
3/16" = 1'-0"
140
0.1875
141
12.0
290
     0
  0
SCALE
  5
60
102
{ACAD_REACTORS
330
47
102
}
330
47
100
AcDbScale
 70
     0
300
1/4" = 1'-0"
140
0.25
141
12.0
290
     0
  0
SCALE
  5
61
102
{ACAD_REACTORS
330
47
102
}
330
47
100
AcDbScale
 70
     0
300
3/8" = 1'-0"
140
0.375
141
12.0
290
     0
  0
SCALE
  5
62
102
{ACAD_REACTORS
330
47
102
}
330
47
100
AcDbScale
 70
     0
300
1/2" = 1'-0"
140
0.5
141
12.0
290
     0
  0
SCALE
  5
63
102
{ACAD_REACTORS
330
47
102
}
330
47
100
AcDbScale
 70
     0
300
3/4" = 1'-0"
140
0.75
141
12.0
290
     0
  0
SCALE
  5
64
102
{ACAD_REACTORS
330
47
102
}
330
47
100
AcDbScale
 70
     0
300
1" = 1'-0"
140
1.0
141
12.0
290
     0
  0
SCALE
  5
65
102
{ACAD_REACTORS
330
47
102
}
330
47
100
AcDbScale
 70
     0
300
1-1/2" = 1'-0"
140
1.5
141
12.0
290
     0
  0
SCALE
  5
66
102
{ACAD_REACTORS
330
47
102
}
330
47
100
AcDbScale
 70
     0
300
3" = 1'-0"
140
3.0
141
12.0
290
     0
  0
SCALE
  5
67
102
{ACAD_REACTORS
330
47
102
}
330
47
100
AcDbScale
 70
     0
300
6" = 1'-0"
140
6.0
141
12.0
290
     0
  0
SCALE
  5
68
102
{ACAD_REACTORS
330
47
102
}
330
47
100
AcDbScale
 70
     0
300
1'-0" = 1'-0"
140
12.0
141
12.0
290
     0
  0
ENDSEC
  0
EOF
