  0
SECTION
  2
HEADER
  9
$ACADVER
  1
AC1015
  9
$ACADMAINTVER
 70
     6
  9
$DWGCODEPAGE
  3
ANSI_1252
  9
$INSBASE
 10
0.0
 20
0.0
 30
0.0
  9
$EXTMIN
 10
0.0
 20
0.0
 30
0.0
  9
$EXTMAX
 10
11.0
 20
8.5
 30
0.0
  9
$LIMMIN
 10
0.0
 20
0.0
  9
$LIMMAX
 10
11.0
 20
8.5
  9
$ORTHOMODE
 70
     0
  9
$REGENMODE
 70
     1
  9
$FILLMODE
 70
     1
  9
$QTEXTMODE
 70
     0
  9
$MIRRTEXT
 70
     1
  9
$LTSCALE
 40
1.0
  9
$ATTMODE
 70
     1
  9
$TEXTSIZE
 40
0.1111111111
  9
$TRACEWID
 40
0.05
  9
$TEXTSTYLE
  7
Standard
  9
$CLAYER
  8
0
  9
$CELTYPE
  6
ByLayer
  9
$CECOLOR
 62
   256
  9
$CELTSCALE
 40
1.0
  9
$DISPSILH
 70
     0
  9
$DIMSCALE
 40
1.0
  9
$DIMASZ
 40
0.125
  9
$DIMEXO
 40
0.05
  9
$DIMDLI
 40
0.38
  9
$DIMRND
 40
0.0
  9
$DIMDLE
 40
0.0
  9
$DIMEXE
 40
0.07
  9
$DIMTP
 40
0.0
  9
$DIMTM
 40
0.0
  9
$DIMTXT
 40
0.1111111111
  9
$DIMCEN
 40
0.09
  9
$DIMTSZ
 40
0.0
  9
$DIMTOL
 70
     0
  9
$DIMLIM
 70
     0
  9
$DIMTIH
 70
     1
  9
$DIMTOH
 70
     1
  9
$DIMSE1
 70
     0
  9
$DIMSE2
 70
     0
  9
$DIMTAD
 70
     0
  9
$DIMZIN
 70
     1
  9
$DIMBLK
  1

  9
$DIMASO
 70
     1
  9
$DIMSHO
 70
     1
  9
$DIMPOST
  1

  9
$DIMAPOST
  1

  9
$DIMALT
 70
     0
  9
$DIMALTD
 70
     2
  9
$DIMALTF
 40
25.4
  9
$DIMLFAC
 40
1.0
  9
$DIMTOFL
 70
     0
  9
$DIMTVP
 40
0.0
  9
$DIMTIX
 70
     0
  9
$DIMSOXD
 70
     0
  9
$DIMSAH
 70
     0
  9
$DIMBLK1
  1

  9
$DIMBLK2
  1

  9
$DIMSTYLE
  2
Standard
  9
$DIMCLRD
 70
     0
  9
$DIMCLRE
 70
     0
  9
$DIMCLRT
 70
     0
  9
$DIMTFAC
 40
1.0
  9
$DIMGAP
 40
0.1
  9
$DIMJUST
 70
     0
  9
$DIMSD1
 70
     0
  9
$DIMSD2
 70
     0
  9
$DIMTOLJ
 70
     1
  9
$DIMTZIN
 70
     1
  9
$DIMALTZ
 70
     0
  9
$DIMALTTZ
 70
     0
  9
$DIMUPT
 70
     0
  9
$DIMDEC
 70
     2
  9
$DIMTDEC
 70
     2
  9
$DIMALTU
 70
     2
  9
$DIMALTTD
 70
     2
  9
$DIMTXSTY
  7
Standard
  9
$DIMAUNIT
 70
     0
  9
$DIMADEC
 70
     0
  9
$DIMALTRND
 40
0.0
  9
$DIMAZIN
 70
     0
  9
$DIMDSEP
 70
    46
  9
$DIMATFIT
 70
     3
  9
$DIMFRAC
 70
     0
  9
$DIMLDRBLK
  1

  9
$DIMLUNIT
 70
     2
  9
$DIMLWD
 70
    -2
  9
$DIMLWE
 70
    -2
  9
$DIMTMOVE
 70
     0
  9
$LUNITS
 70
     2
  9
$LUPREC
 70
     2
  9
$SKETCHINC
 40
0.1
  9
$FILLETRAD
 40
0.5
  9
$AUNITS
 70
     0
  9
$AUPREC
 70
     0
  9
$MENU
  1
.
  9
$ELEVATION
 40
0.0
  9
$PELEVATION
 40
0.0
  9
$THICKNESS
 40
0.0
  9
$LIMCHECK
 70
     0
  9
$CHAMFERA
 40
0.0
  9
$CHAMFERB
 40
0.0
  9
$CHAMFERC
 40
0.0
  9
$CHAMFERD
 40
0.0
  9
$SKPOLY
 70
     0
  9
$TDCREATE
 40
2457374.445029664
  9
$TDUCREATE
 40
2457374.653362998
  9
$TDUPDATE
 40
2457374.445032373
  9
$TDUUPDATE
 40
2457374.653365706
  9
$TDINDWG
 40
0.0000000116
  9
$TDUSRTIMER
 40
0.0000000116
  9
$USRTIMER
 70
     1
  9
$ANGBASE
 50
0.0
  9
$ANGDIR
 70
     0
  9
$PDMODE
 70
     0
  9
$PDSIZE
 40
-1.0
  9
$PLINEWID
 40
0.0
  9
$SPLFRAME
 70
     0
  9
$SPLINETYPE
 70
     6
  9
$SPLINESEGS
 70
     8
  9
$HANDSEED
  5
213
  9
$SURFTAB1
 70
     6
  9
$SURFTAB2
 70
     6
  9
$SURFTYPE
 70
     6
  9
$SURFU
 70
     6
  9
$SURFV
 70
     6
  9
$UCSBASE
  2

  9
$UCSNAME
  2

  9
$UCSORG
 10
0.0
 20
0.0
 30
0.0
  9
$UCSXDIR
 10
1.0
 20
0.0
 30
0.0
  9
$UCSYDIR
 10
0.0
 20
1.0
 30
0.0
  9
$UCSORTHOREF
  2

  9
$UCSORTHOVIEW
 70
     0
  9
$UCSORGTOP
 10
0.0
 20
0.0
 30
0.0
  9
$UCSORGBOTTOM
 10
0.0
 20
0.0
 30
0.0
  9
$UCSORGLEFT
 10
0.0
 20
0.0
 30
0.0
  9
$UCSORGRIGHT
 10
0.0
 20
0.0
 30
0.0
  9
$UCSORGFRONT
 10
0.0
 20
0.0
 30
0.0
  9
$UCSORGBACK
 10
0.0
 20
0.0
 30
0.0
  9
$PUCSBASE
  2

  9
$PUCSNAME
  2

  9
$PUCSORG
 10
0.0
 20
0.0
 30
0.0
  9
$PUCSXDIR
 10
1.0
 20
0.0
 30
0.0
  9
$PUCSYDIR
 10
0.0
 20
1.0
 30
0.0
  9
$PUCSORTHOREF
  2

  9
$PUCSORTHOVIEW
 70
     0
  9
$PUCSORGTOP
 10
0.0
 20
0.0
 30
0.0
  9
$PUCSORGBOTTOM
 10
0.0
 20
0.0
 30
0.0
  9
$PUCSORGLEFT
 10
0.0
 20
0.0
 30
0.0
  9
$PUCSORGRIGHT
 10
0.0
 20
0.0
 30
0.0
  9
$PUCSORGFRONT
 10
0.0
 20
0.0
 30
0.0
  9
$PUCSORGBACK
 10
0.0
 20
0.0
 30
0.0
  9
$USERI1
 70
     0
  9
$USERI2
 70
     0
  9
$USERI3
 70
     0
  9
$USERI4
 70
     0
  9
$USERI5
 70
     0
  9
$USERR1
 40
0.0
  9
$USERR2
 40
0.0
  9
$USERR3
 40
0.0
  9
$USERR4
 40
0.0
  9
$USERR5
 40
0.0
  9
$WORLDVIEW
 70
     1
  9
$SHADEDGE
 70
     3
  9
$SHADEDIF
 70
    70
  9
$TILEMODE
 70
     1
  9
$MAXACTVP
 70
    64
  9
$PINSBASE
 10
0.0
 20
0.0
 30
0.0
  9
$PLIMCHECK
 70
     0
  9
$PEXTMIN
 10
1.0000000000E+20
 20
1.0000000000E+20
 30
1.0000000000E+20
  9
$PEXTMAX
 10
-1.0000000000E+20
 20
-1.0000000000E+20
 30
-1.0000000000E+20
  9
$PLIMMIN
 10
0.0
 20
0.0
  9
$PLIMMAX
 10
12.0
 20
9.0
  9
$UNITMODE
 70
     0
  9
$VISRETAIN
 70
     1
  9
$PLINEGEN
 70
     0
  9
$PSLTSCALE
 70
     1
  9
$TREEDEPTH
 70
  3020
  9
$CMLSTYLE
  2
Standard
  9
$CMLJUST
 70
     0
  9
$CMLSCALE
 40
1.0
  9
$PROXYGRAPHICS
 70
     1
  9
$MEASUREMENT
 70
     0
  9
$CELWEIGHT
370
    -1
  9
$ENDCAPS
280
     0
  9
$JOINSTYLE
280
     0
  9
$LWDISPLAY
290
     1
  9
$INSUNITS
 70
     1
  9
$HYPERLINKBASE
  1

  9
$STYLESHEET
  1

  9
$XEDIT
290
     1
  9
$CEPSNTYPE
380
     0
  9
$PSTYLEMODE
290
     1
  9
$FINGERPRINTGUID
  2
{0951105E-0DFE-479D-AD69-FF18E0ECEEA9}
  9
$VERSIONGUID
  2
{FAEB1C32-E019-11D5-929B-00C0DF256EC4}
  9
$EXTNAMES
290
     1
  9
$PSVPSCALE
 40
0.0
  9
$OLESTARTUP
290
     0
  0
ENDSEC
  0
SECTION
  2
CLASSES
  0
CLASS
  1
ACDBDICTIONARYWDFLT
  2
AcDbDictionaryWithDefault
  3
ObjectDBX Classes
 90
        0
280
     0
281
     0
  0
CLASS
  1
VISUALSTYLE
  2
AcDbVisualStyle
  3
ObjectDBX Classes
 90
     4095
280
     0
281
     0
  0
CLASS
  1
MATERIAL
  2
AcDbMaterial
  3
ObjectDBX Classes
 90
     1153
280
     0
281
     0
  0
CLASS
  1
SCALE
  2
AcDbScale
  3
ObjectDBX Classes
 90
     1153
280
     0
281
     0
  0
CLASS
  1
SUN
  2
AcDbSun
  3
SCENEOE
 90
     1153
280
     0
281
     0
  0
CLASS
  1
ACDBPLACEHOLDER
  2
AcDbPlaceHolder
  3
ObjectDBX Classes
 90
        0
280
     0
281
     0
  0
CLASS
  1
LAYOUT
  2
AcDbLayout
  3
ObjectDBX Classes
 90
        0
280
     0
281
     0
  0
ENDSEC
  0
SECTION
  2
TABLES
  0
TABLE
  2
VPORT
  5
8
330
0
100
AcDbSymbolTable
 70
     1
  0
VPORT
  5
29
330
8
100
AcDbSymbolTableRecord
100
AcDbViewportTableRecord
  2
*Active
 70
     0
 10
0.0
 20
0.0
 11
1.0
 21
1.0
 12
5.5
 22
4.25
 13
0.0
 23
0.0
 14
0.5
 24
0.5
 15
0.5
 25
0.5
 16
0.0
 26
0.0
 36
1.0
 17
0.0
 27
0.0
 37
0.0
 40
8.5
 41
1.2941176471
 42
50.0
 43
0.0
 44
0.0
 50
0.0
 51
0.0
 71
     0
 72
  2000
 73
     1
 74
     3
 75
     0
 76
     0
 77
     0
 78
     0
281
     0
 65
     1
110
0.0
120
0.0
130
0.0
111
1.0
121
0.0
131
0.0
112
0.0
122
1.0
132
0.0
 79
     0
146
0.0
  0
ENDTAB
  0
TABLE
  2
LTYPE
  5
5
330
0
100
AcDbSymbolTable
 70
     6
  0
LTYPE
  5
14
330
5
100
AcDbSymbolTableRecord
100
AcDbLinetypeTableRecord
  2
ByBlock
 70
     0
  3

 72
    65
 73
     0
 40
0.0
  0
LTYPE
  5
15
330
5
100
AcDbSymbolTableRecord
100
AcDbLinetypeTableRecord
  2
ByLayer
 70
     0
  3

 72
    65
 73
     0
 40
0.0
  0
LTYPE
  5
16
330
5
100
AcDbSymbolTableRecord
100
AcDbLinetypeTableRecord
  2
Continuous
 70
     0
  3
Solid line
 72
    65
 73
     0
 40
0.0
  0
LTYPE
  5
6A
330
5
100
AcDbSymbolTableRecord
100
AcDbLinetypeTableRecord
  2
HIDDEN
 70
     0
  3
Hidden __ __ __ __ __ __ __ __ __ __ __ __ __ __
 72
    65
 73
     2
 40
0.075
 49
0.05
 74
     0
 49
-0.025
 74
     0
  0
LTYPE
  5
6B
330
5
100
AcDbSymbolTableRecord
100
AcDbLinetypeTableRecord
  2
PHANTOM
 70
     0
  3
Phantom ______  __  __  ______  __  __  ______
 72
    65
 73
     6
 40
0.5
 49
0.25
 74
     0
 49
-0.05
 74
     0
 49
0.05
 74
     0
 49
-0.05
 74
     0
 49
0.05
 74
     0
 49
-0.05
 74
     0
  0
LTYPE
  5
6C
330
5
100
AcDbSymbolTableRecord
100
AcDbLinetypeTableRecord
  2
CENTER
 70
     0
  3
Center ____ _ ____ _ ____ _ ____ _ ____ _ ____
 72
    65
 73
     4
 40
0.4
 49
0.25
 74
     0
 49
-0.05
 74
     0
 49
0.05
 74
     0
 49
-0.05
 74
     0
  0
LTYPE
  5
6D
330
5
100
AcDbSymbolTableRecord
100
AcDbLinetypeTableRecord
  2
CENTERX2
 70
     0
  3
Center (2x) ________  __  ________  __  _____
 72
    65
 73
     4
 40
0.8
 49
0.5
 74
     0
 49
-0.1
 74
     0
 49
0.1
 74
     0
 49
-0.1
 74
     0
  0
LTYPE
  5
6E
330
5
100
AcDbSymbolTableRecord
100
AcDbLinetypeTableRecord
  2
DOT2
 70
     0
  3
Dot (.5x) ........................................
 72
    65
 73
     2
 40
0.025
 49
0.0
 74
     0
 49
-0.025
 74
     0
  0
ENDTAB
  0
TABLE
  2
LAYER
  5
2
330
0
100
AcDbSymbolTable
 70
     2
  0
LAYER
  5
10
330
2
100
AcDbSymbolTableRecord
100
AcDbLayerTableRecord
  2
0
 70
     0
 62
     7
  6
Continuous
370
    -3
390
F
  0
LAYER
  5
6F
330
2
100
AcDbSymbolTableRecord
100
AcDbLayerTableRecord
  2
FORMAT
 70
     0
 62
     7
  6
Continuous
370
    -3
390
F
  0
ENDTAB
  0
TABLE
  2
STYLE
  5
3
330
0
100
AcDbSymbolTable
 70
     5
  0
STYLE
  5
11
330
3
100
AcDbSymbolTableRecord
100
AcDbTextStyleTableRecord
  2
Standard
 70
     0
 40
0.0
 41
1.0
 50
0.0
 71
     0
 42
0.1111111111
  3
txt
  4

  0
STYLE
  5
96
330
3
100
AcDbSymbolTableRecord
100
AcDbTextStyleTableRecord
  2
SLDTEXTSTYLE0
 70
     0
 40
0.0
 41
0.75
 50
0.0
 71
     0
 42
0.1111111111
  3
TXT
  4

  0
STYLE
  5
A2
330
3
100
AcDbSymbolTableRecord
100
AcDbTextStyleTableRecord
  2
SLDTEXTSTYLE1
 70
     0
 40
0.0
 41
0.6
 50
0.0
 71
     0
 42
0.1111111111
  3
TXT
  4

  0
STYLE
  5
A7
330
3
100
AcDbSymbolTableRecord
100
AcDbTextStyleTableRecord
  2
SLDTEXTSTYLE2
 70
     0
 40
0.0
 41
0.6875
 50
0.0
 71
     0
 42
0.1111111111
  3
TXT
  4

  0
STYLE
  5
1FD
330
3
100
AcDbSymbolTableRecord
100
AcDbTextStyleTableRecord
  2
SLDTEXTSTYLE3
 70
     0
 40
0.0
 41
0.7
 50
0.0
 71
     0
 42
0.1111111111
  3
TXT
  4

  0
ENDTAB
  0
TABLE
  2
VIEW
  5
6
330
0
100
AcDbSymbolTable
 70
     0
  0
ENDTAB
  0
TABLE
  2
UCS
  5
7
330
0
100
AcDbSymbolTable
 70
     0
  0
ENDTAB
  0
TABLE
  2
APPID
  5
9
330
0
100
AcDbSymbolTable
 70
     1
  0
APPID
  5
12
330
9
100
AcDbSymbolTableRecord
100
AcDbRegAppTableRecord
  2
ACAD
 70
     0
  0
ENDTAB
  0
TABLE
  2
DIMSTYLE
  5
A
330
0
100
AcDbSymbolTable
 70
     5
100
AcDbDimStyleTable
  0
DIMSTYLE
105
27
330
A
100
AcDbSymbolTableRecord
100
AcDbDimStyleTableRecord
  2
Standard
 70
     0
178
     0
340
11
  0
DIMSTYLE
105
11A
102
{ACAD_REACTORS
330
119
102
}
330
A
100
AcDbSymbolTableRecord
100
AcDbDimStyleTableRecord
  2
SLDDIMSTYLE0
 70
     0
 41
0.125
 44
0.0
 45
0.000000001
 78
     4
 79
     1
140
0.0833333333
141
0.0
147
0.0208333333
148
0.000000001
170
     1
171
     1
173
     1
178
     0
271
     2
272
     2
274
     1
276
     2
284
    12
340
96
  0
DIMSTYLE
105
1AF
102
{ACAD_REACTORS
330
1AE
102
}
330
A
100
AcDbSymbolTableRecord
100
AcDbDimStyleTableRecord
  2
SLDDIMSTYLE1
 70
     0
 41
0.125
 44
0.0
 45
0.000000001
 78
     4
 79
     1
140
0.0833333333
147
0.0208333333
148
0.000000001
170
     1
171
     1
173
     1
178
     0
271
     2
272
     2
274
     1
276
     2
284
    12
340
96
  0
DIMSTYLE
105
1C3
102
{ACAD_REACTORS
330
1C2
330
1D7
102
}
330
A
100
AcDbSymbolTableRecord
100
AcDbDimStyleTableRecord
  2
SLDDIMSTYLE2
 70
     0
 41
0.125
 44
0.0
 45
0.000000001
 78
     8
 79
     2
140
0.0833333333
147
0.0208333333
148
0.000000001
170
     1
171
     1
172
     1
173
     1
178
     0
271
     2
272
     2
274
     1
276
     2
284
    12
289
     0
340
96
  0
DIMSTYLE
105
1F1
330
A
100
AcDbSymbolTableRecord
100
AcDbDimStyleTableRecord
  2
SLDDIMSTYLE3
 70
     0
 41
0.125
 44
0.0
 45
0.000000001
146
0.125
147
0.0
173
     1
178
     0
271
     0
272
     0
276
     2
340
11
  0
ENDTAB
  0
TABLE
  2
BLOCK_RECORD
  5
1
330
0
100
AcDbSymbolTable
 70
    20
  0
BLOCK_RECORD
  5
1F
330
1
100
AcDbSymbolTableRecord
100
AcDbBlockTableRecord
  2
*Model_Space
340
22
  0
BLOCK_RECORD
  5
1B
330
1
100
AcDbSymbolTableRecord
100
AcDbBlockTableRecord
  2
*Paper_Space
340
1E
  0
BLOCK_RECORD
  5
23
330
1
100
AcDbSymbolTableRecord
100
AcDbBlockTableRecord
  2
*Paper_Space0
340
26
  0
BLOCK_RECORD
  5
70
330
1
100
AcDbSymbolTableRecord
100
AcDbBlockTableRecord
  2
Third Angle Projection Block
340
0
102
{BLKREFS
331
95
102
}
  0
BLOCK_RECORD
  5
A9
330
1
100
AcDbSymbolTableRecord
100
AcDbBlockTableRecord
  2
SW_NOTE_0
340
0
102
{BLKREFS
331
AE
102
}
  0
BLOCK_RECORD
  5
AF
330
1
100
AcDbSymbolTableRecord
100
AcDbBlockTableRecord
  2
SW_NOTE_1
340
0
102
{BLKREFS
331
B4
102
}
  0
BLOCK_RECORD
  5
B6
330
1
100
AcDbSymbolTableRecord
100
AcDbBlockTableRecord
  2
SW_NOTE_2
340
0
102
{BLKREFS
331
BC
102
}
  0
BLOCK_RECORD
  5
BE
330
1
100
AcDbSymbolTableRecord
100
AcDbBlockTableRecord
  2
SW_NOTE_3
340
0
102
{BLKREFS
331
C3
102
}
  0
BLOCK_RECORD
  5
C4
330
1
100
AcDbSymbolTableRecord
100
AcDbBlockTableRecord
  2
SW_NOTE_4
340
0
102
{BLKREFS
331
D6
102
}
  0
BLOCK_RECORD
  5
D7
330
1
100
AcDbSymbolTableRecord
100
AcDbBlockTableRecord
  2
SW_TABLEANNOTATION_0
340
0
102
{BLKREFS
331
100
102
}
  0
BLOCK_RECORD
  5
E5
330
1
100
AcDbSymbolTableRecord
100
AcDbBlockTableRecord
  2
SW_SYMBOL_C#_1
340
0
102
{BLKREFS
331
EA
102
}
  0
BLOCK_RECORD
  5
EE
330
1
100
AcDbSymbolTableRecord
100
AcDbBlockTableRecord
  2
SW_SYMBOL_C#_2
340
0
102
{BLKREFS
331
F3
102
}
  0
BLOCK_RECORD
  5
F6
330
1
100
AcDbSymbolTableRecord
100
AcDbBlockTableRecord
  2
SW_SYMBOL_C#_3
340
0
102
{BLKREFS
331
FB
102
}
  0
BLOCK_RECORD
  5
11B
330
1
100
AcDbSymbolTableRecord
100
AcDbBlockTableRecord
  2
_D
340
0
  0
BLOCK_RECORD
  5
1B0
330
1
100
AcDbSymbolTableRecord
100
AcDbBlockTableRecord
  2
_D_1
340
0
  0
BLOCK_RECORD
  5
1C4
330
1
100
AcDbSymbolTableRecord
100
AcDbBlockTableRecord
  2
_D_2
340
0
  0
BLOCK_RECORD
  5
1D8
330
1
100
AcDbSymbolTableRecord
100
AcDbBlockTableRecord
  2
_D_3
340
0
  0
BLOCK_RECORD
  5
1EB
330
1
100
AcDbSymbolTableRecord
100
AcDbBlockTableRecord
  2
SW_NOTE_5
340
0
102
{BLKREFS
331
1F0
102
}
  0
BLOCK_RECORD
  5
1F3
330
1
100
AcDbSymbolTableRecord
100
AcDbBlockTableRecord
  2
SW_NOTE_6
340
0
102
{BLKREFS
331
1F8
102
}
  0
BLOCK_RECORD
  5
1FA
330
1
100
AcDbSymbolTableRecord
100
AcDbBlockTableRecord
  2
SW_NOTE_7
340
0
102
{BLKREFS
331
201
102
}
  0
BLOCK_RECORD
  5
203
330
1
100
AcDbSymbolTableRecord
100
AcDbBlockTableRecord
  2
SW_NOTE_8
340
0
102
{BLKREFS
331
208
102
}
  0
BLOCK_RECORD
  5
20A
330
1
100
AcDbSymbolTableRecord
100
AcDbBlockTableRecord
  2
SW_NOTE_9
340
0
102
{BLKREFS
331
210
102
}
  0
ENDTAB
  0
ENDSEC
  0
SECTION
  2
BLOCKS
  0
BLOCK
  5
20
330
1F
100
AcDbEntity
  8
0
100
AcDbBlockBegin
  2
*Model_Space
 70
     0
 10
0.0
 20
0.0
 30
0.0
  3
*Model_Space
  1
*Model_Space
  0
ENDBLK
  5
21
330
1F
100
AcDbEntity
  8
0
100
AcDbBlockEnd
  0
BLOCK
  5
1C
330
1B
100
AcDbEntity
 67
     1
  8
0
100
AcDbBlockBegin
  2
*Paper_Space
 70
     0
 10
0.0
 20
0.0
 30
0.0
  3
*Paper_Space
  1
*Paper_Space
  0
ENDBLK
  5
1D
330
1B
100
AcDbEntity
 67
     1
  8
0
100
AcDbBlockEnd
  0
BLOCK
  5
24
330
23
100
AcDbEntity
  8
0
100
AcDbBlockBegin
  2
*Paper_Space0
 70
     0
 10
0.0
 20
0.0
 30
0.0
  3
*Paper_Space0
  1
*Paper_Space0
  0
ENDBLK
  5
25
330
23
100
AcDbEntity
  8
0
100
AcDbBlockEnd
  0
BLOCK
  5
71
330
70
100
AcDbEntity
  8
0
100
AcDbBlockBegin
  2
Third Angle Projection Block
 70
     0
 10
0.0
 20
0.0
 30
0.0
  3
Third Angle Projection Block
  1
Third Angle Projection Block
  0
CIRCLE
  5
73
330
70
100
AcDbEntity
  8
0
  6
Continuous
 62
     7
370
    30
100
AcDbCircle
 10
3.9951432636
 20
0.7456853688
 30
0.0
 40
0.0696152422706639
  0
CIRCLE
  5
74
330
70
100
AcDbEntity
  8
0
  6
Continuous
 62
     7
370
    30
100
AcDbCircle
 10
3.9951432636
 20
0.7456853688
 30
0.0
 40
0.1535916633280245
  0
LINE
  5
75
330
70
100
AcDbEntity
  8
0
  6
CENTERX2
 62
     7
370
     0
100
AcDbLine
 10
4.3360937897
 20
0.7456853688
 30
0.0
 11
4.7028635231
 21
0.7456853688
 31
0.0
  0
LINE
  5
76
330
70
100
AcDbEntity
  8
0
  6
Continuous
 62
     7
370
    30
100
AcDbLine
 10
4.3701432636
 20
0.815300611
 30
0.0
 11
4.3701432636
 21
0.6760701265
 31
0.0
  0
LINE
  5
77
330
70
100
AcDbEntity
  8
0
  6
Continuous
 62
     7
370
    30
100
AcDbLine
 10
4.3701432636
 20
0.6760701265
 30
0.0
 11
4.6701432636
 21
0.5956853688
 31
0.0
  0
LINE
  5
78
330
70
100
AcDbEntity
  8
0
  6
Continuous
 62
     7
370
    30
100
AcDbLine
 10
4.6701432636
 20
0.5956853688
 30
0.0
 11
4.6701432636
 21
0.8956853688
 31
0.0
  0
LINE
  5
79
330
70
100
AcDbEntity
  8
0
  6
Continuous
 62
     7
370
    30
100
AcDbLine
 10
4.6701432636
 20
0.8956853688
 30
0.0
 11
4.3701432636
 21
0.815300611
 31
0.0
  0
LINE
  5
7A
330
70
100
AcDbEntity
  8
0
  6
CENTERX2
 62
     7
370
     0
100
AcDbLine
 10
3.8032513961
 20
0.7456853688
 30
0.0
 11
4.187035131
 21
0.7456853688
 31
0.0
  0
LINE
  5
7B
330
70
100
AcDbEntity
  8
0
  6
CENTERX2
 62
     7
370
     0
100
AcDbLine
 10
3.9951432636
 20
0.9375772362
 30
0.0
 11
3.9951432636
 21
0.5537935013
 31
0.0
  0
POINT
  5
7C
330
70
100
AcDbEntity
  8
0
  6
Continuous
 62
     7
370
     0
100
AcDbPoint
 10
3.9951432636
 20
0.7456853688
 30
0.0
  0
ENDBLK
  5
72
330
70
100
AcDbEntity
  8
0
100
AcDbBlockEnd
  0
BLOCK
  5
AA
330
A9
100
AcDbEntity
  8
0
100
AcDbBlockBegin
  2
SW_NOTE_0
 70
     0
 10
0.0
 20
0.0
 30
0.0
  3
SW_NOTE_0
  1
SW_NOTE_0
  0
MTEXT
  5
AC
330
A9
100
AcDbEntity
  8
0
  6
Continuous
 62
     0
370
     0
100
AcDbMText
 10
0.78375
 20
0.0773440644
 30
0.0
 40
0.06
 41
0.0
 71
     2
 72
     1
  1
VALUES IN PARENTHESIS ARE CALCULATED
  7
SLDTEXTSTYLE0
 73
     1
 44
1.0
  0
MTEXT
  5
AD
330
A9
100
AcDbEntity
  8
0
  6
Continuous
 62
     0
370
     0
100
AcDbMText
 10
0.7825936818
 20
-0.0220260102
 30
0.0
 40
0.06
 41
0.0
 71
     2
 72
     1
  1
AND MAY CONTAIN ROUNDOFF ERRORS
  7
SLDTEXTSTYLE0
 73
     1
 44
1.0
  0
ENDBLK
  5
AB
330
A9
100
AcDbEntity
  8
0
100
AcDbBlockEnd
  0
BLOCK
  5
B0
330
AF
100
AcDbEntity
  8
0
100
AcDbBlockBegin
  2
SW_NOTE_1
 70
     0
 10
0.0
 20
0.0
 30
0.0
  3
SW_NOTE_1
  1
SW_NOTE_1
  0
MTEXT
  5
B2
330
AF
100
AcDbEntity
  8
0
  6
Continuous
 62
     0
370
     0
100
AcDbMText
 10
0.0
 20
0.1074223116
 30
0.0
 40
0.0833333333
 41
0.0
 71
     1
 72
     1
  1
DRAWING
  7
SLDTEXTSTYLE0
 73
     1
 44
1.0
  0
MTEXT
  5
B3
330
AF
100
AcDbEntity
  8
0
  6
Continuous
 62
     0
370
     0
100
AcDbMText
 10
0.0
 20
-0.0036887981
 30
0.0
 40
0.0833333333
 41
0.0
 71
     1
 72
     1
  1
PROJECTION
  7
SLDTEXTSTYLE0
 73
     1
 44
1.0
  0
ENDBLK
  5
B1
330
AF
100
AcDbEntity
  8
0
100
AcDbBlockEnd
  0
BLOCK
  5
B7
330
B6
100
AcDbEntity
  8
0
100
AcDbBlockBegin
  2
SW_NOTE_2
 70
     0
 10
0.0
 20
0.0
 30
0.0
  3
SW_NOTE_2
  1
SW_NOTE_2
  0
MTEXT
  5
B9
330
B6
100
AcDbEntity
  8
0
  6
Continuous
 62
     0
370
     0
100
AcDbMText
 10
0.0823567708
 20
0.1477056785
 30
0.0
 40
0.1145833333
 41
0.0
 71
     2
 72
     1
  1
%%c
  7
SLDTEXTSTYLE0
 73
     1
 44
1.0
  0
MTEXT
  5
BA
330
B6
100
AcDbEntity
  8
0
  6
Continuous
 62
     0
370
     0
100
AcDbMText
 10
1.2471759303
 20
0.1477056785
 30
0.0
 40
0.1145833333
 41
0.0
 71
     2
 72
     1
  1
2" MOUNTED PLANO-CONVEX
  7
SLDTEXTSTYLE0
 73
     1
 44
1.0
  0
MTEXT
  5
BB
330
B6
100
AcDbEntity
  8
0
  6
Continuous
 62
     0
370
     0
100
AcDbMText
 10
1.1868367876
 20
-0.0050720974
 30
0.0
 40
0.1145833333
 41
0.0
 71
     2
 72
     1
  1
LENS, f=1000mm
  7
SLDTEXTSTYLE0
 73
     1
 44
1.0
  0
ENDBLK
  5
B8
330
B6
100
AcDbEntity
  8
0
100
AcDbBlockEnd
  0
BLOCK
  5
BF
330
BE
100
AcDbEntity
  8
0
100
AcDbBlockBegin
  2
SW_NOTE_3
 70
     0
 10
0.0
 20
0.0
 30
0.0
  3
SW_NOTE_3
  1
SW_NOTE_3
  0
MTEXT
  5
C1
330
BE
100
AcDbEntity
  8
0
  6
Continuous
 62
     0
370
     0
100
AcDbMText
 10
0.986328125
 20
0.1611334675
 30
0.0
 40
0.125
 41
0.0
 71
     2
 72
     1
  1
FOR INFORMATION ONLY
  7
SLDTEXTSTYLE0
 73
     1
 44
1.0
  0
MTEXT
  5
C2
330
BE
100
AcDbEntity
  8
0
  6
Continuous
 62
     0
370
     0
100
AcDbMText
 10
0.999088459
 20
-0.0055331972
 30
0.0
 40
0.125
 41
0.0
 71
     2
 72
     1
  1
NOT FOR MANUFACTURING PURPOSES
  7
SLDTEXTSTYLE0
 73
     1
 44
1.0
  0
ENDBLK
  5
C0
330
BE
100
AcDbEntity
  8
0
100
AcDbBlockEnd
  0
BLOCK
  5
C5
330
C4
100
AcDbEntity
  8
0
100
AcDbBlockBegin
  2
SW_NOTE_4
 70
     0
 10
0.0
 20
0.0
 30
0.0
  3
SW_NOTE_4
  1
SW_NOTE_4
  0
MTEXT
  5
C7
330
C4
100
AcDbEntity
  8
0
  6
Continuous
 62
     0
370
     0
100
AcDbMText
 10
0.0
 20
0.1074223116
 30
0.0
 40
0.0833333333
 41
0.0
 71
     1
 72
     1
  1
NOTES/SPECIFICATIONS:
  7
SLDTEXTSTYLE0
 73
     1
 44
1.0
  0
MTEXT
  5
C8
330
C4
100
AcDbEntity
  8
0
  6
Continuous
 62
     0
370
     0
100
AcDbMText
 10
0.4183921567
 20
-0.1147999079
 30
0.0
 40
0.0833333333
 41
0.0
 71
     1
 72
     1
  1
DESIGN WAVELENGTH: 546nm
  7
SLDTEXTSTYLE0
 73
     1
 44
1.0
  0
MTEXT
  5
C9
330
C4
100
AcDbEntity
  8
0
  6
Continuous
 62
     0
370
     0
100
AcDbMText
 10
0.0
 20
-0.1147999079
 30
0.0
 40
0.0833333333
 41
0.0
 71
     1
 72
     1
  1
1.
  7
SLDTEXTSTYLE0
 73
     1
 44
1.0
  0
MTEXT
  5
CA
330
C4
100
AcDbEntity
  8
0
  6
Continuous
 62
     0
370
     0
100
AcDbMText
 10
0.4183921567
 20
-0.2259110177
 30
0.0
 40
0.0833333333
 41
0.0
 71
     1
 72
     1
  1
FOCAL LENGTH: f=1000.0mm
  7
SLDTEXTSTYLE0
 73
     1
 44
1.0
  0
MTEXT
  5
CB
330
C4
100
AcDbEntity
  8
0
  6
Continuous
 62
     0
370
     0
100
AcDbMText
 10
1.9474045601
 20
-0.2259110177
 30
0.0
 40
0.0833333333
 41
0.0
 71
     1
 72
     1
  1
%%p
  7
SLDTEXTSTYLE0
 73
     1
 44
1.0
  0
MTEXT
  5
CC
330
C4
100
AcDbEntity
  8
0
  6
Continuous
 62
     0
370
     0
100
AcDbMText
 10
2.0268490157
 20
-0.2259110177
 30
0.0
 40
0.0833333333
 41
0.0
 71
     1
 72
     1
  1
1%
  7
SLDTEXTSTYLE0
 73
     1
 44
1.0
  0
MTEXT
  5
CD
330
C4
100
AcDbEntity
  8
0
  6
Continuous
 62
     0
370
     0
100
AcDbMText
 10
0.0
 20
-0.2259110177
 30
0.0
 40
0.0833333333
 41
0.0
 71
     1
 72
     1
  1
2.
  7
SLDTEXTSTYLE0
 73
     1
 44
1.0
  0
MTEXT
  5
CE
330
C4
100
AcDbEntity
  8
0
  6
Continuous
 62
     0
370
     0
100
AcDbMText
 10
0.4183921567
 20
-0.3370221274
 30
0.0
 40
0.0833333333
 41
0.0
 71
     1
 72
     1
  1
WORKING DISTANCE (REF): 993.7mm
  7
SLDTEXTSTYLE0
 73
     1
 44
1.0
  0
MTEXT
  5
CF
330
C4
100
AcDbEntity
  8
0
  6
Continuous
 62
     0
370
     0
100
AcDbMText
 10
0.0
 20
-0.3370221274
 30
0.0
 40
0.0833333333
 41
0.0
 71
     1
 72
     1
  1
3.
  7
SLDTEXTSTYLE0
 73
     1
 44
1.0
  0
MTEXT
  5
D0
330
C4
100
AcDbEntity
  8
0
  6
Continuous
 62
     0
370
     0
100
AcDbMText
 10
0.4183921567
 20
-0.4481332372
 30
0.0
 40
0.0833333333
 41
0.0
 71
     1
 72
     1
  1
CLEAR APERTURE: >
  7
SLDTEXTSTYLE0
 73
     1
 44
1.0
  0
MTEXT
  5
D1
330
C4
100
AcDbEntity
  8
0
  6
Continuous
 62
     0
370
     0
100
AcDbMText
 10
1.4507996036
 20
-0.4481332372
 30
0.0
 40
0.0833333333
 41
0.0
 71
     1
 72
     1
  1
%%c
  7
SLDTEXTSTYLE0
 73
     1
 44
1.0
  0
MTEXT
  5
D2
330
C4
100
AcDbEntity
  8
0
  6
Continuous
 62
     0
370
     0
100
AcDbMText
 10
1.5765865971
 20
-0.4481332372
 30
0.0
 40
0.0833333333
 41
0.0
 71
     1
 72
     1
  1
45.72mm
  7
SLDTEXTSTYLE0
 73
     1
 44
1.0
  0
MTEXT
  5
D3
330
C4
100
AcDbEntity
  8
0
  6
Continuous
 62
     0
370
     0
100
AcDbMText
 10
0.0
 20
-0.4481332372
 30
0.0
 40
0.0833333333
 41
0.0
 71
     1
 72
     1
  1
4.
  7
SLDTEXTSTYLE0
 73
     1
 44
1.0
  0
MTEXT
  5
D4
330
C4
100
AcDbEntity
  8
0
  6
Continuous
 62
     0
370
     0
100
AcDbMText
 10
0.4183921567
 20
-0.559244347
 30
0.0
 40
0.0833333333
 41
0.0
 71
     1
 72
     1
  1
SURFACE QUALITY: 40-20 SCRATCH-DIG
  7
SLDTEXTSTYLE0
 73
     1
 44
1.0
  0
MTEXT
  5
D5
330
C4
100
AcDbEntity
  8
0
  6
Continuous
 62
     0
370
     0
100
AcDbMText
 10
0.0
 20
-0.559244347
 30
0.0
 40
0.0833333333
 41
0.0
 71
     1
 72
     1
  1
5.
  7
SLDTEXTSTYLE0
 73
     1
 44
1.0
  0
ENDBLK
  5
C6
330
C4
100
AcDbEntity
  8
0
100
AcDbBlockEnd
  0
BLOCK
  5
D8
330
D7
100
AcDbEntity
  8
0
100
AcDbBlockBegin
  2
SW_TABLEANNOTATION_0
 70
     0
 10
0.0
 20
0.0
 30
0.0
  3
SW_TABLEANNOTATION_0
  1
SW_TABLEANNOTATION_0
  0
LINE
  5
DA
330
D7
100
AcDbEntity
  8
0
  6
Continuous
 62
     0
370
     0
100
AcDbLine
 10
0.0
 20
0.0
 30
0.0
 11
0.0
 21
-1.2444444391
 31
0.0
  0
LINE
  5
DB
330
D7
100
AcDbEntity
  8
0
  6
Continuous
 62
     0
370
     0
100
AcDbLine
 10
0.0
 20
-1.2444444391
 30
0.0
 11
3.3
 21
-1.2444444391
 31
0.0
  0
LINE
  5
DC
330
D7
100
AcDbEntity
  8
0
  6
Continuous
 62
     0
370
     0
100
AcDbLine
 10
3.3
 20
-1.2444444391
 30
0.0
 11
3.3
 21
0.0
 31
0.0
  0
LINE
  5
DD
330
D7
100
AcDbEntity
  8
0
  6
Continuous
 62
     0
370
     0
100
AcDbLine
 10
3.3
 20
0.0
 30
0.0
 11
0.0
 21
0.0
 31
0.0
  0
LINE
  5
DE
330
D7
100
AcDbEntity
  8
0
  6
Continuous
 62
     0
370
     0
100
AcDbLine
 10
1.1
 20
0.0
 30
0.0
 11
1.1
 21
-1.2444444391
 31
0.0
  0
LINE
  5
DF
330
D7
100
AcDbEntity
  8
0
  6
Continuous
 62
     0
370
     0
100
AcDbLine
 10
2.2
 20
0.0
 30
0.0
 11
2.2
 21
-1.2444444391
 31
0.0
  0
LINE
  5
E0
330
D7
100
AcDbEntity
  8
0
  6
Continuous
 62
     0
370
     0
100
AcDbLine
 10
0.0
 20
-0.3111111098
 30
0.0
 11
3.3
 21
-0.3111111098
 31
0.0
  0
LINE
  5
E1
330
D7
100
AcDbEntity
  8
0
  6
Continuous
 62
     0
370
     0
100
AcDbLine
 10
0.0
 20
-0.6222222195
 30
0.0
 11
3.3
 21
-0.6222222195
 31
0.0
  0
LINE
  5
E2
330
D7
100
AcDbEntity
  8
0
  6
Continuous
 62
     0
370
     0
100
AcDbLine
 10
0.0
 20
-0.9333333293
 30
0.0
 11
3.3
 21
-0.9333333293
 31
0.0
  0
MTEXT
  5
E3
330
D7
100
AcDbEntity
  8
0
  6
Continuous
 62
     0
370
     0
100
AcDbMText
 10
1.1543981952
 20
-0.1141785187
 30
0.0
 40
0.0833333333
 41
0.0
 71
     1
 72
     1
  1
PART DESCRIPTION
  7
SLDTEXTSTYLE0
 73
     1
 44
1.0
  0
MTEXT
  5
E4
330
D7
100
AcDbEntity
  8
0
  6
Continuous
 62
     0
370
     0
100
AcDbMText
 10
2.491203698
 20
-0.1141785187
 30
0.0
 40
0.0833333333
 41
0.0
 71
     1
 72
     1
  1
MATERIAL
  7
SLDTEXTSTYLE0
 73
     1
 44
1.0
  0
INSERT
  5
EA
330
D7
100
AcDbEntity
  8
0
  6
Continuous
 62
     0
370
     0
100
AcDbBlockReference
  2
SW_SYMBOL_C#_1
 10
0.4374537001
 20
-0.5211559505
 30
0.0
 41
0.0027037109
 42
0.0027037109
 43
0.0027037109
  0
MTEXT
  5
EB
330
D7
100
AcDbEntity
  8
0
  6
Continuous
 62
     0
370
     0
100
AcDbMText
 10
1.4729938215
 20
-0.4252896284
 30
0.0
 40
0.0833333333
 41
0.0
 71
     1
 72
     1
  1
SM2RR
  7
SLDTEXTSTYLE0
 73
     1
 44
1.0
  0
MTEXT
  5
EC
330
D7
100
AcDbEntity
  8
0
  6
Continuous
 62
     0
370
     0
100
AcDbMText
 10
2.4676697448
 20
-0.3697340736
 30
0.0
 40
0.0833333333
 41
0.0
 71
     1
 72
     1
  1
ANODIZED
  7
SLDTEXTSTYLE0
 73
     1
 44
1.0
  0
MTEXT
  5
ED
330
D7
100
AcDbEntity
  8
0
  6
Continuous
 62
     0
370
     0
100
AcDbMText
 10
2.4546296155
 20
-0.4808451833
 30
0.0
 40
0.0833333333
 41
0.0
 71
     1
 72
     1
  1
ALUMINUM
  7
SLDTEXTSTYLE0
 73
     1
 44
1.0
  0
INSERT
  5
F3
330
D7
100
AcDbEntity
  8
0
  6
Continuous
 62
     0
370
     0
100
AcDbBlockReference
  2
SW_SYMBOL_C#_2
 10
0.4374537001
 20
-0.8322670603
 30
0.0
 41
0.0027037109
 42
0.0027037109
 43
0.0027037109
  0
MTEXT
  5
F4
330
D7
100
AcDbEntity
  8
0
  6
Continuous
 62
     0
370
     0
100
AcDbMText
 10
1.4600308562
 20
-0.7364007382
 30
0.0
 40
0.0833333333
 41
0.0
 71
     1
 72
     1
  1
LA4337
  7
SLDTEXTSTYLE0
 73
     1
 44
1.0
  0
MTEXT
  5
F5
330
D7
100
AcDbEntity
  8
0
  6
Continuous
 62
     0
370
     0
100
AcDbMText
 10
2.3169753357
 20
-0.7364007382
 30
0.0
 40
0.0833333333
 41
0.0
 71
     1
 72
     1
  1
UV FUSED SILICA
  7
SLDTEXTSTYLE0
 73
     1
 44
1.0
  0
INSERT
  5
FB
330
D7
100
AcDbEntity
  8
0
  6
Continuous
 62
     0
370
     0
100
AcDbBlockReference
  2
SW_SYMBOL_C#_3
 10
0.4374537001
 20
-1.14337817
 30
0.0
 41
0.0027037109
 42
0.0027037109
 43
0.0027037109
  0
MTEXT
  5
FC
330
D7
100
AcDbEntity
  8
0
  6
Continuous
 62
     0
370
     0
100
AcDbMText
 10
1.3456018548
 20
-0.9919562931
 30
0.0
 40
0.0833333333
 41
0.0
 71
     1
 72
     1
  1
ENGRAVED
  7
SLDTEXTSTYLE0
 73
     1
 44
1.0
  0
MTEXT
  5
FD
330
D7
100
AcDbEntity
  8
0
  6
Continuous
 62
     0
370
     0
100
AcDbMText
 10
1.3975308615
 20
-1.1030674029
 30
0.0
 40
0.0833333333
 41
0.0
 71
     1
 72
     1
  1
HOUSING
  7
SLDTEXTSTYLE0
 73
     1
 44
1.0
  0
MTEXT
  5
FE
330
D7
100
AcDbEntity
  8
0
  6
Continuous
 62
     0
370
     0
100
AcDbMText
 10
2.4676697448
 20
-0.9919562931
 30
0.0
 40
0.0833333333
 41
0.0
 71
     1
 72
     1
  1
ANODIZED
  7
SLDTEXTSTYLE0
 73
     1
 44
1.0
  0
MTEXT
  5
FF
330
D7
100
AcDbEntity
  8
0
  6
Continuous
 62
     0
370
     0
100
AcDbMText
 10
2.4546296155
 20
-1.1030674029
 30
0.0
 40
0.0833333333
 41
0.0
 71
     1
 72
     1
  1
ALUMINUM
  7
SLDTEXTSTYLE0
 73
     1
 44
1.0
  0
ENDBLK
  5
D9
330
D7
100
AcDbEntity
  8
0
100
AcDbBlockEnd
  0
BLOCK
  5
E6
330
E5
100
AcDbEntity
  8
0
100
AcDbBlockBegin
  2
SW_SYMBOL_C#_1
 70
     0
 10
0.0
 20
0.0
 30
0.0
  3
SW_SYMBOL_C#_1
  1
SW_SYMBOL_C#_1
  0
CIRCLE
  5
E8
330
E5
100
AcDbEntity
  8
0
  6
Continuous
 62
     0
370
     0
100
AcDbCircle
 10
31.4960629921
 20
19.6850393701
 30
0.0
 40
31.49606299212599
  0
MTEXT
  5
E9
330
E5
100
AcDbEntity
  8
0
  6
Continuous
 62
     0
370
     0
100
AcDbMText
 10
31.4960629921
 20
19.6850393701
 30
0.0
 40
30.821835344
 41
0.0
 71
     5
 72
     1
  1
1
  7
SLDTEXTSTYLE0
 73
     1
 44
1.0
  0
ENDBLK
  5
E7
330
E5
100
AcDbEntity
  8
0
100
AcDbBlockEnd
  0
BLOCK
  5
EF
330
EE
100
AcDbEntity
  8
0
100
AcDbBlockBegin
  2
SW_SYMBOL_C#_2
 70
     0
 10
0.0
 20
0.0
 30
0.0
  3
SW_SYMBOL_C#_2
  1
SW_SYMBOL_C#_2
  0
CIRCLE
  5
F1
330
EE
100
AcDbEntity
  8
0
  6
Continuous
 62
     0
370
     0
100
AcDbCircle
 10
31.4960629921
 20
19.6850393701
 30
0.0
 40
31.49606299212599
  0
MTEXT
  5
F2
330
EE
100
AcDbEntity
  8
0
  6
Continuous
 62
     0
370
     0
100
AcDbMText
 10
31.4960629921
 20
19.6850393701
 30
0.0
 40
30.821835344
 41
0.0
 71
     5
 72
     1
  1
2
  7
SLDTEXTSTYLE0
 73
     1
 44
1.0
  0
ENDBLK
  5
F0
330
EE
100
AcDbEntity
  8
0
100
AcDbBlockEnd
  0
BLOCK
  5
F7
330
F6
100
AcDbEntity
  8
0
100
AcDbBlockBegin
  2
SW_SYMBOL_C#_3
 70
     0
 10
0.0
 20
0.0
 30
0.0
  3
SW_SYMBOL_C#_3
  1
SW_SYMBOL_C#_3
  0
CIRCLE
  5
F9
330
F6
100
AcDbEntity
  8
0
  6
Continuous
 62
     0
370
     0
100
AcDbCircle
 10
31.4960629921
 20
19.6850393701
 30
0.0
 40
31.49606299212599
  0
MTEXT
  5
FA
330
F6
100
AcDbEntity
  8
0
  6
Continuous
 62
     0
370
     0
100
AcDbMText
 10
31.4960629921
 20
19.6850393701
 30
0.0
 40
30.821835344
 41
0.0
 71
     5
 72
     1
  1
3
  7
SLDTEXTSTYLE0
 73
     1
 44
1.0
  0
ENDBLK
  5
F8
330
F6
100
AcDbEntity
  8
0
100
AcDbBlockEnd
  0
BLOCK
  5
11C
330
11B
100
AcDbEntity
  8
0
100
AcDbBlockBegin
  2
_D
 70
     0
 10
0.0
 20
0.0
 30
0.0
  3
_D
  1
_D
  0
SOLID
  5
11E
330
11B
100
AcDbEntity
  8
0
  6
Continuous
 62
     7
370
     0
100
AcDbTrace
 10
3.7496827559
 20
5.545359883
 30
0.0
 11
3.8295032639
 21
5.6436130585
 31
0.0
 12
3.7948622478
 22
5.6636130585
 32
0.0
 13
3.7948622478
 23
5.6636130585
 33
0.0
  0
LINE
  5
11F
330
11B
100
AcDbEntity
  8
0
  6
Continuous
 62
     7
370
     0
100
AcDbLine
 10
4.249702332
 20
6.0324198061
 30
0.0
 11
4.232804184
 21
6.0324198061
 31
0.0
  0
LINE
  5
120
330
11B
100
AcDbEntity
  8
0
  6
Continuous
 62
     7
370
     0
100
AcDbLine
 10
4.232804184
 20
6.0324198061
 30
0.0
 11
4.232804184
 21
5.9000124015
 31
0.0
  0
LINE
  5
121
330
11B
100
AcDbEntity
  8
0
  6
Continuous
 62
     7
370
     0
100
AcDbLine
 10
4.232804184
 20
5.9000124015
 30
0.0
 11
4.249702332
 21
5.9000124015
 31
0.0
  0
LINE
  5
122
330
11B
100
AcDbEntity
  8
0
  6
Continuous
 62
     7
370
     0
100
AcDbLine
 10
4.7157131517
 20
6.0324198061
 30
0.0
 11
4.7326112997
 21
6.0324198061
 31
0.0
  0
LINE
  5
123
330
11B
100
AcDbEntity
  8
0
  6
Continuous
 62
     7
370
     0
100
AcDbLine
 10
4.7326112997
 20
6.0324198061
 30
0.0
 11
4.7326112997
 21
5.9000124015
 31
0.0
  0
LINE
  5
124
330
11B
100
AcDbEntity
  8
0
  6
Continuous
 62
     7
370
     0
100
AcDbLine
 10
4.7326112997
 20
5.9000124015
 30
0.0
 11
4.7157131517
 21
5.9000124015
 31
0.0
  0
LINE
  5
125
330
11B
100
AcDbEntity
  8
0
  6
Continuous
 62
     7
370
     0
100
AcDbLine
 10
3.7496827559
 20
5.545359883
 30
0.0
 11
4.0701305727
 21
6.1003917829
 31
0.0
  0
LINE
  5
126
330
11B
100
AcDbEntity
  8
0
  6
Continuous
 62
     7
370
     0
100
AcDbLine
 10
4.0701305727
 20
6.1003917829
 30
0.0
 11
4.2201305727
 21
6.1003917829
 31
0.0
  0
MTEXT
  5
127
330
11B
100
AcDbEntity
  8
0
  6
Continuous
 62
     7
370
     0
100
AcDbMText
 10
4.2201305727
 20
6.1567402646
 30
0.0
 40
0.0833333333
 41
0.0
 71
     1
 72
     1
  1
%%c
  7
SLDTEXTSTYLE0
 73
     1
 44
1.0
  0
MTEXT
  5
128
330
11B
100
AcDbEntity
  8
0
  6
Continuous
 62
     7
370
     0
100
AcDbMText
 10
4.3459176121
 20
6.1567402646
 30
0.0
 40
0.0833333333
 41
0.0
 71
     1
 72
     1
  1
2.20in
  7
SLDTEXTSTYLE0
 73
     1
 44
1.0
  0
MTEXT
  5
129
330
11B
100
AcDbEntity
  8
0
  6
Continuous
 62
     7
370
     0
100
AcDbMText
 10
4.2708250179
 20
6.0074347086
 30
0.0
 40
0.0833333333
 41
0.0
 71
     1
 72
     1
  1
55.9mm
  7
SLDTEXTSTYLE0
 73
     1
 44
1.0
  0
ENDBLK
  5
11D
330
11B
100
AcDbEntity
  8
0
100
AcDbBlockEnd
  0
BLOCK
  5
1B1
330
1B0
100
AcDbEntity
  8
0
100
AcDbBlockBegin
  2
_D_1
 70
     0
 10
0.0
 20
0.0
 30
0.0
  3
_D_1
  1
_D_1
  0
SOLID
  5
1B3
330
1B0
100
AcDbEntity
  8
0
  6
Continuous
 62
     7
370
     0
100
AcDbTrace
 10
8.2748909831
 20
5.5427319389
 30
0.0
 11
8.2548909831
 21
5.4177319389
 31
0.0
 12
8.2948909831
 22
5.4177319389
 32
0.0
 13
8.2948909831
 23
5.4177319389
 33
0.0
  0
SOLID
  5
1B4
330
1B0
100
AcDbEntity
  8
0
  6
Continuous
 62
     7
370
     0
100
AcDbTrace
 10
8.2748909831
 20
3.6427319389
 30
0.0
 11
8.2948909831
 21
3.7677319389
 31
0.0
 12
8.2548909831
 22
3.7677319389
 32
0.0
 13
8.2548909831
 23
3.7677319389
 33
0.0
  0
LINE
  5
1B5
330
1B0
100
AcDbEntity
  8
0
  6
Continuous
 62
     7
370
     0
100
AcDbLine
 10
8.0418855824
 20
4.6033800817
 30
0.0
 11
8.0249874344
 21
4.6033800817
 31
0.0
  0
LINE
  5
1B6
330
1B0
100
AcDbEntity
  8
0
  6
Continuous
 62
     7
370
     0
100
AcDbLine
 10
8.0249874344
 20
4.6033800817
 30
0.0
 11
8.0249874344
 21
4.4709726771
 31
0.0
  0
LINE
  5
1B7
330
1B0
100
AcDbEntity
  8
0
  6
Continuous
 62
     7
370
     0
100
AcDbLine
 10
8.0249874344
 20
4.4709726771
 30
0.0
 11
8.0418855824
 21
4.4709726771
 31
0.0
  0
LINE
  5
1B8
330
1B0
100
AcDbEntity
  8
0
  6
Continuous
 62
     7
370
     0
100
AcDbLine
 10
8.5078964022
 20
4.6033800817
 30
0.0
 11
8.5247945502
 21
4.6033800817
 31
0.0
  0
LINE
  5
1B9
330
1B0
100
AcDbEntity
  8
0
  6
Continuous
 62
     7
370
     0
100
AcDbLine
 10
8.5247945502
 20
4.6033800817
 30
0.0
 11
8.5247945502
 21
4.4709726771
 31
0.0
  0
LINE
  5
1BA
330
1B0
100
AcDbEntity
  8
0
  6
Continuous
 62
     7
370
     0
100
AcDbLine
 10
8.5247945502
 20
4.4709726771
 30
0.0
 11
8.5078964022
 21
4.4709726771
 31
0.0
  0
LINE
  5
1BB
330
1B0
100
AcDbEntity
  8
0
  6
Continuous
 62
     7
370
     0
100
AcDbLine
 10
7.5769074773
 20
5.5427319389
 30
0.0
 11
8.3448909831
 21
5.5427319389
 31
0.0
  0
LINE
  5
1BC
330
1B0
100
AcDbEntity
  8
0
  6
Continuous
 62
     7
370
     0
100
AcDbLine
 10
7.5769074773
 20
3.6427319389
 30
0.0
 11
8.3448909831
 21
3.6427319389
 31
0.0
  0
LINE
  5
1BD
330
1B0
100
AcDbEntity
  8
0
  6
Continuous
 62
     7
370
     0
100
AcDbLine
 10
8.2748909831
 20
5.5427319389
 30
0.0
 11
8.2748909831
 21
4.7313893429
 31
0.0
  0
LINE
  5
1BE
330
1B0
100
AcDbEntity
  8
0
  6
Continuous
 62
     7
370
     0
100
AcDbLine
 10
8.2748909831
 20
3.6427319389
 30
0.0
 11
8.2748909831
 21
4.4540745348
 31
0.0
  0
MTEXT
  5
1BF
330
1B0
100
AcDbEntity
  8
0
  6
Continuous
 62
     7
370
     0
100
AcDbMText
 10
8.059296847
 20
4.7277005402
 30
0.0
 40
0.0833333333
 41
0.0
 71
     1
 72
     1
  1
%%c
  7
SLDTEXTSTYLE0
 73
     1
 44
1.0
  0
MTEXT
  5
1C0
330
1B0
100
AcDbEntity
  8
0
  6
Continuous
 62
     7
370
     0
100
AcDbMText
 10
8.1850838864
 20
4.7277005402
 30
0.0
 40
0.0833333333
 41
0.0
 71
     1
 72
     1
  1
1.90in
  7
SLDTEXTSTYLE0
 73
     1
 44
1.0
  0
MTEXT
  5
1C1
330
1B0
100
AcDbEntity
  8
0
  6
Continuous
 62
     7
370
     0
100
AcDbMText
 10
8.0630082683
 20
4.5783949842
 30
0.0
 40
0.0833333333
 41
0.0
 71
     1
 72
     1
  1
48.3mm
  7
SLDTEXTSTYLE0
 73
     1
 44
1.0
  0
ENDBLK
  5
1B2
330
1B0
100
AcDbEntity
  8
0
100
AcDbBlockEnd
  0
BLOCK
  5
1C5
330
1C4
100
AcDbEntity
  8
0
100
AcDbBlockBegin
  2
_D_2
 70
     0
 10
0.0
 20
0.0
 30
0.0
  3
_D_2
  1
_D_2
  0
SOLID
  5
1C7
330
1C4
100
AcDbEntity
  8
0
  6
Continuous
 62
     7
370
     0
100
AcDbTrace
 10
7.4069074773
 20
5.9200688288
 30
0.0
 11
7.2819074773
 21
5.9400688288
 31
0.0
 12
7.2819074773
 22
5.9000688288
 32
0.0
 13
7.2819074773
 23
5.9000688288
 33
0.0
  0
SOLID
  5
1C8
330
1C4
100
AcDbEntity
  8
0
  6
Continuous
 62
     7
370
     0
100
AcDbTrace
 10
7.5269074773
 20
5.9200688288
 30
0.0
 11
7.6519074773
 21
5.9000688288
 31
0.0
 12
7.6519074773
 22
5.9400688288
 32
0.0
 13
7.6519074773
 23
5.9400688288
 33
0.0
  0
LINE
  5
1C9
330
1C4
100
AcDbEntity
  8
0
  6
Continuous
 62
     7
370
     0
100
AcDbLine
 10
8.0726726318
 20
5.9200688196
 30
0.0
 11
8.0557744838
 21
5.9200688196
 31
0.0
  0
LINE
  5
1CA
330
1C4
100
AcDbEntity
  8
0
  6
Continuous
 62
     7
370
     0
100
AcDbLine
 10
8.0557744838
 20
5.9200688196
 30
0.0
 11
8.0557744838
 21
5.787661415
 31
0.0
  0
LINE
  5
1CB
330
1C4
100
AcDbEntity
  8
0
  6
Continuous
 62
     7
370
     0
100
AcDbLine
 10
8.0557744838
 20
5.787661415
 30
0.0
 11
8.0726726318
 21
5.787661415
 31
0.0
  0
LINE
  5
1CC
330
1C4
100
AcDbEntity
  8
0
  6
Continuous
 62
     7
370
     0
100
AcDbLine
 10
8.4771093528
 20
5.9200688196
 30
0.0
 11
8.4940075008
 21
5.9200688196
 31
0.0
  0
LINE
  5
1CD
330
1C4
100
AcDbEntity
  8
0
  6
Continuous
 62
     7
370
     0
100
AcDbLine
 10
8.4940075008
 20
5.9200688196
 30
0.0
 11
8.4940075008
 21
5.787661415
 31
0.0
  0
LINE
  5
1CE
330
1C4
100
AcDbEntity
  8
0
  6
Continuous
 62
     7
370
     0
100
AcDbLine
 10
8.4940075008
 20
5.787661415
 30
0.0
 11
8.4771093528
 21
5.787661415
 31
0.0
  0
LINE
  5
1CF
330
1C4
100
AcDbEntity
  8
0
  6
Continuous
 62
     7
370
     0
100
AcDbLine
 10
7.4069074773
 20
5.7327319389
 30
0.0
 11
7.4069074773
 21
5.9900688288
 31
0.0
  0
LINE
  5
1D0
330
1C4
100
AcDbEntity
  8
0
  6
Continuous
 62
     7
370
     0
100
AcDbLine
 10
7.5269074773
 20
5.6429114308
 30
0.0
 11
7.5269074773
 21
5.9900688288
 31
0.0
  0
LINE
  5
1D1
330
1C4
100
AcDbEntity
  8
0
  6
Continuous
 62
     7
370
     0
100
AcDbLine
 10
7.4069074773
 20
5.9200688288
 30
0.0
 11
7.1569074773
 21
5.9200688288
 31
0.0
  0
LINE
  5
1D2
330
1C4
100
AcDbEntity
  8
0
  6
Continuous
 62
     7
370
     0
100
AcDbLine
 10
7.5269074773
 20
5.9200688288
 30
0.0
 11
7.9647735619
 21
5.9200688288
 31
0.0
  0
MTEXT
  5
1D3
330
1C4
100
AcDbEntity
  8
0
  6
Continuous
 62
     7
370
     0
100
AcDbMText
 10
8.0441811203
 20
6.0443892781
 30
0.0
 40
0.0833333333
 41
0.0
 71
     1
 72
     1
  1

  7
SLDTEXTSTYLE0
 73
     1
 44
1.0
  0
MTEXT
  5
1D4
330
1C4
100
AcDbEntity
  8
0
  6
Continuous
 62
     7
370
     0
100
AcDbMText
 10
8.1221903621
 20
6.0443892781
 30
0.0
 40
0.0833333333
 41
0.0
 71
     1
 72
     1
  1
0.12in
  7
SLDTEXTSTYLE0
 73
     1
 44
1.0
  0
MTEXT
  5
1D5
330
1C4
100
AcDbEntity
  8
0
  6
Continuous
 62
     7
370
     0
100
AcDbMText
 10
8.0937953177
 20
5.8950837221
 30
0.0
 40
0.0833333333
 41
0.0
 71
     1
 72
     1
  1
3.0mm
  7
SLDTEXTSTYLE0
 73
     1
 44
1.0
  0
MTEXT
  5
1D6
330
1C4
100
AcDbEntity
  8
0
  6
Continuous
 62
     7
370
     0
100
AcDbMText
 10
8.5691810755
 20
6.0443892781
 30
0.0
 40
0.0833333333
 41
0.0
 71
     1
 72
     1
  1

  7
SLDTEXTSTYLE0
 73
     1
 44
1.0
  0
ENDBLK
  5
1C6
330
1C4
100
AcDbEntity
  8
0
100
AcDbBlockEnd
  0
BLOCK
  5
1D9
330
1D8
100
AcDbEntity
  8
0
100
AcDbBlockBegin
  2
_D_3
 70
     0
 10
0.0
 20
0.0
 30
0.0
  3
_D_3
  1
_D_3
  0
SOLID
  5
1DB
330
1D8
100
AcDbEntity
  8
0
  6
Continuous
 62
     7
370
     0
100
AcDbTrace
 10
7.0169074773
 20
6.2815351591
 30
0.0
 11
6.8919074773
 21
6.3015351591
 31
0.0
 12
6.8919074773
 22
6.2615351591
 32
0.0
 13
6.8919074773
 23
6.2615351591
 33
0.0
  0
SOLID
  5
1DC
330
1D8
100
AcDbEntity
  8
0
  6
Continuous
 62
     7
370
     0
100
AcDbTrace
 10
7.5269074773
 20
6.2815351591
 30
0.0
 11
7.6519074773
 21
6.2615351591
 31
0.0
 12
7.6519074773
 22
6.3015351591
 32
0.0
 13
7.6519074773
 23
6.3015351591
 33
0.0
  0
LINE
  5
1DD
330
1D8
100
AcDbEntity
  8
0
  6
Continuous
 62
     7
370
     0
100
AcDbLine
 10
7.0389020583
 20
6.28153515
 30
0.0
 11
7.0220039102
 21
6.28153515
 31
0.0
  0
LINE
  5
1DE
330
1D8
100
AcDbEntity
  8
0
  6
Continuous
 62
     7
370
     0
100
AcDbLine
 10
7.0220039102
 20
6.28153515
 30
0.0
 11
7.0220039102
 21
6.1491277454
 31
0.0
  0
LINE
  5
1DF
330
1D8
100
AcDbEntity
  8
0
  6
Continuous
 62
     7
370
     0
100
AcDbLine
 10
7.0220039102
 20
6.1491277454
 30
0.0
 11
7.0389020583
 21
6.1491277454
 31
0.0
  0
LINE
  5
1E0
330
1D8
100
AcDbEntity
  8
0
  6
Continuous
 62
     7
370
     0
100
AcDbLine
 10
7.504912878
 20
6.28153515
 30
0.0
 11
7.521811026
 21
6.28153515
 31
0.0
  0
LINE
  5
1E1
330
1D8
100
AcDbEntity
  8
0
  6
Continuous
 62
     7
370
     0
100
AcDbLine
 10
7.521811026
 20
6.28153515
 30
0.0
 11
7.521811026
 21
6.1491277454
 31
0.0
  0
LINE
  5
1E2
330
1D8
100
AcDbEntity
  8
0
  6
Continuous
 62
     7
370
     0
100
AcDbLine
 10
7.521811026
 20
6.1491277454
 30
0.0
 11
7.504912878
 21
6.1491277454
 31
0.0
  0
LINE
  5
1E3
330
1D8
100
AcDbEntity
  8
0
  6
Continuous
 62
     7
370
     0
100
AcDbLine
 10
7.0169074773
 20
5.7327319389
 30
0.0
 11
7.0169074773
 21
6.3515351591
 31
0.0
  0
LINE
  5
1E4
330
1D8
100
AcDbEntity
  8
0
  6
Continuous
 62
     7
370
     0
100
AcDbLine
 10
7.5269074773
 20
5.6429114308
 30
0.0
 11
7.5269074773
 21
6.3515351591
 31
0.0
  0
LINE
  5
1E5
330
1D8
100
AcDbEntity
  8
0
  6
Continuous
 62
     7
370
     0
100
AcDbLine
 10
7.0169074773
 20
6.2815351591
 30
0.0
 11
6.7669074773
 21
6.2815351591
 31
0.0
  0
LINE
  5
1E6
330
1D8
100
AcDbEntity
  8
0
  6
Continuous
 62
     7
370
     0
100
AcDbLine
 10
7.5269074773
 20
6.2815351591
 30
0.0
 11
7.7769074773
 21
6.2815351591
 31
0.0
  0
MTEXT
  5
1E7
330
1D8
100
AcDbEntity
  8
0
  6
Continuous
 62
     7
370
     0
100
AcDbMText
 10
7.0104105468
 20
6.4058556085
 30
0.0
 40
0.0833333333
 41
0.0
 71
     1
 72
     1
  1

  7
SLDTEXTSTYLE0
 73
     1
 44
1.0
  0
MTEXT
  5
1E8
330
1D8
100
AcDbEntity
  8
0
  6
Continuous
 62
     7
370
     0
100
AcDbMText
 10
7.119206838
 20
6.4058556085
 30
0.0
 40
0.0833333333
 41
0.0
 71
     1
 72
     1
  1
0.51in
  7
SLDTEXTSTYLE0
 73
     1
 44
1.0
  0
MTEXT
  5
1E9
330
1D8
100
AcDbEntity
  8
0
  6
Continuous
 62
     7
370
     0
100
AcDbMText
 10
7.0600247441
 20
6.2565500525
 30
0.0
 40
0.0833333333
 41
0.0
 71
     1
 72
     1
  1
13.0mm
  7
SLDTEXTSTYLE0
 73
     1
 44
1.0
  0
MTEXT
  5
1EA
330
1D8
100
AcDbEntity
  8
0
  6
Continuous
 62
     7
370
     0
100
AcDbMText
 10
7.5969846373
 20
6.4058556085
 30
0.0
 40
0.0833333333
 41
0.0
 71
     1
 72
     1
  1

  7
SLDTEXTSTYLE0
 73
     1
 44
1.0
  0
ENDBLK
  5
1DA
330
1D8
100
AcDbEntity
  8
0
100
AcDbBlockEnd
  0
BLOCK
  5
1EC
330
1EB
100
AcDbEntity
  8
0
100
AcDbBlockBegin
  2
SW_NOTE_5
 70
     0
 10
0.0
 20
0.0
 30
0.0
  3
SW_NOTE_5
  1
SW_NOTE_5
  0
CIRCLE
  5
1EE
330
1EB
100
AcDbEntity
  8
0
  6
Continuous
 62
     0
370
     0
100
AcDbCircle
 10
-0.1767581325
 20
0.0
 30
0.0
 40
0.176758132519244
  0
MTEXT
  5
1EF
330
1EB
100
AcDbEntity
  8
0
  6
Continuous
 62
     0
370
     0
100
AcDbMText
 10
-0.1780168132
 20
0.0630130583
 30
0.0
 40
0.125
 41
0.0
 71
     2
 72
     1
  1
1
  7
SLDTEXTSTYLE0
 73
     1
 44
1.0
  0
ENDBLK
  5
1ED
330
1EB
100
AcDbEntity
  8
0
100
AcDbBlockEnd
  0
BLOCK
  5
1F4
330
1F3
100
AcDbEntity
  8
0
100
AcDbBlockBegin
  2
SW_NOTE_6
 70
     0
 10
0.0
 20
0.0
 30
0.0
  3
SW_NOTE_6
  1
SW_NOTE_6
  0
CIRCLE
  5
1F6
330
1F3
100
AcDbEntity
  8
0
  6
Continuous
 62
     0
370
     0
100
AcDbCircle
 10
-0.1767581325
 20
0.0
 30
0.0
 40
0.176758132519244
  0
MTEXT
  5
1F7
330
1F3
100
AcDbEntity
  8
0
  6
Continuous
 62
     0
370
     0
100
AcDbMText
 10
-0.1780168132
 20
0.0630130583
 30
0.0
 40
0.125
 41
0.0
 71
     2
 72
     1
  1
3
  7
SLDTEXTSTYLE0
 73
     1
 44
1.0
  0
ENDBLK
  5
1F5
330
1F3
100
AcDbEntity
  8
0
100
AcDbBlockEnd
  0
BLOCK
  5
1FB
330
1FA
100
AcDbEntity
  8
0
100
AcDbBlockBegin
  2
SW_NOTE_7
 70
     0
 10
0.0
 20
0.0
 30
0.0
  3
SW_NOTE_7
  1
SW_NOTE_7
  0
MTEXT
  5
1FE
330
1FA
100
AcDbEntity
  8
0
  6
Continuous
 62
     0
370
     0
100
AcDbMText
 10
0.0229861291
 20
0.0393990287
 30
0.0
 40
0.0833333333
 41
0.0
 71
     1
 72
     1
  1
SM2 (
  7
SLDTEXTSTYLE3
 73
     1
 44
1.0
  0
MTEXT
  5
1FF
330
1FA
100
AcDbEntity
  8
0
  6
Continuous
 62
     0
370
     0
100
AcDbMText
 10
0.3445910639
 20
0.0393990287
 30
0.0
 40
0.0833333333
 41
0.0
 71
     1
 72
     1
  1
%%c
  7
SLDTEXTSTYLE0
 73
     1
 44
1.0
  0
MTEXT
  5
200
330
1FA
100
AcDbEntity
  8
0
  6
Continuous
 62
     0
370
     0
100
AcDbMText
 10
0.4703780941
 20
0.0393990287
 30
0.0
 40
0.0833333333
 41
0.0
 71
     1
 72
     1
  1
2.035-40) SERIES EXTERNAL THREAD
  7
SLDTEXTSTYLE0
 73
     1
 44
1.0
  0
ENDBLK
  5
1FC
330
1FA
100
AcDbEntity
  8
0
100
AcDbBlockEnd
  0
BLOCK
  5
204
330
203
100
AcDbEntity
  8
0
100
AcDbBlockBegin
  2
SW_NOTE_8
 70
     0
 10
0.0
 20
0.0
 30
0.0
  3
SW_NOTE_8
  1
SW_NOTE_8
  0
CIRCLE
  5
206
330
203
100
AcDbEntity
  8
0
  6
Continuous
 62
     0
370
     0
100
AcDbCircle
 10
0.1767581325
 20
0.0
 30
0.0
 40
0.1767581325192437
  0
MTEXT
  5
207
330
203
100
AcDbEntity
  8
0
  6
Continuous
 62
     0
370
     0
100
AcDbMText
 10
0.1754994518
 20
0.0630130583
 30
0.0
 40
0.125
 41
0.0
 71
     2
 72
     1
  1
2
  7
SLDTEXTSTYLE0
 73
     1
 44
1.0
  0
ENDBLK
  5
205
330
203
100
AcDbEntity
  8
0
100
AcDbBlockEnd
  0
BLOCK
  5
20B
330
20A
100
AcDbEntity
  8
0
100
AcDbBlockBegin
  2
SW_NOTE_9
 70
     0
 10
0.0
 20
0.0
 30
0.0
  3
SW_NOTE_9
  1
SW_NOTE_9
  0
MTEXT
  5
20D
330
20A
100
AcDbEntity
  8
0
  6
Continuous
 62
     0
370
     0
100
AcDbMText
 10
-2.2705365533
 20
0.0358446685
 30
0.0
 40
0.0833333333
 41
0.0
 71
     1
 72
     1
  1
SM2 (
  7
SLDTEXTSTYLE3
 73
     1
 44
1.0
  0
MTEXT
  5
20E
330
20A
100
AcDbEntity
  8
0
  6
Continuous
 62
     0
370
     0
100
AcDbMText
 10
-1.9489316185
 20
0.0358446685
 30
0.0
 40
0.0833333333
 41
0.0
 71
     1
 72
     1
  1
%%c
  7
SLDTEXTSTYLE0
 73
     1
 44
1.0
  0
MTEXT
  5
20F
330
20A
100
AcDbEntity
  8
0
  6
Continuous
 62
     0
370
     0
100
AcDbMText
 10
-1.8231445882
 20
0.0358446685
 30
0.0
 40
0.0833333333
 41
0.0
 71
     1
 72
     1
  1
2.035-40) SERIES INTERNAL THREAD
  7
SLDTEXTSTYLE0
 73
     1
 44
1.0
  0
ENDBLK
  5
20C
330
20A
100
AcDbEntity
  8
0
100
AcDbBlockEnd
  0
ENDSEC
  0
SECTION
  2
ENTITIES
  0
LINE
  5
7D
330
1F
100
AcDbEntity
  8
0
  6
Continuous
 62
     7
370
     0
100
AcDbLine
 10
0.0621791378
 20
8.4506055117
 30
0.0
 11
10.9444569626
 21
8.4506055117
 31
0.0
  0
LINE
  5
7E
330
1F
100
AcDbEntity
  8
0
  6
Continuous
 62
     7
370
     0
100
AcDbLine
 10
0.0621791378
 20
8.4506055117
 30
0.0
 11
0.0621791378
 21
0.035557648
 31
0.0
  0
LINE
  5
7F
330
1F
100
AcDbEntity
  8
0
  6
Continuous
 62
     7
370
     0
100
AcDbLine
 10
10.9444569626
 20
0.035557648
 30
0.0
 11
0.0621791378
 21
0.035557648
 31
0.0
  0
LINE
  5
80
330
1F
100
AcDbEntity
  8
0
  6
Continuous
 62
     7
370
     0
100
AcDbLine
 10
10.9444569626
 20
0.035557648
 30
0.0
 11
10.9444569626
 21
8.4506055117
 31
0.0
  0
LINE
  5
81
330
1F
100
AcDbEntity
  8
0
  6
Continuous
 62
     7
370
     0
100
AcDbLine
 10
8.4938096065
 20
0.4840901186
 30
0.0
 11
6.7571952625
 21
0.4840901186
 31
0.0
  0
LINE
  5
82
330
1F
100
AcDbEntity
  8
0
  6
Continuous
 62
     7
370
     0
100
AcDbLine
 10
6.7571952625
 20
0.4840901186
 30
0.0
 11
6.7571952625
 21
1.030163002
 31
0.0
  0
LINE
  5
83
330
1F
100
AcDbEntity
  8
0
  6
Continuous
 62
     7
370
     0
100
AcDbLine
 10
6.7571952625
 20
0.035557648
 30
0.0
 11
6.7571952625
 21
1.030163002
 31
0.0
  0
LINE
  5
84
330
1F
100
AcDbEntity
  8
0
  6
Continuous
 62
     7
370
     0
100
AcDbLine
 10
8.4938096065
 20
0.6756085809
 30
0.0
 11
10.9444569626
 21
0.6756085809
 31
0.0
  0
LINE
  5
85
330
1F
100
AcDbEntity
  8
0
  6
Continuous
 62
     7
370
     0
100
AcDbLine
 10
8.4938096065
 20
1.3873799542
 30
0.0
 11
8.4938096065
 21
0.035557648
 31
0.0
  0
LINE
  5
86
330
1F
100
AcDbEntity
  8
0
  6
Continuous
 62
     7
370
     0
100
AcDbLine
 10
8.4938096065
 20
1.030163002
 30
0.0
 11
6.7571952625
 21
1.030163002
 31
0.0
  0
LINE
  5
87
330
1F
100
AcDbEntity
  8
0
  6
Continuous
 62
     7
370
     0
100
AcDbLine
 10
8.4938096065
 20
0.3598787426
 30
0.0
 11
10.9444569626
 21
0.3598787426
 31
0.0
  0
LINE
  5
88
330
1F
100
AcDbEntity
  8
0
  6
Continuous
 62
     7
370
     0
100
AcDbLine
 10
8.4938096065
 20
0.6662079686
 30
0.0
 11
6.7571952625
 21
0.6662079686
 31
0.0
  0
LINE
  5
89
330
1F
100
AcDbEntity
  8
0
  6
Continuous
 62
     7
370
     0
100
AcDbLine
 10
8.4938096065
 20
0.8459606517
 30
0.0
 11
6.7571952625
 21
0.8459606517
 31
0.0
  0
LINE
  5
8A
330
1F
100
AcDbEntity
  8
0
  6
Continuous
 62
     7
370
     0
100
AcDbLine
 10
7.3281027587
 20
1.030163002
 30
0.0
 11
7.3281027587
 21
0.4840901186
 31
0.0
  0
LINE
  5
8B
330
1F
100
AcDbEntity
  8
0
  6
Continuous
 62
     7
370
     0
100
AcDbLine
 10
7.8037240401
 20
1.030163002
 30
0.0
 11
7.8037240401
 21
0.4840901186
 31
0.0
  0
LINE
  5
8C
330
1F
100
AcDbEntity
  8
0
  6
Continuous
 62
     7
370
     0
100
AcDbLine
 10
9.990119718
 20
0.3598787426
 30
0.0
 11
9.990119718
 21
0.035557648
 31
0.0
  0
LINE
  5
8D
330
1F
100
AcDbEntity
  8
0
  6
Continuous
 62
     7
370
     0
100
AcDbLine
 10
6.7571952625
 20
0.4840901186
 30
0.0
 11
6.7571952625
 21
0.297745443
 31
0.0
  0
LINE
  5
8E
330
1F
100
AcDbEntity
  8
0
  6
Continuous
 62
     7
370
     0
100
AcDbLine
 10
6.7571952625
 20
0.297745443
 30
0.0
 11
8.4938096065
 21
0.297745443
 31
0.0
  0
LINE
  5
8F
330
1F
100
AcDbEntity
  8
0
  6
Continuous
 62
     7
370
     0
100
AcDbLine
 10
6.7571952625
 20
0.297745443
 30
0.0
 11
6.7571952625
 21
1.3873799542
 31
0.0
  0
LINE
  5
90
330
1F
100
AcDbEntity
  8
0
  6
Continuous
 62
     7
370
     0
100
AcDbLine
 10
6.7571952625
 20
1.3873799542
 30
0.0
 11
8.4938096065
 21
1.3873799542
 31
0.0
  0
LINE
  5
91
330
1F
100
AcDbEntity
  8
0
  6
Continuous
 62
     7
370
     0
100
AcDbLine
 10
10.6365495992
 20
0.6756085809
 30
0.0
 11
10.6365495992
 21
0.3598787426
 31
0.0
  0
LINE
  5
92
330
1F
100
AcDbEntity
  8
0
  6
Continuous
 62
     7
370
     0
100
AcDbLine
 10
8.4938096065
 20
1.3873799542
 30
0.0
 11
10.9444569626
 21
1.3873799542
 31
0.0
  0
LINE
  5
93
330
1F
100
AcDbEntity
  8
0
  6
Continuous
 62
     7
370
     0
100
AcDbLine
 10
10.9444569626
 20
1.3873799542
 30
0.0
 11
10.9444569626
 21
1.9698084888
 31
0.0
  0
LINE
  5
94
330
1F
100
AcDbEntity
  8
0
  6
Continuous
 62
     7
370
     0
100
AcDbLine
 10
8.4938096065
 20
0.9800288797
 30
0.0
 11
10.9444569626
 21
0.9800288797
 31
0.0
  0
INSERT
  5
95
330
1F
100
AcDbEntity
  8
0
  6
Continuous
 62
     7
100
AcDbBlockReference
  2
Third Angle Projection Block
 10
4.6348905679
 20
0.6108753523
 30
0.0
 41
0.8
 42
0.8
 43
0.8
  0
MTEXT
  5
97
330
1F
100
AcDbEntity
  8
0
  6
Continuous
 62
     7
370
     0
100
AcDbMText
 10
10.7892734632
 20
0.5227176726
 30
0.0
 40
0.125
 41
0.0
 71
     2
 72
     1
  1
A
  7
SLDTEXTSTYLE0
 73
     1
 44
1.0
  0
MTEXT
  5
98
330
1F
100
AcDbEntity
  8
0
  6
Continuous
 62
     7
370
     0
100
AcDbMText
 10
9.2285187496
 20
0.2019943461
 30
0.0
 40
0.125
 41
0.0
 71
     2
 72
     1
  1
LA4337-ML
  7
SLDTEXTSTYLE0
 73
     1
 44
1.0
  0
MTEXT
  5
99
330
1F
100
AcDbEntity
  8
0
  6
Continuous
 62
     7
370
     0
100
AcDbMText
 10
8.5204715199
 20
0.6623747189
 30
0.0
 40
0.0833333333
 41
0.0
 71
     1
 72
     1
  1
MATERIAL
  7
SLDTEXTSTYLE0
 73
     1
 44
1.0
  0
MTEXT
  5
9A
330
1F
100
AcDbEntity
  8
0
  6
Continuous
 62
     7
370
     0
100
AcDbMText
 10
6.8594860853
 20
0.7895493672
 30
0.0
 40
0.0729166667
 41
0.0
 71
     1
 72
     1
  1
DRAWN
  7
SLDTEXTSTYLE0
 73
     1
 44
1.0
  0
MTEXT
  5
9B
330
1F
100
AcDbEntity
  8
0
  6
Continuous
 62
     7
370
     0
100
AcDbMText
 10
6.7872445848
 20
0.613335314
 30
0.0
 40
0.0729166667
 41
0.0
 71
     1
 72
     1
  1
APPROVAL
  7
SLDTEXTSTYLE0
 73
     1
 44
1.0
  0
MTEXT
  5
9C
330
1F
100
AcDbEntity
  8
0
  6
Continuous
 62
     7
370
     0
100
AcDbMText
 10
10.6936137314
 20
0.6373332609
 30
0.0
 40
0.0833333333
 41
0.0
 71
     1
 72
     1
  1
REV
  7
SLDTEXTSTYLE0
 73
     1
 44
1.0
  0
MTEXT
  5
9D
330
1F
100
AcDbEntity
  8
0
  6
Continuous
 62
     7
370
     0
100
AcDbMText
 10
7.4919633718
 20
0.7999100272
 30
0.0
 40
0.0833333333
 41
0.0
 71
     1
 72
     1
  1
GG
  7
SLDTEXTSTYLE0
 73
     1
 44
1.0
  0
MTEXT
  5
9E
330
1F
100
AcDbEntity
  8
0
  6
Continuous
 62
     7
370
     0
100
AcDbMText
 10
7.4919633718
 20
0.623695974
 30
0.0
 40
0.0833333333
 41
0.0
 71
     1
 72
     1
  1
DD
  7
SLDTEXTSTYLE0
 73
     1
 44
1.0
  0
MTEXT
  5
9F
330
1F
100
AcDbEntity
  8
0
  6
Continuous
 62
     7
370
     0
100
AcDbMText
 10
7.8687497515
 20
0.7999100272
 30
0.0
 40
0.0833333333
 41
0.0
 71
     1
 72
     1
  1
13/OCT/15
  7
SLDTEXTSTYLE0
 73
     1
 44
1.0
  0
MTEXT
  5
A0
330
1F
100
AcDbEntity
  8
0
  6
Continuous
 62
     7
370
     0
100
AcDbMText
 10
8.0163191884
 20
0.9772495896
 30
0.0
 40
0.0833333333
 41
0.0
 71
     1
 72
     1
  1
DATE
  7
SLDTEXTSTYLE0
 73
     1
 44
1.0
  0
MTEXT
  5
A1
330
1F
100
AcDbEntity
  8
0
  6
Continuous
 62
     7
370
     0
100
AcDbMText
 10
7.8687497515
 20
0.623695974
 30
0.0
 40
0.0833333333
 41
0.0
 71
     1
 72
     1
  1
13/OCT/15
  7
SLDTEXTSTYLE0
 73
     1
 44
1.0
  0
MTEXT
  5
A3
330
1F
100
AcDbEntity
  8
0
  6
Continuous
 62
     7
370
     0
100
AcDbMText
 10
9.0316104912
 20
1.0943207896
 30
0.0
 40
0.0833333333
 41
0.0
 71
     1
 72
     1
  1
w w w . t h o r  l a b s . c o m
  7
SLDTEXTSTYLE1
 73
     1
 44
1.0
  0
MTEXT
  5
A4
330
1F
100
AcDbEntity
  8
0
  6
Continuous
 62
     7
370
     0
100
AcDbMText
 10
8.5315119501
 20
0.328719653
 30
0.0
 40
0.0833333333
 41
0.0
 71
     1
 72
     1
  1
ITEM #
  7
SLDTEXTSTYLE0
 73
     1
 44
1.0
  0
MTEXT
  5
A5
330
1F
100
AcDbEntity
  8
0
  6
Continuous
 62
     7
370
     0
100
AcDbMText
 10
10.0209370115
 20
0.328719653
 30
0.0
 40
0.0833333333
 41
0.0
 71
     1
 72
     1
  1
APPROX WEIGHT
  7
SLDTEXTSTYLE0
 73
     1
 44
1.0
  0
MTEXT
  5
A6
330
1F
100
AcDbEntity
  8
0
  6
Continuous
 62
     7
370
     0
100
AcDbMText
 10
9.5949135982
 20
0.5414715262
 30
0.0
 40
0.125
 41
0.0
 71
     2
 72
     1
  1
SEE TABLE
  7
SLDTEXTSTYLE0
 73
     1
 44
1.0
  0
MTEXT
  5
A8
330
1F
100
AcDbEntity
  8
0
  6
Continuous
 62
     7
370
     0
100
AcDbMText
 10
10.4826226539
 20
0.2019943461
 30
0.0
 40
0.125
 41
0.0
 71
     2
 72
     1
  1
29 g
  7
SLDTEXTSTYLE2
 73
     1
 44
1.0
  0
INSERT
  5
AE
330
1F
100
AcDbEntity
  8
0
  6
Continuous
 62
     7
370
     0
100
AcDbBlockReference
  2
SW_NOTE_0
 10
6.8835832285
 20
0.1754273811
 30
0.0
  0
INSERT
  5
B4
330
1F
100
AcDbEntity
  8
0
  6
Continuous
 62
     7
370
     0
100
AcDbBlockReference
  2
SW_NOTE_1
 10
6.8719828753
 20
1.2001390658
 30
0.0
  0
MTEXT
  5
B5
330
1F
100
AcDbEntity
  8
0
  6
Continuous
 62
     7
370
     0
100
AcDbMText
 10
7.3987149145
 20
0.9772495896
 30
0.0
 40
0.0833333333
 41
0.0
 71
     1
 72
     1
  1
NAME
  7
SLDTEXTSTYLE0
 73
     1
 44
1.0
  0
INSERT
  5
BC
330
1F
100
AcDbEntity
  8
0
  6
Continuous
 62
     7
370
     0
100
AcDbBlockReference
  2
SW_NOTE_2
 10
8.5544172856
 20
0.8160048101
 30
0.0
  0
MTEXT
  5
BD
330
1F
100
AcDbEntity
  8
0
  6
Continuous
 62
     7
370
     0
100
AcDbMText
 10
7.0281258754
 20
0.4200025137
 30
0.0
 40
0.0625
 41
0.0
 71
     1
 72
     1
  1
COPYRIGHT © 2015 BY THORLABS
  7
SLDTEXTSTYLE0
 73
     1
 44
1.0
  0
INSERT
  5
C3
330
1F
100
AcDbEntity
  8
0
  6
Continuous
 62
     7
370
     0
100
AcDbBlockReference
  2
SW_NOTE_3
 10
2.1096529316
 20
0.3219551564
 30
0.0
  0
INSERT
  5
D6
330
1F
100
AcDbEntity
  8
0
  6
Continuous
 62
     7
370
     0
100
AcDbBlockReference
  2
SW_NOTE_4
 10
0.2229009106
 20
1.7636814979
 30
0.0
  0
INSERT
  5
100
330
1F
100
AcDbEntity
  8
0
  6
Continuous
 62
     7
370
     0
100
AcDbBlockReference
  2
SW_TABLEANNOTATION_0
 10
0.0612779343
 20
8.4504327236
 30
0.0
  0
ARC
  5
101
330
1F
100
AcDbEntity
  8
0
  6
Continuous
 62
     7
370
     0
100
AcDbCircle
 10
3.1996827559
 20
4.5927319389
 30
0.0
 40
1.000179491924313
100
AcDbArc
 50
0.8593146732
 51
179.1406853268
  0
LINE
  5
102
330
1F
100
AcDbEntity
  8
0
  6
Continuous
 62
     7
370
     0
100
AcDbLine
 10
2.1996157421
 20
4.6077319385
 30
0.0
 11
2.1822933622
 21
4.6077319385
 31
0.0
  0
LINE
  5
103
330
1F
100
AcDbEntity
  8
0
  6
Continuous
 62
     7
370
     0
100
AcDbLine
 10
4.2170721496
 20
4.6077319385
 30
0.0
 11
4.1997497697
 21
4.6077319385
 31
0.0
  0
ARC
  5
104
330
1F
100
AcDbEntity
  8
0
  6
Continuous
 62
     7
370
     0
100
AcDbCircle
 10
3.1996827559
 20
4.5927319389
 30
0.0
 40
0.9500000000000006
100
AcDbArc
 50
0.9047077972
 51
179.0952922028
  0
LINE
  5
105
330
1F
100
AcDbEntity
  8
0
  6
Continuous
 62
     7
370
     0
100
AcDbLine
 10
2.2498011957
 20
4.6077319385
 30
0.0
 11
2.2397999645
 21
4.6077319385
 31
0.0
  0
ARC
  5
106
330
1F
100
AcDbEntity
  8
0
  6
Continuous
 62
     7
370
     0
100
AcDbCircle
 10
3.1996827559
 20
4.5927319389
 30
0.0
 40
0.9600000000000017
100
AcDbArc
 50
0.8952829866
 51
179.1047170134
  0
LINE
  5
107
330
1F
100
AcDbEntity
  8
0
  6
Continuous
 62
     7
370
     0
100
AcDbLine
 10
4.1595655472
 20
4.6077319385
 30
0.0
 11
4.1495643161
 21
4.6077319385
 31
0.0
  0
LINE
  5
108
330
1F
100
AcDbEntity
  8
0
  6
Continuous
 62
     7
370
     0
100
AcDbLine
 10
4.1997497697
 20
4.6077319385
 30
0.0
 11
4.1595655472
 21
4.6077319385
 31
0.0
  0
LINE
  5
109
330
1F
100
AcDbEntity
  8
0
  6
Continuous
 62
     7
370
     0
100
AcDbLine
 10
2.2397999645
 20
4.6077319385
 30
0.0
 11
2.1996157421
 21
4.6077319385
 31
0.0
  0
ARC
  5
10A
330
1F
100
AcDbEntity
  8
0
  6
Continuous
 62
     7
370
     0
100
AcDbCircle
 10
3.1996827559
 20
4.5927319389
 30
0.0
 40
1.000179491924313
100
AcDbArc
 50
180.8593146732
 51
359.1406853268
  0
LINE
  5
10B
330
1F
100
AcDbEntity
  8
0
  6
Continuous
 62
     7
370
     0
100
AcDbLine
 10
4.1997497697
 20
4.5777319393
 30
0.0
 11
4.2170721496
 21
4.5777319393
 31
0.0
  0
LINE
  5
10C
330
1F
100
AcDbEntity
  8
0
  6
Continuous
 62
     7
370
     0
100
AcDbLine
 10
2.1822933622
 20
4.5777319393
 30
0.0
 11
2.1996157421
 21
4.5777319393
 31
0.0
  0
ARC
  5
10D
330
1F
100
AcDbEntity
  8
0
  6
Continuous
 62
     7
370
     0
100
AcDbCircle
 10
3.1996827559
 20
4.5927319389
 30
0.0
 40
0.9600000000000017
100
AcDbArc
 50
180.8952829866
 51
359.1047170134
  0
LINE
  5
10E
330
1F
100
AcDbEntity
  8
0
  6
Continuous
 62
     7
370
     0
100
AcDbLine
 10
4.1595655472
 20
4.5777319393
 30
0.0
 11
4.1997497697
 21
4.5777319393
 31
0.0
  0
LINE
  5
10F
330
1F
100
AcDbEntity
  8
0
  6
Continuous
 62
     7
370
     0
100
AcDbLine
 10
2.1996157421
 20
4.5777319393
 30
0.0
 11
2.2397999645
 21
4.5777319393
 31
0.0
  0
ARC
  5
110
330
1F
100
AcDbEntity
  8
0
  6
Continuous
 62
     7
370
     0
100
AcDbCircle
 10
3.1996827559
 20
4.5927319389
 30
0.0
 40
0.9500000000000006
100
AcDbArc
 50
180.9047077972
 51
359.0952922028
  0
LINE
  5
111
330
1F
100
AcDbEntity
  8
0
  6
Continuous
 62
     7
370
     0
100
AcDbLine
 10
4.1495643161
 20
4.5777319393
 30
0.0
 11
4.1595655472
 21
4.5777319393
 31
0.0
  0
LINE
  5
112
330
1F
100
AcDbEntity
  8
0
  6
Continuous
 62
     7
370
     0
100
AcDbLine
 10
2.2397999645
 20
4.5777319393
 30
0.0
 11
2.2498011957
 21
4.5777319393
 31
0.0
  0
ARC
  5
113
330
1F
100
AcDbEntity
  8
0
  6
Continuous
 62
     7
370
     0
100
AcDbCircle
 10
3.1996827559
 20
4.5927319389
 30
0.0
 40
0.9500000000000006
100
AcDbArc
 50
359.0952922028
 51
0.9047077972
  0
ARC
  5
114
330
1F
100
AcDbEntity
  8
0
  6
Continuous
 62
     7
370
     0
100
AcDbCircle
 10
3.1996827559
 20
4.5927319389
 30
0.0
 40
0.9499999999999997
100
AcDbArc
 50
179.0952922028
 51
180.9047077972
  0
CIRCLE
  5
115
330
1F
100
AcDbEntity
  8
0
  6
Continuous
 62
     7
370
     0
100
AcDbCircle
 10
3.1996827559
 20
4.5927319389
 30
0.0
 40
1.1
  0
CIRCLE
  5
116
330
1F
100
AcDbEntity
  8
0
  6
Continuous
 62
     7
370
     0
100
AcDbCircle
 10
3.1996827559
 20
4.5927319389
 30
0.0
 40
1.090000000000001
  0
CIRCLE
  5
117
330
1F
100
AcDbEntity
  8
0
  6
Continuous
 62
     7
370
     0
100
AcDbCircle
 10
3.1996827559
 20
4.5927319389
 30
0.0
 40
1.034820508075689
  0
CIRCLE
  5
118
330
1F
100
AcDbEntity
  8
0
  6
Continuous
 62
     7
370
     0
100
AcDbCircle
 10
3.1996827559
 20
4.5927319389
 30
0.0
 40
1.0175
  0
DIMENSION
  5
119
330
1F
100
AcDbEntity
  8
0
  6
Continuous
 62
     7
370
     0
100
AcDbDimension
  2
_D
 10
2.6496827559
 20
3.6401039947
 30
0.0
 11
4.4827077327
 21
6.094257525
 31
0.0
 70
   163
  1
<>
 71
     1
 42
-1.0
  3
SLDDIMSTYLE0
100
AcDbDiametricDimension
 15
3.7496827559
 25
5.545359883
 35
0.0
 40
0.0
  0
LINE
  5
12A
330
1F
100
AcDbEntity
  8
0
  6
PHANTOM
 62
     7
370
    30
100
AcDbLine
 10
3.1996827559
 20
5.9567319389
 30
0.0
 11
3.1996827559
 21
3.2287319389
 31
0.0
  0
LINE
  5
12B
330
1F
100
AcDbEntity
  8
0
  6
Continuous
 62
     7
370
    30
100
AcDbLine
 10
3.1996827559
 20
5.9567319389
 30
0.0
 11
2.8496827559
 21
5.9567319389
 31
0.0
  0
SOLID
  5
12C
330
1F
100
AcDbEntity
  8
0
  6
Continuous
 62
     7
370
    30
100
AcDbTrace
 10
2.8496827559
 20
5.9567319389
 30
0.0
 11
2.9996827559
 21
5.9317319389
 31
0.0
 12
2.9996827559
 22
5.9817319389
 32
0.0
 13
2.9996827559
 23
5.9817319389
 33
0.0
  0
LINE
  5
12D
330
1F
100
AcDbEntity
  8
0
  6
Continuous
 62
     7
370
    30
100
AcDbLine
 10
3.1996827559
 20
3.2287319389
 30
0.0
 11
2.8496827559
 21
3.2287319389
 31
0.0
  0
SOLID
  5
12E
330
1F
100
AcDbEntity
  8
0
  6
Continuous
 62
     7
370
    30
100
AcDbTrace
 10
2.8496827559
 20
3.2287319389
 30
0.0
 11
2.9996827559
 21
3.2037319389
 31
0.0
 12
2.9996827559
 22
3.2537319389
 32
0.0
 13
2.9996827559
 23
3.2537319389
 33
0.0
  0
MTEXT
  5
12F
330
1F
100
AcDbEntity
  8
0
  6
Continuous
 62
     7
100
AcDbMText
 10
2.7155715606
 20
6.0394795188
 30
0.0
 40
0.1041666667
 41
0.0
 71
     1
 72
     1
  1
A
  7
SLDTEXTSTYLE0
 73
     1
 44
1.0
  0
MTEXT
  5
130
330
1F
100
AcDbEntity
  8
0
  6
Continuous
 62
     7
100
AcDbMText
 10
2.7155715606
 20
3.3114795188
 30
0.0
 40
0.1041666667
 41
0.0
 71
     1
 72
     1
  1
A
  7
SLDTEXTSTYLE0
 73
     1
 44
1.0
  0
LINE
  5
131
330
1F
100
AcDbEntity
  8
0
  6
Continuous
 62
     7
370
     0
100
AcDbLine
 10
8.8704110233
 20
7.5769237012
 30
0.0
 11
8.8704110233
 21
7.5687596201
 31
0.0
  0
LINE
  5
132
330
1F
100
AcDbEntity
  8
0
  6
Continuous
 62
     7
370
     0
100
AcDbLine
 10
9.6410321468
 20
6.2338600416
 30
0.0
 11
9.6481020654
 21
6.2297773376
 31
0.0
  0
LINE
  5
133
330
1F
100
AcDbEntity
  8
0
  6
Continuous
 62
     7
370
     0
100
AcDbLine
 10
9.3599026887
 20
8.231588489
 30
0.0
 11
9.0982731797
 21
8.0805529883
 31
0.0
  0
LINE
  5
134
330
1F
100
AcDbEntity
  8
0
  6
Continuous
 62
     7
370
     0
100
AcDbLine
 10
10.1981837856
 20
6.1752454911
 30
0.0
 11
10.4598132946
 21
6.3262809918
 31
0.0
  0
LINE
  5
135
330
1F
100
AcDbEntity
  8
0
  6
Continuous
 62
     7
370
     0
100
AcDbLine
 10
10.687675451
 20
6.8299102789
 30
0.0
 11
10.687675451
 21
6.83807436
 31
0.0
  0
LINE
  5
136
330
1F
100
AcDbEntity
  8
0
  6
Continuous
 62
     7
370
     0
100
AcDbLine
 10
9.9170543274
 20
8.1729739385
 30
0.0
 11
9.9099844089
 21
8.1770566425
 31
0.0
  0
LWPOLYLINE
  5
137
330
1F
100
AcDbEntity
  8
0
  6
Continuous
 62
     7
370
     0
100
AcDbPolyline
 90
       21
 70
   128
 43
0.0
 10
9.2416718754
 20
8.0480705276
 10
9.2339578488
 20
8.0435317734
 10
9.2146660046
 20
8.0308990653
 10
9.1962104337
 20
8.0169140331
 10
9.1786205025
 20
8.0015989295
 10
9.1619241995
 20
7.9849781235
 10
9.1461480919
 20
7.9670780621
 10
9.131317282
 20
7.9479272273
 10
9.1174553686
 20
7.9275560917
 10
9.1045844085
 20
7.9059970694
 10
9.0927248815
 20
7.8832844648
 10
9.0818956585
 20
7.8594544178
 10
9.0721139708
 20
7.8345448463
 10
9.0633953826
 20
7.8085953859
 10
9.055753767
 20
7.781647327
 10
9.049201283
 20
7.7537435489
 10
9.043748357
 20
7.7249284515
 10
9.0394036654
 20
7.6952478849
 10
9.0361741216
 20
7.6647490763
 10
9.0340648642
 20
7.6334805548
 10
9.0330792495
 20
7.6014920744
  0
LINE
  5
138
330
1F
100
AcDbEntity
  8
0
  6
Continuous
 62
     7
370
     0
100
AcDbLine
 10
9.0330792495
 20
7.6014920744
 30
0.0
 11
9.0279015145
 21
7.6126451983
 31
0.0
  0
ARC
  5
139
330
1F
100
AcDbEntity
  8
0
  6
Continuous
 62
     7
370
     0
100
AcDbCircle
 10
9.5664087137
 20
7.6455731318
 30
0.0
 40
0.5395129770887496
100
AcDbArc
 50
134.0231420724
 51
183.4990907424
  0
LWPOLYLINE
  5
13A
330
1F
100
AcDbEntity
  8
0
  6
Continuous
 62
     7
370
     0
100
AcDbPolyline
 90
        3
 70
   128
 43
0.0
 10
9.0384646505
 20
7.5983831486
 10
9.0384739104
 20
7.5973536639
 10
9.0385081162
 20
7.5942720348
  0
LINE
  5
13B
330
1F
100
AcDbEntity
  8
0
  6
Continuous
 62
     7
370
     0
100
AcDbLine
 10
9.0279015145
 20
7.588148974
 30
0.0
 11
9.0385081162
 21
7.5942720348
 31
0.0
  0
LWPOLYLINE
  5
13C
330
1F
100
AcDbEntity
  8
0
  6
Continuous
 62
     7
370
     0
100
AcDbPolyline
 90
       58
 70
   128
 43
0.0
 10
10.2040581755
 20
6.2794789517
 10
10.1987462029
 20
6.2775541942
 10
10.1760404871
 20
6.2703827215
 10
10.1526523504
 20
6.2646671997
 10
10.1286190198
 20
6.2604167261
 10
10.1039787492
 20
6.2576380661
 10
10.0787707586
 20
6.2563356427
 10
10.0530351718
 20
6.2565115288
 10
10.0268129521
 20
6.2581654445
 10
10.0001458376
 20
6.2612947573
 10
9.9730762744
 20
6.2658944863
 10
9.9456473493
 20
6.27195731
 10
9.917902721
 20
6.2794735781
 10
9.8898865507
 20
6.2884313271
 10
9.861643432
 20
6.2988162988
 10
9.8332183195
 20
6.3106119635
 10
9.8046564575
 20
6.3237995459
 10
9.7760033082
 20
6.3383580552
 10
9.7473044788
 20
6.3542643188
 10
9.7186056494
 20
6.3714930184
 10
9.6899525
 20
6.3900167311
 10
9.661390638
 20
6.4098059726
 10
9.6329655255
 20
6.4308292443
 10
9.6047224068
 20
6.4530530834
 10
9.5767062365
 20
6.476442116
 10
9.5489616082
 20
6.5009591138
 10
9.5215326831
 20
6.526565053
 10
9.4944631199
 20
6.5532191765
 10
9.4677960054
 20
6.5808790587
 10
9.4415737857
 20
6.6095006734
 10
9.4158381989
 20
6.6390384634
 10
9.3906302083
 20
6.6694454132
 10
9.3659899377
 20
6.700673124
 10
9.3419566071
 20
6.7326718906
 10
9.3185684704
 20
6.7653907803
 10
9.2958627546
 20
6.7987777143
 10
9.2738756005
 20
6.8327795506
 10
9.2526420052
 20
6.8673421682
 10
9.2321957663
 20
6.9024105537
 10
9.2125694281
 20
6.9379288886
 10
9.1937942299
 20
6.9738406382
 10
9.1759000564
 20
7.0100886416
 10
9.1589153897
 20
7.0466152027
 10
9.1428672644
 20
7.0833621821
 10
9.1277812244
 20
7.1202710894
 10
9.1136812822
 20
7.1572831766
 10
9.1005898808
 20
7.1943395313
 10
9.0885278577
 20
7.2313811707
 10
9.0775144122
 20
7.2683491357
 10
9.0675670743
 20
7.305184584
 10
9.0587016774
 20
7.3418288846
 10
9.0509323325
 20
7.3782237106
 10
9.0442714061
 20
7.4143111321
 10
9.0387295004
 20
7.4500337087
 10
9.0343154366
 20
7.4853345806
 10
9.0310362404
 20
7.5201575592
 10
9.0288971314
 20
7.5544472167
 10
9.0279015145
 20
7.588148974
  0
LWPOLYLINE
  5
13D
330
1F
100
AcDbEntity
  8
0
  6
Continuous
 62
     7
370
     0
100
AcDbPolyline
 90
       26
 70
   128
 43
0.0
 10
9.0614937701
 20
7.5850887208
 10
9.0624960612
 20
7.6165676672
 10
9.0646333362
 20
7.647317204
 10
9.067902016
 20
7.6772858361
 10
9.0722966266
 20
7.706423376
 10
9.0778098085
 20
7.7346810281
 10
9.084432329
 20
7.7620114701
 10
9.0921530975
 20
7.7883689327
 10
9.1009591844
 20
7.813709276
 10
9.1108358424
 20
7.8379900634
 10
9.1217665314
 20
7.8611706325
 10
9.133732946
 20
7.8832121638
 10
9.1467150467
 20
7.9040777449
 10
9.1606910926
 20
7.9237324331
 10
9.1756376786
 20
7.9421433132
 10
9.1915297741
 20
7.9592795531
 10
9.2083407652
 20
7.9751124555
 10
9.226042499
 20
7.9896155054
 10
9.2446053311
 20
8.0027644151
 10
9.263998175
 20
8.0145371645
 10
9.2841885539
 20
8.0249140382
 10
9.3051426559
 20
8.0338776585
 10
9.3268253898
 20
8.0414130142
 10
9.3492004442
 20
8.0475074861
 10
9.3722303483
 20
8.052150868
 10
9.3812009766
 20
8.0535410943
  0
LINE
  5
13E
330
1F
100
AcDbEntity
  8
0
  6
Continuous
 62
     7
370
     0
100
AcDbLine
 10
9.0614937701
 20
7.5850887208
 30
0.0
 11
9.0330792495
 21
7.6014920744
 31
0.0
  0
LWPOLYLINE
  5
13F
330
1F
100
AcDbEntity
  8
0
  6
Continuous
 62
     7
370
     0
100
AcDbPolyline
 90
       26
 70
   128
 43
0.0
 10
9.3968925952
 20
8.051480328
 10
9.3883453718
 20
8.0501525477
 10
9.3655568079
 20
8.0455602289
 10
9.3434160757
 20
8.0395322253
 10
9.3219602457
 20
8.0320786295
 10
9.3012252416
 20
8.0232119214
 10
9.2812457803
 20
8.0129469464
 10
9.2620553137
 20
8.0013008913
 10
9.2436859725
 20
7.9882932554
 10
9.2261685129
 20
7.9739458174
 10
9.2095322645
 20
7.9582825994
 10
9.1938050815
 20
7.9413298266
 10
9.1790132962
 20
7.9231158832
 10
9.1651816747
 20
7.903671265
 10
9.1523333754
 20
7.8830285283
 10
9.1404899104
 20
7.8612222356
 10
9.1296711093
 20
7.8382888974
 10
9.1198950862
 20
7.8142669113
 10
9.1111782092
 20
7.7891964976
 10
9.103535073
 20
7.7631196319
 10
9.0969784747
 20
7.7360799751
 10
9.0915193921
 20
7.7081228001
 10
9.0871669654
 20
7.6792949158
 10
9.0839284818
 20
7.6496445891
 10
9.0818093637
 20
7.619221464
 10
9.0808131591
 20
7.5880764783
  0
LINE
  5
140
330
1F
100
AcDbEntity
  8
0
  6
Continuous
 62
     7
370
     0
100
AcDbLine
 10
9.0808131591
 20
7.5880764783
 30
0.0
 11
9.0614937701
 21
7.5850887208
 31
0.0
  0
LWPOLYLINE
  5
141
330
1F
100
AcDbEntity
  8
0
  6
Continuous
 62
     7
370
     0
100
AcDbPolyline
 90
       64
 70
   128
 43
0.0
 10
9.0808131591
 20
7.5635802539
 10
9.0818093637
 20
7.5312850748
 10
9.0839284818
 20
7.4984152679
 10
9.0871669654
 20
7.4650258678
 10
9.0915193921
 20
7.4311727785
 10
9.0969784747
 20
7.3969126808
 10
9.103535073
 20
7.3623029368
 10
9.1111782092
 20
7.327401494
 10
9.1198950862
 20
7.2922667883
 10
9.1296711093
 20
7.2569576461
 10
9.1404899104
 20
7.2215331861
 10
9.1523333754
 20
7.1860527197
 10
9.1651816747
 20
7.1505756525
 10
9.1790132962
 20
7.115161384
 10
9.1938050815
 20
7.0798692088
 10
9.2095322645
 20
7.044758217
 10
9.2261685129
 20
7.0098871955
 10
9.2436859725
 20
6.9753145291
 10
9.2620553137
 20
6.9410981033
 10
9.2812457803
 20
6.9072952071
 10
9.3012252416
 20
6.8739624371
 10
9.3219602457
 20
6.8411556028
 10
9.3434160757
 20
6.808929633
 10
9.3655568079
 20
6.7773384841
 10
9.3883453718
 20
6.7464350495
 10
9.4117436121
 20
6.7162710713
 10
9.4357123531
 20
6.6868970533
 10
9.4602114633
 20
6.6583621768
 10
9.4851999239
 20
6.6307142181
 10
9.5106358961
 20
6.6039994686
 10
9.5364767924
 20
6.578262657
 10
9.5626793469
 20
6.5535468748
 10
9.5891996883
 20
6.529893504
 10
9.6159934135
 20
6.5073421477
 10
9.6430156613
 20
6.4859305638
 10
9.6702211879
 20
6.4656946022
 10
9.697564443
 20
6.446668144
 10
9.7249996452
 20
6.4288830456
 10
9.7524808597
 20
6.4123690846
 10
9.7799620741
 20
6.3971539108
 10
9.8073972763
 20
6.3832629989
 10
9.8347405314
 20
6.3707196068
 10
9.8619460581
 20
6.359544736
 10
9.8889683058
 20
6.3497570966
 10
9.915762031
 20
6.3413730764
 10
9.9422823724
 20
6.3344067127
 10
9.9684849269
 20
6.3288696694
 10
9.9943258232
 20
6.3247712172
 10
10.0197617954
 20
6.3221182183
 10
10.044750256
 20
6.3209151146
 10
10.0692493663
 20
6.3211639204
 10
10.0932181072
 20
6.3228642192
 10
10.1166163475
 20
6.3260131642
 10
10.1394049114
 20
6.330605483
 10
10.1615456436
 20
6.3366334866
 10
10.1830014736
 20
6.3440870823
 10
10.2037364777
 20
6.3529537905
 10
10.223715939
 20
6.3632187655
 10
10.2429064056
 20
6.3748648205
 10
10.2612757468
 20
6.3878724565
 10
10.2787932064
 20
6.4022198945
 10
10.2954294548
 20
6.4178831124
 10
10.3111566378
 20
6.4348358852
 10
10.3223414621
 20
6.4483821717
  0
LINE
  5
142
330
1F
100
AcDbEntity
  8
0
  6
Continuous
 62
     7
370
     0
100
AcDbLine
 10
9.0862433799
 20
7.5667150537
 30
0.0
 11
9.0808131591
 21
7.5635802539
 31
0.0
  0
ARC
  5
143
330
1F
100
AcDbEntity
  8
0
  6
Continuous
 62
     7
370
     0
100
AcDbCircle
 10
9.9818973518
 20
7.5789631658
 30
0.0
 40
0.8957377147145936
100
AcDbArc
 50
179.2165262291
 51
180.7834737709
  0
LINE
  5
144
330
1F
100
AcDbEntity
  8
0
  6
Continuous
 62
     7
370
     0
100
AcDbLine
 10
9.0808131591
 20
7.5880764783
 30
0.0
 11
9.0862433799
 21
7.591211278
 31
0.0
  0
LWPOLYLINE
  5
145
330
1F
100
AcDbEntity
  8
0
  6
Continuous
 62
     7
370
     0
100
AcDbPolyline
 90
       58
 70
   128
 43
0.0
 10
9.8038730212
 20
6.442037148
 10
9.7764732297
 20
6.4585002605
 10
9.7491190425
 20
6.4762270707
 10
9.7218559878
 20
6.4951880743
 10
9.6947294424
 20
6.5153517123
 10
9.6677845557
 20
6.5366844246
 10
9.6410661748
 20
6.5591507047
 10
9.6146187699
 20
6.58271316
 10
9.58848636
 20
6.6073325729
 10
9.5627124399
 20
6.632967967
 10
9.5373399078
 20
6.6595766745
 10
9.5124109938
 20
6.687114408
 10
9.4879671895
 20
6.7155353336
 10
9.4640491794
 20
6.7447921474
 10
9.4406967724
 20
6.7748361545
 10
9.4179488366
 20
6.8056173495
 10
9.3958432334
 20
6.8370845001
 10
9.3744167555
 20
6.8691852325
 10
9.3537050652
 20
6.901866118
 10
9.3337426351
 20
6.9350727626
 10
9.3145626906
 20
6.968749897
 10
9.2961971548
 20
7.0028414692
 10
9.2786765954
 20
7.0372907368
 10
9.2620301736
 20
7.0720403627
 10
9.2462855958
 20
7.1070325094
 10
9.2314690672
 20
7.1422089359
 10
9.2176052485
 20
7.1775110947
 10
9.2047172147
 20
7.2128802286
 10
9.1928264166
 20
7.2482574693
 10
9.1819526452
 20
7.2835839349
 10
9.1721139989
 20
7.318800828
 10
9.1633268532
 20
7.3538495334
 10
9.1556058334
 20
7.3886717161
 10
9.1489637903
 20
7.423209418
 10
9.143411779
 20
7.4574051546
 10
9.1389590402
 20
7.4912020103
 10
9.1356129852
 20
7.5245437336
 10
9.133379183
 20
7.5573748306
 10
9.1322613517
 20
7.5896406571
 10
9.1322613517
 20
7.6212875098
 10
9.133379183
 20
7.6522627157
 10
9.1356129852
 20
7.6825147197
 10
9.1389590402
 20
7.7119931701
 10
9.143411779
 20
7.7406490031
 10
9.1489637903
 20
7.7684345238
 10
9.1556058334
 20
7.795303486
 10
9.1633268532
 20
7.8212111689
 10
9.1721139989
 20
7.8461144519
 10
9.1819526452
 20
7.8699718857
 10
9.1928264166
 20
7.8927437621
 10
9.2047172147
 20
7.9143921795
 10
9.2176052485
 20
7.9348811064
 10
9.2314690672
 20
7.9541764407
 10
9.2462855958
 20
7.9722460675
 10
9.2620301736
 20
7.9890599116
 10
9.2786765954
 20
8.004589988
 10
9.2961971548
 20
8.0188104484
 10
9.3039109227
 20
8.0244587425
  0
LWPOLYLINE
  5
146
330
1F
100
AcDbEntity
  8
0
  6
Continuous
 62
     7
370
     0
100
AcDbPolyline
 90
       19
 70
   128
 43
0.0
 10
10.2524429582
 20
6.3813750328
 10
10.233329287
 20
6.3733455823
 10
10.2119028091
 20
6.3659833347
 10
10.1897972059
 20
6.3600387703
 10
10.16704927
 20
6.355521783
 10
10.1436968631
 20
6.3524398911
 10
10.119778853
 20
6.3507982239
 10
10.0953350487
 20
6.350599514
 10
10.0704061347
 20
6.351844092
 10
10.0450336026
 20
6.3545298865
 10
10.0192596825
 20
6.3586524271
 10
9.9931272726
 20
6.3642048525
 10
9.9666798677
 20
6.371177921
 10
9.9399614868
 20
6.3795600267
 10
9.9130166001
 20
6.3893372185
 10
9.8858900547
 20
6.4004932231
 10
9.858627
 20
6.4130094725
 10
9.8312728128
 20
6.4268651346
 10
9.8038730212
 20
6.442037148
  0
LWPOLYLINE
  5
147
330
1F
100
AcDbEntity
  8
0
  6
Continuous
 62
     7
370
     0
100
AcDbPolyline
 90
       60
 70
   128
 43
0.0
 10
9.0330792495
 20
7.5769958501
 10
9.0340648642
 20
7.5438694032
 10
9.0361741216
 20
7.510165585
 10
9.0394036654
 20
7.4759380244
 10
9.043748357
 20
7.4412411837
 10
9.049201283
 20
7.4061302719
 10
9.055753767
 20
7.3706611569
 10
9.0633953826
 20
7.3348902763
 10
9.0721139708
 20
7.2988745484
 10
9.0818956585
 20
7.2626712805
 10
9.0927248815
 20
7.2263380787
 10
9.1045844085
 20
7.1899327558
 10
9.1174553686
 20
7.1535132392
 10
9.131317282
 20
7.1171374791
 10
9.1461480919
 20
7.0808633558
 10
9.1619241995
 20
7.0447485881
 10
9.1786205025
 20
7.0088506412
 10
9.1962104337
 20
6.9732266352
 10
9.2146660046
 20
6.9379332544
 10
9.2339578488
 20
6.9030266571
 10
9.2540552697
 20
6.8685623859
 10
9.2749262884
 20
6.8345952798
 10
9.2965376955
 20
6.8011793867
 10
9.3188551032
 20
6.7683678772
 10
9.3418430005
 20
6.7362129606
 10
9.3654648095
 20
6.704765801
 10
9.3896829435
 20
6.6740764368
 10
9.4144588672
 20
6.6441937001
 10
9.4397531574
 20
6.61516514
 10
9.4655255664
 20
6.5870369461
 10
9.4917350856
 20
6.5598538755
 10
9.5183400109
 20
6.5336591815
 10
9.5452980089
 20
6.5084945445
 10
9.5725661847
 20
6.484400006
 10
9.6001011495
 20
6.461413905
 10
9.6278590903
 20
6.4395728163
 10
9.655795839
 20
6.4189114933
 10
9.6838669433
 20
6.3994628117
 10
9.712027737
 20
6.3812577181
 10
9.7402334109
 20
6.3643251799
 10
9.7684390849
 20
6.3486921401
 10
9.7965998785
 20
6.3343834735
 10
9.8246709829
 20
6.3214219479
 10
9.8526077316
 20
6.3098281874
 10
9.8803656724
 20
6.2996206398
 10
9.9079006372
 20
6.2908155471
 10
9.935168813
 20
6.28342692
 10
9.962126811
 20
6.277466515
 10
9.9887317363
 20
6.2729438162
 10
10.0149412555
 20
6.26986602
 10
10.0407136645
 20
6.2682380238
 10
10.0660079547
 20
6.2680624181
 10
10.0907838784
 20
6.2693394822
 10
10.1150020124
 20
6.272067184
 10
10.1386238214
 20
6.2762411835
 10
10.1616117187
 20
6.2818548388
 10
10.1839291264
 20
6.2888992178
 10
10.2055405335
 20
6.2973631115
 10
10.2264115522
 20
6.3072330522
 10
10.2417656746
 20
6.3156695458
  0
LINE
  5
148
330
1F
100
AcDbEntity
  8
0
  6
Continuous
 62
     7
370
     0
100
AcDbLine
 10
9.0279015145
 20
7.588148974
 30
0.0
 11
9.0330792495
 21
7.5769958501
 31
0.0
  0
LINE
  5
149
330
1F
100
AcDbEntity
  8
0
  6
Continuous
 62
     7
370
     0
100
AcDbLine
 10
9.0330792495
 20
7.5769958501
 30
0.0
 11
9.0614937701
 21
7.5605924965
 31
0.0
  0
LWPOLYLINE
  5
14A
330
1F
100
AcDbEntity
  8
0
  6
Continuous
 62
     7
370
     0
100
AcDbPolyline
 90
       64
 70
   128
 43
0.0
 10
10.316278957
 20
6.433763017
 10
10.3048291433
 20
6.4198817954
 10
10.2889370477
 20
6.4027455555
 10
10.2721260567
 20
6.3869126531
 10
10.2544243228
 20
6.3724096032
 10
10.2358614907
 20
6.3592606935
 10
10.2164686469
 20
6.3474879441
 10
10.196278268
 20
6.3371110704
 10
10.175324166
 20
6.3281474501
 10
10.1536414321
 20
6.3206120944
 10
10.1312663777
 20
6.3145176225
 10
10.1082364735
 20
6.3098742406
 10
10.084590287
 20
6.3066897247
 10
10.0603674175
 20
6.3049694079
 10
10.0356084304
 20
6.3047161712
 10
10.0103547886
 20
6.3059304386
 10
9.9846487837
 20
6.3086101767
 10
9.9585334645
 20
6.3127508977
 10
9.9320525655
 20
6.3183456674
 10
9.9052504335
 20
6.3253851164
 10
9.878171953
 20
6.3338574559
 10
9.8508624714
 20
6.3437484976
 10
9.823367723
 20
6.3550416774
 10
9.7957337525
 20
6.3677180828
 10
9.7680068373
 20
6.3817564852
 10
9.7402334109
 20
6.3971333749
 10
9.7124599846
 20
6.4138230007
 10
9.6847330694
 20
6.4317974132
 10
9.6570990988
 20
6.451026511
 10
9.6296043505
 20
6.471478092
 10
9.6022948689
 20
6.4931179066
 10
9.5752163884
 20
6.5159097152
 10
9.5484142564
 20
6.5398153492
 10
9.5219333574
 20
6.5647947747
 10
9.4958180382
 20
6.5908061594
 10
9.4701120332
 20
6.6178059429
 10
9.4448583915
 20
6.6457489096
 10
9.4200994044
 20
6.6745882644
 10
9.3958765349
 20
6.7042757109
 10
9.3722303483
 20
6.7347615327
 10
9.3492004442
 20
6.765994676
 10
9.3268253898
 20
6.7979228358
 10
9.3051426559
 20
6.8304925432
 10
9.2841885539
 20
6.8636492546
 10
9.263998175
 20
6.8973374437
 10
9.2446053311
 20
6.931500694
 10
9.226042499
 20
6.9660817934
 10
9.2083407652
 20
7.0010228302
 10
9.1915297741
 20
7.0362652897
 10
9.1756376786
 20
7.0717501525
 10
9.1606910926
 20
7.1074179935
 10
9.1467150467
 20
7.1432090808
 10
9.133732946
 20
7.1790634763
 10
9.1217665314
 20
7.2149211359
 10
9.1108358424
 20
7.2507220099
 10
9.1009591844
 20
7.2864061438
 10
9.0921530975
 20
7.3219137786
 10
9.084432329
 20
7.3571854509
 10
9.0778098085
 20
7.3921620923
 10
9.0722966266
 20
7.4267851287
 10
9.067902016
 20
7.460996578
 10
9.0646333362
 20
7.4947391474
 10
9.0624960612
 20
7.5279563295
 10
9.0614937701
 20
7.5605924965
  0
LINE
  5
14B
330
1F
100
AcDbEntity
  8
0
  6
Continuous
 62
     7
370
     0
100
AcDbLine
 10
9.0614937701
 20
7.5605924965
 30
0.0
 11
9.0808131591
 21
7.5635802539
 31
0.0
  0
LINE
  5
14C
330
1F
100
AcDbEntity
  8
0
  6
Continuous
 62
     7
370
     0
100
AcDbLine
 10
9.0385081162
 20
7.5942720348
 30
0.0
 11
9.0862433799
 21
7.5667150537
 31
0.0
  0
LWPOLYLINE
  5
14D
330
1F
100
AcDbEntity
  8
0
  6
Continuous
 62
     7
370
     0
100
AcDbPolyline
 90
      125
 70
   128
 43
0.0
 10
8.8704110233
 20
7.5769237012
 10
8.8709749038
 20
7.6107930959
 10
8.8726657277
 20
7.6439623406
 10
8.8754810434
 20
7.6763833432
 10
8.879416769
 20
7.7080090962
 10
8.8844671981
 20
7.7387937454
 10
8.8906250081
 20
7.768692656
 10
8.8978812706
 20
7.7976624774
 10
8.9062254649
 20
7.8256612061
 10
8.9156454926
 20
7.8526482467
 10
8.9261276957
 20
7.8785844705
 10
8.9376568758
 20
7.9034322725
 10
8.9502163168
 20
7.9271556258
 10
8.9637878088
 20
7.9497201337
 10
8.9783516743
 20
7.9710930798
 10
8.9938867971
 20
7.9912434755
 10
9.0103706528
 20
8.0101421046
 10
9.0277793414
 20
8.0277615659
 10
9.0460876219
 20
8.0440763128
 10
9.0652689491
 20
8.0590626906
 10
9.0852955119
 20
8.0726989704
 10
9.1061382737
 20
8.0849653809
 10
9.1277670144
 20
8.095844137
 10
9.1501503746
 20
8.1053194655
 10
9.1732559004
 20
8.1133776281
 10
9.197050091
 20
8.1200069413
 10
9.2214984471
 20
8.1251977932
 10
9.246565521
 20
8.1289426575
 10
9.2722149678
 20
8.1312361046
 10
9.2984095983
 20
8.1320748091
 10
9.3251114327
 20
8.131457555
 10
9.3522817559
 20
8.1293852374
 10
9.3798811736
 20
8.1258608607
 10
9.4078696692
 20
8.1208895352
 10
9.4362066621
 20
8.1144784686
 10
9.4648510664
 20
8.1066369565
 10
9.4937613504
 20
8.0973763682
 10
9.522895597
 20
8.0867101308
 10
9.5522115643
 20
8.0746537093
 10
9.581666747
 20
8.0612245843
 10
9.6112184378
 20
8.0464422268
 10
9.6408237896
 20
8.0303280697
 10
9.6704398775
 20
8.0129054771
 10
9.700023761
 20
7.9941997101
 10
9.7295325464
 20
7.9742378903
 10
9.7589234486
 20
7.9530489603
 10
9.7881538536
 20
7.930663642
 10
9.8171813803
 20
7.9071143922
 10
9.8459639414
 20
7.8824353549
 10
9.8744598051
 20
7.8566623123
 10
9.9026276549
 20
7.8298326329
 10
9.9304266502
 20
7.8019852173
 10
9.9578164852
 20
7.7731604414
 10
9.9847574472
 20
7.7434000984
 10
10.0112104743
 20
7.7127473381
 10
10.0371372123
 20
7.6812466039
 10
10.0625000698
 20
7.648943569
 10
10.087262273
 20
7.6158850696
 10
10.1113879193
 20
7.5821190373
 10
10.1348420287
 20
7.5476944298
 10
10.1575905949
 20
7.5126611594
 10
10.1796006348
 20
7.477070021
 10
10.2008402358
 20
7.4409726184
 10
10.2212786027
 20
7.4044212893
 10
10.2408861016
 20
7.3674690296
 10
10.2596343037
 20
7.3301694167
 10
10.2774960257
 20
7.2925765313
 10
10.29444537
 20
7.2547448796
 10
10.3104577616
 20
7.2167293139
 10
10.325509984
 20
7.178584953
 10
10.339580213
 20
7.1403671027
 10
10.3526480481
 20
7.1021311752
 10
10.3646945422
 20
7.0639326089
 10
10.375702229
 20
7.0258267881
 10
10.3856551484
 20
6.9878689627
 10
10.3945388696
 20
6.9501141677
 10
10.4023405121
 20
6.9126171441
 10
10.4090487643
 20
6.8754322589
 10
10.4146538997
 20
6.8386134268
 10
10.4191477916
 20
6.8022140314
 10
10.4225239243
 20
6.7662868484
 10
10.4247774025
 20
6.7308839688
 10
10.425904959
 20
6.6960567234
 10
10.425904959
 20
6.6618556084
 10
10.4247774025
 20
6.6283302121
 10
10.4225239243
 20
6.5955291431
 10
10.4191477916
 20
6.5634999599
 10
10.4146538997
 20
6.5322891016
 10
10.4090487643
 20
6.5019418211
 10
10.4023405121
 20
6.4725021191
 10
10.3945388696
 20
6.4440126802
 10
10.3856551484
 20
6.4165148114
 10
10.375702229
 20
6.390048382
 10
10.3646945422
 20
6.3646517659
 10
10.3526480481
 20
6.3403617856
 10
10.339580213
 20
6.3172136593
 10
10.325509984
 20
6.2952409497
 10
10.3104577616
 20
6.2744755149
 10
10.29444537
 20
6.254947463
 10
10.2774960257
 20
6.2366851076
 10
10.2596343037
 20
6.2197149276
 10
10.2408861016
 20
6.204061528
 10
10.2212786027
 20
6.1897476048
 10
10.2008402358
 20
6.1767939117
 10
10.1796006348
 20
6.1652192305
 10
10.1575905949
 20
6.1550403432
 10
10.1348420287
 20
6.1462720083
 10
10.1113879193
 20
6.138926939
 10
10.087262273
 20
6.1330157851
 10
10.0625000698
 20
6.128547117
 10
10.0371372123
 20
6.125527414
 10
10.0112104743
 20
6.1239610543
 10
9.9847574472
 20
6.123850309
 10
9.9578164852
 20
6.1251953387
 10
9.9304266502
 20
6.1279941931
 10
9.9026276549
 20
6.1322428143
 10
9.8744598051
 20
6.1379350421
 10
9.8459639414
 20
6.1450626234
 10
9.8171813803
 20
6.1536152238
 10
9.7881538536
 20
6.1635804428
 10
9.7589234486
 20
6.174943832
 10
9.7295325464
 20
6.1876889153
 10
9.700023761
 20
6.2017972138
 10
9.6704398775
 20
6.2172482716
 10
9.6481020654
 20
6.2297773376
  0
LWPOLYLINE
  5
14E
330
1F
100
AcDbEntity
  8
0
  6
Continuous
 62
     7
370
     0
100
AcDbPolyline
 90
      165
 70
   128
 43
0.0
 10
8.8704110233
 20
7.5687596201
 10
8.8709766116
 20
7.5343425506
 10
8.8726725465
 20
7.4993229785
 10
8.8754963388
 20
7.4637522999
 10
8.8794438444
 20
7.4276827197
 10
8.8845092697
 20
7.3911671749
 10
8.8906851804
 20
7.3542592572
 10
8.8979625127
 20
7.3170131339
 10
8.906330586
 20
7.279483469
 10
8.9157771189
 20
7.2417253424
 10
8.9262882475
 20
7.2037941693
 10
8.9378485452
 20
7.1657456189
 10
8.9504410456
 20
7.1276355329
 10
8.9640472675
 20
7.0895198429
 10
8.978647242
 20
7.051454489
 10
8.9942195415
 20
7.0134953374
 10
9.0107413115
 20
6.9756980983
 10
9.0281883041
 20
6.9381182444
 10
9.0465349134
 20
6.9008109293
 10
9.0657542132
 20
6.8638309067
 10
9.0858179966
 20
6.8272324498
 10
9.1066968171
 20
6.791069272
 10
9.1283600322
 20
6.7553944476
 10
9.1507758483
 20
6.7202603344
 10
9.1739113669
 20
6.6857184965
 10
9.1977326335
 20
6.651819629
 10
9.2222046871
 20
6.6186134829
 10
9.2472916116
 20
6.586148793
 10
9.2729565886
 20
6.5544732055
 10
9.2991619509
 20
6.5236332089
 10
9.3258692388
 20
6.4936740651
 10
9.3530392556
 20
6.4646397433
 10
9.3806321255
 20
6.4365728552
 10
9.4086073522
 20
6.409514593
 10
9.4369238782
 20
6.3835046683
 10
9.465540145
 20
6.3585812544
 10
9.4944141545
 20
6.3347809298
 10
9.5235035298
 20
6.3121386247
 10
9.5527655785
 20
6.2906875698
 10
9.5821573544
 20
6.2704592475
 10
9.611635721
 20
6.2514833458
 10
9.6411574148
 20
6.2337877142
 10
9.6706791086
 20
6.2173983237
 10
9.7001574752
 20
6.2023392278
 10
9.7295492511
 20
6.1886325279
 10
9.7588112998
 20
6.1762983405
 10
9.7879006752
 20
6.1653547677
 10
9.8167746846
 20
6.1558178707
 10
9.8453909514
 20
6.1477016461
 10
9.8737074774
 20
6.1410180058
 10
9.9016827041
 20
6.1357767588
 10
9.929275574
 20
6.1319855974
 10
9.9564455908
 20
6.1296500856
 10
9.9831528787
 20
6.1287736512
 10
10.0093582411
 20
6.1293575804
 10
10.035023218
 20
6.1314010162
 10
10.0601101425
 20
6.1349009596
 10
10.0845821961
 20
6.139852274
 10
10.1084034627
 20
6.1462476926
 10
10.1315389814
 20
6.1540778292
 10
10.1539547974
 20
6.1633311921
 10
10.1756180125
 20
6.1739942006
 10
10.1964968331
 20
6.1860512054
 10
10.2165606164
 20
6.1994845111
 10
10.2357799162
 20
6.2142744025
 10
10.2541265255
 20
6.2303991734
 10
10.2715735181
 20
6.2478351584
 10
10.2880952881
 20
6.2665567678
 10
10.3036675876
 20
6.2865365252
 10
10.3182675621
 20
6.3077451074
 10
10.331873784
 20
6.3301513879
 10
10.3444662844
 20
6.3537224825
 10
10.3560265821
 20
6.3784237972
 10
10.3665377107
 20
6.4042190796
 10
10.3759842437
 20
6.4310704714
 10
10.3843523169
 20
6.4589385646
 10
10.3916296492
 20
6.4877824588
 10
10.39780556
 20
6.5175598218
 10
10.4028709852
 20
6.548226951
 10
10.4068184908
 20
6.5797388383
 10
10.4096422832
 20
6.6120492357
 10
10.411338218
 20
6.6451107231
 10
10.4119038063
 20
6.6788747782
 10
10.411338218
 20
6.7132918477
 10
10.4096422832
 20
6.7483114198
 10
10.4068184908
 20
6.7838820984
 10
10.4028709852
 20
6.8199516786
 10
10.39780556
 20
6.8564672234
 10
10.3916296492
 20
6.8933751412
 10
10.3843523169
 20
6.9306212644
 10
10.3759842437
 20
6.9681509293
 10
10.3665377107
 20
7.005909056
 10
10.3560265821
 20
7.0438402291
 10
10.3444662844
 20
7.0818887794
 10
10.331873784
 20
7.1199988654
 10
10.3182675621
 20
7.1581145554
 10
10.3036675876
 20
7.1961799093
 10
10.2880952881
 20
7.234139061
 10
10.2715735181
 20
7.2719363001
 10
10.2541265255
 20
7.309516154
 10
10.2357799162
 20
7.346823469
 10
10.2165606164
 20
7.3838034916
 10
10.1964968331
 20
7.4204019485
 10
10.1756180125
 20
7.4565651264
 10
10.1539547974
 20
7.4922399507
 10
10.1315389814
 20
7.5273740639
 10
10.1084034627
 20
7.5619159018
 10
10.0845821961
 20
7.5958147694
 10
10.0601101425
 20
7.6290209154
 10
10.035023218
 20
7.6614856054
 10
10.0093582411
 20
7.6931611928
 10
9.9831528787
 20
7.7240011894
 10
9.9564455908
 20
7.7539603332
 10
9.929275574
 20
7.7829946551
 10
9.9016827041
 20
7.8110615431
 10
9.8737074774
 20
7.8381198054
 10
9.8453909514
 20
7.86412973
 10
9.8167746846
 20
7.8890531439
 10
9.7879006752
 20
7.9128534686
 10
9.7588112998
 20
7.9354957737
 10
9.7295492511
 20
7.9569468285
 10
9.7001574752
 20
7.9771751508
 10
9.6706791086
 20
7.9961510526
 10
9.6411574148
 20
8.0138466841
 10
9.611635721
 20
8.0302360747
 10
9.5821573544
 20
8.0452951705
 10
9.5527655785
 20
8.0590018704
 10
9.5235035298
 20
8.0713360578
 10
9.4944141545
 20
8.0822796306
 10
9.465540145
 20
8.0918165277
 10
9.4369238782
 20
8.0999327522
 10
9.4086073522
 20
8.1066163925
 10
9.3806321255
 20
8.1118576395
 10
9.3530392556
 20
8.1156488009
 10
9.3258692388
 20
8.1179843127
 10
9.2991619509
 20
8.1188607471
 10
9.2729565886
 20
8.118276818
 10
9.2472916116
 20
8.1162333821
 10
9.2222046871
 20
8.1127334387
 10
9.1977326335
 20
8.1077821243
 10
9.1739113669
 20
8.1013867058
 10
9.1507758483
 20
8.0935565691
 10
9.1283600322
 20
8.0843032062
 10
9.1066968171
 20
8.0736401977
 10
9.0858179966
 20
8.0615831929
 10
9.0657542132
 20
8.0481498872
 10
9.0465349134
 20
8.0333599958
 10
9.0281883041
 20
8.017235225
 10
9.0107413115
 20
7.9997992399
 10
8.9942195415
 20
7.9810776305
 10
8.978647242
 20
7.9610978731
 10
8.9640472675
 20
7.9398892909
 10
8.9504410456
 20
7.9174830104
 10
8.9378485452
 20
7.8939119159
 10
8.9262882475
 20
7.8692106011
 10
8.9157771189
 20
7.8434153188
 10
8.906330586
 20
7.8165639269
 10
8.8979625127
 20
7.7886958338
 10
8.8906851804
 20
7.7598519395
 10
8.8845092697
 20
7.7300745766
 10
8.8794438444
 20
7.6994074473
 10
8.8754963388
 20
7.66789556
 10
8.8726725465
 20
7.6355851627
 10
8.8709766116
 20
7.6025236753
 10
8.8704110233
 20
7.5687596201
  0
LWPOLYLINE
  5
14F
330
1F
100
AcDbEntity
  8
0
  6
Continuous
 62
     7
370
     0
100
AcDbPolyline
 90
       63
 70
   128
 43
0.0
 10
10.687675451
 20
6.8299102789
 10
10.6871115705
 20
6.8644307161
 10
10.6854207466
 20
6.8995521445
 10
10.6826054309
 20
6.9352236414
 10
10.6786697053
 20
6.9713934865
 10
10.6736192762
 20
7.0080092371
 10
10.6674614662
 20
7.0450178037
 10
10.6602052037
 20
7.0823655275
 10
10.6518610094
 20
7.1199982579
 10
10.6424409817
 20
7.157861431
 10
10.6319587786
 20
7.1959001488
 10
10.6204295985
 20
7.2340592589
 10
10.6078701575
 20
7.2722834341
 10
10.5942986655
 20
7.310517253
 10
10.5797348
 20
7.3487052804
 10
10.5641996772
 20
7.3867921471
 10
10.5477158215
 20
7.4247226309
 10
10.5303071329
 20
7.4624417361
 10
10.5119988524
 20
7.4998947738
 10
10.4928175252
 20
7.5370274406
 10
10.4727909624
 20
7.5737858976
 10
10.4519482006
 20
7.6101168486
 10
10.4303194598
 20
7.6459676173
 10
10.4079360997
 20
7.6812862233
 10
10.3848305739
 20
7.7160214582
 10
10.3610363833
 20
7.7501229591
 10
10.3365880272
 20
7.7835412821
 10
10.3115209533
 20
7.8162279739
 10
10.2858715065
 20
7.8481356419
 10
10.259676876
 20
7.879218023
 10
10.2329750416
 20
7.9094300507
 10
10.2058047184
 20
7.9387279205
 10
10.1782053007
 20
7.9670691532
 10
10.1502168051
 20
7.9944126569
 10
10.1218798122
 20
8.0207187859
 10
10.0932354079
 20
8.045949399
 10
10.0643251239
 20
8.0700679142
 10
10.0351908773
 20
8.0930393619
 10
10.00587491
 20
8.1148304358
 10
9.9764197273
 20
8.1354095408
 10
9.9468680365
 20
8.1547468392
 10
9.9172626847
 20
8.1728142938
 10
9.8876465968
 20
8.1895857085
 10
9.8580627133
 20
8.2050367664
 10
9.8285539279
 20
8.2191450648
 10
9.7991630257
 20
8.2318901482
 10
9.7699326207
 20
8.2432535373
 10
9.740905094
 20
8.2532187564
 10
9.7121225329
 20
8.2617713568
 10
9.6836266692
 20
8.268898938
 10
9.6554588194
 20
8.2745911658
 10
9.6276598241
 20
8.278839787
 10
9.6002699891
 20
8.2816386415
 10
9.5733290271
 20
8.2829836711
 10
9.546876
 20
8.2828729258
 10
9.520949262
 20
8.2813065661
 10
9.4955864045
 20
8.2782868631
 10
9.4708242012
 20
8.273818195
 10
9.446698555
 20
8.2679070411
 10
9.4232444456
 20
8.2605619718
 10
9.4004958794
 20
8.251793637
 10
9.3784858395
 20
8.2416147497
 10
9.3599026887
 20
8.231588489
  0
LWPOLYLINE
  5
150
330
1F
100
AcDbEntity
  8
0
  6
Continuous
 62
     7
370
     0
100
AcDbPolyline
 90
       22
 70
   128
 43
0.0
 10
10.4598132946
 20
6.3262809918
 10
10.4727909624
 20
6.3341350097
 10
10.4928175252
 20
6.3477712895
 10
10.5119988524
 20
6.3627576673
 10
10.5303071329
 20
6.3790724142
 10
10.5477158215
 20
6.3966918755
 10
10.5641996772
 20
6.4155905046
 10
10.5797348
 20
6.4357409003
 10
10.5942986655
 20
6.4571138465
 10
10.6078701575
 20
6.4796783544
 10
10.6204295985
 20
6.5034017076
 10
10.6319587786
 20
6.5282495096
 10
10.6424409817
 20
6.5541857334
 10
10.6518610094
 20
6.581172774
 10
10.6602052037
 20
6.6091715027
 10
10.6674614662
 20
6.6381413241
 10
10.6736192762
 20
6.6680402347
 10
10.6786697053
 20
6.6988248839
 10
10.6826054309
 20
6.730450637
 10
10.6854207466
 20
6.7628716395
 10
10.6871115705
 20
6.7960408843
 10
10.687675451
 20
6.8299102789
  0
LWPOLYLINE
  5
151
330
1F
100
AcDbEntity
  8
0
  6
Continuous
 62
     7
370
     0
100
AcDbPolyline
 90
      161
 70
   128
 43
0.0
 10
8.9094288162
 20
7.5462351277
 10
8.9099929525
 20
7.5790829501
 10
8.9116844913
 20
7.6112287856
 10
8.9145008245
 20
7.6426230679
 10
8.9184376095
 20
7.6732173891
 10
8.9234887761
 20
7.702964575
 10
8.9296465357
 20
7.7318187577
 10
8.9369013935
 20
7.759735446
 10
8.945242163
 20
7.7866715944
 10
8.9546559834
 20
7.8125856695
 10
8.9651283392
 20
7.8374377135
 10
8.9766430829
 20
7.8611894063
 10
8.9891824596
 20
7.8838041247
 10
9.0027271343
 20
7.9052469983
 10
9.0172562223
 20
7.9254849638
 10
9.0327473206
 20
7.9444868157
 10
9.0491765433
 20
7.9622232546
 10
9.0665185575
 20
7.9786669321
 10
9.0847466233
 20
7.9937924932
 10
9.1038326341
 20
8.0075766155
 10
9.1237471608
 20
8.0199980449
 10
9.1444594966
 20
8.0310376283
 10
9.1659377046
 20
8.0406783436
 10
9.1881486669
 20
8.0489053255
 10
9.2110581359
 20
8.0557058885
 10
9.2346307868
 20
8.0610695467
 10
9.2588302723
 20
8.0649880297
 10
9.2836192785
 20
8.0674552956
 10
9.3089595827
 20
8.0684675398
 10
9.3348121118
 20
8.0680232018
 10
9.3611370032
 20
8.0661229665
 10
9.3878936657
 20
8.062769764
 10
9.4150408426
 20
8.0579687647
 10
9.4425366748
 20
8.0517273714
 10
9.4703387659
 20
8.0440552078
 10
9.4984042469
 20
8.034964104
 10
9.5266898429
 20
8.0244680777
 10
9.5551519397
 20
8.012583313
 10
9.5837466507
 20
7.9993281354
 10
9.6124298848
 20
7.9847229833
 10
9.6411574148
 20
7.968790377
 10
9.6698849448
 20
7.9515548832
 10
9.698568179
 20
7.933043078
 10
9.7271628899
 20
7.9132835051
 10
9.7556249867
 20
7.8923066323
 10
9.7839105827
 20
7.8701448046
 10
9.8119760638
 20
7.8468321938
 10
9.8397781548
 20
7.8224047463
 10
9.867273987
 20
7.7969001274
 10
9.8944211639
 20
7.7703576634
 10
9.9211778265
 20
7.7428182809
 10
9.9475027178
 20
7.7143244436
 10
9.973355247
 20
7.6849200869
 10
9.9986955511
 20
7.6546505502
 10
10.0234845573
 20
7.623562507
 10
10.0476840428
 20
7.5917038927
 10
10.0712566937
 20
7.5591238311
 10
10.0941661627
 20
7.5258725582
 10
10.1163771251
 20
7.4920013451
 10
10.1378553331
 20
7.4575624187
 10
10.1585676689
 20
7.4226088814
 10
10.1784821955
 20
7.3871946289
 10
10.1975682064
 20
7.3513742676
 10
10.2157962721
 20
7.3152030297
 10
10.2331382863
 20
7.2787366888
 10
10.249567509
 20
7.2420314732
 10
10.2650586074
 20
7.2051439798
 10
10.2795876953
 20
7.1681310864
 10
10.2931323701
 20
7.1310498642
 10
10.3056717467
 20
7.0939574897
 10
10.3171864904
 20
7.0569111568
 10
10.3276588462
 20
7.0199679881
 10
10.3370726666
 20
6.9831849474
 10
10.3454134362
 20
6.9466187514
 10
10.352668294
 20
6.9103257826
 10
10.3588260535
 20
6.874362002
 10
10.3638772201
 20
6.8387828633
 10
10.3678140051
 20
6.8036432269
 10
10.3706303383
 20
6.7689972756
 10
10.3723218772
 20
6.7348984308
 10
10.3728860134
 20
6.7013992706
 10
10.3723218772
 20
6.6685514483
 10
10.3706303383
 20
6.6364056127
 10
10.3678140051
 20
6.6050113304
 10
10.3638772201
 20
6.5744170092
 10
10.3588260535
 20
6.5446698233
 10
10.352668294
 20
6.5158156407
 10
10.3454134362
 20
6.4878989524
 10
10.3370726666
 20
6.4609628039
 10
10.3276588462
 20
6.4350487289
 10
10.3171864904
 20
6.4101966849
 10
10.3056717467
 20
6.386444992
 10
10.2931323701
 20
6.3638302736
 10
10.2795876953
 20
6.3423874
 10
10.2650586074
 20
6.3221494345
 10
10.249567509
 20
6.3031475826
 10
10.2331382863
 20
6.2854111437
 10
10.2157962721
 20
6.2689674663
 10
10.1975682064
 20
6.2538419051
 10
10.1784821955
 20
6.2400577828
 10
10.1585676689
 20
6.2276363534
 10
10.1378553331
 20
6.21659677
 10
10.1163771251
 20
6.2069560547
 10
10.0941661627
 20
6.1987290728
 10
10.0712566937
 20
6.1919285098
 10
10.0476840428
 20
6.1865648516
 10
10.0234845573
 20
6.1826463686
 10
9.9986955511
 20
6.1801791028
 10
9.973355247
 20
6.1791668585
 10
9.9475027178
 20
6.1796111966
 10
9.9211778265
 20
6.1815114319
 10
9.8944211639
 20
6.1848646344
 10
9.867273987
 20
6.1896656337
 10
9.8397781548
 20
6.195907027
 10
9.8119760638
 20
6.2035791905
 10
9.7839105827
 20
6.2126702943
 10
9.7556249867
 20
6.2231663206
 10
9.7271628899
 20
6.2350510853
 10
9.698568179
 20
6.248306263
 10
9.6698849448
 20
6.262911415
 10
9.6411574148
 20
6.2788440213
 10
9.6124298848
 20
6.2960795151
 10
9.5837466507
 20
6.3145913203
 10
9.5551519397
 20
6.3343508933
 10
9.5266898429
 20
6.355327766
 10
9.4984042469
 20
6.3774895937
 10
9.4703387659
 20
6.4008022045
 10
9.4425366748
 20
6.4252296521
 10
9.4150408426
 20
6.450734271
 10
9.3878936657
 20
6.4772767349
 10
9.3611370032
 20
6.5048161174
 10
9.3348121118
 20
6.5333099548
 10
9.3089595827
 20
6.5627143114
 10
9.2836192785
 20
6.5929838481
 10
9.2588302723
 20
6.6240718913
 10
9.2346307868
 20
6.6559305056
 10
9.2110581359
 20
6.6885105672
 10
9.1881486669
 20
6.7217618401
 10
9.1659377046
 20
6.7556330532
 10
9.1444594966
 20
6.7900719796
 10
9.1237471608
 20
6.825025517
 10
9.1038326341
 20
6.8604397694
 10
9.0847466233
 20
6.8962601308
 10
9.0665185575
 20
6.9324313686
 10
9.0491765433
 20
6.9688977096
 10
9.0327473206
 20
7.0056029251
 10
9.0172562223
 20
7.0424904185
 10
9.0027271343
 20
7.079503312
 10
8.9891824596
 20
7.1165845342
 10
8.9766430829
 20
7.1536769086
 10
8.9651283392
 20
7.1907232416
 10
8.9546559834
 20
7.2276664102
 10
8.945242163
 20
7.264449451
 10
8.9369013935
 20
7.3010156469
 10
8.9296465357
 20
7.3373086158
 10
8.9234887761
 20
7.3732723963
 10
8.9184376095
 20
7.408851535
 10
8.9145008245
 20
7.4439911714
 10
8.9116844913
 20
7.4786371228
 10
8.9099929525
 20
7.5127359675
 10
8.9094288162
 20
7.5462351277
  0
LWPOLYLINE
  5
152
330
1F
100
AcDbEntity
  8
0
  6
Continuous
 62
     7
370
     0
100
AcDbPolyline
 90
      160
 70
   128
 43
0.0
 10
8.9287473328
 20
7.5432468666
 10
8.929309025
 20
7.5100993253
 10
8.9309932246
 20
7.476355024
 10
8.9337973019
 20
7.4420666502
 10
8.9377168787
 20
7.4072877414
 10
8.942745835
 20
7.3720726006
 10
8.9488763187
 20
7.3364762121
 10
8.9560987578
 20
7.3005541554
 10
8.9644018753
 20
7.2643625185
 10
8.9737727069
 20
7.2279578105
 10
8.9841966212
 20
7.1913968728
 10
8.9956573423
 20
7.1547367912
 10
9.0081369758
 20
7.1180348058
 10
9.0216160362
 20
7.0813482227
 10
9.0360734776
 20
7.0447343234
 10
9.0514867264
 20
7.0082502762
 10
9.0678317165
 20
6.9719530467
 10
9.0850829273
 20
6.9358993087
 10
9.1032134231
 20
6.9001453558
 10
9.1221948952
 20
6.8647470135
 10
9.1419977062
 20
6.8297595522
 10
9.1625909366
 20
6.7952376007
 10
9.1839424323
 20
6.7612350607
 10
9.2060188555
 20
6.7278050234
 10
9.2287857366
 20
6.6949996857
 10
9.2522075278
 20
6.6628702693
 10
9.2762476587
 20
6.6314669404
 10
9.3008685935
 20
6.6008387316
 10
9.3260318895
 20
6.5710334652
 10
9.3516982572
 20
6.5420976787
 10
9.3778276217
 20
6.5140765517
 10
9.404379185
 20
6.487013836
 10
9.4313114901
 20
6.4609517867
 10
9.4585824853
 20
6.4359310968
 10
9.4861495902
 20
6.4119908329
 10
9.5139697621
 20
6.3891683751
 10
9.541999563
 20
6.3674993578
 10
9.5701952277
 20
6.3470176147
 10
9.5985127322
 20
6.3277551255
 10
9.6269078619
 20
6.3097419663
 10
9.6553362811
 20
6.2930062627
 10
9.6837536024
 20
6.2775741453
 10
9.7121154555
 20
6.2634697096
 10
9.7403775566
 20
6.250714978
 10
9.7684957779
 20
6.2393298655
 10
9.7964262161
 20
6.2293321486
 10
9.8241252611
 20
6.2207374375
 10
9.8515496642
 20
6.2135591519
 10
9.8786566053
 20
6.2078084998
 10
9.9054037604
 20
6.2034944602
 10
9.9317493667
 20
6.2006237689
 10
9.9576522889
 20
6.1992009082
 10
9.9830720825
 20
6.1992280997
 10
10.0079690576
 20
6.2007053009
 10
10.0323043404
 20
6.2036302055
 10
10.0560399344
 20
6.2079982463
 10
10.0791387793
 20
6.2138026034
 10
10.1015648088
 20
6.2210342139
 10
10.1232830075
 20
6.2296817865
 10
10.144259465
 20
6.239731819
 10
10.164461429
 20
6.2511686194
 10
10.1838573564
 20
6.2639743307
 10
10.202416963
 20
6.2781289582
 10
10.2201112701
 20
6.2936104011
 10
10.2369126501
 20
6.3103944869
 10
10.2527948696
 20
6.3284550095
 10
10.2677331305
 20
6.3477637692
 10
10.2817041084
 20
6.3682906179
 10
10.2946859893
 20
6.3900035053
 10
10.3066585036
 20
6.4128685293
 10
10.3176029576
 20
6.4368499888
 10
10.3275022627
 20
6.4619104398
 10
10.3363409625
 20
6.4880107532
 10
10.3441052564
 20
6.5151101765
 10
10.3507830212
 20
6.5431663971
 10
10.3563638306
 20
6.5721356087
 10
10.3608389706
 20
6.6019725793
 10
10.364201454
 20
6.6326307219
 10
10.3664460306
 20
6.6640621674
 10
10.3675691957
 20
6.6962178396
 10
10.3675691957
 20
6.7290475309
 10
10.3664460306
 20
6.7624999819
 10
10.364201454
 20
6.7965229604
 10
10.3608389706
 20
6.8310633437
 10
10.3563638306
 20
6.866067201
 10
10.3507830212
 20
6.9014798779
 10
10.3441052564
 20
6.9372460818
 10
10.3363409625
 20
6.9733099679
 10
10.3275022627
 20
7.0096152269
 10
10.3176029576
 20
7.0461051723
 10
10.3066585036
 20
7.0827228294
 10
10.2946859893
 20
7.1194110241
 10
10.2817041084
 20
7.1561124722
 10
10.2677331305
 20
7.1927698686
 10
10.2527948696
 20
7.2293259773
 10
10.2369126501
 20
7.2657237202
 10
10.2201112701
 20
7.3019062664
 10
10.202416963
 20
7.3378171214
 10
10.1838573564
 20
7.3734002145
 10
10.164461429
 20
7.408599987
 10
10.144259465
 20
7.4433614786
 10
10.1232830075
 20
7.4776304134
 10
10.1015648088
 20
7.5113532844
 10
10.0791387793
 20
7.5444774375
 10
10.0560399344
 20
7.5769511532
 10
10.0323043404
 20
7.6087237276
 10
10.0079690576
 20
7.6397455516
 10
9.9830720825
 20
7.6699681884
 10
9.9576522889
 20
7.6993444489
 10
9.9317493667
 20
7.7278284655
 10
9.9054037604
 20
7.7553757638
 10
9.8786566053
 20
7.7819433321
 10
9.8515496642
 20
7.8074896881
 10
9.8241252611
 20
7.8319749443
 10
9.7964262161
 20
7.8553608699
 10
9.7684957779
 20
7.8776109505
 10
9.7403775566
 20
7.8986904453
 10
9.7121154555
 20
7.9185664411
 10
9.6837536024
 20
7.9372079039
 10
9.6553362811
 20
7.9545857273
 10
9.6269078619
 20
7.9706727779
 10
9.5985127322
 20
7.9854439376
 10
9.5701952277
 20
7.9988761431
 10
9.541999563
 20
8.0109484216
 10
9.5139697621
 20
8.0216419236
 10
9.4861495902
 20
8.0309399525
 10
9.4585824853
 20
8.0388279905
 10
9.4313114901
 20
8.0452937214
 10
9.404379185
 20
8.0503270497
 10
9.3778276217
 20
8.0539201165
 10
9.3516982572
 20
8.0560673116
 10
9.3260318895
 20
8.0567652824
 10
9.3008685935
 20
8.0560129392
 10
9.2762476587
 20
8.0538114566
 10
9.2522075278
 20
8.050164272
 10
9.2287857366
 20
8.0450770801
 10
9.2060188555
 20
8.0385578238
 10
9.1839424323
 20
8.0306166822
 10
9.1625909366
 20
8.0212660545
 10
9.1419977062
 20
8.0105205406
 10
9.1221948952
 20
7.9983969183
 10
9.1032134231
 20
7.9849141172
 10
9.0850829273
 20
7.9700931891
 10
9.0678317165
 20
7.9539572751
 10
9.0514867264
 20
7.9365315696
 10
9.0360734776
 20
7.9178432806
 10
9.0216160362
 20
7.8979215879
 10
9.0081369758
 20
7.8767975966
 10
8.9956573423
 20
7.8545042894
 10
8.9841966212
 20
7.8310764747
 10
8.9737727069
 20
7.8065507323
 10
8.9644018753
 20
7.7809653561
 10
8.9560987578
 20
7.7543602946
 10
8.9488763187
 20
7.7267770886
 10
8.942745835
 20
7.698258806
 10
8.9377168787
 20
7.6688499745
 10
8.9337973019
 20
7.6385965128
 10
8.9309932246
 20
7.6075456578
 10
8.929309025
 20
7.5757458919
 10
8.9287473328
 20
7.5432468666
  0
ARC
  5
153
330
1F
100
AcDbEntity
  8
0
  6
Continuous
 62
     7
370
     0
100
AcDbCircle
 10
9.0156350619
 20
6.7627108312
 30
0.0
 40
1.673737949627867
100
AcDbArc
 50
2.5807340673
 51
57.4138894
  0
LWPOLYLINE
  5
154
330
1F
100
AcDbEntity
  8
0
  6
Continuous
 62
     7
370
     0
100
AcDbPolyline
 90
       50
 70
   128
 43
0.0
 10
10.7141919553
 20
6.9125716002
 10
10.7136302631
 20
6.9457191415
 10
10.7119460635
 20
6.9794634429
 10
10.7091419862
 20
7.0137518166
 10
10.7052224094
 20
7.0485307254
 10
10.700193453
 20
7.0837458662
 10
10.6940629693
 20
7.1193422547
 10
10.6868405302
 20
7.1552643114
 10
10.6785374127
 20
7.1914559483
 10
10.6691665811
 20
7.2278606564
 10
10.6587426669
 20
7.264421594
 10
10.6472819457
 20
7.3010816757
 10
10.6348023122
 20
7.337783661
 10
10.6213232518
 20
7.3744702442
 10
10.6068658104
 20
7.4110841435
 10
10.5914525617
 20
7.4475681906
 10
10.5751075715
 20
7.4838654201
 10
10.5578563607
 20
7.5199191581
 10
10.5397258649
 20
7.555673111
 10
10.5207443929
 20
7.5910714533
 10
10.5009415818
 20
7.6260589146
 10
10.4803483515
 20
7.6605808662
 10
10.4589968558
 20
7.6945834061
 10
10.4369204325
 20
7.7280134434
 10
10.4141535514
 20
7.7608187811
 10
10.3907317602
 20
7.7929481976
 10
10.3666916293
 20
7.8243515265
 10
10.3420706946
 20
7.8549797352
 10
10.3169073986
 20
7.8847850016
 10
10.2912410308
 20
7.9137207882
 10
10.2651116663
 20
7.9417419152
 10
10.238560103
 20
7.9688046309
 10
10.2116277979
 20
7.9948666801
 10
10.1843568027
 20
8.0198873701
 10
10.1567896978
 20
8.0438276339
 10
10.128969526
 20
8.0666500918
 10
10.100939725
 20
8.088319109
 10
10.0727440603
 20
8.1088008522
 10
10.0444265559
 20
8.1280633414
 10
10.0160314262
 20
8.1460765005
 10
9.9876030069
 20
8.1628122042
 10
9.9591856856
 20
8.1782443216
 10
9.9308238325
 20
8.1923487573
 10
9.9025617314
 20
8.2051034889
 10
9.8744435101
 20
8.2164886014
 10
9.8465130719
 20
8.2264863183
 10
9.8188140269
 20
8.2350810293
 10
9.7913896239
 20
8.2422593149
 10
9.7642826827
 20
8.248009967
 10
9.7485994217
 20
8.250706951
  0
ARC
  5
155
330
1F
100
AcDbEntity
  8
0
  6
Continuous
 62
     7
370
     0
100
AcDbCircle
 10
9.9896142432
 20
6.900725816
 30
0.0
 40
0.7246745362102304
100
AcDbArc
 50
340.0379154229
 51
0.9366186332
  0
LINE
  5
156
330
1F
100
AcDbEntity
  8
0
  6
Continuous
 62
     7
370
     0
100
AcDbLine
 10
7.2570220947
 20
5.560052447
 30
0.0
 11
7.2470220947
 21
5.5427319389
 31
0.0
  0
LINE
  5
157
330
1F
100
AcDbEntity
  8
0
  6
Continuous
 62
     7
370
     0
100
AcDbLine
 10
7.2470220947
 20
3.6427319389
 30
0.0
 11
7.2570220947
 21
3.6254114308
 31
0.0
  0
LINE
  5
158
330
1F
100
AcDbEntity
  8
0
  6
Continuous
 62
     7
370
     0
100
AcDbLine
 10
7.2470220947
 20
3.6427319389
 30
0.0
 11
7.2470220947
 21
3.8355291743
 31
0.0
  0
LINE
  5
159
330
1F
100
AcDbEntity
  8
0
  6
Continuous
 62
     7
370
     0
100
AcDbLine
 10
7.2470220947
 20
5.3499347034
 30
0.0
 11
7.2470220947
 21
5.5427319389
 31
0.0
  0
LINE
  5
15A
330
1F
100
AcDbEntity
  8
0
  6
Continuous
 62
     7
370
     0
100
AcDbLine
 10
7.2570220947
 20
3.5852319389
 30
0.0
 11
7.2397015866
 21
3.5752319389
 31
0.0
  0
LINE
  5
15B
330
1F
100
AcDbEntity
  8
0
  6
Continuous
 62
     7
370
     0
100
AcDbLine
 10
7.2397015866
 20
5.6102319389
 30
0.0
 11
7.2570220947
 21
5.6002319389
 31
0.0
  0
LINE
  5
15C
330
1F
100
AcDbEntity
  8
0
  6
Continuous
 62
     7
370
     0
100
AcDbLine
 10
7.2470220947
 20
3.6427319389
 30
0.0
 11
7.1743426028
 21
3.6427319389
 31
0.0
  0
LINE
  5
15D
330
1F
100
AcDbEntity
  8
0
  6
Continuous
 62
     7
370
     0
100
AcDbLine
 10
7.1743426028
 20
4.5777319389
 30
0.0
 11
7.1743426028
 21
3.6427319389
 31
0.0
  0
LINE
  5
15E
330
1F
100
AcDbEntity
  8
0
  6
Continuous
 62
     7
370
     0
100
AcDbLine
 10
7.1820220947
 20
4.5777319389
 30
0.0
 11
7.1743426028
 21
4.5777319389
 31
0.0
  0
LINE
  5
15F
330
1F
100
AcDbEntity
  8
0
  6
Continuous
 62
     7
370
     0
100
AcDbLine
 10
7.1820220947
 20
4.5777319389
 30
0.0
 11
7.1820220947
 21
4.6077319389
 31
0.0
  0
LINE
  5
160
330
1F
100
AcDbEntity
  8
0
  6
Continuous
 62
     7
370
     0
100
AcDbLine
 10
7.1743426028
 20
4.6077319389
 30
0.0
 11
7.1820220947
 21
4.6077319389
 31
0.0
  0
LINE
  5
161
330
1F
100
AcDbEntity
  8
0
  6
Continuous
 62
     7
370
     0
100
AcDbLine
 10
7.1743426028
 20
5.5427319389
 30
0.0
 11
7.1743426028
 21
4.6077319389
 31
0.0
  0
LINE
  5
162
330
1F
100
AcDbEntity
  8
0
  6
Continuous
 62
     7
370
     0
100
AcDbLine
 10
7.1743426028
 20
5.5427319389
 30
0.0
 11
7.2470220947
 21
5.5427319389
 31
0.0
  0
LINE
  5
163
330
1F
100
AcDbEntity
  8
0
  6
Continuous
 62
     7
370
     0
100
AcDbLine
 10
7.1670220947
 20
3.5752319389
 30
0.0
 11
7.2397015866
 21
3.5752319389
 31
0.0
  0
LINE
  5
164
330
1F
100
AcDbEntity
  8
0
  6
Continuous
 62
     7
370
     0
100
AcDbLine
 10
7.2397015866
 20
5.6102319389
 30
0.0
 11
7.1670220947
 21
5.6102319389
 31
0.0
  0
LINE
  5
165
330
1F
100
AcDbEntity
  8
0
  6
Continuous
 62
     7
370
     0
100
AcDbLine
 10
7.1670220947
 20
3.5752319389
 30
0.0
 11
7.1570220947
 21
3.592552447
 31
0.0
  0
LINE
  5
166
330
1F
100
AcDbEntity
  8
0
  6
Continuous
 62
     7
370
     0
100
AcDbLine
 10
7.1570220947
 20
3.6327319389
 30
0.0
 11
7.1570220947
 21
3.592552447
 31
0.0
  0
LINE
  5
167
330
1F
100
AcDbEntity
  8
0
  6
Continuous
 62
     7
370
     0
100
AcDbLine
 10
7.1570220947
 20
3.6327319389
 30
0.0
 11
7.1743426028
 21
3.6427319389
 31
0.0
  0
LINE
  5
168
330
1F
100
AcDbEntity
  8
0
  6
Continuous
 62
     7
370
     0
100
AcDbLine
 10
7.2570220947
 20
3.5852319389
 30
0.0
 11
7.2570220947
 21
3.6254114308
 31
0.0
  0
LINE
  5
169
330
1F
100
AcDbEntity
  8
0
  6
Continuous
 62
     7
370
     0
100
AcDbLine
 10
7.1743426028
 20
5.5427319389
 30
0.0
 11
7.1570220947
 21
5.5527319389
 31
0.0
  0
LINE
  5
16A
330
1F
100
AcDbEntity
  8
0
  6
Continuous
 62
     7
370
     0
100
AcDbLine
 10
7.1570220947
 20
5.5929114308
 30
0.0
 11
7.1570220947
 21
5.5527319389
 31
0.0
  0
LINE
  5
16B
330
1F
100
AcDbEntity
  8
0
  6
Continuous
 62
     7
370
     0
100
AcDbLine
 10
7.1570220947
 20
5.5929114308
 30
0.0
 11
7.1670220947
 21
5.6102319389
 31
0.0
  0
LINE
  5
16C
330
1F
100
AcDbEntity
  8
0
  6
Continuous
 62
     7
370
     0
100
AcDbLine
 10
7.2570220947
 20
5.560052447
 30
0.0
 11
7.2570220947
 21
5.6002319389
 31
0.0
  0
LINE
  5
16D
330
1F
100
AcDbEntity
  8
0
  6
Continuous
 62
     7
370
     0
100
AcDbLine
 10
7.1743426028
 20
4.6077319389
 30
0.0
 11
7.1570220947
 21
4.6077319389
 31
0.0
  0
LINE
  5
16E
330
1F
100
AcDbEntity
  8
0
  6
Continuous
 62
     7
370
     0
100
AcDbLine
 10
7.1570220947
 20
4.6077319389
 30
0.0
 11
7.1570220947
 21
5.5527319389
 31
0.0
  0
LINE
  5
16F
330
1F
100
AcDbEntity
  8
0
  6
Continuous
 62
     7
370
     0
100
AcDbLine
 10
7.1570220947
 20
4.5777319389
 30
0.0
 11
7.1743426028
 21
4.5777319389
 31
0.0
  0
LINE
  5
170
330
1F
100
AcDbEntity
  8
0
  6
Continuous
 62
     7
370
     0
100
AcDbLine
 10
7.1570220947
 20
3.6327319389
 30
0.0
 11
7.1570220947
 21
4.5777319389
 31
0.0
  0
LINE
  5
171
330
1F
100
AcDbEntity
  8
0
  6
Continuous
 62
     7
370
     0
100
AcDbLine
 10
7.2587972411
 20
3.5927319389
 30
0.0
 11
7.3769074773
 21
3.5927319389
 31
0.0
  0
ARC
  5
172
330
1F
100
AcDbEntity
  8
0
  6
Continuous
 62
     7
370
     0
100
AcDbCircle
 10
25.3446239735
 20
4.5915399854
 30
0.0
 40
18.11338582677166
100
AcDbArc
 50
179.9962296446
 51
183.1610063
  0
ARC
  5
173
330
1F
100
AcDbEntity
  8
0
  6
Continuous
 62
     7
370
     0
100
AcDbCircle
 10
25.3446239735
 20
4.5939238924
 30
0.0
 40
18.11338582677166
100
AcDbArc
 50
176.8389937
 51
180.0037703554
  0
LINE
  5
174
330
1F
100
AcDbEntity
  8
0
  6
Continuous
 62
     7
370
     0
100
AcDbLine
 10
7.3769074773
 20
5.5927319389
 30
0.0
 11
7.2587972411
 21
5.5927319389
 31
0.0
  0
LINE
  5
175
330
1F
100
AcDbEntity
  8
0
  6
Continuous
 62
     7
370
     0
100
AcDbLine
 10
7.3769074773
 20
3.5927319389
 30
0.0
 11
7.3769074773
 21
5.5927319389
 31
0.0
  0
LINE
  5
176
330
1F
100
AcDbEntity
  8
0
  6
Continuous
 62
     7
370
     0
100
AcDbLine
 10
7.1633216781
 20
5.6927319389
 30
0.0
 11
7.1548349982
 21
5.6927319389
 31
0.0
  0
LINE
  5
177
330
1F
100
AcDbEntity
  8
0
  6
Continuous
 62
     7
370
     0
100
AcDbLine
 10
7.1313502142
 20
5.6927319389
 30
0.0
 11
7.1220099987
 21
5.6927319389
 31
0.0
  0
LINE
  5
178
330
1F
100
AcDbEntity
  8
0
  6
Continuous
 62
     7
370
     0
100
AcDbLine
 10
7.2028097433
 20
5.6927319389
 30
0.0
 11
7.1934422073
 21
5.6927319389
 31
0.0
  0
LINE
  5
179
330
1F
100
AcDbEntity
  8
0
  6
Continuous
 62
     7
370
     0
100
AcDbLine
 10
7.1548349982
 20
5.6927319389
 30
0.0
 11
7.1313502142
 21
5.6927319389
 31
0.0
  0
LINE
  5
17A
330
1F
100
AcDbEntity
  8
0
  6
Continuous
 62
     7
370
     0
100
AcDbLine
 10
7.2519074773
 20
3.4927319389
 30
0.0
 11
7.3969074773
 21
3.4927319389
 31
0.0
  0
LINE
  5
17B
330
1F
100
AcDbEntity
  8
0
  6
Continuous
 62
     7
370
     0
100
AcDbLine
 10
7.3969074773
 20
5.6927319389
 30
0.0
 11
7.3019074773
 21
5.6927319389
 31
0.0
  0
LINE
  5
17C
330
1F
100
AcDbEntity
  8
0
  6
Continuous
 62
     7
370
     0
100
AcDbLine
 10
7.2219074773
 20
5.6927319389
 30
0.0
 11
7.2028097433
 21
5.6927319389
 31
0.0
  0
LINE
  5
17D
330
1F
100
AcDbEntity
  8
0
  6
Continuous
 62
     7
370
     0
100
AcDbLine
 10
7.1220099987
 20
5.6927319389
 30
0.0
 11
7.0269074773
 21
5.6927319389
 31
0.0
  0
LINE
  5
17E
330
1F
100
AcDbEntity
  8
0
  6
Continuous
 62
     7
370
     0
100
AcDbLine
 10
7.0269074773
 20
3.4927319389
 30
0.0
 11
7.1781096245
 21
3.4927319389
 31
0.0
  0
LINE
  5
17F
330
1F
100
AcDbEntity
  8
0
  6
Continuous
 62
     7
370
     0
100
AcDbLine
 10
7.3769074773
 20
5.5427319389
 30
0.0
 11
7.5269074773
 21
5.5427319389
 31
0.0
  0
LINE
  5
180
330
1F
100
AcDbEntity
  8
0
  6
Continuous
 62
     7
370
     0
100
AcDbLine
 10
7.5269074773
 20
3.6427319389
 30
0.0
 11
7.5269074773
 21
5.5427319389
 31
0.0
  0
LINE
  5
181
330
1F
100
AcDbEntity
  8
0
  6
Continuous
 62
     7
370
     0
100
AcDbLine
 10
7.5269074773
 20
3.6427319389
 30
0.0
 11
7.3769074773
 21
3.6427319389
 31
0.0
  0
LINE
  5
182
330
1F
100
AcDbEntity
  8
0
  6
Continuous
 62
     7
370
     0
100
AcDbLine
 10
7.1934422073
 20
5.6927319389
 30
0.0
 11
7.1633216781
 21
5.6927319389
 31
0.0
  0
LINE
  5
183
330
1F
100
AcDbEntity
  8
0
  6
Continuous
 62
     7
370
     0
100
AcDbLine
 10
7.2301404008
 20
5.6927319389
 30
0.0
 11
7.2219074773
 21
5.6927319389
 31
0.0
  0
LINE
  5
184
330
1F
100
AcDbEntity
  8
0
  6
Continuous
 62
     7
370
     0
100
AcDbLine
 10
7.2876758395
 20
5.6927319389
 30
0.0
 11
7.2301404008
 21
5.6927319389
 31
0.0
  0
LINE
  5
185
330
1F
100
AcDbEntity
  8
0
  6
Continuous
 62
     7
370
     0
100
AcDbLine
 10
7.3019074773
 20
5.6927319389
 30
0.0
 11
7.2876758395
 21
5.6927319389
 31
0.0
  0
LINE
  5
186
330
1F
100
AcDbEntity
  8
0
  6
Continuous
 62
     7
370
     0
100
AcDbLine
 10
7.3969074773
 20
5.6927319389
 30
0.0
 11
7.4069074773
 21
5.6827319389
 31
0.0
  0
LINE
  5
187
330
1F
100
AcDbEntity
  8
0
  6
Continuous
 62
     7
370
     0
100
AcDbLine
 10
7.4069074773
 20
5.6002319389
 30
0.0
 11
7.4069074773
 21
5.6827319389
 31
0.0
  0
LINE
  5
188
330
1F
100
AcDbEntity
  8
0
  6
Continuous
 62
     7
370
     0
100
AcDbLine
 10
7.4169074773
 20
5.6002319389
 30
0.0
 11
7.4069074773
 21
5.6002319389
 31
0.0
  0
LINE
  5
189
330
1F
100
AcDbEntity
  8
0
  6
Continuous
 62
     7
370
     0
100
AcDbLine
 10
7.4169074773
 20
5.6102319389
 30
0.0
 11
7.4169074773
 21
5.6002319389
 31
0.0
  0
LINE
  5
18A
330
1F
100
AcDbEntity
  8
0
  6
Continuous
 62
     7
370
     0
100
AcDbLine
 10
7.5169074773
 20
5.6102319389
 30
0.0
 11
7.4169074773
 21
5.6102319389
 31
0.0
  0
LINE
  5
18B
330
1F
100
AcDbEntity
  8
0
  6
Continuous
 62
     7
370
     0
100
AcDbLine
 10
7.5169074773
 20
5.6102319389
 30
0.0
 11
7.5269074773
 21
5.5929114308
 31
0.0
  0
LINE
  5
18C
330
1F
100
AcDbEntity
  8
0
  6
Continuous
 62
     7
370
     0
100
AcDbLine
 10
7.5269074773
 20
5.5427319389
 30
0.0
 11
7.5269074773
 21
5.5929114308
 31
0.0
  0
LINE
  5
18D
330
1F
100
AcDbEntity
  8
0
  6
Continuous
 62
     7
370
     0
100
AcDbLine
 10
7.3769074773
 20
5.6202319389
 30
0.0
 11
7.3769074773
 21
5.5427319389
 31
0.0
  0
LINE
  5
18E
330
1F
100
AcDbEntity
  8
0
  6
Continuous
 62
     7
370
     0
100
AcDbLine
 10
7.3669074773
 20
5.6202319389
 30
0.0
 11
7.3769074773
 21
5.6202319389
 31
0.0
  0
LINE
  5
18F
330
1F
100
AcDbEntity
  8
0
  6
Continuous
 62
     7
370
     0
100
AcDbLine
 10
7.3669074773
 20
5.6102319389
 30
0.0
 11
7.3669074773
 21
5.6202319389
 31
0.0
  0
LINE
  5
190
330
1F
100
AcDbEntity
  8
0
  6
Continuous
 62
     7
370
     0
100
AcDbLine
 10
7.0269074773
 20
5.6102319389
 30
0.0
 11
7.3669074773
 21
5.6102319389
 31
0.0
  0
LINE
  5
191
330
1F
100
AcDbEntity
  8
0
  6
Continuous
 62
     7
370
     0
100
AcDbLine
 10
7.0269074773
 20
5.6102319389
 30
0.0
 11
7.0169074773
 21
5.627552447
 31
0.0
  0
LINE
  5
192
330
1F
100
AcDbEntity
  8
0
  6
Continuous
 62
     7
370
     0
100
AcDbLine
 10
7.0169074773
 20
5.6827319389
 30
0.0
 11
7.0169074773
 21
5.627552447
 31
0.0
  0
LINE
  5
193
330
1F
100
AcDbEntity
  8
0
  6
Continuous
 62
     7
370
     0
100
AcDbLine
 10
7.0169074773
 20
5.6827319389
 30
0.0
 11
7.0269074773
 21
5.6927319389
 31
0.0
  0
LINE
  5
194
330
1F
100
AcDbEntity
  8
0
  6
Continuous
 62
     7
370
     0
100
AcDbLine
 10
7.5269074773
 20
3.592552447
 30
0.0
 11
7.5169074773
 21
3.5752319389
 31
0.0
  0
LINE
  5
195
330
1F
100
AcDbEntity
  8
0
  6
Continuous
 62
     7
370
     0
100
AcDbLine
 10
7.3669074773
 20
3.5752319389
 30
0.0
 11
7.0269074773
 21
3.5752319389
 31
0.0
  0
LINE
  5
196
330
1F
100
AcDbEntity
  8
0
  6
Continuous
 62
     7
370
     0
100
AcDbLine
 10
7.3669074773
 20
3.5652319389
 30
0.0
 11
7.3669074773
 21
3.5752319389
 31
0.0
  0
LINE
  5
197
330
1F
100
AcDbEntity
  8
0
  6
Continuous
 62
     7
370
     0
100
AcDbLine
 10
7.3769074773
 20
3.5652319389
 30
0.0
 11
7.3669074773
 21
3.5652319389
 31
0.0
  0
LINE
  5
198
330
1F
100
AcDbEntity
  8
0
  6
Continuous
 62
     7
370
     0
100
AcDbLine
 10
7.3769074773
 20
3.6427319389
 30
0.0
 11
7.3769074773
 21
3.5652319389
 31
0.0
  0
LINE
  5
199
330
1F
100
AcDbEntity
  8
0
  6
Continuous
 62
     7
370
     0
100
AcDbLine
 10
7.5269074773
 20
3.592552447
 30
0.0
 11
7.5269074773
 21
3.6427319389
 31
0.0
  0
LINE
  5
19A
330
1F
100
AcDbEntity
  8
0
  6
Continuous
 62
     7
370
     0
100
AcDbLine
 10
7.4169074773
 20
3.5752319389
 30
0.0
 11
7.5169074773
 21
3.5752319389
 31
0.0
  0
LINE
  5
19B
330
1F
100
AcDbEntity
  8
0
  6
Continuous
 62
     7
370
     0
100
AcDbLine
 10
7.4169074773
 20
3.5852319389
 30
0.0
 11
7.4169074773
 21
3.5752319389
 31
0.0
  0
LINE
  5
19C
330
1F
100
AcDbEntity
  8
0
  6
Continuous
 62
     7
370
     0
100
AcDbLine
 10
7.4069074773
 20
3.5852319389
 30
0.0
 11
7.4169074773
 21
3.5852319389
 31
0.0
  0
LINE
  5
19D
330
1F
100
AcDbEntity
  8
0
  6
Continuous
 62
     7
370
     0
100
AcDbLine
 10
7.4069074773
 20
3.5027319389
 30
0.0
 11
7.4069074773
 21
3.5852319389
 31
0.0
  0
LINE
  5
19E
330
1F
100
AcDbEntity
  8
0
  6
Continuous
 62
     7
370
     0
100
AcDbLine
 10
7.4069074773
 20
3.5027319389
 30
0.0
 11
7.3969074773
 21
3.4927319389
 31
0.0
  0
LINE
  5
19F
330
1F
100
AcDbEntity
  8
0
  6
Continuous
 62
     7
370
     0
100
AcDbLine
 10
7.231388043
 20
3.4927319389
 30
0.0
 11
7.2519074773
 21
3.4927319389
 31
0.0
  0
LINE
  5
1A0
330
1F
100
AcDbEntity
  8
0
  6
Continuous
 62
     7
370
     0
100
AcDbLine
 10
7.2081213566
 20
3.4927319389
 30
0.0
 11
7.231388043
 21
3.4927319389
 31
0.0
  0
LINE
  5
1A1
330
1F
100
AcDbEntity
  8
0
  6
Continuous
 62
     7
370
     0
100
AcDbLine
 10
7.1781096245
 20
3.4927319389
 30
0.0
 11
7.2081213566
 21
3.4927319389
 31
0.0
  0
LINE
  5
1A2
330
1F
100
AcDbEntity
  8
0
  6
Continuous
 62
     7
370
     0
100
AcDbLine
 10
7.0269074773
 20
3.4927319389
 30
0.0
 11
7.0169074773
 21
3.5027319389
 31
0.0
  0
LINE
  5
1A3
330
1F
100
AcDbEntity
  8
0
  6
Continuous
 62
     7
370
     0
100
AcDbLine
 10
7.0169074773
 20
3.5579114308
 30
0.0
 11
7.0169074773
 21
3.5027319389
 31
0.0
  0
LINE
  5
1A4
330
1F
100
AcDbEntity
  8
0
  6
Continuous
 62
     7
370
     0
100
AcDbLine
 10
7.0169074773
 20
3.5579114308
 30
0.0
 11
7.0269074773
 21
3.5752319389
 31
0.0
  0
LINE
  5
1A5
330
1F
100
AcDbEntity
  8
0
  6
Continuous
 62
     7
370
     0
100
AcDbLine
 10
7.0269074773
 20
5.6102319389
 30
0.0
 11
7.0269074773
 21
3.5752319389
 31
0.0
  0
LINE
  5
1A6
330
1F
100
AcDbEntity
  8
0
  6
Continuous
 62
     7
370
     0
100
AcDbLine
 10
7.3669074773
 20
3.5752319389
 30
0.0
 11
7.3669074773
 21
3.5927319389
 31
0.0
  0
LINE
  5
1A7
330
1F
100
AcDbEntity
  8
0
  6
Continuous
 62
     7
370
     0
100
AcDbLine
 10
7.3669074773
 20
5.5927319389
 30
0.0
 11
7.3669074773
 21
5.6102319389
 31
0.0
  0
LINE
  5
1A8
330
1F
100
AcDbEntity
  8
0
  6
Continuous
 62
     7
370
     0
100
AcDbLine
 10
7.0169074773
 20
3.5579114308
 30
0.0
 11
7.0169074773
 21
5.627552447
 31
0.0
  0
HATCH
  5
1A9
330
1F
100
AcDbEntity
  8
0
  6
Continuous
 62
     7
370
     0
100
AcDbHatch
 10
0.0
 20
0.0
 30
0.0
210
0.0
220
0.0
230
1.0
  2
ANSI31
 70
     0
 71
     0
 91
        1
 92
        0
 93
       20
 72
     1
 10
7.026907477295398
 20
3.575231938886349
 11
7.016907477295399
 21
3.55791143081066
 72
     1
 10
7.016907477295399
 20
3.55791143081066
 11
7.016907477295399
 21
3.502731938886348
 72
     1
 10
7.016907477295399
 20
3.502731938886348
 11
7.026907477295397
 21
3.492731938886349
 72
     1
 10
7.026907477295397
 20
3.492731938886349
 11
7.178109624519936
 21
3.492731938886349
 72
     1
 10
7.178109624519936
 20
3.492731938886349
 11
7.208121356587378
 21
3.492731938886349
 72
     1
 10
7.208121356587378
 20
3.492731938886349
 11
7.23138804302599
 21
3.492731938886349
 72
     1
 10
7.23138804302599
 20
3.492731938886349
 11
7.251907477295399
 21
3.492731938886349
 72
     1
 10
7.251907477295399
 20
3.492731938886349
 11
7.396907477295399
 21
3.492731938886349
 72
     1
 10
7.396907477295399
 20
3.492731938886349
 11
7.406907477295398
 21
3.502731938886348
 72
     1
 10
7.406907477295398
 20
3.502731938886348
 11
7.406907477295398
 21
3.585231938886349
 72
     1
 10
7.406907477295398
 20
3.585231938886349
 11
7.416907477295398
 21
3.585231938886349
 72
     1
 10
7.416907477295398
 20
3.585231938886349
 11
7.416907477295398
 21
3.575231938886349
 72
     1
 10
7.416907477295398
 20
3.575231938886349
 11
7.516907477295399
 21
3.575231938886349
 72
     1
 10
7.516907477295399
 20
3.575231938886349
 11
7.526907477295399
 21
3.592552446962038
 72
     1
 10
7.526907477295399
 20
3.592552446962038
 11
7.526907477295399
 21
3.642731938886349
 72
     1
 10
7.526907477295399
 20
3.642731938886349
 11
7.376907477295399
 21
3.642731938886349
 72
     1
 10
7.376907477295399
 20
3.642731938886349
 11
7.376907477295399
 21
3.565231938886349
 72
     1
 10
7.376907477295399
 20
3.565231938886349
 11
7.366907477295399
 21
3.565231938886349
 72
     1
 10
7.366907477295399
 20
3.565231938886349
 11
7.366907477295399
 21
3.575231938886349
 72
     1
 10
7.366907477295399
 20
3.575231938886349
 11
7.026907477295398
 21
3.575231938886349
 97
        0
 75
     0
 76
     1
 52
0.0
 41
1.0
 77
     0
 78
     1
 53
45.0
 43
0.0
 44
0.0
 45
-0.0883883476483184
 46
0.0883883476483184
 79
     0
 98
        1
 10
0.0
 20
0.0
  0
HATCH
  5
1AA
330
1F
100
AcDbEntity
  8
0
  6
Continuous
 62
     7
370
     0
100
AcDbHatch
 10
0.0
 20
0.0
 30
0.0
210
0.0
220
0.0
230
1.0
  2
ANSI31
 70
     0
 71
     0
 91
        1
 92
        0
 93
       26
 72
     1
 10
7.154834998180255
 20
5.692731938886348
 11
7.131350214203867
 21
5.692731938886348
 72
     1
 10
7.131350214203867
 20
5.692731938886348
 11
7.122009998743355
 21
5.692731938886348
 72
     1
 10
7.122009998743355
 20
5.692731938886348
 11
7.026907477295397
 21
5.692731938886348
 72
     1
 10
7.026907477295397
 20
5.692731938886348
 11
7.016907477295399
 21
5.68273193888635
 72
     1
 10
7.016907477295399
 20
5.68273193888635
 11
7.016907477295399
 21
5.627552446962038
 72
     1
 10
7.016907477295399
 20
5.627552446962038
 11
7.026907477295398
 21
5.610231938886349
 72
     1
 10
7.026907477295398
 20
5.610231938886349
 11
7.366907477295399
 21
5.610231938886349
 72
     1
 10
7.366907477295399
 20
5.610231938886349
 11
7.366907477295399
 21
5.620231938886349
 72
     1
 10
7.366907477295399
 20
5.620231938886349
 11
7.376907477295399
 21
5.620231938886349
 72
     1
 10
7.376907477295399
 20
5.620231938886349
 11
7.376907477295399
 21
5.54273193888635
 72
     1
 10
7.376907477295399
 20
5.54273193888635
 11
7.526907477295399
 21
5.54273193888635
 72
     1
 10
7.526907477295399
 20
5.54273193888635
 11
7.526907477295399
 21
5.59291143081066
 72
     1
 10
7.526907477295399
 20
5.59291143081066
 11
7.516907477295399
 21
5.610231938886349
 72
     1
 10
7.516907477295399
 20
5.610231938886349
 11
7.416907477295398
 21
5.610231938886349
 72
     1
 10
7.416907477295398
 20
5.610231938886349
 11
7.416907477295398
 21
5.600231938886349
 72
     1
 10
7.416907477295398
 20
5.600231938886349
 11
7.406907477295398
 21
5.600231938886349
 72
     1
 10
7.406907477295398
 20
5.600231938886349
 11
7.406907477295398
 21
5.68273193888635
 72
     1
 10
7.406907477295398
 20
5.68273193888635
 11
7.396907477295399
 21
5.692731938886348
 72
     1
 10
7.396907477295399
 20
5.692731938886348
 11
7.301907477295398
 21
5.692731938886348
 72
     1
 10
7.301907477295398
 20
5.692731938886348
 11
7.287675839466199
 21
5.692731938886348
 72
     1
 10
7.287675839466199
 20
5.692731938886348
 11
7.2301404007596
 21
5.692731938886348
 72
     1
 10
7.2301404007596
 20
5.692731938886348
 11
7.221907477295398
 21
5.692731938886348
 72
     1
 10
7.221907477295398
 20
5.692731938886348
 11
7.2028097432716
 21
5.692731938886348
 72
     1
 10
7.2028097432716
 20
5.692731938886348
 11
7.193442207296924
 21
5.692731938886348
 72
     1
 10
7.193442207296924
 20
5.692731938886348
 11
7.163321678105312
 21
5.692731938886348
 72
     1
 10
7.163321678105312
 20
5.692731938886348
 11
7.154834998180255
 21
5.692731938886348
 97
        0
 75
     0
 76
     1
 52
0.0
 41
1.0
 77
     0
 78
     1
 53
45.0
 43
0.0
 44
0.0
 45
-0.0883883476483184
 46
0.0883883476483184
 79
     0
 98
        1
 10
0.0
 20
0.0
  0
HATCH
  5
1AB
330
1F
100
AcDbEntity
  8
0
  6
Continuous
 62
     7
370
     0
100
AcDbHatch
 10
0.0
 20
0.0
 30
0.0
210
0.0
220
0.0
230
1.0
  2
ANSI31
 70
     0
 71
     0
 91
        1
 92
        0
 93
        5
 72
     1
 10
7.376907477295399
 20
3.592731938886349
 11
7.376907477295399
 21
5.59273193888635
 72
     1
 10
7.376907477295399
 20
5.59273193888635
 11
7.258797241074927
 21
5.59273193888635
 72
     2
 10
25.34462397351016
 20
4.593923892351074
 40
18.11338582677165
 50
176.8389936999546
 51
180.0037703554499
 73
     1
 72
     2
 10
25.34462397351016
 20
4.591539985421624
 40
18.11338582677165
 50
179.9962296445509
 51
183.1610063000462
 73
     1
 72
     1
 10
7.258797241074927
 20
3.592731938886349
 11
7.376907477295399
 21
3.592731938886349
 97
        0
 75
     0
 76
     1
 52
0.0
 41
1.0
 77
     0
 78
     1
 53
45.0
 43
0.0
 44
0.0
 45
-0.0883883476483184
 46
0.0883883476483184
 79
     0
 98
        1
 10
0.0
 20
0.0
  0
HATCH
  5
1AC
330
1F
100
AcDbEntity
  8
0
  6
Continuous
 62
     7
370
     0
100
AcDbHatch
 10
0.0
 20
0.0
 30
0.0
210
0.0
220
0.0
230
1.0
  2
ANSI31
 70
     0
 71
     0
 91
        1
 92
        0
 93
        8
 72
     1
 10
7.257022094724299
 20
3.625411430810661
 11
7.247022094724299
 21
3.642731938886349
 72
     1
 10
7.247022094724299
 20
3.642731938886349
 11
7.17434260279999
 21
3.642731938886349
 72
     1
 10
7.17434260279999
 20
3.642731938886349
 11
7.157022094724298
 21
3.632731938886348
 72
     1
 10
7.157022094724298
 20
3.632731938886348
 11
7.157022094724298
 21
3.592552446962037
 72
     1
 10
7.157022094724298
 20
3.592552446962037
 11
7.167022094724299
 21
3.575231938886349
 72
     1
 10
7.167022094724299
 20
3.575231938886349
 11
7.239701586648609
 21
3.575231938886349
 72
     1
 10
7.239701586648609
 20
3.575231938886349
 11
7.257022094724299
 21
3.58523193888635
 72
     1
 10
7.257022094724299
 20
3.58523193888635
 11
7.257022094724299
 21
3.625411430810661
 97
        0
 75
     0
 76
     1
 52
90.0
 41
0.25
 77
     0
 78
     1
 53
135.0000000000002
 43
0.0
 44
0.0
 45
-0.0220970869120795
 46
-0.0220970869120797
 79
     0
 98
        1
 10
0.0
 20
0.0
  0
HATCH
  5
1AD
330
1F
100
AcDbEntity
  8
0
  6
Continuous
 62
     7
370
     0
100
AcDbHatch
 10
0.0
 20
0.0
 30
0.0
210
0.0
220
0.0
230
1.0
  2
ANSI31
 70
     0
 71
     0
 91
        1
 92
        0
 93
        8
 72
     1
 10
7.247022094724299
 20
5.54273193888635
 11
7.257022094724299
 21
5.560052446962038
 72
     1
 10
7.257022094724299
 20
5.560052446962038
 11
7.257022094724299
 21
5.600231938886349
 72
     1
 10
7.257022094724299
 20
5.600231938886349
 11
7.239701586648609
 21
5.610231938886349
 72
     1
 10
7.239701586648609
 20
5.610231938886349
 11
7.167022094724299
 21
5.610231938886349
 72
     1
 10
7.167022094724299
 20
5.610231938886349
 11
7.157022094724298
 21
5.592911430810661
 72
     1
 10
7.157022094724298
 20
5.592911430810661
 11
7.157022094724298
 21
5.55273193888635
 72
     1
 10
7.157022094724298
 20
5.55273193888635
 11
7.17434260279999
 21
5.542731938886349
 72
     1
 10
7.17434260279999
 20
5.542731938886349
 11
7.247022094724299
 21
5.54273193888635
 97
        0
 75
     0
 76
     1
 52
90.0
 41
0.25
 77
     0
 78
     1
 53
135.0000000000002
 43
0.0
 44
0.0
 45
-0.0220970869120795
 46
-0.0220970869120797
 79
     0
 98
        1
 10
0.0
 20
0.0
  0
DIMENSION
  5
1AE
330
1F
100
AcDbEntity
  8
0
  6
Continuous
 62
     7
370
     0
100
AcDbDimension
  2
_D_1
 10
8.2748909831
 20
3.6427319389
 30
0.0
 11
8.2748909831
 21
4.5927319389
 31
0.0
 70
   160
  1
%%c<>
 71
     2
 42
-1.0
  3
SLDDIMSTYLE1
100
AcDbAlignedDimension
 13
7.5269074773
 23
5.5427319389
 33
0.0
 14
7.5269074773
 24
3.6427319389
 34
0.0
 50
90.0
100
AcDbRotatedDimension
  0
DIMENSION
  5
1C2
330
1F
100
AcDbEntity
  8
0
  6
Continuous
 62
     7
370
     0
100
AcDbDimension
  2
_D_2
 10
7.5269074773
 20
5.9200688288
 30
0.0
 11
8.2748909831
 21
5.9200688288
 31
0.0
 70
   160
  1
<>
 71
     2
 42
-1.0
  3
SLDDIMSTYLE2
100
AcDbAlignedDimension
 13
7.4069074773
 23
5.6827319389
 33
0.0
 14
7.5269074773
 24
5.5929114308
 34
0.0
100
AcDbRotatedDimension
  0
DIMENSION
  5
1D7
330
1F
100
AcDbEntity
  8
0
  6
Continuous
 62
     7
370
     0
100
AcDbDimension
  2
_D_3
 10
7.5269074773
 20
6.2815351591
 30
0.0
 11
7.2719074773
 21
6.2815351591
 31
0.0
 70
   160
  1
<>
 71
     2
 42
-1.0
  3
SLDDIMSTYLE2
100
AcDbAlignedDimension
 13
7.0169074773
 23
5.6827319389
 33
0.0
 14
7.5269074773
 24
5.5929114308
 34
0.0
100
AcDbRotatedDimension
  0
INSERT
  5
1F0
102
{ACAD_REACTORS
330
1F2
102
}
330
1F
100
AcDbEntity
  8
0
  6
Continuous
 62
     7
370
     0
100
AcDbBlockReference
  2
SW_NOTE_5
 10
6.5218575024
 20
4.2359632752
 30
0.0
  0
LEADER
  5
1F2
330
1F
100
AcDbEntity
  8
0
  6
Continuous
 62
     7
370
     0
100
AcDbLeader
  3
SLDDIMSTYLE3
 73
     2
 76
     3
 10
7.1570220947
 20
3.7223207158
 30
0.0
 10
6.7679204946
 20
4.2359632752
 30
0.0
 10
6.5218575024
 20
4.2359632752
 30
0.0
340
1F0
  0
INSERT
  5
1F8
102
{ACAD_REACTORS
330
1F9
102
}
330
1F
100
AcDbEntity
  8
0
  6
Continuous
 62
     7
370
     0
100
AcDbBlockReference
  2
SW_NOTE_6
 10
6.3329119727
 20
3.067585816
 30
0.0
  0
LEADER
  5
1F9
330
1F
100
AcDbEntity
  8
0
  6
Continuous
 62
     7
370
     0
100
AcDbLeader
  3
SLDDIMSTYLE3
 73
     2
 76
     3
 10
7.1544524439
 20
3.4927319389
 30
0.0
 10
6.5789749649
 20
3.067585816
 30
0.0
 10
6.3329119727
 20
3.067585816
 30
0.0
340
1F8
  0
INSERT
  5
201
102
{ACAD_REACTORS
330
202
102
}
330
1F
100
AcDbEntity
  8
0
  6
Continuous
 62
     7
370
     0
100
AcDbBlockReference
  2
SW_NOTE_7
 10
8.1030447223
 20
3.0492499981
 30
0.0
  0
LEADER
  5
202
330
1F
100
AcDbEntity
  8
0
  6
Continuous
 62
     7
370
     0
100
AcDbLeader
  3
SLDDIMSTYLE3
 73
     2
 76
     3
 10
7.4529669483
 20
3.5752319389
 30
0.0
 10
7.8530447223
 20
3.0492499981
 30
0.0
 10
8.1030447223
 20
3.0492499981
 30
0.0
340
201
  0
INSERT
  5
208
102
{ACAD_REACTORS
330
209
102
}
330
1F
100
AcDbEntity
  8
0
  6
Continuous
 62
     7
370
     0
100
AcDbBlockReference
  2
SW_NOTE_8
 10
8.0809327217
 20
3.3914924383
 30
0.0
  0
LEADER
  5
209
330
1F
100
AcDbEntity
  8
0
  6
Continuous
 62
     7
370
     0
100
AcDbLeader
  3
SLDDIMSTYLE3
 73
     2
 76
     3
 10
7.3769074773
 20
3.9238831118
 30
0.0
 10
7.8348697296
 20
3.3914924383
 30
0.0
 10
8.0809327217
 20
3.3914924383
 30
0.0
340
208
  0
INSERT
  5
210
102
{ACAD_REACTORS
330
211
102
}
330
1F
100
AcDbEntity
  8
0
  6
Continuous
 62
     7
370
     0
100
AcDbBlockReference
  2
SW_NOTE_9
 10
6.5896140537
 20
3.8667286164
 30
0.0
  0
LEADER
  5
211
330
1F
100
AcDbEntity
  8
0
  6
Continuous
 62
     7
370
     0
100
AcDbLeader
  3
SLDDIMSTYLE3
 73
     2
 76
     3
 10
7.0873266916
 20
3.581318526
 30
0.0
 10
6.8396140537
 20
3.8667286164
 30
0.0
 10
6.5896140537
 20
3.8667286164
 30
0.0
340
210
  0
OLE2FRAME
  5
212
330
1F
100
AcDbEntity
  8
0
100
AcDbOle2Frame
 70
     2
  3
Paintbrush Picture
 10
9.0178120406
 20
1.3267570784
 30
0.0
 11
10.4397105087
 21
1.1242314806
 31
0.0
 71
     2
 72
     0
 73
     1
 90
     7296
310
8055C64EE7A81E092240C05F59A1653AF53F0000000000000000FD155DBC21E1
310
2440C05F59A1653AF53F0000000000000000FD155DBC21E12440A1732426DAFC
310
F13F0000000000000000C64EE7A81E092240A1732426DAFCF13F000000000000
310
00000000000001000000000100000100000001000000000001000000001C0000
310
D0CF11E0A1B11AE1000000000000000000000000000000003E000300FEFF0900
310
0600000000000000000000000100000001000000000000000010000002000000
310
01000000FEFFFFFF0000000000000000FFFFFFFFFFFFFFFFFFFFFFFFFFFFFFFF
310
FFFFFFFFFFFFFFFFFFFFFFFFFFFFFFFFFFFFFFFFFFFFFFFFFFFFFFFFFFFFFFFF
310
FFFFFFFFFFFFFFFFFFFFFFFFFFFFFFFFFFFFFFFFFFFFFFFFFFFFFFFFFFFFFFFF
310
FFFFFFFFFFFFFFFFFFFFFFFFFFFFFFFFFFFFFFFFFFFFFFFFFFFFFFFFFFFFFFFF
310
FFFFFFFFFFFFFFFFFFFFFFFFFFFFFFFFFFFFFFFFFFFFFFFFFFFFFFFFFFFFFFFF
310
FFFFFFFFFFFFFFFFFFFFFFFFFFFFFFFFFFFFFFFFFFFFFFFFFFFFFFFFFFFFFFFF
310
FFFFFFFFFFFFFFFFFFFFFFFFFFFFFFFFFFFFFFFFFFFFFFFFFFFFFFFFFFFFFFFF
310
FFFFFFFFFFFFFFFFFFFFFFFFFFFFFFFFFFFFFFFFFFFFFFFFFFFFFFFFFFFFFFFF
310
FFFFFFFFFFFFFFFFFFFFFFFFFFFFFFFFFFFFFFFFFFFFFFFFFFFFFFFFFFFFFFFF
310
FFFFFFFFFFFFFFFFFFFFFFFFFFFFFFFFFFFFFFFFFFFFFFFFFFFFFFFFFFFFFFFF
310
FFFFFFFFFFFFFFFFFFFFFFFFFFFFFFFFFFFFFFFFFFFFFFFFFFFFFFFFFFFFFFFF
310
FFFFFFFFFFFFFFFFFFFFFFFFFFFFFFFFFFFFFFFFFFFFFFFFFFFFFFFFFFFFFFFF
310
FFFFFFFFFFFFFFFFFFFFFFFFFFFFFFFFFFFFFFFFFFFFFFFFFFFFFFFFFFFFFFFF
310
FFFFFFFFFFFFFFFFFFFFFFFFFFFFFFFFFFFFFFFFFFFFFFFFFFFFFFFFFFFFFFFF
310
FDFFFFFFFEFFFFFFFEFFFFFFFEFFFFFF05000000060000000700000008000000
310
090000000A0000000B0000000C000000FEFFFFFFFFFFFFFFFFFFFFFFFFFFFFFF
310
FFFFFFFFFFFFFFFFFFFFFFFFFFFFFFFFFFFFFFFFFFFFFFFFFFFFFFFFFFFFFFFF
310
FFFFFFFFFFFFFFFFFFFFFFFFFFFFFFFFFFFFFFFFFFFFFFFFFFFFFFFFFFFFFFFF
310
FFFFFFFFFFFFFFFFFFFFFFFFFFFFFFFFFFFFFFFFFFFFFFFFFFFFFFFFFFFFFFFF
310
FFFFFFFFFFFFFFFFFFFFFFFFFFFFFFFFFFFFFFFFFFFFFFFFFFFFFFFFFFFFFFFF
310
FFFFFFFFFFFFFFFFFFFFFFFFFFFFFFFFFFFFFFFFFFFFFFFFFFFFFFFFFFFFFFFF
310
FFFFFFFFFFFFFFFFFFFFFFFFFFFFFFFFFFFFFFFFFFFFFFFFFFFFFFFFFFFFFFFF
310
FFFFFFFFFFFFFFFFFFFFFFFFFFFFFFFFFFFFFFFFFFFFFFFFFFFFFFFFFFFFFFFF
310
FFFFFFFFFFFFFFFFFFFFFFFFFFFFFFFFFFFFFFFFFFFFFFFFFFFFFFFFFFFFFFFF
310
FFFFFFFFFFFFFFFFFFFFFFFFFFFFFFFFFFFFFFFFFFFFFFFFFFFFFFFFFFFFFFFF
310
FFFFFFFFFFFFFFFFFFFFFFFFFFFFFFFFFFFFFFFFFFFFFFFFFFFFFFFFFFFFFFFF
310
FFFFFFFFFFFFFFFFFFFFFFFFFFFFFFFFFFFFFFFFFFFFFFFFFFFFFFFFFFFFFFFF
310
FFFFFFFFFFFFFFFFFFFFFFFFFFFFFFFFFFFFFFFFFFFFFFFFFFFFFFFFFFFFFFFF
310
FFFFFFFFFFFFFFFFFFFFFFFFFFFFFFFFFFFFFFFFFFFFFFFFFFFFFFFFFFFFFFFF
310
FFFFFFFFFFFFFFFFFFFFFFFFFFFFFFFFFFFFFFFFFFFFFFFFFFFFFFFFFFFFFFFF
310
52006F006F007400200045006E00740072007900000000000000000000000000
310
0000000000000000000000000000000000000000000000000000000000000000
310
16000500FFFFFFFFFFFFFFFF020000000A00030000000000C000000000000046
310
000000000000000000000000D0099A4EE138D10103000000C000000000000000
310
01004F006C006500000000000000000000000000000000000000000000000000
310
0000000000000000000000000000000000000000000000000000000000000000
310
0A000200FFFFFFFFFFFFFFFFFFFFFFFF00000000000000000000000000000000
310
0000000000000000000000000000000000000000000000001400000000000000
310
010043006F006D0070004F0062006A0000000000000000000000000000000000
310
0000000000000000000000000000000000000000000000000000000000000000
310
120002010100000003000000FFFFFFFF00000000000000000000000000000000
310
0000000000000000000000000000000000000000010000004D00000000000000
310
01004F006C006500310030004E00610074006900760065000000000000000000
310
0000000000000000000000000000000000000000000000000000000000000000
310
1A000200FFFFFFFFFFFFFFFFFFFFFFFF00000000000000000000000000000000
310
000000000000000000000000000000000000000004000000E411000000000000
310
FEFFFFFF02000000FEFFFFFFFFFFFFFFFFFFFFFFFFFFFFFFFFFFFFFFFFFFFFFF
310
FFFFFFFFFFFFFFFFFFFFFFFFFFFFFFFFFFFFFFFFFFFFFFFFFFFFFFFFFFFFFFFF
310
FFFFFFFFFFFFFFFFFFFFFFFFFFFFFFFFFFFFFFFFFFFFFFFFFFFFFFFFFFFFFFFF
310
FFFFFFFFFFFFFFFFFFFFFFFFFFFFFFFFFFFFFFFFFFFFFFFFFFFFFFFFFFFFFFFF
310
FFFFFFFFFFFFFFFFFFFFFFFFFFFFFFFFFFFFFFFFFFFFFFFFFFFFFFFFFFFFFFFF
310
FFFFFFFFFFFFFFFFFFFFFFFFFFFFFFFFFFFFFFFFFFFFFFFFFFFFFFFFFFFFFFFF
310
FFFFFFFFFFFFFFFFFFFFFFFFFFFFFFFFFFFFFFFFFFFFFFFFFFFFFFFFFFFFFFFF
310
FFFFFFFFFFFFFFFFFFFFFFFFFFFFFFFFFFFFFFFFFFFFFFFFFFFFFFFFFFFFFFFF
310
FFFFFFFFFFFFFFFFFFFFFFFFFFFFFFFFFFFFFFFFFFFFFFFFFFFFFFFFFFFFFFFF
310
FFFFFFFFFFFFFFFFFFFFFFFFFFFFFFFFFFFFFFFFFFFFFFFFFFFFFFFFFFFFFFFF
310
FFFFFFFFFFFFFFFFFFFFFFFFFFFFFFFFFFFFFFFFFFFFFFFFFFFFFFFFFFFFFFFF
310
FFFFFFFFFFFFFFFFFFFFFFFFFFFFFFFFFFFFFFFFFFFFFFFFFFFFFFFFFFFFFFFF
310
FFFFFFFFFFFFFFFFFFFFFFFFFFFFFFFFFFFFFFFFFFFFFFFFFFFFFFFFFFFFFFFF
310
FFFFFFFFFFFFFFFFFFFFFFFFFFFFFFFFFFFFFFFFFFFFFFFFFFFFFFFFFFFFFFFF
310
FFFFFFFFFFFFFFFFFFFFFFFFFFFFFFFFFFFFFFFFFFFFFFFFFFFFFFFFFFFFFFFF
310
FFFFFFFFFFFFFFFFFFFFFFFFFFFFFFFFFFFFFFFFFFFFFFFFFFFFFFFFFFFFFFFF
310
0100000200000000000000000000000000000000000000000000000000000000
310
0000000000000000000000000000000000000000000000000000000000000000
310
0100FEFF030A0000FFFFFFFF0A00030000000000C00000000000004607000000
310
5042727573680007000000504272757368000700000050427275736800F439B2
310
7100000000000000000000000000000000000000000000000000000000000000
310
0000000000000000000000000000000000000000000000000000000000000000
310
0000000000000000000000000000000000000000000000000000000000000000
310
0000000000000000000000000000000000000000000000000000000000000000
310
0000000000000000000000000000000000000000000000000000000000000000
310
0000000000000000000000000000000000000000000000000000000000000000
310
0000000000000000000000000000000000000000000000000000000000000000
310
0000000000000000000000000000000000000000000000000000000000000000
310
0000000000000000000000000000000000000000000000000000000000000000
310
0000000000000000000000000000000000000000000000000000000000000000
310
0000000000000000000000000000000000000000000000000000000000000000
310
0000000000000000000000000000000000000000000000000000000000000000
310
E0110000424DDE11000000000000360400002800000096000000170000000100
310
08000000000000000000E7240000E72400000001000000010000000000FF0101
310
01FF020202FF030303FF040404FF050505FF060606FF070707FF080808FF0909
310
09FF0A0A0AFF0B0B0BFF0C0C0CFF0D0D0DFF0E0E0EFF0F0F0FFF101010FF1111
310
11FF121212FF131313FF141414FF151515FF161616FF171717FF181818FF1919
310
19FF1A1A1AFF1B1B1BFF1C1C1CFF1D1D1DFF1E1E1EFF1F1F1FFF202020FF2121
310
21FF222222FF232323FF242424FF252525FF262626FF272727FF282828FF2929
310
29FF2A2A2AFF2B2B2BFF2C2C2CFF2D2D2DFF2E2E2EFF2F2F2FFF303030FF3131
310
31FF323232FF333333FF343434FF353535FF363636FF373737FF383838FF3939
310
39FF3A3A3AFF3B3B3BFF3C3C3CFF3D3D3DFF3E3E3EFF3F3F3FFF404040FF4141
310
41FF424242FF434343FF444444FF454545FF464646FF474747FF484848FF4949
310
49FF4A4A4AFF4B4B4BFF4C4C4CFF4D4D4DFF4E4E4EFF4F4F4FFF505050FF5151
310
51FF525252FF535353FF545454FF555555FF565656FF575757FF585858FF5959
310
59FF5A5A5AFF5B5B5BFF5C5C5CFF5D5D5DFF5E5E5EFF5F5F5FFF606060FF6161
310
61FF626262FF636363FF646464FF656565FF666666FF676767FF686868FF6969
310
69FF6A6A6AFF6B6B6BFF6C6C6CFF6D6D6DFF6E6E6EFF6F6F6FFF707070FF7171
310
71FF727272FF737373FF747474FF757575FF767676FF777777FF787878FF7979
310
79FF7A7A7AFF7B7B7BFF7C7C7CFF7D7D7DFF7E7E7EFF7F7F7FFF808080FF8181
310
81FF828282FF838383FF848484FF858585FF868686FF878787FF888888FF8989
310
89FF8A8A8AFF8B8B8BFF8C8C8CFF8D8D8DFF8E8E8EFF8F8F8FFF909090FF9191
310
91FF929292FF939393FF949494FF959595FF969696FF979797FF989898FF9999
310
99FF9A9A9AFF9B9B9BFF9C9C9CFF9D9D9DFF9E9E9EFF9F9F9FFFA0A0A0FFA1A1
310
A1FFA2A2A2FFA3A3A3FFA4A4A4FFA5A5A5FFA6A6A6FFA7A7A7FFA8A8A8FFA9A9
310
A9FFAAAAAAFFABABABFFACACACFFADADADFFAEAEAEFFAFAFAFFFB0B0B0FFB1B1
310
B1FFB2B2B2FFB3B3B3FFB4B4B4FFB5B5B5FFB6B6B6FFB7B7B7FFB8B8B8FFB9B9
310
B9FFBABABAFFBBBBBBFFBCBCBCFFBDBDBDFFBEBEBEFFBFBFBFFFC0C0C0FFC1C1
310
C1FFC2C2C2FFC3C3C3FFC4C4C4FFC5C5C5FFC6C6C6FFC7C7C7FFC8C8C8FFC9C9
310
C9FFCACACAFFCBCBCBFFCCCCCCFFCDCDCDFFCECECEFFCFCFCFFFD0D0D0FFD1D1
310
D1FFD2D2D2FFD3D3D3FFD4D4D4FFD5D5D5FFD6D6D6FFD7D7D7FFD8D8D8FFD9D9
310
D9FFDADADAFFDBDBDBFFDCDCDCFFDDDDDDFFDEDEDEFFDFDFDFFFE0E0E0FFE1E1
310
E1FFE2E2E2FFE3E3E3FFE4E4E4FFE5E5E5FFE6E6E6FFE7E7E7FFE8E8E8FFE9E9
310
E9FFEAEAEAFFEBEBEBFFECECECFFEDEDEDFFEEEEEEFFEFEFEFFFF0F0F0FFF1F1
310
F1FFF2F2F2FFF3F3F3FFF4F4F4FFF5F5F5FFF6F6F6FFF7F7F7FFF8F8F8FFF9F9
310
F9FFFAFAFAFFFBFBFBFFFCFCFCFFFDFDFDFFFEFEFEFFFFFFFFFFFFFFFFFFFFFF
310
C94E4E4E4F4E4EFFFFFFFFFFC94E4E4E4E4E72FFFFFFFFFFFFFF734E4D4E4E4E
310
C9FFFFFFFFFFAA683516171616265B9BE9FFFFFFFFFF4E4E4E4D4E4EFFFFFFFF
310
FFFFFFFF4E4E4F4E4D4E4E4E4F4E4E4F4D4E4E4E4E4E4D4E4F4E4D4E4E4EAAFF
310
FFFFFFFFFFEA4E4F4F4E4E4E4E4E4D4D4F4F4E4E4E4E4E5B7FAAFFFFFFFFFFFF
310
C9744E1716171616164D8DEAFFFFFFFF0000FFFFFFFFFFFFBA161617161716FF
310
FFFFFFFFB917171616174FFFFFFFFFFFFFFF4E1716161616B9FFFFFFB9341717
310
1716171617171616268CFFFFFFFF161617161617FFFFFFFFFFFFFFB917161717
310
1617167F807F7F7F7F7F7F807F7F807F7F807F7F7F414EFFFFFFFFFFFF8C167F
310
7F807F7F7F7E7F7F807F807F7F807F4E3417258EFFFFEA4E162674AABAEAEBBA
310
AA74341680FFFFFF0000FFFFFFFFFFFFB9171717171617FFFFFFFFFFBB161616
310
16164EFFFFFFFFFFFFFF4E1717171717B9FFFF9C171617171716161616171616
310
171766FFFFFF161717161617FFFFFFFFFFFFFF8E16171717161616FFFFFFFFFF
310
FFFFFFFFFFFFFFFFFFFFFFFFFFAA16D9FFFFFFFFFF3467FFFFFFFFEAFFFFFFFF
310
FFFFFFFFFFFFFFFFFFCA671667EB26278DFFFFFFFFFFFFFFFFFFFF8C2541EAFF
310
0000FFFFFFFFFFFFB9171717171716FFFFFFFFFFBA16171617174EFFFFFFFFFF
310
FFFF4E1717161616BAFF9B1617161616171716171617161616161667FFFF1616
310
16161716FFFFFFFFFFFFFF7F16161617174017FFFFFFFFFFFFFFFFFFFFFFFFFF
310
FFFFFFFFFFFF344E7F7F7F7E7417DAFFFFFFFF80FFFFFFFFFFFFFFFFFFFFFFFF
310
FFFFFF9B163425CAFFFFFFFFFFFFFFFFFFFFFFFFCA2667FF0000FFFFFFFFFFFF
310
BA171717171617FFFFFFFFFFB916171716164EFFFFFFFFFFFFFF4F1716161717
310
B9C91716171616161716161617171616161617168DFF161716161717FFFFFFFF
310
FFFFFF7F17171716164F16FFFFFFFFFFFFFFFFFFFFFFFFFFFFFFFFFFFFFF9B16
310
17161617174EFFFFFFFFFF34FFFFFFFFD9BABABABABADAFFFFFFFFFF7F16AAFF
310
FFFFFFFFFFFFFFFFFFFFFFFFFF9C16BA0000FFFFFFFFFFFFB9161717161717FF
310
FFFFFFFFB917161716174DFFFFFFFFFFFFFF4E1616161616BA4E161617171716
310
419BEAEAAA4E16161617161726E9171717161616FFFFFFFFFFFFFF4F16161717
310
164E16FFFFFFFFFFBAB9B9B9B9B9BABABACAFFFFFFFFFFFFFFFFFFFFFFFFFFFF
310
FFFFBA16FFFFFFFF7F1617161617174DEAFFFFFFEA41FFFFFFFFFFAA4D16174E
310
9BFFFFFFFFFF34730000FFFFFFFFFFFFB9161617171617FFFFFFFFFFBA161616
310
16164EFFFFFFFFFFFFFF4F16161717169B1617161716175BFFFFFFFFFFFF7417
310
16171616168D171717161617FFFFFFFFFFFFEA2616171717167416FFFFFFFFFF
310
16171616171717171717EAFFFFFFFFFFFFFFFFFFFFFFFFFFFFFF6716FFFFFFFF
310
7F4EFFFFFFFFBA2573FFFFFFFFBAFFFFFFFFAA167FB9BB9B269BFFFFFFFF664F
310
0000FFFFFFFFFFFFB9171616161616FFFFFFFFFFBA16161717164EFFFFFFFFFF
310
FFFF4E16161616174E161617171626EAFFFFFFFFFFFFFF4E16161616164E1716
310
16161617FFFFFFFFFFFF671616161716347F16FFFFFFFFFF16B9FFFFFFFFFFFF
310
D9168DFFFFFFFFFFFFFFFFFFFFFFFFFFFFEA1716FFFFFFFF7F4EFFFFFFFFFF7F
310
4EFFFFFFFFFFFFFFFFFF5B66FFFFFFEA347FFFFFFFFF7F4D0000FFFFFFFFFFFF
310
B9171616171617FFFFFFFFFFBA17161716174EFFFFFFFFFFFFFF4D1716161617
310
17161716161673FFFFFFFFFFFFFFFF9B1617161717161616171616174F4E4E4E
310
4E341616171616167E7F16FFFFFFFFFF16BAFFFFFFFFFFFFFF5B41FFFFFFFF34
310
1616171616BAFFFFFF9B1716FFFFFFFF7F4EFFFFFFFFFF4E4EFFFFFFFF734E4E
310
4E4E267EDA9B67164EEAFFFFFFFF744D0000FFFFFFFFFFFFBA171717161617FF
310
FFFFFFFFBA1616171616347F7F7F7F80807F331616161717161717161716B9FF
310
FFFFFFFFFFFFFFE9161616161616171716161716171616161616171616171734
310
EA7F16FFFFFFFFFF16BAFFFFFFFFFFFFFFAA17C9FFFFFF7326BABA5B25FFFFFF
310
FF401716FFFFFFFF7F264F4E4E4E4217AAFFFFFFEA16677F73261616164173CA
310
FFFFFFFFFFFF417F0000FFFFFFFFFFFFBA171616171617FFFFFFFFFFBA161616
310
17171616161616161616161717161616161616161617EAFFFFFFFFFFFFFFFFFF
310
261717161716161617161616161617161617161616174EEAFF8016FFFFFFFFFF
310
17BAFFFFFFFFFFFFFFFF3467FFFFFFC916C9FF3467FFFFFFDA166716FFFFFFFF
310
9C4D4E4E4E4E67AAFFFFFFFF6834FF7F262567AAEAFFFFFFFFFFFFFFFF9B17D9
310
0000FFFFFFFFFFFFB9161616161616FFFFFFFFFFBA1617161717171616161616
310
1716171716161716161617171716FFFFFFFFFFFFFFFFFFFF4E17161716171616
310
1617171616161716171717161616169BFF7F17FFFFFFFFFF17B9FFFFFFFFFFFF
310
FFFF7326FFFFFFFF3473DA16AAFFFFFF7317AA16FFFFFFFFFFFFFFFFFFFFFFFF
310
FFFFEA6725BA4E167FEAFFFFFFFFFFFFFFFFFFFF9C167FFF0000FFFFFFFFFFFF
310
B9161717171716FFFFFFFFFFBA16161716171616171717161617161716161616
310
171617171617EAFFFFFFFFFFFFFFFFFF26161717161616161616161617171616
310
1616161616171616AA8016FFFFFFFFFF16BAFFFFFFFFFFFFFFFFDA179BFFFFFF
310
74348D26FFFFFFFF2566B917FFFFFFFFD8BAB9BAB9BADAFFFFEA41169B7425C9
310
FFFFFFFFFFFFFFFFFFFFAB4F1680FFFF0000FFFFFFFFFFFFBA161717171617FF
310
FFFFFFFFBA17161717161617171617161616161617171616171716171617BBFF
310
FFFFFFFFFFFFFFE9171616161617161617161716FFFFFFFFFFD9671616161617
310
348017FFFFFFFFFF16BAFFFFFFFFFFFFFFFFFF4E5AFFFFFFC916265AFFFFFFAA
310
16AABA16FFFFFFFF7F1617161616179BFFFFEB4127168DFFFFFFFFFFFFFFD99B
310
6734175AC9FFFFFF0000FFFFFFFFFFFFB9161617171617FFFFFFFFFFBB161616
310
1616347F807F7F7F7F8033171716171617171616161672FFFFFFFFFFFFFFFF9C
310
171617171617161716161617FFFFFFFFFFFFFF4117161616174E17FFFFFFFFFF
310
16BAFFFFFFFFFFFFFFFFFF9B16DAFFFFFF34169BFFFFFF5A26FFB917FFFFFFFF
310
7F4EFFFFFFEA5B26FFFFFFEA2616EAFFFFFFFFDA743416331617414E4E4E4ECA
310
0000FFFFFFFFFFFFBA161716161616FFFFFFFFFFBA17171616164EFFFFFFFFFF
310
FFFF4E16161717174E161717171626EBFFFFFFFFFFFFFF4E16161617165B1616
310
16171617FFFFFFFFFFFFFF6716161616161617FFFFFFFFFF16BAFFFFFFFFFFFF
310
FFFFFFEA268CFFFFFF7316EAFFFFEB1774FFB916FFFFFFFF7F4EFFFFFFFF7316
310
FFFFFFFF6826FFFFFFFFEB264D9CEABA257F807F7F6616BA0000FFFFFFFFFFFF
310
BA161716161616FFFFFFFFFFBA16171616164DFFFFFFFFFFFFFF4E1617161617
310
9B1617171717165BEBFFFFFFFFFF671616161617179B171616161616FFFFFFFF
310
FFFFFF3417161617171617FFFFFFFFFF17BAFFFFFFFFFFFFFFFFFFFF6734FFFF
310
FFEBCAFFFFFF8D17C9FFBA17FFFFFFFF7F357F808066174FFFFFFFFF7F16FFFF
310
FFFFD91673B99B415BFFFFFFFFBA16DA00009B7F7F7F807F671617161616167F
310
80807F7E6617161616164EFFFFFFFFFFFFFF4E1616161617B94E171716161616
310
349BC9D9AA4E16171616161634FF161617161717B9B9BAB9BA9B411716171716
310
163416FFFFFFFFFF16B9FFFFFFFFFFFFFFFFFFFFC917CAFFFFFFFFFFFFFF3342
310
FFFFBA17FFFFFFFF9B4E4E4F4E4E66EAFFFFFFFF5B16C9FFFFFFFFAA4E164E73
310
EAFFFFFFFF8D26FF00004E161716161616171617171616171717171617161616
310
17174EFFFFFFFFFFFFFF4E1717171616B9D92616171716171716171717171716
310
16171716AAFF161717171617161617171616161617161716166717FFFFFFFFFF
310
17B9FFFFFFFFFFFFFFFFFFFFFF3467FFFFFFFFFFFFCA168CFFFFBB17FFFFFFFF
310
FFFFFFFFFFFFFFFFFFFFFFEA26265BFFFFFFFFFFFFFFFFFFFFFFFFFFEA3467FF
310
00004D16161616161617161717161617161616171617171616164EFFFFFFFFFF
310
FFFF4D1617161616BAFF9B1616161616161716161616171717161766FFFF1616
310
16171617161617161716171616171717667F16FFFFFFFFFF17BAFFFFFFFFFFFF
310
FFFFFFFFFF8C26EAFFFFFFFFFF6617EAFFFFBA17FFFFFFFFFFFFFFFFFFFFFFFF
310
FFFFEA5A25BA269BFFFFFFFFFFFFFFFFFFFFFFFF6616DAFF00004E1616171616
310
1616161616161716161617171616171616174EFFFFFFFFFFFFFF4D1717171716
310
B9FFFF9C161616161616161716161717171667FFFFFF17161717171716161617
310
1716161616161641E97E16FFFFFFFFFF16B9FFFFFFFFFFFFFFFFFFFFFFEA169B
310
FFFFFFFFEA265BFFFFFFB916FFFFFFFFFFFFFFFFFFFFFFFFFF9B3416AAFF9B17
310
67EAFFFFFFFFFFFFFFFFEA5B169BFFFF00004D17161716161616161717171616
310
161717161716171716174EFFFFFFFFFFFFFF4D1616161616BAFFFFFFBB411616
310
161716161616171634ABFFFFFFFF161716161617171716171617171617267FFF
310
FF7F164E4E4E4E4F17BAFFFFFFFFFFFFFFFFFFFFFFFF66344D4E4E4F4117AAFF
310
FFFFBA174E4E4E4D4E4D4D4E4E4E4E4116174EBBFFFFFFCA342666ABEAFFFFEA
310
AA6725269CFFFFFF0000724F4E4D4D4D4E4D4D4E4E4E4D4E4E4E4E4E4E4E4E4D
310
4E4E74FFFFFFFFFFFFFF734E4E4E4D4ECAFFFFFFFFFFAA663416171717265B9B
310
FFFFFFFFFFFF7F8080807F80807F7F7F7F7F807FBAFFFFFFFF9B4E4E4F4D4D4E
310
4DC9FFFFFFFFFFFFFFFFFFFFFFFFBA4E4E4E4E4D4E4EFFFFFFFFC94E4E4E4F4E
310
4E4E4D4E4E5A807F9CD9FFFFFFFFFFFFFF9B5B2617171716174E8DEAFFFFFFFF
310
0000000000000000000000000000000000000000000000000000000000000000
  1
OLE
  0
ENDSEC
  0
SECTION
  2
OBJECTS
  0
DICTIONARY
  5
C
330
0
100
AcDbDictionary
281
     1
  3
ACAD_GROUP
350
D
  3
ACAD_LAYOUT
350
1A
  3
ACAD_MLINESTYLE
350
17
  3
ACAD_PLOTSETTINGS
350
19
  3
ACAD_PLOTSTYLENAME
350
E
  3
ACAD_SCALELIST
350
47
  0
DICTIONARY
  5
D
102
{ACAD_REACTORS
330
C
102
}
330
C
100
AcDbDictionary
281
     1
  0
DICTIONARY
  5
1A
102
{ACAD_REACTORS
330
C
102
}
330
C
100
AcDbDictionary
281
     1
  3
Layout1
350
1E
  3
Layout2
350
26
  3
Model
350
22
  0
DICTIONARY
  5
17
102
{ACAD_REACTORS
330
C
102
}
330
C
100
AcDbDictionary
281
     1
  3
Standard
350
18
  0
DICTIONARY
  5
19
102
{ACAD_REACTORS
330
C
102
}
330
C
100
AcDbDictionary
281
     1
  0
ACDBDICTIONARYWDFLT
  5
E
102
{ACAD_REACTORS
330
C
102
}
330
C
100
AcDbDictionary
281
     1
  3
Normal
350
F
100
AcDbDictionaryWithDefault
340
F
  0
DICTIONARY
  5
47
102
{ACAD_REACTORS
330
C
102
}
330
C
100
AcDbDictionary
281
     1
  3
A0
350
48
  3
A1
350
49
  3
A2
350
4A
  3
A3
350
4B
  3
A4
350
4C
  3
A5
350
4D
  3
A6
350
4E
  3
A7
350
4F
  3
A8
350
50
  3
A9
350
51
  3
B0
350
52
  3
B1
350
53
  3
B2
350
54
  3
B3
350
55
  3
B4
350
56
  3
B5
350
57
  3
B6
350
58
  3
B7
350
59
  3
B8
350
5A
  3
B9
350
5B
  3
C0
350
5C
  3
C1
350
5D
  3
C2
350
5E
  3
C3
350
5F
  3
C4
350
60
  3
C5
350
61
  3
C6
350
62
  3
C7
350
63
  3
C8
350
64
  3
C9
350
65
  3
D0
350
66
  3
D1
350
67
  3
D2
350
68
  0
LAYOUT
  5
1E
102
{ACAD_REACTORS
330
1A
102
}
330
1A
100
AcDbPlotSettings
  1

  2
none_device
  4

  6

 40
0.0
 41
0.0
 42
0.0
 43
0.0
 44
0.0
 45
0.0
 46
0.0
 47
0.0
 48
0.0
 49
0.0
140
0.0
141
0.0
142
1.0
143
1.0
 70
   688
 72
     0
 73
     0
 74
     5
  7

 75
    16
147
1.0
148
0.0
149
0.0
100
AcDbLayout
  1
Layout1
 70
     1
 71
     1
 10
0.0
 20
0.0
 11
12.0
 21
9.0
 12
0.0
 22
0.0
 32
0.0
 14
1.0000000000E+20
 24
1.0000000000E+20
 34
1.0000000000E+20
 15
-1.0000000000E+20
 25
-1.0000000000E+20
 35
-1.0000000000E+20
146
0.0
 13
0.0
 23
0.0
 33
0.0
 16
1.0
 26
0.0
 36
0.0
 17
0.0
 27
1.0
 37
0.0
 76
     0
330
1B
  0
LAYOUT
  5
26
102
{ACAD_REACTORS
330
1A
102
}
330
1A
100
AcDbPlotSettings
  1

  2
none_device
  4

  6

 40
0.0
 41
0.0
 42
0.0
 43
0.0
 44
0.0
 45
0.0
 46
0.0
 47
0.0
 48
0.0
 49
0.0
140
0.0
141
0.0
142
1.0
143
1.0
 70
   688
 72
     0
 73
     0
 74
     5
  7

 75
    16
147
1.0
148
0.0
149
0.0
100
AcDbLayout
  1
Layout2
 70
     1
 71
     2
 10
0.0
 20
0.0
 11
0.0
 21
0.0
 12
0.0
 22
0.0
 32
0.0
 14
0.0
 24
0.0
 34
0.0
 15
0.0
 25
0.0
 35
0.0
146
0.0
 13
0.0
 23
0.0
 33
0.0
 16
1.0
 26
0.0
 36
0.0
 17
0.0
 27
1.0
 37
0.0
 76
     0
330
23
  0
LAYOUT
  5
22
102
{ACAD_REACTORS
330
1A
102
}
330
1A
100
AcDbPlotSettings
  1

  2
none_device
  4
Letter_(8.50_x_11.00_Inches)
  6

 40
6.35
 41
6.35
 42
6.35000508
 43
6.35000508
 44
215.9
 45
279.4
 46
0.0
 47
0.0
 48
0.0
 49
0.0
140
0.0
141
0.0
142
1.0
143
1.0
 70
  1712
 72
     0
 73
     0
 74
     0
  7

 75
     0
147
1.0
148
0.0
149
0.0
100
AcDbLayout
  1
Model
 70
     1
 71
     0
 10
0.0
 20
0.0
 11
11.0
 21
8.5
 12
0.0
 22
0.0
 32
0.0
 14
0.0
 24
0.0
 34
0.0
 15
11.0
 25
8.5
 35
0.0
146
0.0
 13
0.0
 23
0.0
 33
0.0
 16
1.0
 26
0.0
 36
0.0
 17
0.0
 27
1.0
 37
0.0
 76
     0
330
1F
331
29
  0
MLINESTYLE
  5
18
102
{ACAD_REACTORS
330
17
102
}
330
17
100
AcDbMlineStyle
  2
Standard
 70
     0
  3

 62
   256
 51
90.0
 52
90.0
 71
     2
 49
0.5
 62
   256
  6
BYLAYER
 49
-0.5
 62
   256
  6
BYLAYER
  0
ACDBPLACEHOLDER
  5
F
102
{ACAD_REACTORS
330
E
102
}
330
E
  0
SCALE
  5
48
102
{ACAD_REACTORS
330
47
102
}
330
47
100
AcDbScale
 70
     0
300
1:1
140
1.0
141
1.0
290
     1
  0
SCALE
  5
49
102
{ACAD_REACTORS
330
47
102
}
330
47
100
AcDbScale
 70
     0
300
1:2
140
1.0
141
2.0
290
     0
  0
SCALE
  5
4A
102
{ACAD_REACTORS
330
47
102
}
330
47
100
AcDbScale
 70
     0
300
1:4
140
1.0
141
4.0
290
     0
  0
SCALE
  5
4B
102
{ACAD_REACTORS
330
47
102
}
330
47
100
AcDbScale
 70
     0
300
1:5
140
1.0
141
5.0
290
     0
  0
SCALE
  5
4C
102
{ACAD_REACTORS
330
47
102
}
330
47
100
AcDbScale
 70
     0
300
1:8
140
1.0
141
8.0
290
     0
  0
SCALE
  5
4D
102
{ACAD_REACTORS
330
47
102
}
330
47
100
AcDbScale
 70
     0
300
1:10
140
1.0
141
10.0
290
     0
  0
SCALE
  5
4E
102
{ACAD_REACTORS
330
47
102
}
330
47
100
AcDbScale
 70
     0
300
1:16
140
1.0
141
16.0
290
     0
  0
SCALE
  5
4F
102
{ACAD_REACTORS
330
47
102
}
330
47
100
AcDbScale
 70
     0
300
1:20
140
1.0
141
20.0
290
     0
  0
SCALE
  5
50
102
{ACAD_REACTORS
330
47
102
}
330
47
100
AcDbScale
 70
     0
300
1:30
140
1.0
141
30.0
290
     0
  0
SCALE
  5
51
102
{ACAD_REACTORS
330
47
102
}
330
47
100
AcDbScale
 70
     0
300
1:40
140
1.0
141
40.0
290
     0
  0
SCALE
  5
52
102
{ACAD_REACTORS
330
47
102
}
330
47
100
AcDbScale
 70
     0
300
1:50
140
1.0
141
50.0
290
     0
  0
SCALE
  5
53
102
{ACAD_REACTORS
330
47
102
}
330
47
100
AcDbScale
 70
     0
300
1:100
140
1.0
141
100.0
290
     0
  0
SCALE
  5
54
102
{ACAD_REACTORS
330
47
102
}
330
47
100
AcDbScale
 70
     0
300
2:1
140
2.0
141
1.0
290
     0
  0
SCALE
  5
55
102
{ACAD_REACTORS
330
47
102
}
330
47
100
AcDbScale
 70
     0
300
4:1
140
4.0
141
1.0
290
     0
  0
SCALE
  5
56
102
{ACAD_REACTORS
330
47
102
}
330
47
100
AcDbScale
 70
     0
300
8:1
140
8.0
141
1.0
290
     0
  0
SCALE
  5
57
102
{ACAD_REACTORS
330
47
102
}
330
47
100
AcDbScale
 70
     0
300
10:1
140
10.0
141
1.0
290
     0
  0
SCALE
  5
58
102
{ACAD_REACTORS
330
47
102
}
330
47
100
AcDbScale
 70
     0
300
100:1
140
100.0
141
1.0
290
     0
  0
SCALE
  5
59
102
{ACAD_REACTORS
330
47
102
}
330
47
100
AcDbScale
 70
     0
300
1/128" = 1'-0"
140
0.0078125
141
12.0
290
     0
  0
SCALE
  5
5A
102
{ACAD_REACTORS
330
47
102
}
330
47
100
AcDbScale
 70
     0
300
1/64" = 1'-0"
140
0.015625
141
12.0
290
     0
  0
SCALE
  5
5B
102
{ACAD_REACTORS
330
47
102
}
330
47
100
AcDbScale
 70
     0
300
1/32" = 1'-0"
140
0.03125
141
12.0
290
     0
  0
SCALE
  5
5C
102
{ACAD_REACTORS
330
47
102
}
330
47
100
AcDbScale
 70
     0
300
1/16" = 1'-0"
140
0.0625
141
12.0
290
     0
  0
SCALE
  5
5D
102
{ACAD_REACTORS
330
47
102
}
330
47
100
AcDbScale
 70
     0
300
3/32" = 1'-0"
140
0.09375
141
12.0
290
     0
  0
SCALE
  5
5E
102
{ACAD_REACTORS
330
47
102
}
330
47
100
AcDbScale
 70
     0
300
1/8" = 1'-0"
140
0.125
141
12.0
290
     0
  0
SCALE
  5
5F
102
{ACAD_REACTORS
330
47
102
}
330
47
100
AcDbScale
 70
     0
300
3/16" = 1'-0"
140
0.1875
141
12.0
290
     0
  0
SCALE
  5
60
102
{ACAD_REACTORS
330
47
102
}
330
47
100
AcDbScale
 70
     0
300
1/4" = 1'-0"
140
0.25
141
12.0
290
     0
  0
SCALE
  5
61
102
{ACAD_REACTORS
330
47
102
}
330
47
100
AcDbScale
 70
     0
300
3/8" = 1'-0"
140
0.375
141
12.0
290
     0
  0
SCALE
  5
62
102
{ACAD_REACTORS
330
47
102
}
330
47
100
AcDbScale
 70
     0
300
1/2" = 1'-0"
140
0.5
141
12.0
290
     0
  0
SCALE
  5
63
102
{ACAD_REACTORS
330
47
102
}
330
47
100
AcDbScale
 70
     0
300
3/4" = 1'-0"
140
0.75
141
12.0
290
     0
  0
SCALE
  5
64
102
{ACAD_REACTORS
330
47
102
}
330
47
100
AcDbScale
 70
     0
300
1" = 1'-0"
140
1.0
141
12.0
290
     0
  0
SCALE
  5
65
102
{ACAD_REACTORS
330
47
102
}
330
47
100
AcDbScale
 70
     0
300
1-1/2" = 1'-0"
140
1.5
141
12.0
290
     0
  0
SCALE
  5
66
102
{ACAD_REACTORS
330
47
102
}
330
47
100
AcDbScale
 70
     0
300
3" = 1'-0"
140
3.0
141
12.0
290
     0
  0
SCALE
  5
67
102
{ACAD_REACTORS
330
47
102
}
330
47
100
AcDbScale
 70
     0
300
6" = 1'-0"
140
6.0
141
12.0
290
     0
  0
SCALE
  5
68
102
{ACAD_REACTORS
330
47
102
}
330
47
100
AcDbScale
 70
     0
300
1'-0" = 1'-0"
140
12.0
141
12.0
290
     0
  0
ENDSEC
  0
EOF
