  0
SECTION
  2
HEADER
  9
$ACADVER
  1
AC1015
  9
$ACADMAINTVER
 70
     6
  9
$DWGCODEPAGE
  3
ANSI_1252
  9
$INSBASE
 10
0.0
 20
0.0
 30
0.0
  9
$EXTMIN
 10
0.0
 20
0.0
 30
0.0
  9
$EXTMAX
 10
11.0
 20
8.5
 30
0.0
  9
$LIMMIN
 10
0.0
 20
0.0
  9
$LIMMAX
 10
11.0
 20
8.5
  9
$ORTHOMODE
 70
     0
  9
$REGENMODE
 70
     1
  9
$FILLMODE
 70
     1
  9
$QTEXTMODE
 70
     0
  9
$MIRRTEXT
 70
     1
  9
$LTSCALE
 40
1.0
  9
$ATTMODE
 70
     1
  9
$TEXTSIZE
 40
0.1111111111
  9
$TRACEWID
 40
0.05
  9
$TEXTSTYLE
  7
Standard
  9
$CLAYER
  8
0
  9
$CELTYPE
  6
ByLayer
  9
$CECOLOR
 62
   256
  9
$CELTSCALE
 40
1.0
  9
$DISPSILH
 70
     0
  9
$DIMSCALE
 40
1.0
  9
$DIMASZ
 40
0.125
  9
$DIMEXO
 40
0.05
  9
$DIMDLI
 40
0.38
  9
$DIMRND
 40
0.0
  9
$DIMDLE
 40
0.0
  9
$DIMEXE
 40
0.07
  9
$DIMTP
 40
0.0
  9
$DIMTM
 40
0.0
  9
$DIMTXT
 40
0.1111111111
  9
$DIMCEN
 40
0.09
  9
$DIMTSZ
 40
0.0
  9
$DIMTOL
 70
     0
  9
$DIMLIM
 70
     0
  9
$DIMTIH
 70
     1
  9
$DIMTOH
 70
     1
  9
$DIMSE1
 70
     0
  9
$DIMSE2
 70
     0
  9
$DIMTAD
 70
     0
  9
$DIMZIN
 70
     0
  9
$DIMBLK
  1

  9
$DIMASO
 70
     1
  9
$DIMSHO
 70
     1
  9
$DIMPOST
  1

  9
$DIMAPOST
  1

  9
$DIMALT
 70
     0
  9
$DIMALTD
 70
     2
  9
$DIMALTF
 40
25.4
  9
$DIMLFAC
 40
1.0
  9
$DIMTOFL
 70
     0
  9
$DIMTVP
 40
0.0
  9
$DIMTIX
 70
     0
  9
$DIMSOXD
 70
     0
  9
$DIMSAH
 70
     0
  9
$DIMBLK1
  1

  9
$DIMBLK2
  1

  9
$DIMSTYLE
  2
Standard
  9
$DIMCLRD
 70
     0
  9
$DIMCLRE
 70
     0
  9
$DIMCLRT
 70
     0
  9
$DIMTFAC
 40
1.0
  9
$DIMGAP
 40
0.1
  9
$DIMJUST
 70
     0
  9
$DIMSD1
 70
     0
  9
$DIMSD2
 70
     0
  9
$DIMTOLJ
 70
     1
  9
$DIMTZIN
 70
     0
  9
$DIMALTZ
 70
     0
  9
$DIMALTTZ
 70
     0
  9
$DIMUPT
 70
     0
  9
$DIMDEC
 70
     2
  9
$DIMTDEC
 70
     2
  9
$DIMALTU
 70
     2
  9
$DIMALTTD
 70
     2
  9
$DIMTXSTY
  7
Standard
  9
$DIMAUNIT
 70
     0
  9
$DIMADEC
 70
     2
  9
$DIMALTRND
 40
0.0
  9
$DIMAZIN
 70
     0
  9
$DIMDSEP
 70
    46
  9
$DIMATFIT
 70
     3
  9
$DIMFRAC
 70
     0
  9
$DIMLDRBLK
  1

  9
$DIMLUNIT
 70
     2
  9
$DIMLWD
 70
    -2
  9
$DIMLWE
 70
    -2
  9
$DIMTMOVE
 70
     0
  9
$LUNITS
 70
     2
  9
$LUPREC
 70
     2
  9
$SKETCHINC
 40
0.1
  9
$FILLETRAD
 40
0.5
  9
$AUNITS
 70
     0
  9
$AUPREC
 70
     2
  9
$MENU
  1
.
  9
$ELEVATION
 40
0.0
  9
$PELEVATION
 40
0.0
  9
$THICKNESS
 40
0.0
  9
$LIMCHECK
 70
     0
  9
$CHAMFERA
 40
0.5
  9
$CHAMFERB
 40
0.5
  9
$CHAMFERC
 40
1.0
  9
$CHAMFERD
 40
0.0
  9
$SKPOLY
 70
     0
  9
$TDCREATE
 40
2455993.627239074
  9
$TDUCREATE
 40
2455993.835572408
  9
$TDUPDATE
 40
2455993.627239086
  9
$TDUUPDATE
 40
2455993.835572419
  9
$TDINDWG
 40
0.0000000116
  9
$TDUSRTIMER
 40
0.0000000116
  9
$USRTIMER
 70
     1
  9
$ANGBASE
 50
0.0
  9
$ANGDIR
 70
     0
  9
$PDMODE
 70
     0
  9
$PDSIZE
 40
-1.0
  9
$PLINEWID
 40
0.0
  9
$SPLFRAME
 70
     0
  9
$SPLINETYPE
 70
     6
  9
$SPLINESEGS
 70
     8
  9
$HANDSEED
  5
3C4
  9
$SURFTAB1
 70
     6
  9
$SURFTAB2
 70
     6
  9
$SURFTYPE
 70
     6
  9
$SURFU
 70
     6
  9
$SURFV
 70
     6
  9
$UCSBASE
  2

  9
$UCSNAME
  2

  9
$UCSORG
 10
0.0
 20
0.0
 30
0.0
  9
$UCSXDIR
 10
1.0
 20
0.0
 30
0.0
  9
$UCSYDIR
 10
0.0
 20
1.0
 30
0.0
  9
$UCSORTHOREF
  2

  9
$UCSORTHOVIEW
 70
     0
  9
$UCSORGTOP
 10
0.0
 20
0.0
 30
0.0
  9
$UCSORGBOTTOM
 10
0.0
 20
0.0
 30
0.0
  9
$UCSORGLEFT
 10
0.0
 20
0.0
 30
0.0
  9
$UCSORGRIGHT
 10
0.0
 20
0.0
 30
0.0
  9
$UCSORGFRONT
 10
0.0
 20
0.0
 30
0.0
  9
$UCSORGBACK
 10
0.0
 20
0.0
 30
0.0
  9
$PUCSBASE
  2

  9
$PUCSNAME
  2

  9
$PUCSORG
 10
0.0
 20
0.0
 30
0.0
  9
$PUCSXDIR
 10
1.0
 20
0.0
 30
0.0
  9
$PUCSYDIR
 10
0.0
 20
1.0
 30
0.0
  9
$PUCSORTHOREF
  2

  9
$PUCSORTHOVIEW
 70
     0
  9
$PUCSORGTOP
 10
0.0
 20
0.0
 30
0.0
  9
$PUCSORGBOTTOM
 10
0.0
 20
0.0
 30
0.0
  9
$PUCSORGLEFT
 10
0.0
 20
0.0
 30
0.0
  9
$PUCSORGRIGHT
 10
0.0
 20
0.0
 30
0.0
  9
$PUCSORGFRONT
 10
0.0
 20
0.0
 30
0.0
  9
$PUCSORGBACK
 10
0.0
 20
0.0
 30
0.0
  9
$USERI1
 70
     0
  9
$USERI2
 70
     0
  9
$USERI3
 70
     0
  9
$USERI4
 70
     0
  9
$USERI5
 70
     0
  9
$USERR1
 40
0.0
  9
$USERR2
 40
0.0
  9
$USERR3
 40
0.0
  9
$USERR4
 40
0.0
  9
$USERR5
 40
0.0
  9
$WORLDVIEW
 70
     1
  9
$SHADEDGE
 70
     3
  9
$SHADEDIF
 70
    70
  9
$TILEMODE
 70
     1
  9
$MAXACTVP
 70
    64
  9
$PINSBASE
 10
0.0
 20
0.0
 30
0.0
  9
$PLIMCHECK
 70
     0
  9
$PEXTMIN
 10
1.0000000000E+20
 20
1.0000000000E+20
 30
1.0000000000E+20
  9
$PEXTMAX
 10
-1.0000000000E+20
 20
-1.0000000000E+20
 30
-1.0000000000E+20
  9
$PLIMMIN
 10
0.0
 20
0.0
  9
$PLIMMAX
 10
12.0
 20
9.0
  9
$UNITMODE
 70
     0
  9
$VISRETAIN
 70
     1
  9
$PLINEGEN
 70
     0
  9
$PSLTSCALE
 70
     1
  9
$TREEDEPTH
 70
  3020
  9
$CMLSTYLE
  2
Standard
  9
$CMLJUST
 70
     0
  9
$CMLSCALE
 40
1.0
  9
$PROXYGRAPHICS
 70
     1
  9
$MEASUREMENT
 70
     0
  9
$CELWEIGHT
370
    -1
  9
$ENDCAPS
280
     0
  9
$JOINSTYLE
280
     0
  9
$LWDISPLAY
290
     1
  9
$INSUNITS
 70
     1
  9
$HYPERLINKBASE
  1

  9
$STYLESHEET
  1

  9
$XEDIT
290
     1
  9
$CEPSNTYPE
380
     0
  9
$PSTYLEMODE
290
     1
  9
$FINGERPRINTGUID
  2
{192F27AE-C65A-4337-B9E7-57775B15DBA7}
  9
$VERSIONGUID
  2
{FAEB1C32-E019-11D5-929B-00C0DF256EC4}
  9
$EXTNAMES
290
     1
  9
$PSVPSCALE
 40
0.0
  9
$OLESTARTUP
290
     0
  0
ENDSEC
  0
SECTION
  2
CLASSES
  0
CLASS
  1
ACDBDICTIONARYWDFLT
  2
AcDbDictionaryWithDefault
  3
ObjectDBX Classes
 90
        0
280
     0
281
     0
  0
CLASS
  1
VISUALSTYLE
  2
AcDbVisualStyle
  3
ObjectDBX Classes
 90
     4095
280
     0
281
     0
  0
CLASS
  1
MATERIAL
  2
AcDbMaterial
  3
ObjectDBX Classes
 90
     1153
280
     0
281
     0
  0
CLASS
  1
ACDBPLACEHOLDER
  2
AcDbPlaceHolder
  3
ObjectDBX Classes
 90
        0
280
     0
281
     0
  0
CLASS
  1
LAYOUT
  2
AcDbLayout
  3
ObjectDBX Classes
 90
        0
280
     0
281
     0
  0
ENDSEC
  0
SECTION
  2
TABLES
  0
TABLE
  2
VPORT
  5
8
330
0
100
AcDbSymbolTable
 70
     1
  0
VPORT
  5
29
330
8
100
AcDbSymbolTableRecord
100
AcDbViewportTableRecord
  2
*Active
 70
     0
 10
0.0
 20
0.0
 11
1.0
 21
1.0
 12
5.5
 22
4.25
 13
0.0
 23
0.0
 14
0.5
 24
0.5
 15
0.5
 25
0.5
 16
0.0
 26
0.0
 36
1.0
 17
0.0
 27
0.0
 37
0.0
 40
8.5
 41
1.2941176471
 42
50.0
 43
0.0
 44
0.0
 50
0.0
 51
0.0
 71
     0
 72
  2000
 73
     1
 74
     3
 75
     0
 76
     0
 77
     0
 78
     0
281
     0
 65
     1
110
0.0
120
0.0
130
0.0
111
1.0
121
0.0
131
0.0
112
0.0
122
1.0
132
0.0
 79
     0
146
0.0
  0
ENDTAB
  0
TABLE
  2
LTYPE
  5
5
330
0
100
AcDbSymbolTable
 70
     6
  0
LTYPE
  5
14
330
5
100
AcDbSymbolTableRecord
100
AcDbLinetypeTableRecord
  2
ByBlock
 70
     0
  3

 72
    65
 73
     0
 40
0.0
  0
LTYPE
  5
15
330
5
100
AcDbSymbolTableRecord
100
AcDbLinetypeTableRecord
  2
ByLayer
 70
     0
  3

 72
    65
 73
     0
 40
0.0
  0
LTYPE
  5
16
330
5
100
AcDbSymbolTableRecord
100
AcDbLinetypeTableRecord
  2
Continuous
 70
     0
  3
Solid line
 72
    65
 73
     0
 40
0.0
  0
LTYPE
  5
3F
330
5
100
AcDbSymbolTableRecord
100
AcDbLinetypeTableRecord
  2
HIDDEN
 70
     0
  3
Hidden __ __ __ __ __ __ __ __ __ __ __ __ __ __
 72
    65
 73
     2
 40
0.075
 49
0.05
 74
     0
 49
-0.025
 74
     0
  0
LTYPE
  5
40
330
5
100
AcDbSymbolTableRecord
100
AcDbLinetypeTableRecord
  2
PHANTOM
 70
     0
  3
Phantom ______  __  __  ______  __  __  ______
 72
    65
 73
     6
 40
0.5
 49
0.25
 74
     0
 49
-0.05
 74
     0
 49
0.05
 74
     0
 49
-0.05
 74
     0
 49
0.05
 74
     0
 49
-0.05
 74
     0
  0
LTYPE
  5
41
330
5
100
AcDbSymbolTableRecord
100
AcDbLinetypeTableRecord
  2
CENTER
 70
     0
  3
Center ____ _ ____ _ ____ _ ____ _ ____ _ ____
 72
    65
 73
     4
 40
0.4
 49
0.25
 74
     0
 49
-0.05
 74
     0
 49
0.05
 74
     0
 49
-0.05
 74
     0
  0
LTYPE
  5
42
330
5
100
AcDbSymbolTableRecord
100
AcDbLinetypeTableRecord
  2
CENTERX2
 70
     0
  3
Center (2x) ________  __  ________  __  _____
 72
    65
 73
     4
 40
0.8
 49
0.5
 74
     0
 49
-0.1
 74
     0
 49
0.1
 74
     0
 49
-0.1
 74
     0
  0
LTYPE
  5
43
330
5
100
AcDbSymbolTableRecord
100
AcDbLinetypeTableRecord
  2
DOT2
 70
     0
  3
Dot (.5x) ........................................
 72
    65
 73
     2
 40
0.025
 49
0.0
 74
     0
 49
-0.025
 74
     0
  0
ENDTAB
  0
TABLE
  2
LAYER
  5
2
330
0
100
AcDbSymbolTable
 70
     2
  0
LAYER
  5
10
330
2
100
AcDbSymbolTableRecord
100
AcDbLayerTableRecord
  2
0
 70
     0
 62
     7
  6
Continuous
370
    -3
390
F
  0
LAYER
  5
44
330
2
100
AcDbSymbolTableRecord
100
AcDbLayerTableRecord
  2
FORMAT
 70
     0
 62
     7
  6
Continuous
370
    -3
390
F
  0
ENDTAB
  0
TABLE
  2
STYLE
  5
3
330
0
100
AcDbSymbolTable
 70
     4
  0
STYLE
  5
11
330
3
100
AcDbSymbolTableRecord
100
AcDbTextStyleTableRecord
  2
Standard
 70
     0
 40
0.0
 41
1.0
 50
0.0
 71
     0
 42
0.2
  3
txt
  4

  0
STYLE
  5
6B
330
3
100
AcDbSymbolTableRecord
100
AcDbTextStyleTableRecord
  2
SLDTEXTSTYLE0
 70
     0
 40
0.0
 41
0.75
 50
0.0
 71
     0
 42
0.2
  3
TXT
  4

  0
STYLE
  5
74
330
3
100
AcDbSymbolTableRecord
100
AcDbTextStyleTableRecord
  2
SLDTEXTSTYLE1
 70
     0
 40
0.0
 41
0.6944444444
 50
0.0
 71
     0
 42
0.2
  3
TXT
  4

  0
STYLE
  5
78
330
3
100
AcDbSymbolTableRecord
100
AcDbTextStyleTableRecord
  2
SLDTEXTSTYLE2
 70
     0
 40
0.0
 41
0.6
 50
0.0
 71
     0
 42
0.2
  3
TXT
  4

  0
ENDTAB
  0
TABLE
  2
VIEW
  5
6
330
0
100
AcDbSymbolTable
 70
     0
  0
ENDTAB
  0
TABLE
  2
UCS
  5
7
330
0
100
AcDbSymbolTable
 70
     0
  0
ENDTAB
  0
TABLE
  2
APPID
  5
9
330
0
100
AcDbSymbolTable
 70
     1
  0
APPID
  5
12
330
9
100
AcDbSymbolTableRecord
100
AcDbRegAppTableRecord
  2
ACAD
 70
     0
  0
ENDTAB
  0
TABLE
  2
DIMSTYLE
  5
A
330
0
100
AcDbSymbolTable
 70
     9
100
AcDbDimStyleTable
  0
DIMSTYLE
105
27
330
A
100
AcDbSymbolTableRecord
100
AcDbDimStyleTableRecord
  2
Standard
 70
     0
178
     0
340
11
  0
DIMSTYLE
105
D5
102
{ACAD_REACTORS
330
D4
330
1BB
330
1CB
102
}
330
A
100
AcDbSymbolTableRecord
100
AcDbDimStyleTableRecord
  2
SLDDIMSTYLE0
 70
     0
 41
0.125
 44
0.0
 45
0.000000001
 78
    12
 79
     3
140
0.0833333333
147
0.0208333333
172
     1
173
     1
178
     0
271
     2
272
     2
276
     2
284
    12
289
     0
340
6B
  0
DIMSTYLE
105
E4
102
{ACAD_REACTORS
330
E3
102
}
330
A
100
AcDbSymbolTableRecord
100
AcDbDimStyleTableRecord
  2
SLDDIMSTYLE1
 70
     0
 41
0.125
 44
0.0
 45
0.000000001
 78
     4
 79
     1
140
0.0833333333
147
0.0208333333
173
     1
178
     0
271
     2
272
     2
276
     2
284
    12
340
6B
  0
DIMSTYLE
105
F3
102
{ACAD_REACTORS
330
F2
330
12E
330
146
330
1D9
330
3AD
102
}
330
A
100
AcDbSymbolTableRecord
100
AcDbDimStyleTableRecord
  2
SLDDIMSTYLE2
 70
     0
 41
0.125
 44
0.0
 45
0.000000001
 78
    12
 79
     3
140
0.0833333333
147
0.0208333333
173
     1
178
     0
271
     2
272
     2
276
     2
284
    12
340
6B
  0
DIMSTYLE
105
13D
102
{ACAD_REACTORS
330
13C
330
3A4
102
}
330
A
100
AcDbSymbolTableRecord
100
AcDbDimStyleTableRecord
  2
SLDDIMSTYLE3
 70
     0
  3
<>
 41
0.125
 44
0.0
 45
0.000000001
 78
    12
 79
     3
140
0.0833333333
141
0.0
147
0.0208333333
173
     1
178
     0
271
     2
272
     2
276
     2
284
    12
340
6B
  0
DIMSTYLE
105
155
102
{ACAD_REACTORS
330
154
102
}
330
A
100
AcDbSymbolTableRecord
100
AcDbDimStyleTableRecord
  2
SLDDIMSTYLE4
 70
     0
 41
0.125
 44
0.0
 45
0.000000001
 78
    12
 79
     3
140
0.0833333333
141
0.0
147
0.0208333333
173
     1
178
     0
271
     2
272
     2
276
     2
284
    12
340
6B
  0
DIMSTYLE
105
163
102
{ACAD_REACTORS
330
162
102
}
330
A
100
AcDbSymbolTableRecord
100
AcDbDimStyleTableRecord
  2
SLDDIMSTYLE5
 70
     0
 41
0.125
 44
0.0
 45
0.000000001
 78
     4
 79
     1
140
0.0833333333
141
0.0
147
0.0208333333
173
     1
178
     0
271
     2
272
     2
276
     2
284
    12
340
6B
  0
DIMSTYLE
105
1E8
102
{ACAD_REACTORS
330
1E7
102
}
330
A
100
AcDbSymbolTableRecord
100
AcDbDimStyleTableRecord
  2
SLDDIMSTYLE6
 70
     0
  3
<>
 41
0.125
 44
0.0
 45
0.000000001
 78
    12
 79
     3
140
0.0833333333
141
0.0
147
0.0208333333
173
     1
178
     0
271
     2
272
     2
276
     2
284
    12
340
6B
  0
DIMSTYLE
105
1F9
330
A
100
AcDbSymbolTableRecord
100
AcDbDimStyleTableRecord
  2
SLDDIMSTYLE7
 70
     0
 41
0.04
 44
0.0
 45
0.000000001
140
0.0
146
0.04
147
0.0
173
     1
178
     0
271
     0
272
     0
276
     2
340
11
341
1FA
343
1FA
344
1FA
  0
ENDTAB
  0
TABLE
  2
BLOCK_RECORD
  5
1
330
0
100
AcDbSymbolTable
 70
    26
  0
BLOCK_RECORD
  5
1F
330
1
100
AcDbSymbolTableRecord
100
AcDbBlockTableRecord
  2
*Model_Space
340
22
  0
BLOCK_RECORD
  5
1B
330
1
100
AcDbSymbolTableRecord
100
AcDbBlockTableRecord
  2
*Paper_Space
340
1E
  0
BLOCK_RECORD
  5
23
330
1
100
AcDbSymbolTableRecord
100
AcDbBlockTableRecord
  2
*Paper_Space0
340
26
  0
BLOCK_RECORD
  5
45
330
1
100
AcDbSymbolTableRecord
100
AcDbBlockTableRecord
  2
Third Angle Projection Block
340
0
102
{BLKREFS
331
6A
102
}
  0
BLOCK_RECORD
  5
7E
330
1
100
AcDbSymbolTableRecord
100
AcDbBlockTableRecord
  2
SW_NOTE_0
340
0
102
{BLKREFS
331
83
102
}
  0
BLOCK_RECORD
  5
84
330
1
100
AcDbSymbolTableRecord
100
AcDbBlockTableRecord
  2
SW_NOTE_1
340
0
102
{BLKREFS
331
89
102
}
  0
BLOCK_RECORD
  5
8B
330
1
100
AcDbSymbolTableRecord
100
AcDbBlockTableRecord
  2
SW_NOTE_2
340
0
102
{BLKREFS
331
90
102
}
  0
BLOCK_RECORD
  5
92
330
1
100
AcDbSymbolTableRecord
100
AcDbBlockTableRecord
  2
SW_NOTE_3
340
0
102
{BLKREFS
331
97
102
}
  0
BLOCK_RECORD
  5
D6
330
1
100
AcDbSymbolTableRecord
100
AcDbBlockTableRecord
  2
*D6
340
0
  0
BLOCK_RECORD
  5
E5
330
1
100
AcDbSymbolTableRecord
100
AcDbBlockTableRecord
  2
*D7
340
0
  0
BLOCK_RECORD
  5
F4
330
1
100
AcDbSymbolTableRecord
100
AcDbBlockTableRecord
  2
*D8
340
0
  0
BLOCK_RECORD
  5
12F
330
1
100
AcDbSymbolTableRecord
100
AcDbBlockTableRecord
  2
*D9
340
0
  0
BLOCK_RECORD
  5
13E
330
1
100
AcDbSymbolTableRecord
100
AcDbBlockTableRecord
  2
*D10
340
0
  0
BLOCK_RECORD
  5
147
330
1
100
AcDbSymbolTableRecord
100
AcDbBlockTableRecord
  2
*D11
340
0
  0
BLOCK_RECORD
  5
156
330
1
100
AcDbSymbolTableRecord
100
AcDbBlockTableRecord
  2
*D12
340
0
  0
BLOCK_RECORD
  5
164
330
1
100
AcDbSymbolTableRecord
100
AcDbBlockTableRecord
  2
*D13
340
0
  0
BLOCK_RECORD
  5
171
330
1
100
AcDbSymbolTableRecord
100
AcDbBlockTableRecord
  2
SW_CENTERMARKSYMBOL_0
340
0
102
{BLKREFS
331
178
102
}
  0
BLOCK_RECORD
  5
179
330
1
100
AcDbSymbolTableRecord
100
AcDbBlockTableRecord
  2
SW_CENTERMARKSYMBOL_1
340
0
102
{BLKREFS
331
180
102
}
  0
BLOCK_RECORD
  5
1BC
330
1
100
AcDbSymbolTableRecord
100
AcDbBlockTableRecord
  2
*D16
340
0
  0
BLOCK_RECORD
  5
1CC
330
1
100
AcDbSymbolTableRecord
100
AcDbBlockTableRecord
  2
*D17
340
0
  0
BLOCK_RECORD
  5
1DA
330
1
100
AcDbSymbolTableRecord
100
AcDbBlockTableRecord
  2
*D18
340
0
  0
BLOCK_RECORD
  5
1E9
330
1
100
AcDbSymbolTableRecord
100
AcDbBlockTableRecord
  2
*D19
340
0
  0
BLOCK_RECORD
  5
1F1
330
1
100
AcDbSymbolTableRecord
100
AcDbBlockTableRecord
  2
SW_NOTE_4
340
0
102
{BLKREFS
331
1F8
102
}
  0
BLOCK_RECORD
  5
1FA
330
1
100
AcDbSymbolTableRecord
100
AcDbBlockTableRecord
  2
_DOT
340
0
  0
BLOCK_RECORD
  5
203
330
1
100
AcDbSymbolTableRecord
100
AcDbBlockTableRecord
  2
SW_CENTERMARKSYMBOL_2
340
0
102
{BLKREFS
331
20A
102
}
  0
BLOCK_RECORD
  5
3A5
330
1
100
AcDbSymbolTableRecord
100
AcDbBlockTableRecord
  2
*D23
340
0
  0
BLOCK_RECORD
  5
3AE
330
1
100
AcDbSymbolTableRecord
100
AcDbBlockTableRecord
  2
*D24
340
0
  0
BLOCK_RECORD
  5
3BB
330
1
100
AcDbSymbolTableRecord
100
AcDbBlockTableRecord
  2
SW_CENTERMARKSYMBOL_3
340
0
102
{BLKREFS
331
3C2
102
}
  0
ENDTAB
  0
ENDSEC
  0
SECTION
  2
BLOCKS
  0
BLOCK
  5
20
330
1F
100
AcDbEntity
  8
0
100
AcDbBlockBegin
  2
*Model_Space
 70
     0
 10
0.0
 20
0.0
 30
0.0
  3
*Model_Space
  1

  0
ENDBLK
  5
21
330
1F
100
AcDbEntity
  8
0
100
AcDbBlockEnd
  0
BLOCK
  5
1C
330
1B
100
AcDbEntity
 67
     1
  8
0
100
AcDbBlockBegin
  2
*Paper_Space
 70
     0
 10
0.0
 20
0.0
 30
0.0
  3
*Paper_Space
  1

  0
ENDBLK
  5
1D
330
1B
100
AcDbEntity
 67
     1
  8
0
100
AcDbBlockEnd
  0
BLOCK
  5
24
330
23
100
AcDbEntity
  8
0
100
AcDbBlockBegin
  2
*Paper_Space0
 70
     0
 10
0.0
 20
0.0
 30
0.0
  3
*Paper_Space0
  1

  0
ENDBLK
  5
25
330
23
100
AcDbEntity
  8
0
100
AcDbBlockEnd
  0
BLOCK
  5
46
330
45
100
AcDbEntity
  8
0
100
AcDbBlockBegin
  2
Third Angle Projection Block
 70
     0
 10
0.0
 20
0.0
 30
0.0
  3
Third Angle Projection Block
  1

  0
CIRCLE
  5
48
330
45
100
AcDbEntity
  8
0
  6
Continuous
 62
     7
370
    30
100
AcDbCircle
 10
3.9951432636
 20
0.7456853688
 30
0.0
 40
0.0696152422706639
  0
CIRCLE
  5
49
330
45
100
AcDbEntity
  8
0
  6
Continuous
 62
     7
370
    30
100
AcDbCircle
 10
3.9951432636
 20
0.7456853688
 30
0.0
 40
0.1535916633280245
  0
LINE
  5
4A
330
45
100
AcDbEntity
  8
0
  6
CENTERX2
 62
     7
370
     0
100
AcDbLine
 10
4.3360937897
 20
0.7456853688
 30
0.0
 11
4.7028635231
 21
0.7456853688
 31
0.0
  0
LINE
  5
4B
330
45
100
AcDbEntity
  8
0
  6
Continuous
 62
     7
370
    30
100
AcDbLine
 10
4.3701432636
 20
0.815300611
 30
0.0
 11
4.3701432636
 21
0.6760701265
 31
0.0
  0
LINE
  5
4C
330
45
100
AcDbEntity
  8
0
  6
Continuous
 62
     7
370
    30
100
AcDbLine
 10
4.3701432636
 20
0.6760701265
 30
0.0
 11
4.6701432636
 21
0.5956853688
 31
0.0
  0
LINE
  5
4D
330
45
100
AcDbEntity
  8
0
  6
Continuous
 62
     7
370
    30
100
AcDbLine
 10
4.6701432636
 20
0.5956853688
 30
0.0
 11
4.6701432636
 21
0.8956853688
 31
0.0
  0
LINE
  5
4E
330
45
100
AcDbEntity
  8
0
  6
Continuous
 62
     7
370
    30
100
AcDbLine
 10
4.6701432636
 20
0.8956853688
 30
0.0
 11
4.3701432636
 21
0.815300611
 31
0.0
  0
LINE
  5
4F
330
45
100
AcDbEntity
  8
0
  6
CENTERX2
 62
     7
370
     0
100
AcDbLine
 10
3.8032513961
 20
0.7456853688
 30
0.0
 11
4.187035131
 21
0.7456853688
 31
0.0
  0
LINE
  5
50
330
45
100
AcDbEntity
  8
0
  6
CENTERX2
 62
     7
370
     0
100
AcDbLine
 10
3.9951432636
 20
0.9375772362
 30
0.0
 11
3.9951432636
 21
0.5537935013
 31
0.0
  0
POINT
  5
51
330
45
100
AcDbEntity
  8
0
  6
Continuous
 62
     7
370
     0
100
AcDbPoint
 10
3.9951432636
 20
0.7456853688
 30
0.0
  0
ENDBLK
  5
47
330
45
100
AcDbEntity
  8
0
100
AcDbBlockEnd
  0
BLOCK
  5
7F
330
7E
100
AcDbEntity
  8
0
100
AcDbBlockBegin
  2
SW_NOTE_0
 70
     0
 10
0.0
 20
0.0
 30
0.0
  3
SW_NOTE_0
  1

  0
MTEXT
  5
81
330
7E
100
AcDbEntity
  8
0
  6
Continuous
 62
     0
370
     0
100
AcDbMText
 10
0.78375
 20
0.0773440644
 30
0.0
 40
0.06
 41
0.0
 71
     2
 72
     1
  1
VALUES IN PARENTHESIS ARE CALCULATED
  7
SLDTEXTSTYLE0
 73
     1
 44
1.0
  0
MTEXT
  5
82
330
7E
100
AcDbEntity
  8
0
  6
Continuous
 62
     0
370
     0
100
AcDbMText
 10
0.7825936818
 20
-0.0220260102
 30
0.0
 40
0.06
 41
0.0
 71
     2
 72
     1
  1
AND MAY CONTAIN ROUNDOFF ERRORS
  7
SLDTEXTSTYLE0
 73
     1
 44
1.0
  0
ENDBLK
  5
80
330
7E
100
AcDbEntity
  8
0
100
AcDbBlockEnd
  0
BLOCK
  5
85
330
84
100
AcDbEntity
  8
0
100
AcDbBlockBegin
  2
SW_NOTE_1
 70
     0
 10
0.0
 20
0.0
 30
0.0
  3
SW_NOTE_1
  1

  0
MTEXT
  5
87
330
84
100
AcDbEntity
  8
0
  6
Continuous
 62
     0
370
     0
100
AcDbMText
 10
0.0
 20
0.1074223116
 30
0.0
 40
0.0833333333
 41
0.0
 71
     1
 72
     1
  1
DRAWING
  7
SLDTEXTSTYLE0
 73
     1
 44
1.0
  0
MTEXT
  5
88
330
84
100
AcDbEntity
  8
0
  6
Continuous
 62
     0
370
     0
100
AcDbMText
 10
0.0
 20
-0.0036887981
 30
0.0
 40
0.0833333333
 41
0.0
 71
     1
 72
     1
  1
PROJECTION
  7
SLDTEXTSTYLE0
 73
     1
 44
1.0
  0
ENDBLK
  5
86
330
84
100
AcDbEntity
  8
0
100
AcDbBlockEnd
  0
BLOCK
  5
8C
330
8B
100
AcDbEntity
  8
0
100
AcDbBlockBegin
  2
SW_NOTE_2
 70
     0
 10
0.0
 20
0.0
 30
0.0
  3
SW_NOTE_2
  1

  0
MTEXT
  5
8E
330
8B
100
AcDbEntity
  8
0
  6
Continuous
 62
     0
370
     0
100
AcDbMText
 10
0.986328125
 20
0.1611334675
 30
0.0
 40
0.125
 41
0.0
 71
     2
 72
     1
  1
FOR INFORMATION ONLY
  7
SLDTEXTSTYLE0
 73
     1
 44
1.0
  0
MTEXT
  5
8F
330
8B
100
AcDbEntity
  8
0
  6
Continuous
 62
     0
370
     0
100
AcDbMText
 10
0.999088459
 20
-0.0055331972
 30
0.0
 40
0.125
 41
0.0
 71
     2
 72
     1
  1
NOT FOR MANUFACTURING PURPOSES
  7
SLDTEXTSTYLE0
 73
     1
 44
1.0
  0
ENDBLK
  5
8D
330
8B
100
AcDbEntity
  8
0
100
AcDbBlockEnd
  0
BLOCK
  5
93
330
92
100
AcDbEntity
  8
0
100
AcDbBlockBegin
  2
SW_NOTE_3
 70
     0
 10
0.0
 20
0.0
 30
0.0
  3
SW_NOTE_3
  1

  0
MTEXT
  5
95
330
92
100
AcDbEntity
  8
0
  6
Continuous
 62
     0
370
     0
100
AcDbMText
 10
0.6731770833
 20
0.1477056785
 30
0.0
 40
0.1145833333
 41
0.0
 71
     2
 72
     1
  1
METRIC UNIVERSAL
  7
SLDTEXTSTYLE0
 73
     1
 44
1.0
  0
MTEXT
  5
96
330
92
100
AcDbEntity
  8
0
  6
Continuous
 62
     0
370
     0
100
AcDbMText
 10
0.69716789
 20
-0.0050720974
 30
0.0
 40
0.1145833333
 41
0.0
 71
     2
 72
     1
  1
POST HOLDER 1.5"
  7
SLDTEXTSTYLE0
 73
     1
 44
1.0
  0
ENDBLK
  5
94
330
92
100
AcDbEntity
  8
0
100
AcDbBlockEnd
  0
BLOCK
  5
D7
330
D6
100
AcDbEntity
  8
0
100
AcDbBlockBegin
  2
*D6
 70
     1
 10
0.0
 20
0.0
 30
0.0
  3
*D6
  1

  0
SOLID
  5
D9
330
D6
100
AcDbEntity
  8
0
  6
Continuous
 62
     7
370
     0
100
AcDbTrace
 10
6.4397703107
 20
3.5766638085
 30
0.0
 11
6.4197703107
 21
3.4516638085
 31
0.0
 12
6.4597703107
 22
3.4516638085
 32
0.0
 13
6.4597703107
 23
3.4516638085
 33
0.0
  0
SOLID
  5
DA
330
D6
100
AcDbEntity
  8
0
  6
Continuous
 62
     7
370
     0
100
AcDbTrace
 10
6.4397703107
 20
4.0066638085
 30
0.0
 11
6.4597703107
 21
4.1316638085
 31
0.0
 12
6.4197703107
 22
4.1316638085
 32
0.0
 13
6.4197703107
 23
4.1316638085
 33
0.0
  0
LINE
  5
DB
330
D6
100
AcDbEntity
  8
0
  6
Continuous
 62
     7
370
     0
100
AcDbLine
 10
6.0960695233
 20
3.5766638085
 30
0.0
 11
6.5097703107
 21
3.5766638085
 31
0.0
  0
LINE
  5
DC
330
D6
100
AcDbEntity
  8
0
  6
Continuous
 62
     7
370
     0
100
AcDbLine
 10
6.0960695233
 20
4.0066638085
 30
0.0
 11
6.5097703107
 21
4.0066638085
 31
0.0
  0
LINE
  5
DD
330
D6
100
AcDbEntity
  8
0
  6
Continuous
 62
     7
370
     0
100
AcDbLine
 10
6.4397703107
 20
3.5766638085
 30
0.0
 11
6.4397703107
 21
3.3266638085
 31
0.0
  0
LINE
  5
DE
330
D6
100
AcDbEntity
  8
0
  6
Continuous
 62
     7
370
     0
100
AcDbLine
 10
6.4397703107
 20
4.0066638085
 30
0.0
 11
6.4397703107
 21
4.2566638085
 31
0.0
  0
MTEXT
  5
DF
330
D6
100
AcDbEntity
  8
0
  6
Continuous
 62
     7
370
     0
100
AcDbMText
 10
6.2738792578
 20
3.7667984252
 30
0.0
 40
0.0833333333
 41
0.0
 71
     1
 72
     1
  1
(
  7
SLDTEXTSTYLE0
 73
     1
 44
1.0
  0
MTEXT
  5
E0
330
D6
100
AcDbEntity
  8
0
  6
Continuous
 62
     7
370
     0
100
AcDbMText
 10
6.314922781
 20
3.7667984252
 30
0.0
 40
0.0833333333
 41
0.0
 71
     1
 72
     1
  1
0.43
  7
SLDTEXTSTYLE0
 73
     1
 44
1.0
  0
MTEXT
  5
E1
330
D6
100
AcDbEntity
  8
0
  6
Continuous
 62
     7
370
     0
100
AcDbMText
 10
6.5302786378
 20
3.7667984252
 30
0.0
 40
0.0833333333
 41
0.0
 71
     1
 72
     1
  1
")
  7
SLDTEXTSTYLE0
 73
     1
 44
1.0
  0
MTEXT
  5
E2
330
D6
100
AcDbEntity
  8
0
  6
Continuous
 62
     7
370
     0
100
AcDbMText
 10
6.2281842531
 20
3.8990861155
 30
0.0
 40
0.0833333333
 41
0.0
 71
     1
 72
     1
  1
10.9 mm
  7
SLDTEXTSTYLE0
 73
     1
 44
1.0
  0
ENDBLK
  5
D8
330
D6
100
AcDbEntity
  8
0
100
AcDbBlockEnd
  0
BLOCK
  5
E6
330
E5
100
AcDbEntity
  8
0
100
AcDbBlockBegin
  2
*D7
 70
     1
 10
0.0
 20
0.0
 30
0.0
  3
*D7
  1

  0
SOLID
  5
E8
330
E5
100
AcDbEntity
  8
0
  6
Continuous
 62
     7
370
     0
100
AcDbTrace
 10
6.9749949747
 20
3.5766638085
 30
0.0
 11
6.9949949747
 21
3.7016638085
 31
0.0
 12
6.9549949747
 22
3.7016638085
 32
0.0
 13
6.9549949747
 23
3.7016638085
 33
0.0
  0
SOLID
  5
E9
330
E5
100
AcDbEntity
  8
0
  6
Continuous
 62
     7
370
     0
100
AcDbTrace
 10
6.9749949747
 20
5.0806638085
 30
0.0
 11
6.9549949747
 21
4.9556638085
 31
0.0
 12
6.9949949747
 22
4.9556638085
 32
0.0
 13
6.9949949747
 23
4.9556638085
 33
0.0
  0
LINE
  5
EA
330
E5
100
AcDbEntity
  8
0
  6
Continuous
 62
     7
370
     0
100
AcDbLine
 10
6.0960695233
 20
3.5766638085
 30
0.0
 11
7.0449949747
 21
3.5766638085
 31
0.0
  0
LINE
  5
EB
330
E5
100
AcDbEntity
  8
0
  6
Continuous
 62
     7
370
     0
100
AcDbLine
 10
4.532963046
 20
5.0806638085
 30
0.0
 11
7.0449949747
 21
5.0806638085
 31
0.0
  0
LINE
  5
EC
330
E5
100
AcDbEntity
  8
0
  6
Continuous
 62
     7
370
     0
100
AcDbLine
 10
6.9749949747
 20
3.5766638085
 30
0.0
 11
6.9749949747
 21
4.1963761182
 31
0.0
  0
LINE
  5
ED
330
E5
100
AcDbEntity
  8
0
  6
Continuous
 62
     7
370
     0
100
AcDbLine
 10
6.9749949747
 20
5.0806638085
 30
0.0
 11
6.9749949747
 21
4.4609514987
 31
0.0
  0
MTEXT
  5
EE
330
E5
100
AcDbEntity
  8
0
  6
Continuous
 62
     7
370
     0
100
AcDbMText
 10
6.8091039218
 20
4.3037984252
 30
0.0
 40
0.0833333333
 41
0.0
 71
     1
 72
     1
  1
(
  7
SLDTEXTSTYLE0
 73
     1
 44
1.0
  0
MTEXT
  5
EF
330
E5
100
AcDbEntity
  8
0
  6
Continuous
 62
     7
370
     0
100
AcDbMText
 10
6.850147445
 20
4.3037984252
 30
0.0
 40
0.0833333333
 41
0.0
 71
     1
 72
     1
  1
1.50
  7
SLDTEXTSTYLE0
 73
     1
 44
1.0
  0
MTEXT
  5
F0
330
E5
100
AcDbEntity
  8
0
  6
Continuous
 62
     7
370
     0
100
AcDbMText
 10
7.0655033017
 20
4.3037984252
 30
0.0
 40
0.0833333333
 41
0.0
 71
     1
 72
     1
  1
")
  7
SLDTEXTSTYLE0
 73
     1
 44
1.0
  0
MTEXT
  5
F1
330
E5
100
AcDbEntity
  8
0
  6
Continuous
 62
     7
370
     0
100
AcDbMText
 10
6.763408917
 20
4.4360861155
 30
0.0
 40
0.0833333333
 41
0.0
 71
     1
 72
     1
  1
38.1 mm
  7
SLDTEXTSTYLE0
 73
     1
 44
1.0
  0
ENDBLK
  5
E7
330
E5
100
AcDbEntity
  8
0
100
AcDbBlockEnd
  0
BLOCK
  5
F5
330
F4
100
AcDbEntity
  8
0
100
AcDbBlockBegin
  2
*D8
 70
     1
 10
0.0
 20
0.0
 30
0.0
  3
*D8
  1

  0
SOLID
  5
F7
330
F4
100
AcDbEntity
  8
0
  6
Continuous
 62
     7
370
     0
100
AcDbTrace
 10
3.5855655863
 20
3.1849630211
 30
0.0
 11
3.7105655863
 21
3.1649630211
 31
0.0
 12
3.7105655863
 22
3.2049630211
 32
0.0
 13
3.7105655863
 23
3.2049630211
 33
0.0
  0
SOLID
  5
F8
330
F4
100
AcDbEntity
  8
0
  6
Continuous
 62
     7
370
     0
100
AcDbTrace
 10
6.0460695233
 20
3.1849630211
 30
0.0
 11
5.9210695233
 21
3.2049630211
 31
0.0
 12
5.9210695233
 22
3.1649630211
 32
0.0
 13
5.9210695233
 23
3.1649630211
 33
0.0
  0
LINE
  5
F9
330
F4
100
AcDbEntity
  8
0
  6
Continuous
 62
     7
370
     0
100
AcDbLine
 10
3.5855655863
 20
3.5083345974
 30
0.0
 11
3.5855655863
 21
3.1149630211
 31
0.0
  0
LINE
  5
FA
330
F4
100
AcDbEntity
  8
0
  6
Continuous
 62
     7
370
     0
100
AcDbLine
 10
6.0460695233
 20
3.5266638085
 30
0.0
 11
6.0460695233
 21
3.1149630211
 31
0.0
  0
LINE
  5
FB
330
F4
100
AcDbEntity
  8
0
  6
Continuous
 62
     7
370
     0
100
AcDbLine
 10
3.5855655863
 20
3.1849630211
 30
0.0
 11
4.5261064972
 21
3.1849630211
 31
0.0
  0
LINE
  5
FC
330
F4
100
AcDbEntity
  8
0
  6
Continuous
 62
     7
370
     0
100
AcDbLine
 10
6.0460695233
 20
3.1849630211
 30
0.0
 11
5.1055286125
 21
3.1849630211
 31
0.0
  0
MTEXT
  5
FD
330
F4
100
AcDbEntity
  8
0
  6
Continuous
 62
     7
370
     0
100
AcDbMText
 10
4.6499265019
 20
3.1600976378
 30
0.0
 40
0.0833333333
 41
0.0
 71
     1
 72
     1
  1
(
  7
SLDTEXTSTYLE0
 73
     1
 44
1.0
  0
MTEXT
  5
FE
330
F4
100
AcDbEntity
  8
0
  6
Continuous
 62
     7
370
     0
100
AcDbMText
 10
4.6909700251
 20
3.1600976378
 30
0.0
 40
0.0833333333
 41
0.0
 71
     1
 72
     1
  1
2.46
  7
SLDTEXTSTYLE0
 73
     1
 44
1.0
  0
MTEXT
  5
FF
330
F4
100
AcDbEntity
  8
0
  6
Continuous
 62
     7
370
     0
100
AcDbMText
 10
4.9063258819
 20
3.1600976378
 30
0.0
 40
0.0833333333
 41
0.0
 71
     1
 72
     1
  1
")
  7
SLDTEXTSTYLE0
 73
     1
 44
1.0
  0
MTEXT
  5
100
330
F4
100
AcDbEntity
  8
0
  6
Continuous
 62
     7
370
     0
100
AcDbMText
 10
4.6042314972
 20
3.2923853281
 30
0.0
 40
0.0833333333
 41
0.0
 71
     1
 72
     1
  1
62.5 mm
  7
SLDTEXTSTYLE0
 73
     1
 44
1.0
  0
ENDBLK
  5
F6
330
F4
100
AcDbEntity
  8
0
100
AcDbBlockEnd
  0
BLOCK
  5
130
330
12F
100
AcDbEntity
  8
0
100
AcDbBlockBegin
  2
*D9
 70
     1
 10
0.0
 20
0.0
 30
0.0
  3
*D9
  1

  0
SOLID
  5
132
330
12F
100
AcDbEntity
  8
0
  6
Continuous
 62
     7
370
     0
100
AcDbTrace
 10
6.0460695233
 20
7.4540733988
 30
0.0
 11
5.9210695233
 21
7.4740733988
 31
0.0
 12
5.9210695233
 22
7.4340733988
 32
0.0
 13
5.9210695233
 23
7.4340733988
 33
0.0
  0
SOLID
  5
133
330
12F
100
AcDbEntity
  8
0
  6
Continuous
 62
     7
370
     0
100
AcDbTrace
 10
4.8275655863
 20
7.4540733988
 30
0.0
 11
4.9525655863
 21
7.4340733988
 31
0.0
 12
4.9525655863
 22
7.4740733988
 32
0.0
 13
4.9525655863
 23
7.4740733988
 33
0.0
  0
LINE
  5
134
330
12F
100
AcDbEntity
  8
0
  6
Continuous
 62
     7
370
     0
100
AcDbLine
 10
6.0460695233
 20
7.215739584
 30
0.0
 11
6.0460695233
 21
7.5240733988
 31
0.0
  0
LINE
  5
135
330
12F
100
AcDbEntity
  8
0
  6
Continuous
 62
     7
370
     0
100
AcDbLine
 10
4.8275655863
 20
6.773739584
 30
0.0
 11
4.8275655863
 21
7.5240733988
 31
0.0
  0
LINE
  5
136
330
12F
100
AcDbEntity
  8
0
  6
Continuous
 62
     7
370
     0
100
AcDbLine
 10
6.0460695233
 20
7.4540733988
 30
0.0
 11
5.7265286125
 21
7.4540733988
 31
0.0
  0
LINE
  5
137
330
12F
100
AcDbEntity
  8
0
  6
Continuous
 62
     7
370
     0
100
AcDbLine
 10
4.8275655863
 20
7.4540733988
 30
0.0
 11
5.1471064972
 21
7.4540733988
 31
0.0
  0
MTEXT
  5
138
330
12F
100
AcDbEntity
  8
0
  6
Continuous
 62
     7
370
     0
100
AcDbMText
 10
5.2709265019
 20
7.4292080156
 30
0.0
 40
0.0833333333
 41
0.0
 71
     1
 72
     1
  1
(
  7
SLDTEXTSTYLE0
 73
     1
 44
1.0
  0
MTEXT
  5
139
330
12F
100
AcDbEntity
  8
0
  6
Continuous
 62
     7
370
     0
100
AcDbMText
 10
5.3119700251
 20
7.4292080156
 30
0.0
 40
0.0833333333
 41
0.0
 71
     1
 72
     1
  1
1.22
  7
SLDTEXTSTYLE0
 73
     1
 44
1.0
  0
MTEXT
  5
13A
330
12F
100
AcDbEntity
  8
0
  6
Continuous
 62
     7
370
     0
100
AcDbMText
 10
5.5273258819
 20
7.4292080156
 30
0.0
 40
0.0833333333
 41
0.0
 71
     1
 72
     1
  1
")
  7
SLDTEXTSTYLE0
 73
     1
 44
1.0
  0
MTEXT
  5
13B
330
12F
100
AcDbEntity
  8
0
  6
Continuous
 62
     7
370
     0
100
AcDbMText
 10
5.2252314972
 20
7.5614957058
 30
0.0
 40
0.0833333333
 41
0.0
 71
     1
 72
     1
  1
31.0 mm
  7
SLDTEXTSTYLE0
 73
     1
 44
1.0
  0
ENDBLK
  5
131
330
12F
100
AcDbEntity
  8
0
100
AcDbBlockEnd
  0
BLOCK
  5
13F
330
13E
100
AcDbEntity
  8
0
100
AcDbBlockBegin
  2
*D10
 70
     1
 10
0.0
 20
0.0
 30
0.0
  3
*D10
  1

  0
SOLID
  5
141
330
13E
100
AcDbEntity
  8
0
  6
Continuous
 62
     7
370
     0
100
AcDbTrace
 10
4.7338741526
 20
6.7674314473
 30
0.0
 11
4.6596281757
 21
6.8699621008
 31
0.0
 12
4.6313438396
 22
6.8416778944
 32
0.0
 13
4.6313438396
 23
6.8416778944
 33
0.0
  0
LINE
  5
142
330
13E
100
AcDbEntity
  8
0
  6
Continuous
 62
     7
370
     0
100
AcDbLine
 10
4.7338741526
 20
6.7674314473
 30
0.0
 11
3.7240755944
 21
7.7772346357
 31
0.0
  0
LINE
  5
143
330
13E
100
AcDbEntity
  8
0
  6
Continuous
 62
     7
370
     0
100
AcDbLine
 10
3.7240755944
 20
7.7772346357
 30
0.0
 11
3.5740755944
 21
7.7772346357
 31
0.0
  0
MTEXT
  5
144
330
13E
100
AcDbEntity
  8
0
  6
Continuous
 62
     7
370
     0
100
AcDbMText
 10
1.437160713
 20
7.6862254073
 30
0.0
 40
0.0833333333
 41
0.0
 71
     1
 72
     1
  1
FOR USE WITH M6 (1/4"-20) CAP SCREW
  7
SLDTEXTSTYLE0
 73
     1
 44
1.0
  0
MTEXT
  5
145
330
13E
100
AcDbEntity
  8
0
  6
Continuous
 62
     7
370
     0
100
AcDbMText
 10
2.5649582408
 20
7.8185130976
 30
0.0
 40
0.0833333333
 41
0.0
 71
     1
 72
     1
  1
CLEARANCE SLOT
  7
SLDTEXTSTYLE0
 73
     1
 44
1.0
  0
ENDBLK
  5
140
330
13E
100
AcDbEntity
  8
0
100
AcDbBlockEnd
  0
BLOCK
  5
148
330
147
100
AcDbEntity
  8
0
100
AcDbBlockBegin
  2
*D11
 70
     1
 10
0.0
 20
0.0
 30
0.0
  3
*D11
  1

  0
SOLID
  5
14A
330
147
100
AcDbEntity
  8
0
  6
Continuous
 62
     7
370
     0
100
AcDbTrace
 10
6.6759907832
 20
7.165739584
 30
0.0
 11
6.6559907832
 21
7.040739584
 31
0.0
 12
6.6959907832
 22
7.040739584
 32
0.0
 13
6.6959907832
 23
7.040739584
 33
0.0
  0
SOLID
  5
14B
330
147
100
AcDbEntity
  8
0
  6
Continuous
 62
     7
370
     0
100
AcDbTrace
 10
6.6759907832
 20
6.181739584
 30
0.0
 11
6.6959907832
 21
6.306739584
 31
0.0
 12
6.6559907832
 22
6.306739584
 32
0.0
 13
6.6559907832
 23
6.306739584
 33
0.0
  0
LINE
  5
14C
330
147
100
AcDbEntity
  8
0
  6
Continuous
 62
     7
370
     0
100
AcDbLine
 10
6.0960695233
 20
7.165739584
 30
0.0
 11
6.7459907832
 21
7.165739584
 31
0.0
  0
LINE
  5
14D
330
147
100
AcDbEntity
  8
0
  6
Continuous
 62
     7
370
     0
100
AcDbLine
 10
6.0960695233
 20
6.181739584
 30
0.0
 11
6.7459907832
 21
6.181739584
 31
0.0
  0
LINE
  5
14E
330
147
100
AcDbEntity
  8
0
  6
Continuous
 62
     7
370
     0
100
AcDbLine
 10
6.6759907832
 20
7.165739584
 30
0.0
 11
6.6759907832
 21
6.8060272743
 31
0.0
  0
LINE
  5
14F
330
147
100
AcDbEntity
  8
0
  6
Continuous
 62
     7
370
     0
100
AcDbLine
 10
6.6759907832
 20
6.181739584
 30
0.0
 11
6.6759907832
 21
6.5414518937
 31
0.0
  0
MTEXT
  5
150
330
147
100
AcDbEntity
  8
0
  6
Continuous
 62
     7
370
     0
100
AcDbMText
 10
6.5100997303
 20
6.6488742008
 30
0.0
 40
0.0833333333
 41
0.0
 71
     1
 72
     1
  1
(
  7
SLDTEXTSTYLE0
 73
     1
 44
1.0
  0
MTEXT
  5
151
330
147
100
AcDbEntity
  8
0
  6
Continuous
 62
     7
370
     0
100
AcDbMText
 10
6.5511432535
 20
6.6488742008
 30
0.0
 40
0.0833333333
 41
0.0
 71
     1
 72
     1
  1
0.98
  7
SLDTEXTSTYLE0
 73
     1
 44
1.0
  0
MTEXT
  5
152
330
147
100
AcDbEntity
  8
0
  6
Continuous
 62
     7
370
     0
100
AcDbMText
 10
6.7664991102
 20
6.6488742008
 30
0.0
 40
0.0833333333
 41
0.0
 71
     1
 72
     1
  1
")
  7
SLDTEXTSTYLE0
 73
     1
 44
1.0
  0
MTEXT
  5
153
330
147
100
AcDbEntity
  8
0
  6
Continuous
 62
     7
370
     0
100
AcDbMText
 10
6.4644047255
 20
6.781161891
 30
0.0
 40
0.0833333333
 41
0.0
 71
     1
 72
     1
  1
25.0 mm
  7
SLDTEXTSTYLE0
 73
     1
 44
1.0
  0
ENDBLK
  5
149
330
147
100
AcDbEntity
  8
0
100
AcDbBlockEnd
  0
BLOCK
  5
157
330
156
100
AcDbEntity
  8
0
100
AcDbBlockBegin
  2
*D12
 70
     1
 10
0.0
 20
0.0
 30
0.0
  3
*D12
  1

  0
SOLID
  5
159
330
156
100
AcDbEntity
  8
0
  6
Continuous
 62
     7
370
     0
100
AcDbTrace
 10
3.7198252924
 20
6.3359735672
 30
0.0
 11
3.6152056642
 21
6.2647013188
 31
0.0
 12
3.642666316
 22
6.235616742
 32
0.0
 13
3.642666316
 23
6.235616742
 33
0.0
  0
LINE
  5
15A
330
156
100
AcDbEntity
  8
0
  6
Continuous
 62
     7
370
     0
100
AcDbLine
 10
3.7198252924
 20
6.3359735672
 30
0.0
 11
3.3426585408
 21
5.9798657608
 31
0.0
  0
LINE
  5
15B
330
156
100
AcDbEntity
  8
0
  6
Continuous
 62
     7
370
     0
100
AcDbLine
 10
3.3426585408
 20
5.9798657608
 30
0.0
 11
3.1926585408
 21
5.9798657608
 31
0.0
  0
MTEXT
  5
15C
330
156
100
AcDbEntity
  8
0
  6
Continuous
 62
     7
370
     0
100
AcDbMText
 10
2.6726295452
 20
5.8888565324
 30
0.0
 40
0.0833333333
 41
0.0
 71
     1
 72
     1
  1
(
  7
SLDTEXTSTYLE0
 73
     1
 44
1.0
  0
MTEXT
  5
15D
330
156
100
AcDbEntity
  8
0
  6
Continuous
 62
     7
370
     0
100
AcDbMText
 10
2.713678926
 20
5.8888565324
 30
0.0
 40
0.0833333333
 41
0.0
 71
     1
 72
     1
  1
%%c
  7
SLDTEXTSTYLE0
 73
     1
 44
1.0
  0
MTEXT
  5
15E
330
156
100
AcDbEntity
  8
0
  6
Continuous
 62
     7
370
     0
100
AcDbMText
 10
2.8394199582
 20
5.8888565324
 30
0.0
 40
0.0833333333
 41
0.0
 71
     1
 72
     1
  1
0.98
  7
SLDTEXTSTYLE0
 73
     1
 44
1.0
  0
MTEXT
  5
15F
330
156
100
AcDbEntity
  8
0
  6
Continuous
 62
     7
370
     0
100
AcDbMText
 10
3.054775815
 20
5.8888565324
 30
0.0
 40
0.0833333333
 41
0.0
 71
     1
 72
     1
  1
")
  7
SLDTEXTSTYLE0
 73
     1
 44
1.0
  0
MTEXT
  5
160
330
156
100
AcDbEntity
  8
0
  6
Continuous
 62
     7
370
     0
100
AcDbMText
 10
2.5499895357
 20
6.0211442227
 30
0.0
 40
0.0833333333
 41
0.0
 71
     1
 72
     1
  1
%%c
  7
SLDTEXTSTYLE0
 73
     1
 44
1.0
  0
MTEXT
  5
161
330
156
100
AcDbEntity
  8
0
  6
Continuous
 62
     7
370
     0
100
AcDbMText
 10
2.6757765751
 20
6.0211442227
 30
0.0
 40
0.0833333333
 41
0.0
 71
     1
 72
     1
  1
25.0 mm
  7
SLDTEXTSTYLE0
 73
     1
 44
1.0
  0
ENDBLK
  5
158
330
156
100
AcDbEntity
  8
0
100
AcDbBlockEnd
  0
BLOCK
  5
165
330
164
100
AcDbEntity
  8
0
100
AcDbBlockBegin
  2
*D13
 70
     1
 10
0.0
 20
0.0
 30
0.0
  3
*D13
  1

  0
SOLID
  5
167
330
164
100
AcDbEntity
  8
0
  6
Continuous
 62
     7
370
     0
100
AcDbTrace
 10
3.8997339823
 20
6.8515826907
 30
0.0
 11
3.8254910861
 21
6.954115575
 31
0.0
 12
3.7972059002
 22
6.9258322185
 32
0.0
 13
3.7972059002
 23
6.9258322185
 33
0.0
  0
LINE
  5
168
330
164
100
AcDbEntity
  8
0
  6
Continuous
 62
     7
370
     0
100
AcDbLine
 10
3.8997339823
 20
6.8515826907
 30
0.0
 11
3.3626473478
 21
7.3887040652
 31
0.0
  0
LINE
  5
169
330
164
100
AcDbEntity
  8
0
  6
Continuous
 62
     7
370
     0
100
AcDbLine
 10
3.3626473478
 20
7.3887040652
 30
0.0
 11
3.2126473478
 21
7.3887040652
 31
0.0
  0
MTEXT
  5
16A
330
164
100
AcDbEntity
  8
0
  6
Continuous
 62
     7
370
     0
100
AcDbMText
 10
1.7880433194
 20
7.4299825272
 30
0.0
 40
0.0833333333
 41
0.0
 71
     1
 72
     1
  1

  7
SLDTEXTSTYLE0
 73
     1
 44
1.0
  0
MTEXT
  5
16B
330
164
100
AcDbEntity
  8
0
  6
Continuous
 62
     7
370
     0
100
AcDbMText
 10
1.7875031955
 20
7.4299825272
 30
0.0
 40
0.0833333333
 41
0.0
 71
     1
 72
     1
  1
%%c
  7
SLDTEXTSTYLE0
 73
     1
 44
1.0
  0
MTEXT
  5
16C
330
164
100
AcDbEntity
  8
0
  6
Continuous
 62
     7
370
     0
100
AcDbMText
 10
1.9132902349
 20
7.4299825272
 30
0.0
 40
0.0833333333
 41
0.0
 71
     1
 72
     1
  1
12.8 mm (
  7
SLDTEXTSTYLE1
 73
     1
 44
1.0
  0
MTEXT
  5
16D
330
164
100
AcDbEntity
  8
0
  6
Continuous
 62
     7
370
     0
100
AcDbMText
 10
2.4395247791
 20
7.4299825272
 30
0.0
 40
0.0833333333
 41
0.0
 71
     1
 72
     1
  1
%%c
  7
SLDTEXTSTYLE0
 73
     1
 44
1.0
  0
MTEXT
  5
16E
330
164
100
AcDbEntity
  8
0
  6
Continuous
 62
     7
370
     0
100
AcDbMText
 10
2.5652362623
 20
7.4299825272
 30
0.0
 40
0.0833333333
 41
0.0
 71
     1
 72
     1
  1
0.50
  7
SLDTEXTSTYLE0
 73
     1
 44
1.0
  0
MTEXT
  5
16F
330
164
100
AcDbEntity
  8
0
  6
Continuous
 62
     7
370
     0
100
AcDbMText
 10
2.7805921191
 20
7.4299825272
 30
0.0
 40
0.0833333333
 41
0.0
 71
     1
 72
     1
  1
") THRU
  7
SLDTEXTSTYLE0
 73
     1
 44
1.0
  0
MTEXT
  5
170
330
164
100
AcDbEntity
  8
0
  6
Continuous
 62
     7
370
     0
100
AcDbMText
 10
1.5782294655
 20
7.2976948369
 30
0.0
 40
0.0833333333
 41
0.0
 71
     1
 72
     1
  1
FOR USE WITH TR SERIES POSTS
  7
SLDTEXTSTYLE0
 73
     1
 44
1.0
  0
ENDBLK
  5
166
330
164
100
AcDbEntity
  8
0
100
AcDbBlockEnd
  0
BLOCK
  5
172
330
171
100
AcDbEntity
  8
0
100
AcDbBlockBegin
  2
SW_CENTERMARKSYMBOL_0
 70
     0
 10
0.0
 20
0.0
 30
0.0
  3
SW_CENTERMARKSYMBOL_0
  1

  0
LINE
  5
174
330
171
100
AcDbEntity
  8
0
  6
Continuous
 62
     0
370
     0
100
AcDbLine
 10
0.0
 20
0.0
 30
0.0
 11
0.0
 21
0.05
 31
0.0
  0
LINE
  5
175
330
171
100
AcDbEntity
  8
0
  6
Continuous
 62
     0
370
     0
100
AcDbLine
 10
0.0
 20
0.0
 30
0.0
 11
-0.05
 21
0.0
 31
0.0
  0
LINE
  5
176
330
171
100
AcDbEntity
  8
0
  6
Continuous
 62
     0
370
     0
100
AcDbLine
 10
0.0
 20
0.0
 30
0.0
 11
0.0
 21
-0.05
 31
0.0
  0
LINE
  5
177
330
171
100
AcDbEntity
  8
0
  6
Continuous
 62
     0
370
     0
100
AcDbLine
 10
0.0
 20
0.0
 30
0.0
 11
0.05
 21
0.0
 31
0.0
  0
ENDBLK
  5
173
330
171
100
AcDbEntity
  8
0
100
AcDbBlockEnd
  0
BLOCK
  5
17A
330
179
100
AcDbEntity
  8
0
100
AcDbBlockBegin
  2
SW_CENTERMARKSYMBOL_1
 70
     0
 10
0.0
 20
0.0
 30
0.0
  3
SW_CENTERMARKSYMBOL_1
  1

  0
LINE
  5
17C
330
179
100
AcDbEntity
  8
0
  6
Continuous
 62
     0
370
     0
100
AcDbLine
 10
0.0
 20
0.0
 30
0.0
 11
0.0
 21
0.05
 31
0.0
  0
LINE
  5
17D
330
179
100
AcDbEntity
  8
0
  6
Continuous
 62
     0
370
     0
100
AcDbLine
 10
0.0
 20
0.0
 30
0.0
 11
-0.05
 21
0.0
 31
0.0
  0
LINE
  5
17E
330
179
100
AcDbEntity
  8
0
  6
Continuous
 62
     0
370
     0
100
AcDbLine
 10
0.0
 20
0.0
 30
0.0
 11
0.0
 21
-0.05
 31
0.0
  0
LINE
  5
17F
330
179
100
AcDbEntity
  8
0
  6
Continuous
 62
     0
370
     0
100
AcDbLine
 10
0.0
 20
0.0
 30
0.0
 11
0.05
 21
0.0
 31
0.0
  0
ENDBLK
  5
17B
330
179
100
AcDbEntity
  8
0
100
AcDbBlockEnd
  0
BLOCK
  5
1BD
330
1BC
100
AcDbEntity
  8
0
100
AcDbBlockBegin
  2
*D16
 70
     1
 10
0.0
 20
0.0
 30
0.0
  3
*D16
  1

  0
SOLID
  5
1BF
330
1BC
100
AcDbEntity
  8
0
  6
Continuous
 62
     7
370
     0
100
AcDbTrace
 10
2.6765063632
 20
2.0459478022
 30
0.0
 11
2.6965063632
 21
2.1709478022
 31
0.0
 12
2.6565063632
 22
2.1709478022
 32
0.0
 13
2.6565063632
 23
2.1709478022
 33
0.0
  0
SOLID
  5
1C0
330
1BC
100
AcDbEntity
  8
0
  6
Continuous
 62
     7
370
     0
100
AcDbTrace
 10
2.6765063632
 20
1.4759478022
 30
0.0
 11
2.6565063632
 21
1.3509478022
 31
0.0
 12
2.6965063632
 22
1.3509478022
 32
0.0
 13
2.6965063632
 23
1.3509478022
 33
0.0
  0
LINE
  5
1C1
330
1BC
100
AcDbEntity
  8
0
  6
Continuous
 62
     7
370
     0
100
AcDbLine
 10
3.1455655863
 20
2.0459478022
 30
0.0
 11
2.6065063632
 21
2.0459478022
 31
0.0
  0
LINE
  5
1C2
330
1BC
100
AcDbEntity
  8
0
  6
Continuous
 62
     7
370
     0
100
AcDbLine
 10
3.1455655863
 20
1.4759478022
 30
0.0
 11
2.6065063632
 21
1.4759478022
 31
0.0
  0
LINE
  5
1C3
330
1BC
100
AcDbEntity
  8
0
  6
Continuous
 62
     7
370
     0
100
AcDbLine
 10
2.6765063632
 20
2.0459478022
 30
0.0
 11
2.6765063632
 21
2.2959478022
 31
0.0
  0
LINE
  5
1C4
330
1BC
100
AcDbEntity
  8
0
  6
Continuous
 62
     7
370
     0
100
AcDbLine
 10
2.6765063632
 20
1.4759478022
 30
0.0
 11
2.6765063632
 21
1.2259478022
 31
0.0
  0
MTEXT
  5
1C5
330
1BC
100
AcDbEntity
  8
0
  6
Continuous
 62
     7
370
     0
100
AcDbMText
 10
2.4477418654
 20
1.736082419
 30
0.0
 40
0.0833333333
 41
0.0
 71
     1
 72
     1
  1
(
  7
SLDTEXTSTYLE0
 73
     1
 44
1.0
  0
MTEXT
  5
1C6
330
1BC
100
AcDbEntity
  8
0
  6
Continuous
 62
     7
370
     0
100
AcDbMText
 10
2.4887912462
 20
1.736082419
 30
0.0
 40
0.0833333333
 41
0.0
 71
     1
 72
     1
  1
%%c
  7
SLDTEXTSTYLE0
 73
     1
 44
1.0
  0
MTEXT
  5
1C7
330
1BC
100
AcDbEntity
  8
0
  6
Continuous
 62
     7
370
     0
100
AcDbMText
 10
2.6145322784
 20
1.736082419
 30
0.0
 40
0.0833333333
 41
0.0
 71
     1
 72
     1
  1
0.57
  7
SLDTEXTSTYLE0
 73
     1
 44
1.0
  0
MTEXT
  5
1C8
330
1BC
100
AcDbEntity
  8
0
  6
Continuous
 62
     7
370
     0
100
AcDbMText
 10
2.8298881351
 20
1.736082419
 30
0.0
 40
0.0833333333
 41
0.0
 71
     1
 72
     1
  1
")
  7
SLDTEXTSTYLE0
 73
     1
 44
1.0
  0
MTEXT
  5
1C9
330
1BC
100
AcDbEntity
  8
0
  6
Continuous
 62
     7
370
     0
100
AcDbMText
 10
2.4020468606
 20
1.8683701093
 30
0.0
 40
0.0833333333
 41
0.0
 71
     1
 72
     1
  1
%%c
  7
SLDTEXTSTYLE0
 73
     1
 44
1.0
  0
MTEXT
  5
1CA
330
1BC
100
AcDbEntity
  8
0
  6
Continuous
 62
     7
370
     0
100
AcDbMText
 10
2.5278339
 20
1.8683701093
 30
0.0
 40
0.0833333333
 41
0.0
 71
     1
 72
     1
  1
14.5 mm
  7
SLDTEXTSTYLE0
 73
     1
 44
1.0
  0
ENDBLK
  5
1BE
330
1BC
100
AcDbEntity
  8
0
100
AcDbBlockEnd
  0
BLOCK
  5
1CD
330
1CC
100
AcDbEntity
  8
0
100
AcDbBlockBegin
  2
*D17
 70
     1
 10
0.0
 20
0.0
 30
0.0
  3
*D17
  1

  0
SOLID
  5
1CF
330
1CC
100
AcDbEntity
  8
0
  6
Continuous
 62
     7
370
     0
100
AcDbTrace
 10
3.1755655863
 20
2.5762448439
 30
0.0
 11
3.0505655863
 21
2.5962448439
 31
0.0
 12
3.0505655863
 22
2.5562448439
 32
0.0
 13
3.0505655863
 23
2.5562448439
 33
0.0
  0
SOLID
  5
1D0
330
1CC
100
AcDbEntity
  8
0
  6
Continuous
 62
     7
370
     0
100
AcDbTrace
 10
3.4855655863
 20
2.5762448439
 30
0.0
 11
3.6105655863
 21
2.5562448439
 31
0.0
 12
3.6105655863
 22
2.5962448439
 32
0.0
 13
3.6105655863
 23
2.5962448439
 33
0.0
  0
LINE
  5
1D1
330
1CC
100
AcDbEntity
  8
0
  6
Continuous
 62
     7
370
     0
100
AcDbLine
 10
3.1755655863
 20
2.0759478022
 30
0.0
 11
3.1755655863
 21
2.6462448439
 31
0.0
  0
LINE
  5
1D2
330
1CC
100
AcDbEntity
  8
0
  6
Continuous
 62
     7
370
     0
100
AcDbLine
 10
3.4855655863
 20
2.0759478022
 30
0.0
 11
3.4855655863
 21
2.6462448439
 31
0.0
  0
LINE
  5
1D3
330
1CC
100
AcDbEntity
  8
0
  6
Continuous
 62
     7
370
     0
100
AcDbLine
 10
3.1755655863
 20
2.5762448439
 30
0.0
 11
2.9255655863
 21
2.5762448439
 31
0.0
  0
LINE
  5
1D4
330
1CC
100
AcDbEntity
  8
0
  6
Continuous
 62
     7
370
     0
100
AcDbLine
 10
3.4855655863
 20
2.5762448439
 30
0.0
 11
3.7483267039
 21
2.5762448439
 31
0.0
  0
MTEXT
  5
1D5
330
1CC
100
AcDbEntity
  8
0
  6
Continuous
 62
     7
370
     0
100
AcDbMText
 10
3.8108267039
 20
2.4852356155
 30
0.0
 40
0.0833333333
 41
0.0
 71
     1
 72
     1
  1
(
  7
SLDTEXTSTYLE0
 73
     1
 44
1.0
  0
MTEXT
  5
1D6
330
1CC
100
AcDbEntity
  8
0
  6
Continuous
 62
     7
370
     0
100
AcDbMText
 10
3.8518702271
 20
2.4852356155
 30
0.0
 40
0.0833333333
 41
0.0
 71
     1
 72
     1
  1
0.31
  7
SLDTEXTSTYLE0
 73
     1
 44
1.0
  0
MTEXT
  5
1D7
330
1CC
100
AcDbEntity
  8
0
  6
Continuous
 62
     7
370
     0
100
AcDbMText
 10
4.0672260839
 20
2.4852356155
 30
0.0
 40
0.0833333333
 41
0.0
 71
     1
 72
     1
  1
")
  7
SLDTEXTSTYLE0
 73
     1
 44
1.0
  0
MTEXT
  5
1D8
330
1CC
100
AcDbEntity
  8
0
  6
Continuous
 62
     7
370
     0
100
AcDbMText
 10
3.8108267039
 20
2.6175233058
 30
0.0
 40
0.0833333333
 41
0.0
 71
     1
 72
     1
  1
7.9 mm
  7
SLDTEXTSTYLE0
 73
     1
 44
1.0
  0
ENDBLK
  5
1CE
330
1CC
100
AcDbEntity
  8
0
100
AcDbBlockEnd
  0
BLOCK
  5
1DB
330
1DA
100
AcDbEntity
  8
0
100
AcDbBlockBegin
  2
*D18
 70
     1
 10
0.0
 20
0.0
 30
0.0
  3
*D18
  1

  0
SOLID
  5
1DD
330
1DA
100
AcDbEntity
  8
0
  6
Continuous
 62
     7
370
     0
100
AcDbTrace
 10
6.0460695233
 20
0.8752470148
 30
0.0
 11
5.9210695233
 21
0.8952470148
 31
0.0
 12
5.9210695233
 22
0.8552470148
 32
0.0
 13
5.9210695233
 23
0.8552470148
 33
0.0
  0
SOLID
  5
1DE
330
1DA
100
AcDbEntity
  8
0
  6
Continuous
 62
     7
370
     0
100
AcDbTrace
 10
4.0775655863
 20
0.8752470148
 30
0.0
 11
4.2025655863
 21
0.8552470148
 31
0.0
 12
4.2025655863
 22
0.8952470148
 32
0.0
 13
4.2025655863
 23
0.8952470148
 33
0.0
  0
LINE
  5
1DF
330
1DA
100
AcDbEntity
  8
0
  6
Continuous
 62
     7
370
     0
100
AcDbLine
 10
6.0460695233
 20
1.2189478022
 30
0.0
 11
6.0460695233
 21
0.8052470148
 31
0.0
  0
LINE
  5
1E0
330
1DA
100
AcDbEntity
  8
0
  6
Continuous
 62
     7
370
     0
100
AcDbLine
 10
4.0775655863
 20
1.6609478022
 30
0.0
 11
4.0775655863
 21
0.8052470148
 31
0.0
  0
LINE
  5
1E1
330
1DA
100
AcDbEntity
  8
0
  6
Continuous
 62
     7
370
     0
100
AcDbLine
 10
6.0460695233
 20
0.8752470148
 30
0.0
 11
5.3515286125
 21
0.8752470148
 31
0.0
  0
LINE
  5
1E2
330
1DA
100
AcDbEntity
  8
0
  6
Continuous
 62
     7
370
     0
100
AcDbLine
 10
4.0775655863
 20
0.8752470148
 30
0.0
 11
4.7721064972
 21
0.8752470148
 31
0.0
  0
MTEXT
  5
1E3
330
1DA
100
AcDbEntity
  8
0
  6
Continuous
 62
     7
370
     0
100
AcDbMText
 10
4.8959265019
 20
0.8503816316
 30
0.0
 40
0.0833333333
 41
0.0
 71
     1
 72
     1
  1
(
  7
SLDTEXTSTYLE0
 73
     1
 44
1.0
  0
MTEXT
  5
1E4
330
1DA
100
AcDbEntity
  8
0
  6
Continuous
 62
     7
370
     0
100
AcDbMText
 10
4.9369700251
 20
0.8503816316
 30
0.0
 40
0.0833333333
 41
0.0
 71
     1
 72
     1
  1
1.97
  7
SLDTEXTSTYLE0
 73
     1
 44
1.0
  0
MTEXT
  5
1E5
330
1DA
100
AcDbEntity
  8
0
  6
Continuous
 62
     7
370
     0
100
AcDbMText
 10
5.1523258819
 20
0.8503816316
 30
0.0
 40
0.0833333333
 41
0.0
 71
     1
 72
     1
  1
")
  7
SLDTEXTSTYLE0
 73
     1
 44
1.0
  0
MTEXT
  5
1E6
330
1DA
100
AcDbEntity
  8
0
  6
Continuous
 62
     7
370
     0
100
AcDbMText
 10
4.8502314972
 20
0.9826693219
 30
0.0
 40
0.0833333333
 41
0.0
 71
     1
 72
     1
  1
50.0 mm
  7
SLDTEXTSTYLE0
 73
     1
 44
1.0
  0
ENDBLK
  5
1DC
330
1DA
100
AcDbEntity
  8
0
100
AcDbBlockEnd
  0
BLOCK
  5
1EA
330
1E9
100
AcDbEntity
  8
0
100
AcDbBlockBegin
  2
*D19
 70
     1
 10
0.0
 20
0.0
 30
0.0
  3
*D19
  1

  0
SOLID
  5
1EC
330
1E9
100
AcDbEntity
  8
0
  6
Continuous
 62
     7
370
     0
100
AcDbTrace
 10
3.7035033896
 20
1.4807426422
 30
0.0
 11
3.6271516087
 21
1.3797703412
 31
0.0
 12
3.6624678601
 22
1.3609883716
 32
0.0
 13
3.6624678601
 23
1.3609883716
 33
0.0
  0
LINE
  5
1ED
330
1E9
100
AcDbEntity
  8
0
  6
Continuous
 62
     7
370
     0
100
AcDbLine
 10
3.7035033896
 20
1.4807426422
 30
0.0
 11
3.475700155
 21
1.0523979872
 31
0.0
  0
LINE
  5
1EE
330
1E9
100
AcDbEntity
  8
0
  6
Continuous
 62
     7
370
     0
100
AcDbLine
 10
3.475700155
 20
1.0523979872
 30
0.0
 11
3.325700155
 21
1.0523979872
 31
0.0
  0
MTEXT
  5
1EF
330
1E9
100
AcDbEntity
  8
0
  6
Continuous
 62
     7
370
     0
100
AcDbMText
 10
2.8551754572
 20
1.0935567348
 30
0.7128425529
 40
0.0833333333
 41
0.0
 71
     1
 72
     1
  1
MAGNET
  7
SLDTEXTSTYLE0
 73
     1
 44
1.0
  0
MTEXT
  5
1F0
330
1E9
100
AcDbEntity
  8
0
  6
Continuous
 62
     7
370
     0
100
AcDbMText
 10
2.8287865787
 20
0.9611493302
 30
0.7128425529
 40
0.0833333333
 41
0.0
 71
     1
 72
     1
  1
3 PLACES
  7
SLDTEXTSTYLE0
 73
     1
 44
1.0
  0
ENDBLK
  5
1EB
330
1E9
100
AcDbEntity
  8
0
100
AcDbBlockEnd
  0
BLOCK
  5
1F2
330
1F1
100
AcDbEntity
  8
0
100
AcDbBlockBegin
  2
SW_NOTE_4
 70
     0
 10
0.0
 20
0.0
 30
0.0
  3
SW_NOTE_4
  1

  0
MTEXT
  5
1F4
330
1F1
100
AcDbEntity
  8
0
  6
Continuous
 62
     0
370
     0
100
AcDbMText
 10
0.0197212928
 20
0.0396234383
 30
0.0
 40
0.0833333333
 41
0.0
 71
     1
 72
     1
  1
CLAMPING BASE
  7
SLDTEXTSTYLE0
 73
     1
 44
1.0
  0
MTEXT
  5
1F5
330
1F1
100
AcDbEntity
  8
0
  6
Continuous
 62
     0
370
     0
100
AcDbMText
 10
0.0197212928
 20
-0.0714876715
 30
0.0
 40
0.0833333333
 41
0.0
 71
     1
 72
     1
  1
PROVIDES 360
  7
SLDTEXTSTYLE0
 73
     1
 44
1.0
  0
MTEXT
  5
1F6
330
1F1
100
AcDbEntity
  8
0
  6
Continuous
 62
     0
370
     0
100
AcDbMText
 10
0.76586328
 20
-0.0714876715
 30
0.0
 40
0.0833333333
 41
0.0
 71
     1
 72
     1
  1
%%d
  7
SLDTEXTSTYLE0
 73
     1
 44
1.0
  0
MTEXT
  5
1F7
330
1F1
100
AcDbEntity
  8
0
  6
Continuous
 62
     0
370
     0
100
AcDbMText
 10
0.8500762015
 20
-0.0714876715
 30
0.0
 40
0.0833333333
 41
0.0
 71
     1
 72
     1
  1
ROTATION
  7
SLDTEXTSTYLE0
 73
     1
 44
1.0
  0
ENDBLK
  5
1F3
330
1F1
100
AcDbEntity
  8
0
100
AcDbBlockEnd
  0
BLOCK
  5
1FB
330
1FA
100
AcDbEntity
  8
0
100
AcDbBlockBegin
  2
_DOT
 70
     0
 10
0.0
 20
0.0
 30
0.0
  3
_DOT
  1

  0
POLYLINE
  5
1FD
330
1FA
100
AcDbEntity
  8
0
  6
ByBlock
 62
     0
100
AcDb2dPolyline
 66
     1
 10
0.0
 20
0.0
 30
0.0
 70
     1
 40
0.5
 41
0.5
  0
VERTEX
  5
1FF
330
1FD
100
AcDbEntity
  8
0
  6
ByBlock
 62
     0
100
AcDbVertex
100
AcDb2dVertex
 10
-0.25
 20
0.0
 30
0.0
 42
1.0
  0
VERTEX
  5
200
330
1FD
100
AcDbEntity
  8
0
  6
ByBlock
 62
     0
100
AcDbVertex
100
AcDb2dVertex
 10
0.25
 20
0.0
 30
0.0
 42
1.0
  0
SEQEND
  5
201
330
1FD
100
AcDbEntity
  8
0
  6
ByBlock
 62
     0
  0
LINE
  5
1FE
330
1FA
100
AcDbEntity
  8
0
  6
ByBlock
 62
     0
370
    -2
100
AcDbLine
 10
-0.5
 20
0.0
 30
0.0
 11
-1.0
 21
0.0
 31
0.0
  0
ENDBLK
  5
1FC
330
1FA
100
AcDbEntity
  8
0
100
AcDbBlockEnd
  0
BLOCK
  5
204
330
203
100
AcDbEntity
  8
0
100
AcDbBlockBegin
  2
SW_CENTERMARKSYMBOL_2
 70
     0
 10
0.0
 20
0.0
 30
0.0
  3
SW_CENTERMARKSYMBOL_2
  1

  0
LINE
  5
206
330
203
100
AcDbEntity
  8
0
  6
Continuous
 62
     0
370
     0
100
AcDbLine
 10
0.0
 20
0.0
 30
0.0
 11
0.0
 21
0.05
 31
0.0
  0
LINE
  5
207
330
203
100
AcDbEntity
  8
0
  6
Continuous
 62
     0
370
     0
100
AcDbLine
 10
0.0
 20
0.0
 30
0.0
 11
-0.05
 21
0.0
 31
0.0
  0
LINE
  5
208
330
203
100
AcDbEntity
  8
0
  6
Continuous
 62
     0
370
     0
100
AcDbLine
 10
0.0
 20
0.0
 30
0.0
 11
0.0
 21
-0.05
 31
0.0
  0
LINE
  5
209
330
203
100
AcDbEntity
  8
0
  6
Continuous
 62
     0
370
     0
100
AcDbLine
 10
0.0
 20
0.0
 30
0.0
 11
0.05
 21
0.0
 31
0.0
  0
ENDBLK
  5
205
330
203
100
AcDbEntity
  8
0
100
AcDbBlockEnd
  0
BLOCK
  5
3A6
330
3A5
100
AcDbEntity
  8
0
100
AcDbBlockBegin
  2
*D23
 70
     1
 10
0.0
 20
0.0
 30
0.0
  3
*D23
  1

  0
SOLID
  5
3A8
330
3A5
100
AcDbEntity
  8
0
  6
Continuous
 62
     7
370
     0
100
AcDbTrace
 10
2.4744987257
 20
4.9621747251
 30
0.0
 11
2.5770345565
 21
5.0364135518
 31
0.0
 12
2.5487523226
 22
5.0646998602
 32
0.0
 13
2.5487523226
 23
5.0646998602
 33
0.0
  0
LINE
  5
3A9
330
3A5
100
AcDbEntity
  8
0
  6
Continuous
 62
     7
370
     0
100
AcDbLine
 10
2.4744987257
 20
4.9621747251
 30
0.0
 11
2.9860219836
 21
5.4736243001
 31
0.0
  0
LINE
  5
3AA
330
3A5
100
AcDbEntity
  8
0
  6
Continuous
 62
     7
370
     0
100
AcDbLine
 10
2.9860219836
 20
5.4736243001
 30
0.0
 11
2.8360219836
 21
5.4736243001
 31
0.0
  0
MTEXT
  5
3AB
330
3A5
100
AcDbEntity
  8
0
  6
Continuous
 62
     7
370
     0
100
AcDbMText
 10
1.7013212602
 20
5.3826150717
 30
0.0
 40
0.0833333333
 41
0.0
 71
     1
 72
     1
  1
5.0 mm HEX SOCKET
  7
SLDTEXTSTYLE0
 73
     1
 44
1.0
  0
MTEXT
  5
3AC
330
3A5
100
AcDbEntity
  8
0
  6
Continuous
 62
     7
370
     0
100
AcDbMText
 10
1.1227874552
 20
5.514902762
 30
0.0
 40
0.0833333333
 41
0.0
 71
     1
 72
     1
  1
SPRING LOADED THUMBSCREW
  7
SLDTEXTSTYLE0
 73
     1
 44
1.0
  0
ENDBLK
  5
3A7
330
3A5
100
AcDbEntity
  8
0
100
AcDbBlockEnd
  0
BLOCK
  5
3AF
330
3AE
100
AcDbEntity
  8
0
100
AcDbBlockBegin
  2
*D24
 70
     1
 10
0.0
 20
0.0
 30
0.0
  3
*D24
  1

  0
SOLID
  5
3B1
330
3AE
100
AcDbEntity
  8
0
  6
Continuous
 62
     7
370
     0
100
AcDbTrace
 10
1.3360289294
 20
3.5786638085
 30
0.0
 11
1.3560289294
 21
3.7036638085
 31
0.0
 12
1.3160289294
 22
3.7036638085
 32
0.0
 13
1.3160289294
 23
3.7036638085
 33
0.0
  0
SOLID
  5
3B2
330
3AE
100
AcDbEntity
  8
0
  6
Continuous
 62
     7
370
     0
100
AcDbTrace
 10
1.3360289294
 20
4.7606638085
 30
0.0
 11
1.3160289294
 21
4.6356638085
 31
0.0
 12
1.3560289294
 22
4.6356638085
 32
0.0
 13
1.3560289294
 23
4.6356638085
 33
0.0
  0
LINE
  5
3B3
330
3AE
100
AcDbEntity
  8
0
  6
Continuous
 62
     7
370
     0
100
AcDbLine
 10
1.7309587781
 20
3.5786638085
 30
0.0
 11
1.2660289294
 21
3.5786638085
 31
0.0
  0
LINE
  5
3B4
330
3AE
100
AcDbEntity
  8
0
  6
Continuous
 62
     7
370
     0
100
AcDbLine
 10
2.2229587781
 20
4.7606638085
 30
0.0
 11
1.2660289294
 21
4.7606638085
 31
0.0
  0
LINE
  5
3B5
330
3AE
100
AcDbEntity
  8
0
  6
Continuous
 62
     7
370
     0
100
AcDbLine
 10
1.3360289294
 20
3.5786638085
 30
0.0
 11
1.3360289294
 21
4.0373761182
 31
0.0
  0
LINE
  5
3B6
330
3AE
100
AcDbEntity
  8
0
  6
Continuous
 62
     7
370
     0
100
AcDbLine
 10
1.3360289294
 20
4.7606638085
 30
0.0
 11
1.3360289294
 21
4.3019514987
 31
0.0
  0
MTEXT
  5
3B7
330
3AE
100
AcDbEntity
  8
0
  6
Continuous
 62
     7
370
     0
100
AcDbMText
 10
1.1701378765
 20
4.1447984252
 30
0.0
 40
0.0833333333
 41
0.0
 71
     1
 72
     1
  1
(
  7
SLDTEXTSTYLE0
 73
     1
 44
1.0
  0
MTEXT
  5
3B8
330
3AE
100
AcDbEntity
  8
0
  6
Continuous
 62
     7
370
     0
100
AcDbMText
 10
1.2111813997
 20
4.1447984252
 30
0.0
 40
0.0833333333
 41
0.0
 71
     1
 72
     1
  1
1.18
  7
SLDTEXTSTYLE0
 73
     1
 44
1.0
  0
MTEXT
  5
3B9
330
3AE
100
AcDbEntity
  8
0
  6
Continuous
 62
     7
370
     0
100
AcDbMText
 10
1.4265372564
 20
4.1447984252
 30
0.0
 40
0.0833333333
 41
0.0
 71
     1
 72
     1
  1
")
  7
SLDTEXTSTYLE0
 73
     1
 44
1.0
  0
MTEXT
  5
3BA
330
3AE
100
AcDbEntity
  8
0
  6
Continuous
 62
     7
370
     0
100
AcDbMText
 10
1.1244428717
 20
4.2770861155
 30
0.0
 40
0.0833333333
 41
0.0
 71
     1
 72
     1
  1
30.0 mm
  7
SLDTEXTSTYLE0
 73
     1
 44
1.0
  0
ENDBLK
  5
3B0
330
3AE
100
AcDbEntity
  8
0
100
AcDbBlockEnd
  0
BLOCK
  5
3BC
330
3BB
100
AcDbEntity
  8
0
100
AcDbBlockBegin
  2
SW_CENTERMARKSYMBOL_3
 70
     0
 10
0.0
 20
0.0
 30
0.0
  3
SW_CENTERMARKSYMBOL_3
  1

  0
LINE
  5
3BE
330
3BB
100
AcDbEntity
  8
0
  6
Continuous
 62
     0
370
     0
100
AcDbLine
 10
0.0
 20
0.0
 30
0.0
 11
0.0
 21
0.05
 31
0.0
  0
LINE
  5
3BF
330
3BB
100
AcDbEntity
  8
0
  6
Continuous
 62
     0
370
     0
100
AcDbLine
 10
0.0
 20
0.0
 30
0.0
 11
-0.05
 21
0.0
 31
0.0
  0
LINE
  5
3C0
330
3BB
100
AcDbEntity
  8
0
  6
Continuous
 62
     0
370
     0
100
AcDbLine
 10
0.0
 20
0.0
 30
0.0
 11
0.0
 21
-0.05
 31
0.0
  0
LINE
  5
3C1
330
3BB
100
AcDbEntity
  8
0
  6
Continuous
 62
     0
370
     0
100
AcDbLine
 10
0.0
 20
0.0
 30
0.0
 11
0.05
 21
0.0
 31
0.0
  0
ENDBLK
  5
3BD
330
3BB
100
AcDbEntity
  8
0
100
AcDbBlockEnd
  0
ENDSEC
  0
SECTION
  2
ENTITIES
  0
LINE
  5
52
330
1F
100
AcDbEntity
  8
0
  6
Continuous
 62
     7
370
     0
100
AcDbLine
 10
0.0621791378
 20
8.4506055117
 30
0.0
 11
10.9444569626
 21
8.4506055117
 31
0.0
  0
LINE
  5
53
330
1F
100
AcDbEntity
  8
0
  6
Continuous
 62
     7
370
     0
100
AcDbLine
 10
0.0621791378
 20
8.4506055117
 30
0.0
 11
0.0621791378
 21
0.035557648
 31
0.0
  0
LINE
  5
54
330
1F
100
AcDbEntity
  8
0
  6
Continuous
 62
     7
370
     0
100
AcDbLine
 10
10.9444569626
 20
0.035557648
 30
0.0
 11
0.0621791378
 21
0.035557648
 31
0.0
  0
LINE
  5
55
330
1F
100
AcDbEntity
  8
0
  6
Continuous
 62
     7
370
     0
100
AcDbLine
 10
10.9444569626
 20
0.035557648
 30
0.0
 11
10.9444569626
 21
8.4506055117
 31
0.0
  0
LINE
  5
56
330
1F
100
AcDbEntity
  8
0
  6
Continuous
 62
     7
370
     0
100
AcDbLine
 10
8.4938096065
 20
0.4840901186
 30
0.0
 11
6.7571952625
 21
0.4840901186
 31
0.0
  0
LINE
  5
57
330
1F
100
AcDbEntity
  8
0
  6
Continuous
 62
     7
370
     0
100
AcDbLine
 10
6.7571952625
 20
0.4840901186
 30
0.0
 11
6.7571952625
 21
1.030163002
 31
0.0
  0
LINE
  5
58
330
1F
100
AcDbEntity
  8
0
  6
Continuous
 62
     7
370
     0
100
AcDbLine
 10
6.7571952625
 20
0.035557648
 30
0.0
 11
6.7571952625
 21
1.030163002
 31
0.0
  0
LINE
  5
59
330
1F
100
AcDbEntity
  8
0
  6
Continuous
 62
     7
370
     0
100
AcDbLine
 10
8.4938096065
 20
0.6756085809
 30
0.0
 11
10.9444569626
 21
0.6756085809
 31
0.0
  0
LINE
  5
5A
330
1F
100
AcDbEntity
  8
0
  6
Continuous
 62
     7
370
     0
100
AcDbLine
 10
8.4938096065
 20
1.3873799542
 30
0.0
 11
8.4938096065
 21
0.035557648
 31
0.0
  0
LINE
  5
5B
330
1F
100
AcDbEntity
  8
0
  6
Continuous
 62
     7
370
     0
100
AcDbLine
 10
8.4938096065
 20
1.030163002
 30
0.0
 11
6.7571952625
 21
1.030163002
 31
0.0
  0
LINE
  5
5C
330
1F
100
AcDbEntity
  8
0
  6
Continuous
 62
     7
370
     0
100
AcDbLine
 10
8.4938096065
 20
0.3598787426
 30
0.0
 11
10.9444569626
 21
0.3598787426
 31
0.0
  0
LINE
  5
5D
330
1F
100
AcDbEntity
  8
0
  6
Continuous
 62
     7
370
     0
100
AcDbLine
 10
8.4938096065
 20
0.6662079686
 30
0.0
 11
6.7571952625
 21
0.6662079686
 31
0.0
  0
LINE
  5
5E
330
1F
100
AcDbEntity
  8
0
  6
Continuous
 62
     7
370
     0
100
AcDbLine
 10
8.4938096065
 20
0.8459606517
 30
0.0
 11
6.7571952625
 21
0.8459606517
 31
0.0
  0
LINE
  5
5F
330
1F
100
AcDbEntity
  8
0
  6
Continuous
 62
     7
370
     0
100
AcDbLine
 10
7.3281027587
 20
1.030163002
 30
0.0
 11
7.3281027587
 21
0.4840901186
 31
0.0
  0
LINE
  5
60
330
1F
100
AcDbEntity
  8
0
  6
Continuous
 62
     7
370
     0
100
AcDbLine
 10
7.8037240401
 20
1.030163002
 30
0.0
 11
7.8037240401
 21
0.4840901186
 31
0.0
  0
LINE
  5
61
330
1F
100
AcDbEntity
  8
0
  6
Continuous
 62
     7
370
     0
100
AcDbLine
 10
9.990119718
 20
0.3598787426
 30
0.0
 11
9.990119718
 21
0.035557648
 31
0.0
  0
LINE
  5
62
330
1F
100
AcDbEntity
  8
0
  6
Continuous
 62
     7
370
     0
100
AcDbLine
 10
6.7571952625
 20
0.4840901186
 30
0.0
 11
6.7571952625
 21
0.297745443
 31
0.0
  0
LINE
  5
63
330
1F
100
AcDbEntity
  8
0
  6
Continuous
 62
     7
370
     0
100
AcDbLine
 10
6.7571952625
 20
0.297745443
 30
0.0
 11
8.4938096065
 21
0.297745443
 31
0.0
  0
LINE
  5
64
330
1F
100
AcDbEntity
  8
0
  6
Continuous
 62
     7
370
     0
100
AcDbLine
 10
6.7571952625
 20
0.297745443
 30
0.0
 11
6.7571952625
 21
1.3873799542
 31
0.0
  0
LINE
  5
65
330
1F
100
AcDbEntity
  8
0
  6
Continuous
 62
     7
370
     0
100
AcDbLine
 10
6.7571952625
 20
1.3873799542
 30
0.0
 11
8.4938096065
 21
1.3873799542
 31
0.0
  0
LINE
  5
66
330
1F
100
AcDbEntity
  8
0
  6
Continuous
 62
     7
370
     0
100
AcDbLine
 10
10.6365495992
 20
0.6756085809
 30
0.0
 11
10.6365495992
 21
0.3598787426
 31
0.0
  0
LINE
  5
67
330
1F
100
AcDbEntity
  8
0
  6
Continuous
 62
     7
370
     0
100
AcDbLine
 10
8.4938096065
 20
1.3873799542
 30
0.0
 11
10.9444569626
 21
1.3873799542
 31
0.0
  0
LINE
  5
68
330
1F
100
AcDbEntity
  8
0
  6
Continuous
 62
     7
370
     0
100
AcDbLine
 10
10.9444569626
 20
1.3873799542
 30
0.0
 11
10.9444569626
 21
1.9698084888
 31
0.0
  0
LINE
  5
69
330
1F
100
AcDbEntity
  8
0
  6
Continuous
 62
     7
370
     0
100
AcDbLine
 10
8.4938096065
 20
0.9800288797
 30
0.0
 11
10.9444569626
 21
0.9800288797
 31
0.0
  0
INSERT
  5
6A
330
1F
100
AcDbEntity
  8
0
  6
Continuous
 62
     7
100
AcDbBlockReference
  2
Third Angle Projection Block
 10
4.6348905679
 20
0.6108753523
 30
0.0
 41
0.8
 42
0.8
 43
0.8
  0
MTEXT
  5
6C
330
1F
100
AcDbEntity
  8
0
  6
Continuous
 62
     7
370
     0
100
AcDbMText
 10
10.7776160107
 20
0.5162413101
 30
0.0
 40
0.125
 41
0.0
 71
     2
 72
     1
  1
A
  7
SLDTEXTSTYLE0
 73
     1
 44
1.0
  0
MTEXT
  5
6D
330
1F
100
AcDbEntity
  8
0
  6
Continuous
 62
     7
370
     0
100
AcDbMText
 10
9.2413515103
 20
0.2019943461
 30
0.0
 40
0.125
 41
0.0
 71
     2
 72
     1
  1
UPH1.5/M
  7
SLDTEXTSTYLE0
 73
     1
 44
1.0
  0
MTEXT
  5
6E
330
1F
100
AcDbEntity
  8
0
  6
Continuous
 62
     7
370
     0
100
AcDbMText
 10
8.5204715199
 20
0.6623747189
 30
0.0
 40
0.0833333333
 41
0.0
 71
     1
 72
     1
  1
MATERIAL
  7
SLDTEXTSTYLE0
 73
     1
 44
1.0
  0
MTEXT
  5
6F
330
1F
100
AcDbEntity
  8
0
  6
Continuous
 62
     7
370
     0
100
AcDbMText
 10
6.8055665782
 20
0.7895493672
 30
0.0
 40
0.0729166667
 41
0.0
 71
     1
 72
     1
  1
REDRAWN
  7
SLDTEXTSTYLE0
 73
     1
 44
1.0
  0
MTEXT
  5
70
330
1F
100
AcDbEntity
  8
0
  6
Continuous
 62
     7
370
     0
100
AcDbMText
 10
6.7872445848
 20
0.613335314
 30
0.0
 40
0.0729166667
 41
0.0
 71
     1
 72
     1
  1
APPROVAL
  7
SLDTEXTSTYLE0
 73
     1
 44
1.0
  0
MTEXT
  5
71
330
1F
100
AcDbEntity
  8
0
  6
Continuous
 62
     7
370
     0
100
AcDbMText
 10
10.681956279
 20
0.6308568984
 30
0.0
 40
0.0833333333
 41
0.0
 71
     1
 72
     1
  1
REV
  7
SLDTEXTSTYLE0
 73
     1
 44
1.0
  0
MTEXT
  5
72
330
1F
100
AcDbEntity
  8
0
  6
Continuous
 62
     7
370
     0
100
AcDbMText
 10
7.4919633718
 20
0.7999100272
 30
0.0
 40
0.0833333333
 41
0.0
 71
     1
 72
     1
  1
TLB
  7
SLDTEXTSTYLE0
 73
     1
 44
1.0
  0
MTEXT
  5
73
330
1F
100
AcDbEntity
  8
0
  6
Continuous
 62
     7
370
     0
100
AcDbMText
 10
7.4919633718
 20
0.623695974
 30
0.0
 40
0.0833333333
 41
0.0
 71
     1
 72
     1
  1
TLB
  7
SLDTEXTSTYLE0
 73
     1
 44
1.0
  0
MTEXT
  5
75
330
1F
100
AcDbEntity
  8
0
  6
Continuous
 62
     7
370
     0
100
AcDbMText
 10
7.8687497515
 20
0.7999100272
 30
0.0
 40
0.0833333333
 41
0.0
 71
     1
 72
     1
  1
05 MAR 12
  7
SLDTEXTSTYLE1
 73
     1
 44
1.0
  0
MTEXT
  5
76
330
1F
100
AcDbEntity
  8
0
  6
Continuous
 62
     7
370
     0
100
AcDbMText
 10
8.0163191884
 20
0.9772495896
 30
0.0
 40
0.0833333333
 41
0.0
 71
     1
 72
     1
  1
DATE
  7
SLDTEXTSTYLE0
 73
     1
 44
1.0
  0
MTEXT
  5
77
330
1F
100
AcDbEntity
  8
0
  6
Continuous
 62
     7
370
     0
100
AcDbMText
 10
7.8687497515
 20
0.623695974
 30
0.0
 40
0.0833333333
 41
0.0
 71
     1
 72
     1
  1
05 MAR 12
  7
SLDTEXTSTYLE1
 73
     1
 44
1.0
  0
MTEXT
  5
79
330
1F
100
AcDbEntity
  8
0
  6
Continuous
 62
     7
370
     0
100
AcDbMText
 10
9.0316104912
 20
1.0943207896
 30
0.0
 40
0.0833333333
 41
0.0
 71
     1
 72
     1
  1
w w w . t h o r  l a b s . c o m
  7
SLDTEXTSTYLE2
 73
     1
 44
1.0
  0
MTEXT
  5
7A
330
1F
100
AcDbEntity
  8
0
  6
Continuous
 62
     7
370
     0
100
AcDbMText
 10
8.5315119501
 20
0.328719653
 30
0.0
 40
0.0833333333
 41
0.0
 71
     1
 72
     1
  1
ITEM #
  7
SLDTEXTSTYLE0
 73
     1
 44
1.0
  0
MTEXT
  5
7B
330
1F
100
AcDbEntity
  8
0
  6
Continuous
 62
     7
370
     0
100
AcDbMText
 10
10.0209370115
 20
0.328719653
 30
0.0
 40
0.0833333333
 41
0.0
 71
     1
 72
     1
  1
APPROX WEIGHT
  7
SLDTEXTSTYLE0
 73
     1
 44
1.0
  0
MTEXT
  5
7C
330
1F
100
AcDbEntity
  8
0
  6
Continuous
 62
     7
370
     0
100
AcDbMText
 10
9.5799213576
 20
0.5162413101
 30
0.0
 40
0.125
 41
0.0
 71
     2
 72
     1
  1
ALUMINUM
  7
SLDTEXTSTYLE0
 73
     1
 44
1.0
  0
MTEXT
  5
7D
330
1F
100
AcDbEntity
  8
0
  6
Continuous
 62
     7
370
     0
100
AcDbMText
 10
10.4790491378
 20
0.2019943461
 30
0.0
 40
0.125
 41
0.0
 71
     2
 72
     1
  1
0.07 kg
  7
SLDTEXTSTYLE0
 73
     1
 44
1.0
  0
INSERT
  5
83
330
1F
100
AcDbEntity
  8
0
  6
Continuous
 62
     7
370
     0
100
AcDbBlockReference
  2
SW_NOTE_0
 10
6.8835832285
 20
0.1754273811
 30
0.0
  0
INSERT
  5
89
330
1F
100
AcDbEntity
  8
0
  6
Continuous
 62
     7
370
     0
100
AcDbBlockReference
  2
SW_NOTE_1
 10
6.8719828753
 20
1.2001390658
 30
0.0
  0
MTEXT
  5
8A
330
1F
100
AcDbEntity
  8
0
  6
Continuous
 62
     7
370
     0
100
AcDbMText
 10
7.3987149145
 20
0.9772495896
 30
0.0
 40
0.0833333333
 41
0.0
 71
     1
 72
     1
  1
NAME
  7
SLDTEXTSTYLE0
 73
     1
 44
1.0
  0
INSERT
  5
90
330
1F
100
AcDbEntity
  8
0
  6
Continuous
 62
     7
370
     0
100
AcDbBlockReference
  2
SW_NOTE_2
 10
2.3078923918
 20
0.3219551564
 30
0.0
  0
MTEXT
  5
91
330
1F
100
AcDbEntity
  8
0
  6
Continuous
 62
     7
370
     0
100
AcDbMText
 10
7.0518693355
 20
0.4200025137
 30
0.0
 40
0.0625
 41
0.0
 71
     1
 72
     1
  1
COPYRIGHT © 2012 BY THORLABS
  7
SLDTEXTSTYLE0
 73
     1
 44
1.0
  0
INSERT
  5
97
330
1F
100
AcDbEntity
  8
0
  6
Continuous
 62
     7
370
     0
100
AcDbBlockReference
  2
SW_NOTE_3
 10
9.0257366324
 20
0.8081410754
 30
0.0
  0
LINE
  5
98
330
1F
100
AcDbEntity
  8
0
  6
Continuous
 62
     7
370
     0
100
AcDbLine
 10
3.5855656041
 20
4.0356638168
 30
0.0
 11
3.6105656019
 21
4.0106638006
 31
0.0
  0
LINE
  5
99
330
1F
100
AcDbEntity
  8
0
  6
Continuous
 62
     7
370
     0
100
AcDbLine
 10
4.5445655823
 20
4.0106638006
 30
0.0
 11
4.5695655801
 21
4.0356638168
 31
0.0
  0
LINE
  5
9A
330
1F
100
AcDbEntity
  8
0
  6
Continuous
 62
     7
370
     0
100
AcDbLine
 10
4.5695655801
 20
4.9306638393
 30
0.0
 11
4.4829630306
 21
5.0806637532
 31
0.0
  0
LINE
  5
9B
330
1F
100
AcDbEntity
  8
0
  6
Continuous
 62
     7
370
     0
100
AcDbLine
 10
3.672168117
 20
5.0806637532
 30
0.0
 11
3.5855656041
 21
4.9306638393
 31
0.0
  0
LINE
  5
9C
330
1F
100
AcDbEntity
  8
0
  6
Continuous
 62
     7
370
     0
100
AcDbLine
 10
4.5695655801
 20
4.0356638168
 30
0.0
 11
4.5695655801
 21
4.9306638393
 31
0.0
  0
LINE
  5
9D
330
1F
100
AcDbEntity
  8
0
  6
Continuous
 62
     7
370
     0
100
AcDbLine
 10
3.5855656041
 20
4.6356638205
 30
0.0
 11
3.5855656041
 21
4.0356638168
 31
0.0
  0
LINE
  5
9E
330
1F
100
AcDbEntity
  8
0
  6
Continuous
 62
     7
370
     0
100
AcDbLine
 10
3.5855656041
 20
4.9306638393
 30
0.0
 11
3.5855656041
 21
4.8856637992
 31
0.0
  0
LINE
  5
9F
330
1F
100
AcDbEntity
  8
0
  6
Continuous
 62
     7
370
     0
100
AcDbLine
 10
3.5855656041
 20
3.7286638074
 30
0.0
 11
3.5855656041
 21
3.5786638111
 31
0.0
  0
LINE
  5
A0
330
1F
100
AcDbEntity
  8
0
  6
Continuous
 62
     7
370
     0
100
AcDbLine
 10
4.5695655801
 20
3.5786638111
 30
0.0
 11
4.5695655801
 21
3.6566638
 31
0.0
  0
LINE
  5
A1
330
1F
100
AcDbEntity
  8
0
  6
Continuous
 62
     7
370
     0
100
AcDbLine
 10
3.6828155906
 20
4.0106638006
 30
0.0
 11
3.6828155906
 21
4.0066638068
 31
0.0
  0
LINE
  5
A2
330
1F
100
AcDbEntity
  8
0
  6
Continuous
 62
     7
370
     0
100
AcDbLine
 10
4.4723155936
 20
4.0066638068
 30
0.0
 11
4.4723155936
 21
4.0106638006
 31
0.0
  0
LINE
  5
A3
330
1F
100
AcDbEntity
  8
0
  6
Continuous
 62
     7
370
     0
100
AcDbLine
 10
3.5855656041
 20
4.0066638068
 30
0.0
 11
3.5855656041
 21
3.7286638074
 31
0.0
  0
LINE
  5
A4
330
1F
100
AcDbEntity
  8
0
  6
Continuous
 62
     7
370
     0
100
AcDbLine
 10
3.465565607
 20
4.4756637755
 30
0.0
 11
3.4855655759
 21
4.4956638178
 31
0.0
  0
LINE
  5
A5
330
1F
100
AcDbEntity
  8
0
  6
Continuous
 62
     7
370
     0
100
AcDbLine
 10
3.4855655759
 20
5.0256638019
 30
0.0
 11
3.465565607
 21
5.0456638442
 31
0.0
  0
LINE
  5
A6
330
1F
100
AcDbEntity
  8
0
  6
Continuous
 62
     7
370
     0
100
AcDbLine
 10
3.195565586
 20
4.4756637755
 30
0.0
 11
3.465565607
 21
4.4756637755
 31
0.0
  0
LINE
  5
A7
330
1F
100
AcDbEntity
  8
0
  6
Continuous
 62
     7
370
     0
100
AcDbLine
 10
3.465565607
 20
5.0456638442
 30
0.0
 11
3.195565586
 21
5.0456638442
 31
0.0
  0
LINE
  5
A8
330
1F
100
AcDbEntity
  8
0
  6
Continuous
 62
     7
370
     0
100
AcDbLine
 10
3.195565586
 20
5.0456638442
 30
0.0
 11
3.1755656171
 21
5.0256638019
 31
0.0
  0
LINE
  5
A9
330
1F
100
AcDbEntity
  8
0
  6
Continuous
 62
     7
370
     0
100
AcDbLine
 10
3.1755656171
 20
4.4956638178
 30
0.0
 11
3.195565586
 21
4.4756637755
 31
0.0
  0
LINE
  5
AA
330
1F
100
AcDbEntity
  8
0
  6
Continuous
 62
     7
370
     0
100
AcDbLine
 10
3.1755030645
 20
4.7674072453
 30
0.0
 11
3.1755656171
 21
4.7674072453
 31
0.0
  0
LINE
  5
AB
330
1F
100
AcDbEntity
  8
0
  6
Continuous
 62
     7
370
     0
100
AcDbLine
 10
3.1755030645
 20
4.7796505438
 30
0.0
 11
3.1755656171
 21
4.7796505438
 31
0.0
  0
LINE
  5
AC
330
1F
100
AcDbEntity
  8
0
  6
Continuous
 62
     7
370
     0
100
AcDbLine
 10
3.1755656171
 20
4.7136293065
 30
0.0
 11
3.1755030645
 21
4.7136293065
 31
0.0
  0
LINE
  5
AD
330
1F
100
AcDbEntity
  8
0
  6
Continuous
 62
     7
370
     0
100
AcDbLine
 10
3.1755030645
 20
4.6620901352
 30
0.0
 11
3.1755656171
 21
4.6620901352
 31
0.0
  0
LINE
  5
AE
330
1F
100
AcDbEntity
  8
0
  6
Continuous
 62
     7
370
     0
100
AcDbLine
 10
3.1755030645
 20
4.76468727
 30
0.0
 11
3.1755656171
 21
4.76468727
 31
0.0
  0
ARC
  5
AF
330
1F
100
AcDbEntity
  8
0
  6
Continuous
 62
     7
370
     0
100
AcDbCircle
 10
3.4955655863
 20
4.6256638085
 30
0.0
 40
0.0100000000000007
100
AcDbArc
 50
90.0
 51
180.0
  0
ARC
  5
B0
330
1F
100
AcDbEntity
  8
0
  6
Continuous
 62
     7
370
     0
100
AcDbCircle
 10
3.4955655863
 20
4.8956638085
 30
0.0
 40
0.0100000000000002
100
AcDbArc
 50
180.0
 51
270.0
  0
LINE
  5
B1
330
1F
100
AcDbEntity
  8
0
  6
Continuous
 62
     7
370
     0
100
AcDbLine
 10
3.4955655604
 20
4.6356638205
 30
0.0
 11
3.5855656041
 21
4.6356638205
 31
0.0
  0
LINE
  5
B2
330
1F
100
AcDbEntity
  8
0
  6
Continuous
 62
     7
370
     0
100
AcDbLine
 10
3.5855656041
 20
4.8856637992
 30
0.0
 11
3.4955655604
 21
4.8856637992
 31
0.0
  0
LINE
  5
B3
330
1F
100
AcDbEntity
  8
0
  6
Continuous
 62
     7
370
     0
100
AcDbLine
 10
3.1755656171
 20
4.5891216715
 30
0.0
 11
3.1755030645
 21
4.5891216715
 31
0.0
  0
LINE
  5
B4
330
1F
100
AcDbEntity
  8
0
  6
Continuous
 62
     7
370
     0
100
AcDbLine
 10
3.1755656171
 20
4.5842237214
 30
0.0
 11
3.1755030645
 21
4.5842237214
 31
0.0
  0
LINE
  5
B5
330
1F
100
AcDbEntity
  8
0
  6
Continuous
 62
     7
370
     0
100
AcDbLine
 10
3.1755656171
 20
4.979687413
 30
0.0
 11
3.1755030645
 21
4.979687413
 31
0.0
  0
LINE
  5
B6
330
1F
100
AcDbEntity
  8
0
  6
Continuous
 62
     7
370
     0
100
AcDbLine
 10
3.1755656171
 20
4.5931849512
 30
0.0
 11
3.1755030645
 21
4.5931849512
 31
0.0
  0
LINE
  5
B7
330
1F
100
AcDbEntity
  8
0
  6
Continuous
 62
     7
370
     0
100
AcDbLine
 10
3.1755656171
 20
4.5883068009
 30
0.0
 11
3.1755030645
 21
4.5883068009
 31
0.0
  0
LINE
  5
B8
330
1F
100
AcDbEntity
  8
0
  6
Continuous
 62
     7
370
     0
100
AcDbLine
 10
3.1755656171
 20
4.6036560236
 30
0.0
 11
3.1755030645
 21
4.6036560236
 31
0.0
  0
LINE
  5
B9
330
1F
100
AcDbEntity
  8
0
  6
Continuous
 62
     7
370
     0
100
AcDbLine
 10
3.1755656171
 20
4.6139011586
 30
0.0
 11
3.1755030645
 21
4.6139011586
 31
0.0
  0
LINE
  5
BA
330
1F
100
AcDbEntity
  8
0
  6
Continuous
 62
     7
370
     0
100
AcDbLine
 10
3.5855656041
 20
4.0356638168
 30
0.0
 11
4.5695655801
 21
4.0356638168
 31
0.0
  0
LINE
  5
BB
330
1F
100
AcDbEntity
  8
0
  6
Continuous
 62
     7
370
     0
100
AcDbLine
 10
4.5445655823
 20
4.0106638006
 30
0.0
 11
3.6105656019
 21
4.0106638006
 31
0.0
  0
LINE
  5
BC
330
1F
100
AcDbEntity
  8
0
  6
Continuous
 62
     7
370
     0
100
AcDbLine
 10
3.672168117
 20
5.0806637532
 30
0.0
 11
4.4829630306
 21
5.0806637532
 31
0.0
  0
LINE
  5
BD
330
1F
100
AcDbEntity
  8
0
  6
Continuous
 62
     7
370
     0
100
AcDbLine
 10
4.5695655801
 20
4.9306638393
 30
0.0
 11
3.5855656041
 21
4.9306638393
 31
0.0
  0
LWPOLYLINE
  5
BE
330
1F
100
AcDbEntity
  8
0
  6
Continuous
 62
     7
370
     0
100
AcDbPolyline
 90
       19
 70
   128
 43
0.0
 10
3.5855685007
 20
4.8790706953
 10
3.5855656041
 20
4.8790819152
 10
3.5861689471
 20
4.8767910817
 10
3.587905497
 20
4.8699157211
 10
3.5905060137
 20
4.8589701875
 10
3.5935521718
 20
4.8443484231
 10
3.5966091465
 20
4.8265150625
 10
3.5992299395
 20
4.8059714064
 10
3.6010283454
 20
4.7835768385
 10
3.6016533582
 20
4.7605818975
 10
3.6010274288
 20
4.7376214227
 10
3.5992196363
 20
4.715201555
 10
3.59659514
 20
4.6946946386
 10
3.5935325187
 20
4.6768768978
 10
3.5904899905
 20
4.6622978128
 10
3.5878934338
 20
4.6513728124
 10
3.5861629705
 20
4.6445154183
 10
3.5855656041
 20
4.6422456312
 10
3.5855656041
 20
4.6422456312
  0
LINE
  5
BF
330
1F
100
AcDbEntity
  8
0
  6
Continuous
 62
     7
370
     0
100
AcDbLine
 10
4.0775655875
 20
3.5786638111
 30
0.0
 11
4.5695655801
 21
3.5786638111
 31
0.0
  0
LINE
  5
C0
330
1F
100
AcDbEntity
  8
0
  6
Continuous
 62
     7
370
     0
100
AcDbLine
 10
3.5855656041
 20
3.5786638111
 30
0.0
 11
4.0775655875
 21
3.5786638111
 31
0.0
  0
LINE
  5
C1
330
1F
100
AcDbEntity
  8
0
  6
Continuous
 62
     7
370
     0
100
AcDbLine
 10
3.5855656041
 20
3.7286638074
 30
0.0
 11
4.0775655875
 21
3.7286638074
 31
0.0
  0
SPLINE
  5
C2
330
1F
100
AcDbEntity
  8
0
  6
Continuous
 62
     7
370
     0
100
AcDbSpline
210
0.0
220
0.0
230
1.0
 70
     8
 71
     3
 72
    11
 73
     7
 74
     0
 42
0.00000001
 43
0.00000001
 40
0.0
 40
0.0
 40
0.0
 40
0.0
 40
0.3001363435131846
 40
0.6002443089125581
 40
0.9010885592270864
 40
1.0
 40
1.0
 40
1.0
 40
1.0
 10
4.077565587514387
 20
3.848663809095215
 30
0.0
 10
4.073625377301915
 20
3.849043261196094
 30
0.0
 10
4.065745329426766
 20
3.849802129520374
 30
0.0
 10
4.055483776315342
 20
3.85589860015725
 30
0.0
 10
4.048718750744862
 20
3.862504844610961
 30
0.0
 10
4.046900292901328
 20
3.867407257205704
 30
0.0
 10
4.046450352376906
 20
3.868620259806593
 30
0.0
  0
SPLINE
  5
C3
330
1F
100
AcDbEntity
  8
0
  6
Continuous
 62
     7
370
     0
100
AcDbSpline
210
0.0
220
0.0
230
1.0
 70
     8
 71
     3
 72
    11
 73
     7
 74
     0
 42
0.00000001
 43
0.00000001
 40
0.0
 40
0.0
 40
0.0
 40
0.0
 40
0.1999434185263309
 40
0.501597694189551
 40
0.803725443603136
 40
1.0
 40
1.0
 40
1.0
 40
1.0
 10
4.108641923205405
 20
3.86853979115284
 30
0.0
 10
4.107500506994167
 20
3.866186034694787
 30
0.0
 10
4.104637038199408
 20
3.860281170104867
 30
0.0
 10
4.096327826873442
 20
3.853461318318476
 30
0.0
 10
4.086615309388561
 20
3.849245434708679
 30
0.0
 10
4.080122503172589
 20
3.848828142061349
 30
0.0
 10
4.077565587514387
 20
3.848663809095215
 30
0.0
  0
SPLINE
  5
C4
330
1F
100
AcDbEntity
  8
0
  6
Continuous
 62
     7
370
     0
100
AcDbSpline
210
0.0
220
0.0
230
1.0
 70
     8
 71
     3
 72
     9
 73
     5
 74
     0
 42
0.00000001
 43
0.00000001
 40
0.0
 40
0.0
 40
0.0
 40
0.0
 40
0.3470777073319892
 40
0.9999999999999999
 40
0.9999999999999999
 40
0.9999999999999999
 40
0.9999999999999999
 10
4.072353989802542
 20
3.849549271366279
 30
0.0
 10
4.074043582626754
 20
3.849154581673902
 30
0.0
 10
4.078911636058365
 20
3.848017402062423
 30
0.0
 10
4.083791633322434
 20
3.849361408631835
 30
0.0
 10
4.086977892324305
 20
3.850238940482496
 30
0.0
  0
LINE
  5
C5
330
1F
100
AcDbEntity
  8
0
  6
Continuous
 62
     7
370
     0
100
AcDbLine
 10
3.5855656041
 20
4.0066638068
 30
0.0
 11
4.0775655875
 21
4.0066638068
 31
0.0
  0
SPLINE
  5
C6
330
1F
100
AcDbEntity
  8
0
  6
Continuous
 62
     7
370
     0
100
AcDbSpline
210
0.0
220
0.0
230
1.0
 70
     8
 71
     3
 72
    17
 73
    13
 74
     0
 42
0.00000001
 43
0.00000001
 40
0.0
 40
0.0
 40
0.0
 40
0.0
 40
0.1072028215458944
 40
0.214399643028384
 40
0.3217520422578137
 40
0.4292072696194741
 40
0.5364929367587727
 40
0.6436012425935373
 40
0.7508011238552212
 40
0.8582184688349513
 40
0.9656401957921603
 40
1.0
 40
1.0
 40
1.0
 40
1.0
 10
4.077565587514387
 20
3.83416380868379
 30
0.0
 10
4.073803432284455
 20
3.834533319453973
 30
0.0
 10
4.066279332389664
 20
3.835272320313092
 30
0.0
 10
4.056262230267153
 20
3.841032144620735
 30
0.0
 10
4.048635583237695
 20
3.849521278769315
 30
0.0
 10
4.044265006784512
 20
3.860134372071189
 30
0.0
 10
4.043650384264081
 20
3.871572640966628
 30
0.0
 10
4.046849213301456
 20
3.882561503306097
 30
0.0
 10
4.053500599893673
 20
3.89188473211986
 30
0.0
 10
4.062859587247324
 20
3.898456320864785
 30
0.0
 10
4.071413277789762
 20
3.900959614726394
 30
0.0
 10
4.076365459463146
 20
3.901123974127673
 30
0.0
 10
4.077565587514387
 20
3.901163805527442
 30
0.0
  0
LINE
  5
C7
330
1F
100
AcDbEntity
  8
0
  6
Continuous
 62
     7
370
     0
100
AcDbLine
 10
5.8460695939
 20
3.5766638142
 30
0.0
 11
6.0460695768
 21
3.5766638142
 31
0.0
  0
LINE
  5
C8
330
1F
100
AcDbEntity
  8
0
  6
Continuous
 62
     7
370
     0
100
AcDbLine
 10
4.2775655933
 20
3.6566638
 30
0.0
 11
5.8460695939
 21
3.6566638
 31
0.0
  0
LINE
  5
C9
330
1F
100
AcDbEntity
  8
0
  6
Continuous
 62
     7
370
     0
100
AcDbLine
 10
6.0460695768
 20
4.0066638068
 30
0.0
 11
6.0460695768
 21
3.5766638142
 31
0.0
  0
LINE
  5
CA
330
1F
100
AcDbEntity
  8
0
  6
Continuous
 62
     7
370
     0
100
AcDbLine
 10
4.0775655875
 20
4.0066638068
 30
0.0
 11
6.0460695768
 21
4.0066638068
 31
0.0
  0
LINE
  5
CB
330
1F
100
AcDbEntity
  8
0
  6
Continuous
 62
     7
370
     0
100
AcDbLine
 10
4.2775655933
 20
3.7286638074
 30
0.0
 11
4.2775655933
 21
3.6566638
 31
0.0
  0
ARC
  5
CC
330
1F
100
AcDbEntity
  8
0
  6
Continuous
 62
     7
370
     0
100
AcDbCircle
 10
4.0775655863
 20
3.8676638085
 30
0.0
 40
0.0335000000000001
100
AcDbArc
 50
270.0
 51
90.0
  0
LINE
  5
CD
330
1F
100
AcDbEntity
  8
0
  6
Continuous
 62
     7
370
     0
100
AcDbLine
 10
4.0775655875
 20
3.7286638074
 30
0.0
 11
4.2775655933
 21
3.7286638074
 31
0.0
  0
LINE
  5
CE
330
1F
100
AcDbEntity
  8
0
  6
Continuous
 62
     7
370
     0
100
AcDbLine
 10
5.8460695939
 20
3.6566638
 30
0.0
 11
5.8460695939
 21
3.5766638142
 31
0.0
  0
CIRCLE
  5
CF
330
1F
100
AcDbEntity
  8
0
  6
Continuous
 62
     7
370
     0
100
AcDbCircle
 10
4.0775655863
 20
3.8676638085
 30
0.0
 40
0.03125
  0
LINE
  5
D0
330
1F
100
AcDbEntity
  8
0
  6
Continuous
 62
     7
370
     0
100
AcDbLine
 10
3.465565607
 20
4.4756637755
 30
0.0
 11
3.465565607
 21
5.0456638442
 31
0.0
  0
LINE
  5
D1
330
1F
100
AcDbEntity
  8
0
  6
Continuous
 62
     7
370
     0
100
AcDbLine
 10
3.4855655759
 20
4.4956638178
 30
0.0
 11
3.4855655759
 21
5.0256638019
 31
0.0
  0
LINE
  5
D2
330
1F
100
AcDbEntity
  8
0
  6
Continuous
 62
     7
370
     0
100
AcDbLine
 10
3.195565586
 20
4.4756637755
 30
0.0
 11
3.195565586
 21
5.0456638442
 31
0.0
  0
LINE
  5
D3
330
1F
100
AcDbEntity
  8
0
  6
Continuous
 62
     7
370
     0
100
AcDbLine
 10
3.1755656171
 20
4.4956638178
 30
0.0
 11
3.1755656171
 21
5.0256638019
 31
0.0
  0
DIMENSION
  5
D4
330
1F
100
AcDbEntity
  8
0
  6
Continuous
 62
     7
370
     0
100
AcDbDimension
  2
*D6
 10
6.4397703107
 20
4.0066638085
 30
0.0
 11
6.4397703107
 21
3.7916638085
 31
0.0
 70
   160
  1
10.9 mm\P(<>")
 71
     2
 42
-1.0
  3
SLDDIMSTYLE0
100
AcDbAlignedDimension
 13
6.0460695233
 23
3.5766638085
 33
0.0
 14
6.0460695233
 24
4.0066638085
 34
0.0
 50
90.0
100
AcDbRotatedDimension
  0
DIMENSION
  5
E3
330
1F
100
AcDbEntity
  8
0
  6
Continuous
 62
     7
370
     0
100
AcDbDimension
  2
*D7
 10
6.9749949747
 20
5.0806638085
 30
0.0
 11
6.9749949747
 21
4.3286638085
 31
0.0
 70
   160
  1
38.1 mm\P(<>")
 71
     2
 42
-1.0
  3
SLDDIMSTYLE1
100
AcDbAlignedDimension
 13
6.0460695233
 23
3.5766638085
 33
0.0
 14
4.482963046
 24
5.0806638085
 34
0.0
 50
90.0
100
AcDbRotatedDimension
  0
DIMENSION
  5
F2
330
1F
100
AcDbEntity
  8
0
  6
Continuous
 62
     7
370
     0
100
AcDbDimension
  2
*D8
 10
6.0460695233
 20
3.1849630211
 30
0.0
 11
4.8158175548
 21
3.1849630211
 31
0.0
 70
   160
  1
62.5 mm\P(<>")
 71
     2
 42
-1.0
  3
SLDDIMSTYLE2
100
AcDbAlignedDimension
 13
3.5855655863
 23
4.0356638085
 33
0.0
 14
6.0460695233
 24
3.5766638085
 34
0.0
100
AcDbRotatedDimension
  0
SPLINE
  5
101
330
1F
100
AcDbEntity
  8
0
  6
Continuous
 62
     7
370
     0
100
AcDbSpline
210
0.0
220
0.0
230
1.0
 70
     8
 71
     3
 72
     9
 73
     5
 74
     0
 42
0.00000001
 43
0.00000001
 40
0.0
 40
0.0
 40
0.0
 40
0.0
 40
0.6231579386441221
 40
1.0
 40
1.0
 40
1.0
 40
1.0
 10
3.484525281283277
 20
6.672731468042229
 30
0.0
 10
3.484750028346972
 20
6.675512737863798
 30
0.0
 10
3.485110686616341
 20
6.679975923918397
 30
0.0
 10
3.485441072598
 20
6.684204597580086
 30
0.0
 10
3.485565575932371
 20
6.685798139679558
 30
0.0
  0
ARC
  5
102
330
1F
100
AcDbEntity
  8
0
  6
Continuous
 62
     7
370
     0
100
AcDbCircle
 10
3.8055655863
 20
6.673739584
 30
0.0
 40
0.0450000000000001
100
AcDbArc
 50
301.4066750694
 51
58.5933249306
  0
LINE
  5
103
330
1F
100
AcDbEntity
  8
0
  6
Continuous
 62
     7
370
     0
100
AcDbLine
 10
3.195565586
 20
6.3887395863
 30
0.0
 11
3.465565607
 21
6.3887395863
 31
0.0
  0
LINE
  5
104
330
1F
100
AcDbEntity
  8
0
  6
Continuous
 62
     7
370
     0
100
AcDbLine
 10
3.465565607
 20
6.9587395816
 30
0.0
 11
3.195565586
 21
6.9587395816
 31
0.0
  0
LINE
  5
105
330
1F
100
AcDbEntity
  8
0
  6
Continuous
 62
     7
370
     0
100
AcDbLine
 10
3.465565607
 20
6.3887395863
 30
0.0
 11
3.4855655759
 21
6.408739592
 31
0.0
  0
LINE
  5
106
330
1F
100
AcDbEntity
  8
0
  6
Continuous
 62
     7
370
     0
100
AcDbLine
 10
3.4855655759
 20
6.938739576
 30
0.0
 11
3.465565607
 21
6.9587395816
 31
0.0
  0
LINE
  5
107
330
1F
100
AcDbEntity
  8
0
  6
Continuous
 62
     7
370
     0
100
AcDbLine
 10
3.195565586
 20
6.9587395816
 30
0.0
 11
3.1755656171
 21
6.938739576
 31
0.0
  0
LINE
  5
108
330
1F
100
AcDbEntity
  8
0
  6
Continuous
 62
     7
370
     0
100
AcDbLine
 10
3.1755656171
 20
6.408739592
 30
0.0
 11
3.195565586
 21
6.3887395863
 31
0.0
  0
LINE
  5
109
330
1F
100
AcDbEntity
  8
0
  6
Continuous
 62
     7
370
     0
100
AcDbLine
 10
3.1755030645
 20
6.6838238733
 30
0.0
 11
3.1755656171
 21
6.6838238733
 31
0.0
  0
LINE
  5
10A
330
1F
100
AcDbEntity
  8
0
  6
Continuous
 62
     7
370
     0
100
AcDbLine
 10
3.1755656171
 20
6.8409870053
 30
0.0
 11
3.1755030645
 21
6.8409870053
 31
0.0
  0
LINE
  5
10B
330
1F
100
AcDbEntity
  8
0
  6
Continuous
 62
     7
370
     0
100
AcDbLine
 10
3.1755030645
 20
6.7715968002
 30
0.0
 11
3.1755656171
 21
6.7715968002
 31
0.0
  0
ARC
  5
10C
330
1F
100
AcDbEntity
  8
0
  6
Continuous
 62
     7
370
     0
100
AcDbCircle
 10
3.4955655863
 20
6.538739584
 30
0.0
 40
0.0099999999999998
100
AcDbArc
 50
90.0
 51
180.0
  0
ARC
  5
10D
330
1F
100
AcDbEntity
  8
0
  6
Continuous
 62
     7
370
     0
100
AcDbCircle
 10
3.4955655863
 20
6.808739584
 30
0.0
 40
0.0100000000000002
100
AcDbArc
 50
180.0
 51
270.0
  0
LINE
  5
10E
330
1F
100
AcDbEntity
  8
0
  6
Continuous
 62
     7
370
     0
100
AcDbLine
 10
3.4955655604
 20
6.5487395855
 30
0.0
 11
3.6017095309
 21
6.5487395855
 31
0.0
  0
LINE
  5
10F
330
1F
100
AcDbEntity
  8
0
  6
Continuous
 62
     7
370
     0
100
AcDbLine
 10
3.6017095309
 20
6.7987395825
 30
0.0
 11
3.4955655604
 21
6.7987395825
 31
0.0
  0
LINE
  5
110
330
1F
100
AcDbEntity
  8
0
  6
Continuous
 62
     7
370
     0
100
AcDbLine
 10
3.1755030645
 20
6.4881754126
 30
0.0
 11
3.1755656171
 21
6.4881754126
 31
0.0
  0
LINE
  5
111
330
1F
100
AcDbEntity
  8
0
  6
Continuous
 62
     7
370
     0
100
AcDbLine
 10
3.1755030645
 20
6.4515894319
 30
0.0
 11
3.1755656171
 21
6.4515894319
 31
0.0
  0
LINE
  5
112
330
1F
100
AcDbEntity
  8
0
  6
Continuous
 62
     7
370
     0
100
AcDbLine
 10
3.1755656171
 20
6.5362471581
 30
0.0
 11
3.1755030645
 21
6.5362471581
 31
0.0
  0
LINE
  5
113
330
1F
100
AcDbEntity
  8
0
  6
Continuous
 62
     7
370
     0
100
AcDbLine
 10
3.1755030645
 20
6.4617403713
 30
0.0
 11
3.1755656171
 21
6.4617403713
 31
0.0
  0
CIRCLE
  5
114
330
1F
100
AcDbEntity
  8
0
  6
Continuous
 62
     7
370
     0
100
AcDbCircle
 10
4.0775655863
 20
6.673739584
 30
0.0
 40
0.4053974596215566
  0
CIRCLE
  5
115
330
1F
100
AcDbEntity
  8
0
  6
Continuous
 62
     7
370
     0
100
AcDbCircle
 10
4.0775655863
 20
6.673739584
 30
0.0
 40
0.492
  0
LINE
  5
116
330
1F
100
AcDbEntity
  8
0
  6
Continuous
 62
     7
370
     0
100
AcDbLine
 10
4.3725655926
 20
6.5167395893
 30
0.0
 11
4.3112175779
 21
6.5167395893
 31
0.0
  0
LINE
  5
117
330
1F
100
AcDbEntity
  8
0
  6
Continuous
 62
     7
370
     0
100
AcDbLine
 10
4.3725655926
 20
6.8307395786
 30
0.0
 11
4.3725655926
 21
6.5167395893
 31
0.0
  0
LINE
  5
118
330
1F
100
AcDbEntity
  8
0
  6
Continuous
 62
     7
370
     0
100
AcDbLine
 10
4.3112175779
 20
6.8307395786
 30
0.0
 11
4.3725655926
 21
6.8307395786
 31
0.0
  0
ARC
  5
119
330
1F
100
AcDbEntity
  8
0
  6
Continuous
 62
     7
370
     0
100
AcDbCircle
 10
4.0775655863
 20
6.673739584
 30
0.0
 40
0.2815000000000002
100
AcDbArc
 50
33.8987130402
 51
326.1012869598
  0
LINE
  5
11A
330
1F
100
AcDbEntity
  8
0
  6
Continuous
 62
     7
370
     0
100
AcDbLine
 10
4.3112175779
 20
6.8307395786
 30
0.0
 11
4.2946444911
 21
6.8007395885
 31
0.0
  0
ARC
  5
11B
330
1F
100
AcDbEntity
  8
0
  6
Continuous
 62
     7
370
     0
100
AcDbCircle
 10
4.0775655863
 20
6.673739584
 30
0.0
 40
0.2515000000000003
100
AcDbArc
 50
30.3293727942
 51
329.6706272058
  0
LINE
  5
11C
330
1F
100
AcDbEntity
  8
0
  6
Continuous
 62
     7
370
     0
100
AcDbLine
 10
4.3112175779
 20
6.5167395893
 30
0.0
 11
4.2946444911
 21
6.5467395794
 31
0.0
  0
LINE
  5
11D
330
1F
100
AcDbEntity
  8
0
  6
Continuous
 62
     7
370
     0
100
AcDbLine
 10
4.3425655841
 20
6.8007395885
 30
0.0
 11
4.3725655926
 21
6.8307395786
 31
0.0
  0
LINE
  5
11E
330
1F
100
AcDbEntity
  8
0
  6
Continuous
 62
     7
370
     0
100
AcDbLine
 10
4.3425655841
 20
6.8007395885
 30
0.0
 11
4.2946444911
 21
6.8007395885
 31
0.0
  0
LINE
  5
11F
330
1F
100
AcDbEntity
  8
0
  6
Continuous
 62
     7
370
     0
100
AcDbLine
 10
4.3425655841
 20
6.5467395794
 30
0.0
 11
4.3425655841
 21
6.8007395885
 31
0.0
  0
LINE
  5
120
330
1F
100
AcDbEntity
  8
0
  6
Continuous
 62
     7
370
     0
100
AcDbLine
 10
4.3425655841
 20
6.5467395794
 30
0.0
 11
4.3725655926
 21
6.5167395893
 31
0.0
  0
LINE
  5
121
330
1F
100
AcDbEntity
  8
0
  6
Continuous
 62
     7
370
     0
100
AcDbLine
 10
4.2946444911
 20
6.5467395794
 30
0.0
 11
4.3425655841
 21
6.5467395794
 31
0.0
  0
ARC
  5
122
330
1F
100
AcDbEntity
  8
0
  6
Continuous
 62
     7
370
     0
100
AcDbCircle
 10
4.0775655863
 20
6.673739584
 30
0.0
 40
0.2550000000000011
100
AcDbArc
 50
330.1296398799
 51
29.8703601201
  0
LINE
  5
123
330
1F
100
AcDbEntity
  8
0
  6
Continuous
 62
     7
370
     0
100
AcDbLine
 10
4.0775655875
 20
7.1657395904
 30
0.0
 11
6.0460695768
 21
7.1657395904
 31
0.0
  0
LINE
  5
124
330
1F
100
AcDbEntity
  8
0
  6
Continuous
 62
     7
370
     0
100
AcDbLine
 10
6.0460695768
 20
6.80623958
 30
0.0
 11
4.8275656197
 21
6.80623958
 31
0.0
  0
ARC
  5
125
330
1F
100
AcDbEntity
  8
0
  6
Continuous
 62
     7
370
     0
100
AcDbCircle
 10
4.8275655863
 20
6.673739584
 30
0.0
 40
0.1325000000000003
100
AcDbArc
 50
90.0
 51
270.0
  0
LINE
  5
126
330
1F
100
AcDbEntity
  8
0
  6
Continuous
 62
     7
370
     0
100
AcDbLine
 10
6.0460695768
 20
6.541239588
 30
0.0
 11
4.8275656197
 21
6.541239588
 31
0.0
  0
LINE
  5
127
330
1F
100
AcDbEntity
  8
0
  6
Continuous
 62
     7
370
     0
100
AcDbLine
 10
6.0460695768
 20
6.1817395776
 30
0.0
 11
6.0460695768
 21
6.541239588
 31
0.0
  0
LINE
  5
128
330
1F
100
AcDbEntity
  8
0
  6
Continuous
 62
     7
370
     0
100
AcDbLine
 10
4.0775655875
 20
6.1817395776
 30
0.0
 11
6.0460695768
 21
6.1817395776
 31
0.0
  0
LINE
  5
129
330
1F
100
AcDbEntity
  8
0
  6
Continuous
 62
     7
370
     0
100
AcDbLine
 10
6.0460695768
 20
7.1657395904
 30
0.0
 11
6.0460695768
 21
6.80623958
 31
0.0
  0
LINE
  5
12A
330
1F
100
AcDbEntity
  8
0
  6
Continuous
 62
     7
370
     0
100
AcDbLine
 10
3.195565586
 20
6.3887395863
 30
0.0
 11
3.195565586
 21
6.9587395816
 31
0.0
  0
LINE
  5
12B
330
1F
100
AcDbEntity
  8
0
  6
Continuous
 62
     7
370
     0
100
AcDbLine
 10
3.465565607
 20
6.3887395863
 30
0.0
 11
3.465565607
 21
6.9587395816
 31
0.0
  0
LINE
  5
12C
330
1F
100
AcDbEntity
  8
0
  6
Continuous
 62
     7
370
     0
100
AcDbLine
 10
3.4855655759
 20
6.408739592
 30
0.0
 11
3.4855655759
 21
6.938739576
 31
0.0
  0
LINE
  5
12D
330
1F
100
AcDbEntity
  8
0
  6
Continuous
 62
     7
370
     0
100
AcDbLine
 10
3.1755656171
 20
6.408739592
 30
0.0
 11
3.1755656171
 21
6.938739576
 31
0.0
  0
DIMENSION
  5
12E
330
1F
100
AcDbEntity
  8
0
  6
Continuous
 62
     7
370
     0
100
AcDbDimension
  2
*D9
 10
4.8275655863
 20
7.4540733988
 30
0.0
 11
5.4368175548
 21
7.4540733988
 31
0.0
 70
   160
  1
31.0 mm\P(<>")
 71
     2
 42
-1.0
  3
SLDDIMSTYLE2
100
AcDbAlignedDimension
 13
6.0460695233
 23
7.165739584
 33
0.0
 14
4.8275655863
 24
6.723739584
 34
0.0
100
AcDbRotatedDimension
  0
DIMENSION
  5
13C
330
1F
100
AcDbEntity
  8
0
  6
Continuous
 62
     7
370
     0
100
AcDbDimension
  2
*D10
 10
4.92125702
 20
6.5800477207
 30
0.0
 11
2.4743681537
 21
7.7772346357
 31
0.0
 70
   163
  1
CLEARANCE SLOT\PFOR USE WITH M6 (1/4"-20) CAP SCREW
 71
     1
 42
-1.0
  3
SLDDIMSTYLE3
100
AcDbDiametricDimension
 15
4.7338741526
 25
6.7674314473
 35
0.0
 40
0.0
  0
DIMENSION
  5
146
330
1F
100
AcDbEntity
  8
0
  6
Continuous
 62
     7
370
     0
100
AcDbDimension
  2
*D11
 10
6.6759907832
 20
6.181739584
 30
0.0
 11
6.6759907832
 21
6.673739584
 31
0.0
 70
   160
  1
25.0 mm\P(<>")
 71
     2
 42
-1.0
  3
SLDDIMSTYLE2
100
AcDbAlignedDimension
 13
6.0460695233
 23
7.165739584
 33
0.0
 14
6.0460695233
 24
6.181739584
 34
0.0
 50
90.0
100
AcDbRotatedDimension
  0
DIMENSION
  5
154
330
1F
100
AcDbEntity
  8
0
  6
Continuous
 62
     7
370
     0
100
AcDbDimension
  2
*D12
 10
4.4353058803
 20
7.0115056008
 30
0.0
 11
2.8400740383
 21
5.9798657608
 31
0.0
 70
   163
  1
%%c25.0 mm\P(<>")
 71
     1
 42
-1.0
  3
SLDDIMSTYLE4
100
AcDbDiametricDimension
 15
3.7198252924
 25
6.3359735672
 35
0.0
 40
0.0
  0
DIMENSION
  5
162
330
1F
100
AcDbEntity
  8
0
  6
Continuous
 62
     7
370
     0
100
AcDbDimension
  2
*D13
 10
4.2553971904
 20
6.4958964773
 30
0.0
 11
2.3641884067
 21
7.3887040652
 31
0.0
 70
   163
  1
 %%c12.8 mm (<>") THRU\PFOR USE WITH TR SERIES POSTS
 71
     1
 42
-1.0
  3
SLDDIMSTYLE5
100
AcDbDiametricDimension
 15
3.8997339823
 25
6.8515826907
 35
0.0
 40
0.0
  0
INSERT
  5
178
330
1F
100
AcDbEntity
  8
0
  6
Continuous
 62
     7
370
     0
100
AcDbBlockReference
  2
SW_CENTERMARKSYMBOL_0
 10
4.8275655863
 20
6.673739584
 30
0.0
  0
INSERT
  5
180
330
1F
100
AcDbEntity
  8
0
  6
Continuous
 62
     7
370
     0
100
AcDbBlockReference
  2
SW_CENTERMARKSYMBOL_1
 10
4.0775655863
 20
6.673739584
 30
0.0
  0
ARC
  5
181
330
1F
100
AcDbEntity
  8
0
  6
Continuous
 62
     7
370
     0
100
AcDbCircle
 10
3.8055655863
 20
1.7609478022
 30
0.0
 40
0.0450000000000001
100
AcDbArc
 50
301.4066750694
 51
58.5933249306
  0
LINE
  5
182
330
1F
100
AcDbEntity
  8
0
  6
Continuous
 62
     7
370
     0
100
AcDbLine
 10
3.465565607
 20
1.4759478045
 30
0.0
 11
3.4855655759
 21
1.4959478102
 31
0.0
  0
LINE
  5
183
330
1F
100
AcDbEntity
  8
0
  6
Continuous
 62
     7
370
     0
100
AcDbLine
 10
3.4855655759
 20
2.0259477942
 30
0.0
 11
3.465565607
 21
2.0459477999
 31
0.0
  0
LINE
  5
184
330
1F
100
AcDbEntity
  8
0
  6
Continuous
 62
     7
370
     0
100
AcDbLine
 10
3.195565586
 20
1.4759478045
 30
0.0
 11
3.465565607
 21
1.4759478045
 31
0.0
  0
LINE
  5
185
330
1F
100
AcDbEntity
  8
0
  6
Continuous
 62
     7
370
     0
100
AcDbLine
 10
3.465565607
 20
2.0459477999
 30
0.0
 11
3.195565586
 21
2.0459477999
 31
0.0
  0
LINE
  5
186
330
1F
100
AcDbEntity
  8
0
  6
Continuous
 62
     7
370
     0
100
AcDbLine
 10
3.195565586
 20
2.0459477999
 30
0.0
 11
3.1755656171
 21
2.0259477942
 31
0.0
  0
LINE
  5
187
330
1F
100
AcDbEntity
  8
0
  6
Continuous
 62
     7
370
     0
100
AcDbLine
 10
3.1755656171
 20
1.4959478102
 30
0.0
 11
3.195565586
 21
1.4759478045
 31
0.0
  0
ARC
  5
188
330
1F
100
AcDbEntity
  8
0
  6
Continuous
 62
     7
370
     0
100
AcDbCircle
 10
3.4955655863
 20
1.6259478022
 30
0.0
 40
0.0100000000000002
100
AcDbArc
 50
90.0
 51
180.0
  0
ARC
  5
189
330
1F
100
AcDbEntity
  8
0
  6
Continuous
 62
     7
370
     0
100
AcDbCircle
 10
3.4955655863
 20
1.8959478022
 30
0.0
 40
0.01
100
AcDbArc
 50
180.0
 51
270.0
  0
LINE
  5
18A
330
1F
100
AcDbEntity
  8
0
  6
Continuous
 62
     7
370
     0
100
AcDbLine
 10
3.4955655604
 20
1.6359478037
 30
0.0
 11
3.6017095309
 21
1.6359478037
 31
0.0
  0
LINE
  5
18B
330
1F
100
AcDbEntity
  8
0
  6
Continuous
 62
     7
370
     0
100
AcDbLine
 10
3.6017095309
 20
1.8859478007
 30
0.0
 11
3.4955655604
 21
1.8859478007
 31
0.0
  0
LINE
  5
18C
330
1F
100
AcDbEntity
  8
0
  6
Continuous
 62
     7
370
     0
100
AcDbLine
 10
3.1755656171
 20
1.9830979542
 30
0.0
 11
3.1755030645
 21
1.9830979542
 31
0.0
  0
LINE
  5
18D
330
1F
100
AcDbEntity
  8
0
  6
Continuous
 62
     7
370
     0
100
AcDbLine
 10
3.1755656171
 20
1.9729470148
 30
0.0
 11
3.1755030645
 21
1.9729470148
 31
0.0
  0
LINE
  5
18E
330
1F
100
AcDbEntity
  8
0
  6
Continuous
 62
     7
370
     0
100
AcDbLine
 10
3.1755030645
 20
1.898440228
 30
0.0
 11
3.1755656171
 21
1.898440228
 31
0.0
  0
LINE
  5
18F
330
1F
100
AcDbEntity
  8
0
  6
Continuous
 62
     7
370
     0
100
AcDbLine
 10
3.1755656171
 20
1.9465119735
 30
0.0
 11
3.1755030645
 21
1.9465119735
 31
0.0
  0
LINE
  5
190
330
1F
100
AcDbEntity
  8
0
  6
Continuous
 62
     7
370
     0
100
AcDbLine
 10
3.1755656171
 20
1.663090586
 30
0.0
 11
3.1755030645
 21
1.663090586
 31
0.0
  0
LINE
  5
191
330
1F
100
AcDbEntity
  8
0
  6
Continuous
 62
     7
370
     0
100
AcDbLine
 10
3.1755030645
 20
1.5937003809
 30
0.0
 11
3.1755656171
 21
1.5937003809
 31
0.0
  0
LINE
  5
192
330
1F
100
AcDbEntity
  8
0
  6
Continuous
 62
     7
370
     0
100
AcDbLine
 10
3.1755656171
 20
1.7508635129
 30
0.0
 11
3.1755030645
 21
1.7508635129
 31
0.0
  0
LINE
  5
193
330
1F
100
AcDbEntity
  8
0
  6
Continuous
 62
     7
370
     0
100
AcDbLine
 10
4.2946444911
 20
1.6339477976
 30
0.0
 11
4.2986899876
 21
1.6339477976
 31
0.0
  0
LINE
  5
194
330
1F
100
AcDbEntity
  8
0
  6
Continuous
 62
     7
370
     0
100
AcDbLine
 10
4.2946444911
 20
1.8879478067
 30
0.0
 11
4.2986899876
 21
1.8879478067
 31
0.0
  0
ARC
  5
195
330
1F
100
AcDbEntity
  8
0
  6
Continuous
 62
     7
370
     0
100
AcDbCircle
 10
4.0775655863
 20
1.7609478022
 30
0.0
 40
0.2515000000000001
100
AcDbArc
 50
30.3293727942
 51
329.6706272058
  0
CIRCLE
  5
196
330
1F
100
AcDbEntity
  8
0
  6
Continuous
 62
     7
370
     0
100
AcDbCircle
 10
4.0775655863
 20
1.7609478022
 30
0.0
 40
0.2549999999999999
  0
CIRCLE
  5
197
330
1F
100
AcDbEntity
  8
0
  6
Continuous
 62
     7
370
     0
100
AcDbCircle
 10
4.0775655863
 20
1.7609478022
 30
0.0
 40
0.492
  0
CIRCLE
  5
198
330
1F
100
AcDbEntity
  8
0
  6
Continuous
 62
     7
370
     0
100
AcDbCircle
 10
4.0775655863
 20
2.1359478022
 30
0.0
 40
0.105
  0
CIRCLE
  5
199
330
1F
100
AcDbEntity
  8
0
  6
Continuous
 62
     7
370
     0
100
AcDbCircle
 10
4.4023251128
 20
1.5734478022
 30
0.0
 40
0.1049999999999998
  0
CIRCLE
  5
19A
330
1F
100
AcDbEntity
  8
0
  6
Continuous
 62
     7
370
     0
100
AcDbCircle
 10
3.7528060599
 20
1.5734478022
 30
0.0
 40
0.105
  0
CIRCLE
  5
19B
330
1F
100
AcDbEntity
  8
0
  6
Continuous
 62
     7
370
     0
100
AcDbCircle
 10
3.7528060599
 20
1.5734478022
 30
0.0
 40
0.0950000000000002
  0
CIRCLE
  5
19C
330
1F
100
AcDbEntity
  8
0
  6
Continuous
 62
     7
370
     0
100
AcDbCircle
 10
4.4023251128
 20
1.5734478022
 30
0.0
 40
0.095
  0
CIRCLE
  5
19D
330
1F
100
AcDbEntity
  8
0
  6
Continuous
 62
     7
370
     0
100
AcDbCircle
 10
4.0775655863
 20
2.1359478022
 30
0.0
 40
0.0949999999999998
  0
LINE
  5
19E
330
1F
100
AcDbEntity
  8
0
  6
Continuous
 62
     7
370
     0
100
AcDbLine
 10
6.0460695768
 20
1.2689477958
 30
0.0
 11
6.0460695768
 21
1.6284478062
 31
0.0
  0
LINE
  5
19F
330
1F
100
AcDbEntity
  8
0
  6
Continuous
 62
     7
370
     0
100
AcDbLine
 10
5.8460695939
 20
1.2689477958
 30
0.0
 11
6.0460695768
 21
1.2689477958
 31
0.0
  0
LINE
  5
1A0
330
1F
100
AcDbEntity
  8
0
  6
Continuous
 62
     7
370
     0
100
AcDbLine
 10
5.8460695939
 20
1.2689477958
 30
0.0
 11
5.8460695939
 21
1.6284478062
 31
0.0
  0
LINE
  5
1A1
330
1F
100
AcDbEntity
  8
0
  6
Continuous
 62
     7
370
     0
100
AcDbLine
 10
6.0460695768
 20
1.6284478062
 30
0.0
 11
5.8460695939
 21
1.6284478062
 31
0.0
  0
LINE
  5
1A2
330
1F
100
AcDbEntity
  8
0
  6
Continuous
 62
     7
370
     0
100
AcDbLine
 10
5.8460695939
 20
2.2529478086
 30
0.0
 11
6.0460695768
 21
2.2529478086
 31
0.0
  0
LINE
  5
1A3
330
1F
100
AcDbEntity
  8
0
  6
Continuous
 62
     7
370
     0
100
AcDbLine
 10
6.0460695768
 20
2.2529478086
 30
0.0
 11
6.0460695768
 21
1.8934477982
 31
0.0
  0
LINE
  5
1A4
330
1F
100
AcDbEntity
  8
0
  6
Continuous
 62
     7
370
     0
100
AcDbLine
 10
6.0460695768
 20
1.8934477982
 30
0.0
 11
5.8460695939
 21
1.8934477982
 31
0.0
  0
LINE
  5
1A5
330
1F
100
AcDbEntity
  8
0
  6
Continuous
 62
     7
370
     0
100
AcDbLine
 10
5.8460695939
 20
1.8934477982
 30
0.0
 11
5.8460695939
 21
2.2529478086
 31
0.0
  0
LINE
  5
1A6
330
1F
100
AcDbEntity
  8
0
  6
Continuous
 62
     7
370
     0
100
AcDbLine
 10
4.2775655933
 20
2.2300959759
 30
0.0
 11
4.2775655933
 21
2.2529478086
 31
0.0
  0
ARC
  5
1A7
330
1F
100
AcDbEntity
  8
0
  6
Continuous
 62
     7
370
     0
100
AcDbCircle
 10
4.8275655863
 20
1.7609478022
 30
0.0
 40
0.1325000000000003
100
AcDbArc
 50
90.0
 51
270.0
  0
ARC
  5
1A8
330
1F
100
AcDbEntity
  8
0
  6
Continuous
 62
     7
370
     0
100
AcDbCircle
 10
4.0775655863
 20
1.7609478022
 30
0.0
 40
0.5100000000000001
100
AcDbArc
 50
293.088772437
 51
66.911227563
  0
LINE
  5
1A9
330
1F
100
AcDbEntity
  8
0
  6
Continuous
 62
     7
370
     0
100
AcDbLine
 10
4.2775655933
 20
1.2689477958
 30
0.0
 11
4.2775655933
 21
1.2917996285
 31
0.0
  0
LINE
  5
1AA
330
1F
100
AcDbEntity
  8
0
  6
Continuous
 62
     7
370
     0
100
AcDbLine
 10
4.2775655933
 20
2.2529478086
 30
0.0
 11
5.8460695939
 21
2.2529478086
 31
0.0
  0
LINE
  5
1AB
330
1F
100
AcDbEntity
  8
0
  6
Continuous
 62
     7
370
     0
100
AcDbLine
 10
5.8460695939
 20
1.8934477982
 30
0.0
 11
4.8275656197
 21
1.8934477982
 31
0.0
  0
LINE
  5
1AC
330
1F
100
AcDbEntity
  8
0
  6
Continuous
 62
     7
370
     0
100
AcDbLine
 10
5.8460695939
 20
1.6284478062
 30
0.0
 11
4.8275656197
 21
1.6284478062
 31
0.0
  0
LINE
  5
1AD
330
1F
100
AcDbEntity
  8
0
  6
Continuous
 62
     7
370
     0
100
AcDbLine
 10
4.2775655933
 20
1.2689477958
 30
0.0
 11
5.8460695939
 21
1.2689477958
 31
0.0
  0
LINE
  5
1AE
330
1F
100
AcDbEntity
  8
0
  6
Continuous
 62
     7
370
     0
100
AcDbLine
 10
4.0775655875
 20
2.2529478086
 30
0.0
 11
4.2775655933
 21
2.2529478086
 31
0.0
  0
LINE
  5
1AF
330
1F
100
AcDbEntity
  8
0
  6
Continuous
 62
     7
370
     0
100
AcDbLine
 10
4.0775655875
 20
1.2689477958
 30
0.0
 11
4.2775655933
 21
1.2689477958
 31
0.0
  0
CIRCLE
  5
1B0
330
1F
100
AcDbEntity
  8
0
  6
Continuous
 62
     7
370
     0
100
AcDbCircle
 10
3.7528060599
 20
1.5734478022
 30
0.0
 40
0.09375
  0
CIRCLE
  5
1B1
330
1F
100
AcDbEntity
  8
0
  6
Continuous
 62
     7
370
     0
100
AcDbCircle
 10
4.4023251128
 20
1.5734478022
 30
0.0
 40
0.0937500000000001
  0
CIRCLE
  5
1B2
330
1F
100
AcDbEntity
  8
0
  6
Continuous
 62
     7
370
     0
100
AcDbCircle
 10
4.0775655863
 20
2.1359478022
 30
0.0
 40
0.09375
  0
LINE
  5
1B3
330
1F
100
AcDbEntity
  8
0
  6
Continuous
 62
     7
370
     0
100
AcDbLine
 10
3.465565607
 20
1.7609478022
 30
0.0
 11
3.465565607
 21
2.0459477999
 31
0.0
  0
LINE
  5
1B4
330
1F
100
AcDbEntity
  8
0
  6
Continuous
 62
     7
370
     0
100
AcDbLine
 10
3.465565607
 20
1.4759478045
 30
0.0
 11
3.465565607
 21
1.7609478022
 31
0.0
  0
LINE
  5
1B5
330
1F
100
AcDbEntity
  8
0
  6
Continuous
 62
     7
370
     0
100
AcDbLine
 10
3.4855655759
 20
1.7609478022
 30
0.0
 11
3.4855655759
 21
2.0259477942
 31
0.0
  0
LINE
  5
1B6
330
1F
100
AcDbEntity
  8
0
  6
Continuous
 62
     7
370
     0
100
AcDbLine
 10
3.4855655759
 20
1.4959478102
 30
0.0
 11
3.4855655759
 21
1.7609478022
 31
0.0
  0
LINE
  5
1B7
330
1F
100
AcDbEntity
  8
0
  6
Continuous
 62
     7
370
     0
100
AcDbLine
 10
3.195565586
 20
1.7609478022
 30
0.0
 11
3.195565586
 21
2.0459477999
 31
0.0
  0
LINE
  5
1B8
330
1F
100
AcDbEntity
  8
0
  6
Continuous
 62
     7
370
     0
100
AcDbLine
 10
3.195565586
 20
1.4759478045
 30
0.0
 11
3.195565586
 21
1.7609478022
 31
0.0
  0
LINE
  5
1B9
330
1F
100
AcDbEntity
  8
0
  6
Continuous
 62
     7
370
     0
100
AcDbLine
 10
3.1755656171
 20
1.7609478022
 30
0.0
 11
3.1755656171
 21
2.0259477942
 31
0.0
  0
LINE
  5
1BA
330
1F
100
AcDbEntity
  8
0
  6
Continuous
 62
     7
370
     0
100
AcDbLine
 10
3.1755656171
 20
1.4959478102
 30
0.0
 11
3.1755656171
 21
1.7609478022
 31
0.0
  0
DIMENSION
  5
1BB
330
1F
100
AcDbEntity
  8
0
  6
Continuous
 62
     7
370
     0
100
AcDbDimension
  2
*D16
 10
2.6765063632
 20
1.4759478022
 30
0.0
 11
2.6765063632
 21
1.7609478022
 31
0.0
 70
   160
  1
%%c14.5 mm\P(%%c<>")
 71
     2
 42
-1.0
  3
SLDDIMSTYLE0
100
AcDbAlignedDimension
 13
3.1955655863
 23
2.0459478022
 33
0.0
 14
3.1955655863
 24
1.4759478022
 34
0.0
 50
90.0
100
AcDbRotatedDimension
  0
DIMENSION
  5
1CB
330
1F
100
AcDbEntity
  8
0
  6
Continuous
 62
     7
370
     0
100
AcDbDimension
  2
*D17
 10
3.4855655863
 20
2.5762448439
 30
0.0
 11
4.0072142392
 21
2.5762448439
 31
0.0
 70
   160
  1
7.9 mm\P(<>")
 71
     1
 42
-1.0
  3
SLDDIMSTYLE0
100
AcDbAlignedDimension
 13
3.1755655863
 23
2.0259478022
 33
0.0
 14
3.4855655863
 24
2.0259478022
 34
0.0
100
AcDbRotatedDimension
  0
DIMENSION
  5
1D9
330
1F
100
AcDbEntity
  8
0
  6
Continuous
 62
     7
370
     0
100
AcDbDimension
  2
*D18
 10
4.0775655863
 20
0.8752470148
 30
0.0
 11
5.0618175548
 21
0.8752470148
 31
0.0
 70
   160
  1
50.0 mm\P(<>")
 71
     2
 42
-1.0
  3
SLDDIMSTYLE2
100
AcDbAlignedDimension
 13
6.0460695233
 23
1.2689478022
 33
0.0
 14
4.0775655863
 24
1.7109478022
 34
0.0
 50
0.0
100
AcDbRotatedDimension
  0
DIMENSION
  5
1E7
330
1F
100
AcDbEntity
  8
0
  6
Continuous
 62
     7
370
     0
100
AcDbDimension
  2
*D19
 10
3.8021087303
 20
1.6661529622
 30
0.0
 11
3.0772433669
 21
1.0523979872
 31
0.0
 70
   163
  1
MAGNET\P3 PLACES
 71
     1
 42
-1.0
  3
SLDDIMSTYLE6
100
AcDbDiametricDimension
 15
3.7035033896
 25
1.4807426422
 35
0.0
 40
0.0
  0
INSERT
  5
1F8
102
{ACAD_REACTORS
330
202
102
}
330
1F
100
AcDbEntity
  8
0
  6
Continuous
 62
     7
370
     0
100
AcDbBlockReference
  2
SW_NOTE_4
 10
5.7531293014
 20
2.5696683493
 30
0.0
  0
LEADER
  5
202
330
1F
100
AcDbEntity
  8
0
  6
Continuous
 62
     7
370
     0
100
AcDbLeader
  3
SLDDIMSTYLE7
 73
     2
 76
     3
 10
5.1617029223
 20
2.0764505007
 30
0.0
 10
5.5031293014
 20
2.5696683493
 30
0.0
 10
5.7531293014
 20
2.5696683493
 30
0.0
340
1F8
  0
INSERT
  5
20A
330
1F
100
AcDbEntity
  8
0
  6
Continuous
 62
     7
370
     0
100
AcDbBlockReference
  2
SW_CENTERMARKSYMBOL_2
 10
4.0775655863
 20
1.7609478022
 30
0.0
  0
LINE
  5
20B
330
1F
100
AcDbEntity
  8
0
  6
Continuous
 62
     7
370
     0
100
AcDbLine
 10
8.7249143878
 20
5.7822559578
 30
0.0
 11
8.645854877
 21
5.8843301937
 31
0.0
  0
LINE
  5
20C
330
1F
100
AcDbEntity
  8
0
  6
Continuous
 62
     7
370
     0
100
AcDbLine
 10
7.9056797109
 20
5.8843301937
 30
0.0
 11
7.8266202
 21
5.7822559578
 31
0.0
  0
LINE
  5
20D
330
1F
100
AcDbEntity
  8
0
  6
Continuous
 62
     7
370
     0
100
AcDbLine
 10
8.7677672939
 20
4.9355178282
 30
0.0
 11
8.7677672939
 21
5.6663218548
 31
0.0
  0
LINE
  5
20E
330
1F
100
AcDbEntity
  8
0
  6
Continuous
 62
     7
370
     0
100
AcDbLine
 10
7.7837672939
 20
5.6663218548
 30
0.0
 11
7.7837672939
 21
4.9355178282
 31
0.0
  0
LINE
  5
20F
330
1F
100
AcDbEntity
  8
0
  6
Continuous
 62
     7
370
     0
100
AcDbLine
 10
7.9278142284
 20
4.7347140716
 30
0.0
 11
7.9454947703
 21
4.7245039942
 31
0.0
  0
LINE
  5
210
330
1F
100
AcDbEntity
  8
0
  6
Continuous
 62
     7
370
     0
100
AcDbLine
 10
8.6060398175
 20
4.7245039942
 30
0.0
 11
8.6237203595
 21
4.7347140716
 31
0.0
  0
LINE
  5
211
330
1F
100
AcDbEntity
  8
0
  6
Continuous
 62
     7
370
     0
100
AcDbLine
 10
7.7837672939
 20
4.6848397989
 30
0.0
 11
7.7837672939
 21
4.5623586772
 31
0.0
  0
LINE
  5
212
330
1F
100
AcDbEntity
  8
0
  6
Continuous
 62
     7
370
     0
100
AcDbLine
 10
7.7837672939
 20
4.9118381446
 30
0.0
 11
7.7837672939
 21
4.6848397989
 31
0.0
  0
ARC
  5
213
330
1F
100
AcDbEntity
  8
0
  6
Continuous
 62
     7
370
     0
100
AcDbCircle
 10
8.0834342494
 20
5.63854142
 30
0.0
 40
0.0449999999999998
100
AcDbArc
 50
16.0146835306
 51
60.0026882663
  0
LINE
  5
214
330
1F
100
AcDbEntity
  8
0
  6
Continuous
 62
     7
370
     0
100
AcDbLine
 10
8.1059324209
 20
5.6775136188
 30
0.0
 11
8.0844276863
 21
5.6899280379
 31
0.0
  0
LINE
  5
215
330
1F
100
AcDbEntity
  8
0
  6
Continuous
 62
     7
370
     0
100
AcDbLine
 10
7.5096106935
 20
5.6407219683
 30
0.0
 11
7.7005295244
 21
5.5305068732
 31
0.0
  0
LINE
  5
216
330
1F
100
AcDbEntity
  8
0
  6
Continuous
 62
     7
370
     0
100
AcDbLine
 10
7.9855063632
 20
6.0241547248
 30
0.0
 11
7.7945875323
 21
6.1343698199
 31
0.0
  0
LINE
  5
217
330
1F
100
AcDbEntity
  8
0
  6
Continuous
 62
     7
370
     0
100
AcDbLine
 10
7.9546521559
 20
5.9380462461
 30
0.0
 11
7.9475810881
 21
5.9421282866
 31
0.0
  0
LINE
  5
218
330
1F
100
AcDbEntity
  8
0
  6
Continuous
 62
     7
370
     0
100
AcDbLine
 10
7.7525969352
 20
5.6043692303
 30
0.0
 11
7.759668003
 21
5.6002871897
 31
0.0
  0
LINE
  5
219
330
1F
100
AcDbEntity
  8
0
  6
Continuous
 62
     7
370
     0
100
AcDbLine
 10
7.6520663594
 20
6.1202411142
 30
0.0
 11
7.6379265222
 21
6.1120757062
 31
0.0
  0
LINE
  5
21A
330
1F
100
AcDbEntity
  8
0
  6
Continuous
 62
     7
370
     0
100
AcDbLine
 10
7.4505736803
 20
5.7875359004
 30
0.0
 11
7.4505736803
 21
5.7712077382
 31
0.0
  0
LWPOLYLINE
  5
21B
330
1F
100
AcDbEntity
  8
0
  6
Continuous
 62
     7
370
     0
100
AcDbPolyline
 90
       96
 70
   128
 43
0.0
 10
7.9891080011
 20
5.9542878639
 10
7.9707892651
 20
5.9429890593
 10
7.9538041203
 20
5.9310160383
 10
7.9382268386
 20
5.9184211557
 10
7.9241255354
 20
5.9052594858
 10
7.9115618721
 20
5.8915885812
 10
7.9005907865
 20
5.8774682213
 10
7.8912602523
 20
5.8629601508
 10
7.8836110695
 20
5.8481278099
 10
7.8776766862
 20
5.8330360566
 10
7.8734830518
 20
5.8177508833
 10
7.871048504
 20
5.8023391282
 10
7.8703836885
 20
5.7868681829
 10
7.8714915124
 20
5.771405698
 10
7.8743671314
 20
5.7560192869
 10
7.8789979711
 20
5.7407762306
 10
7.8853637822
 20
5.725743183
 10
7.8934367285
 20
5.7109858799
 10
7.9031815091
 20
5.6965688511
 10
7.9145555125
 20
5.6825551387
 10
7.9275090031
 20
5.669006021
 10
7.9419853387
 20
5.655980745
 10
7.9579212178
 20
5.6435362668
 10
7.9752469569
 20
5.6317270029
 10
7.993886795
 20
5.6206045923
 10
8.0137592247
 20
5.6102176705
 10
8.0347773491
 20
5.6006116567
 10
8.0568492613
 20
5.5918285557
 10
8.0798784462
 20
5.5839067737
 10
8.1037642033
 20
5.5768809507
 10
8.1284020861
 20
5.5707818088
 10
8.1536843595
 20
5.565636018
 10
8.1795004705
 20
5.5614660795
 10
8.2057375318
 20
5.5582902274
 10
8.2322808154
 20
5.556122349
 10
8.2590142543
 20
5.5549719237
 10
8.2858209501
 20
5.5548439821
 10
8.3125836837
 20
5.5557390836
 10
8.3391854286
 20
5.5576533143
 10
8.3655098622
 20
5.5605783036
 10
8.3914418744
 20
5.5645012613
 10
8.416868071
 20
5.5694050334
 10
8.4416772699
 20
5.5752681769
 10
8.4657609866
 20
5.5820650537
 10
8.4890139093
 20
5.5897659428
 10
8.5113343587
 20
5.5983371703
 10
8.5326247334
 20
5.6077412562
 10
8.5527919358
 20
5.617937079
 10
8.5717477799
 20
5.6288800549
 10
8.5894093767
 20
5.6405223331
 10
8.6056994964
 20
5.6528130047
 10
8.6205469066
 20
5.6656983259
 10
8.6338866832
 20
5.6791219525
 10
8.6456604949
 20
5.6930251862
 10
8.6558168578
 20
5.7073472318
 10
8.6643113605
 20
5.7220254627
 10
8.671106859
 20
5.7369956947
 10
8.6761736381
 20
5.7521924667
 10
8.6794895421
 20
5.7675493272
 10
8.6810400715
 20
5.7829991245
 10
8.6808184462
 20
5.7984743005
 10
8.6788256352
 20
5.8139071863
 10
8.6750703526
 20
5.8292302978
 10
8.6695690194
 20
5.8443766309
 10
8.6623456914
 20
5.8592799545
 10
8.6534319544
 20
5.8738751003
 10
8.642866786
 20
5.8880982473
 10
8.6306963849
 20
5.9018872013
 10
8.6169739692
 20
5.9151816668
 10
8.6017595435
 20
5.9279235105
 10
8.5851196366
 20
5.9400570154
 10
8.5671270107
 20
5.9515291249
 10
8.5478603429
 20
5.9622896744
 10
8.5274038814
 20
5.9722916107
 10
8.5058470771
 20
5.9814911979
 10
8.4832841924
 20
5.9898482085
 10
8.4598138892
 20
5.9973260995
 10
8.435538797
 20
6.0038921719
 10
8.4105650647
 20
6.009517714
 10
8.3850018961
 20
6.0141781267
 10
8.3589610723
 20
6.0178530312
 10
8.3325564633
 20
6.0205263581
 10
8.3059035297
 20
6.0221864176
 10
8.2791188181
 20
6.0228259507
 10
8.252319451
 20
6.0224421609
 10
8.2256226154
 20
6.0210367264
 10
8.1991450498
 20
6.0186157928
 10
8.1730025337
 20
6.0151899462
 10
8.1473093817
 20
6.010774167
 10
8.1221779435
 20
6.0053877642
 10
8.0977181125
 20
5.9990542913
 10
8.0740368453
 20
5.9918014429
 10
8.0512376939
 20
5.9836609338
 10
8.0294203534
 20
5.9746683605
 10
8.0086802254
 20
5.9648630451
 10
7.9891080011
 20
5.9542878639
  0
LWPOLYLINE
  5
21C
330
1F
100
AcDbEntity
  8
0
  6
Continuous
 62
     7
370
     0
100
AcDbPolyline
 90
       68
 70
   128
 43
0.0
 10
8.7249143878
 20
5.7822559578
 10
8.7323998683
 20
5.7720627675
 10
8.7425367912
 20
5.7561086292
 10
8.7510028005
 20
5.7398330776
 10
8.7577675899
 20
5.7232943748
 10
8.7628069435
 20
5.7065517253
 10
8.7661028215
 20
5.6896650632
 10
8.7676434255
 20
5.6726948385
 10
8.7674232407
 20
5.6557018001
 10
8.7654430552
 20
5.6387467789
 10
8.7617099575
 20
5.6218904692
 10
8.7562373112
 20
5.6051932123
 10
8.749044707
 20
5.5887147802
 10
8.7401578924
 20
5.5725141612
 10
8.7296086801
 20
5.5566493494
 10
8.7174348333
 20
5.5411771367
 10
8.7036799314
 20
5.5261529096
 10
8.6883932133
 20
5.511630451
 10
8.6716294016
 20
5.4976617474
 10
8.6534485062
 20
5.4842968033
 10
8.6339156101
 20
5.4715834616
 10
8.6131006359
 20
5.4595672328
 10
8.591078096
 20
5.4482911319
 10
8.5679268252
 20
5.4377955244
 10
8.5437296991
 20
5.4281179819
 10
8.5185733372
 20
5.4192931473
 10
8.4925477926
 20
5.4113526115
 10
8.4657462302
 20
5.4043247994
 10
8.4382645924
 20
5.3982348687
 10
8.4102012565
 20
5.3931046199
 10
8.3816566819
 20
5.3889524178
 10
8.3527330507
 20
5.3857931264
 10
8.3235339021
 20
5.383638055
 10
8.2941637615
 20
5.3824949182
 10
8.2647277663
 20
5.3823678082
 10
8.2353312897
 20
5.38325718
 10
8.2060795635
 20
5.3851598498
 10
8.1770773014
 20
5.3880690067
 10
8.1484283237
 20
5.3919742366
 10
8.1202351866
 20
5.3968615597
 10
8.092598814
 20
5.4027134807
 10
8.065618137
 20
5.4095090513
 10
8.0393897395
 20
5.4172239451
 10
8.0140075123
 20
5.4258305448
 10
7.9895623171
 20
5.4352980409
 10
7.9661416615
 20
5.4455925423
 10
7.9438293853
 20
5.4566771974
 10
7.9227053607
 20
5.4685123259
 10
7.9028452061
 20
5.4810555612
 10
7.8843200159
 20
5.4942620018
 10
7.8671961053
 20
5.508084372
 10
7.8515347735
 20
5.5224731913
 10
7.837392084
 20
5.5373769515
 10
7.824818664
 20
5.5527423009
 10
7.8138595231
 20
5.5685142357
 10
7.8045538921
 20
5.5846362964
 10
7.7969350828
 20
5.6010507702
 10
7.7910303685
 20
5.6176988975
 10
7.7868608866
 20
5.6345210824
 10
7.7844415628
 20
5.6514571058
 10
7.7837810576
 20
5.6684463412
 10
7.7848817354
 20
5.6854279714
 10
7.7877396561
 20
5.7023412067
 10
7.7923445891
 20
5.7191255021
 10
7.7986800499
 20
5.7357207741
 10
7.8067233592
 20
5.752067616
 10
7.8164457241
 20
5.7681075104
 10
7.8266202
 20
5.7822559578
  0
LWPOLYLINE
  5
21D
330
1F
100
AcDbEntity
  8
0
  6
Continuous
 62
     7
370
     0
100
AcDbPolyline
 90
       54
 70
   128
 43
0.0
 10
7.7837672939
 20
4.9355178282
 10
7.7844415628
 20
4.9206530792
 10
7.7868608866
 20
4.9037170558
 10
7.7910303685
 20
4.8868948709
 10
7.7969350828
 20
4.8702467436
 10
7.8045538921
 20
4.8538322698
 10
7.8138595231
 20
4.8377102091
 10
7.824818664
 20
4.8219382743
 10
7.837392084
 20
4.8065729248
 10
7.8515347735
 20
4.7916691647
 10
7.8671961053
 20
4.7772803454
 10
7.8843200159
 20
4.7634579752
 10
7.9028452061
 20
4.7502515346
 10
7.9227053607
 20
4.7377082993
 10
7.9438293853
 20
4.7258731708
 10
7.9661416615
 20
4.7147885157
 10
7.9895623171
 20
4.7044940143
 10
8.0140075123
 20
4.6950265181
 10
8.0393897395
 20
4.6864199185
 10
8.065618137
 20
4.6787050247
 10
8.092598814
 20
4.6719094541
 10
8.1202351866
 20
4.666057533
 10
8.1484283237
 20
4.6611702099
 10
8.1770773014
 20
4.6572649801
 10
8.2060795635
 20
4.6543558232
 10
8.2353312897
 20
4.6524531533
 10
8.2647277663
 20
4.6515637816
 10
8.2941637615
 20
4.6516908916
 10
8.3235339021
 20
4.6528340283
 10
8.3527330507
 20
4.6549890997
 10
8.3816566819
 20
4.6581483912
 10
8.4102012565
 20
4.6623005932
 10
8.4382645924
 20
4.6674308421
 10
8.4657462302
 20
4.6735207727
 10
8.4925477926
 20
4.6805485849
 10
8.5185733372
 20
4.6884891207
 10
8.5437296991
 20
4.6973139552
 10
8.5679268252
 20
4.7069914978
 10
8.591078096
 20
4.7174871053
 10
8.6131006359
 20
4.7287632062
 10
8.6339156101
 20
4.740779435
 10
8.6534485062
 20
4.7534927767
 10
8.6716294016
 20
4.7668577208
 10
8.6883932133
 20
4.7808264244
 10
8.7036799314
 20
4.795348883
 10
8.7174348333
 20
4.8103731101
 10
8.7296086801
 20
4.8258453227
 10
8.7401578924
 20
4.8417101345
 10
8.749044707
 20
4.8579107535
 10
8.7562373112
 20
4.8743891857
 10
8.7617099575
 20
4.8910864425
 10
8.7654430552
 20
4.9079427522
 10
8.7674232407
 20
4.9248977735
 10
8.7677672939
 20
4.9355178282
  0
LINE
  5
21E
330
1F
100
AcDbEntity
  8
0
  6
Continuous
 62
     7
370
     0
100
AcDbLine
 10
8.3733480297
 20
5.6042947433
 30
0.0
 11
8.3299684322
 21
5.629337252
 31
0.0
  0
LINE
  5
21F
330
1F
100
AcDbEntity
  8
0
  6
Continuous
 62
     7
370
     0
100
AcDbLine
 10
8.595379559
 20
5.7324708169
 30
0.0
 11
8.3733480297
 21
5.6042947433
 31
0.0
  0
LINE
  5
220
330
1F
100
AcDbEntity
  8
0
  6
Continuous
 62
     7
370
     0
100
AcDbLine
 10
8.5519999615
 20
5.7575133255
 30
0.0
 11
8.595379559
 21
5.7324708169
 31
0.0
  0
LWPOLYLINE
  5
221
330
1F
100
AcDbEntity
  8
0
  6
Continuous
 62
     7
370
     0
100
AcDbPolyline
 90
       65
 70
   128
 43
0.0
 10
8.3299684322
 20
5.629337252
 10
8.3078078807
 20
5.6273525693
 10
8.2854439842
 20
5.6263925287
 10
8.2630186747
 20
5.6264632231
 10
8.2406742742
 20
5.6275642037
 10
8.2185525908
 20
5.6296884833
 10
8.1967940195
 20
5.6328225802
 10
8.1755366507
 20
5.6369466038
 10
8.1549153939
 20
5.6420343811
 10
8.1350611214
 20
5.6480536226
 10
8.1160998381
 20
5.6549661274
 10
8.0981518814
 20
5.6627280253
 10
8.0813311576
 20
5.6712900555
 10
8.0657444193
 20
5.6805978794
 10
8.0514905874
 20
5.690592425
 10
8.0386601235
 20
5.701210262
 10
8.0273344559
 20
5.7123840047
 10
8.0175854628
 20
5.7240427389
 10
8.0094750161
 20
5.7361124728
 10
8.0030545884
 20
5.7485166061
 10
7.998364927
 20
5.761176416
 10
7.9954357946
 20
5.7740115574
 10
7.994285781
 20
5.7869405723
 10
7.9949221848
 20
5.7998814069
 10
7.9973409669
 20
5.8127519325
 10
8.0015267766
 20
5.8254704664
 10
8.0074530488
 20
5.8379562908
 10
8.0150821724
 20
5.8501301646
 10
8.0243657295
 20
5.8619148265
 10
8.035244802
 20
5.8732354853
 10
8.0476503462
 20
5.8840202948
 10
8.0615036304
 20
5.8942008093
 10
8.076716735
 20
5.9037124184
 10
8.0931931104
 20
5.9124947567
 10
8.1108281896
 20
5.9204920875
 10
8.1295100517
 20
5.9276536557
 10
8.1491201328
 20
5.9339340106
 10
8.1695339779
 20
5.939293294
 10
8.1906220307
 20
5.9436974933
 10
8.2122504564
 20
5.9471186574
 10
8.2342819905
 20
5.9495350739
 10
8.2565768104
 20
5.9509314071
 10
8.2789934223
 20
5.9512987952
 10
8.3013895597
 20
5.9506349065
 10
8.3236230858
 20
5.9489439544
 10
8.345552896
 20
5.9462366704
 10
8.3670398131
 20
5.9425302364
 10
8.3879474709
 20
5.9378481752
 10
8.4081431792
 20
5.9322202013
 10
8.4274987663
 20
5.9256820326
 10
8.4458913925
 20
5.9182751634
 10
8.4632043291
 20
5.9100466014
 10
8.4793277
 20
5.9010485689
 10
8.4941591784
 20
5.8913381718
 10
8.5076046368
 20
5.8809770369
 10
8.5195787436
 20
5.870030921
 10
8.5300055055
 20
5.8585692935
 10
8.5388187493
 20
5.8466648953
 10
8.5459625417
 20
5.8343932775
 10
8.5513915449
 20
5.8218323217
 10
8.5550713038
 20
5.8090617457
 10
8.5569784649
 20
5.7961625978
 10
8.5571009244
 20
5.7832167422
 10
8.5554379052
 20
5.7703063396
 10
8.5519999615
 20
5.7575133255
  0
LINE
  5
222
330
1F
100
AcDbEntity
  8
0
  6
Continuous
 62
     7
370
     0
100
AcDbLine
 10
8.5519999615
 20
5.7575133255
 30
0.0
 11
8.5190678193
 21
5.7275361788
 31
0.0
  0
LWPOLYLINE
  5
223
330
1F
100
AcDbEntity
  8
0
  6
Continuous
 62
     7
370
     0
100
AcDbPolyline
 90
       50
 70
   128
 43
0.0
 10
8.5190678193
 20
5.7275361788
 10
8.5235655271
 20
5.7394881764
 10
8.5263047214
 20
5.7516163004
 10
8.5272659634
 20
5.7638344829
 10
8.5264424315
 20
5.7760560168
 10
8.52383997
 20
5.7881941714
 10
8.5194770473
 20
5.8001628077
 10
8.5133846253
 20
5.8118769896
 10
8.5056059391
 20
5.8232535867
 10
8.4961961905
 20
5.8342118644
 10
8.4852221564
 20
5.8446740567
 10
8.4727617146
 20
5.8545659181
 10
8.4589032912
 20
5.8638172505
 10
8.4437452334
 20
5.8723624013
 10
8.4273951111
 20
5.8801407293
 10
8.4099689538
 20
5.8870970353
 10
8.3915904272
 20
5.8931819534
 10
8.3723899555
 20
5.8983523017
 10
8.3525037959
 20
5.9025713886
 10
8.3320730716
 20
5.905809273
 10
8.3112427702
 20
5.9080429771
 10
8.2901607153
 20
5.9092566494
 10
8.2689765166
 20
5.9094416769
 10
8.2478405091
 20
5.9085967466
 10
8.2269026855
 20
5.9067278546
 10
8.2063116322
 20
5.9038482635
 10
8.1862134748
 20
5.8999784086
 10
8.1667508409
 20
5.8951457525
 10
8.1480618481
 20
5.8893845904
 10
8.1302791238
 20
5.8827358066
 10
8.1135288643
 20
5.8752465847
 10
8.0979299384
 20
5.8669700723
 10
8.083593045
 20
5.8579650041
 10
8.0706199265
 20
5.8482952851
 10
8.0591026473
 20
5.8380295369
 10
8.0491229404
 20
5.827240611
 10
8.0407516275
 20
5.8160050716
 10
8.0340481158
 20
5.8044026523
 10
8.0290599774
 20
5.7925156903
 10
8.0258226107
 20
5.780428542
 10
8.0243589899
 20
5.7682269845
 10
8.0246795017
 20
5.755997607
 10
8.0267818715
 20
5.7438271957
 10
8.0306511798
 20
5.7318021187
 10
8.0362599678
 20
5.7200077126
 10
8.0435684325
 20
5.708527677
 10
8.0525247089
 20
5.6974434806
 10
8.0630652383
 20
5.686833783
 10
8.0751152193
 20
5.6767738766
 10
8.0878909518
 20
5.6677861629
  0
LINE
  5
224
330
1F
100
AcDbEntity
  8
0
  6
Continuous
 62
     7
370
     0
100
AcDbLine
 10
8.5190678193
 20
5.7275361788
 30
0.0
 11
8.5190678193
 21
5.6884169873
 31
0.0
  0
SPLINE
  5
225
330
1F
100
AcDbEntity
  8
0
  6
Continuous
 62
     7
370
     0
100
AcDbSpline
210
0.0
220
0.0
230
1.0
 70
     8
 71
     3
 72
    20
 73
    16
 74
     0
 42
0.00000001
 43
0.00000001
 40
0.0
 40
0.0
 40
0.0
 40
0.0
 40
0.076741764901536
 40
0.1558406120405584
 40
0.2325487575070447
 40
0.3112799593845377
 40
0.3919473772917286
 40
0.4747745351798648
 40
0.5584036977593344
 40
0.6446958263906106
 40
0.7242247657039069
 40
0.8063424129601616
 40
0.8815600676102984
 40
0.9589045242699747
 40
1.0
 40
1.0
 40
1.0
 40
1.0
 10
8.183810054448024
 20
5.662644716429688
 30
0.0
 10
8.183561048916498
 20
5.666927530703355
 30
0.0
 10
8.183055389781813
 20
5.675624703598984
 30
0.0
 10
8.179044461757615
 20
5.687447769866974
 30
0.0
 10
8.172878432679902
 20
5.698025962963071
 30
0.0
 10
8.164642453840235
 20
5.706961312616675
 30
0.0
 10
8.154531665320198
 20
5.714055513556937
 30
0.0
 10
8.142896546968519
 20
5.718850166782302
 30
0.0
 10
8.13010383799243
 20
5.72095021890447
 30
0.0
 10
8.117073639398814
 20
5.719984434071291
 30
0.0
 10
8.104268814877846
 20
5.715966971002217
 30
0.0
 10
8.092577214465786
 20
5.709354784378498
 30
0.0
 10
8.081977940862732
 20
5.700248141991974
 30
0.0
 10
8.073962621339199
 20
5.691225153376176
 30
0.0
 10
8.069902201884226
 20
5.68462513527581
 30
0.0
 10
8.068493345379508
 20
5.682335106244309
 30
0.0
  0
SPLINE
  5
226
330
1F
100
AcDbEntity
  8
0
  6
Continuous
 62
     7
370
     0
100
AcDbSpline
210
0.0
220
0.0
230
1.0
 70
     8
 71
     3
 72
    10
 73
     6
 74
     0
 42
0.00000001
 43
0.00000001
 40
0.0
 40
0.0
 40
0.0
 40
0.0
 40
0.2577155646134076
 40
0.7800770918717944
 40
0.9999999999999999
 40
0.9999999999999999
 40
0.9999999999999999
 40
0.9999999999999999
 10
8.178814117650804
 20
5.636775392114434
 30
0.0
 10
8.179658061354285
 20
5.639015174142333
 30
0.0
 10
8.182212587507571
 20
5.645794751671426
 30
0.0
 10
8.183577218243927
 20
5.654511407663048
 30
0.0
 10
8.183756837212186
 20
5.660785760635266
 30
0.0
 10
8.18381005444802
 20
5.662644716429691
 30
0.0
  0
LINE
  5
227
330
1F
100
AcDbEntity
  8
0
  6
Continuous
 62
     7
370
     0
100
AcDbLine
 10
8.5529497041
 20
5.707976583
 30
0.0
 11
8.5190678193
 21
5.7275361788
 31
0.0
  0
ARC
  5
228
330
1F
100
AcDbEntity
  8
0
  6
Continuous
 62
     7
370
     0
100
AcDbCircle
 10
8.2757672939
 20
5.3589607844
 30
0.0
 40
0.7152729258890748
100
AcDbArc
 50
242.5003393761
 51
297.4996606239
  0
ARC
  5
229
330
1F
100
AcDbEntity
  8
0
  6
Continuous
 62
     7
370
     0
100
AcDbCircle
 10
8.2432487956
 20
4.9377461288
 30
0.0
 40
0.6568844867589658
100
AcDbArc
 50
241.3072914495
 51
263.6873094199
  0
ARC
  5
22A
330
1F
100
AcDbEntity
  8
0
  6
Continuous
 62
     7
370
     0
100
AcDbCircle
 10
8.0279406339
 20
4.5854406042
 30
0.0
 40
0.2452618912562506
100
AcDbArc
 50
185.4001746048
 51
245.9199663528
  0
ARC
  5
22B
330
1F
100
AcDbEntity
  8
0
  6
Continuous
 62
     7
370
     0
100
AcDbCircle
 10
8.0279406339
 20
4.707921726
 30
0.0
 40
0.2452618912562506
100
AcDbArc
 50
185.4001746048
 51
245.9199663528
  0
LINE
  5
22C
330
1F
100
AcDbEntity
  8
0
  6
Continuous
 62
     7
370
     0
100
AcDbLine
 10
7.9278707576
 20
4.7110017491
 30
0.0
 11
9.3198132402
 21
3.907450458
 31
0.0
  0
LINE
  5
22D
330
1F
100
AcDbEntity
  8
0
  6
Continuous
 62
     7
370
     0
100
AcDbLine
 10
9.3198132402
 20
3.907450458
 30
0.0
 11
9.3198132402
 21
3.5563379089
 31
0.0
  0
LINE
  5
22E
330
1F
100
AcDbEntity
  8
0
  6
Continuous
 62
     7
370
     0
100
AcDbLine
 10
9.178391884
 20
3.63797872
 30
0.0
 11
9.3198132402
 21
3.5563379089
 31
0.0
  0
LINE
  5
22F
330
1F
100
AcDbEntity
  8
0
  6
Continuous
 62
     7
370
     0
100
AcDbLine
 10
9.178391884
 20
3.703301985
 30
0.0
 11
9.178391884
 21
3.63797872
 31
0.0
  0
LINE
  5
230
330
1F
100
AcDbEntity
  8
0
  6
Continuous
 62
     7
370
     0
100
AcDbLine
 10
8.0692921138
 20
4.3435716538
 30
0.0
 11
9.178391884
 21
3.703301985
 31
0.0
  0
LINE
  5
231
330
1F
100
AcDbEntity
  8
0
  6
Continuous
 62
     7
370
     0
100
AcDbLine
 10
8.0692921138
 20
4.4023625923
 30
0.0
 11
8.0692921138
 21
4.3435716538
 31
0.0
  0
LINE
  5
232
330
1F
100
AcDbEntity
  8
0
  6
Continuous
 62
     7
370
     0
100
AcDbLine
 10
7.9278707576
 20
4.4840034034
 30
0.0
 11
8.0692921138
 21
4.4023625923
 31
0.0
  0
LWPOLYLINE
  5
233
330
1F
100
AcDbEntity
  8
0
  6
Continuous
 62
     7
370
     0
100
AcDbPolyline
 90
       14
 70
   128
 43
0.0
 10
7.9278707576
 20
4.5701484591
 10
7.9335396855
 20
4.5676707176
 10
7.9388791559
 20
4.5669266953
 10
7.9435788583
 20
4.567959632
 10
7.9473656629
 20
4.5707094973
 10
7.9500194945
 20
4.575016479
 10
7.951386122
 20
4.5806302709
 10
7.951386122
 20
4.5872246198
 10
7.9500194945
 20
4.5944162863
 10
7.9473656629
 20
4.6017873167
 10
7.9435788583
 20
4.6089093335
 10
7.9388791559
 20
4.6153684311
 10
7.9335396855
 20
4.6207892301
 10
7.9278707576
 20
4.6248566935
  0
LINE
  5
234
330
1F
100
AcDbEntity
  8
0
  6
Continuous
 62
     7
370
     0
100
AcDbLine
 10
9.3198132402
 20
3.907450458
 30
0.0
 11
9.5740181281
 21
4.0541998161
 31
0.0
  0
LINE
  5
235
330
1F
100
AcDbEntity
  8
0
  6
Continuous
 62
     7
370
     0
100
AcDbLine
 10
9.5740181281
 20
4.0541998161
 30
0.0
 11
9.5740181281
 21
3.703087267
 31
0.0
  0
LINE
  5
236
330
1F
100
AcDbEntity
  8
0
  6
Continuous
 62
     7
370
     0
100
AcDbLine
 10
9.3198132402
 20
3.5563379089
 30
0.0
 11
9.5740181281
 21
3.703087267
 31
0.0
  0
ARC
  5
237
330
1F
100
AcDbEntity
  8
0
  6
Continuous
 62
     7
370
     0
100
AcDbCircle
 10
8.0246126371
 20
4.9312258164
 30
0.0
 40
0.2405361325617965
100
AcDbArc
 50
181.798190572
 51
246.2846727444
  0
LINE
  5
238
330
1F
100
AcDbEntity
  8
0
  6
Continuous
 62
     7
370
     0
100
AcDbLine
 10
8.7677672939
 20
5.0294853813
 30
0.0
 11
10.0156063129
 21
4.309123249
 31
0.0
  0
LINE
  5
239
330
1F
100
AcDbEntity
  8
0
  6
Continuous
 62
     7
370
     0
100
AcDbLine
 10
10.0156063129
 20
4.309123249
 30
0.0
 11
9.7614014251
 21
4.1623738909
 31
0.0
  0
LINE
  5
23A
330
1F
100
AcDbEntity
  8
0
  6
Continuous
 62
     7
370
     0
100
AcDbLine
 10
9.7614014251
 20
4.1623738909
 30
0.0
 11
8.8997890283
 21
4.6597721401
 31
0.0
  0
LWPOLYLINE
  5
23B
330
1F
100
AcDbEntity
  8
0
  6
Continuous
 62
     7
370
     0
100
AcDbPolyline
 90
       28
 70
   128
 43
0.0
 10
8.8997890283
 20
4.6597721401
 10
8.8882785824
 20
4.6656855447
 10
8.8756567767
 20
4.6707875463
 10
8.8620942995
 20
4.6750091489
 10
8.84777456
 20
4.6782932628
 10
8.8328912081
 20
4.6805954759
 10
8.8176455157
 20
4.6818846547
 10
8.8022436546
 20
4.6821433652
 10
8.7868939084
 20
4.6813681089
 10
8.7718038563
 20
4.6795693698
 10
8.7571775653
 20
4.6767714728
 10
8.7432128308
 20
4.6730122545
 10
8.730098502
 20
4.668342552
 10
8.7180119276
 20
4.662825515
 10
8.7071165579
 20
4.6565357519
 10
8.6975597339
 20
4.649558321
 10
8.6894706955
 20
4.6419875801
 10
8.6829588328
 20
4.6339259105
 10
8.6781122078
 20
4.6254823324
 10
8.6749963627
 20
4.6167710308
 10
8.6736534339
 20
4.6079098109
 10
8.6741015823
 20
4.5990185058
 10
8.6763347474
 20
4.5902173549
 10
8.6803227295
 20
4.5816253787
 10
8.686011598
 20
4.5733587691
 10
8.6933244207
 20
4.5655293176
 10
8.7021623042
 20
4.5582429043
 10
8.7124057313
 20
4.5515980653
  0
LINE
  5
23C
330
1F
100
AcDbEntity
  8
0
  6
Continuous
 62
     7
370
     0
100
AcDbLine
 10
9.5740181281
 20
4.0541998161
 30
0.0
 11
8.7124057313
 21
4.5515980653
 31
0.0
  0
LINE
  5
23D
330
1F
100
AcDbEntity
  8
0
  6
Continuous
 62
     7
370
     0
100
AcDbLine
 10
9.7614014251
 20
4.1623738909
 30
0.0
 11
9.7614014251
 21
3.8112613418
 31
0.0
  0
LINE
  5
23E
330
1F
100
AcDbEntity
  8
0
  6
Continuous
 62
     7
370
     0
100
AcDbLine
 10
9.7614014251
 20
3.8112613418
 30
0.0
 11
9.6199800688
 21
3.892902153
 31
0.0
  0
LINE
  5
23F
330
1F
100
AcDbEntity
  8
0
  6
Continuous
 62
     7
370
     0
100
AcDbLine
 10
9.6199800688
 20
3.9582254179
 30
0.0
 11
9.6199800688
 21
3.892902153
 31
0.0
  0
LINE
  5
240
330
1F
100
AcDbEntity
  8
0
  6
Continuous
 62
     7
370
     0
100
AcDbLine
 10
9.6199800688
 20
3.9582254179
 30
0.0
 11
9.5740181281
 21
3.9847586815
 31
0.0
  0
LINE
  5
241
330
1F
100
AcDbEntity
  8
0
  6
Continuous
 62
     7
370
     0
100
AcDbLine
 10
10.0156063129
 20
4.309123249
 30
0.0
 11
10.0156063129
 21
3.9580106999
 31
0.0
  0
LINE
  5
242
330
1F
100
AcDbEntity
  8
0
  6
Continuous
 62
     7
370
     0
100
AcDbLine
 10
10.0156063129
 20
3.9580106999
 30
0.0
 11
9.7614014251
 21
3.8112613418
 31
0.0
  0
SPLINE
  5
243
330
1F
100
AcDbEntity
  8
0
  6
Continuous
 62
     7
370
     0
100
AcDbSpline
210
0.0
220
0.0
230
1.0
 70
     8
 71
     3
 72
    17
 73
    13
 74
     0
 42
0.00000001
 43
0.00000001
 40
0.0
 40
0.0
 40
0.0
 40
0.0
 40
0.1072028223541184
 40
0.2143996562184861
 40
0.3217520362771945
 40
0.429207266928231
 40
0.5364929531126958
 40
0.6436012507253207
 40
0.7508011422587004
 40
0.8582184677951125
 40
0.9656401968878036
 40
1.0
 40
1.0
 40
1.0
 40
1.0
 10
7.927870757573513
 20
4.570148459088054
 30
0.0
 10
7.925228809144223
 20
4.571996469589768
 30
0.0
 10
7.919945059868339
 20
4.575692387360913
 30
0.0
 10
7.913116382986633
 20
4.584631449660275
 30
0.0
 10
7.90800690644924
 20
4.594839993099636
 30
0.0
 10
7.905120668254568
 20
4.605407998079604
 30
0.0
 10
7.904716743636415
 20
4.615016417759368
 30
0.0
 10
7.906824147909303
 20
4.622594300959959
 30
0.0
 10
7.911254715279201
 20
4.627334562436145
 30
0.0
 10
7.917602577948201
 20
4.628724326762636
 30
0.0
 10
7.92353018502435
 20
4.627206990251532
 30
0.0
 10
7.927024044234392
 20
4.625315164711659
 30
0.0
 10
7.927870757573513
 20
4.6248566934844
 30
0.0
  0
ARC
  5
244
330
1F
100
AcDbEntity
  8
0
  6
Continuous
 62
     7
370
     0
100
AcDbCircle
 10
8.031305681
 20
4.7103362034
 30
0.0
 40
0.248847985127764
100
AcDbArc
 50
185.8807162618
 51
245.4394246958
  0
LWPOLYLINE
  5
245
330
1F
100
AcDbEntity
  8
0
  6
Continuous
 62
     7
370
     0
100
AcDbPolyline
 90
       53
 70
   128
 43
0.0
 10
7.7837672939
 20
5.5206974707
 10
7.7807431603
 20
5.5200560407
 10
7.7658974996
 20
5.5178102913
 10
7.751527312
 20
5.5171645721
 10
7.7377211945
 20
5.5181228643
 10
7.7245642666
 20
5.5206792596
 10
7.7121376449
 20
5.5248179969
 10
7.7005179438
 20
5.5305135597
 10
7.6897768026
 20
5.5377308328
 10
7.679980444
 20
5.5464253194
 10
7.6711892658
 20
5.556543415
 10
7.6634574686
 20
5.5680227383
 10
7.6568327213
 20
5.5807925153
 10
7.6513558679
 20
5.5947740163
 10
7.6470606749
 20
5.6098810405
 10
7.6439736237
 20
5.6260204482
 10
7.6421137468
 20
5.6430927345
 10
7.6414925112
 20
5.6609926431
 10
7.6421137468
 20
5.6796098151
 10
7.6439736237
 20
5.6988294695
 10
7.6470606749
 20
5.7185331107
 10
7.6513558679
 20
5.7385992592
 10
7.6568327213
 20
5.7589042005
 10
7.6634574686
 20
5.7793227479
 10
7.6711892658
 20
5.7997290143
 10
7.679980444
 20
5.8199971882
 10
7.6897768026
 20
5.8400023097
 10
7.7005179438
 20
5.8596210404
 10
7.7121376449
 20
5.8787324245
 10
7.7245642666
 20
5.8972186338
 10
7.7377211945
 20
5.9149656948
 10
7.751527312
 20
5.9318641908
 10
7.7658974996
 20
5.9478099371
 10
7.7807431603
 20
5.9627046228
 10
7.7959727659
 20
5.9764564173
 10
7.8114924206
 20
5.9889805361
 10
7.8272064406
 20
6.0001997639
 10
7.8430179438
 20
6.0100449304
 10
7.858829447
 20
6.0184553369
 10
7.8745434671
 20
6.0253791305
 10
7.8900631218
 20
6.0307736236
 10
7.9052927273
 20
6.0346055574
 10
7.9201383881
 20
6.0368513068
 10
7.9345085757
 20
6.0374970259
 10
7.9483146931
 20
6.0365387338
 10
7.9614716211
 20
6.0339823385
 10
7.9738982427
 20
6.0298436011
 10
7.9855179438
 20
6.0241480384
 10
7.996259085
 20
6.0169307653
 10
8.0060554436
 20
6.0082362787
 10
8.0148466218
 20
5.9981181831
 10
8.0225784191
 20
5.9866388598
 10
8.0289367482
 20
5.9744544164
  0
LWPOLYLINE
  5
246
330
1F
100
AcDbEntity
  8
0
  6
Continuous
 62
     7
370
     0
100
AcDbPolyline
 90
       49
 70
   128
 43
0.0
 10
7.7837672939
 20
5.5277026115
 10
7.7828113689
 20
5.5276242871
 10
7.769038979
 20
5.527332545
 10
7.7558530206
 20
5.5286501694
 10
7.7433412439
 20
5.5315683917
 10
7.7315869128
 20
5.5360677917
 10
7.7206682504
 20
5.5421184265
 10
7.7106579186
 20
5.5496800303
 10
7.7016225345
 20
5.5587022818
 10
7.6936222271
 20
5.5691251394
 10
7.6867102371
 20
5.5808792407
 10
7.6809325627
 20
5.5938863641
 10
7.6763276534
 20
5.6080599493
 10
7.672926154
 20
5.6233056735
 10
7.670750701
 20
5.6395220789
 10
7.6698157716
 20
5.6566012479
 10
7.6701275877
 20
5.6744295216
 10
7.6716840742
 20
5.6928882557
 10
7.6744748729
 20
5.7118546104
 10
7.6784814115
 20
5.7312023677
 10
7.6836770272
 20
5.7508027715
 10
7.6900271439
 20
5.7705253843
 10
7.6974895028
 20
5.7902389554
 10
7.706014443
 20
5.8098122942
 10
7.7155452325
 20
5.8291151435
 10
7.7260184454
 20
5.8480190458
 10
7.7373643843
 20
5.866398199
 10
7.7495075437
 20
5.8841302926
 10
7.762367113
 20
5.9010973227
 10
7.7758575139
 20
5.9171863763
 10
7.7898889699
 20
5.9322903836
 10
7.8043681041
 20
5.9463088297
 10
7.8191985601
 20
5.9591484243
 10
7.8342816438
 20
5.9707237221
 10
7.8495169797
 20
5.9809576912
 10
7.8648031792
 20
5.9897822263
 10
7.8800385151
 20
5.9971386016
 10
7.8951215988
 20
6.0029778616
 10
7.9099520548
 20
6.0072611471
 10
7.924431189
 20
6.0099599534
 10
7.938462645
 20
6.0110563204
 10
7.9519530459
 20
6.0105429521
 10
7.9648126152
 20
6.0084232648
 10
7.9769557746
 20
6.0047113646
 10
7.9883017135
 20
5.9994319536
 10
7.9987749264
 20
5.9926201655
 10
8.0083057159
 20
5.9843213315
 10
8.0168306561
 20
5.9745906791
 10
8.0199245478
 20
5.9703428349
  0
LWPOLYLINE
  5
247
330
1F
100
AcDbEntity
  8
0
  6
Continuous
 62
     7
370
     0
100
AcDbPolyline
 90
       15
 70
   128
 43
0.0
 10
8.0702354692
 20
5.6806320517
 10
8.0751242623
 20
5.6851590794
 10
8.0829868914
 20
5.6911736367
 10
8.0909526753
 20
5.6957721858
 10
8.0988153044
 20
5.6988356269
 10
8.1063711407
 20
5.7002846183
 10
8.113424492
 20
5.7000816319
 10
8.1197926803
 20
5.698231925
 10
8.1253107728
 20
5.6947834041
 10
8.1298358538
 20
5.6898253839
 10
8.1332507261
 20
5.6834862747
 10
8.1354669463
 20
5.675930256
 10
8.1364271155
 20
5.6673530247
 10
8.1361063657
 20
5.6579767266
 10
8.1345521294
 20
5.6482236072
  0
LWPOLYLINE
  5
248
330
1F
100
AcDbEntity
  8
0
  6
Continuous
 62
     7
370
     0
100
AcDbPolyline
 90
       42
 70
   128
 43
0.0
 10
7.5096106935
 20
5.6407219683
 10
7.5095991129
 20
5.6407286548
 10
7.4988579717
 20
5.6479459279
 10
7.4890616131
 20
5.6566404144
 10
7.4802704349
 20
5.6667585101
 10
7.4725386376
 20
5.6782378334
 10
7.4659138904
 20
5.6910076104
 10
7.460437037
 20
5.7049891114
 10
7.456141844
 20
5.7200961356
 10
7.4530547928
 20
5.7362355433
 10
7.4511949159
 20
5.7533078296
 10
7.4505736803
 20
5.7712077382
 10
7.4511949159
 20
5.7898249102
 10
7.4530547928
 20
5.8090445646
 10
7.456141844
 20
5.8287482058
 10
7.460437037
 20
5.8488143543
 10
7.4659138904
 20
5.8691192956
 10
7.4725386376
 20
5.889537843
 10
7.4802704349
 20
5.9099441094
 10
7.4890616131
 20
5.9302122833
 10
7.4988579717
 20
5.9502174048
 10
7.5095991129
 20
5.9698361355
 10
7.521218814
 20
5.9889475196
 10
7.5336454356
 20
6.0074337289
 10
7.5468023636
 20
6.0251807899
 10
7.560608481
 20
6.0420792859
 10
7.5749786686
 20
6.0580250322
 10
7.5898243294
 20
6.0729197179
 10
7.605053935
 20
6.0866715124
 10
7.6205735897
 20
6.0991956312
 10
7.6362876097
 20
6.110414859
 10
7.6520991129
 20
6.1202600255
 10
7.6679106161
 20
6.128670432
 10
7.6836246362
 20
6.1355942256
 10
7.6991442909
 20
6.1409887187
 10
7.7143738964
 20
6.1448206525
 10
7.7292195572
 20
6.1470664019
 10
7.7435897448
 20
6.147712121
 10
7.7573958622
 20
6.1467538289
 10
7.7705527902
 20
6.1441974336
 10
7.7829794118
 20
6.1400586962
 10
7.7945875323
 20
6.1343698199
  0
LWPOLYLINE
  5
249
330
1F
100
AcDbEntity
  8
0
  6
Continuous
 62
     7
370
     0
100
AcDbPolyline
 90
       29
 70
   128
 43
0.0
 10
7.8571600795
 20
5.9324748803
 10
7.843917173
 20
5.9241123341
 10
7.8307906457
 20
5.9143881203
 10
7.8178958539
 20
5.9033876956
 10
7.8053461176
 20
5.8912077321
 10
7.7932517242
 20
5.8779552678
 10
7.7817189597
 20
5.8637467658
 10
7.7708491745
 20
5.8487070909
 10
7.7607378926
 20
5.8329684124
 10
7.7514739724
 20
5.8166690423
 10
7.7431388255
 20
5.79995222
 10
7.7358057015
 20
5.7829648537
 10
7.7295390441
 20
5.7658562288
 10
7.724393925
 20
5.7487766967
 10
7.7204155595
 20
5.7318763527
 10
7.7176389099
 20
5.7153037179
 10
7.7160883773
 20
5.699204433
 10
7.7157775879
 20
5.6837199792
 10
7.7167092729
 20
5.6689864344
 10
7.7188752447
 20
5.6551332776
 10
7.7222564685
 20
5.6422822507
 10
7.7268232302
 20
5.6305462891
 10
7.7325353967
 20
5.6200285288
 10
7.7393427695
 20
5.6108214003
 10
7.747185525
 20
5.6030058161
 10
7.7559947408
 20
5.5966504599
 10
7.7656930013
 20
5.5918111827
 10
7.7761950778
 20
5.5885305124
 10
7.7837672939
 20
5.5872029201
  0
ARC
  5
24A
330
1F
100
AcDbEntity
  8
0
  6
Continuous
 62
     7
370
     0
100
AcDbCircle
 10
7.9145782165
 20
5.8563941719
 30
0.0
 40
0.095315878241243
100
AcDbArc
 50
59.0377188664
 51
127.0418676053
  0
ARC
  5
24B
330
1F
100
AcDbEntity
  8
0
  6
Continuous
 62
     7
370
     0
100
AcDbCircle
 10
8.0876448825
 20
5.6706334103
 30
0.0
 40
0.0197542851368537
100
AcDbArc
 50
19.8571269342
 51
115.0064662735
  0
ARC
  5
24C
330
1F
100
AcDbEntity
  8
0
  6
Continuous
 62
     7
370
     0
100
AcDbCircle
 10
7.7857639866
 20
5.6638149195
 30
0.0
 40
0.0731166149609442
100
AcDbArc
 50
243.9855300567
 51
268.4351534101
  0
LWPOLYLINE
  5
24D
330
1F
100
AcDbEntity
  8
0
  6
Continuous
 62
     7
370
     0
100
AcDbPolyline
 90
        3
 70
   128
 43
0.0
 10
7.9624314815
 20
5.9372992514
 10
7.9557751187
 20
5.9427736647
 10
7.9535539145
 20
5.9443092383
  0
LWPOLYLINE
  5
24E
330
1F
100
AcDbEntity
  8
0
  6
Continuous
 62
     7
370
     0
100
AcDbPolyline
 90
       29
 70
   128
 43
0.0
 10
7.8571600795
 20
5.9283921762
 10
7.8440531988
 20
5.9201047499
 10
7.831065016
 20
5.9104504053
 10
7.8183131542
 20
5.8995165738
 10
7.8059130961
 20
5.8874022738
 10
7.7939771387
 20
5.8742172143
 10
7.7826133758
 20
5.8600808012
 10
7.7719247193
 20
5.8451210561
 10
7.7620079675
 20
5.8294734568
 10
7.7529529279
 20
5.8132797103
 10
7.7448416045
 20
5.7966864697
 10
7.7377474545
 20
5.779844006
 10
7.7317347238
 20
5.7629048471
 10
7.7268578645
 20
5.7460223967
 10
7.7231610422
 20
5.7293495448
 10
7.720677736
 20
5.7130372835
 10
7.719430435
 20
5.6972333389
 10
7.719430435
 20
5.6820808342
 10
7.720677736
 20
5.6677169928
 10
7.7231610422
 20
5.6542718957
 10
7.7268578645
 20
5.641867304
 10
7.7317347238
 20
5.6306155554
 10
7.7377474545
 20
5.6206185477
 10
7.7448416045
 20
5.6119668152
 10
7.7529529279
 20
5.6047387093
 10
7.7620079675
 20
5.598999689
 10
7.7719247193
 20
5.5948017276
 10
7.7826133758
 20
5.5921828426
 10
7.7837672939
 20
5.5920019442
  0
ARC
  5
24F
330
1F
100
AcDbEntity
  8
0
  6
Continuous
 62
     7
370
     0
100
AcDbCircle
 10
7.913504726
 20
5.8513231982
 30
0.0
 40
0.0954690869468916
100
AcDbArc
 50
61.3231091587
 51
126.170303558
  0
ARC
  5
250
330
1F
100
AcDbEntity
  8
0
  6
Continuous
 62
     7
370
     0
100
AcDbCircle
 10
7.7889176847
 20
5.6656844895
 30
0.0
 40
0.0712654043566721
100
AcDbArc
 50
208.6892580211
 51
239.3591666126
  0
ARC
  5
251
330
1F
100
AcDbEntity
  8
0
  6
Continuous
 62
     7
370
     0
100
AcDbCircle
 10
7.9125010883
 20
5.8794294093
 30
0.0
 40
0.071845359002893
100
AcDbArc
 50
60.7730023711
 51
91.1893260516
  0
ARC
  5
252
330
1F
100
AcDbEntity
  8
0
  6
Continuous
 62
     7
370
     0
100
AcDbCircle
 10
7.8568811281
 20
5.7693277531
 30
0.0
 40
0.406715230541725
100
AcDbArc
 50
122.5712966593
 51
177.4340798734
  0
LINE
  5
253
330
1F
100
AcDbEntity
  8
0
  6
Continuous
 62
     7
370
     0
100
AcDbLine
 10
2.7649587781
 20
4.0356638085
 30
0.0
 11
2.7649587781
 21
4.9306638085
 31
0.0
  0
LINE
  5
254
330
1F
100
AcDbEntity
  8
0
  6
Continuous
 62
     7
370
     0
100
AcDbLine
 10
1.7809587781
 20
4.9306638085
 30
0.0
 11
1.7809587781
 21
4.0356638085
 31
0.0
  0
LINE
  5
255
330
1F
100
AcDbEntity
  8
0
  6
Continuous
 62
     7
370
     0
100
AcDbLine
 10
2.7649587781
 20
4.9306638085
 30
0.0
 11
2.6783562377
 21
5.0806638085
 31
0.0
  0
LINE
  5
256
330
1F
100
AcDbEntity
  8
0
  6
Continuous
 62
     7
370
     0
100
AcDbLine
 10
1.8675613184
 20
5.0806638085
 30
0.0
 11
1.7809587781
 21
4.9306638085
 31
0.0
  0
LINE
  5
257
330
1F
100
AcDbEntity
  8
0
  6
Continuous
 62
     7
370
     0
100
AcDbLine
 10
1.7809587781
 20
4.0356638085
 30
0.0
 11
1.8059587781
 21
4.0106638085
 31
0.0
  0
LINE
  5
258
330
1F
100
AcDbEntity
  8
0
  6
Continuous
 62
     7
370
     0
100
AcDbLine
 10
2.7399587781
 20
4.0106638085
 30
0.0
 11
2.7649587781
 21
4.0356638085
 31
0.0
  0
LINE
  5
259
330
1F
100
AcDbEntity
  8
0
  6
Continuous
 62
     7
370
     0
100
AcDbLine
 10
1.7809587781
 20
3.7286638085
 30
0.0
 11
1.7809587781
 21
3.5786638085
 31
0.0
  0
LINE
  5
25A
330
1F
100
AcDbEntity
  8
0
  6
Continuous
 62
     7
370
     0
100
AcDbLine
 10
2.7649587781
 20
3.5786638085
 30
0.0
 11
2.7649587781
 21
3.7286638085
 31
0.0
  0
LINE
  5
25B
330
1F
100
AcDbEntity
  8
0
  6
Continuous
 62
     7
370
     0
100
AcDbLine
 10
1.8782087781
 20
4.0106638085
 30
0.0
 11
1.8782087781
 21
4.0066638085
 31
0.0
  0
LINE
  5
25C
330
1F
100
AcDbEntity
  8
0
  6
Continuous
 62
     7
370
     0
100
AcDbLine
 10
2.6677087781
 20
4.0066638085
 30
0.0
 11
2.6677087781
 21
4.0106638085
 31
0.0
  0
LINE
  5
25D
330
1F
100
AcDbEntity
  8
0
  6
Continuous
 62
     7
370
     0
100
AcDbLine
 10
2.2729587781
 20
4.0356638085
 30
0.0
 11
2.7649587781
 21
4.0356638085
 31
0.0
  0
LINE
  5
25E
330
1F
100
AcDbEntity
  8
0
  6
Continuous
 62
     7
370
     0
100
AcDbLine
 10
1.7809587781
 20
4.0356638085
 30
0.0
 11
2.2729587781
 21
4.0356638085
 31
0.0
  0
LINE
  5
25F
330
1F
100
AcDbEntity
  8
0
  6
Continuous
 62
     7
370
     0
100
AcDbLine
 10
2.0442121934
 20
4.9306638085
 30
0.0
 11
1.7809587781
 21
4.9306638085
 31
0.0
  0
LINE
  5
260
330
1F
100
AcDbEntity
  8
0
  6
Continuous
 62
     7
370
     0
100
AcDbLine
 10
2.7649587781
 20
4.9306638085
 30
0.0
 11
2.5017053627
 21
4.9306638085
 31
0.0
  0
LINE
  5
261
330
1F
100
AcDbEntity
  8
0
  6
Continuous
 62
     7
370
     0
100
AcDbLine
 10
2.2729587781
 20
5.0806638085
 30
0.0
 11
2.6783562377
 21
5.0806638085
 31
0.0
  0
LINE
  5
262
330
1F
100
AcDbEntity
  8
0
  6
Continuous
 62
     7
370
     0
100
AcDbLine
 10
1.8675613184
 20
5.0806638085
 30
0.0
 11
2.2729587781
 21
5.0806638085
 31
0.0
  0
LINE
  5
263
330
1F
100
AcDbEntity
  8
0
  6
Continuous
 62
     7
370
     0
100
AcDbLine
 10
2.2729587781
 20
4.0106638085
 30
0.0
 11
1.8059587781
 21
4.0106638085
 31
0.0
  0
LINE
  5
264
330
1F
100
AcDbEntity
  8
0
  6
Continuous
 62
     7
370
     0
100
AcDbLine
 10
2.7399587781
 20
4.0106638085
 30
0.0
 11
2.2729587781
 21
4.0106638085
 31
0.0
  0
LINE
  5
265
330
1F
100
AcDbEntity
  8
0
  6
Continuous
 62
     7
370
     0
100
AcDbLine
 10
1.7809587781
 20
3.5786638085
 30
0.0
 11
2.7649587781
 21
3.5786638085
 31
0.0
  0
LINE
  5
266
330
1F
100
AcDbEntity
  8
0
  6
Continuous
 62
     7
370
     0
100
AcDbLine
 10
1.7809587781
 20
3.7286638085
 30
0.0
 11
2.7649587781
 21
3.7286638085
 31
0.0
  0
LINE
  5
267
330
1F
100
AcDbEntity
  8
0
  6
Continuous
 62
     7
370
     0
100
AcDbLine
 10
1.7809587781
 20
4.0066638085
 30
0.0
 11
1.7809587781
 21
3.7286638085
 31
0.0
  0
LINE
  5
268
330
1F
100
AcDbEntity
  8
0
  6
Continuous
 62
     7
370
     0
100
AcDbLine
 10
2.7649587781
 20
4.0066638085
 30
0.0
 11
2.7649587781
 21
3.9011638085
 31
0.0
  0
SPLINE
  5
269
330
1F
100
AcDbEntity
  8
0
  6
Continuous
 62
     7
370
     0
100
AcDbSpline
210
0.0
220
0.0
230
1.0
 70
     8
 71
     3
 72
    17
 73
    13
 74
     0
 42
0.00000001
 43
0.00000001
 40
0.0
 40
0.0
 40
0.0
 40
0.0
 40
0.1072028223541184
 40
0.2143996562184861
 40
0.3217520362771945
 40
0.429207266928231
 40
0.5364929531126958
 40
0.6436012507253207
 40
0.7508011422587004
 40
0.8582184677951125
 40
0.9656401968878036
 40
1.0
 40
1.0
 40
1.0
 40
1.0
 10
2.764958778062165
 20
3.834163808452396
 30
0.0
 10
2.764932902105374
 20
3.834533319433482
 30
0.0
 10
2.76488115163726
 20
3.835272320754289
 30
0.0
 10
2.764521257625697
 20
3.841032143884811
 30
0.0
 10
2.764120502522037
 20
3.849521279517412
 30
0.0
 10
2.76383168741837
 20
3.860134373212713
 30
0.0
 10
2.763788295206636
 20
3.871572641908525
 30
0.0
 10
2.764006805756333
 20
3.882561505473463
 30
0.0
 10
2.764392422808697
 20
3.89188473139823
 30
0.0
 10
2.764774176803038
 20
3.898456325154358
 30
0.0
 10
2.764944965735015
 20
3.900959606871266
 30
0.0
 10
2.764956083698343
 20
3.901123974951019
 30
0.0
 10
2.764958778062165
 20
3.901163808452396
 30
0.0
  0
LINE
  5
26A
330
1F
100
AcDbEntity
  8
0
  6
Continuous
 62
     7
370
     0
100
AcDbLine
 10
2.7649587781
 20
3.8341638085
 30
0.0
 11
2.7649587781
 21
3.7286638085
 31
0.0
  0
LINE
  5
26B
330
1F
100
AcDbEntity
  8
0
  6
Continuous
 62
     7
370
     0
100
AcDbLine
 10
1.7809587781
 20
4.0066638085
 30
0.0
 11
2.7649587781
 21
4.0066638085
 31
0.0
  0
LINE
  5
26C
330
1F
100
AcDbEntity
  8
0
  6
Continuous
 62
     7
370
     0
100
AcDbLine
 10
1.7809587781
 20
3.7286638085
 30
0.0
 11
1.7809587781
 21
3.6566638085
 31
0.0
  0
LINE
  5
26D
330
1F
100
AcDbEntity
  8
0
  6
Continuous
 62
     7
370
     0
100
AcDbLine
 10
2.7649587781
 20
3.7286638085
 30
0.0
 11
2.7649587781
 21
3.6566638085
 31
0.0
  0
LINE
  5
26E
330
1F
100
AcDbEntity
  8
0
  6
Continuous
 62
     7
370
     0
100
AcDbLine
 10
1.7809587781
 20
3.5766638085
 30
0.0
 11
2.1404587781
 21
3.5766638085
 31
0.0
  0
LINE
  5
26F
330
1F
100
AcDbEntity
  8
0
  6
Continuous
 62
     7
370
     0
100
AcDbLine
 10
2.1404587781
 20
3.5786638085
 30
0.0
 11
2.1404587781
 21
3.5766638085
 31
0.0
  0
LINE
  5
270
330
1F
100
AcDbEntity
  8
0
  6
Continuous
 62
     7
370
     0
100
AcDbLine
 10
1.7809587781
 20
3.6566638085
 30
0.0
 11
1.7809587781
 21
3.5766638085
 31
0.0
  0
LINE
  5
271
330
1F
100
AcDbEntity
  8
0
  6
Continuous
 62
     7
370
     0
100
AcDbLine
 10
2.4054587781
 20
3.5766638085
 30
0.0
 11
2.7649587781
 21
3.5766638085
 31
0.0
  0
LINE
  5
272
330
1F
100
AcDbEntity
  8
0
  6
Continuous
 62
     7
370
     0
100
AcDbLine
 10
2.4054587781
 20
3.5786638085
 30
0.0
 11
2.4054587781
 21
3.5766638085
 31
0.0
  0
LINE
  5
273
330
1F
100
AcDbEntity
  8
0
  6
Continuous
 62
     7
370
     0
100
AcDbLine
 10
2.7649587781
 20
3.6566638085
 30
0.0
 11
2.7649587781
 21
3.5766638085
 31
0.0
  0
CIRCLE
  5
274
330
1F
100
AcDbEntity
  8
0
  6
Continuous
 62
     7
370
     0
100
AcDbCircle
 10
2.2729587781
 20
4.7606638085
 30
0.0
 40
0.0541000000000006
  0
LINE
  5
275
330
1F
100
AcDbEntity
  8
0
  6
Continuous
 62
     7
370
     0
100
AcDbLine
 10
2.2774751761
 20
4.7964644437
 30
0.0
 11
2.2442127175
 21
4.7824754415
 31
0.0
  0
LINE
  5
276
330
1F
100
AcDbEntity
  8
0
  6
Continuous
 62
     7
370
     0
100
AcDbLine
 10
2.2396963195
 20
4.7466748062
 30
0.0
 11
2.2442127175
 21
4.7824754415
 31
0.0
  0
LINE
  5
277
330
1F
100
AcDbEntity
  8
0
  6
Continuous
 62
     7
370
     0
100
AcDbLine
 10
2.2684423801
 20
4.7248631732
 30
0.0
 11
2.2396963195
 21
4.7466748062
 31
0.0
  0
LINE
  5
278
330
1F
100
AcDbEntity
  8
0
  6
Continuous
 62
     7
370
     0
100
AcDbLine
 10
2.2684423801
 20
4.7248631732
 30
0.0
 11
2.3017048386
 21
4.7388521754
 31
0.0
  0
LINE
  5
279
330
1F
100
AcDbEntity
  8
0
  6
Continuous
 62
     7
370
     0
100
AcDbLine
 10
2.3062212366
 20
4.7746528107
 30
0.0
 11
2.3017048386
 21
4.7388521754
 31
0.0
  0
LINE
  5
27A
330
1F
100
AcDbEntity
  8
0
  6
Continuous
 62
     7
370
     0
100
AcDbLine
 10
2.3062212366
 20
4.7746528107
 30
0.0
 11
2.2774751761
 21
4.7964644437
 31
0.0
  0
SPLINE
  5
27B
330
1F
100
AcDbEntity
  8
0
  6
Continuous
 62
     7
370
     0
100
AcDbSpline
210
0.0
220
0.0
230
1.0
 70
    24
 71
     3
 72
    13
 73
     9
 74
     0
 42
0.00000001
 43
0.00000001
 40
0.0
 40
0.0
 40
0.0
 40
0.0
 40
0.1383531952652877
 40
0.3091502397468049
 40
0.4850426048801497
 40
0.6480759479697052
 40
0.8167772014586034
 40
1.0
 40
1.0
 40
1.0
 40
1.0
 10
2.216132964165547
 20
4.859089005302789
 30
0.0
 10
2.221082935529492
 20
4.859089005302789
 30
0.0
 10
2.23214364743404
 20
4.859089005302788
 30
0.0
 10
2.250529001763456
 20
4.85908900530279
 30
0.0
 10
2.270660396022938
 20
4.859089005302789
 30
0.0
 10
2.290784210402806
 20
4.85908900530279
 30
0.0
 10
2.31056458008781
 20
4.859089005302788
 30
0.0
 10
2.323204072314059
 20
4.859089005302788
 30
0.0
 10
2.329784591958781
 20
4.859089005302789
 30
0.0
  0
SPLINE
  5
27C
330
1F
100
AcDbEntity
  8
0
  6
Continuous
 62
     7
370
     0
100
AcDbSpline
210
0.0
220
0.0
230
1.0
 70
    24
 71
     3
 72
    15
 73
    11
 74
     0
 42
0.00000001
 43
0.00000001
 40
0.0
 40
0.0
 40
0.0
 40
0.0
 40
0.1077864249424403
 40
0.216169103219385
 40
0.3273133803425808
 40
0.4399575567902567
 40
0.5934881890594605
 40
0.7521499596953911
 40
0.8755072857156193
 40
1.0
 40
1.0
 40
1.0
 40
1.0
 10
2.159307150268931
 20
4.760663808452396
 30
0.0
 10
2.161230961516778
 20
4.76399594727784
 30
0.0
 10
2.165089226158476
 20
4.770678657666306
 30
0.0
 10
2.171172117103226
 20
4.781214533839513
 30
0.0
 10
2.177532127665922
 20
4.792230395270778
 30
0.0
 10
2.18494198344162
 20
4.805064641951045
 30
0.0
 10
2.19339521901872
 20
4.819706075458931
 30
0.0
 10
2.201866878853626
 20
4.834379420717429
 30
0.0
 10
2.209477487802789
 20
4.847561382093917
 30
0.0
 10
2.213907707175734
 20
4.855234747136535
 30
0.0
 10
2.216132964165547
 20
4.859089005302789
 30
0.0
  0
SPLINE
  5
27D
330
1F
100
AcDbEntity
  8
0
  6
Continuous
 62
     7
370
     0
100
AcDbSpline
210
0.0
220
0.0
230
1.0
 70
    24
 71
     3
 72
    15
 73
    11
 74
     0
 42
0.00000001
 43
0.00000001
 40
0.0
 40
0.0
 40
0.0
 40
0.0
 40
0.1077864249424407
 40
0.2161691032193872
 40
0.3273133803425828
 40
0.4399575567902584
 40
0.5934881890594619
 40
0.752149959695391
 40
0.8755072857156202
 40
0.9999999999999999
 40
0.9999999999999999
 40
0.9999999999999999
 40
0.9999999999999999
 10
2.216132964165547
 20
4.662238611602002
 30
0.0
 10
2.214209152917701
 20
4.665570750427445
 30
0.0
 10
2.210350888276002
 20
4.672253460815913
 30
0.0
 10
2.204267997331253
 20
4.68278933698912
 30
0.0
 10
2.197907986768556
 20
4.693805198420384
 30
0.0
 10
2.190498130992859
 20
4.706639445100651
 30
0.0
 10
2.182044895415759
 20
4.721280878608537
 30
0.0
 10
2.173573235580852
 20
4.735954223867035
 30
0.0
 10
2.16596262663169
 20
4.749136185243525
 30
0.0
 10
2.161532407258744
 20
4.756809550286142
 30
0.0
 10
2.159307150268931
 20
4.760663808452396
 30
0.0
  0
SPLINE
  5
27E
330
1F
100
AcDbEntity
  8
0
  6
Continuous
 62
     7
370
     0
100
AcDbSpline
210
0.0
220
0.0
230
1.0
 70
    24
 71
     3
 72
    13
 73
     9
 74
     0
 42
0.00000001
 43
0.00000001
 40
0.0
 40
0.0
 40
0.0
 40
0.0
 40
0.1832225058207772
 40
0.3465962878707576
 40
0.5149510811252554
 40
0.6853051769887035
 40
0.8616470257715426
 40
1.0
 40
1.0
 40
1.0
 40
1.0
 10
2.329784591958781
 20
4.662238611602002
 30
0.0
 10
2.323203873381782
 20
4.662238611602002
 30
0.0
 10
2.310755333721807
 20
4.662238611602002
 30
0.0
 10
2.290997247230551
 20
4.662238611602001
 30
0.0
 10
2.271089256085325
 20
4.662238611602002
 30
0.0
 10
2.250748634527214
 20
4.662238611602002
 30
0.0
 10
2.232341566630988
 20
4.662238611602001
 30
0.0
 10
2.221082791474814
 20
4.662238611602002
 30
0.0
 10
2.216132964165547
 20
4.662238611602002
 30
0.0
  0
SPLINE
  5
27F
330
1F
100
AcDbEntity
  8
0
  6
Continuous
 62
     7
370
     0
100
AcDbSpline
210
0.0
220
0.0
230
1.0
 70
    24
 71
     3
 72
    15
 73
    11
 74
     0
 42
0.00000001
 43
0.00000001
 40
0.0
 40
0.0
 40
0.0
 40
0.0
 40
0.1077864249424405
 40
0.2161691032193859
 40
0.3273133803425822
 40
0.4399575567902586
 40
0.5934881890594614
 40
0.7521499596953922
 40
0.8755072857156211
 40
0.9999999999999999
 40
0.9999999999999999
 40
0.9999999999999999
 40
0.9999999999999999
 10
2.386610405855398
 20
4.760663808452396
 30
0.0
 10
2.384686594607551
 20
4.757331669626952
 30
0.0
 10
2.380828329965852
 20
4.750648959238483
 30
0.0
 10
2.374745439021103
 20
4.740113083065278
 30
0.0
 10
2.368385428458406
 20
4.729097221634013
 30
0.0
 10
2.360975572682709
 20
4.716262974953747
 30
0.0
 10
2.352522337105609
 20
4.70162154144586
 30
0.0
 10
2.344050677270702
 20
4.686948196187362
 30
0.0
 10
2.33644006832154
 20
4.673766234810874
 30
0.0
 10
2.332009848948594
 20
4.666092869768256
 30
0.0
 10
2.329784591958781
 20
4.662238611602002
 30
0.0
  0
SPLINE
  5
280
330
1F
100
AcDbEntity
  8
0
  6
Continuous
 62
     7
370
     0
100
AcDbSpline
210
0.0
220
0.0
230
1.0
 70
    24
 71
     3
 72
    15
 73
    11
 74
     0
 42
0.00000001
 43
0.00000001
 40
0.0
 40
0.0
 40
0.0
 40
0.0
 40
0.1077864249424392
 40
0.2161691032193859
 40
0.3273133803425809
 40
0.4399575567902584
 40
0.5934881890594608
 40
0.7521499596953911
 40
0.87550728571562
 40
1.0
 40
1.0
 40
1.0
 40
1.0
 10
2.329784591958781
 20
4.859089005302789
 30
0.0
 10
2.331708403206628
 20
4.855756866477345
 30
0.0
 10
2.335566667848326
 20
4.849074156088878
 30
0.0
 10
2.341649558793075
 20
4.838538279915672
 30
0.0
 10
2.348009569355772
 20
4.827522418484407
 30
0.0
 10
2.35541942513147
 20
4.814688171804139
 30
0.0
 10
2.36387266070857
 20
4.800046738296255
 30
0.0
 10
2.372344320543476
 20
4.785373393037756
 30
0.0
 10
2.379954929492639
 20
4.772191431661267
 30
0.0
 10
2.384385148865585
 20
4.764518066618649
 30
0.0
 10
2.386610405855398
 20
4.760663808452396
 30
0.0
  0
CIRCLE
  5
281
330
1F
100
AcDbEntity
  8
0
  6
Continuous
 62
     7
370
     0
100
AcDbCircle
 10
2.2729587781
 20
4.7606638085
 30
0.0
 40
0.1200000000000001
  0
LINE
  5
282
330
1F
100
AcDbEntity
  8
0
  6
Continuous
 62
     7
370
     0
100
AcDbLine
 10
2.359924672
 20
4.6208681224
 30
0.0
 11
2.3802084932
 21
4.6133206541
 31
0.0
  0
LINE
  5
283
330
1F
100
AcDbEntity
  8
0
  6
Continuous
 62
     7
370
     0
100
AcDbLine
 10
2.354442077
 20
4.6168095781
 30
0.0
 11
2.359924672
 21
4.6208681224
 31
0.0
  0
LINE
  5
284
330
1F
100
AcDbEntity
  8
0
  6
Continuous
 62
     7
370
     0
100
AcDbLine
 10
2.379754577
 20
4.6077579563
 30
0.0
 11
2.354442077
 21
4.6168095781
 31
0.0
  0
LINE
  5
285
330
1F
100
AcDbEntity
  8
0
  6
Continuous
 62
     7
370
     0
100
AcDbLine
 10
2.3804310011
 20
4.5805051873
 30
0.0
 11
2.379754577
 21
4.6077579563
 31
0.0
  0
LINE
  5
286
330
1F
100
AcDbEntity
  8
0
  6
Continuous
 62
     7
370
     0
100
AcDbLine
 10
2.3860025992
 20
4.5846260338
 30
0.0
 11
2.3804310011
 21
4.5805051873
 31
0.0
  0
LINE
  5
287
330
1F
100
AcDbEntity
  8
0
  6
Continuous
 62
     7
370
     0
100
AcDbLine
 10
2.3848277574
 20
4.6066276161
 30
0.0
 11
2.3860025992
 21
4.5846260338
 31
0.0
  0
LINE
  5
288
330
1F
100
AcDbEntity
  8
0
  6
Continuous
 62
     7
370
     0
100
AcDbLine
 10
2.4056633982
 20
4.5991780512
 30
0.0
 11
2.3848277574
 21
4.6066276161
 31
0.0
  0
LINE
  5
289
330
1F
100
AcDbEntity
  8
0
  6
Continuous
 62
     7
370
     0
100
AcDbLine
 10
2.4111904948
 20
4.6032721968
 30
0.0
 11
2.4056633982
 21
4.5991780512
 31
0.0
  0
LINE
  5
28A
330
1F
100
AcDbEntity
  8
0
  6
Continuous
 62
     7
370
     0
100
AcDbLine
 10
2.3852905739
 20
4.6121903139
 30
0.0
 11
2.4111904948
 21
4.6032721968
 31
0.0
  0
LINE
  5
28B
330
1F
100
AcDbEntity
  8
0
  6
Continuous
 62
     7
370
     0
100
AcDbLine
 10
2.3846319505
 20
4.6391582727
 30
0.0
 11
2.3852905739
 21
4.6121903139
 31
0.0
  0
LINE
  5
28C
330
1F
100
AcDbEntity
  8
0
  6
Continuous
 62
     7
370
     0
100
AcDbLine
 10
2.3790692527
 20
4.6350374262
 30
0.0
 11
2.3846319505
 21
4.6391582727
 31
0.0
  0
LINE
  5
28D
330
1F
100
AcDbEntity
  8
0
  6
Continuous
 62
     7
370
     0
100
AcDbLine
 10
2.3802084932
 20
4.6133206541
 30
0.0
 11
2.3790692527
 21
4.6350374262
 31
0.0
  0
LINE
  5
28E
330
1F
100
AcDbEntity
  8
0
  6
Continuous
 62
     7
370
     0
100
AcDbLine
 10
2.3191800381
 20
4.5851835678
 30
0.0
 11
2.3156733134
 21
4.6022721754
 31
0.0
  0
LINE
  5
28F
330
1F
100
AcDbEntity
  8
0
  6
Continuous
 62
     7
370
     0
100
AcDbLine
 10
2.296395228
 20
4.5805109016
 30
0.0
 11
2.3191800381
 21
4.5851835678
 31
0.0
  0
LINE
  5
290
330
1F
100
AcDbEntity
  8
0
  6
Continuous
 62
     7
370
     0
100
AcDbLine
 10
2.2928885033
 20
4.5975995092
 30
0.0
 11
2.296395228
 21
4.5805109016
 31
0.0
  0
LINE
  5
291
330
1F
100
AcDbEntity
  8
0
  6
Continuous
 62
     7
370
     0
100
AcDbLine
 10
2.2871923007
 20
4.5964246674
 30
0.0
 11
2.2928885033
 21
4.5975995092
 31
0.0
  0
LINE
  5
292
330
1F
100
AcDbEntity
  8
0
  6
Continuous
 62
     7
370
     0
100
AcDbLine
 10
2.296199421
 20
4.5525639079
 30
0.0
 11
2.2871923007
 21
4.5964246674
 31
0.0
  0
LINE
  5
293
330
1F
100
AcDbEntity
  8
0
  6
Continuous
 62
     7
370
     0
100
AcDbLine
 10
2.3018956235
 20
4.5537387497
 30
0.0
 11
2.296199421
 21
4.5525639079
 31
0.0
  0
LINE
  5
294
330
1F
100
AcDbEntity
  8
0
  6
Continuous
 62
     7
370
     0
100
AcDbLine
 10
2.2974543656
 20
4.5753843193
 30
0.0
 11
2.3018956235
 21
4.5537387497
 31
0.0
  0
LINE
  5
295
330
1F
100
AcDbEntity
  8
0
  6
Continuous
 62
     7
370
     0
100
AcDbLine
 10
2.3202391757
 20
4.5800569855
 30
0.0
 11
2.2974543656
 21
4.5753843193
 31
0.0
  0
LINE
  5
296
330
1F
100
AcDbEntity
  8
0
  6
Continuous
 62
     7
370
     0
100
AcDbLine
 10
2.3246804337
 20
4.5584114159
 30
0.0
 11
2.3202391757
 21
4.5800569855
 31
0.0
  0
LINE
  5
297
330
1F
100
AcDbEntity
  8
0
  6
Continuous
 62
     7
370
     0
100
AcDbLine
 10
2.3303766362
 20
4.5595862576
 30
0.0
 11
2.3246804337
 21
4.5584114159
 31
0.0
  0
LINE
  5
298
330
1F
100
AcDbEntity
  8
0
  6
Continuous
 62
     7
370
     0
100
AcDbLine
 10
2.3213695159
 20
4.6034470171
 30
0.0
 11
2.3303766362
 21
4.5595862576
 31
0.0
  0
LINE
  5
299
330
1F
100
AcDbEntity
  8
0
  6
Continuous
 62
     7
370
     0
100
AcDbLine
 10
2.3156733134
 20
4.6022721754
 30
0.0
 11
2.3213695159
 21
4.6034470171
 31
0.0
  0
SPLINE
  5
29A
330
1F
100
AcDbEntity
  8
0
  6
Continuous
 62
     7
370
     0
100
AcDbSpline
210
0.0
220
0.0
230
1.0
 70
     8
 71
     3
 72
     9
 73
     5
 74
     0
 42
0.00000001
 43
0.00000001
 40
0.0
 40
0.0
 40
0.0
 40
0.0
 40
0.560729206390967
 40
1.0
 40
1.0
 40
1.0
 40
1.0
 10
2.187711165747736
 20
4.603154664088552
 30
0.0
 10
2.190257171108406
 20
4.603538809467985
 30
0.0
 10
2.194797696787561
 20
4.604223891277629
 30
0.0
 10
2.19901381560873
 20
4.602473019389903
 30
0.0
 10
2.200865833469254
 20
4.601703912506274
 30
0.0
  0
SPLINE
  5
29B
330
1F
100
AcDbEntity
  8
0
  6
Continuous
 62
     7
370
     0
100
AcDbSpline
210
0.0
220
0.0
230
1.0
 70
     8
 71
     3
 72
    10
 73
     6
 74
     0
 42
0.00000001
 43
0.00000001
 40
0.0
 40
0.0
 40
0.0
 40
0.0
 40
0.2815201925109389
 40
0.5625297880448037
 40
1.0
 40
1.0
 40
1.0
 40
1.0
 10
2.182068365114824
 20
4.612126183075893
 30
0.0
 10
2.182951783825113
 20
4.611569288412602
 30
0.0
 10
2.18471701897724
 20
4.610456509133392
 30
0.0
 10
2.187214369924831
 20
4.607528238168742
 30
0.0
 10
2.187523152970117
 20
4.604809846706899
 30
0.0
 10
2.187711165747736
 20
4.603154664088552
 30
0.0
  0
SPLINE
  5
29C
330
1F
100
AcDbEntity
  8
0
  6
Continuous
 62
     7
370
     0
100
AcDbSpline
210
0.0
220
0.0
230
1.0
 70
     8
 71
     3
 72
     9
 73
     5
 74
     0
 42
0.00000001
 43
0.00000001
 40
0.0
 40
0.0
 40
0.0
 40
0.0
 40
0.5606379252688979
 40
1.0
 40
1.0
 40
1.0
 40
1.0
 10
2.170533554988242
 20
4.613559134025261
 30
0.0
 10
2.172769401686933
 20
4.613840318274121
 30
0.0
 10
2.176757442092188
 20
4.614341861669932
 30
0.0
 10
2.180447217664209
 20
4.612802514042996
 30
0.0
 10
2.182068365114824
 20
4.612126183075893
 30
0.0
  0
LINE
  5
29D
330
1F
100
AcDbEntity
  8
0
  6
Continuous
 62
     7
370
     0
100
AcDbLine
 10
2.1723136183
 20
4.6167810486
 30
0.0
 11
2.170533555
 21
4.613559134
 31
0.0
  0
LINE
  5
29E
330
1F
100
AcDbEntity
  8
0
  6
Continuous
 62
     7
370
     0
100
AcDbLine
 10
2.167187036
 20
4.6196291498
 30
0.0
 11
2.1723136183
 21
4.6167810486
 31
0.0
  0
LINE
  5
29F
330
1F
100
AcDbEntity
  8
0
  6
Continuous
 62
     7
370
     0
100
AcDbLine
 10
2.1510863635
 20
4.5905785169
 30
0.0
 11
2.167187036
 21
4.6196291498
 31
0.0
  0
LINE
  5
2A0
330
1F
100
AcDbEntity
  8
0
  6
Continuous
 62
     7
370
     0
100
AcDbLine
 10
2.1562129458
 20
4.5877304157
 30
0.0
 11
2.1510863635
 21
4.5905785169
 31
0.0
  0
LINE
  5
2A1
330
1F
100
AcDbEntity
  8
0
  6
Continuous
 62
     7
370
     0
100
AcDbLine
 10
2.1681749711
 20
4.6093047828
 30
0.0
 11
2.1562129458
 21
4.5877304157
 31
0.0
  0
SPLINE
  5
2A2
330
1F
100
AcDbEntity
  8
0
  6
Continuous
 62
     7
370
     0
100
AcDbSpline
210
0.0
220
0.0
230
1.0
 70
     8
 71
     3
 72
     9
 73
     5
 74
     0
 42
0.00000001
 43
0.00000001
 40
0.0
 40
0.0
 40
0.0
 40
0.0
 40
0.5575478592690601
 40
1.0
 40
1.0
 40
1.0
 40
1.0
 10
2.178027621443938
 20
4.608405850797412
 30
0.0
 10
2.176225989966671
 20
4.608972765657737
 30
0.0
 10
2.172994641397547
 20
4.609989566011105
 30
0.0
 10
2.169653337978203
 20
4.609514830501808
 30
0.0
 10
2.168174971127482
 20
4.609304782759438
 30
0.0
  0
SPLINE
  5
2A3
330
1F
100
AcDbEntity
  8
0
  6
Continuous
 62
     7
370
     0
100
AcDbSpline
210
0.0
220
0.0
230
1.0
 70
     8
 71
     3
 72
    10
 73
     6
 74
     0
 42
0.00000001
 43
0.00000001
 40
0.0
 40
0.0
 40
0.0
 40
0.0
 40
0.2796815014044359
 40
0.5592360114418379
 40
1.0
 40
1.0
 40
1.0
 40
1.0
 10
2.181667850874318
 20
4.603475075480957
 30
0.0
 10
2.18161904276789
 20
4.604086013817829
 30
0.0
 10
2.181521448716699
 20
4.605307613090693
 30
0.0
 10
2.180185779683167
 20
4.607117533149014
 30
0.0
 10
2.178846890052315
 20
4.607916786470355
 30
0.0
 10
2.178027621443938
 20
4.608405850797412
 30
0.0
  0
SPLINE
  5
2A4
330
1F
100
AcDbEntity
  8
0
  6
Continuous
 62
     7
370
     0
100
AcDbSpline
210
0.0
220
0.0
230
1.0
 70
     8
 71
     3
 72
     9
 73
     5
 74
     0
 42
0.00000001
 43
0.00000001
 40
0.0
 40
0.0
 40
0.0
 40
0.0
 40
0.5613033928974633
 40
1.0
 40
1.0
 40
1.0
 40
1.0
 10
2.178997755937609
 20
4.596604031177159
 30
0.0
 10
2.179689140473097
 20
4.597817855144049
 30
0.0
 10
2.180920888836347
 20
4.599980364728435
 30
0.0
 10
2.181440082413563
 20
4.60240944583926
 30
0.0
 10
2.181667850874318
 20
4.603475075480957
 30
0.0
  0
LINE
  5
2A5
330
1F
100
AcDbEntity
  8
0
  6
Continuous
 62
     7
370
     0
100
AcDbLine
 10
2.1698838319
 20
4.5801562464
 30
0.0
 11
2.1789977559
 21
4.5966040312
 31
0.0
  0
LINE
  5
2A6
330
1F
100
AcDbEntity
  8
0
  6
Continuous
 62
     7
370
     0
100
AcDbLine
 10
2.1750104142
 20
4.5773170454
 30
0.0
 11
2.1698838319
 21
4.5801562464
 31
0.0
  0
LINE
  5
2A7
330
1F
100
AcDbEntity
  8
0
  6
Continuous
 62
     7
370
     0
100
AcDbLine
 10
2.1852635787
 20
4.595811903
 30
0.0
 11
2.1750104142
 21
4.5773170454
 31
0.0
  0
SPLINE
  5
2A8
330
1F
100
AcDbEntity
  8
0
  6
Continuous
 62
     7
370
     0
100
AcDbSpline
210
0.0
220
0.0
230
1.0
 70
     8
 71
     3
 72
     9
 73
     5
 74
     0
 42
0.00000001
 43
0.00000001
 40
0.0
 40
0.0
 40
0.0
 40
0.0
 40
0.5600087654517653
 40
0.9999999999999999
 40
0.9999999999999999
 40
0.9999999999999999
 40
0.9999999999999999
 10
2.186705429988242
 20
4.59885581124045
 30
0.0
 10
2.186461240722947
 20
4.59827567045725
 30
0.0
 10
2.186025195288734
 20
4.597239720988258
 30
0.0
 10
2.18549629167596
 20
4.596248174691725
 30
0.0
 10
2.185263578722419
 20
4.595811903012603
 30
0.0
  0
SPLINE
  5
2A9
330
1F
100
AcDbEntity
  8
0
  6
Continuous
 62
     7
370
     0
100
AcDbSpline
210
0.0
220
0.0
230
1.0
 70
     8
 71
     3
 72
     9
 73
     5
 74
     0
 42
0.00000001
 43
0.00000001
 40
0.0
 40
0.0
 40
0.0
 40
0.0
 40
0.5574887717256952
 40
1.0
 40
1.0
 40
1.0
 40
1.0
 10
2.196825089798368
 20
4.597992480544248
 30
0.0
 10
2.194972517736316
 20
4.598565693201629
 30
0.0
 10
2.191649451593981
 20
4.599593898048888
 30
0.0
 10
2.188222080278713
 20
4.599082230067405
 30
0.0
 10
2.186705429988242
 20
4.59885581124045
 30
0.0
  0
SPLINE
  5
2AA
330
1F
100
AcDbEntity
  8
0
  6
Continuous
 62
     7
370
     0
100
AcDbSpline
210
0.0
220
0.0
230
1.0
 70
     8
 71
     3
 72
    10
 73
     6
 74
     0
 42
0.00000001
 43
0.00000001
 40
0.0
 40
0.0
 40
0.0
 40
0.0
 40
0.2796589837244273
 40
0.5592246942656266
 40
1.0
 40
1.0
 40
1.0
 40
1.0
 10
2.200456418912292
 20
4.593035004278425
 30
0.0
 10
2.200401359898976
 20
4.593644848495242
 30
0.0
 10
2.200291260235884
 20
4.594864333530756
 30
0.0
 10
2.198988256819094
 20
4.596696855772983
 30
0.0
 10
2.197646256968997
 20
4.597500644029813
 30
0.0
 10
2.196825089798368
 20
4.597992480544248
 30
0.0
  0
SPLINE
  5
2AB
330
1F
100
AcDbEntity
  8
0
  6
Continuous
 62
     7
370
     0
100
AcDbSpline
210
0.0
220
0.0
230
1.0
 70
     8
 71
     3
 72
     9
 73
     5
 74
     0
 42
0.00000001
 43
0.00000001
 40
0.0
 40
0.0
 40
0.0
 40
0.0
 40
0.5612996773080573
 40
0.9999999999999999
 40
0.9999999999999999
 40
0.9999999999999999
 40
0.9999999999999999
 10
2.197795224292039
 20
4.586181760607539
 30
0.0
 10
2.198484029873049
 20
4.587392634791833
 30
0.0
 10
2.199711191777564
 20
4.589549903418997
 30
0.0
 10
2.200229178131619
 20
4.591972298690937
 30
0.0
 10
2.200456418912292
 20
4.593035004278425
 30
0.0
  0
LINE
  5
2AC
330
1F
100
AcDbEntity
  8
0
  6
Continuous
 62
     7
370
     0
100
AcDbLine
 10
2.1886813002
 20
4.5697339758
 30
0.0
 11
2.1977952243
 21
4.5861817606
 31
0.0
  0
LINE
  5
2AD
330
1F
100
AcDbEntity
  8
0
  6
Continuous
 62
     7
370
     0
100
AcDbLine
 10
2.1938078825
 20
4.5668947748
 30
0.0
 11
2.1886813002
 21
4.5697339758
 31
0.0
  0
LINE
  5
2AE
330
1F
100
AcDbEntity
  8
0
  6
Continuous
 62
     7
370
     0
100
AcDbLine
 10
2.2041767512
 20
4.58560324
 30
0.0
 11
2.1938078825
 21
4.5668947748
 31
0.0
  0
SPLINE
  5
2AF
330
1F
100
AcDbEntity
  8
0
  6
Continuous
 62
     7
370
     0
100
AcDbSpline
210
0.0
220
0.0
230
1.0
 70
     8
 71
     3
 72
    11
 73
     7
 74
     0
 42
0.00000001
 43
0.00000001
 40
0.0
 40
0.0
 40
0.0
 40
0.0
 40
0.2801485780538375
 40
0.5578027760920568
 40
0.7785965409067751
 40
0.9999999999999999
 40
0.9999999999999999
 40
0.9999999999999999
 40
0.9999999999999999
 10
2.200865833469254
 20
4.601703912506273
 30
0.0
 10
2.202364244412537
 20
4.600730416869752
 30
0.0
 10
2.205347724784617
 20
4.598792093383206
 30
0.0
 10
2.206861747511771
 20
4.593774625848851
 30
0.0
 10
2.206013277503837
 20
4.589309182087761
 30
0.0
 10
2.204789489074932
 20
4.586839689020043
 30
0.0
 10
2.204176751190773
 20
4.585603240037919
 30
0.0
  0
LINE
  5
2B0
330
1F
100
AcDbEntity
  8
0
  6
Continuous
 62
     7
370
     0
100
AcDbLine
 10
2.0814417767
 20
4.812910027
 30
0.0
 11
2.046125321
 21
4.8181256124
 31
0.0
  0
LINE
  5
2B1
330
1F
100
AcDbEntity
  8
0
  6
Continuous
 62
     7
370
     0
100
AcDbLine
 10
2.0747131375
 20
4.7673404067
 30
0.0
 11
2.0814417767
 21
4.812910027
 31
0.0
  0
LINE
  5
2B2
330
1F
100
AcDbEntity
  8
0
  6
Continuous
 62
     7
370
     0
100
AcDbLine
 10
2.0393966818
 20
4.7725559922
 30
0.0
 11
2.0747131375
 21
4.7673404067
 31
0.0
  0
LINE
  5
2B3
330
1F
100
AcDbEntity
  8
0
  6
Continuous
 62
     7
370
     0
100
AcDbLine
 10
2.0377234223
 20
4.7611635871
 30
0.0
 11
2.0393966818
 21
4.7725559922
 31
0.0
  0
LINE
  5
2B4
330
1F
100
AcDbEntity
  8
0
  6
Continuous
 62
     7
370
     0
100
AcDbLine
 10
2.1265841818
 20
4.7480445207
 30
0.0
 11
2.0377234223
 21
4.7611635871
 31
0.0
  0
LINE
  5
2B5
330
1F
100
AcDbEntity
  8
0
  6
Continuous
 62
     7
370
     0
100
AcDbLine
 10
2.1282574413
 20
4.7594369257
 30
0.0
 11
2.1265841818
 21
4.7480445207
 31
0.0
  0
LINE
  5
2B6
330
1F
100
AcDbEntity
  8
0
  6
Continuous
 62
     7
370
     0
100
AcDbLine
 10
2.084966302
 20
4.7658273529
 30
0.0
 11
2.1282574413
 21
4.7594369257
 31
0.0
  0
LINE
  5
2B7
330
1F
100
AcDbEntity
  8
0
  6
Continuous
 62
     7
370
     0
100
AcDbLine
 10
2.0916949413
 20
4.8113969732
 30
0.0
 11
2.084966302
 21
4.7658273529
 31
0.0
  0
LINE
  5
2B8
330
1F
100
AcDbEntity
  8
0
  6
Continuous
 62
     7
370
     0
100
AcDbLine
 10
2.1349860805
 20
4.805006546
 30
0.0
 11
2.0916949413
 21
4.8113969732
 31
0.0
  0
LINE
  5
2B9
330
1F
100
AcDbEntity
  8
0
  6
Continuous
 62
     7
370
     0
100
AcDbLine
 10
2.1366771406
 20
4.816398951
 30
0.0
 11
2.1349860805
 21
4.805006546
 31
0.0
  0
LINE
  5
2BA
330
1F
100
AcDbEntity
  8
0
  6
Continuous
 62
     7
370
     0
100
AcDbLine
 10
2.0478163812
 20
4.8295180175
 30
0.0
 11
2.1366771406
 21
4.816398951
 31
0.0
  0
LINE
  5
2BB
330
1F
100
AcDbEntity
  8
0
  6
Continuous
 62
     7
370
     0
100
AcDbLine
 10
2.046125321
 20
4.8181256124
 30
0.0
 11
2.0478163812
 21
4.8295180175
 31
0.0
  0
SPLINE
  5
2BC
330
1F
100
AcDbEntity
  8
0
  6
Continuous
 62
     7
370
     0
100
AcDbSpline
210
0.0
220
0.0
230
1.0
 70
     8
 71
     3
 72
    11
 73
     7
 74
     0
 42
0.00000001
 43
0.00000001
 40
0.0
 40
0.0
 40
0.0
 40
0.0
 40
0.2798950578101084
 40
0.5596148427075838
 40
0.7797461634356209
 40
1.0
 40
1.0
 40
1.0
 40
1.0
 10
2.248489510005974
 20
4.98860537139095
 30
0.0
 10
2.250446072488199
 20
4.987692147268636
 30
0.0
 10
2.254357972234857
 20
4.985866270893527
 30
0.0
 10
2.258648888686492
 20
4.981487574613084
 30
0.0
 10
2.261178879880974
 20
4.976507511382228
 30
0.0
 10
2.261928091246545
 20
4.973204386813433
 30
0.0
 10
2.262302801145215
 20
4.971552365061835
 30
0.0
  0
SPLINE
  5
2BD
330
1F
100
AcDbEntity
  8
0
  6
Continuous
 62
     7
370
     0
100
AcDbSpline
210
0.0
220
0.0
230
1.0
 70
     8
 71
     3
 72
    10
 73
     6
 74
     0
 42
0.00000001
 43
0.00000001
 40
0.0
 40
0.0
 40
0.0
 40
0.0
 40
0.5599495596910918
 40
0.7800085905937727
 40
1.0
 40
1.0
 40
1.0
 40
1.0
 10
2.224565459373062
 20
4.988925782783355
 30
0.0
 10
2.229038148024837
 20
4.989664435559036
 30
0.0
 10
2.235268594162451
 20
4.990693377363749
 30
0.0
 10
2.243394220905022
 20
4.990219511774017
 30
0.0
 10
2.246791254310317
 20
4.98914336306224
 30
0.0
 10
2.248489510005974
 20
4.98860537139095
 30
0.0
  0
LINE
  5
2BE
330
1F
100
AcDbEntity
  8
0
  6
Continuous
 62
     7
370
     0
100
AcDbLine
 10
2.1997335765
 20
4.9842264157
 30
0.0
 11
2.2245654594
 21
4.9889257828
 31
0.0
  0
LINE
  5
2BF
330
1F
100
AcDbEntity
  8
0
  6
Continuous
 62
     7
370
     0
100
AcDbLine
 10
2.2163237663
 20
4.8965048967
 30
0.0
 11
2.1997335765
 21
4.9842264157
 31
0.0
  0
LINE
  5
2C0
330
1F
100
AcDbEntity
  8
0
  6
Continuous
 62
     7
370
     0
100
AcDbLine
 10
2.2277161714
 20
4.8986587733
 30
0.0
 11
2.2163237663
 21
4.8965048967
 31
0.0
  0
LINE
  5
2C1
330
1F
100
AcDbEntity
  8
0
  6
Continuous
 62
     7
370
     0
100
AcDbLine
 10
2.2210409341
 20
4.933975229
 30
0.0
 11
2.2277161714
 21
4.8986587733
 31
0.0
  0
LINE
  5
2C2
330
1F
100
AcDbEntity
  8
0
  6
Continuous
 62
     7
370
     0
100
AcDbLine
 10
2.2394289879
 20
4.9374463524
 30
0.0
 11
2.2210409341
 21
4.933975229
 31
0.0
  0
LINE
  5
2C3
330
1F
100
AcDbEntity
  8
0
  6
Continuous
 62
     7
370
     0
100
AcDbLine
 10
2.2758490828
 20
4.9077548967
 30
0.0
 11
2.2394289879
 21
4.9374463524
 31
0.0
  0
LINE
  5
2C4
330
1F
100
AcDbEntity
  8
0
  6
Continuous
 62
     7
370
     0
100
AcDbLine
 10
2.2892351587
 20
4.9103003872
 30
0.0
 11
2.2758490828
 21
4.9077548967
 31
0.0
  0
LINE
  5
2C5
330
1F
100
AcDbEntity
  8
0
  6
Continuous
 62
     7
370
     0
100
AcDbLine
 10
2.2485785132
 20
4.9427687416
 30
0.0
 11
2.2892351587
 21
4.9103003872
 31
0.0
  0
SPLINE
  5
2C6
330
1F
100
AcDbEntity
  8
0
  6
Continuous
 62
     7
370
     0
100
AcDbSpline
210
0.0
220
0.0
230
1.0
 70
     8
 71
     3
 72
    11
 73
     7
 74
     0
 42
0.00000001
 43
0.00000001
 40
0.0
 40
0.0
 40
0.0
 40
0.0
 40
0.279950933242694
 40
0.5592003780462917
 40
0.7795065171464527
 40
1.0
 40
1.0
 40
1.0
 40
1.0
 10
2.262302801145215
 20
4.971552365061835
 30
0.0
 10
2.262672722454419
 20
4.968352985114559
 30
0.0
 10
2.263411638140672
 20
4.961962242082174
 30
0.0
 10
2.260060205562588
 20
4.953410304305691
 30
0.0
 10
2.254828516929435
 20
4.946999150718473
 30
0.0
 10
2.250662437963683
 20
4.944179277492621
 30
0.0
 10
2.248578513170531
 20
4.942768741644114
 30
0.0
  0
LINE
  5
2C7
330
1F
100
AcDbEntity
  8
0
  6
Continuous
 62
     7
370
     0
100
AcDbLine
 10
2.3529815805
 20
4.8870413203
 30
0.0
 11
2.4409879096
 21
4.9224645797
 31
0.0
  0
LINE
  5
2C8
330
1F
100
AcDbEntity
  8
0
  6
Continuous
 62
     7
370
     0
100
AcDbLine
 10
2.3617394919
 20
4.8773399753
 30
0.0
 11
2.3529815805
 21
4.8870413203
 31
0.0
  0
LINE
  5
2C9
330
1F
100
AcDbEntity
  8
0
  6
Continuous
 62
     7
370
     0
100
AcDbLine
 10
2.3858059476
 20
4.887343931
 30
0.0
 11
2.3617394919
 21
4.8773399753
 31
0.0
  0
LINE
  5
2CA
330
1F
100
AcDbEntity
  8
0
  6
Continuous
 62
     7
370
     0
100
AcDbLine
 10
2.4111362482
 20
4.8593257348
 30
0.0
 11
2.3858059476
 21
4.887343931
 31
0.0
  0
LINE
  5
2CB
330
1F
100
AcDbEntity
  8
0
  6
Continuous
 62
     7
370
     0
100
AcDbLine
 10
2.3987648084
 20
4.836380719
 30
0.0
 11
2.4111362482
 21
4.8593257348
 31
0.0
  0
LINE
  5
2CC
330
1F
100
AcDbEntity
  8
0
  6
Continuous
 62
     7
370
     0
100
AcDbLine
 10
2.4075405204
 20
4.8266615734
 30
0.0
 11
2.3987648084
 21
4.836380719
 31
0.0
  0
LINE
  5
2CD
330
1F
100
AcDbEntity
  8
0
  6
Continuous
 62
     7
370
     0
100
AcDbLine
 10
2.4516682894
 20
4.9106449595
 30
0.0
 11
2.4075405204
 21
4.8266615734
 31
0.0
  0
LINE
  5
2CE
330
1F
100
AcDbEntity
  8
0
  6
Continuous
 62
     7
370
     0
100
AcDbLine
 10
2.4409879096
 20
4.9224645797
 30
0.0
 11
2.4516682894
 21
4.9106449595
 31
0.0
  0
SPLINE
  5
2CF
330
1F
100
AcDbEntity
  8
0
  6
Continuous
 62
     7
370
     0
100
AcDbSpline
210
0.0
220
0.0
230
1.0
 70
     8
 71
     3
 72
    11
 73
     7
 74
     0
 42
0.00000001
 43
0.00000001
 40
0.0
 40
0.0
 40
0.0
 40
0.0
 40
0.2803164478087828
 40
0.5583113862632756
 40
0.778922213743303
 40
1.0
 40
1.0
 40
1.0
 40
1.0
 10
2.476453805190551
 20
4.699638280061517
 30
0.0
 10
2.474575301858523
 20
4.700276401447572
 30
0.0
 10
2.470833852480139
 20
4.701547359461048
 30
0.0
 10
2.465256084474661
 20
4.700024267360373
 30
0.0
 10
2.461473010073952
 20
4.696649073188041
 30
0.0
 10
2.459593780459178
 20
4.694216311035342
 30
0.0
 10
2.458653172279159
 20
4.692998643985568
 30
0.0
  0
SPLINE
  5
2D0
330
1F
100
AcDbEntity
  8
0
  6
Continuous
 62
     7
370
     0
100
AcDbSpline
210
0.0
220
0.0
230
1.0
 70
     8
 71
     3
 72
    11
 73
     7
 74
     0
 42
0.00000001
 43
0.00000001
 40
0.0
 40
0.0
 40
0.0
 40
0.0
 40
0.2809799956683772
 40
0.5609401515004462
 40
0.7806509173095135
 40
1.0
 40
1.0
 40
1.0
 40
1.0
 10
2.482559422279159
 20
4.674592789555188
 30
0.0
 10
2.483453537199831
 20
4.677141987004072
 30
0.0
 10
2.485238521778066
 20
4.682231129381558
 30
0.0
 10
2.484932773809819
 20
4.689836259395687
 30
0.0
 10
2.482047768029803
 20
4.696451653853821
 30
0.0
 10
2.478317435161634
 20
4.698576654827679
 30
0.0
 10
2.476453805190551
 20
4.699638280061517
 30
0.0
  0
SPLINE
  5
2D1
330
1F
100
AcDbEntity
  8
0
  6
Continuous
 62
     7
370
     0
100
AcDbSpline
210
0.0
220
0.0
230
1.0
 70
     8
 71
     3
 72
    11
 73
     7
 74
     0
 42
0.00000001
 43
0.00000001
 40
0.0
 40
0.0
 40
0.0
 40
0.0
 40
0.2796590316000658
 40
0.5597354471173147
 40
0.7798992367480403
 40
0.9999999999999999
 40
0.9999999999999999
 40
0.9999999999999999
 40
0.9999999999999999
 10
2.460913852658906
 20
4.651006950947593
 30
0.0
 10
2.463575080919806
 20
4.652516890938661
 30
0.0
 10
2.468901509256389
 20
4.655539024467426
 30
0.0
 10
2.474851227856471
 20
4.661719926791785
 30
0.0
 10
2.479531787771576
 20
4.668050170140138
 30
0.0
 10
2.481550307097478
 20
4.672412124563046
 30
0.0
 10
2.482559422279159
 20
4.674592789555188
 30
0.0
  0
LINE
  5
2D2
330
1F
100
AcDbEntity
  8
0
  6
Continuous
 62
     7
370
     0
100
AcDbLine
 10
2.4606112419
 20
4.6502415237
 30
0.0
 11
2.4609138527
 21
4.6510069509
 31
0.0
  0
LINE
  5
2D3
330
1F
100
AcDbEntity
  8
0
  6
Continuous
 62
     7
370
     0
100
AcDbLine
 10
2.4740151185
 20
4.6447411282
 30
0.0
 11
2.4606112419
 21
4.6502415237
 31
0.0
  0
SPLINE
  5
2D4
330
1F
100
AcDbEntity
  8
0
  6
Continuous
 62
     7
370
     0
100
AcDbSpline
210
0.0
220
0.0
230
1.0
 70
     8
 71
     3
 72
    10
 73
     6
 74
     0
 42
0.00000001
 43
0.00000001
 40
0.0
 40
0.0
 40
0.0
 40
0.0
 40
0.2801202439649416
 40
0.560202277711578
 40
1.0
 40
1.0
 40
1.0
 40
1.0
 10
2.491673346329792
 20
4.670854656643797
 30
0.0
 10
2.490475860577437
 20
4.668142077421303
 30
0.0
 10
2.488081052417553
 20
4.662717288989717
 30
0.0
 10
2.482413638767866
 20
4.653720697314071
 30
0.0
 10
2.477200185158844
 20
4.648146552630953
 30
0.0
 10
2.474015118481691
 20
4.644741128162783
 30
0.0
  0
SPLINE
  5
2D5
330
1F
100
AcDbEntity
  8
0
  6
Continuous
 62
     7
370
     0
100
AcDbSpline
210
0.0
220
0.0
230
1.0
 70
     8
 71
     3
 72
    12
 73
     8
 74
     0
 42
0.00000001
 43
0.00000001
 40
0.0
 40
0.0
 40
0.0
 40
0.0
 40
0.1863558885048026
 40
0.3726698693064167
 40
0.5594669031794696
 40
0.7795467939387568
 40
1.0
 40
1.0
 40
1.0
 40
1.0
 10
2.480031732405741
 20
4.711475700947593
 30
0.0
 10
2.482652825750202
 20
4.710099303572115
 30
0.0
 10
2.487894423007779
 20
4.707346818345337
 30
0.0
 10
2.492930043031111
 20
4.699762266956132
 30
0.0
 10
2.4953339109213
 20
4.690700400947429
 30
0.0
 10
2.495107287082984
 20
4.680674744048613
 30
0.0
 10
2.492818639727196
 20
4.674129867858847
 30
0.0
 10
2.491673346329792
 20
4.670854656643797
 30
0.0
  0
SPLINE
  5
2D6
330
1F
100
AcDbEntity
  8
0
  6
Continuous
 62
     7
370
     0
100
AcDbSpline
210
0.0
220
0.0
230
1.0
 70
     8
 71
     3
 72
    12
 73
     8
 74
     0
 42
0.00000001
 43
0.00000001
 40
0.0
 40
0.0
 40
0.0
 40
0.0
 40
0.1871320511097698
 40
0.3740416152584062
 40
0.5606500212684083
 40
0.7800094527395823
 40
1.0
 40
1.0
 40
1.0
 40
1.0
 10
2.448079596329792
 20
4.699602678795695
 30
0.0
 10
2.449470781252819
 20
4.701474639963355
 30
0.0
 10
2.452251497076998
 20
4.705216336667369
 30
0.0
 10
2.45749445769908
 20
4.709918978677692
 30
0.0
 10
2.46415469223636
 20
4.713329355433072
 30
0.0
 10
2.472188325669682
 20
4.714090176099528
 30
0.0
 10
2.477414760943755
 20
4.712348026850218
 30
0.0
 10
2.480031732405741
 20
4.711475700947593
 30
0.0
  0
SPLINE
  5
2D7
330
1F
100
AcDbEntity
  8
0
  6
Continuous
 62
     7
370
     0
100
AcDbSpline
210
0.0
220
0.0
230
1.0
 70
     8
 71
     3
 72
     9
 73
     5
 74
     0
 42
0.00000001
 43
0.00000001
 40
0.0
 40
0.0
 40
0.0
 40
0.0
 40
0.5599164338166627
 40
1.0
 40
1.0
 40
1.0
 40
1.0
 10
2.436473583671564
 20
4.68203345411215
 30
0.0
 10
2.438670279626932
 20
4.685292397433801
 30
0.0
 10
2.442593536425083
 20
4.691112807632223
 30
0.0
 10
2.446403079172139
 20
4.697008209373368
 30
0.0
 10
2.448079596329792
 20
4.699602678795695
 30
0.0
  0
SPLINE
  5
2D8
330
1F
100
AcDbEntity
  8
0
  6
Continuous
 62
     7
370
     0
100
AcDbSpline
210
0.0
220
0.0
230
1.0
 70
     8
 71
     3
 72
    11
 73
     7
 74
     0
 42
0.00000001
 43
0.00000001
 40
0.0
 40
0.0
 40
0.0
 40
0.0
 40
0.2804786706689306
 40
0.5580056706031484
 40
0.7788503692392128
 40
1.0
 40
1.0
 40
1.0
 40
1.0
 10
2.419616384304475
 20
4.676355052213416
 30
0.0
 10
2.421358693189021
 20
4.675726259540934
 30
0.0
 10
2.424824975438575
 20
4.674475291415471
 30
0.0
 10
2.430056166755976
 20
4.675724590150536
 30
0.0
 10
2.43373385805272
 20
4.678704378794562
 30
0.0
 10
2.435559921864482
 20
4.680923252072334
 30
0.0
 10
2.436473583671564
 20
4.68203345411215
 30
0.0
  0
SPLINE
  5
2D9
330
1F
100
AcDbEntity
  8
0
  6
Continuous
 62
     7
370
     0
100
AcDbSpline
210
0.0
220
0.0
230
1.0
 70
     8
 71
     3
 72
    13
 73
     9
 74
     0
 42
0.00000001
 43
0.00000001
 40
0.0
 40
0.0
 40
0.0
 40
0.0
 40
0.2502797123294163
 40
0.49988076713649
 40
0.6249966674131976
 40
0.7499455431723685
 40
0.8749231628230466
 40
1.0
 40
1.0
 40
1.0
 40
1.0
 10
2.413314960253842
 20
4.703679023732404
 30
0.0
 10
2.412412739922337
 20
4.701212522897495
 30
0.0
 10
2.410610745716569
 20
4.696286209382025
 30
0.0
 10
2.410191361549107
 20
4.689597664719484
 30
0.0
 10
2.411437894594434
 20
4.684476072343759
 30
0.0
 10
2.413262126721308
 20
4.680951187149319
 30
0.0
 10
2.416059713103082
 20
4.678075661906441
 30
0.0
 10
2.418430513672357
 20
4.676928740470991
 30
0.0
 10
2.419616384304475
 20
4.676355052213416
 30
0.0
  0
SPLINE
  5
2DA
330
1F
100
AcDbEntity
  8
0
  6
Continuous
 62
     7
370
     0
100
AcDbSpline
210
0.0
220
0.0
230
1.0
 70
     8
 71
     3
 72
    11
 73
     7
 74
     0
 42
0.00000001
 43
0.00000001
 40
0.0
 40
0.0
 40
0.0
 40
0.0
 40
0.2799208809158749
 40
0.5598752793059222
 40
0.779998255958598
 40
0.9999999999999999
 40
0.9999999999999999
 40
0.9999999999999999
 40
0.9999999999999999
 10
2.436740593165235
 20
4.728332900314681
 30
0.0
 10
2.43390911832734
 20
4.726739708515423
 30
0.0
 10
2.428245829613305
 20
4.723553134149557
 30
0.0
 10
2.421829039731954
 20
4.717116906544205
 30
0.0
 10
2.416623030353743
 20
4.710579193527013
 30
0.0
 10
2.414417447777473
 20
4.705978657923867
 30
0.0
 10
2.413314960253842
 20
4.703679023732404
 30
0.0
  0
LINE
  5
2DB
330
1F
100
AcDbEntity
  8
0
  6
Continuous
 62
     7
370
     0
100
AcDbLine
 10
2.4370432039
 20
4.7290983275
 30
0.0
 11
2.4367405932
 21
4.7283329003
 31
0.0
  0
LINE
  5
2DC
330
1F
100
AcDbEntity
  8
0
  6
Continuous
 62
     7
370
     0
100
AcDbLine
 10
2.4231943115
 20
4.7347767294
 30
0.0
 11
2.4370432039
 21
4.7290983275
 31
0.0
  0
SPLINE
  5
2DD
330
1F
100
AcDbEntity
  8
0
  6
Continuous
 62
     7
370
     0
100
AcDbSpline
210
0.0
220
0.0
230
1.0
 70
     8
 71
     3
 72
    10
 73
     6
 74
     0
 42
0.00000001
 43
0.00000001
 40
0.0
 40
0.0
 40
0.0
 40
0.0
 40
0.2801116169066927
 40
0.5601417324767867
 40
1.0
 40
1.0
 40
1.0
 40
1.0
 10
2.404218836836121
 20
4.707434957276707
 30
0.0
 10
2.405480392149423
 20
4.710303860049834
 30
0.0
 10
2.408003135713622
 20
4.716040830859516
 30
0.0
 10
2.414082713083212
 20
4.725503261839831
 30
0.0
 10
2.419738546503663
 20
4.731259572137949
 30
0.0
 10
2.423194311519665
 20
4.734776729428606
 30
0.0
  0
SPLINE
  5
2DE
330
1F
100
AcDbEntity
  8
0
  6
Continuous
 62
     7
370
     0
100
AcDbSpline
210
0.0
220
0.0
230
1.0
 70
     8
 71
     3
 72
    10
 73
     6
 74
     0
 42
0.00000001
 43
0.00000001
 40
0.0
 40
0.0
 40
0.0
 40
0.0
 40
0.2800295597536341
 40
0.5601079928220709
 40
1.0
 40
1.0
 40
1.0
 40
1.0
 10
2.402011558355108
 20
4.680093185124808
 30
0.0
 10
2.401415344751803
 20
4.682641826216017
 30
0.0
 10
2.400222813488551
 20
4.687739553210538
 30
0.0
 10
2.400561520116625
 20
4.697195706011238
 30
0.0
 10
2.40283175477635
 20
4.70355159610645
 30
0.0
 10
2.404218836836121
 20
4.707434957276707
 30
0.0
  0
SPLINE
  5
2DF
330
1F
100
AcDbEntity
  8
0
  6
Continuous
 62
     7
370
     0
100
AcDbSpline
210
0.0
220
0.0
230
1.0
 70
     8
 71
     3
 72
    11
 73
     7
 74
     0
 42
0.00000001
 43
0.00000001
 40
0.0
 40
0.0
 40
0.0
 40
0.0
 40
0.2798500159921214
 40
0.5597945227381251
 40
0.7799254199541469
 40
1.0
 40
1.0
 40
1.0
 40
1.0
 10
2.416554675443716
 20
4.664304023732403
 30
0.0
 10
2.414701688223027
 20
4.665232064630898
 30
0.0
 10
2.410995088124515
 20
4.667088459778896
 30
0.0
 10
2.406851910407785
 20
4.671179114295103
 30
0.0
 10
2.403777604055824
 20
4.675543831469898
 30
0.0
 10
2.402600190044988
 20
4.678576863248956
 30
0.0
 10
2.402011558355108
 20
4.680093185124808
 30
0.0
  0
SPLINE
  5
2E0
330
1F
100
AcDbEntity
  8
0
  6
Continuous
 62
     7
370
     0
100
AcDbSpline
210
0.0
220
0.0
230
1.0
 70
     8
 71
     3
 72
    12
 73
     8
 74
     0
 42
0.00000001
 43
0.00000001
 40
0.0
 40
0.0
 40
0.0
 40
0.0
 40
0.1870563071935044
 40
0.3739681309169138
 40
0.5605496043376937
 40
0.7798748984764566
 40
1.0
 40
1.0
 40
1.0
 40
1.0
 10
2.445801115317134
 20
4.673756159808352
 30
0.0
 10
2.444465988963636
 20
4.672142022697387
 30
0.0
 10
2.441796767516646
 20
4.66891499524513
 30
0.0
 10
2.436872813889605
 20
4.664962072215778
 30
0.0
 10
2.430781003112988
 20
4.662099243101925
 30
0.0
 10
2.4235472591364
 20
4.661860195273008
 30
0.0
 10
2.418888363098626
 20
4.663488426442895
 30
0.0
 10
2.416554675443716
 20
4.664304023732403
 30
0.0
  0
SPLINE
  5
2E1
330
1F
100
AcDbEntity
  8
0
  6
Continuous
 62
     7
370
     0
100
AcDbSpline
210
0.0
220
0.0
230
1.0
 70
     8
 71
     3
 72
     9
 73
     5
 74
     0
 42
0.00000001
 43
0.00000001
 40
0.0
 40
0.0
 40
0.0
 40
0.0
 40
0.5600360284689897
 40
1.0
 40
1.0
 40
1.0
 40
1.0
 10
2.458653172279159
 20
4.692998643985568
 30
0.0
 10
2.456314408912551
 20
4.689365990692409
 30
0.0
 10
2.452138314433411
 20
4.682879527128465
 30
0.0
 10
2.447737371603196
 20
4.676543696857371
 30
0.0
 10
2.445801115317134
 20
4.673756159808352
 30
0.0
  0
CIRCLE
  5
2E2
330
1F
100
AcDbEntity
  8
0
  6
Continuous
 62
     7
370
     0
100
AcDbCircle
 10
2.2729587781
 20
4.7606638085
 30
0.0
 40
0.2650000000000006
  0
SPLINE
  5
2E3
330
1F
100
AcDbEntity
  8
0
  6
Continuous
 62
     7
370
     0
100
AcDbSpline
210
0.0
220
0.0
230
1.0
 70
     8
 71
     3
 72
    11
 73
     7
 74
     0
 42
0.00000001
 43
0.00000001
 40
0.0
 40
0.0
 40
0.0
 40
0.0
 40
0.2798341310252649
 40
0.5592418476283637
 40
0.7795950109293083
 40
1.0
 40
1.0
 40
1.0
 40
1.0
 10
2.488089485848532
 20
4.767742473888995
 30
0.0
 10
2.485939560715499
 20
4.767529524310506
 30
0.0
 10
2.481642986529732
 20
4.767103949648512
 30
0.0
 10
2.475927843684639
 20
4.769347191498642
 30
0.0
 10
2.471480601763262
 20
4.772631352037024
 30
0.0
 10
2.469321471981795
 20
4.775222473064417
 30
0.0
 10
2.468241780152328
 20
4.776518185914311
 30
0.0
  0
SPLINE
  5
2E4
330
1F
100
AcDbEntity
  8
0
  6
Continuous
 62
     7
370
     0
100
AcDbSpline
210
0.0
220
0.0
230
1.0
 70
     8
 71
     3
 72
    10
 73
     6
 74
     0
 42
0.00000001
 43
0.00000001
 40
0.0
 40
0.0
 40
0.0
 40
0.0
 40
0.2807044613854845
 40
0.5606984042449141
 40
1.0
 40
1.0
 40
1.0
 40
1.0
 10
2.502507998506759
 20
4.779811303002919
 30
0.0
 10
2.501828925690151
 20
4.778073960180627
 30
0.0
 10
2.500472498924581
 20
4.774603672094443
 30
0.0
 10
2.49562971798743
 20
4.769727828140985
 30
0.0
 10
2.490948491720995
 20
4.768495254355273
 30
0.0
 10
2.488089485848532
 20
4.767742473888995
 30
0.0
  0
SPLINE
  5
2E5
330
1F
100
AcDbEntity
  8
0
  6
Continuous
 62
     7
370
     0
100
AcDbSpline
210
0.0
220
0.0
230
1.0
 70
     8
 71
     3
 72
    10
 73
     6
 74
     0
 42
0.00000001
 43
0.00000001
 40
0.0
 40
0.0
 40
0.0
 40
0.0
 40
0.5601398940524477
 40
0.7800811456118115
 40
1.0
 40
1.0
 40
1.0
 40
1.0
 10
2.502027381418152
 20
4.804180369458615
 30
0.0
 10
2.50282232260908
 20
4.799647226277622
 30
0.0
 10
2.503929400754198
 20
4.793334125633658
 30
0.0
 10
2.503846943033552
 20
4.785073083639769
 30
0.0
 10
2.502954298198207
 20
4.781565170342231
 30
0.0
 10
2.502507998506759
 20
4.779811303002919
 30
0.0
  0
LINE
  5
2E6
330
1F
100
AcDbEntity
  8
0
  6
Continuous
 62
     7
370
     0
100
AcDbLine
 10
2.4974526188
 20
4.8304185024
 30
0.0
 11
2.5020273814
 21
4.8041803695
 31
0.0
  0
LINE
  5
2E7
330
1F
100
AcDbEntity
  8
0
  6
Continuous
 62
     7
370
     0
100
AcDbLine
 10
2.4097310998
 20
4.8151099581
 30
0.0
 11
2.4974526188
 21
4.8304185024
 31
0.0
  0
LINE
  5
2E8
330
1F
100
AcDbEntity
  8
0
  6
Continuous
 62
     7
370
     0
100
AcDbLine
 10
2.4152314953
 20
4.7835138346
 30
0.0
 11
2.4097310998
 21
4.8151099581
 31
0.0
  0
SPLINE
  5
2E9
330
1F
100
AcDbEntity
  8
0
  6
Continuous
 62
     7
370
     0
100
AcDbSpline
210
0.0
220
0.0
230
1.0
 70
     8
 71
     3
 72
    10
 73
     6
 74
     0
 42
0.00000001
 43
0.00000001
 40
0.0
 40
0.0
 40
0.0
 40
0.0
 40
0.2798560618644225
 40
0.5597527391958339
 40
1.0
 40
1.0
 40
1.0
 40
1.0
 10
2.427015514329544
 20
4.758414942243425
 30
0.0
 10
2.425182262218203
 20
4.760327218068135
 30
0.0
 10
2.421515491935925
 20
4.764152047245852
 30
0.0
 10
2.417421688900476
 20
4.772790290403377
 30
0.0
 10
2.416062445038772
 20
4.779445369647775
 30
0.0
 10
2.415231495342202
 20
4.783513834648488
 30
0.0
  0
SPLINE
  5
2EA
330
1F
100
AcDbEntity
  8
0
  6
Continuous
 62
     7
370
     0
100
AcDbSpline
210
0.0
220
0.0
230
1.0
 70
     8
 71
     3
 72
    11
 73
     7
 74
     0
 42
0.00000001
 43
0.00000001
 40
0.0
 40
0.0
 40
0.0
 40
0.0
 40
0.2800631052443243
 40
0.5598662361181994
 40
0.7799570470650536
 40
1.0
 40
1.0
 40
1.0
 40
1.0
 10
2.448376273823215
 20
4.7525941352814
 30
0.0
 10
2.446240200286934
 20
4.752334849849545
 30
0.0
 10
2.441970036068817
 20
4.7518165196729
 30
0.0
 10
2.43603235058405
 20
4.752988596273979
 30
0.0
 10
2.430940705488103
 20
4.755210352026377
 30
0.0
 10
2.428323816533124
 20
4.757346822940906
 30
0.0
 10
2.427015514329544
 20
4.758414942243425
 30
0.0
  0
SPLINE
  5
2EB
330
1F
100
AcDbEntity
  8
0
  6
Continuous
 62
     7
370
     0
100
AcDbSpline
210
0.0
220
0.0
230
1.0
 70
     8
 71
     3
 72
    11
 73
     7
 74
     0
 42
0.00000001
 43
0.00000001
 40
0.0
 40
0.0
 40
0.0
 40
0.0
 40
0.28021657963911
 40
0.5596828193595658
 40
0.7796369501997011
 40
0.9999999999999999
 40
0.9999999999999999
 40
0.9999999999999999
 40
0.9999999999999999
 10
2.467778963696632
 20
4.776429182749754
 30
0.0
 10
2.467476469642267
 20
4.773285669134244
 30
0.0
 10
2.466872291526165
 20
4.767007059334314
 30
0.0
 10
2.462188618824027
 20
4.759296980127212
 30
0.0
 10
2.455608546605887
 20
4.754337516846442
 30
0.0
 10
2.450788523522762
 20
4.753175622150444
 30
0.0
 10
2.448376273823215
 20
4.7525941352814
 30
0.0
  0
LINE
  5
2EC
330
1F
100
AcDbEntity
  8
0
  6
Continuous
 62
     7
370
     0
100
AcDbLine
 10
2.4682417802
 20
4.7765181859
 30
0.0
 11
2.4677789637
 21
4.7764291827
 31
0.0
  0
LINE
  5
2ED
330
1F
100
AcDbEntity
  8
0
  6
Continuous
 62
     7
370
     0
100
AcDbLine
 10
2.3390606583
 20
4.9865297315
 30
0.0
 11
2.3139973672
 21
4.9124790986
 31
0.0
  0
LINE
  5
2EE
330
1F
100
AcDbEntity
  8
0
  6
Continuous
 62
     7
370
     0
100
AcDbLine
 10
2.3276682532
 20
4.9903746683
 30
0.0
 11
2.3390606583
 21
4.9865297315
 31
0.0
  0
LINE
  5
2EF
330
1F
100
AcDbEntity
  8
0
  6
Continuous
 62
     7
370
     0
100
AcDbLine
 10
2.2991338387
 20
4.9060708708
 30
0.0
 11
2.3276682532
 21
4.9903746683
 31
0.0
  0
LINE
  5
2F0
330
1F
100
AcDbEntity
  8
0
  6
Continuous
 62
     7
370
     0
100
AcDbLine
 10
2.3526781425
 20
4.8879498265
 30
0.0
 11
2.2991338387
 21
4.9060708708
 31
0.0
  0
LINE
  5
2F1
330
1F
100
AcDbEntity
  8
0
  6
Continuous
 62
     7
370
     0
100
AcDbLine
 10
2.3561492659
 20
4.898202991
 30
0.0
 11
2.3526781425
 21
4.8879498265
 31
0.0
  0
LINE
  5
2F2
330
1F
100
AcDbEntity
  8
0
  6
Continuous
 62
     7
370
     0
100
AcDbLine
 10
2.3139973672
 20
4.9124790986
 30
0.0
 11
2.3561492659
 21
4.898202991
 31
0.0
  0
SPLINE
  5
2F3
330
1F
100
AcDbEntity
  8
0
  6
Continuous
 62
     7
370
     0
100
AcDbSpline
210
0.0
220
0.0
230
1.0
 70
     8
 71
     3
 72
    11
 73
     7
 74
     0
 42
0.00000001
 43
0.00000001
 40
0.0
 40
0.0
 40
0.0
 40
0.0
 40
0.2801107257773401
 40
0.5600641369853051
 40
0.7800787798861168
 40
1.0
 40
1.0
 40
1.0
 40
1.0
 10
2.110784953150245
 20
4.862388439003237
 30
0.0
 10
2.108407212643297
 20
4.864902261870836
 30
0.0
 10
2.1036530670057
 20
4.869928495803752
 30
0.0
 10
2.098591606619221
 20
4.878183071188636
 30
0.0
 10
2.095331733957663
 20
4.886518386802171
 30
0.0
 10
2.094692379133017
 20
4.891923435001753
 30
0.0
 10
2.094372769605941
 20
4.894625385205768
 30
0.0
  0
SPLINE
  5
2F4
330
1F
100
AcDbEntity
  8
0
  6
Continuous
 62
     7
370
     0
100
AcDbSpline
210
0.0
220
0.0
230
1.0
 70
     8
 71
     3
 72
    11
 73
     7
 74
     0
 42
0.00000001
 43
0.00000001
 40
0.0
 40
0.0
 40
0.0
 40
0.0
 40
0.279684628595976
 40
0.5595669119416045
 40
0.7797542584294355
 40
1.0
 40
1.0
 40
1.0
 40
1.0
 10
2.143182105048979
 20
4.846617078243743
 30
0.0
 10
2.139748827018537
 20
4.847004067844178
 30
0.0
 10
2.132879844640151
 20
4.847778320532846
 30
0.0
 10
2.124082608555115
 20
4.851897442898258
 30
0.0
 10
2.116734117348834
 20
4.856853257315501
 30
0.0
 10
2.112768183158355
 20
4.860543215362231
 30
0.0
 10
2.110784953150245
 20
4.862388439003237
 30
0.0
  0
SPLINE
  5
2F5
330
1F
100
AcDbEntity
  8
0
  6
Continuous
 62
     7
370
     0
100
AcDbSpline
210
0.0
220
0.0
230
1.0
 70
     8
 71
     3
 72
    11
 73
     7
 74
     0
 42
0.00000001
 43
0.00000001
 40
0.0
 40
0.0
 40
0.0
 40
0.0
 40
0.2800975005928547
 40
0.5600479415246284
 40
0.7800610806788006
 40
1.0
 40
1.0
 40
1.0
 40
1.0
 10
2.173443180998346
 20
4.860109957990579
 30
0.0
 10
2.171106483876687
 20
4.857938664359216
 30
0.0
 10
2.166434316470046
 20
4.853597217091331
 30
0.0
 10
2.1585711738557
 20
4.849337821279252
 30
0.0
 10
2.150698556189665
 20
4.846877733606796
 30
0.0
 10
2.145687306963593
 20
4.846703953592542
 30
0.0
 10
2.143182105048979
 20
4.846617078243743
 30
0.0
  0
SPLINE
  5
2F6
330
1F
100
AcDbEntity
  8
0
  6
Continuous
 62
     7
370
     0
100
AcDbSpline
210
0.0
220
0.0
230
1.0
 70
     8
 71
     3
 72
    11
 73
     7
 74
     0
 42
0.00000001
 43
0.00000001
 40
0.0
 40
0.0
 40
0.0
 40
0.0
 40
0.27978692107678
 40
0.5595531805661728
 40
0.7797397064138247
 40
1.0
 40
1.0
 40
1.0
 40
1.0
 10
2.186402041757839
 20
4.890620242800705
 30
0.0
 10
2.186309254143808
 20
4.887422294429435
 30
0.0
 10
2.186123685767887
 20
4.881026633847648
 30
0.0
 10
2.182881823527457
 20
4.872620642636834
 30
0.0
 10
2.1785358854943
 20
4.865647732601458
 30
0.0
 10
2.175140938696608
 20
4.861956088957795
 30
0.0
 10
2.173443180998346
 20
4.860109957990579
 30
0.0
  0
SPLINE
  5
2F7
330
1F
100
AcDbEntity
  8
0
  6
Continuous
 62
     7
370
     0
100
AcDbSpline
210
0.0
220
0.0
230
1.0
 70
     8
 71
     3
 72
    11
 73
     7
 74
     0
 42
0.00000001
 43
0.00000001
 40
0.0
 40
0.0
 40
0.0
 40
0.0
 40
0.2801246362106555
 40
0.5600773453847305
 40
0.7801016060622834
 40
0.9999999999999999
 40
0.9999999999999999
 40
0.9999999999999999
 40
0.9999999999999999
 10
2.170096662011004
 20
4.92276818583868
 30
0.0
 10
2.17246913546187
 20
4.920263206710913
 30
0.0
 10
2.177212626253438
 20
4.915254785891155
 30
0.0
 10
2.182206161842621
 20
4.907000929918021
 30
0.0
 10
2.185513235723259
 20
4.898712779930659
 30
0.0
 10
2.186105829595534
 20
4.893317240602853
 30
0.0
 10
2.186402041757839
 20
4.890620242800705
 30
0.0
  0
SPLINE
  5
2F8
330
1F
100
AcDbEntity
  8
0
  6
Continuous
 62
     7
370
     0
100
AcDbSpline
210
0.0
220
0.0
230
1.0
 70
     8
 71
     3
 72
    11
 73
     7
 74
     0
 42
0.00000001
 43
0.00000001
 40
0.0
 40
0.0
 40
0.0
 40
0.0
 40
0.2796750151035881
 40
0.5596025493532591
 40
0.7797879916378614
 40
0.9999999999999999
 40
0.9999999999999999
 40
0.9999999999999999
 40
0.9999999999999999
 10
2.13757490568189
 20
4.938592948496908
 30
0.0
 10
2.141020768336487
 20
4.938203101440666
 30
0.0
 10
2.147915604922157
 20
4.937423055334476
 30
0.0
 10
2.156733817135137
 20
4.93327008150235
 30
0.0
 10
2.164129640994054
 20
4.928327526743954
 30
0.0
 10
2.168107575018436
 20
4.924621373995805
 30
0.0
 10
2.170096662011004
 20
4.92276818583868
 30
0.0
  0
SPLINE
  5
2F9
330
1F
100
AcDbEntity
  8
0
  6
Continuous
 62
     7
370
     0
100
AcDbSpline
210
0.0
220
0.0
230
1.0
 70
     8
 71
     3
 72
    11
 73
     7
 74
     0
 42
0.00000001
 43
0.00000001
 40
0.0
 40
0.0
 40
0.0
 40
0.0
 40
0.2801006522962085
 40
0.5600324108245822
 40
0.7800533069372485
 40
0.9999999999999999
 40
0.9999999999999999
 40
0.9999999999999999
 40
0.9999999999999999
 10
2.107367231631257
 20
4.925028866218426
 30
0.0
 10
2.109696173039215
 20
4.927205347851008
 30
0.0
 10
2.114352651561044
 20
4.93155699875156
 30
0.0
 10
2.122209935095098
 20
4.93581207553985
 30
0.0
 10
2.13006553094046
 20
4.93829782826301
 30
0.0
 10
2.135072062228124
 20
4.938494586147056
 30
0.0
 10
2.13757490568189
 20
4.938592948496908
 30
0.0
  0
SPLINE
  5
2FA
330
1F
100
AcDbEntity
  8
0
  6
Continuous
 62
     7
370
     0
100
AcDbSpline
210
0.0
220
0.0
230
1.0
 70
     8
 71
     3
 72
    11
 73
     7
 74
     0
 42
0.00000001
 43
0.00000001
 40
0.0
 40
0.0
 40
0.0
 40
0.0
 40
0.2797126289213149
 40
0.5595903795940593
 40
0.7797750585413771
 40
1.0
 40
1.0
 40
1.0
 40
1.0
 10
2.094372769605941
 20
4.894625385205768
 30
0.0
 10
2.09449106837545
 20
4.89781035380017
 30
0.0
 10
2.094727735749356
 20
4.904182171160046
 30
0.0
 10
2.098068123990898
 20
4.912501749227244
 30
0.0
 10
2.102314900408742
 20
4.919492771346238
 30
0.0
 10
2.105683018585291
 20
4.923183388794878
 30
0.0
 10
2.107367231631257
 20
4.925028866218426
 30
0.0
  0
LINE
  5
2FB
330
1F
100
AcDbEntity
  8
0
  6
Continuous
 62
     7
370
     0
100
AcDbLine
 10
2.0835973808
 20
4.6358865785
 30
0.0
 11
2.0733442162
 21
4.6313652178
 31
0.0
  0
LINE
  5
2FC
330
1F
100
AcDbEntity
  8
0
  6
Continuous
 62
     7
370
     0
100
AcDbLine
 10
2.0705317162
 20
4.6655068317
 30
0.0
 11
2.0835973808
 21
4.6358865785
 31
0.0
  0
LINE
  5
2FD
330
1F
100
AcDbEntity
  8
0
  6
Continuous
 62
     7
370
     0
100
AcDbLine
 10
2.1423038681
 20
4.697156357
 30
0.0
 11
2.0705317162
 21
4.6655068317
 31
0.0
  0
LINE
  5
2FE
330
1F
100
AcDbEntity
  8
0
  6
Continuous
 62
     7
370
     0
100
AcDbLine
 10
2.1372840896
 20
4.7085487621
 30
0.0
 11
2.1423038681
 21
4.697156357
 31
0.0
  0
LINE
  5
2FF
330
1F
100
AcDbEntity
  8
0
  6
Continuous
 62
     7
370
     0
100
AcDbLine
 10
2.0655119377
 20
4.6768992368
 30
0.0
 11
2.1372840896
 21
4.7085487621
 31
0.0
  0
LINE
  5
300
330
1F
100
AcDbEntity
  8
0
  6
Continuous
 62
     7
370
     0
100
AcDbLine
 10
2.0524462732
 20
4.7065194899
 30
0.0
 11
2.0655119377
 21
4.6768992368
 31
0.0
  0
LINE
  5
301
330
1F
100
AcDbEntity
  8
0
  6
Continuous
 62
     7
370
     0
100
AcDbLine
 10
2.0421931086
 20
4.7019981292
 30
0.0
 11
2.0524462732
 21
4.7065194899
 31
0.0
  0
LINE
  5
302
330
1F
100
AcDbEntity
  8
0
  6
Continuous
 62
     7
370
     0
100
AcDbLine
 10
2.0733442162
 20
4.6313652178
 30
0.0
 11
2.0421931086
 21
4.7019981292
 31
0.0
  0
SPLINE
  5
303
330
1F
100
AcDbEntity
  8
0
  6
Continuous
 62
     7
370
     0
100
AcDbSpline
210
0.0
220
0.0
230
1.0
 70
     8
 71
     3
 72
     9
 73
     5
 74
     0
 42
0.00000001
 43
0.00000001
 40
0.0
 40
0.0
 40
0.0
 40
0.0
 40
0.5599870736479269
 40
0.9999999999999999
 40
0.9999999999999999
 40
0.9999999999999999
 40
0.9999999999999999
 10
2.142460273207947
 20
4.634903514055535
 30
0.0
 10
2.143204439774898
 20
4.634308590908944
 30
0.0
 10
2.144533339319138
 20
4.63324620362433
 30
0.0
 10
2.145788516845962
 20
4.6320978755364
 30
0.0
 10
2.146340811182631
 20
4.631592596334017
 30
0.0
  0
LINE
  5
304
330
1F
100
AcDbEntity
  8
0
  6
Continuous
 62
     7
370
     0
100
AcDbLine
 10
2.1511914837
 20
4.6441954444
 30
0.0
 11
2.1424602732
 21
4.6349035141
 31
0.0
  0
LINE
  5
305
330
1F
100
AcDbEntity
  8
0
  6
Continuous
 62
     7
370
     0
100
AcDbLine
 10
2.1671408507
 20
4.6292162118
 30
0.0
 11
2.1511914837
 21
4.6441954444
 31
0.0
  0
LINE
  5
306
330
1F
100
AcDbEntity
  8
0
  6
Continuous
 62
     7
370
     0
100
AcDbLine
 10
2.1703449647
 20
4.6326339334
 30
0.0
 11
2.1671408507
 21
4.6292162118
 31
0.0
  0
LINE
  5
307
330
1F
100
AcDbEntity
  8
0
  6
Continuous
 62
     7
370
     0
100
AcDbLine
 10
2.1504082558
 20
4.6513512989
 30
0.0
 11
2.1703449647
 21
4.6326339334
 31
0.0
  0
LINE
  5
308
330
1F
100
AcDbEntity
  8
0
  6
Continuous
 62
     7
370
     0
100
AcDbLine
 10
2.1349039045
 20
4.6348323115
 30
0.0
 11
2.1504082558
 21
4.6513512989
 31
0.0
  0
SPLINE
  5
309
330
1F
100
AcDbEntity
  8
0
  6
Continuous
 62
     7
370
     0
100
AcDbSpline
210
0.0
220
0.0
230
1.0
 70
     8
 71
     3
 72
     9
 73
     5
 74
     0
 42
0.00000001
 43
0.00000001
 40
0.0
 40
0.0
 40
0.0
 40
0.0
 40
0.5599114912017401
 40
0.9999999999999999
 40
0.9999999999999999
 40
0.9999999999999999
 40
0.9999999999999999
 10
2.142219964663644
 20
4.629038205511232
 30
0.0
 10
2.140909784484033
 20
4.630190003492206
 30
0.0
 10
2.138569807183694
 20
4.632247110729819
 30
0.0
 10
2.136024197921321
 20
4.634042278720035
 30
0.0
 10
2.134903904537061
 20
4.63483231152389
 30
0.0
  0
SPLINE
  5
30A
330
1F
100
AcDbEntity
  8
0
  6
Continuous
 62
     7
370
     0
100
AcDbSpline
210
0.0
220
0.0
230
1.0
 70
     8
 71
     3
 72
     9
 73
     5
 74
     0
 42
0.00000001
 43
0.00000001
 40
0.0
 40
0.0
 40
0.0
 40
0.0
 40
0.5577421486153135
 40
1.0
 40
1.0
 40
1.0
 40
1.0
 10
2.147132939347188
 20
4.621428434941612
 30
0.0
 10
2.146523434588663
 20
4.623046968073277
 30
0.0
 10
2.145430627168538
 20
4.625948906066816
 30
0.0
 10
2.143204490904615
 20
4.628090894367626
 30
0.0
 10
2.142219964663644
 20
4.629038205511232
 30
0.0
  0
SPLINE
  5
30B
330
1F
100
AcDbEntity
  8
0
  6
Continuous
 62
     7
370
     0
100
AcDbSpline
210
0.0
220
0.0
230
1.0
 70
     8
 71
     3
 72
     9
 73
     5
 74
     0
 42
0.00000001
 43
0.00000001
 40
0.0
 40
0.0
 40
0.0
 40
0.0
 40
0.5604449163640453
 40
1.0
 40
1.0
 40
1.0
 40
1.0
 10
2.144649751056048
 20
4.614397184941613
 30
0.0
 10
2.14560151027004
 20
4.615555194929547
 30
0.0
 10
2.147299731069625
 20
4.617621428299006
 30
0.0
 10
2.147183867686325
 20
4.620266000004446
 30
0.0
 10
2.147132939347188
 20
4.621428434941611
 30
0.0
  0
SPLINE
  5
30C
330
1F
100
AcDbEntity
  8
0
  6
Continuous
 62
     7
370
     0
100
AcDbSpline
210
0.0
220
0.0
230
1.0
 70
     8
 71
     3
 72
     9
 73
     5
 74
     0
 42
0.00000001
 43
0.00000001
 40
0.0
 40
0.0
 40
0.0
 40
0.0
 40
0.557944346870889
 40
1.0
 40
1.0
 40
1.0
 40
1.0
 10
2.137484996309213
 20
4.610605650131485
 30
0.0
 10
2.139021007639878
 20
4.610946132829497
 30
0.0
 10
2.141773990691467
 20
4.611556377739981
 30
0.0
 10
2.143768199693277
 20
4.613526348313216
 30
0.0
 10
2.144649751056048
 20
4.614397184941613
 30
0.0
  0
SPLINE
  5
30D
330
1F
100
AcDbEntity
  8
0
  6
Continuous
 62
     7
370
     0
100
AcDbSpline
210
0.0
220
0.0
230
1.0
 70
     8
 71
     3
 72
     9
 73
     5
 74
     0
 42
0.00000001
 43
0.00000001
 40
0.0
 40
0.0
 40
0.0
 40
0.0
 40
0.5604530300981779
 40
1.0
 40
1.0
 40
1.0
 40
1.0
 10
2.130008730486428
 20
4.613702960258068
 30
0.0
 10
2.131238097113815
 20
4.612688829856597
 30
0.0
 10
2.133431620141375
 20
4.610879346551113
 30
0.0
 10
2.136247350543082
 20
4.61068921977835
 30
0.0
 10
2.137484996309213
 20
4.610605650131485
 30
0.0
  0
SPLINE
  5
30E
330
1F
100
AcDbEntity
  8
0
  6
Continuous
 62
     7
370
     0
100
AcDbSpline
210
0.0
220
0.0
230
1.0
 70
     8
 71
     3
 72
     9
 73
     5
 74
     0
 42
0.00000001
 43
0.00000001
 40
0.0
 40
0.0
 40
0.0
 40
0.0
 40
0.5603160630007639
 40
1.0
 40
1.0
 40
1.0
 40
1.0
 10
2.124437132385162
 20
4.62536237481503
 30
0.0
 10
2.124968640392544
 20
4.622928947095851
 30
0.0
 10
2.125917226454018
 20
4.618585991610786
 30
0.0
 10
2.128759172472349
 20
4.615194253169294
 30
0.0
 10
2.130008730486428
 20
4.613702960258068
 30
0.0
  0
LINE
  5
30F
330
1F
100
AcDbEntity
  8
0
  6
Continuous
 62
     7
370
     0
100
AcDbLine
 10
2.1241345216
 20
4.6256471849
 30
0.0
 11
2.1244371324
 21
4.6253623748
 31
0.0
  0
LINE
  5
310
330
1F
100
AcDbEntity
  8
0
  6
Continuous
 62
     7
370
     0
100
AcDbLine
 10
2.1195864599
 20
4.6208054128
 30
0.0
 11
2.1241345216
 21
4.6256471849
 31
0.0
  0
SPLINE
  5
311
330
1F
100
AcDbEntity
  8
0
  6
Continuous
 62
     7
370
     0
100
AcDbSpline
210
0.0
220
0.0
230
1.0
 70
     8
 71
     3
 72
     9
 73
     5
 74
     0
 42
0.00000001
 43
0.00000001
 40
0.0
 40
0.0
 40
0.0
 40
0.0
 40
0.5598758874753501
 40
1.0
 40
1.0
 40
1.0
 40
1.0
 10
2.126973722575036
 20
4.610125033042878
 30
0.0
 10
2.125287669909427
 20
4.6119113698799
 30
0.0
 10
2.122276194146091
 20
4.615101964218722
 30
0.0
 10
2.120408484130065
 20
4.619062351050238
 30
0.0
 10
2.119586459916808
 20
4.620805412789713
 30
0.0
  0
SPLINE
  5
312
330
1F
100
AcDbEntity
  8
0
  6
Continuous
 62
     7
370
     0
100
AcDbSpline
210
0.0
220
0.0
230
1.0
 70
     8
 71
     3
 72
     9
 73
     5
 74
     0
 42
0.00000001
 43
0.00000001
 40
0.0
 40
0.0
 40
0.0
 40
0.0
 40
0.5583285070597471
 40
1.0
 40
1.0
 40
1.0
 40
1.0
 10
2.138704339663643
 20
4.605123055194777
 30
0.0
 10
2.136238669210562
 20
4.605432032719922
 30
0.0
 10
2.131822504852296
 20
4.605985430085881
 30
0.0
 10
2.12845919892511
 20
4.608856821368339
 30
0.0
 10
2.126973722575036
 20
4.610125033042878
 30
0.0
  0
SPLINE
  5
313
330
1F
100
AcDbEntity
  8
0
  6
Continuous
 62
     7
370
     0
100
AcDbSpline
210
0.0
220
0.0
230
1.0
 70
     8
 71
     3
 72
     9
 73
     5
 74
     0
 42
0.00000001
 43
0.00000001
 40
0.0
 40
0.0
 40
0.0
 40
0.0
 40
0.5596682810460089
 40
1.0
 40
1.0
 40
1.0
 40
1.0
 10
2.14921561339782
 20
4.610125033042878
 30
0.0
 10
2.147502457973187
 20
4.608638541051588
 30
0.0
 10
2.144441438646825
 20
4.605982517757734
 30
0.0
 10
2.140458259697362
 20
4.605385806214381
 30
0.0
 10
2.138704339663643
 20
4.605123055194777
 30
0.0
  0
SPLINE
  5
314
330
1F
100
AcDbEntity
  8
0
  6
Continuous
 62
     7
370
     0
100
AcDbSpline
210
0.0
220
0.0
230
1.0
 70
     8
 71
     3
 72
    10
 73
     6
 74
     0
 42
0.00000001
 43
0.00000001
 40
0.0
 40
0.0
 40
0.0
 40
0.0
 40
0.2801850633350285
 40
0.5602878244968802
 40
1.0
 40
1.0
 40
1.0
 40
1.0
 10
2.152900344410479
 20
4.621579740321359
 30
0.0
 10
2.15305956879854
 20
4.620413955517274
 30
0.0
 10
2.153377970803742
 20
4.618082728349284
 30
0.0
 10
2.152331052261123
 20
4.613906766358862
 30
0.0
 10
2.150397040193153
 20
4.611559129896754
 30
0.0
 10
2.14921561339782
 20
4.610125033042878
 30
0.0
  0
SPLINE
  5
315
330
1F
100
AcDbEntity
  8
0
  6
Continuous
 62
     7
370
     0
100
AcDbSpline
210
0.0
220
0.0
230
1.0
 70
     8
 71
     3
 72
     9
 73
     5
 74
     0
 42
0.00000001
 43
0.00000001
 40
0.0
 40
0.0
 40
0.0
 40
0.0
 40
0.5607491261995597
 40
1.0
 40
1.0
 40
1.0
 40
1.0
 10
2.146340811182631
 20
4.631592596334017
 30
0.0
 10
2.148001093612519
 20
4.629993622414017
 30
0.0
 10
2.150961922889492
 20
4.627142126361162
 30
0.0
 10
2.152308749600716
 20
4.623277347717592
 30
0.0
 10
2.152900344410479
 20
4.621579740321359
 30
0.0
  0
SPLINE
  5
316
330
1F
100
AcDbEntity
  8
0
  6
Continuous
 62
     7
370
     0
100
AcDbSpline
210
0.0
220
0.0
230
1.0
 70
     8
 71
     3
 72
     9
 73
     5
 74
     0
 42
0.00000001
 43
0.00000001
 40
0.0
 40
0.0
 40
0.0
 40
0.0
 40
0.5611422669756416
 40
1.0
 40
1.0
 40
1.0
 40
1.0
 10
2.238571270422815
 20
4.585609132856081
 30
0.0
 10
2.240855025783978
 20
4.586919763201074
 30
0.0
 10
2.244924858864761
 20
4.589255410366019
 30
0.0
 10
2.249577351830854
 20
4.588972851284094
 30
0.0
 10
2.251619134346866
 20
4.588848848045954
 30
0.0
  0
SPLINE
  5
317
330
1F
100
AcDbEntity
  8
0
  6
Continuous
 62
     7
370
     0
100
AcDbSpline
210
0.0
220
0.0
230
1.0
 70
     8
 71
     3
 72
    10
 73
     6
 74
     0
 42
0.00000001
 43
0.00000001
 40
0.0
 40
0.0
 40
0.0
 40
0.0
 40
0.2813665217406491
 40
0.5622252353978099
 40
1.0
 40
1.0
 40
1.0
 40
1.0
 10
2.230543184979777
 20
4.59295189393203
 30
0.0
 10
2.23158824448999
 20
4.592679907216972
 30
0.0
 10
2.23367647739524
 20
4.59213642466634
 30
0.0
 10
2.236945956973314
 20
4.58985131401682
 30
0.0
 10
2.23795598493246
 20
4.587215070785446
 30
0.0
 10
2.238571270422815
 20
4.585609132856081
 30
0.0
  0
SPLINE
  5
318
330
1F
100
AcDbEntity
  8
0
  6
Continuous
 62
     7
370
     0
100
AcDbSpline
210
0.0
220
0.0
230
1.0
 70
     8
 71
     3
 72
     9
 73
     5
 74
     0
 42
0.00000001
 43
0.00000001
 40
0.0
 40
0.0
 40
0.0
 40
0.0
 40
0.5610012218462652
 40
1.0
 40
1.0
 40
1.0
 40
1.0
 10
2.219035075802562
 20
4.590192795830764
 30
0.0
 10
2.221057683163149
 20
4.59131085293729
 30
0.0
 10
2.224663036024825
 20
4.593303820266034
 30
0.0
 10
2.228749313959332
 20
4.593059256935372
 30
0.0
 10
2.230543184979777
 20
4.592951893932031
 30
0.0
  0
LINE
  5
319
330
1F
100
AcDbEntity
  8
0
  6
Continuous
 62
     7
370
     0
100
AcDbLine
 10
2.2197471011
 20
4.5938597262
 30
0.0
 11
2.2190350758
 21
4.5901927958
 31
0.0
  0
LINE
  5
31A
330
1F
100
AcDbEntity
  8
0
  6
Continuous
 62
     7
370
     0
100
AcDbLine
 10
2.2140508986
 20
4.5949722658
 30
0.0
 11
2.2197471011
 21
4.5938597262
 31
0.0
  0
LINE
  5
31B
330
1F
100
AcDbEntity
  8
0
  6
Continuous
 62
     7
370
     0
100
AcDbLine
 10
2.2076337704
 20
4.5619342911
 30
0.0
 11
2.2140508986
 21
4.5949722658
 31
0.0
  0
LINE
  5
31C
330
1F
100
AcDbEntity
  8
0
  6
Continuous
 62
     7
370
     0
100
AcDbLine
 10
2.213329973
 20
4.5608217515
 30
0.0
 11
2.2076337704
 21
4.5619342911
 31
0.0
  0
LINE
  5
31D
330
1F
100
AcDbEntity
  8
0
  6
Continuous
 62
     7
370
     0
100
AcDbLine
 10
2.2181895457
 20
4.5858227405
 30
0.0
 11
2.213329973
 21
4.5608217515
 31
0.0
  0
SPLINE
  5
31E
330
1F
100
AcDbEntity
  8
0
  6
Continuous
 62
     7
370
     0
100
AcDbSpline
210
0.0
220
0.0
230
1.0
 70
     8
 71
     3
 72
     9
 73
     5
 74
     0
 42
0.00000001
 43
0.00000001
 40
0.0
 40
0.0
 40
0.0
 40
0.0
 40
0.5574548194838462
 40
1.0
 40
1.0
 40
1.0
 40
1.0
 10
2.22789089067598
 20
4.588145723045955
 30
0.0
 10
2.225984828584434
 20
4.588114262498376
 30
0.0
 10
2.222565606030559
 20
4.58805782644925
 30
0.0
 10
2.219532037064821
 20
4.586508421946417
 30
0.0
 10
2.218189545739271
 20
4.585822740451017
 30
0.0
  0
SPLINE
  5
31F
330
1F
100
AcDbEntity
  8
0
  6
Continuous
 62
     7
370
     0
100
AcDbSpline
210
0.0
220
0.0
230
1.0
 70
     8
 71
     3
 72
    10
 73
     6
 74
     0
 42
0.00000001
 43
0.00000001
 40
0.0
 40
0.0
 40
0.0
 40
0.0
 40
0.2797977254859366
 40
0.5591903932082394
 40
1.0
 40
1.0
 40
1.0
 40
1.0
 10
2.23287506789117
 20
4.584496593299119
 30
0.0
 10
2.232642128446953
 20
4.585068312093746
 30
0.0
 10
2.232176586780456
 20
4.586210922016741
 30
0.0
 10
2.230367262020974
 20
4.587578516627974
 30
0.0
 10
2.228831112129726
 20
4.587930367766559
 30
0.0
 10
2.22789089067598
 20
4.588145723045955
 30
0.0
  0
SPLINE
  5
320
330
1F
100
AcDbEntity
  8
0
  6
Continuous
 62
     7
370
     0
100
AcDbSpline
210
0.0
220
0.0
230
1.0
 70
     8
 71
     3
 72
     9
 73
     5
 74
     0
 42
0.00000001
 43
0.00000001
 40
0.0
 40
0.0
 40
0.0
 40
0.0
 40
0.5612333225588826
 40
1.0
 40
1.0
 40
1.0
 40
1.0
 10
2.232412251435473
 20
4.57690462336241
 30
0.0
 10
2.232706499788648
 20
4.578314843225359
 30
0.0
 10
2.233230788602848
 20
4.580827559071451
 30
0.0
 10
2.232983548576195
 20
4.583377683622704
 30
0.0
 10
2.23287506789117
 20
4.584496593299119
 30
0.0
  0
LINE
  5
321
330
1F
100
AcDbEntity
  8
0
  6
Continuous
 62
     7
370
     0
100
AcDbLine
 10
2.2287097198
 20
4.5578401455
 30
0.0
 11
2.2324122514
 21
4.5769046234
 31
0.0
  0
LINE
  5
322
330
1F
100
AcDbEntity
  8
0
  6
Continuous
 62
     7
370
     0
100
AcDbLine
 10
2.2344059223
 20
4.556727606
 30
0.0
 11
2.2287097198
 21
4.5578401455
 31
0.0
  0
LINE
  5
323
330
1F
100
AcDbEntity
  8
0
  6
Continuous
 62
     7
370
     0
100
AcDbLine
 10
2.2385712704
 20
4.578159568
 30
0.0
 11
2.2344059223
 21
4.556727606
 31
0.0
  0
SPLINE
  5
324
330
1F
100
AcDbEntity
  8
0
  6
Continuous
 62
     7
370
     0
100
AcDbSpline
210
0.0
220
0.0
230
1.0
 70
     8
 71
     3
 72
     9
 73
     5
 74
     0
 42
0.00000001
 43
0.00000001
 40
0.0
 40
0.0
 40
0.0
 40
0.0
 40
0.5599823189896453
 40
1.0
 40
1.0
 40
1.0
 40
1.0
 10
2.239025186562055
 20
4.581621791083928
 30
0.0
 10
2.238968719346654
 20
4.580971719829597
 30
0.0
 10
2.238867881849671
 20
4.579810841651327
 30
0.0
 10
2.238661904221224
 20
4.578664137905644
 30
0.0
 10
2.238571270422815
 20
4.578159567982663
 30
0.0
  0
SPLINE
  5
325
330
1F
100
AcDbEntity
  8
0
  6
Continuous
 62
     7
370
     0
100
AcDbSpline
210
0.0
220
0.0
230
1.0
 70
     8
 71
     3
 72
     9
 73
     5
 74
     0
 42
0.00000001
 43
0.00000001
 40
0.0
 40
0.0
 40
0.0
 40
0.0
 40
0.557228436297663
 40
1.0
 40
1.0
 40
1.0
 40
1.0
 10
2.248966840043068
 20
4.584051577476334
 30
0.0
 10
2.247012145790761
 20
4.584010883872281
 30
0.0
 10
2.243504259033771
 20
4.583937855287588
 30
0.0
 10
2.240399767245604
 20
4.582332567061838
 30
0.0
 10
2.239025186562055
 20
4.581621791083928
 30
0.0
  0
SPLINE
  5
326
330
1F
100
AcDbEntity
  8
0
  6
Continuous
 62
     7
370
     0
100
AcDbSpline
210
0.0
220
0.0
230
1.0
 70
     8
 71
     3
 72
    10
 73
     6
 74
     0
 42
0.00000001
 43
0.00000001
 40
0.0
 40
0.0
 40
0.0
 40
0.0
 40
0.2798374850656392
 40
0.5592745891417031
 40
1.0
 40
1.0
 40
1.0
 40
1.0
 10
2.253942116941802
 20
4.580375746780131
 30
0.0
 10
2.253709035106205
 20
4.580947749015562
 30
0.0
 10
2.253243204919767
 20
4.582090935087055
 30
0.0
 10
2.251448856340115
 20
4.583481729758411
 30
0.0
 10
2.249909125364475
 20
4.583835237583371
 30
0.0
 10
2.248966840043068
 20
4.584051577476334
 30
0.0
  0
SPLINE
  5
327
330
1F
100
AcDbEntity
  8
0
  6
Continuous
 62
     7
370
     0
100
AcDbSpline
210
0.0
220
0.0
230
1.0
 70
     8
 71
     3
 72
     9
 73
     5
 74
     0
 42
0.00000001
 43
0.00000001
 40
0.0
 40
0.0
 40
0.0
 40
0.0
 40
0.5612366806881133
 40
1.0
 40
1.0
 40
1.0
 40
1.0
 10
2.253488200802562
 20
4.57281047779279
 30
0.0
 10
2.253775265303644
 20
4.574216114515734
 30
0.0
 10
2.254286750940561
 20
4.576720649182322
 30
0.0
 10
2.254047216060756
 20
4.579261093151631
 30
0.0
 10
2.253942116941802
 20
4.580375746780131
 30
0.0
  0
LINE
  5
328
330
1F
100
AcDbEntity
  8
0
  6
Continuous
 62
     7
370
     0
100
AcDbLine
 10
2.2497856692
 20
4.5537459999
 30
0.0
 11
2.2534882008
 21
4.5728104778
 31
0.0
  0
LINE
  5
329
330
1F
100
AcDbEntity
  8
0
  6
Continuous
 62
     7
370
     0
100
AcDbLine
 10
2.2554818717
 20
4.5526334604
 30
0.0
 11
2.2497856692
 21
4.5537459999
 31
0.0
  0
LINE
  5
32A
330
1F
100
AcDbEntity
  8
0
  6
Continuous
 62
     7
370
     0
100
AcDbLine
 10
2.2596739207
 20
4.5742167278
 30
0.0
 11
2.2554818717
 21
4.5526334604
 31
0.0
  0
SPLINE
  5
32B
330
1F
100
AcDbEntity
  8
0
  6
Continuous
 62
     7
370
     0
100
AcDbSpline
210
0.0
220
0.0
230
1.0
 70
     8
 71
     3
 72
    11
 73
     7
 74
     0
 42
0.00000001
 43
0.00000001
 40
0.0
 40
0.0
 40
0.0
 40
0.0
 40
0.2800041766315749
 40
0.5576381702101376
 40
0.7785279338349471
 40
0.9999999999999999
 40
0.9999999999999999
 40
0.9999999999999999
 40
0.9999999999999999
 10
2.251619134346866
 20
4.588848848045954
 30
0.0
 10
2.253372461554767
 20
4.588368038427649
 30
0.0
 10
2.256864274383258
 20
4.587410489154645
 30
0.0
 10
2.259761273247867
 20
4.582940430527291
 30
0.0
 10
2.260295645326957
 20
4.578371198650117
 30
0.0
 10
2.25988134405685
 20
4.57560276615299
 30
0.0
 10
2.259673920739271
 20
4.57421672779279
 30
0.0
  0
LINE
  5
32C
330
1F
100
AcDbEntity
  8
0
  6
Continuous
 62
     7
370
     0
100
AcDbLine
 10
2.3415352632
 20
4.5863813094
 30
0.0
 11
2.3484864103
 21
4.5710015625
 31
0.0
  0
LINE
  5
32D
330
1F
100
AcDbEntity
  8
0
  6
Continuous
 62
     7
370
     0
100
AcDbLine
 10
2.3631808328
 20
4.5961538568
 30
0.0
 11
2.3415352632
 21
4.5863813094
 31
0.0
  0
LINE
  5
32E
330
1F
100
AcDbEntity
  8
0
  6
Continuous
 62
     7
370
     0
100
AcDbLine
 10
2.3611248597
 20
4.6007108189
 30
0.0
 11
2.3631808328
 21
4.5961538568
 31
0.0
  0
LINE
  5
32F
330
1F
100
AcDbEntity
  8
0
  6
Continuous
 62
     7
370
     0
100
AcDbLine
 10
2.3394792901
 20
4.5909382714
 30
0.0
 11
2.3611248597
 21
4.6007108189
 31
0.0
  0
LINE
  5
330
330
1F
100
AcDbEntity
  8
0
  6
Continuous
 62
     7
370
     0
100
AcDbLine
 10
2.3343349072
 20
4.6023306765
 30
0.0
 11
2.3394792901
 21
4.5909382714
 31
0.0
  0
LINE
  5
331
330
1F
100
AcDbEntity
  8
0
  6
Continuous
 62
     7
370
     0
100
AcDbLine
 10
2.3559804768
 20
4.6121032239
 30
0.0
 11
2.3343349072
 21
4.6023306765
 31
0.0
  0
LINE
  5
332
330
1F
100
AcDbEntity
  8
0
  6
Continuous
 62
     7
370
     0
100
AcDbLine
 10
2.3539245037
 20
4.6166601859
 30
0.0
 11
2.3559804768
 21
4.6121032239
 31
0.0
  0
LINE
  5
333
330
1F
100
AcDbEntity
  8
0
  6
Continuous
 62
     7
370
     0
100
AcDbLine
 10
2.3271523518
 20
4.6045735562
 30
0.0
 11
2.3539245037
 21
4.6166601859
 31
0.0
  0
LINE
  5
334
330
1F
100
AcDbEntity
  8
0
  6
Continuous
 62
     7
370
     0
100
AcDbLine
 10
2.3454158012
 20
4.5641305182
 30
0.0
 11
2.3271523518
 21
4.6045735562
 31
0.0
  0
LINE
  5
335
330
1F
100
AcDbEntity
  8
0
  6
Continuous
 62
     7
370
     0
100
AcDbLine
 10
2.3721879531
 20
4.576217148
 30
0.0
 11
2.3454158012
 21
4.5641305182
 31
0.0
  0
LINE
  5
336
330
1F
100
AcDbEntity
  8
0
  6
Continuous
 62
     7
370
     0
100
AcDbLine
 10
2.37013198
 20
4.58077411
 30
0.0
 11
2.3721879531
 21
4.576217148
 31
0.0
  0
LINE
  5
337
330
1F
100
AcDbEntity
  8
0
  6
Continuous
 62
     7
370
     0
100
AcDbLine
 10
2.3484864103
 20
4.5710015625
 30
0.0
 11
2.37013198
 21
4.58077411
 31
0.0
  0
CIRCLE
  5
338
330
1F
100
AcDbEntity
  8
0
  6
Continuous
 62
     7
370
     0
100
AcDbCircle
 10
2.2729587781
 20
4.7606638085
 30
0.0
 40
0.2849999999999993
  0
SPLINE
  5
339
330
1F
100
AcDbEntity
  8
0
  6
Continuous
 62
     7
370
     0
100
AcDbSpline
210
0.0
220
0.0
230
1.0
 70
     8
 71
     3
 72
    13
 73
     9
 74
     0
 42
0.00000001
 43
0.00000001
 40
0.0
 40
0.0
 40
0.0
 40
0.0
 40
0.1870071950849867
 40
0.3737733832546887
 40
0.5601573318136414
 40
0.7067152210264015
 40
0.8532447245366871
 40
1.0
 40
1.0
 40
1.0
 40
1.0
 10
2.161142943656574
 20
4.913654261788047
 30
0.0
 10
2.158690930884279
 20
4.915895819989414
 30
0.0
 10
2.153790065389409
 20
4.920376047567324
 30
0.0
 10
2.145076539510336
 20
4.9253621481039
 30
0.0
 10
2.135950114477307
 20
4.927574711946619
 30
0.0
 10
2.127362738803583
 20
4.926762243920779
 30
0.0
 10
2.120045854459585
 20
4.923623379614328
 30
0.0
 10
2.116175128677319
 20
4.92011111370862
 30
0.0
 10
2.114238275935054
 20
4.918353628876655
 30
0.0
  0
SPLINE
  5
33A
330
1F
100
AcDbEntity
  8
0
  6
Continuous
 62
     7
370
     0
100
AcDbSpline
210
0.0
220
0.0
230
1.0
 70
     8
 71
     3
 72
    12
 73
     8
 74
     0
 42
0.00000001
 43
0.00000001
 40
0.0
 40
0.0
 40
0.0
 40
0.0
 40
0.1866367610939032
 40
0.372902883229546
 40
0.5594166568566233
 40
0.7794477787185474
 40
1.0
 40
1.0
 40
1.0
 40
1.0
 10
2.166643339226193
 20
4.866856397863996
 30
0.0
 10
2.168796243990688
 20
4.869404942505604
 30
0.0
 10
2.173097778100543
 20
4.874496970674782
 30
0.0
 10
2.175682600011905
 20
4.88442017683358
 30
0.0
 10
2.174362027821503
 20
4.895025967580908
 30
0.0
 10
2.169167061872334
 20
4.90509933927821
 30
0.0
 10
2.163819757900942
 20
4.910800373321048
 30
0.0
 10
2.161142943656574
 20
4.913654261788047
 30
0.0
  0
SPLINE
  5
33B
330
1F
100
AcDbEntity
  8
0
  6
Continuous
 62
     7
370
     0
100
AcDbSpline
210
0.0
220
0.0
230
1.0
 70
     8
 71
     3
 72
    13
 73
     9
 74
     0
 42
0.00000001
 43
0.00000001
 40
0.0
 40
0.0
 40
0.0
 40
0.0
 40
0.1869963221313429
 40
0.3737405268780532
 40
0.5600804945389767
 40
0.7066587239386304
 40
0.8532338735704089
 40
1.0
 40
1.0
 40
1.0
 40
1.0
 10
2.119738671504675
 20
4.87150236305387
 30
0.0
 10
2.122190421621509
 20
4.869262443776758
 30
0.0
 10
2.127090616288414
 20
4.864785625188828
 30
0.0
 10
2.135783740972408
 20
4.859764732193454
 30
0.0
 10
2.144932690707375
 20
4.857608021223349
 30
0.0
 10
2.153503262194362
 20
4.858487606931239
 30
0.0
 10
2.160838297672432
 20
4.861577858522226
 30
0.0
 10
2.164707485710015
 20
4.86509612124058
 30
0.0
 10
2.166643339226193
 20
4.866856397863996
 30
0.0
  0
SPLINE
  5
33C
330
1F
100
AcDbEntity
  8
0
  6
Continuous
 62
     7
370
     0
100
AcDbSpline
210
0.0
220
0.0
230
1.0
 70
     8
 71
     3
 72
    12
 73
     8
 74
     0
 42
0.00000001
 43
0.00000001
 40
0.0
 40
0.0
 40
0.0
 40
0.0
 40
0.1866996430089047
 40
0.3729852302505761
 40
0.5594630584439048
 40
0.7794656982284628
 40
1.0
 40
1.0
 40
1.0
 40
1.0
 10
2.114238275935054
 20
4.918353628876655
 30
0.0
 10
2.112067635209625
 20
4.915810465059735
 30
0.0
 10
2.107731167727857
 20
4.91072977756333
 30
0.0
 10
2.105115710990682
 20
4.900783159801078
 30
0.0
 10
2.106504424853927
 20
4.890164006059518
 30
0.0
 10
2.111713674183915
 20
4.880085258826157
 30
0.0
 10
2.117061521048177
 20
4.874365629222871
 30
0.0
 10
2.119738671504675
 20
4.87150236305387
 30
0.0
  0
LINE
  5
33D
330
1F
100
AcDbEntity
  8
0
  6
Continuous
 62
     7
370
     0
100
AcDbLine
 10
2.2191006651
 20
4.9442283935
 30
0.0
 11
2.231080491
 21
4.9464890739
 31
0.0
  0
LINE
  5
33E
330
1F
100
AcDbEntity
  8
0
  6
Continuous
 62
     7
370
     0
100
AcDbLine
 10
2.2130662505
 20
4.9761271277
 30
0.0
 11
2.2191006651
 21
4.9442283935
 31
0.0
  0
LINE
  5
33F
330
1F
100
AcDbEntity
  8
0
  6
Continuous
 62
     7
370
     0
100
AcDbLine
 10
2.2270041461
 20
4.9787616214
 30
0.0
 11
2.2130662505
 21
4.9761271277
 31
0.0
  0
SPLINE
  5
340
330
1F
100
AcDbEntity
  8
0
  6
Continuous
 62
     7
370
     0
100
AcDbSpline
210
0.0
220
0.0
230
1.0
 70
     8
 71
     3
 72
     9
 73
     5
 74
     0
 42
0.00000001
 43
0.00000001
 40
0.0
 40
0.0
 40
0.0
 40
0.0
 40
0.5580880948140321
 40
1.0
 40
1.0
 40
1.0
 40
1.0
 10
2.241992278993316
 20
4.978530213163102
 30
0.0
 10
2.239204222820072
 20
4.979095858596722
 30
0.0
 10
2.234208495086132
 20
4.980109400076778
 30
0.0
 10
2.229212108706148
 20
4.979174683690165
 30
0.0
 10
2.227004146081923
 20
4.978761621390949
 30
0.0
  0
SPLINE
  5
341
330
1F
100
AcDbEntity
  8
0
  6
Continuous
 62
     7
370
     0
100
AcDbSpline
210
0.0
220
0.0
230
1.0
 70
     8
 71
     3
 72
    10
 73
     6
 74
     0
 42
0.00000001
 43
0.00000001
 40
0.0
 40
0.0
 40
0.0
 40
0.0
 40
0.2811189128983777
 40
0.5619309491860347
 40
1.0
 40
1.0
 40
1.0
 40
1.0
 10
2.249913560638885
 20
4.968455054935253
 30
0.0
 10
2.249610973415593
 20
4.96967261961059
 30
0.0
 10
2.249006129280976
 20
4.972106419836457
 30
0.0
 10
2.246693321589943
 20
4.97610092787028
 30
0.0
 10
2.243772287656308
 20
4.97761038553397
 30
0.0
 10
2.241992278993316
 20
4.978530213163102
 30
0.0
  0
SPLINE
  5
342
330
1F
100
AcDbEntity
  8
0
  6
Continuous
 62
     7
370
     0
100
AcDbSpline
210
0.0
220
0.0
230
1.0
 70
     8
 71
     3
 72
    10
 73
     6
 74
     0
 42
0.00000001
 43
0.00000001
 40
0.0
 40
0.0
 40
0.0
 40
0.0
 40
0.2801907741799001
 40
0.5600980828705677
 40
1.0
 40
1.0
 40
1.0
 40
1.0
 10
2.247172263170531
 20
4.954125545441582
 30
0.0
 10
2.247957108684626
 20
4.955300837981691
 30
0.0
 10
2.249526005694462
 20
4.957650234033196
 30
0.0
 10
2.250737142010665
 20
4.962646084869974
 30
0.0
 10
2.250225961728209
 20
4.966251594975589
 30
0.0
 10
2.249913560638885
 20
4.968455054935253
 30
0.0
  0
SPLINE
  5
343
330
1F
100
AcDbEntity
  8
0
  6
Continuous
 62
     7
370
     0
100
AcDbSpline
210
0.0
220
0.0
230
1.0
 70
     8
 71
     3
 72
    10
 73
     6
 74
     0
 42
0.00000001
 43
0.00000001
 40
0.0
 40
0.0
 40
0.0
 40
0.0
 40
0.5600879827705203
 40
0.780128378702416
 40
1.0
 40
1.0
 40
1.0
 40
1.0
 10
2.231080491018632
 20
4.946489073922596
 30
0.0
 10
2.23440936612917
 20
4.94722129884551
 30
0.0
 10
2.239046048262647
 20
4.94824119118302
 30
0.0
 10
2.244437637572363
 20
4.951181507255929
 30
0.0
 10
2.246260954479619
 20
4.953144450410965
 30
0.0
 10
2.247172263170531
 20
4.954125545441583
 30
0.0
  0
LINE
  5
344
330
1F
100
AcDbEntity
  8
0
  6
Continuous
 62
     7
370
     0
100
AcDbLine
 10
2.4164764381
 20
4.8694542949
 30
0.0
 11
2.4372319761
 21
4.9083486778
 31
0.0
  0
LINE
  5
345
330
1F
100
AcDbEntity
  8
0
  6
Continuous
 62
     7
370
     0
100
AcDbLine
 10
2.3964151248
 20
4.8916516842
 30
0.0
 11
2.4164764381
 21
4.8694542949
 31
0.0
  0
LINE
  5
346
330
1F
100
AcDbEntity
  8
0
  6
Continuous
 62
     7
370
     0
100
AcDbLine
 10
2.4372319761
 20
4.9083486778
 30
0.0
 11
2.3964151248
 21
4.8916516842
 31
0.0
  0
LINE
  5
347
330
1F
100
AcDbEntity
  8
0
  6
Continuous
 62
     7
370
     0
100
AcDbLine
 10
2.4219601346
 20
4.8055154169
 30
0.0
 11
2.4247192327
 21
4.7897440562
 31
0.0
  0
LINE
  5
348
330
1F
100
AcDbEntity
  8
0
  6
Continuous
 62
     7
370
     0
100
AcDbLine
 10
2.4571341852
 20
4.7923429486
 30
0.0
 11
2.4538588688
 21
4.8110692144
 31
0.0
  0
SPLINE
  5
349
330
1F
100
AcDbEntity
  8
0
  6
Continuous
 62
     7
370
     0
100
AcDbSpline
210
0.0
220
0.0
230
1.0
 70
     8
 71
     3
 72
     9
 73
     5
 74
     0
 42
0.00000001
 43
0.00000001
 40
0.0
 40
0.0
 40
0.0
 40
0.0
 40
0.5584123557144304
 40
1.0
 40
1.0
 40
1.0
 40
1.0
 10
2.457810609266253
 20
4.774916128952286
 30
0.0
 10
2.458119826628039
 20
4.778181543976408
 30
0.0
 10
2.458673570395744
 20
4.784029220860177
 30
0.0
 10
2.457605730236163
 20
4.789796284517609
 30
0.0
 10
2.45713418521562
 20
4.792342948572539
 30
0.0
  0
SPLINE
  5
34A
330
1F
100
AcDbEntity
  8
0
  6
Continuous
 62
     7
370
     0
100
AcDbSpline
210
0.0
220
0.0
230
1.0
 70
     8
 71
     3
 72
    11
 73
     7
 74
     0
 42
0.00000001
 43
0.00000001
 40
0.0
 40
0.0
 40
0.0
 40
0.0
 40
0.2804362479381278
 40
0.5596729420112766
 40
0.7796025430872301
 40
0.9999999999999999
 40
0.9999999999999999
 40
0.9999999999999999
 40
0.9999999999999999
 10
2.445706178886506
 20
4.765036777686463
 30
0.0
 10
2.447229007748884
 20
4.76536498120326
 30
0.0
 10
2.450268151639352
 20
4.766019984360572
 30
0.0
 10
2.454182890650954
 20
4.768147792417954
 30
0.0
 10
2.456614596226007
 20
4.771438475366792
 30
0.0
 10
2.457411655955819
 20
4.773756090253888
 30
0.0
 10
2.457810609266253
 20
4.774916128952286
 30
0.0
  0
SPLINE
  5
34B
330
1F
100
AcDbEntity
  8
0
  6
Continuous
 62
     7
370
     0
100
AcDbSpline
210
0.0
220
0.0
230
1.0
 70
     8
 71
     3
 72
    10
 73
     6
 74
     0
 42
0.00000001
 43
0.00000001
 40
0.0
 40
0.0
 40
0.0
 40
0.0
 40
0.2806813719182228
 40
0.5606218894487756
 40
1.0
 40
1.0
 40
1.0
 40
1.0
 10
2.432017492177645
 20
4.769344530851019
 30
0.0
 10
2.433045179859492
 20
4.768382532156808
 30
0.0
 10
2.435097842656538
 20
4.766461073949909
 30
0.0
 10
2.439833094097234
 20
4.76437876681774
 30
0.0
 10
2.443479103576997
 20
4.764787259790553
 30
0.0
 10
2.445706178886506
 20
4.765036777686463
 30
0.0
  0
SPLINE
  5
34C
330
1F
100
AcDbEntity
  8
0
  6
Continuous
 62
     7
370
     0
100
AcDbSpline
210
0.0
220
0.0
230
1.0
 70
     8
 71
     3
 72
    10
 73
     6
 74
     0
 42
0.00000001
 43
0.00000001
 40
0.0
 40
0.0
 40
0.0
 40
0.0
 40
0.560285213655015
 40
0.7803322306575645
 40
1.0
 40
1.0
 40
1.0
 40
1.0
 10
2.424719232683974
 20
4.789744056167476
 30
0.0
 10
2.4254827567914
 20
4.785722911666085
 30
0.0
 10
2.426546148177409
 20
4.780122498551313
 30
0.0
 10
2.429090800037355
 20
4.773201873182781
 30
0.0
 10
2.431042489232141
 20
4.770629572104083
 30
0.0
 10
2.432017492177645
 20
4.769344530851019
 30
0.0
  0
LINE
  5
34D
330
1F
100
AcDbEntity
  8
0
  6
Continuous
 62
     7
370
     0
100
AcDbLine
 10
2.4538588688
 20
4.8110692144
 30
0.0
 11
2.4219601346
 21
4.8055154169
 31
0.0
  0
LINE
  5
34E
330
1F
100
AcDbEntity
  8
0
  6
Continuous
 62
     7
370
     0
100
AcDbLine
 10
2.4891753245
 20
4.8172282334
 30
0.0
 11
2.4641120333
 21
4.8128670783
 31
0.0
  0
LINE
  5
34F
330
1F
100
AcDbEntity
  8
0
  6
Continuous
 62
     7
370
     0
100
AcDbLine
 10
2.4916318118
 20
4.8031479327
 30
0.0
 11
2.4891753245
 21
4.8172282334
 31
0.0
  0
SPLINE
  5
350
330
1F
100
AcDbEntity
  8
0
  6
Continuous
 62
     7
370
     0
100
AcDbSpline
210
0.0
220
0.0
230
1.0
 70
     8
 71
     3
 72
    10
 73
     6
 74
     0
 42
0.00000001
 43
0.00000001
 40
0.0
 40
0.0
 40
0.0
 40
0.0
 40
0.2793465162590723
 40
0.5594972049701804
 40
0.9999999999999999
 40
0.9999999999999999
 40
0.9999999999999999
 40
0.9999999999999999
 10
2.492219232683974
 20
4.786059325154818
 30
0.0
 10
2.492586145957882
 20
4.787635664174491
 30
0.0
 10
2.493321028762101
 20
4.79079288012049
 30
0.0
 10
2.492680426325134
 20
4.796570161145729
 30
0.0
 10
2.492029620119312
 20
4.800652552214321
 30
0.0
 10
2.491631811797898
 20
4.803147932749754
 30
0.0
  0
SPLINE
  5
351
330
1F
100
AcDbEntity
  8
0
  6
Continuous
 62
     7
370
     0
100
AcDbSpline
210
0.0
220
0.0
230
1.0
 70
     8
 71
     3
 72
     9
 73
     5
 74
     0
 42
0.00000001
 43
0.00000001
 40
0.0
 40
0.0
 40
0.0
 40
0.0
 40
0.5603126358926022
 40
1.0
 40
1.0
 40
1.0
 40
1.0
 10
2.484226748506759
 20
4.779971508699122
 30
0.0
 10
2.486237812535293
 20
4.780477239151033
 30
0.0
 10
2.489826994537819
 20
4.78137982534937
 30
0.0
 10
2.491488631783374
 20
4.784630183671678
 30
0.0
 10
2.492219232683974
 20
4.786059325154818
 30
0.0
  0
SPLINE
  5
352
330
1F
100
AcDbEntity
  8
0
  6
Continuous
 62
     7
370
     0
100
AcDbSpline
210
0.0
220
0.0
230
1.0
 70
     8
 71
     3
 72
     9
 73
     5
 74
     0
 42
0.00000001
 43
0.00000001
 40
0.0
 40
0.0
 40
0.0
 40
0.0
 40
0.561377586603467
 40
0.9999999999999999
 40
0.9999999999999999
 40
0.9999999999999999
 40
0.9999999999999999
 10
2.466782128253594
 20
4.7975941352814
 30
0.0
 10
2.467234140104816
 20
4.794669966577956
 30
0.0
 10
2.468039323393225
 20
4.789461050559174
 30
0.0
 10
2.470951691845322
 20
4.785091990354445
 30
0.0
 10
2.472229121924481
 20
4.783175622623172
 30
0.0
  0
LINE
  5
353
330
1F
100
AcDbEntity
  8
0
  6
Continuous
 62
     7
370
     0
100
AcDbLine
 10
2.4641120333
 20
4.8128670783
 30
0.0
 11
2.4667821283
 21
4.7975941353
 31
0.0
  0
SPLINE
  5
354
330
1F
100
AcDbEntity
  8
0
  6
Continuous
 62
     7
370
     0
100
AcDbSpline
210
0.0
220
0.0
230
1.0
 70
     8
 71
     3
 72
    10
 73
     6
 74
     0
 42
0.00000001
 43
0.00000001
 40
0.0
 40
0.0
 40
0.0
 40
0.0
 40
0.2800098553163126
 40
0.5598108846823167
 40
1.0
 40
1.0
 40
1.0
 40
1.0
 10
2.472229121924481
 20
4.783175622623172
 30
0.0
 10
2.473121912927188
 20
4.782337111342859
 30
0.0
 10
2.47490682910629
 20
4.780660714127774
 30
0.0
 10
2.479205850811813
 20
4.779405379800878
 30
0.0
 10
2.482321745900148
 20
4.779756711048909
 30
0.0
 10
2.484226748506759
 20
4.779971508699122
 30
0.0
  0
SPLINE
  5
355
330
1F
100
AcDbEntity
  8
0
  6
Continuous
 62
     7
370
     0
100
AcDbSpline
210
0.0
220
0.0
230
1.0
 70
     8
 71
     3
 72
    11
 73
     7
 74
     0
 42
0.00000001
 43
0.00000001
 40
0.0
 40
0.0
 40
0.0
 40
0.0
 40
0.2796750151035881
 40
0.5596025493532591
 40
0.7797879916378614
 40
0.9999999999999999
 40
0.9999999999999999
 40
0.9999999999999999
 40
0.9999999999999999
 10
2.13757490568189
 20
4.938592948496908
 30
0.0
 10
2.141020768336487
 20
4.938203101440666
 30
0.0
 10
2.147915604922157
 20
4.937423055334476
 30
0.0
 10
2.156733817135137
 20
4.93327008150235
 30
0.0
 10
2.164129640994054
 20
4.928327526743954
 30
0.0
 10
2.168107575018436
 20
4.924621373995805
 30
0.0
 10
2.170096662011004
 20
4.92276818583868
 30
0.0
  0
SPLINE
  5
356
330
1F
100
AcDbEntity
  8
0
  6
Continuous
 62
     7
370
     0
100
AcDbSpline
210
0.0
220
0.0
230
1.0
 70
     8
 71
     3
 72
    11
 73
     7
 74
     0
 42
0.00000001
 43
0.00000001
 40
0.0
 40
0.0
 40
0.0
 40
0.0
 40
0.2801246362106555
 40
0.5600773453847305
 40
0.7801016060622834
 40
0.9999999999999999
 40
0.9999999999999999
 40
0.9999999999999999
 40
0.9999999999999999
 10
2.170096662011004
 20
4.92276818583868
 30
0.0
 10
2.17246913546187
 20
4.920263206710913
 30
0.0
 10
2.177212626253438
 20
4.915254785891155
 30
0.0
 10
2.182206161842621
 20
4.907000929918021
 30
0.0
 10
2.185513235723259
 20
4.898712779930659
 30
0.0
 10
2.186105829595534
 20
4.893317240602853
 30
0.0
 10
2.186402041757839
 20
4.890620242800705
 30
0.0
  0
SPLINE
  5
357
330
1F
100
AcDbEntity
  8
0
  6
Continuous
 62
     7
370
     0
100
AcDbSpline
210
0.0
220
0.0
230
1.0
 70
     8
 71
     3
 72
    12
 73
     8
 74
     0
 42
0.00000001
 43
0.00000001
 40
0.0
 40
0.0
 40
0.0
 40
0.0
 40
0.1866367610939032
 40
0.372902883229546
 40
0.5594166568566233
 40
0.7794477787185474
 40
1.0
 40
1.0
 40
1.0
 40
1.0
 10
2.166643339226193
 20
4.866856397863996
 30
0.0
 10
2.168796243990688
 20
4.869404942505604
 30
0.0
 10
2.173097778100543
 20
4.874496970674782
 30
0.0
 10
2.175682600011905
 20
4.88442017683358
 30
0.0
 10
2.174362027821503
 20
4.895025967580908
 30
0.0
 10
2.169167061872334
 20
4.90509933927821
 30
0.0
 10
2.163819757900942
 20
4.910800373321048
 30
0.0
 10
2.161142943656574
 20
4.913654261788047
 30
0.0
  0
SPLINE
  5
358
330
1F
100
AcDbEntity
  8
0
  6
Continuous
 62
     7
370
     0
100
AcDbSpline
210
0.0
220
0.0
230
1.0
 70
     8
 71
     3
 72
    11
 73
     7
 74
     0
 42
0.00000001
 43
0.00000001
 40
0.0
 40
0.0
 40
0.0
 40
0.0
 40
0.2800975005928514
 40
0.5600479415246287
 40
0.7800610806788006
 40
0.9999999999999999
 40
0.9999999999999999
 40
0.9999999999999999
 40
0.9999999999999999
 10
2.173443180998346
 20
4.860109957990579
 30
0.0
 10
2.171106483876687
 20
4.857938664359216
 30
0.0
 10
2.166434316470046
 20
4.853597217091331
 30
0.0
 10
2.1585711738557
 20
4.849337821279251
 30
0.0
 10
2.150698556189665
 20
4.846877733606796
 30
0.0
 10
2.145687306963593
 20
4.846703953592542
 30
0.0
 10
2.143182105048979
 20
4.846617078243743
 30
0.0
  0
SPLINE
  5
359
330
1F
100
AcDbEntity
  8
0
  6
Continuous
 62
     7
370
     0
100
AcDbSpline
210
0.0
220
0.0
230
1.0
 70
     8
 71
     3
 72
    13
 73
     9
 74
     0
 42
0.00000001
 43
0.00000001
 40
0.0
 40
0.0
 40
0.0
 40
0.0
 40
0.1869963221313428
 40
0.3737405268780531
 40
0.5600804945389799
 40
0.7066587239386333
 40
0.853233873570409
 40
1.0
 40
1.0
 40
1.0
 40
1.0
 10
2.119738671504675
 20
4.87150236305387
 30
0.0
 10
2.122190421621509
 20
4.869262443776758
 30
0.0
 10
2.127090616288414
 20
4.864785625188828
 30
0.0
 10
2.135783740972408
 20
4.859764732193454
 30
0.0
 10
2.144932690707375
 20
4.857608021223349
 30
0.0
 10
2.153503262194362
 20
4.858487606931239
 30
0.0
 10
2.160838297672432
 20
4.861577858522227
 30
0.0
 10
2.164707485710015
 20
4.86509612124058
 30
0.0
 10
2.166643339226193
 20
4.866856397863996
 30
0.0
  0
SPLINE
  5
35A
330
1F
100
AcDbEntity
  8
0
  6
Continuous
 62
     7
370
     0
100
AcDbSpline
210
0.0
220
0.0
230
1.0
 70
     8
 71
     3
 72
    11
 73
     7
 74
     0
 42
0.00000001
 43
0.00000001
 40
0.0
 40
0.0
 40
0.0
 40
0.0
 40
0.279684628595976
 40
0.5595669119416045
 40
0.7797542584294355
 40
1.0
 40
1.0
 40
1.0
 40
1.0
 10
2.143182105048979
 20
4.846617078243743
 30
0.0
 10
2.139748827018537
 20
4.847004067844178
 30
0.0
 10
2.132879844640151
 20
4.847778320532846
 30
0.0
 10
2.124082608555115
 20
4.851897442898258
 30
0.0
 10
2.116734117348834
 20
4.856853257315501
 30
0.0
 10
2.112768183158355
 20
4.860543215362231
 30
0.0
 10
2.110784953150245
 20
4.862388439003237
 30
0.0
  0
SPLINE
  5
35B
330
1F
100
AcDbEntity
  8
0
  6
Continuous
 62
     7
370
     0
100
AcDbSpline
210
0.0
220
0.0
230
1.0
 70
     8
 71
     3
 72
    11
 73
     7
 74
     0
 42
0.00000001
 43
0.00000001
 40
0.0
 40
0.0
 40
0.0
 40
0.0
 40
0.2801006522962085
 40
0.5600324108245822
 40
0.7800533069372485
 40
0.9999999999999999
 40
0.9999999999999999
 40
0.9999999999999999
 40
0.9999999999999999
 10
2.107367231631257
 20
4.925028866218426
 30
0.0
 10
2.109696173039215
 20
4.927205347851008
 30
0.0
 10
2.114352651561044
 20
4.93155699875156
 30
0.0
 10
2.122209935095098
 20
4.93581207553985
 30
0.0
 10
2.13006553094046
 20
4.93829782826301
 30
0.0
 10
2.135072062228124
 20
4.938494586147056
 30
0.0
 10
2.13757490568189
 20
4.938592948496908
 30
0.0
  0
SPLINE
  5
35C
330
1F
100
AcDbEntity
  8
0
  6
Continuous
 62
     7
370
     0
100
AcDbSpline
210
0.0
220
0.0
230
1.0
 70
     8
 71
     3
 72
    13
 73
     9
 74
     0
 42
0.00000001
 43
0.00000001
 40
0.0
 40
0.0
 40
0.0
 40
0.0
 40
0.1870071950849867
 40
0.3737733832546887
 40
0.5601573318136414
 40
0.7067152210264015
 40
0.8532447245366871
 40
1.0
 40
1.0
 40
1.0
 40
1.0
 10
2.161142943656574
 20
4.913654261788047
 30
0.0
 10
2.158690930884279
 20
4.915895819989414
 30
0.0
 10
2.153790065389409
 20
4.920376047567324
 30
0.0
 10
2.145076539510336
 20
4.9253621481039
 30
0.0
 10
2.135950114477307
 20
4.927574711946619
 30
0.0
 10
2.127362738803583
 20
4.926762243920779
 30
0.0
 10
2.120045854459585
 20
4.923623379614328
 30
0.0
 10
2.116175128677319
 20
4.92011111370862
 30
0.0
 10
2.114238275935054
 20
4.918353628876655
 30
0.0
  0
SPLINE
  5
35D
330
1F
100
AcDbEntity
  8
0
  6
Continuous
 62
     7
370
     0
100
AcDbSpline
210
0.0
220
0.0
230
1.0
 70
     8
 71
     3
 72
    11
 73
     7
 74
     0
 42
0.00000001
 43
0.00000001
 40
0.0
 40
0.0
 40
0.0
 40
0.0
 40
0.27978692107678
 40
0.5595531805661728
 40
0.7797397064138247
 40
1.0
 40
1.0
 40
1.0
 40
1.0
 10
2.186402041757839
 20
4.890620242800705
 30
0.0
 10
2.186309254143808
 20
4.887422294429435
 30
0.0
 10
2.186123685767887
 20
4.881026633847648
 30
0.0
 10
2.182881823527457
 20
4.872620642636834
 30
0.0
 10
2.1785358854943
 20
4.865647732601458
 30
0.0
 10
2.175140938696608
 20
4.861956088957795
 30
0.0
 10
2.173443180998346
 20
4.860109957990579
 30
0.0
  0
SPLINE
  5
35E
330
1F
100
AcDbEntity
  8
0
  6
Continuous
 62
     7
370
     0
100
AcDbSpline
210
0.0
220
0.0
230
1.0
 70
     8
 71
     3
 72
    12
 73
     8
 74
     0
 42
0.00000001
 43
0.00000001
 40
0.0
 40
0.0
 40
0.0
 40
0.0
 40
0.1866996430089049
 40
0.3729852302505758
 40
0.5594630584439043
 40
0.7794656982284626
 40
1.0
 40
1.0
 40
1.0
 40
1.0
 10
2.114238275935054
 20
4.918353628876655
 30
0.0
 10
2.112067635209625
 20
4.915810465059735
 30
0.0
 10
2.107731167727857
 20
4.91072977756333
 30
0.0
 10
2.105115710990682
 20
4.900783159801079
 30
0.0
 10
2.106504424853927
 20
4.890164006059518
 30
0.0
 10
2.111713674183915
 20
4.880085258826158
 30
0.0
 10
2.117061521048177
 20
4.874365629222871
 30
0.0
 10
2.119738671504675
 20
4.87150236305387
 30
0.0
  0
SPLINE
  5
35F
330
1F
100
AcDbEntity
  8
0
  6
Continuous
 62
     7
370
     0
100
AcDbSpline
210
0.0
220
0.0
230
1.0
 70
     8
 71
     3
 72
    11
 73
     7
 74
     0
 42
0.00000001
 43
0.00000001
 40
0.0
 40
0.0
 40
0.0
 40
0.0
 40
0.2801107257773401
 40
0.5600641369853051
 40
0.7800787798861168
 40
1.0
 40
1.0
 40
1.0
 40
1.0
 10
2.110784953150245
 20
4.862388439003237
 30
0.0
 10
2.108407212643297
 20
4.864902261870836
 30
0.0
 10
2.1036530670057
 20
4.869928495803752
 30
0.0
 10
2.098591606619221
 20
4.878183071188636
 30
0.0
 10
2.095331733957663
 20
4.886518386802171
 30
0.0
 10
2.094692379133017
 20
4.891923435001753
 30
0.0
 10
2.094372769605941
 20
4.894625385205768
 30
0.0
  0
SPLINE
  5
360
330
1F
100
AcDbEntity
  8
0
  6
Continuous
 62
     7
370
     0
100
AcDbSpline
210
0.0
220
0.0
230
1.0
 70
     8
 71
     3
 72
    11
 73
     7
 74
     0
 42
0.00000001
 43
0.00000001
 40
0.0
 40
0.0
 40
0.0
 40
0.0
 40
0.2797126289213149
 40
0.5595903795940593
 40
0.7797750585413771
 40
1.0
 40
1.0
 40
1.0
 40
1.0
 10
2.094372769605941
 20
4.894625385205768
 30
0.0
 10
2.09449106837545
 20
4.89781035380017
 30
0.0
 10
2.094727735749356
 20
4.904182171160046
 30
0.0
 10
2.098068123990898
 20
4.912501749227244
 30
0.0
 10
2.102314900408742
 20
4.919492771346238
 30
0.0
 10
2.105683018585291
 20
4.923183388794878
 30
0.0
 10
2.107367231631257
 20
4.925028866218426
 30
0.0
  0
SPLINE
  5
361
330
1F
100
AcDbEntity
  8
0
  6
Continuous
 62
     7
370
     0
100
AcDbSpline
210
0.0
220
0.0
230
1.0
 70
     8
 71
     3
 72
    10
 73
     6
 74
     0
 42
0.00000001
 43
0.00000001
 40
0.0
 40
0.0
 40
0.0
 40
0.0
 40
0.2801850633350285
 40
0.5602878244968802
 40
1.0
 40
1.0
 40
1.0
 40
1.0
 10
2.152900344410479
 20
4.621579740321359
 30
0.0
 10
2.15305956879854
 20
4.620413955517274
 30
0.0
 10
2.153377970803742
 20
4.618082728349284
 30
0.0
 10
2.152331052261123
 20
4.613906766358862
 30
0.0
 10
2.150397040193153
 20
4.611559129896754
 30
0.0
 10
2.14921561339782
 20
4.610125033042878
 30
0.0
  0
SPLINE
  5
362
330
1F
100
AcDbEntity
  8
0
  6
Continuous
 62
     7
370
     0
100
AcDbSpline
210
0.0
220
0.0
230
1.0
 70
     8
 71
     3
 72
     9
 73
     5
 74
     0
 42
0.00000001
 43
0.00000001
 40
0.0
 40
0.0
 40
0.0
 40
0.0
 40
0.5607491261995597
 40
1.0
 40
1.0
 40
1.0
 40
1.0
 10
2.146340811182631
 20
4.631592596334017
 30
0.0
 10
2.148001093612519
 20
4.629993622414017
 30
0.0
 10
2.150961922889492
 20
4.627142126361162
 30
0.0
 10
2.152308749600716
 20
4.623277347717592
 30
0.0
 10
2.152900344410479
 20
4.621579740321359
 30
0.0
  0
SPLINE
  5
363
330
1F
100
AcDbEntity
  8
0
  6
Continuous
 62
     7
370
     0
100
AcDbSpline
210
0.0
220
0.0
230
1.0
 70
     8
 71
     3
 72
     9
 73
     5
 74
     0
 42
0.00000001
 43
0.00000001
 40
0.0
 40
0.0
 40
0.0
 40
0.0
 40
0.5596682810460089
 40
1.0
 40
1.0
 40
1.0
 40
1.0
 10
2.14921561339782
 20
4.610125033042878
 30
0.0
 10
2.147502457973187
 20
4.608638541051588
 30
0.0
 10
2.144441438646825
 20
4.605982517757734
 30
0.0
 10
2.140458259697362
 20
4.605385806214381
 30
0.0
 10
2.138704339663643
 20
4.605123055194777
 30
0.0
  0
SPLINE
  5
364
330
1F
100
AcDbEntity
  8
0
  6
Continuous
 62
     7
370
     0
100
AcDbSpline
210
0.0
220
0.0
230
1.0
 70
     8
 71
     3
 72
     9
 73
     5
 74
     0
 42
0.00000001
 43
0.00000001
 40
0.0
 40
0.0
 40
0.0
 40
0.0
 40
0.5604449163640453
 40
1.0
 40
1.0
 40
1.0
 40
1.0
 10
2.144649751056048
 20
4.614397184941613
 30
0.0
 10
2.14560151027004
 20
4.615555194929547
 30
0.0
 10
2.147299731069625
 20
4.617621428299006
 30
0.0
 10
2.147183867686325
 20
4.620266000004446
 30
0.0
 10
2.147132939347188
 20
4.621428434941611
 30
0.0
  0
SPLINE
  5
365
330
1F
100
AcDbEntity
  8
0
  6
Continuous
 62
     7
370
     0
100
AcDbSpline
210
0.0
220
0.0
230
1.0
 70
     8
 71
     3
 72
     9
 73
     5
 74
     0
 42
0.00000001
 43
0.00000001
 40
0.0
 40
0.0
 40
0.0
 40
0.0
 40
0.5577421486153135
 40
1.0
 40
1.0
 40
1.0
 40
1.0
 10
2.147132939347188
 20
4.621428434941612
 30
0.0
 10
2.146523434588663
 20
4.623046968073277
 30
0.0
 10
2.145430627168538
 20
4.625948906066816
 30
0.0
 10
2.143204490904615
 20
4.628090894367626
 30
0.0
 10
2.142219964663644
 20
4.629038205511232
 30
0.0
  0
SPLINE
  5
366
330
1F
100
AcDbEntity
  8
0
  6
Continuous
 62
     7
370
     0
100
AcDbSpline
210
0.0
220
0.0
230
1.0
 70
     8
 71
     3
 72
     9
 73
     5
 74
     0
 42
0.00000001
 43
0.00000001
 40
0.0
 40
0.0
 40
0.0
 40
0.0
 40
0.557944346870889
 40
1.0
 40
1.0
 40
1.0
 40
1.0
 10
2.137484996309213
 20
4.610605650131485
 30
0.0
 10
2.139021007639878
 20
4.610946132829497
 30
0.0
 10
2.141773990691467
 20
4.611556377739981
 30
0.0
 10
2.143768199693277
 20
4.613526348313216
 30
0.0
 10
2.144649751056048
 20
4.614397184941613
 30
0.0
  0
SPLINE
  5
367
330
1F
100
AcDbEntity
  8
0
  6
Continuous
 62
     7
370
     0
100
AcDbSpline
210
0.0
220
0.0
230
1.0
 70
     8
 71
     3
 72
     9
 73
     5
 74
     0
 42
0.00000001
 43
0.00000001
 40
0.0
 40
0.0
 40
0.0
 40
0.0
 40
0.5603160630007639
 40
1.0
 40
1.0
 40
1.0
 40
1.0
 10
2.124437132385162
 20
4.62536237481503
 30
0.0
 10
2.124968640392544
 20
4.622928947095851
 30
0.0
 10
2.125917226454018
 20
4.618585991610786
 30
0.0
 10
2.128759172472349
 20
4.615194253169294
 30
0.0
 10
2.130008730486428
 20
4.613702960258068
 30
0.0
  0
SPLINE
  5
368
330
1F
100
AcDbEntity
  8
0
  6
Continuous
 62
     7
370
     0
100
AcDbSpline
210
0.0
220
0.0
230
1.0
 70
     8
 71
     3
 72
     9
 73
     5
 74
     0
 42
0.00000001
 43
0.00000001
 40
0.0
 40
0.0
 40
0.0
 40
0.0
 40
0.5583285070597471
 40
1.0
 40
1.0
 40
1.0
 40
1.0
 10
2.138704339663643
 20
4.605123055194777
 30
0.0
 10
2.136238669210562
 20
4.605432032719922
 30
0.0
 10
2.131822504852296
 20
4.605985430085881
 30
0.0
 10
2.12845919892511
 20
4.608856821368339
 30
0.0
 10
2.126973722575036
 20
4.610125033042878
 30
0.0
  0
SPLINE
  5
369
330
1F
100
AcDbEntity
  8
0
  6
Continuous
 62
     7
370
     0
100
AcDbSpline
210
0.0
220
0.0
230
1.0
 70
     8
 71
     3
 72
     9
 73
     5
 74
     0
 42
0.00000001
 43
0.00000001
 40
0.0
 40
0.0
 40
0.0
 40
0.0
 40
0.5598758874753501
 40
1.0
 40
1.0
 40
1.0
 40
1.0
 10
2.126973722575036
 20
4.610125033042878
 30
0.0
 10
2.125287669909427
 20
4.6119113698799
 30
0.0
 10
2.122276194146091
 20
4.615101964218722
 30
0.0
 10
2.120408484130065
 20
4.619062351050238
 30
0.0
 10
2.119586459916808
 20
4.620805412789713
 30
0.0
  0
SPLINE
  5
36A
330
1F
100
AcDbEntity
  8
0
  6
Continuous
 62
     7
370
     0
100
AcDbSpline
210
0.0
220
0.0
230
1.0
 70
     8
 71
     3
 72
     9
 73
     5
 74
     0
 42
0.00000001
 43
0.00000001
 40
0.0
 40
0.0
 40
0.0
 40
0.0
 40
0.5604530300981779
 40
1.0
 40
1.0
 40
1.0
 40
1.0
 10
2.130008730486428
 20
4.613702960258068
 30
0.0
 10
2.131238097113815
 20
4.612688829856597
 30
0.0
 10
2.133431620141375
 20
4.610879346551113
 30
0.0
 10
2.136247350543082
 20
4.61068921977835
 30
0.0
 10
2.137484996309213
 20
4.610605650131485
 30
0.0
  0
SPLINE
  5
36B
330
1F
100
AcDbEntity
  8
0
  6
Continuous
 62
     7
370
     0
100
AcDbSpline
210
0.0
220
0.0
230
1.0
 70
     8
 71
     3
 72
    10
 73
     6
 74
     0
 42
0.00000001
 43
0.00000001
 40
0.0
 40
0.0
 40
0.0
 40
0.0
 40
0.2796589837244273
 40
0.5592246942656266
 40
1.0
 40
1.0
 40
1.0
 40
1.0
 10
2.200456418912292
 20
4.593035004278425
 30
0.0
 10
2.200401359898976
 20
4.593644848495242
 30
0.0
 10
2.200291260235884
 20
4.594864333530756
 30
0.0
 10
2.198988256819094
 20
4.596696855772983
 30
0.0
 10
2.197646256968997
 20
4.597500644029813
 30
0.0
 10
2.196825089798368
 20
4.597992480544248
 30
0.0
  0
SPLINE
  5
36C
330
1F
100
AcDbEntity
  8
0
  6
Continuous
 62
     7
370
     0
100
AcDbSpline
210
0.0
220
0.0
230
1.0
 70
     8
 71
     3
 72
     9
 73
     5
 74
     0
 42
0.00000001
 43
0.00000001
 40
0.0
 40
0.0
 40
0.0
 40
0.0
 40
0.5612996773080573
 40
0.9999999999999999
 40
0.9999999999999999
 40
0.9999999999999999
 40
0.9999999999999999
 10
2.197795224292039
 20
4.586181760607539
 30
0.0
 10
2.198484029873049
 20
4.587392634791833
 30
0.0
 10
2.199711191777564
 20
4.589549903418997
 30
0.0
 10
2.200229178131619
 20
4.591972298690937
 30
0.0
 10
2.200456418912292
 20
4.593035004278425
 30
0.0
  0
SPLINE
  5
36D
330
1F
100
AcDbEntity
  8
0
  6
Continuous
 62
     7
370
     0
100
AcDbSpline
210
0.0
220
0.0
230
1.0
 70
     8
 71
     3
 72
     9
 73
     5
 74
     0
 42
0.00000001
 43
0.00000001
 40
0.0
 40
0.0
 40
0.0
 40
0.0
 40
0.5613033928974633
 40
1.0
 40
1.0
 40
1.0
 40
1.0
 10
2.178997755937609
 20
4.596604031177159
 30
0.0
 10
2.179689140473097
 20
4.597817855144049
 30
0.0
 10
2.180920888836347
 20
4.599980364728435
 30
0.0
 10
2.181440082413563
 20
4.60240944583926
 30
0.0
 10
2.181667850874318
 20
4.603475075480957
 30
0.0
  0
SPLINE
  5
36E
330
1F
100
AcDbEntity
  8
0
  6
Continuous
 62
     7
370
     0
100
AcDbSpline
210
0.0
220
0.0
230
1.0
 70
     8
 71
     3
 72
     9
 73
     5
 74
     0
 42
0.00000001
 43
0.00000001
 40
0.0
 40
0.0
 40
0.0
 40
0.0
 40
0.560729206390967
 40
1.0
 40
1.0
 40
1.0
 40
1.0
 10
2.187711165747736
 20
4.603154664088552
 30
0.0
 10
2.190257171108406
 20
4.603538809467985
 30
0.0
 10
2.194797696787561
 20
4.604223891277629
 30
0.0
 10
2.19901381560873
 20
4.602473019389903
 30
0.0
 10
2.200865833469254
 20
4.601703912506274
 30
0.0
  0
SPLINE
  5
36F
330
1F
100
AcDbEntity
  8
0
  6
Continuous
 62
     7
370
     0
100
AcDbSpline
210
0.0
220
0.0
230
1.0
 70
     8
 71
     3
 72
    11
 73
     7
 74
     0
 42
0.00000001
 43
0.00000001
 40
0.0
 40
0.0
 40
0.0
 40
0.0
 40
0.2801485780538375
 40
0.5578027760920568
 40
0.7785965409067751
 40
0.9999999999999999
 40
0.9999999999999999
 40
0.9999999999999999
 40
0.9999999999999999
 10
2.200865833469254
 20
4.601703912506273
 30
0.0
 10
2.202364244412537
 20
4.600730416869752
 30
0.0
 10
2.205347724784617
 20
4.598792093383206
 30
0.0
 10
2.206861747511771
 20
4.593774625848851
 30
0.0
 10
2.206013277503837
 20
4.589309182087761
 30
0.0
 10
2.204789489074932
 20
4.586839689020043
 30
0.0
 10
2.204176751190773
 20
4.585603240037919
 30
0.0
  0
SPLINE
  5
370
330
1F
100
AcDbEntity
  8
0
  6
Continuous
 62
     7
370
     0
100
AcDbSpline
210
0.0
220
0.0
230
1.0
 70
     8
 71
     3
 72
    10
 73
     6
 74
     0
 42
0.00000001
 43
0.00000001
 40
0.0
 40
0.0
 40
0.0
 40
0.0
 40
0.2796815014044359
 40
0.5592360114418379
 40
1.0
 40
1.0
 40
1.0
 40
1.0
 10
2.181667850874318
 20
4.603475075480957
 30
0.0
 10
2.18161904276789
 20
4.604086013817829
 30
0.0
 10
2.181521448716699
 20
4.605307613090693
 30
0.0
 10
2.180185779683167
 20
4.607117533149014
 30
0.0
 10
2.178846890052315
 20
4.607916786470355
 30
0.0
 10
2.178027621443938
 20
4.608405850797412
 30
0.0
  0
SPLINE
  5
371
330
1F
100
AcDbEntity
  8
0
  6
Continuous
 62
     7
370
     0
100
AcDbSpline
210
0.0
220
0.0
230
1.0
 70
     8
 71
     3
 72
     9
 73
     5
 74
     0
 42
0.00000001
 43
0.00000001
 40
0.0
 40
0.0
 40
0.0
 40
0.0
 40
0.5606379252688979
 40
1.0
 40
1.0
 40
1.0
 40
1.0
 10
2.170533554988242
 20
4.613559134025261
 30
0.0
 10
2.172769401686933
 20
4.613840318274121
 30
0.0
 10
2.176757442092188
 20
4.614341861669932
 30
0.0
 10
2.180447217664209
 20
4.612802514042996
 30
0.0
 10
2.182068365114824
 20
4.612126183075893
 30
0.0
  0
SPLINE
  5
372
330
1F
100
AcDbEntity
  8
0
  6
Continuous
 62
     7
370
     0
100
AcDbSpline
210
0.0
220
0.0
230
1.0
 70
     8
 71
     3
 72
     9
 73
     5
 74
     0
 42
0.00000001
 43
0.00000001
 40
0.0
 40
0.0
 40
0.0
 40
0.0
 40
0.5575478592690601
 40
1.0
 40
1.0
 40
1.0
 40
1.0
 10
2.178027621443938
 20
4.608405850797412
 30
0.0
 10
2.176225989966671
 20
4.608972765657737
 30
0.0
 10
2.172994641397547
 20
4.609989566011105
 30
0.0
 10
2.169653337978203
 20
4.609514830501808
 30
0.0
 10
2.168174971127482
 20
4.609304782759438
 30
0.0
  0
SPLINE
  5
373
330
1F
100
AcDbEntity
  8
0
  6
Continuous
 62
     7
370
     0
100
AcDbSpline
210
0.0
220
0.0
230
1.0
 70
     8
 71
     3
 72
     9
 73
     5
 74
     0
 42
0.00000001
 43
0.00000001
 40
0.0
 40
0.0
 40
0.0
 40
0.0
 40
0.5574887717256952
 40
1.0
 40
1.0
 40
1.0
 40
1.0
 10
2.196825089798368
 20
4.597992480544248
 30
0.0
 10
2.194972517736316
 20
4.598565693201629
 30
0.0
 10
2.191649451593981
 20
4.599593898048888
 30
0.0
 10
2.188222080278713
 20
4.599082230067405
 30
0.0
 10
2.186705429988242
 20
4.59885581124045
 30
0.0
  0
SPLINE
  5
374
330
1F
100
AcDbEntity
  8
0
  6
Continuous
 62
     7
370
     0
100
AcDbSpline
210
0.0
220
0.0
230
1.0
 70
     8
 71
     3
 72
    10
 73
     6
 74
     0
 42
0.00000001
 43
0.00000001
 40
0.0
 40
0.0
 40
0.0
 40
0.0
 40
0.2815201925109389
 40
0.5625297880448037
 40
1.0
 40
1.0
 40
1.0
 40
1.0
 10
2.182068365114824
 20
4.612126183075893
 30
0.0
 10
2.182951783825113
 20
4.611569288412602
 30
0.0
 10
2.18471701897724
 20
4.610456509133392
 30
0.0
 10
2.187214369924831
 20
4.607528238168742
 30
0.0
 10
2.187523152970117
 20
4.604809846706899
 30
0.0
 10
2.187711165747736
 20
4.603154664088552
 30
0.0
  0
SPLINE
  5
375
330
1F
100
AcDbEntity
  8
0
  6
Continuous
 62
     7
370
     0
100
AcDbSpline
210
0.0
220
0.0
230
1.0
 70
     8
 71
     3
 72
     9
 73
     5
 74
     0
 42
0.00000001
 43
0.00000001
 40
0.0
 40
0.0
 40
0.0
 40
0.0
 40
0.5610012218462652
 40
1.0
 40
1.0
 40
1.0
 40
1.0
 10
2.219035075802562
 20
4.590192795830764
 30
0.0
 10
2.221057683163149
 20
4.59131085293729
 30
0.0
 10
2.224663036024825
 20
4.593303820266034
 30
0.0
 10
2.228749313959332
 20
4.593059256935372
 30
0.0
 10
2.230543184979777
 20
4.592951893932031
 30
0.0
  0
SPLINE
  5
376
330
1F
100
AcDbEntity
  8
0
  6
Continuous
 62
     7
370
     0
100
AcDbSpline
210
0.0
220
0.0
230
1.0
 70
     8
 71
     3
 72
     9
 73
     5
 74
     0
 42
0.00000001
 43
0.00000001
 40
0.0
 40
0.0
 40
0.0
 40
0.0
 40
0.5612366806881133
 40
1.0
 40
1.0
 40
1.0
 40
1.0
 10
2.253488200802562
 20
4.57281047779279
 30
0.0
 10
2.253775265303644
 20
4.574216114515734
 30
0.0
 10
2.254286750940561
 20
4.576720649182322
 30
0.0
 10
2.254047216060756
 20
4.579261093151631
 30
0.0
 10
2.253942116941802
 20
4.580375746780131
 30
0.0
  0
SPLINE
  5
377
330
1F
100
AcDbEntity
  8
0
  6
Continuous
 62
     7
370
     0
100
AcDbSpline
210
0.0
220
0.0
230
1.0
 70
     8
 71
     3
 72
     9
 73
     5
 74
     0
 42
0.00000001
 43
0.00000001
 40
0.0
 40
0.0
 40
0.0
 40
0.0
 40
0.5611422669756416
 40
1.0
 40
1.0
 40
1.0
 40
1.0
 10
2.238571270422815
 20
4.585609132856081
 30
0.0
 10
2.240855025783978
 20
4.586919763201074
 30
0.0
 10
2.244924858864761
 20
4.589255410366019
 30
0.0
 10
2.249577351830854
 20
4.588972851284094
 30
0.0
 10
2.251619134346866
 20
4.588848848045954
 30
0.0
  0
SPLINE
  5
378
330
1F
100
AcDbEntity
  8
0
  6
Continuous
 62
     7
370
     0
100
AcDbSpline
210
0.0
220
0.0
230
1.0
 70
     8
 71
     3
 72
    10
 73
     6
 74
     0
 42
0.00000001
 43
0.00000001
 40
0.0
 40
0.0
 40
0.0
 40
0.0
 40
0.2813665217406491
 40
0.5622252353978099
 40
1.0
 40
1.0
 40
1.0
 40
1.0
 10
2.230543184979777
 20
4.59295189393203
 30
0.0
 10
2.23158824448999
 20
4.592679907216972
 30
0.0
 10
2.23367647739524
 20
4.59213642466634
 30
0.0
 10
2.236945956973314
 20
4.58985131401682
 30
0.0
 10
2.23795598493246
 20
4.587215070785446
 30
0.0
 10
2.238571270422815
 20
4.585609132856081
 30
0.0
  0
SPLINE
  5
379
330
1F
100
AcDbEntity
  8
0
  6
Continuous
 62
     7
370
     0
100
AcDbSpline
210
0.0
220
0.0
230
1.0
 70
     8
 71
     3
 72
     9
 73
     5
 74
     0
 42
0.00000001
 43
0.00000001
 40
0.0
 40
0.0
 40
0.0
 40
0.0
 40
0.557228436297663
 40
1.0
 40
1.0
 40
1.0
 40
1.0
 10
2.248966840043068
 20
4.584051577476334
 30
0.0
 10
2.247012145790761
 20
4.584010883872281
 30
0.0
 10
2.243504259033771
 20
4.583937855287588
 30
0.0
 10
2.240399767245604
 20
4.582332567061838
 30
0.0
 10
2.239025186562055
 20
4.581621791083928
 30
0.0
  0
SPLINE
  5
37A
330
1F
100
AcDbEntity
  8
0
  6
Continuous
 62
     7
370
     0
100
AcDbSpline
210
0.0
220
0.0
230
1.0
 70
     8
 71
     3
 72
     9
 73
     5
 74
     0
 42
0.00000001
 43
0.00000001
 40
0.0
 40
0.0
 40
0.0
 40
0.0
 40
0.5612333225588826
 40
1.0
 40
1.0
 40
1.0
 40
1.0
 10
2.232412251435473
 20
4.57690462336241
 30
0.0
 10
2.232706499788648
 20
4.578314843225359
 30
0.0
 10
2.233230788602848
 20
4.580827559071451
 30
0.0
 10
2.232983548576195
 20
4.583377683622704
 30
0.0
 10
2.23287506789117
 20
4.584496593299119
 30
0.0
  0
SPLINE
  5
37B
330
1F
100
AcDbEntity
  8
0
  6
Continuous
 62
     7
370
     0
100
AcDbSpline
210
0.0
220
0.0
230
1.0
 70
     8
 71
     3
 72
     9
 73
     5
 74
     0
 42
0.00000001
 43
0.00000001
 40
0.0
 40
0.0
 40
0.0
 40
0.0
 40
0.5574548194838462
 40
1.0
 40
1.0
 40
1.0
 40
1.0
 10
2.22789089067598
 20
4.588145723045955
 30
0.0
 10
2.225984828584434
 20
4.588114262498376
 30
0.0
 10
2.222565606030559
 20
4.58805782644925
 30
0.0
 10
2.219532037064821
 20
4.586508421946417
 30
0.0
 10
2.218189545739271
 20
4.585822740451017
 30
0.0
  0
SPLINE
  5
37C
330
1F
100
AcDbEntity
  8
0
  6
Continuous
 62
     7
370
     0
100
AcDbSpline
210
0.0
220
0.0
230
1.0
 70
     8
 71
     3
 72
    10
 73
     6
 74
     0
 42
0.00000001
 43
0.00000001
 40
0.0
 40
0.0
 40
0.0
 40
0.0
 40
0.2797977254859366
 40
0.5591903932082394
 40
1.0
 40
1.0
 40
1.0
 40
1.0
 10
2.23287506789117
 20
4.584496593299119
 30
0.0
 10
2.232642128446953
 20
4.585068312093746
 30
0.0
 10
2.232176586780456
 20
4.586210922016741
 30
0.0
 10
2.230367262020974
 20
4.587578516627974
 30
0.0
 10
2.228831112129726
 20
4.587930367766559
 30
0.0
 10
2.22789089067598
 20
4.588145723045955
 30
0.0
  0
SPLINE
  5
37D
330
1F
100
AcDbEntity
  8
0
  6
Continuous
 62
     7
370
     0
100
AcDbSpline
210
0.0
220
0.0
230
1.0
 70
     8
 71
     3
 72
    10
 73
     6
 74
     0
 42
0.00000001
 43
0.00000001
 40
0.0
 40
0.0
 40
0.0
 40
0.0
 40
0.2798374850656392
 40
0.5592745891417031
 40
1.0
 40
1.0
 40
1.0
 40
1.0
 10
2.253942116941802
 20
4.580375746780131
 30
0.0
 10
2.253709035106205
 20
4.580947749015562
 30
0.0
 10
2.253243204919767
 20
4.582090935087055
 30
0.0
 10
2.251448856340115
 20
4.583481729758411
 30
0.0
 10
2.249909125364475
 20
4.583835237583371
 30
0.0
 10
2.248966840043068
 20
4.584051577476334
 30
0.0
  0
SPLINE
  5
37E
330
1F
100
AcDbEntity
  8
0
  6
Continuous
 62
     7
370
     0
100
AcDbSpline
210
0.0
220
0.0
230
1.0
 70
     8
 71
     3
 72
    11
 73
     7
 74
     0
 42
0.00000001
 43
0.00000001
 40
0.0
 40
0.0
 40
0.0
 40
0.0
 40
0.2800041766315749
 40
0.5576381702101376
 40
0.7785279338349471
 40
0.9999999999999999
 40
0.9999999999999999
 40
0.9999999999999999
 40
0.9999999999999999
 10
2.251619134346866
 20
4.588848848045954
 30
0.0
 10
2.253372461554767
 20
4.588368038427649
 30
0.0
 10
2.256864274383258
 20
4.587410489154645
 30
0.0
 10
2.259761273247867
 20
4.582940430527291
 30
0.0
 10
2.260295645326957
 20
4.578371198650117
 30
0.0
 10
2.25988134405685
 20
4.57560276615299
 30
0.0
 10
2.259673920739271
 20
4.57421672779279
 30
0.0
  0
SPLINE
  5
37F
330
1F
100
AcDbEntity
  8
0
  6
Continuous
 62
     7
370
     0
100
AcDbSpline
210
0.0
220
0.0
230
1.0
 70
     8
 71
     3
 72
    10
 73
     6
 74
     0
 42
0.00000001
 43
0.00000001
 40
0.0
 40
0.0
 40
0.0
 40
0.0
 40
0.5599495596910902
 40
0.7800085905937719
 40
1.0
 40
1.0
 40
1.0
 40
1.0
 10
2.224565459373062
 20
4.988925782783355
 30
0.0
 10
2.229038148024837
 20
4.989664435559036
 30
0.0
 10
2.235268594162451
 20
4.990693377363749
 30
0.0
 10
2.243394220905022
 20
4.990219511774016
 30
0.0
 10
2.246791254310317
 20
4.98914336306224
 30
0.0
 10
2.248489510005974
 20
4.98860537139095
 30
0.0
  0
SPLINE
  5
380
330
1F
100
AcDbEntity
  8
0
  6
Continuous
 62
     7
370
     0
100
AcDbSpline
210
0.0
220
0.0
230
1.0
 70
     8
 71
     3
 72
     9
 73
     5
 74
     0
 42
0.00000001
 43
0.00000001
 40
0.0
 40
0.0
 40
0.0
 40
0.0
 40
0.5580880948140321
 40
1.0
 40
1.0
 40
1.0
 40
1.0
 10
2.241992278993316
 20
4.978530213163102
 30
0.0
 10
2.239204222820072
 20
4.979095858596722
 30
0.0
 10
2.234208495086132
 20
4.980109400076778
 30
0.0
 10
2.229212108706148
 20
4.979174683690165
 30
0.0
 10
2.227004146081923
 20
4.978761621390949
 30
0.0
  0
SPLINE
  5
381
330
1F
100
AcDbEntity
  8
0
  6
Continuous
 62
     7
370
     0
100
AcDbSpline
210
0.0
220
0.0
230
1.0
 70
     8
 71
     3
 72
    11
 73
     7
 74
     0
 42
0.00000001
 43
0.00000001
 40
0.0
 40
0.0
 40
0.0
 40
0.0
 40
0.279950933242694
 40
0.5592003780462913
 40
0.7795065171464528
 40
1.0
 40
1.0
 40
1.0
 40
1.0
 10
2.262302801145215
 20
4.971552365061835
 30
0.0
 10
2.262672722454419
 20
4.968352985114559
 30
0.0
 10
2.263411638140672
 20
4.961962242082174
 30
0.0
 10
2.260060205562588
 20
4.953410304305691
 30
0.0
 10
2.254828516929435
 20
4.946999150718473
 30
0.0
 10
2.250662437963683
 20
4.94417927749262
 30
0.0
 10
2.248578513170531
 20
4.942768741644114
 30
0.0
  0
SPLINE
  5
382
330
1F
100
AcDbEntity
  8
0
  6
Continuous
 62
     7
370
     0
100
AcDbSpline
210
0.0
220
0.0
230
1.0
 70
     8
 71
     3
 72
    11
 73
     7
 74
     0
 42
0.00000001
 43
0.00000001
 40
0.0
 40
0.0
 40
0.0
 40
0.0
 40
0.2798950578101084
 40
0.5596148427075838
 40
0.7797461634356209
 40
1.0
 40
1.0
 40
1.0
 40
1.0
 10
2.248489510005974
 20
4.98860537139095
 30
0.0
 10
2.250446072488199
 20
4.987692147268636
 30
0.0
 10
2.254357972234857
 20
4.985866270893527
 30
0.0
 10
2.258648888686492
 20
4.981487574613084
 30
0.0
 10
2.261178879880974
 20
4.976507511382228
 30
0.0
 10
2.261928091246545
 20
4.973204386813433
 30
0.0
 10
2.262302801145215
 20
4.971552365061835
 30
0.0
  0
SPLINE
  5
383
330
1F
100
AcDbEntity
  8
0
  6
Continuous
 62
     7
370
     0
100
AcDbSpline
210
0.0
220
0.0
230
1.0
 70
     8
 71
     3
 72
    10
 73
     6
 74
     0
 42
0.00000001
 43
0.00000001
 40
0.0
 40
0.0
 40
0.0
 40
0.0
 40
0.2811189128983777
 40
0.5619309491860347
 40
1.0
 40
1.0
 40
1.0
 40
1.0
 10
2.249913560638885
 20
4.968455054935253
 30
0.0
 10
2.249610973415593
 20
4.96967261961059
 30
0.0
 10
2.249006129280976
 20
4.972106419836457
 30
0.0
 10
2.246693321589943
 20
4.97610092787028
 30
0.0
 10
2.243772287656308
 20
4.97761038553397
 30
0.0
 10
2.241992278993316
 20
4.978530213163102
 30
0.0
  0
SPLINE
  5
384
330
1F
100
AcDbEntity
  8
0
  6
Continuous
 62
     7
370
     0
100
AcDbSpline
210
0.0
220
0.0
230
1.0
 70
     8
 71
     3
 72
    10
 73
     6
 74
     0
 42
0.00000001
 43
0.00000001
 40
0.0
 40
0.0
 40
0.0
 40
0.0
 40
0.5600879827705203
 40
0.780128378702416
 40
1.0
 40
1.0
 40
1.0
 40
1.0
 10
2.231080491018632
 20
4.946489073922596
 30
0.0
 10
2.23440936612917
 20
4.94722129884551
 30
0.0
 10
2.239046048262647
 20
4.94824119118302
 30
0.0
 10
2.244437637572363
 20
4.951181507255929
 30
0.0
 10
2.246260954479619
 20
4.953144450410965
 30
0.0
 10
2.247172263170531
 20
4.954125545441583
 30
0.0
  0
SPLINE
  5
385
330
1F
100
AcDbEntity
  8
0
  6
Continuous
 62
     7
370
     0
100
AcDbSpline
210
0.0
220
0.0
230
1.0
 70
     8
 71
     3
 72
    10
 73
     6
 74
     0
 42
0.00000001
 43
0.00000001
 40
0.0
 40
0.0
 40
0.0
 40
0.0
 40
0.2801907741799001
 40
0.5600980828705677
 40
1.0
 40
1.0
 40
1.0
 40
1.0
 10
2.247172263170531
 20
4.954125545441582
 30
0.0
 10
2.247957108684626
 20
4.955300837981691
 30
0.0
 10
2.249526005694462
 20
4.957650234033196
 30
0.0
 10
2.250737142010665
 20
4.962646084869974
 30
0.0
 10
2.250225961728209
 20
4.966251594975589
 30
0.0
 10
2.249913560638885
 20
4.968455054935253
 30
0.0
  0
SPLINE
  5
386
330
1F
100
AcDbEntity
  8
0
  6
Continuous
 62
     7
370
     0
100
AcDbSpline
210
0.0
220
0.0
230
1.0
 70
     8
 71
     3
 72
    10
 73
     6
 74
     0
 42
0.00000001
 43
0.00000001
 40
0.0
 40
0.0
 40
0.0
 40
0.0
 40
0.5601398940524477
 40
0.7800811456118115
 40
1.0
 40
1.0
 40
1.0
 40
1.0
 10
2.502027381418152
 20
4.804180369458615
 30
0.0
 10
2.50282232260908
 20
4.799647226277622
 30
0.0
 10
2.503929400754198
 20
4.793334125633658
 30
0.0
 10
2.503846943033552
 20
4.785073083639769
 30
0.0
 10
2.502954298198207
 20
4.781565170342231
 30
0.0
 10
2.502507998506759
 20
4.779811303002919
 30
0.0
  0
SPLINE
  5
387
330
1F
100
AcDbEntity
  8
0
  6
Continuous
 62
     7
370
     0
100
AcDbSpline
210
0.0
220
0.0
230
1.0
 70
     8
 71
     3
 72
    10
 73
     6
 74
     0
 42
0.00000001
 43
0.00000001
 40
0.0
 40
0.0
 40
0.0
 40
0.0
 40
0.2793465162590723
 40
0.5594972049701804
 40
0.9999999999999999
 40
0.9999999999999999
 40
0.9999999999999999
 40
0.9999999999999999
 10
2.492219232683974
 20
4.786059325154818
 30
0.0
 10
2.492586145957882
 20
4.787635664174491
 30
0.0
 10
2.493321028762101
 20
4.79079288012049
 30
0.0
 10
2.492680426325134
 20
4.796570161145729
 30
0.0
 10
2.492029620119312
 20
4.800652552214321
 30
0.0
 10
2.491631811797898
 20
4.803147932749754
 30
0.0
  0
SPLINE
  5
388
330
1F
100
AcDbEntity
  8
0
  6
Continuous
 62
     7
370
     0
100
AcDbSpline
210
0.0
220
0.0
230
1.0
 70
     8
 71
     3
 72
     9
 73
     5
 74
     0
 42
0.00000001
 43
0.00000001
 40
0.0
 40
0.0
 40
0.0
 40
0.0
 40
0.5603126358926022
 40
1.0
 40
1.0
 40
1.0
 40
1.0
 10
2.484226748506759
 20
4.779971508699122
 30
0.0
 10
2.486237812535293
 20
4.780477239151033
 30
0.0
 10
2.489826994537819
 20
4.78137982534937
 30
0.0
 10
2.491488631783374
 20
4.784630183671678
 30
0.0
 10
2.492219232683974
 20
4.786059325154818
 30
0.0
  0
SPLINE
  5
389
330
1F
100
AcDbEntity
  8
0
  6
Continuous
 62
     7
370
     0
100
AcDbSpline
210
0.0
220
0.0
230
1.0
 70
     8
 71
     3
 72
    10
 73
     6
 74
     0
 42
0.00000001
 43
0.00000001
 40
0.0
 40
0.0
 40
0.0
 40
0.0
 40
0.2807044613854845
 40
0.5606984042449141
 40
1.0
 40
1.0
 40
1.0
 40
1.0
 10
2.502507998506759
 20
4.779811303002919
 30
0.0
 10
2.501828925690151
 20
4.778073960180627
 30
0.0
 10
2.500472498924581
 20
4.774603672094443
 30
0.0
 10
2.49562971798743
 20
4.769727828140985
 30
0.0
 10
2.490948491720995
 20
4.768495254355273
 30
0.0
 10
2.488089485848532
 20
4.767742473888995
 30
0.0
  0
SPLINE
  5
38A
330
1F
100
AcDbEntity
  8
0
  6
Continuous
 62
     7
370
     0
100
AcDbSpline
210
0.0
220
0.0
230
1.0
 70
     8
 71
     3
 72
    11
 73
     7
 74
     0
 42
0.00000001
 43
0.00000001
 40
0.0
 40
0.0
 40
0.0
 40
0.0
 40
0.2798341310252649
 40
0.5592418476283637
 40
0.7795950109293083
 40
1.0
 40
1.0
 40
1.0
 40
1.0
 10
2.488089485848532
 20
4.767742473888995
 30
0.0
 10
2.485939560715499
 20
4.767529524310506
 30
0.0
 10
2.481642986529732
 20
4.767103949648512
 30
0.0
 10
2.475927843684639
 20
4.769347191498642
 30
0.0
 10
2.471480601763262
 20
4.772631352037024
 30
0.0
 10
2.469321471981795
 20
4.775222473064417
 30
0.0
 10
2.468241780152328
 20
4.776518185914311
 30
0.0
  0
SPLINE
  5
38B
330
1F
100
AcDbEntity
  8
0
  6
Continuous
 62
     7
370
     0
100
AcDbSpline
210
0.0
220
0.0
230
1.0
 70
     8
 71
     3
 72
     9
 73
     5
 74
     0
 42
0.00000001
 43
0.00000001
 40
0.0
 40
0.0
 40
0.0
 40
0.0
 40
0.561377586603467
 40
0.9999999999999999
 40
0.9999999999999999
 40
0.9999999999999999
 40
0.9999999999999999
 10
2.466782128253594
 20
4.7975941352814
 30
0.0
 10
2.467234140104816
 20
4.794669966577956
 30
0.0
 10
2.468039323393225
 20
4.789461050559174
 30
0.0
 10
2.470951691845322
 20
4.785091990354445
 30
0.0
 10
2.472229121924481
 20
4.783175622623172
 30
0.0
  0
SPLINE
  5
38C
330
1F
100
AcDbEntity
  8
0
  6
Continuous
 62
     7
370
     0
100
AcDbSpline
210
0.0
220
0.0
230
1.0
 70
     8
 71
     3
 72
    10
 73
     6
 74
     0
 42
0.00000001
 43
0.00000001
 40
0.0
 40
0.0
 40
0.0
 40
0.0
 40
0.2800098553163126
 40
0.5598108846823167
 40
1.0
 40
1.0
 40
1.0
 40
1.0
 10
2.472229121924481
 20
4.783175622623172
 30
0.0
 10
2.473121912927188
 20
4.782337111342859
 30
0.0
 10
2.47490682910629
 20
4.780660714127774
 30
0.0
 10
2.479205850811813
 20
4.779405379800878
 30
0.0
 10
2.482321745900148
 20
4.779756711048909
 30
0.0
 10
2.484226748506759
 20
4.779971508699122
 30
0.0
  0
SPLINE
  5
38D
330
1F
100
AcDbEntity
  8
0
  6
Continuous
 62
     7
370
     0
100
AcDbSpline
210
0.0
220
0.0
230
1.0
 70
     8
 71
     3
 72
     9
 73
     5
 74
     0
 42
0.00000001
 43
0.00000001
 40
0.0
 40
0.0
 40
0.0
 40
0.0
 40
0.5584123557144304
 40
1.0
 40
1.0
 40
1.0
 40
1.0
 10
2.457810609266253
 20
4.774916128952286
 30
0.0
 10
2.458119826628039
 20
4.778181543976408
 30
0.0
 10
2.458673570395744
 20
4.784029220860177
 30
0.0
 10
2.457605730236163
 20
4.789796284517609
 30
0.0
 10
2.45713418521562
 20
4.792342948572539
 30
0.0
  0
SPLINE
  5
38E
330
1F
100
AcDbEntity
  8
0
  6
Continuous
 62
     7
370
     0
100
AcDbSpline
210
0.0
220
0.0
230
1.0
 70
     8
 71
     3
 72
    10
 73
     6
 74
     0
 42
0.00000001
 43
0.00000001
 40
0.0
 40
0.0
 40
0.0
 40
0.0
 40
0.2806813719182228
 40
0.5606218894487756
 40
1.0
 40
1.0
 40
1.0
 40
1.0
 10
2.432017492177645
 20
4.769344530851019
 30
0.0
 10
2.433045179859492
 20
4.768382532156808
 30
0.0
 10
2.435097842656538
 20
4.766461073949909
 30
0.0
 10
2.439833094097234
 20
4.76437876681774
 30
0.0
 10
2.443479103576997
 20
4.764787259790553
 30
0.0
 10
2.445706178886506
 20
4.765036777686463
 30
0.0
  0
SPLINE
  5
38F
330
1F
100
AcDbEntity
  8
0
  6
Continuous
 62
     7
370
     0
100
AcDbSpline
210
0.0
220
0.0
230
1.0
 70
     8
 71
     3
 72
    10
 73
     6
 74
     0
 42
0.00000001
 43
0.00000001
 40
0.0
 40
0.0
 40
0.0
 40
0.0
 40
0.560285213655015
 40
0.7803322306575645
 40
1.0
 40
1.0
 40
1.0
 40
1.0
 10
2.424719232683974
 20
4.789744056167476
 30
0.0
 10
2.4254827567914
 20
4.785722911666085
 30
0.0
 10
2.426546148177409
 20
4.780122498551313
 30
0.0
 10
2.429090800037355
 20
4.773201873182781
 30
0.0
 10
2.431042489232141
 20
4.770629572104083
 30
0.0
 10
2.432017492177645
 20
4.769344530851019
 30
0.0
  0
SPLINE
  5
390
330
1F
100
AcDbEntity
  8
0
  6
Continuous
 62
     7
370
     0
100
AcDbSpline
210
0.0
220
0.0
230
1.0
 70
     8
 71
     3
 72
    11
 73
     7
 74
     0
 42
0.00000001
 43
0.00000001
 40
0.0
 40
0.0
 40
0.0
 40
0.0
 40
0.28021657963911
 40
0.5596828193595658
 40
0.7796369501997011
 40
0.9999999999999999
 40
0.9999999999999999
 40
0.9999999999999999
 40
0.9999999999999999
 10
2.467778963696632
 20
4.776429182749754
 30
0.0
 10
2.467476469642267
 20
4.773285669134244
 30
0.0
 10
2.466872291526165
 20
4.767007059334314
 30
0.0
 10
2.462188618824027
 20
4.759296980127212
 30
0.0
 10
2.455608546605887
 20
4.754337516846442
 30
0.0
 10
2.450788523522762
 20
4.753175622150444
 30
0.0
 10
2.448376273823215
 20
4.7525941352814
 30
0.0
  0
SPLINE
  5
391
330
1F
100
AcDbEntity
  8
0
  6
Continuous
 62
     7
370
     0
100
AcDbSpline
210
0.0
220
0.0
230
1.0
 70
     8
 71
     3
 72
    11
 73
     7
 74
     0
 42
0.00000001
 43
0.00000001
 40
0.0
 40
0.0
 40
0.0
 40
0.0
 40
0.2804362479381278
 40
0.5596729420112766
 40
0.7796025430872301
 40
0.9999999999999999
 40
0.9999999999999999
 40
0.9999999999999999
 40
0.9999999999999999
 10
2.445706178886506
 20
4.765036777686463
 30
0.0
 10
2.447229007748884
 20
4.76536498120326
 30
0.0
 10
2.450268151639352
 20
4.766019984360572
 30
0.0
 10
2.454182890650954
 20
4.768147792417954
 30
0.0
 10
2.456614596226007
 20
4.771438475366792
 30
0.0
 10
2.457411655955819
 20
4.773756090253888
 30
0.0
 10
2.457810609266253
 20
4.774916128952286
 30
0.0
  0
SPLINE
  5
392
330
1F
100
AcDbEntity
  8
0
  6
Continuous
 62
     7
370
     0
100
AcDbSpline
210
0.0
220
0.0
230
1.0
 70
     8
 71
     3
 72
    11
 73
     7
 74
     0
 42
0.00000001
 43
0.00000001
 40
0.0
 40
0.0
 40
0.0
 40
0.0
 40
0.2800631052443243
 40
0.5598662361181994
 40
0.7799570470650536
 40
1.0
 40
1.0
 40
1.0
 40
1.0
 10
2.448376273823215
 20
4.7525941352814
 30
0.0
 10
2.446240200286934
 20
4.752334849849545
 30
0.0
 10
2.441970036068817
 20
4.7518165196729
 30
0.0
 10
2.43603235058405
 20
4.752988596273979
 30
0.0
 10
2.430940705488103
 20
4.755210352026377
 30
0.0
 10
2.428323816533124
 20
4.757346822940906
 30
0.0
 10
2.427015514329544
 20
4.758414942243425
 30
0.0
  0
SPLINE
  5
393
330
1F
100
AcDbEntity
  8
0
  6
Continuous
 62
     7
370
     0
100
AcDbSpline
210
0.0
220
0.0
230
1.0
 70
     8
 71
     3
 72
    10
 73
     6
 74
     0
 42
0.00000001
 43
0.00000001
 40
0.0
 40
0.0
 40
0.0
 40
0.0
 40
0.2798560618644225
 40
0.5597527391958339
 40
1.0
 40
1.0
 40
1.0
 40
1.0
 10
2.427015514329544
 20
4.758414942243425
 30
0.0
 10
2.425182262218203
 20
4.760327218068135
 30
0.0
 10
2.421515491935925
 20
4.764152047245852
 30
0.0
 10
2.417421688900476
 20
4.772790290403377
 30
0.0
 10
2.416062445038772
 20
4.779445369647775
 30
0.0
 10
2.415231495342202
 20
4.783513834648488
 30
0.0
  0
SPLINE
  5
394
330
1F
100
AcDbEntity
  8
0
  6
Continuous
 62
     7
370
     0
100
AcDbSpline
210
0.0
220
0.0
230
1.0
 70
     8
 71
     3
 72
    11
 73
     7
 74
     0
 42
0.00000001
 43
0.00000001
 40
0.0
 40
0.0
 40
0.0
 40
0.0
 40
0.2809799956683772
 40
0.5609401515004462
 40
0.7806509173095135
 40
1.0
 40
1.0
 40
1.0
 40
1.0
 10
2.482559422279159
 20
4.674592789555188
 30
0.0
 10
2.483453537199831
 20
4.677141987004072
 30
0.0
 10
2.485238521778066
 20
4.682231129381558
 30
0.0
 10
2.484932773809819
 20
4.689836259395687
 30
0.0
 10
2.482047768029803
 20
4.696451653853821
 30
0.0
 10
2.478317435161634
 20
4.698576654827679
 30
0.0
 10
2.476453805190551
 20
4.699638280061517
 30
0.0
  0
SPLINE
  5
395
330
1F
100
AcDbEntity
  8
0
  6
Continuous
 62
     7
370
     0
100
AcDbSpline
210
0.0
220
0.0
230
1.0
 70
     8
 71
     3
 72
    11
 73
     7
 74
     0
 42
0.00000001
 43
0.00000001
 40
0.0
 40
0.0
 40
0.0
 40
0.0
 40
0.2796590316000658
 40
0.5597354471173147
 40
0.7798992367480403
 40
0.9999999999999999
 40
0.9999999999999999
 40
0.9999999999999999
 40
0.9999999999999999
 10
2.460913852658906
 20
4.651006950947593
 30
0.0
 10
2.463575080919806
 20
4.652516890938661
 30
0.0
 10
2.468901509256389
 20
4.655539024467426
 30
0.0
 10
2.474851227856471
 20
4.661719926791785
 30
0.0
 10
2.479531787771576
 20
4.668050170140138
 30
0.0
 10
2.481550307097478
 20
4.672412124563046
 30
0.0
 10
2.482559422279159
 20
4.674592789555188
 30
0.0
  0
SPLINE
  5
396
330
1F
100
AcDbEntity
  8
0
  6
Continuous
 62
     7
370
     0
100
AcDbSpline
210
0.0
220
0.0
230
1.0
 70
     8
 71
     3
 72
    10
 73
     6
 74
     0
 42
0.00000001
 43
0.00000001
 40
0.0
 40
0.0
 40
0.0
 40
0.0
 40
0.2801202439649416
 40
0.560202277711578
 40
1.0
 40
1.0
 40
1.0
 40
1.0
 10
2.491673346329792
 20
4.670854656643797
 30
0.0
 10
2.490475860577437
 20
4.668142077421303
 30
0.0
 10
2.488081052417553
 20
4.662717288989717
 30
0.0
 10
2.482413638767866
 20
4.653720697314071
 30
0.0
 10
2.477200185158844
 20
4.648146552630953
 30
0.0
 10
2.474015118481691
 20
4.644741128162783
 30
0.0
  0
SPLINE
  5
397
330
1F
100
AcDbEntity
  8
0
  6
Continuous
 62
     7
370
     0
100
AcDbSpline
210
0.0
220
0.0
230
1.0
 70
     8
 71
     3
 72
    11
 73
     7
 74
     0
 42
0.00000001
 43
0.00000001
 40
0.0
 40
0.0
 40
0.0
 40
0.0
 40
0.2803164478087828
 40
0.5583113862632756
 40
0.778922213743303
 40
1.0
 40
1.0
 40
1.0
 40
1.0
 10
2.476453805190551
 20
4.699638280061517
 30
0.0
 10
2.474575301858523
 20
4.700276401447572
 30
0.0
 10
2.470833852480139
 20
4.701547359461048
 30
0.0
 10
2.465256084474661
 20
4.700024267360373
 30
0.0
 10
2.461473010073952
 20
4.696649073188041
 30
0.0
 10
2.459593780459178
 20
4.694216311035342
 30
0.0
 10
2.458653172279159
 20
4.692998643985568
 30
0.0
  0
SPLINE
  5
398
330
1F
100
AcDbEntity
  8
0
  6
Continuous
 62
     7
370
     0
100
AcDbSpline
210
0.0
220
0.0
230
1.0
 70
     8
 71
     3
 72
    12
 73
     8
 74
     0
 42
0.00000001
 43
0.00000001
 40
0.0
 40
0.0
 40
0.0
 40
0.0
 40
0.1863558885048026
 40
0.3726698693064167
 40
0.5594669031794696
 40
0.7795467939387568
 40
1.0
 40
1.0
 40
1.0
 40
1.0
 10
2.480031732405741
 20
4.711475700947593
 30
0.0
 10
2.482652825750202
 20
4.710099303572115
 30
0.0
 10
2.487894423007779
 20
4.707346818345337
 30
0.0
 10
2.492930043031111
 20
4.699762266956132
 30
0.0
 10
2.4953339109213
 20
4.690700400947429
 30
0.0
 10
2.495107287082984
 20
4.680674744048613
 30
0.0
 10
2.492818639727196
 20
4.674129867858847
 30
0.0
 10
2.491673346329792
 20
4.670854656643797
 30
0.0
  0
SPLINE
  5
399
330
1F
100
AcDbEntity
  8
0
  6
Continuous
 62
     7
370
     0
100
AcDbSpline
210
0.0
220
0.0
230
1.0
 70
     8
 71
     3
 72
    12
 73
     8
 74
     0
 42
0.00000001
 43
0.00000001
 40
0.0
 40
0.0
 40
0.0
 40
0.0
 40
0.1870563071935044
 40
0.3739681309169138
 40
0.5605496043376937
 40
0.7798748984764566
 40
1.0
 40
1.0
 40
1.0
 40
1.0
 10
2.445801115317134
 20
4.673756159808352
 30
0.0
 10
2.444465988963636
 20
4.672142022697387
 30
0.0
 10
2.441796767516646
 20
4.66891499524513
 30
0.0
 10
2.436872813889605
 20
4.664962072215778
 30
0.0
 10
2.430781003112988
 20
4.662099243101925
 30
0.0
 10
2.4235472591364
 20
4.661860195273008
 30
0.0
 10
2.418888363098626
 20
4.663488426442895
 30
0.0
 10
2.416554675443716
 20
4.664304023732403
 30
0.0
  0
SPLINE
  5
39A
330
1F
100
AcDbEntity
  8
0
  6
Continuous
 62
     7
370
     0
100
AcDbSpline
210
0.0
220
0.0
230
1.0
 70
     8
 71
     3
 72
    11
 73
     7
 74
     0
 42
0.00000001
 43
0.00000001
 40
0.0
 40
0.0
 40
0.0
 40
0.0
 40
0.2799208809158749
 40
0.5598752793059222
 40
0.779998255958598
 40
0.9999999999999999
 40
0.9999999999999999
 40
0.9999999999999999
 40
0.9999999999999999
 10
2.436740593165235
 20
4.728332900314681
 30
0.0
 10
2.43390911832734
 20
4.726739708515423
 30
0.0
 10
2.428245829613305
 20
4.723553134149557
 30
0.0
 10
2.421829039731954
 20
4.717116906544205
 30
0.0
 10
2.416623030353743
 20
4.710579193527013
 30
0.0
 10
2.414417447777473
 20
4.705978657923867
 30
0.0
 10
2.413314960253842
 20
4.703679023732404
 30
0.0
  0
SPLINE
  5
39B
330
1F
100
AcDbEntity
  8
0
  6
Continuous
 62
     7
370
     0
100
AcDbSpline
210
0.0
220
0.0
230
1.0
 70
     8
 71
     3
 72
     9
 73
     5
 74
     0
 42
0.00000001
 43
0.00000001
 40
0.0
 40
0.0
 40
0.0
 40
0.0
 40
0.5599164338166627
 40
1.0
 40
1.0
 40
1.0
 40
1.0
 10
2.436473583671564
 20
4.68203345411215
 30
0.0
 10
2.438670279626932
 20
4.685292397433801
 30
0.0
 10
2.442593536425083
 20
4.691112807632223
 30
0.0
 10
2.446403079172139
 20
4.697008209373368
 30
0.0
 10
2.448079596329792
 20
4.699602678795695
 30
0.0
  0
SPLINE
  5
39C
330
1F
100
AcDbEntity
  8
0
  6
Continuous
 62
     7
370
     0
100
AcDbSpline
210
0.0
220
0.0
230
1.0
 70
     8
 71
     3
 72
    13
 73
     9
 74
     0
 42
0.00000001
 43
0.00000001
 40
0.0
 40
0.0
 40
0.0
 40
0.0
 40
0.2502797123294163
 40
0.49988076713649
 40
0.6249966674131976
 40
0.7499455431723685
 40
0.8749231628230466
 40
1.0
 40
1.0
 40
1.0
 40
1.0
 10
2.413314960253842
 20
4.703679023732404
 30
0.0
 10
2.412412739922337
 20
4.701212522897495
 30
0.0
 10
2.410610745716569
 20
4.696286209382025
 30
0.0
 10
2.410191361549107
 20
4.689597664719484
 30
0.0
 10
2.411437894594434
 20
4.684476072343759
 30
0.0
 10
2.413262126721308
 20
4.680951187149319
 30
0.0
 10
2.416059713103082
 20
4.678075661906441
 30
0.0
 10
2.418430513672357
 20
4.676928740470991
 30
0.0
 10
2.419616384304475
 20
4.676355052213416
 30
0.0
  0
SPLINE
  5
39D
330
1F
100
AcDbEntity
  8
0
  6
Continuous
 62
     7
370
     0
100
AcDbSpline
210
0.0
220
0.0
230
1.0
 70
     8
 71
     3
 72
    12
 73
     8
 74
     0
 42
0.00000001
 43
0.00000001
 40
0.0
 40
0.0
 40
0.0
 40
0.0
 40
0.1871320511097698
 40
0.3740416152584062
 40
0.5606500212684083
 40
0.7800094527395823
 40
1.0
 40
1.0
 40
1.0
 40
1.0
 10
2.448079596329792
 20
4.699602678795695
 30
0.0
 10
2.449470781252819
 20
4.701474639963355
 30
0.0
 10
2.452251497076998
 20
4.705216336667369
 30
0.0
 10
2.45749445769908
 20
4.709918978677692
 30
0.0
 10
2.46415469223636
 20
4.713329355433072
 30
0.0
 10
2.472188325669682
 20
4.714090176099528
 30
0.0
 10
2.477414760943755
 20
4.712348026850218
 30
0.0
 10
2.480031732405741
 20
4.711475700947593
 30
0.0
  0
SPLINE
  5
39E
330
1F
100
AcDbEntity
  8
0
  6
Continuous
 62
     7
370
     0
100
AcDbSpline
210
0.0
220
0.0
230
1.0
 70
     8
 71
     3
 72
     9
 73
     5
 74
     0
 42
0.00000001
 43
0.00000001
 40
0.0
 40
0.0
 40
0.0
 40
0.0
 40
0.5600360284689897
 40
1.0
 40
1.0
 40
1.0
 40
1.0
 10
2.458653172279159
 20
4.692998643985568
 30
0.0
 10
2.456314408912551
 20
4.689365990692409
 30
0.0
 10
2.452138314433411
 20
4.682879527128465
 30
0.0
 10
2.447737371603196
 20
4.676543696857371
 30
0.0
 10
2.445801115317134
 20
4.673756159808352
 30
0.0
  0
SPLINE
  5
39F
330
1F
100
AcDbEntity
  8
0
  6
Continuous
 62
     7
370
     0
100
AcDbSpline
210
0.0
220
0.0
230
1.0
 70
     8
 71
     3
 72
    11
 73
     7
 74
     0
 42
0.00000001
 43
0.00000001
 40
0.0
 40
0.0
 40
0.0
 40
0.0
 40
0.2804786706689306
 40
0.5580056706031484
 40
0.7788503692392128
 40
1.0
 40
1.0
 40
1.0
 40
1.0
 10
2.419616384304475
 20
4.676355052213416
 30
0.0
 10
2.421358693189021
 20
4.675726259540934
 30
0.0
 10
2.424824975438575
 20
4.674475291415471
 30
0.0
 10
2.430056166755976
 20
4.675724590150536
 30
0.0
 10
2.43373385805272
 20
4.678704378794562
 30
0.0
 10
2.435559921864482
 20
4.680923252072334
 30
0.0
 10
2.436473583671564
 20
4.68203345411215
 30
0.0
  0
SPLINE
  5
3A0
330
1F
100
AcDbEntity
  8
0
  6
Continuous
 62
     7
370
     0
100
AcDbSpline
210
0.0
220
0.0
230
1.0
 70
     8
 71
     3
 72
    10
 73
     6
 74
     0
 42
0.00000001
 43
0.00000001
 40
0.0
 40
0.0
 40
0.0
 40
0.0
 40
0.2800295597536341
 40
0.5601079928220709
 40
1.0
 40
1.0
 40
1.0
 40
1.0
 10
2.402011558355108
 20
4.680093185124808
 30
0.0
 10
2.401415344751803
 20
4.682641826216017
 30
0.0
 10
2.400222813488551
 20
4.687739553210538
 30
0.0
 10
2.400561520116625
 20
4.697195706011238
 30
0.0
 10
2.40283175477635
 20
4.70355159610645
 30
0.0
 10
2.404218836836121
 20
4.707434957276707
 30
0.0
  0
SPLINE
  5
3A1
330
1F
100
AcDbEntity
  8
0
  6
Continuous
 62
     7
370
     0
100
AcDbSpline
210
0.0
220
0.0
230
1.0
 70
     8
 71
     3
 72
    11
 73
     7
 74
     0
 42
0.00000001
 43
0.00000001
 40
0.0
 40
0.0
 40
0.0
 40
0.0
 40
0.2798500159921214
 40
0.5597945227381251
 40
0.7799254199541469
 40
1.0
 40
1.0
 40
1.0
 40
1.0
 10
2.416554675443716
 20
4.664304023732403
 30
0.0
 10
2.414701688223027
 20
4.665232064630898
 30
0.0
 10
2.410995088124515
 20
4.667088459778896
 30
0.0
 10
2.406851910407785
 20
4.671179114295103
 30
0.0
 10
2.403777604055824
 20
4.675543831469898
 30
0.0
 10
2.402600190044988
 20
4.678576863248956
 30
0.0
 10
2.402011558355108
 20
4.680093185124808
 30
0.0
  0
SPLINE
  5
3A2
330
1F
100
AcDbEntity
  8
0
  6
Continuous
 62
     7
370
     0
100
AcDbSpline
210
0.0
220
0.0
230
1.0
 70
     8
 71
     3
 72
    10
 73
     6
 74
     0
 42
0.00000001
 43
0.00000001
 40
0.0
 40
0.0
 40
0.0
 40
0.0
 40
0.2801116169066927
 40
0.5601417324767867
 40
1.0
 40
1.0
 40
1.0
 40
1.0
 10
2.404218836836121
 20
4.707434957276707
 30
0.0
 10
2.405480392149423
 20
4.710303860049834
 30
0.0
 10
2.408003135713622
 20
4.716040830859516
 30
0.0
 10
2.414082713083212
 20
4.725503261839831
 30
0.0
 10
2.419738546503663
 20
4.731259572137949
 30
0.0
 10
2.423194311519665
 20
4.734776729428606
 30
0.0
  0
CIRCLE
  5
3A3
330
1F
100
AcDbEntity
  8
0
  6
Continuous
 62
     7
370
     0
100
AcDbCircle
 10
2.2729587781
 20
4.7606638085
 30
0.0
 40
0.069
  0
DIMENSION
  5
3A4
330
1F
100
AcDbEntity
  8
0
  6
Continuous
 62
     7
370
     0
100
AcDbDimension
  2
*D23
 10
2.0714188304
 20
4.5591528919
 30
0.0
 11
1.9481547194
 21
5.4736243001
 31
0.0
 70
   163
  1
SPRING LOADED THUMBSCREW\P5.0 mm HEX SOCKET
 71
     1
 42
-1.0
  3
SLDDIMSTYLE3
100
AcDbDiametricDimension
 15
2.4744987257
 25
4.9621747251
 35
0.0
 40
0.0
  0
DIMENSION
  5
3AD
330
1F
100
AcDbEntity
  8
0
  6
Continuous
 62
     7
370
     0
100
AcDbDimension
  2
*D24
 10
1.3360289294
 20
4.7606638085
 30
0.0
 11
1.3360289294
 21
4.1696638085
 31
0.0
 70
   160
  1
30.0 mm\P(<>")
 71
     2
 42
-1.0
  3
SLDDIMSTYLE2
100
AcDbAlignedDimension
 13
1.7809587781
 23
3.5786638085
 33
0.0
 14
2.2729587781
 24
4.7606638085
 34
0.0
 50
90.0
100
AcDbRotatedDimension
  0
INSERT
  5
3C2
330
1F
100
AcDbEntity
  8
0
  6
Continuous
 62
     7
370
     0
100
AcDbBlockReference
  2
SW_CENTERMARKSYMBOL_3
 10
2.2729587781
 20
4.7606638085
 30
0.0
  0
OLE2FRAME
  5
3C3
330
1F
100
AcDbEntity
  8
0
100
AcDbOle2Frame
 70
     2
  3
Bitmap Image
 10
9.0178120406
 20
1.3267570784
 30
0.0
 11
10.4397105087
 21
1.1242314806
 31
0.0
 71
     2
 72
     0
 73
     1
 90
     7296
310
8055C64EE7A81E092240C05F59A1653AF53F0000000000000000FD155DBC21E1
310
2440C05F59A1653AF53F0000000000000000FD155DBC21E12440A1732426DAFC
310
F13F0000000000000000C64EE7A81E092240A1732426DAFCF13F000000000000
310
00000000000001000000000100000100000001000000000001000000001C0000
310
D0CF11E0A1B11AE1000000000000000000000000000000003E000300FEFF0900
310
0600000000000000000000000100000001000000000000000010000002000000
310
01000000FEFFFFFF0000000000000000FFFFFFFFFFFFFFFFFFFFFFFFFFFFFFFF
310
FFFFFFFFFFFFFFFFFFFFFFFFFFFFFFFFFFFFFFFFFFFFFFFFFFFFFFFFFFFFFFFF
310
FFFFFFFFFFFFFFFFFFFFFFFFFFFFFFFFFFFFFFFFFFFFFFFFFFFFFFFFFFFFFFFF
310
FFFFFFFFFFFFFFFFFFFFFFFFFFFFFFFFFFFFFFFFFFFFFFFFFFFFFFFFFFFFFFFF
310
FFFFFFFFFFFFFFFFFFFFFFFFFFFFFFFFFFFFFFFFFFFFFFFFFFFFFFFFFFFFFFFF
310
FFFFFFFFFFFFFFFFFFFFFFFFFFFFFFFFFFFFFFFFFFFFFFFFFFFFFFFFFFFFFFFF
310
FFFFFFFFFFFFFFFFFFFFFFFFFFFFFFFFFFFFFFFFFFFFFFFFFFFFFFFFFFFFFFFF
310
FFFFFFFFFFFFFFFFFFFFFFFFFFFFFFFFFFFFFFFFFFFFFFFFFFFFFFFFFFFFFFFF
310
FFFFFFFFFFFFFFFFFFFFFFFFFFFFFFFFFFFFFFFFFFFFFFFFFFFFFFFFFFFFFFFF
310
FFFFFFFFFFFFFFFFFFFFFFFFFFFFFFFFFFFFFFFFFFFFFFFFFFFFFFFFFFFFFFFF
310
FFFFFFFFFFFFFFFFFFFFFFFFFFFFFFFFFFFFFFFFFFFFFFFFFFFFFFFFFFFFFFFF
310
FFFFFFFFFFFFFFFFFFFFFFFFFFFFFFFFFFFFFFFFFFFFFFFFFFFFFFFFFFFFFFFF
310
FFFFFFFFFFFFFFFFFFFFFFFFFFFFFFFFFFFFFFFFFFFFFFFFFFFFFFFFFFFFFFFF
310
FFFFFFFFFFFFFFFFFFFFFFFFFFFFFFFFFFFFFFFFFFFFFFFFFFFFFFFFFFFFFFFF
310
FDFFFFFFFEFFFFFFFEFFFFFFFEFFFFFF05000000060000000700000008000000
310
090000000A0000000B0000000C000000FEFFFFFFFFFFFFFFFFFFFFFFFFFFFFFF
310
FFFFFFFFFFFFFFFFFFFFFFFFFFFFFFFFFFFFFFFFFFFFFFFFFFFFFFFFFFFFFFFF
310
FFFFFFFFFFFFFFFFFFFFFFFFFFFFFFFFFFFFFFFFFFFFFFFFFFFFFFFFFFFFFFFF
310
FFFFFFFFFFFFFFFFFFFFFFFFFFFFFFFFFFFFFFFFFFFFFFFFFFFFFFFFFFFFFFFF
310
FFFFFFFFFFFFFFFFFFFFFFFFFFFFFFFFFFFFFFFFFFFFFFFFFFFFFFFFFFFFFFFF
310
FFFFFFFFFFFFFFFFFFFFFFFFFFFFFFFFFFFFFFFFFFFFFFFFFFFFFFFFFFFFFFFF
310
FFFFFFFFFFFFFFFFFFFFFFFFFFFFFFFFFFFFFFFFFFFFFFFFFFFFFFFFFFFFFFFF
310
FFFFFFFFFFFFFFFFFFFFFFFFFFFFFFFFFFFFFFFFFFFFFFFFFFFFFFFFFFFFFFFF
310
FFFFFFFFFFFFFFFFFFFFFFFFFFFFFFFFFFFFFFFFFFFFFFFFFFFFFFFFFFFFFFFF
310
FFFFFFFFFFFFFFFFFFFFFFFFFFFFFFFFFFFFFFFFFFFFFFFFFFFFFFFFFFFFFFFF
310
FFFFFFFFFFFFFFFFFFFFFFFFFFFFFFFFFFFFFFFFFFFFFFFFFFFFFFFFFFFFFFFF
310
FFFFFFFFFFFFFFFFFFFFFFFFFFFFFFFFFFFFFFFFFFFFFFFFFFFFFFFFFFFFFFFF
310
FFFFFFFFFFFFFFFFFFFFFFFFFFFFFFFFFFFFFFFFFFFFFFFFFFFFFFFFFFFFFFFF
310
FFFFFFFFFFFFFFFFFFFFFFFFFFFFFFFFFFFFFFFFFFFFFFFFFFFFFFFFFFFFFFFF
310
FFFFFFFFFFFFFFFFFFFFFFFFFFFFFFFFFFFFFFFFFFFFFFFFFFFFFFFFFFFFFFFF
310
52006F006F007400200045006E00740072007900000000000000000000000000
310
0000000000000000000000000000000000000000000000000000000000000000
310
16000500FFFFFFFFFFFFFFFF020000000A00030000000000C000000000000046
310
000000000000000000000000F057492AD4FBCC0103000000C000000000000000
310
01004F006C006500000000000000000000000000000000000000000000000000
310
0000000000000000000000000000000000000000000000000000000000000000
310
0A000200FFFFFFFFFFFFFFFFFFFFFFFF00000000000000000000000000000000
310
0000000000000000000000000000000000000000000000001400000000000000
310
010043006F006D0070004F0062006A0000000000000000000000000000000000
310
0000000000000000000000000000000000000000000000000000000000000000
310
120002010100000003000000FFFFFFFF00000000000000000000000000000000
310
0000000000000000000000000000000000000000010000004D00000000000000
310
01004F006C006500310030004E00610074006900760065000000000000000000
310
0000000000000000000000000000000000000000000000000000000000000000
310
1A000200FFFFFFFFFFFFFFFFFFFFFFFF00000000000000000000000000000000
310
000000000000000000000000000000000000000004000000E411000000000000
310
FEFFFFFF02000000FEFFFFFFFFFFFFFFFFFFFFFFFFFFFFFFFFFFFFFFFFFFFFFF
310
FFFFFFFFFFFFFFFFFFFFFFFFFFFFFFFFFFFFFFFFFFFFFFFFFFFFFFFFFFFFFFFF
310
FFFFFFFFFFFFFFFFFFFFFFFFFFFFFFFFFFFFFFFFFFFFFFFFFFFFFFFFFFFFFFFF
310
FFFFFFFFFFFFFFFFFFFFFFFFFFFFFFFFFFFFFFFFFFFFFFFFFFFFFFFFFFFFFFFF
310
FFFFFFFFFFFFFFFFFFFFFFFFFFFFFFFFFFFFFFFFFFFFFFFFFFFFFFFFFFFFFFFF
310
FFFFFFFFFFFFFFFFFFFFFFFFFFFFFFFFFFFFFFFFFFFFFFFFFFFFFFFFFFFFFFFF
310
FFFFFFFFFFFFFFFFFFFFFFFFFFFFFFFFFFFFFFFFFFFFFFFFFFFFFFFFFFFFFFFF
310
FFFFFFFFFFFFFFFFFFFFFFFFFFFFFFFFFFFFFFFFFFFFFFFFFFFFFFFFFFFFFFFF
310
FFFFFFFFFFFFFFFFFFFFFFFFFFFFFFFFFFFFFFFFFFFFFFFFFFFFFFFFFFFFFFFF
310
FFFFFFFFFFFFFFFFFFFFFFFFFFFFFFFFFFFFFFFFFFFFFFFFFFFFFFFFFFFFFFFF
310
FFFFFFFFFFFFFFFFFFFFFFFFFFFFFFFFFFFFFFFFFFFFFFFFFFFFFFFFFFFFFFFF
310
FFFFFFFFFFFFFFFFFFFFFFFFFFFFFFFFFFFFFFFFFFFFFFFFFFFFFFFFFFFFFFFF
310
FFFFFFFFFFFFFFFFFFFFFFFFFFFFFFFFFFFFFFFFFFFFFFFFFFFFFFFFFFFFFFFF
310
FFFFFFFFFFFFFFFFFFFFFFFFFFFFFFFFFFFFFFFFFFFFFFFFFFFFFFFFFFFFFFFF
310
FFFFFFFFFFFFFFFFFFFFFFFFFFFFFFFFFFFFFFFFFFFFFFFFFFFFFFFFFFFFFFFF
310
FFFFFFFFFFFFFFFFFFFFFFFFFFFFFFFFFFFFFFFFFFFFFFFFFFFFFFFFFFFFFFFF
310
010000020000000000000000000000000000000088D93E0E0000000000000000
310
0000000000000000000000000000000000000000000000000000000000000000
310
0100FEFF030A0000FFFFFFFF0A00030000000000C00000000000004607000000
310
5042727573680007000000504272757368000700000050427275736800F439B2
310
7100000000000000000000000000000000000000000000000000000000000000
310
0000000000000000000000000000000000000000000000000000000000000000
310
0000000000000000000000000000000000000000000000000000000000000000
310
0000000000000000000000000000000000000000000000000000000000000000
310
0000000000000000000000000000000000000000000000000000000000000000
310
0000000000000000000000000000000000000000000000000000000000000000
310
0000000000000000000000000000000000000000000000000000000000000000
310
0000000000000000000000000000000000000000000000000000000000000000
310
0000000000000000000000000000000000000000000000000000000000000000
310
0000000000000000000000000000000000000000000000000000000000000000
310
0000000000000000000000000000000000000000000000000000000000000000
310
0000000000000000000000000000000000000000000000000000000000000000
310
E0110000424DDE11000000000000360400002800000096000000170000000100
310
08000000000000000000E7240000E72400000001000000010000000000FF0101
310
01FF020202FF030303FF040404FF050505FF060606FF070707FF080808FF0909
310
09FF0A0A0AFF0B0B0BFF0C0C0CFF0D0D0DFF0E0E0EFF0F0F0FFF101010FF1111
310
11FF121212FF131313FF141414FF151515FF161616FF171717FF181818FF1919
310
19FF1A1A1AFF1B1B1BFF1C1C1CFF1D1D1DFF1E1E1EFF1F1F1FFF202020FF2121
310
21FF222222FF232323FF242424FF252525FF262626FF272727FF282828FF2929
310
29FF2A2A2AFF2B2B2BFF2C2C2CFF2D2D2DFF2E2E2EFF2F2F2FFF303030FF3131
310
31FF323232FF333333FF343434FF353535FF363636FF373737FF383838FF3939
310
39FF3A3A3AFF3B3B3BFF3C3C3CFF3D3D3DFF3E3E3EFF3F3F3FFF404040FF4141
310
41FF424242FF434343FF444444FF454545FF464646FF474747FF484848FF4949
310
49FF4A4A4AFF4B4B4BFF4C4C4CFF4D4D4DFF4E4E4EFF4F4F4FFF505050FF5151
310
51FF525252FF535353FF545454FF555555FF565656FF575757FF585858FF5959
310
59FF5A5A5AFF5B5B5BFF5C5C5CFF5D5D5DFF5E5E5EFF5F5F5FFF606060FF6161
310
61FF626262FF636363FF646464FF656565FF666666FF676767FF686868FF6969
310
69FF6A6A6AFF6B6B6BFF6C6C6CFF6D6D6DFF6E6E6EFF6F6F6FFF707070FF7171
310
71FF727272FF737373FF747474FF757575FF767676FF777777FF787878FF7979
310
79FF7A7A7AFF7B7B7BFF7C7C7CFF7D7D7DFF7E7E7EFF7F7F7FFF808080FF8181
310
81FF828282FF838383FF848484FF858585FF868686FF878787FF888888FF8989
310
89FF8A8A8AFF8B8B8BFF8C8C8CFF8D8D8DFF8E8E8EFF8F8F8FFF909090FF9191
310
91FF929292FF939393FF949494FF959595FF969696FF979797FF989898FF9999
310
99FF9A9A9AFF9B9B9BFF9C9C9CFF9D9D9DFF9E9E9EFF9F9F9FFFA0A0A0FFA1A1
310
A1FFA2A2A2FFA3A3A3FFA4A4A4FFA5A5A5FFA6A6A6FFA7A7A7FFA8A8A8FFA9A9
310
A9FFAAAAAAFFABABABFFACACACFFADADADFFAEAEAEFFAFAFAFFFB0B0B0FFB1B1
310
B1FFB2B2B2FFB3B3B3FFB4B4B4FFB5B5B5FFB6B6B6FFB7B7B7FFB8B8B8FFB9B9
310
B9FFBABABAFFBBBBBBFFBCBCBCFFBDBDBDFFBEBEBEFFBFBFBFFFC0C0C0FFC1C1
310
C1FFC2C2C2FFC3C3C3FFC4C4C4FFC5C5C5FFC6C6C6FFC7C7C7FFC8C8C8FFC9C9
310
C9FFCACACAFFCBCBCBFFCCCCCCFFCDCDCDFFCECECEFFCFCFCFFFD0D0D0FFD1D1
310
D1FFD2D2D2FFD3D3D3FFD4D4D4FFD5D5D5FFD6D6D6FFD7D7D7FFD8D8D8FFD9D9
310
D9FFDADADAFFDBDBDBFFDCDCDCFFDDDDDDFFDEDEDEFFDFDFDFFFE0E0E0FFE1E1
310
E1FFE2E2E2FFE3E3E3FFE4E4E4FFE5E5E5FFE6E6E6FFE7E7E7FFE8E8E8FFE9E9
310
E9FFEAEAEAFFEBEBEBFFECECECFFEDEDEDFFEEEEEEFFEFEFEFFFF0F0F0FFF1F1
310
F1FFF2F2F2FFF3F3F3FFF4F4F4FFF5F5F5FFF6F6F6FFF7F7F7FFF8F8F8FFF9F9
310
F9FFFAFAFAFFFBFBFBFFFCFCFCFFFDFDFDFFFEFEFEFFFFFFFFFFFFFFFFFFFFFF
310
C94E4E4E4F4E4EFFFFFFFFFFC94E4E4E4E4E72FFFFFFFFFFFFFF734E4D4E4E4E
310
C9FFFFFFFFFFAA683516171616265B9BE9FFFFFFFFFF4E4E4E4D4E4EFFFFFFFF
310
FFFFFFFF4E4E4F4E4D4E4E4E4F4E4E4F4D4E4E4E4E4E4D4E4F4E4D4E4E4EAAFF
310
FFFFFFFFFFEA4E4F4F4E4E4E4E4E4D4D4F4F4E4E4E4E4E5B7FAAFFFFFFFFFFFF
310
C9744E1716171616164D8DEAFFFFFFFF0000FFFFFFFFFFFFBA161617161716FF
310
FFFFFFFFB917171616174FFFFFFFFFFFFFFF4E1716161616B9FFFFFFB9341717
310
1716171617171616268CFFFFFFFF161617161617FFFFFFFFFFFFFFB917161717
310
1617167F807F7F7F7F7F7F807F7F807F7F807F7F7F414EFFFFFFFFFFFF8C167F
310
7F807F7F7F7E7F7F807F807F7F807F4E3417258EFFFFEA4E162674AABAEAEBBA
310
AA74341680FFFFFF0000FFFFFFFFFFFFB9171717171617FFFFFFFFFFBB161616
310
16164EFFFFFFFFFFFFFF4E1717171717B9FFFF9C171617171716161616171616
310
171766FFFFFF161717161617FFFFFFFFFFFFFF8E16171717161616FFFFFFFFFF
310
FFFFFFFFFFFFFFFFFFFFFFFFFFAA16D9FFFFFFFFFF3467FFFFFFFFEAFFFFFFFF
310
FFFFFFFFFFFFFFFFFFCA671667EB26278DFFFFFFFFFFFFFFFFFFFF8C2541EAFF
310
0000FFFFFFFFFFFFB9171717171716FFFFFFFFFFBA16171617174EFFFFFFFFFF
310
FFFF4E1717161616BAFF9B1617161616171716171617161616161667FFFF1616
310
16161716FFFFFFFFFFFFFF7F16161617174017FFFFFFFFFFFFFFFFFFFFFFFFFF
310
FFFFFFFFFFFF344E7F7F7F7E7417DAFFFFFFFF80FFFFFFFFFFFFFFFFFFFFFFFF
310
FFFFFF9B163425CAFFFFFFFFFFFFFFFFFFFFFFFFCA2667FF0000FFFFFFFFFFFF
310
BA171717171617FFFFFFFFFFB916171716164EFFFFFFFFFFFFFF4F1716161717
310
B9C91716171616161716161617171616161617168DFF161716161717FFFFFFFF
310
FFFFFF7F17171716164F16FFFFFFFFFFFFFFFFFFFFFFFFFFFFFFFFFFFFFF9B16
310
17161617174EFFFFFFFFFF34FFFFFFFFD9BABABABABADAFFFFFFFFFF7F16AAFF
310
FFFFFFFFFFFFFFFFFFFFFFFFFF9C16BA0000FFFFFFFFFFFFB9161717161717FF
310
FFFFFFFFB917161716174DFFFFFFFFFFFFFF4E1616161616BA4E161617171716
310
419BEAEAAA4E16161617161726E9171717161616FFFFFFFFFFFFFF4F16161717
310
164E16FFFFFFFFFFBAB9B9B9B9B9BABABACAFFFFFFFFFFFFFFFFFFFFFFFFFFFF
310
FFFFBA16FFFFFFFF7F1617161617174DEAFFFFFFEA41FFFFFFFFFFAA4D16174E
310
9BFFFFFFFFFF34730000FFFFFFFFFFFFB9161617171617FFFFFFFFFFBA161616
310
16164EFFFFFFFFFFFFFF4F16161717169B1617161716175BFFFFFFFFFFFF7417
310
16171616168D171717161617FFFFFFFFFFFFEA2616171717167416FFFFFFFFFF
310
16171616171717171717EAFFFFFFFFFFFFFFFFFFFFFFFFFFFFFF6716FFFFFFFF
310
7F4EFFFFFFFFBA2573FFFFFFFFBAFFFFFFFFAA167FB9BB9B269BFFFFFFFF664F
310
0000FFFFFFFFFFFFB9171616161616FFFFFFFFFFBA16161717164EFFFFFFFFFF
310
FFFF4E16161616174E161617171626EAFFFFFFFFFFFFFF4E16161616164E1716
310
16161617FFFFFFFFFFFF671616161716347F16FFFFFFFFFF16B9FFFFFFFFFFFF
310
D9168DFFFFFFFFFFFFFFFFFFFFFFFFFFFFEA1716FFFFFFFF7F4EFFFFFFFFFF7F
310
4EFFFFFFFFFFFFFFFFFF5B66FFFFFFEA347FFFFFFFFF7F4D0000FFFFFFFFFFFF
310
B9171616171617FFFFFFFFFFBA17161716174EFFFFFFFFFFFFFF4D1716161617
310
17161716161673FFFFFFFFFFFFFFFF9B1617161717161616171616174F4E4E4E
310
4E341616171616167E7F16FFFFFFFFFF16BAFFFFFFFFFFFFFF5B41FFFFFFFF34
310
1616171616BAFFFFFF9B1716FFFFFFFF7F4EFFFFFFFFFF4E4EFFFFFFFF734E4E
310
4E4E267EDA9B67164EEAFFFFFFFF744D0000FFFFFFFFFFFFBA171717161617FF
310
FFFFFFFFBA1616171616347F7F7F7F80807F331616161717161717161716B9FF
310
FFFFFFFFFFFFFFE9161616161616171716161716171616161616171616171734
310
EA7F16FFFFFFFFFF16BAFFFFFFFFFFFFFFAA17C9FFFFFF7326BABA5B25FFFFFF
310
FF401716FFFFFFFF7F264F4E4E4E4217AAFFFFFFEA16677F73261616164173CA
310
FFFFFFFFFFFF417F0000FFFFFFFFFFFFBA171616171617FFFFFFFFFFBA161616
310
17171616161616161616161717161616161616161617EAFFFFFFFFFFFFFFFFFF
310
261717161716161617161616161617161617161616174EEAFF8016FFFFFFFFFF
310
17BAFFFFFFFFFFFFFFFF3467FFFFFFC916C9FF3467FFFFFFDA166716FFFFFFFF
310
9C4D4E4E4E4E67AAFFFFFFFF6834FF7F262567AAEAFFFFFFFFFFFFFFFF9B17D9
310
0000FFFFFFFFFFFFB9161616161616FFFFFFFFFFBA1617161717171616161616
310
1716171716161716161617171716FFFFFFFFFFFFFFFFFFFF4E17161716171616
310
1617171616161716171717161616169BFF7F17FFFFFFFFFF17B9FFFFFFFFFFFF
310
FFFF7326FFFFFFFF3473DA16AAFFFFFF7317AA16FFFFFFFFFFFFFFFFFFFFFFFF
310
FFFFEA6725BA4E167FEAFFFFFFFFFFFFFFFFFFFF9C167FFF0000FFFFFFFFFFFF
310
B9161717171716FFFFFFFFFFBA16161716171616171717161617161716161616
310
171617171617EAFFFFFFFFFFFFFFFFFF26161717161616161616161617171616
310
1616161616171616AA8016FFFFFFFFFF16BAFFFFFFFFFFFFFFFFDA179BFFFFFF
310
74348D26FFFFFFFF2566B917FFFFFFFFD8BAB9BAB9BADAFFFFEA41169B7425C9
310
FFFFFFFFFFFFFFFFFFFFAB4F1680FFFF0000FFFFFFFFFFFFBA161717171617FF
310
FFFFFFFFBA17161717161617171617161616161617171616171716171617BBFF
310
FFFFFFFFFFFFFFE9171616161617161617161716FFFFFFFFFFD9671616161617
310
348017FFFFFFFFFF16BAFFFFFFFFFFFFFFFFFF4E5AFFFFFFC916265AFFFFFFAA
310
16AABA16FFFFFFFF7F1617161616179BFFFFEB4127168DFFFFFFFFFFFFFFD99B
310
6734175AC9FFFFFF0000FFFFFFFFFFFFB9161617171617FFFFFFFFFFBB161616
310
1616347F807F7F7F7F8033171716171617171616161672FFFFFFFFFFFFFFFF9C
310
171617171617161716161617FFFFFFFFFFFFFF4117161616174E17FFFFFFFFFF
310
16BAFFFFFFFFFFFFFFFFFF9B16DAFFFFFF34169BFFFFFF5A26FFB917FFFFFFFF
310
7F4EFFFFFFEA5B26FFFFFFEA2616EAFFFFFFFFDA743416331617414E4E4E4ECA
310
0000FFFFFFFFFFFFBA161716161616FFFFFFFFFFBA17171616164EFFFFFFFFFF
310
FFFF4E16161717174E161717171626EBFFFFFFFFFFFFFF4E16161617165B1616
310
16171617FFFFFFFFFFFFFF6716161616161617FFFFFFFFFF16BAFFFFFFFFFFFF
310
FFFFFFEA268CFFFFFF7316EAFFFFEB1774FFB916FFFFFFFF7F4EFFFFFFFF7316
310
FFFFFFFF6826FFFFFFFFEB264D9CEABA257F807F7F6616BA0000FFFFFFFFFFFF
310
BA161716161616FFFFFFFFFFBA16171616164DFFFFFFFFFFFFFF4E1617161617
310
9B1617171717165BEBFFFFFFFFFF671616161617179B171616161616FFFFFFFF
310
FFFFFF3417161617171617FFFFFFFFFF17BAFFFFFFFFFFFFFFFFFFFF6734FFFF
310
FFEBCAFFFFFF8D17C9FFBA17FFFFFFFF7F357F808066174FFFFFFFFF7F16FFFF
310
FFFFD91673B99B415BFFFFFFFFBA16DA00009B7F7F7F807F671617161616167F
310
80807F7E6617161616164EFFFFFFFFFFFFFF4E1616161617B94E171716161616
310
349BC9D9AA4E16171616161634FF161617161717B9B9BAB9BA9B411716171716
310
163416FFFFFFFFFF16B9FFFFFFFFFFFFFFFFFFFFC917CAFFFFFFFFFFFFFF3342
310
FFFFBA17FFFFFFFF9B4E4E4F4E4E66EAFFFFFFFF5B16C9FFFFFFFFAA4E164E73
310
EAFFFFFFFF8D26FF00004E161716161616171617171616171717171617161616
310
17174EFFFFFFFFFFFFFF4E1717171616B9D92616171716171716171717171716
310
16171716AAFF161717171617161617171616161617161716166717FFFFFFFFFF
310
17B9FFFFFFFFFFFFFFFFFFFFFF3467FFFFFFFFFFFFCA168CFFFFBB17FFFFFFFF
310
FFFFFFFFFFFFFFFFFFFFFFEA26265BFFFFFFFFFFFFFFFFFFFFFFFFFFEA3467FF
310
00004D16161616161617161717161617161616171617171616164EFFFFFFFFFF
310
FFFF4D1617161616BAFF9B1616161616161716161616171717161766FFFF1616
310
16171617161617161716171616171717667F16FFFFFFFFFF17BAFFFFFFFFFFFF
310
FFFFFFFFFF8C26EAFFFFFFFFFF6617EAFFFFBA17FFFFFFFFFFFFFFFFFFFFFFFF
310
FFFFEA5A25BA269BFFFFFFFFFFFFFFFFFFFFFFFF6616DAFF00004E1616171616
310
1616161616161716161617171616171616174EFFFFFFFFFFFFFF4D1717171716
310
B9FFFF9C161616161616161716161717171667FFFFFF17161717171716161617
310
1716161616161641E97E16FFFFFFFFFF16B9FFFFFFFFFFFFFFFFFFFFFFEA169B
310
FFFFFFFFEA265BFFFFFFB916FFFFFFFFFFFFFFFFFFFFFFFFFF9B3416AAFF9B17
310
67EAFFFFFFFFFFFFFFFFEA5B169BFFFF00004D17161716161616161717171616
310
161717161716171716174EFFFFFFFFFFFFFF4D1616161616BAFFFFFFBB411616
310
161716161616171634ABFFFFFFFF161716161617171716171617171617267FFF
310
FF7F164E4E4E4E4F17BAFFFFFFFFFFFFFFFFFFFFFFFF66344D4E4E4F4117AAFF
310
FFFFBA174E4E4E4D4E4D4D4E4E4E4E4116174EBBFFFFFFCA342666ABEAFFFFEA
310
AA6725269CFFFFFF0000724F4E4D4D4D4E4D4D4E4E4E4D4E4E4E4E4E4E4E4E4D
310
4E4E74FFFFFFFFFFFFFF734E4E4E4D4ECAFFFFFFFFFFAA663416171717265B9B
310
FFFFFFFFFFFF7F8080807F80807F7F7F7F7F807FBAFFFFFFFF9B4E4E4F4D4D4E
310
4DC9FFFFFFFFFFFFFFFFFFFFFFFFBA4E4E4E4E4D4E4EFFFFFFFFC94E4E4E4F4E
310
4E4E4D4E4E5A807F9CD9FFFFFFFFFFFFFF9B5B2617171716174E8DEAFFFFFFFF
310
0000000000000000000000000000000000000000000000000000000000000000
  1
OLE
  0
ENDSEC
  0
SECTION
  2
OBJECTS
  0
DICTIONARY
  5
C
330
0
100
AcDbDictionary
281
     1
  3
ACAD_GROUP
350
D
  3
ACAD_LAYOUT
350
1A
  3
ACAD_MLINESTYLE
350
17
  3
ACAD_PLOTSETTINGS
350
19
  3
ACAD_PLOTSTYLENAME
350
E
  0
DICTIONARY
  5
D
102
{ACAD_REACTORS
330
C
102
}
330
C
100
AcDbDictionary
281
     1
  0
DICTIONARY
  5
1A
102
{ACAD_REACTORS
330
C
102
}
330
C
100
AcDbDictionary
281
     1
  3
Layout1
350
1E
  3
Layout2
350
26
  3
Model
350
22
  0
DICTIONARY
  5
17
102
{ACAD_REACTORS
330
C
102
}
330
C
100
AcDbDictionary
281
     1
  3
Standard
350
18
  0
DICTIONARY
  5
19
102
{ACAD_REACTORS
330
C
102
}
330
C
100
AcDbDictionary
281
     1
  0
ACDBDICTIONARYWDFLT
  5
E
102
{ACAD_REACTORS
330
C
102
}
330
C
100
AcDbDictionary
281
     1
  3
Normal
350
F
100
AcDbDictionaryWithDefault
340
F
  0
LAYOUT
  5
1E
102
{ACAD_REACTORS
330
1A
102
}
330
1A
100
AcDbPlotSettings
  1

  2
none_device
  4

  6

 40
0.0
 41
0.0
 42
0.0
 43
0.0
 44
0.0
 45
0.0
 46
0.0
 47
0.0
 48
0.0
 49
0.0
140
0.0
141
0.0
142
1.0
143
1.0
 70
   688
 72
     0
 73
     0
 74
     5
  7

 75
    16
147
1.0
148
0.0
149
0.0
100
AcDbLayout
  1
Layout1
 70
     1
 71
     1
 10
0.0
 20
0.0
 11
12.0
 21
9.0
 12
0.0
 22
0.0
 32
0.0
 14
1.0000000000E+20
 24
1.0000000000E+20
 34
1.0000000000E+20
 15
-1.0000000000E+20
 25
-1.0000000000E+20
 35
-1.0000000000E+20
146
0.0
 13
0.0
 23
0.0
 33
0.0
 16
1.0
 26
0.0
 36
0.0
 17
0.0
 27
1.0
 37
0.0
 76
     0
330
1B
  0
LAYOUT
  5
26
102
{ACAD_REACTORS
330
1A
102
}
330
1A
100
AcDbPlotSettings
  1

  2
none_device
  4

  6

 40
0.0
 41
0.0
 42
0.0
 43
0.0
 44
0.0
 45
0.0
 46
0.0
 47
0.0
 48
0.0
 49
0.0
140
0.0
141
0.0
142
1.0
143
1.0
 70
   688
 72
     0
 73
     0
 74
     5
  7

 75
    16
147
1.0
148
0.0
149
0.0
100
AcDbLayout
  1
Layout2
 70
     1
 71
     2
 10
0.0
 20
0.0
 11
0.0
 21
0.0
 12
0.0
 22
0.0
 32
0.0
 14
0.0
 24
0.0
 34
0.0
 15
0.0
 25
0.0
 35
0.0
146
0.0
 13
0.0
 23
0.0
 33
0.0
 16
1.0
 26
0.0
 36
0.0
 17
0.0
 27
1.0
 37
0.0
 76
     0
330
23
  0
LAYOUT
  5
22
102
{ACAD_REACTORS
330
1A
102
}
330
1A
100
AcDbPlotSettings
  1

  2
none_device
  4

  6

 40
0.0
 41
0.0
 42
0.0
 43
0.0
 44
0.0
 45
0.0
 46
0.0
 47
0.0
 48
0.0
 49
0.0
140
0.0
141
0.0
142
1.0
143
1.0
 70
  1712
 72
     0
 73
     0
 74
     0
  7

 75
     0
147
1.0
148
0.0
149
0.0
100
AcDbLayout
  1
Model
 70
     1
 71
     0
 10
0.0
 20
0.0
 11
11.0
 21
8.5
 12
0.0
 22
0.0
 32
0.0
 14
0.0
 24
0.0
 34
0.0
 15
11.0
 25
8.5
 35
0.0
146
0.0
 13
0.0
 23
0.0
 33
0.0
 16
1.0
 26
0.0
 36
0.0
 17
0.0
 27
1.0
 37
0.0
 76
     0
330
1F
331
29
  0
MLINESTYLE
  5
18
102
{ACAD_REACTORS
330
17
102
}
330
17
100
AcDbMlineStyle
  2
Standard
 70
     0
  3

 62
   256
 51
90.0
 52
90.0
 71
     2
 49
0.5
 62
   256
  6
BYLAYER
 49
-0.5
 62
   256
  6
BYLAYER
  0
ACDBPLACEHOLDER
  5
F
102
{ACAD_REACTORS
330
E
102
}
330
E
  0
ENDSEC
  0
EOF
