  0
SECTION
  2
HEADER
  9
$ACADVER
  1
AC1015
  9
$ACADMAINTVER
 70
     6
  9
$DWGCODEPAGE
  3
ANSI_1252
  9
$INSBASE
 10
0.0
 20
0.0
 30
0.0
  9
$EXTMIN
 10
0.0
 20
0.0
 30
0.0
  9
$EXTMAX
 10
279.4
 20
215.9
 30
0.0
  9
$LIMMIN
 10
0.0
 20
0.0
  9
$LIMMAX
 10
279.4
 20
215.9
  9
$ORTHOMODE
 70
     0
  9
$REGENMODE
 70
     1
  9
$FILLMODE
 70
     1
  9
$QTEXTMODE
 70
     0
  9
$MIRRTEXT
 70
     1
  9
$LTSCALE
 40
1.0
  9
$ATTMODE
 70
     1
  9
$TEXTSIZE
 40
2.8222222222
  9
$TRACEWID
 40
1.0
  9
$TEXTSTYLE
  7
Standard
  9
$CLAYER
  8
0
  9
$CELTYPE
  6
ByLayer
  9
$CECOLOR
 62
   256
  9
$CELTSCALE
 40
1.0
  9
$DISPSILH
 70
     0
  9
$DIMSCALE
 40
1.0
  9
$DIMASZ
 40
3.175
  9
$DIMEXO
 40
1.27
  9
$DIMDLI
 40
3.75
  9
$DIMRND
 40
0.0
  9
$DIMDLE
 40
0.0
  9
$DIMEXE
 40
1.778
  9
$DIMTP
 40
0.0
  9
$DIMTM
 40
0.0
  9
$DIMTXT
 40
2.8222222222
  9
$DIMCEN
 40
2.5
  9
$DIMTSZ
 40
0.0
  9
$DIMTOL
 70
     0
  9
$DIMLIM
 70
     0
  9
$DIMTIH
 70
     1
  9
$DIMTOH
 70
     1
  9
$DIMSE1
 70
     0
  9
$DIMSE2
 70
     0
  9
$DIMTAD
 70
     0
  9
$DIMZIN
 70
     1
  9
$DIMBLK
  1

  9
$DIMASO
 70
     1
  9
$DIMSHO
 70
     1
  9
$DIMPOST
  1

  9
$DIMAPOST
  1

  9
$DIMALT
 70
     0
  9
$DIMALTD
 70
     3
  9
$DIMALTF
 40
0.0393700787
  9
$DIMLFAC
 40
1.0
  9
$DIMTOFL
 70
     1
  9
$DIMTVP
 40
0.0
  9
$DIMTIX
 70
     0
  9
$DIMSOXD
 70
     0
  9
$DIMSAH
 70
     0
  9
$DIMBLK1
  1

  9
$DIMBLK2
  1

  9
$DIMSTYLE
  2
ISO-25
  9
$DIMCLRD
 70
     0
  9
$DIMCLRE
 70
     0
  9
$DIMCLRT
 70
     0
  9
$DIMTFAC
 40
1.0
  9
$DIMGAP
 40
2.54
  9
$DIMJUST
 70
     0
  9
$DIMSD1
 70
     0
  9
$DIMSD2
 70
     0
  9
$DIMTOLJ
 70
     0
  9
$DIMTZIN
 70
     1
  9
$DIMALTZ
 70
     0
  9
$DIMALTTZ
 70
     0
  9
$DIMUPT
 70
     0
  9
$DIMDEC
 70
     1
  9
$DIMTDEC
 70
     1
  9
$DIMALTU
 70
     2
  9
$DIMALTTD
 70
     3
  9
$DIMTXSTY
  7
Standard
  9
$DIMAUNIT
 70
     0
  9
$DIMADEC
 70
     0
  9
$DIMALTRND
 40
0.0
  9
$DIMAZIN
 70
     0
  9
$DIMDSEP
 70
    44
  9
$DIMATFIT
 70
     3
  9
$DIMFRAC
 70
     0
  9
$DIMLDRBLK
  1

  9
$DIMLUNIT
 70
     2
  9
$DIMLWD
 70
    -2
  9
$DIMLWE
 70
    -2
  9
$DIMTMOVE
 70
     0
  9
$LUNITS
 70
     2
  9
$LUPREC
 70
     1
  9
$SKETCHINC
 40
1.0
  9
$FILLETRAD
 40
10.0
  9
$AUNITS
 70
     0
  9
$AUPREC
 70
     0
  9
$MENU
  1
.
  9
$ELEVATION
 40
0.0
  9
$PELEVATION
 40
0.0
  9
$THICKNESS
 40
0.0
  9
$LIMCHECK
 70
     0
  9
$CHAMFERA
 40
0.0
  9
$CHAMFERB
 40
0.0
  9
$CHAMFERC
 40
0.0
  9
$CHAMFERD
 40
0.0
  9
$SKPOLY
 70
     0
  9
$TDCREATE
 40
2458470.636142511
  9
$TDUCREATE
 40
2458470.844475845
  9
$TDUPDATE
 40
2458470.636150104
  9
$TDUUPDATE
 40
2458470.844483437
  9
$TDINDWG
 40
0.0000000116
  9
$TDUSRTIMER
 40
0.0000000116
  9
$USRTIMER
 70
     1
  9
$ANGBASE
 50
0.0
  9
$ANGDIR
 70
     0
  9
$PDMODE
 70
     0
  9
$PDSIZE
 40
-1.0
  9
$PLINEWID
 40
0.0
  9
$SPLFRAME
 70
     0
  9
$SPLINETYPE
 70
     6
  9
$SPLINESEGS
 70
     8
  9
$HANDSEED
  5
264
  9
$SURFTAB1
 70
     6
  9
$SURFTAB2
 70
     6
  9
$SURFTYPE
 70
     6
  9
$SURFU
 70
     6
  9
$SURFV
 70
     6
  9
$UCSBASE
  2

  9
$UCSNAME
  2

  9
$UCSORG
 10
0.0
 20
0.0
 30
0.0
  9
$UCSXDIR
 10
1.0
 20
0.0
 30
0.0
  9
$UCSYDIR
 10
0.0
 20
1.0
 30
0.0
  9
$UCSORTHOREF
  2

  9
$UCSORTHOVIEW
 70
     0
  9
$UCSORGTOP
 10
0.0
 20
0.0
 30
0.0
  9
$UCSORGBOTTOM
 10
0.0
 20
0.0
 30
0.0
  9
$UCSORGLEFT
 10
0.0
 20
0.0
 30
0.0
  9
$UCSORGRIGHT
 10
0.0
 20
0.0
 30
0.0
  9
$UCSORGFRONT
 10
0.0
 20
0.0
 30
0.0
  9
$UCSORGBACK
 10
0.0
 20
0.0
 30
0.0
  9
$PUCSBASE
  2

  9
$PUCSNAME
  2

  9
$PUCSORG
 10
0.0
 20
0.0
 30
0.0
  9
$PUCSXDIR
 10
1.0
 20
0.0
 30
0.0
  9
$PUCSYDIR
 10
0.0
 20
1.0
 30
0.0
  9
$PUCSORTHOREF
  2

  9
$PUCSORTHOVIEW
 70
     0
  9
$PUCSORGTOP
 10
0.0
 20
0.0
 30
0.0
  9
$PUCSORGBOTTOM
 10
0.0
 20
0.0
 30
0.0
  9
$PUCSORGLEFT
 10
0.0
 20
0.0
 30
0.0
  9
$PUCSORGRIGHT
 10
0.0
 20
0.0
 30
0.0
  9
$PUCSORGFRONT
 10
0.0
 20
0.0
 30
0.0
  9
$PUCSORGBACK
 10
0.0
 20
0.0
 30
0.0
  9
$USERI1
 70
     0
  9
$USERI2
 70
     0
  9
$USERI3
 70
     0
  9
$USERI4
 70
     0
  9
$USERI5
 70
     0
  9
$USERR1
 40
0.0
  9
$USERR2
 40
0.0
  9
$USERR3
 40
0.0
  9
$USERR4
 40
0.0
  9
$USERR5
 40
0.0
  9
$WORLDVIEW
 70
     1
  9
$SHADEDGE
 70
     3
  9
$SHADEDIF
 70
    70
  9
$TILEMODE
 70
     1
  9
$MAXACTVP
 70
    64
  9
$PINSBASE
 10
0.0
 20
0.0
 30
0.0
  9
$PLIMCHECK
 70
     0
  9
$PEXTMIN
 10
1.0000000000E+20
 20
1.0000000000E+20
 30
1.0000000000E+20
  9
$PEXTMAX
 10
-1.0000000000E+20
 20
-1.0000000000E+20
 30
-1.0000000000E+20
  9
$PLIMMIN
 10
0.0
 20
0.0
  9
$PLIMMAX
 10
420.0
 20
297.0
  9
$UNITMODE
 70
     0
  9
$VISRETAIN
 70
     1
  9
$PLINEGEN
 70
     0
  9
$PSLTSCALE
 70
     1
  9
$TREEDEPTH
 70
  3020
  9
$CMLSTYLE
  2
Standard
  9
$CMLJUST
 70
     0
  9
$CMLSCALE
 40
20.0
  9
$PROXYGRAPHICS
 70
     1
  9
$MEASUREMENT
 70
     1
  9
$CELWEIGHT
370
    -1
  9
$ENDCAPS
280
     0
  9
$JOINSTYLE
280
     0
  9
$LWDISPLAY
290
     1
  9
$INSUNITS
 70
     4
  9
$HYPERLINKBASE
  1

  9
$STYLESHEET
  1

  9
$XEDIT
290
     1
  9
$CEPSNTYPE
380
     0
  9
$PSTYLEMODE
290
     1
  9
$FINGERPRINTGUID
  2
{DF4E65EF-20A3-4CCD-A0C2-59603774F3D5}
  9
$VERSIONGUID
  2
{FAEB1C32-E019-11D5-929B-00C0DF256EC4}
  9
$EXTNAMES
290
     1
  9
$PSVPSCALE
 40
0.0
  9
$OLESTARTUP
290
     0
  0
ENDSEC
  0
SECTION
  2
CLASSES
  0
CLASS
  1
ACDBDICTIONARYWDFLT
  2
AcDbDictionaryWithDefault
  3
ObjectDBX Classes
 90
        0
280
     0
281
     0
  0
CLASS
  1
VISUALSTYLE
  2
AcDbVisualStyle
  3
ObjectDBX Classes
 90
     4095
280
     0
281
     0
  0
CLASS
  1
MATERIAL
  2
AcDbMaterial
  3
ObjectDBX Classes
 90
     1153
280
     0
281
     0
  0
CLASS
  1
SCALE
  2
AcDbScale
  3
ObjectDBX Classes
 90
     1153
280
     0
281
     0
  0
CLASS
  1
TABLESTYLE
  2
AcDbTableStyle
  3
ObjectDBX Classes
 90
     4095
280
     0
281
     0
  0
CLASS
  1
MLEADERSTYLE
  2
AcDbMLeaderStyle
  3
ACDB_MLEADERSTYLE_CLASS
 90
     4095
280
     0
281
     0
  0
CLASS
  1
SUN
  2
AcDbSun
  3
SCENEOE
 90
     1153
280
     0
281
     0
  0
CLASS
  1
ACDBPLACEHOLDER
  2
AcDbPlaceHolder
  3
ObjectDBX Classes
 90
        0
280
     0
281
     0
  0
CLASS
  1
LAYOUT
  2
AcDbLayout
  3
ObjectDBX Classes
 90
        0
280
     0
281
     0
  0
ENDSEC
  0
SECTION
  2
TABLES
  0
TABLE
  2
VPORT
  5
8
330
0
100
AcDbSymbolTable
 70
     1
  0
VPORT
  5
29
330
8
100
AcDbSymbolTableRecord
100
AcDbViewportTableRecord
  2
*Active
 70
     0
 10
0.0
 20
0.0
 11
1.0
 21
1.0
 12
139.7
 22
107.95
 13
0.0
 23
0.0
 14
10.0
 24
10.0
 15
10.0
 25
10.0
 16
0.0
 26
0.0
 36
1.0
 17
0.0
 27
0.0
 37
0.0
 40
215.9
 41
1.2941176471
 42
50.0
 43
0.0
 44
0.0
 50
0.0
 51
0.0
 71
     0
 72
  2000
 73
     1
 74
     3
 75
     0
 76
     0
 77
     0
 78
     0
281
     0
 65
     1
110
0.0
120
0.0
130
0.0
111
1.0
121
0.0
131
0.0
112
0.0
122
1.0
132
0.0
 79
     0
146
0.0
  0
ENDTAB
  0
TABLE
  2
LTYPE
  5
5
330
0
100
AcDbSymbolTable
 70
     6
  0
LTYPE
  5
14
330
5
100
AcDbSymbolTableRecord
100
AcDbLinetypeTableRecord
  2
ByBlock
 70
     0
  3

 72
    65
 73
     0
 40
0.0
  0
LTYPE
  5
15
330
5
100
AcDbSymbolTableRecord
100
AcDbLinetypeTableRecord
  2
ByLayer
 70
     0
  3

 72
    65
 73
     0
 40
0.0
  0
LTYPE
  5
16
330
5
100
AcDbSymbolTableRecord
100
AcDbLinetypeTableRecord
  2
Continuous
 70
     0
  3
Solid line
 72
    65
 73
     0
 40
0.0
  0
LTYPE
  5
6E
330
5
100
AcDbSymbolTableRecord
100
AcDbLinetypeTableRecord
  2
HIDDEN
 70
     0
  3
Hidden __ __ __ __ __ __ __ __ __ __ __ __ __ __
 72
    65
 73
     2
 40
1.905
 49
1.27
 74
     0
 49
-0.635
 74
     0
  0
LTYPE
  5
6F
330
5
100
AcDbSymbolTableRecord
100
AcDbLinetypeTableRecord
  2
PHANTOM
 70
     0
  3
Phantom ______  __  __  ______  __  __  ______
 72
    65
 73
     6
 40
12.7
 49
6.35
 74
     0
 49
-1.27
 74
     0
 49
1.27
 74
     0
 49
-1.27
 74
     0
 49
1.27
 74
     0
 49
-1.27
 74
     0
  0
LTYPE
  5
70
330
5
100
AcDbSymbolTableRecord
100
AcDbLinetypeTableRecord
  2
CENTER
 70
     0
  3
Center ____ _ ____ _ ____ _ ____ _ ____ _ ____
 72
    65
 73
     4
 40
10.16
 49
6.35
 74
     0
 49
-1.27
 74
     0
 49
1.27
 74
     0
 49
-1.27
 74
     0
  0
LTYPE
  5
71
330
5
100
AcDbSymbolTableRecord
100
AcDbLinetypeTableRecord
  2
CENTERX2
 70
     0
  3
Center (2x) ________  __  ________  __  _____
 72
    65
 73
     4
 40
20.32
 49
12.7
 74
     0
 49
-2.54
 74
     0
 49
2.54
 74
     0
 49
-2.54
 74
     0
  0
LTYPE
  5
72
330
5
100
AcDbSymbolTableRecord
100
AcDbLinetypeTableRecord
  2
DOT2
 70
     0
  3
Dot (.5x) ........................................
 72
    65
 73
     2
 40
0.635
 49
0.0
 74
     0
 49
-0.635
 74
     0
  0
ENDTAB
  0
TABLE
  2
LAYER
  5
2
330
0
100
AcDbSymbolTable
 70
     2
  0
LAYER
  5
10
330
2
100
AcDbSymbolTableRecord
100
AcDbLayerTableRecord
  2
0
 70
     0
 62
     7
  6
Continuous
370
    -3
390
F
  0
LAYER
  5
73
330
2
100
AcDbSymbolTableRecord
100
AcDbLayerTableRecord
  2
FORMAT
 70
     0
 62
     7
  6
Continuous
370
    -3
390
F
  0
ENDTAB
  0
TABLE
  2
STYLE
  5
3
330
0
100
AcDbSymbolTable
 70
     5
  0
STYLE
  5
11
330
3
100
AcDbSymbolTableRecord
100
AcDbTextStyleTableRecord
  2
Standard
 70
     0
 40
0.0
 41
1.0
 50
0.0
 71
     0
 42
2.8222222222
  3
txt
  4

  0
STYLE
  5
9D
330
3
100
AcDbSymbolTableRecord
100
AcDbTextStyleTableRecord
  2
SLDTEXTSTYLE0
 70
     0
 40
0.0
 41
0.75
 50
0.0
 71
     0
 42
2.8222222222
  3
TXT
  4

  0
STYLE
  5
A3
330
3
100
AcDbSymbolTableRecord
100
AcDbTextStyleTableRecord
  2
SLDTEXTSTYLE1
 70
     0
 40
0.0
 41
0.75
 50
0.0
 71
     0
 42
2.8222222222
  3
TXT
  4
bigfont
  0
STYLE
  5
B5
330
3
100
AcDbSymbolTableRecord
100
AcDbTextStyleTableRecord
  2
SLDTEXTSTYLE2
 70
     0
 40
0.0
 41
0.7
 50
0.0
 71
     0
 42
2.8222222222
  3
TXT
  4

  0
STYLE
  5
C4
330
3
100
AcDbSymbolTableRecord
100
AcDbTextStyleTableRecord
  2
SLDTEXTSTYLE3
 70
     0
 40
0.0
 41
0.6
 50
0.0
 71
     0
 42
2.8222222222
  3
TXT
  4

  0
ENDTAB
  0
TABLE
  2
VIEW
  5
6
330
0
100
AcDbSymbolTable
 70
     0
  0
ENDTAB
  0
TABLE
  2
UCS
  5
7
330
0
100
AcDbSymbolTable
 70
     0
  0
ENDTAB
  0
TABLE
  2
APPID
  5
9
330
0
100
AcDbSymbolTable
 70
     1
  0
APPID
  5
12
330
9
100
AcDbSymbolTableRecord
100
AcDbRegAppTableRecord
  2
ACAD
 70
     0
  0
ENDTAB
  0
TABLE
  2
DIMSTYLE
  5
A
330
0
100
AcDbSymbolTable
 70
     6
100
AcDbDimStyleTable
  0
DIMSTYLE
105
27
330
A
100
AcDbSymbolTableRecord
100
AcDbDimStyleTableRecord
  2
ISO-25
 70
     0
 41
2.5
 42
0.625
 43
3.75
 44
1.25
 73
     0
 74
     0
 77
     1
 78
     8
140
2.5
141
2.5
143
0.0393700787
147
0.625
171
     3
172
     1
178
     0
271
     2
272
     2
274
     3
278
    44
283
     0
284
     8
340
11
  0
DIMSTYLE
105
F3
102
{ACAD_REACTORS
330
F2
102
}
330
A
100
AcDbSymbolTableRecord
100
AcDbDimStyleTableRecord
  2
SLDDIMSTYLE0
 70
     0
 41
3.175
 44
0.0
 45
0.000000001
 78
    12
 79
     3
140
2.1166666667
141
0.0
143
0.0393700787
147
0.5291666667
148
0.000000001
170
     1
173
     1
178
     0
271
     1
272
     1
276
     2
284
    12
340
9D
  0
DIMSTYLE
105
118
102
{ACAD_REACTORS
330
117
102
}
330
A
100
AcDbSymbolTableRecord
100
AcDbDimStyleTableRecord
  2
SLDDIMSTYLE1
 70
     0
 41
3.175
 44
0.0
 45
0.000000001
 78
    12
 79
     3
140
2.1166666667
143
0.0393700787
147
0.5291666667
148
0.000000001
170
     1
172
     1
173
     1
178
     0
271
     1
272
     1
276
     2
284
    12
289
     0
340
9D
  0
DIMSTYLE
105
12C
102
{ACAD_REACTORS
330
12B
102
}
330
A
100
AcDbSymbolTableRecord
100
AcDbDimStyleTableRecord
  2
SLDDIMSTYLE2
 70
     0
 41
3.175
 44
0.0
 45
0.000000001
 78
     4
 79
     1
140
2.1166666667
141
0.0
143
0.0393700787
147
0.5291666667
148
0.000000001
170
     1
173
     1
178
     0
271
     1
272
     1
276
     2
284
    12
340
9D
  0
DIMSTYLE
105
13D
102
{ACAD_REACTORS
330
13C
102
}
330
A
100
AcDbSymbolTableRecord
100
AcDbDimStyleTableRecord
  2
SLDDIMSTYLE3
 70
     0
 41
3.175
 44
0.0
 45
0.000000001
 78
     4
 79
     1
140
2.1166666667
143
0.0393700787
147
0.5291666667
148
0.000000001
170
     1
172
     1
173
     1
178
     0
271
     1
272
     1
276
     2
284
    12
289
     0
340
9D
  0
DIMSTYLE
105
153
330
A
100
AcDbSymbolTableRecord
100
AcDbDimStyleTableRecord
  2
SLDDIMSTYLE4
 70
     0
 41
3.175
 44
0.0
 45
0.000000001
146
3.175
147
0.0
173
     1
178
     0
271
     0
272
     0
276
     2
340
11
  0
ENDTAB
  0
TABLE
  2
BLOCK_RECORD
  5
1
330
0
100
AcDbSymbolTable
 70
    11
  0
BLOCK_RECORD
  5
1F
330
1
100
AcDbSymbolTableRecord
100
AcDbBlockTableRecord
  2
*Model_Space
340
22
  0
BLOCK_RECORD
  5
1B
330
1
100
AcDbSymbolTableRecord
100
AcDbBlockTableRecord
  2
*Paper_Space
340
1E
  0
BLOCK_RECORD
  5
23
330
1
100
AcDbSymbolTableRecord
100
AcDbBlockTableRecord
  2
*Paper_Space0
340
26
  0
BLOCK_RECORD
  5
74
330
1
100
AcDbSymbolTableRecord
100
AcDbBlockTableRecord
  2
Third Angle Projection Block
340
0
102
{BLKREFS
331
99
102
}
  0
BLOCK_RECORD
  5
9A
330
1
100
AcDbSymbolTableRecord
100
AcDbBlockTableRecord
  2
SW_NOTE_0
340
0
102
{BLKREFS
331
B8
102
}
  0
BLOCK_RECORD
  5
CA
330
1
100
AcDbSymbolTableRecord
100
AcDbBlockTableRecord
  2
SW_NOTE_1
340
0
102
{BLKREFS
331
CF
102
}
  0
BLOCK_RECORD
  5
D0
330
1
100
AcDbSymbolTableRecord
100
AcDbBlockTableRecord
  2
SW_NOTE_2
340
0
102
{BLKREFS
331
D5
102
}
  0
BLOCK_RECORD
  5
D7
330
1
100
AcDbSymbolTableRecord
100
AcDbBlockTableRecord
  2
SW_NOTE_3
340
0
102
{BLKREFS
331
DC
102
}
  0
BLOCK_RECORD
  5
DD
330
1
100
AcDbSymbolTableRecord
100
AcDbBlockTableRecord
  2
SW_NOTE_4
340
0
102
{BLKREFS
331
E3
102
}
  0
BLOCK_RECORD
  5
F4
330
1
100
AcDbSymbolTableRecord
100
AcDbBlockTableRecord
  2
_D
340
0
  0
BLOCK_RECORD
  5
119
330
1
100
AcDbSymbolTableRecord
100
AcDbBlockTableRecord
  2
_D_1
340
0
  0
BLOCK_RECORD
  5
12D
330
1
100
AcDbSymbolTableRecord
100
AcDbBlockTableRecord
  2
_D_2
340
0
  0
BLOCK_RECORD
  5
13E
330
1
100
AcDbSymbolTableRecord
100
AcDbBlockTableRecord
  2
_D_3
340
0
  0
ENDTAB
  0
ENDSEC
  0
SECTION
  2
BLOCKS
  0
BLOCK
  5
20
330
1F
100
AcDbEntity
  8
0
100
AcDbBlockBegin
  2
*Model_Space
 70
     0
 10
0.0
 20
0.0
 30
0.0
  3
*Model_Space
  1

  0
ENDBLK
  5
21
330
1F
100
AcDbEntity
  8
0
100
AcDbBlockEnd
  0
BLOCK
  5
1C
330
1B
100
AcDbEntity
 67
     1
  8
0
100
AcDbBlockBegin
  2
*Paper_Space
 70
     0
 10
0.0
 20
0.0
 30
0.0
  3
*Paper_Space
  1

  0
ENDBLK
  5
1D
330
1B
100
AcDbEntity
 67
     1
  8
0
100
AcDbBlockEnd
  0
BLOCK
  5
24
330
23
100
AcDbEntity
  8
0
100
AcDbBlockBegin
  2
*Paper_Space0
 70
     0
 10
0.0
 20
0.0
 30
0.0
  3
*Paper_Space0
  1

  0
ENDBLK
  5
25
330
23
100
AcDbEntity
  8
0
100
AcDbBlockEnd
  0
BLOCK
  5
75
330
74
100
AcDbEntity
  8
0
100
AcDbBlockBegin
  2
Third Angle Projection Block
 70
     0
 10
0.0
 20
0.0
 30
0.0
  3
Third Angle Projection Block
  1

  0
CIRCLE
  5
77
330
74
100
AcDbEntity
  8
0
  6
Continuous
 62
     7
370
    35
100
AcDbCircle
 10
101.4766388944
 20
18.9404083667
 30
0.0
 40
1.768227153674871
  0
CIRCLE
  5
78
330
74
100
AcDbEntity
  8
0
  6
Continuous
 62
     7
370
    35
100
AcDbCircle
 10
101.4766388944
 20
18.9404083667
 30
0.0
 40
3.901228248531818
  0
LINE
  5
79
330
74
100
AcDbEntity
  8
0
  6
CENTERX2
 62
     7
370
    18
100
AcDbLine
 10
110.1367822585
 20
18.9404083667
 30
0.0
 11
119.4527334874
 21
18.9404083667
 31
0.0
  0
LINE
  5
7A
330
74
100
AcDbEntity
  8
0
  6
Continuous
 62
     7
370
    35
100
AcDbLine
 10
111.0016388944
 20
20.7086355204
 30
0.0
 11
111.0016388944
 21
17.172181213
 31
0.0
  0
LINE
  5
7B
330
74
100
AcDbEntity
  8
0
  6
Continuous
 62
     7
370
    35
100
AcDbLine
 10
111.0016388944
 20
17.172181213
 30
0.0
 11
118.6216388944
 21
15.1304083667
 31
0.0
  0
LINE
  5
7C
330
74
100
AcDbEntity
  8
0
  6
Continuous
 62
     7
370
    35
100
AcDbLine
 10
118.6216388944
 20
15.1304083667
 30
0.0
 11
118.6216388944
 21
22.7504083667
 31
0.0
  0
LINE
  5
7D
330
74
100
AcDbEntity
  8
0
  6
Continuous
 62
     7
370
    35
100
AcDbLine
 10
118.6216388944
 20
22.7504083667
 30
0.0
 11
111.0016388944
 21
20.7086355204
 31
0.0
  0
LINE
  5
7E
330
74
100
AcDbEntity
  8
0
  6
CENTERX2
 62
     7
370
    18
100
AcDbLine
 10
96.6025854619
 20
18.9404083667
 30
0.0
 11
106.3506923269
 21
18.9404083667
 31
0.0
  0
LINE
  5
7F
330
74
100
AcDbEntity
  8
0
  6
CENTERX2
 62
     7
370
    18
100
AcDbLine
 10
101.4766388944
 20
23.8144617992
 30
0.0
 11
101.4766388944
 21
14.0663549342
 31
0.0
  0
POINT
  5
80
330
74
100
AcDbEntity
  8
0
  6
Continuous
 62
     7
370
     0
100
AcDbPoint
 10
101.4766388944
 20
18.9404083667
 30
0.0
  0
ENDBLK
  5
76
330
74
100
AcDbEntity
  8
0
100
AcDbBlockEnd
  0
BLOCK
  5
9B
330
9A
100
AcDbEntity
  8
0
100
AcDbBlockBegin
  2
SW_NOTE_0
 70
     0
 10
0.0
 20
0.0
 30
0.0
  3
SW_NOTE_0
  1

  0
MTEXT
  5
9E
330
9A
100
AcDbEntity
  8
0
  6
Continuous
 62
     0
370
     0
100
AcDbMText
 10
0.0
 20
3.4106583948
 30
0.0
 40
2.6458333333
 41
0.0
 71
     1
 72
     1
  1
NOTES/SPECIFICATIONS:
  7
SLDTEXTSTYLE0
 73
     1
 44
1.0
  0
MTEXT
  5
9F
330
9A
100
AcDbEntity
  8
0
  6
Continuous
 62
     0
370
     0
100
AcDbMText
 10
9.9999997765
 20
-5.6448974033
 30
0.0
 40
2.6458333333
 41
0.0
 71
     1
 72
     1
  1
CLEAR APERTURE: >
  7
SLDTEXTSTYLE0
 73
     1
 44
1.0
  0
MTEXT
  5
A0
330
9A
100
AcDbEntity
  8
0
  6
Continuous
 62
     0
370
     0
100
AcDbMText
 10
42.7789334208
 20
-5.6448974033
 30
0.0
 40
2.6458333333
 41
0.0
 71
     1
 72
     1
  1
%%c
  7
SLDTEXTSTYLE0
 73
     1
 44
1.0
  0
MTEXT
  5
A1
330
9A
100
AcDbEntity
  8
0
  6
Continuous
 62
     0
370
     0
100
AcDbMText
 10
46.7726718634
 20
-5.6448974033
 30
0.0
 40
2.6458333333
 41
0.0
 71
     1
 72
     1
  1
45.72mm
  7
SLDTEXTSTYLE0
 73
     1
 44
1.0
  0
MTEXT
  5
A2
330
9A
100
AcDbEntity
  8
0
  6
Continuous
 62
     0
370
     0
100
AcDbMText
 10
0.0
 20
-5.6448974033
 30
0.0
 40
2.6458333333
 41
0.0
 71
     1
 72
     1
  1
1.
  7
SLDTEXTSTYLE0
 73
     1
 44
1.0
  0
MTEXT
  5
A4
330
9A
100
AcDbEntity
  8
0
  6
Continuous
 62
     0
370
     0
100
AcDbMText
 10
9.9999997765
 20
-10.1726753024
 30
0.0
 40
2.6458333333
 41
0.0
 71
     1
 72
     1
  1
SURFACE IRREGULARITY (S1): \U+2264\M+183C9/4 AT 633nm OVER CLEAR APERTURE
  7
SLDTEXTSTYLE1
 73
     1
 44
1.0
  0
MTEXT
  5
A5
330
9A
100
AcDbEntity
  8
0
  6
Continuous
 62
     0
370
     0
100
AcDbMText
 10
0.0
 20
-10.1726753024
 30
0.0
 40
2.6458333333
 41
0.0
 71
     1
 72
     1
  1
2.
  7
SLDTEXTSTYLE0
 73
     1
 44
1.0
  0
MTEXT
  5
A6
330
9A
100
AcDbEntity
  8
0
  6
Continuous
 62
     0
370
     0
100
AcDbMText
 10
9.9999997765
 20
-14.7004532014
 30
0.0
 40
2.6458333333
 41
0.0
 71
     1
 72
     1
  1
BACK SURFACE (S2): UNIFORM FINE GRIND #12-#20 GRIT
  7
SLDTEXTSTYLE0
 73
     1
 44
1.0
  0
MTEXT
  5
A7
330
9A
100
AcDbEntity
  8
0
  6
Continuous
 62
     0
370
     0
100
AcDbMText
 10
0.0
 20
-14.7004532014
 30
0.0
 40
2.6458333333
 41
0.0
 71
     1
 72
     1
  1
3.
  7
SLDTEXTSTYLE0
 73
     1
 44
1.0
  0
MTEXT
  5
A8
330
9A
100
AcDbEntity
  8
0
  6
Continuous
 62
     0
370
     0
100
AcDbMText
 10
9.9999997765
 20
-19.2282311005
 30
0.0
 40
2.6458333333
 41
0.0
 71
     1
 72
     1
  1
SURFACE QUALITY(S1): 40-20 SCRATCH-DIG
  7
SLDTEXTSTYLE0
 73
     1
 44
1.0
  0
MTEXT
  5
A9
330
9A
100
AcDbEntity
  8
0
  6
Continuous
 62
     0
370
     0
100
AcDbMText
 10
0.0
 20
-19.2282311005
 30
0.0
 40
2.6458333333
 41
0.0
 71
     1
 72
     1
  1
4.
  7
SLDTEXTSTYLE0
 73
     1
 44
1.0
  0
MTEXT
  5
AA
330
9A
100
AcDbEntity
  8
0
  6
Continuous
 62
     0
370
     0
100
AcDbMText
 10
9.9999997765
 20
-23.7560089995
 30
0.0
 40
2.6458333333
 41
0.0
 71
     1
 72
     1
  1
THICKNESS TOLERANCE:
  7
SLDTEXTSTYLE0
 73
     1
 44
1.0
  0
MTEXT
  5
AB
330
9A
100
AcDbEntity
  8
0
  6
Continuous
 62
     0
370
     0
100
AcDbMText
 10
50.8242268115
 20
-23.7560089995
 30
0.0
 40
2.6458333333
 41
0.0
 71
     1
 72
     1
  1
%%p
  7
SLDTEXTSTYLE0
 73
     1
 44
1.0
  0
MTEXT
  5
AC
330
9A
100
AcDbEntity
  8
0
  6
Continuous
 62
     0
370
     0
100
AcDbMText
 10
53.3465910703
 20
-23.7560089995
 30
0.0
 40
2.6458333333
 41
0.0
 71
     1
 72
     1
  1
0.1 mm
  7
SLDTEXTSTYLE0
 73
     1
 44
1.0
  0
MTEXT
  5
AD
330
9A
100
AcDbEntity
  8
0
  6
Continuous
 62
     0
370
     0
100
AcDbMText
 10
0.0
 20
-23.7560089995
 30
0.0
 40
2.6458333333
 41
0.0
 71
     1
 72
     1
  1
5.
  7
SLDTEXTSTYLE0
 73
     1
 44
1.0
  0
MTEXT
  5
AE
330
9A
100
AcDbEntity
  8
0
  6
Continuous
 62
     0
370
     0
100
AcDbMText
 10
9.9999997765
 20
-28.2837868986
 30
0.0
 40
2.6458333333
 41
0.0
 71
     1
 72
     1
  1
DIAMETER TOLERANCE: +0.0/-0.2 mm
  7
SLDTEXTSTYLE0
 73
     1
 44
1.0
  0
MTEXT
  5
AF
330
9A
100
AcDbEntity
  8
0
  6
Continuous
 62
     0
370
     0
100
AcDbMText
 10
0.0
 20
-28.2837868986
 30
0.0
 40
2.6458333333
 41
0.0
 71
     1
 72
     1
  1
6.
  7
SLDTEXTSTYLE0
 73
     1
 44
1.0
  0
MTEXT
  5
B0
330
9A
100
AcDbEntity
  8
0
  6
Continuous
 62
     0
370
     0
100
AcDbMText
 10
9.9999997765
 20
-32.8115647976
 30
0.0
 40
2.6458333333
 41
0.0
 71
     1
 72
     1
  1
COATING(S1): UV ENHANCED ALUMINUM
  7
SLDTEXTSTYLE0
 73
     1
 44
1.0
  0
MTEXT
  5
B1
330
9A
100
AcDbEntity
  8
0
  6
Continuous
 62
     0
370
     0
100
AcDbMText
 10
0.0
 20
-32.8115647976
 30
0.0
 40
2.6458333333
 41
0.0
 71
     1
 72
     1
  1
7.
  7
SLDTEXTSTYLE0
 73
     1
 44
1.0
  0
MTEXT
  5
B2
330
9A
100
AcDbEntity
  8
0
  6
Continuous
 62
     0
370
     0
100
AcDbMText
 10
34.8828125
 20
-37.3393426967
 30
0.0
 40
2.6458333333
 41
0.0
 71
     1
 72
     1
  1
Ravg: >90% FROM 250-450nm
  7
SLDTEXTSTYLE0
 73
     1
 44
1.0
  0
MTEXT
  5
B3
330
9A
100
AcDbEntity
  8
0
  6
Continuous
 62
     0
370
     0
100
AcDbMText
 10
34.8828125
 20
-41.8671205958
 30
0.0
 40
2.6458333333
 41
0.0
 71
     1
 72
     1
  1
AOI: 0
  7
SLDTEXTSTYLE0
 73
     1
 44
1.0
  0
MTEXT
  5
B4
330
9A
100
AcDbEntity
  8
0
  6
Continuous
 62
     0
370
     0
100
AcDbMText
 10
45.0080246478
 20
-41.8671205958
 30
0.0
 40
2.6458333333
 41
0.0
 71
     1
 72
     1
  1
%%d
  7
SLDTEXTSTYLE0
 73
     1
 44
1.0
  0
MTEXT
  5
B6
330
9A
100
AcDbEntity
  8
0
  6
Continuous
 62
     0
370
     0
100
AcDbMText
 10
47.6817858368
 20
-41.8671205958
 30
0.0
 40
2.6458333333
 41
0.0
 71
     1
 72
     1
  1
TO 45
  7
SLDTEXTSTYLE2
 73
     1
 44
1.0
  0
MTEXT
  5
B7
330
9A
100
AcDbEntity
  8
0
  6
Continuous
 62
     0
370
     0
100
AcDbMText
 10
57.1210426092
 20
-41.8671205958
 30
0.0
 40
2.6458333333
 41
0.0
 71
     1
 72
     1
  1
%%d
  7
SLDTEXTSTYLE0
 73
     1
 44
1.0
  0
ENDBLK
  5
9C
330
9A
100
AcDbEntity
  8
0
100
AcDbBlockEnd
  0
BLOCK
  5
CB
330
CA
100
AcDbEntity
  8
0
100
AcDbBlockBegin
  2
SW_NOTE_1
 70
     0
 10
0.0
 20
0.0
 30
0.0
  3
SW_NOTE_1
  1

  0
MTEXT
  5
CD
330
CA
100
AcDbEntity
  8
0
  6
Continuous
 62
     0
370
     0
100
AcDbMText
 10
19.90725
 20
1.9645392354
 30
0.0
 40
1.524
 41
0.0
 71
     2
 72
     1
  1
VALUES IN PARENTHESIS ARE CALCULATED
  7
SLDTEXTSTYLE0
 73
     1
 44
1.0
  0
MTEXT
  5
CE
330
CA
100
AcDbEntity
  8
0
  6
Continuous
 62
     0
370
     0
100
AcDbMText
 10
19.8778795174
 20
-0.5594606586
 30
0.0
 40
1.524
 41
0.0
 71
     2
 72
     1
  1
AND MAY CONTAIN ROUNDOFF ERRORS
  7
SLDTEXTSTYLE0
 73
     1
 44
1.0
  0
ENDBLK
  5
CC
330
CA
100
AcDbEntity
  8
0
100
AcDbBlockEnd
  0
BLOCK
  5
D1
330
D0
100
AcDbEntity
  8
0
100
AcDbBlockBegin
  2
SW_NOTE_2
 70
     0
 10
0.0
 20
0.0
 30
0.0
  3
SW_NOTE_2
  1

  0
MTEXT
  5
D3
330
D0
100
AcDbEntity
  8
0
  6
Continuous
 62
     0
370
     0
100
AcDbMText
 10
0.0
 20
2.7285267159
 30
0.0
 40
2.1166666667
 41
0.0
 71
     1
 72
     1
  1
DRAWING
  7
SLDTEXTSTYLE0
 73
     1
 44
1.0
  0
MTEXT
  5
D4
330
D0
100
AcDbEntity
  8
0
  6
Continuous
 62
     0
370
     0
100
AcDbMText
 10
0.0
 20
-0.0936954723
 30
0.0
 40
2.1166666667
 41
0.0
 71
     1
 72
     1
  1
PROJECTION
  7
SLDTEXTSTYLE0
 73
     1
 44
1.0
  0
ENDBLK
  5
D2
330
D0
100
AcDbEntity
  8
0
100
AcDbBlockEnd
  0
BLOCK
  5
D8
330
D7
100
AcDbEntity
  8
0
100
AcDbBlockBegin
  2
SW_NOTE_3
 70
     0
 10
0.0
 20
0.0
 30
0.0
  3
SW_NOTE_3
  1

  0
MTEXT
  5
DA
330
D7
100
AcDbEntity
  8
0
  6
Continuous
 62
     0
370
     0
100
AcDbMText
 10
25.052734375
 20
4.0927900738
 30
0.0
 40
3.175
 41
0.0
 71
     2
 72
     1
  1
FOR INFORMATION ONLY
  7
SLDTEXTSTYLE0
 73
     1
 44
1.0
  0
MTEXT
  5
DB
330
D7
100
AcDbEntity
  8
0
  6
Continuous
 62
     0
370
     0
100
AcDbMText
 10
25.3768468589
 20
-0.1405432084
 30
0.0
 40
3.175
 41
0.0
 71
     2
 72
     1
  1
NOT FOR MANUFACTURING PURPOSES
  7
SLDTEXTSTYLE0
 73
     1
 44
1.0
  0
ENDBLK
  5
D9
330
D7
100
AcDbEntity
  8
0
100
AcDbBlockEnd
  0
BLOCK
  5
DE
330
DD
100
AcDbEntity
  8
0
100
AcDbBlockBegin
  2
SW_NOTE_4
 70
     0
 10
0.0
 20
0.0
 30
0.0
  3
SW_NOTE_4
  1

  0
MTEXT
  5
E0
330
DD
100
AcDbEntity
  8
0
  6
Continuous
 62
     0
370
     0
100
AcDbMText
 10
1.9016927083
 20
3.4106583948
 30
0.0
 40
2.6458333333
 41
0.0
 71
     2
 72
     1
  1
%%c
  7
SLDTEXTSTYLE0
 73
     1
 44
1.0
  0
MTEXT
  5
E1
330
DD
100
AcDbEntity
  8
0
  6
Continuous
 62
     0
370
     0
100
AcDbMText
 10
28.5917202135
 20
3.4106583948
 30
0.0
 40
2.6458333333
 41
0.0
 71
     2
 72
     1
  1
50.8mm, f=750mm CONCAVE
  7
SLDTEXTSTYLE0
 73
     1
 44
1.0
  0
MTEXT
  5
E2
330
DD
100
AcDbEntity
  8
0
  6
Continuous
 62
     0
370
     0
100
AcDbMText
 10
26.5884203861
 20
-0.1171193403
 30
0.0
 40
2.6458333333
 41
0.0
 71
     2
 72
     1
  1
UV ENHANCED ALUMINUM MIRROR
  7
SLDTEXTSTYLE0
 73
     1
 44
1.0
  0
ENDBLK
  5
DF
330
DD
100
AcDbEntity
  8
0
100
AcDbBlockEnd
  0
BLOCK
  5
F5
330
F4
100
AcDbEntity
  8
0
100
AcDbBlockBegin
  2
_D
 70
     0
 10
0.0
 20
0.0
 30
0.0
  3
_D
  1

  0
SOLID
  5
F7
330
F4
100
AcDbEntity
  8
0
  6
Continuous
 62
     7
370
    18
100
AcDbTrace
 10
67.9483625255
 20
143.3529919581
 30
0.0
 11
69.9758034306
 21
145.8486226151
 31
0.0
 12
69.0959216203
 22
146.3566226151
 32
0.0
 13
69.0959216203
 23
146.3566226151
 33
0.0
  0
LINE
  5
F8
330
F4
100
AcDbEntity
  8
0
  6
Continuous
 62
     7
370
    18
100
AcDbLine
 10
82.5842451376
 20
158.3026058282
 30
0.0
 11
81.9404256835
 21
158.3026058282
 31
0.0
  0
LINE
  5
F9
330
F4
100
AcDbEntity
  8
0
  6
Continuous
 62
     7
370
    18
100
AcDbLine
 10
81.9404256835
 20
158.3026058282
 30
0.0
 11
81.9404256835
 21
154.9394577517
 31
0.0
  0
LINE
  5
FA
330
F4
100
AcDbEntity
  8
0
  6
Continuous
 62
     7
370
    18
100
AcDbLine
 10
81.9404256835
 20
154.9394577517
 30
0.0
 11
82.5842451376
 21
154.9394577517
 31
0.0
  0
LINE
  5
FB
330
F4
100
AcDbEntity
  8
0
  6
Continuous
 62
     7
370
    18
100
AcDbLine
 10
90.3414366838
 20
158.3026058282
 30
0.0
 11
90.985256138
 21
158.3026058282
 31
0.0
  0
LINE
  5
FC
330
F4
100
AcDbEntity
  8
0
  6
Continuous
 62
     7
370
    18
100
AcDbLine
 10
90.985256138
 20
158.3026058282
 30
0.0
 11
90.985256138
 21
154.9394577517
 31
0.0
  0
LINE
  5
FD
330
F4
100
AcDbEntity
  8
0
  6
Continuous
 62
     7
370
    18
100
AcDbLine
 10
90.985256138
 20
154.9394577517
 30
0.0
 11
90.3414366838
 21
154.9394577517
 31
0.0
  0
LINE
  5
FE
330
F4
100
AcDbEntity
  8
0
  6
Continuous
 62
     7
370
    18
100
AcDbLine
 10
67.9483625255
 20
143.3529919581
 30
0.0
 11
77.4866062293
 21
159.8737146682
 31
0.0
  0
LINE
  5
FF
330
F4
100
AcDbEntity
  8
0
  6
Continuous
 62
     7
370
    18
100
AcDbLine
 10
77.4866062293
 20
159.8737146682
 30
0.0
 11
81.2966062293
 21
159.8737146682
 31
0.0
  0
MTEXT
  5
100
330
F4
100
AcDbEntity
  8
0
  6
Continuous
 62
     7
370
    18
100
AcDbMText
 10
81.2966062293
 20
161.4603454746
 30
0.0
 40
2.1166666667
 41
0.0
 71
     1
 72
     1
  1
%%c
  7
SLDTEXTSTYLE0
 73
     1
 44
1.0
  0
MTEXT
  5
101
330
F4
100
AcDbEntity
  8
0
  6
Continuous
 62
     7
370
    18
100
AcDbMText
 10
84.49159703
 20
161.4603454746
 30
0.0
 40
2.1166666667
 41
0.0
 71
     1
 72
     1
  1
50.8mm
  7
SLDTEXTSTYLE0
 73
     1
 44
1.0
  0
MTEXT
  5
102
330
F4
100
AcDbEntity
  8
0
  6
Continuous
 62
     7
370
    18
100
AcDbMText
 10
82.5842451376
 20
157.6679843511
 30
0.0
 40
2.1166666667
 41
0.0
 71
     1
 72
     1
  1
2.00in
  7
SLDTEXTSTYLE0
 73
     1
 44
1.0
  0
ENDBLK
  5
F6
330
F4
100
AcDbEntity
  8
0
100
AcDbBlockEnd
  0
BLOCK
  5
11A
330
119
100
AcDbEntity
  8
0
100
AcDbBlockBegin
  2
_D_1
 70
     0
 10
0.0
 20
0.0
 30
0.0
  3
_D_1
  1

  0
SOLID
  5
11C
330
119
100
AcDbEntity
  8
0
  6
Continuous
 62
     7
370
    18
100
AcDbTrace
 10
135.174017373
 20
159.7454513175
 30
0.0
 11
131.9992005598
 21
160.2545949145
 31
0.0
 12
131.9988345982
 22
159.2385949804
 32
0.0
 13
131.9988345982
 23
159.2385949804
 33
0.0
  0
SOLID
  5
11D
330
119
100
AcDbEntity
  8
0
  6
Continuous
 62
     7
370
    18
100
AcDbTrace
 10
144.3857680565
 20
159.7421332593
 30
0.0
 11
147.5605848697
 21
159.2329896623
 31
0.0
 12
147.5609508313
 22
160.2489895964
 32
0.0
 13
147.5609508313
 23
160.2489895964
 33
0.0
  0
LINE
  5
11E
330
119
100
AcDbEntity
  8
0
  6
Continuous
 62
     7
370
    18
100
AcDbLine
 10
154.2054475243
 20
159.7363715623
 30
0.0
 11
153.5616280701
 21
159.7363715623
 31
0.0
  0
LINE
  5
11F
330
119
100
AcDbEntity
  8
0
  6
Continuous
 62
     7
370
    18
100
AcDbLine
 10
153.5616280701
 20
159.7363715623
 30
0.0
 11
153.5616280701
 21
156.3732234858
 31
0.0
  0
LINE
  5
120
330
119
100
AcDbEntity
  8
0
  6
Continuous
 62
     7
370
    18
100
AcDbLine
 10
153.5616280701
 20
156.3732234858
 30
0.0
 11
154.2054475243
 21
156.3732234858
 31
0.0
  0
LINE
  5
121
330
119
100
AcDbEntity
  8
0
  6
Continuous
 62
     7
370
    18
100
AcDbLine
 10
161.9626390705
 20
159.7363715623
 30
0.0
 11
162.6064585246
 21
159.7363715623
 31
0.0
  0
LINE
  5
122
330
119
100
AcDbEntity
  8
0
  6
Continuous
 62
     7
370
    18
100
AcDbLine
 10
162.6064585246
 20
159.7363715623
 30
0.0
 11
162.6064585246
 21
156.3732234858
 31
0.0
  0
LINE
  5
123
330
119
100
AcDbEntity
  8
0
  6
Continuous
 62
     7
370
    18
100
AcDbLine
 10
162.6064585246
 20
156.3732234858
 30
0.0
 11
161.9626390705
 21
156.3732234858
 31
0.0
  0
LINE
  5
124
330
119
100
AcDbEntity
  8
0
  6
Continuous
 62
     7
370
    18
100
AcDbLine
 10
135.1697251812
 20
147.8292646778
 30
0.0
 11
135.1746578058
 21
161.5234512022
 31
0.0
  0
LINE
  5
125
330
119
100
AcDbEntity
  8
0
  6
Continuous
 62
     7
370
    18
100
AcDbLine
 10
144.3814758647
 20
147.8259466196
 30
0.0
 11
144.3864084893
 21
161.520133144
 31
0.0
  0
LINE
  5
126
330
119
100
AcDbEntity
  8
0
  6
Continuous
 62
     7
370
    18
100
AcDbLine
 10
135.174017373
 20
159.7454513175
 30
0.0
 11
128.824017785
 21
159.7477385774
 31
0.0
  0
LINE
  5
127
330
119
100
AcDbEntity
  8
0
  6
Continuous
 62
     7
370
    18
100
AcDbLine
 10
144.3857680565
 20
159.7421332593
 30
0.0
 11
152.4882951333
 21
159.7392147417
 31
0.0
  0
MTEXT
  5
128
330
119
100
AcDbEntity
  8
0
  6
Continuous
 62
     7
370
    18
100
AcDbMText
 10
153.4842129288
 20
162.8941112087
 30
0.0
 40
2.1166666667
 41
0.0
 71
     1
 72
     1
  1
9.2mm
  7
SLDTEXTSTYLE0
 73
     1
 44
1.0
  0
MTEXT
  5
129
330
119
100
AcDbEntity
  8
0
  6
Continuous
 62
     7
370
    18
100
AcDbMText
 10
154.2054475243
 20
159.1017500853
 30
0.0
 40
2.1166666667
 41
0.0
 71
     1
 72
     1
  1
0.36in
  7
SLDTEXTSTYLE0
 73
     1
 44
1.0
  0
MTEXT
  5
12A
330
119
100
AcDbEntity
  8
0
  6
Continuous
 62
     7
370
    18
100
AcDbMText
 10
163.2502775131
 20
162.8941112087
 30
0.0
 40
2.1166666667
 41
0.0
 71
     1
 72
     1
  1
REF
  7
SLDTEXTSTYLE0
 73
     1
 44
1.0
  0
ENDBLK
  5
11B
330
119
100
AcDbEntity
  8
0
100
AcDbBlockEnd
  0
BLOCK
  5
12E
330
12D
100
AcDbEntity
  8
0
100
AcDbBlockBegin
  2
_D_2
 70
     0
 10
0.0
 20
0.0
 30
0.0
  3
_D_2
  1

  0
ARC
  5
130
330
12D
100
AcDbEntity
  8
0
  6
Continuous
 62
     7
370
    18
100
AcDbCircle
 10
-1364.619050411
 20
121.355946702
 30
0.0
 40
1500.000068823651
100
AcDbArc
 50
358.5711738982
 51
358.9887484921
  0
SOLID
  5
131
330
12D
100
AcDbEntity
  8
0
  6
Continuous
 62
     7
370
    18
100
AcDbTrace
 10
134.9579063633
 20
85.7307143171
 30
0.0
 11
138.1199456981
 21
85.1474508726
 31
0.0
 12
138.1440758544
 22
86.1631642848
 32
0.0
 13
138.1440758544
 23
86.1631642848
 33
0.0
  0
LINE
  5
132
330
12D
100
AcDbEntity
  8
0
  6
Continuous
 62
     7
370
    18
100
AcDbLine
 10
153.8663888307
 20
83.8315032687
 30
0.0
 11
153.2225693766
 21
83.8315032687
 31
0.0
  0
LINE
  5
133
330
12D
100
AcDbEntity
  8
0
  6
Continuous
 62
     7
370
    18
100
AcDbLine
 10
153.2225693766
 20
83.8315032687
 30
0.0
 11
153.2225693766
 21
80.4683551922
 31
0.0
  0
LINE
  5
134
330
12D
100
AcDbEntity
  8
0
  6
Continuous
 62
     7
370
    18
100
AcDbLine
 10
153.2225693766
 20
80.4683551922
 30
0.0
 11
153.8663888307
 21
80.4683551922
 31
0.0
  0
LINE
  5
135
330
12D
100
AcDbEntity
  8
0
  6
Continuous
 62
     7
370
    18
100
AcDbLine
 10
163.1875624838
 20
83.8315032687
 30
0.0
 11
163.8313819379
 21
83.8315032687
 31
0.0
  0
LINE
  5
136
330
12D
100
AcDbEntity
  8
0
  6
Continuous
 62
     7
370
    18
100
AcDbLine
 10
163.8313819379
 20
83.8315032687
 30
0.0
 11
163.8313819379
 21
80.4683551922
 31
0.0
  0
LINE
  5
137
330
12D
100
AcDbEntity
  8
0
  6
Continuous
 62
     7
370
    18
100
AcDbLine
 10
163.8313819379
 20
80.4683551922
 30
0.0
 11
163.1875624838
 21
80.4683551922
 31
0.0
  0
LINE
  5
138
330
12D
100
AcDbEntity
  8
0
  6
Continuous
 62
     7
370
    18
100
AcDbLine
 10
134.9579063633
 20
85.7307143171
 30
0.0
 11
148.7687499225
 21
85.4026121087
 31
0.0
  0
LINE
  5
139
330
12D
100
AcDbEntity
  8
0
  6
Continuous
 62
     7
370
    18
100
AcDbLine
 10
148.7687499225
 20
85.4026121087
 30
0.0
 11
152.5787499225
 21
85.4026121087
 31
0.0
  0
MTEXT
  5
13A
330
12D
100
AcDbEntity
  8
0
  6
Continuous
 62
     7
370
    18
100
AcDbMText
 10
152.5787499225
 20
86.9892429151
 30
0.0
 40
2.1166666667
 41
0.0
 71
     1
 72
     1
  1
R1500.0mm
  7
SLDTEXTSTYLE0
 73
     1
 44
1.0
  0
MTEXT
  5
13B
330
12D
100
AcDbEntity
  8
0
  6
Continuous
 62
     7
370
    18
100
AcDbMText
 10
153.8663888307
 20
83.1968817916
 30
0.0
 40
2.1166666667
 41
0.0
 71
     1
 72
     1
  1
59.06in
  7
SLDTEXTSTYLE0
 73
     1
 44
1.0
  0
ENDBLK
  5
12F
330
12D
100
AcDbEntity
  8
0
100
AcDbBlockEnd
  0
BLOCK
  5
13F
330
13E
100
AcDbEntity
  8
0
100
AcDbBlockBegin
  2
_D_3
 70
     0
 10
0.0
 20
0.0
 30
0.0
  3
_D_3
  1

  0
SOLID
  5
141
330
13E
100
AcDbEntity
  8
0
  6
Continuous
 62
     7
370
    18
100
AcDbTrace
 10
144.3810184127
 20
151.4135063017
 30
0.0
 11
147.5560184127
 21
150.9055063017
 31
0.0
 12
147.5560184127
 22
151.9215063017
 32
0.0
 13
147.5560184127
 23
151.9215063017
 33
0.0
  0
SOLID
  5
142
330
13E
100
AcDbEntity
  8
0
  6
Continuous
 62
     7
370
    18
100
AcDbTrace
 10
135.3810184127
 20
151.4135063017
 30
0.0
 11
132.2060184127
 21
151.9215063017
 31
0.0
 12
132.2060184127
 22
150.9055063017
 32
0.0
 13
132.2060184127
 23
150.9055063017
 33
0.0
  0
LINE
  5
143
330
13E
100
AcDbEntity
  8
0
  6
Continuous
 62
     7
370
    18
100
AcDbLine
 10
156.5024224067
 20
151.4135060689
 30
0.0
 11
155.8586029526
 21
151.4135060689
 31
0.0
  0
LINE
  5
144
330
13E
100
AcDbEntity
  8
0
  6
Continuous
 62
     7
370
    18
100
AcDbLine
 10
155.8586029526
 20
151.4135060689
 30
0.0
 11
155.8586029526
 21
148.0503579924
 31
0.0
  0
LINE
  5
145
330
13E
100
AcDbEntity
  8
0
  6
Continuous
 62
     7
370
    18
100
AcDbLine
 10
155.8586029526
 20
148.0503579924
 30
0.0
 11
156.5024224067
 21
148.0503579924
 31
0.0
  0
LINE
  5
146
330
13E
100
AcDbEntity
  8
0
  6
Continuous
 62
     7
370
    18
100
AcDbLine
 10
164.259613953
 20
151.4135060689
 30
0.0
 11
164.9034334071
 21
151.4135060689
 31
0.0
  0
LINE
  5
147
330
13E
100
AcDbEntity
  8
0
  6
Continuous
 62
     7
370
    18
100
AcDbLine
 10
164.9034334071
 20
151.4135060689
 30
0.0
 11
164.9034334071
 21
148.0503579924
 31
0.0
  0
LINE
  5
148
330
13E
100
AcDbEntity
  8
0
  6
Continuous
 62
     7
370
    18
100
AcDbLine
 10
164.9034334071
 20
148.0503579924
 30
0.0
 11
164.259613953
 21
148.0503579924
 31
0.0
  0
LINE
  5
149
330
13E
100
AcDbEntity
  8
0
  6
Continuous
 62
     7
370
    18
100
AcDbLine
 10
144.3810184127
 20
147.825946702
 30
0.0
 11
144.3810184127
 21
153.1915063017
 31
0.0
  0
LINE
  5
14A
330
13E
100
AcDbEntity
  8
0
  6
Continuous
 62
     7
370
    18
100
AcDbLine
 10
135.3810184127
 20
122.625946702
 30
0.0
 11
135.3810184127
 21
153.1915063017
 31
0.0
  0
LINE
  5
14B
330
13E
100
AcDbEntity
  8
0
  6
Continuous
 62
     7
370
    18
100
AcDbLine
 10
144.3810184127
 20
151.4135063017
 30
0.0
 11
153.2252083114
 21
151.4135063017
 31
0.0
  0
LINE
  5
14C
330
13E
100
AcDbEntity
  8
0
  6
Continuous
 62
     7
370
    18
100
AcDbLine
 10
135.3810184127
 20
151.4135063017
 30
0.0
 11
129.0310184127
 21
151.4135063017
 31
0.0
  0
MTEXT
  5
14D
330
13E
100
AcDbEntity
  8
0
  6
Continuous
 62
     7
370
    18
100
AcDbMText
 10
155.2422217941
 20
154.5712457153
 30
0.0
 40
2.1166666667
 41
0.0
 71
     1
 72
     1
  1

  7
SLDTEXTSTYLE0
 73
     1
 44
1.0
  0
MTEXT
  5
14E
330
13E
100
AcDbEntity
  8
0
  6
Continuous
 62
     7
370
    18
100
AcDbMText
 10
155.7811878113
 20
154.5712457153
 30
0.0
 40
2.1166666667
 41
0.0
 71
     1
 72
     1
  1
9.0mm
  7
SLDTEXTSTYLE0
 73
     1
 44
1.0
  0
MTEXT
  5
14F
330
13E
100
AcDbEntity
  8
0
  6
Continuous
 62
     7
370
    18
100
AcDbMText
 10
156.5024224067
 20
150.7788845918
 30
0.0
 40
2.1166666667
 41
0.0
 71
     1
 72
     1
  1
0.35in
  7
SLDTEXTSTYLE0
 73
     1
 44
1.0
  0
MTEXT
  5
150
330
13E
100
AcDbEntity
  8
0
  6
Continuous
 62
     7
370
    18
100
AcDbMText
 10
167.1347528612
 20
154.5712457153
 30
0.0
 40
2.1166666667
 41
0.0
 71
     1
 72
     1
  1

  7
SLDTEXTSTYLE0
 73
     1
 44
1.0
  0
ENDBLK
  5
140
330
13E
100
AcDbEntity
  8
0
100
AcDbBlockEnd
  0
ENDSEC
  0
SECTION
  2
ENTITIES
  0
LINE
  5
81
330
1F
100
AcDbEntity
  8
0
  6
Continuous
 62
     7
370
    18
100
AcDbLine
 10
1.5793501011
 20
214.6453799966
 30
0.0
 11
277.9892068491
 21
214.6453799966
 31
0.0
  0
LINE
  5
82
330
1F
100
AcDbEntity
  8
0
  6
Continuous
 62
     7
370
    18
100
AcDbLine
 10
1.5793501011
 20
214.6453799966
 30
0.0
 11
1.5793501011
 21
0.9031642596
 31
0.0
  0
LINE
  5
83
330
1F
100
AcDbEntity
  8
0
  6
Continuous
 62
     7
370
    18
100
AcDbLine
 10
277.9892068491
 20
0.9031642596
 30
0.0
 11
1.5793501011
 21
0.9031642596
 31
0.0
  0
LINE
  5
84
330
1F
100
AcDbEntity
  8
0
  6
Continuous
 62
     7
370
    18
100
AcDbLine
 10
277.9892068491
 20
0.9031642596
 30
0.0
 11
277.9892068491
 21
214.6453799966
 31
0.0
  0
LINE
  5
85
330
1F
100
AcDbEntity
  8
0
  6
Continuous
 62
     7
370
    18
100
AcDbLine
 10
215.7427640041
 20
12.2958890132
 30
0.0
 11
171.6327596684
 21
12.2958890132
 31
0.0
  0
LINE
  5
86
330
1F
100
AcDbEntity
  8
0
  6
Continuous
 62
     7
370
    18
100
AcDbLine
 10
171.6327596684
 20
12.2958890132
 30
0.0
 11
171.6327596684
 21
26.1661402506
 31
0.0
  0
LINE
  5
87
330
1F
100
AcDbEntity
  8
0
  6
Continuous
 62
     7
370
    18
100
AcDbLine
 10
171.6327596684
 20
0.9031642596
 30
0.0
 11
171.6327596684
 21
26.1661402506
 31
0.0
  0
LINE
  5
88
330
1F
100
AcDbEntity
  8
0
  6
Continuous
 62
     7
370
    18
100
AcDbLine
 10
215.7427640041
 20
17.1604579552
 30
0.0
 11
277.9892068491
 21
17.1604579552
 31
0.0
  0
LINE
  5
89
330
1F
100
AcDbEntity
  8
0
  6
Continuous
 62
     7
370
    18
100
AcDbLine
 10
215.7427640041
 20
35.2394508358
 30
0.0
 11
215.7427640041
 21
0.9031642596
 31
0.0
  0
LINE
  5
8A
330
1F
100
AcDbEntity
  8
0
  6
Continuous
 62
     7
370
    18
100
AcDbLine
 10
215.7427640041
 20
26.1661402506
 30
0.0
 11
171.6327596684
 21
26.1661402506
 31
0.0
  0
LINE
  5
8B
330
1F
100
AcDbEntity
  8
0
  6
Continuous
 62
     7
370
    18
100
AcDbLine
 10
215.7427640041
 20
9.1409200612
 30
0.0
 11
277.9892068491
 21
9.1409200612
 31
0.0
  0
LINE
  5
8C
330
1F
100
AcDbEntity
  8
0
  6
Continuous
 62
     7
370
    18
100
AcDbLine
 10
215.7427640041
 20
16.9216824031
 30
0.0
 11
171.6327596684
 21
16.9216824031
 31
0.0
  0
LINE
  5
8D
330
1F
100
AcDbEntity
  8
0
  6
Continuous
 62
     7
370
    18
100
AcDbLine
 10
215.7427640041
 20
21.4874005542
 30
0.0
 11
171.6327596684
 21
21.4874005542
 31
0.0
  0
LINE
  5
8E
330
1F
100
AcDbEntity
  8
0
  6
Continuous
 62
     7
370
    18
100
AcDbLine
 10
186.1338100705
 20
26.1661402506
 30
0.0
 11
186.1338100705
 21
12.2958890132
 31
0.0
  0
LINE
  5
8F
330
1F
100
AcDbEntity
  8
0
  6
Continuous
 62
     7
370
    18
100
AcDbLine
 10
198.2145906188
 20
26.1661402506
 30
0.0
 11
198.2145906188
 21
12.2958890132
 31
0.0
  0
LINE
  5
90
330
1F
100
AcDbEntity
  8
0
  6
Continuous
 62
     7
370
    18
100
AcDbLine
 10
253.7490408369
 20
9.1409200612
 30
0.0
 11
253.7490408369
 21
0.9031642596
 31
0.0
  0
LINE
  5
91
330
1F
100
AcDbEntity
  8
0
  6
Continuous
 62
     7
370
    18
100
AcDbLine
 10
171.6327596684
 20
12.2958890132
 30
0.0
 11
171.6327596684
 21
7.5627342528
 31
0.0
  0
LINE
  5
92
330
1F
100
AcDbEntity
  8
0
  6
Continuous
 62
     7
370
    18
100
AcDbLine
 10
171.6327596684
 20
7.5627342528
 30
0.0
 11
215.7427640041
 21
7.5627342528
 31
0.0
  0
LINE
  5
93
330
1F
100
AcDbEntity
  8
0
  6
Continuous
 62
     7
370
    18
100
AcDbLine
 10
171.6327596684
 20
7.5627342528
 30
0.0
 11
171.6327596684
 21
35.2394508358
 31
0.0
  0
LINE
  5
94
330
1F
100
AcDbEntity
  8
0
  6
Continuous
 62
     7
370
    18
100
AcDbLine
 10
171.6327596684
 20
35.2394508358
 30
0.0
 11
215.7427640041
 21
35.2394508358
 31
0.0
  0
LINE
  5
95
330
1F
100
AcDbEntity
  8
0
  6
Continuous
 62
     7
370
    18
100
AcDbLine
 10
270.1683598194
 20
17.1604579552
 30
0.0
 11
270.1683598194
 21
9.1409200612
 31
0.0
  0
LINE
  5
96
330
1F
100
AcDbEntity
  8
0
  6
Continuous
 62
     7
370
    18
100
AcDbLine
 10
215.7427640041
 20
35.2394508358
 30
0.0
 11
277.9892068491
 21
35.2394508358
 31
0.0
  0
LINE
  5
97
330
1F
100
AcDbEntity
  8
0
  6
Continuous
 62
     7
370
    18
100
AcDbLine
 10
277.9892068491
 20
35.2394508358
 30
0.0
 11
277.9892068491
 21
50.0331356147
 31
0.0
  0
LINE
  5
98
330
1F
100
AcDbEntity
  8
0
  6
Continuous
 62
     7
370
    18
100
AcDbLine
 10
215.7427640041
 20
24.8927335446
 30
0.0
 11
277.9892068491
 21
24.8927335446
 31
0.0
  0
INSERT
  5
99
330
1F
100
AcDbEntity
  8
0
  6
Continuous
 62
     7
100
AcDbBlockReference
  2
Third Angle Projection Block
 10
117.7262204235
 20
15.5162339489
 30
0.0
 41
0.8
 42
0.8
 43
0.8
  0
INSERT
  5
B8
330
1F
100
AcDbEntity
  8
0
  6
Continuous
 62
     7
370
     0
100
AcDbBlockReference
  2
SW_NOTE_0
 10
22.4115998439
 20
69.7000274359
 30
0.0
  0
MTEXT
  5
B9
330
1F
100
AcDbEntity
  8
0
  6
Continuous
 62
     7
370
     0
100
AcDbMText
 10
274.1458225539
 20
13.2559386876
 30
0.0
 40
3.175
 41
0.0
 71
     2
 72
     1
  1
A
  7
SLDTEXTSTYLE0
 73
     1
 44
1.0
  0
MTEXT
  5
BA
330
1F
100
AcDbEntity
  8
0
  6
Continuous
 62
     7
370
     0
100
AcDbMText
 10
234.5671699858
 20
5.1306563898
 30
0.0
 40
3.175
 41
0.0
 71
     2
 72
     1
  1
CM508-750-F01
  7
SLDTEXTSTYLE0
 73
     1
 44
1.0
  0
MTEXT
  5
BB
330
1F
100
AcDbEntity
  8
0
  6
Continuous
 62
     7
370
     0
100
AcDbMText
 10
216.4199766059
 20
16.8243178599
 30
0.0
 40
2.1166666667
 41
0.0
 71
     1
 72
     1
  1
MATERIAL
  7
SLDTEXTSTYLE0
 73
     1
 44
1.0
  0
MTEXT
  5
BC
330
1F
100
AcDbEntity
  8
0
  6
Continuous
 62
     7
370
     0
100
AcDbMText
 10
174.230946566
 20
20.054553926
 30
0.0
 40
1.8520833333
 41
0.0
 71
     1
 72
     1
  1
DRAWN
  7
SLDTEXTSTYLE0
 73
     1
 44
1.0
  0
MTEXT
  5
BD
330
1F
100
AcDbEntity
  8
0
  6
Continuous
 62
     7
370
     0
100
AcDbMText
 10
172.3960124543
 20
15.5787169747
 30
0.0
 40
1.8520833333
 41
0.0
 71
     1
 72
     1
  1
APPROVAL
  7
SLDTEXTSTYLE0
 73
     1
 44
1.0
  0
MTEXT
  5
BE
330
1F
100
AcDbEntity
  8
0
  6
Continuous
 62
     7
370
     0
100
AcDbMText
 10
271.7160653675
 20
16.1671746307
 30
0.0
 40
2.1166666667
 41
0.0
 71
     1
 72
     1
  1
REV
  7
SLDTEXTSTYLE0
 73
     1
 44
1.0
  0
MTEXT
  5
BF
330
1F
100
AcDbEntity
  8
0
  6
Continuous
 62
     7
370
     0
100
AcDbMText
 10
190.2958696448
 20
20.3177146903
 30
0.0
 40
2.1166666667
 41
0.0
 71
     1
 72
     1
  1
YB
  7
SLDTEXTSTYLE0
 73
     1
 44
1.0
  0
MTEXT
  5
C0
330
1F
100
AcDbEntity
  8
0
  6
Continuous
 62
     7
370
     0
100
AcDbMText
 10
190.2958696448
 20
15.841877739
 30
0.0
 40
2.1166666667
 41
0.0
 71
     1
 72
     1
  1
DD
  7
SLDTEXTSTYLE0
 73
     1
 44
1.0
  0
MTEXT
  5
C1
330
1F
100
AcDbEntity
  8
0
  6
Continuous
 62
     7
370
     0
100
AcDbMText
 10
199.8662436873
 20
20.3177146903
 30
0.0
 40
2.1166666667
 41
0.0
 71
     1
 72
     1
  1
16/APR/18
  7
SLDTEXTSTYLE0
 73
     1
 44
1.0
  0
MTEXT
  5
C2
330
1F
100
AcDbEntity
  8
0
  6
Continuous
 62
     7
370
     0
100
AcDbMText
 10
203.6145073853
 20
24.8221395769
 30
0.0
 40
2.1166666667
 41
0.0
 71
     1
 72
     1
  1
DATE
  7
SLDTEXTSTYLE0
 73
     1
 44
1.0
  0
MTEXT
  5
C3
330
1F
100
AcDbEntity
  8
0
  6
Continuous
 62
     7
370
     0
100
AcDbMText
 10
199.8662436873
 20
15.841877739
 30
0.0
 40
2.1166666667
 41
0.0
 71
     1
 72
     1
  1
16/APR/18
  7
SLDTEXTSTYLE0
 73
     1
 44
1.0
  0
MTEXT
  5
C5
330
1F
100
AcDbEntity
  8
0
  6
Continuous
 62
     7
370
     0
100
AcDbMText
 10
229.402906477
 20
27.7957480569
 30
0.0
 40
2.1166666667
 41
0.0
 71
     1
 72
     1
  1
w w w . t h o r  l a b s . c o m
  7
SLDTEXTSTYLE3
 73
     1
 44
1.0
  0
MTEXT
  5
C6
330
1F
100
AcDbEntity
  8
0
  6
Continuous
 62
     7
370
     0
100
AcDbMText
 10
216.7004035316
 20
8.3494791871
 30
0.0
 40
2.1166666667
 41
0.0
 71
     1
 72
     1
  1
ITEM #
  7
SLDTEXTSTYLE0
 73
     1
 44
1.0
  0
MTEXT
  5
C7
330
1F
100
AcDbEntity
  8
0
  6
Continuous
 62
     7
370
     0
100
AcDbMText
 10
254.5318000914
 20
8.3494791871
 30
0.0
 40
2.1166666667
 41
0.0
 71
     1
 72
     1
  1
APPROX WEIGHT
  7
SLDTEXTSTYLE0
 73
     1
 44
1.0
  0
MTEXT
  5
C8
330
1F
100
AcDbEntity
  8
0
  6
Continuous
 62
     7
370
     0
100
AcDbMText
 10
243.5159064132
 20
13.8247651814
 30
0.0
 40
3.175
 41
0.0
 71
     2
 72
     1
  1
N-BK7
  7
SLDTEXTSTYLE0
 73
     1
 44
1.0
  0
MTEXT
  5
C9
330
1F
100
AcDbEntity
  8
0
  6
Continuous
 62
     7
370
     0
100
AcDbMText
 10
266.1553537756
 20
5.1306563898
 30
0.0
 40
3.175
 41
0.0
 71
     2
 72
     1
  1
46.33 g
  7
SLDTEXTSTYLE0
 73
     1
 44
1.0
  0
INSERT
  5
CF
330
1F
100
AcDbEntity
  8
0
  6
Continuous
 62
     7
370
     0
100
AcDbBlockReference
  2
SW_NOTE_1
 10
174.8430140051
 20
4.4558554801
 30
0.0
  0
INSERT
  5
D5
330
1F
100
AcDbEntity
  8
0
  6
Continuous
 62
     7
370
     0
100
AcDbBlockReference
  2
SW_NOTE_2
 10
174.5483650337
 20
30.4835322715
 30
0.0
  0
MTEXT
  5
D6
330
1F
100
AcDbEntity
  8
0
  6
Continuous
 62
     7
370
     0
100
AcDbMText
 10
187.9273588276
 20
24.8221395769
 30
0.0
 40
2.1166666667
 41
0.0
 71
     1
 72
     1
  1
NAME
  7
SLDTEXTSTYLE0
 73
     1
 44
1.0
  0
INSERT
  5
DC
330
1F
100
AcDbEntity
  8
0
  6
Continuous
 62
     7
370
     0
100
AcDbBlockReference
  2
SW_NOTE_3
 10
58.6204667508
 20
8.1776609732
 30
0.0
  0
INSERT
  5
E3
330
1F
100
AcDbEntity
  8
0
  6
Continuous
 62
     7
370
     0
100
AcDbBlockReference
  2
SW_NOTE_4
 10
220.0050186217
 20
20.7222222066
 30
0.0
  0
MTEXT
  5
E4
330
1F
100
AcDbEntity
  8
0
  6
Continuous
 62
     7
370
     0
100
AcDbMText
 10
177.6925831922
 20
10.7142101515
 30
0.0
 40
1.5875
 41
0.0
 71
     1
 72
     1
  1
COPYRIGHT © 2018 BY THORLABS
  7
SLDTEXTSTYLE0
 73
     1
 44
1.0
  0
LINE
  5
E5
330
1F
100
AcDbEntity
  8
0
  6
Continuous
 62
     7
370
    18
100
AcDbLine
 10
230.560006804
 20
192.4515770759
 30
0.0
 11
230.560006804
 21
192.2910043432
 31
0.0
  0
LINE
  5
E6
330
1F
100
AcDbEntity
  8
0
  6
Continuous
 62
     7
370
    18
100
AcDbLine
 10
248.3785474265
 20
161.4250422768
 30
0.0
 11
248.5175999577
 21
161.3447428617
 31
0.0
  0
LINE
  5
E7
330
1F
100
AcDbEntity
  8
0
  6
Continuous
 62
     7
370
    18
100
AcDbLine
 10
261.2194869506
 20
160.0855529513
 30
0.0
 11
267.4526818344
 21
163.6838997648
 31
0.0
  0
LINE
  5
E8
330
1F
100
AcDbEntity
  8
0
  6
Continuous
 62
     7
370
    18
100
AcDbLine
 10
242.0547460255
 20
207.6791819737
 30
0.0
 11
235.8215511416
 21
204.0808351602
 31
0.0
  0
LINE
  5
E9
330
1F
100
AcDbEntity
  8
0
  6
Continuous
 62
     7
370
    18
100
AcDbLine
 10
272.7142261721
 20
175.3131578491
 30
0.0
 11
272.7142261721
 21
175.4764394715
 31
0.0
  0
LINE
  5
EA
330
1F
100
AcDbEntity
  8
0
  6
Continuous
 62
     7
370
    18
100
AcDbLine
 10
254.8980313896
 20
206.3383379833
 30
0.0
 11
254.7566330183
 21
206.4199920634
 31
0.0
  0
LWPOLYLINE
  5
EB
330
1F
100
AcDbEntity
  8
0
  6
Continuous
 62
     7
370
    18
100
AcDbPolyline
 90
      168
 70
   128
 43
0.0
 10
266.2028810187
 20
171.7148110356
 10
266.190268893
 20
172.496190934
 10
266.152450367
 20
173.2910265268
 10
266.0894789686
 20
174.0981928133
 10
266.0014438268
 20
174.9165473397
 10
265.8884695454
 20
175.7449318167
 10
265.750716027
 20
176.5821737588
 10
265.5883782462
 20
177.4270881436
 10
265.401685974
 20
178.2784790893
 10
265.1909034524
 20
179.1351415472
 10
264.9563290205
 20
179.9958630074
 10
264.6982946923
 20
180.8594252149
 10
264.4171656864
 20
181.724605894
 10
264.1133399094
 20
182.5901804781
 10
263.787247393
 20
183.4549238433
 10
263.4393496844
 20
184.317612042
 10
263.070139194
 20
185.1770240355
 10
262.6801384981
 20
186.0319434223
 10
262.2698995988
 20
186.8811601595
 10
261.8400031437
 20
187.7234722759
 10
261.3910576029
 20
188.5576875727
 10
260.9236984087
 20
189.3826253117
 10
260.4385870558
 20
190.1971178856
 10
259.9364101651
 20
191.0000124713
 10
259.4178785118
 20
191.7901726612
 10
258.8837260194
 20
192.566480072
 10
258.3347087211
 20
193.3278359274
 10
257.7716036895
 20
194.0731626133
 10
257.1952079368
 20
194.801405203
 10
256.6063372867
 20
195.5115329507
 10
256.0058252197
 20
196.20254075
 10
255.3945216937
 20
196.8734505565
 10
254.7732919402
 20
197.5233127725
 10
254.1430152406
 20
198.1512075906
 10
253.5045836811
 20
198.756246296
 10
252.8589008901
 20
199.3375725241
 10
252.2068807595
 20
199.8943634724
 10
251.5494461508
 20
200.4258310659
 10
250.8875275891
 20
200.9312230714
 10
250.2220619463
 20
201.4098241631
 10
249.5539911145
 20
201.8609569348
 10
248.8842606732
 20
202.2839828583
 10
248.213818551
 20
202.6783031879
 10
247.5436136838
 20
203.0433598071
 10
246.8745946716
 20
203.3786360192
 10
246.2077084359
 20
203.6836572781
 10
245.5438988798
 20
203.9579918605
 10
244.8841055513
 20
204.2012514763
 10
244.2292623142
 20
204.4130918188
 10
243.5802960259
 20
204.5932130517
 10
242.9381252254
 20
204.7413602335
 10
242.3036588339
 20
204.8573236784
 10
241.6777948676
 20
204.9409392531
 10
241.0614191668
 20
204.9920886092
 10
240.4554041425
 20
205.0106993505
 10
239.8606075411
 20
204.9967451355
 10
239.2778712308
 20
204.9502457148
 10
238.7080200096
 20
204.8712669033
 10
238.1518604383
 20
204.7599204865
 10
237.6101796984
 20
204.6163640629
 10
237.0837444786
 20
204.4408008205
 10
236.5732998889
 20
204.2334792495
 10
236.0795684066
 20
203.9946927904
 10
235.6032488535
 20
203.7247794186
 10
235.1450154066
 20
203.4241211665
 10
234.7055166441
 20
203.0931435821
 10
234.2853746273
 20
202.7323151272
 10
233.8851840203
 20
202.3421465141
 10
233.5055112481
 20
201.9231899829
 10
233.1468936952
 20
201.4760385197
 10
232.8098389445
 20
201.0013250173
 10
232.4948240593
 20
200.4997213797
 10
232.202294908
 20
199.9719375707
 10
231.9326655329
 20
199.4187206093
 10
231.6863175643
 20
198.8408535122
 10
231.46359968
 20
198.2391541857
 10
231.2648271125
 20
197.6144742679
 10
231.090281202
 20
196.9676979233
 10
230.9402089987
 20
196.2997405916
 10
230.8148229131
 20
195.6115476916
 10
230.7143004151
 20
194.9040932835
 10
230.6387837832
 20
194.1783786899
 10
230.5883799025
 20
193.4354310785
 10
230.5631601143
 20
192.6763020088
 10
230.5631601143
 20
191.9020659429
 10
230.5883799025
 20
191.1138187255
 10
230.6387837832
 20
190.3126760323
 10
230.7143004151
 20
189.4997717913
 10
230.8148229131
 20
188.6762565775
 10
230.9402089987
 20
187.8432959845
 10
231.090281202
 20
187.0020689751
 10
231.2648271125
 20
186.1537662118
 10
231.46359968
 20
185.2995883725
 10
231.6863175643
 20
184.4407444503
 10
231.9326655329
 20
183.5784500428
 10
232.202294908
 20
182.7139256313
 10
232.4948240593
 20
181.8483948534
 10
232.8098389445
 20
180.9830827711
 10
233.1468936952
 20
180.119214137
 10
233.5055112481
 20
179.2580116604
 10
233.8851840203
 20
178.4006942773
 10
234.2853746273
 20
177.5484754244
 10
234.7055166441
 20
176.7025613222
 10
235.1450154066
 20
175.8641492677
 10
235.6032488535
 20
175.0344259392
 10
236.0795684066
 20
174.2145657174
 10
236.5732998889
 20
173.4057290227
 10
237.0837444786
 20
172.6090606731
 10
237.6101796984
 20
171.8256882634
 10
238.1518604383
 20
171.0567205698
 10
238.7080200096
 20
170.30324598
 10
239.2778712308
 20
169.566330953
 10
239.8606075411
 20
168.8470185097
 10
240.4554041425
 20
168.1463267564
 10
241.0614191668
 20
167.4652474439
 10
241.6777948676
 20
166.8047445639
 10
242.3036588339
 20
166.1657529842
 10
242.9381252254
 20
165.549177126
 10
243.5802960259
 20
164.9558896835
 10
244.2292623142
 20
164.3867303887
 10
244.8841055513
 20
163.842504823
 10
245.5438988798
 20
163.3239832767
 10
246.2077084359
 20
162.8318996592
 10
246.8745946716
 20
162.3669504598
 10
247.5436136838
 20
161.9297937621
 10
248.213818551
 20
161.5210483124
 10
248.8842606732
 20
161.1412926444
 10
249.5539911145
 20
160.7910642596
 10
250.2220619463
 20
160.4708588672
 10
250.8875275891
 20
160.1811296821
 10
251.5494461508
 20
159.9222867835
 10
252.2068807595
 20
159.6946965348
 10
252.8589008901
 20
159.4986810642
 10
253.5045836811
 20
159.33451781
 10
254.1430152406
 20
159.2024391268
 10
254.7732919402
 20
159.1026319572
 10
255.3945216937
 20
159.035237567
 10
256.0058252197
 20
159.0003513456
 10
256.6063372867
 20
158.9980226704
 10
257.1952079368
 20
159.0282548375
 10
257.7716036895
 20
159.0910050566
 10
258.3347087211
 20
159.1861845117
 10
258.8837260194
 20
159.3136584871
 10
259.4178785118
 20
159.4732465575
 10
259.9364101651
 20
159.6647228438
 10
260.4385870558
 20
159.8878163329
 10
260.9236984087
 20
160.1422112607
 10
261.3910576029
 20
160.4275475598
 10
261.8400031437
 20
160.7434213685
 10
262.2698995988
 20
161.0893856028
 10
262.6801384981
 20
161.464950589
 10
263.070139194
 20
161.8695847568
 10
263.4393496844
 20
162.3027153918
 10
263.787247393
 20
162.763729446
 10
264.1133399094
 20
163.2519744056
 10
264.4171656864
 20
163.7667592145
 10
264.6982946923
 20
164.3073552524
 10
264.9563290205
 20
164.8729973659
 10
265.1909034524
 20
165.4628849519
 10
265.401685974
 20
166.0761830905
 10
265.5883782462
 20
166.7120237268
 10
265.750716027
 20
167.3695068995
 10
265.8884695454
 20
168.0477020146
 10
266.0014438268
 20
168.7456491628
 10
266.0894789686
 20
169.462360478
 10
266.152450367
 20
170.1968215355
 10
266.190268893
 20
170.9479927876
 10
266.2028810187
 20
171.7148110356
  0
LWPOLYLINE
  5
EC
330
1F
100
AcDbEntity
  8
0
  6
Continuous
 62
     7
370
    18
100
AcDbPolyline
 90
      127
 70
   128
 43
0.0
 10
230.560006804
 20
192.4515770759
 10
230.5727173523
 20
193.2243794289
 10
230.6108310069
 20
193.9814126799
 10
230.6742938222
 20
194.721605333
 10
230.7630159737
 20
195.4439097281
 10
230.876871885
 20
196.1473035243
 10
231.015700406
 20
196.8307911462
 10
231.1793050402
 20
197.4934051936
 10
231.3674542237
 20
198.1342078103
 10
231.5798816524
 20
198.752292012
 10
231.8162866588
 20
199.3467829695
 10
232.0763346383
 20
199.9168392474
 10
232.359657522
 20
200.4616539947
 10
232.665854298
 20
200.9804560872
 10
232.994491579
 20
201.4725112185
 10
233.3451042157
 20
201.9371229395
 10
233.7171959551
 20
202.3736336443
 10
234.1102401429
 20
202.7814255008
 10
234.5236804692
 20
203.1599213253
 10
234.9569317552
 20
203.5085853992
 10
235.4093807824
 20
203.8269242276
 10
235.8803871595
 20
204.1144872374
 10
236.36928423
 20
204.3708674153
 10
236.8753800144
 20
204.5957018838
 10
237.397958191
 20
204.788672415
 10
237.9362791087
 20
204.9495058806
 10
238.4895808345
 20
205.0779746388
 10
239.0570802316
 20
205.1738968565
 10
239.6379740681
 20
205.2371367664
 10
240.2314401537
 20
205.2676048596
 10
240.8366385036
 20
205.2652580119
 10
241.4527125271
 20
205.230099545
 10
242.0787902404
 20
205.1621792218
 10
242.7139855005
 20
205.0615931758
 10
243.3573992596
 20
204.9284837755
 10
244.0081208373
 20
204.7630394221
 10
244.6652292101
 20
204.5654942839
 10
245.3277943145
 20
204.3361279637
 10
245.9948783638
 20
204.075265104
 10
246.665537175
 20
203.7832749269
 10
247.3388215056
 20
203.460570712
 10
248.013778397
 20
203.107609211
 10
248.6894525231
 20
202.7248900013
 10
249.3648875427
 20
202.3129547792
 10
250.0391274532
 20
201.8723865931
 10
250.7112179432
 20
201.4038090178
 10
251.380207744
 20
200.9078852725
 10
252.0451499752
 20
200.3853172819
 10
252.7051034854
 20
199.8368446825
 10
253.3591341843
 20
199.2632437759
 10
254.0063163646
 20
198.66532643
 10
254.6457340122
 20
198.0439389301
 10
255.2764821029
 20
197.3999607806
 10
255.8976678835
 20
196.7343034606
 10
256.5084121348
 20
196.0479091336
 10
257.1078504166
 20
195.3417493139
 10
257.6951342912
 20
194.616823492
 10
258.2694325239
 20
193.8741577191
 10
258.8299322596
 20
193.1148031557
 10
259.3758401739
 20
192.3398345832
 10
259.9063835949
 20
191.550348883
 10
260.4208115979
 20
190.7474634837
 10
260.9183960676
 20
189.93231478
 10
261.3984327287
 20
189.1060565236
 10
261.860242143
 20
188.2698581907
 10
262.303170671
 20
187.4249033266
 10
262.7265913969
 20
186.5723878703
 10
263.1299050159
 20
185.7135184621
 10
263.5125406828
 20
184.8495107358
 10
263.8739568195
 20
183.9815875975
 10
264.2136418819
 20
183.1109774954
 10
264.5311150839
 20
182.2389126808
 10
264.8259270775
 20
181.3666274639
 10
265.0976605893
 20
180.4953564669
 10
265.3459310111
 20
179.6263328765
 10
265.5703869437
 20
178.7607866983
 10
265.7707106949
 20
177.8999430161
 10
265.9466187288
 20
177.0450202581
 10
266.0978620673
 20
176.1972284717
 10
266.2242266422
 20
175.3577676113
 10
266.3255335988
 20
174.52782584
 10
266.4016395483
 20
173.7085778476
 10
266.4524367713
 20
172.9011831879
 10
266.47785337
 20
172.1067846378
 10
266.47785337
 20
171.3265065797
 10
266.4524367713
 20
170.5614534098
 10
266.4016395483
 20
169.8127079754
 10
266.3255335988
 20
169.0813300419
 10
266.2242266422
 20
168.368354793
 10
266.0978620673
 20
167.6747913654
 10
265.9466187288
 20
167.0016214207
 10
265.7707106949
 20
166.3497977555
 10
265.5703869437
 20
165.7202429533
 10
265.3459310111
 20
165.1138480787
 10
265.0976605893
 20
164.5314714158
 10
264.8259270775
 20
163.9739372535
 10
264.5311150839
 20
163.4420347192
 10
264.2136418819
 20
162.9365166614
 10
263.8739568195
 20
162.4580985844
 10
263.5125406828
 20
162.0074576354
 10
263.1299050159
 20
161.5852316464
 10
262.7265913969
 20
161.1920182311
 10
262.303170671
 20
160.8283739389
 10
261.860242143
 20
160.4948134679
 10
261.3984327287
 20
160.1918089355
 10
260.9183960676
 20
159.9197892107
 10
260.4208115979
 20
159.679139307
 10
259.9063835949
 20
159.4701998376
 10
259.3758401739
 20
159.2932665328
 10
258.8299322596
 20
159.1485898219
 10
258.2694325239
 20
159.0363744787
 10
257.6951342912
 20
158.9567793313
 10
257.1078504166
 20
158.909917038
 10
256.5084121348
 20
158.8958539269
 10
255.8976678835
 20
158.9146099029
 10
255.2764821029
 20
158.9661584189
 10
254.6457340122
 20
159.0504265138
 10
254.0063163646
 20
159.1672949156
 10
253.3591341843
 20
159.3165982101
 10
252.7051034854
 20
159.4981250751
 10
252.0451499752
 20
159.7116185797
 10
251.380207744
 20
159.9567765477
 10
250.7112179432
 20
160.2332519854
 10
250.0391274532
 20
160.5406535727
 10
249.3648875427
 20
160.8785462172
 10
248.6894525231
 20
161.2464516694
 10
248.5175999577
 20
161.3447428617
  0
LWPOLYLINE
  5
ED
330
1F
100
AcDbEntity
  8
0
  6
Continuous
 62
     7
370
    18
100
AcDbPolyline
 90
       64
 70
   128
 43
0.0
 10
272.7142261721
 20
175.3131578491
 10
272.7015156237
 20
176.1006354889
 10
272.6634019691
 20
176.9016738288
 10
272.5999391538
 20
177.7151390887
 10
272.5112170023
 20
178.5398798996
 10
272.397361091
 20
179.3747289329
 10
272.2585325701
 20
180.2185045532
 10
272.0949279358
 20
181.0700124906
 10
271.9067787523
 20
181.9280475307
 10
271.6943513237
 20
182.7913952208
 10
271.4579463172
 20
183.658833589
 10
271.1978983377
 20
184.5291348731
 10
270.914575454
 20
185.4010672591
 10
270.608378678
 20
186.2733966241
 10
270.2797413971
 20
187.1448882834
 10
269.9291287604
 20
188.0143087381
 10
269.557037021
 20
188.8804274208
 10
269.1639928331
 20
189.7420184372
 10
268.7505525069
 20
190.5978623018
 10
268.3173012208
 20
191.4467476631
 10
267.8648521937
 20
192.2874730188
 10
267.3938458165
 20
193.1188484164
 10
266.9049487461
 20
193.9396971367
 10
266.3988529616
 20
194.7488573603
 10
265.876274785
 20
195.5451838114
 10
265.3379538673
 20
196.3275493789
 10
264.7846521415
 20
197.0948467118
 10
264.2171527445
 20
197.8459897866
 10
263.636258908
 20
198.5799154442
 10
263.0427928223
 20
199.295584895
 10
262.4375944725
 20
199.9919851888
 10
261.8215204489
 20
200.6681306489
 10
261.1954427356
 20
201.3230642671
 10
260.5602474755
 20
201.955859058
 10
259.9168337165
 20
202.5656193714
 10
259.2661121387
 20
203.1514821597
 10
258.609003766
 20
203.7126181996
 10
257.9464386615
 20
204.2482332659
 10
257.2793546123
 20
204.7575692554
 10
256.608695801
 20
205.2399052598
 10
255.9354114704
 20
205.6945585865
 10
255.260454579
 20
206.1208857246
 10
254.5847804529
 20
206.5182832556
 10
253.9093454333
 20
206.8861887079
 10
253.2351055229
 20
207.2240813523
 10
252.5630150328
 20
207.5314829397
 10
251.894025232
 20
207.8079583774
 10
251.2290830008
 20
208.0531163454
 10
250.5691294906
 20
208.26660985
 10
249.9150987917
 20
208.448136715
 10
249.2679166114
 20
208.5974400094
 10
248.6284989638
 20
208.7143084112
 10
247.9977508731
 20
208.7985765061
 10
247.3765650926
 20
208.8501250222
 10
246.7658208413
 20
208.8688809981
 10
246.1663825594
 20
208.854817887
 10
245.5790986848
 20
208.8079555937
 10
245.0048004522
 20
208.7283604464
 10
244.4443007164
 20
208.6161451032
 10
243.8983928022
 20
208.4714683923
 10
243.3678493811
 20
208.2945350875
 10
242.8534213781
 20
208.085595618
 10
242.3558369085
 20
207.8449457144
 10
242.0547460255
 20
207.6791819737
  0
LWPOLYLINE
  5
EE
330
1F
100
AcDbEntity
  8
0
  6
Continuous
 62
     7
370
    18
100
AcDbPolyline
 90
       22
 70
   128
 43
0.0
 10
267.4526818344
 20
163.6838997648
 10
267.8648521937
 20
163.9378106975
 10
268.3173012208
 20
164.2561495258
 10
268.7505525069
 20
164.6048135997
 10
269.1639928331
 20
164.9833094242
 10
269.557037021
 20
165.3911012808
 10
269.9291287604
 20
165.8276119856
 10
270.2797413971
 20
166.2922237066
 10
270.608378678
 20
166.7842788378
 10
270.914575454
 20
167.3030809303
 10
271.1978983377
 20
167.8478956777
 10
271.4579463172
 20
168.4179519556
 10
271.6943513237
 20
169.0124429131
 10
271.9067787523
 20
169.6305271147
 10
272.0949279358
 20
170.2713297315
 10
272.2585325701
 20
170.9339437789
 10
272.397361091
 20
171.6174314008
 10
272.5112170023
 20
172.3208251969
 10
272.5999391538
 20
173.0431295921
 10
272.6634019691
 20
173.7833222451
 10
272.7015156237
 20
174.5403554961
 10
272.7142261721
 20
175.3131578491
  0
ARC
  5
EF
330
1F
100
AcDbEntity
  8
0
  6
Continuous
 62
     7
370
    18
100
AcDbCircle
 10
234.0958675153
 20
173.7560199759
 30
0.0
 40
38.65666137401637
100
AcDbArc
 50
2.5507982903
 51
57.443825177
  0
CIRCLE
  5
F0
330
1F
100
AcDbEntity
  8
0
  6
Continuous
 62
     7
370
    18
100
AcDbCircle
 10
55.2483625255
 20
121.355946702
 30
0.0
 40
25.2033180582037
  0
CIRCLE
  5
F1
330
1F
100
AcDbEntity
  8
0
  6
Continuous
 62
     7
370
    18
100
AcDbCircle
 10
55.2483625255
 20
121.355946702
 30
0.0
 40
25.4
  0
DIMENSION
  5
F2
330
1F
100
AcDbEntity
  8
0
  6
Continuous
 62
     7
370
    18
100
AcDbDimension
  2
_D
 10
42.5483625255
 20
99.3589014459
 30
0.0
 11
88.2759227023
 21
159.8737146682
 31
0.0
 70
   163
  1
<>
 71
     1
 42
-1.0
  3
SLDDIMSTYLE0
100
AcDbDiametricDimension
 15
67.9483625255
 25
143.3529919581
 35
0.0
 40
0.0
  0
LINE
  5
103
330
1F
100
AcDbEntity
  8
0
  6
PHANTOM
 62
     7
370
    35
100
AcDbLine
 10
55.2483625255
 20
152.851946702
 30
0.0
 11
55.2483625255
 21
89.859946702
 31
0.0
  0
LINE
  5
104
330
1F
100
AcDbEntity
  8
0
  6
Continuous
 62
     7
370
    35
100
AcDbLine
 10
55.2483625255
 20
152.851946702
 30
0.0
 11
46.3583625255
 21
152.851946702
 31
0.0
  0
SOLID
  5
105
330
1F
100
AcDbEntity
  8
0
  6
Continuous
 62
     7
370
    35
100
AcDbTrace
 10
46.3583625255
 20
152.851946702
 30
0.0
 11
50.1683625255
 21
152.216946702
 31
0.0
 12
50.1683625255
 22
153.486946702
 32
0.0
 13
50.1683625255
 23
153.486946702
 33
0.0
  0
LINE
  5
106
330
1F
100
AcDbEntity
  8
0
  6
Continuous
 62
     7
370
    35
100
AcDbLine
 10
55.2483625255
 20
89.859946702
 30
0.0
 11
46.3583625255
 21
89.859946702
 31
0.0
  0
SOLID
  5
107
330
1F
100
AcDbEntity
  8
0
  6
Continuous
 62
     7
370
    35
100
AcDbTrace
 10
46.3583625255
 20
89.859946702
 30
0.0
 11
50.1683625255
 21
89.224946702
 31
0.0
 12
50.1683625255
 22
90.494946702
 32
0.0
 13
50.1683625255
 23
90.494946702
 33
0.0
  0
MTEXT
  5
108
330
1F
100
AcDbEntity
  8
0
  6
Continuous
 62
     7
100
AcDbMText
 10
42.9527269043
 20
154.9530802254
 30
0.0
 40
2.6458333333
 41
0.0
 71
     1
 72
     1
  1
A
  7
SLDTEXTSTYLE0
 73
     1
 44
1.0
  0
MTEXT
  5
109
330
1F
100
AcDbEntity
  8
0
  6
Continuous
 62
     7
100
AcDbMText
 10
42.9527269043
 20
91.9610802254
 30
0.0
 40
2.6458333333
 41
0.0
 71
     1
 72
     1
  1
A
  7
SLDTEXTSTYLE0
 73
     1
 44
1.0
  0
LINE
  5
10A
330
1F
100
AcDbEntity
  8
0
  6
Continuous
 62
     7
370
    18
100
AcDbLine
 10
144.3810184127
 20
96.155946702
 30
0.0
 11
144.1810184127
 21
95.955946702
 31
0.0
  0
LINE
  5
10B
330
1F
100
AcDbEntity
  8
0
  6
Continuous
 62
     7
370
    18
100
AcDbLine
 10
135.365949671
 20
95.955946702
 30
0.0
 11
144.1810184127
 21
95.955946702
 31
0.0
  0
LINE
  5
10C
330
1F
100
AcDbEntity
  8
0
  6
Continuous
 62
     7
370
    18
100
AcDbLine
 10
135.365949671
 20
95.955946702
 30
0.0
 11
135.1692677292
 21
96.1526286438
 31
0.0
  0
ARC
  5
10D
330
1F
100
AcDbEntity
  8
0
  6
Continuous
 62
     7
370
    18
100
AcDbCircle
 10
-1364.619050411
 20
121.355946702
 30
0.0
 40
1500.000068823651
100
AcDbArc
 50
359.037258905
 51
0.962741095
  0
LINE
  5
10E
330
1F
100
AcDbEntity
  8
0
  6
Continuous
 62
     7
370
    18
100
AcDbLine
 10
135.1692677292
 20
146.5592647602
 30
0.0
 11
135.365949671
 21
146.755946702
 31
0.0
  0
LINE
  5
10F
330
1F
100
AcDbEntity
  8
0
  6
Continuous
 62
     7
370
    18
100
AcDbLine
 10
144.1810184127
 20
146.755946702
 30
0.0
 11
135.365949671
 21
146.755946702
 31
0.0
  0
LINE
  5
110
330
1F
100
AcDbEntity
  8
0
  6
Continuous
 62
     7
370
    18
100
AcDbLine
 10
144.1810184127
 20
146.755946702
 30
0.0
 11
144.3810184127
 21
146.555946702
 31
0.0
  0
LINE
  5
111
330
1F
100
AcDbEntity
  8
0
  6
Continuous
 62
     7
370
    18
100
AcDbLine
 10
144.3810184127
 20
119.7549168724
 30
0.0
 11
144.3810184127
 21
119.9950713469
 31
0.0
  0
LINE
  5
112
330
1F
100
AcDbEntity
  8
0
  6
Continuous
 62
     7
370
    18
100
AcDbLine
 10
144.3810184127
 20
119.9950713469
 30
0.0
 11
144.3810184127
 21
122.355946702
 31
0.0
  0
LINE
  5
113
330
1F
100
AcDbEntity
  8
0
  6
Continuous
 62
     7
370
    18
100
AcDbLine
 10
144.3810184127
 20
122.4584199798
 30
0.0
 11
144.3810184127
 21
146.555946702
 31
0.0
  0
LINE
  5
114
330
1F
100
AcDbEntity
  8
0
  6
Continuous
 62
     7
370
    18
100
AcDbLine
 10
144.3810184127
 20
96.155946702
 30
0.0
 11
144.3810184127
 21
119.7549168724
 31
0.0
  0
LINE
  5
115
330
1F
100
AcDbEntity
  8
0
  6
Continuous
 62
     7
370
    18
100
AcDbLine
 10
144.3810184127
 20
122.355946702
 30
0.0
 11
144.3810184127
 21
122.4584199798
 31
0.0
  0
HATCH
  5
116
330
1F
100
AcDbEntity
  8
0
  6
Continuous
 62
     7
370
    18
100
AcDbHatch
 10
0.0
 20
0.0
 30
0.0
210
0.0
220
0.0
230
1.0
  2
ANSI31
 70
     0
 71
     0
 91
        1
 92
        0
 93
       12
 72
     1
 10
144.3810184126959
 20
96.15594670198853
 11
144.3810184126959
 21
119.7549168724431
 72
     1
 10
144.3810184126959
 20
119.7549168724431
 11
144.3810184126959
 21
119.9950713468749
 72
     1
 10
144.3810184126959
 20
119.9950713468749
 11
144.3810184126959
 21
122.3559467019885
 72
     1
 10
144.3810184126959
 20
122.3559467019885
 11
144.3810184126959
 21
122.458419979802
 72
     1
 10
144.3810184126959
 20
122.458419979802
 11
144.3810184126959
 21
146.5559467019885
 72
     1
 10
144.3810184126959
 20
146.5559467019885
 11
144.1810184126959
 21
146.7559467019885
 72
     1
 10
144.1810184126959
 20
146.7559467019885
 11
135.3659496710425
 21
146.7559467019885
 72
     1
 10
135.3659496710425
 20
146.7559467019885
 11
135.1692677292463
 21
146.5592647601919
 72
     2
 10
-1364.619050410955
 20
121.3559467019885
 40
1500.000068823651
 50
359.0372589049768
 51
360.9627410950252
 73
     0
 72
     1
 10
135.1692677292463
 20
96.15262864377725
 11
135.3659496710425
 21
95.95594670198854
 72
     1
 10
135.3659496710425
 20
95.95594670198854
 11
144.1810184126959
 21
95.95594670198854
 72
     1
 10
144.1810184126959
 20
95.95594670198854
 11
144.3810184126959
 21
96.15594670198853
 97
        0
 75
     0
 76
     1
 52
0.0
 41
1.0
 77
     0
 78
     1
 53
45.0
 43
0.0
 44
0.0
 45
-2.245064030267288
 46
2.245064030267288
 79
     0
 98
        1
 10
0.0
 20
0.0
  0
DIMENSION
  5
117
330
1F
100
AcDbEntity
  8
0
  6
Continuous
 62
     7
370
    18
100
AcDbDimension
  2
_D_1
 10
144.3857680565
 20
159.7421332593
 30
0.0
 11
160.3810184127
 21
159.7363717951
 31
0.0
 70
   160
  1
<>REF
 71
     2
 42
-1.0
  3
SLDDIMSTYLE1
100
AcDbAlignedDimension
 13
135.1692677292
 23
146.5592647602
 33
0.0
 14
144.3810184127
 24
146.555946702
 34
0.0
 50
-0.0206378494
100
AcDbRotatedDimension
  0
DIMENSION
  5
12B
330
1F
100
AcDbEntity
  8
0
  6
Continuous
 62
     7
370
    18
100
AcDbDimension
  2
_D_2
 10
-1364.619050411
 20
121.355946702
 30
0.0
 11
160.3810184127
 21
85.4026121087
 31
0.0
 70
   164
  1
<>
 71
     1
 42
-1.0
  3
SLDDIMSTYLE2
100
AcDbRadialDimension
 15
134.9579063633
 25
85.7307143171
 35
0.0
 40
0.0
  0
DIMENSION
  5
13C
330
1F
100
AcDbEntity
  8
0
  6
Continuous
 62
     7
370
    18
100
AcDbDimension
  2
_D_3
 10
135.3810184127
 20
151.4135063017
 30
0.0
 11
160.3810184127
 21
151.4135063017
 31
0.0
 70
   160
  1
<>
 71
     2
 42
-1.0
  3
SLDDIMSTYLE3
100
AcDbAlignedDimension
 13
144.3810184127
 23
146.555946702
 33
0.0
 14
135.3810184127
 24
121.355946702
 34
0.0
100
AcDbRotatedDimension
  0
MTEXT
  5
151
330
1F
100
AcDbEntity
  8
0
  6
Continuous
 62
     7
370
     0
100
AcDbMText
 10
139.571469446
 20
78.3594282535
 30
0.0
 40
2.38125
 41
0.0
 71
     2
 72
     1
  1
SECTION A-A
  7
SLDTEXTSTYLE0
 73
     1
 44
1.0
  0
MTEXT
  5
152
330
1F
100
AcDbEntity
  8
0
  6
Continuous
 62
     7
370
     0
100
AcDbMText
 10
114.1376068155
 20
92.1486624472
 30
0.0
 40
2.1166666667
 41
0.0
 71
     1
 72
     1
  1
S1
  7
SLDTEXTSTYLE0
 73
     1
 44
1.0
  0
LEADER
  5
154
330
1F
100
AcDbEntity
  8
0
  6
Continuous
 62
     7
370
     0
100
AcDbLeader
  3
SLDDIMSTYLE4
 76
     3
 10
135.2818841187
 20
104.1108584752
 30
0.0
 10
123.9126437502
 20
91.7256019481
 30
0.0
 10
117.5626437502
 20
91.7256019481
 30
0.0
  0
MTEXT
  5
155
330
1F
100
AcDbEntity
  8
0
  6
Continuous
 62
     7
370
     0
100
AcDbMText
 10
162.7349982877
 20
118.4915992459
 30
0.0
 40
2.1166666667
 41
0.0
 71
     1
 72
     1
  1
S2
  7
SLDTEXTSTYLE0
 73
     1
 44
1.0
  0
LEADER
  5
156
330
1F
100
AcDbEntity
  8
0
  6
Continuous
 62
     7
370
     0
100
AcDbLeader
  3
SLDDIMSTYLE4
 76
     3
 10
144.3810184127
 20
104.4964373762
 30
0.0
 10
151.855708902
 20
117.9307935426
 30
0.0
 10
162.1699629172
 20
117.9307935426
 30
0.0
  0
SPLINE
  5
157
330
1F
100
AcDbEntity
  8
0
  6
Continuous
 62
     7
370
    18
100
AcDbSpline
210
0.0
220
0.0
230
1.0
 70
     8
 71
     3
 72
    13
 73
     9
 74
     0
 42
0.000000001
 43
0.00000001
 40
0.0
 40
0.0
 40
0.0
 40
0.0
 40
0.194338994180444
 40
0.3816850483972324
 40
0.5594858099433002
 40
0.6963399801806498
 40
0.839106652968723
 40
0.9999999999999999
 40
0.9999999999999999
 40
0.9999999999999999
 40
0.9999999999999999
 10
223.3389159985552
 20
123.4753041382712
 30
0.0
 10
223.3360909061634
 20
123.5369365605827
 30
0.0
 10
223.3305423772598
 20
123.6579836730884
 30
0.0
 10
223.2815466691258
 20
123.8300022276277
 30
0.0
 10
223.2015352836449
 20
123.9701242501655
 30
0.0
 10
223.0933017631259
 20
124.0690839777151
 30
0.0
 10
222.9642625047497
 20
124.1298544981902
 30
0.0
 10
222.8676106019219
 20
124.1364537041334
 30
0.0
 10
222.8163998822752
 20
124.139950273529
 30
0.0
  0
SPLINE
  5
158
330
1F
100
AcDbEntity
  8
0
  6
Continuous
 62
     7
370
    18
100
AcDbSpline
210
0.0
220
0.0
230
1.0
 70
     8
 71
     3
 72
    12
 73
     8
 74
     0
 42
0.000000001
 43
0.00000001
 40
0.0
 40
0.0
 40
0.0
 40
0.0
 40
0.2008908381631379
 40
0.3780365369998057
 40
0.5535498386387565
 40
0.7713747335183462
 40
1.0
 40
1.0
 40
1.0
 40
1.0
 10
222.8163998822752
 20
122.8106399409955
 30
0.0
 10
222.8805380537844
 20
122.8161621443034
 30
0.0
 10
223.0012333152933
 20
122.8265538308243
 30
0.0
 10
223.1539278033207
 20
122.9248142134771
 30
0.0
 10
223.2619097245208
 20
123.0723321918232
 30
0.0
 10
223.3275184770469
 20
123.2614560425513
 30
0.0
 10
223.3350560426383
 20
123.4028810047159
 30
0.0
 10
223.3389159985552
 20
123.4753041382712
 30
0.0
  0
SPLINE
  5
159
330
1F
100
AcDbEntity
  8
0
  6
Continuous
 62
     7
370
    18
100
AcDbSpline
210
0.0
220
0.0
230
1.0
 70
     8
 71
     3
 72
    13
 73
     9
 74
     0
 42
0.000000001
 43
0.00000001
 40
0.0
 40
0.0
 40
0.0
 40
0.0
 40
0.1943256494037766
 40
0.3816748644005007
 40
0.559488170496606
 40
0.6963511211546932
 40
0.8391184169589758
 40
0.9999999999999999
 40
0.9999999999999999
 40
0.9999999999999999
 40
0.9999999999999999
 10
222.2938657039772
 20
123.4753041382712
 30
0.0
 10
222.2966921582195
 20
123.4136754692859
 30
0.0
 10
222.3022435949082
 20
123.2926306460711
 30
0.0
 10
222.3512521238877
 20
123.1206132381937
 30
0.0
 10
222.4312720374522
 20
122.9804867659947
 30
0.0
 10
222.5395078525064
 20
122.8815187924431
 30
0.0
 10
222.668543288146
 20
122.8207386994806
 30
0.0
 10
222.7651924698916
 20
122.8141374602868
 30
0.0
 10
222.8163998822752
 20
122.8106399409955
 30
0.0
  0
SPLINE
  5
15A
330
1F
100
AcDbEntity
  8
0
  6
Continuous
 62
     7
370
    18
100
AcDbSpline
210
0.0
220
0.0
230
1.0
 70
     8
 71
     3
 72
    12
 73
     8
 74
     0
 42
0.000000001
 43
0.00000001
 40
0.0
 40
0.0
 40
0.0
 40
0.0
 40
0.2008792258750614
 40
0.3780217100331188
 40
0.5535332757399339
 40
0.7713595773327309
 40
1.0
 40
1.0
 40
1.0
 40
1.0
 10
222.8163998822752
 20
124.139950273529
 30
0.0
 10
222.752266089722
 20
124.1344286100321
 30
0.0
 10
222.6315768256815
 20
124.124037746227
 30
0.0
 10
222.4788832919636
 20
124.0257906686021
 30
0.0
 10
222.3708897219021
 20
123.878284398463
 30
0.0
 10
222.3052662459051
 20
123.6891610305621
 30
0.0
 10
222.2977267573476
 20
123.5477316491726
 30
0.0
 10
222.2938657039772
 20
123.4753041382712
 30
0.0
  0
SPLINE
  5
15B
330
1F
100
AcDbEntity
  8
0
  6
Continuous
 62
     7
370
    18
100
AcDbSpline
210
0.0
220
0.0
230
1.0
 70
     8
 71
     3
 72
    19
 73
    15
 74
     0
 42
0.000000001
 43
0.00000001
 40
0.0
 40
0.0
 40
0.0
 40
0.0
 40
0.091587339706645
 40
0.1741182870805897
 40
0.2526289966153886
 40
0.3313197891920878
 40
0.4131632671988417
 40
0.4999972215981983
 40
0.5868350001903231
 40
0.6686802724867937
 40
0.7473714879383924
 40
0.8258819896397939
 40
0.9084127008286219
 40
1.0
 40
1.0
 40
1.0
 40
1.0
 10
222.8200050464215
 20
122.2747669851126
 30
0.0
 10
222.9306426211133
 20
122.2822116976641
 30
0.0
 10
223.1409776418026
 20
122.2963649703916
 30
0.0
 10
223.4253052167717
 20
122.4196843671846
 30
0.0
 10
223.6494765033612
 20
122.6069500465544
 30
0.0
 10
223.8101557921619
 20
122.8500934720143
 30
0.0
 10
223.9062578722799
 20
123.134850836205
 30
0.0
 10
223.936245500152
 20
123.4431034498398
 30
0.0
 10
223.9051078593121
 20
123.7512441475468
 30
0.0
 10
223.8079442456676
 20
124.0356487214457
 30
0.0
 10
223.6463580546795
 20
124.2781936217958
 30
0.0
 10
223.4214884952527
 20
124.4646205301819
 30
0.0
 10
223.1367021319518
 20
124.5868750125398
 30
0.0
 10
222.9263161096312
 20
124.6002424747625
 30
0.0
 10
222.8156515808562
 20
124.6072738539934
 30
0.0
  0
SPLINE
  5
15C
330
1F
100
AcDbEntity
  8
0
  6
Continuous
 62
     7
370
    18
100
AcDbSpline
210
0.0
220
0.0
230
1.0
 70
     8
 71
     3
 72
    14
 73
    10
 74
     0
 42
0.000000001
 43
0.00000001
 40
0.0
 40
0.0
 40
0.0
 40
0.0
 40
0.1466868109097159
 40
0.2859932799578326
 40
0.4198155341096284
 40
0.5510853201411048
 40
0.6904104027401186
 40
0.8377115977293307
 40
1.0
 40
1.0
 40
1.0
 40
1.0
 10
221.7141529509028
 20
123.4471574208523
 30
0.0
 10
221.718035267782
 20
123.3584829266221
 30
0.0
 10
221.7256045681931
 20
123.1855954713953
 30
0.0
 10
221.7954237717475
 20
122.9396564718844
 30
0.0
 10
221.9077221508202
 20
122.721153161818
 30
0.0
 10
222.0679647012332
 20
122.5337128735388
 30
0.0
 10
222.2769583585692
 20
122.388246842994
 30
0.0
 10
222.534438815785
 20
122.2918794850761
 30
0.0
 10
222.7217930353539
 20
122.2806523204762
 30
0.0
 10
222.8200050464215
 20
122.2747669851126
 30
0.0
  0
SPLINE
  5
15D
330
1F
100
AcDbEntity
  8
0
  6
Continuous
 62
     7
370
    18
100
AcDbSpline
210
0.0
220
0.0
230
1.0
 70
     8
 71
     3
 72
    14
 73
    10
 74
     0
 42
0.000000001
 43
0.00000001
 40
0.0
 40
0.0
 40
0.0
 40
0.0
 40
0.1553989656922838
 40
0.296877112207097
 40
0.4305153137104987
 40
0.5617675040118878
 40
0.7014063449726655
 40
0.8467289956139458
 40
1.0
 40
1.0
 40
1.0
 40
1.0
 10
222.8156515808562
 20
124.6072738539934
 30
0.0
 10
222.7224104402215
 20
124.6019189017702
 30
0.0
 10
222.5442808082308
 20
124.5916887001408
 30
0.0
 10
222.2981014055567
 20
124.5046862716978
 30
0.0
 10
222.0923330275267
 20
124.3710820330203
 30
0.0
 10
221.9263893401962
 20
124.1912678182068
 30
0.0
 10
221.8050183025678
 20
123.9715489514276
 30
0.0
 10
221.7279458611361
 20
123.7180677647955
 30
0.0
 10
221.718831460631
 20
123.5390493173521
 30
0.0
 10
221.7141529509028
 20
123.4471574208523
 30
0.0
  0
LINE
  5
15E
330
1F
100
AcDbEntity
  8
0
  6
Continuous
 62
     7
370
    18
100
AcDbLine
 10
218.5765539855
 20
124.0906590266
 30
0.0
 11
218.5765539855
 21
122.355946702
 31
0.0
  0
LINE
  5
15F
330
1F
100
AcDbEntity
  8
0
  6
Continuous
 62
     7
370
    18
100
AcDbLine
 10
217.9060596917
 20
124.0906590266
 30
0.0
 11
218.5765539855
 21
124.0906590266
 31
0.0
  0
LINE
  5
160
330
1F
100
AcDbEntity
  8
0
  6
Continuous
 62
     7
370
    18
100
AcDbLine
 10
217.9060596917
 20
124.5922954502
 30
0.0
 11
217.9060596917
 21
124.0906590266
 31
0.0
  0
LINE
  5
161
330
1F
100
AcDbEntity
  8
0
  6
Continuous
 62
     7
370
    18
100
AcDbLine
 10
220.3548719567
 20
124.5922954502
 30
0.0
 11
217.9060596917
 21
124.5922954502
 31
0.0
  0
LINE
  5
162
330
1F
100
AcDbEntity
  8
0
  6
Continuous
 62
     7
370
    18
100
AcDbLine
 10
220.3548719567
 20
123.7771204576
 30
0.0
 11
220.3548719567
 21
124.5922954502
 31
0.0
  0
LINE
  5
163
330
1F
100
AcDbEntity
  8
0
  6
Continuous
 62
     7
370
    18
100
AcDbLine
 10
221.1261381837
 20
123.7771204576
 30
0.0
 11
220.3548719567
 21
123.7771204576
 31
0.0
  0
LINE
  5
164
330
1F
100
AcDbEntity
  8
0
  6
Continuous
 62
     7
370
    18
100
AcDbLine
 10
221.1261381837
 20
124.5922954502
 30
0.0
 11
221.1261381837
 21
123.7771204576
 31
0.0
  0
LINE
  5
165
330
1F
100
AcDbEntity
  8
0
  6
Continuous
 62
     7
370
    18
100
AcDbLine
 10
221.7116506832
 20
124.5922954502
 30
0.0
 11
221.1261381837
 21
124.5922954502
 31
0.0
  0
LINE
  5
166
330
1F
100
AcDbEntity
  8
0
  6
Continuous
 62
     7
370
    18
100
AcDbLine
 10
221.7116506832
 20
122.355946702
 30
0.0
 11
221.7116506832
 21
124.5922954502
 31
0.0
  0
LINE
  5
167
330
1F
100
AcDbEntity
  8
0
  6
Continuous
 62
     7
370
    18
100
AcDbLine
 10
221.1261342484
 20
122.355946702
 30
0.0
 11
221.7116506832
 21
122.355946702
 31
0.0
  0
LINE
  5
168
330
1F
100
AcDbEntity
  8
0
  6
Continuous
 62
     7
370
    18
100
AcDbLine
 10
221.1261342484
 20
123.2777598483
 30
0.0
 11
221.1261342484
 21
122.355946702
 31
0.0
  0
LINE
  5
169
330
1F
100
AcDbEntity
  8
0
  6
Continuous
 62
     7
370
    18
100
AcDbLine
 10
220.3548680214
 20
123.2777598483
 30
0.0
 11
221.1261342484
 21
123.2777598483
 31
0.0
  0
LINE
  5
16A
330
1F
100
AcDbEntity
  8
0
  6
Continuous
 62
     7
370
    18
100
AcDbLine
 10
220.3548680214
 20
122.355946702
 30
0.0
 11
220.3548680214
 21
123.2777598483
 31
0.0
  0
LINE
  5
16B
330
1F
100
AcDbEntity
  8
0
  6
Continuous
 62
     7
370
    18
100
AcDbLine
 10
219.7694238347
 20
122.355946702
 30
0.0
 11
220.3548680214
 21
122.355946702
 31
0.0
  0
LINE
  5
16C
330
1F
100
AcDbEntity
  8
0
  6
Continuous
 62
     7
370
    18
100
AcDbLine
 10
219.7694238347
 20
124.0928625928
 30
0.0
 11
219.7694238347
 21
122.355946702
 31
0.0
  0
LINE
  5
16D
330
1F
100
AcDbEntity
  8
0
  6
Continuous
 62
     7
370
    18
100
AcDbLine
 10
219.1620523583
 20
124.0928625928
 30
0.0
 11
219.7694238347
 21
124.0928625928
 31
0.0
  0
LINE
  5
16E
330
1F
100
AcDbEntity
  8
0
  6
Continuous
 62
     7
370
    18
100
AcDbLine
 10
219.1620523583
 20
122.355946702
 30
0.0
 11
219.1620523583
 21
124.0928625928
 31
0.0
  0
LINE
  5
16F
330
1F
100
AcDbEntity
  8
0
  6
Continuous
 62
     7
370
    18
100
AcDbLine
 10
218.5765539855
 20
122.355946702
 30
0.0
 11
219.1620523583
 21
122.355946702
 31
0.0
  0
SPLINE
  5
170
330
1F
100
AcDbEntity
  8
0
  6
Continuous
 62
     7
370
    18
100
AcDbSpline
210
0.0
220
0.0
230
1.0
 70
     8
 71
     3
 72
    12
 73
     8
 74
     0
 42
0.000000001
 43
0.00000001
 40
0.0
 40
0.0
 40
0.0
 40
0.0
 40
0.1970292569794094
 40
0.371431873774712
 40
0.5434083414909585
 40
0.7603083066182443
 40
1.0
 40
1.0
 40
1.0
 40
1.0
 10
225.2743154042641
 20
123.8859983016359
 30
0.0
 10
225.2721056915463
 20
123.9144364637988
 30
0.0
 10
225.2679400272797
 20
123.9680469784036
 30
0.0
 10
225.2279025336268
 20
124.0377795124571
 30
0.0
 10
225.1644410160458
 20
124.0895712857933
 30
0.0
 10
225.0784434482381
 20
124.1220335779325
 30
0.0
 10
225.012878454578
 20
124.1255744723348
 30
0.0
 10
224.9784595508068
 20
124.1274332951135
 30
0.0
  0
SPLINE
  5
171
330
1F
100
AcDbEntity
  8
0
  6
Continuous
 62
     7
370
    18
100
AcDbSpline
210
0.0
220
0.0
230
1.0
 70
     8
 71
     3
 72
    12
 73
     8
 74
     0
 42
0.000000001
 43
0.00000001
 40
0.0
 40
0.0
 40
0.0
 40
0.0
 40
0.2111291888127901
 40
0.3927062339152246
 40
0.559912974757405
 40
0.7634359056262765
 40
1.0
 40
1.0
 40
1.0
 40
1.0
 10
225.0036380037811
 20
123.6227082664803
 30
0.0
 10
225.033935958648
 20
123.6242468878962
 30
0.0
 10
225.0902910075071
 20
123.6271087670379
 30
0.0
 10
225.166615977317
 20
123.6562877906592
 30
0.0
 10
225.2279400755884
 20
123.7084481994521
 30
0.0
 10
225.2683876003786
 20
123.7886479984286
 30
0.0
 10
225.2722429839028
 20
123.851963648256
 30
0.0
 10
225.2743154042641
 20
123.8859983016359
 30
0.0
  0
LINE
  5
172
330
1F
100
AcDbEntity
  8
0
  6
Continuous
 62
     7
370
    18
100
AcDbLine
 10
224.5125678607
 20
123.6227082665
 30
0.0
 11
225.0036380038
 21
123.6227082665
 31
0.0
  0
LINE
  5
173
330
1F
100
AcDbEntity
  8
0
  6
Continuous
 62
     7
370
    18
100
AcDbLine
 10
224.5125678607
 20
124.1274332951
 30
0.0
 11
224.5125678607
 21
123.6227082665
 31
0.0
  0
LINE
  5
174
330
1F
100
AcDbEntity
  8
0
  6
Continuous
 62
     7
370
    18
100
AcDbLine
 10
224.9784595508
 20
124.1274332951
 30
0.0
 11
224.5125678607
 21
124.1274332951
 31
0.0
  0
SPLINE
  5
175
330
1F
100
AcDbEntity
  8
0
  6
Continuous
 62
     7
370
    18
100
AcDbSpline
210
0.0
220
0.0
230
1.0
 70
     8
 71
     3
 72
    14
 73
    10
 74
     0
 42
0.000000001
 43
0.00000001
 40
0.0
 40
0.0
 40
0.0
 40
0.0
 40
0.2575826845002086
 40
0.4580339644254271
 40
0.6128287983994989
 40
0.7093883131761942
 40
0.799802888308484
 40
0.8941338805613368
 40
1.0
 40
1.0
 40
1.0
 40
1.0
 10
231.894424272703
 20
122.9499703471963
 30
0.0
 10
231.9225015478862
 20
122.9428562835815
 30
0.0
 10
231.9724286060165
 20
122.9302060436517
 30
0.0
 10
232.0411152954227
 20
122.9226097269576
 30
0.0
 10
232.0923194167311
 20
122.9273026078723
 30
0.0
 10
232.1282470669768
 20
122.9424116333748
 30
0.0
 10
232.1523391970231
 20
122.9636525685894
 30
0.0
 10
232.1696482165838
 20
122.9918963140589
 30
0.0
 10
232.1759840793564
 20
123.0135495397824
 30
0.0
 10
232.1793345433035
 20
123.0249999696177
 30
0.0
  0
SPLINE
  5
176
330
1F
100
AcDbEntity
  8
0
  6
Continuous
 62
     7
370
    18
100
AcDbSpline
210
0.0
220
0.0
230
1.0
 70
     8
 71
     3
 72
    12
 73
     8
 74
     0
 42
0.000000001
 43
0.00000001
 40
0.0
 40
0.0
 40
0.0
 40
0.0
 40
0.2545415383352714
 40
0.4933538848768333
 40
0.6299818928893274
 40
0.7933578680691663
 40
1.0
 40
1.0
 40
1.0
 40
1.0
 10
231.6948028507
 20
123.2336162765427
 30
0.0
 10
231.6946481558972
 20
123.2009538273935
 30
0.0
 10
231.6943483255338
 20
123.1376472791468
 30
0.0
 10
231.7193421488516
 20
123.0574414343962
 30
0.0
 10
231.767399585688
 20
123.0062158626112
 30
0.0
 10
231.8235953606366
 20
122.9720916808602
 30
0.0
 10
231.8690432313188
 20
122.9578973711872
 30
0.0
 10
231.894424272703
 20
122.9499703471963
 30
0.0
  0
SPLINE
  5
177
330
1F
100
AcDbEntity
  8
0
  6
Continuous
 62
     7
370
    18
100
AcDbSpline
210
0.0
220
0.0
230
1.0
 70
     8
 71
     3
 72
    14
 73
    10
 74
     0
 42
0.000000001
 43
0.00000001
 40
0.0
 40
0.0
 40
0.0
 40
0.0
 40
0.0123761948722826
 40
0.0260544786030459
 40
0.0423069896659047
 40
0.1107691877094741
 40
0.3353734156282152
 40
0.6465637489690634
 40
1.0
 40
1.0
 40
1.0
 40
1.0
 10
232.1793345433035
 20
123.0249999696177
 30
0.0
 10
232.1796007827728
 20
123.0272365896011
 30
0.0
 10
232.1801612725378
 20
123.0319451424398
 30
0.0
 10
232.177319884836
 20
123.0392509855915
 30
0.0
 10
232.1671965140246
 20
123.0537858261687
 30
0.0
 10
232.120825486069
 20
123.086562982189
 30
0.0
 10
232.0211124842117
 20
123.1290753531551
 30
0.0
 10
231.8701717891973
 20
123.1818975413841
 30
0.0
 10
231.7556848886395
 20
123.2156613181385
 30
0.0
 10
231.6948028507
 20
123.2336162765427
 30
0.0
  0
LINE
  5
178
330
1F
100
AcDbEntity
  8
0
  6
Continuous
 62
     7
370
    18
100
AcDbLine
 10
231.1712933234
 20
123.2376260445
 30
0.0
 11
231.681003469
 21
123.2376260445
 31
0.0
  0
SPLINE
  5
179
330
1F
100
AcDbEntity
  8
0
  6
Continuous
 62
     7
370
    18
100
AcDbSpline
210
0.0
220
0.0
230
1.0
 70
     8
 71
     3
 72
    11
 73
     7
 74
     0
 42
0.000000001
 43
0.00000001
 40
0.0
 40
0.0
 40
0.0
 40
0.0
 40
0.2403133392799487
 40
0.5276554281052314
 40
0.7630136347472218
 40
1.0
 40
1.0
 40
1.0
 40
1.0
 10
230.9555605814508
 20
123.5786188807484
 30
0.0
 10
230.9822564291981
 20
123.5583110457886
 30
0.0
 10
231.0408724386711
 20
123.513721180816
 30
0.0
 10
231.1085537586513
 20
123.4309618191506
 30
0.0
 10
231.160305405779
 20
123.3366589984198
 30
0.0
 10
231.1676222771986
 20
123.2707128007235
 30
0.0
 10
231.1712933234346
 20
123.23762604452
 30
0.0
  0
SPLINE
  5
17A
330
1F
100
AcDbEntity
  8
0
  6
Continuous
 62
     7
370
    18
100
AcDbSpline
210
0.0
220
0.0
230
1.0
 70
     8
 71
     3
 72
    10
 73
     6
 74
     0
 42
0.000000001
 43
0.00000001
 40
0.0
 40
0.0
 40
0.0
 40
0.0
 40
0.3052209345869937
 40
0.5892711010915017
 40
0.9999999999999999
 40
0.9999999999999999
 40
0.9999999999999999
 40
0.9999999999999999
 10
231.0808748617492
 20
123.7595641762267
 30
0.0
 10
231.0733738720676
 20
123.7380184647517
 30
0.0
 10
231.0588921771769
 20
123.6964214978139
 30
0.0
 10
231.011966900689
 20
123.6379021710802
 30
0.0
 10
230.9765171969976
 20
123.6006443761293
 30
0.0
 10
230.9555605814508
 20
123.5786188807484
 30
0.0
  0
SPLINE
  5
17B
330
1F
100
AcDbEntity
  8
0
  6
Continuous
 62
     7
370
    18
100
AcDbSpline
210
0.0
220
0.0
230
1.0
 70
     8
 71
     3
 72
    11
 73
     7
 74
     0
 42
0.000000001
 43
0.00000001
 40
0.0
 40
0.0
 40
0.0
 40
0.0
 40
0.3113820865694061
 40
0.5952152429024645
 40
0.7995709864930258
 40
1.0
 40
1.0
 40
1.0
 40
1.0
 10
231.5819152387275
 20
123.2654776761459
 30
0.0
 10
231.5076113639992
 20
123.2907852282617
 30
0.0
 10
231.3655775067137
 20
123.3391612955746
 30
0.0
 10
231.203550653134
 20
123.4622348466203
 30
0.0
 10
231.0996633563069
 20
123.6067868951287
 30
0.0
 10
231.0870970589502
 20
123.7089688308727
 30
0.0
 10
231.0808748617492
 20
123.7595641762267
 30
0.0
  0
SPLINE
  5
17C
330
1F
100
AcDbEntity
  8
0
  6
Continuous
 62
     7
370
    18
100
AcDbSpline
210
0.0
220
0.0
230
1.0
 70
     8
 71
     3
 72
     9
 73
     5
 74
     0
 42
0.000000001
 43
0.00000001
 40
0.0
 40
0.0
 40
0.0
 40
0.0
 40
0.5632377239369403
 40
0.9999999999999999
 40
0.9999999999999999
 40
0.9999999999999999
 40
0.9999999999999999
 10
231.6810034690125
 20
123.23762604452
 30
0.0
 10
231.6624172533282
 20
123.2429163141771
 30
0.0
 10
231.629418370451
 20
123.2523089195233
 30
0.0
 10
231.5963557458854
 20
123.2614744974633
 30
0.0
 10
231.5819152387275
 20
123.2654776761459
 30
0.0
  0
SPLINE
  5
17D
330
1F
100
AcDbEntity
  8
0
  6
Continuous
 62
     7
370
    18
100
AcDbSpline
210
0.0
220
0.0
230
1.0
 70
     8
 71
     3
 72
    13
 73
     9
 74
     0
 42
0.000000001
 43
0.00000001
 40
0.0
 40
0.0
 40
0.0
 40
0.0
 40
0.2070940199890577
 40
0.397864964662673
 40
0.5739369280037263
 40
0.7077750174858435
 40
0.8462504046616482
 40
1.0
 40
1.0
 40
1.0
 40
1.0
 10
230.3175378606006
 20
122.4583583435699
 30
0.0
 10
230.3889768528898
 20
122.4608248991081
 30
0.0
 10
230.5262240420853
 20
122.4655635971741
 30
0.0
 10
230.719980088037
 20
122.5119930303499
 30
0.0
 10
230.8762639520686
 20
122.5904690466104
 30
0.0
 10
230.9894920257018
 20
122.6980003365403
 30
0.0
 10
231.06579629625
 20
122.8265726799415
 30
0.0
 10
231.0859731053838
 20
122.9258208523559
 30
0.0
 10
231.0965888173358
 20
122.9780387230372
 30
0.0
  0
LINE
  5
17E
330
1F
100
AcDbEntity
  8
0
  6
Continuous
 62
     7
370
    18
100
AcDbLine
 10
228.8390171981
 20
122.4583583436
 30
0.0
 11
230.3175378606
 21
122.4583583436
 31
0.0
  0
LINE
  5
17F
330
1F
100
AcDbEntity
  8
0
  6
Continuous
 62
     7
370
    18
100
AcDbLine
 10
228.6884160927
 20
122.8017895522
 30
0.0
 11
228.8390171981
 21
122.4583583436
 31
0.0
  0
LINE
  5
180
330
1F
100
AcDbEntity
  8
0
  6
Continuous
 62
     7
370
    18
100
AcDbLine
 10
228.0350045326
 20
122.8017895522
 30
0.0
 11
228.6884160927
 21
122.8017895522
 31
0.0
  0
LINE
  5
181
330
1F
100
AcDbEntity
  8
0
  6
Continuous
 62
     7
370
    18
100
AcDbLine
 10
227.8814412563
 20
122.4611398943
 30
0.0
 11
228.0350045326
 21
122.8017895522
 31
0.0
  0
LINE
  5
182
330
1F
100
AcDbEntity
  8
0
  6
Continuous
 62
     7
370
    18
100
AcDbLine
 10
226.012022402
 20
122.4611398943
 30
0.0
 11
227.8814412563
 21
122.4611398943
 31
0.0
  0
LINE
  5
183
330
1F
100
AcDbEntity
  8
0
  6
Continuous
 62
     7
370
    18
100
AcDbLine
 10
226.012022402
 20
124.4813765982
 30
0.0
 11
226.012022402
 21
122.4611398943
 31
0.0
  0
LINE
  5
184
330
1F
100
AcDbEntity
  8
0
  6
Continuous
 62
     7
370
    18
100
AcDbLine
 10
226.5390720848
 20
124.4813765982
 30
0.0
 11
226.012022402
 21
124.4813765982
 31
0.0
  0
LINE
  5
185
330
1F
100
AcDbEntity
  8
0
  6
Continuous
 62
     7
370
    18
100
AcDbLine
 10
226.5390720848
 20
122.9181089476
 30
0.0
 11
226.5390720848
 21
124.4813765982
 31
0.0
  0
LINE
  5
186
330
1F
100
AcDbEntity
  8
0
  6
Continuous
 62
     7
370
    18
100
AcDbLine
 10
227.5085328344
 20
122.9181089476
 30
0.0
 11
226.5390720848
 21
122.9181089476
 31
0.0
  0
LINE
  5
187
330
1F
100
AcDbEntity
  8
0
  6
Continuous
 62
     7
370
    18
100
AcDbLine
 10
228.0967766338
 20
124.4813765982
 30
0.0
 11
227.5085328344
 21
122.9181089476
 31
0.0
  0
LINE
  5
188
330
1F
100
AcDbEntity
  8
0
  6
Continuous
 62
     7
370
    18
100
AcDbLine
 10
228.632243217
 20
124.4813765982
 30
0.0
 11
228.0967766338
 21
124.4813765982
 31
0.0
  0
LINE
  5
189
330
1F
100
AcDbEntity
  8
0
  6
Continuous
 62
     7
370
    18
100
AcDbLine
 10
229.3457651727
 20
122.5979777421
 30
0.0
 11
228.632243217
 21
124.4813765982
 31
0.0
  0
LINE
  5
18A
330
1F
100
AcDbEntity
  8
0
  6
Continuous
 62
     7
370
    18
100
AcDbLine
 10
229.3457651727
 20
124.4813765982
 30
0.0
 11
229.3457651727
 21
122.5979777421
 31
0.0
  0
LINE
  5
18B
330
1F
100
AcDbEntity
  8
0
  6
Continuous
 62
     7
370
    18
100
AcDbLine
 10
230.2919981673
 20
124.4813765982
 30
0.0
 11
229.3457651727
 21
124.4813765982
 31
0.0
  0
SPLINE
  5
18C
330
1F
100
AcDbEntity
  8
0
  6
Continuous
 62
     7
370
    18
100
AcDbSpline
210
0.0
220
0.0
230
1.0
 70
     8
 71
     3
 72
    14
 73
    10
 74
     0
 42
0.000000001
 43
0.00000001
 40
0.0
 40
0.0
 40
0.0
 40
0.0
 40
0.1423816612635872
 40
0.2654010250778283
 40
0.380208570789927
 40
0.495320128909934
 40
0.6562432766114725
 40
0.8263515868701821
 40
1.0
 40
1.0
 40
1.0
 40
1.0
 10
231.0229680323118
 20
123.976272267178
 30
0.0
 10
231.0201441710682
 20
124.024375177908
 30
0.0
 10
231.014880461809
 20
124.1140395469263
 30
0.0
 10
230.9642999933085
 20
124.234282767638
 30
0.0
 10
230.8870776997901
 20
124.3264840678286
 30
0.0
 10
230.7770728484664
 20
124.4010069912793
 30
0.0
 10
230.6345179618242
 20
124.452124703567
 30
0.0
 10
230.466212185811
 20
124.4796073566364
 30
0.0
 10
230.3504668327871
 20
124.4807828159342
 30
0.0
 10
230.291998167268
 20
124.4813765981874
 30
0.0
  0
SPLINE
  5
18D
330
1F
100
AcDbEntity
  8
0
  6
Continuous
 62
     7
370
    18
100
AcDbSpline
210
0.0
220
0.0
230
1.0
 70
     8
 71
     3
 72
    11
 73
     7
 74
     0
 42
0.000000001
 43
0.00000001
 40
0.0
 40
0.0
 40
0.0
 40
0.0
 40
0.2840562052455269
 40
0.5588619016419695
 40
0.775099383828571
 40
1.0
 40
1.0
 40
1.0
 40
1.0
 10
230.7566255161286
 20
123.5699671741668
 30
0.0
 10
230.7985316881117
 20
123.5948217449322
 30
0.0
 10
230.8809793253489
 20
123.6437214782453
 30
0.0
 10
230.96491816566
 20
123.7490364088574
 30
0.0
 10
231.0145484323131
 20
123.8623784875393
 30
0.0
 10
231.0201249945329
 20
123.9378138703009
 30
0.0
 10
231.0229680323118
 20
123.976272267178
 30
0.0
  0
SPLINE
  5
18E
330
1F
100
AcDbEntity
  8
0
  6
Continuous
 62
     7
370
    18
100
AcDbSpline
210
0.0
220
0.0
230
1.0
 70
     8
 71
     3
 72
    11
 73
     7
 74
     0
 42
0.000000001
 43
0.00000001
 40
0.0
 40
0.0
 40
0.0
 40
0.0
 40
0.2849839497112128
 40
0.5578557580525033
 40
0.7738896021956504
 40
1.0
 40
1.0
 40
1.0
 40
1.0
 10
231.1026215313195
 20
123.1438480475023
 30
0.0
 10
231.0929238964303
 20
123.1988984789093
 30
0.0
 10
231.0739407871431
 20
123.3066596358965
 30
0.0
 10
230.9875835956237
 20
123.4345465944297
 30
0.0
 10
230.8792738973722
 20
123.5247791867123
 30
0.0
 10
230.7981247779719
 20
123.5546773831029
 30
0.0
 10
230.7566255161286
 20
123.5699671741668
 30
0.0
  0
LINE
  5
18F
330
1F
100
AcDbEntity
  8
0
  6
Continuous
 62
     7
370
    18
100
AcDbLine
 10
231.606371211
 20
123.1438480475
 30
0.0
 11
231.1026215313
 21
123.1438480475
 31
0.0
  0
SPLINE
  5
190
330
1F
100
AcDbEntity
  8
0
  6
Continuous
 62
     7
370
    18
100
AcDbSpline
210
0.0
220
0.0
230
1.0
 70
     8
 71
     3
 72
    12
 73
     8
 74
     0
 42
0.000000001
 43
0.00000001
 40
0.0
 40
0.0
 40
0.0
 40
0.0
 40
0.3029848175181628
 40
0.5555954840373158
 40
0.6861253068640352
 40
0.8302562633026848
 40
1.0
 40
1.0
 40
1.0
 40
1.0
 10
231.9887802542941
 20
122.8306165328102
 30
0.0
 10
231.9319160557054
 20
122.8328853108408
 30
0.0
 10
231.8276418805237
 20
122.837045660651
 30
0.0
 10
231.7067510829968
 20
122.8960480760883
 30
0.0
 10
231.6453863875071
 20
122.9749983830379
 30
0.0
 10
231.6147379973167
 20
123.0535192738966
 30
0.0
 10
231.6093078434385
 20
123.1121438306709
 30
0.0
 10
231.6063712109852
 20
123.1438480475023
 30
0.0
  0
SPLINE
  5
191
330
1F
100
AcDbEntity
  8
0
  6
Continuous
 62
     7
370
    18
100
AcDbSpline
210
0.0
220
0.0
230
1.0
 70
     8
 71
     3
 72
    12
 73
     8
 74
     0
 42
0.000000001
 43
0.00000001
 40
0.0
 40
0.0
 40
0.0
 40
0.0
 40
0.1228977808113465
 40
0.2361517003655371
 40
0.4654549568724354
 40
0.7229435422785242
 40
0.9999999999999999
 40
0.9999999999999999
 40
0.9999999999999999
 40
0.9999999999999999
 10
232.3118013826964
 20
123.0366680331912
 30
0.0
 10
232.3104801306299
 20
123.0191419243949
 30
0.0
 10
232.3079413059247
 20
122.9854649908838
 30
0.0
 10
232.2781309105318
 20
122.9248103058817
 30
0.0
 10
232.2088846126844
 20
122.869799080712
 30
0.0
 10
232.1041154911084
 20
122.8363789456246
 30
0.0
 10
232.0281522516706
 20
122.8325836480516
 30
0.0
 10
231.9887802542941
 20
122.8306165328102
 30
0.0
  0
SPLINE
  5
192
330
1F
100
AcDbEntity
  8
0
  6
Continuous
 62
     7
370
    18
100
AcDbSpline
210
0.0
220
0.0
230
1.0
 70
     8
 71
     3
 72
    12
 73
     8
 74
     0
 42
0.000000001
 43
0.00000001
 40
0.0
 40
0.0
 40
0.0
 40
0.0
 40
0.3210306919457598
 40
0.6029592976098698
 40
0.8214028303124049
 40
0.9104117121954224
 40
1.0
 40
1.0
 40
1.0
 40
1.0
 10
231.730963010567
 20
123.330067452212
 30
0.0
 10
231.8023381062095
 20
123.3116746790077
 30
0.0
 10
231.9363946890073
 20
123.2771294037721
 30
0.0
 10
232.1179788631095
 20
123.2291546836701
 30
0.0
 10
232.2439607300835
 20
123.1720500441897
 30
0.0
 10
232.3044462007622
 20
123.098984883697
 30
0.0
 10
232.3093443585082
 20
123.0574851945332
 30
0.0
 10
232.3118013826964
 20
123.0366680331912
 30
0.0
  0
SPLINE
  5
193
330
1F
100
AcDbEntity
  8
0
  6
Continuous
 62
     7
370
    18
100
AcDbSpline
210
0.0
220
0.0
230
1.0
 70
     8
 71
     3
 72
    12
 73
     8
 74
     0
 42
0.000000001
 43
0.00000001
 40
0.0
 40
0.0
 40
0.0
 40
0.0
 40
0.2059303301559971
 40
0.3857152088822362
 40
0.5622731912300346
 40
0.7785006333333745
 40
1.0
 40
1.0
 40
1.0
 40
1.0
 10
231.1388539392582
 20
123.9113934988252
 30
0.0
 10
231.1438227809826
 20
123.8489936528703
 30
0.0
 10
231.1531296073358
 20
123.7321164080349
 30
0.0
 10
231.2419556370561
 20
123.5821819569087
 30
0.0
 10
231.3742232782403
 20
123.4694480626201
 30
0.0
 10
231.5413153252042
 20
123.3873881680487
 30
0.0
 10
231.6672415690302
 20
123.3493271581032
 30
0.0
 10
231.730963010567
 20
123.330067452212
 30
0.0
  0
SPLINE
  5
194
330
1F
100
AcDbEntity
  8
0
  6
Continuous
 62
     7
370
    18
100
AcDbSpline
210
0.0
220
0.0
230
1.0
 70
     8
 71
     3
 72
    14
 73
    10
 74
     0
 42
0.000000001
 43
0.00000001
 40
0.0
 40
0.0
 40
0.0
 40
0.0
 40
0.1687571149027776
 40
0.3389805425085095
 40
0.5046286467510799
 40
0.6247827513896844
 40
0.7433698504427163
 40
0.8656643973442318
 40
1.0
 40
1.0
 40
1.0
 40
1.0
 10
231.9632766849973
 20
124.5236597821278
 30
0.0
 10
231.8987410986694
 20
124.5208315604767
 30
0.0
 10
231.7691091831372
 20
124.515150543056
 30
0.0
 10
231.5806258467274
 20
124.4688467463763
 30
0.0
 10
231.4204944385887
 20
124.3969415156406
 30
0.0
 10
231.2962388533412
 20
124.3029475423974
 30
0.0
 10
231.2084159008503
 20
124.1949683794492
 30
0.0
 10
231.1491325409542
 20
124.061411248243
 30
0.0
 10
231.1423856607593
 20
123.9629395093466
 30
0.0
 10
231.1388539392582
 20
123.9113934988252
 30
0.0
  0
SPLINE
  5
195
330
1F
100
AcDbEntity
  8
0
  6
Continuous
 62
     7
370
    18
100
AcDbSpline
210
0.0
220
0.0
230
1.0
 70
     8
 71
     3
 72
    12
 73
     8
 74
     0
 42
0.000000001
 43
0.00000001
 40
0.0
 40
0.0
 40
0.0
 40
0.0
 40
0.1993974480574488
 40
0.3779257523812734
 40
0.5550669356786548
 40
0.7731143074051408
 40
1.0
 40
1.0
 40
1.0
 40
1.0
 10
232.773647180798
 20
123.8747276024565
 30
0.0
 10
232.7662602868901
 20
123.9524794365632
 30
0.0
 10
232.7522596190526
 20
124.0998455171728
 30
0.0
 10
232.6321319216918
 20
124.2868620029872
 30
0.0
 10
232.4533150008878
 20
124.4226241773569
 30
0.0
 10
232.2236023273661
 20
124.5081404175222
 30
0.0
 10
232.0511934974724
 20
124.5184186039812
 30
0.0
 10
231.9632766849973
 20
124.5236597821278
 30
0.0
  0
LINE
  5
196
330
1F
100
AcDbEntity
  8
0
  6
Continuous
 62
     7
370
    18
100
AcDbLine
 10
232.2466697461
 20
123.8747276025
 30
0.0
 11
232.7736471808
 21
123.8747276025
 31
0.0
  0
SPLINE
  5
197
330
1F
100
AcDbEntity
  8
0
  6
Continuous
 62
     7
370
    18
100
AcDbSpline
210
0.0
220
0.0
230
1.0
 70
     8
 71
     3
 72
    13
 73
     9
 74
     0
 42
0.000000001
 43
0.00000001
 40
0.0
 40
0.0
 40
0.0
 40
0.0
 40
0.2626041787201647
 40
0.5099839566452393
 40
0.6263386331431423
 40
0.7414049134888157
 40
0.8625801387792016
 40
1.0
 40
1.0
 40
1.0
 40
1.0
 10
231.920758694824
 20
124.1173546891166
 30
0.0
 10
231.9611012524298
 20
124.1153346559146
 30
0.0
 10
232.0394475196115
 20
124.1114117003473
 30
0.0
 10
232.1321823331724
 20
124.0784911369546
 30
0.0
 10
232.1914319212261
 20
124.0339508887444
 30
0.0
 10
232.2248172919853
 20
123.9905305783386
 30
0.0
 10
232.2456720656364
 20
123.9358820710813
 30
0.0
 10
232.2463235442369
 20
123.8959486160561
 30
0.0
 10
232.2466697460928
 20
123.8747276024565
 30
0.0
  0
SPLINE
  5
198
330
1F
100
AcDbEntity
  8
0
  6
Continuous
 62
     7
370
    18
100
AcDbSpline
210
0.0
220
0.0
230
1.0
 70
     8
 71
     3
 72
    12
 73
     8
 74
     0
 42
0.000000001
 43
0.00000001
 40
0.0
 40
0.0
 40
0.0
 40
0.0
 40
0.1338350776842971
 40
0.2542572338768617
 40
0.4899325118164021
 40
0.7434916633797841
 40
0.9999999999999999
 40
0.9999999999999999
 40
0.9999999999999999
 40
0.9999999999999999
 10
231.6659036220351
 20
123.9452597824169
 30
0.0
 10
231.667011607534
 20
123.9606363106329
 30
0.0
 10
231.6691165364735
 20
123.9898483348531
 30
0.0
 10
231.6939204921403
 20
124.0415049721405
 30
0.0
 10
231.7505150758714
 20
124.0868362061021
 30
0.0
 10
231.8330209902952
 20
124.1128799705711
 30
0.0
 10
231.8914002779272
 20
124.1158573778607
 30
0.0
 10
231.920758694824
 20
124.1173546891166
 30
0.0
  0
SPLINE
  5
199
330
1F
100
AcDbEntity
  8
0
  6
Continuous
 62
     7
370
    18
100
AcDbSpline
210
0.0
220
0.0
230
1.0
 70
     8
 71
     3
 72
    12
 73
     8
 74
     0
 42
0.000000001
 43
0.00000001
 40
0.0
 40
0.0
 40
0.0
 40
0.0
 40
0.3295920737084764
 40
0.6175980183821557
 40
0.8358975487564522
 40
0.9197397490046714
 40
1.0
 40
1.0
 40
1.0
 40
1.0
 10
232.2523050956825
 20
123.6799648632727
 30
0.0
 10
232.1803081143989
 20
123.6981299022264
 30
0.0
 10
232.0453983379899
 20
123.7321680146585
 30
0.0
 10
231.8629164894134
 20
123.7765594298036
 30
0.0
 10
231.7372506038975
 20
123.8252790035932
 30
0.0
 10
231.6739145145446
 20
123.8894551671953
 30
0.0
 10
231.6685347774349
 20
123.9269309115076
 30
0.0
 10
231.6659036220351
 20
123.9452597824169
 30
0.0
  0
SPLINE
  5
19A
330
1F
100
AcDbEntity
  8
0
  6
Continuous
 62
     7
370
    18
100
AcDbSpline
210
0.0
220
0.0
230
1.0
 70
     8
 71
     3
 72
    12
 73
     8
 74
     0
 42
0.000000001
 43
0.00000001
 40
0.0
 40
0.0
 40
0.0
 40
0.0
 40
0.204537882118415
 40
0.3838943514216871
 40
0.5601975822227048
 40
0.776616796224273
 40
1.0
 40
1.0
 40
1.0
 40
1.0
 10
232.8387788174016
 20
123.0987291267492
 30
0.0
 10
232.8339148585735
 20
123.1603556473567
 30
0.0
 10
232.8247857608225
 20
123.2760216203978
 30
0.0
 10
232.7381142013418
 20
123.4252394865061
 30
0.0
 10
232.6080389865681
 20
123.5388715477669
 30
0.0
 10
232.4420909187607
 20
123.6224914570366
 30
0.0
 10
232.3162313386718
 20
123.6606058886513
 30
0.0
 10
232.2523050956825
 20
123.6799648632727
 30
0.0
  0
SPLINE
  5
19B
330
1F
100
AcDbEntity
  8
0
  6
Continuous
 62
     7
370
    18
100
AcDbSpline
210
0.0
220
0.0
230
1.0
 70
     8
 71
     3
 72
    13
 73
     9
 74
     0
 42
0.000000001
 43
0.00000001
 40
0.0
 40
0.0
 40
0.0
 40
0.0
 40
0.1943984829390965
 40
0.3808229110812413
 40
0.5574598692554736
 40
0.6939226743571314
 40
0.8373010797229414
 40
1.0
 40
1.0
 40
1.0
 40
1.0
 10
231.9575690873359
 20
122.3982840719827
 30
0.0
 10
232.039810614744
 20
122.4019613068666
 30
0.0
 10
232.2009201944372
 20
122.4091649396936
 30
0.0
 10
232.429683361812
 20
122.4739453496681
 30
0.0
 10
232.6154205836623
 20
122.5808464036206
 30
0.0
 10
232.7459758107449
 20
122.7261110060717
 30
0.0
 10
232.8256672755857
 20
122.8997312451955
 30
0.0
 10
232.8342281736453
 20
123.0296626142114
 30
0.0
 10
232.8387788174016
 20
123.0987291267492
 30
0.0
  0
SPLINE
  5
19C
330
1F
100
AcDbEntity
  8
0
  6
Continuous
 62
     7
370
    18
100
AcDbSpline
210
0.0
220
0.0
230
1.0
 70
     8
 71
     3
 72
    12
 73
     8
 74
     0
 42
0.000000001
 43
0.00000001
 40
0.0
 40
0.0
 40
0.0
 40
0.0
 40
0.1886637132768492
 40
0.3661825608804957
 40
0.5448728808046025
 40
0.7656579321773197
 40
1.0
 40
1.0
 40
1.0
 40
1.0
 10
231.0965888173358
 20
122.9780387230372
 30
0.0
 10
231.116824405763
 20
122.9095225160665
 30
0.0
 10
231.1561002127665
 20
122.7765375361008
 30
0.0
 10
231.2894062326744
 20
122.6147323545
 30
0.0
 10
231.4699860862214
 20
122.4921030858113
 30
0.0
 10
231.6982775892453
 20
122.4125306697086
 30
0.0
 10
231.869439107091
 20
122.4031263147303
 30
0.0
 10
231.9575690873359
 20
122.3982840719827
 30
0.0
  0
LINE
  5
19D
330
1F
100
AcDbEntity
  8
0
  6
Continuous
 62
     7
370
    18
100
AcDbLine
 10
228.6651160896
 20
123.1405607602
 30
0.0
 11
228.4096830322
 21
123.9491069922
 31
0.0
  0
LINE
  5
19E
330
1F
100
AcDbEntity
  8
0
  6
Continuous
 62
     7
370
    18
100
AcDbLine
 10
228.4096830322
 20
123.9491069922
 30
0.0
 11
228.3273924786
 21
123.9491069922
 31
0.0
  0
LINE
  5
19F
330
1F
100
AcDbEntity
  8
0
  6
Continuous
 62
     7
370
    18
100
AcDbLine
 10
228.3273924786
 20
123.9491069922
 30
0.0
 11
228.0631812805
 21
123.1405607602
 31
0.0
  0
LINE
  5
1A0
330
1F
100
AcDbEntity
  8
0
  6
Continuous
 62
     7
370
    18
100
AcDbLine
 10
228.0631812805
 20
123.1405607602
 30
0.0
 11
228.6651160896
 21
123.1405607602
 31
0.0
  0
LINE
  5
1A1
330
1F
100
AcDbEntity
  8
0
  6
Continuous
 62
     7
370
    18
100
AcDbLine
 10
229.8260342291
 20
123.6110582649
 30
0.0
 11
230.2950687103
 21
123.6110582649
 31
0.0
  0
SPLINE
  5
1A2
330
1F
100
AcDbEntity
  8
0
  6
Continuous
 62
     7
370
    18
100
AcDbSpline
210
0.0
220
0.0
230
1.0
 70
     8
 71
     3
 72
    12
 73
     8
 74
     0
 42
0.000000001
 43
0.00000001
 40
0.0
 40
0.0
 40
0.0
 40
0.0
 40
0.242466320512141
 40
0.5040777209641408
 40
0.6506173645415592
 40
0.8119564965868009
 40
1.0
 40
1.0
 40
1.0
 40
1.0
 10
230.2950687103136
 20
123.6110582649248
 30
0.0
 10
230.3265369088254
 20
123.6140512873922
 30
0.0
 10
230.3919580269219
 20
123.6202736606314
 30
0.0
 10
230.4675349420603
 20
123.6653536014832
 30
0.0
 10
230.5136685132541
 20
123.7235962132354
 30
0.0
 10
230.5385208245755
 20
123.7840919426154
 30
0.0
 10
230.5412370555665
 20
123.8294757703402
 30
0.0
 10
230.5426989759364
 20
123.8539020957999
 30
0.0
  0
SPLINE
  5
1A3
330
1F
100
AcDbEntity
  8
0
  6
Continuous
 62
     7
370
    18
100
AcDbSpline
210
0.0
220
0.0
230
1.0
 70
     8
 71
     3
 72
    12
 73
     8
 74
     0
 42
0.000000001
 43
0.00000001
 40
0.0
 40
0.0
 40
0.0
 40
0.0
 40
0.23250610395507
 40
0.4222580038951598
 40
0.5928278045028524
 40
0.7922143842709269
 40
1.0
 40
1.0
 40
1.0
 40
1.0
 10
230.5426989759364
 20
123.8539020957999
 30
0.0
 10
230.5408772793214
 20
123.8847720178317
 30
0.0
 10
230.537568867356
 20
123.9408353703022
 30
0.0
 10
230.5033565844897
 20
124.0136363656187
 30
0.0
 10
230.4486835981471
 20
124.0654159348981
 30
0.0
 10
230.3765079006345
 20
124.0956499012383
 30
0.0
 10
230.3225858700218
 20
124.0987674181579
 30
0.0
 10
230.2950687103136
 20
124.100358330258
 30
0.0
  0
LINE
  5
1A4
330
1F
100
AcDbEntity
  8
0
  6
Continuous
 62
     7
370
    18
100
AcDbLine
 10
230.2950687103
 20
124.1003583303
 30
0.0
 11
229.8260342291
 21
124.1003583303
 31
0.0
  0
LINE
  5
1A5
330
1F
100
AcDbEntity
  8
0
  6
Continuous
 62
     7
370
    18
100
AcDbLine
 10
229.8260342291
 20
124.1003583303
 30
0.0
 11
229.8260342291
 21
123.6110582649
 31
0.0
  0
LINE
  5
1A6
330
1F
100
AcDbEntity
  8
0
  6
Continuous
 62
     7
370
    18
100
AcDbLine
 10
229.8260342291
 20
122.8131686235
 30
0.0
 11
230.3470150738
 21
122.8131686235
 31
0.0
  0
SPLINE
  5
1A7
330
1F
100
AcDbEntity
  8
0
  6
Continuous
 62
     7
370
    18
100
AcDbSpline
210
0.0
220
0.0
230
1.0
 70
     8
 71
     3
 72
    12
 73
     8
 74
     0
 42
0.000000001
 43
0.00000001
 40
0.0
 40
0.0
 40
0.0
 40
0.0
 40
0.2382584506409018
 40
0.4976556531040064
 40
0.6448887038896378
 40
0.8084522641844554
 40
1.0
 40
1.0
 40
1.0
 40
1.0
 10
230.3470150738389
 20
122.8131686235037
 30
0.0
 10
230.3820076163389
 20
122.8166375794372
 30
0.0
 10
230.4550973075745
 20
122.8238832638024
 30
0.0
 10
230.538959023538
 20
122.8762027033114
 30
0.0
 10
230.5898745447944
 20
122.9431562025836
 30
0.0
 10
230.6173428009656
 20
123.012795809388
 30
0.0
 10
230.6203389706781
 20
123.0649576026541
 30
0.0
 10
230.6219551105499
 20
123.0930937771595
 30
0.0
  0
SPLINE
  5
1A8
330
1F
100
AcDbEntity
  8
0
  6
Continuous
 62
     7
370
    18
100
AcDbSpline
210
0.0
220
0.0
230
1.0
 70
     8
 71
     3
 72
    12
 73
     8
 74
     0
 42
0.000000001
 43
0.00000001
 40
0.0
 40
0.0
 40
0.0
 40
0.0
 40
0.2366945835519308
 40
0.4286648826954234
 40
0.5991110185125298
 40
0.7959723284782185
 40
1.0
 40
1.0
 40
1.0
 40
1.0
 10
230.6219551105499
 20
123.0930937771595
 30
0.0
 10
230.6199416832544
 20
123.1286276593225
 30
0.0
 10
230.6162952729204
 20
123.192981170081
 30
0.0
 10
230.5785702495255
 20
123.2767056463468
 30
0.0
 10
230.5180106146467
 20
123.3365266375631
 30
0.0
 10
230.4376681086588
 20
123.3716171225625
 30
0.0
 10
230.3775907366491
 20
123.3752274100297
 30
0.0
 10
230.3470150738389
 20
123.3770648228284
 30
0.0
  0
LINE
  5
1A9
330
1F
100
AcDbEntity
  8
0
  6
Continuous
 62
     7
370
    18
100
AcDbLine
 10
230.3470150738
 20
123.3770648228
 30
0.0
 11
229.8260342291
 21
123.3770648228
 31
0.0
  0
LINE
  5
1AA
330
1F
100
AcDbEntity
  8
0
  6
Continuous
 62
     7
370
    18
100
AcDbLine
 10
229.8260342291
 20
123.3770648228
 30
0.0
 11
229.8260342291
 21
122.8131686235
 31
0.0
  0
SPLINE
  5
1AB
330
1F
100
AcDbEntity
  8
0
  6
Continuous
 62
     7
370
    18
100
AcDbSpline
210
0.0
220
0.0
230
1.0
 70
     8
 71
     3
 72
    13
 73
     9
 74
     0
 42
0.000000001
 43
0.00000001
 40
0.0
 40
0.0
 40
0.0
 40
0.0
 40
0.5894795511906018
 40
0.8525979839264193
 40
0.9412877217975723
 40
0.9634735681078221
 40
0.9825903643577696
 40
1.0
 40
1.0
 40
1.0
 40
1.0
 10
231.9606757544174
 20
123.9834248262725
 30
0.0
 10
231.9229577110871
 20
123.9814968539144
 30
0.0
 10
231.8684039481345
 20
123.9787083172429
 30
0.0
 10
231.8098754804338
 20
123.9643081907482
 30
0.0
 10
231.7880348267733
 20
123.9534887280297
 30
0.0
 10
231.7821916705366
 20
123.9475649880827
 30
0.0
 10
231.7801409040393
 20
123.9443102030174
 30
0.0
 10
231.7798629435634
 20
123.9419686887225
 30
0.0
 10
231.7797304589391
 20
123.9408526500455
 30
0.0
  0
SPLINE
  5
1AC
330
1F
100
AcDbEntity
  8
0
  6
Continuous
 62
     7
370
    18
100
AcDbSpline
210
0.0
220
0.0
230
1.0
 70
     8
 71
     3
 72
    12
 73
     8
 74
     0
 42
0.000000001
 43
0.00000001
 40
0.0
 40
0.0
 40
0.0
 40
0.0
 40
0.1687932262470754
 40
0.3139712558223841
 40
0.4643534436981239
 40
0.6895611553267716
 40
1.0
 40
1.0
 40
1.0
 40
1.0
 10
232.1309644593256
 20
123.882331711999
 30
0.0
 10
232.1285046520722
 20
123.8945622771662
 30
0.0
 10
232.1239291795274
 20
123.9173122772128
 30
0.0
 10
232.105369612577
 20
123.9471806515056
 30
0.0
 10
232.0725749056557
 20
123.9687144026078
 30
0.0
 10
232.0228270414431
 20
123.9804723364764
 30
0.0
 10
231.9834798043596
 20
123.9823415224829
 30
0.0
 10
231.9606757544174
 20
123.9834248262725
 30
0.0
  0
SPLINE
  5
1AD
330
1F
100
AcDbEntity
  8
0
  6
Continuous
 62
     7
370
    18
100
AcDbSpline
210
0.0
220
0.0
230
1.0
 70
     8
 71
     3
 72
     9
 73
     5
 74
     0
 42
0.000000001
 43
0.00000001
 40
0.0
 40
0.0
 40
0.0
 40
0.0
 40
0.5915228225857646
 40
0.9999999999999999
 40
0.9999999999999999
 40
0.9999999999999999
 40
0.9999999999999999
 10
232.1362746925927
 20
123.7981988325482
 30
0.0
 10
232.1363458789604
 20
123.8148680982096
 30
0.0
 10
232.1364662232057
 20
123.8430483560543
 30
0.0
 10
232.1325600442712
 20
123.8709390145432
 30
0.0
 10
232.1309644593256
 20
123.882331711999
 30
0.0
  0
SPLINE
  5
1AE
330
1F
100
AcDbEntity
  8
0
  6
Continuous
 62
     7
370
    18
100
AcDbSpline
210
0.0
220
0.0
230
1.0
 70
     8
 71
     3
 72
    13
 73
     9
 74
     0
 42
0.000000001
 43
0.00000001
 40
0.0
 40
0.0
 40
0.0
 40
0.0
 40
0.0518958002713987
 40
0.1049388400652582
 40
0.1730026251899479
 40
0.2659228894279218
 40
0.5508780002890717
 40
0.9999999999999999
 40
0.9999999999999999
 40
0.9999999999999999
 40
0.9999999999999999
 10
231.7797304589391
 20
123.9408526500455
 30
0.0
 10
231.7803626933672
 20
123.9338332014956
 30
0.0
 10
231.7816411387749
 20
123.9196391282783
 30
0.0
 10
231.7966217818457
 20
123.9007254391464
 30
0.0
 10
231.8210799360674
 20
123.8857321275132
 30
0.0
 10
231.8764705576224
 20
123.8637741933592
 30
0.0
 10
231.9833527313865
 20
123.8363189728173
 30
0.0
 10
232.0782281504514
 20
123.8126685811121
 30
0.0
 10
232.1362746925927
 20
123.7981988325482
 30
0.0
  0
LINE
  5
1AF
330
1F
100
AcDbEntity
  8
0
  6
Continuous
 62
     7
370
    18
100
AcDbLine
 10
226.6548496196
 20
124.5922954502
 30
0.0
 11
225.8942219211
 21
124.5922954502
 31
0.0
  0
LINE
  5
1B0
330
1F
100
AcDbEntity
  8
0
  6
Continuous
 62
     7
370
    18
100
AcDbLine
 10
226.6548496196
 20
122.9973145624
 30
0.0
 11
226.6548496196
 21
124.5922954502
 31
0.0
  0
LINE
  5
1B1
330
1F
100
AcDbEntity
  8
0
  6
Continuous
 62
     7
370
    18
100
AcDbLine
 10
227.4211463974
 20
122.9973145624
 30
0.0
 11
226.6548496196
 21
122.9973145624
 31
0.0
  0
LINE
  5
1B2
330
1F
100
AcDbEntity
  8
0
  6
Continuous
 62
     7
370
    18
100
AcDbLine
 10
228.0331355323
 20
124.5922954502
 30
0.0
 11
227.4211463974
 21
122.9973145624
 31
0.0
  0
LINE
  5
1B3
330
1F
100
AcDbEntity
  8
0
  6
Continuous
 62
     7
370
    18
100
AcDbLine
 10
228.7244278271
 20
124.5922954502
 30
0.0
 11
228.0331355323
 21
124.5922954502
 31
0.0
  0
LINE
  5
1B4
330
1F
100
AcDbEntity
  8
0
  6
Continuous
 62
     7
370
    18
100
AcDbLine
 10
229.2411460357
 20
123.1980341012
 30
0.0
 11
228.7244278271
 21
124.5922954502
 31
0.0
  0
LINE
  5
1B5
330
1F
100
AcDbEntity
  8
0
  6
Continuous
 62
     7
370
    18
100
AcDbLine
 10
229.2411460357
 20
124.5922954502
 30
0.0
 11
229.2411460357
 21
123.1980341012
 31
0.0
  0
LINE
  5
1B6
330
1F
100
AcDbEntity
  8
0
  6
Continuous
 62
     7
370
    18
100
AcDbLine
 10
230.2292361491
 20
124.5922954502
 30
0.0
 11
229.2411460357
 21
124.5922954502
 31
0.0
  0
SPLINE
  5
1B7
330
1F
100
AcDbEntity
  8
0
  6
Continuous
 62
     7
370
    18
100
AcDbSpline
210
0.0
220
0.0
230
1.0
 70
     8
 71
     3
 72
    13
 73
     9
 74
     0
 42
0.000000001
 43
0.00000001
 40
0.0
 40
0.0
 40
0.0
 40
0.0
 40
0.112989412323011
 40
0.234903504206832
 40
0.3805358024040053
 40
0.5310429421797463
 40
0.731913786230743
 40
1.0
 40
1.0
 40
1.0
 40
1.0
 10
231.0983804512123
 20
124.1878326830232
 30
0.0
 10
231.0813581137831
 20
124.2226742207934
 30
0.0
 10
231.0459688978408
 20
124.2951093202058
 30
0.0
 10
230.9729159741647
 20
124.4051383914539
 30
0.0
 10
230.8546586471545
 20
124.4920819039537
 30
0.0
 10
230.6932180146833
 20
124.5508627142744
 30
0.0
 10
230.482537850149
 20
124.5869186474064
 30
0.0
 10
230.3213700801726
 20
124.5903397350399
 30
0.0
 10
230.2292361491142
 20
124.592295450207
 30
0.0
  0
SPLINE
  5
1B8
330
1F
100
AcDbEntity
  8
0
  6
Continuous
 62
     7
370
    18
100
AcDbSpline
210
0.0
220
0.0
230
1.0
 70
     8
 71
     3
 72
    12
 73
     8
 74
     0
 42
0.000000001
 43
0.00000001
 40
0.0
 40
0.0
 40
0.0
 40
0.0
 40
0.2577824677168405
 40
0.4746472252827225
 40
0.6603530347935911
 40
0.8468286435267817
 40
1.0
 40
1.0
 40
1.0
 40
1.0
 10
231.9551342090202
 20
124.6135725073115
 30
0.0
 10
231.8688728098494
 20
124.6095004111441
 30
0.0
 10
231.7100422496175
 20
124.6020025810392
 30
0.0
 10
231.4967036551549
 20
124.537348160259
 30
0.0
 10
231.3235372868562
 20
124.4422432435821
 30
0.0
 10
231.1887250714827
 20
124.3260663133941
 30
0.0
 10
231.1264601865389
 20
124.2307966552269
 30
0.0
 10
231.0983804512123
 20
124.1878326830232
 30
0.0
  0
SPLINE
  5
1B9
330
1F
100
AcDbEntity
  8
0
  6
Continuous
 62
     7
370
    18
100
AcDbSpline
210
0.0
220
0.0
230
1.0
 70
     8
 71
     3
 72
    15
 73
    11
 74
     0
 42
0.000000001
 43
0.00000001
 40
0.0
 40
0.0
 40
0.0
 40
0.0
 40
0.1009667219583008
 40
0.2110426783902178
 40
0.3263227887254707
 40
0.4481367482187079
 40
0.5538549368465843
 40
0.6756292865222512
 40
0.8215985201030968
 40
0.9999999999999999
 40
0.9999999999999999
 40
0.9999999999999999
 40
0.9999999999999999
 10
232.8864841008196
 20
123.7660665026764
 30
0.0
 10
232.885615054238
 20
123.8148945139394
 30
0.0
 10
232.8837985555476
 20
123.9169558077752
 30
0.0
 10
232.8595074601889
 20
124.0735050246716
 30
0.0
 10
232.8034628171647
 20
124.2331432979427
 30
0.0
 10
232.7074526034261
 20
124.371336838145
 30
0.0
 10
232.5749502852527
 20
124.4788129272016
 30
0.0
 10
232.4099345946927
 20
124.555595425191
 30
0.0
 10
232.1985044897304
 20
124.6055018113776
 30
0.0
 10
232.0414906519854
 20
124.6107087369651
 30
0.0
 10
231.9551342090202
 20
124.6135725073115
 30
0.0
  0
LINE
  5
1BA
330
1F
100
AcDbEntity
  8
0
  6
Continuous
 62
     7
370
    18
100
AcDbLine
 10
232.2699528234
 20
123.7660665027
 30
0.0
 11
232.8864841008
 21
123.7660665027
 31
0.0
  0
SPLINE
  5
1BB
330
1F
100
AcDbEntity
  8
0
  6
Continuous
 62
     7
370
    18
100
AcDbSpline
210
0.0
220
0.0
230
1.0
 70
     8
 71
     3
 72
     9
 73
     5
 74
     0
 42
0.000000001
 43
0.00000001
 40
0.0
 40
0.0
 40
0.0
 40
0.0
 40
0.5581053349214891
 40
1.0
 40
1.0
 40
1.0
 40
1.0
 10
232.285305538634
 20
123.7620567346991
 30
0.0
 10
232.2824527442977
 20
123.7628155370094
 30
0.0
 10
232.2773411745673
 20
123.7641751411251
 30
0.0
 10
232.2722171170751
 20
123.7654868607653
 30
0.0
 10
232.2699528234057
 20
123.7660665026764
 30
0.0
  0
SPLINE
  5
1BC
330
1F
100
AcDbEntity
  8
0
  6
Continuous
 62
     7
370
    18
100
AcDbSpline
210
0.0
220
0.0
230
1.0
 70
     8
 71
     3
 72
    12
 73
     8
 74
     0
 42
0.000000001
 43
0.00000001
 40
0.0
 40
0.0
 40
0.0
 40
0.0
 40
0.2081936773952725
 40
0.3823854809342378
 40
0.5475549960392785
 40
0.7576294387459017
 40
1.0
 40
1.0
 40
1.0
 40
1.0
 10
232.9290384186137
 20
123.0435687176545
 30
0.0
 10
232.9267189370282
 20
123.117539241377
 30
0.0
 10
232.9224587880521
 20
123.2533995357071
 30
0.0
 10
232.8470374761434
 20
123.4366855570954
 30
0.0
 10
232.7130564339329
 20
123.5815699267614
 30
0.0
 10
232.5199643592856
 20
123.6893942232835
 30
0.0
 10
232.3671609156749
 20
123.7367100750161
 30
0.0
 10
232.285305538634
 20
123.7620567346991
 30
0.0
  0
SPLINE
  5
1BD
330
1F
100
AcDbEntity
  8
0
  6
Continuous
 62
     7
370
    18
100
AcDbSpline
210
0.0
220
0.0
230
1.0
 70
     8
 71
     3
 72
    13
 73
     9
 74
     0
 42
0.000000001
 43
0.00000001
 40
0.0
 40
0.0
 40
0.0
 40
0.0
 40
0.2144903110109676
 40
0.4108455396423897
 40
0.5926499974110343
 40
0.7287207904635503
 40
0.8627130606487937
 40
1.0
 40
1.0
 40
1.0
 40
1.0
 10
231.9883480870034
 20
122.2732566754333
 30
0.0
 10
232.0851032027323
 20
122.2799306173628
 30
0.0
 10
232.2704328222731
 20
122.2927142217161
 30
0.0
 10
232.5228082998765
 20
122.3902537298896
 30
0.0
 10
232.7131365073172
 20
122.5272896558716
 30
0.0
 10
232.8398690642938
 20
122.6884707448808
 30
0.0
 10
232.9159894173955
 20
122.8589579544409
 30
0.0
 10
232.9246536759136
 20
122.9815355640957
 30
0.0
 10
232.9290384186137
 20
123.0435687176545
 30
0.0
  0
SPLINE
  5
1BE
330
1F
100
AcDbEntity
  8
0
  6
Continuous
 62
     7
370
    18
100
AcDbSpline
210
0.0
220
0.0
230
1.0
 70
     8
 71
     3
 72
    12
 73
     8
 74
     0
 42
0.000000001
 43
0.00000001
 40
0.0
 40
0.0
 40
0.0
 40
0.0
 40
0.1266166298736466
 40
0.2732454724470855
 40
0.4461934828620915
 40
0.6934352669522337
 40
1.0
 40
1.0
 40
1.0
 40
1.0
 10
231.0946934416743
 20
122.7106486098148
 30
0.0
 10
231.1138176376388
 20
122.6703215468013
 30
0.0
 10
231.1550886773648
 20
122.5832935837563
 30
0.0
 10
231.2702511303661
 20
122.4731332405871
 30
0.0
 10
231.4413605558842
 20
122.3709307214654
 30
0.0
 10
231.6869401522582
 20
122.2928124580416
 30
0.0
 10
231.8809513753702
 20
122.2802247293676
 30
0.0
 10
231.9883480870034
 20
122.2732566754333
 30
0.0
  0
SPLINE
  5
1BF
330
1F
100
AcDbEntity
  8
0
  6
Continuous
 62
     7
370
    18
100
AcDbSpline
210
0.0
220
0.0
230
1.0
 70
     8
 71
     3
 72
    11
 73
     7
 74
     0
 42
0.000000001
 43
0.00000001
 40
0.0
 40
0.0
 40
0.0
 40
0.0
 40
0.3104248435957512
 40
0.6000686931456356
 40
0.8080123835287429
 40
1.0
 40
1.0
 40
1.0
 40
1.0
 10
230.4336235859638
 20
122.3559467019885
 30
0.0
 10
230.5153161488217
 20
122.3631380710081
 30
0.0
 10
230.6732324704215
 20
122.3770393920477
 30
0.0
 10
230.8702940647548
 20
122.4627535395015
 30
0.0
 10
231.0184446963309
 20
122.5734091895523
 30
0.0
 10
231.0699623268197
 20
122.6661353020901
 30
0.0
 10
231.0946934416743
 20
122.7106486098148
 30
0.0
  0
LINE
  5
1C0
330
1F
100
AcDbEntity
  8
0
  6
Continuous
 62
     7
370
    18
100
AcDbLine
 10
228.7620071644
 20
122.355946702
 30
0.0
 11
230.433623586
 21
122.355946702
 31
0.0
  0
LINE
  5
1C1
330
1F
100
AcDbEntity
  8
0
  6
Continuous
 62
     7
370
    18
100
AcDbLine
 10
228.6342725737
 20
122.6859036453
 30
0.0
 11
228.7620071644
 21
122.355946702
 31
0.0
  0
LINE
  5
1C2
330
1F
100
AcDbEntity
  8
0
  6
Continuous
 62
     7
370
    18
100
AcDbLine
 10
228.0915089354
 20
122.6859036453
 30
0.0
 11
228.6342725737
 21
122.6859036453
 31
0.0
  0
LINE
  5
1C3
330
1F
100
AcDbEntity
  8
0
  6
Continuous
 62
     7
370
    18
100
AcDbLine
 10
227.9583918633
 20
122.355946702
 30
0.0
 11
228.0915089354
 21
122.6859036453
 31
0.0
  0
LINE
  5
1C4
330
1F
100
AcDbEntity
  8
0
  6
Continuous
 62
     7
370
    18
100
AcDbLine
 10
225.349864889
 20
122.355946702
 30
0.0
 11
227.9583918633
 21
122.355946702
 31
0.0
  0
SPLINE
  5
1C5
330
1F
100
AcDbEntity
  8
0
  6
Continuous
 62
     7
370
    18
100
AcDbSpline
210
0.0
220
0.0
230
1.0
 70
     8
 71
     3
 72
    11
 73
     7
 74
     0
 42
0.000000001
 43
0.00000001
 40
0.0
 40
0.0
 40
0.0
 40
0.0
 40
0.2274736611129819
 40
0.5494925387673859
 40
0.8007169048877155
 40
1.0
 40
1.0
 40
1.0
 40
1.0
 10
225.2837940274764
 20
122.7133579125022
 30
0.0
 10
225.2859599597738
 20
122.6856992319456
 30
0.0
 10
225.2911920540352
 20
122.618886052241
 30
0.0
 10
225.3020364836679
 20
122.5220974770329
 30
0.0
 10
225.316738542938
 20
122.4282594903302
 30
0.0
 10
225.3397054296122
 20
122.3781241807718
 30
0.0
 10
225.3498648890117
 20
122.3559467019885
 30
0.0
  0
SPLINE
  5
1C6
330
1F
100
AcDbEntity
  8
0
  6
Continuous
 62
     7
370
    18
100
AcDbSpline
210
0.0
220
0.0
230
1.0
 70
     8
 71
     3
 72
    13
 73
     9
 74
     0
 42
0.000000001
 43
0.00000001
 40
0.0
 40
0.0
 40
0.0
 40
0.0
 40
0.1455849753971007
 40
0.2684075940997147
 40
0.3810001390981617
 40
0.4935379506791341
 40
0.7360826269615441
 40
1.0
 40
1.0
 40
1.0
 40
1.0
 10
224.9564922008281
 20
123.1711578185906
 30
0.0
 10
224.9874928461192
 20
123.1695056990262
 30
0.0
 10
225.0446471547657
 20
123.1664597704456
 30
0.0
 10
225.1211106057303
 20
123.1358263380584
 30
0.0
 10
225.1788600468172
 20
123.0881798343886
 30
0.0
 10
225.2346071415431
 20
123.0048279364881
 30
0.0
 10
225.270487679295
 20
122.8760849239392
 30
0.0
 10
225.2792355250621
 20
122.769105099063
 30
0.0
 10
225.2837940274764
 20
122.7133579125022
 30
0.0
  0
LINE
  5
1C7
330
1F
100
AcDbEntity
  8
0
  6
Continuous
 62
     7
370
    18
100
AcDbLine
 10
224.5125639245
 20
123.1711578186
 30
0.0
 11
224.9564922008
 21
123.1711578186
 31
0.0
  0
LINE
  5
1C8
330
1F
100
AcDbEntity
  8
0
  6
Continuous
 62
     7
370
    18
100
AcDbLine
 10
224.5125639245
 20
122.355946702
 30
0.0
 11
224.5125639245
 21
123.1711578186
 31
0.0
  0
LINE
  5
1C9
330
1F
100
AcDbEntity
  8
0
  6
Continuous
 62
     7
370
    18
100
AcDbLine
 10
223.927051425
 20
122.355946702
 30
0.0
 11
224.5125639245
 21
122.355946702
 31
0.0
  0
LINE
  5
1CA
330
1F
100
AcDbEntity
  8
0
  6
Continuous
 62
     7
370
    18
100
AcDbLine
 10
223.927051425
 20
124.5922954502
 30
0.0
 11
223.927051425
 21
122.355946702
 31
0.0
  0
LINE
  5
1CB
330
1F
100
AcDbEntity
  8
0
  6
Continuous
 62
     7
370
    18
100
AcDbLine
 10
225.0729058416
 20
124.5922954502
 30
0.0
 11
223.927051425
 21
124.5922954502
 31
0.0
  0
SPLINE
  5
1CC
330
1F
100
AcDbEntity
  8
0
  6
Continuous
 62
     7
370
    18
100
AcDbSpline
210
0.0
220
0.0
230
1.0
 70
     8
 71
     3
 72
    12
 73
     8
 74
     0
 42
0.000000001
 43
0.00000001
 40
0.0
 40
0.0
 40
0.0
 40
0.0
 40
0.2016496499629001
 40
0.3794039236986333
 40
0.5547793395586191
 40
0.7718110801448016
 40
1.0
 40
1.0
 40
1.0
 40
1.0
 10
225.8598679621738
 20
123.9621658311859
 30
0.0
 10
225.853372724855
 20
124.0389046105719
 30
0.0
 10
225.8411519323839
 20
124.1832886648177
 30
0.0
 10
225.7258404462375
 20
124.366862611027
 30
0.0
 10
225.551754800449
 20
124.4979357798139
 30
0.0
 10
225.3273323748842
 20
124.5782854466944
 30
0.0
 10
225.1591198152463
 20
124.5875480755598
 30
0.0
 10
225.0729058415916
 20
124.592295450207
 30
0.0
  0
SPLINE
  5
1CD
330
1F
100
AcDbEntity
  8
0
  6
Continuous
 62
     7
370
    18
100
AcDbSpline
210
0.0
220
0.0
230
1.0
 70
     8
 71
     3
 72
    11
 73
     7
 74
     0
 42
0.000000001
 43
0.00000001
 40
0.0
 40
0.0
 40
0.0
 40
0.0
 40
0.2852648350196987
 40
0.5586037747029564
 40
0.7765581993729926
 40
1.0
 40
1.0
 40
1.0
 40
1.0
 10
225.5072612484257
 20
123.4009789345486
 30
0.0
 10
225.5675531451664
 20
123.4319612636767
 30
0.0
 10
225.6856163515935
 20
123.4926306623386
 30
0.0
 10
225.7931063349121
 20
123.6468186048855
 30
0.0
 10
225.8504725096564
 20
123.8058316221998
 30
0.0
 10
225.8567102955748
 20
123.90962431612
 30
0.0
 10
225.8598679621738
 20
123.9621658311859
 30
0.0
  0
LINE
  5
1CE
330
1F
100
AcDbEntity
  8
0
  6
Continuous
 62
     7
370
    18
100
AcDbLine
 10
225.5072612484
 20
123.3946933523
 30
0.0
 11
225.5072612484
 21
123.4009789345
 31
0.0
  0
SPLINE
  5
1CF
330
1F
100
AcDbEntity
  8
0
  6
Continuous
 62
     7
370
    18
100
AcDbSpline
210
0.0
220
0.0
230
1.0
 70
     8
 71
     3
 72
    11
 73
     7
 74
     0
 42
0.000000001
 43
0.00000001
 40
0.0
 40
0.0
 40
0.0
 40
0.0
 40
0.2808304286447836
 40
0.5635450978390049
 40
0.7771991270060357
 40
1.0
 40
1.0
 40
1.0
 40
1.0
 10
225.8347256332352
 20
122.8585404125173
 30
0.0
 10
225.8270057383055
 20
122.9210038945412
 30
0.0
 10
225.8115141515694
 20
123.0463499592765
 30
0.0
 10
225.7502281463541
 20
123.2105389699865
 30
0.0
 10
225.6479119427066
 20
123.34223882593
 30
0.0
 10
225.554795299175
 20
123.3769659167615
 30
0.0
 10
225.5072612484257
 20
123.3946933523236
 30
0.0
  0
SPLINE
  5
1D0
330
1F
100
AcDbEntity
  8
0
  6
Continuous
 62
     7
370
    18
100
AcDbSpline
210
0.0
220
0.0
230
1.0
 70
     8
 71
     3
 72
    11
 73
     7
 74
     0
 42
0.000000001
 43
0.00000001
 40
0.0
 40
0.0
 40
0.0
 40
0.0
 40
0.3074360073852334
 40
0.626196855090857
 40
0.8442166228014013
 40
1.0
 40
1.0
 40
1.0
 40
1.0
 10
225.8929083503055
 20
122.4584199802209
 30
0.0
 10
225.8830675877487
 20
122.4987665027112
 30
0.0
 10
225.8630235642225
 20
122.5809457689338
 30
0.0
 10
225.8495951033592
 20
122.6942894214756
 30
0.0
 10
225.8408005451985
 20
122.7873192599934
 30
0.0
 10
225.8365126316997
 20
122.8375899706065
 30
0.0
 10
225.8347256332352
 20
122.8585404125173
 30
0.0
  0
LINE
  5
1D1
330
1F
100
AcDbEntity
  8
0
  6
Continuous
 62
     7
370
    18
100
AcDbLine
 10
225.8942219211
 20
124.5922954502
 30
0.0
 11
225.8929083503
 21
122.4584199802
 31
0.0
  0
SPLINE
  5
1D2
330
1F
100
AcDbEntity
  8
0
  6
Continuous
 62
     7
370
    18
100
AcDbSpline
210
0.0
220
0.0
230
1.0
 70
     8
 71
     3
 72
    12
 73
     8
 74
     0
 42
0.000000001
 43
0.00000001
 40
0.0
 40
0.0
 40
0.0
 40
0.0
 40
0.2554031448979543
 40
0.5239992272002586
 40
0.6685053607654261
 40
0.822947353711822
 40
1.0
 40
1.0
 40
1.0
 40
1.0
 10
230.3171766202423
 20
122.9092224347788
 30
0.0
 10
230.3433070220806
 20
122.9114072856185
 30
0.0
 10
230.3969176006629
 20
122.9158898465204
 30
0.0
 10
230.4599223505641
 20
122.9485707913044
 30
0.0
 10
230.4990436668528
 20
122.9920521545531
 30
0.0
 10
230.5200725256968
 20
123.037106192167
 30
0.0
 10
230.5223885088939
 20
123.0711290209925
 30
0.0
 10
230.5236254850174
 20
123.0893007533972
 30
0.0
  0
LINE
  5
1D3
330
1F
100
AcDbEntity
  8
0
  6
Continuous
 62
     7
370
    18
100
AcDbLine
 10
229.9259894362
 20
122.9092224348
 30
0.0
 11
230.3171766202
 21
122.9092224348
 31
0.0
  0
LINE
  5
1D4
330
1F
100
AcDbEntity
  8
0
  6
Continuous
 62
     7
370
    18
100
AcDbLine
 10
229.9259894362
 20
123.2720522507
 30
0.0
 11
229.9259894362
 21
122.9092224348
 31
0.0
  0
LINE
  5
1D5
330
1F
100
AcDbEntity
  8
0
  6
Continuous
 62
     7
370
    18
100
AcDbLine
 10
230.3171766202
 20
123.2720522507
 30
0.0
 11
229.9259894362
 21
123.2720522507
 31
0.0
  0
SPLINE
  5
1D6
330
1F
100
AcDbEntity
  8
0
  6
Continuous
 62
     7
370
    18
100
AcDbSpline
210
0.0
220
0.0
230
1.0
 70
     8
 71
     3
 72
    12
 73
     8
 74
     0
 42
0.000000001
 43
0.00000001
 40
0.0
 40
0.0
 40
0.0
 40
0.0
 40
0.2191709004622778
 40
0.4020322727962852
 40
0.5732124609680136
 40
0.7805893411712348
 40
1.0
 40
1.0
 40
1.0
 40
1.0
 10
230.5236254850174
 20
123.0893007533972
 30
0.0
 10
230.5220777983706
 20
123.1122821086594
 30
0.0
 10
230.5192388266874
 20
123.1544375520531
 30
0.0
 10
230.4900624408932
 20
123.2086944718752
 30
0.0
 10
230.4442530358359
 20
123.2466658849618
 30
0.0
 10
230.3845857932138
 20
123.268599490779
 30
0.0
 10
230.3400647853622
 20
123.2708798977817
 30
0.0
 10
230.3171766202423
 20
123.2720522506671
 30
0.0
  0
SPLINE
  5
1D7
330
1F
100
AcDbEntity
  8
0
  6
Continuous
 62
     7
370
    18
100
AcDbSpline
210
0.0
220
0.0
230
1.0
 70
     8
 71
     3
 72
    12
 73
     8
 74
     0
 42
0.000000001
 43
0.00000001
 40
0.0
 40
0.0
 40
0.0
 40
0.0
 40
0.2631780919768604
 40
0.5362228315034394
 40
0.6796343489711612
 40
0.8298665817545476
 40
1.0
 40
1.0
 40
1.0
 40
1.0
 10
230.2561269996876
 20
123.7105980456576
 30
0.0
 10
230.2779498275238
 20
123.7122906249072
 30
0.0
 10
230.3224136293768
 20
123.7157392388513
 30
0.0
 10
230.3750672061996
 20
123.7408382144111
 30
0.0
 10
230.4081111450961
 20
123.7747768965957
 30
0.0
 10
230.4258882718412
 20
123.8099184856169
 30
0.0
 10
230.4278607556157
 20
123.8366051459158
 30
0.0
 10
230.4289082630682
 20
123.8507773667005
 30
0.0
  0
LINE
  5
1D8
330
1F
100
AcDbEntity
  8
0
  6
Continuous
 62
     7
370
    18
100
AcDbLine
 10
229.9286987389
 20
123.7105980457
 30
0.0
 11
230.2561269997
 21
123.7105980457
 31
0.0
  0
LINE
  5
1D9
330
1F
100
AcDbEntity
  8
0
  6
Continuous
 62
     7
370
    18
100
AcDbLine
 10
229.9286987389
 20
123.9930157578
 30
0.0
 11
229.9286987389
 21
123.7105980457
 31
0.0
  0
LINE
  5
1DA
330
1F
100
AcDbEntity
  8
0
  6
Continuous
 62
     7
370
    18
100
AcDbLine
 10
230.2561269997
 20
123.9930157578
 30
0.0
 11
229.9286987389
 21
123.9930157578
 31
0.0
  0
SPLINE
  5
1DB
330
1F
100
AcDbEntity
  8
0
  6
Continuous
 62
     7
370
    18
100
AcDbSpline
210
0.0
220
0.0
230
1.0
 70
     8
 71
     3
 72
    12
 73
     8
 74
     0
 42
0.000000001
 43
0.00000001
 40
0.0
 40
0.0
 40
0.0
 40
0.0
 40
0.2108655154368313
 40
0.3895958229608272
 40
0.5613353297982684
 40
0.7736399301224668
 40
1.0
 40
1.0
 40
1.0
 40
1.0
 10
230.4289082630682
 20
123.8507773667005
 30
0.0
 10
230.4275919328582
 20
123.8687182874661
 30
0.0
 10
230.4251598768135
 20
123.9018659919445
 30
0.0
 10
230.4003846862336
 20
123.9441825212324
 30
0.0
 10
230.3619974913849
 20
123.9734785730606
 30
0.0
 10
230.312323040795
 20
123.9903426797975
 30
0.0
 10
230.2752549193352
 20
123.9921058997252
 30
0.0
 10
230.2561269996876
 20
123.9930157577857
 30
0.0
  0
LINE
  5
1DC
330
1F
100
AcDbEntity
  8
0
  6
Continuous
 62
     7
370
    18
100
AcDbLine
 10
228.2050403692
 20
123.2483548832
 30
0.0
 11
228.5158154495
 21
123.2483548832
 31
0.0
  0
LINE
  5
1DD
330
1F
100
AcDbEntity
  8
0
  6
Continuous
 62
     7
370
    18
100
AcDbLine
 10
228.363046902
 20
123.736137739
 30
0.0
 11
228.2050403692
 21
123.2483548832
 31
0.0
  0
LINE
  5
1DE
330
1F
100
AcDbEntity
  8
0
  6
Continuous
 62
     7
370
    18
100
AcDbLine
 10
228.5158154495
 20
123.2483548832
 30
0.0
 11
228.363046902
 21
123.736137739
 31
0.0
  0
SPLINE
  5
1DF
330
1F
100
AcDbEntity
  8
0
  6
Continuous
 62
     7
370
    18
100
AcDbSpline
210
0.0
220
0.0
230
1.0
 70
     8
 71
     3
 72
    11
 73
     7
 74
     0
 42
0.000000001
 43
0.00000001
 40
0.0
 40
0.0
 40
0.0
 40
0.0
 40
0.2800359244938551
 40
0.560038274376055
 40
0.7801217300908213
 40
1.0
 40
1.0
 40
1.0
 40
1.0
 10
233.3910647186767
 20
119.5147623980113
 30
0.0
 10
233.4499116188833
 20
119.5520196404972
 30
0.0
 10
233.5675983639096
 20
119.6265296585512
 30
0.0
 10
233.706807645828
 20
119.762252110906
 30
0.0
 10
233.8212721986112
 20
119.9006924474412
 30
0.0
 10
233.8691343599371
 20
119.9992054689567
 30
0.0
 10
233.8930542798155
 20
120.0484390078598
 30
0.0
  0
LINE
  5
1E0
330
1F
100
AcDbEntity
  8
0
  6
Continuous
 62
     7
370
    18
100
AcDbLine
 10
233.3910647187
 20
119.2746079236
 30
0.0
 11
233.3910647187
 21
119.514762398
 31
0.0
  0
SPLINE
  5
1E1
330
1F
100
AcDbEntity
  8
0
  6
Continuous
 62
     7
370
    18
100
AcDbSpline
210
0.0
220
0.0
230
1.0
 70
     8
 71
     3
 72
     9
 73
     5
 74
     0
 42
0.000000001
 43
0.00000001
 40
0.0
 40
0.0
 40
0.0
 40
0.0
 40
0.559755234166813
 40
1.0
 40
1.0
 40
1.0
 40
1.0
 10
233.8180060065555
 20
119.5948138894885
 30
0.0
 10
233.7464915832677
 20
119.5239422014966
 30
0.0
 10
233.6187314143178
 20
119.3973302760226
 30
0.0
 10
233.4606564113447
 20
119.3121209037308
 30
0.0
 10
233.3910647186767
 20
119.2746079235795
 30
0.0
  0
LINE
  5
1E2
330
1F
100
AcDbEntity
  8
0
  6
Continuous
 62
     7
370
    18
100
AcDbLine
 10
233.8180060066
 20
117.9671002295
 30
0.0
 11
233.8180060066
 21
119.5948138895
 31
0.0
  0
LINE
  5
1E3
330
1F
100
AcDbEntity
  8
0
  6
Continuous
 62
     7
370
    18
100
AcDbLine
 10
234.0314766505
 20
117.9671002295
 30
0.0
 11
233.8180060066
 21
117.9671002295
 31
0.0
  0
LINE
  5
1E4
330
1F
100
AcDbEntity
  8
0
  6
Continuous
 62
     7
370
    18
100
AcDbLine
 10
234.0314766505
 20
120.0484390079
 30
0.0
 11
234.0314766505
 21
117.9671002295
 31
0.0
  0
LINE
  5
1E5
330
1F
100
AcDbEntity
  8
0
  6
Continuous
 62
     7
370
    18
100
AcDbLine
 10
233.8930542798
 20
120.0484390079
 30
0.0
 11
234.0314766505
 21
120.0484390079
 31
0.0
  0
SPLINE
  5
1E6
330
1F
100
AcDbEntity
  8
0
  6
Continuous
 62
     7
370
    18
100
AcDbSpline
210
0.0
220
0.0
230
1.0
 70
     8
 71
     3
 72
    10
 73
     6
 74
     0
 42
0.000000001
 43
0.00000001
 40
0.0
 40
0.0
 40
0.0
 40
0.0
 40
0.2795751783825386
 40
0.5597049368157156
 40
1.0
 40
1.0
 40
1.0
 40
1.0
 10
232.8765671119947
 20
119.8316328851088
 30
0.0
 10
232.9124456529001
 20
119.7591297376418
 30
0.0
 10
232.9842739052748
 20
119.6139796216452
 30
0.0
 10
233.0338720285786
 20
119.3274579616594
 30
0.0
 10
233.0402667328055
 20
119.1202382801716
 30
0.0
 10
233.0441749222752
 20
118.9935938337061
 30
0.0
  0
SPLINE
  5
1E7
330
1F
100
AcDbEntity
  8
0
  6
Continuous
 62
     7
370
    18
100
AcDbSpline
210
0.0
220
0.0
230
1.0
 70
     8
 71
     3
 72
    11
 73
     7
 74
     0
 42
0.000000001
 43
0.00000001
 40
0.0
 40
0.0
 40
0.0
 40
0.0
 40
0.2798903849624059
 40
0.559496442064461
 40
0.7796718965173943
 40
0.9999999999999999
 40
0.9999999999999999
 40
0.9999999999999999
 40
0.9999999999999999
 10
232.4984072017348
 20
120.0484390078597
 30
0.0
 10
232.5411641434553
 20
120.0455864895878
 30
0.0
 10
232.6266345920718
 20
120.0398843507871
 30
0.0
 10
232.7354048471748
 20
119.9862592688577
 30
0.0
 10
232.8189251726875
 20
119.9142199007728
 30
0.0
 10
232.8573486938859
 20
119.8591682494018
 30
0.0
 10
232.8765671119947
 20
119.8316328851088
 30
0.0
  0
SPLINE
  5
1E8
330
1F
100
AcDbEntity
  8
0
  6
Continuous
 62
     7
370
    18
100
AcDbSpline
210
0.0
220
0.0
230
1.0
 70
     8
 71
     3
 72
    13
 73
     9
 74
     0
 42
0.000000001
 43
0.00000001
 40
0.0
 40
0.0
 40
0.0
 40
0.0
 40
0.250489058345649
 40
0.5006738274425633
 40
0.6258446378555205
 40
0.7507584155659041
 40
0.8753007099299317
 40
1.0
 40
1.0
 40
1.0
 40
1.0
 10
231.9501378720858
 20
118.9935938337061
 30
0.0
 10
231.9528564867009
 20
119.1038340310639
 30
0.0
 10
231.9582904134108
 20
119.3241805081262
 30
0.0
 10
232.0083437854524
 20
119.5976079436735
 30
0.0
 10
232.0932793108296
 20
119.8020654779586
 30
0.0
 10
232.1902673865187
 20
119.9375780990378
 30
0.0
 10
232.3322230496023
 20
120.0336773811262
 30
0.0
 10
232.4429892273845
 20
120.0435163997699
 30
0.0
 10
232.4984072017348
 20
120.0484390078597
 30
0.0
  0
SPLINE
  5
1E9
330
1F
100
AcDbEntity
  8
0
  6
Continuous
 62
     7
370
    18
100
AcDbSpline
210
0.0
220
0.0
230
1.0
 70
     8
 71
     3
 72
    13
 73
     9
 74
     0
 42
0.000000001
 43
0.00000001
 40
0.0
 40
0.0
 40
0.0
 40
0.0
 40
0.1245870753534855
 40
0.2492227148385424
 40
0.3742192396120918
 40
0.4992998133209635
 40
0.7494812006580001
 40
1.0
 40
1.0
 40
1.0
 40
1.0
 10
232.4959055926262
 20
117.9404163989582
 30
0.0
 10
232.4406419493374
 20
117.9460530952353
 30
0.0
 10
232.3300931209519
 20
117.9573286849777
 30
0.0
 10
232.1913041647291
 20
118.055961697814
 30
0.0
 10
232.0882650560461
 20
118.185966034374
 30
0.0
 10
232.0022411708777
 20
118.3903119854276
 30
0.0
 10
231.9570702842584
 20
118.6638141646134
 30
0.0
 10
231.9524497140471
 20
118.8836179035368
 30
0.0
 10
231.9501378720858
 20
118.9935938337061
 30
0.0
  0
SPLINE
  5
1EA
330
1F
100
AcDbEntity
  8
0
  6
Continuous
 62
     7
370
    18
100
AcDbSpline
210
0.0
220
0.0
230
1.0
 70
     8
 71
     3
 72
    13
 73
     9
 74
     0
 42
0.000000001
 43
0.00000001
 40
0.0
 40
0.0
 40
0.0
 40
0.0
 40
0.2504702058475068
 40
0.5006494994159212
 40
0.6258027062132785
 40
0.7507410958263513
 40
0.8752785399750083
 40
0.9999999999999999
 40
0.9999999999999999
 40
0.9999999999999999
 40
0.9999999999999999
 10
233.0441749222752
 20
118.9935938337061
 30
0.0
 10
233.0414614270201
 20
118.8834613781546
 30
0.0
 10
233.0360375881386
 20
118.6633243820006
 30
0.0
 10
232.9852677304145
 20
118.3903937817646
 30
0.0
 10
232.9009159829789
 20
118.1859696693133
 30
0.0
 10
232.8040332230225
 20
118.050514840581
 30
0.0
 10
232.6619566061536
 20
117.9548365757792
 30
0.0
 10
232.5512831654304
 20
117.9452254896996
 30
0.0
 10
232.4959055926262
 20
117.9404163989582
 30
0.0
  0
LINE
  5
1EB
330
1F
100
AcDbEntity
  8
0
  6
Continuous
 62
     7
370
    18
100
AcDbLine
 10
231.6032480757
 20
118.9010342967
 30
0.0
 11
230.8027331609
 21
118.9010342967
 31
0.0
  0
LINE
  5
1EC
330
1F
100
AcDbEntity
  8
0
  6
Continuous
 62
     7
370
    18
100
AcDbLine
 10
231.6032480757
 20
119.1411887711
 30
0.0
 11
231.6032480757
 21
118.9010342967
 31
0.0
  0
LINE
  5
1ED
330
1F
100
AcDbEntity
  8
0
  6
Continuous
 62
     7
370
    18
100
AcDbLine
 10
230.8027331609
 20
119.1411887711
 30
0.0
 11
231.6032480757
 21
119.1411887711
 31
0.0
  0
LINE
  5
1EE
330
1F
100
AcDbEntity
  8
0
  6
Continuous
 62
     7
370
    18
100
AcDbLine
 10
230.8027331609
 20
119.7816007029
 30
0.0
 11
230.8027331609
 21
119.1411887711
 31
0.0
  0
LINE
  5
1EF
330
1F
100
AcDbEntity
  8
0
  6
Continuous
 62
     7
370
    18
100
AcDbLine
 10
231.7366672281
 20
119.7816007029
 30
0.0
 11
230.8027331609
 21
119.7816007029
 31
0.0
  0
LINE
  5
1F0
330
1F
100
AcDbEntity
  8
0
  6
Continuous
 62
     7
370
    18
100
AcDbLine
 10
231.7366672281
 20
120.0217551774
 30
0.0
 11
231.7366672281
 21
119.7816007029
 31
0.0
  0
LINE
  5
1F1
330
1F
100
AcDbEntity
  8
0
  6
Continuous
 62
     7
370
    18
100
AcDbLine
 10
230.589262517
 20
120.0217551774
 30
0.0
 11
231.7366672281
 21
120.0217551774
 31
0.0
  0
LINE
  5
1F2
330
1F
100
AcDbEntity
  8
0
  6
Continuous
 62
     7
370
    18
100
AcDbLine
 10
230.589262517
 20
117.9671002295
 30
0.0
 11
230.589262517
 21
120.0217551774
 31
0.0
  0
LINE
  5
1F3
330
1F
100
AcDbEntity
  8
0
  6
Continuous
 62
     7
370
    18
100
AcDbLine
 10
230.8027331609
 20
117.9671002295
 30
0.0
 11
230.589262517
 21
117.9671002295
 31
0.0
  0
LINE
  5
1F4
330
1F
100
AcDbEntity
  8
0
  6
Continuous
 62
     7
370
    18
100
AcDbLine
 10
230.8027331609
 20
118.9010342967
 30
0.0
 11
230.8027331609
 21
117.9671002295
 31
0.0
  0
LINE
  5
1F5
330
1F
100
AcDbEntity
  8
0
  6
Continuous
 62
     7
370
    18
100
AcDbLine
 10
229.7086961107
 20
118.8209828052
 30
0.0
 11
230.3491080425
 21
118.8209828052
 31
0.0
  0
LINE
  5
1F6
330
1F
100
AcDbEntity
  8
0
  6
Continuous
 62
     7
370
    18
100
AcDbLine
 10
229.7086961107
 20
118.5808283308
 30
0.0
 11
229.7086961107
 21
118.8209828052
 31
0.0
  0
LINE
  5
1F7
330
1F
100
AcDbEntity
  8
0
  6
Continuous
 62
     7
370
    18
100
AcDbLine
 10
230.3491080425
 20
118.5808283308
 30
0.0
 11
229.7086961107
 21
118.5808283308
 31
0.0
  0
LINE
  5
1F8
330
1F
100
AcDbEntity
  8
0
  6
Continuous
 62
     7
370
    18
100
AcDbLine
 10
230.3491080425
 20
118.8209828052
 30
0.0
 11
230.3491080425
 21
118.5808283308
 31
0.0
  0
SPLINE
  5
1F9
330
1F
100
AcDbEntity
  8
0
  6
Continuous
 62
     7
370
    18
100
AcDbSpline
210
0.0
220
0.0
230
1.0
 70
     8
 71
     3
 72
    10
 73
     6
 74
     0
 42
0.000000001
 43
0.00000001
 40
0.0
 40
0.0
 40
0.0
 40
0.0
 40
0.2795751783825383
 40
0.5597049368157155
 40
1.0
 40
1.0
 40
1.0
 40
1.0
 10
229.3543014869947
 20
119.8316328851088
 30
0.0
 10
229.3901800279002
 20
119.7591297376418
 30
0.0
 10
229.4620082802748
 20
119.6139796216452
 30
0.0
 10
229.5116064035786
 20
119.3274579616594
 30
0.0
 10
229.5180011078054
 20
119.1202382801716
 30
0.0
 10
229.5219092972752
 20
118.9935938337061
 30
0.0
  0
SPLINE
  5
1FA
330
1F
100
AcDbEntity
  8
0
  6
Continuous
 62
     7
370
    18
100
AcDbSpline
210
0.0
220
0.0
230
1.0
 70
     8
 71
     3
 72
    11
 73
     7
 74
     0
 42
0.000000001
 43
0.00000001
 40
0.0
 40
0.0
 40
0.0
 40
0.0
 40
0.2798903849624053
 40
0.5594964420644598
 40
0.7796718965173827
 40
1.0
 40
1.0
 40
1.0
 40
1.0
 10
228.9761415767348
 20
120.0484390078597
 30
0.0
 10
229.0188985184553
 20
120.0455864895878
 30
0.0
 10
229.1043689670718
 20
120.0398843507871
 30
0.0
 10
229.2131392221748
 20
119.9862592688577
 30
0.0
 10
229.2966595476875
 20
119.9142199007728
 30
0.0
 10
229.335083068886
 20
119.8591682494018
 30
0.0
 10
229.3543014869947
 20
119.8316328851088
 30
0.0
  0
SPLINE
  5
1FB
330
1F
100
AcDbEntity
  8
0
  6
Continuous
 62
     7
370
    18
100
AcDbSpline
210
0.0
220
0.0
230
1.0
 70
     8
 71
     3
 72
    13
 73
     9
 74
     0
 42
0.000000001
 43
0.00000001
 40
0.0
 40
0.0
 40
0.0
 40
0.0
 40
0.2504890583456489
 40
0.5006738274425628
 40
0.6258446378555199
 40
0.7507584155659038
 40
0.875300709929931
 40
1.0
 40
1.0
 40
1.0
 40
1.0
 10
228.4278722470858
 20
118.9935938337061
 30
0.0
 10
228.4305908617009
 20
119.1038340310639
 30
0.0
 10
228.4360247884108
 20
119.3241805081262
 30
0.0
 10
228.4860781604524
 20
119.5976079436735
 30
0.0
 10
228.5710136858296
 20
119.8020654779586
 30
0.0
 10
228.6680017615187
 20
119.9375780990378
 30
0.0
 10
228.8099574246023
 20
120.0336773811262
 30
0.0
 10
228.9207236023845
 20
120.0435163997699
 30
0.0
 10
228.9761415767348
 20
120.0484390078597
 30
0.0
  0
SPLINE
  5
1FC
330
1F
100
AcDbEntity
  8
0
  6
Continuous
 62
     7
370
    18
100
AcDbSpline
210
0.0
220
0.0
230
1.0
 70
     8
 71
     3
 72
    13
 73
     9
 74
     0
 42
0.000000001
 43
0.00000001
 40
0.0
 40
0.0
 40
0.0
 40
0.0
 40
0.1245870753534853
 40
0.2492227148385377
 40
0.3742192396120913
 40
0.4992998133209633
 40
0.749481200658
 40
1.0
 40
1.0
 40
1.0
 40
1.0
 10
228.9736399676262
 20
117.9404163989582
 30
0.0
 10
228.9183763243374
 20
117.9460530952353
 30
0.0
 10
228.8078274959518
 20
117.9573286849777
 30
0.0
 10
228.6690385397291
 20
118.055961697814
 30
0.0
 10
228.5659994310461
 20
118.185966034374
 30
0.0
 10
228.4799755458776
 20
118.3903119854276
 30
0.0
 10
228.4348046592584
 20
118.6638141646134
 30
0.0
 10
228.4301840890471
 20
118.8836179035368
 30
0.0
 10
228.4278722470858
 20
118.9935938337061
 30
0.0
  0
SPLINE
  5
1FD
330
1F
100
AcDbEntity
  8
0
  6
Continuous
 62
     7
370
    18
100
AcDbSpline
210
0.0
220
0.0
230
1.0
 70
     8
 71
     3
 72
    13
 73
     9
 74
     0
 42
0.000000001
 43
0.00000001
 40
0.0
 40
0.0
 40
0.0
 40
0.0
 40
0.2504702058475065
 40
0.5006494994159206
 40
0.625802706213278
 40
0.75074109582635
 40
0.8752785399750078
 40
1.0
 40
1.0
 40
1.0
 40
1.0
 10
229.5219092972752
 20
118.9935938337061
 30
0.0
 10
229.5191958020201
 20
118.8834613781546
 30
0.0
 10
229.5137719631386
 20
118.6633243820006
 30
0.0
 10
229.4630021054145
 20
118.3903937817647
 30
0.0
 10
229.3786503579789
 20
118.1859696693133
 30
0.0
 10
229.2817675980224
 20
118.050514840581
 30
0.0
 10
229.1396909811536
 20
117.9548365757792
 30
0.0
 10
229.0290175404304
 20
117.9452254896996
 30
0.0
 10
228.9736399676262
 20
117.9404163989582
 30
0.0
  0
SPLINE
  5
1FE
330
1F
100
AcDbEntity
  8
0
  6
Continuous
 62
     7
370
    18
100
AcDbSpline
210
0.0
220
0.0
230
1.0
 70
     8
 71
     3
 72
    12
 73
     8
 74
     0
 42
0.000000001
 43
0.00000001
 40
0.0
 40
0.0
 40
0.0
 40
0.0
 40
0.1861323399318253
 40
0.3726108819815559
 40
0.55941362040524
 40
0.7795030968206001
 40
1.0
 40
1.0
 40
1.0
 40
1.0
 10
227.7132459117106
 20
119.3279755845643
 30
0.0
 10
227.7708882266456
 20
119.3212896841814
 30
0.0
 10
227.8862800699722
 20
119.3079054477859
 30
0.0
 10
228.0284257948009
 20
119.2007938036224
 30
0.0
 10
228.1395958136051
 20
119.0552324858096
 30
0.0
 10
228.2053927133859
 20
118.8699078753116
 30
0.0
 10
228.2113967891615
 20
118.7344889742002
 30
0.0
 10
228.2144016031464
 20
118.6667169101739
 30
0.0
  0
SPLINE
  5
1FF
330
1F
100
AcDbEntity
  8
0
  6
Continuous
 62
     7
370
    18
100
AcDbSpline
210
0.0
220
0.0
230
1.0
 70
     8
 71
     3
 72
     9
 73
     5
 74
     0
 42
0.000000001
 43
0.00000001
 40
0.0
 40
0.0
 40
0.0
 40
0.0
 40
0.5597945537684308
 40
1.0
 40
1.0
 40
1.0
 40
1.0
 10
227.4088834701564
 20
119.2475071582356
 30
0.0
 10
227.4630042761968
 20
119.2733151633811
 30
0.0
 10
227.5596840414359
 20
119.3194178004501
 30
0.0
 10
227.6663090168354
 20
119.3253598583257
 30
0.0
 10
227.7132459117106
 20
119.3279755845643
 30
0.0
  0
LINE
  5
200
330
1F
100
AcDbEntity
  8
0
  6
Continuous
 62
     7
370
    18
100
AcDbLine
 10
227.4860164177
 20
119.7549168724
 30
0.0
 11
227.4088834702
 21
119.2475071582
 31
0.0
  0
LINE
  5
201
330
1F
100
AcDbEntity
  8
0
  6
Continuous
 62
     7
370
    18
100
AcDbLine
 10
228.1343501117
 20
119.7549168724
 30
0.0
 11
227.4860164177
 21
119.7549168724
 31
0.0
  0
LINE
  5
202
330
1F
100
AcDbEntity
  8
0
  6
Continuous
 62
     7
370
    18
100
AcDbLine
 10
228.1343501117
 20
119.9950713469
 30
0.0
 11
228.1343501117
 21
119.7549168724
 31
0.0
  0
LINE
  5
203
330
1F
100
AcDbEntity
  8
0
  6
Continuous
 62
     7
370
    18
100
AcDbLine
 10
227.3071513664
 20
119.9950713469
 30
0.0
 11
228.1343501117
 21
119.9950713469
 31
0.0
  0
LINE
  5
204
330
1F
100
AcDbEntity
  8
0
  6
Continuous
 62
     7
370
    18
100
AcDbLine
 10
227.1470483834
 20
118.942310847
 30
0.0
 11
227.3071513664
 21
119.9950713469
 31
0.0
  0
LINE
  5
205
330
1F
100
AcDbEntity
  8
0
  6
Continuous
 62
     7
370
    18
100
AcDbLine
 10
227.3605190274
 20
118.9118746028
 30
0.0
 11
227.1470483834
 21
118.942310847
 31
0.0
  0
SPLINE
  5
206
330
1F
100
AcDbEntity
  8
0
  6
Continuous
 62
     7
370
    18
100
AcDbSpline
210
0.0
220
0.0
230
1.0
 70
     8
 71
     3
 72
    10
 73
     6
 74
     0
 42
0.000000001
 43
0.00000001
 40
0.0
 40
0.0
 40
0.0
 40
0.0
 40
0.2801682771676901
 40
0.5607715634932631
 40
1.0
 40
1.0
 40
1.0
 40
1.0
 10
227.6536242279541
 20
119.1145049406249
 30
0.0
 10
227.6186362147164
 20
119.1106379727749
 30
0.0
 10
227.5486058633678
 20
119.102898032946
 30
0.0
 10
227.4377613508107
 20
119.0362434905927
 30
0.0
 10
227.3897901783945
 20
118.9590044706603
 30
0.0
 10
227.3605190273888
 20
118.9118746028231
 30
0.0
  0
SPLINE
  5
207
330
1F
100
AcDbEntity
  8
0
  6
Continuous
 62
     7
370
    18
100
AcDbSpline
210
0.0
220
0.0
230
1.0
 70
     8
 71
     3
 72
    11
 73
     7
 74
     0
 42
0.000000001
 43
0.00000001
 40
0.0
 40
0.0
 40
0.0
 40
0.0
 40
0.2810318196216984
 40
0.5605860755662323
 40
0.7803889752948997
 40
1.0
 40
1.0
 40
1.0
 40
1.0
 10
228.000930959207
 20
118.6550427343335
 30
0.0
 10
227.9980744660416
 20
118.7155944824626
 30
0.0
 10
227.9923764981187
 20
118.8363796195266
 30
0.0
 10
227.9183346508775
 20
118.9914809129782
 30
0.0
 10
227.7966425945964
 20
119.0975898894587
 30
0.0
 10
227.7012831369089
 20
119.1088682318411
 30
0.0
 10
227.6536242279541
 20
119.1145049406249
 30
0.0
  0
SPLINE
  5
208
330
1F
100
AcDbEntity
  8
0
  6
Continuous
 62
     7
370
    18
100
AcDbSpline
210
0.0
220
0.0
230
1.0
 70
     8
 71
     3
 72
    12
 73
     8
 74
     0
 42
0.000000001
 43
0.00000001
 40
0.0
 40
0.0
 40
0.0
 40
0.0
 40
0.1858835197478829
 40
0.3723018513499666
 40
0.5590684864252696
 40
0.7793243380015258
 40
1.0
 40
1.0
 40
1.0
 40
1.0
 10
227.6482040748853
 20
118.1538870428976
 30
0.0
 10
227.6907053780684
 20
118.1594090333842
 30
0.0
 10
227.7758302663928
 20
118.1704689018657
 30
0.0
 10
227.8766180987101
 20
118.255357428749
 30
0.0
 10
227.9525087281563
 20
118.3669289829683
 30
0.0
 10
227.9948549781268
 20
118.5052422548415
 30
0.0
 10
227.998904347047
 20
118.6050775568081
 30
0.0
 10
228.000930959207
 20
118.6550427343335
 30
0.0
  0
SPLINE
  5
209
330
1F
100
AcDbEntity
  8
0
  6
Continuous
 62
     7
370
    18
100
AcDbSpline
210
0.0
220
0.0
230
1.0
 70
     8
 71
     3
 72
    11
 73
     7
 74
     0
 42
0.000000001
 43
0.00000001
 40
0.0
 40
0.0
 40
0.0
 40
0.0
 40
0.2811074381184293
 40
0.5611160017532766
 40
0.7809929910720572
 40
1.0
 40
1.0
 40
1.0
 40
1.0
 10
227.3338351968964
 20
118.554144500284
 30
0.0
 10
227.3420509258492
 20
118.5024982505652
 30
0.0
 10
227.3584502677249
 20
118.3994076410042
 30
0.0
 10
227.4227050530258
 20
118.2671193928701
 30
0.0
 10
227.5250826110423
 20
118.1721680538918
 30
0.0
 10
227.6072178579633
 20
118.1599726550953
 30
0.0
 10
227.6482040748853
 20
118.1538870428976
 30
0.0
  0
LINE
  5
20A
330
1F
100
AcDbEntity
  8
0
  6
Continuous
 62
     7
370
    18
100
AcDbLine
 10
227.120364553
 20
118.5274606698
 30
0.0
 11
227.3338351969
 21
118.5541445003
 31
0.0
  0
SPLINE
  5
20B
330
1F
100
AcDbEntity
  8
0
  6
Continuous
 62
     7
370
    18
100
AcDbSpline
210
0.0
220
0.0
230
1.0
 70
     8
 71
     3
 72
    12
 73
     8
 74
     0
 42
0.000000001
 43
0.00000001
 40
0.0
 40
0.0
 40
0.0
 40
0.0
 40
0.1865885886654312
 40
0.3730457041861944
 40
0.5597053661028969
 40
0.7796179230979452
 40
1.0
 40
1.0
 40
1.0
 40
1.0
 10
227.6502887491425
 20
117.9404163989582
 30
0.0
 10
227.5954717758762
 20
117.9447782470031
 30
0.0
 10
227.4858764542129
 20
117.9534988696685
 30
0.0
 10
227.3401829792886
 20
118.0373152329474
 30
0.0
 10
227.2211357809185
 20
118.1653537799951
 30
0.0
 10
227.1441953827122
 20
118.3356552490122
 30
0.0
 10
227.1283138081221
 20
118.4634800930564
 30
0.0
 10
227.120364552957
 20
118.5274606697916
 30
0.0
  0
SPLINE
  5
20C
330
1F
100
AcDbEntity
  8
0
  6
Continuous
 62
     7
370
    18
100
AcDbSpline
210
0.0
220
0.0
230
1.0
 70
     8
 71
     3
 72
    13
 73
     9
 74
     0
 42
0.000000001
 43
0.00000001
 40
0.0
 40
0.0
 40
0.0
 40
0.0
 40
0.1868890796518143
 40
0.3736670037034822
 40
0.5603596573753074
 40
0.7069433013335614
 40
0.8533827747571288
 40
1.0
 40
1.0
 40
1.0
 40
1.0
 10
228.2144016031464
 20
118.6667169101739
 30
0.0
 10
228.2113080231042
 20
118.6027980913569
 30
0.0
 10
228.2051227029816
 20
118.474998470576
 30
0.0
 10
228.1479593873402
 20
118.2902265948679
 30
0.0
 10
228.0571753748244
 20
118.1354615327346
 30
0.0
 10
227.9393062802303
 20
118.0192018498714
 30
0.0
 10
227.8011222090315
 20
117.9509656935372
 30
0.0
 10
227.7005868954735
 20
117.9439342521111
 30
0.0
 10
227.6502887491425
 20
117.9404163989582
 30
0.0
  0
LINE
  5
20D
330
1F
100
AcDbEntity
  8
0
  6
Continuous
 62
     7
370
    18
100
AcDbLine
 10
226.2664819772
 20
117.9671002295
 30
0.0
 11
226.0530113333
 21
117.9671002295
 31
0.0
  0
SPLINE
  5
20E
330
1F
100
AcDbEntity
  8
0
  6
Continuous
 62
     7
370
    18
100
AcDbSpline
210
0.0
220
0.0
230
1.0
 70
     8
 71
     3
 72
    12
 73
     8
 74
     0
 42
0.000000001
 43
0.00000001
 40
0.0
 40
0.0
 40
0.0
 40
0.0
 40
0.1865994905629276
 40
0.3732882655511091
 40
0.5600123352708875
 40
0.7800196168841566
 40
1.0
 40
1.0
 40
1.0
 40
1.0
 10
226.9068939090176
 20
119.7986950318447
 30
0.0
 10
226.8375680911342
 20
119.6978234836727
 30
0.0
 10
226.698883284238
 20
119.4960321221476
 30
0.0
 10
226.5463133259295
 20
119.1610292949671
 30
0.0
 10
226.4119093424822
 20
118.7965251386271
 30
0.0
 10
226.3076808201634
 20
118.3978274078502
 30
0.0
 10
226.2802143651366
 20
118.1106701038289
 30
0.0
 10
226.2664819771994
 20
117.9671002294507
 30
0.0
  0
LINE
  5
20F
330
1F
100
AcDbEntity
  8
0
  6
Continuous
 62
     7
370
    18
100
AcDbLine
 10
226.906893909
 20
119.9950713469
 30
0.0
 11
226.906893909
 21
119.7986950318
 31
0.0
  0
LINE
  5
210
330
1F
100
AcDbEntity
  8
0
  6
Continuous
 62
     7
370
    18
100
AcDbLine
 10
225.8128568588
 20
119.9950713469
 30
0.0
 11
226.906893909
 21
119.9950713469
 31
0.0
  0
LINE
  5
211
330
1F
100
AcDbEntity
  8
0
  6
Continuous
 62
     7
370
    18
100
AcDbLine
 10
225.8128568588
 20
119.7549168724
 30
0.0
 11
225.8128568588
 21
119.9950713469
 31
0.0
  0
LINE
  5
212
330
1F
100
AcDbEntity
  8
0
  6
Continuous
 62
     7
370
    18
100
AcDbLine
 10
226.6934232651
 20
119.7549168724
 30
0.0
 11
225.8128568588
 21
119.7549168724
 31
0.0
  0
SPLINE
  5
213
330
1F
100
AcDbEntity
  8
0
  6
Continuous
 62
     7
370
    18
100
AcDbSpline
210
0.0
220
0.0
230
1.0
 70
     8
 71
     3
 72
    12
 73
     8
 74
     0
 42
0.000000001
 43
0.00000001
 40
0.0
 40
0.0
 40
0.0
 40
0.0
 40
0.1866068624921615
 40
0.3733314982619464
 40
0.560057611229228
 40
0.7800800874790776
 40
1.0
 40
1.0
 40
1.0
 40
1.0
 10
226.0530113332601
 20
117.9671002294507
 30
0.0
 10
226.0623298918522
 20
118.0866482031718
 30
0.0
 10
226.0809728902629
 20
118.3258196009833
 30
0.0
 10
226.1652020014242
 20
118.6764883341617
 30
0.0
 10
226.2849557228145
 20
119.038076293126
 30
0.0
 10
226.4526066394489
 20
119.405817311418
 30
0.0
 10
226.6131635334065
 20
119.6385684391844
 30
0.0
 10
226.6934232650783
 20
119.7549168724431
 30
0.0
  0
LINE
  5
214
330
1F
100
AcDbEntity
  8
0
  6
Continuous
 62
     7
370
    18
100
AcDbLine
 10
225.0123419441
 20
118.8209828052
 30
0.0
 11
225.6527538759
 21
118.8209828052
 31
0.0
  0
LINE
  5
215
330
1F
100
AcDbEntity
  8
0
  6
Continuous
 62
     7
370
    18
100
AcDbLine
 10
225.0123419441
 20
118.5808283308
 30
0.0
 11
225.0123419441
 21
118.8209828052
 31
0.0
  0
LINE
  5
216
330
1F
100
AcDbEntity
  8
0
  6
Continuous
 62
     7
370
    18
100
AcDbLine
 10
225.6527538759
 20
118.5808283308
 30
0.0
 11
225.0123419441
 21
118.5808283308
 31
0.0
  0
LINE
  5
217
330
1F
100
AcDbEntity
  8
0
  6
Continuous
 62
     7
370
    18
100
AcDbLine
 10
225.6527538759
 20
118.8209828052
 30
0.0
 11
225.6527538759
 21
118.5808283308
 31
0.0
  0
SPLINE
  5
218
330
1F
100
AcDbEntity
  8
0
  6
Continuous
 62
     7
370
    18
100
AcDbSpline
210
0.0
220
0.0
230
1.0
 70
     8
 71
     3
 72
    12
 73
     8
 74
     0
 42
0.000000001
 43
0.00000001
 40
0.0
 40
0.0
 40
0.0
 40
0.0
 40
0.1871057595240075
 40
0.3740211604078915
 40
0.560833866925296
 40
0.7803585126596493
 40
1.0
 40
1.0
 40
1.0
 40
1.0
 10
224.8255551306085
 20
118.5637340018672
 30
0.0
 10
224.8226060222849
 20
118.5060404518585
 30
0.0
 10
224.8167108060169
 20
118.390712048408
 30
0.0
 10
224.7572104808729
 20
118.2252896874173
 30
0.0
 10
224.6472962580484
 20
118.0777940381181
 30
0.0
 10
224.4846031817935
 20
117.96058224098
 30
0.0
 10
224.3480714422173
 20
117.9471395384573
 30
0.0
 10
224.2797874100682
 20
117.9404163989582
 30
0.0
  0
SPLINE
  5
219
330
1F
100
AcDbEntity
  8
0
  6
Continuous
 62
     7
370
    18
100
AcDbSpline
210
0.0
220
0.0
230
1.0
 70
     8
 71
     3
 72
    11
 73
     7
 74
     0
 42
0.000000001
 43
0.00000001
 40
0.0
 40
0.0
 40
0.0
 40
0.0
 40
0.2796220600248669
 40
0.5590245428560685
 40
0.7793847317261563
 40
1.0
 40
1.0
 40
1.0
 40
1.0
 10
224.4982612722249
 20
119.0944920677556
 30
0.0
 10
224.5545278008394
 20
119.0666567818075
 30
0.0
 10
224.6670166739778
 20
119.0110080679649
 30
0.0
 10
224.7707863633752
 20
118.8645861664014
 30
0.0
 10
224.8187204099065
 20
118.7107096955714
 30
0.0
 10
224.8232760119884
 20
118.6127447888244
 30
0.0
 10
224.8255551306085
 20
118.5637340018672
 30
0.0
  0
SPLINE
  5
21A
330
1F
100
AcDbEntity
  8
0
  6
Continuous
 62
     7
370
    18
100
AcDbSpline
210
0.0
220
0.0
230
1.0
 70
     8
 71
     3
 72
    11
 73
     7
 74
     0
 42
0.000000001
 43
0.00000001
 40
0.0
 40
0.0
 40
0.0
 40
0.0
 40
0.2801901752489394
 40
0.5597317672418815
 40
0.7798035967389161
 40
1.0
 40
1.0
 40
1.0
 40
1.0
 10
224.7455036391313
 20
119.5089253100911
 30
0.0
 10
224.7428596158802
 20
119.4609273159631
 30
0.0
 10
224.7375776897539
 20
119.3650424332994
 30
0.0
 10
224.6824456251106
 20
119.2403450757379
 30
0.0
 10
224.5980694771944
 20
119.1481129938777
 30
0.0
 10
224.531536949001
 20
119.1123690810394
 30
0.0
 10
224.4982612722249
 20
119.0944920677556
 30
0.0
  0
SPLINE
  5
21B
330
1F
100
AcDbEntity
  8
0
  6
Continuous
 62
     7
370
    18
100
AcDbSpline
210
0.0
220
0.0
230
1.0
 70
     8
 71
     3
 72
    12
 73
     8
 74
     0
 42
0.000000001
 43
0.00000001
 40
0.0
 40
0.0
 40
0.0
 40
0.0
 40
0.1866818949369818
 40
0.3730939207975819
 40
0.5598445729636954
 40
0.7796788980924666
 40
1.0
 40
1.0
 40
1.0
 40
1.0
 10
224.2764519312566
 20
120.0484390078597
 30
0.0
 10
224.3264022526278
 20
120.0444035423195
 30
0.0
 10
224.4262306867231
 20
120.0363384449454
 30
0.0
 10
224.5588614959804
 20
119.9592173942431
 30
0.0
 10
224.6649850277839
 20
119.8408140521697
 30
0.0
 10
224.7354739593621
 20
119.6851963751942
 30
0.0
 10
224.7421579485553
 20
119.5677256362132
 30
0.0
 10
224.7455036391313
 20
119.5089253100911
 30
0.0
  0
SPLINE
  5
21C
330
1F
100
AcDbEntity
  8
0
  6
Continuous
 62
     7
370
    18
100
AcDbSpline
210
0.0
220
0.0
230
1.0
 70
     8
 71
     3
 72
    12
 73
     8
 74
     0
 42
0.000000001
 43
0.00000001
 40
0.0
 40
0.0
 40
0.0
 40
0.0
 40
0.1871377587295394
 40
0.3740411921344256
 40
0.5608494686677212
 40
0.7803659435040513
 40
1.0
 40
1.0
 40
1.0
 40
1.0
 10
223.8115695718964
 20
119.5172640071199
 30
0.0
 10
223.8141186691318
 20
119.5664637609122
 30
0.0
 10
223.8192136717398
 20
119.6648016628198
 30
0.0
 10
223.8693473954222
 20
119.805981396689
 30
0.0
 10
223.9624045314111
 20
119.93241919689
 30
0.0
 10
224.1018906163394
 20
120.0314162493006
 30
0.0
 10
224.2182544408919
 20
120.0427637422507
 30
0.0
 10
224.2764519312566
 20
120.0484390078598
 30
0.0
  0
SPLINE
  5
21D
330
1F
100
AcDbEntity
  8
0
  6
Continuous
 62
     7
370
    18
100
AcDbSpline
210
0.0
220
0.0
230
1.0
 70
     8
 71
     3
 72
    11
 73
     7
 74
     0
 42
0.000000001
 43
0.00000001
 40
0.0
 40
0.0
 40
0.0
 40
0.0
 40
0.2798399979573731
 40
0.5592260384591604
 40
0.7795665615265318
 40
1.0
 40
1.0
 40
1.0
 40
1.0
 10
224.0613135479115
 20
119.0944920677556
 30
0.0
 10
224.018371085167
 20
119.1183496176322
 30
0.0
 10
223.9325558210964
 20
119.1660260155818
 30
0.0
 10
223.8529792409163
 20
119.2813076321503
 30
0.0
 10
223.8162871082596
 20
119.4021606286273
 30
0.0
 10
223.8131423049929
 20
119.4788908226993
 30
0.0
 10
223.8115695718964
 20
119.5172640071199
 30
0.0
  0
SPLINE
  5
21E
330
1F
100
AcDbEntity
  8
0
  6
Continuous
 62
     7
370
    18
100
AcDbSpline
210
0.0
220
0.0
230
1.0
 70
     8
 71
     3
 72
    11
 73
     7
 74
     0
 42
0.000000001
 43
0.00000001
 40
0.0
 40
0.0
 40
0.0
 40
0.0
 40
0.280475549846585
 40
0.5600957930369943
 40
0.7800256682201224
 40
1.0
 40
1.0
 40
1.0
 40
1.0
 10
223.7315180804191
 20
118.5708218943418
 30
0.0
 10
223.7348444733661
 20
118.6332083267631
 30
0.0
 10
223.7414871154667
 20
118.7577909449659
 30
0.0
 10
223.8127267403475
 20
118.9196246535598
 30
0.0
 10
223.9245184212809
 20
119.0390485047843
 30
0.0
 10
224.0157121003653
 20
119.0760096350047
 30
0.0
 10
224.0613135479115
 20
119.0944920677556
 30
0.0
  0
SPLINE
  5
21F
330
1F
100
AcDbEntity
  8
0
  6
Continuous
 62
     7
370
    18
100
AcDbSpline
210
0.0
220
0.0
230
1.0
 70
     8
 71
     3
 72
    12
 73
     8
 74
     0
 42
0.000000001
 43
0.00000001
 40
0.0
 40
0.0
 40
0.0
 40
0.0
 40
0.1866482491791771
 40
0.3730988090507011
 40
0.5597919176482331
 40
0.7796545203293546
 40
0.9999999999999999
 40
0.9999999999999999
 40
0.9999999999999999
 40
0.9999999999999999
 10
224.2797874100682
 20
117.9404163989582
 30
0.0
 10
224.2213757225353
 20
117.9451768016535
 30
0.0
 10
224.1046142144633
 20
117.9546925650428
 30
0.0
 10
223.9492385417291
 20
118.0441143871964
 30
0.0
 10
223.8237009196898
 20
118.181684088699
 30
0.0
 10
223.7431687163296
 20
118.3647356712993
 30
0.0
 10
223.7354044646668
 20
118.5020762690351
 30
0.0
 10
223.7315180804191
 20
118.5708218943418
 30
0.0
  0
SPLINE
  5
220
330
1F
100
AcDbEntity
  8
0
  6
Continuous
 62
     7
370
    18
100
AcDbSpline
210
0.0
220
0.0
230
1.0
 70
     8
 71
     3
 72
    10
 73
     6
 74
     0
 42
0.000000001
 43
0.00000001
 40
0.0
 40
0.0
 40
0.0
 40
0.0
 40
0.2795751783825384
 40
0.5597049368157154
 40
0.9999999999999999
 40
0.9999999999999999
 40
0.9999999999999999
 40
0.9999999999999999
 10
223.3504396261992
 20
119.8316328851088
 30
0.0
 10
223.3863181671047
 20
119.7591297376418
 30
0.0
 10
223.4581464194793
 20
119.6139796216452
 30
0.0
 10
223.5077445427831
 20
119.3274579616594
 30
0.0
 10
223.51413924701
 20
119.1202382801716
 30
0.0
 10
223.5180474364797
 20
118.9935938337061
 30
0.0
  0
SPLINE
  5
221
330
1F
100
AcDbEntity
  8
0
  6
Continuous
 62
     7
370
    18
100
AcDbSpline
210
0.0
220
0.0
230
1.0
 70
     8
 71
     3
 72
    11
 73
     7
 74
     0
 42
0.000000001
 43
0.00000001
 40
0.0
 40
0.0
 40
0.0
 40
0.0
 40
0.2798903849624045
 40
0.5594964420644593
 40
0.7796718965173837
 40
1.0
 40
1.0
 40
1.0
 40
1.0
 10
222.9722797159394
 20
120.0484390078597
 30
0.0
 10
223.0150366576599
 20
120.0455864895878
 30
0.0
 10
223.1005071062764
 20
120.0398843507871
 30
0.0
 10
223.2092773613793
 20
119.9862592688577
 30
0.0
 10
223.292797686892
 20
119.9142199007728
 30
0.0
 10
223.3312212080905
 20
119.8591682494019
 30
0.0
 10
223.3504396261992
 20
119.8316328851088
 30
0.0
  0
SPLINE
  5
222
330
1F
100
AcDbEntity
  8
0
  6
Continuous
 62
     7
370
    18
100
AcDbSpline
210
0.0
220
0.0
230
1.0
 70
     8
 71
     3
 72
    13
 73
     9
 74
     0
 42
0.000000001
 43
0.00000001
 40
0.0
 40
0.0
 40
0.0
 40
0.0
 40
0.2504890583456488
 40
0.5006738274425627
 40
0.6258446378555201
 40
0.7507584155659034
 40
0.8753007099299307
 40
1.0
 40
1.0
 40
1.0
 40
1.0
 10
222.4240103862904
 20
118.9935938337061
 30
0.0
 10
222.4267290009055
 20
119.1038340310639
 30
0.0
 10
222.4321629276154
 20
119.3241805081262
 30
0.0
 10
222.482216299657
 20
119.5976079436736
 30
0.0
 10
222.5671518250342
 20
119.8020654779586
 30
0.0
 10
222.6641399007232
 20
119.9375780990378
 30
0.0
 10
222.8060955638068
 20
120.0336773811262
 30
0.0
 10
222.916861741589
 20
120.0435163997699
 30
0.0
 10
222.9722797159394
 20
120.0484390078597
 30
0.0
  0
SPLINE
  5
223
330
1F
100
AcDbEntity
  8
0
  6
Continuous
 62
     7
370
    18
100
AcDbSpline
210
0.0
220
0.0
230
1.0
 70
     8
 71
     3
 72
    13
 73
     9
 74
     0
 42
0.000000001
 43
0.00000001
 40
0.0
 40
0.0
 40
0.0
 40
0.0
 40
0.1245870753534856
 40
0.2492227148385373
 40
0.3742192396120913
 40
0.4992998133209632
 40
0.7494812006579998
 40
1.0
 40
1.0
 40
1.0
 40
1.0
 10
222.9697781068307
 20
117.9404163989582
 30
0.0
 10
222.9145144635419
 20
117.9460530952353
 30
0.0
 10
222.8039656351564
 20
117.9573286849777
 30
0.0
 10
222.6651766789336
 20
118.055961697814
 30
0.0
 10
222.5621375702506
 20
118.185966034374
 30
0.0
 10
222.4761136850822
 20
118.3903119854276
 30
0.0
 10
222.430942798463
 20
118.6638141646134
 30
0.0
 10
222.4263222282517
 20
118.8836179035368
 30
0.0
 10
222.4240103862904
 20
118.9935938337061
 30
0.0
  0
SPLINE
  5
224
330
1F
100
AcDbEntity
  8
0
  6
Continuous
 62
     7
370
    18
100
AcDbSpline
210
0.0
220
0.0
230
1.0
 70
     8
 71
     3
 72
    13
 73
     9
 74
     0
 42
0.000000001
 43
0.00000001
 40
0.0
 40
0.0
 40
0.0
 40
0.0
 40
0.2504702058475063
 40
0.5006494994159205
 40
0.6258027062132775
 40
0.75074109582635
 40
0.8752785399750072
 40
0.9999999999999999
 40
0.9999999999999999
 40
0.9999999999999999
 40
0.9999999999999999
 10
223.5180474364797
 20
118.9935938337061
 30
0.0
 10
223.5153339412246
 20
118.8834613781546
 30
0.0
 10
223.5099101023431
 20
118.6633243820006
 30
0.0
 10
223.4591402446191
 20
118.3903937817646
 30
0.0
 10
223.3747884971834
 20
118.1859696693133
 30
0.0
 10
223.277905737227
 20
118.050514840581
 30
0.0
 10
223.1358291203581
 20
117.9548365757792
 30
0.0
 10
223.025155679635
 20
117.9452254896996
 30
0.0
 10
222.9697781068307
 20
117.9404163989582
 30
0.0
  0
SPLINE
  5
225
330
1F
100
AcDbEntity
  8
0
  6
Continuous
 62
     7
370
    18
100
AcDbSpline
210
0.0
220
0.0
230
1.0
 70
     8
 71
     3
 72
    12
 73
     8
 74
     0
 42
0.000000001
 43
0.00000001
 40
0.0
 40
0.0
 40
0.0
 40
0.0
 40
0.1861323399318253
 40
0.3726108819815567
 40
0.5594136204052395
 40
0.7795030968206001
 40
1.0
 40
1.0
 40
1.0
 40
1.0
 10
221.7093840509151
 20
119.3279755845643
 30
0.0
 10
221.7670263658502
 20
119.3212896841814
 30
0.0
 10
221.8824182091767
 20
119.3079054477859
 30
0.0
 10
222.0245639340054
 20
119.2007938036224
 30
0.0
 10
222.1357339528096
 20
119.0552324858096
 30
0.0
 10
222.2015308525905
 20
118.8699078753116
 30
0.0
 10
222.207534928366
 20
118.7344889742002
 30
0.0
 10
222.210539742351
 20
118.6667169101739
 30
0.0
  0
SPLINE
  5
226
330
1F
100
AcDbEntity
  8
0
  6
Continuous
 62
     7
370
    18
100
AcDbSpline
210
0.0
220
0.0
230
1.0
 70
     8
 71
     3
 72
     9
 73
     5
 74
     0
 42
0.000000001
 43
0.00000001
 40
0.0
 40
0.0
 40
0.0
 40
0.0
 40
0.5597945537684206
 40
1.0
 40
1.0
 40
1.0
 40
1.0
 10
221.4050216093609
 20
119.2475071582356
 30
0.0
 10
221.4591424154013
 20
119.2733151633811
 30
0.0
 10
221.5558221806404
 20
119.3194178004501
 30
0.0
 10
221.6624471560399
 20
119.3253598583257
 30
0.0
 10
221.7093840509151
 20
119.3279755845643
 30
0.0
  0
LINE
  5
227
330
1F
100
AcDbEntity
  8
0
  6
Continuous
 62
     7
370
    18
100
AcDbLine
 10
221.4821545569
 20
119.7549168724
 30
0.0
 11
221.4050216094
 21
119.2475071582
 31
0.0
  0
LINE
  5
228
330
1F
100
AcDbEntity
  8
0
  6
Continuous
 62
     7
370
    18
100
AcDbLine
 10
222.1304882509
 20
119.7549168724
 30
0.0
 11
221.4821545569
 21
119.7549168724
 31
0.0
  0
LINE
  5
229
330
1F
100
AcDbEntity
  8
0
  6
Continuous
 62
     7
370
    18
100
AcDbLine
 10
222.1304882509
 20
119.9950713469
 30
0.0
 11
222.1304882509
 21
119.7549168724
 31
0.0
  0
LINE
  5
22A
330
1F
100
AcDbEntity
  8
0
  6
Continuous
 62
     7
370
    18
100
AcDbLine
 10
221.3032895056
 20
119.9950713469
 30
0.0
 11
222.1304882509
 21
119.9950713469
 31
0.0
  0
LINE
  5
22B
330
1F
100
AcDbEntity
  8
0
  6
Continuous
 62
     7
370
    18
100
AcDbLine
 10
221.1431865227
 20
118.942310847
 30
0.0
 11
221.3032895056
 21
119.9950713469
 31
0.0
  0
LINE
  5
22C
330
1F
100
AcDbEntity
  8
0
  6
Continuous
 62
     7
370
    18
100
AcDbLine
 10
221.3566571666
 20
118.9118746028
 30
0.0
 11
221.1431865227
 21
118.942310847
 31
0.0
  0
SPLINE
  5
22D
330
1F
100
AcDbEntity
  8
0
  6
Continuous
 62
     7
370
    18
100
AcDbSpline
210
0.0
220
0.0
230
1.0
 70
     8
 71
     3
 72
    10
 73
     6
 74
     0
 42
0.000000001
 43
0.00000001
 40
0.0
 40
0.0
 40
0.0
 40
0.0
 40
0.2801682771676944
 40
0.5607715634932651
 40
1.0
 40
1.0
 40
1.0
 40
1.0
 10
221.6497623671586
 20
119.1145049406249
 30
0.0
 10
221.614774353921
 20
119.1106379727749
 30
0.0
 10
221.5447440025723
 20
119.102898032946
 30
0.0
 10
221.4338994900152
 20
119.0362434905927
 30
0.0
 10
221.3859283175991
 20
118.9590044706604
 30
0.0
 10
221.3566571665934
 20
118.9118746028231
 30
0.0
  0
SPLINE
  5
22E
330
1F
100
AcDbEntity
  8
0
  6
Continuous
 62
     7
370
    18
100
AcDbSpline
210
0.0
220
0.0
230
1.0
 70
     8
 71
     3
 72
    11
 73
     7
 74
     0
 42
0.000000001
 43
0.00000001
 40
0.0
 40
0.0
 40
0.0
 40
0.0
 40
0.2810318196216983
 40
0.5605860755662323
 40
0.7803889752948997
 40
1.0
 40
1.0
 40
1.0
 40
1.0
 10
221.9970690984116
 20
118.6550427343335
 30
0.0
 10
221.9942126052461
 20
118.7155944824626
 30
0.0
 10
221.9885146373232
 20
118.8363796195267
 30
0.0
 10
221.9144727900821
 20
118.9914809129782
 30
0.0
 10
221.792780733801
 20
119.0975898894587
 30
0.0
 10
221.6974212761134
 20
119.1088682318411
 30
0.0
 10
221.6497623671586
 20
119.1145049406249
 30
0.0
  0
SPLINE
  5
22F
330
1F
100
AcDbEntity
  8
0
  6
Continuous
 62
     7
370
    18
100
AcDbSpline
210
0.0
220
0.0
230
1.0
 70
     8
 71
     3
 72
    12
 73
     8
 74
     0
 42
0.000000001
 43
0.00000001
 40
0.0
 40
0.0
 40
0.0
 40
0.0
 40
0.1858835197478803
 40
0.372301851349966
 40
0.5590684864252703
 40
0.779324338001526
 40
1.0
 40
1.0
 40
1.0
 40
1.0
 10
221.6443422140898
 20
118.1538870428976
 30
0.0
 10
221.686843517273
 20
118.1594090333842
 30
0.0
 10
221.7719684055973
 20
118.1704689018657
 30
0.0
 10
221.8727562379146
 20
118.255357428749
 30
0.0
 10
221.9486468673608
 20
118.3669289829683
 30
0.0
 10
221.9909931173314
 20
118.5052422548415
 30
0.0
 10
221.9950424862516
 20
118.6050775568081
 30
0.0
 10
221.9970690984116
 20
118.6550427343335
 30
0.0
  0
SPLINE
  5
230
330
1F
100
AcDbEntity
  8
0
  6
Continuous
 62
     7
370
    18
100
AcDbSpline
210
0.0
220
0.0
230
1.0
 70
     8
 71
     3
 72
    11
 73
     7
 74
     0
 42
0.000000001
 43
0.00000001
 40
0.0
 40
0.0
 40
0.0
 40
0.0
 40
0.2811074381184288
 40
0.5611160017532767
 40
0.7809929910720572
 40
1.0
 40
1.0
 40
1.0
 40
1.0
 10
221.329973336101
 20
118.554144500284
 30
0.0
 10
221.3381890650538
 20
118.5024982505652
 30
0.0
 10
221.3545884069295
 20
118.3994076410041
 30
0.0
 10
221.4188431922304
 20
118.2671193928701
 30
0.0
 10
221.5212207502469
 20
118.1721680538918
 30
0.0
 10
221.6033559971679
 20
118.1599726550953
 30
0.0
 10
221.6443422140898
 20
118.1538870428976
 30
0.0
  0
LINE
  5
231
330
1F
100
AcDbEntity
  8
0
  6
Continuous
 62
     7
370
    18
100
AcDbLine
 10
221.1165026922
 20
118.5274606698
 30
0.0
 11
221.3299733361
 21
118.5541445003
 31
0.0
  0
SPLINE
  5
232
330
1F
100
AcDbEntity
  8
0
  6
Continuous
 62
     7
370
    18
100
AcDbSpline
210
0.0
220
0.0
230
1.0
 70
     8
 71
     3
 72
    12
 73
     8
 74
     0
 42
0.000000001
 43
0.00000001
 40
0.0
 40
0.0
 40
0.0
 40
0.0
 40
0.1865885886654296
 40
0.3730457041861963
 40
0.559705366102897
 40
0.7796179230979456
 40
1.0
 40
1.0
 40
1.0
 40
1.0
 10
221.646426888347
 20
117.9404163989582
 30
0.0
 10
221.5916099150807
 20
117.9447782470031
 30
0.0
 10
221.4820145934174
 20
117.9534988696685
 30
0.0
 10
221.3363211184931
 20
118.0373152329474
 30
0.0
 10
221.2172739201231
 20
118.1653537799951
 30
0.0
 10
221.1403335219167
 20
118.3356552490122
 30
0.0
 10
221.1244519473266
 20
118.4634800930564
 30
0.0
 10
221.1165026921616
 20
118.5274606697916
 30
0.0
  0
SPLINE
  5
233
330
1F
100
AcDbEntity
  8
0
  6
Continuous
 62
     7
370
    18
100
AcDbSpline
210
0.0
220
0.0
230
1.0
 70
     8
 71
     3
 72
    13
 73
     9
 74
     0
 42
0.000000001
 43
0.00000001
 40
0.0
 40
0.0
 40
0.0
 40
0.0
 40
0.1868890796518145
 40
0.3736670037034829
 40
0.5603596573753085
 40
0.7069433013335574
 40
0.8533827747571286
 40
1.0
 40
1.0
 40
1.0
 40
1.0
 10
222.210539742351
 20
118.6667169101739
 30
0.0
 10
222.2074461623088
 20
118.6027980913569
 30
0.0
 10
222.2012608421861
 20
118.474998470576
 30
0.0
 10
222.1440975265448
 20
118.2902265948679
 30
0.0
 10
222.053313514029
 20
118.1354615327346
 30
0.0
 10
221.9354444194348
 20
118.0192018498714
 30
0.0
 10
221.7972603482361
 20
117.9509656935372
 30
0.0
 10
221.6967250346781
 20
117.9439342521111
 30
0.0
 10
221.646426888347
 20
117.9404163989582
 30
0.0
  0
LINE
  5
234
330
1F
100
AcDbEntity
  8
0
  6
Continuous
 62
     7
370
    18
100
AcDbLine
 10
219.9244859519
 20
117.9671002295
 30
0.0
 11
219.4354213711
 21
119.7603370255
 31
0.0
  0
LINE
  5
235
330
1F
100
AcDbEntity
  8
0
  6
Continuous
 62
     7
370
    18
100
AcDbLine
 10
220.142959814
 20
117.9671002295
 30
0.0
 11
219.9244859519
 21
117.9671002295
 31
0.0
  0
LINE
  5
236
330
1F
100
AcDbEntity
  8
0
  6
Continuous
 62
     7
370
    18
100
AcDbLine
 10
220.6361937433
 20
119.6631912051
 30
0.0
 11
220.142959814
 21
117.9671002295
 31
0.0
  0
LINE
  5
237
330
1F
100
AcDbEntity
  8
0
  6
Continuous
 62
     7
370
    18
100
AcDbLine
 10
220.6361937433
 20
117.9671002295
 30
0.0
 11
220.6361937433
 21
119.6631912051
 31
0.0
  0
LINE
  5
238
330
1F
100
AcDbEntity
  8
0
  6
Continuous
 62
     7
370
    18
100
AcDbLine
 10
220.8496643872
 20
117.9671002295
 30
0.0
 11
220.6361937433
 21
117.9671002295
 31
0.0
  0
LINE
  5
239
330
1F
100
AcDbEntity
  8
0
  6
Continuous
 62
     7
370
    18
100
AcDbLine
 10
220.8496643872
 20
120.0217551774
 30
0.0
 11
220.8496643872
 21
117.9671002295
 31
0.0
  0
LINE
  5
23A
330
1F
100
AcDbEntity
  8
0
  6
Continuous
 62
     7
370
    18
100
AcDbLine
 10
220.5473866199
 20
120.0217551774
 30
0.0
 11
220.8496643872
 21
120.0217551774
 31
0.0
  0
LINE
  5
23B
330
1F
100
AcDbEntity
  8
0
  6
Continuous
 62
     7
370
    18
100
AcDbLine
 10
220.1287840291
 20
118.5920855718
 30
0.0
 11
220.5473866199
 21
120.0217551774
 31
0.0
  0
SPLINE
  5
23C
330
1F
100
AcDbEntity
  8
0
  6
Continuous
 62
     7
370
    18
100
AcDbSpline
210
0.0
220
0.0
230
1.0
 70
     8
 71
     3
 72
     9
 73
     5
 74
     0
 42
0.000000001
 43
0.00000001
 40
0.0
 40
0.0
 40
0.0
 40
0.0
 40
0.5599947003108305
 40
1.0
 40
1.0
 40
1.0
 40
1.0
 10
220.0358075572184
 20
118.2627070391246
 30
0.0
 10
220.0527374635363
 20
118.3243108351534
 30
0.0
 10
220.0829697252141
 20
118.4343186548608
 30
0.0
 10
220.1147850969257
 20
118.5438786106045
 30
0.0
 10
220.1287840290904
 20
118.5920855717654
 30
0.0
  0
LINE
  5
23D
330
1F
100
AcDbEntity
  8
0
  6
Continuous
 62
     7
370
    18
100
AcDbLine
 10
219.9557560657
 20
118.5670694807
 30
0.0
 11
220.0358075572
 21
118.2627070391
 31
0.0
  0
LINE
  5
23E
330
1F
100
AcDbEntity
  8
0
  6
Continuous
 62
     7
370
    18
100
AcDbLine
 10
219.5559155432
 20
120.0217551774
 30
0.0
 11
219.9557560657
 21
118.5670694807
 31
0.0
  0
LINE
  5
23F
330
1F
100
AcDbEntity
  8
0
  6
Continuous
 62
     7
370
    18
100
AcDbLine
 10
219.2219507272
 20
120.0217551774
 30
0.0
 11
219.5559155432
 21
120.0217551774
 31
0.0
  0
LINE
  5
240
330
1F
100
AcDbEntity
  8
0
  6
Continuous
 62
     7
370
    18
100
AcDbLine
 10
219.2219507272
 20
117.9671002295
 30
0.0
 11
219.2219507272
 21
120.0217551774
 31
0.0
  0
LINE
  5
241
330
1F
100
AcDbEntity
  8
0
  6
Continuous
 62
     7
370
    18
100
AcDbLine
 10
219.4354213711
 20
117.9671002295
 30
0.0
 11
219.2219507272
 21
117.9671002295
 31
0.0
  0
LINE
  5
242
330
1F
100
AcDbEntity
  8
0
  6
Continuous
 62
     7
370
    18
100
AcDbLine
 10
219.4354213711
 20
119.7603370255
 30
0.0
 11
219.4354213711
 21
117.9671002295
 31
0.0
  0
SPLINE
  5
243
330
1F
100
AcDbEntity
  8
0
  6
Continuous
 62
     7
370
    18
100
AcDbSpline
210
0.0
220
0.0
230
1.0
 70
     8
 71
     3
 72
    14
 73
    10
 74
     0
 42
0.000000001
 43
0.00000001
 40
0.0
 40
0.0
 40
0.0
 40
0.0
 40
0.125026764525425
 40
0.2499561862380669
 40
0.3747506313882876
 40
0.4996959194189186
 40
0.6663177050472582
 40
0.8330998507676217
 40
1.0
 40
1.0
 40
1.0
 40
1.0
 10
218.2375675429398
 20
119.8082845334279
 30
0.0
 10
218.1915399547264
 20
119.8054682031182
 30
0.0
 10
218.0995206142655
 20
119.7998377352252
 30
0.0
 10
217.9694329045705
 20
119.7473794361687
 30
0.0
 10
217.8615787628475
 20
119.6588494238723
 30
0.0
 10
217.7747749593974
 20
119.5312920635451
 30
0.0
 10
217.7120602232694
 20
119.3737412867772
 30
0.0
 10
217.6790693061936
 20
119.1920224626659
 30
0.0
 10
217.6758825168162
 20
119.0694796352545
 30
0.0
 10
217.6742885586389
 20
119.0081865535066
 30
0.0
  0
SPLINE
  5
244
330
1F
100
AcDbEntity
  8
0
  6
Continuous
 62
     7
370
    18
100
AcDbSpline
210
0.0
220
0.0
230
1.0
 70
     8
 71
     3
 72
    11
 73
     7
 74
     0
 42
0.000000001
 43
0.00000001
 40
0.0
 40
0.0
 40
0.0
 40
0.0
 40
0.2807713074051733
 40
0.5604369820882196
 40
0.7800147849953735
 40
0.9999999999999999
 40
0.9999999999999999
 40
0.9999999999999999
 40
0.9999999999999999
 10
218.6882741173509
 20
119.3813432455491
 30
0.0
 10
218.6696806925048
 20
119.4417322278655
 30
0.0
 10
218.6325670607603
 20
119.562272390297
 30
0.0
 10
218.5288957330133
 20
119.708539292758
 30
0.0
 10
218.3867450575041
 20
119.7963138095774
 30
0.0
 10
218.2873240974683
 20
119.804291827317
 30
0.0
 10
218.2375675429398
 20
119.8082845334279
 30
0.0
  0
LINE
  5
245
330
1F
100
AcDbEntity
  8
0
  6
Continuous
 62
     7
370
    18
100
AcDbLine
 10
218.9017447613
 20
119.4347109065
 30
0.0
 11
218.6882741174
 21
119.3813432455
 31
0.0
  0
SPLINE
  5
246
330
1F
100
AcDbEntity
  8
0
  6
Continuous
 62
     7
370
    18
100
AcDbSpline
210
0.0
220
0.0
230
1.0
 70
     8
 71
     3
 72
    12
 73
     8
 74
     0
 42
0.000000001
 43
0.00000001
 40
0.0
 40
0.0
 40
0.0
 40
0.0
 40
0.1866161660947046
 40
0.3730652985771172
 40
0.5597027812570791
 40
0.7796715026895213
 40
1.0
 40
1.0
 40
1.0
 40
1.0
 10
218.2463231748202
 20
120.0484390078597
 30
0.0
 10
218.3072833998412
 20
120.0439811946213
 30
0.0
 10
218.4291492865151
 20
120.0350695581774
 30
0.0
 10
218.5968216969807
 20
119.9536845668586
 30
0.0
 10
218.739790184998
 20
119.8211601394419
 30
0.0
 10
218.8445795388179
 20
119.642299507525
 30
0.0
 10
218.8826793097651
 20
119.5039447910221
 30
0.0
 10
218.9017447612904
 20
119.434710906534
 30
0.0
  0
SPLINE
  5
247
330
1F
100
AcDbEntity
  8
0
  6
Continuous
 62
     7
370
    18
100
AcDbSpline
210
0.0
220
0.0
230
1.0
 70
     8
 71
     3
 72
    13
 73
     9
 74
     0
 42
0.000000001
 43
0.00000001
 40
0.0
 40
0.0
 40
0.0
 40
0.0
 40
0.1869886270143178
 40
0.3737840604657697
 40
0.5603785113196434
 40
0.706940528050866
 40
0.8534458164057742
 40
1.0
 40
1.0
 40
1.0
 40
1.0
 10
217.4608179146994
 20
119.0081865535066
 30
0.0
 10
217.464045172043
 20
119.099243360184
 30
0.0
 10
217.470496352381
 20
119.2812628951492
 30
0.0
 10
217.5396453068211
 20
119.54740454755
 30
0.0
 10
217.6637394544583
 20
119.7723761904938
 30
0.0
 10
217.8357343437318
 20
119.9338820707262
 30
0.0
 10
218.0315837537837
 20
120.03164337448
 30
0.0
 10
218.1747354064726
 20
120.0428398407118
 30
0.0
 10
218.2463231748202
 20
120.0484390078597
 30
0.0
  0
SPLINE
  5
248
330
1F
100
AcDbEntity
  8
0
  6
Continuous
 62
     7
370
    18
100
AcDbSpline
210
0.0
220
0.0
230
1.0
 70
     8
 71
     3
 72
    14
 73
    10
 74
     0
 42
0.000000001
 43
0.00000001
 40
0.0
 40
0.0
 40
0.0
 40
0.0
 40
0.1249789553015485
 40
0.2498098163504275
 40
0.3745823232578647
 40
0.4995715195159084
 40
0.6662781166416187
 40
0.8331039635850063
 40
1.0
 40
1.0
 40
1.0
 40
1.0
 10
218.2271441716537
 20
117.9404163989582
 30
0.0
 10
218.1654999378365
 20
117.9439045349951
 30
0.0
 10
218.0422845157535
 20
117.9508766737896
 30
0.0
 10
217.8675900047799
 20
118.0200777040185
 30
0.0
 10
217.723363159841
 20
118.1391701391003
 30
0.0
 10
217.6077016833392
 20
118.3103411560048
 30
0.0
 10
217.5199154667061
 20
118.5195073547057
 30
0.0
 10
217.4685196881777
 20
118.7618050993219
 30
0.0
 10
217.4633855324696
 20
118.9260478874193
 30
0.0
 10
217.4608179146994
 20
119.0081865535066
 30
0.0
  0
SPLINE
  5
249
330
1F
100
AcDbEntity
  8
0
  6
Continuous
 62
     7
370
    18
100
AcDbSpline
210
0.0
220
0.0
230
1.0
 70
     8
 71
     3
 72
    13
 73
     9
 74
     0
 42
0.000000001
 43
0.00000001
 40
0.0
 40
0.0
 40
0.0
 40
0.0
 40
0.1869090516642991
 40
0.3736796016941251
 40
0.560113684710385
 40
0.7067311959183726
 40
0.8533138294591263
 40
1.0
 40
1.0
 40
1.0
 40
1.0
 10
218.9284285917828
 20
118.6341959917613
 30
0.0
 10
218.9125747159977
 20
118.5688678387885
 30
0.0
 10
218.8808787123214
 20
118.438259941713
 30
0.0
 10
218.7958157149025
 20
118.254264755373
 30
0.0
 10
218.6781375503859
 20
118.1059454598991
 30
0.0
 10
218.5357279625908
 20
118.0060938548121
 30
0.0
 10
218.3855775256571
 20
117.9495891366605
 30
0.0
 10
218.2799677179829
 20
117.9434746977491
 30
0.0
 10
218.2271441716537
 20
117.9404163989582
 30
0.0
  0
LINE
  5
24A
330
1F
100
AcDbEntity
  8
0
  6
Continuous
 62
     7
370
    18
100
AcDbLine
 10
218.7149579478
 20
118.6875636527
 30
0.0
 11
218.9284285918
 21
118.6341959918
 31
0.0
  0
SPLINE
  5
24B
330
1F
100
AcDbEntity
  8
0
  6
Continuous
 62
     7
370
    18
100
AcDbSpline
210
0.0
220
0.0
230
1.0
 70
     8
 71
     3
 72
    12
 73
     8
 74
     0
 42
0.000000001
 43
0.00000001
 40
0.0
 40
0.0
 40
0.0
 40
0.0
 40
0.1865921528409286
 40
0.3730589116156812
 40
0.5596226295490477
 40
0.779610010416392
 40
1.0
 40
1.0
 40
1.0
 40
1.0
 10
218.2204732140306
 20
118.1805708733901
 30
0.0
 10
218.2689673693314
 20
118.1843605246397
 30
0.0
 10
218.3659230907847
 20
118.1919372804093
 30
0.0
 10
218.4965542680607
 20
118.2625185272179
 30
0.0
 10
218.605292427212
 20
118.3729361397251
 30
0.0
 10
218.6786135556875
 20
118.5205360297197
 30
0.0
 10
218.702835768854
 20
118.6318538548272
 30
0.0
 10
218.7149579478434
 20
118.6875636527461
 30
0.0
  0
SPLINE
  5
24C
330
1F
100
AcDbEntity
  8
0
  6
Continuous
 62
     7
370
    18
100
AcDbSpline
210
0.0
220
0.0
230
1.0
 70
     8
 71
     3
 72
    14
 73
    10
 74
     0
 42
0.000000001
 43
0.00000001
 40
0.0
 40
0.0
 40
0.0
 40
0.0
 40
0.1669299867484126
 40
0.3337709048041635
 40
0.5004211293286687
 40
0.6254239239505646
 40
0.750319458282854
 40
0.875093128947508
 40
1.0
 40
1.0
 40
1.0
 40
1.0
 10
217.6742885586389
 20
119.0081865535066
 30
0.0
 10
217.6756182945693
 20
118.946239615246
 30
0.0
 10
217.6782770569243
 20
118.8223787917004
 30
0.0
 10
217.7084232451767
 20
118.6386838161516
 30
0.0
 10
217.7630035203246
 20
118.47603375141
 30
0.0
 10
217.8487736676222
 20
118.3457391583461
 30
0.0
 10
217.9523569411957
 20
118.2509753033238
 30
0.0
 10
218.0809401129664
 20
118.1901739709863
 30
0.0
 10
218.1739456413786
 20
118.1837730441846
 30
0.0
 10
218.2204732140306
 20
118.1805708733901
 30
0.0
  0
CIRCLE
  5
24D
330
1F
100
AcDbEntity
  8
0
  6
Continuous
 62
     7
370
    18
100
AcDbCircle
 10
225.8929083503
 20
121.355946702
 30
0.0
 40
25.19999999999999
  0
SPLINE
  5
24E
330
1F
100
AcDbEntity
  8
0
  6
Continuous
 62
     7
370
    18
100
AcDbSpline
210
0.0
220
0.0
230
1.0
 70
     8
 71
     3
 72
    13
 73
     9
 74
     0
 42
0.000000001
 43
0.00000001
 40
0.0
 40
0.0
 40
0.0
 40
0.0
 40
0.1237345749994063
 40
0.2484232101745704
 40
0.3734713343328597
 40
0.4987444967637458
 40
0.7493102257733216
 40
1.0
 40
1.0
 40
1.0
 40
1.0
 10
232.5021596153979
 20
118.1538870428976
 30
0.0
 10
232.5432440115875
 20
118.1612502846504
 30
0.0
 10
232.6257295867758
 20
118.1760335427134
 30
0.0
 10
232.7099241564783
 20
118.2737463367843
 30
0.0
 10
232.7669938790341
 20
118.3824884194004
 30
0.0
 10
232.8061640764498
 20
118.5432815264963
 30
0.0
 10
232.8274313993735
 20
118.7478385103561
 30
0.0
 10
232.8296131387108
 20
118.9122177461342
 30
0.0
 10
232.8307042783358
 20
118.994427703409
 30
0.0
  0
SPLINE
  5
24F
330
1F
100
AcDbEntity
  8
0
  6
Continuous
 62
     7
370
    18
100
AcDbSpline
210
0.0
220
0.0
230
1.0
 70
     8
 71
     3
 72
    13
 73
     9
 74
     0
 42
0.000000001
 43
0.00000001
 40
0.0
 40
0.0
 40
0.0
 40
0.0
 40
0.2506668541570163
 40
0.5012048357437129
 40
0.6264537829510447
 40
0.751429187159485
 40
0.8760522367173382
 40
1.0
 40
1.0
 40
1.0
 40
1.0
 10
232.1636085160252
 20
118.994427703409
 30
0.0
 10
232.1646568228418
 20
118.911482467614
 30
0.0
 10
232.1667528975206
 20
118.7456346397383
 30
0.0
 10
232.1885719965594
 20
118.5392606373606
 30
0.0
 10
232.2286744768299
 20
118.3772062539247
 30
0.0
 10
232.2880458184468
 20
118.2681007508055
 30
0.0
 10
232.3771471777945
 20
118.1734104253467
 30
0.0
 10
232.4605643419897
 20
118.1603830399871
 30
0.0
 10
232.5021596153979
 20
118.1538870428976
 30
0.0
  0
SPLINE
  5
250
330
1F
100
AcDbEntity
  8
0
  6
Continuous
 62
     7
370
    18
100
AcDbSpline
210
0.0
220
0.0
230
1.0
 70
     8
 71
     3
 72
    13
 73
     9
 74
     0
 42
0.000000001
 43
0.00000001
 40
0.0
 40
0.0
 40
0.0
 40
0.0
 40
0.1236770548154476
 40
0.2483884878623277
 40
0.3734455614730945
 40
0.4987169325063971
 40
0.7492948497723043
 40
1.0
 40
1.0
 40
1.0
 40
1.0
 10
232.4896515698545
 20
119.8349683639204
 30
0.0
 10
232.4486630052002
 20
119.8274751646606
 30
0.0
 10
232.3663430663132
 20
119.812426096455
 30
0.0
 10
232.2832293468916
 20
119.7140687561248
 30
0.0
 10
232.2264962978184
 20
119.6054349347888
 30
0.0
 10
232.1884805038258
 20
119.4446529056246
 30
0.0
 10
232.1667357550835
 20
119.2406039956882
 30
0.0
 10
232.1646511054161
 20
119.0765003514691
 30
0.0
 10
232.1636085160252
 20
118.994427703409
 30
0.0
  0
SPLINE
  5
251
330
1F
100
AcDbEntity
  8
0
  6
Continuous
 62
     7
370
    18
100
AcDbSpline
210
0.0
220
0.0
230
1.0
 70
     8
 71
     3
 72
    13
 73
     9
 74
     0
 42
0.000000001
 43
0.00000001
 40
0.0
 40
0.0
 40
0.0
 40
0.0
 40
0.2506736071386389
 40
0.5012152607337983
 40
0.6264526015104095
 40
0.7514497498805429
 40
0.8760271183236269
 40
1.0
 40
1.0
 40
1.0
 40
1.0
 10
232.8307042783358
 20
118.994427703409
 30
0.0
 10
232.8296657754237
 20
119.0775738571628
 30
0.0
 10
232.8275893162632
 20
119.2438223968812
 30
0.0
 10
232.805675071852
 20
119.4507135246849
 30
0.0
 10
232.7652826166154
 20
119.6130891004152
 30
0.0
 10
232.7055149858652
 20
119.7224298476747
 30
0.0
 10
232.6149949005125
 20
119.8161680993761
 30
0.0
 10
232.5313648825974
 20
119.8287117780257
 30
0.0
 10
232.4896515698545
 20
119.8349683639204
 30
0.0
  0
SPLINE
  5
252
330
1F
100
AcDbEntity
  8
0
  6
Continuous
 62
     7
370
    18
100
AcDbSpline
210
0.0
220
0.0
230
1.0
 70
     8
 71
     3
 72
    13
 73
     9
 74
     0
 42
0.000000001
 43
0.00000001
 40
0.0
 40
0.0
 40
0.0
 40
0.0
 40
0.1237345749994064
 40
0.2484232101745693
 40
0.3734713343328591
 40
0.4987444967637458
 40
0.7493102257733215
 40
1.0
 40
1.0
 40
1.0
 40
1.0
 10
228.9798939903978
 20
118.1538870428976
 30
0.0
 10
229.0209783865875
 20
118.1612502846504
 30
0.0
 10
229.1034639617758
 20
118.1760335427134
 30
0.0
 10
229.1876585314782
 20
118.2737463367843
 30
0.0
 10
229.2447282540341
 20
118.3824884194004
 30
0.0
 10
229.2838984514498
 20
118.5432815264963
 30
0.0
 10
229.3051657743735
 20
118.7478385103561
 30
0.0
 10
229.3073475137107
 20
118.9122177461342
 30
0.0
 10
229.3084386533358
 20
118.994427703409
 30
0.0
  0
SPLINE
  5
253
330
1F
100
AcDbEntity
  8
0
  6
Continuous
 62
     7
370
    18
100
AcDbSpline
210
0.0
220
0.0
230
1.0
 70
     8
 71
     3
 72
    13
 73
     9
 74
     0
 42
0.000000001
 43
0.00000001
 40
0.0
 40
0.0
 40
0.0
 40
0.0
 40
0.2506668541570164
 40
0.5012048357437133
 40
0.6264537829510449
 40
0.7514291871594854
 40
0.8760522367173392
 40
1.0
 40
1.0
 40
1.0
 40
1.0
 10
228.6413428910252
 20
118.994427703409
 30
0.0
 10
228.6423911978418
 20
118.911482467614
 30
0.0
 10
228.6444872725206
 20
118.7456346397383
 30
0.0
 10
228.6663063715594
 20
118.5392606373606
 30
0.0
 10
228.7064088518299
 20
118.3772062539247
 30
0.0
 10
228.7657801934468
 20
118.2681007508055
 30
0.0
 10
228.8548815527946
 20
118.1734104253467
 30
0.0
 10
228.9382987169897
 20
118.1603830399871
 30
0.0
 10
228.9798939903978
 20
118.1538870428976
 30
0.0
  0
SPLINE
  5
254
330
1F
100
AcDbEntity
  8
0
  6
Continuous
 62
     7
370
    18
100
AcDbSpline
210
0.0
220
0.0
230
1.0
 70
     8
 71
     3
 72
    13
 73
     9
 74
     0
 42
0.000000001
 43
0.00000001
 40
0.0
 40
0.0
 40
0.0
 40
0.0
 40
0.123677054815446
 40
0.248388487862328
 40
0.3734455614730936
 40
0.4987169325063966
 40
0.7492948497723041
 40
1.0
 40
1.0
 40
1.0
 40
1.0
 10
228.9673859448545
 20
119.8349683639204
 30
0.0
 10
228.9263973802002
 20
119.8274751646606
 30
0.0
 10
228.8440774413132
 20
119.812426096455
 30
0.0
 10
228.7609637218916
 20
119.7140687561248
 30
0.0
 10
228.7042306728184
 20
119.6054349347888
 30
0.0
 10
228.6662148788259
 20
119.4446529056246
 30
0.0
 10
228.6444701300835
 20
119.2406039956882
 30
0.0
 10
228.6423854804162
 20
119.0765003514691
 30
0.0
 10
228.6413428910252
 20
118.994427703409
 30
0.0
  0
SPLINE
  5
255
330
1F
100
AcDbEntity
  8
0
  6
Continuous
 62
     7
370
    18
100
AcDbSpline
210
0.0
220
0.0
230
1.0
 70
     8
 71
     3
 72
    13
 73
     9
 74
     0
 42
0.000000001
 43
0.00000001
 40
0.0
 40
0.0
 40
0.0
 40
0.0
 40
0.250673607138639
 40
0.5012152607337989
 40
0.6264526015104103
 40
0.7514497498805424
 40
0.8760271183236278
 40
1.0
 40
1.0
 40
1.0
 40
1.0
 10
229.3084386533358
 20
118.994427703409
 30
0.0
 10
229.3074001504237
 20
119.0775738571628
 30
0.0
 10
229.3053236912632
 20
119.2438223968812
 30
0.0
 10
229.283409446852
 20
119.4507135246849
 30
0.0
 10
229.2430169916154
 20
119.6130891004152
 30
0.0
 10
229.1832493608652
 20
119.7224298476747
 30
0.0
 10
229.0927292755125
 20
119.8161680993761
 30
0.0
 10
229.0090992575975
 20
119.8287117780257
 30
0.0
 10
228.9673859448545
 20
119.8349683639204
 30
0.0
  0
SPLINE
  5
256
330
1F
100
AcDbEntity
  8
0
  6
Continuous
 62
     7
370
    18
100
AcDbSpline
210
0.0
220
0.0
230
1.0
 70
     8
 71
     3
 72
    12
 73
     8
 74
     0
 42
0.000000001
 43
0.00000001
 40
0.0
 40
0.0
 40
0.0
 40
0.0
 40
0.1864266110451001
 40
0.372806618367267
 40
0.5596384089196375
 40
0.7795953861027523
 40
1.0
 40
1.0
 40
1.0
 40
1.0
 10
224.2797874100682
 20
118.1538870428976
 30
0.0
 10
224.3165816534672
 20
118.1574427104863
 30
0.0
 10
224.3901609422828
 20
118.1645531568024
 30
0.0
 10
224.4849554403104
 20
118.2264500082356
 30
0.0
 10
224.5601225332975
 20
118.3164111901962
 30
0.0
 10
224.6053971854803
 20
118.4336721583375
 30
0.0
 10
224.6098538761666
 20
118.5200728214328
 30
0.0
 10
224.6120844866691
 20
118.5633170670158
 30
0.0
  0
SPLINE
  5
257
330
1F
100
AcDbEntity
  8
0
  6
Continuous
 62
     7
370
    18
100
AcDbSpline
210
0.0
220
0.0
230
1.0
 70
     8
 71
     3
 72
    11
 73
     7
 74
     0
 42
0.000000001
 43
0.00000001
 40
0.0
 40
0.0
 40
0.0
 40
0.0
 40
0.2807261943832931
 40
0.5603972916125639
 40
0.7804346209650643
 40
1.0
 40
1.0
 40
1.0
 40
1.0
 10
223.9449887243585
 20
118.5716557640447
 30
0.0
 10
223.948563464276
 20
118.5156231518243
 30
0.0
 10
223.9556995086068
 20
118.403768523512
 30
0.0
 10
224.0342103125614
 20
118.2653930977933
 30
0.0
 10
224.1479456137085
 20
118.1705910600887
 30
0.0
 10
224.2358716099214
 20
118.1594510620544
 30
0.0
 10
224.2797874100682
 20
118.1538870428976
 30
0.0
  0
SPLINE
  5
258
330
1F
100
AcDbEntity
  8
0
  6
Continuous
 62
     7
370
    18
100
AcDbSpline
210
0.0
220
0.0
230
1.0
 70
     8
 71
     3
 72
    11
 73
     7
 74
     0
 42
0.000000001
 43
0.00000001
 40
0.0
 40
0.0
 40
0.0
 40
0.0
 40
0.2782055765816051
 40
0.5579799253701341
 40
0.7788219222535296
 40
1.0
 40
1.0
 40
1.0
 40
1.0
 10
224.2743672569994
 20
118.9810857881628
 30
0.0
 10
224.2196829815981
 20
118.9718960356995
 30
0.0
 10
224.1100060718745
 20
118.9534647107179
 30
0.0
 10
224.0047615554004
 20
118.8319930627194
 30
0.0
 10
223.9516842653568
 20
118.7009923762598
 30
0.0
 10
223.9472217023639
 20
118.6147898155638
 30
0.0
 10
223.9449887243585
 20
118.5716557640447
 30
0.0
  0
SPLINE
  5
259
330
1F
100
AcDbEntity
  8
0
  6
Continuous
 62
     7
370
    18
100
AcDbSpline
210
0.0
220
0.0
230
1.0
 70
     8
 71
     3
 72
    11
 73
     7
 74
     0
 42
0.000000001
 43
0.00000001
 40
0.0
 40
0.0
 40
0.0
 40
0.0
 40
0.2807535301687801
 40
0.5603207228591544
 40
0.7803822345379211
 40
1.0
 40
1.0
 40
1.0
 40
1.0
 10
224.6120844866691
 20
118.5633170670158
 30
0.0
 10
224.6084002829717
 20
118.6195560177671
 30
0.0
 10
224.6010474433558
 20
118.7317962788917
 30
0.0
 10
224.5209223193615
 20
118.8698355608913
 30
0.0
 10
224.4066879876101
 20
118.9645823752666
 30
0.0
 10
224.3184444806228
 20
118.9755883531243
 30
0.0
 10
224.2743672569994
 20
118.9810857881628
 30
0.0
  0
SPLINE
  5
25A
330
1F
100
AcDbEntity
  8
0
  6
Continuous
 62
     7
370
    18
100
AcDbSpline
210
0.0
220
0.0
230
1.0
 70
     8
 71
     3
 72
    11
 73
     7
 74
     0
 42
0.000000001
 43
0.00000001
 40
0.0
 40
0.0
 40
0.0
 40
0.0
 40
0.2783889696083852
 40
0.558081705529686
 40
0.778901853998823
 40
0.9999999999999999
 40
0.9999999999999999
 40
0.9999999999999999
 40
0.9999999999999999
 10
224.2797874100682
 20
119.1945564321022
 30
0.0
 10
224.3217744564836
 20
119.201721892541
 30
0.0
 10
224.4059451853262
 20
119.2160863710913
 30
0.0
 10
224.4860485810761
 20
119.3097802162927
 30
0.0
 10
224.5270640428511
 20
119.4100995471841
 30
0.0
 10
224.5303759832642
 20
119.4762474751311
 30
0.0
 10
224.5320329951919
 20
119.5093422449425
 30
0.0
  0
SPLINE
  5
25B
330
1F
100
AcDbEntity
  8
0
  6
Continuous
 62
     7
370
    18
100
AcDbSpline
210
0.0
220
0.0
230
1.0
 70
     8
 71
     3
 72
    11
 73
     7
 74
     0
 42
0.000000001
 43
0.00000001
 40
0.0
 40
0.0
 40
0.0
 40
0.0
 40
0.2806987831964762
 40
0.5604086902325232
 40
0.7804393617933034
 40
1.0
 40
1.0
 40
1.0
 40
1.0
 10
224.0250402158358
 20
119.5231010950401
 30
0.0
 10
224.027467899267
 20
119.4795439477977
 30
0.0
 10
224.0323147136224
 20
119.3925831011618
 30
0.0
 10
224.0895847134196
 20
119.283084205273
 30
0.0
 10
224.1770051467658
 20
119.2072870389701
 30
0.0
 10
224.2455510865674
 20
119.1987969417104
 30
0.0
 10
224.2797874100682
 20
119.1945564321022
 30
0.0
  0
SPLINE
  5
25C
330
1F
100
AcDbEntity
  8
0
  6
Continuous
 62
     7
370
    18
100
AcDbSpline
210
0.0
220
0.0
230
1.0
 70
     8
 71
     3
 72
    11
 73
     7
 74
     0
 42
0.000000001
 43
0.00000001
 40
0.0
 40
0.0
 40
0.0
 40
0.0
 40
0.2781848052830286
 40
0.5582334878196199
 40
0.7790790531104458
 40
1.0
 40
1.0
 40
1.0
 40
1.0
 10
224.2772858009595
 20
119.8349683639204
 30
0.0
 10
224.2357288665349
 20
119.8276629821975
 30
0.0
 10
224.1523365603904
 20
119.8130032716686
 30
0.0
 10
224.0729052461099
 20
119.720374413895
 30
0.0
 10
224.0307671911979
 20
119.6214679074002
 30
0.0
 10
224.0269494247736
 20
119.5558937622797
 30
0.0
 10
224.0250402158358
 20
119.5231010950401
 30
0.0
  0
SPLINE
  5
25D
330
1F
100
AcDbEntity
  8
0
  6
Continuous
 62
     7
370
    18
100
AcDbSpline
210
0.0
220
0.0
230
1.0
 70
     8
 71
     3
 72
    11
 73
     7
 74
     0
 42
0.000000001
 43
0.00000001
 40
0.0
 40
0.0
 40
0.0
 40
0.0
 40
0.2805990159984103
 40
0.5604527759419516
 40
0.7805133266133514
 40
1.0
 40
1.0
 40
1.0
 40
1.0
 10
224.5320329951919
 20
119.5093422449425
 30
0.0
 10
224.5293490726939
 20
119.5524815315088
 30
0.0
 10
224.5239883560532
 20
119.6386455289919
 30
0.0
 10
224.4634758373782
 20
119.7445341889431
 30
0.0
 10
224.3787385760835
 20
119.8206879867035
 30
0.0
 10
224.3110739447927
 20
119.8302123832308
 30
0.0
 10
224.2772858009595
 20
119.8349683639204
 30
0.0
  0
SPLINE
  5
25E
330
1F
100
AcDbEntity
  8
0
  6
Continuous
 62
     7
370
    18
100
AcDbSpline
210
0.0
220
0.0
230
1.0
 70
     8
 71
     3
 72
    13
 73
     9
 74
     0
 42
0.000000001
 43
0.00000001
 40
0.0
 40
0.0
 40
0.0
 40
0.0
 40
0.123734574999406
 40
0.2484232101745688
 40
0.3734713343328591
 40
0.498744496763746
 40
0.7493102257733215
 40
1.0
 40
1.0
 40
1.0
 40
1.0
 10
222.9760321296024
 20
118.1538870428976
 30
0.0
 10
223.017116525792
 20
118.1612502846504
 30
0.0
 10
223.0996021009803
 20
118.1760335427134
 30
0.0
 10
223.1837966706828
 20
118.2737463367842
 30
0.0
 10
223.2408663932386
 20
118.3824884194004
 30
0.0
 10
223.2800365906543
 20
118.5432815264963
 30
0.0
 10
223.3013039135781
 20
118.7478385103561
 30
0.0
 10
223.3034856529153
 20
118.9122177461342
 30
0.0
 10
223.3045767925403
 20
118.994427703409
 30
0.0
  0
SPLINE
  5
25F
330
1F
100
AcDbEntity
  8
0
  6
Continuous
 62
     7
370
    18
100
AcDbSpline
210
0.0
220
0.0
230
1.0
 70
     8
 71
     3
 72
    13
 73
     9
 74
     0
 42
0.000000001
 43
0.00000001
 40
0.0
 40
0.0
 40
0.0
 40
0.0
 40
0.2506668541570163
 40
0.501204835743713
 40
0.6264537829510443
 40
0.7514291871594849
 40
0.8760522367173387
 40
1.0
 40
1.0
 40
1.0
 40
1.0
 10
222.6374810302298
 20
118.994427703409
 30
0.0
 10
222.6385293370464
 20
118.911482467614
 30
0.0
 10
222.6406254117252
 20
118.7456346397383
 30
0.0
 10
222.662444510764
 20
118.5392606373606
 30
0.0
 10
222.7025469910345
 20
118.3772062539247
 30
0.0
 10
222.7619183326514
 20
118.2681007508055
 30
0.0
 10
222.8510196919991
 20
118.1734104253467
 30
0.0
 10
222.9344368561943
 20
118.1603830399871
 30
0.0
 10
222.9760321296024
 20
118.1538870428976
 30
0.0
  0
SPLINE
  5
260
330
1F
100
AcDbEntity
  8
0
  6
Continuous
 62
     7
370
    18
100
AcDbSpline
210
0.0
220
0.0
230
1.0
 70
     8
 71
     3
 72
    13
 73
     9
 74
     0
 42
0.000000001
 43
0.00000001
 40
0.0
 40
0.0
 40
0.0
 40
0.0
 40
0.1236770548154454
 40
0.248388487862328
 40
0.3734455614730939
 40
0.4987169325063971
 40
0.7492948497723043
 40
1.0
 40
1.0
 40
1.0
 40
1.0
 10
222.9635240840591
 20
119.8349683639204
 30
0.0
 10
222.9225355194047
 20
119.8274751646606
 30
0.0
 10
222.8402155805178
 20
119.812426096455
 30
0.0
 10
222.7571018610962
 20
119.7140687561248
 30
0.0
 10
222.700368812023
 20
119.6054349347888
 30
0.0
 10
222.6623530180304
 20
119.4446529056246
 30
0.0
 10
222.6406082692881
 20
119.2406039956882
 30
0.0
 10
222.6385236196207
 20
119.0765003514691
 30
0.0
 10
222.6374810302298
 20
118.994427703409
 30
0.0
  0
SPLINE
  5
261
330
1F
100
AcDbEntity
  8
0
  6
Continuous
 62
     7
370
    18
100
AcDbSpline
210
0.0
220
0.0
230
1.0
 70
     8
 71
     3
 72
    13
 73
     9
 74
     0
 42
0.000000001
 43
0.00000001
 40
0.0
 40
0.0
 40
0.0
 40
0.0
 40
0.2506736071386389
 40
0.5012152607337985
 40
0.6264526015104102
 40
0.7514497498805426
 40
0.8760271183236277
 40
1.0
 40
1.0
 40
1.0
 40
1.0
 10
223.3045767925403
 20
118.994427703409
 30
0.0
 10
223.3035382896283
 20
119.0775738571628
 30
0.0
 10
223.3014618304677
 20
119.2438223968812
 30
0.0
 10
223.2795475860565
 20
119.4507135246849
 30
0.0
 10
223.23915513082
 20
119.6130891004152
 30
0.0
 10
223.1793875000698
 20
119.7224298476747
 30
0.0
 10
223.088867414717
 20
119.8161680993761
 30
0.0
 10
223.005237396802
 20
119.8287117780257
 30
0.0
 10
222.9635240840591
 20
119.8349683639204
 30
0.0
  0
CIRCLE
  5
262
330
1F
100
AcDbEntity
  8
0
  6
Continuous
 62
     7
370
    18
100
AcDbCircle
 10
225.8929083503
 20
121.355946702
 30
0.0
 40
25.40000000000001
  0
OLE2FRAME
  5
263
330
1F
100
AcDbEntity
  8
0
100
AcDbOle2Frame
 70
     2
  3
Paintbrush Picture
 10
229.0524258301
 20
33.6996297921
 30
0.0
 11
265.1686469208
 21
28.555479607
 31
0.0
 71
     2
 72
     0
 73
     1
 90
     7296
310
80557333EF78ADA16C40002412788DD94040000000000000000041161DC7B292
310
7040002412788DD94040000000000000000041161DC7B2927040F6DD59E9338E
310
3C4000000000000000007333EF78ADA16C40F6DD59E9338E3C40000000000000
310
00000000000001000000000100000100000001000000000001000000001C0000
310
D0CF11E0A1B11AE1000000000000000000000000000000003E000300FEFF0900
310
0600000000000000000000000100000001000000000000000010000002000000
310
01000000FEFFFFFF0000000000000000FFFFFFFFFFFFFFFFFFFFFFFFFFFFFFFF
310
FFFFFFFFFFFFFFFFFFFFFFFFFFFFFFFFFFFFFFFFFFFFFFFFFFFFFFFFFFFFFFFF
310
FFFFFFFFFFFFFFFFFFFFFFFFFFFFFFFFFFFFFFFFFFFFFFFFFFFFFFFFFFFFFFFF
310
FFFFFFFFFFFFFFFFFFFFFFFFFFFFFFFFFFFFFFFFFFFFFFFFFFFFFFFFFFFFFFFF
310
FFFFFFFFFFFFFFFFFFFFFFFFFFFFFFFFFFFFFFFFFFFFFFFFFFFFFFFFFFFFFFFF
310
FFFFFFFFFFFFFFFFFFFFFFFFFFFFFFFFFFFFFFFFFFFFFFFFFFFFFFFFFFFFFFFF
310
FFFFFFFFFFFFFFFFFFFFFFFFFFFFFFFFFFFFFFFFFFFFFFFFFFFFFFFFFFFFFFFF
310
FFFFFFFFFFFFFFFFFFFFFFFFFFFFFFFFFFFFFFFFFFFFFFFFFFFFFFFFFFFFFFFF
310
FFFFFFFFFFFFFFFFFFFFFFFFFFFFFFFFFFFFFFFFFFFFFFFFFFFFFFFFFFFFFFFF
310
FFFFFFFFFFFFFFFFFFFFFFFFFFFFFFFFFFFFFFFFFFFFFFFFFFFFFFFFFFFFFFFF
310
FFFFFFFFFFFFFFFFFFFFFFFFFFFFFFFFFFFFFFFFFFFFFFFFFFFFFFFFFFFFFFFF
310
FFFFFFFFFFFFFFFFFFFFFFFFFFFFFFFFFFFFFFFFFFFFFFFFFFFFFFFFFFFFFFFF
310
FFFFFFFFFFFFFFFFFFFFFFFFFFFFFFFFFFFFFFFFFFFFFFFFFFFFFFFFFFFFFFFF
310
FFFFFFFFFFFFFFFFFFFFFFFFFFFFFFFFFFFFFFFFFFFFFFFFFFFFFFFFFFFFFFFF
310
FDFFFFFFFEFFFFFFFEFFFFFFFEFFFFFF05000000060000000700000008000000
310
090000000A0000000B0000000C000000FEFFFFFFFFFFFFFFFFFFFFFFFFFFFFFF
310
FFFFFFFFFFFFFFFFFFFFFFFFFFFFFFFFFFFFFFFFFFFFFFFFFFFFFFFFFFFFFFFF
310
FFFFFFFFFFFFFFFFFFFFFFFFFFFFFFFFFFFFFFFFFFFFFFFFFFFFFFFFFFFFFFFF
310
FFFFFFFFFFFFFFFFFFFFFFFFFFFFFFFFFFFFFFFFFFFFFFFFFFFFFFFFFFFFFFFF
310
FFFFFFFFFFFFFFFFFFFFFFFFFFFFFFFFFFFFFFFFFFFFFFFFFFFFFFFFFFFFFFFF
310
FFFFFFFFFFFFFFFFFFFFFFFFFFFFFFFFFFFFFFFFFFFFFFFFFFFFFFFFFFFFFFFF
310
FFFFFFFFFFFFFFFFFFFFFFFFFFFFFFFFFFFFFFFFFFFFFFFFFFFFFFFFFFFFFFFF
310
FFFFFFFFFFFFFFFFFFFFFFFFFFFFFFFFFFFFFFFFFFFFFFFFFFFFFFFFFFFFFFFF
310
FFFFFFFFFFFFFFFFFFFFFFFFFFFFFFFFFFFFFFFFFFFFFFFFFFFFFFFFFFFFFFFF
310
FFFFFFFFFFFFFFFFFFFFFFFFFFFFFFFFFFFFFFFFFFFFFFFFFFFFFFFFFFFFFFFF
310
FFFFFFFFFFFFFFFFFFFFFFFFFFFFFFFFFFFFFFFFFFFFFFFFFFFFFFFFFFFFFFFF
310
FFFFFFFFFFFFFFFFFFFFFFFFFFFFFFFFFFFFFFFFFFFFFFFFFFFFFFFFFFFFFFFF
310
FFFFFFFFFFFFFFFFFFFFFFFFFFFFFFFFFFFFFFFFFFFFFFFFFFFFFFFFFFFFFFFF
310
FFFFFFFFFFFFFFFFFFFFFFFFFFFFFFFFFFFFFFFFFFFFFFFFFFFFFFFFFFFFFFFF
310
FFFFFFFFFFFFFFFFFFFFFFFFFFFFFFFFFFFFFFFFFFFFFFFFFFFFFFFFFFFFFFFF
310
52006F006F007400200045006E00740072007900000000000000000000000000
310
0000000000000000000000000000000000000000000000000000000000000000
310
16000500FFFFFFFFFFFFFFFF020000000A00030000000000C000000000000046
310
000000000000000000000000405D97554596D40103000000C000000000000000
310
01004F006C006500000000000000000000000000000000000000000000000000
310
0000000000000000000000000000000000000000000000000000000000000000
310
0A000200FFFFFFFFFFFFFFFFFFFFFFFF00000000000000000000000000000000
310
0000000000000000000000000000000000000000000000001400000000000000
310
010043006F006D0070004F0062006A0000000000000000000000000000000000
310
0000000000000000000000000000000000000000000000000000000000000000
310
120002010100000003000000FFFFFFFF00000000000000000000000000000000
310
0000000000000000000000000000000000000000010000004D00000000000000
310
01004F006C006500310030004E00610074006900760065000000000000000000
310
0000000000000000000000000000000000000000000000000000000000000000
310
1A000200FFFFFFFFFFFFFFFFFFFFFFFF00000000000000000000000000000000
310
000000000000000000000000000000000000000004000000E411000000000000
310
FEFFFFFF02000000FEFFFFFFFFFFFFFFFFFFFFFFFFFFFFFFFFFFFFFFFFFFFFFF
310
FFFFFFFFFFFFFFFFFFFFFFFFFFFFFFFFFFFFFFFFFFFFFFFFFFFFFFFFFFFFFFFF
310
FFFFFFFFFFFFFFFFFFFFFFFFFFFFFFFFFFFFFFFFFFFFFFFFFFFFFFFFFFFFFFFF
310
FFFFFFFFFFFFFFFFFFFFFFFFFFFFFFFFFFFFFFFFFFFFFFFFFFFFFFFFFFFFFFFF
310
FFFFFFFFFFFFFFFFFFFFFFFFFFFFFFFFFFFFFFFFFFFFFFFFFFFFFFFFFFFFFFFF
310
FFFFFFFFFFFFFFFFFFFFFFFFFFFFFFFFFFFFFFFFFFFFFFFFFFFFFFFFFFFFFFFF
310
FFFFFFFFFFFFFFFFFFFFFFFFFFFFFFFFFFFFFFFFFFFFFFFFFFFFFFFFFFFFFFFF
310
FFFFFFFFFFFFFFFFFFFFFFFFFFFFFFFFFFFFFFFFFFFFFFFFFFFFFFFFFFFFFFFF
310
FFFFFFFFFFFFFFFFFFFFFFFFFFFFFFFFFFFFFFFFFFFFFFFFFFFFFFFFFFFFFFFF
310
FFFFFFFFFFFFFFFFFFFFFFFFFFFFFFFFFFFFFFFFFFFFFFFFFFFFFFFFFFFFFFFF
310
FFFFFFFFFFFFFFFFFFFFFFFFFFFFFFFFFFFFFFFFFFFFFFFFFFFFFFFFFFFFFFFF
310
FFFFFFFFFFFFFFFFFFFFFFFFFFFFFFFFFFFFFFFFFFFFFFFFFFFFFFFFFFFFFFFF
310
FFFFFFFFFFFFFFFFFFFFFFFFFFFFFFFFFFFFFFFFFFFFFFFFFFFFFFFFFFFFFFFF
310
FFFFFFFFFFFFFFFFFFFFFFFFFFFFFFFFFFFFFFFFFFFFFFFFFFFFFFFFFFFFFFFF
310
FFFFFFFFFFFFFFFFFFFFFFFFFFFFFFFFFFFFFFFFFFFFFFFFFFFFFFFFFFFFFFFF
310
FFFFFFFFFFFFFFFFFFFFFFFFFFFFFFFFFFFFFFFFFFFFFFFFFFFFFFFFFFFFFFFF
310
0100000200000000000000000000000000000000000000000000000000000000
310
0000000000000000000000000000000000000000000000000000000000000000
310
0100FEFF030A0000FFFFFFFF0A00030000000000C00000000000004607000000
310
5042727573680007000000504272757368000700000050427275736800F439B2
310
7100000000000000000000000000000000000000000000000000000000000000
310
0000000000000000000000000000000000000000000000000000000000000000
310
0000000000000000000000000000000000000000000000000000000000000000
310
0000000000000000000000000000000000000000000000000000000000000000
310
0000000000000000000000000000000000000000000000000000000000000000
310
0000000000000000000000000000000000000000000000000000000000000000
310
0000000000000000000000000000000000000000000000000000000000000000
310
0000000000000000000000000000000000000000000000000000000000000000
310
0000000000000000000000000000000000000000000000000000000000000000
310
0000000000000000000000000000000000000000000000000000000000000000
310
0000000000000000000000000000000000000000000000000000000000000000
310
0000000000000000000000000000000000000000000000000000000000000000
310
E0110000424DDE11000000000000360400002800000096000000170000000100
310
08000000000000000000E7240000E72400000001000000010000000000FF0101
310
01FF020202FF030303FF040404FF050505FF060606FF070707FF080808FF0909
310
09FF0A0A0AFF0B0B0BFF0C0C0CFF0D0D0DFF0E0E0EFF0F0F0FFF101010FF1111
310
11FF121212FF131313FF141414FF151515FF161616FF171717FF181818FF1919
310
19FF1A1A1AFF1B1B1BFF1C1C1CFF1D1D1DFF1E1E1EFF1F1F1FFF202020FF2121
310
21FF222222FF232323FF242424FF252525FF262626FF272727FF282828FF2929
310
29FF2A2A2AFF2B2B2BFF2C2C2CFF2D2D2DFF2E2E2EFF2F2F2FFF303030FF3131
310
31FF323232FF333333FF343434FF353535FF363636FF373737FF383838FF3939
310
39FF3A3A3AFF3B3B3BFF3C3C3CFF3D3D3DFF3E3E3EFF3F3F3FFF404040FF4141
310
41FF424242FF434343FF444444FF454545FF464646FF474747FF484848FF4949
310
49FF4A4A4AFF4B4B4BFF4C4C4CFF4D4D4DFF4E4E4EFF4F4F4FFF505050FF5151
310
51FF525252FF535353FF545454FF555555FF565656FF575757FF585858FF5959
310
59FF5A5A5AFF5B5B5BFF5C5C5CFF5D5D5DFF5E5E5EFF5F5F5FFF606060FF6161
310
61FF626262FF636363FF646464FF656565FF666666FF676767FF686868FF6969
310
69FF6A6A6AFF6B6B6BFF6C6C6CFF6D6D6DFF6E6E6EFF6F6F6FFF707070FF7171
310
71FF727272FF737373FF747474FF757575FF767676FF777777FF787878FF7979
310
79FF7A7A7AFF7B7B7BFF7C7C7CFF7D7D7DFF7E7E7EFF7F7F7FFF808080FF8181
310
81FF828282FF838383FF848484FF858585FF868686FF878787FF888888FF8989
310
89FF8A8A8AFF8B8B8BFF8C8C8CFF8D8D8DFF8E8E8EFF8F8F8FFF909090FF9191
310
91FF929292FF939393FF949494FF959595FF969696FF979797FF989898FF9999
310
99FF9A9A9AFF9B9B9BFF9C9C9CFF9D9D9DFF9E9E9EFF9F9F9FFFA0A0A0FFA1A1
310
A1FFA2A2A2FFA3A3A3FFA4A4A4FFA5A5A5FFA6A6A6FFA7A7A7FFA8A8A8FFA9A9
310
A9FFAAAAAAFFABABABFFACACACFFADADADFFAEAEAEFFAFAFAFFFB0B0B0FFB1B1
310
B1FFB2B2B2FFB3B3B3FFB4B4B4FFB5B5B5FFB6B6B6FFB7B7B7FFB8B8B8FFB9B9
310
B9FFBABABAFFBBBBBBFFBCBCBCFFBDBDBDFFBEBEBEFFBFBFBFFFC0C0C0FFC1C1
310
C1FFC2C2C2FFC3C3C3FFC4C4C4FFC5C5C5FFC6C6C6FFC7C7C7FFC8C8C8FFC9C9
310
C9FFCACACAFFCBCBCBFFCCCCCCFFCDCDCDFFCECECEFFCFCFCFFFD0D0D0FFD1D1
310
D1FFD2D2D2FFD3D3D3FFD4D4D4FFD5D5D5FFD6D6D6FFD7D7D7FFD8D8D8FFD9D9
310
D9FFDADADAFFDBDBDBFFDCDCDCFFDDDDDDFFDEDEDEFFDFDFDFFFE0E0E0FFE1E1
310
E1FFE2E2E2FFE3E3E3FFE4E4E4FFE5E5E5FFE6E6E6FFE7E7E7FFE8E8E8FFE9E9
310
E9FFEAEAEAFFEBEBEBFFECECECFFEDEDEDFFEEEEEEFFEFEFEFFFF0F0F0FFF1F1
310
F1FFF2F2F2FFF3F3F3FFF4F4F4FFF5F5F5FFF6F6F6FFF7F7F7FFF8F8F8FFF9F9
310
F9FFFAFAFAFFFBFBFBFFFCFCFCFFFDFDFDFFFEFEFEFFFFFFFFFFFFFFFFFFFFFF
310
C94E4E4E4F4E4EFFFFFFFFFFC94E4E4E4E4E72FFFFFFFFFFFFFF734E4D4E4E4E
310
C9FFFFFFFFFFAA683516171616265B9BE9FFFFFFFFFF4E4E4E4D4E4EFFFFFFFF
310
FFFFFFFF4E4E4F4E4D4E4E4E4F4E4E4F4D4E4E4E4E4E4D4E4F4E4D4E4E4EAAFF
310
FFFFFFFFFFEA4E4F4F4E4E4E4E4E4D4D4F4F4E4E4E4E4E5B7FAAFFFFFFFFFFFF
310
C9744E1716171616164D8DEAFFFFFFFF0000FFFFFFFFFFFFBA161617161716FF
310
FFFFFFFFB917171616174FFFFFFFFFFFFFFF4E1716161616B9FFFFFFB9341717
310
1716171617171616268CFFFFFFFF161617161617FFFFFFFFFFFFFFB917161717
310
1617167F807F7F7F7F7F7F807F7F807F7F807F7F7F414EFFFFFFFFFFFF8C167F
310
7F807F7F7F7E7F7F807F807F7F807F4E3417258EFFFFEA4E162674AABAEAEBBA
310
AA74341680FFFFFF0000FFFFFFFFFFFFB9171717171617FFFFFFFFFFBB161616
310
16164EFFFFFFFFFFFFFF4E1717171717B9FFFF9C171617171716161616171616
310
171766FFFFFF161717161617FFFFFFFFFFFFFF8E16171717161616FFFFFFFFFF
310
FFFFFFFFFFFFFFFFFFFFFFFFFFAA16D9FFFFFFFFFF3467FFFFFFFFEAFFFFFFFF
310
FFFFFFFFFFFFFFFFFFCA671667EB26278DFFFFFFFFFFFFFFFFFFFF8C2541EAFF
310
0000FFFFFFFFFFFFB9171717171716FFFFFFFFFFBA16171617174EFFFFFFFFFF
310
FFFF4E1717161616BAFF9B1617161616171716171617161616161667FFFF1616
310
16161716FFFFFFFFFFFFFF7F16161617174017FFFFFFFFFFFFFFFFFFFFFFFFFF
310
FFFFFFFFFFFF344E7F7F7F7E7417DAFFFFFFFF80FFFFFFFFFFFFFFFFFFFFFFFF
310
FFFFFF9B163425CAFFFFFFFFFFFFFFFFFFFFFFFFCA2667FF0000FFFFFFFFFFFF
310
BA171717171617FFFFFFFFFFB916171716164EFFFFFFFFFFFFFF4F1716161717
310
B9C91716171616161716161617171616161617168DFF161716161717FFFFFFFF
310
FFFFFF7F17171716164F16FFFFFFFFFFFFFFFFFFFFFFFFFFFFFFFFFFFFFF9B16
310
17161617174EFFFFFFFFFF34FFFFFFFFD9BABABABABADAFFFFFFFFFF7F16AAFF
310
FFFFFFFFFFFFFFFFFFFFFFFFFF9C16BA0000FFFFFFFFFFFFB9161717161717FF
310
FFFFFFFFB917161716174DFFFFFFFFFFFFFF4E1616161616BA4E161617171716
310
419BEAEAAA4E16161617161726E9171717161616FFFFFFFFFFFFFF4F16161717
310
164E16FFFFFFFFFFBAB9B9B9B9B9BABABACAFFFFFFFFFFFFFFFFFFFFFFFFFFFF
310
FFFFBA16FFFFFFFF7F1617161617174DEAFFFFFFEA41FFFFFFFFFFAA4D16174E
310
9BFFFFFFFFFF34730000FFFFFFFFFFFFB9161617171617FFFFFFFFFFBA161616
310
16164EFFFFFFFFFFFFFF4F16161717169B1617161716175BFFFFFFFFFFFF7417
310
16171616168D171717161617FFFFFFFFFFFFEA2616171717167416FFFFFFFFFF
310
16171616171717171717EAFFFFFFFFFFFFFFFFFFFFFFFFFFFFFF6716FFFFFFFF
310
7F4EFFFFFFFFBA2573FFFFFFFFBAFFFFFFFFAA167FB9BB9B269BFFFFFFFF664F
310
0000FFFFFFFFFFFFB9171616161616FFFFFFFFFFBA16161717164EFFFFFFFFFF
310
FFFF4E16161616174E161617171626EAFFFFFFFFFFFFFF4E16161616164E1716
310
16161617FFFFFFFFFFFF671616161716347F16FFFFFFFFFF16B9FFFFFFFFFFFF
310
D9168DFFFFFFFFFFFFFFFFFFFFFFFFFFFFEA1716FFFFFFFF7F4EFFFFFFFFFF7F
310
4EFFFFFFFFFFFFFFFFFF5B66FFFFFFEA347FFFFFFFFF7F4D0000FFFFFFFFFFFF
310
B9171616171617FFFFFFFFFFBA17161716174EFFFFFFFFFFFFFF4D1716161617
310
17161716161673FFFFFFFFFFFFFFFF9B1617161717161616171616174F4E4E4E
310
4E341616171616167E7F16FFFFFFFFFF16BAFFFFFFFFFFFFFF5B41FFFFFFFF34
310
1616171616BAFFFFFF9B1716FFFFFFFF7F4EFFFFFFFFFF4E4EFFFFFFFF734E4E
310
4E4E267EDA9B67164EEAFFFFFFFF744D0000FFFFFFFFFFFFBA171717161617FF
310
FFFFFFFFBA1616171616347F7F7F7F80807F331616161717161717161716B9FF
310
FFFFFFFFFFFFFFE9161616161616171716161716171616161616171616171734
310
EA7F16FFFFFFFFFF16BAFFFFFFFFFFFFFFAA17C9FFFFFF7326BABA5B25FFFFFF
310
FF401716FFFFFFFF7F264F4E4E4E4217AAFFFFFFEA16677F73261616164173CA
310
FFFFFFFFFFFF417F0000FFFFFFFFFFFFBA171616171617FFFFFFFFFFBA161616
310
17171616161616161616161717161616161616161617EAFFFFFFFFFFFFFFFFFF
310
261717161716161617161616161617161617161616174EEAFF8016FFFFFFFFFF
310
17BAFFFFFFFFFFFFFFFF3467FFFFFFC916C9FF3467FFFFFFDA166716FFFFFFFF
310
9C4D4E4E4E4E67AAFFFFFFFF6834FF7F262567AAEAFFFFFFFFFFFFFFFF9B17D9
310
0000FFFFFFFFFFFFB9161616161616FFFFFFFFFFBA1617161717171616161616
310
1716171716161716161617171716FFFFFFFFFFFFFFFFFFFF4E17161716171616
310
1617171616161716171717161616169BFF7F17FFFFFFFFFF17B9FFFFFFFFFFFF
310
FFFF7326FFFFFFFF3473DA16AAFFFFFF7317AA16FFFFFFFFFFFFFFFFFFFFFFFF
310
FFFFEA6725BA4E167FEAFFFFFFFFFFFFFFFFFFFF9C167FFF0000FFFFFFFFFFFF
310
B9161717171716FFFFFFFFFFBA16161716171616171717161617161716161616
310
171617171617EAFFFFFFFFFFFFFFFFFF26161717161616161616161617171616
310
1616161616171616AA8016FFFFFFFFFF16BAFFFFFFFFFFFFFFFFDA179BFFFFFF
310
74348D26FFFFFFFF2566B917FFFFFFFFD8BAB9BAB9BADAFFFFEA41169B7425C9
310
FFFFFFFFFFFFFFFFFFFFAB4F1680FFFF0000FFFFFFFFFFFFBA161717171617FF
310
FFFFFFFFBA17161717161617171617161616161617171616171716171617BBFF
310
FFFFFFFFFFFFFFE9171616161617161617161716FFFFFFFFFFD9671616161617
310
348017FFFFFFFFFF16BAFFFFFFFFFFFFFFFFFF4E5AFFFFFFC916265AFFFFFFAA
310
16AABA16FFFFFFFF7F1617161616179BFFFFEB4127168DFFFFFFFFFFFFFFD99B
310
6734175AC9FFFFFF0000FFFFFFFFFFFFB9161617171617FFFFFFFFFFBB161616
310
1616347F807F7F7F7F8033171716171617171616161672FFFFFFFFFFFFFFFF9C
310
171617171617161716161617FFFFFFFFFFFFFF4117161616174E17FFFFFFFFFF
310
16BAFFFFFFFFFFFFFFFFFF9B16DAFFFFFF34169BFFFFFF5A26FFB917FFFFFFFF
310
7F4EFFFFFFEA5B26FFFFFFEA2616EAFFFFFFFFDA743416331617414E4E4E4ECA
310
0000FFFFFFFFFFFFBA161716161616FFFFFFFFFFBA17171616164EFFFFFFFFFF
310
FFFF4E16161717174E161717171626EBFFFFFFFFFFFFFF4E16161617165B1616
310
16171617FFFFFFFFFFFFFF6716161616161617FFFFFFFFFF16BAFFFFFFFFFFFF
310
FFFFFFEA268CFFFFFF7316EAFFFFEB1774FFB916FFFFFFFF7F4EFFFFFFFF7316
310
FFFFFFFF6826FFFFFFFFEB264D9CEABA257F807F7F6616BA0000FFFFFFFFFFFF
310
BA161716161616FFFFFFFFFFBA16171616164DFFFFFFFFFFFFFF4E1617161617
310
9B1617171717165BEBFFFFFFFFFF671616161617179B171616161616FFFFFFFF
310
FFFFFF3417161617171617FFFFFFFFFF17BAFFFFFFFFFFFFFFFFFFFF6734FFFF
310
FFEBCAFFFFFF8D17C9FFBA17FFFFFFFF7F357F808066174FFFFFFFFF7F16FFFF
310
FFFFD91673B99B415BFFFFFFFFBA16DA00009B7F7F7F807F671617161616167F
310
80807F7E6617161616164EFFFFFFFFFFFFFF4E1616161617B94E171716161616
310
349BC9D9AA4E16171616161634FF161617161717B9B9BAB9BA9B411716171716
310
163416FFFFFFFFFF16B9FFFFFFFFFFFFFFFFFFFFC917CAFFFFFFFFFFFFFF3342
310
FFFFBA17FFFFFFFF9B4E4E4F4E4E66EAFFFFFFFF5B16C9FFFFFFFFAA4E164E73
310
EAFFFFFFFF8D26FF00004E161716161616171617171616171717171617161616
310
17174EFFFFFFFFFFFFFF4E1717171616B9D92616171716171716171717171716
310
16171716AAFF161717171617161617171616161617161716166717FFFFFFFFFF
310
17B9FFFFFFFFFFFFFFFFFFFFFF3467FFFFFFFFFFFFCA168CFFFFBB17FFFFFFFF
310
FFFFFFFFFFFFFFFFFFFFFFEA26265BFFFFFFFFFFFFFFFFFFFFFFFFFFEA3467FF
310
00004D16161616161617161717161617161616171617171616164EFFFFFFFFFF
310
FFFF4D1617161616BAFF9B1616161616161716161616171717161766FFFF1616
310
16171617161617161716171616171717667F16FFFFFFFFFF17BAFFFFFFFFFFFF
310
FFFFFFFFFF8C26EAFFFFFFFFFF6617EAFFFFBA17FFFFFFFFFFFFFFFFFFFFFFFF
310
FFFFEA5A25BA269BFFFFFFFFFFFFFFFFFFFFFFFF6616DAFF00004E1616171616
310
1616161616161716161617171616171616174EFFFFFFFFFFFFFF4D1717171716
310
B9FFFF9C161616161616161716161717171667FFFFFF17161717171716161617
310
1716161616161641E97E16FFFFFFFFFF16B9FFFFFFFFFFFFFFFFFFFFFFEA169B
310
FFFFFFFFEA265BFFFFFFB916FFFFFFFFFFFFFFFFFFFFFFFFFF9B3416AAFF9B17
310
67EAFFFFFFFFFFFFFFFFEA5B169BFFFF00004D17161716161616161717171616
310
161717161716171716174EFFFFFFFFFFFFFF4D1616161616BAFFFFFFBB411616
310
161716161616171634ABFFFFFFFF161716161617171716171617171617267FFF
310
FF7F164E4E4E4E4F17BAFFFFFFFFFFFFFFFFFFFFFFFF66344D4E4E4F4117AAFF
310
FFFFBA174E4E4E4D4E4D4D4E4E4E4E4116174EBBFFFFFFCA342666ABEAFFFFEA
310
AA6725269CFFFFFF0000724F4E4D4D4D4E4D4D4E4E4E4D4E4E4E4E4E4E4E4E4D
310
4E4E74FFFFFFFFFFFFFF734E4E4E4D4ECAFFFFFFFFFFAA663416171717265B9B
310
FFFFFFFFFFFF7F8080807F80807F7F7F7F7F807FBAFFFFFFFF9B4E4E4F4D4D4E
310
4DC9FFFFFFFFFFFFFFFFFFFFFFFFBA4E4E4E4E4D4E4EFFFFFFFFC94E4E4E4F4E
310
4E4E4D4E4E5A807F9CD9FFFFFFFFFFFFFF9B5B2617171716174E8DEAFFFFFFFF
310
0000000000000000000000000000000000000000000000000000000000000000
  1
OLE
  0
ENDSEC
  0
SECTION
  2
OBJECTS
  0
DICTIONARY
  5
C
330
0
100
AcDbDictionary
281
     1
  3
ACAD_GROUP
350
D
  3
ACAD_LAYOUT
350
1A
  3
ACAD_MLINESTYLE
350
17
  3
ACAD_PLOTSETTINGS
350
19
  3
ACAD_PLOTSTYLENAME
350
E
  3
ACAD_SCALELIST
350
47
  0
DICTIONARY
  5
D
102
{ACAD_REACTORS
330
C
102
}
330
C
100
AcDbDictionary
281
     1
  0
DICTIONARY
  5
1A
102
{ACAD_REACTORS
330
C
102
}
330
C
100
AcDbDictionary
281
     1
  3
Layout1
350
1E
  3
Layout2
350
26
  3
Model
350
22
  0
DICTIONARY
  5
17
102
{ACAD_REACTORS
330
C
102
}
330
C
100
AcDbDictionary
281
     1
  3
Standard
350
18
  0
DICTIONARY
  5
19
102
{ACAD_REACTORS
330
C
102
}
330
C
100
AcDbDictionary
281
     1
  0
ACDBDICTIONARYWDFLT
  5
E
102
{ACAD_REACTORS
330
C
102
}
330
C
100
AcDbDictionary
281
     1
  3
Normal
350
F
100
AcDbDictionaryWithDefault
340
F
  0
DICTIONARY
  5
47
102
{ACAD_REACTORS
330
C
102
}
330
C
100
AcDbDictionary
281
     1
  3
A0
350
48
  3
A1
350
49
  3
A2
350
4A
  3
A3
350
4B
  3
A4
350
4C
  3
A5
350
4D
  3
A6
350
4E
  3
A7
350
4F
  3
A8
350
50
  3
A9
350
51
  3
B0
350
52
  3
B1
350
53
  3
B2
350
54
  3
B3
350
55
  3
B4
350
56
  3
B5
350
57
  3
B6
350
58
  3
B7
350
59
  3
B8
350
5A
  3
B9
350
5B
  3
C0
350
5C
  3
C1
350
5D
  3
C2
350
5E
  3
C3
350
5F
  3
C4
350
60
  3
C5
350
61
  3
C6
350
62
  3
C7
350
63
  3
C8
350
64
  3
C9
350
65
  3
D0
350
66
  3
D1
350
67
  3
D2
350
68
  0
LAYOUT
  5
1E
102
{ACAD_REACTORS
330
1A
102
}
330
1A
100
AcDbPlotSettings
  1

  2
none_device
  4

  6

 40
0.0
 41
0.0
 42
0.0
 43
0.0
 44
0.0
 45
0.0
 46
0.0
 47
0.0
 48
0.0
 49
0.0
140
0.0
141
0.0
142
1.0
143
1.0
 70
   688
 72
     1
 73
     0
 74
     5
  7

 75
    16
147
1.0
148
0.0
149
0.0
100
AcDbLayout
  1
Layout1
 70
     1
 71
     1
 10
0.0
 20
0.0
 11
420.0
 21
297.0
 12
0.0
 22
0.0
 32
0.0
 14
1.0000000000E+20
 24
1.0000000000E+20
 34
1.0000000000E+20
 15
-1.0000000000E+20
 25
-1.0000000000E+20
 35
-1.0000000000E+20
146
0.0
 13
0.0
 23
0.0
 33
0.0
 16
1.0
 26
0.0
 36
0.0
 17
0.0
 27
1.0
 37
0.0
 76
     0
330
1B
  0
LAYOUT
  5
26
102
{ACAD_REACTORS
330
1A
102
}
330
1A
100
AcDbPlotSettings
  1

  2
none_device
  4

  6

 40
0.0
 41
0.0
 42
0.0
 43
0.0
 44
0.0
 45
0.0
 46
0.0
 47
0.0
 48
0.0
 49
0.0
140
0.0
141
0.0
142
1.0
143
1.0
 70
   688
 72
     1
 73
     0
 74
     5
  7

 75
    16
147
1.0
148
0.0
149
0.0
100
AcDbLayout
  1
Layout2
 70
     1
 71
     2
 10
0.0
 20
0.0
 11
0.0
 21
0.0
 12
0.0
 22
0.0
 32
0.0
 14
0.0
 24
0.0
 34
0.0
 15
0.0
 25
0.0
 35
0.0
146
0.0
 13
0.0
 23
0.0
 33
0.0
 16
1.0
 26
0.0
 36
0.0
 17
0.0
 27
1.0
 37
0.0
 76
     0
330
23
  0
LAYOUT
  5
22
102
{ACAD_REACTORS
330
1A
102
}
330
1A
100
AcDbPlotSettings
  1

  2
none_device
  4
Letter_(8.50_x_11.00_Inches)
  6

 40
6.35
 41
6.35
 42
6.35000508
 43
6.35000508
 44
215.9
 45
279.4
 46
0.0
 47
0.0
 48
0.0
 49
0.0
140
0.0
141
0.0
142
1.0
143
1.0
 70
  1712
 72
     1
 73
     0
 74
     0
  7

 75
     0
147
1.0
148
0.0
149
0.0
100
AcDbLayout
  1
Model
 70
     1
 71
     0
 10
0.0
 20
0.0
 11
279.4
 21
215.9
 12
0.0
 22
0.0
 32
0.0
 14
0.0
 24
0.0
 34
0.0
 15
279.4
 25
215.9
 35
0.0
146
0.0
 13
0.0
 23
0.0
 33
0.0
 16
1.0
 26
0.0
 36
0.0
 17
0.0
 27
1.0
 37
0.0
 76
     0
330
1F
331
29
  0
MLINESTYLE
  5
18
102
{ACAD_REACTORS
330
17
102
}
330
17
100
AcDbMlineStyle
  2
Standard
 70
     0
  3

 62
   256
 51
90.0
 52
90.0
 71
     2
 49
0.5
 62
   256
  6
BYLAYER
 49
-0.5
 62
   256
  6
BYLAYER
  0
ACDBPLACEHOLDER
  5
F
102
{ACAD_REACTORS
330
E
102
}
330
E
  0
SCALE
  5
48
102
{ACAD_REACTORS
330
47
102
}
330
47
100
AcDbScale
 70
     0
300
1:1
140
1.0
141
1.0
290
     1
  0
SCALE
  5
49
102
{ACAD_REACTORS
330
47
102
}
330
47
100
AcDbScale
 70
     0
300
1:2
140
1.0
141
2.0
290
     0
  0
SCALE
  5
4A
102
{ACAD_REACTORS
330
47
102
}
330
47
100
AcDbScale
 70
     0
300
1:4
140
1.0
141
4.0
290
     0
  0
SCALE
  5
4B
102
{ACAD_REACTORS
330
47
102
}
330
47
100
AcDbScale
 70
     0
300
1:5
140
1.0
141
5.0
290
     0
  0
SCALE
  5
4C
102
{ACAD_REACTORS
330
47
102
}
330
47
100
AcDbScale
 70
     0
300
1:8
140
1.0
141
8.0
290
     0
  0
SCALE
  5
4D
102
{ACAD_REACTORS
330
47
102
}
330
47
100
AcDbScale
 70
     0
300
1:10
140
1.0
141
10.0
290
     0
  0
SCALE
  5
4E
102
{ACAD_REACTORS
330
47
102
}
330
47
100
AcDbScale
 70
     0
300
1:16
140
1.0
141
16.0
290
     0
  0
SCALE
  5
4F
102
{ACAD_REACTORS
330
47
102
}
330
47
100
AcDbScale
 70
     0
300
1:20
140
1.0
141
20.0
290
     0
  0
SCALE
  5
50
102
{ACAD_REACTORS
330
47
102
}
330
47
100
AcDbScale
 70
     0
300
1:30
140
1.0
141
30.0
290
     0
  0
SCALE
  5
51
102
{ACAD_REACTORS
330
47
102
}
330
47
100
AcDbScale
 70
     0
300
1:40
140
1.0
141
40.0
290
     0
  0
SCALE
  5
52
102
{ACAD_REACTORS
330
47
102
}
330
47
100
AcDbScale
 70
     0
300
1:50
140
1.0
141
50.0
290
     0
  0
SCALE
  5
53
102
{ACAD_REACTORS
330
47
102
}
330
47
100
AcDbScale
 70
     0
300
1:100
140
1.0
141
100.0
290
     0
  0
SCALE
  5
54
102
{ACAD_REACTORS
330
47
102
}
330
47
100
AcDbScale
 70
     0
300
2:1
140
2.0
141
1.0
290
     0
  0
SCALE
  5
55
102
{ACAD_REACTORS
330
47
102
}
330
47
100
AcDbScale
 70
     0
300
4:1
140
4.0
141
1.0
290
     0
  0
SCALE
  5
56
102
{ACAD_REACTORS
330
47
102
}
330
47
100
AcDbScale
 70
     0
300
8:1
140
8.0
141
1.0
290
     0
  0
SCALE
  5
57
102
{ACAD_REACTORS
330
47
102
}
330
47
100
AcDbScale
 70
     0
300
10:1
140
10.0
141
1.0
290
     0
  0
SCALE
  5
58
102
{ACAD_REACTORS
330
47
102
}
330
47
100
AcDbScale
 70
     0
300
100:1
140
100.0
141
1.0
290
     0
  0
SCALE
  5
59
102
{ACAD_REACTORS
330
47
102
}
330
47
100
AcDbScale
 70
     0
300
1/128" = 1'-0"
140
0.0078125
141
12.0
290
     0
  0
SCALE
  5
5A
102
{ACAD_REACTORS
330
47
102
}
330
47
100
AcDbScale
 70
     0
300
1/64" = 1'-0"
140
0.015625
141
12.0
290
     0
  0
SCALE
  5
5B
102
{ACAD_REACTORS
330
47
102
}
330
47
100
AcDbScale
 70
     0
300
1/32" = 1'-0"
140
0.03125
141
12.0
290
     0
  0
SCALE
  5
5C
102
{ACAD_REACTORS
330
47
102
}
330
47
100
AcDbScale
 70
     0
300
1/16" = 1'-0"
140
0.0625
141
12.0
290
     0
  0
SCALE
  5
5D
102
{ACAD_REACTORS
330
47
102
}
330
47
100
AcDbScale
 70
     0
300
3/32" = 1'-0"
140
0.09375
141
12.0
290
     0
  0
SCALE
  5
5E
102
{ACAD_REACTORS
330
47
102
}
330
47
100
AcDbScale
 70
     0
300
1/8" = 1'-0"
140
0.125
141
12.0
290
     0
  0
SCALE
  5
5F
102
{ACAD_REACTORS
330
47
102
}
330
47
100
AcDbScale
 70
     0
300
3/16" = 1'-0"
140
0.1875
141
12.0
290
     0
  0
SCALE
  5
60
102
{ACAD_REACTORS
330
47
102
}
330
47
100
AcDbScale
 70
     0
300
1/4" = 1'-0"
140
0.25
141
12.0
290
     0
  0
SCALE
  5
61
102
{ACAD_REACTORS
330
47
102
}
330
47
100
AcDbScale
 70
     0
300
3/8" = 1'-0"
140
0.375
141
12.0
290
     0
  0
SCALE
  5
62
102
{ACAD_REACTORS
330
47
102
}
330
47
100
AcDbScale
 70
     0
300
1/2" = 1'-0"
140
0.5
141
12.0
290
     0
  0
SCALE
  5
63
102
{ACAD_REACTORS
330
47
102
}
330
47
100
AcDbScale
 70
     0
300
3/4" = 1'-0"
140
0.75
141
12.0
290
     0
  0
SCALE
  5
64
102
{ACAD_REACTORS
330
47
102
}
330
47
100
AcDbScale
 70
     0
300
1" = 1'-0"
140
1.0
141
12.0
290
     0
  0
SCALE
  5
65
102
{ACAD_REACTORS
330
47
102
}
330
47
100
AcDbScale
 70
     0
300
1-1/2" = 1'-0"
140
1.5
141
12.0
290
     0
  0
SCALE
  5
66
102
{ACAD_REACTORS
330
47
102
}
330
47
100
AcDbScale
 70
     0
300
3" = 1'-0"
140
3.0
141
12.0
290
     0
  0
SCALE
  5
67
102
{ACAD_REACTORS
330
47
102
}
330
47
100
AcDbScale
 70
     0
300
6" = 1'-0"
140
6.0
141
12.0
290
     0
  0
SCALE
  5
68
102
{ACAD_REACTORS
330
47
102
}
330
47
100
AcDbScale
 70
     0
300
1'-0" = 1'-0"
140
12.0
141
12.0
290
     0
  0
ENDSEC
  0
EOF
