  0
SECTION
  2
HEADER
  9
$ACADVER
  1
AC1015
  9
$ACADMAINTVER
 70
     6
  9
$DWGCODEPAGE
  3
ANSI_1252
  9
$INSBASE
 10
0.0
 20
0.0
 30
0.0
  9
$EXTMIN
 10
0.0
 20
0.0
 30
0.0
  9
$EXTMAX
 10
279.4
 20
215.9
 30
0.0
  9
$LIMMIN
 10
0.0
 20
0.0
  9
$LIMMAX
 10
279.4
 20
215.9
  9
$ORTHOMODE
 70
     0
  9
$REGENMODE
 70
     1
  9
$FILLMODE
 70
     1
  9
$QTEXTMODE
 70
     0
  9
$MIRRTEXT
 70
     1
  9
$LTSCALE
 40
1.0
  9
$ATTMODE
 70
     1
  9
$TEXTSIZE
 40
2.8222222222
  9
$TRACEWID
 40
1.0
  9
$TEXTSTYLE
  7
Standard
  9
$CLAYER
  8
0
  9
$CELTYPE
  6
ByLayer
  9
$CECOLOR
 62
   256
  9
$CELTSCALE
 40
1.0
  9
$DISPSILH
 70
     0
  9
$DIMSCALE
 40
1.0
  9
$DIMASZ
 40
3.175
  9
$DIMEXO
 40
1.27
  9
$DIMDLI
 40
3.75
  9
$DIMRND
 40
0.0
  9
$DIMDLE
 40
0.0
  9
$DIMEXE
 40
1.778
  9
$DIMTP
 40
0.0
  9
$DIMTM
 40
0.0
  9
$DIMTXT
 40
2.8222222222
  9
$DIMCEN
 40
2.5
  9
$DIMTSZ
 40
0.0
  9
$DIMTOL
 70
     0
  9
$DIMLIM
 70
     0
  9
$DIMTIH
 70
     1
  9
$DIMTOH
 70
     1
  9
$DIMSE1
 70
     0
  9
$DIMSE2
 70
     0
  9
$DIMTAD
 70
     0
  9
$DIMZIN
 70
     1
  9
$DIMBLK
  1

  9
$DIMASO
 70
     1
  9
$DIMSHO
 70
     1
  9
$DIMPOST
  1

  9
$DIMAPOST
  1

  9
$DIMALT
 70
     0
  9
$DIMALTD
 70
     3
  9
$DIMALTF
 40
0.0393700787
  9
$DIMLFAC
 40
1.0
  9
$DIMTOFL
 70
     1
  9
$DIMTVP
 40
0.0
  9
$DIMTIX
 70
     0
  9
$DIMSOXD
 70
     0
  9
$DIMSAH
 70
     0
  9
$DIMBLK1
  1

  9
$DIMBLK2
  1

  9
$DIMSTYLE
  2
ISO-25
  9
$DIMCLRD
 70
     0
  9
$DIMCLRE
 70
     0
  9
$DIMCLRT
 70
     0
  9
$DIMTFAC
 40
1.0
  9
$DIMGAP
 40
2.54
  9
$DIMJUST
 70
     0
  9
$DIMSD1
 70
     0
  9
$DIMSD2
 70
     0
  9
$DIMTOLJ
 70
     0
  9
$DIMTZIN
 70
     1
  9
$DIMALTZ
 70
     0
  9
$DIMALTTZ
 70
     0
  9
$DIMUPT
 70
     0
  9
$DIMDEC
 70
     1
  9
$DIMTDEC
 70
     1
  9
$DIMALTU
 70
     2
  9
$DIMALTTD
 70
     3
  9
$DIMTXSTY
  7
Standard
  9
$DIMAUNIT
 70
     0
  9
$DIMADEC
 70
     0
  9
$DIMALTRND
 40
0.0
  9
$DIMAZIN
 70
     0
  9
$DIMDSEP
 70
    44
  9
$DIMATFIT
 70
     3
  9
$DIMFRAC
 70
     0
  9
$DIMLDRBLK
  1

  9
$DIMLUNIT
 70
     2
  9
$DIMLWD
 70
    -2
  9
$DIMLWE
 70
    -2
  9
$DIMTMOVE
 70
     0
  9
$LUNITS
 70
     2
  9
$LUPREC
 70
     1
  9
$SKETCHINC
 40
1.0
  9
$FILLETRAD
 40
10.0
  9
$AUNITS
 70
     0
  9
$AUPREC
 70
     0
  9
$MENU
  1
.
  9
$ELEVATION
 40
0.0
  9
$PELEVATION
 40
0.0
  9
$THICKNESS
 40
0.0
  9
$LIMCHECK
 70
     0
  9
$CHAMFERA
 40
0.0
  9
$CHAMFERB
 40
0.0
  9
$CHAMFERC
 40
0.0
  9
$CHAMFERD
 40
0.0
  9
$SKPOLY
 70
     0
  9
$TDCREATE
 40
2458470.633176794
  9
$TDUCREATE
 40
2458470.841510127
  9
$TDUPDATE
 40
2458470.633216239
  9
$TDUUPDATE
 40
2458470.841549572
  9
$TDINDWG
 40
0.0000000116
  9
$TDUSRTIMER
 40
0.0000000116
  9
$USRTIMER
 70
     1
  9
$ANGBASE
 50
0.0
  9
$ANGDIR
 70
     0
  9
$PDMODE
 70
     0
  9
$PDSIZE
 40
-1.0
  9
$PLINEWID
 40
0.0
  9
$SPLFRAME
 70
     0
  9
$SPLINETYPE
 70
     6
  9
$SPLINESEGS
 70
     8
  9
$HANDSEED
  5
267
  9
$SURFTAB1
 70
     6
  9
$SURFTAB2
 70
     6
  9
$SURFTYPE
 70
     6
  9
$SURFU
 70
     6
  9
$SURFV
 70
     6
  9
$UCSBASE
  2

  9
$UCSNAME
  2

  9
$UCSORG
 10
0.0
 20
0.0
 30
0.0
  9
$UCSXDIR
 10
1.0
 20
0.0
 30
0.0
  9
$UCSYDIR
 10
0.0
 20
1.0
 30
0.0
  9
$UCSORTHOREF
  2

  9
$UCSORTHOVIEW
 70
     0
  9
$UCSORGTOP
 10
0.0
 20
0.0
 30
0.0
  9
$UCSORGBOTTOM
 10
0.0
 20
0.0
 30
0.0
  9
$UCSORGLEFT
 10
0.0
 20
0.0
 30
0.0
  9
$UCSORGRIGHT
 10
0.0
 20
0.0
 30
0.0
  9
$UCSORGFRONT
 10
0.0
 20
0.0
 30
0.0
  9
$UCSORGBACK
 10
0.0
 20
0.0
 30
0.0
  9
$PUCSBASE
  2

  9
$PUCSNAME
  2

  9
$PUCSORG
 10
0.0
 20
0.0
 30
0.0
  9
$PUCSXDIR
 10
1.0
 20
0.0
 30
0.0
  9
$PUCSYDIR
 10
0.0
 20
1.0
 30
0.0
  9
$PUCSORTHOREF
  2

  9
$PUCSORTHOVIEW
 70
     0
  9
$PUCSORGTOP
 10
0.0
 20
0.0
 30
0.0
  9
$PUCSORGBOTTOM
 10
0.0
 20
0.0
 30
0.0
  9
$PUCSORGLEFT
 10
0.0
 20
0.0
 30
0.0
  9
$PUCSORGRIGHT
 10
0.0
 20
0.0
 30
0.0
  9
$PUCSORGFRONT
 10
0.0
 20
0.0
 30
0.0
  9
$PUCSORGBACK
 10
0.0
 20
0.0
 30
0.0
  9
$USERI1
 70
     0
  9
$USERI2
 70
     0
  9
$USERI3
 70
     0
  9
$USERI4
 70
     0
  9
$USERI5
 70
     0
  9
$USERR1
 40
0.0
  9
$USERR2
 40
0.0
  9
$USERR3
 40
0.0
  9
$USERR4
 40
0.0
  9
$USERR5
 40
0.0
  9
$WORLDVIEW
 70
     1
  9
$SHADEDGE
 70
     3
  9
$SHADEDIF
 70
    70
  9
$TILEMODE
 70
     1
  9
$MAXACTVP
 70
    64
  9
$PINSBASE
 10
0.0
 20
0.0
 30
0.0
  9
$PLIMCHECK
 70
     0
  9
$PEXTMIN
 10
1.0000000000E+20
 20
1.0000000000E+20
 30
1.0000000000E+20
  9
$PEXTMAX
 10
-1.0000000000E+20
 20
-1.0000000000E+20
 30
-1.0000000000E+20
  9
$PLIMMIN
 10
0.0
 20
0.0
  9
$PLIMMAX
 10
420.0
 20
297.0
  9
$UNITMODE
 70
     0
  9
$VISRETAIN
 70
     1
  9
$PLINEGEN
 70
     0
  9
$PSLTSCALE
 70
     1
  9
$TREEDEPTH
 70
  3020
  9
$CMLSTYLE
  2
Standard
  9
$CMLJUST
 70
     0
  9
$CMLSCALE
 40
20.0
  9
$PROXYGRAPHICS
 70
     1
  9
$MEASUREMENT
 70
     1
  9
$CELWEIGHT
370
    -1
  9
$ENDCAPS
280
     0
  9
$JOINSTYLE
280
     0
  9
$LWDISPLAY
290
     1
  9
$INSUNITS
 70
     4
  9
$HYPERLINKBASE
  1

  9
$STYLESHEET
  1

  9
$XEDIT
290
     1
  9
$CEPSNTYPE
380
     0
  9
$PSTYLEMODE
290
     1
  9
$FINGERPRINTGUID
  2
{053BE375-BABC-4384-ADD6-24822E48CE7A}
  9
$VERSIONGUID
  2
{FAEB1C32-E019-11D5-929B-00C0DF256EC4}
  9
$EXTNAMES
290
     1
  9
$PSVPSCALE
 40
0.0
  9
$OLESTARTUP
290
     0
  0
ENDSEC
  0
SECTION
  2
CLASSES
  0
CLASS
  1
ACDBDICTIONARYWDFLT
  2
AcDbDictionaryWithDefault
  3
ObjectDBX Classes
 90
        0
280
     0
281
     0
  0
CLASS
  1
VISUALSTYLE
  2
AcDbVisualStyle
  3
ObjectDBX Classes
 90
     4095
280
     0
281
     0
  0
CLASS
  1
MATERIAL
  2
AcDbMaterial
  3
ObjectDBX Classes
 90
     1153
280
     0
281
     0
  0
CLASS
  1
SCALE
  2
AcDbScale
  3
ObjectDBX Classes
 90
     1153
280
     0
281
     0
  0
CLASS
  1
TABLESTYLE
  2
AcDbTableStyle
  3
ObjectDBX Classes
 90
     4095
280
     0
281
     0
  0
CLASS
  1
MLEADERSTYLE
  2
AcDbMLeaderStyle
  3
ACDB_MLEADERSTYLE_CLASS
 90
     4095
280
     0
281
     0
  0
CLASS
  1
SUN
  2
AcDbSun
  3
SCENEOE
 90
     1153
280
     0
281
     0
  0
CLASS
  1
ACDBPLACEHOLDER
  2
AcDbPlaceHolder
  3
ObjectDBX Classes
 90
        0
280
     0
281
     0
  0
CLASS
  1
LAYOUT
  2
AcDbLayout
  3
ObjectDBX Classes
 90
        0
280
     0
281
     0
  0
ENDSEC
  0
SECTION
  2
TABLES
  0
TABLE
  2
VPORT
  5
8
330
0
100
AcDbSymbolTable
 70
     1
  0
VPORT
  5
29
330
8
100
AcDbSymbolTableRecord
100
AcDbViewportTableRecord
  2
*Active
 70
     0
 10
0.0
 20
0.0
 11
1.0
 21
1.0
 12
139.7
 22
107.95
 13
0.0
 23
0.0
 14
10.0
 24
10.0
 15
10.0
 25
10.0
 16
0.0
 26
0.0
 36
1.0
 17
0.0
 27
0.0
 37
0.0
 40
215.9
 41
1.2941176471
 42
50.0
 43
0.0
 44
0.0
 50
0.0
 51
0.0
 71
     0
 72
  2000
 73
     1
 74
     3
 75
     0
 76
     0
 77
     0
 78
     0
281
     0
 65
     1
110
0.0
120
0.0
130
0.0
111
1.0
121
0.0
131
0.0
112
0.0
122
1.0
132
0.0
 79
     0
146
0.0
  0
ENDTAB
  0
TABLE
  2
LTYPE
  5
5
330
0
100
AcDbSymbolTable
 70
     6
  0
LTYPE
  5
14
330
5
100
AcDbSymbolTableRecord
100
AcDbLinetypeTableRecord
  2
ByBlock
 70
     0
  3

 72
    65
 73
     0
 40
0.0
  0
LTYPE
  5
15
330
5
100
AcDbSymbolTableRecord
100
AcDbLinetypeTableRecord
  2
ByLayer
 70
     0
  3

 72
    65
 73
     0
 40
0.0
  0
LTYPE
  5
16
330
5
100
AcDbSymbolTableRecord
100
AcDbLinetypeTableRecord
  2
Continuous
 70
     0
  3
Solid line
 72
    65
 73
     0
 40
0.0
  0
LTYPE
  5
6E
330
5
100
AcDbSymbolTableRecord
100
AcDbLinetypeTableRecord
  2
HIDDEN
 70
     0
  3
Hidden __ __ __ __ __ __ __ __ __ __ __ __ __ __
 72
    65
 73
     2
 40
1.905
 49
1.27
 74
     0
 49
-0.635
 74
     0
  0
LTYPE
  5
6F
330
5
100
AcDbSymbolTableRecord
100
AcDbLinetypeTableRecord
  2
PHANTOM
 70
     0
  3
Phantom ______  __  __  ______  __  __  ______
 72
    65
 73
     6
 40
12.7
 49
6.35
 74
     0
 49
-1.27
 74
     0
 49
1.27
 74
     0
 49
-1.27
 74
     0
 49
1.27
 74
     0
 49
-1.27
 74
     0
  0
LTYPE
  5
70
330
5
100
AcDbSymbolTableRecord
100
AcDbLinetypeTableRecord
  2
CENTER
 70
     0
  3
Center ____ _ ____ _ ____ _ ____ _ ____ _ ____
 72
    65
 73
     4
 40
10.16
 49
6.35
 74
     0
 49
-1.27
 74
     0
 49
1.27
 74
     0
 49
-1.27
 74
     0
  0
LTYPE
  5
71
330
5
100
AcDbSymbolTableRecord
100
AcDbLinetypeTableRecord
  2
CENTERX2
 70
     0
  3
Center (2x) ________  __  ________  __  _____
 72
    65
 73
     4
 40
20.32
 49
12.7
 74
     0
 49
-2.54
 74
     0
 49
2.54
 74
     0
 49
-2.54
 74
     0
  0
LTYPE
  5
72
330
5
100
AcDbSymbolTableRecord
100
AcDbLinetypeTableRecord
  2
DOT2
 70
     0
  3
Dot (.5x) ........................................
 72
    65
 73
     2
 40
0.635
 49
0.0
 74
     0
 49
-0.635
 74
     0
  0
ENDTAB
  0
TABLE
  2
LAYER
  5
2
330
0
100
AcDbSymbolTable
 70
     2
  0
LAYER
  5
10
330
2
100
AcDbSymbolTableRecord
100
AcDbLayerTableRecord
  2
0
 70
     0
 62
     7
  6
Continuous
370
    -3
390
F
  0
LAYER
  5
73
330
2
100
AcDbSymbolTableRecord
100
AcDbLayerTableRecord
  2
FORMAT
 70
     0
 62
     7
  6
Continuous
370
    -3
390
F
  0
ENDTAB
  0
TABLE
  2
STYLE
  5
3
330
0
100
AcDbSymbolTable
 70
     5
  0
STYLE
  5
11
330
3
100
AcDbSymbolTableRecord
100
AcDbTextStyleTableRecord
  2
Standard
 70
     0
 40
0.0
 41
1.0
 50
0.0
 71
     0
 42
2.8222222222
  3
txt
  4

  0
STYLE
  5
9D
330
3
100
AcDbSymbolTableRecord
100
AcDbTextStyleTableRecord
  2
SLDTEXTSTYLE0
 70
     0
 40
0.0
 41
0.75
 50
0.0
 71
     0
 42
2.8222222222
  3
TXT
  4

  0
STYLE
  5
A3
330
3
100
AcDbSymbolTableRecord
100
AcDbTextStyleTableRecord
  2
SLDTEXTSTYLE1
 70
     0
 40
0.0
 41
0.75
 50
0.0
 71
     0
 42
2.8222222222
  3
TXT
  4
bigfont
  0
STYLE
  5
B5
330
3
100
AcDbSymbolTableRecord
100
AcDbTextStyleTableRecord
  2
SLDTEXTSTYLE2
 70
     0
 40
0.0
 41
0.7
 50
0.0
 71
     0
 42
2.8222222222
  3
TXT
  4

  0
STYLE
  5
C4
330
3
100
AcDbSymbolTableRecord
100
AcDbTextStyleTableRecord
  2
SLDTEXTSTYLE3
 70
     0
 40
0.0
 41
0.6
 50
0.0
 71
     0
 42
2.8222222222
  3
TXT
  4

  0
ENDTAB
  0
TABLE
  2
VIEW
  5
6
330
0
100
AcDbSymbolTable
 70
     0
  0
ENDTAB
  0
TABLE
  2
UCS
  5
7
330
0
100
AcDbSymbolTable
 70
     0
  0
ENDTAB
  0
TABLE
  2
APPID
  5
9
330
0
100
AcDbSymbolTable
 70
     1
  0
APPID
  5
12
330
9
100
AcDbSymbolTableRecord
100
AcDbRegAppTableRecord
  2
ACAD
 70
     0
  0
ENDTAB
  0
TABLE
  2
DIMSTYLE
  5
A
330
0
100
AcDbSymbolTable
 70
     6
100
AcDbDimStyleTable
  0
DIMSTYLE
105
27
330
A
100
AcDbSymbolTableRecord
100
AcDbDimStyleTableRecord
  2
ISO-25
 70
     0
 41
2.5
 42
0.625
 43
3.75
 44
1.25
 73
     0
 74
     0
 77
     1
 78
     8
140
2.5
141
2.5
143
0.0393700787
147
0.625
171
     3
172
     1
178
     0
271
     2
272
     2
274
     3
278
    44
283
     0
284
     8
340
11
  0
DIMSTYLE
105
F3
102
{ACAD_REACTORS
330
F2
102
}
330
A
100
AcDbSymbolTableRecord
100
AcDbDimStyleTableRecord
  2
SLDDIMSTYLE0
 70
     0
 41
3.175
 44
0.0
 45
0.000000001
 78
    12
 79
     3
140
2.1166666667
141
0.0
143
0.0393700787
147
0.5291666667
148
0.000000001
170
     1
173
     1
178
     0
271
     1
272
     1
276
     2
284
    12
340
9D
  0
DIMSTYLE
105
118
102
{ACAD_REACTORS
330
117
102
}
330
A
100
AcDbSymbolTableRecord
100
AcDbDimStyleTableRecord
  2
SLDDIMSTYLE1
 70
     0
 41
3.175
 44
0.0
 45
0.000000001
 78
    12
 79
     3
140
2.1166666667
143
0.0393700787
147
0.5291666667
148
0.000000001
170
     1
172
     1
173
     1
178
     0
271
     1
272
     1
276
     2
284
    12
289
     0
340
9D
  0
DIMSTYLE
105
12C
102
{ACAD_REACTORS
330
12B
102
}
330
A
100
AcDbSymbolTableRecord
100
AcDbDimStyleTableRecord
  2
SLDDIMSTYLE2
 70
     0
 41
3.175
 44
0.0
 45
0.000000001
 78
     4
 79
     1
140
2.1166666667
141
0.0
143
0.0393700787
147
0.5291666667
148
0.000000001
170
     1
173
     1
178
     0
271
     1
272
     1
276
     2
284
    12
340
9D
  0
DIMSTYLE
105
13D
102
{ACAD_REACTORS
330
13C
102
}
330
A
100
AcDbSymbolTableRecord
100
AcDbDimStyleTableRecord
  2
SLDDIMSTYLE3
 70
     0
 41
3.175
 44
0.0
 45
0.000000001
 78
     4
 79
     1
140
2.1166666667
143
0.0393700787
147
0.5291666667
148
0.000000001
170
     1
172
     1
173
     1
178
     0
271
     1
272
     1
276
     2
284
    12
289
     0
340
9D
  0
DIMSTYLE
105
153
330
A
100
AcDbSymbolTableRecord
100
AcDbDimStyleTableRecord
  2
SLDDIMSTYLE4
 70
     0
 41
3.175
 44
0.0
 45
0.000000001
146
3.175
147
0.0
173
     1
178
     0
271
     0
272
     0
276
     2
340
11
  0
ENDTAB
  0
TABLE
  2
BLOCK_RECORD
  5
1
330
0
100
AcDbSymbolTable
 70
    11
  0
BLOCK_RECORD
  5
1F
330
1
100
AcDbSymbolTableRecord
100
AcDbBlockTableRecord
  2
*Model_Space
340
22
  0
BLOCK_RECORD
  5
1B
330
1
100
AcDbSymbolTableRecord
100
AcDbBlockTableRecord
  2
*Paper_Space
340
1E
  0
BLOCK_RECORD
  5
23
330
1
100
AcDbSymbolTableRecord
100
AcDbBlockTableRecord
  2
*Paper_Space0
340
26
  0
BLOCK_RECORD
  5
74
330
1
100
AcDbSymbolTableRecord
100
AcDbBlockTableRecord
  2
Third Angle Projection Block
340
0
102
{BLKREFS
331
99
102
}
  0
BLOCK_RECORD
  5
9A
330
1
100
AcDbSymbolTableRecord
100
AcDbBlockTableRecord
  2
SW_NOTE_0
340
0
102
{BLKREFS
331
B8
102
}
  0
BLOCK_RECORD
  5
CA
330
1
100
AcDbSymbolTableRecord
100
AcDbBlockTableRecord
  2
SW_NOTE_1
340
0
102
{BLKREFS
331
CF
102
}
  0
BLOCK_RECORD
  5
D0
330
1
100
AcDbSymbolTableRecord
100
AcDbBlockTableRecord
  2
SW_NOTE_2
340
0
102
{BLKREFS
331
D5
102
}
  0
BLOCK_RECORD
  5
D7
330
1
100
AcDbSymbolTableRecord
100
AcDbBlockTableRecord
  2
SW_NOTE_3
340
0
102
{BLKREFS
331
DC
102
}
  0
BLOCK_RECORD
  5
DD
330
1
100
AcDbSymbolTableRecord
100
AcDbBlockTableRecord
  2
SW_NOTE_4
340
0
102
{BLKREFS
331
E3
102
}
  0
BLOCK_RECORD
  5
F4
330
1
100
AcDbSymbolTableRecord
100
AcDbBlockTableRecord
  2
_D
340
0
  0
BLOCK_RECORD
  5
119
330
1
100
AcDbSymbolTableRecord
100
AcDbBlockTableRecord
  2
_D_1
340
0
  0
BLOCK_RECORD
  5
12D
330
1
100
AcDbSymbolTableRecord
100
AcDbBlockTableRecord
  2
_D_2
340
0
  0
BLOCK_RECORD
  5
13E
330
1
100
AcDbSymbolTableRecord
100
AcDbBlockTableRecord
  2
_D_3
340
0
  0
ENDTAB
  0
ENDSEC
  0
SECTION
  2
BLOCKS
  0
BLOCK
  5
20
330
1F
100
AcDbEntity
  8
0
100
AcDbBlockBegin
  2
*Model_Space
 70
     0
 10
0.0
 20
0.0
 30
0.0
  3
*Model_Space
  1

  0
ENDBLK
  5
21
330
1F
100
AcDbEntity
  8
0
100
AcDbBlockEnd
  0
BLOCK
  5
1C
330
1B
100
AcDbEntity
 67
     1
  8
0
100
AcDbBlockBegin
  2
*Paper_Space
 70
     0
 10
0.0
 20
0.0
 30
0.0
  3
*Paper_Space
  1

  0
ENDBLK
  5
1D
330
1B
100
AcDbEntity
 67
     1
  8
0
100
AcDbBlockEnd
  0
BLOCK
  5
24
330
23
100
AcDbEntity
  8
0
100
AcDbBlockBegin
  2
*Paper_Space0
 70
     0
 10
0.0
 20
0.0
 30
0.0
  3
*Paper_Space0
  1

  0
ENDBLK
  5
25
330
23
100
AcDbEntity
  8
0
100
AcDbBlockEnd
  0
BLOCK
  5
75
330
74
100
AcDbEntity
  8
0
100
AcDbBlockBegin
  2
Third Angle Projection Block
 70
     0
 10
0.0
 20
0.0
 30
0.0
  3
Third Angle Projection Block
  1

  0
CIRCLE
  5
77
330
74
100
AcDbEntity
  8
0
  6
Continuous
 62
     7
370
    35
100
AcDbCircle
 10
101.4766388944
 20
18.9404083667
 30
0.0
 40
1.768227153674871
  0
CIRCLE
  5
78
330
74
100
AcDbEntity
  8
0
  6
Continuous
 62
     7
370
    35
100
AcDbCircle
 10
101.4766388944
 20
18.9404083667
 30
0.0
 40
3.901228248531818
  0
LINE
  5
79
330
74
100
AcDbEntity
  8
0
  6
CENTERX2
 62
     7
370
    18
100
AcDbLine
 10
110.1367822585
 20
18.9404083667
 30
0.0
 11
119.4527334874
 21
18.9404083667
 31
0.0
  0
LINE
  5
7A
330
74
100
AcDbEntity
  8
0
  6
Continuous
 62
     7
370
    35
100
AcDbLine
 10
111.0016388944
 20
20.7086355204
 30
0.0
 11
111.0016388944
 21
17.172181213
 31
0.0
  0
LINE
  5
7B
330
74
100
AcDbEntity
  8
0
  6
Continuous
 62
     7
370
    35
100
AcDbLine
 10
111.0016388944
 20
17.172181213
 30
0.0
 11
118.6216388944
 21
15.1304083667
 31
0.0
  0
LINE
  5
7C
330
74
100
AcDbEntity
  8
0
  6
Continuous
 62
     7
370
    35
100
AcDbLine
 10
118.6216388944
 20
15.1304083667
 30
0.0
 11
118.6216388944
 21
22.7504083667
 31
0.0
  0
LINE
  5
7D
330
74
100
AcDbEntity
  8
0
  6
Continuous
 62
     7
370
    35
100
AcDbLine
 10
118.6216388944
 20
22.7504083667
 30
0.0
 11
111.0016388944
 21
20.7086355204
 31
0.0
  0
LINE
  5
7E
330
74
100
AcDbEntity
  8
0
  6
CENTERX2
 62
     7
370
    18
100
AcDbLine
 10
96.6025854619
 20
18.9404083667
 30
0.0
 11
106.3506923269
 21
18.9404083667
 31
0.0
  0
LINE
  5
7F
330
74
100
AcDbEntity
  8
0
  6
CENTERX2
 62
     7
370
    18
100
AcDbLine
 10
101.4766388944
 20
23.8144617992
 30
0.0
 11
101.4766388944
 21
14.0663549342
 31
0.0
  0
POINT
  5
80
330
74
100
AcDbEntity
  8
0
  6
Continuous
 62
     7
370
     0
100
AcDbPoint
 10
101.4766388944
 20
18.9404083667
 30
0.0
  0
ENDBLK
  5
76
330
74
100
AcDbEntity
  8
0
100
AcDbBlockEnd
  0
BLOCK
  5
9B
330
9A
100
AcDbEntity
  8
0
100
AcDbBlockBegin
  2
SW_NOTE_0
 70
     0
 10
0.0
 20
0.0
 30
0.0
  3
SW_NOTE_0
  1

  0
MTEXT
  5
9E
330
9A
100
AcDbEntity
  8
0
  6
Continuous
 62
     0
370
     0
100
AcDbMText
 10
0.0
 20
3.4106583948
 30
0.0
 40
2.6458333333
 41
0.0
 71
     1
 72
     1
  1
NOTES/SPECIFICATIONS:
  7
SLDTEXTSTYLE0
 73
     1
 44
1.0
  0
MTEXT
  5
9F
330
9A
100
AcDbEntity
  8
0
  6
Continuous
 62
     0
370
     0
100
AcDbMText
 10
9.9999997765
 20
-5.6448974033
 30
0.0
 40
2.6458333333
 41
0.0
 71
     1
 72
     1
  1
CLEAR APERTURE: >
  7
SLDTEXTSTYLE0
 73
     1
 44
1.0
  0
MTEXT
  5
A0
330
9A
100
AcDbEntity
  8
0
  6
Continuous
 62
     0
370
     0
100
AcDbMText
 10
42.7789334208
 20
-5.6448974033
 30
0.0
 40
2.6458333333
 41
0.0
 71
     1
 72
     1
  1
%%c
  7
SLDTEXTSTYLE0
 73
     1
 44
1.0
  0
MTEXT
  5
A1
330
9A
100
AcDbEntity
  8
0
  6
Continuous
 62
     0
370
     0
100
AcDbMText
 10
46.7726718634
 20
-5.6448974033
 30
0.0
 40
2.6458333333
 41
0.0
 71
     1
 72
     1
  1
45.72mm
  7
SLDTEXTSTYLE0
 73
     1
 44
1.0
  0
MTEXT
  5
A2
330
9A
100
AcDbEntity
  8
0
  6
Continuous
 62
     0
370
     0
100
AcDbMText
 10
0.0
 20
-5.6448974033
 30
0.0
 40
2.6458333333
 41
0.0
 71
     1
 72
     1
  1
1.
  7
SLDTEXTSTYLE0
 73
     1
 44
1.0
  0
MTEXT
  5
A4
330
9A
100
AcDbEntity
  8
0
  6
Continuous
 62
     0
370
     0
100
AcDbMText
 10
9.9999997765
 20
-10.1726753024
 30
0.0
 40
2.6458333333
 41
0.0
 71
     1
 72
     1
  1
SURFACE IRREGULARITY (S1): \U+2264\M+183C9/4 AT 633nm OVER CLEAR APERTURE
  7
SLDTEXTSTYLE1
 73
     1
 44
1.0
  0
MTEXT
  5
A5
330
9A
100
AcDbEntity
  8
0
  6
Continuous
 62
     0
370
     0
100
AcDbMText
 10
0.0
 20
-10.1726753024
 30
0.0
 40
2.6458333333
 41
0.0
 71
     1
 72
     1
  1
2.
  7
SLDTEXTSTYLE0
 73
     1
 44
1.0
  0
MTEXT
  5
A6
330
9A
100
AcDbEntity
  8
0
  6
Continuous
 62
     0
370
     0
100
AcDbMText
 10
9.9999997765
 20
-14.7004532014
 30
0.0
 40
2.6458333333
 41
0.0
 71
     1
 72
     1
  1
BACK SURFACE (S2): UNIFORM FINE GRIND #12-#20 GRIT
  7
SLDTEXTSTYLE0
 73
     1
 44
1.0
  0
MTEXT
  5
A7
330
9A
100
AcDbEntity
  8
0
  6
Continuous
 62
     0
370
     0
100
AcDbMText
 10
0.0
 20
-14.7004532014
 30
0.0
 40
2.6458333333
 41
0.0
 71
     1
 72
     1
  1
3.
  7
SLDTEXTSTYLE0
 73
     1
 44
1.0
  0
MTEXT
  5
A8
330
9A
100
AcDbEntity
  8
0
  6
Continuous
 62
     0
370
     0
100
AcDbMText
 10
9.9999997765
 20
-19.2282311005
 30
0.0
 40
2.6458333333
 41
0.0
 71
     1
 72
     1
  1
SURFACE QUALITY(S1): 40-20 SCRATCH-DIG
  7
SLDTEXTSTYLE0
 73
     1
 44
1.0
  0
MTEXT
  5
A9
330
9A
100
AcDbEntity
  8
0
  6
Continuous
 62
     0
370
     0
100
AcDbMText
 10
0.0
 20
-19.2282311005
 30
0.0
 40
2.6458333333
 41
0.0
 71
     1
 72
     1
  1
4.
  7
SLDTEXTSTYLE0
 73
     1
 44
1.0
  0
MTEXT
  5
AA
330
9A
100
AcDbEntity
  8
0
  6
Continuous
 62
     0
370
     0
100
AcDbMText
 10
9.9999997765
 20
-23.7560089995
 30
0.0
 40
2.6458333333
 41
0.0
 71
     1
 72
     1
  1
THICKNESS TOLERANCE:
  7
SLDTEXTSTYLE0
 73
     1
 44
1.0
  0
MTEXT
  5
AB
330
9A
100
AcDbEntity
  8
0
  6
Continuous
 62
     0
370
     0
100
AcDbMText
 10
50.8242268115
 20
-23.7560089995
 30
0.0
 40
2.6458333333
 41
0.0
 71
     1
 72
     1
  1
%%p
  7
SLDTEXTSTYLE0
 73
     1
 44
1.0
  0
MTEXT
  5
AC
330
9A
100
AcDbEntity
  8
0
  6
Continuous
 62
     0
370
     0
100
AcDbMText
 10
53.3465910703
 20
-23.7560089995
 30
0.0
 40
2.6458333333
 41
0.0
 71
     1
 72
     1
  1
0.1 mm
  7
SLDTEXTSTYLE0
 73
     1
 44
1.0
  0
MTEXT
  5
AD
330
9A
100
AcDbEntity
  8
0
  6
Continuous
 62
     0
370
     0
100
AcDbMText
 10
0.0
 20
-23.7560089995
 30
0.0
 40
2.6458333333
 41
0.0
 71
     1
 72
     1
  1
5.
  7
SLDTEXTSTYLE0
 73
     1
 44
1.0
  0
MTEXT
  5
AE
330
9A
100
AcDbEntity
  8
0
  6
Continuous
 62
     0
370
     0
100
AcDbMText
 10
9.9999997765
 20
-28.2837868986
 30
0.0
 40
2.6458333333
 41
0.0
 71
     1
 72
     1
  1
DIAMETER TOLERANCE: +0.0/-0.2 mm
  7
SLDTEXTSTYLE0
 73
     1
 44
1.0
  0
MTEXT
  5
AF
330
9A
100
AcDbEntity
  8
0
  6
Continuous
 62
     0
370
     0
100
AcDbMText
 10
0.0
 20
-28.2837868986
 30
0.0
 40
2.6458333333
 41
0.0
 71
     1
 72
     1
  1
6.
  7
SLDTEXTSTYLE0
 73
     1
 44
1.0
  0
MTEXT
  5
B0
330
9A
100
AcDbEntity
  8
0
  6
Continuous
 62
     0
370
     0
100
AcDbMText
 10
9.9999997765
 20
-32.8115647976
 30
0.0
 40
2.6458333333
 41
0.0
 71
     1
 72
     1
  1
COATING(S1): UV ENHANCED ALUMINUM
  7
SLDTEXTSTYLE0
 73
     1
 44
1.0
  0
MTEXT
  5
B1
330
9A
100
AcDbEntity
  8
0
  6
Continuous
 62
     0
370
     0
100
AcDbMText
 10
0.0
 20
-32.8115647976
 30
0.0
 40
2.6458333333
 41
0.0
 71
     1
 72
     1
  1
7.
  7
SLDTEXTSTYLE0
 73
     1
 44
1.0
  0
MTEXT
  5
B2
330
9A
100
AcDbEntity
  8
0
  6
Continuous
 62
     0
370
     0
100
AcDbMText
 10
34.8828125
 20
-37.3393426967
 30
0.0
 40
2.6458333333
 41
0.0
 71
     1
 72
     1
  1
Ravg: >90% FROM 250-450nm
  7
SLDTEXTSTYLE0
 73
     1
 44
1.0
  0
MTEXT
  5
B3
330
9A
100
AcDbEntity
  8
0
  6
Continuous
 62
     0
370
     0
100
AcDbMText
 10
34.8828125
 20
-41.8671205958
 30
0.0
 40
2.6458333333
 41
0.0
 71
     1
 72
     1
  1
AOI: 0
  7
SLDTEXTSTYLE0
 73
     1
 44
1.0
  0
MTEXT
  5
B4
330
9A
100
AcDbEntity
  8
0
  6
Continuous
 62
     0
370
     0
100
AcDbMText
 10
45.0080246478
 20
-41.8671205958
 30
0.0
 40
2.6458333333
 41
0.0
 71
     1
 72
     1
  1
%%d
  7
SLDTEXTSTYLE0
 73
     1
 44
1.0
  0
MTEXT
  5
B6
330
9A
100
AcDbEntity
  8
0
  6
Continuous
 62
     0
370
     0
100
AcDbMText
 10
47.6817858368
 20
-41.8671205958
 30
0.0
 40
2.6458333333
 41
0.0
 71
     1
 72
     1
  1
TO 45
  7
SLDTEXTSTYLE2
 73
     1
 44
1.0
  0
MTEXT
  5
B7
330
9A
100
AcDbEntity
  8
0
  6
Continuous
 62
     0
370
     0
100
AcDbMText
 10
57.1210426092
 20
-41.8671205958
 30
0.0
 40
2.6458333333
 41
0.0
 71
     1
 72
     1
  1
%%d
  7
SLDTEXTSTYLE0
 73
     1
 44
1.0
  0
ENDBLK
  5
9C
330
9A
100
AcDbEntity
  8
0
100
AcDbBlockEnd
  0
BLOCK
  5
CB
330
CA
100
AcDbEntity
  8
0
100
AcDbBlockBegin
  2
SW_NOTE_1
 70
     0
 10
0.0
 20
0.0
 30
0.0
  3
SW_NOTE_1
  1

  0
MTEXT
  5
CD
330
CA
100
AcDbEntity
  8
0
  6
Continuous
 62
     0
370
     0
100
AcDbMText
 10
19.90725
 20
1.9645392354
 30
0.0
 40
1.524
 41
0.0
 71
     2
 72
     1
  1
VALUES IN PARENTHESIS ARE CALCULATED
  7
SLDTEXTSTYLE0
 73
     1
 44
1.0
  0
MTEXT
  5
CE
330
CA
100
AcDbEntity
  8
0
  6
Continuous
 62
     0
370
     0
100
AcDbMText
 10
19.8778795174
 20
-0.5594606586
 30
0.0
 40
1.524
 41
0.0
 71
     2
 72
     1
  1
AND MAY CONTAIN ROUNDOFF ERRORS
  7
SLDTEXTSTYLE0
 73
     1
 44
1.0
  0
ENDBLK
  5
CC
330
CA
100
AcDbEntity
  8
0
100
AcDbBlockEnd
  0
BLOCK
  5
D1
330
D0
100
AcDbEntity
  8
0
100
AcDbBlockBegin
  2
SW_NOTE_2
 70
     0
 10
0.0
 20
0.0
 30
0.0
  3
SW_NOTE_2
  1

  0
MTEXT
  5
D3
330
D0
100
AcDbEntity
  8
0
  6
Continuous
 62
     0
370
     0
100
AcDbMText
 10
0.0
 20
2.7285267159
 30
0.0
 40
2.1166666667
 41
0.0
 71
     1
 72
     1
  1
DRAWING
  7
SLDTEXTSTYLE0
 73
     1
 44
1.0
  0
MTEXT
  5
D4
330
D0
100
AcDbEntity
  8
0
  6
Continuous
 62
     0
370
     0
100
AcDbMText
 10
0.0
 20
-0.0936954723
 30
0.0
 40
2.1166666667
 41
0.0
 71
     1
 72
     1
  1
PROJECTION
  7
SLDTEXTSTYLE0
 73
     1
 44
1.0
  0
ENDBLK
  5
D2
330
D0
100
AcDbEntity
  8
0
100
AcDbBlockEnd
  0
BLOCK
  5
D8
330
D7
100
AcDbEntity
  8
0
100
AcDbBlockBegin
  2
SW_NOTE_3
 70
     0
 10
0.0
 20
0.0
 30
0.0
  3
SW_NOTE_3
  1

  0
MTEXT
  5
DA
330
D7
100
AcDbEntity
  8
0
  6
Continuous
 62
     0
370
     0
100
AcDbMText
 10
25.052734375
 20
4.0927900738
 30
0.0
 40
3.175
 41
0.0
 71
     2
 72
     1
  1
FOR INFORMATION ONLY
  7
SLDTEXTSTYLE0
 73
     1
 44
1.0
  0
MTEXT
  5
DB
330
D7
100
AcDbEntity
  8
0
  6
Continuous
 62
     0
370
     0
100
AcDbMText
 10
25.3768468589
 20
-0.1405432084
 30
0.0
 40
3.175
 41
0.0
 71
     2
 72
     1
  1
NOT FOR MANUFACTURING PURPOSES
  7
SLDTEXTSTYLE0
 73
     1
 44
1.0
  0
ENDBLK
  5
D9
330
D7
100
AcDbEntity
  8
0
100
AcDbBlockEnd
  0
BLOCK
  5
DE
330
DD
100
AcDbEntity
  8
0
100
AcDbBlockBegin
  2
SW_NOTE_4
 70
     0
 10
0.0
 20
0.0
 30
0.0
  3
SW_NOTE_4
  1

  0
MTEXT
  5
E0
330
DD
100
AcDbEntity
  8
0
  6
Continuous
 62
     0
370
     0
100
AcDbMText
 10
1.9016927083
 20
3.4106583948
 30
0.0
 40
2.6458333333
 41
0.0
 71
     2
 72
     1
  1
%%c
  7
SLDTEXTSTYLE0
 73
     1
 44
1.0
  0
MTEXT
  5
E1
330
DD
100
AcDbEntity
  8
0
  6
Continuous
 62
     0
370
     0
100
AcDbMText
 10
29.5425665677
 20
3.4106583948
 30
0.0
 40
2.6458333333
 41
0.0
 71
     2
 72
     1
  1
50.8mm, f=1000mm CONCAVE
  7
SLDTEXTSTYLE0
 73
     1
 44
1.0
  0
MTEXT
  5
E2
330
DD
100
AcDbEntity
  8
0
  6
Continuous
 62
     0
370
     0
100
AcDbMText
 10
27.5659086208
 20
-0.1171193403
 30
0.0
 40
2.6458333333
 41
0.0
 71
     2
 72
     1
  1
UV ENHANCED ALUMINUM MIRROR
  7
SLDTEXTSTYLE0
 73
     1
 44
1.0
  0
ENDBLK
  5
DF
330
DD
100
AcDbEntity
  8
0
100
AcDbBlockEnd
  0
BLOCK
  5
F5
330
F4
100
AcDbEntity
  8
0
100
AcDbBlockBegin
  2
_D
 70
     0
 10
0.0
 20
0.0
 30
0.0
  3
_D
  1

  0
SOLID
  5
F7
330
F4
100
AcDbEntity
  8
0
  6
Continuous
 62
     7
370
    18
100
AcDbTrace
 10
67.3303225069
 20
143.6918594921
 30
0.0
 11
69.357763412
 21
146.1874901491
 31
0.0
 12
68.4778816018
 22
146.6954901491
 32
0.0
 13
68.4778816018
 23
146.6954901491
 33
0.0
  0
LINE
  5
F8
330
F4
100
AcDbEntity
  8
0
  6
Continuous
 62
     7
370
    18
100
AcDbLine
 10
80.6522995922
 20
156.3657222333
 30
0.0
 11
80.0084801381
 21
156.3657222333
 31
0.0
  0
LINE
  5
F9
330
F4
100
AcDbEntity
  8
0
  6
Continuous
 62
     7
370
    18
100
AcDbLine
 10
80.0084801381
 20
156.3657222333
 30
0.0
 11
80.0084801381
 21
153.0025741569
 31
0.0
  0
LINE
  5
FA
330
F4
100
AcDbEntity
  8
0
  6
Continuous
 62
     7
370
    18
100
AcDbLine
 10
80.0084801381
 20
153.0025741569
 30
0.0
 11
80.6522995922
 21
153.0025741569
 31
0.0
  0
LINE
  5
FB
330
F4
100
AcDbEntity
  8
0
  6
Continuous
 62
     7
370
    18
100
AcDbLine
 10
88.4094911385
 20
156.3657222333
 30
0.0
 11
89.0533105926
 21
156.3657222333
 31
0.0
  0
LINE
  5
FC
330
F4
100
AcDbEntity
  8
0
  6
Continuous
 62
     7
370
    18
100
AcDbLine
 10
89.0533105926
 20
156.3657222333
 30
0.0
 11
89.0533105926
 21
153.0025741569
 31
0.0
  0
LINE
  5
FD
330
F4
100
AcDbEntity
  8
0
  6
Continuous
 62
     7
370
    18
100
AcDbLine
 10
89.0533105926
 20
153.0025741569
 30
0.0
 11
88.4094911385
 21
153.0025741569
 31
0.0
  0
LINE
  5
FE
330
F4
100
AcDbEntity
  8
0
  6
Continuous
 62
     7
370
    18
100
AcDbLine
 10
67.3303225069
 20
143.6918594921
 30
0.0
 11
75.554660684
 21
157.9368310734
 31
0.0
  0
LINE
  5
FF
330
F4
100
AcDbEntity
  8
0
  6
Continuous
 62
     7
370
    18
100
AcDbLine
 10
75.554660684
 20
157.9368310734
 30
0.0
 11
79.364660684
 21
157.9368310734
 31
0.0
  0
MTEXT
  5
100
330
F4
100
AcDbEntity
  8
0
  6
Continuous
 62
     7
370
    18
100
AcDbMText
 10
79.364660684
 20
159.5234618798
 30
0.0
 40
2.1166666667
 41
0.0
 71
     1
 72
     1
  1
%%c
  7
SLDTEXTSTYLE0
 73
     1
 44
1.0
  0
MTEXT
  5
101
330
F4
100
AcDbEntity
  8
0
  6
Continuous
 62
     7
370
    18
100
AcDbMText
 10
82.5596514847
 20
159.5234618798
 30
0.0
 40
2.1166666667
 41
0.0
 71
     1
 72
     1
  1
50.8mm
  7
SLDTEXTSTYLE0
 73
     1
 44
1.0
  0
MTEXT
  5
102
330
F4
100
AcDbEntity
  8
0
  6
Continuous
 62
     7
370
    18
100
AcDbMText
 10
80.6522995922
 20
155.7311007563
 30
0.0
 40
2.1166666667
 41
0.0
 71
     1
 72
     1
  1
2.00in
  7
SLDTEXTSTYLE0
 73
     1
 44
1.0
  0
ENDBLK
  5
F6
330
F4
100
AcDbEntity
  8
0
100
AcDbBlockEnd
  0
BLOCK
  5
11A
330
119
100
AcDbEntity
  8
0
100
AcDbBlockBegin
  2
_D_1
 70
     0
 10
0.0
 20
0.0
 30
0.0
  3
_D_1
  1

  0
SOLID
  5
11C
330
119
100
AcDbEntity
  8
0
  6
Continuous
 62
     7
370
    18
100
AcDbTrace
 10
135.2531528609
 20
160.2263569512
 30
0.0
 11
132.0782915722
 21
160.7352231397
 31
0.0
 12
132.0780143858
 22
159.7192231775
 32
0.0
 13
132.0780143858
 23
159.7192231775
 33
0.0
  0
SOLID
  5
11D
330
119
100
AcDbEntity
  8
0
  6
Continuous
 62
     7
370
    18
100
AcDbTrace
 10
144.4119506499
 20
160.2238582366
 30
0.0
 11
147.5868119385
 21
159.7149920481
 31
0.0
 12
147.5870891249
 22
160.7309920103
 32
0.0
 13
147.5870891249
 23
160.7309920103
 33
0.0
  0
LINE
  5
11E
330
119
100
AcDbEntity
  8
0
  6
Continuous
 62
     7
370
    18
100
AcDbLine
 10
156.4647670987
 20
160.2187785079
 30
0.0
 11
155.8209476445
 21
160.2187785079
 31
0.0
  0
LINE
  5
11F
330
119
100
AcDbEntity
  8
0
  6
Continuous
 62
     7
370
    18
100
AcDbLine
 10
155.8209476445
 20
160.2187785079
 30
0.0
 11
155.8209476445
 21
156.8556304314
 31
0.0
  0
LINE
  5
120
330
119
100
AcDbEntity
  8
0
  6
Continuous
 62
     7
370
    18
100
AcDbLine
 10
155.8209476445
 20
156.8556304314
 30
0.0
 11
156.4647670987
 21
156.8556304314
 31
0.0
  0
LINE
  5
121
330
119
100
AcDbEntity
  8
0
  6
Continuous
 62
     7
370
    18
100
AcDbLine
 10
164.2219586449
 20
160.2187785079
 30
0.0
 11
164.8657780991
 21
160.2187785079
 31
0.0
  0
LINE
  5
122
330
119
100
AcDbEntity
  8
0
  6
Continuous
 62
     7
370
    18
100
AcDbLine
 10
164.8657780991
 20
160.2187785079
 30
0.0
 11
164.8657780991
 21
156.8556304314
 31
0.0
  0
LINE
  5
123
330
119
100
AcDbEntity
  8
0
  6
Continuous
 62
     7
370
    18
100
AcDbLine
 10
164.8657780991
 20
156.8556304314
 30
0.0
 11
164.2219586449
 21
156.8556304314
 31
0.0
  0
LINE
  5
124
330
119
100
AcDbEntity
  8
0
  6
Continuous
 62
     7
370
    18
100
AcDbLine
 10
135.2498628975
 20
148.1673129033
 30
0.0
 11
135.253637937
 21
162.004356885
 31
0.0
  0
LINE
  5
125
330
119
100
AcDbEntity
  8
0
  6
Continuous
 62
     7
370
    18
100
AcDbLine
 10
144.4086606865
 20
148.1648141887
 30
0.0
 11
144.412435726
 21
162.0018581705
 31
0.0
  0
LINE
  5
126
330
119
100
AcDbEntity
  8
0
  6
Continuous
 62
     7
370
    18
100
AcDbLine
 10
135.2531528609
 20
160.2263569512
 30
0.0
 11
128.9031530972
 21
160.228089366
 31
0.0
  0
LINE
  5
127
330
119
100
AcDbEntity
  8
0
  6
Continuous
 62
     7
370
    18
100
AcDbLine
 10
144.4119506499
 20
160.2238582366
 30
0.0
 11
154.7476147077
 21
160.2210384479
 31
0.0
  0
MTEXT
  5
128
330
119
100
AcDbEntity
  8
0
  6
Continuous
 62
     7
370
    18
100
AcDbMText
 10
155.7435325033
 20
163.3765181543
 30
0.0
 40
2.1166666667
 41
0.0
 71
     1
 72
     1
  1
9.2mm
  7
SLDTEXTSTYLE0
 73
     1
 44
1.0
  0
MTEXT
  5
129
330
119
100
AcDbEntity
  8
0
  6
Continuous
 62
     7
370
    18
100
AcDbMText
 10
156.4647670987
 20
159.5841570309
 30
0.0
 40
2.1166666667
 41
0.0
 71
     1
 72
     1
  1
0.36in
  7
SLDTEXTSTYLE0
 73
     1
 44
1.0
  0
MTEXT
  5
12A
330
119
100
AcDbEntity
  8
0
  6
Continuous
 62
     7
370
    18
100
AcDbMText
 10
166.3033470875
 20
163.3765181543
 30
0.0
 40
2.1166666667
 41
0.0
 71
     1
 72
     1
  1
REF
  7
SLDTEXTSTYLE0
 73
     1
 44
1.0
  0
ENDBLK
  5
11B
330
119
100
AcDbEntity
  8
0
100
AcDbBlockEnd
  0
BLOCK
  5
12E
330
12D
100
AcDbEntity
  8
0
100
AcDbBlockBegin
  2
_D_2
 70
     0
 10
0.0
 20
0.0
 30
0.0
  3
_D_2
  1

  0
ARC
  5
130
330
12D
100
AcDbEntity
  8
0
  6
Continuous
 62
     7
370
    18
100
AcDbCircle
 10
-1864.5916925733
 20
121.694814236
 30
0.0
 40
2000.000006776844
100
AcDbArc
 50
359.0024359215
 51
359.2415996735
  0
SOLID
  5
131
330
12D
100
AcDbEntity
  8
0
  6
Continuous
 62
     7
370
    18
100
AcDbTrace
 10
135.1353512667
 20
88.6527616031
 30
0.0
 11
138.3015252567
 21
88.0923766773
 31
0.0
 12
138.3183106194
 22
89.1082380121
 32
0.0
 13
138.3183106194
 23
89.1082380121
 33
0.0
  0
LINE
  5
132
330
12D
100
AcDbEntity
  8
0
  6
Continuous
 62
     7
370
    18
100
AcDbLine
 10
146.9283229464
 20
86.9710238957
 30
0.0
 11
146.2845034922
 21
86.9710238957
 31
0.0
  0
LINE
  5
133
330
12D
100
AcDbEntity
  8
0
  6
Continuous
 62
     7
370
    18
100
AcDbLine
 10
146.2845034922
 20
86.9710238957
 30
0.0
 11
146.2845034922
 21
83.6078758193
 31
0.0
  0
LINE
  5
134
330
12D
100
AcDbEntity
  8
0
  6
Continuous
 62
     7
370
    18
100
AcDbLine
 10
146.2845034922
 20
83.6078758193
 30
0.0
 11
146.9283229464
 21
83.6078758193
 31
0.0
  0
LINE
  5
135
330
12D
100
AcDbEntity
  8
0
  6
Continuous
 62
     7
370
    18
100
AcDbLine
 10
156.2494965994
 20
86.9710238957
 30
0.0
 11
156.8933160535
 21
86.9710238957
 31
0.0
  0
LINE
  5
136
330
12D
100
AcDbEntity
  8
0
  6
Continuous
 62
     7
370
    18
100
AcDbLine
 10
156.8933160535
 20
86.9710238957
 30
0.0
 11
156.8933160535
 21
83.6078758193
 31
0.0
  0
LINE
  5
137
330
12D
100
AcDbEntity
  8
0
  6
Continuous
 62
     7
370
    18
100
AcDbLine
 10
156.8933160535
 20
83.6078758193
 30
0.0
 11
156.2494965994
 21
83.6078758193
 31
0.0
  0
LINE
  5
138
330
12D
100
AcDbEntity
  8
0
  6
Continuous
 62
     7
370
    18
100
AcDbLine
 10
135.1353512667
 20
88.6527616031
 30
0.0
 11
141.8306840381
 21
88.5421327357
 31
0.0
  0
LINE
  5
139
330
12D
100
AcDbEntity
  8
0
  6
Continuous
 62
     7
370
    18
100
AcDbLine
 10
141.8306840381
 20
88.5421327357
 30
0.0
 11
145.6406840381
 21
88.5421327357
 31
0.0
  0
MTEXT
  5
13A
330
12D
100
AcDbEntity
  8
0
  6
Continuous
 62
     7
370
    18
100
AcDbMText
 10
145.6406840381
 20
90.1287635422
 30
0.0
 40
2.1166666667
 41
0.0
 71
     1
 72
     1
  1
R2000.0mm
  7
SLDTEXTSTYLE0
 73
     1
 44
1.0
  0
MTEXT
  5
13B
330
12D
100
AcDbEntity
  8
0
  6
Continuous
 62
     7
370
    18
100
AcDbMText
 10
146.9283229464
 20
86.3364024187
 30
0.0
 40
2.1166666667
 41
0.0
 71
     1
 72
     1
  1
78.74in
  7
SLDTEXTSTYLE0
 73
     1
 44
1.0
  0
ENDBLK
  5
12F
330
12D
100
AcDbEntity
  8
0
100
AcDbBlockEnd
  0
BLOCK
  5
13F
330
13E
100
AcDbEntity
  8
0
100
AcDbBlockBegin
  2
_D_3
 70
     0
 10
0.0
 20
0.0
 30
0.0
  3
_D_3
  1

  0
SOLID
  5
141
330
13E
100
AcDbEntity
  8
0
  6
Continuous
 62
     7
370
    18
100
AcDbTrace
 10
144.4083142035
 20
151.669391568
 30
0.0
 11
147.5833142035
 21
151.161391568
 31
0.0
 12
147.5833142035
 22
152.177391568
 32
0.0
 13
147.5833142035
 23
152.177391568
 33
0.0
  0
SOLID
  5
142
330
13E
100
AcDbEntity
  8
0
  6
Continuous
 62
     7
370
    18
100
AcDbTrace
 10
135.4083142035
 20
151.669391568
 30
0.0
 11
132.2333142035
 21
152.177391568
 31
0.0
 12
132.2333142035
 22
151.161391568
 32
0.0
 13
132.2333142035
 23
151.161391568
 33
0.0
  0
LINE
  5
143
330
13E
100
AcDbEntity
  8
0
  6
Continuous
 62
     7
370
    18
100
AcDbLine
 10
156.5297181976
 20
151.6693913352
 30
0.0
 11
155.8858987434
 21
151.6693913352
 31
0.0
  0
LINE
  5
144
330
13E
100
AcDbEntity
  8
0
  6
Continuous
 62
     7
370
    18
100
AcDbLine
 10
155.8858987434
 20
151.6693913352
 30
0.0
 11
155.8858987434
 21
148.3062432587
 31
0.0
  0
LINE
  5
145
330
13E
100
AcDbEntity
  8
0
  6
Continuous
 62
     7
370
    18
100
AcDbLine
 10
155.8858987434
 20
148.3062432587
 30
0.0
 11
156.5297181976
 21
148.3062432587
 31
0.0
  0
LINE
  5
146
330
13E
100
AcDbEntity
  8
0
  6
Continuous
 62
     7
370
    18
100
AcDbLine
 10
164.2869097438
 20
151.6693913352
 30
0.0
 11
164.930729198
 21
151.6693913352
 31
0.0
  0
LINE
  5
147
330
13E
100
AcDbEntity
  8
0
  6
Continuous
 62
     7
370
    18
100
AcDbLine
 10
164.930729198
 20
151.6693913352
 30
0.0
 11
164.930729198
 21
148.3062432587
 31
0.0
  0
LINE
  5
148
330
13E
100
AcDbEntity
  8
0
  6
Continuous
 62
     7
370
    18
100
AcDbLine
 10
164.930729198
 20
148.3062432587
 30
0.0
 11
164.2869097438
 21
148.3062432587
 31
0.0
  0
LINE
  5
149
330
13E
100
AcDbEntity
  8
0
  6
Continuous
 62
     7
370
    18
100
AcDbLine
 10
144.4083142035
 20
148.164814236
 30
0.0
 11
144.4083142035
 21
153.447391568
 31
0.0
  0
LINE
  5
14A
330
13E
100
AcDbEntity
  8
0
  6
Continuous
 62
     7
370
    18
100
AcDbLine
 10
135.4083142035
 20
122.964814236
 30
0.0
 11
135.4083142035
 21
153.447391568
 31
0.0
  0
LINE
  5
14B
330
13E
100
AcDbEntity
  8
0
  6
Continuous
 62
     7
370
    18
100
AcDbLine
 10
144.4083142035
 20
151.669391568
 30
0.0
 11
153.2525041023
 21
151.669391568
 31
0.0
  0
LINE
  5
14C
330
13E
100
AcDbEntity
  8
0
  6
Continuous
 62
     7
370
    18
100
AcDbLine
 10
135.4083142035
 20
151.669391568
 30
0.0
 11
129.0583142035
 21
151.669391568
 31
0.0
  0
MTEXT
  5
14D
330
13E
100
AcDbEntity
  8
0
  6
Continuous
 62
     7
370
    18
100
AcDbMText
 10
155.269517585
 20
154.8271309816
 30
0.0
 40
2.1166666667
 41
0.0
 71
     1
 72
     1
  1

  7
SLDTEXTSTYLE0
 73
     1
 44
1.0
  0
MTEXT
  5
14E
330
13E
100
AcDbEntity
  8
0
  6
Continuous
 62
     7
370
    18
100
AcDbMText
 10
155.8084836022
 20
154.8271309816
 30
0.0
 40
2.1166666667
 41
0.0
 71
     1
 72
     1
  1
9.0mm
  7
SLDTEXTSTYLE0
 73
     1
 44
1.0
  0
MTEXT
  5
14F
330
13E
100
AcDbEntity
  8
0
  6
Continuous
 62
     7
370
    18
100
AcDbMText
 10
156.5297181976
 20
151.0347698581
 30
0.0
 40
2.1166666667
 41
0.0
 71
     1
 72
     1
  1
0.35in
  7
SLDTEXTSTYLE0
 73
     1
 44
1.0
  0
MTEXT
  5
150
330
13E
100
AcDbEntity
  8
0
  6
Continuous
 62
     7
370
    18
100
AcDbMText
 10
167.1620486521
 20
154.8271309816
 30
0.0
 40
2.1166666667
 41
0.0
 71
     1
 72
     1
  1

  7
SLDTEXTSTYLE0
 73
     1
 44
1.0
  0
ENDBLK
  5
140
330
13E
100
AcDbEntity
  8
0
100
AcDbBlockEnd
  0
ENDSEC
  0
SECTION
  2
ENTITIES
  0
LINE
  5
81
330
1F
100
AcDbEntity
  8
0
  6
Continuous
 62
     7
370
    18
100
AcDbLine
 10
1.5793501011
 20
214.6453799966
 30
0.0
 11
277.9892068491
 21
214.6453799966
 31
0.0
  0
LINE
  5
82
330
1F
100
AcDbEntity
  8
0
  6
Continuous
 62
     7
370
    18
100
AcDbLine
 10
1.5793501011
 20
214.6453799966
 30
0.0
 11
1.5793501011
 21
0.9031642596
 31
0.0
  0
LINE
  5
83
330
1F
100
AcDbEntity
  8
0
  6
Continuous
 62
     7
370
    18
100
AcDbLine
 10
277.9892068491
 20
0.9031642596
 30
0.0
 11
1.5793501011
 21
0.9031642596
 31
0.0
  0
LINE
  5
84
330
1F
100
AcDbEntity
  8
0
  6
Continuous
 62
     7
370
    18
100
AcDbLine
 10
277.9892068491
 20
0.9031642596
 30
0.0
 11
277.9892068491
 21
214.6453799966
 31
0.0
  0
LINE
  5
85
330
1F
100
AcDbEntity
  8
0
  6
Continuous
 62
     7
370
    18
100
AcDbLine
 10
215.7427640041
 20
12.2958890132
 30
0.0
 11
171.6327596684
 21
12.2958890132
 31
0.0
  0
LINE
  5
86
330
1F
100
AcDbEntity
  8
0
  6
Continuous
 62
     7
370
    18
100
AcDbLine
 10
171.6327596684
 20
12.2958890132
 30
0.0
 11
171.6327596684
 21
26.1661402506
 31
0.0
  0
LINE
  5
87
330
1F
100
AcDbEntity
  8
0
  6
Continuous
 62
     7
370
    18
100
AcDbLine
 10
171.6327596684
 20
0.9031642596
 30
0.0
 11
171.6327596684
 21
26.1661402506
 31
0.0
  0
LINE
  5
88
330
1F
100
AcDbEntity
  8
0
  6
Continuous
 62
     7
370
    18
100
AcDbLine
 10
215.7427640041
 20
17.1604579552
 30
0.0
 11
277.9892068491
 21
17.1604579552
 31
0.0
  0
LINE
  5
89
330
1F
100
AcDbEntity
  8
0
  6
Continuous
 62
     7
370
    18
100
AcDbLine
 10
215.7427640041
 20
35.2394508358
 30
0.0
 11
215.7427640041
 21
0.9031642596
 31
0.0
  0
LINE
  5
8A
330
1F
100
AcDbEntity
  8
0
  6
Continuous
 62
     7
370
    18
100
AcDbLine
 10
215.7427640041
 20
26.1661402506
 30
0.0
 11
171.6327596684
 21
26.1661402506
 31
0.0
  0
LINE
  5
8B
330
1F
100
AcDbEntity
  8
0
  6
Continuous
 62
     7
370
    18
100
AcDbLine
 10
215.7427640041
 20
9.1409200612
 30
0.0
 11
277.9892068491
 21
9.1409200612
 31
0.0
  0
LINE
  5
8C
330
1F
100
AcDbEntity
  8
0
  6
Continuous
 62
     7
370
    18
100
AcDbLine
 10
215.7427640041
 20
16.9216824031
 30
0.0
 11
171.6327596684
 21
16.9216824031
 31
0.0
  0
LINE
  5
8D
330
1F
100
AcDbEntity
  8
0
  6
Continuous
 62
     7
370
    18
100
AcDbLine
 10
215.7427640041
 20
21.4874005542
 30
0.0
 11
171.6327596684
 21
21.4874005542
 31
0.0
  0
LINE
  5
8E
330
1F
100
AcDbEntity
  8
0
  6
Continuous
 62
     7
370
    18
100
AcDbLine
 10
186.1338100705
 20
26.1661402506
 30
0.0
 11
186.1338100705
 21
12.2958890132
 31
0.0
  0
LINE
  5
8F
330
1F
100
AcDbEntity
  8
0
  6
Continuous
 62
     7
370
    18
100
AcDbLine
 10
198.2145906188
 20
26.1661402506
 30
0.0
 11
198.2145906188
 21
12.2958890132
 31
0.0
  0
LINE
  5
90
330
1F
100
AcDbEntity
  8
0
  6
Continuous
 62
     7
370
    18
100
AcDbLine
 10
253.7490408369
 20
9.1409200612
 30
0.0
 11
253.7490408369
 21
0.9031642596
 31
0.0
  0
LINE
  5
91
330
1F
100
AcDbEntity
  8
0
  6
Continuous
 62
     7
370
    18
100
AcDbLine
 10
171.6327596684
 20
12.2958890132
 30
0.0
 11
171.6327596684
 21
7.5627342528
 31
0.0
  0
LINE
  5
92
330
1F
100
AcDbEntity
  8
0
  6
Continuous
 62
     7
370
    18
100
AcDbLine
 10
171.6327596684
 20
7.5627342528
 30
0.0
 11
215.7427640041
 21
7.5627342528
 31
0.0
  0
LINE
  5
93
330
1F
100
AcDbEntity
  8
0
  6
Continuous
 62
     7
370
    18
100
AcDbLine
 10
171.6327596684
 20
7.5627342528
 30
0.0
 11
171.6327596684
 21
35.2394508358
 31
0.0
  0
LINE
  5
94
330
1F
100
AcDbEntity
  8
0
  6
Continuous
 62
     7
370
    18
100
AcDbLine
 10
171.6327596684
 20
35.2394508358
 30
0.0
 11
215.7427640041
 21
35.2394508358
 31
0.0
  0
LINE
  5
95
330
1F
100
AcDbEntity
  8
0
  6
Continuous
 62
     7
370
    18
100
AcDbLine
 10
270.1683598194
 20
17.1604579552
 30
0.0
 11
270.1683598194
 21
9.1409200612
 31
0.0
  0
LINE
  5
96
330
1F
100
AcDbEntity
  8
0
  6
Continuous
 62
     7
370
    18
100
AcDbLine
 10
215.7427640041
 20
35.2394508358
 30
0.0
 11
277.9892068491
 21
35.2394508358
 31
0.0
  0
LINE
  5
97
330
1F
100
AcDbEntity
  8
0
  6
Continuous
 62
     7
370
    18
100
AcDbLine
 10
277.9892068491
 20
35.2394508358
 30
0.0
 11
277.9892068491
 21
50.0331356147
 31
0.0
  0
LINE
  5
98
330
1F
100
AcDbEntity
  8
0
  6
Continuous
 62
     7
370
    18
100
AcDbLine
 10
215.7427640041
 20
24.8927335446
 30
0.0
 11
277.9892068491
 21
24.8927335446
 31
0.0
  0
INSERT
  5
99
330
1F
100
AcDbEntity
  8
0
  6
Continuous
 62
     7
100
AcDbBlockReference
  2
Third Angle Projection Block
 10
117.7262204235
 20
15.5162339489
 30
0.0
 41
0.8
 42
0.8
 43
0.8
  0
INSERT
  5
B8
330
1F
100
AcDbEntity
  8
0
  6
Continuous
 62
     7
370
     0
100
AcDbBlockReference
  2
SW_NOTE_0
 10
32.1952471729
 20
68.9650586644
 30
0.0
  0
MTEXT
  5
B9
330
1F
100
AcDbEntity
  8
0
  6
Continuous
 62
     7
370
     0
100
AcDbMText
 10
274.1458225539
 20
13.2559386876
 30
0.0
 40
3.175
 41
0.0
 71
     2
 72
     1
  1
A
  7
SLDTEXTSTYLE0
 73
     1
 44
1.0
  0
MTEXT
  5
BA
330
1F
100
AcDbEntity
  8
0
  6
Continuous
 62
     7
370
     0
100
AcDbMText
 10
234.6178825474
 20
5.1306563898
 30
0.0
 40
3.175
 41
0.0
 71
     2
 72
     1
  1
CM508-1000-F01
  7
SLDTEXTSTYLE0
 73
     1
 44
1.0
  0
MTEXT
  5
BB
330
1F
100
AcDbEntity
  8
0
  6
Continuous
 62
     7
370
     0
100
AcDbMText
 10
216.4199766059
 20
16.8243178599
 30
0.0
 40
2.1166666667
 41
0.0
 71
     1
 72
     1
  1
MATERIAL
  7
SLDTEXTSTYLE0
 73
     1
 44
1.0
  0
MTEXT
  5
BC
330
1F
100
AcDbEntity
  8
0
  6
Continuous
 62
     7
370
     0
100
AcDbMText
 10
174.230946566
 20
20.054553926
 30
0.0
 40
1.8520833333
 41
0.0
 71
     1
 72
     1
  1
DRAWN
  7
SLDTEXTSTYLE0
 73
     1
 44
1.0
  0
MTEXT
  5
BD
330
1F
100
AcDbEntity
  8
0
  6
Continuous
 62
     7
370
     0
100
AcDbMText
 10
172.3960124543
 20
15.5787169747
 30
0.0
 40
1.8520833333
 41
0.0
 71
     1
 72
     1
  1
APPROVAL
  7
SLDTEXTSTYLE0
 73
     1
 44
1.0
  0
MTEXT
  5
BE
330
1F
100
AcDbEntity
  8
0
  6
Continuous
 62
     7
370
     0
100
AcDbMText
 10
271.7160653675
 20
16.1671746307
 30
0.0
 40
2.1166666667
 41
0.0
 71
     1
 72
     1
  1
REV
  7
SLDTEXTSTYLE0
 73
     1
 44
1.0
  0
MTEXT
  5
BF
330
1F
100
AcDbEntity
  8
0
  6
Continuous
 62
     7
370
     0
100
AcDbMText
 10
190.2958696448
 20
20.3177146903
 30
0.0
 40
2.1166666667
 41
0.0
 71
     1
 72
     1
  1
YB
  7
SLDTEXTSTYLE0
 73
     1
 44
1.0
  0
MTEXT
  5
C0
330
1F
100
AcDbEntity
  8
0
  6
Continuous
 62
     7
370
     0
100
AcDbMText
 10
190.2958696448
 20
15.841877739
 30
0.0
 40
2.1166666667
 41
0.0
 71
     1
 72
     1
  1
DD
  7
SLDTEXTSTYLE0
 73
     1
 44
1.0
  0
MTEXT
  5
C1
330
1F
100
AcDbEntity
  8
0
  6
Continuous
 62
     7
370
     0
100
AcDbMText
 10
199.8662436873
 20
20.3177146903
 30
0.0
 40
2.1166666667
 41
0.0
 71
     1
 72
     1
  1
16/APR/18
  7
SLDTEXTSTYLE0
 73
     1
 44
1.0
  0
MTEXT
  5
C2
330
1F
100
AcDbEntity
  8
0
  6
Continuous
 62
     7
370
     0
100
AcDbMText
 10
203.6145073853
 20
24.8221395769
 30
0.0
 40
2.1166666667
 41
0.0
 71
     1
 72
     1
  1
DATE
  7
SLDTEXTSTYLE0
 73
     1
 44
1.0
  0
MTEXT
  5
C3
330
1F
100
AcDbEntity
  8
0
  6
Continuous
 62
     7
370
     0
100
AcDbMText
 10
199.8662436873
 20
15.841877739
 30
0.0
 40
2.1166666667
 41
0.0
 71
     1
 72
     1
  1
16/APR/18
  7
SLDTEXTSTYLE0
 73
     1
 44
1.0
  0
MTEXT
  5
C5
330
1F
100
AcDbEntity
  8
0
  6
Continuous
 62
     7
370
     0
100
AcDbMText
 10
229.402906477
 20
27.7957480569
 30
0.0
 40
2.1166666667
 41
0.0
 71
     1
 72
     1
  1
w w w . t h o r  l a b s . c o m
  7
SLDTEXTSTYLE3
 73
     1
 44
1.0
  0
MTEXT
  5
C6
330
1F
100
AcDbEntity
  8
0
  6
Continuous
 62
     7
370
     0
100
AcDbMText
 10
216.7004035316
 20
8.3494791871
 30
0.0
 40
2.1166666667
 41
0.0
 71
     1
 72
     1
  1
ITEM #
  7
SLDTEXTSTYLE0
 73
     1
 44
1.0
  0
MTEXT
  5
C7
330
1F
100
AcDbEntity
  8
0
  6
Continuous
 62
     7
370
     0
100
AcDbMText
 10
254.5318000914
 20
8.3494791871
 30
0.0
 40
2.1166666667
 41
0.0
 71
     1
 72
     1
  1
APPROX WEIGHT
  7
SLDTEXTSTYLE0
 73
     1
 44
1.0
  0
MTEXT
  5
C8
330
1F
100
AcDbEntity
  8
0
  6
Continuous
 62
     7
370
     0
100
AcDbMText
 10
243.5159064132
 20
13.8247651814
 30
0.0
 40
3.175
 41
0.0
 71
     2
 72
     1
  1
N-BK7
  7
SLDTEXTSTYLE0
 73
     1
 44
1.0
  0
MTEXT
  5
C9
330
1F
100
AcDbEntity
  8
0
  6
Continuous
 62
     7
370
     0
100
AcDbMText
 10
266.1553537756
 20
5.1306563898
 30
0.0
 40
3.175
 41
0.0
 71
     2
 72
     1
  1
46.20 g
  7
SLDTEXTSTYLE0
 73
     1
 44
1.0
  0
INSERT
  5
CF
330
1F
100
AcDbEntity
  8
0
  6
Continuous
 62
     7
370
     0
100
AcDbBlockReference
  2
SW_NOTE_1
 10
174.8430140051
 20
4.4558554801
 30
0.0
  0
INSERT
  5
D5
330
1F
100
AcDbEntity
  8
0
  6
Continuous
 62
     7
370
     0
100
AcDbBlockReference
  2
SW_NOTE_2
 10
174.5483650337
 20
30.4835322715
 30
0.0
  0
MTEXT
  5
D6
330
1F
100
AcDbEntity
  8
0
  6
Continuous
 62
     7
370
     0
100
AcDbMText
 10
187.9273588276
 20
24.8221395769
 30
0.0
 40
2.1166666667
 41
0.0
 71
     1
 72
     1
  1
NAME
  7
SLDTEXTSTYLE0
 73
     1
 44
1.0
  0
INSERT
  5
DC
330
1F
100
AcDbEntity
  8
0
  6
Continuous
 62
     7
370
     0
100
AcDbBlockReference
  2
SW_NOTE_3
 10
58.6204667508
 20
8.1776609732
 30
0.0
  0
INSERT
  5
E3
330
1F
100
AcDbEntity
  8
0
  6
Continuous
 62
     7
370
     0
100
AcDbBlockReference
  2
SW_NOTE_4
 10
219.027530387
 20
20.7222222066
 30
0.0
  0
MTEXT
  5
E4
330
1F
100
AcDbEntity
  8
0
  6
Continuous
 62
     7
370
     0
100
AcDbMText
 10
177.6925831922
 20
10.7142101515
 30
0.0
 40
1.5875
 41
0.0
 71
     1
 72
     1
  1
COPYRIGHT © 2018 BY THORLABS
  7
SLDTEXTSTYLE0
 73
     1
 44
1.0
  0
LINE
  5
E5
330
1F
100
AcDbEntity
  8
0
  6
Continuous
 62
     7
370
    18
100
AcDbLine
 10
232.2335703525
 20
193.5876713251
 30
0.0
 11
232.2335703525
 21
193.4264296736
 31
0.0
  0
LINE
  5
E6
330
1F
100
AcDbEntity
  8
0
  6
Continuous
 62
     7
370
    18
100
AcDbLine
 10
250.0515317058
 20
162.5614710398
 30
0.0
 11
250.1911635063
 21
162.4808371109
 31
0.0
  0
LINE
  5
E7
330
1F
100
AcDbEntity
  8
0
  6
Continuous
 62
     7
370
    18
100
AcDbLine
 10
262.8930504991
 20
161.2216472005
 30
0.0
 11
269.0882226688
 21
164.7980439683
 31
0.0
  0
LINE
  5
E8
330
1F
100
AcDbEntity
  8
0
  6
Continuous
 62
     7
370
    18
100
AcDbLine
 10
243.6902868599
 20
208.7933261773
 30
0.0
 11
237.4951146902
 21
205.2169294094
 31
0.0
  0
LINE
  5
E9
330
1F
100
AcDbEntity
  8
0
  6
Continuous
 62
     7
370
    18
100
AcDbLine
 10
274.3497670065
 20
176.4273020526
 30
0.0
 11
274.3497670065
 21
176.590583675
 31
0.0
  0
LINE
  5
EA
330
1F
100
AcDbEntity
  8
0
  6
Continuous
 62
     7
370
    18
100
AcDbLine
 10
256.533572224
 20
207.4524821868
 30
0.0
 11
256.3921738527
 21
207.5341362669
 31
0.0
  0
LWPOLYLINE
  5
EB
330
1F
100
AcDbEntity
  8
0
  6
Continuous
 62
     7
370
    18
100
AcDbPolyline
 90
      168
 70
   128
 43
0.0
 10
267.8752858404
 20
172.8509052848
 10
267.8626741247
 20
173.632259781
 10
267.8248568282
 20
174.4270695343
 10
267.7618874769
 20
175.2342095803
 10
267.6738551971
 20
176.0525375025
 10
267.5608845884
 20
176.8808950493
 10
267.4231355483
 20
177.7181097732
 10
267.260803045
 20
178.5629966904
 10
267.074116842
 20
179.4143599579
 10
266.8633411728
 20
180.2709945663
 10
266.6287743668
 20
181.1316880449
 10
266.3707484271
 20
181.9952221786
 10
266.0896285605
 20
182.8603747312
 10
265.7858126608
 20
183.7259211761
 10
265.4597307454
 20
184.590636429
 10
265.1118443467
 20
185.4532965822
 10
264.7426458592
 20
186.3126806368
 10
264.3526578419
 20
187.1675722307
 10
263.9424322792
 20
188.0167613605
 10
263.5125497997
 20
188.8590460938
 10
263.0636188539
 20
189.6932342709
 10
262.5962748532
 20
190.5181451916
 10
262.111179271
 20
191.3326112869
 10
261.6090187057
 20
192.135479771
 10
261.0905039095
 20
192.9256142733
 10
260.5563687821
 20
193.7018964469
 10
260.007369332
 20
194.4632275511
 10
259.4442826066
 20
195.2085300069
 10
258.8679055921
 20
195.9367489219
 10
258.2790540858
 20
196.6468535839
 10
257.6785615412
 20
197.3378389189
 10
257.0672778881
 20
198.0087269146
 10
256.4460683305
 20
198.6585680039
 10
255.8158121208
 20
199.2864424096
 10
255.1774013163
 20
199.8914614456
 10
254.531739516
 20
200.4727687751
 10
253.8797405821
 20
201.0295416226
 10
253.2223273462
 20
201.5609919383
 10
252.5604303031
 20
202.0663675139
 10
251.8949862941
 20
202.5449530466
 10
251.2269371809
 20
202.9960711522
 10
250.5572285121
 20
203.4190833234
 10
249.8868081855
 20
203.8133908339
 10
249.2166251062
 20
204.1784355854
 10
248.5476278434
 20
204.5137008978
 10
247.8807632878
 20
204.8187122408
 10
247.2169753117
 20
205.0930379047
 10
246.5572034327
 20
205.3362896123
 10
245.9023814841
 20
205.548123068
 10
245.2534362932
 20
205.7282384452
 10
244.6112863694
 20
205.8763808109
 10
243.9768406039
 20
205.9923404859
 10
243.350996984
 20
206.0759533423
 10
242.7346413212
 20
206.1271010356
 10
242.128645998
 20
206.1457111718
 10
241.5338687331
 20
206.1317574105
 10
240.9511513672
 20
206.0852595015
 10
240.3813186716
 20
206.0062832575
 10
239.8251771806
 20
205.8949404605
 10
239.2835140504
 20
205.7513887038
 10
238.7570959446
 20
205.5758311689
 10
238.2466679492
 20
205.3685163378
 10
237.7529525178
 20
205.1297376414
 10
237.2766484495
 20
204.8598330444
 10
236.8184298995
 20
204.5591845665
 10
236.3789454248
 20
204.2282177419
 10
235.9588170665
 20
203.8674010173
 10
235.5586394695
 20
203.4772450884
 10
235.1789790402
 20
203.0583021772
 10
234.8203731457
 20
202.6111652505
 10
234.4833293524
 20
202.1364671808
 10
234.1683247082
 20
201.63487985
 10
233.8758050669
 20
201.1071131989
 10
233.6061844573
 20
200.5539142223
 10
233.3598444972
 20
199.9760659112
 10
233.1371338534
 20
199.3743861456
 10
232.9383677478
 20
198.7497265357
 10
232.7638275117
 20
198.1029712174
 10
232.6137601871
 20
197.4350356006
 10
232.4883781777
 20
196.7468650733
 10
232.3878589477
 20
196.0394336641
 10
232.3123447707
 20
195.313742663
 10
232.2619425287
 20
194.5708192044
 10
232.2367235604
 20
193.8117148134
 10
232.2367235604
 20
193.0375039175
 10
232.2619425287
 20
192.2492823255
 10
232.3123447707
 20
191.4481656769
 10
232.3878589477
 20
190.6352878629
 10
232.4883781777
 20
189.811799421
 10
232.6137601871
 20
188.9788659071
 10
232.7638275117
 20
188.1376662454
 10
232.9383677478
 20
187.2893910599
 10
233.1371338534
 20
186.4352409893
 10
233.3598444972
 20
185.5764249876
 10
233.6061844573
 20
184.7141586128
 10
233.8758050669
 20
183.8496623064
 10
234.1683247082
 20
182.9841596663
 10
234.4833293524
 20
182.1188757148
 10
234.8203731457
 20
181.2550351645
 10
235.1789790403
 20
180.3938606851
 10
235.5586394695
 20
179.5365711727
 10
235.9588170665
 20
178.6843800249
 10
236.3789454248
 20
177.8384934229
 10
236.8184298995
 20
177.0001086246
 10
237.2766484495
 20
176.1704122698
 10
237.7529525178
 20
175.3505787012
 10
238.2466679492
 20
174.5417683012
 10
238.7570959446
 20
173.7451258508
 10
239.2835140504
 20
172.961778908
 10
239.8251771806
 20
172.1928362131
 10
240.3813186716
 20
171.4393861183
 10
240.9511513672
 20
170.7024950479
 10
241.5338687331
 20
169.983205989
 10
242.128645998
 20
169.2825370148
 10
242.7346413212
 20
168.6014798437
 10
243.350996984
 20
167.9409984362
 10
243.9768406039
 20
167.3020276297
 10
244.6112863694
 20
166.685471816
 10
245.2534362932
 20
166.0922036608
 10
245.9023814841
 20
165.5230628691
 10
246.5572034327
 20
164.9788549957
 10
247.2169753117
 20
164.4603503063
 10
247.8807632878
 20
163.9682826861
 10
248.5476278434
 20
163.5033486019
 10
249.2166251062
 20
163.0662061159
 10
249.8868081855
 20
162.6574739543
 10
250.5572285121
 20
162.2777306318
 10
251.2269371809
 20
161.9275136328
 10
251.8949862941
 20
161.60731865
 10
252.5604303031
 20
161.3175988838
 10
253.2223273462
 20
161.0587644001
 10
253.8797405821
 20
160.8311815501
 10
254.531739516
 20
160.635172452
 10
255.1774013163
 20
160.4710145346
 10
255.8158121208
 20
160.3389401451
 10
256.4460683305
 20
160.2391362202
 10
257.0672778881
 20
160.171744021
 10
257.6785615412
 20
160.1368589337
 10
258.2790540858
 20
160.1345303342
 10
258.8679055921
 20
160.1647615185
 10
259.4442826066
 20
160.2275096976
 10
260.007369332
 20
160.3226860585
 10
260.5563687821
 20
160.4501558898
 10
261.0905039095
 20
160.609738772
 10
261.6090187057
 20
160.8012088336
 10
262.111179271
 20
161.02429507
 10
262.5962748532
 20
161.2786817277
 10
263.0636188539
 20
161.5640087507
 10
263.5125497997
 20
161.8798722905
 10
263.9424322792
 20
162.2258252777
 10
264.3526578419
 20
162.6013780545
 10
264.7426458592
 20
163.0059990679
 10
265.1118443467
 20
163.4391156221
 10
265.4597307454
 20
163.9001146891
 10
265.7858126608
 20
164.3883437762
 10
266.0896285605
 20
164.9031118498
 10
266.3707484271
 20
165.4436903132
 10
266.6287743668
 20
166.009314038
 10
266.8633411728
 20
166.5991824472
 10
267.074116842
 20
167.2124606479
 10
267.260803045
 20
167.8482806134
 10
267.4231355483
 20
168.5057424117
 10
267.5608845884
 20
169.1839154792
 10
267.6738551971
 20
169.8818399376
 10
267.7618874769
 20
170.5985279529
 10
267.8248568282
 20
171.3329651335
 10
267.8626741247
 20
172.0841119656
 10
267.8752858404
 20
172.8509052848
  0
LWPOLYLINE
  5
EC
330
1F
100
AcDbEntity
  8
0
  6
Continuous
 62
     7
370
    18
100
AcDbPolyline
 90
      127
 70
   128
 43
0.0
 10
232.2335703525
 20
193.5876713251
 10
232.2462809008
 20
194.3604736781
 10
232.2843945555
 20
195.1175069291
 10
232.3478573708
 20
195.8576995822
 10
232.4365795223
 20
196.5800039773
 10
232.5504354336
 20
197.2833977735
 10
232.6892639545
 20
197.9668853954
 10
232.8528685888
 20
198.6294994428
 10
233.0410177723
 20
199.2703020595
 10
233.2534452009
 20
199.8883862612
 10
233.4898502074
 20
200.4828772187
 10
233.7498981869
 20
201.0529334966
 10
234.0332210706
 20
201.5977482439
 10
234.3394178465
 20
202.1165503364
 10
234.6680551275
 20
202.6086054677
 10
235.0186677642
 20
203.0732171887
 10
235.3907595036
 20
203.5097278935
 10
235.7838036915
 20
203.91751975
 10
236.1972440177
 20
204.2960155745
 10
236.6304953038
 20
204.6446796484
 10
237.0829443309
 20
204.9630184768
 10
237.5539507081
 20
205.2505814865
 10
238.0428477785
 20
205.5069616645
 10
238.548943563
 20
205.731796133
 10
239.0715217396
 20
205.9247666642
 10
239.6098426573
 20
206.0856001298
 10
240.163144383
 20
206.214068888
 10
240.7306437801
 20
206.3099911057
 10
241.3115376166
 20
206.3732310156
 10
241.9050037023
 20
206.4036991088
 10
242.5102020521
 20
206.4013522611
 10
243.1262760757
 20
206.3661937942
 10
243.752353789
 20
206.298273471
 10
244.3875490491
 20
206.197687425
 10
245.0309628081
 20
206.0645780246
 10
245.6816843858
 20
205.8991336713
 10
246.3387927586
 20
205.7015885331
 10
247.0013578631
 20
205.4722222129
 10
247.6684419123
 20
205.2113593532
 10
248.3391007236
 20
204.9193691761
 10
249.0123850542
 20
204.5966649612
 10
249.6873419456
 20
204.2437034602
 10
250.3630160717
 20
203.8609842505
 10
251.0384510913
 20
203.4490490284
 10
251.7126910017
 20
203.0084808423
 10
252.3847814918
 20
202.539903267
 10
253.0537712926
 20
202.0439795217
 10
253.7187135237
 20
201.5214115311
 10
254.378667034
 20
200.9729389317
 10
255.0326977329
 20
200.3993380251
 10
255.6798799132
 20
199.8014206792
 10
256.3192975607
 20
199.1800331793
 10
256.9500456515
 20
198.5360550298
 10
257.571231432
 20
197.8703977098
 10
258.1819756833
 20
197.1840033827
 10
258.7814139652
 20
196.4778435631
 10
259.3686978398
 20
195.7529177412
 10
259.9429960724
 20
195.0102519683
 10
260.5034958082
 20
194.2508974049
 10
261.0494037224
 20
193.4759288324
 10
261.5799471435
 20
192.6864431321
 10
262.0943751465
 20
191.8835577329
 10
262.5919596161
 20
191.0684090292
 10
263.0719962772
 20
190.2421507728
 10
263.5338056916
 20
189.4059524399
 10
263.9767342196
 20
188.5609975758
 10
264.4001549454
 20
187.7084821195
 10
264.8034685645
 20
186.8496127113
 10
265.1861042313
 20
185.985604985
 10
265.547520368
 20
185.1176818467
 10
265.8872054305
 20
184.2470717446
 10
266.2046786324
 20
183.37500693
 10
266.499490626
 20
182.5027217131
 10
266.7712241379
 20
181.6314507161
 10
267.0194945597
 20
180.7624271256
 10
267.2439504923
 20
179.8968809474
 10
267.4442742435
 20
179.0360372653
 10
267.6201822774
 20
178.1811145073
 10
267.7714256158
 20
177.3333227208
 10
267.8977901908
 20
176.4938618605
 10
267.9990971474
 20
175.6639200892
 10
268.0752030969
 20
174.8446720968
 10
268.1260003199
 20
174.0372774371
 10
268.1514169186
 20
173.242878887
 10
268.1514169186
 20
172.4626008289
 10
268.1260003199
 20
171.697547659
 10
268.0752030969
 20
170.9488022246
 10
267.9990971474
 20
170.2174242911
 10
267.8977901908
 20
169.5044490422
 10
267.7714256158
 20
168.8108856146
 10
267.6201822774
 20
168.1377156699
 10
267.4442742435
 20
167.4858920046
 10
267.2439504923
 20
166.8563372025
 10
267.0194945597
 20
166.2499423279
 10
266.7712241379
 20
165.667565665
 10
266.499490626
 20
165.1100315027
 10
266.2046786324
 20
164.5781289684
 10
265.8872054305
 20
164.0726109106
 10
265.547520368
 20
163.5941928336
 10
265.1861042313
 20
163.1435518846
 10
264.8034685645
 20
162.7213258956
 10
264.4001549454
 20
162.3281124803
 10
263.9767342196
 20
161.9644681881
 10
263.5338056916
 20
161.6309077171
 10
263.0719962772
 20
161.3279031846
 10
262.5919596161
 20
161.0558834599
 10
262.0943751465
 20
160.8152335562
 10
261.5799471435
 20
160.6062940868
 10
261.0494037224
 20
160.429360782
 10
260.5034958082
 20
160.2846840711
 10
259.9429960724
 20
160.1724687278
 10
259.3686978398
 20
160.0928735805
 10
258.7814139652
 20
160.0460112872
 10
258.1819756833
 20
160.0319481761
 10
257.571231432
 20
160.0507041521
 10
256.9500456515
 20
160.1022526681
 10
256.3192975607
 20
160.186520763
 10
255.6798799132
 20
160.3033891648
 10
255.0326977329
 20
160.4526924593
 10
254.378667034
 20
160.6342193243
 10
253.7187135237
 20
160.8477128289
 10
253.0537712926
 20
161.0928707969
 10
252.3847814918
 20
161.3693462346
 10
251.7126910017
 20
161.6767478219
 10
251.0384510913
 20
162.0146404664
 10
250.3630160717
 20
162.3825459186
 10
250.1911635063
 20
162.4808371109
  0
LWPOLYLINE
  5
ED
330
1F
100
AcDbEntity
  8
0
  6
Continuous
 62
     7
370
    18
100
AcDbPolyline
 90
       64
 70
   128
 43
0.0
 10
274.3497670065
 20
176.4273020526
 10
274.3370564581
 20
177.2147796924
 10
274.2989428035
 20
178.0158180323
 10
274.2354799882
 20
178.8292832923
 10
274.1467578367
 20
179.6540241031
 10
274.0329019254
 20
180.4888731364
 10
273.8940734044
 20
181.3326487567
 10
273.7304687702
 20
182.1841566941
 10
273.5423195867
 20
183.0421917342
 10
273.3298921581
 20
183.9055394244
 10
273.0934871516
 20
184.7729777925
 10
272.8334391721
 20
185.6432790767
 10
272.5501162884
 20
186.5152114626
 10
272.2439195124
 20
187.3875408276
 10
271.9152822314
 20
188.2590324869
 10
271.5646695948
 20
189.1284529417
 10
271.1925778554
 20
189.9945716243
 10
270.7995336675
 20
190.8561626408
 10
270.3860933413
 20
191.7120065053
 10
269.9528420552
 20
192.5608918666
 10
269.5003930281
 20
193.4016172224
 10
269.0293866509
 20
194.2329926199
 10
268.5404895805
 20
195.0538413402
 10
268.034393796
 20
195.8630015638
 10
267.5118156194
 20
196.6593280149
 10
266.9734947017
 20
197.4416935824
 10
266.4201929759
 20
198.2089909153
 10
265.8526935788
 20
198.9601339901
 10
265.2717997424
 20
199.6940596477
 10
264.6783336567
 20
200.4097290985
 10
264.0731353068
 20
201.1061293923
 10
263.4570612833
 20
201.7822748524
 10
262.83098357
 20
202.4372084706
 10
262.1957883099
 20
203.0700032615
 10
261.5523745509
 20
203.6797635749
 10
260.9016529731
 20
204.2656263632
 10
260.2445446004
 20
204.8267624031
 10
259.5819794959
 20
205.3623774695
 10
258.9148954466
 20
205.8717134589
 10
258.2442366354
 20
206.3540494633
 10
257.5709523048
 20
206.80870279
 10
256.8959954134
 20
207.2350299281
 10
256.2203212873
 20
207.6324274591
 10
255.5448862677
 20
208.0003329114
 10
254.8706463572
 20
208.3382255558
 10
254.1985558672
 20
208.6456271432
 10
253.5295660664
 20
208.9221025809
 10
252.8646238352
 20
209.1672605489
 10
252.204670325
 20
209.3807540535
 10
251.5506396261
 20
209.5622809185
 10
250.9034574458
 20
209.7115842129
 10
250.2640397982
 20
209.8284526147
 10
249.6332917075
 20
209.9127207096
 10
249.012105927
 20
209.9642692257
 10
248.4013616757
 20
209.9830252016
 10
247.8019233938
 20
209.9689620906
 10
247.2146395192
 20
209.9220997972
 10
246.6403412866
 20
209.8425046499
 10
246.0798415508
 20
209.7302893067
 10
245.5339336365
 20
209.5856125958
 10
245.0033902155
 20
209.408679291
 10
244.4889622125
 20
209.1997398215
 10
243.9913777429
 20
208.9590899179
 10
243.6902868599
 20
208.7933261773
  0
LWPOLYLINE
  5
EE
330
1F
100
AcDbEntity
  8
0
  6
Continuous
 62
     7
370
    18
100
AcDbPolyline
 90
       22
 70
   128
 43
0.0
 10
269.0882226688
 20
164.7980439683
 10
269.5003930281
 20
165.051954901
 10
269.9528420552
 20
165.3702937293
 10
270.3860933413
 20
165.7189578033
 10
270.7995336675
 20
166.0974536278
 10
271.1925778554
 20
166.5052454843
 10
271.5646695948
 20
166.9417561891
 10
271.9152822314
 20
167.4063679101
 10
272.2439195124
 20
167.8984230413
 10
272.5501162884
 20
168.4172251338
 10
272.8334391721
 20
168.9620398812
 10
273.0934871516
 20
169.5320961591
 10
273.3298921581
 20
170.1265871166
 10
273.5423195867
 20
170.7446713183
 10
273.7304687702
 20
171.385473935
 10
273.8940734044
 20
172.0480879824
 10
274.0329019254
 20
172.7315756043
 10
274.1467578367
 20
173.4349694005
 10
274.2354799882
 20
174.1572737956
 10
274.2989428035
 20
174.8974664486
 10
274.3370564581
 20
175.6544996996
 10
274.3497670065
 20
176.4273020526
  0
ARC
  5
EF
330
1F
100
AcDbEntity
  8
0
  6
Continuous
 62
     7
370
    18
100
AcDbCircle
 10
235.7314083497
 20
174.8701641795
 30
0.0
 40
38.65666137401654
100
AcDbArc
 50
2.5507982903
 51
57.443825177
  0
CIRCLE
  5
F0
330
1F
100
AcDbEntity
  8
0
  6
Continuous
 62
     7
370
    18
100
AcDbCircle
 10
54.6303225069
 20
121.694814236
 30
0.0
 40
25.20249871458334
  0
CIRCLE
  5
F1
330
1F
100
AcDbEntity
  8
0
  6
Continuous
 62
     7
370
    18
100
AcDbCircle
 10
54.6303225069
 20
121.694814236
 30
0.0
 40
25.39999999999999
  0
DIMENSION
  5
F2
330
1F
100
AcDbEntity
  8
0
  6
Continuous
 62
     7
370
    18
100
AcDbDimension
  2
_D
 10
41.9303225069
 20
99.6977689799
 30
0.0
 11
86.343977157
 21
157.9368310734
 31
0.0
 70
   163
  1
<>
 71
     1
 42
-1.0
  3
SLDDIMSTYLE0
100
AcDbDiametricDimension
 15
67.3303225069
 25
143.6918594921
 35
0.0
 40
0.0
  0
LINE
  5
103
330
1F
100
AcDbEntity
  8
0
  6
PHANTOM
 62
     7
370
    35
100
AcDbLine
 10
54.6303225069
 20
153.190814236
 30
0.0
 11
54.6303225069
 21
90.198814236
 31
0.0
  0
LINE
  5
104
330
1F
100
AcDbEntity
  8
0
  6
Continuous
 62
     7
370
    35
100
AcDbLine
 10
54.6303225069
 20
153.190814236
 30
0.0
 11
45.7403225069
 21
153.190814236
 31
0.0
  0
SOLID
  5
105
330
1F
100
AcDbEntity
  8
0
  6
Continuous
 62
     7
370
    35
100
AcDbTrace
 10
45.7403225069
 20
153.190814236
 30
0.0
 11
49.5503225069
 21
152.555814236
 31
0.0
 12
49.5503225069
 22
153.825814236
 32
0.0
 13
49.5503225069
 23
153.825814236
 33
0.0
  0
LINE
  5
106
330
1F
100
AcDbEntity
  8
0
  6
Continuous
 62
     7
370
    35
100
AcDbLine
 10
54.6303225069
 20
90.198814236
 30
0.0
 11
45.7403225069
 21
90.198814236
 31
0.0
  0
SOLID
  5
107
330
1F
100
AcDbEntity
  8
0
  6
Continuous
 62
     7
370
    35
100
AcDbTrace
 10
45.7403225069
 20
90.198814236
 30
0.0
 11
49.5503225069
 21
89.563814236
 31
0.0
 12
49.5503225069
 22
90.833814236
 32
0.0
 13
49.5503225069
 23
90.833814236
 33
0.0
  0
MTEXT
  5
108
330
1F
100
AcDbEntity
  8
0
  6
Continuous
 62
     7
100
AcDbMText
 10
42.3346868857
 20
155.2919477594
 30
0.0
 40
2.6458333333
 41
0.0
 71
     1
 72
     1
  1
A
  7
SLDTEXTSTYLE0
 73
     1
 44
1.0
  0
MTEXT
  5
109
330
1F
100
AcDbEntity
  8
0
  6
Continuous
 62
     7
100
AcDbMText
 10
42.3346868857
 20
92.2999477594
 30
0.0
 40
2.6458333333
 41
0.0
 71
     1
 72
     1
  1
A
  7
SLDTEXTSTYLE0
 73
     1
 44
1.0
  0
LINE
  5
10A
330
1F
100
AcDbEntity
  8
0
  6
Continuous
 62
     7
370
    18
100
AcDbLine
 10
144.4083142035
 20
96.494814236
 30
0.0
 11
144.2083142035
 21
96.294814236
 31
0.0
  0
LINE
  5
10B
330
1F
100
AcDbEntity
  8
0
  6
Continuous
 62
     7
370
    18
100
AcDbLine
 10
135.4470176999
 20
96.294814236
 30
0.0
 11
144.2083142035
 21
96.294814236
 31
0.0
  0
LINE
  5
10C
330
1F
100
AcDbEntity
  8
0
  6
Continuous
 62
     7
370
    18
100
AcDbLine
 10
135.4470176999
 20
96.294814236
 30
0.0
 11
135.2495164145
 21
96.4923155214
 31
0.0
  0
ARC
  5
10D
330
1F
100
AcDbEntity
  8
0
  6
Continuous
 62
     7
370
    18
100
AcDbCircle
 10
-1864.5916925733
 20
121.694814236
 30
0.0
 40
2000.000006776844
100
AcDbArc
 50
359.2779824885
 51
0.7220175116
  0
LINE
  5
10E
330
1F
100
AcDbEntity
  8
0
  6
Continuous
 62
     7
370
    18
100
AcDbLine
 10
135.2495164145
 20
146.8973129506
 30
0.0
 11
135.4470176999
 21
147.094814236
 31
0.0
  0
LINE
  5
10F
330
1F
100
AcDbEntity
  8
0
  6
Continuous
 62
     7
370
    18
100
AcDbLine
 10
144.2083142035
 20
147.094814236
 30
0.0
 11
135.4470176999
 21
147.094814236
 31
0.0
  0
LINE
  5
110
330
1F
100
AcDbEntity
  8
0
  6
Continuous
 62
     7
370
    18
100
AcDbLine
 10
144.2083142035
 20
147.094814236
 30
0.0
 11
144.4083142035
 21
146.894814236
 31
0.0
  0
LINE
  5
111
330
1F
100
AcDbEntity
  8
0
  6
Continuous
 62
     7
370
    18
100
AcDbLine
 10
144.4083142035
 20
118.3059677634
 30
0.0
 11
144.4083142035
 21
120.3873065419
 31
0.0
  0
LINE
  5
112
330
1F
100
AcDbEntity
  8
0
  6
Continuous
 62
     7
370
    18
100
AcDbLine
 10
144.4083142035
 20
120.3873065419
 30
0.0
 11
144.4083142035
 21
122.694814236
 31
0.0
  0
LINE
  5
113
330
1F
100
AcDbEntity
  8
0
  6
Continuous
 62
     7
370
    18
100
AcDbLine
 10
144.4083142035
 20
122.7972875138
 30
0.0
 11
144.4083142035
 21
146.894814236
 31
0.0
  0
LINE
  5
114
330
1F
100
AcDbEntity
  8
0
  6
Continuous
 62
     7
370
    18
100
AcDbLine
 10
144.4083142035
 20
96.494814236
 30
0.0
 11
144.4083142035
 21
118.3059677634
 31
0.0
  0
LINE
  5
115
330
1F
100
AcDbEntity
  8
0
  6
Continuous
 62
     7
370
    18
100
AcDbLine
 10
144.4083142035
 20
122.694814236
 30
0.0
 11
144.4083142035
 21
122.7972875138
 31
0.0
  0
HATCH
  5
116
330
1F
100
AcDbEntity
  8
0
  6
Continuous
 62
     7
370
    18
100
AcDbHatch
 10
0.0
 20
0.0
 30
0.0
210
0.0
220
0.0
230
1.0
  2
ANSI31
 70
     0
 71
     0
 91
        1
 92
        0
 93
       12
 72
     1
 10
144.4083142035333
 20
96.49481423598486
 11
144.4083142035333
 21
118.305967763447
 72
     1
 10
144.4083142035333
 20
118.305967763447
 11
144.4083142035333
 21
120.3873065418561
 72
     1
 10
144.4083142035333
 20
120.3873065418561
 11
144.4083142035333
 21
122.6948142359849
 72
     1
 10
144.4083142035333
 20
122.6948142359849
 11
144.4083142035333
 21
122.7972875137983
 72
     1
 10
144.4083142035333
 20
122.7972875137983
 11
144.4083142035333
 21
146.8948142359849
 72
     1
 10
144.4083142035333
 20
146.8948142359849
 11
144.2083142035333
 21
147.0948142359849
 72
     1
 10
144.2083142035333
 20
147.0948142359849
 11
135.4470176999388
 21
147.0948142359849
 72
     1
 10
135.4470176999388
 20
147.0948142359849
 11
135.2495164145223
 21
146.897312950568
 72
     2
 10
-1864.591692573311
 20
121.6948142359849
 40
2000.000006776844
 50
359.2779824884507
 51
360.7220175115509
 73
     0
 72
     1
 10
135.2495164145224
 20
96.49231552140434
 11
135.4470176999388
 21
96.29481423598487
 72
     1
 10
135.4470176999388
 20
96.29481423598487
 11
144.2083142035333
 21
96.29481423598487
 72
     1
 10
144.2083142035333
 20
96.29481423598487
 11
144.4083142035333
 21
96.49481423598486
 97
        0
 75
     0
 76
     1
 52
0.0
 41
1.0
 77
     0
 78
     1
 53
45.0
 43
0.0
 44
0.0
 45
-2.245064030267288
 46
2.245064030267288
 79
     0
 98
        1
 10
0.0
 20
0.0
  0
DIMENSION
  5
117
330
1F
100
AcDbEntity
  8
0
  6
Continuous
 62
     7
370
    18
100
AcDbDimension
  2
_D_1
 10
144.4119506499
 20
160.2238582366
 30
0.0
 11
163.0303539953
 21
160.2187787407
 31
0.0
 70
   160
  1
<> REF
 71
     2
 42
-1.0
  3
SLDDIMSTYLE1
100
AcDbAlignedDimension
 13
135.2495164145
 23
146.8973129506
 33
0.0
 14
144.4083142035
 24
146.894814236
 34
0.0
 50
-0.0156315053
100
AcDbRotatedDimension
  0
DIMENSION
  5
12B
330
1F
100
AcDbEntity
  8
0
  6
Continuous
 62
     7
370
    18
100
AcDbDimension
  2
_D_2
 10
-1864.5916925733
 20
121.694814236
 30
0.0
 11
153.4429525283
 21
88.5421327357
 31
0.0
 70
   164
  1
<>
 71
     1
 42
-1.0
  3
SLDDIMSTYLE2
100
AcDbRadialDimension
 15
135.1353512667
 25
88.6527616031
 35
0.0
 40
0.0
  0
DIMENSION
  5
13C
330
1F
100
AcDbEntity
  8
0
  6
Continuous
 62
     7
370
    18
100
AcDbDimension
  2
_D_3
 10
135.4083142035
 20
151.669391568
 30
0.0
 11
160.4083142035
 21
151.669391568
 31
0.0
 70
   160
  1
<>
 71
     2
 42
-1.0
  3
SLDDIMSTYLE3
100
AcDbAlignedDimension
 13
144.4083142035
 23
146.894814236
 33
0.0
 14
135.4083142035
 24
121.694814236
 34
0.0
100
AcDbRotatedDimension
  0
MTEXT
  5
151
330
1F
100
AcDbEntity
  8
0
  6
Continuous
 62
     7
370
     0
100
AcDbMText
 10
139.647871259
 20
78.7100077215
 30
0.0
 40
2.1166666667
 41
0.0
 71
     2
 72
     1
  1
SECTION A-A
  7
SLDTEXTSTYLE0
 73
     1
 44
1.0
  0
MTEXT
  5
152
330
1F
100
AcDbEntity
  8
0
  6
Continuous
 62
     7
370
     0
100
AcDbMText
 10
112.3720991302
 20
101.1626314693
 30
0.0
 40
2.1166666667
 41
0.0
 71
     1
 72
     1
  1
S1
  7
SLDTEXTSTYLE0
 73
     1
 44
1.0
  0
LEADER
  5
154
330
1F
100
AcDbEntity
  8
0
  6
Continuous
 62
     7
370
     0
100
AcDbLeader
  3
SLDDIMSTYLE4
 76
     3
 10
135.3905960053
 20
113.2762348326
 30
0.0
 10
122.1821122298
 20
100.6254783387
 30
0.0
 10
115.8321122298
 20
100.6254783387
 30
0.0
  0
MTEXT
  5
155
330
1F
100
AcDbEntity
  8
0
  6
Continuous
 62
     7
370
     0
100
AcDbMText
 10
161.5447675961
 20
129.8522987144
 30
0.0
 40
2.1166666667
 41
0.0
 71
     1
 72
     1
  1
S2
  7
SLDTEXTSTYLE0
 73
     1
 44
1.0
  0
LEADER
  5
156
330
1F
100
AcDbEntity
  8
0
  6
Continuous
 62
     7
370
     0
100
AcDbLeader
  3
SLDDIMSTYLE4
 76
     3
 10
144.4083142035
 20
114.4338279805
 30
0.0
 10
154.583868974
 20
129.3028578195
 30
0.0
 10
160.933868974
 20
129.3028578195
 30
0.0
  0
SPLINE
  5
157
330
1F
100
AcDbEntity
  8
0
  6
Continuous
 62
     7
370
    18
100
AcDbSpline
210
0.0
220
0.0
230
1.0
 70
     8
 71
     3
 72
    13
 73
     9
 74
     0
 42
0.000000001
 43
0.00000001
 40
0.0
 40
0.0
 40
0.0
 40
0.0
 40
0.1943389941804437
 40
0.3816850483972321
 40
0.5594858099432992
 40
0.6963399801806484
 40
0.8391066529687222
 40
1.0
 40
1.0
 40
1.0
 40
1.0
 10
223.3389159985552
 20
123.8141716722676
 30
0.0
 10
223.3360909061634
 20
123.8758040945791
 30
0.0
 10
223.3305423772598
 20
123.9968512070847
 30
0.0
 10
223.2815466691258
 20
124.168869761624
 30
0.0
 10
223.2015352836449
 20
124.3089917841618
 30
0.0
 10
223.0933017631259
 20
124.4079515117114
 30
0.0
 10
222.9642625047497
 20
124.4687220321865
 30
0.0
 10
222.8676106019219
 20
124.4753212381298
 30
0.0
 10
222.8163998822752
 20
124.4788178075253
 30
0.0
  0
SPLINE
  5
158
330
1F
100
AcDbEntity
  8
0
  6
Continuous
 62
     7
370
    18
100
AcDbSpline
210
0.0
220
0.0
230
1.0
 70
     8
 71
     3
 72
    12
 73
     8
 74
     0
 42
0.000000001
 43
0.00000001
 40
0.0
 40
0.0
 40
0.0
 40
0.0
 40
0.2008908381631385
 40
0.3780365369998052
 40
0.5535498386387561
 40
0.7713747335183457
 40
1.0
 40
1.0
 40
1.0
 40
1.0
 10
222.8163998822752
 20
123.1495074749919
 30
0.0
 10
222.8805380537844
 20
123.1550296782997
 30
0.0
 10
223.0012333152933
 20
123.1654213648206
 30
0.0
 10
223.1539278033207
 20
123.2636817474735
 30
0.0
 10
223.2619097245208
 20
123.4111997258195
 30
0.0
 10
223.3275184770469
 20
123.6003235765476
 30
0.0
 10
223.3350560426383
 20
123.7417485387123
 30
0.0
 10
223.3389159985552
 20
123.8141716722676
 30
0.0
  0
SPLINE
  5
159
330
1F
100
AcDbEntity
  8
0
  6
Continuous
 62
     7
370
    18
100
AcDbSpline
210
0.0
220
0.0
230
1.0
 70
     8
 71
     3
 72
    13
 73
     9
 74
     0
 42
0.000000001
 43
0.00000001
 40
0.0
 40
0.0
 40
0.0
 40
0.0
 40
0.1943256494037766
 40
0.3816748644005017
 40
0.5594881704966072
 40
0.6963511211546933
 40
0.8391184169589759
 40
1.0
 40
1.0
 40
1.0
 40
1.0
 10
222.2938657039772
 20
123.8141716722676
 30
0.0
 10
222.2966921582195
 20
123.7525430032822
 30
0.0
 10
222.3022435949082
 20
123.6314981800674
 30
0.0
 10
222.3512521238877
 20
123.45948077219
 30
0.0
 10
222.4312720374522
 20
123.319354299991
 30
0.0
 10
222.5395078525064
 20
123.2203863264395
 30
0.0
 10
222.668543288146
 20
123.1596062334769
 30
0.0
 10
222.7651924698916
 20
123.1530049942831
 30
0.0
 10
222.8163998822752
 20
123.1495074749919
 30
0.0
  0
SPLINE
  5
15A
330
1F
100
AcDbEntity
  8
0
  6
Continuous
 62
     7
370
    18
100
AcDbSpline
210
0.0
220
0.0
230
1.0
 70
     8
 71
     3
 72
    12
 73
     8
 74
     0
 42
0.000000001
 43
0.00000001
 40
0.0
 40
0.0
 40
0.0
 40
0.0
 40
0.2008792258750624
 40
0.3780217100331184
 40
0.5535332757399333
 40
0.7713595773327308
 40
1.0
 40
1.0
 40
1.0
 40
1.0
 10
222.8163998822752
 20
124.4788178075253
 30
0.0
 10
222.752266089722
 20
124.4732961440284
 30
0.0
 10
222.6315768256815
 20
124.4629052802234
 30
0.0
 10
222.4788832919636
 20
124.3646582025985
 30
0.0
 10
222.3708897219021
 20
124.2171519324593
 30
0.0
 10
222.3052662459051
 20
124.0280285645584
 30
0.0
 10
222.2977267573476
 20
123.886599183169
 30
0.0
 10
222.2938657039772
 20
123.8141716722676
 30
0.0
  0
SPLINE
  5
15B
330
1F
100
AcDbEntity
  8
0
  6
Continuous
 62
     7
370
    18
100
AcDbSpline
210
0.0
220
0.0
230
1.0
 70
     8
 71
     3
 72
    19
 73
    15
 74
     0
 42
0.000000001
 43
0.00000001
 40
0.0
 40
0.0
 40
0.0
 40
0.0
 40
0.091587339706645
 40
0.17411828708059
 40
0.252628996615388
 40
0.3313197891920878
 40
0.4131632671988417
 40
0.4999972215981982
 40
0.586835000190323
 40
0.6686802724867935
 40
0.7473714879383924
 40
0.825881989639794
 40
0.9084127008286222
 40
1.0
 40
1.0
 40
1.0
 40
1.0
 10
222.8200050464215
 20
122.613634519109
 30
0.0
 10
222.9306426211133
 20
122.6210792316604
 30
0.0
 10
223.1409776418026
 20
122.6352325043879
 30
0.0
 10
223.4253052167717
 20
122.7585519011809
 30
0.0
 10
223.6494765033612
 20
122.9458175805507
 30
0.0
 10
223.8101557921619
 20
123.1889610060106
 30
0.0
 10
223.9062578722799
 20
123.4737183702013
 30
0.0
 10
223.936245500152
 20
123.781970983836
 30
0.0
 10
223.9051078593121
 20
124.0901116815431
 30
0.0
 10
223.8079442456676
 20
124.374516255442
 30
0.0
 10
223.6463580546795
 20
124.6170611557921
 30
0.0
 10
223.4214884952527
 20
124.8034880641782
 30
0.0
 10
223.1367021319518
 20
124.9257425465361
 30
0.0
 10
222.9263161096312
 20
124.9391100087589
 30
0.0
 10
222.8156515808562
 20
124.9461413879897
 30
0.0
  0
SPLINE
  5
15C
330
1F
100
AcDbEntity
  8
0
  6
Continuous
 62
     7
370
    18
100
AcDbSpline
210
0.0
220
0.0
230
1.0
 70
     8
 71
     3
 72
    14
 73
    10
 74
     0
 42
0.000000001
 43
0.00000001
 40
0.0
 40
0.0
 40
0.0
 40
0.0
 40
0.1466868109097154
 40
0.2859932799578324
 40
0.4198155341096295
 40
0.5510853201411032
 40
0.69041040274012
 40
0.8377115977293311
 40
1.0
 40
1.0
 40
1.0
 40
1.0
 10
221.7141529509028
 20
123.7860249548486
 30
0.0
 10
221.718035267782
 20
123.6973504606184
 30
0.0
 10
221.7256045681931
 20
123.5244630053916
 30
0.0
 10
221.7954237717475
 20
123.2785240058807
 30
0.0
 10
221.9077221508202
 20
123.0600206958144
 30
0.0
 10
222.0679647012332
 20
122.8725804075351
 30
0.0
 10
222.2769583585691
 20
122.7271143769903
 30
0.0
 10
222.534438815785
 20
122.6307470190724
 30
0.0
 10
222.7217930353539
 20
122.6195198544725
 30
0.0
 10
222.8200050464215
 20
122.613634519109
 30
0.0
  0
SPLINE
  5
15D
330
1F
100
AcDbEntity
  8
0
  6
Continuous
 62
     7
370
    18
100
AcDbSpline
210
0.0
220
0.0
230
1.0
 70
     8
 71
     3
 72
    14
 73
    10
 74
     0
 42
0.000000001
 43
0.00000001
 40
0.0
 40
0.0
 40
0.0
 40
0.0
 40
0.1553989656922844
 40
0.296877112207096
 40
0.4305153137104987
 40
0.5617675040118874
 40
0.7014063449726656
 40
0.8467289956139453
 40
0.9999999999999999
 40
0.9999999999999999
 40
0.9999999999999999
 40
0.9999999999999999
 10
222.8156515808562
 20
124.9461413879897
 30
0.0
 10
222.7224104402215
 20
124.9407864357665
 30
0.0
 10
222.5442808082308
 20
124.9305562341371
 30
0.0
 10
222.2981014055567
 20
124.8435538056941
 30
0.0
 10
222.0923330275267
 20
124.7099495670166
 30
0.0
 10
221.9263893401962
 20
124.5301353522031
 30
0.0
 10
221.8050183025678
 20
124.3104164854239
 30
0.0
 10
221.7279458611361
 20
124.0569352987918
 30
0.0
 10
221.718831460631
 20
123.8779168513485
 30
0.0
 10
221.7141529509028
 20
123.7860249548486
 30
0.0
  0
LINE
  5
15E
330
1F
100
AcDbEntity
  8
0
  6
Continuous
 62
     7
370
    18
100
AcDbLine
 10
218.5765539855
 20
124.4295265606
 30
0.0
 11
218.5765539855
 21
122.694814236
 31
0.0
  0
LINE
  5
15F
330
1F
100
AcDbEntity
  8
0
  6
Continuous
 62
     7
370
    18
100
AcDbLine
 10
217.9060596917
 20
124.4295265606
 30
0.0
 11
218.5765539855
 21
124.4295265606
 31
0.0
  0
LINE
  5
160
330
1F
100
AcDbEntity
  8
0
  6
Continuous
 62
     7
370
    18
100
AcDbLine
 10
217.9060596917
 20
124.9311629842
 30
0.0
 11
217.9060596917
 21
124.4295265606
 31
0.0
  0
LINE
  5
161
330
1F
100
AcDbEntity
  8
0
  6
Continuous
 62
     7
370
    18
100
AcDbLine
 10
220.3548719567
 20
124.9311629842
 30
0.0
 11
217.9060596917
 21
124.9311629842
 31
0.0
  0
LINE
  5
162
330
1F
100
AcDbEntity
  8
0
  6
Continuous
 62
     7
370
    18
100
AcDbLine
 10
220.3548719567
 20
124.1159879916
 30
0.0
 11
220.3548719567
 21
124.9311629842
 31
0.0
  0
LINE
  5
163
330
1F
100
AcDbEntity
  8
0
  6
Continuous
 62
     7
370
    18
100
AcDbLine
 10
221.1261381837
 20
124.1159879916
 30
0.0
 11
220.3548719567
 21
124.1159879916
 31
0.0
  0
LINE
  5
164
330
1F
100
AcDbEntity
  8
0
  6
Continuous
 62
     7
370
    18
100
AcDbLine
 10
221.1261381837
 20
124.9311629842
 30
0.0
 11
221.1261381837
 21
124.1159879916
 31
0.0
  0
LINE
  5
165
330
1F
100
AcDbEntity
  8
0
  6
Continuous
 62
     7
370
    18
100
AcDbLine
 10
221.7116506832
 20
124.9311629842
 30
0.0
 11
221.1261381837
 21
124.9311629842
 31
0.0
  0
LINE
  5
166
330
1F
100
AcDbEntity
  8
0
  6
Continuous
 62
     7
370
    18
100
AcDbLine
 10
221.7116506832
 20
122.694814236
 30
0.0
 11
221.7116506832
 21
124.9311629842
 31
0.0
  0
LINE
  5
167
330
1F
100
AcDbEntity
  8
0
  6
Continuous
 62
     7
370
    18
100
AcDbLine
 10
221.1261342484
 20
122.694814236
 30
0.0
 11
221.7116506832
 21
122.694814236
 31
0.0
  0
LINE
  5
168
330
1F
100
AcDbEntity
  8
0
  6
Continuous
 62
     7
370
    18
100
AcDbLine
 10
221.1261342484
 20
123.6166273823
 30
0.0
 11
221.1261342484
 21
122.694814236
 31
0.0
  0
LINE
  5
169
330
1F
100
AcDbEntity
  8
0
  6
Continuous
 62
     7
370
    18
100
AcDbLine
 10
220.3548680214
 20
123.6166273823
 30
0.0
 11
221.1261342484
 21
123.6166273823
 31
0.0
  0
LINE
  5
16A
330
1F
100
AcDbEntity
  8
0
  6
Continuous
 62
     7
370
    18
100
AcDbLine
 10
220.3548680214
 20
122.694814236
 30
0.0
 11
220.3548680214
 21
123.6166273823
 31
0.0
  0
LINE
  5
16B
330
1F
100
AcDbEntity
  8
0
  6
Continuous
 62
     7
370
    18
100
AcDbLine
 10
219.7694238347
 20
122.694814236
 30
0.0
 11
220.3548680214
 21
122.694814236
 31
0.0
  0
LINE
  5
16C
330
1F
100
AcDbEntity
  8
0
  6
Continuous
 62
     7
370
    18
100
AcDbLine
 10
219.7694238347
 20
124.4317301268
 30
0.0
 11
219.7694238347
 21
122.694814236
 31
0.0
  0
LINE
  5
16D
330
1F
100
AcDbEntity
  8
0
  6
Continuous
 62
     7
370
    18
100
AcDbLine
 10
219.1620523583
 20
124.4317301268
 30
0.0
 11
219.7694238347
 21
124.4317301268
 31
0.0
  0
LINE
  5
16E
330
1F
100
AcDbEntity
  8
0
  6
Continuous
 62
     7
370
    18
100
AcDbLine
 10
219.1620523583
 20
122.694814236
 30
0.0
 11
219.1620523583
 21
124.4317301268
 31
0.0
  0
LINE
  5
16F
330
1F
100
AcDbEntity
  8
0
  6
Continuous
 62
     7
370
    18
100
AcDbLine
 10
218.5765539855
 20
122.694814236
 30
0.0
 11
219.1620523583
 21
122.694814236
 31
0.0
  0
SPLINE
  5
170
330
1F
100
AcDbEntity
  8
0
  6
Continuous
 62
     7
370
    18
100
AcDbSpline
210
0.0
220
0.0
230
1.0
 70
     8
 71
     3
 72
    12
 73
     8
 74
     0
 42
0.000000001
 43
0.00000001
 40
0.0
 40
0.0
 40
0.0
 40
0.0
 40
0.1970292569794095
 40
0.3714318737747127
 40
0.5434083414909576
 40
0.7603083066182463
 40
1.0
 40
1.0
 40
1.0
 40
1.0
 10
225.2743154042641
 20
124.2248658356322
 30
0.0
 10
225.2721056915463
 20
124.2533039977951
 30
0.0
 10
225.2679400272797
 20
124.3069145123999
 30
0.0
 10
225.2279025336268
 20
124.3766470464535
 30
0.0
 10
225.1644410160458
 20
124.4284388197896
 30
0.0
 10
225.0784434482381
 20
124.4609011119288
 30
0.0
 10
225.012878454578
 20
124.4644420063312
 30
0.0
 10
224.9784595508068
 20
124.4663008291098
 30
0.0
  0
SPLINE
  5
171
330
1F
100
AcDbEntity
  8
0
  6
Continuous
 62
     7
370
    18
100
AcDbSpline
210
0.0
220
0.0
230
1.0
 70
     8
 71
     3
 72
    12
 73
     8
 74
     0
 42
0.000000001
 43
0.00000001
 40
0.0
 40
0.0
 40
0.0
 40
0.0
 40
0.2111291888127914
 40
0.3927062339152233
 40
0.5599129747574039
 40
0.7634359056262762
 40
1.0
 40
1.0
 40
1.0
 40
1.0
 10
225.0036380037811
 20
123.9615758004767
 30
0.0
 10
225.033935958648
 20
123.9631144218926
 30
0.0
 10
225.0902910075071
 20
123.9659763010342
 30
0.0
 10
225.166615977317
 20
123.9951553246555
 30
0.0
 10
225.2279400755884
 20
124.0473157334485
 30
0.0
 10
225.2683876003786
 20
124.127515532425
 30
0.0
 10
225.2722429839027
 20
124.1908311822523
 30
0.0
 10
225.2743154042641
 20
124.2248658356322
 30
0.0
  0
LINE
  5
172
330
1F
100
AcDbEntity
  8
0
  6
Continuous
 62
     7
370
    18
100
AcDbLine
 10
224.5125678607
 20
123.9615758005
 30
0.0
 11
225.0036380038
 21
123.9615758005
 31
0.0
  0
LINE
  5
173
330
1F
100
AcDbEntity
  8
0
  6
Continuous
 62
     7
370
    18
100
AcDbLine
 10
224.5125678607
 20
124.4663008291
 30
0.0
 11
224.5125678607
 21
123.9615758005
 31
0.0
  0
LINE
  5
174
330
1F
100
AcDbEntity
  8
0
  6
Continuous
 62
     7
370
    18
100
AcDbLine
 10
224.9784595508
 20
124.4663008291
 30
0.0
 11
224.5125678607
 21
124.4663008291
 31
0.0
  0
SPLINE
  5
175
330
1F
100
AcDbEntity
  8
0
  6
Continuous
 62
     7
370
    18
100
AcDbSpline
210
0.0
220
0.0
230
1.0
 70
     8
 71
     3
 72
    14
 73
    10
 74
     0
 42
0.000000001
 43
0.00000001
 40
0.0
 40
0.0
 40
0.0
 40
0.0
 40
0.2575826845002084
 40
0.4580339644254267
 40
0.6128287983994983
 40
0.7093883131761983
 40
0.799802888308482
 40
0.8941338805613361
 40
1.0
 40
1.0
 40
1.0
 40
1.0
 10
231.894424272703
 20
123.2888378811927
 30
0.0
 10
231.9225015478862
 20
123.2817238175778
 30
0.0
 10
231.9724286060165
 20
123.269073577648
 30
0.0
 10
232.0411152954227
 20
123.261477260954
 30
0.0
 10
232.0923194167311
 20
123.2661701418687
 30
0.0
 10
232.1282470669768
 20
123.2812791673711
 30
0.0
 10
232.1523391970231
 20
123.3025201025857
 30
0.0
 10
232.1696482165838
 20
123.3307638480552
 30
0.0
 10
232.1759840793564
 20
123.3524170737787
 30
0.0
 10
232.1793345433035
 20
123.3638675036141
 30
0.0
  0
SPLINE
  5
176
330
1F
100
AcDbEntity
  8
0
  6
Continuous
 62
     7
370
    18
100
AcDbSpline
210
0.0
220
0.0
230
1.0
 70
     8
 71
     3
 72
    12
 73
     8
 74
     0
 42
0.000000001
 43
0.00000001
 40
0.0
 40
0.0
 40
0.0
 40
0.0
 40
0.254541538335271
 40
0.4933538848768326
 40
0.629981892889322
 40
0.7933578680691645
 40
1.0
 40
1.0
 40
1.0
 40
1.0
 10
231.6948028507
 20
123.5724838105391
 30
0.0
 10
231.6946481558972
 20
123.5398213613898
 30
0.0
 10
231.6943483255338
 20
123.4765148131431
 30
0.0
 10
231.7193421488516
 20
123.3963089683926
 30
0.0
 10
231.767399585688
 20
123.3450833966075
 30
0.0
 10
231.8235953606366
 20
123.3109592148566
 30
0.0
 10
231.8690432313188
 20
123.2967649051835
 30
0.0
 10
231.894424272703
 20
123.2888378811927
 30
0.0
  0
SPLINE
  5
177
330
1F
100
AcDbEntity
  8
0
  6
Continuous
 62
     7
370
    18
100
AcDbSpline
210
0.0
220
0.0
230
1.0
 70
     8
 71
     3
 72
    14
 73
    10
 74
     0
 42
0.000000001
 43
0.00000001
 40
0.0
 40
0.0
 40
0.0
 40
0.0
 40
0.0123761948722825
 40
0.0260544786030443
 40
0.0423069896659067
 40
0.1107691877094747
 40
0.3353734156282157
 40
0.6465637489690652
 40
1.0
 40
1.0
 40
1.0
 40
1.0
 10
232.1793345433035
 20
123.3638675036141
 30
0.0
 10
232.1796007827728
 20
123.3661041235974
 30
0.0
 10
232.1801612725378
 20
123.3708126764362
 30
0.0
 10
232.177319884836
 20
123.3781185195878
 30
0.0
 10
232.1671965140246
 20
123.392653360165
 30
0.0
 10
232.120825486069
 20
123.4254305161853
 30
0.0
 10
232.0211124842117
 20
123.4679428871514
 30
0.0
 10
231.8701717891973
 20
123.5207650753805
 30
0.0
 10
231.7556848886395
 20
123.5545288521349
 30
0.0
 10
231.6948028507
 20
123.5724838105391
 30
0.0
  0
LINE
  5
178
330
1F
100
AcDbEntity
  8
0
  6
Continuous
 62
     7
370
    18
100
AcDbLine
 10
231.1712933234
 20
123.5764935785
 30
0.0
 11
231.681003469
 21
123.5764935785
 31
0.0
  0
SPLINE
  5
179
330
1F
100
AcDbEntity
  8
0
  6
Continuous
 62
     7
370
    18
100
AcDbSpline
210
0.0
220
0.0
230
1.0
 70
     8
 71
     3
 72
    11
 73
     7
 74
     0
 42
0.000000001
 43
0.00000001
 40
0.0
 40
0.0
 40
0.0
 40
0.0
 40
0.2403133392799487
 40
0.5276554281052314
 40
0.7630136347472218
 40
1.0
 40
1.0
 40
1.0
 40
1.0
 10
230.9555605814508
 20
123.9174864147447
 30
0.0
 10
230.9822564291981
 20
123.8971785797849
 30
0.0
 10
231.0408724386711
 20
123.8525887148123
 30
0.0
 10
231.1085537586513
 20
123.769829353147
 30
0.0
 10
231.160305405779
 20
123.6755265324162
 30
0.0
 10
231.1676222771986
 20
123.6095803347198
 30
0.0
 10
231.1712933234346
 20
123.5764935785163
 30
0.0
  0
SPLINE
  5
17A
330
1F
100
AcDbEntity
  8
0
  6
Continuous
 62
     7
370
    18
100
AcDbSpline
210
0.0
220
0.0
230
1.0
 70
     8
 71
     3
 72
    10
 73
     6
 74
     0
 42
0.000000001
 43
0.00000001
 40
0.0
 40
0.0
 40
0.0
 40
0.0
 40
0.3052209345869937
 40
0.5892711010915017
 40
0.9999999999999999
 40
0.9999999999999999
 40
0.9999999999999999
 40
0.9999999999999999
 10
231.0808748617492
 20
124.0984317102231
 30
0.0
 10
231.0733738720676
 20
124.076885998748
 30
0.0
 10
231.0588921771769
 20
124.0352890318102
 30
0.0
 10
231.011966900689
 20
123.9767697050765
 30
0.0
 10
230.9765171969976
 20
123.9395119101256
 30
0.0
 10
230.9555605814508
 20
123.9174864147447
 30
0.0
  0
SPLINE
  5
17B
330
1F
100
AcDbEntity
  8
0
  6
Continuous
 62
     7
370
    18
100
AcDbSpline
210
0.0
220
0.0
230
1.0
 70
     8
 71
     3
 72
    11
 73
     7
 74
     0
 42
0.000000001
 43
0.00000001
 40
0.0
 40
0.0
 40
0.0
 40
0.0
 40
0.3113820865694044
 40
0.595215242902464
 40
0.7995709864930255
 40
1.0
 40
1.0
 40
1.0
 40
1.0
 10
231.5819152387275
 20
123.6043452101422
 30
0.0
 10
231.5076113639992
 20
123.629652762258
 30
0.0
 10
231.3655775067137
 20
123.6780288295709
 30
0.0
 10
231.203550653134
 20
123.8011023806166
 30
0.0
 10
231.0996633563069
 20
123.945654429125
 30
0.0
 10
231.0870970589502
 20
124.047836364869
 30
0.0
 10
231.0808748617492
 20
124.0984317102231
 30
0.0
  0
SPLINE
  5
17C
330
1F
100
AcDbEntity
  8
0
  6
Continuous
 62
     7
370
    18
100
AcDbSpline
210
0.0
220
0.0
230
1.0
 70
     8
 71
     3
 72
     9
 73
     5
 74
     0
 42
0.000000001
 43
0.00000001
 40
0.0
 40
0.0
 40
0.0
 40
0.0
 40
0.5632377239369556
 40
1.0
 40
1.0
 40
1.0
 40
1.0
 10
231.6810034690125
 20
123.5764935785163
 30
0.0
 10
231.6624172533282
 20
123.5817838481734
 30
0.0
 10
231.629418370451
 20
123.5911764535196
 30
0.0
 10
231.5963557458854
 20
123.6003420314597
 30
0.0
 10
231.5819152387275
 20
123.6043452101422
 30
0.0
  0
SPLINE
  5
17D
330
1F
100
AcDbEntity
  8
0
  6
Continuous
 62
     7
370
    18
100
AcDbSpline
210
0.0
220
0.0
230
1.0
 70
     8
 71
     3
 72
    13
 73
     9
 74
     0
 42
0.000000001
 43
0.00000001
 40
0.0
 40
0.0
 40
0.0
 40
0.0
 40
0.2070940199890577
 40
0.397864964662673
 40
0.5739369280037263
 40
0.7077750174858435
 40
0.8462504046616482
 40
1.0
 40
1.0
 40
1.0
 40
1.0
 10
230.3175378606006
 20
122.7972258775662
 30
0.0
 10
230.3889768528898
 20
122.7996924331044
 30
0.0
 10
230.5262240420853
 20
122.8044311311705
 30
0.0
 10
230.7199800880369
 20
122.8508605643462
 30
0.0
 10
230.8762639520686
 20
122.9293365806067
 30
0.0
 10
230.9894920257018
 20
123.0368678705366
 30
0.0
 10
231.06579629625
 20
123.1654402139378
 30
0.0
 10
231.0859731053838
 20
123.2646883863522
 30
0.0
 10
231.0965888173358
 20
123.3169062570335
 30
0.0
  0
LINE
  5
17E
330
1F
100
AcDbEntity
  8
0
  6
Continuous
 62
     7
370
    18
100
AcDbLine
 10
228.8390171981
 20
122.7972258776
 30
0.0
 11
230.3175378606
 21
122.7972258776
 31
0.0
  0
LINE
  5
17F
330
1F
100
AcDbEntity
  8
0
  6
Continuous
 62
     7
370
    18
100
AcDbLine
 10
228.6884160927
 20
123.1406570862
 30
0.0
 11
228.8390171981
 21
122.7972258776
 31
0.0
  0
LINE
  5
180
330
1F
100
AcDbEntity
  8
0
  6
Continuous
 62
     7
370
    18
100
AcDbLine
 10
228.0350045326
 20
123.1406570862
 30
0.0
 11
228.6884160927
 21
123.1406570862
 31
0.0
  0
LINE
  5
181
330
1F
100
AcDbEntity
  8
0
  6
Continuous
 62
     7
370
    18
100
AcDbLine
 10
227.8814412563
 20
122.8000074283
 30
0.0
 11
228.0350045326
 21
123.1406570862
 31
0.0
  0
LINE
  5
182
330
1F
100
AcDbEntity
  8
0
  6
Continuous
 62
     7
370
    18
100
AcDbLine
 10
226.012022402
 20
122.8000074283
 30
0.0
 11
227.8814412563
 21
122.8000074283
 31
0.0
  0
LINE
  5
183
330
1F
100
AcDbEntity
  8
0
  6
Continuous
 62
     7
370
    18
100
AcDbLine
 10
226.012022402
 20
124.8202441322
 30
0.0
 11
226.012022402
 21
122.8000074283
 31
0.0
  0
LINE
  5
184
330
1F
100
AcDbEntity
  8
0
  6
Continuous
 62
     7
370
    18
100
AcDbLine
 10
226.5390720848
 20
124.8202441322
 30
0.0
 11
226.012022402
 21
124.8202441322
 31
0.0
  0
LINE
  5
185
330
1F
100
AcDbEntity
  8
0
  6
Continuous
 62
     7
370
    18
100
AcDbLine
 10
226.5390720848
 20
123.2569764816
 30
0.0
 11
226.5390720848
 21
124.8202441322
 31
0.0
  0
LINE
  5
186
330
1F
100
AcDbEntity
  8
0
  6
Continuous
 62
     7
370
    18
100
AcDbLine
 10
227.5085328344
 20
123.2569764816
 30
0.0
 11
226.5390720848
 21
123.2569764816
 31
0.0
  0
LINE
  5
187
330
1F
100
AcDbEntity
  8
0
  6
Continuous
 62
     7
370
    18
100
AcDbLine
 10
228.0967766338
 20
124.8202441322
 30
0.0
 11
227.5085328344
 21
123.2569764816
 31
0.0
  0
LINE
  5
188
330
1F
100
AcDbEntity
  8
0
  6
Continuous
 62
     7
370
    18
100
AcDbLine
 10
228.632243217
 20
124.8202441322
 30
0.0
 11
228.0967766338
 21
124.8202441322
 31
0.0
  0
LINE
  5
189
330
1F
100
AcDbEntity
  8
0
  6
Continuous
 62
     7
370
    18
100
AcDbLine
 10
229.3457651727
 20
122.9368452761
 30
0.0
 11
228.632243217
 21
124.8202441322
 31
0.0
  0
LINE
  5
18A
330
1F
100
AcDbEntity
  8
0
  6
Continuous
 62
     7
370
    18
100
AcDbLine
 10
229.3457651727
 20
124.8202441322
 30
0.0
 11
229.3457651727
 21
122.9368452761
 31
0.0
  0
LINE
  5
18B
330
1F
100
AcDbEntity
  8
0
  6
Continuous
 62
     7
370
    18
100
AcDbLine
 10
230.2919981673
 20
124.8202441322
 30
0.0
 11
229.3457651727
 21
124.8202441322
 31
0.0
  0
SPLINE
  5
18C
330
1F
100
AcDbEntity
  8
0
  6
Continuous
 62
     7
370
    18
100
AcDbSpline
210
0.0
220
0.0
230
1.0
 70
     8
 71
     3
 72
    14
 73
    10
 74
     0
 42
0.000000001
 43
0.00000001
 40
0.0
 40
0.0
 40
0.0
 40
0.0
 40
0.1423816612635872
 40
0.2654010250778283
 40
0.380208570789927
 40
0.495320128909934
 40
0.6562432766114725
 40
0.8263515868701821
 40
1.0
 40
1.0
 40
1.0
 40
1.0
 10
231.0229680323118
 20
124.3151398011743
 30
0.0
 10
231.0201441710682
 20
124.3632427119043
 30
0.0
 10
231.014880461809
 20
124.4529070809226
 30
0.0
 10
230.9642999933085
 20
124.5731503016343
 30
0.0
 10
230.88707769979
 20
124.6653516018249
 30
0.0
 10
230.7770728484664
 20
124.7398745252756
 30
0.0
 10
230.6345179618242
 20
124.7909922375633
 30
0.0
 10
230.466212185811
 20
124.8184748906328
 30
0.0
 10
230.3504668327871
 20
124.8196503499305
 30
0.0
 10
230.291998167268
 20
124.8202441321837
 30
0.0
  0
SPLINE
  5
18D
330
1F
100
AcDbEntity
  8
0
  6
Continuous
 62
     7
370
    18
100
AcDbSpline
210
0.0
220
0.0
230
1.0
 70
     8
 71
     3
 72
    11
 73
     7
 74
     0
 42
0.000000001
 43
0.00000001
 40
0.0
 40
0.0
 40
0.0
 40
0.0
 40
0.2840562052455269
 40
0.5588619016419695
 40
0.775099383828571
 40
1.0
 40
1.0
 40
1.0
 40
1.0
 10
230.7566255161286
 20
123.9088347081632
 30
0.0
 10
230.7985316881117
 20
123.9336892789285
 30
0.0
 10
230.8809793253489
 20
123.9825890122416
 30
0.0
 10
230.96491816566
 20
124.0879039428538
 30
0.0
 10
231.0145484323131
 20
124.2012460215356
 30
0.0
 10
231.0201249945329
 20
124.2766814042973
 30
0.0
 10
231.0229680323118
 20
124.3151398011743
 30
0.0
  0
SPLINE
  5
18E
330
1F
100
AcDbEntity
  8
0
  6
Continuous
 62
     7
370
    18
100
AcDbSpline
210
0.0
220
0.0
230
1.0
 70
     8
 71
     3
 72
    11
 73
     7
 74
     0
 42
0.000000001
 43
0.00000001
 40
0.0
 40
0.0
 40
0.0
 40
0.0
 40
0.2849839497112128
 40
0.5578557580525033
 40
0.7738896021956504
 40
1.0
 40
1.0
 40
1.0
 40
1.0
 10
231.1026215313195
 20
123.4827155814986
 30
0.0
 10
231.0929238964303
 20
123.5377660129056
 30
0.0
 10
231.0739407871431
 20
123.6455271698929
 30
0.0
 10
230.9875835956237
 20
123.7734141284261
 30
0.0
 10
230.8792738973722
 20
123.8636467207087
 30
0.0
 10
230.7981247779719
 20
123.8935449170992
 30
0.0
 10
230.7566255161286
 20
123.9088347081632
 30
0.0
  0
LINE
  5
18F
330
1F
100
AcDbEntity
  8
0
  6
Continuous
 62
     7
370
    18
100
AcDbLine
 10
231.606371211
 20
123.4827155815
 30
0.0
 11
231.1026215313
 21
123.4827155815
 31
0.0
  0
SPLINE
  5
190
330
1F
100
AcDbEntity
  8
0
  6
Continuous
 62
     7
370
    18
100
AcDbSpline
210
0.0
220
0.0
230
1.0
 70
     8
 71
     3
 72
    12
 73
     8
 74
     0
 42
0.000000001
 43
0.00000001
 40
0.0
 40
0.0
 40
0.0
 40
0.0
 40
0.3029848175181634
 40
0.5555954840373171
 40
0.686125306864036
 40
0.8302562633026852
 40
1.0
 40
1.0
 40
1.0
 40
1.0
 10
231.9887802542941
 20
123.1694840668065
 30
0.0
 10
231.9319160557054
 20
123.1717528448371
 30
0.0
 10
231.8276418805237
 20
123.1759131946474
 30
0.0
 10
231.7067510829968
 20
123.2349156100846
 30
0.0
 10
231.6453863875071
 20
123.3138659170343
 30
0.0
 10
231.6147379973167
 20
123.3923868078929
 30
0.0
 10
231.6093078434385
 20
123.4510113646672
 30
0.0
 10
231.6063712109852
 20
123.4827155814986
 30
0.0
  0
SPLINE
  5
191
330
1F
100
AcDbEntity
  8
0
  6
Continuous
 62
     7
370
    18
100
AcDbSpline
210
0.0
220
0.0
230
1.0
 70
     8
 71
     3
 72
    12
 73
     8
 74
     0
 42
0.000000001
 43
0.00000001
 40
0.0
 40
0.0
 40
0.0
 40
0.0
 40
0.1228977808113465
 40
0.236151700365539
 40
0.4654549568724362
 40
0.7229435422785258
 40
1.0
 40
1.0
 40
1.0
 40
1.0
 10
232.3118013826964
 20
123.3755355671875
 30
0.0
 10
232.3104801306299
 20
123.3580094583912
 30
0.0
 10
232.3079413059247
 20
123.3243325248801
 30
0.0
 10
232.2781309105318
 20
123.263677839878
 30
0.0
 10
232.2088846126844
 20
123.2086666147083
 30
0.0
 10
232.1041154911084
 20
123.1752464796209
 30
0.0
 10
232.0281522516706
 20
123.1714511820479
 30
0.0
 10
231.9887802542941
 20
123.1694840668065
 30
0.0
  0
SPLINE
  5
192
330
1F
100
AcDbEntity
  8
0
  6
Continuous
 62
     7
370
    18
100
AcDbSpline
210
0.0
220
0.0
230
1.0
 70
     8
 71
     3
 72
    12
 73
     8
 74
     0
 42
0.000000001
 43
0.00000001
 40
0.0
 40
0.0
 40
0.0
 40
0.0
 40
0.32103069194576
 40
0.60295929760987
 40
0.8214028303124052
 40
0.910411712195422
 40
1.0
 40
1.0
 40
1.0
 40
1.0
 10
231.730963010567
 20
123.6689349862083
 30
0.0
 10
231.8023381062095
 20
123.650542213004
 30
0.0
 10
231.9363946890073
 20
123.6159969377684
 30
0.0
 10
232.1179788631095
 20
123.5680222176665
 30
0.0
 10
232.2439607300835
 20
123.510917578186
 30
0.0
 10
232.3044462007622
 20
123.4378524176933
 30
0.0
 10
232.3093443585082
 20
123.3963527285295
 30
0.0
 10
232.3118013826964
 20
123.3755355671875
 30
0.0
  0
SPLINE
  5
193
330
1F
100
AcDbEntity
  8
0
  6
Continuous
 62
     7
370
    18
100
AcDbSpline
210
0.0
220
0.0
230
1.0
 70
     8
 71
     3
 72
    12
 73
     8
 74
     0
 42
0.000000001
 43
0.00000001
 40
0.0
 40
0.0
 40
0.0
 40
0.0
 40
0.2059303301559971
 40
0.3857152088822362
 40
0.5622731912300346
 40
0.7785006333333745
 40
1.0
 40
1.0
 40
1.0
 40
1.0
 10
231.1388539392582
 20
124.2502610328215
 30
0.0
 10
231.1438227809826
 20
124.1878611868667
 30
0.0
 10
231.1531296073358
 20
124.0709839420313
 30
0.0
 10
231.2419556370561
 20
123.921049490905
 30
0.0
 10
231.3742232782403
 20
123.8083155966165
 30
0.0
 10
231.5413153252042
 20
123.726255702045
 30
0.0
 10
231.6672415690302
 20
123.6881946920995
 30
0.0
 10
231.730963010567
 20
123.6689349862083
 30
0.0
  0
SPLINE
  5
194
330
1F
100
AcDbEntity
  8
0
  6
Continuous
 62
     7
370
    18
100
AcDbSpline
210
0.0
220
0.0
230
1.0
 70
     8
 71
     3
 72
    14
 73
    10
 74
     0
 42
0.000000001
 43
0.00000001
 40
0.0
 40
0.0
 40
0.0
 40
0.0
 40
0.1687571149027784
 40
0.3389805425085102
 40
0.5046286467510799
 40
0.6247827513896844
 40
0.7433698504427163
 40
0.8656643973442318
 40
1.0
 40
1.0
 40
1.0
 40
1.0
 10
231.9632766849973
 20
124.8625273161241
 30
0.0
 10
231.8987410986694
 20
124.859699094473
 30
0.0
 10
231.7691091831372
 20
124.8540180770523
 30
0.0
 10
231.5806258467274
 20
124.8077142803726
 30
0.0
 10
231.4204944385887
 20
124.7358090496369
 30
0.0
 10
231.2962388533412
 20
124.6418150763937
 30
0.0
 10
231.2084159008503
 20
124.5338359134456
 30
0.0
 10
231.1491325409542
 20
124.4002787822393
 30
0.0
 10
231.1423856607593
 20
124.301807043343
 30
0.0
 10
231.1388539392582
 20
124.2502610328215
 30
0.0
  0
SPLINE
  5
195
330
1F
100
AcDbEntity
  8
0
  6
Continuous
 62
     7
370
    18
100
AcDbSpline
210
0.0
220
0.0
230
1.0
 70
     8
 71
     3
 72
    12
 73
     8
 74
     0
 42
0.000000001
 43
0.00000001
 40
0.0
 40
0.0
 40
0.0
 40
0.0
 40
0.199397448057449
 40
0.3779257523812735
 40
0.555066935678655
 40
0.7731143074051408
 40
1.0
 40
1.0
 40
1.0
 40
1.0
 10
232.773647180798
 20
124.2135951364529
 30
0.0
 10
232.7662602868901
 20
124.2913469705595
 30
0.0
 10
232.7522596190526
 20
124.4387130511691
 30
0.0
 10
232.6321319216918
 20
124.6257295369836
 30
0.0
 10
232.4533150008878
 20
124.7614917113533
 30
0.0
 10
232.2236023273661
 20
124.8470079515185
 30
0.0
 10
232.0511934974724
 20
124.8572861379776
 30
0.0
 10
231.9632766849973
 20
124.8625273161241
 30
0.0
  0
LINE
  5
196
330
1F
100
AcDbEntity
  8
0
  6
Continuous
 62
     7
370
    18
100
AcDbLine
 10
232.2466697461
 20
124.2135951365
 30
0.0
 11
232.7736471808
 21
124.2135951365
 31
0.0
  0
SPLINE
  5
197
330
1F
100
AcDbEntity
  8
0
  6
Continuous
 62
     7
370
    18
100
AcDbSpline
210
0.0
220
0.0
230
1.0
 70
     8
 71
     3
 72
    13
 73
     9
 74
     0
 42
0.000000001
 43
0.00000001
 40
0.0
 40
0.0
 40
0.0
 40
0.0
 40
0.262604178720163
 40
0.5099839566452394
 40
0.6263386331431409
 40
0.7414049134888154
 40
0.8625801387792015
 40
1.0
 40
1.0
 40
1.0
 40
1.0
 10
231.920758694824
 20
124.4562222231129
 30
0.0
 10
231.9611012524298
 20
124.4542021899109
 30
0.0
 10
232.0394475196115
 20
124.4502792343437
 30
0.0
 10
232.1321823331724
 20
124.4173586709509
 30
0.0
 10
232.1914319212261
 20
124.3728184227407
 30
0.0
 10
232.2248172919853
 20
124.3293981123349
 30
0.0
 10
232.2456720656364
 20
124.2747496050776
 30
0.0
 10
232.2463235442369
 20
124.2348161500524
 30
0.0
 10
232.2466697460928
 20
124.2135951364529
 30
0.0
  0
SPLINE
  5
198
330
1F
100
AcDbEntity
  8
0
  6
Continuous
 62
     7
370
    18
100
AcDbSpline
210
0.0
220
0.0
230
1.0
 70
     8
 71
     3
 72
    12
 73
     8
 74
     0
 42
0.000000001
 43
0.00000001
 40
0.0
 40
0.0
 40
0.0
 40
0.0
 40
0.1338350776842966
 40
0.2542572338768609
 40
0.489932511816403
 40
0.743491663379782
 40
1.0
 40
1.0
 40
1.0
 40
1.0
 10
231.6659036220351
 20
124.2841273164132
 30
0.0
 10
231.667011607534
 20
124.2995038446292
 30
0.0
 10
231.6691165364735
 20
124.3287158688494
 30
0.0
 10
231.6939204921403
 20
124.3803725061368
 30
0.0
 10
231.7505150758714
 20
124.4257037400984
 30
0.0
 10
231.8330209902952
 20
124.4517475045675
 30
0.0
 10
231.8914002779272
 20
124.4547249118571
 30
0.0
 10
231.920758694824
 20
124.4562222231129
 30
0.0
  0
SPLINE
  5
199
330
1F
100
AcDbEntity
  8
0
  6
Continuous
 62
     7
370
    18
100
AcDbSpline
210
0.0
220
0.0
230
1.0
 70
     8
 71
     3
 72
    12
 73
     8
 74
     0
 42
0.000000001
 43
0.00000001
 40
0.0
 40
0.0
 40
0.0
 40
0.0
 40
0.3295920737084782
 40
0.6175980183821552
 40
0.8358975487564532
 40
0.9197397490046709
 40
1.0
 40
1.0
 40
1.0
 40
1.0
 10
232.2523050956825
 20
124.0188323972691
 30
0.0
 10
232.1803081143989
 20
124.0369974362227
 30
0.0
 10
232.0453983379899
 20
124.0710355486549
 30
0.0
 10
231.8629164894134
 20
124.1154269637999
 30
0.0
 10
231.7372506038975
 20
124.1641465375895
 30
0.0
 10
231.6739145145446
 20
124.2283227011917
 30
0.0
 10
231.6685347774349
 20
124.2657984455039
 30
0.0
 10
231.6659036220351
 20
124.2841273164132
 30
0.0
  0
SPLINE
  5
19A
330
1F
100
AcDbEntity
  8
0
  6
Continuous
 62
     7
370
    18
100
AcDbSpline
210
0.0
220
0.0
230
1.0
 70
     8
 71
     3
 72
    12
 73
     8
 74
     0
 42
0.000000001
 43
0.00000001
 40
0.0
 40
0.0
 40
0.0
 40
0.0
 40
0.2045378821184152
 40
0.3838943514216868
 40
0.5601975822227039
 40
0.7766167962242739
 40
1.0
 40
1.0
 40
1.0
 40
1.0
 10
232.8387788174016
 20
123.4375966607455
 30
0.0
 10
232.8339148585735
 20
123.499223181353
 30
0.0
 10
232.8247857608225
 20
123.6148891543941
 30
0.0
 10
232.7381142013418
 20
123.7641070205025
 30
0.0
 10
232.6080389865681
 20
123.8777390817632
 30
0.0
 10
232.4420909187606
 20
123.9613589910329
 30
0.0
 10
232.3162313386718
 20
123.9994734226477
 30
0.0
 10
232.2523050956825
 20
124.0188323972691
 30
0.0
  0
SPLINE
  5
19B
330
1F
100
AcDbEntity
  8
0
  6
Continuous
 62
     7
370
    18
100
AcDbSpline
210
0.0
220
0.0
230
1.0
 70
     8
 71
     3
 72
    13
 73
     9
 74
     0
 42
0.000000001
 43
0.00000001
 40
0.0
 40
0.0
 40
0.0
 40
0.0
 40
0.194398482939096
 40
0.3808229110812407
 40
0.5574598692554745
 40
0.6939226743571333
 40
0.8373010797229409
 40
1.0
 40
1.0
 40
1.0
 40
1.0
 10
231.9575690873359
 20
122.737151605979
 30
0.0
 10
232.039810614744
 20
122.7408288408629
 30
0.0
 10
232.2009201944372
 20
122.7480324736899
 30
0.0
 10
232.429683361812
 20
122.8128128836644
 30
0.0
 10
232.6154205836623
 20
122.919713937617
 30
0.0
 10
232.7459758107449
 20
123.064978540068
 30
0.0
 10
232.8256672755857
 20
123.2385987791918
 30
0.0
 10
232.8342281736453
 20
123.3685301482078
 30
0.0
 10
232.8387788174016
 20
123.4375966607455
 30
0.0
  0
SPLINE
  5
19C
330
1F
100
AcDbEntity
  8
0
  6
Continuous
 62
     7
370
    18
100
AcDbSpline
210
0.0
220
0.0
230
1.0
 70
     8
 71
     3
 72
    12
 73
     8
 74
     0
 42
0.000000001
 43
0.00000001
 40
0.0
 40
0.0
 40
0.0
 40
0.0
 40
0.1886637132768468
 40
0.3661825608804961
 40
0.5448728808045997
 40
0.7656579321773186
 40
0.9999999999999999
 40
0.9999999999999999
 40
0.9999999999999999
 40
0.9999999999999999
 10
231.0965888173358
 20
123.3169062570335
 30
0.0
 10
231.116824405763
 20
123.2483900500628
 30
0.0
 10
231.1561002127665
 20
123.1154050700972
 30
0.0
 10
231.2894062326743
 20
122.9535998884964
 30
0.0
 10
231.4699860862215
 20
122.8309706198076
 30
0.0
 10
231.6982775892453
 20
122.7513982037049
 30
0.0
 10
231.869439107091
 20
122.7419938487266
 30
0.0
 10
231.9575690873359
 20
122.737151605979
 30
0.0
  0
LINE
  5
19D
330
1F
100
AcDbEntity
  8
0
  6
Continuous
 62
     7
370
    18
100
AcDbLine
 10
228.6651160896
 20
123.4794282942
 30
0.0
 11
228.4096830322
 21
124.2879745262
 31
0.0
  0
LINE
  5
19E
330
1F
100
AcDbEntity
  8
0
  6
Continuous
 62
     7
370
    18
100
AcDbLine
 10
228.4096830322
 20
124.2879745262
 30
0.0
 11
228.3273924786
 21
124.2879745262
 31
0.0
  0
LINE
  5
19F
330
1F
100
AcDbEntity
  8
0
  6
Continuous
 62
     7
370
    18
100
AcDbLine
 10
228.3273924786
 20
124.2879745262
 30
0.0
 11
228.0631812805
 21
123.4794282942
 31
0.0
  0
LINE
  5
1A0
330
1F
100
AcDbEntity
  8
0
  6
Continuous
 62
     7
370
    18
100
AcDbLine
 10
228.0631812805
 20
123.4794282942
 30
0.0
 11
228.6651160896
 21
123.4794282942
 31
0.0
  0
LINE
  5
1A1
330
1F
100
AcDbEntity
  8
0
  6
Continuous
 62
     7
370
    18
100
AcDbLine
 10
229.8260342291
 20
123.9499257989
 30
0.0
 11
230.2950687103
 21
123.9499257989
 31
0.0
  0
SPLINE
  5
1A2
330
1F
100
AcDbEntity
  8
0
  6
Continuous
 62
     7
370
    18
100
AcDbSpline
210
0.0
220
0.0
230
1.0
 70
     8
 71
     3
 72
    12
 73
     8
 74
     0
 42
0.000000001
 43
0.00000001
 40
0.0
 40
0.0
 40
0.0
 40
0.0
 40
0.242466320512141
 40
0.5040777209641408
 40
0.6506173645415592
 40
0.8119564965868009
 40
1.0
 40
1.0
 40
1.0
 40
1.0
 10
230.2950687103136
 20
123.9499257989211
 30
0.0
 10
230.3265369088253
 20
123.9529188213885
 30
0.0
 10
230.3919580269219
 20
123.9591411946277
 30
0.0
 10
230.4675349420603
 20
124.0042211354796
 30
0.0
 10
230.5136685132541
 20
124.0624637472317
 30
0.0
 10
230.5385208245755
 20
124.1229594766117
 30
0.0
 10
230.5412370555665
 20
124.1683433043365
 30
0.0
 10
230.5426989759364
 20
124.1927696297962
 30
0.0
  0
SPLINE
  5
1A3
330
1F
100
AcDbEntity
  8
0
  6
Continuous
 62
     7
370
    18
100
AcDbSpline
210
0.0
220
0.0
230
1.0
 70
     8
 71
     3
 72
    12
 73
     8
 74
     0
 42
0.000000001
 43
0.00000001
 40
0.0
 40
0.0
 40
0.0
 40
0.0
 40
0.23250610395507
 40
0.4222580038951598
 40
0.5928278045028524
 40
0.7922143842709269
 40
1.0
 40
1.0
 40
1.0
 40
1.0
 10
230.5426989759364
 20
124.1927696297962
 30
0.0
 10
230.5408772793214
 20
124.2236395518281
 30
0.0
 10
230.537568867356
 20
124.2797029042985
 30
0.0
 10
230.5033565844897
 20
124.3525038996151
 30
0.0
 10
230.4486835981471
 20
124.4042834688944
 30
0.0
 10
230.3765079006345
 20
124.4345174352346
 30
0.0
 10
230.3225858700218
 20
124.4376349521542
 30
0.0
 10
230.2950687103136
 20
124.4392258642544
 30
0.0
  0
LINE
  5
1A4
330
1F
100
AcDbEntity
  8
0
  6
Continuous
 62
     7
370
    18
100
AcDbLine
 10
230.2950687103
 20
124.4392258643
 30
0.0
 11
229.8260342291
 21
124.4392258643
 31
0.0
  0
LINE
  5
1A5
330
1F
100
AcDbEntity
  8
0
  6
Continuous
 62
     7
370
    18
100
AcDbLine
 10
229.8260342291
 20
124.4392258643
 30
0.0
 11
229.8260342291
 21
123.9499257989
 31
0.0
  0
LINE
  5
1A6
330
1F
100
AcDbEntity
  8
0
  6
Continuous
 62
     7
370
    18
100
AcDbLine
 10
229.8260342291
 20
123.1520361575
 30
0.0
 11
230.3470150738
 21
123.1520361575
 31
0.0
  0
SPLINE
  5
1A7
330
1F
100
AcDbEntity
  8
0
  6
Continuous
 62
     7
370
    18
100
AcDbSpline
210
0.0
220
0.0
230
1.0
 70
     8
 71
     3
 72
    12
 73
     8
 74
     0
 42
0.000000001
 43
0.00000001
 40
0.0
 40
0.0
 40
0.0
 40
0.0
 40
0.2382584506409018
 40
0.4976556531040064
 40
0.6448887038896378
 40
0.8084522641844554
 40
1.0
 40
1.0
 40
1.0
 40
1.0
 10
230.3470150738389
 20
123.1520361575
 30
0.0
 10
230.3820076163389
 20
123.1555051134336
 30
0.0
 10
230.4550973075745
 20
123.1627507977987
 30
0.0
 10
230.538959023538
 20
123.2150702373078
 30
0.0
 10
230.5898745447944
 20
123.2820237365799
 30
0.0
 10
230.6173428009656
 20
123.3516633433843
 30
0.0
 10
230.6203389706781
 20
123.4038251366504
 30
0.0
 10
230.6219551105499
 20
123.4319613111558
 30
0.0
  0
SPLINE
  5
1A8
330
1F
100
AcDbEntity
  8
0
  6
Continuous
 62
     7
370
    18
100
AcDbSpline
210
0.0
220
0.0
230
1.0
 70
     8
 71
     3
 72
    12
 73
     8
 74
     0
 42
0.000000001
 43
0.00000001
 40
0.0
 40
0.0
 40
0.0
 40
0.0
 40
0.2366945835519308
 40
0.4286648826954234
 40
0.5991110185125298
 40
0.7959723284782185
 40
1.0
 40
1.0
 40
1.0
 40
1.0
 10
230.6219551105499
 20
123.4319613111558
 30
0.0
 10
230.6199416832544
 20
123.4674951933188
 30
0.0
 10
230.6162952729204
 20
123.5318487040774
 30
0.0
 10
230.5785702495255
 20
123.6155731803432
 30
0.0
 10
230.5180106146467
 20
123.6753941715594
 30
0.0
 10
230.4376681086588
 20
123.7104846565589
 30
0.0
 10
230.3775907366491
 20
123.714094944026
 30
0.0
 10
230.3470150738389
 20
123.7159323568247
 30
0.0
  0
LINE
  5
1A9
330
1F
100
AcDbEntity
  8
0
  6
Continuous
 62
     7
370
    18
100
AcDbLine
 10
230.3470150738
 20
123.7159323568
 30
0.0
 11
229.8260342291
 21
123.7159323568
 31
0.0
  0
LINE
  5
1AA
330
1F
100
AcDbEntity
  8
0
  6
Continuous
 62
     7
370
    18
100
AcDbLine
 10
229.8260342291
 20
123.7159323568
 30
0.0
 11
229.8260342291
 21
123.1520361575
 31
0.0
  0
SPLINE
  5
1AB
330
1F
100
AcDbEntity
  8
0
  6
Continuous
 62
     7
370
    18
100
AcDbSpline
210
0.0
220
0.0
230
1.0
 70
     8
 71
     3
 72
    13
 73
     9
 74
     0
 42
0.000000001
 43
0.00000001
 40
0.0
 40
0.0
 40
0.0
 40
0.0
 40
0.5894795511906041
 40
0.8525979839264138
 40
0.9412877217975751
 40
0.963473568107822
 40
0.9825903643577696
 40
1.0
 40
1.0
 40
1.0
 40
1.0
 10
231.9606757544174
 20
124.3222923602689
 30
0.0
 10
231.9229577110871
 20
124.3203643879107
 30
0.0
 10
231.8684039481345
 20
124.3175758512392
 30
0.0
 10
231.8098754804338
 20
124.3031757247445
 30
0.0
 10
231.7880348267733
 20
124.292356262026
 30
0.0
 10
231.7821916705366
 20
124.2864325220791
 30
0.0
 10
231.7801409040393
 20
124.2831777370137
 30
0.0
 10
231.7798629435634
 20
124.2808362227188
 30
0.0
 10
231.7797304589391
 20
124.2797201840418
 30
0.0
  0
SPLINE
  5
1AC
330
1F
100
AcDbEntity
  8
0
  6
Continuous
 62
     7
370
    18
100
AcDbSpline
210
0.0
220
0.0
230
1.0
 70
     8
 71
     3
 72
    12
 73
     8
 74
     0
 42
0.000000001
 43
0.00000001
 40
0.0
 40
0.0
 40
0.0
 40
0.0
 40
0.168793226247075
 40
0.3139712558223856
 40
0.4643534436981251
 40
0.6895611553267724
 40
1.0
 40
1.0
 40
1.0
 40
1.0
 10
232.1309644593256
 20
124.2211992459953
 30
0.0
 10
232.1285046520722
 20
124.2334298111626
 30
0.0
 10
232.1239291795274
 20
124.2561798112091
 30
0.0
 10
232.105369612577
 20
124.2860481855019
 30
0.0
 10
232.0725749056557
 20
124.3075819366041
 30
0.0
 10
232.0228270414431
 20
124.3193398704727
 30
0.0
 10
231.9834798043596
 20
124.3212090564792
 30
0.0
 10
231.9606757544174
 20
124.3222923602689
 30
0.0
  0
SPLINE
  5
1AD
330
1F
100
AcDbEntity
  8
0
  6
Continuous
 62
     7
370
    18
100
AcDbSpline
210
0.0
220
0.0
230
1.0
 70
     8
 71
     3
 72
     9
 73
     5
 74
     0
 42
0.000000001
 43
0.00000001
 40
0.0
 40
0.0
 40
0.0
 40
0.0
 40
0.5915228225857656
 40
1.0
 40
1.0
 40
1.0
 40
1.0
 10
232.1362746925927
 20
124.1370663665445
 30
0.0
 10
232.1363458789604
 20
124.153735632206
 30
0.0
 10
232.1364662232056
 20
124.1819158900506
 30
0.0
 10
232.1325600442712
 20
124.2098065485395
 30
0.0
 10
232.1309644593256
 20
124.2211992459953
 30
0.0
  0
SPLINE
  5
1AE
330
1F
100
AcDbEntity
  8
0
  6
Continuous
 62
     7
370
    18
100
AcDbSpline
210
0.0
220
0.0
230
1.0
 70
     8
 71
     3
 72
    13
 73
     9
 74
     0
 42
0.000000001
 43
0.00000001
 40
0.0
 40
0.0
 40
0.0
 40
0.0
 40
0.0518958002713982
 40
0.1049388400652577
 40
0.1730026251899492
 40
0.2659228894279229
 40
0.5508780002890683
 40
1.0
 40
1.0
 40
1.0
 40
1.0
 10
231.7797304589391
 20
124.2797201840418
 30
0.0
 10
231.7803626933672
 20
124.272700735492
 30
0.0
 10
231.7816411387749
 20
124.2585066622747
 30
0.0
 10
231.7966217818457
 20
124.2395929731427
 30
0.0
 10
231.8210799360674
 20
124.2245996615095
 30
0.0
 10
231.8764705576224
 20
124.2026417273555
 30
0.0
 10
231.9833527313865
 20
124.1751865068136
 30
0.0
 10
232.0782281504514
 20
124.1515361151085
 30
0.0
 10
232.1362746925927
 20
124.1370663665445
 30
0.0
  0
LINE
  5
1AF
330
1F
100
AcDbEntity
  8
0
  6
Continuous
 62
     7
370
    18
100
AcDbLine
 10
226.6548496196
 20
124.9311629842
 30
0.0
 11
225.8942219211
 21
124.9311629842
 31
0.0
  0
LINE
  5
1B0
330
1F
100
AcDbEntity
  8
0
  6
Continuous
 62
     7
370
    18
100
AcDbLine
 10
226.6548496196
 20
123.3361820964
 30
0.0
 11
226.6548496196
 21
124.9311629842
 31
0.0
  0
LINE
  5
1B1
330
1F
100
AcDbEntity
  8
0
  6
Continuous
 62
     7
370
    18
100
AcDbLine
 10
227.4211463974
 20
123.3361820964
 30
0.0
 11
226.6548496196
 21
123.3361820964
 31
0.0
  0
LINE
  5
1B2
330
1F
100
AcDbEntity
  8
0
  6
Continuous
 62
     7
370
    18
100
AcDbLine
 10
228.0331355323
 20
124.9311629842
 30
0.0
 11
227.4211463974
 21
123.3361820964
 31
0.0
  0
LINE
  5
1B3
330
1F
100
AcDbEntity
  8
0
  6
Continuous
 62
     7
370
    18
100
AcDbLine
 10
228.7244278271
 20
124.9311629842
 30
0.0
 11
228.0331355323
 21
124.9311629842
 31
0.0
  0
LINE
  5
1B4
330
1F
100
AcDbEntity
  8
0
  6
Continuous
 62
     7
370
    18
100
AcDbLine
 10
229.2411460357
 20
123.5369016352
 30
0.0
 11
228.7244278271
 21
124.9311629842
 31
0.0
  0
LINE
  5
1B5
330
1F
100
AcDbEntity
  8
0
  6
Continuous
 62
     7
370
    18
100
AcDbLine
 10
229.2411460357
 20
124.9311629842
 30
0.0
 11
229.2411460357
 21
123.5369016352
 31
0.0
  0
LINE
  5
1B6
330
1F
100
AcDbEntity
  8
0
  6
Continuous
 62
     7
370
    18
100
AcDbLine
 10
230.2292361491
 20
124.9311629842
 30
0.0
 11
229.2411460357
 21
124.9311629842
 31
0.0
  0
SPLINE
  5
1B7
330
1F
100
AcDbEntity
  8
0
  6
Continuous
 62
     7
370
    18
100
AcDbSpline
210
0.0
220
0.0
230
1.0
 70
     8
 71
     3
 72
    13
 73
     9
 74
     0
 42
0.000000001
 43
0.00000001
 40
0.0
 40
0.0
 40
0.0
 40
0.0
 40
0.112989412323011
 40
0.234903504206832
 40
0.3805358024040053
 40
0.5310429421797463
 40
0.731913786230743
 40
1.0
 40
1.0
 40
1.0
 40
1.0
 10
231.0983804512123
 20
124.5267002170196
 30
0.0
 10
231.0813581137831
 20
124.5615417547897
 30
0.0
 10
231.0459688978408
 20
124.6339768542021
 30
0.0
 10
230.9729159741647
 20
124.7440059254503
 30
0.0
 10
230.8546586471545
 20
124.8309494379501
 30
0.0
 10
230.6932180146833
 20
124.8897302482707
 30
0.0
 10
230.482537850149
 20
124.9257861814027
 30
0.0
 10
230.3213700801726
 20
124.9292072690363
 30
0.0
 10
230.2292361491142
 20
124.9311629842033
 30
0.0
  0
SPLINE
  5
1B8
330
1F
100
AcDbEntity
  8
0
  6
Continuous
 62
     7
370
    18
100
AcDbSpline
210
0.0
220
0.0
230
1.0
 70
     8
 71
     3
 72
    12
 73
     8
 74
     0
 42
0.000000001
 43
0.00000001
 40
0.0
 40
0.0
 40
0.0
 40
0.0
 40
0.257782467716842
 40
0.474647225282723
 40
0.66035303479359
 40
0.8468286435267817
 40
1.0
 40
1.0
 40
1.0
 40
1.0
 10
231.9551342090202
 20
124.9524400413079
 30
0.0
 10
231.8688728098494
 20
124.9483679451404
 30
0.0
 10
231.7100422496175
 20
124.9408701150355
 30
0.0
 10
231.4967036551549
 20
124.8762156942554
 30
0.0
 10
231.3235372868562
 20
124.7811107775784
 30
0.0
 10
231.1887250714827
 20
124.6649338473904
 30
0.0
 10
231.1264601865389
 20
124.5696641892232
 30
0.0
 10
231.0983804512123
 20
124.5267002170196
 30
0.0
  0
SPLINE
  5
1B9
330
1F
100
AcDbEntity
  8
0
  6
Continuous
 62
     7
370
    18
100
AcDbSpline
210
0.0
220
0.0
230
1.0
 70
     8
 71
     3
 72
    15
 73
    11
 74
     0
 42
0.000000001
 43
0.00000001
 40
0.0
 40
0.0
 40
0.0
 40
0.0
 40
0.1009667219583008
 40
0.2110426783902181
 40
0.3263227887254702
 40
0.4481367482187073
 40
0.5538549368465837
 40
0.6756292865222517
 40
0.8215985201030968
 40
0.9999999999999999
 40
0.9999999999999999
 40
0.9999999999999999
 40
0.9999999999999999
 10
232.8864841008196
 20
124.1049340366727
 30
0.0
 10
232.885615054238
 20
124.1537620479357
 30
0.0
 10
232.8837985555476
 20
124.2558233417715
 30
0.0
 10
232.8595074601889
 20
124.412372558668
 30
0.0
 10
232.8034628171647
 20
124.572010831939
 30
0.0
 10
232.7074526034261
 20
124.7102043721413
 30
0.0
 10
232.5749502852527
 20
124.8176804611979
 30
0.0
 10
232.4099345946927
 20
124.8944629591872
 30
0.0
 10
232.1985044897304
 20
124.9443693453739
 30
0.0
 10
232.0414906519854
 20
124.9495762709614
 30
0.0
 10
231.9551342090202
 20
124.9524400413079
 30
0.0
  0
LINE
  5
1BA
330
1F
100
AcDbEntity
  8
0
  6
Continuous
 62
     7
370
    18
100
AcDbLine
 10
232.2699528234
 20
124.1049340367
 30
0.0
 11
232.8864841008
 21
124.1049340367
 31
0.0
  0
SPLINE
  5
1BB
330
1F
100
AcDbEntity
  8
0
  6
Continuous
 62
     7
370
    18
100
AcDbSpline
210
0.0
220
0.0
230
1.0
 70
     8
 71
     3
 72
     9
 73
     5
 74
     0
 42
0.000000001
 43
0.00000001
 40
0.0
 40
0.0
 40
0.0
 40
0.0
 40
0.5581053349214891
 40
1.0
 40
1.0
 40
1.0
 40
1.0
 10
232.285305538634
 20
124.1009242686954
 30
0.0
 10
232.2824527442977
 20
124.1016830710058
 30
0.0
 10
232.2773411745673
 20
124.1030426751214
 30
0.0
 10
232.2722171170751
 20
124.1043543947616
 30
0.0
 10
232.2699528234057
 20
124.1049340366727
 30
0.0
  0
SPLINE
  5
1BC
330
1F
100
AcDbEntity
  8
0
  6
Continuous
 62
     7
370
    18
100
AcDbSpline
210
0.0
220
0.0
230
1.0
 70
     8
 71
     3
 72
    12
 73
     8
 74
     0
 42
0.000000001
 43
0.00000001
 40
0.0
 40
0.0
 40
0.0
 40
0.0
 40
0.2081936773952727
 40
0.382385480934238
 40
0.5475549960392783
 40
0.7576294387459007
 40
1.0
 40
1.0
 40
1.0
 40
1.0
 10
232.9290384186137
 20
123.3824362516508
 30
0.0
 10
232.9267189370282
 20
123.4564067753733
 30
0.0
 10
232.9224587880521
 20
123.5922670697034
 30
0.0
 10
232.8470374761434
 20
123.7755530910917
 30
0.0
 10
232.7130564339329
 20
123.9204374607577
 30
0.0
 10
232.5199643592856
 20
124.0282617572799
 30
0.0
 10
232.3671609156749
 20
124.0755776090125
 30
0.0
 10
232.285305538634
 20
124.1009242686954
 30
0.0
  0
SPLINE
  5
1BD
330
1F
100
AcDbEntity
  8
0
  6
Continuous
 62
     7
370
    18
100
AcDbSpline
210
0.0
220
0.0
230
1.0
 70
     8
 71
     3
 72
    13
 73
     9
 74
     0
 42
0.000000001
 43
0.00000001
 40
0.0
 40
0.0
 40
0.0
 40
0.0
 40
0.2144903110109674
 40
0.4108455396423901
 40
0.5926499974110346
 40
0.7287207904635484
 40
0.8627130606487938
 40
1.0
 40
1.0
 40
1.0
 40
1.0
 10
231.9883480870034
 20
122.6121242094296
 30
0.0
 10
232.0851032027323
 20
122.6187981513591
 30
0.0
 10
232.2704328222731
 20
122.6315817557124
 30
0.0
 10
232.5228082998765
 20
122.7291212638859
 30
0.0
 10
232.7131365073171
 20
122.8661571898679
 30
0.0
 10
232.8398690642938
 20
123.0273382788772
 30
0.0
 10
232.9159894173955
 20
123.1978254884372
 30
0.0
 10
232.9246536759136
 20
123.320403098092
 30
0.0
 10
232.9290384186137
 20
123.3824362516508
 30
0.0
  0
SPLINE
  5
1BE
330
1F
100
AcDbEntity
  8
0
  6
Continuous
 62
     7
370
    18
100
AcDbSpline
210
0.0
220
0.0
230
1.0
 70
     8
 71
     3
 72
    12
 73
     8
 74
     0
 42
0.000000001
 43
0.00000001
 40
0.0
 40
0.0
 40
0.0
 40
0.0
 40
0.1266166298736492
 40
0.2732454724470878
 40
0.4461934828620924
 40
0.6934352669522343
 40
1.0
 40
1.0
 40
1.0
 40
1.0
 10
231.0946934416743
 20
123.0495161438112
 30
0.0
 10
231.1138176376388
 20
123.0091890807977
 30
0.0
 10
231.1550886773648
 20
122.9221611177526
 30
0.0
 10
231.2702511303661
 20
122.8120007745835
 30
0.0
 10
231.4413605558842
 20
122.7097982554617
 30
0.0
 10
231.6869401522582
 20
122.6316799920379
 30
0.0
 10
231.8809513753702
 20
122.6190922633639
 30
0.0
 10
231.9883480870034
 20
122.6121242094296
 30
0.0
  0
SPLINE
  5
1BF
330
1F
100
AcDbEntity
  8
0
  6
Continuous
 62
     7
370
    18
100
AcDbSpline
210
0.0
220
0.0
230
1.0
 70
     8
 71
     3
 72
    11
 73
     7
 74
     0
 42
0.000000001
 43
0.00000001
 40
0.0
 40
0.0
 40
0.0
 40
0.0
 40
0.310424843595751
 40
0.6000686931456386
 40
0.808012383528743
 40
1.0
 40
1.0
 40
1.0
 40
1.0
 10
230.4336235859638
 20
122.6948142359849
 30
0.0
 10
230.5153161488217
 20
122.7020056050044
 30
0.0
 10
230.6732324704215
 20
122.7159069260441
 30
0.0
 10
230.8702940647548
 20
122.8016210734978
 30
0.0
 10
231.0184446963309
 20
122.9122767235486
 30
0.0
 10
231.0699623268197
 20
123.0050028360864
 30
0.0
 10
231.0946934416743
 20
123.0495161438112
 30
0.0
  0
LINE
  5
1C0
330
1F
100
AcDbEntity
  8
0
  6
Continuous
 62
     7
370
    18
100
AcDbLine
 10
228.7620071644
 20
122.694814236
 30
0.0
 11
230.433623586
 21
122.694814236
 31
0.0
  0
LINE
  5
1C1
330
1F
100
AcDbEntity
  8
0
  6
Continuous
 62
     7
370
    18
100
AcDbLine
 10
228.6342725737
 20
123.0247711793
 30
0.0
 11
228.7620071644
 21
122.694814236
 31
0.0
  0
LINE
  5
1C2
330
1F
100
AcDbEntity
  8
0
  6
Continuous
 62
     7
370
    18
100
AcDbLine
 10
228.0915089354
 20
123.0247711793
 30
0.0
 11
228.6342725737
 21
123.0247711793
 31
0.0
  0
LINE
  5
1C3
330
1F
100
AcDbEntity
  8
0
  6
Continuous
 62
     7
370
    18
100
AcDbLine
 10
227.9583918633
 20
122.694814236
 30
0.0
 11
228.0915089354
 21
123.0247711793
 31
0.0
  0
LINE
  5
1C4
330
1F
100
AcDbEntity
  8
0
  6
Continuous
 62
     7
370
    18
100
AcDbLine
 10
225.349864889
 20
122.694814236
 30
0.0
 11
227.9583918633
 21
122.694814236
 31
0.0
  0
SPLINE
  5
1C5
330
1F
100
AcDbEntity
  8
0
  6
Continuous
 62
     7
370
    18
100
AcDbSpline
210
0.0
220
0.0
230
1.0
 70
     8
 71
     3
 72
    11
 73
     7
 74
     0
 42
0.000000001
 43
0.00000001
 40
0.0
 40
0.0
 40
0.0
 40
0.0
 40
0.2274736611129913
 40
0.5494925387673767
 40
0.8007169048877155
 40
1.0
 40
1.0
 40
1.0
 40
1.0
 10
225.2837940274764
 20
123.0522254464985
 30
0.0
 10
225.2859599597738
 20
123.0245667659419
 30
0.0
 10
225.2911920540352
 20
122.9577535862373
 30
0.0
 10
225.3020364836679
 20
122.8609650110292
 30
0.0
 10
225.316738542938
 20
122.7671270243265
 30
0.0
 10
225.3397054296122
 20
122.7169917147682
 30
0.0
 10
225.3498648890116
 20
122.6948142359849
 30
0.0
  0
SPLINE
  5
1C6
330
1F
100
AcDbEntity
  8
0
  6
Continuous
 62
     7
370
    18
100
AcDbSpline
210
0.0
220
0.0
230
1.0
 70
     8
 71
     3
 72
    13
 73
     9
 74
     0
 42
0.000000001
 43
0.00000001
 40
0.0
 40
0.0
 40
0.0
 40
0.0
 40
0.1455849753971007
 40
0.2684075940997122
 40
0.3810001390981586
 40
0.493537950679132
 40
0.7360826269615509
 40
1.0
 40
1.0
 40
1.0
 40
1.0
 10
224.9564922008281
 20
123.510025352587
 30
0.0
 10
224.9874928461192
 20
123.5083732330225
 30
0.0
 10
225.0446471547657
 20
123.5053273044419
 30
0.0
 10
225.1211106057303
 20
123.4746938720547
 30
0.0
 10
225.1788600468172
 20
123.427047368385
 30
0.0
 10
225.2346071415431
 20
123.3436954704844
 30
0.0
 10
225.270487679295
 20
123.2149524579355
 30
0.0
 10
225.2792355250621
 20
123.1079726330593
 30
0.0
 10
225.2837940274764
 20
123.0522254464985
 30
0.0
  0
LINE
  5
1C7
330
1F
100
AcDbEntity
  8
0
  6
Continuous
 62
     7
370
    18
100
AcDbLine
 10
224.5125639245
 20
123.5100253526
 30
0.0
 11
224.9564922008
 21
123.5100253526
 31
0.0
  0
LINE
  5
1C8
330
1F
100
AcDbEntity
  8
0
  6
Continuous
 62
     7
370
    18
100
AcDbLine
 10
224.5125639245
 20
122.694814236
 30
0.0
 11
224.5125639245
 21
123.5100253526
 31
0.0
  0
LINE
  5
1C9
330
1F
100
AcDbEntity
  8
0
  6
Continuous
 62
     7
370
    18
100
AcDbLine
 10
223.927051425
 20
122.694814236
 30
0.0
 11
224.5125639245
 21
122.694814236
 31
0.0
  0
LINE
  5
1CA
330
1F
100
AcDbEntity
  8
0
  6
Continuous
 62
     7
370
    18
100
AcDbLine
 10
223.927051425
 20
124.9311629842
 30
0.0
 11
223.927051425
 21
122.694814236
 31
0.0
  0
LINE
  5
1CB
330
1F
100
AcDbEntity
  8
0
  6
Continuous
 62
     7
370
    18
100
AcDbLine
 10
225.0729058416
 20
124.9311629842
 30
0.0
 11
223.927051425
 21
124.9311629842
 31
0.0
  0
SPLINE
  5
1CC
330
1F
100
AcDbEntity
  8
0
  6
Continuous
 62
     7
370
    18
100
AcDbSpline
210
0.0
220
0.0
230
1.0
 70
     8
 71
     3
 72
    12
 73
     8
 74
     0
 42
0.000000001
 43
0.00000001
 40
0.0
 40
0.0
 40
0.0
 40
0.0
 40
0.2016496499629001
 40
0.3794039236986337
 40
0.5547793395586186
 40
0.7718110801448013
 40
1.0
 40
1.0
 40
1.0
 40
1.0
 10
225.8598679621738
 20
124.3010333651822
 30
0.0
 10
225.853372724855
 20
124.3777721445682
 30
0.0
 10
225.8411519323839
 20
124.5221561988141
 30
0.0
 10
225.7258404462375
 20
124.7057301450233
 30
0.0
 10
225.551754800449
 20
124.8368033138103
 30
0.0
 10
225.3273323748842
 20
124.9171529806907
 30
0.0
 10
225.1591198152463
 20
124.9264156095561
 30
0.0
 10
225.0729058415916
 20
124.9311629842033
 30
0.0
  0
SPLINE
  5
1CD
330
1F
100
AcDbEntity
  8
0
  6
Continuous
 62
     7
370
    18
100
AcDbSpline
210
0.0
220
0.0
230
1.0
 70
     8
 71
     3
 72
    11
 73
     7
 74
     0
 42
0.000000001
 43
0.00000001
 40
0.0
 40
0.0
 40
0.0
 40
0.0
 40
0.2852648350196977
 40
0.5586037747029562
 40
0.7765581993729925
 40
1.0
 40
1.0
 40
1.0
 40
1.0
 10
225.5072612484257
 20
123.7398464685449
 30
0.0
 10
225.5675531451664
 20
123.770828797673
 30
0.0
 10
225.6856163515935
 20
123.8314981963349
 30
0.0
 10
225.7931063349121
 20
123.9856861388818
 30
0.0
 10
225.8504725096564
 20
124.1446991561961
 30
0.0
 10
225.8567102955748
 20
124.2484918501164
 30
0.0
 10
225.8598679621738
 20
124.3010333651822
 30
0.0
  0
LINE
  5
1CE
330
1F
100
AcDbEntity
  8
0
  6
Continuous
 62
     7
370
    18
100
AcDbLine
 10
225.5072612484
 20
123.7335608863
 30
0.0
 11
225.5072612484
 21
123.7398464685
 31
0.0
  0
SPLINE
  5
1CF
330
1F
100
AcDbEntity
  8
0
  6
Continuous
 62
     7
370
    18
100
AcDbSpline
210
0.0
220
0.0
230
1.0
 70
     8
 71
     3
 72
    11
 73
     7
 74
     0
 42
0.000000001
 43
0.00000001
 40
0.0
 40
0.0
 40
0.0
 40
0.0
 40
0.2808304286447835
 40
0.5635450978390057
 40
0.7771991270060368
 40
0.9999999999999999
 40
0.9999999999999999
 40
0.9999999999999999
 40
0.9999999999999999
 10
225.8347256332352
 20
123.1974079465136
 30
0.0
 10
225.8270057383055
 20
123.2598714285375
 30
0.0
 10
225.8115141515694
 20
123.3852174932728
 30
0.0
 10
225.7502281463541
 20
123.5494065039829
 30
0.0
 10
225.6479119427066
 20
123.6811063599264
 30
0.0
 10
225.554795299175
 20
123.7158334507578
 30
0.0
 10
225.5072612484257
 20
123.7335608863199
 30
0.0
  0
SPLINE
  5
1D0
330
1F
100
AcDbEntity
  8
0
  6
Continuous
 62
     7
370
    18
100
AcDbSpline
210
0.0
220
0.0
230
1.0
 70
     8
 71
     3
 72
    11
 73
     7
 74
     0
 42
0.000000001
 43
0.00000001
 40
0.0
 40
0.0
 40
0.0
 40
0.0
 40
0.3074360073852279
 40
0.6261968550908539
 40
0.8442166228014
 40
0.9999999999999999
 40
0.9999999999999999
 40
0.9999999999999999
 40
0.9999999999999999
 10
225.8929083503055
 20
122.7972875142172
 30
0.0
 10
225.8830675877486
 20
122.8376340367075
 30
0.0
 10
225.8630235642225
 20
122.9198133029301
 30
0.0
 10
225.8495951033592
 20
123.033156955472
 30
0.0
 10
225.8408005451985
 20
123.1261867939897
 30
0.0
 10
225.8365126316997
 20
123.1764575046028
 30
0.0
 10
225.8347256332352
 20
123.1974079465136
 30
0.0
  0
LINE
  5
1D1
330
1F
100
AcDbEntity
  8
0
  6
Continuous
 62
     7
370
    18
100
AcDbLine
 10
225.8942219211
 20
124.9311629842
 30
0.0
 11
225.8929083503
 21
122.7972875142
 31
0.0
  0
SPLINE
  5
1D2
330
1F
100
AcDbEntity
  8
0
  6
Continuous
 62
     7
370
    18
100
AcDbSpline
210
0.0
220
0.0
230
1.0
 70
     8
 71
     3
 72
    12
 73
     8
 74
     0
 42
0.000000001
 43
0.00000001
 40
0.0
 40
0.0
 40
0.0
 40
0.0
 40
0.2554031448979543
 40
0.5239992272002586
 40
0.6685053607654261
 40
0.822947353711822
 40
1.0
 40
1.0
 40
1.0
 40
1.0
 10
230.3171766202423
 20
123.2480899687751
 30
0.0
 10
230.3433070220806
 20
123.2502748196148
 30
0.0
 10
230.3969176006629
 20
123.2547573805167
 30
0.0
 10
230.4599223505641
 20
123.2874383253007
 30
0.0
 10
230.4990436668528
 20
123.3309196885494
 30
0.0
 10
230.5200725256968
 20
123.3759737261634
 30
0.0
 10
230.5223885088939
 20
123.4099965549889
 30
0.0
 10
230.5236254850174
 20
123.4281682873935
 30
0.0
  0
LINE
  5
1D3
330
1F
100
AcDbEntity
  8
0
  6
Continuous
 62
     7
370
    18
100
AcDbLine
 10
229.9259894362
 20
123.2480899688
 30
0.0
 11
230.3171766202
 21
123.2480899688
 31
0.0
  0
LINE
  5
1D4
330
1F
100
AcDbEntity
  8
0
  6
Continuous
 62
     7
370
    18
100
AcDbLine
 10
229.9259894362
 20
123.6109197847
 30
0.0
 11
229.9259894362
 21
123.2480899688
 31
0.0
  0
LINE
  5
1D5
330
1F
100
AcDbEntity
  8
0
  6
Continuous
 62
     7
370
    18
100
AcDbLine
 10
230.3171766202
 20
123.6109197847
 30
0.0
 11
229.9259894362
 21
123.6109197847
 31
0.0
  0
SPLINE
  5
1D6
330
1F
100
AcDbEntity
  8
0
  6
Continuous
 62
     7
370
    18
100
AcDbSpline
210
0.0
220
0.0
230
1.0
 70
     8
 71
     3
 72
    12
 73
     8
 74
     0
 42
0.000000001
 43
0.00000001
 40
0.0
 40
0.0
 40
0.0
 40
0.0
 40
0.2191709004622778
 40
0.4020322727962852
 40
0.5732124609680136
 40
0.7805893411712348
 40
1.0
 40
1.0
 40
1.0
 40
1.0
 10
230.5236254850174
 20
123.4281682873935
 30
0.0
 10
230.5220777983706
 20
123.4511496426557
 30
0.0
 10
230.5192388266874
 20
123.4933050860495
 30
0.0
 10
230.4900624408932
 20
123.5475620058715
 30
0.0
 10
230.4442530358359
 20
123.5855334189581
 30
0.0
 10
230.3845857932138
 20
123.6074670247753
 30
0.0
 10
230.3400647853622
 20
123.609747431778
 30
0.0
 10
230.3171766202423
 20
123.6109197846635
 30
0.0
  0
SPLINE
  5
1D7
330
1F
100
AcDbEntity
  8
0
  6
Continuous
 62
     7
370
    18
100
AcDbSpline
210
0.0
220
0.0
230
1.0
 70
     8
 71
     3
 72
    12
 73
     8
 74
     0
 42
0.000000001
 43
0.00000001
 40
0.0
 40
0.0
 40
0.0
 40
0.0
 40
0.2631780919768604
 40
0.5362228315034394
 40
0.6796343489711612
 40
0.8298665817545476
 40
1.0
 40
1.0
 40
1.0
 40
1.0
 10
230.2561269996876
 20
124.0494655796539
 30
0.0
 10
230.2779498275238
 20
124.0511581589035
 30
0.0
 10
230.3224136293768
 20
124.0546067728476
 30
0.0
 10
230.3750672061996
 20
124.0797057484074
 30
0.0
 10
230.4081111450961
 20
124.113644430592
 30
0.0
 10
230.4258882718412
 20
124.1487860196132
 30
0.0
 10
230.4278607556157
 20
124.1754726799121
 30
0.0
 10
230.4289082630681
 20
124.1896449006968
 30
0.0
  0
LINE
  5
1D8
330
1F
100
AcDbEntity
  8
0
  6
Continuous
 62
     7
370
    18
100
AcDbLine
 10
229.9286987389
 20
124.0494655797
 30
0.0
 11
230.2561269997
 21
124.0494655797
 31
0.0
  0
LINE
  5
1D9
330
1F
100
AcDbEntity
  8
0
  6
Continuous
 62
     7
370
    18
100
AcDbLine
 10
229.9286987389
 20
124.3318832918
 30
0.0
 11
229.9286987389
 21
124.0494655797
 31
0.0
  0
LINE
  5
1DA
330
1F
100
AcDbEntity
  8
0
  6
Continuous
 62
     7
370
    18
100
AcDbLine
 10
230.2561269997
 20
124.3318832918
 30
0.0
 11
229.9286987389
 21
124.3318832918
 31
0.0
  0
SPLINE
  5
1DB
330
1F
100
AcDbEntity
  8
0
  6
Continuous
 62
     7
370
    18
100
AcDbSpline
210
0.0
220
0.0
230
1.0
 70
     8
 71
     3
 72
    12
 73
     8
 74
     0
 42
0.000000001
 43
0.00000001
 40
0.0
 40
0.0
 40
0.0
 40
0.0
 40
0.2108655154368313
 40
0.3895958229608272
 40
0.5613353297982684
 40
0.7736399301224668
 40
1.0
 40
1.0
 40
1.0
 40
1.0
 10
230.4289082630681
 20
124.1896449006968
 30
0.0
 10
230.4275919328582
 20
124.2075858214625
 30
0.0
 10
230.4251598768135
 20
124.2407335259408
 30
0.0
 10
230.4003846862336
 20
124.2830500552287
 30
0.0
 10
230.3619974913849
 20
124.312346107057
 30
0.0
 10
230.312323040795
 20
124.3292102137939
 30
0.0
 10
230.2752549193352
 20
124.3309734337215
 30
0.0
 10
230.2561269996876
 20
124.331883291782
 30
0.0
  0
LINE
  5
1DC
330
1F
100
AcDbEntity
  8
0
  6
Continuous
 62
     7
370
    18
100
AcDbLine
 10
228.2050403692
 20
123.5872224172
 30
0.0
 11
228.5158154495
 21
123.5872224172
 31
0.0
  0
LINE
  5
1DD
330
1F
100
AcDbEntity
  8
0
  6
Continuous
 62
     7
370
    18
100
AcDbLine
 10
228.363046902
 20
124.075005273
 30
0.0
 11
228.2050403692
 21
123.5872224172
 31
0.0
  0
LINE
  5
1DE
330
1F
100
AcDbEntity
  8
0
  6
Continuous
 62
     7
370
    18
100
AcDbLine
 10
228.5158154495
 20
123.5872224172
 30
0.0
 11
228.363046902
 21
124.075005273
 31
0.0
  0
SPLINE
  5
1DF
330
1F
100
AcDbEntity
  8
0
  6
Continuous
 62
     7
370
    18
100
AcDbSpline
210
0.0
220
0.0
230
1.0
 70
     8
 71
     3
 72
    11
 73
     7
 74
     0
 42
0.000000001
 43
0.00000001
 40
0.0
 40
0.0
 40
0.0
 40
0.0
 40
0.2800359244938599
 40
0.5600382743760555
 40
0.7801217300908261
 40
1.0
 40
1.0
 40
1.0
 40
1.0
 10
234.0448185657411
 20
119.8536299320076
 30
0.0
 10
234.1036654659477
 20
119.8908871744935
 30
0.0
 10
234.221352210974
 20
119.9653971925476
 30
0.0
 10
234.3605614928924
 20
120.1011196449024
 30
0.0
 10
234.4750260456756
 20
120.2395599814376
 30
0.0
 10
234.5228882070015
 20
120.3380730029531
 30
0.0
 10
234.5468081268799
 20
120.3873065418561
 30
0.0
  0
LINE
  5
1E0
330
1F
100
AcDbEntity
  8
0
  6
Continuous
 62
     7
370
    18
100
AcDbLine
 10
234.0448185657
 20
119.6134754576
 30
0.0
 11
234.0448185657
 21
119.853629932
 31
0.0
  0
SPLINE
  5
1E1
330
1F
100
AcDbEntity
  8
0
  6
Continuous
 62
     7
370
    18
100
AcDbSpline
210
0.0
220
0.0
230
1.0
 70
     8
 71
     3
 72
     9
 73
     5
 74
     0
 42
0.000000001
 43
0.00000001
 40
0.0
 40
0.0
 40
0.0
 40
0.0
 40
0.559755234166821
 40
1.0
 40
1.0
 40
1.0
 40
1.0
 10
234.4717598536199
 20
119.9336814234849
 30
0.0
 10
234.4002454303321
 20
119.8628097354929
 30
0.0
 10
234.2724852613821
 20
119.736197810019
 30
0.0
 10
234.1144102584091
 20
119.6509884377272
 30
0.0
 10
234.0448185657411
 20
119.6134754575758
 30
0.0
  0
LINE
  5
1E2
330
1F
100
AcDbEntity
  8
0
  6
Continuous
 62
     7
370
    18
100
AcDbLine
 10
234.4717598536
 20
118.3059677634
 30
0.0
 11
234.4717598536
 21
119.9336814235
 31
0.0
  0
LINE
  5
1E3
330
1F
100
AcDbEntity
  8
0
  6
Continuous
 62
     7
370
    18
100
AcDbLine
 10
234.6852304976
 20
118.3059677634
 30
0.0
 11
234.4717598536
 21
118.3059677634
 31
0.0
  0
LINE
  5
1E4
330
1F
100
AcDbEntity
  8
0
  6
Continuous
 62
     7
370
    18
100
AcDbLine
 10
234.6852304976
 20
120.3873065419
 30
0.0
 11
234.6852304976
 21
118.3059677634
 31
0.0
  0
LINE
  5
1E5
330
1F
100
AcDbEntity
  8
0
  6
Continuous
 62
     7
370
    18
100
AcDbLine
 10
234.5468081269
 20
120.3873065419
 30
0.0
 11
234.6852304976
 21
120.3873065419
 31
0.0
  0
SPLINE
  5
1E6
330
1F
100
AcDbEntity
  8
0
  6
Continuous
 62
     7
370
    18
100
AcDbSpline
210
0.0
220
0.0
230
1.0
 70
     8
 71
     3
 72
    10
 73
     6
 74
     0
 42
0.000000001
 43
0.00000001
 40
0.0
 40
0.0
 40
0.0
 40
0.0
 40
0.2795751783825428
 40
0.5597049368157178
 40
1.0
 40
1.0
 40
1.0
 40
1.0
 10
233.5303209590591
 20
120.1705004191051
 30
0.0
 10
233.5661994999645
 20
120.0979972716381
 30
0.0
 10
233.6380277523392
 20
119.9528471556416
 30
0.0
 10
233.687625875643
 20
119.6663254956557
 30
0.0
 10
233.6940205798698
 20
119.4591058141679
 30
0.0
 10
233.6979287693396
 20
119.3324613677024
 30
0.0
  0
SPLINE
  5
1E7
330
1F
100
AcDbEntity
  8
0
  6
Continuous
 62
     7
370
    18
100
AcDbSpline
210
0.0
220
0.0
230
1.0
 70
     8
 71
     3
 72
    11
 73
     7
 74
     0
 42
0.000000001
 43
0.00000001
 40
0.0
 40
0.0
 40
0.0
 40
0.0
 40
0.2798903849624076
 40
0.5594964420644627
 40
0.7796718965173894
 40
1.0
 40
1.0
 40
1.0
 40
1.0
 10
233.1521610487992
 20
120.3873065418561
 30
0.0
 10
233.1949179905197
 20
120.3844540235842
 30
0.0
 10
233.2803884391362
 20
120.3787518847834
 30
0.0
 10
233.3891586942391
 20
120.325126802854
 30
0.0
 10
233.4726790197519
 20
120.2530874347691
 30
0.0
 10
233.5111025409503
 20
120.1980357833982
 30
0.0
 10
233.5303209590591
 20
120.1705004191051
 30
0.0
  0
SPLINE
  5
1E8
330
1F
100
AcDbEntity
  8
0
  6
Continuous
 62
     7
370
    18
100
AcDbSpline
210
0.0
220
0.0
230
1.0
 70
     8
 71
     3
 72
    13
 73
     9
 74
     0
 42
0.000000001
 43
0.00000001
 40
0.0
 40
0.0
 40
0.0
 40
0.0
 40
0.2504890583456496
 40
0.5006738274425614
 40
0.6258446378555209
 40
0.7507584155659035
 40
0.8753007099299315
 40
1.0
 40
1.0
 40
1.0
 40
1.0
 10
232.6038917191502
 20
119.3324613677024
 30
0.0
 10
232.6066103337653
 20
119.4427015650602
 30
0.0
 10
232.6120442604752
 20
119.6630480421225
 30
0.0
 10
232.6620976325168
 20
119.9364754776699
 30
0.0
 10
232.747033157894
 20
120.140933011955
 30
0.0
 10
232.8440212335831
 20
120.2764456330341
 30
0.0
 10
232.9859768966667
 20
120.3725449151225
 30
0.0
 10
233.0967430744489
 20
120.3823839337662
 30
0.0
 10
233.1521610487992
 20
120.3873065418561
 30
0.0
  0
SPLINE
  5
1E9
330
1F
100
AcDbEntity
  8
0
  6
Continuous
 62
     7
370
    18
100
AcDbSpline
210
0.0
220
0.0
230
1.0
 70
     8
 71
     3
 72
    13
 73
     9
 74
     0
 42
0.000000001
 43
0.00000001
 40
0.0
 40
0.0
 40
0.0
 40
0.0
 40
0.124587075353485
 40
0.2492227148385394
 40
0.374219239612092
 40
0.499299813320963
 40
0.7494812006579985
 40
0.9999999999999999
 40
0.9999999999999999
 40
0.9999999999999999
 40
0.9999999999999999
 10
233.1496594396906
 20
118.2792839329546
 30
0.0
 10
233.0943957964018
 20
118.2849206292316
 30
0.0
 10
232.9838469680163
 20
118.2961962189741
 30
0.0
 10
232.8450580117935
 20
118.3948292318104
 30
0.0
 10
232.7420189031104
 20
118.5248335683703
 30
0.0
 10
232.655995017942
 20
118.7291795194239
 30
0.0
 10
232.6108241313228
 20
119.0026816986097
 30
0.0
 10
232.6062035611115
 20
119.2224854375331
 30
0.0
 10
232.6038917191502
 20
119.3324613677024
 30
0.0
  0
SPLINE
  5
1EA
330
1F
100
AcDbEntity
  8
0
  6
Continuous
 62
     7
370
    18
100
AcDbSpline
210
0.0
220
0.0
230
1.0
 70
     8
 71
     3
 72
    13
 73
     9
 74
     0
 42
0.000000001
 43
0.00000001
 40
0.0
 40
0.0
 40
0.0
 40
0.0
 40
0.2504702058475058
 40
0.500649499415922
 40
0.6258027062132793
 40
0.750741095826351
 40
0.8752785399750074
 40
1.0
 40
1.0
 40
1.0
 40
1.0
 10
233.6979287693396
 20
119.3324613677024
 30
0.0
 10
233.6952152740845
 20
119.2223289121509
 30
0.0
 10
233.689791435203
 20
119.0021919159969
 30
0.0
 10
233.6390215774789
 20
118.729261315761
 30
0.0
 10
233.5546698300433
 20
118.5248372033097
 30
0.0
 10
233.4577870700868
 20
118.3893823745773
 30
0.0
 10
233.315710453218
 20
118.2937041097755
 30
0.0
 10
233.2050370124948
 20
118.2840930236959
 30
0.0
 10
233.1496594396906
 20
118.2792839329546
 30
0.0
  0
LINE
  5
1EB
330
1F
100
AcDbEntity
  8
0
  6
Continuous
 62
     7
370
    18
100
AcDbLine
 10
232.2570019227
 20
119.2399018307
 30
0.0
 11
231.456487008
 21
119.2399018307
 31
0.0
  0
LINE
  5
1EC
330
1F
100
AcDbEntity
  8
0
  6
Continuous
 62
     7
370
    18
100
AcDbLine
 10
232.2570019227
 20
119.4800563051
 30
0.0
 11
232.2570019227
 21
119.2399018307
 31
0.0
  0
LINE
  5
1ED
330
1F
100
AcDbEntity
  8
0
  6
Continuous
 62
     7
370
    18
100
AcDbLine
 10
231.456487008
 20
119.4800563051
 30
0.0
 11
232.2570019227
 21
119.4800563051
 31
0.0
  0
LINE
  5
1EE
330
1F
100
AcDbEntity
  8
0
  6
Continuous
 62
     7
370
    18
100
AcDbLine
 10
231.456487008
 20
120.1204682369
 30
0.0
 11
231.456487008
 21
119.4800563051
 31
0.0
  0
LINE
  5
1EF
330
1F
100
AcDbEntity
  8
0
  6
Continuous
 62
     7
370
    18
100
AcDbLine
 10
232.3904210752
 20
120.1204682369
 30
0.0
 11
231.456487008
 21
120.1204682369
 31
0.0
  0
LINE
  5
1F0
330
1F
100
AcDbEntity
  8
0
  6
Continuous
 62
     7
370
    18
100
AcDbLine
 10
232.3904210752
 20
120.3606227114
 30
0.0
 11
232.3904210752
 21
120.1204682369
 31
0.0
  0
LINE
  5
1F1
330
1F
100
AcDbEntity
  8
0
  6
Continuous
 62
     7
370
    18
100
AcDbLine
 10
231.243016364
 20
120.3606227114
 30
0.0
 11
232.3904210752
 21
120.3606227114
 31
0.0
  0
LINE
  5
1F2
330
1F
100
AcDbEntity
  8
0
  6
Continuous
 62
     7
370
    18
100
AcDbLine
 10
231.243016364
 20
118.3059677634
 30
0.0
 11
231.243016364
 21
120.3606227114
 31
0.0
  0
LINE
  5
1F3
330
1F
100
AcDbEntity
  8
0
  6
Continuous
 62
     7
370
    18
100
AcDbLine
 10
231.456487008
 20
118.3059677634
 30
0.0
 11
231.243016364
 21
118.3059677634
 31
0.0
  0
LINE
  5
1F4
330
1F
100
AcDbEntity
  8
0
  6
Continuous
 62
     7
370
    18
100
AcDbLine
 10
231.456487008
 20
119.2399018307
 30
0.0
 11
231.456487008
 21
118.3059677634
 31
0.0
  0
LINE
  5
1F5
330
1F
100
AcDbEntity
  8
0
  6
Continuous
 62
     7
370
    18
100
AcDbLine
 10
230.3624499578
 20
119.1598503392
 30
0.0
 11
231.0028618896
 21
119.1598503392
 31
0.0
  0
LINE
  5
1F6
330
1F
100
AcDbEntity
  8
0
  6
Continuous
 62
     7
370
    18
100
AcDbLine
 10
230.3624499578
 20
118.9196958648
 30
0.0
 11
230.3624499578
 21
119.1598503392
 31
0.0
  0
LINE
  5
1F7
330
1F
100
AcDbEntity
  8
0
  6
Continuous
 62
     7
370
    18
100
AcDbLine
 10
231.0028618896
 20
118.9196958648
 30
0.0
 11
230.3624499578
 21
118.9196958648
 31
0.0
  0
LINE
  5
1F8
330
1F
100
AcDbEntity
  8
0
  6
Continuous
 62
     7
370
    18
100
AcDbLine
 10
231.0028618896
 20
119.1598503392
 30
0.0
 11
231.0028618896
 21
118.9196958648
 31
0.0
  0
SPLINE
  5
1F9
330
1F
100
AcDbEntity
  8
0
  6
Continuous
 62
     7
370
    18
100
AcDbSpline
210
0.0
220
0.0
230
1.0
 70
     8
 71
     3
 72
    10
 73
     6
 74
     0
 42
0.000000001
 43
0.00000001
 40
0.0
 40
0.0
 40
0.0
 40
0.0
 40
0.2795751783825436
 40
0.5597049368157176
 40
1.0
 40
1.0
 40
1.0
 40
1.0
 10
230.0080553340591
 20
120.1705004191051
 30
0.0
 10
230.0439338749646
 20
120.0979972716381
 30
0.0
 10
230.1157621273392
 20
119.9528471556416
 30
0.0
 10
230.165360250643
 20
119.6663254956557
 30
0.0
 10
230.1717549548698
 20
119.4591058141679
 30
0.0
 10
230.1756631443396
 20
119.3324613677024
 30
0.0
  0
SPLINE
  5
1FA
330
1F
100
AcDbEntity
  8
0
  6
Continuous
 62
     7
370
    18
100
AcDbSpline
210
0.0
220
0.0
230
1.0
 70
     8
 71
     3
 72
    11
 73
     7
 74
     0
 42
0.000000001
 43
0.00000001
 40
0.0
 40
0.0
 40
0.0
 40
0.0
 40
0.2798903849624053
 40
0.5594964420644598
 40
0.7796718965173827
 40
1.0
 40
1.0
 40
1.0
 40
1.0
 10
229.6298954237992
 20
120.3873065418561
 30
0.0
 10
229.6726523655197
 20
120.3844540235842
 30
0.0
 10
229.7581228141362
 20
120.3787518847834
 30
0.0
 10
229.8668930692392
 20
120.325126802854
 30
0.0
 10
229.9504133947519
 20
120.2530874347691
 30
0.0
 10
229.9888369159503
 20
120.1980357833982
 30
0.0
 10
230.0080553340591
 20
120.1705004191051
 30
0.0
  0
SPLINE
  5
1FB
330
1F
100
AcDbEntity
  8
0
  6
Continuous
 62
     7
370
    18
100
AcDbSpline
210
0.0
220
0.0
230
1.0
 70
     8
 71
     3
 72
    13
 73
     9
 74
     0
 42
0.000000001
 43
0.00000001
 40
0.0
 40
0.0
 40
0.0
 40
0.0
 40
0.2504890583456495
 40
0.5006738274425613
 40
0.625844637855521
 40
0.7507584155659035
 40
0.8753007099299315
 40
1.0
 40
1.0
 40
1.0
 40
1.0
 10
229.0816260941502
 20
119.3324613677024
 30
0.0
 10
229.0843447087653
 20
119.4427015650602
 30
0.0
 10
229.0897786354752
 20
119.6630480421225
 30
0.0
 10
229.1398320075168
 20
119.9364754776699
 30
0.0
 10
229.224767532894
 20
120.140933011955
 30
0.0
 10
229.3217556085831
 20
120.2764456330341
 30
0.0
 10
229.4637112716667
 20
120.3725449151225
 30
0.0
 10
229.5744774494489
 20
120.3823839337662
 30
0.0
 10
229.6298954237992
 20
120.3873065418561
 30
0.0
  0
SPLINE
  5
1FC
330
1F
100
AcDbEntity
  8
0
  6
Continuous
 62
     7
370
    18
100
AcDbSpline
210
0.0
220
0.0
230
1.0
 70
     8
 71
     3
 72
    13
 73
     9
 74
     0
 42
0.000000001
 43
0.00000001
 40
0.0
 40
0.0
 40
0.0
 40
0.0
 40
0.1245870753534837
 40
0.249222714838541
 40
0.374219239612092
 40
0.4992998133209632
 40
0.749481200657996
 40
1.0
 40
1.0
 40
1.0
 40
1.0
 10
229.6273938146906
 20
118.2792839329546
 30
0.0
 10
229.5721301714018
 20
118.2849206292316
 30
0.0
 10
229.4615813430163
 20
118.296196218974
 30
0.0
 10
229.3227923867935
 20
118.3948292318104
 30
0.0
 10
229.2197532781104
 20
118.5248335683703
 30
0.0
 10
229.133729392942
 20
118.7291795194239
 30
0.0
 10
229.0885585063228
 20
119.0026816986097
 30
0.0
 10
229.0839379361115
 20
119.2224854375331
 30
0.0
 10
229.0816260941502
 20
119.3324613677024
 30
0.0
  0
SPLINE
  5
1FD
330
1F
100
AcDbEntity
  8
0
  6
Continuous
 62
     7
370
    18
100
AcDbSpline
210
0.0
220
0.0
230
1.0
 70
     8
 71
     3
 72
    13
 73
     9
 74
     0
 42
0.000000001
 43
0.00000001
 40
0.0
 40
0.0
 40
0.0
 40
0.0
 40
0.2504702058475061
 40
0.5006494994159223
 40
0.6258027062132787
 40
0.7507410958263512
 40
0.87527853997501
 40
1.0
 40
1.0
 40
1.0
 40
1.0
 10
230.1756631443396
 20
119.3324613677024
 30
0.0
 10
230.1729496490845
 20
119.2223289121509
 30
0.0
 10
230.167525810203
 20
119.0021919159969
 30
0.0
 10
230.1167559524789
 20
118.729261315761
 30
0.0
 10
230.0324042050433
 20
118.5248372033097
 30
0.0
 10
229.9355214450868
 20
118.3893823745773
 30
0.0
 10
229.793444828218
 20
118.2937041097755
 30
0.0
 10
229.6827713874948
 20
118.2840930236959
 30
0.0
 10
229.6273938146906
 20
118.2792839329546
 30
0.0
  0
SPLINE
  5
1FE
330
1F
100
AcDbEntity
  8
0
  6
Continuous
 62
     7
370
    18
100
AcDbSpline
210
0.0
220
0.0
230
1.0
 70
     8
 71
     3
 72
    10
 73
     6
 74
     0
 42
0.000000001
 43
0.00000001
 40
0.0
 40
0.0
 40
0.0
 40
0.0
 40
0.2795751783825443
 40
0.559704936815718
 40
1.0
 40
1.0
 40
1.0
 40
1.0
 10
228.7005476399303
 20
120.1705004191051
 30
0.0
 10
228.7364261808358
 20
120.0979972716381
 30
0.0
 10
228.8082544332104
 20
119.9528471556416
 30
0.0
 10
228.8578525565142
 20
119.6663254956557
 30
0.0
 10
228.864247260741
 20
119.4591058141679
 30
0.0
 10
228.8681554502108
 20
119.3324613677024
 30
0.0
  0
SPLINE
  5
1FF
330
1F
100
AcDbEntity
  8
0
  6
Continuous
 62
     7
370
    18
100
AcDbSpline
210
0.0
220
0.0
230
1.0
 70
     8
 71
     3
 72
    11
 73
     7
 74
     0
 42
0.000000001
 43
0.00000001
 40
0.0
 40
0.0
 40
0.0
 40
0.0
 40
0.2798903849624049
 40
0.5594964420644626
 40
0.7796718965173853
 40
1.0
 40
1.0
 40
1.0
 40
1.0
 10
228.3223877296705
 20
120.3873065418561
 30
0.0
 10
228.3651446713909
 20
120.3844540235842
 30
0.0
 10
228.4506151200074
 20
120.3787518847834
 30
0.0
 10
228.5593853751104
 20
120.325126802854
 30
0.0
 10
228.6429057006231
 20
120.2530874347691
 30
0.0
 10
228.6813292218216
 20
120.1980357833982
 30
0.0
 10
228.7005476399303
 20
120.1705004191051
 30
0.0
  0
SPLINE
  5
200
330
1F
100
AcDbEntity
  8
0
  6
Continuous
 62
     7
370
    18
100
AcDbSpline
210
0.0
220
0.0
230
1.0
 70
     8
 71
     3
 72
    13
 73
     9
 74
     0
 42
0.000000001
 43
0.00000001
 40
0.0
 40
0.0
 40
0.0
 40
0.0
 40
0.2504890583456471
 40
0.5006738274425618
 40
0.6258446378555218
 40
0.7507584155659044
 40
0.8753007099299313
 40
1.0
 40
1.0
 40
1.0
 40
1.0
 10
227.7741184000214
 20
119.3324613677024
 30
0.0
 10
227.7768370146365
 20
119.4427015650602
 30
0.0
 10
227.7822709413464
 20
119.6630480421225
 30
0.0
 10
227.832324313388
 20
119.9364754776699
 30
0.0
 10
227.9172598387652
 20
120.140933011955
 30
0.0
 10
228.0142479144543
 20
120.2764456330341
 30
0.0
 10
228.1562035775379
 20
120.3725449151225
 30
0.0
 10
228.2669697553201
 20
120.3823839337662
 30
0.0
 10
228.3223877296705
 20
120.3873065418561
 30
0.0
  0
SPLINE
  5
201
330
1F
100
AcDbEntity
  8
0
  6
Continuous
 62
     7
370
    18
100
AcDbSpline
210
0.0
220
0.0
230
1.0
 70
     8
 71
     3
 72
    13
 73
     9
 74
     0
 42
0.000000001
 43
0.00000001
 40
0.0
 40
0.0
 40
0.0
 40
0.0
 40
0.124587075353485
 40
0.24922271483854
 40
0.3742192396120917
 40
0.499299813320963
 40
0.7494812006579957
 40
1.0
 40
1.0
 40
1.0
 40
1.0
 10
228.3198861205618
 20
118.2792839329546
 30
0.0
 10
228.264622477273
 20
118.2849206292316
 30
0.0
 10
228.1540736488874
 20
118.2961962189741
 30
0.0
 10
228.0152846926647
 20
118.3948292318104
 30
0.0
 10
227.9122455839816
 20
118.5248335683703
 30
0.0
 10
227.8262216988132
 20
118.7291795194239
 30
0.0
 10
227.781050812194
 20
119.0026816986097
 30
0.0
 10
227.7764302419828
 20
119.2224854375331
 30
0.0
 10
227.7741184000214
 20
119.3324613677024
 30
0.0
  0
SPLINE
  5
202
330
1F
100
AcDbEntity
  8
0
  6
Continuous
 62
     7
370
    18
100
AcDbSpline
210
0.0
220
0.0
230
1.0
 70
     8
 71
     3
 72
    13
 73
     9
 74
     0
 42
0.000000001
 43
0.00000001
 40
0.0
 40
0.0
 40
0.0
 40
0.0
 40
0.2504702058475088
 40
0.5006494994159225
 40
0.6258027062132794
 40
0.7507410958263511
 40
0.8752785399750099
 40
1.0
 40
1.0
 40
1.0
 40
1.0
 10
228.8681554502108
 20
119.3324613677024
 30
0.0
 10
228.8654419549557
 20
119.2223289121509
 30
0.0
 10
228.8600181160742
 20
119.0021919159969
 30
0.0
 10
228.8092482583501
 20
118.729261315761
 30
0.0
 10
228.7248965109145
 20
118.5248372033097
 30
0.0
 10
228.628013750958
 20
118.3893823745773
 30
0.0
 10
228.4859371340892
 20
118.2937041097755
 30
0.0
 10
228.375263693366
 20
118.284093023696
 30
0.0
 10
228.3198861205618
 20
118.2792839329546
 30
0.0
  0
SPLINE
  5
203
330
1F
100
AcDbEntity
  8
0
  6
Continuous
 62
     7
370
    18
100
AcDbSpline
210
0.0
220
0.0
230
1.0
 70
     8
 71
     3
 72
    10
 73
     6
 74
     0
 42
0.000000001
 43
0.00000001
 40
0.0
 40
0.0
 40
0.0
 40
0.0
 40
0.2795751783825443
 40
0.559704936815718
 40
1.0
 40
1.0
 40
1.0
 40
1.0
 10
227.3930399458015
 20
120.1705004191051
 30
0.0
 10
227.4289184867069
 20
120.0979972716381
 30
0.0
 10
227.5007467390816
 20
119.9528471556416
 30
0.0
 10
227.5503448623854
 20
119.6663254956557
 30
0.0
 10
227.5567395666122
 20
119.4591058141679
 30
0.0
 10
227.560647756082
 20
119.3324613677024
 30
0.0
  0
SPLINE
  5
204
330
1F
100
AcDbEntity
  8
0
  6
Continuous
 62
     7
370
    18
100
AcDbSpline
210
0.0
220
0.0
230
1.0
 70
     8
 71
     3
 72
    11
 73
     7
 74
     0
 42
0.000000001
 43
0.00000001
 40
0.0
 40
0.0
 40
0.0
 40
0.0
 40
0.2798903849624025
 40
0.5594964420644615
 40
0.7796718965173902
 40
0.9999999999999999
 40
0.9999999999999999
 40
0.9999999999999999
 40
0.9999999999999999
 10
227.0148800355417
 20
120.3873065418561
 30
0.0
 10
227.0576369772622
 20
120.3844540235842
 30
0.0
 10
227.1431074258786
 20
120.3787518847834
 30
0.0
 10
227.2518776809816
 20
120.325126802854
 30
0.0
 10
227.3353980064943
 20
120.2530874347691
 30
0.0
 10
227.3738215276927
 20
120.1980357833982
 30
0.0
 10
227.3930399458015
 20
120.1705004191051
 30
0.0
  0
SPLINE
  5
205
330
1F
100
AcDbEntity
  8
0
  6
Continuous
 62
     7
370
    18
100
AcDbSpline
210
0.0
220
0.0
230
1.0
 70
     8
 71
     3
 72
    13
 73
     9
 74
     0
 42
0.000000001
 43
0.00000001
 40
0.0
 40
0.0
 40
0.0
 40
0.0
 40
0.2504890583456494
 40
0.5006738274425614
 40
0.6258446378555211
 40
0.7507584155659036
 40
0.8753007099299315
 40
1.0
 40
1.0
 40
1.0
 40
1.0
 10
226.4666107058926
 20
119.3324613677024
 30
0.0
 10
226.4693293205077
 20
119.4427015650602
 30
0.0
 10
226.4747632472176
 20
119.6630480421225
 30
0.0
 10
226.5248166192592
 20
119.9364754776699
 30
0.0
 10
226.6097521446365
 20
120.140933011955
 30
0.0
 10
226.7067402203255
 20
120.2764456330341
 30
0.0
 10
226.8486958834091
 20
120.3725449151225
 30
0.0
 10
226.9594620611913
 20
120.3823839337662
 30
0.0
 10
227.0148800355417
 20
120.3873065418561
 30
0.0
  0
SPLINE
  5
206
330
1F
100
AcDbEntity
  8
0
  6
Continuous
 62
     7
370
    18
100
AcDbSpline
210
0.0
220
0.0
230
1.0
 70
     8
 71
     3
 72
    13
 73
     9
 74
     0
 42
0.000000001
 43
0.00000001
 40
0.0
 40
0.0
 40
0.0
 40
0.0
 40
0.1245870753534838
 40
0.24922271483854
 40
0.3742192396120919
 40
0.4992998133209627
 40
0.7494812006579983
 40
1.0
 40
1.0
 40
1.0
 40
1.0
 10
227.012378426433
 20
118.2792839329546
 30
0.0
 10
226.9571147831442
 20
118.2849206292316
 30
0.0
 10
226.8465659547587
 20
118.2961962189741
 30
0.0
 10
226.7077769985359
 20
118.3948292318104
 30
0.0
 10
226.6047378898529
 20
118.5248335683704
 30
0.0
 10
226.5187140046844
 20
118.7291795194239
 30
0.0
 10
226.4735431180652
 20
119.0026816986097
 30
0.0
 10
226.4689225478539
 20
119.2224854375331
 30
0.0
 10
226.4666107058926
 20
119.3324613677024
 30
0.0
  0
SPLINE
  5
207
330
1F
100
AcDbEntity
  8
0
  6
Continuous
 62
     7
370
    18
100
AcDbSpline
210
0.0
220
0.0
230
1.0
 70
     8
 71
     3
 72
    13
 73
     9
 74
     0
 42
0.000000001
 43
0.00000001
 40
0.0
 40
0.0
 40
0.0
 40
0.0
 40
0.2504702058475062
 40
0.5006494994159251
 40
0.625802706213279
 40
0.7507410958263508
 40
0.8752785399750082
 40
1.0
 40
1.0
 40
1.0
 40
1.0
 10
227.560647756082
 20
119.3324613677024
 30
0.0
 10
227.5579342608269
 20
119.2223289121509
 30
0.0
 10
227.5525104219454
 20
119.0021919159969
 30
0.0
 10
227.5017405642213
 20
118.729261315761
 30
0.0
 10
227.4173888167857
 20
118.5248372033097
 30
0.0
 10
227.3205060568292
 20
118.3893823745773
 30
0.0
 10
227.1784294399604
 20
118.2937041097755
 30
0.0
 10
227.0677559992372
 20
118.2840930236959
 30
0.0
 10
227.012378426433
 20
118.2792839329546
 30
0.0
  0
SPLINE
  5
208
330
1F
100
AcDbEntity
  8
0
  6
Continuous
 62
     7
370
    18
100
AcDbSpline
210
0.0
220
0.0
230
1.0
 70
     8
 71
     3
 72
    11
 73
     7
 74
     0
 42
0.000000001
 43
0.00000001
 40
0.0
 40
0.0
 40
0.0
 40
0.0
 40
0.2800359244938581
 40
0.5600382743760554
 40
0.780121730090826
 40
1.0
 40
1.0
 40
1.0
 40
1.0
 10
225.292522164226
 20
119.8536299320076
 30
0.0
 10
225.3513690644326
 20
119.8908871744935
 30
0.0
 10
225.4690558094588
 20
119.9653971925476
 30
0.0
 10
225.6082650913772
 20
120.1011196449024
 30
0.0
 10
225.7227296441605
 20
120.2395599814376
 30
0.0
 10
225.7705918054864
 20
120.3380730029531
 30
0.0
 10
225.7945117253647
 20
120.3873065418561
 30
0.0
  0
LINE
  5
209
330
1F
100
AcDbEntity
  8
0
  6
Continuous
 62
     7
370
    18
100
AcDbLine
 10
225.2925221642
 20
119.6134754576
 30
0.0
 11
225.2925221642
 21
119.853629932
 31
0.0
  0
SPLINE
  5
20A
330
1F
100
AcDbEntity
  8
0
  6
Continuous
 62
     7
370
    18
100
AcDbSpline
210
0.0
220
0.0
230
1.0
 70
     8
 71
     3
 72
     9
 73
     5
 74
     0
 42
0.000000001
 43
0.00000001
 40
0.0
 40
0.0
 40
0.0
 40
0.0
 40
0.5597552341668174
 40
1.0
 40
1.0
 40
1.0
 40
1.0
 10
225.7194634521047
 20
119.9336814234849
 30
0.0
 10
225.647949028817
 20
119.8628097354929
 30
0.0
 10
225.520188859867
 20
119.736197810019
 30
0.0
 10
225.3621138568939
 20
119.6509884377272
 30
0.0
 10
225.292522164226
 20
119.6134754575758
 30
0.0
  0
LINE
  5
20B
330
1F
100
AcDbEntity
  8
0
  6
Continuous
 62
     7
370
    18
100
AcDbLine
 10
225.7194634521
 20
118.3059677634
 30
0.0
 11
225.7194634521
 21
119.9336814235
 31
0.0
  0
LINE
  5
20C
330
1F
100
AcDbEntity
  8
0
  6
Continuous
 62
     7
370
    18
100
AcDbLine
 10
225.932934096
 20
118.3059677634
 30
0.0
 11
225.7194634521
 21
118.3059677634
 31
0.0
  0
LINE
  5
20D
330
1F
100
AcDbEntity
  8
0
  6
Continuous
 62
     7
370
    18
100
AcDbLine
 10
225.932934096
 20
120.3873065419
 30
0.0
 11
225.932934096
 21
118.3059677634
 31
0.0
  0
LINE
  5
20E
330
1F
100
AcDbEntity
  8
0
  6
Continuous
 62
     7
370
    18
100
AcDbLine
 10
225.7945117254
 20
120.3873065419
 30
0.0
 11
225.932934096
 21
120.3873065419
 31
0.0
  0
LINE
  5
20F
330
1F
100
AcDbEntity
  8
0
  6
Continuous
 62
     7
370
    18
100
AcDbLine
 10
224.358588097
 20
119.1598503392
 30
0.0
 11
224.9990000288
 21
119.1598503392
 31
0.0
  0
LINE
  5
210
330
1F
100
AcDbEntity
  8
0
  6
Continuous
 62
     7
370
    18
100
AcDbLine
 10
224.358588097
 20
118.9196958648
 30
0.0
 11
224.358588097
 21
119.1598503392
 31
0.0
  0
LINE
  5
211
330
1F
100
AcDbEntity
  8
0
  6
Continuous
 62
     7
370
    18
100
AcDbLine
 10
224.9990000288
 20
118.9196958648
 30
0.0
 11
224.358588097
 21
118.9196958648
 31
0.0
  0
LINE
  5
212
330
1F
100
AcDbEntity
  8
0
  6
Continuous
 62
     7
370
    18
100
AcDbLine
 10
224.9990000288
 20
119.1598503392
 30
0.0
 11
224.9990000288
 21
118.9196958648
 31
0.0
  0
SPLINE
  5
213
330
1F
100
AcDbEntity
  8
0
  6
Continuous
 62
     7
370
    18
100
AcDbSpline
210
0.0
220
0.0
230
1.0
 70
     8
 71
     3
 72
    12
 73
     8
 74
     0
 42
0.000000001
 43
0.00000001
 40
0.0
 40
0.0
 40
0.0
 40
0.0
 40
0.187105759524008
 40
0.3740211604078919
 40
0.5608338669252976
 40
0.780358512659648
 40
0.9999999999999999
 40
0.9999999999999999
 40
0.9999999999999999
 40
0.9999999999999999
 10
224.1718012835441
 20
118.9026015358635
 30
0.0
 10
224.1688521752205
 20
118.8449079858548
 30
0.0
 10
224.1629569589525
 20
118.7295795824043
 30
0.0
 10
224.1034566338086
 20
118.5641572214137
 30
0.0
 10
223.993542410984
 20
118.4166615721145
 30
0.0
 10
223.8308493347291
 20
118.2994497749763
 30
0.0
 10
223.6943175951529
 20
118.2860070724537
 30
0.0
 10
223.6260335630038
 20
118.2792839329546
 30
0.0
  0
SPLINE
  5
214
330
1F
100
AcDbEntity
  8
0
  6
Continuous
 62
     7
370
    18
100
AcDbSpline
210
0.0
220
0.0
230
1.0
 70
     8
 71
     3
 72
    11
 73
     7
 74
     0
 42
0.000000001
 43
0.00000001
 40
0.0
 40
0.0
 40
0.0
 40
0.0
 40
0.2796220600248649
 40
0.5590245428560704
 40
0.7793847317261617
 40
1.0
 40
1.0
 40
1.0
 40
1.0
 10
223.8445074251605
 20
119.4333596017519
 30
0.0
 10
223.900773953775
 20
119.4055243158038
 30
0.0
 10
224.0132628269134
 20
119.3498756019612
 30
0.0
 10
224.1170325163108
 20
119.2034537003978
 30
0.0
 10
224.1649665628422
 20
119.0495772295677
 30
0.0
 10
224.1695221649239
 20
118.9516123228207
 30
0.0
 10
224.1718012835441
 20
118.9026015358635
 30
0.0
  0
SPLINE
  5
215
330
1F
100
AcDbEntity
  8
0
  6
Continuous
 62
     7
370
    18
100
AcDbSpline
210
0.0
220
0.0
230
1.0
 70
     8
 71
     3
 72
    11
 73
     7
 74
     0
 42
0.000000001
 43
0.00000001
 40
0.0
 40
0.0
 40
0.0
 40
0.0
 40
0.2801901752489531
 40
0.5597317672418775
 40
0.7798035967389116
 40
1.0
 40
1.0
 40
1.0
 40
1.0
 10
224.0917497920668
 20
119.8477928440874
 30
0.0
 10
224.0891057688158
 20
119.7997948499595
 30
0.0
 10
224.0838238426895
 20
119.7039099672957
 30
0.0
 10
224.0286917780462
 20
119.5792126097342
 30
0.0
 10
223.94431563013
 20
119.4869805278741
 30
0.0
 10
223.8777831019366
 20
119.4512366150358
 30
0.0
 10
223.8445074251605
 20
119.4333596017519
 30
0.0
  0
SPLINE
  5
216
330
1F
100
AcDbEntity
  8
0
  6
Continuous
 62
     7
370
    18
100
AcDbSpline
210
0.0
220
0.0
230
1.0
 70
     8
 71
     3
 72
    12
 73
     8
 74
     0
 42
0.000000001
 43
0.00000001
 40
0.0
 40
0.0
 40
0.0
 40
0.0
 40
0.186681894936982
 40
0.373093920797581
 40
0.5598445729636977
 40
0.7796788980924658
 40
1.0
 40
1.0
 40
1.0
 40
1.0
 10
223.6226980841922
 20
120.3873065418561
 30
0.0
 10
223.6726484055635
 20
120.3832710763158
 30
0.0
 10
223.7724768396587
 20
120.3752059789417
 30
0.0
 10
223.905107648916
 20
120.2980849282395
 30
0.0
 10
224.0112311807195
 20
120.1796815861661
 30
0.0
 10
224.0817201122977
 20
120.0240639091905
 30
0.0
 10
224.0884041014909
 20
119.9065931702095
 30
0.0
 10
224.0917497920668
 20
119.8477928440874
 30
0.0
  0
SPLINE
  5
217
330
1F
100
AcDbEntity
  8
0
  6
Continuous
 62
     7
370
    18
100
AcDbSpline
210
0.0
220
0.0
230
1.0
 70
     8
 71
     3
 72
    12
 73
     8
 74
     0
 42
0.000000001
 43
0.00000001
 40
0.0
 40
0.0
 40
0.0
 40
0.0
 40
0.1871377587295348
 40
0.3740411921344247
 40
0.5608494686677246
 40
0.7803659435040499
 40
1.0
 40
1.0
 40
1.0
 40
1.0
 10
223.157815724832
 20
119.8561315411163
 30
0.0
 10
223.1603648220674
 20
119.9053312949085
 30
0.0
 10
223.1654598246755
 20
120.0036691968161
 30
0.0
 10
223.2155935483578
 20
120.1448489306853
 30
0.0
 10
223.3086506843467
 20
120.2712867308864
 30
0.0
 10
223.448136769275
 20
120.3702837832969
 30
0.0
 10
223.5645005938275
 20
120.381631276247
 30
0.0
 10
223.6226980841922
 20
120.3873065418561
 30
0.0
  0
SPLINE
  5
218
330
1F
100
AcDbEntity
  8
0
  6
Continuous
 62
     7
370
    18
100
AcDbSpline
210
0.0
220
0.0
230
1.0
 70
     8
 71
     3
 72
    11
 73
     7
 74
     0
 42
0.000000001
 43
0.00000001
 40
0.0
 40
0.0
 40
0.0
 40
0.0
 40
0.2798399979573776
 40
0.5592260384591583
 40
0.7795665615265374
 40
1.0
 40
1.0
 40
1.0
 40
1.0
 10
223.4075597008471
 20
119.4333596017519
 30
0.0
 10
223.3646172381026
 20
119.4572171516285
 30
0.0
 10
223.278801974032
 20
119.5048935495781
 30
0.0
 10
223.1992253938519
 20
119.6201751661467
 30
0.0
 10
223.1625332611953
 20
119.7410281626236
 30
0.0
 10
223.1593884579285
 20
119.8177583566956
 30
0.0
 10
223.157815724832
 20
119.8561315411163
 30
0.0
  0
SPLINE
  5
219
330
1F
100
AcDbEntity
  8
0
  6
Continuous
 62
     7
370
    18
100
AcDbSpline
210
0.0
220
0.0
230
1.0
 70
     8
 71
     3
 72
    11
 73
     7
 74
     0
 42
0.000000001
 43
0.00000001
 40
0.0
 40
0.0
 40
0.0
 40
0.0
 40
0.2804755498465858
 40
0.5600957930369873
 40
0.7800256682201219
 40
1.0
 40
1.0
 40
1.0
 40
1.0
 10
223.0777642333547
 20
118.9096894283381
 30
0.0
 10
223.0810906263017
 20
118.9720758607594
 30
0.0
 10
223.0877332684022
 20
119.0966584789622
 30
0.0
 10
223.1589728932831
 20
119.2584921875561
 30
0.0
 10
223.2707645742165
 20
119.3779160387807
 30
0.0
 10
223.3619582533009
 20
119.414877169001
 30
0.0
 10
223.4075597008471
 20
119.4333596017519
 30
0.0
  0
SPLINE
  5
21A
330
1F
100
AcDbEntity
  8
0
  6
Continuous
 62
     7
370
    18
100
AcDbSpline
210
0.0
220
0.0
230
1.0
 70
     8
 71
     3
 72
    12
 73
     8
 74
     0
 42
0.000000001
 43
0.00000001
 40
0.0
 40
0.0
 40
0.0
 40
0.0
 40
0.18664824917918
 40
0.3730988090506984
 40
0.5597919176482347
 40
0.779654520329358
 40
1.0
 40
1.0
 40
1.0
 40
1.0
 10
223.6260335630038
 20
118.2792839329546
 30
0.0
 10
223.5676218754709
 20
118.2840443356499
 30
0.0
 10
223.4508603673989
 20
118.2935600990392
 30
0.0
 10
223.2954846946647
 20
118.3829819211928
 30
0.0
 10
223.1699470726254
 20
118.5205516226953
 30
0.0
 10
223.0894148692653
 20
118.7036032052957
 30
0.0
 10
223.0816506176024
 20
118.8409438030314
 30
0.0
 10
223.0777642333547
 20
118.9096894283381
 30
0.0
  0
SPLINE
  5
21B
330
1F
100
AcDbEntity
  8
0
  6
Continuous
 62
     7
370
    18
100
AcDbSpline
210
0.0
220
0.0
230
1.0
 70
     8
 71
     3
 72
    10
 73
     6
 74
     0
 42
0.000000001
 43
0.00000001
 40
0.0
 40
0.0
 40
0.0
 40
0.0
 40
0.2795751783825455
 40
0.5597049368157193
 40
1.0
 40
1.0
 40
1.0
 40
1.0
 10
222.6966857791348
 20
120.1705004191051
 30
0.0
 10
222.7325643200403
 20
120.0979972716381
 30
0.0
 10
222.8043925724149
 20
119.9528471556416
 30
0.0
 10
222.8539906957187
 20
119.6663254956557
 30
0.0
 10
222.8603853999456
 20
119.4591058141679
 30
0.0
 10
222.8642935894154
 20
119.3324613677024
 30
0.0
  0
SPLINE
  5
21C
330
1F
100
AcDbEntity
  8
0
  6
Continuous
 62
     7
370
    18
100
AcDbSpline
210
0.0
220
0.0
230
1.0
 70
     8
 71
     3
 72
    11
 73
     7
 74
     0
 42
0.000000001
 43
0.00000001
 40
0.0
 40
0.0
 40
0.0
 40
0.0
 40
0.2798903849624031
 40
0.5594964420644627
 40
0.7796718965173898
 40
1.0
 40
1.0
 40
1.0
 40
1.0
 10
222.318525868875
 20
120.3873065418561
 30
0.0
 10
222.3612828105955
 20
120.3844540235842
 30
0.0
 10
222.446753259212
 20
120.3787518847834
 30
0.0
 10
222.5555235143149
 20
120.325126802854
 30
0.0
 10
222.6390438398276
 20
120.2530874347691
 30
0.0
 10
222.6774673610261
 20
120.1980357833982
 30
0.0
 10
222.6966857791348
 20
120.1705004191051
 30
0.0
  0
SPLINE
  5
21D
330
1F
100
AcDbEntity
  8
0
  6
Continuous
 62
     7
370
    18
100
AcDbSpline
210
0.0
220
0.0
230
1.0
 70
     8
 71
     3
 72
    13
 73
     9
 74
     0
 42
0.000000001
 43
0.00000001
 40
0.0
 40
0.0
 40
0.0
 40
0.0
 40
0.2504890583456495
 40
0.5006738274425608
 40
0.6258446378555206
 40
0.7507584155659023
 40
0.8753007099299301
 40
0.9999999999999999
 40
0.9999999999999999
 40
0.9999999999999999
 40
0.9999999999999999
 10
221.770256539226
 20
119.3324613677024
 30
0.0
 10
221.7729751538411
 20
119.4427015650602
 30
0.0
 10
221.778409080551
 20
119.6630480421225
 30
0.0
 10
221.8284624525926
 20
119.9364754776699
 30
0.0
 10
221.9133979779698
 20
120.140933011955
 30
0.0
 10
222.0103860536588
 20
120.2764456330341
 30
0.0
 10
222.1523417167424
 20
120.3725449151225
 30
0.0
 10
222.2631078945246
 20
120.3823839337662
 30
0.0
 10
222.318525868875
 20
120.3873065418561
 30
0.0
  0
SPLINE
  5
21E
330
1F
100
AcDbEntity
  8
0
  6
Continuous
 62
     7
370
    18
100
AcDbSpline
210
0.0
220
0.0
230
1.0
 70
     8
 71
     3
 72
    13
 73
     9
 74
     0
 42
0.000000001
 43
0.00000001
 40
0.0
 40
0.0
 40
0.0
 40
0.0
 40
0.1245870753534851
 40
0.2492227148385391
 40
0.3742192396120909
 40
0.4992998133209633
 40
0.7494812006579983
 40
1.0
 40
1.0
 40
1.0
 40
1.0
 10
222.3160242597663
 20
118.2792839329546
 30
0.0
 10
222.2607606164775
 20
118.2849206292316
 30
0.0
 10
222.150211788092
 20
118.2961962189741
 30
0.0
 10
222.0114228318693
 20
118.3948292318104
 30
0.0
 10
221.9083837231862
 20
118.5248335683704
 30
0.0
 10
221.8223598380178
 20
118.7291795194239
 30
0.0
 10
221.7771889513986
 20
119.0026816986097
 30
0.0
 10
221.7725683811873
 20
119.2224854375331
 30
0.0
 10
221.770256539226
 20
119.3324613677024
 30
0.0
  0
SPLINE
  5
21F
330
1F
100
AcDbEntity
  8
0
  6
Continuous
 62
     7
370
    18
100
AcDbSpline
210
0.0
220
0.0
230
1.0
 70
     8
 71
     3
 72
    13
 73
     9
 74
     0
 42
0.000000001
 43
0.00000001
 40
0.0
 40
0.0
 40
0.0
 40
0.0
 40
0.2504702058475086
 40
0.5006494994159228
 40
0.6258027062132817
 40
0.7507410958263522
 40
0.8752785399750087
 40
1.0
 40
1.0
 40
1.0
 40
1.0
 10
222.8642935894154
 20
119.3324613677024
 30
0.0
 10
222.8615800941602
 20
119.2223289121509
 30
0.0
 10
222.8561562552787
 20
119.0021919159969
 30
0.0
 10
222.8053863975547
 20
118.729261315761
 30
0.0
 10
222.7210346501191
 20
118.5248372033097
 30
0.0
 10
222.6241518901626
 20
118.3893823745773
 30
0.0
 10
222.4820752732937
 20
118.2937041097755
 30
0.0
 10
222.3714018325706
 20
118.2840930236959
 30
0.0
 10
222.3160242597663
 20
118.2792839329546
 30
0.0
  0
SPLINE
  5
220
330
1F
100
AcDbEntity
  8
0
  6
Continuous
 62
     7
370
    18
100
AcDbSpline
210
0.0
220
0.0
230
1.0
 70
     8
 71
     3
 72
    12
 73
     8
 74
     0
 42
0.000000001
 43
0.00000001
 40
0.0
 40
0.0
 40
0.0
 40
0.0
 40
0.1861323399318255
 40
0.3726108819815597
 40
0.559413620405235
 40
0.7795030968206001
 40
1.0
 40
1.0
 40
1.0
 40
1.0
 10
221.0556302038507
 20
119.6668431185606
 30
0.0
 10
221.1132725187858
 20
119.6601572181777
 30
0.0
 10
221.2286643621123
 20
119.6467729817822
 30
0.0
 10
221.370810086941
 20
119.5396613376188
 30
0.0
 10
221.4819801057452
 20
119.3941000198059
 30
0.0
 10
221.5477770055261
 20
119.2087754093079
 30
0.0
 10
221.5537810813017
 20
119.0733565081965
 30
0.0
 10
221.5567858952866
 20
119.0055844441702
 30
0.0
  0
SPLINE
  5
221
330
1F
100
AcDbEntity
  8
0
  6
Continuous
 62
     7
370
    18
100
AcDbSpline
210
0.0
220
0.0
230
1.0
 70
     8
 71
     3
 72
     9
 73
     5
 74
     0
 42
0.000000001
 43
0.00000001
 40
0.0
 40
0.0
 40
0.0
 40
0.0
 40
0.5597945537684219
 40
0.9999999999999999
 40
0.9999999999999999
 40
0.9999999999999999
 40
0.9999999999999999
 10
220.7512677622965
 20
119.5863746922319
 30
0.0
 10
220.805388568337
 20
119.6121826973775
 30
0.0
 10
220.902068333576
 20
119.6582853344464
 30
0.0
 10
221.0086933089756
 20
119.664227392322
 30
0.0
 10
221.0556302038507
 20
119.6668431185606
 30
0.0
  0
LINE
  5
222
330
1F
100
AcDbEntity
  8
0
  6
Continuous
 62
     7
370
    18
100
AcDbLine
 10
220.8284007098
 20
120.0937844064
 30
0.0
 11
220.7512677623
 21
119.5863746922
 31
0.0
  0
LINE
  5
223
330
1F
100
AcDbEntity
  8
0
  6
Continuous
 62
     7
370
    18
100
AcDbLine
 10
221.4767344038
 20
120.0937844064
 30
0.0
 11
220.8284007098
 21
120.0937844064
 31
0.0
  0
LINE
  5
224
330
1F
100
AcDbEntity
  8
0
  6
Continuous
 62
     7
370
    18
100
AcDbLine
 10
221.4767344038
 20
120.3339388809
 30
0.0
 11
221.4767344038
 21
120.0937844064
 31
0.0
  0
LINE
  5
225
330
1F
100
AcDbEntity
  8
0
  6
Continuous
 62
     7
370
    18
100
AcDbLine
 10
220.6495356585
 20
120.3339388809
 30
0.0
 11
221.4767344038
 21
120.3339388809
 31
0.0
  0
LINE
  5
226
330
1F
100
AcDbEntity
  8
0
  6
Continuous
 62
     7
370
    18
100
AcDbLine
 10
220.4894326756
 20
119.281178381
 30
0.0
 11
220.6495356585
 21
120.3339388809
 31
0.0
  0
LINE
  5
227
330
1F
100
AcDbEntity
  8
0
  6
Continuous
 62
     7
370
    18
100
AcDbLine
 10
220.7029033195
 20
119.2507421368
 30
0.0
 11
220.4894326756
 21
119.281178381
 31
0.0
  0
SPLINE
  5
228
330
1F
100
AcDbEntity
  8
0
  6
Continuous
 62
     7
370
    18
100
AcDbSpline
210
0.0
220
0.0
230
1.0
 70
     8
 71
     3
 72
    10
 73
     6
 74
     0
 42
0.000000001
 43
0.00000001
 40
0.0
 40
0.0
 40
0.0
 40
0.0
 40
0.2801682771676812
 40
0.5607715634932493
 40
1.0
 40
1.0
 40
1.0
 40
1.0
 10
220.9960085200942
 20
119.4533724746212
 30
0.0
 10
220.9610205068566
 20
119.4495055067712
 30
0.0
 10
220.8909901555079
 20
119.4417655669424
 30
0.0
 10
220.7801456429508
 20
119.375111024589
 30
0.0
 10
220.7321744705347
 20
119.2978720046567
 30
0.0
 10
220.702903319529
 20
119.2507421368194
 30
0.0
  0
SPLINE
  5
229
330
1F
100
AcDbEntity
  8
0
  6
Continuous
 62
     7
370
    18
100
AcDbSpline
210
0.0
220
0.0
230
1.0
 70
     8
 71
     3
 72
    11
 73
     7
 74
     0
 42
0.000000001
 43
0.00000001
 40
0.0
 40
0.0
 40
0.0
 40
0.0
 40
0.2810318196216979
 40
0.5605860755662309
 40
0.7803889752949
 40
1.0
 40
1.0
 40
1.0
 40
1.0
 10
221.3433152513472
 20
118.9939102683298
 30
0.0
 10
221.3404587581817
 20
119.0544620164589
 30
0.0
 10
221.3347607902588
 20
119.175247153523
 30
0.0
 10
221.2607189430177
 20
119.3303484469745
 30
0.0
 10
221.1390268867366
 20
119.436457423455
 30
0.0
 10
221.043667429049
 20
119.4477357658375
 30
0.0
 10
220.9960085200942
 20
119.4533724746212
 30
0.0
  0
SPLINE
  5
22A
330
1F
100
AcDbEntity
  8
0
  6
Continuous
 62
     7
370
    18
100
AcDbSpline
210
0.0
220
0.0
230
1.0
 70
     8
 71
     3
 72
    12
 73
     8
 74
     0
 42
0.000000001
 43
0.00000001
 40
0.0
 40
0.0
 40
0.0
 40
0.0
 40
0.1858835197478858
 40
0.3723018513499599
 40
0.5590684864252726
 40
0.779324338001525
 40
1.0
 40
1.0
 40
1.0
 40
1.0
 10
220.9905883670254
 20
118.492754576894
 30
0.0
 10
221.0330896702086
 20
118.4982765673805
 30
0.0
 10
221.1182145585329
 20
118.509336435862
 30
0.0
 10
221.2190023908502
 20
118.5942249627454
 30
0.0
 10
221.2948930202964
 20
118.7057965169647
 30
0.0
 10
221.337239270267
 20
118.8441097888378
 30
0.0
 10
221.3412886391872
 20
118.9439450908044
 30
0.0
 10
221.3433152513472
 20
118.9939102683298
 30
0.0
  0
SPLINE
  5
22B
330
1F
100
AcDbEntity
  8
0
  6
Continuous
 62
     7
370
    18
100
AcDbSpline
210
0.0
220
0.0
230
1.0
 70
     8
 71
     3
 72
    11
 73
     7
 74
     0
 42
0.000000001
 43
0.00000001
 40
0.0
 40
0.0
 40
0.0
 40
0.0
 40
0.2811074381184339
 40
0.561116001753281
 40
0.7809929910720526
 40
1.0
 40
1.0
 40
1.0
 40
1.0
 10
220.6762194890366
 20
118.8930120342803
 30
0.0
 10
220.6844352179894
 20
118.8413657845615
 30
0.0
 10
220.7008345598651
 20
118.7382751750005
 30
0.0
 10
220.765089345166
 20
118.6059869268664
 30
0.0
 10
220.8674669031824
 20
118.5110355878881
 30
0.0
 10
220.9496021501035
 20
118.4988401890916
 30
0.0
 10
220.9905883670254
 20
118.492754576894
 30
0.0
  0
LINE
  5
22C
330
1F
100
AcDbEntity
  8
0
  6
Continuous
 62
     7
370
    18
100
AcDbLine
 10
220.4627488451
 20
118.8663282038
 30
0.0
 11
220.676219489
 21
118.8930120343
 31
0.0
  0
SPLINE
  5
22D
330
1F
100
AcDbEntity
  8
0
  6
Continuous
 62
     7
370
    18
100
AcDbSpline
210
0.0
220
0.0
230
1.0
 70
     8
 71
     3
 72
    12
 73
     8
 74
     0
 42
0.000000001
 43
0.00000001
 40
0.0
 40
0.0
 40
0.0
 40
0.0
 40
0.1865885886654281
 40
0.3730457041861916
 40
0.5597053661028952
 40
0.7796179230979429
 40
1.0
 40
1.0
 40
1.0
 40
1.0
 10
220.9926730412827
 20
118.2792839329546
 30
0.0
 10
220.9378560680163
 20
118.2836457809994
 30
0.0
 10
220.828260746353
 20
118.2923664036648
 30
0.0
 10
220.6825672714287
 20
118.3761827669437
 30
0.0
 10
220.5635200730587
 20
118.5042213139914
 30
0.0
 10
220.4865796748523
 20
118.6745227830086
 30
0.0
 10
220.4706981002622
 20
118.8023476270527
 30
0.0
 10
220.4627488450972
 20
118.8663282037879
 30
0.0
  0
SPLINE
  5
22E
330
1F
100
AcDbEntity
  8
0
  6
Continuous
 62
     7
370
    18
100
AcDbSpline
210
0.0
220
0.0
230
1.0
 70
     8
 71
     3
 72
    13
 73
     9
 74
     0
 42
0.000000001
 43
0.00000001
 40
0.0
 40
0.0
 40
0.0
 40
0.0
 40
0.1868890796518147
 40
0.3736670037034796
 40
0.5603596573753076
 40
0.7069433013335582
 40
0.8533827747571264
 40
1.0
 40
1.0
 40
1.0
 40
1.0
 10
221.5567858952866
 20
119.0055844441702
 30
0.0
 10
221.5536923152444
 20
118.9416656253533
 30
0.0
 10
221.5475069951217
 20
118.8138660045723
 30
0.0
 10
221.4903436794803
 20
118.6290941288642
 30
0.0
 10
221.3995596669646
 20
118.4743290667309
 30
0.0
 10
221.2816905723704
 20
118.3580693838678
 30
0.0
 10
221.1435065011717
 20
118.2898332275336
 30
0.0
 10
221.0429711876137
 20
118.2828017861074
 30
0.0
 10
220.9926730412827
 20
118.2792839329546
 30
0.0
  0
LINE
  5
22F
330
1F
100
AcDbEntity
  8
0
  6
Continuous
 62
     7
370
    18
100
AcDbLine
 10
219.2707321048
 20
118.3059677634
 30
0.0
 11
218.7816675241
 21
120.0992045595
 31
0.0
  0
LINE
  5
230
330
1F
100
AcDbEntity
  8
0
  6
Continuous
 62
     7
370
    18
100
AcDbLine
 10
219.489205967
 20
118.3059677634
 30
0.0
 11
219.2707321048
 21
118.3059677634
 31
0.0
  0
LINE
  5
231
330
1F
100
AcDbEntity
  8
0
  6
Continuous
 62
     7
370
    18
100
AcDbLine
 10
219.9824398962
 20
120.0020587391
 30
0.0
 11
219.489205967
 21
118.3059677634
 31
0.0
  0
LINE
  5
232
330
1F
100
AcDbEntity
  8
0
  6
Continuous
 62
     7
370
    18
100
AcDbLine
 10
219.9824398962
 20
118.3059677634
 30
0.0
 11
219.9824398962
 21
120.0020587391
 31
0.0
  0
LINE
  5
233
330
1F
100
AcDbEntity
  8
0
  6
Continuous
 62
     7
370
    18
100
AcDbLine
 10
220.1959105402
 20
118.3059677634
 30
0.0
 11
219.9824398962
 21
118.3059677634
 31
0.0
  0
LINE
  5
234
330
1F
100
AcDbEntity
  8
0
  6
Continuous
 62
     7
370
    18
100
AcDbLine
 10
220.1959105402
 20
120.3606227114
 30
0.0
 11
220.1959105402
 21
118.3059677634
 31
0.0
  0
LINE
  5
235
330
1F
100
AcDbEntity
  8
0
  6
Continuous
 62
     7
370
    18
100
AcDbLine
 10
219.8936327729
 20
120.3606227114
 30
0.0
 11
220.1959105402
 21
120.3606227114
 31
0.0
  0
LINE
  5
236
330
1F
100
AcDbEntity
  8
0
  6
Continuous
 62
     7
370
    18
100
AcDbLine
 10
219.475030182
 20
118.9309531058
 30
0.0
 11
219.8936327729
 21
120.3606227114
 31
0.0
  0
SPLINE
  5
237
330
1F
100
AcDbEntity
  8
0
  6
Continuous
 62
     7
370
    18
100
AcDbSpline
210
0.0
220
0.0
230
1.0
 70
     8
 71
     3
 72
     9
 73
     5
 74
     0
 42
0.000000001
 43
0.00000001
 40
0.0
 40
0.0
 40
0.0
 40
0.0
 40
0.5599947003108225
 40
1.0
 40
1.0
 40
1.0
 40
1.0
 10
219.382053710154
 20
118.6015745731209
 30
0.0
 10
219.398983616472
 20
118.6631783691498
 30
0.0
 10
219.4292158781497
 20
118.7731861888571
 30
0.0
 10
219.4610312498613
 20
118.8827461446008
 30
0.0
 10
219.475030182026
 20
118.9309531057617
 30
0.0
  0
LINE
  5
238
330
1F
100
AcDbEntity
  8
0
  6
Continuous
 62
     7
370
    18
100
AcDbLine
 10
219.3020022187
 20
118.9059370147
 30
0.0
 11
219.3820537102
 21
118.6015745731
 31
0.0
  0
LINE
  5
239
330
1F
100
AcDbEntity
  8
0
  6
Continuous
 62
     7
370
    18
100
AcDbLine
 10
218.9021616961
 20
120.3606227114
 30
0.0
 11
219.3020022187
 21
118.9059370147
 31
0.0
  0
LINE
  5
23A
330
1F
100
AcDbEntity
  8
0
  6
Continuous
 62
     7
370
    18
100
AcDbLine
 10
218.5681968801
 20
120.3606227114
 30
0.0
 11
218.9021616961
 21
120.3606227114
 31
0.0
  0
LINE
  5
23B
330
1F
100
AcDbEntity
  8
0
  6
Continuous
 62
     7
370
    18
100
AcDbLine
 10
218.5681968801
 20
118.3059677634
 30
0.0
 11
218.5681968801
 21
120.3606227114
 31
0.0
  0
LINE
  5
23C
330
1F
100
AcDbEntity
  8
0
  6
Continuous
 62
     7
370
    18
100
AcDbLine
 10
218.7816675241
 20
118.3059677634
 30
0.0
 11
218.5681968801
 21
118.3059677634
 31
0.0
  0
LINE
  5
23D
330
1F
100
AcDbEntity
  8
0
  6
Continuous
 62
     7
370
    18
100
AcDbLine
 10
218.7816675241
 20
120.0992045595
 30
0.0
 11
218.7816675241
 21
118.3059677634
 31
0.0
  0
SPLINE
  5
23E
330
1F
100
AcDbEntity
  8
0
  6
Continuous
 62
     7
370
    18
100
AcDbSpline
210
0.0
220
0.0
230
1.0
 70
     8
 71
     3
 72
    14
 73
    10
 74
     0
 42
0.000000001
 43
0.00000001
 40
0.0
 40
0.0
 40
0.0
 40
0.0
 40
0.1250267645254227
 40
0.2499561862380682
 40
0.3747506313882886
 40
0.4996959194189218
 40
0.6663177050472591
 40
0.8330998507676253
 40
1.0
 40
1.0
 40
1.0
 40
1.0
 10
217.5838136958754
 20
120.1471520674243
 30
0.0
 10
217.537786107662
 20
120.1443357371145
 30
0.0
 10
217.4457667672011
 20
120.1387052692215
 30
0.0
 10
217.3156790575061
 20
120.086246970165
 30
0.0
 10
217.2078249157831
 20
119.9977169578686
 30
0.0
 10
217.121021112333
 20
119.8701595975415
 30
0.0
 10
217.058306376205
 20
119.7126088207736
 30
0.0
 10
217.0253154591292
 20
119.5308899966622
 30
0.0
 10
217.0221286697518
 20
119.4083471692508
 30
0.0
 10
217.0205347115744
 20
119.347054087503
 30
0.0
  0
SPLINE
  5
23F
330
1F
100
AcDbEntity
  8
0
  6
Continuous
 62
     7
370
    18
100
AcDbSpline
210
0.0
220
0.0
230
1.0
 70
     8
 71
     3
 72
    11
 73
     7
 74
     0
 42
0.000000001
 43
0.00000001
 40
0.0
 40
0.0
 40
0.0
 40
0.0
 40
0.2807713074051785
 40
0.5604369820882255
 40
0.780014784995376
 40
1.0
 40
1.0
 40
1.0
 40
1.0
 10
218.0345202702865
 20
119.7202107795455
 30
0.0
 10
218.0159268454404
 20
119.7805997618618
 30
0.0
 10
217.9788132136959
 20
119.9011399242934
 30
0.0
 10
217.8751418859489
 20
120.0474068267544
 30
0.0
 10
217.7329912104398
 20
120.1351813435737
 30
0.0
 10
217.633570250404
 20
120.1431593613133
 30
0.0
 10
217.5838136958754
 20
120.1471520674243
 30
0.0
  0
LINE
  5
240
330
1F
100
AcDbEntity
  8
0
  6
Continuous
 62
     7
370
    18
100
AcDbLine
 10
218.2479909142
 20
119.7735784405
 30
0.0
 11
218.0345202703
 21
119.7202107795
 31
0.0
  0
SPLINE
  5
241
330
1F
100
AcDbEntity
  8
0
  6
Continuous
 62
     7
370
    18
100
AcDbSpline
210
0.0
220
0.0
230
1.0
 70
     8
 71
     3
 72
    12
 73
     8
 74
     0
 42
0.000000001
 43
0.00000001
 40
0.0
 40
0.0
 40
0.0
 40
0.0
 40
0.1866161660947077
 40
0.3730652985771199
 40
0.5597027812570765
 40
0.7796715026895121
 40
1.0
 40
1.0
 40
1.0
 40
1.0
 10
217.5925693277558
 20
120.3873065418561
 30
0.0
 10
217.6535295527768
 20
120.3828487286177
 30
0.0
 10
217.7753954394507
 20
120.3739370921737
 30
0.0
 10
217.9430678499163
 20
120.2925521008549
 30
0.0
 10
218.0860363379336
 20
120.1600276734382
 30
0.0
 10
218.1908256917535
 20
119.9811670415213
 30
0.0
 10
218.2289254627007
 20
119.8428123250185
 30
0.0
 10
218.2479909142259
 20
119.7735784405303
 30
0.0
  0
SPLINE
  5
242
330
1F
100
AcDbEntity
  8
0
  6
Continuous
 62
     7
370
    18
100
AcDbSpline
210
0.0
220
0.0
230
1.0
 70
     8
 71
     3
 72
    13
 73
     9
 74
     0
 42
0.000000001
 43
0.00000001
 40
0.0
 40
0.0
 40
0.0
 40
0.0
 40
0.1869886270143181
 40
0.3737840604657703
 40
0.5603785113196406
 40
0.7069405280508649
 40
0.8534458164057701
 40
1.0
 40
1.0
 40
1.0
 40
1.0
 10
216.8070640676351
 20
119.347054087503
 30
0.0
 10
216.8102913249786
 20
119.4381108941803
 30
0.0
 10
216.8167425053166
 20
119.6201304291455
 30
0.0
 10
216.8858914597567
 20
119.8862720815463
 30
0.0
 10
217.0099856073939
 20
120.1112437244902
 30
0.0
 10
217.1819804966674
 20
120.2727496047225
 30
0.0
 10
217.3778299067193
 20
120.3705109084763
 30
0.0
 10
217.5209815594082
 20
120.3817073747081
 30
0.0
 10
217.5925693277558
 20
120.3873065418561
 30
0.0
  0
SPLINE
  5
243
330
1F
100
AcDbEntity
  8
0
  6
Continuous
 62
     7
370
    18
100
AcDbSpline
210
0.0
220
0.0
230
1.0
 70
     8
 71
     3
 72
    14
 73
    10
 74
     0
 42
0.000000001
 43
0.00000001
 40
0.0
 40
0.0
 40
0.0
 40
0.0
 40
0.1249789553015495
 40
0.2498098163504283
 40
0.3745823232578654
 40
0.4995715195159077
 40
0.6662781166416191
 40
0.8331039635850065
 40
1.0
 40
1.0
 40
1.0
 40
1.0
 10
217.5733903245894
 20
118.2792839329546
 30
0.0
 10
217.511746090772
 20
118.2827720689914
 30
0.0
 10
217.3885306686891
 20
118.289744207786
 30
0.0
 10
217.2138361577155
 20
118.3589452380148
 30
0.0
 10
217.0696093127766
 20
118.4780376730967
 30
0.0
 10
216.9539478362748
 20
118.6492086900011
 30
0.0
 10
216.8661616196417
 20
118.858374888702
 30
0.0
 10
216.8147658411133
 20
119.1006726333182
 30
0.0
 10
216.8096316854052
 20
119.2649154214156
 30
0.0
 10
216.8070640676351
 20
119.347054087503
 30
0.0
  0
SPLINE
  5
244
330
1F
100
AcDbEntity
  8
0
  6
Continuous
 62
     7
370
    18
100
AcDbSpline
210
0.0
220
0.0
230
1.0
 70
     8
 71
     3
 72
    13
 73
     9
 74
     0
 42
0.000000001
 43
0.00000001
 40
0.0
 40
0.0
 40
0.0
 40
0.0
 40
0.1869090516643021
 40
0.3736796016941298
 40
0.5601136847103878
 40
0.7067311959183791
 40
0.853313829459125
 40
1.0
 40
1.0
 40
1.0
 40
1.0
 10
218.2746747447184
 20
118.9730635257576
 30
0.0
 10
218.2588208689333
 20
118.9077353727849
 30
0.0
 10
218.227124865257
 20
118.7771274757093
 30
0.0
 10
218.1420618678382
 20
118.5931322893693
 30
0.0
 10
218.0243837033215
 20
118.4448129938954
 30
0.0
 10
217.8819741155264
 20
118.3449613888085
 30
0.0
 10
217.7318236785927
 20
118.2884566706569
 30
0.0
 10
217.6262138709185
 20
118.2823422317454
 30
0.0
 10
217.5733903245894
 20
118.2792839329546
 30
0.0
  0
LINE
  5
245
330
1F
100
AcDbEntity
  8
0
  6
Continuous
 62
     7
370
    18
100
AcDbLine
 10
218.0612041008
 20
119.0264311867
 30
0.0
 11
218.2746747447
 21
118.9730635258
 31
0.0
  0
SPLINE
  5
246
330
1F
100
AcDbEntity
  8
0
  6
Continuous
 62
     7
370
    18
100
AcDbSpline
210
0.0
220
0.0
230
1.0
 70
     8
 71
     3
 72
    12
 73
     8
 74
     0
 42
0.000000001
 43
0.00000001
 40
0.0
 40
0.0
 40
0.0
 40
0.0
 40
0.1865921528409294
 40
0.3730589116156817
 40
0.559622629549045
 40
0.7796100104163903
 40
1.0
 40
1.0
 40
1.0
 40
1.0
 10
217.5667193669663
 20
118.5194384073864
 30
0.0
 10
217.615213522267
 20
118.5232280586361
 30
0.0
 10
217.7121692437203
 20
118.5308048144057
 30
0.0
 10
217.8428004209963
 20
118.6013860612142
 30
0.0
 10
217.9515385801476
 20
118.7118036737214
 30
0.0
 10
218.0248597086231
 20
118.859403563716
 30
0.0
 10
218.0490819217897
 20
118.9707213888235
 30
0.0
 10
218.061204100779
 20
119.0264311867424
 30
0.0
  0
SPLINE
  5
247
330
1F
100
AcDbEntity
  8
0
  6
Continuous
 62
     7
370
    18
100
AcDbSpline
210
0.0
220
0.0
230
1.0
 70
     8
 71
     3
 72
    14
 73
    10
 74
     0
 42
0.000000001
 43
0.00000001
 40
0.0
 40
0.0
 40
0.0
 40
0.0
 40
0.1669299867484125
 40
0.3337709048041655
 40
0.5004211293286646
 40
0.6254239239505636
 40
0.7503194582828551
 40
0.8750931289475058
 40
1.0
 40
1.0
 40
1.0
 40
1.0
 10
217.0205347115744
 20
119.347054087503
 30
0.0
 10
217.021864447505
 20
119.2851071492423
 30
0.0
 10
217.0245232098599
 20
119.1612463256967
 30
0.0
 10
217.0546693981123
 20
118.9775513501479
 30
0.0
 10
217.1092496732602
 20
118.8149012854063
 30
0.0
 10
217.1950198205578
 20
118.6846066923424
 30
0.0
 10
217.2986030941313
 20
118.5898428373201
 30
0.0
 10
217.427186265902
 20
118.5290415049826
 30
0.0
 10
217.5201917943142
 20
118.5226405781809
 30
0.0
 10
217.5667193669663
 20
118.5194384073864
 30
0.0
  0
CIRCLE
  5
248
330
1F
100
AcDbEntity
  8
0
  6
Continuous
 62
     7
370
    18
100
AcDbCircle
 10
225.8929083503
 20
121.694814236
 30
0.0
 40
25.19999999999999
  0
SPLINE
  5
249
330
1F
100
AcDbEntity
  8
0
  6
Continuous
 62
     7
370
    18
100
AcDbSpline
210
0.0
220
0.0
230
1.0
 70
     8
 71
     3
 72
    13
 73
     9
 74
     0
 42
0.000000001
 43
0.00000001
 40
0.0
 40
0.0
 40
0.0
 40
0.0
 40
0.1237345749994082
 40
0.2484232101745691
 40
0.3734713343328619
 40
0.4987444967637463
 40
0.7493102257733216
 40
1.0
 40
1.0
 40
1.0
 40
1.0
 10
233.1559134624622
 20
118.492754576894
 30
0.0
 10
233.1969978586519
 20
118.5001178186468
 30
0.0
 10
233.2794834338402
 20
118.5149010767097
 30
0.0
 10
233.3636780035426
 20
118.6126138707806
 30
0.0
 10
233.4207477260985
 20
118.7213559533967
 30
0.0
 10
233.4599179235142
 20
118.8821490604926
 30
0.0
 10
233.4811852464379
 20
119.0867060443524
 30
0.0
 10
233.4833669857751
 20
119.2510852801306
 30
0.0
 10
233.4844581254002
 20
119.3332952374053
 30
0.0
  0
SPLINE
  5
24A
330
1F
100
AcDbEntity
  8
0
  6
Continuous
 62
     7
370
    18
100
AcDbSpline
210
0.0
220
0.0
230
1.0
 70
     8
 71
     3
 72
    13
 73
     9
 74
     0
 42
0.000000001
 43
0.00000001
 40
0.0
 40
0.0
 40
0.0
 40
0.0
 40
0.2506668541570157
 40
0.501204835743709
 40
0.6264537829510467
 40
0.7514291871594873
 40
0.8760522367173378
 40
1.0
 40
1.0
 40
1.0
 40
1.0
 10
232.8173623630896
 20
119.3332952374053
 30
0.0
 10
232.8184106699062
 20
119.2503500016103
 30
0.0
 10
232.820506744585
 20
119.0845021737347
 30
0.0
 10
232.8423258436238
 20
118.8781281713569
 30
0.0
 10
232.8824283238943
 20
118.716073787921
 30
0.0
 10
232.9417996655112
 20
118.6069682848018
 30
0.0
 10
233.0309010248589
 20
118.512277959343
 30
0.0
 10
233.1143181890541
 20
118.4992505739834
 30
0.0
 10
233.1559134624622
 20
118.492754576894
 30
0.0
  0
SPLINE
  5
24B
330
1F
100
AcDbEntity
  8
0
  6
Continuous
 62
     7
370
    18
100
AcDbSpline
210
0.0
220
0.0
230
1.0
 70
     8
 71
     3
 72
    13
 73
     9
 74
     0
 42
0.000000001
 43
0.00000001
 40
0.0
 40
0.0
 40
0.0
 40
0.0
 40
0.1236770548154448
 40
0.2483884878623312
 40
0.3734455614730972
 40
0.4987169325064011
 40
0.7492948497723044
 40
1.0
 40
1.0
 40
1.0
 40
1.0
 10
233.1434054169189
 20
120.1738358979167
 30
0.0
 10
233.1024168522646
 20
120.1663426986569
 30
0.0
 10
233.0200969133776
 20
120.1512936304513
 30
0.0
 10
232.936983193956
 20
120.0529362901211
 30
0.0
 10
232.8802501448828
 20
119.9443024687851
 30
0.0
 10
232.8422343508902
 20
119.7835204396209
 30
0.0
 10
232.8204896021479
 20
119.5794715296845
 30
0.0
 10
232.8184049524805
 20
119.4153678854654
 30
0.0
 10
232.8173623630896
 20
119.3332952374053
 30
0.0
  0
SPLINE
  5
24C
330
1F
100
AcDbEntity
  8
0
  6
Continuous
 62
     7
370
    18
100
AcDbSpline
210
0.0
220
0.0
230
1.0
 70
     8
 71
     3
 72
    13
 73
     9
 74
     0
 42
0.000000001
 43
0.00000001
 40
0.0
 40
0.0
 40
0.0
 40
0.0
 40
0.2506736071386397
 40
0.5012152607338002
 40
0.6264526015104162
 40
0.7514497498805416
 40
0.8760271183236273
 40
1.0
 40
1.0
 40
1.0
 40
1.0
 10
233.4844581254002
 20
119.3332952374053
 30
0.0
 10
233.4834196224881
 20
119.4164413911591
 30
0.0
 10
233.4813431633276
 20
119.5826899308775
 30
0.0
 10
233.4594289189164
 20
119.7895810586812
 30
0.0
 10
233.4190364636798
 20
119.9519566344115
 30
0.0
 10
233.3592688329296
 20
120.061297381671
 30
0.0
 10
233.2687487475769
 20
120.1550356333724
 30
0.0
 10
233.1851187296619
 20
120.167579312022
 30
0.0
 10
233.1434054169189
 20
120.1738358979167
 30
0.0
  0
SPLINE
  5
24D
330
1F
100
AcDbEntity
  8
0
  6
Continuous
 62
     7
370
    18
100
AcDbSpline
210
0.0
220
0.0
230
1.0
 70
     8
 71
     3
 72
    13
 73
     9
 74
     0
 42
0.000000001
 43
0.00000001
 40
0.0
 40
0.0
 40
0.0
 40
0.0
 40
0.1237345749994073
 40
0.2484232101745688
 40
0.3734713343328629
 40
0.4987444967637465
 40
0.7493102257733217
 40
1.0
 40
1.0
 40
1.0
 40
1.0
 10
229.6336478374622
 20
118.492754576894
 30
0.0
 10
229.6747322336519
 20
118.5001178186468
 30
0.0
 10
229.7572178088402
 20
118.5149010767097
 30
0.0
 10
229.8414123785426
 20
118.6126138707806
 30
0.0
 10
229.8984821010984
 20
118.7213559533967
 30
0.0
 10
229.9376522985142
 20
118.8821490604926
 30
0.0
 10
229.9589196214379
 20
119.0867060443524
 30
0.0
 10
229.9611013607751
 20
119.2510852801306
 30
0.0
 10
229.9621925004002
 20
119.3332952374053
 30
0.0
  0
SPLINE
  5
24E
330
1F
100
AcDbEntity
  8
0
  6
Continuous
 62
     7
370
    18
100
AcDbSpline
210
0.0
220
0.0
230
1.0
 70
     8
 71
     3
 72
    13
 73
     9
 74
     0
 42
0.000000001
 43
0.00000001
 40
0.0
 40
0.0
 40
0.0
 40
0.0
 40
0.250666854157016
 40
0.5012048357437094
 40
0.6264537829510473
 40
0.7514291871594875
 40
0.8760522367173393
 40
1.0
 40
1.0
 40
1.0
 40
1.0
 10
229.2950967380896
 20
119.3332952374053
 30
0.0
 10
229.2961450449062
 20
119.2503500016103
 30
0.0
 10
229.298241119585
 20
119.0845021737347
 30
0.0
 10
229.3200602186238
 20
118.8781281713569
 30
0.0
 10
229.3601626988943
 20
118.716073787921
 30
0.0
 10
229.4195340405112
 20
118.6069682848018
 30
0.0
 10
229.5086353998589
 20
118.512277959343
 30
0.0
 10
229.5920525640541
 20
118.4992505739834
 30
0.0
 10
229.6336478374622
 20
118.492754576894
 30
0.0
  0
SPLINE
  5
24F
330
1F
100
AcDbEntity
  8
0
  6
Continuous
 62
     7
370
    18
100
AcDbSpline
210
0.0
220
0.0
230
1.0
 70
     8
 71
     3
 72
    13
 73
     9
 74
     0
 42
0.000000001
 43
0.00000001
 40
0.0
 40
0.0
 40
0.0
 40
0.0
 40
0.1236770548154465
 40
0.2483884878623316
 40
0.3734455614730943
 40
0.4987169325064008
 40
0.7492948497723044
 40
1.0
 40
1.0
 40
1.0
 40
1.0
 10
229.6211397919189
 20
120.1738358979167
 30
0.0
 10
229.5801512272646
 20
120.1663426986569
 30
0.0
 10
229.4978312883776
 20
120.1512936304513
 30
0.0
 10
229.414717568956
 20
120.0529362901211
 30
0.0
 10
229.3579845198828
 20
119.9443024687852
 30
0.0
 10
229.3199687258902
 20
119.7835204396209
 30
0.0
 10
229.2982239771479
 20
119.5794715296845
 30
0.0
 10
229.2961393274805
 20
119.4153678854654
 30
0.0
 10
229.2950967380896
 20
119.3332952374053
 30
0.0
  0
SPLINE
  5
250
330
1F
100
AcDbEntity
  8
0
  6
Continuous
 62
     7
370
    18
100
AcDbSpline
210
0.0
220
0.0
230
1.0
 70
     8
 71
     3
 72
    13
 73
     9
 74
     0
 42
0.000000001
 43
0.00000001
 40
0.0
 40
0.0
 40
0.0
 40
0.0
 40
0.2506736071386392
 40
0.5012152607337992
 40
0.6264526015104143
 40
0.751449749880543
 40
0.8760271183236286
 40
1.0
 40
1.0
 40
1.0
 40
1.0
 10
229.9621925004002
 20
119.3332952374053
 30
0.0
 10
229.9611539974881
 20
119.4164413911591
 30
0.0
 10
229.9590775383276
 20
119.5826899308775
 30
0.0
 10
229.9371632939164
 20
119.7895810586812
 30
0.0
 10
229.8967708386798
 20
119.9519566344115
 30
0.0
 10
229.8370032079296
 20
120.061297381671
 30
0.0
 10
229.7464831225768
 20
120.1550356333724
 30
0.0
 10
229.6628531046618
 20
120.167579312022
 30
0.0
 10
229.6211397919189
 20
120.1738358979167
 30
0.0
  0
SPLINE
  5
251
330
1F
100
AcDbEntity
  8
0
  6
Continuous
 62
     7
370
    18
100
AcDbSpline
210
0.0
220
0.0
230
1.0
 70
     8
 71
     3
 72
    13
 73
     9
 74
     0
 42
0.000000001
 43
0.00000001
 40
0.0
 40
0.0
 40
0.0
 40
0.0
 40
0.1237345749994058
 40
0.2484232101745686
 40
0.3734713343328621
 40
0.4987444967637458
 40
0.7493102257733214
 40
1.0
 40
1.0
 40
1.0
 40
1.0
 10
228.3261401433334
 20
118.492754576894
 30
0.0
 10
228.3672245395231
 20
118.5001178186468
 30
0.0
 10
228.4497101147114
 20
118.5149010767097
 30
0.0
 10
228.5339046844138
 20
118.6126138707806
 30
0.0
 10
228.5909744069697
 20
118.7213559533967
 30
0.0
 10
228.6301446043854
 20
118.8821490604926
 30
0.0
 10
228.6514119273091
 20
119.0867060443524
 30
0.0
 10
228.6535936666463
 20
119.2510852801306
 30
0.0
 10
228.6546848062714
 20
119.3332952374053
 30
0.0
  0
SPLINE
  5
252
330
1F
100
AcDbEntity
  8
0
  6
Continuous
 62
     7
370
    18
100
AcDbSpline
210
0.0
220
0.0
230
1.0
 70
     8
 71
     3
 72
    13
 73
     9
 74
     0
 42
0.000000001
 43
0.00000001
 40
0.0
 40
0.0
 40
0.0
 40
0.0
 40
0.2506668541570158
 40
0.5012048357437088
 40
0.6264537829510469
 40
0.7514291871594871
 40
0.8760522367173377
 40
1.0
 40
1.0
 40
1.0
 40
1.0
 10
227.9875890439608
 20
119.3332952374053
 30
0.0
 10
227.9886373507774
 20
119.2503500016103
 30
0.0
 10
227.9907334254562
 20
119.0845021737346
 30
0.0
 10
228.012552524495
 20
118.8781281713569
 30
0.0
 10
228.0526550047655
 20
118.716073787921
 30
0.0
 10
228.1120263463824
 20
118.6069682848018
 30
0.0
 10
228.2011277057302
 20
118.512277959343
 30
0.0
 10
228.2845448699253
 20
118.4992505739834
 30
0.0
 10
228.3261401433334
 20
118.492754576894
 30
0.0
  0
SPLINE
  5
253
330
1F
100
AcDbEntity
  8
0
  6
Continuous
 62
     7
370
    18
100
AcDbSpline
210
0.0
220
0.0
230
1.0
 70
     8
 71
     3
 72
    13
 73
     9
 74
     0
 42
0.000000001
 43
0.00000001
 40
0.0
 40
0.0
 40
0.0
 40
0.0
 40
0.1236770548154464
 40
0.2483884878623325
 40
0.3734455614730951
 40
0.4987169325064013
 40
0.7492948497723046
 40
1.0
 40
1.0
 40
1.0
 40
1.0
 10
228.3136320977901
 20
120.1738358979167
 30
0.0
 10
228.2726435331358
 20
120.1663426986569
 30
0.0
 10
228.1903235942488
 20
120.1512936304513
 30
0.0
 10
228.1072098748272
 20
120.0529362901211
 30
0.0
 10
228.050476825754
 20
119.9443024687852
 30
0.0
 10
228.0124610317614
 20
119.7835204396209
 30
0.0
 10
227.9907162830191
 20
119.5794715296845
 30
0.0
 10
227.9886316333518
 20
119.4153678854654
 30
0.0
 10
227.9875890439608
 20
119.3332952374053
 30
0.0
  0
SPLINE
  5
254
330
1F
100
AcDbEntity
  8
0
  6
Continuous
 62
     7
370
    18
100
AcDbSpline
210
0.0
220
0.0
230
1.0
 70
     8
 71
     3
 72
    13
 73
     9
 74
     0
 42
0.000000001
 43
0.00000001
 40
0.0
 40
0.0
 40
0.0
 40
0.0
 40
0.2506736071386392
 40
0.5012152607337992
 40
0.6264526015104143
 40
0.751449749880543
 40
0.8760271183236286
 40
1.0
 40
1.0
 40
1.0
 40
1.0
 10
228.6546848062714
 20
119.3332952374053
 30
0.0
 10
228.6536463033593
 20
119.4164413911591
 30
0.0
 10
228.6515698441988
 20
119.5826899308775
 30
0.0
 10
228.6296555997876
 20
119.7895810586812
 30
0.0
 10
228.589263144551
 20
119.9519566344115
 30
0.0
 10
228.5294955138008
 20
120.061297381671
 30
0.0
 10
228.438975428448
 20
120.1550356333724
 30
0.0
 10
228.3553454105331
 20
120.167579312022
 30
0.0
 10
228.3136320977901
 20
120.1738358979167
 30
0.0
  0
SPLINE
  5
255
330
1F
100
AcDbEntity
  8
0
  6
Continuous
 62
     7
370
    18
100
AcDbSpline
210
0.0
220
0.0
230
1.0
 70
     8
 71
     3
 72
    13
 73
     9
 74
     0
 42
0.000000001
 43
0.00000001
 40
0.0
 40
0.0
 40
0.0
 40
0.0
 40
0.1237345749994074
 40
0.2484232101745689
 40
0.3734713343328623
 40
0.4987444967637459
 40
0.7493102257733251
 40
1.0
 40
1.0
 40
1.0
 40
1.0
 10
227.0186324492046
 20
118.492754576894
 30
0.0
 10
227.0597168453943
 20
118.5001178186468
 30
0.0
 10
227.1422024205826
 20
118.5149010767097
 30
0.0
 10
227.2263969902851
 20
118.6126138707806
 30
0.0
 10
227.2834667128409
 20
118.7213559533967
 30
0.0
 10
227.3226369102566
 20
118.8821490604926
 30
0.0
 10
227.3439042331804
 20
119.0867060443524
 30
0.0
 10
227.3460859725175
 20
119.2510852801306
 30
0.0
 10
227.3471771121426
 20
119.3332952374053
 30
0.0
  0
SPLINE
  5
256
330
1F
100
AcDbEntity
  8
0
  6
Continuous
 62
     7
370
    18
100
AcDbSpline
210
0.0
220
0.0
230
1.0
 70
     8
 71
     3
 72
    13
 73
     9
 74
     0
 42
0.000000001
 43
0.00000001
 40
0.0
 40
0.0
 40
0.0
 40
0.0
 40
0.2506668541570159
 40
0.5012048357437092
 40
0.6264537829510465
 40
0.7514291871594875
 40
0.8760522367173393
 40
1.0
 40
1.0
 40
1.0
 40
1.0
 10
226.680081349832
 20
119.3332952374053
 30
0.0
 10
226.6811296566486
 20
119.2503500016103
 30
0.0
 10
226.6832257313274
 20
119.0845021737347
 30
0.0
 10
226.7050448303663
 20
118.8781281713569
 30
0.0
 10
226.7451473106367
 20
118.716073787921
 30
0.0
 10
226.8045186522536
 20
118.6069682848018
 30
0.0
 10
226.8936200116013
 20
118.512277959343
 30
0.0
 10
226.9770371757965
 20
118.4992505739834
 30
0.0
 10
227.0186324492046
 20
118.492754576894
 30
0.0
  0
SPLINE
  5
257
330
1F
100
AcDbEntity
  8
0
  6
Continuous
 62
     7
370
    18
100
AcDbSpline
210
0.0
220
0.0
230
1.0
 70
     8
 71
     3
 72
    13
 73
     9
 74
     0
 42
0.000000001
 43
0.00000001
 40
0.0
 40
0.0
 40
0.0
 40
0.0
 40
0.1236770548154448
 40
0.2483884878623324
 40
0.3734455614730974
 40
0.4987169325064009
 40
0.7492948497723043
 40
1.0
 40
1.0
 40
1.0
 40
1.0
 10
227.0061244036613
 20
120.1738358979167
 30
0.0
 10
226.965135839007
 20
120.1663426986569
 30
0.0
 10
226.88281590012
 20
120.1512936304513
 30
0.0
 10
226.7997021806985
 20
120.0529362901211
 30
0.0
 10
226.7429691316252
 20
119.9443024687852
 30
0.0
 10
226.7049533376326
 20
119.7835204396209
 30
0.0
 10
226.6832085888904
 20
119.5794715296845
 30
0.0
 10
226.681123939223
 20
119.4153678854654
 30
0.0
 10
226.680081349832
 20
119.3332952374053
 30
0.0
  0
SPLINE
  5
258
330
1F
100
AcDbEntity
  8
0
  6
Continuous
 62
     7
370
    18
100
AcDbSpline
210
0.0
220
0.0
230
1.0
 70
     8
 71
     3
 72
    13
 73
     9
 74
     0
 42
0.000000001
 43
0.00000001
 40
0.0
 40
0.0
 40
0.0
 40
0.0
 40
0.2506736071386392
 40
0.501215260733799
 40
0.626452601510414
 40
0.7514497498805406
 40
0.8760271183236285
 40
1.0
 40
1.0
 40
1.0
 40
1.0
 10
227.3471771121426
 20
119.3332952374053
 30
0.0
 10
227.3461386092306
 20
119.4164413911591
 30
0.0
 10
227.34406215007
 20
119.5826899308775
 30
0.0
 10
227.3221479056588
 20
119.7895810586812
 30
0.0
 10
227.2817554504222
 20
119.9519566344115
 30
0.0
 10
227.2219878196721
 20
120.061297381671
 30
0.0
 10
227.1314677343193
 20
120.1550356333724
 30
0.0
 10
227.0478377164043
 20
120.167579312022
 30
0.0
 10
227.0061244036613
 20
120.1738358979167
 30
0.0
  0
SPLINE
  5
259
330
1F
100
AcDbEntity
  8
0
  6
Continuous
 62
     7
370
    18
100
AcDbSpline
210
0.0
220
0.0
230
1.0
 70
     8
 71
     3
 72
    12
 73
     8
 74
     0
 42
0.000000001
 43
0.00000001
 40
0.0
 40
0.0
 40
0.0
 40
0.0
 40
0.1864266110451034
 40
0.3728066183672645
 40
0.5596384089196418
 40
0.7795953861027515
 40
1.0
 40
1.0
 40
1.0
 40
1.0
 10
223.6260335630038
 20
118.492754576894
 30
0.0
 10
223.6628278064029
 20
118.4963102444826
 30
0.0
 10
223.7364070952184
 20
118.5034206907988
 30
0.0
 10
223.831201593246
 20
118.565317542232
 30
0.0
 10
223.906368686233
 20
118.6552787241925
 30
0.0
 10
223.9516433384159
 20
118.7725396923338
 30
0.0
 10
223.9561000291022
 20
118.8589403554291
 30
0.0
 10
223.9583306396048
 20
118.9021846010121
 30
0.0
  0
SPLINE
  5
25A
330
1F
100
AcDbEntity
  8
0
  6
Continuous
 62
     7
370
    18
100
AcDbSpline
210
0.0
220
0.0
230
1.0
 70
     8
 71
     3
 72
    11
 73
     7
 74
     0
 42
0.000000001
 43
0.00000001
 40
0.0
 40
0.0
 40
0.0
 40
0.0
 40
0.2807261943832928
 40
0.5603972916125631
 40
0.7804346209650627
 40
1.0
 40
1.0
 40
1.0
 40
1.0
 10
223.2912348772941
 20
118.910523298041
 30
0.0
 10
223.2948096172116
 20
118.8544906858206
 30
0.0
 10
223.3019456615424
 20
118.7426360575083
 30
0.0
 10
223.380456465497
 20
118.6042606317897
 30
0.0
 10
223.4941917666441
 20
118.509458594085
 30
0.0
 10
223.582117762857
 20
118.4983185960507
 30
0.0
 10
223.6260335630038
 20
118.492754576894
 30
0.0
  0
SPLINE
  5
25B
330
1F
100
AcDbEntity
  8
0
  6
Continuous
 62
     7
370
    18
100
AcDbSpline
210
0.0
220
0.0
230
1.0
 70
     8
 71
     3
 72
    11
 73
     7
 74
     0
 42
0.000000001
 43
0.00000001
 40
0.0
 40
0.0
 40
0.0
 40
0.0
 40
0.2782055765816071
 40
0.5579799253701359
 40
0.7788219222535245
 40
1.0
 40
1.0
 40
1.0
 40
1.0
 10
223.620613409935
 20
119.3199533221591
 30
0.0
 10
223.5659291345337
 20
119.3107635696958
 30
0.0
 10
223.4562522248101
 20
119.2923322447142
 30
0.0
 10
223.3510077083361
 20
119.1708605967158
 30
0.0
 10
223.2979304182924
 20
119.0398599102561
 30
0.0
 10
223.2934678552995
 20
118.9536573495601
 30
0.0
 10
223.2912348772941
 20
118.910523298041
 30
0.0
  0
SPLINE
  5
25C
330
1F
100
AcDbEntity
  8
0
  6
Continuous
 62
     7
370
    18
100
AcDbSpline
210
0.0
220
0.0
230
1.0
 70
     8
 71
     3
 72
    11
 73
     7
 74
     0
 42
0.000000001
 43
0.00000001
 40
0.0
 40
0.0
 40
0.0
 40
0.0
 40
0.2807535301687751
 40
0.5603207228591565
 40
0.7803822345379204
 40
1.0
 40
1.0
 40
1.0
 40
1.0
 10
223.9583306396048
 20
118.9021846010121
 30
0.0
 10
223.9546464359073
 20
118.9584235517634
 30
0.0
 10
223.9472935962914
 20
119.070663812888
 30
0.0
 10
223.8671684722971
 20
119.2087030948877
 30
0.0
 10
223.7529341405457
 20
119.3034499092629
 30
0.0
 10
223.6646906335584
 20
119.3144558871206
 30
0.0
 10
223.620613409935
 20
119.3199533221591
 30
0.0
  0
SPLINE
  5
25D
330
1F
100
AcDbEntity
  8
0
  6
Continuous
 62
     7
370
    18
100
AcDbSpline
210
0.0
220
0.0
230
1.0
 70
     8
 71
     3
 72
    11
 73
     7
 74
     0
 42
0.000000001
 43
0.00000001
 40
0.0
 40
0.0
 40
0.0
 40
0.0
 40
0.2783889696083874
 40
0.5580817055296803
 40
0.7789018539988235
 40
1.0
 40
1.0
 40
1.0
 40
1.0
 10
223.6260335630038
 20
119.5334239660985
 30
0.0
 10
223.6680206094192
 20
119.5405894265373
 30
0.0
 10
223.7521913382618
 20
119.5549539050876
 30
0.0
 10
223.8322947340117
 20
119.648647750289
 30
0.0
 10
223.8733101957866
 20
119.7489670811804
 30
0.0
 10
223.8766221361998
 20
119.8151150091275
 30
0.0
 10
223.8782791481275
 20
119.8482097789388
 30
0.0
  0
SPLINE
  5
25E
330
1F
100
AcDbEntity
  8
0
  6
Continuous
 62
     7
370
    18
100
AcDbSpline
210
0.0
220
0.0
230
1.0
 70
     8
 71
     3
 72
    11
 73
     7
 74
     0
 42
0.000000001
 43
0.00000001
 40
0.0
 40
0.0
 40
0.0
 40
0.0
 40
0.2806987831964729
 40
0.5604086902325236
 40
0.7804393617933023
 40
1.0
 40
1.0
 40
1.0
 40
1.0
 10
223.3712863687714
 20
119.8619686290365
 30
0.0
 10
223.3737140522026
 20
119.818411481794
 30
0.0
 10
223.378560866558
 20
119.7314506351582
 30
0.0
 10
223.4358308663552
 20
119.6219517392693
 30
0.0
 10
223.5232512997014
 20
119.5461545729663
 30
0.0
 10
223.591797239503
 20
119.5376644757067
 30
0.0
 10
223.6260335630038
 20
119.5334239660985
 30
0.0
  0
SPLINE
  5
25F
330
1F
100
AcDbEntity
  8
0
  6
Continuous
 62
     7
370
    18
100
AcDbSpline
210
0.0
220
0.0
230
1.0
 70
     8
 71
     3
 72
    11
 73
     7
 74
     0
 42
0.000000001
 43
0.00000001
 40
0.0
 40
0.0
 40
0.0
 40
0.0
 40
0.2781848052830349
 40
0.5582334878196251
 40
0.7790790531104528
 40
1.0
 40
1.0
 40
1.0
 40
1.0
 10
223.6235319538951
 20
120.1738358979167
 30
0.0
 10
223.5819750194705
 20
120.1665305161938
 30
0.0
 10
223.498582713326
 20
120.1518708056649
 30
0.0
 10
223.4191513990455
 20
120.0592419478913
 30
0.0
 10
223.3770133441335
 20
119.9603354413965
 30
0.0
 10
223.3731955777092
 20
119.894761296276
 30
0.0
 10
223.3712863687714
 20
119.8619686290365
 30
0.0
  0
SPLINE
  5
260
330
1F
100
AcDbEntity
  8
0
  6
Continuous
 62
     7
370
    18
100
AcDbSpline
210
0.0
220
0.0
230
1.0
 70
     8
 71
     3
 72
    11
 73
     7
 74
     0
 42
0.000000001
 43
0.00000001
 40
0.0
 40
0.0
 40
0.0
 40
0.0
 40
0.2805990159984021
 40
0.5604527759419514
 40
0.7805133266133525
 40
1.0
 40
1.0
 40
1.0
 40
1.0
 10
223.8782791481275
 20
119.8482097789388
 30
0.0
 10
223.8755952256295
 20
119.8913490655052
 30
0.0
 10
223.8702345089888
 20
119.9775130629883
 30
0.0
 10
223.8097219903138
 20
120.0834017229394
 30
0.0
 10
223.7249847290191
 20
120.1595555206998
 30
0.0
 10
223.6573200977283
 20
120.1690799172271
 30
0.0
 10
223.6235319538951
 20
120.1738358979167
 30
0.0
  0
SPLINE
  5
261
330
1F
100
AcDbEntity
  8
0
  6
Continuous
 62
     7
370
    18
100
AcDbSpline
210
0.0
220
0.0
230
1.0
 70
     8
 71
     3
 72
    13
 73
     9
 74
     0
 42
0.000000001
 43
0.00000001
 40
0.0
 40
0.0
 40
0.0
 40
0.0
 40
0.1237345749994116
 40
0.248423210174568
 40
0.3734713343328636
 40
0.498744496763747
 40
0.7493102257733254
 40
1.0
 40
1.0
 40
1.0
 40
1.0
 10
222.322278282538
 20
118.492754576894
 30
0.0
 10
222.3633626787276
 20
118.5001178186468
 30
0.0
 10
222.445848253916
 20
118.5149010767097
 30
0.0
 10
222.5300428236184
 20
118.6126138707806
 30
0.0
 10
222.5871125461742
 20
118.7213559533967
 30
0.0
 10
222.6262827435899
 20
118.8821490604926
 30
0.0
 10
222.6475500665137
 20
119.0867060443524
 30
0.0
 10
222.6497318058509
 20
119.2510852801306
 30
0.0
 10
222.650822945476
 20
119.3332952374053
 30
0.0
  0
SPLINE
  5
262
330
1F
100
AcDbEntity
  8
0
  6
Continuous
 62
     7
370
    18
100
AcDbSpline
210
0.0
220
0.0
230
1.0
 70
     8
 71
     3
 72
    13
 73
     9
 74
     0
 42
0.000000001
 43
0.00000001
 40
0.0
 40
0.0
 40
0.0
 40
0.0
 40
0.2506668541570163
 40
0.5012048357437096
 40
0.6264537829510485
 40
0.7514291871594889
 40
0.8760522367173409
 40
1.0
 40
1.0
 40
1.0
 40
1.0
 10
221.9837271831654
 20
119.3332952374053
 30
0.0
 10
221.9847754899819
 20
119.2503500016103
 30
0.0
 10
221.9868715646608
 20
119.0845021737347
 30
0.0
 10
222.0086906636996
 20
118.8781281713569
 30
0.0
 10
222.0487931439701
 20
118.716073787921
 30
0.0
 10
222.108164485587
 20
118.6069682848018
 30
0.0
 10
222.1972658449347
 20
118.512277959343
 30
0.0
 10
222.2806830091299
 20
118.4992505739834
 30
0.0
 10
222.322278282538
 20
118.492754576894
 30
0.0
  0
SPLINE
  5
263
330
1F
100
AcDbEntity
  8
0
  6
Continuous
 62
     7
370
    18
100
AcDbSpline
210
0.0
220
0.0
230
1.0
 70
     8
 71
     3
 72
    13
 73
     9
 74
     0
 42
0.000000001
 43
0.00000001
 40
0.0
 40
0.0
 40
0.0
 40
0.0
 40
0.1236770548154441
 40
0.2483884878623315
 40
0.3734455614730942
 40
0.498716932506401
 40
0.7492948497723045
 40
1.0
 40
1.0
 40
1.0
 40
1.0
 10
222.3097702369947
 20
120.1738358979167
 30
0.0
 10
222.2687816723403
 20
120.1663426986569
 30
0.0
 10
222.1864617334533
 20
120.1512936304513
 30
0.0
 10
222.1033480140318
 20
120.0529362901211
 30
0.0
 10
222.0466149649586
 20
119.9443024687852
 30
0.0
 10
222.008599170966
 20
119.7835204396209
 30
0.0
 10
221.9868544222236
 20
119.5794715296845
 30
0.0
 10
221.9847697725563
 20
119.4153678854654
 30
0.0
 10
221.9837271831654
 20
119.3332952374053
 30
0.0
  0
SPLINE
  5
264
330
1F
100
AcDbEntity
  8
0
  6
Continuous
 62
     7
370
    18
100
AcDbSpline
210
0.0
220
0.0
230
1.0
 70
     8
 71
     3
 72
    13
 73
     9
 74
     0
 42
0.000000001
 43
0.00000001
 40
0.0
 40
0.0
 40
0.0
 40
0.0
 40
0.2506736071386386
 40
0.5012152607337983
 40
0.6264526015104127
 40
0.7514497498805398
 40
0.8760271183236261
 40
1.0
 40
1.0
 40
1.0
 40
1.0
 10
222.650822945476
 20
119.3332952374053
 30
0.0
 10
222.6497844425639
 20
119.4164413911591
 30
0.0
 10
222.6477079834034
 20
119.5826899308775
 30
0.0
 10
222.6257937389921
 20
119.7895810586812
 30
0.0
 10
222.5854012837556
 20
119.9519566344115
 30
0.0
 10
222.5256336530054
 20
120.061297381671
 30
0.0
 10
222.4351135676526
 20
120.1550356333724
 30
0.0
 10
222.3514835497376
 20
120.167579312022
 30
0.0
 10
222.3097702369947
 20
120.1738358979167
 30
0.0
  0
CIRCLE
  5
265
330
1F
100
AcDbEntity
  8
0
  6
Continuous
 62
     7
370
    18
100
AcDbCircle
 10
225.8929083503
 20
121.694814236
 30
0.0
 40
25.40000000000001
  0
OLE2FRAME
  5
266
330
1F
100
AcDbEntity
  8
0
100
AcDbOle2Frame
 70
     2
  3
Paintbrush Picture
 10
229.0524258301
 20
33.6996297921
 30
0.0
 11
265.1686469208
 21
28.555479607
 31
0.0
 71
     2
 72
     0
 73
     1
 90
     7296
310
80557333EF78ADA16C40002412788DD94040000000000000000041161DC7B292
310
7040002412788DD94040000000000000000041161DC7B2927040F6DD59E9338E
310
3C4000000000000000007333EF78ADA16C40F6DD59E9338E3C40000000000000
310
00000000000001000000000100000100000001000000000001000000001C0000
310
D0CF11E0A1B11AE1000000000000000000000000000000003E000300FEFF0900
310
0600000000000000000000000100000001000000000000000010000002000000
310
01000000FEFFFFFF0000000000000000FFFFFFFFFFFFFFFFFFFFFFFFFFFFFFFF
310
FFFFFFFFFFFFFFFFFFFFFFFFFFFFFFFFFFFFFFFFFFFFFFFFFFFFFFFFFFFFFFFF
310
FFFFFFFFFFFFFFFFFFFFFFFFFFFFFFFFFFFFFFFFFFFFFFFFFFFFFFFFFFFFFFFF
310
FFFFFFFFFFFFFFFFFFFFFFFFFFFFFFFFFFFFFFFFFFFFFFFFFFFFFFFFFFFFFFFF
310
FFFFFFFFFFFFFFFFFFFFFFFFFFFFFFFFFFFFFFFFFFFFFFFFFFFFFFFFFFFFFFFF
310
FFFFFFFFFFFFFFFFFFFFFFFFFFFFFFFFFFFFFFFFFFFFFFFFFFFFFFFFFFFFFFFF
310
FFFFFFFFFFFFFFFFFFFFFFFFFFFFFFFFFFFFFFFFFFFFFFFFFFFFFFFFFFFFFFFF
310
FFFFFFFFFFFFFFFFFFFFFFFFFFFFFFFFFFFFFFFFFFFFFFFFFFFFFFFFFFFFFFFF
310
FFFFFFFFFFFFFFFFFFFFFFFFFFFFFFFFFFFFFFFFFFFFFFFFFFFFFFFFFFFFFFFF
310
FFFFFFFFFFFFFFFFFFFFFFFFFFFFFFFFFFFFFFFFFFFFFFFFFFFFFFFFFFFFFFFF
310
FFFFFFFFFFFFFFFFFFFFFFFFFFFFFFFFFFFFFFFFFFFFFFFFFFFFFFFFFFFFFFFF
310
FFFFFFFFFFFFFFFFFFFFFFFFFFFFFFFFFFFFFFFFFFFFFFFFFFFFFFFFFFFFFFFF
310
FFFFFFFFFFFFFFFFFFFFFFFFFFFFFFFFFFFFFFFFFFFFFFFFFFFFFFFFFFFFFFFF
310
FFFFFFFFFFFFFFFFFFFFFFFFFFFFFFFFFFFFFFFFFFFFFFFFFFFFFFFFFFFFFFFF
310
FDFFFFFFFEFFFFFFFEFFFFFFFEFFFFFF05000000060000000700000008000000
310
090000000A0000000B0000000C000000FEFFFFFFFFFFFFFFFFFFFFFFFFFFFFFF
310
FFFFFFFFFFFFFFFFFFFFFFFFFFFFFFFFFFFFFFFFFFFFFFFFFFFFFFFFFFFFFFFF
310
FFFFFFFFFFFFFFFFFFFFFFFFFFFFFFFFFFFFFFFFFFFFFFFFFFFFFFFFFFFFFFFF
310
FFFFFFFFFFFFFFFFFFFFFFFFFFFFFFFFFFFFFFFFFFFFFFFFFFFFFFFFFFFFFFFF
310
FFFFFFFFFFFFFFFFFFFFFFFFFFFFFFFFFFFFFFFFFFFFFFFFFFFFFFFFFFFFFFFF
310
FFFFFFFFFFFFFFFFFFFFFFFFFFFFFFFFFFFFFFFFFFFFFFFFFFFFFFFFFFFFFFFF
310
FFFFFFFFFFFFFFFFFFFFFFFFFFFFFFFFFFFFFFFFFFFFFFFFFFFFFFFFFFFFFFFF
310
FFFFFFFFFFFFFFFFFFFFFFFFFFFFFFFFFFFFFFFFFFFFFFFFFFFFFFFFFFFFFFFF
310
FFFFFFFFFFFFFFFFFFFFFFFFFFFFFFFFFFFFFFFFFFFFFFFFFFFFFFFFFFFFFFFF
310
FFFFFFFFFFFFFFFFFFFFFFFFFFFFFFFFFFFFFFFFFFFFFFFFFFFFFFFFFFFFFFFF
310
FFFFFFFFFFFFFFFFFFFFFFFFFFFFFFFFFFFFFFFFFFFFFFFFFFFFFFFFFFFFFFFF
310
FFFFFFFFFFFFFFFFFFFFFFFFFFFFFFFFFFFFFFFFFFFFFFFFFFFFFFFFFFFFFFFF
310
FFFFFFFFFFFFFFFFFFFFFFFFFFFFFFFFFFFFFFFFFFFFFFFFFFFFFFFFFFFFFFFF
310
FFFFFFFFFFFFFFFFFFFFFFFFFFFFFFFFFFFFFFFFFFFFFFFFFFFFFFFFFFFFFFFF
310
FFFFFFFFFFFFFFFFFFFFFFFFFFFFFFFFFFFFFFFFFFFFFFFFFFFFFFFFFFFFFFFF
310
52006F006F007400200045006E00740072007900000000000000000000000000
310
0000000000000000000000000000000000000000000000000000000000000000
310
16000500FFFFFFFFFFFFFFFF020000000A00030000000000C000000000000046
310
000000000000000000000000704C79BE4496D40103000000C000000000000000
310
01004F006C006500000000000000000000000000000000000000000000000000
310
0000000000000000000000000000000000000000000000000000000000000000
310
0A000200FFFFFFFFFFFFFFFFFFFFFFFF00000000000000000000000000000000
310
0000000000000000000000000000000000000000000000001400000000000000
310
010043006F006D0070004F0062006A0000000000000000000000000000000000
310
0000000000000000000000000000000000000000000000000000000000000000
310
120002010100000003000000FFFFFFFF00000000000000000000000000000000
310
0000000000000000000000000000000000000000010000004D00000000000000
310
01004F006C006500310030004E00610074006900760065000000000000000000
310
0000000000000000000000000000000000000000000000000000000000000000
310
1A000200FFFFFFFFFFFFFFFFFFFFFFFF00000000000000000000000000000000
310
000000000000000000000000000000000000000004000000E411000000000000
310
FEFFFFFF02000000FEFFFFFFFFFFFFFFFFFFFFFFFFFFFFFFFFFFFFFFFFFFFFFF
310
FFFFFFFFFFFFFFFFFFFFFFFFFFFFFFFFFFFFFFFFFFFFFFFFFFFFFFFFFFFFFFFF
310
FFFFFFFFFFFFFFFFFFFFFFFFFFFFFFFFFFFFFFFFFFFFFFFFFFFFFFFFFFFFFFFF
310
FFFFFFFFFFFFFFFFFFFFFFFFFFFFFFFFFFFFFFFFFFFFFFFFFFFFFFFFFFFFFFFF
310
FFFFFFFFFFFFFFFFFFFFFFFFFFFFFFFFFFFFFFFFFFFFFFFFFFFFFFFFFFFFFFFF
310
FFFFFFFFFFFFFFFFFFFFFFFFFFFFFFFFFFFFFFFFFFFFFFFFFFFFFFFFFFFFFFFF
310
FFFFFFFFFFFFFFFFFFFFFFFFFFFFFFFFFFFFFFFFFFFFFFFFFFFFFFFFFFFFFFFF
310
FFFFFFFFFFFFFFFFFFFFFFFFFFFFFFFFFFFFFFFFFFFFFFFFFFFFFFFFFFFFFFFF
310
FFFFFFFFFFFFFFFFFFFFFFFFFFFFFFFFFFFFFFFFFFFFFFFFFFFFFFFFFFFFFFFF
310
FFFFFFFFFFFFFFFFFFFFFFFFFFFFFFFFFFFFFFFFFFFFFFFFFFFFFFFFFFFFFFFF
310
FFFFFFFFFFFFFFFFFFFFFFFFFFFFFFFFFFFFFFFFFFFFFFFFFFFFFFFFFFFFFFFF
310
FFFFFFFFFFFFFFFFFFFFFFFFFFFFFFFFFFFFFFFFFFFFFFFFFFFFFFFFFFFFFFFF
310
FFFFFFFFFFFFFFFFFFFFFFFFFFFFFFFFFFFFFFFFFFFFFFFFFFFFFFFFFFFFFFFF
310
FFFFFFFFFFFFFFFFFFFFFFFFFFFFFFFFFFFFFFFFFFFFFFFFFFFFFFFFFFFFFFFF
310
FFFFFFFFFFFFFFFFFFFFFFFFFFFFFFFFFFFFFFFFFFFFFFFFFFFFFFFFFFFFFFFF
310
FFFFFFFFFFFFFFFFFFFFFFFFFFFFFFFFFFFFFFFFFFFFFFFFFFFFFFFFFFFFFFFF
310
0100000200000000000000000000000000000000000000000000000000000000
310
0000000000000000000000000000000000000000000000000000000000000000
310
0100FEFF030A0000FFFFFFFF0A00030000000000C00000000000004607000000
310
5042727573680007000000504272757368000700000050427275736800F439B2
310
7100000000000000000000000000000000000000000000000000000000000000
310
0000000000000000000000000000000000000000000000000000000000000000
310
0000000000000000000000000000000000000000000000000000000000000000
310
0000000000000000000000000000000000000000000000000000000000000000
310
0000000000000000000000000000000000000000000000000000000000000000
310
0000000000000000000000000000000000000000000000000000000000000000
310
0000000000000000000000000000000000000000000000000000000000000000
310
0000000000000000000000000000000000000000000000000000000000000000
310
0000000000000000000000000000000000000000000000000000000000000000
310
0000000000000000000000000000000000000000000000000000000000000000
310
0000000000000000000000000000000000000000000000000000000000000000
310
0000000000000000000000000000000000000000000000000000000000000000
310
E0110000424DDE11000000000000360400002800000096000000170000000100
310
08000000000000000000E7240000E72400000001000000010000000000FF0101
310
01FF020202FF030303FF040404FF050505FF060606FF070707FF080808FF0909
310
09FF0A0A0AFF0B0B0BFF0C0C0CFF0D0D0DFF0E0E0EFF0F0F0FFF101010FF1111
310
11FF121212FF131313FF141414FF151515FF161616FF171717FF181818FF1919
310
19FF1A1A1AFF1B1B1BFF1C1C1CFF1D1D1DFF1E1E1EFF1F1F1FFF202020FF2121
310
21FF222222FF232323FF242424FF252525FF262626FF272727FF282828FF2929
310
29FF2A2A2AFF2B2B2BFF2C2C2CFF2D2D2DFF2E2E2EFF2F2F2FFF303030FF3131
310
31FF323232FF333333FF343434FF353535FF363636FF373737FF383838FF3939
310
39FF3A3A3AFF3B3B3BFF3C3C3CFF3D3D3DFF3E3E3EFF3F3F3FFF404040FF4141
310
41FF424242FF434343FF444444FF454545FF464646FF474747FF484848FF4949
310
49FF4A4A4AFF4B4B4BFF4C4C4CFF4D4D4DFF4E4E4EFF4F4F4FFF505050FF5151
310
51FF525252FF535353FF545454FF555555FF565656FF575757FF585858FF5959
310
59FF5A5A5AFF5B5B5BFF5C5C5CFF5D5D5DFF5E5E5EFF5F5F5FFF606060FF6161
310
61FF626262FF636363FF646464FF656565FF666666FF676767FF686868FF6969
310
69FF6A6A6AFF6B6B6BFF6C6C6CFF6D6D6DFF6E6E6EFF6F6F6FFF707070FF7171
310
71FF727272FF737373FF747474FF757575FF767676FF777777FF787878FF7979
310
79FF7A7A7AFF7B7B7BFF7C7C7CFF7D7D7DFF7E7E7EFF7F7F7FFF808080FF8181
310
81FF828282FF838383FF848484FF858585FF868686FF878787FF888888FF8989
310
89FF8A8A8AFF8B8B8BFF8C8C8CFF8D8D8DFF8E8E8EFF8F8F8FFF909090FF9191
310
91FF929292FF939393FF949494FF959595FF969696FF979797FF989898FF9999
310
99FF9A9A9AFF9B9B9BFF9C9C9CFF9D9D9DFF9E9E9EFF9F9F9FFFA0A0A0FFA1A1
310
A1FFA2A2A2FFA3A3A3FFA4A4A4FFA5A5A5FFA6A6A6FFA7A7A7FFA8A8A8FFA9A9
310
A9FFAAAAAAFFABABABFFACACACFFADADADFFAEAEAEFFAFAFAFFFB0B0B0FFB1B1
310
B1FFB2B2B2FFB3B3B3FFB4B4B4FFB5B5B5FFB6B6B6FFB7B7B7FFB8B8B8FFB9B9
310
B9FFBABABAFFBBBBBBFFBCBCBCFFBDBDBDFFBEBEBEFFBFBFBFFFC0C0C0FFC1C1
310
C1FFC2C2C2FFC3C3C3FFC4C4C4FFC5C5C5FFC6C6C6FFC7C7C7FFC8C8C8FFC9C9
310
C9FFCACACAFFCBCBCBFFCCCCCCFFCDCDCDFFCECECEFFCFCFCFFFD0D0D0FFD1D1
310
D1FFD2D2D2FFD3D3D3FFD4D4D4FFD5D5D5FFD6D6D6FFD7D7D7FFD8D8D8FFD9D9
310
D9FFDADADAFFDBDBDBFFDCDCDCFFDDDDDDFFDEDEDEFFDFDFDFFFE0E0E0FFE1E1
310
E1FFE2E2E2FFE3E3E3FFE4E4E4FFE5E5E5FFE6E6E6FFE7E7E7FFE8E8E8FFE9E9
310
E9FFEAEAEAFFEBEBEBFFECECECFFEDEDEDFFEEEEEEFFEFEFEFFFF0F0F0FFF1F1
310
F1FFF2F2F2FFF3F3F3FFF4F4F4FFF5F5F5FFF6F6F6FFF7F7F7FFF8F8F8FFF9F9
310
F9FFFAFAFAFFFBFBFBFFFCFCFCFFFDFDFDFFFEFEFEFFFFFFFFFFFFFFFFFFFFFF
310
C94E4E4E4F4E4EFFFFFFFFFFC94E4E4E4E4E72FFFFFFFFFFFFFF734E4D4E4E4E
310
C9FFFFFFFFFFAA683516171616265B9BE9FFFFFFFFFF4E4E4E4D4E4EFFFFFFFF
310
FFFFFFFF4E4E4F4E4D4E4E4E4F4E4E4F4D4E4E4E4E4E4D4E4F4E4D4E4E4EAAFF
310
FFFFFFFFFFEA4E4F4F4E4E4E4E4E4D4D4F4F4E4E4E4E4E5B7FAAFFFFFFFFFFFF
310
C9744E1716171616164D8DEAFFFFFFFF0000FFFFFFFFFFFFBA161617161716FF
310
FFFFFFFFB917171616174FFFFFFFFFFFFFFF4E1716161616B9FFFFFFB9341717
310
1716171617171616268CFFFFFFFF161617161617FFFFFFFFFFFFFFB917161717
310
1617167F807F7F7F7F7F7F807F7F807F7F807F7F7F414EFFFFFFFFFFFF8C167F
310
7F807F7F7F7E7F7F807F807F7F807F4E3417258EFFFFEA4E162674AABAEAEBBA
310
AA74341680FFFFFF0000FFFFFFFFFFFFB9171717171617FFFFFFFFFFBB161616
310
16164EFFFFFFFFFFFFFF4E1717171717B9FFFF9C171617171716161616171616
310
171766FFFFFF161717161617FFFFFFFFFFFFFF8E16171717161616FFFFFFFFFF
310
FFFFFFFFFFFFFFFFFFFFFFFFFFAA16D9FFFFFFFFFF3467FFFFFFFFEAFFFFFFFF
310
FFFFFFFFFFFFFFFFFFCA671667EB26278DFFFFFFFFFFFFFFFFFFFF8C2541EAFF
310
0000FFFFFFFFFFFFB9171717171716FFFFFFFFFFBA16171617174EFFFFFFFFFF
310
FFFF4E1717161616BAFF9B1617161616171716171617161616161667FFFF1616
310
16161716FFFFFFFFFFFFFF7F16161617174017FFFFFFFFFFFFFFFFFFFFFFFFFF
310
FFFFFFFFFFFF344E7F7F7F7E7417DAFFFFFFFF80FFFFFFFFFFFFFFFFFFFFFFFF
310
FFFFFF9B163425CAFFFFFFFFFFFFFFFFFFFFFFFFCA2667FF0000FFFFFFFFFFFF
310
BA171717171617FFFFFFFFFFB916171716164EFFFFFFFFFFFFFF4F1716161717
310
B9C91716171616161716161617171616161617168DFF161716161717FFFFFFFF
310
FFFFFF7F17171716164F16FFFFFFFFFFFFFFFFFFFFFFFFFFFFFFFFFFFFFF9B16
310
17161617174EFFFFFFFFFF34FFFFFFFFD9BABABABABADAFFFFFFFFFF7F16AAFF
310
FFFFFFFFFFFFFFFFFFFFFFFFFF9C16BA0000FFFFFFFFFFFFB9161717161717FF
310
FFFFFFFFB917161716174DFFFFFFFFFFFFFF4E1616161616BA4E161617171716
310
419BEAEAAA4E16161617161726E9171717161616FFFFFFFFFFFFFF4F16161717
310
164E16FFFFFFFFFFBAB9B9B9B9B9BABABACAFFFFFFFFFFFFFFFFFFFFFFFFFFFF
310
FFFFBA16FFFFFFFF7F1617161617174DEAFFFFFFEA41FFFFFFFFFFAA4D16174E
310
9BFFFFFFFFFF34730000FFFFFFFFFFFFB9161617171617FFFFFFFFFFBA161616
310
16164EFFFFFFFFFFFFFF4F16161717169B1617161716175BFFFFFFFFFFFF7417
310
16171616168D171717161617FFFFFFFFFFFFEA2616171717167416FFFFFFFFFF
310
16171616171717171717EAFFFFFFFFFFFFFFFFFFFFFFFFFFFFFF6716FFFFFFFF
310
7F4EFFFFFFFFBA2573FFFFFFFFBAFFFFFFFFAA167FB9BB9B269BFFFFFFFF664F
310
0000FFFFFFFFFFFFB9171616161616FFFFFFFFFFBA16161717164EFFFFFFFFFF
310
FFFF4E16161616174E161617171626EAFFFFFFFFFFFFFF4E16161616164E1716
310
16161617FFFFFFFFFFFF671616161716347F16FFFFFFFFFF16B9FFFFFFFFFFFF
310
D9168DFFFFFFFFFFFFFFFFFFFFFFFFFFFFEA1716FFFFFFFF7F4EFFFFFFFFFF7F
310
4EFFFFFFFFFFFFFFFFFF5B66FFFFFFEA347FFFFFFFFF7F4D0000FFFFFFFFFFFF
310
B9171616171617FFFFFFFFFFBA17161716174EFFFFFFFFFFFFFF4D1716161617
310
17161716161673FFFFFFFFFFFFFFFF9B1617161717161616171616174F4E4E4E
310
4E341616171616167E7F16FFFFFFFFFF16BAFFFFFFFFFFFFFF5B41FFFFFFFF34
310
1616171616BAFFFFFF9B1716FFFFFFFF7F4EFFFFFFFFFF4E4EFFFFFFFF734E4E
310
4E4E267EDA9B67164EEAFFFFFFFF744D0000FFFFFFFFFFFFBA171717161617FF
310
FFFFFFFFBA1616171616347F7F7F7F80807F331616161717161717161716B9FF
310
FFFFFFFFFFFFFFE9161616161616171716161716171616161616171616171734
310
EA7F16FFFFFFFFFF16BAFFFFFFFFFFFFFFAA17C9FFFFFF7326BABA5B25FFFFFF
310
FF401716FFFFFFFF7F264F4E4E4E4217AAFFFFFFEA16677F73261616164173CA
310
FFFFFFFFFFFF417F0000FFFFFFFFFFFFBA171616171617FFFFFFFFFFBA161616
310
17171616161616161616161717161616161616161617EAFFFFFFFFFFFFFFFFFF
310
261717161716161617161616161617161617161616174EEAFF8016FFFFFFFFFF
310
17BAFFFFFFFFFFFFFFFF3467FFFFFFC916C9FF3467FFFFFFDA166716FFFFFFFF
310
9C4D4E4E4E4E67AAFFFFFFFF6834FF7F262567AAEAFFFFFFFFFFFFFFFF9B17D9
310
0000FFFFFFFFFFFFB9161616161616FFFFFFFFFFBA1617161717171616161616
310
1716171716161716161617171716FFFFFFFFFFFFFFFFFFFF4E17161716171616
310
1617171616161716171717161616169BFF7F17FFFFFFFFFF17B9FFFFFFFFFFFF
310
FFFF7326FFFFFFFF3473DA16AAFFFFFF7317AA16FFFFFFFFFFFFFFFFFFFFFFFF
310
FFFFEA6725BA4E167FEAFFFFFFFFFFFFFFFFFFFF9C167FFF0000FFFFFFFFFFFF
310
B9161717171716FFFFFFFFFFBA16161716171616171717161617161716161616
310
171617171617EAFFFFFFFFFFFFFFFFFF26161717161616161616161617171616
310
1616161616171616AA8016FFFFFFFFFF16BAFFFFFFFFFFFFFFFFDA179BFFFFFF
310
74348D26FFFFFFFF2566B917FFFFFFFFD8BAB9BAB9BADAFFFFEA41169B7425C9
310
FFFFFFFFFFFFFFFFFFFFAB4F1680FFFF0000FFFFFFFFFFFFBA161717171617FF
310
FFFFFFFFBA17161717161617171617161616161617171616171716171617BBFF
310
FFFFFFFFFFFFFFE9171616161617161617161716FFFFFFFFFFD9671616161617
310
348017FFFFFFFFFF16BAFFFFFFFFFFFFFFFFFF4E5AFFFFFFC916265AFFFFFFAA
310
16AABA16FFFFFFFF7F1617161616179BFFFFEB4127168DFFFFFFFFFFFFFFD99B
310
6734175AC9FFFFFF0000FFFFFFFFFFFFB9161617171617FFFFFFFFFFBB161616
310
1616347F807F7F7F7F8033171716171617171616161672FFFFFFFFFFFFFFFF9C
310
171617171617161716161617FFFFFFFFFFFFFF4117161616174E17FFFFFFFFFF
310
16BAFFFFFFFFFFFFFFFFFF9B16DAFFFFFF34169BFFFFFF5A26FFB917FFFFFFFF
310
7F4EFFFFFFEA5B26FFFFFFEA2616EAFFFFFFFFDA743416331617414E4E4E4ECA
310
0000FFFFFFFFFFFFBA161716161616FFFFFFFFFFBA17171616164EFFFFFFFFFF
310
FFFF4E16161717174E161717171626EBFFFFFFFFFFFFFF4E16161617165B1616
310
16171617FFFFFFFFFFFFFF6716161616161617FFFFFFFFFF16BAFFFFFFFFFFFF
310
FFFFFFEA268CFFFFFF7316EAFFFFEB1774FFB916FFFFFFFF7F4EFFFFFFFF7316
310
FFFFFFFF6826FFFFFFFFEB264D9CEABA257F807F7F6616BA0000FFFFFFFFFFFF
310
BA161716161616FFFFFFFFFFBA16171616164DFFFFFFFFFFFFFF4E1617161617
310
9B1617171717165BEBFFFFFFFFFF671616161617179B171616161616FFFFFFFF
310
FFFFFF3417161617171617FFFFFFFFFF17BAFFFFFFFFFFFFFFFFFFFF6734FFFF
310
FFEBCAFFFFFF8D17C9FFBA17FFFFFFFF7F357F808066174FFFFFFFFF7F16FFFF
310
FFFFD91673B99B415BFFFFFFFFBA16DA00009B7F7F7F807F671617161616167F
310
80807F7E6617161616164EFFFFFFFFFFFFFF4E1616161617B94E171716161616
310
349BC9D9AA4E16171616161634FF161617161717B9B9BAB9BA9B411716171716
310
163416FFFFFFFFFF16B9FFFFFFFFFFFFFFFFFFFFC917CAFFFFFFFFFFFFFF3342
310
FFFFBA17FFFFFFFF9B4E4E4F4E4E66EAFFFFFFFF5B16C9FFFFFFFFAA4E164E73
310
EAFFFFFFFF8D26FF00004E161716161616171617171616171717171617161616
310
17174EFFFFFFFFFFFFFF4E1717171616B9D92616171716171716171717171716
310
16171716AAFF161717171617161617171616161617161716166717FFFFFFFFFF
310
17B9FFFFFFFFFFFFFFFFFFFFFF3467FFFFFFFFFFFFCA168CFFFFBB17FFFFFFFF
310
FFFFFFFFFFFFFFFFFFFFFFEA26265BFFFFFFFFFFFFFFFFFFFFFFFFFFEA3467FF
310
00004D16161616161617161717161617161616171617171616164EFFFFFFFFFF
310
FFFF4D1617161616BAFF9B1616161616161716161616171717161766FFFF1616
310
16171617161617161716171616171717667F16FFFFFFFFFF17BAFFFFFFFFFFFF
310
FFFFFFFFFF8C26EAFFFFFFFFFF6617EAFFFFBA17FFFFFFFFFFFFFFFFFFFFFFFF
310
FFFFEA5A25BA269BFFFFFFFFFFFFFFFFFFFFFFFF6616DAFF00004E1616171616
310
1616161616161716161617171616171616174EFFFFFFFFFFFFFF4D1717171716
310
B9FFFF9C161616161616161716161717171667FFFFFF17161717171716161617
310
1716161616161641E97E16FFFFFFFFFF16B9FFFFFFFFFFFFFFFFFFFFFFEA169B
310
FFFFFFFFEA265BFFFFFFB916FFFFFFFFFFFFFFFFFFFFFFFFFF9B3416AAFF9B17
310
67EAFFFFFFFFFFFFFFFFEA5B169BFFFF00004D17161716161616161717171616
310
161717161716171716174EFFFFFFFFFFFFFF4D1616161616BAFFFFFFBB411616
310
161716161616171634ABFFFFFFFF161716161617171716171617171617267FFF
310
FF7F164E4E4E4E4F17BAFFFFFFFFFFFFFFFFFFFFFFFF66344D4E4E4F4117AAFF
310
FFFFBA174E4E4E4D4E4D4D4E4E4E4E4116174EBBFFFFFFCA342666ABEAFFFFEA
310
AA6725269CFFFFFF0000724F4E4D4D4D4E4D4D4E4E4E4D4E4E4E4E4E4E4E4E4D
310
4E4E74FFFFFFFFFFFFFF734E4E4E4D4ECAFFFFFFFFFFAA663416171717265B9B
310
FFFFFFFFFFFF7F8080807F80807F7F7F7F7F807FBAFFFFFFFF9B4E4E4F4D4D4E
310
4DC9FFFFFFFFFFFFFFFFFFFFFFFFBA4E4E4E4E4D4E4EFFFFFFFFC94E4E4E4F4E
310
4E4E4D4E4E5A807F9CD9FFFFFFFFFFFFFF9B5B2617171716174E8DEAFFFFFFFF
310
0000000000000000000000000000000000000000000000000000000000000000
  1
OLE
  0
ENDSEC
  0
SECTION
  2
OBJECTS
  0
DICTIONARY
  5
C
330
0
100
AcDbDictionary
281
     1
  3
ACAD_GROUP
350
D
  3
ACAD_LAYOUT
350
1A
  3
ACAD_MLINESTYLE
350
17
  3
ACAD_PLOTSETTINGS
350
19
  3
ACAD_PLOTSTYLENAME
350
E
  3
ACAD_SCALELIST
350
47
  0
DICTIONARY
  5
D
102
{ACAD_REACTORS
330
C
102
}
330
C
100
AcDbDictionary
281
     1
  0
DICTIONARY
  5
1A
102
{ACAD_REACTORS
330
C
102
}
330
C
100
AcDbDictionary
281
     1
  3
Layout1
350
1E
  3
Layout2
350
26
  3
Model
350
22
  0
DICTIONARY
  5
17
102
{ACAD_REACTORS
330
C
102
}
330
C
100
AcDbDictionary
281
     1
  3
Standard
350
18
  0
DICTIONARY
  5
19
102
{ACAD_REACTORS
330
C
102
}
330
C
100
AcDbDictionary
281
     1
  0
ACDBDICTIONARYWDFLT
  5
E
102
{ACAD_REACTORS
330
C
102
}
330
C
100
AcDbDictionary
281
     1
  3
Normal
350
F
100
AcDbDictionaryWithDefault
340
F
  0
DICTIONARY
  5
47
102
{ACAD_REACTORS
330
C
102
}
330
C
100
AcDbDictionary
281
     1
  3
A0
350
48
  3
A1
350
49
  3
A2
350
4A
  3
A3
350
4B
  3
A4
350
4C
  3
A5
350
4D
  3
A6
350
4E
  3
A7
350
4F
  3
A8
350
50
  3
A9
350
51
  3
B0
350
52
  3
B1
350
53
  3
B2
350
54
  3
B3
350
55
  3
B4
350
56
  3
B5
350
57
  3
B6
350
58
  3
B7
350
59
  3
B8
350
5A
  3
B9
350
5B
  3
C0
350
5C
  3
C1
350
5D
  3
C2
350
5E
  3
C3
350
5F
  3
C4
350
60
  3
C5
350
61
  3
C6
350
62
  3
C7
350
63
  3
C8
350
64
  3
C9
350
65
  3
D0
350
66
  3
D1
350
67
  3
D2
350
68
  0
LAYOUT
  5
1E
102
{ACAD_REACTORS
330
1A
102
}
330
1A
100
AcDbPlotSettings
  1

  2
none_device
  4

  6

 40
0.0
 41
0.0
 42
0.0
 43
0.0
 44
0.0
 45
0.0
 46
0.0
 47
0.0
 48
0.0
 49
0.0
140
0.0
141
0.0
142
1.0
143
1.0
 70
   688
 72
     1
 73
     0
 74
     5
  7

 75
    16
147
1.0
148
0.0
149
0.0
100
AcDbLayout
  1
Layout1
 70
     1
 71
     1
 10
0.0
 20
0.0
 11
420.0
 21
297.0
 12
0.0
 22
0.0
 32
0.0
 14
1.0000000000E+20
 24
1.0000000000E+20
 34
1.0000000000E+20
 15
-1.0000000000E+20
 25
-1.0000000000E+20
 35
-1.0000000000E+20
146
0.0
 13
0.0
 23
0.0
 33
0.0
 16
1.0
 26
0.0
 36
0.0
 17
0.0
 27
1.0
 37
0.0
 76
     0
330
1B
  0
LAYOUT
  5
26
102
{ACAD_REACTORS
330
1A
102
}
330
1A
100
AcDbPlotSettings
  1

  2
none_device
  4

  6

 40
0.0
 41
0.0
 42
0.0
 43
0.0
 44
0.0
 45
0.0
 46
0.0
 47
0.0
 48
0.0
 49
0.0
140
0.0
141
0.0
142
1.0
143
1.0
 70
   688
 72
     1
 73
     0
 74
     5
  7

 75
    16
147
1.0
148
0.0
149
0.0
100
AcDbLayout
  1
Layout2
 70
     1
 71
     2
 10
0.0
 20
0.0
 11
0.0
 21
0.0
 12
0.0
 22
0.0
 32
0.0
 14
0.0
 24
0.0
 34
0.0
 15
0.0
 25
0.0
 35
0.0
146
0.0
 13
0.0
 23
0.0
 33
0.0
 16
1.0
 26
0.0
 36
0.0
 17
0.0
 27
1.0
 37
0.0
 76
     0
330
23
  0
LAYOUT
  5
22
102
{ACAD_REACTORS
330
1A
102
}
330
1A
100
AcDbPlotSettings
  1

  2
none_device
  4
Letter_(8.50_x_11.00_Inches)
  6

 40
6.35
 41
6.35
 42
6.35000508
 43
6.35000508
 44
215.9
 45
279.4
 46
0.0
 47
0.0
 48
0.0
 49
0.0
140
0.0
141
0.0
142
1.0
143
1.0
 70
  1712
 72
     1
 73
     0
 74
     0
  7

 75
     0
147
1.0
148
0.0
149
0.0
100
AcDbLayout
  1
Model
 70
     1
 71
     0
 10
0.0
 20
0.0
 11
279.4
 21
215.9
 12
0.0
 22
0.0
 32
0.0
 14
0.0
 24
0.0
 34
0.0
 15
279.4
 25
215.9
 35
0.0
146
0.0
 13
0.0
 23
0.0
 33
0.0
 16
1.0
 26
0.0
 36
0.0
 17
0.0
 27
1.0
 37
0.0
 76
     0
330
1F
331
29
  0
MLINESTYLE
  5
18
102
{ACAD_REACTORS
330
17
102
}
330
17
100
AcDbMlineStyle
  2
Standard
 70
     0
  3

 62
   256
 51
90.0
 52
90.0
 71
     2
 49
0.5
 62
   256
  6
BYLAYER
 49
-0.5
 62
   256
  6
BYLAYER
  0
ACDBPLACEHOLDER
  5
F
102
{ACAD_REACTORS
330
E
102
}
330
E
  0
SCALE
  5
48
102
{ACAD_REACTORS
330
47
102
}
330
47
100
AcDbScale
 70
     0
300
1:1
140
1.0
141
1.0
290
     1
  0
SCALE
  5
49
102
{ACAD_REACTORS
330
47
102
}
330
47
100
AcDbScale
 70
     0
300
1:2
140
1.0
141
2.0
290
     0
  0
SCALE
  5
4A
102
{ACAD_REACTORS
330
47
102
}
330
47
100
AcDbScale
 70
     0
300
1:4
140
1.0
141
4.0
290
     0
  0
SCALE
  5
4B
102
{ACAD_REACTORS
330
47
102
}
330
47
100
AcDbScale
 70
     0
300
1:5
140
1.0
141
5.0
290
     0
  0
SCALE
  5
4C
102
{ACAD_REACTORS
330
47
102
}
330
47
100
AcDbScale
 70
     0
300
1:8
140
1.0
141
8.0
290
     0
  0
SCALE
  5
4D
102
{ACAD_REACTORS
330
47
102
}
330
47
100
AcDbScale
 70
     0
300
1:10
140
1.0
141
10.0
290
     0
  0
SCALE
  5
4E
102
{ACAD_REACTORS
330
47
102
}
330
47
100
AcDbScale
 70
     0
300
1:16
140
1.0
141
16.0
290
     0
  0
SCALE
  5
4F
102
{ACAD_REACTORS
330
47
102
}
330
47
100
AcDbScale
 70
     0
300
1:20
140
1.0
141
20.0
290
     0
  0
SCALE
  5
50
102
{ACAD_REACTORS
330
47
102
}
330
47
100
AcDbScale
 70
     0
300
1:30
140
1.0
141
30.0
290
     0
  0
SCALE
  5
51
102
{ACAD_REACTORS
330
47
102
}
330
47
100
AcDbScale
 70
     0
300
1:40
140
1.0
141
40.0
290
     0
  0
SCALE
  5
52
102
{ACAD_REACTORS
330
47
102
}
330
47
100
AcDbScale
 70
     0
300
1:50
140
1.0
141
50.0
290
     0
  0
SCALE
  5
53
102
{ACAD_REACTORS
330
47
102
}
330
47
100
AcDbScale
 70
     0
300
1:100
140
1.0
141
100.0
290
     0
  0
SCALE
  5
54
102
{ACAD_REACTORS
330
47
102
}
330
47
100
AcDbScale
 70
     0
300
2:1
140
2.0
141
1.0
290
     0
  0
SCALE
  5
55
102
{ACAD_REACTORS
330
47
102
}
330
47
100
AcDbScale
 70
     0
300
4:1
140
4.0
141
1.0
290
     0
  0
SCALE
  5
56
102
{ACAD_REACTORS
330
47
102
}
330
47
100
AcDbScale
 70
     0
300
8:1
140
8.0
141
1.0
290
     0
  0
SCALE
  5
57
102
{ACAD_REACTORS
330
47
102
}
330
47
100
AcDbScale
 70
     0
300
10:1
140
10.0
141
1.0
290
     0
  0
SCALE
  5
58
102
{ACAD_REACTORS
330
47
102
}
330
47
100
AcDbScale
 70
     0
300
100:1
140
100.0
141
1.0
290
     0
  0
SCALE
  5
59
102
{ACAD_REACTORS
330
47
102
}
330
47
100
AcDbScale
 70
     0
300
1/128" = 1'-0"
140
0.0078125
141
12.0
290
     0
  0
SCALE
  5
5A
102
{ACAD_REACTORS
330
47
102
}
330
47
100
AcDbScale
 70
     0
300
1/64" = 1'-0"
140
0.015625
141
12.0
290
     0
  0
SCALE
  5
5B
102
{ACAD_REACTORS
330
47
102
}
330
47
100
AcDbScale
 70
     0
300
1/32" = 1'-0"
140
0.03125
141
12.0
290
     0
  0
SCALE
  5
5C
102
{ACAD_REACTORS
330
47
102
}
330
47
100
AcDbScale
 70
     0
300
1/16" = 1'-0"
140
0.0625
141
12.0
290
     0
  0
SCALE
  5
5D
102
{ACAD_REACTORS
330
47
102
}
330
47
100
AcDbScale
 70
     0
300
3/32" = 1'-0"
140
0.09375
141
12.0
290
     0
  0
SCALE
  5
5E
102
{ACAD_REACTORS
330
47
102
}
330
47
100
AcDbScale
 70
     0
300
1/8" = 1'-0"
140
0.125
141
12.0
290
     0
  0
SCALE
  5
5F
102
{ACAD_REACTORS
330
47
102
}
330
47
100
AcDbScale
 70
     0
300
3/16" = 1'-0"
140
0.1875
141
12.0
290
     0
  0
SCALE
  5
60
102
{ACAD_REACTORS
330
47
102
}
330
47
100
AcDbScale
 70
     0
300
1/4" = 1'-0"
140
0.25
141
12.0
290
     0
  0
SCALE
  5
61
102
{ACAD_REACTORS
330
47
102
}
330
47
100
AcDbScale
 70
     0
300
3/8" = 1'-0"
140
0.375
141
12.0
290
     0
  0
SCALE
  5
62
102
{ACAD_REACTORS
330
47
102
}
330
47
100
AcDbScale
 70
     0
300
1/2" = 1'-0"
140
0.5
141
12.0
290
     0
  0
SCALE
  5
63
102
{ACAD_REACTORS
330
47
102
}
330
47
100
AcDbScale
 70
     0
300
3/4" = 1'-0"
140
0.75
141
12.0
290
     0
  0
SCALE
  5
64
102
{ACAD_REACTORS
330
47
102
}
330
47
100
AcDbScale
 70
     0
300
1" = 1'-0"
140
1.0
141
12.0
290
     0
  0
SCALE
  5
65
102
{ACAD_REACTORS
330
47
102
}
330
47
100
AcDbScale
 70
     0
300
1-1/2" = 1'-0"
140
1.5
141
12.0
290
     0
  0
SCALE
  5
66
102
{ACAD_REACTORS
330
47
102
}
330
47
100
AcDbScale
 70
     0
300
3" = 1'-0"
140
3.0
141
12.0
290
     0
  0
SCALE
  5
67
102
{ACAD_REACTORS
330
47
102
}
330
47
100
AcDbScale
 70
     0
300
6" = 1'-0"
140
6.0
141
12.0
290
     0
  0
SCALE
  5
68
102
{ACAD_REACTORS
330
47
102
}
330
47
100
AcDbScale
 70
     0
300
1'-0" = 1'-0"
140
12.0
141
12.0
290
     0
  0
ENDSEC
  0
EOF
