  0
SECTION
  2
HEADER
  9
$ACADVER
  1
AC1015
  9
$ACADMAINTVER
 70
     6
  9
$DWGCODEPAGE
  3
ANSI_1252
  9
$INSBASE
 10
0.0
 20
0.0
 30
0.0
  9
$EXTMIN
 10
0.0
 20
0.0
 30
0.0
  9
$EXTMAX
 10
279.4
 20
215.9
 30
0.0
  9
$LIMMIN
 10
0.0
 20
0.0
  9
$LIMMAX
 10
279.4
 20
215.9
  9
$ORTHOMODE
 70
     0
  9
$REGENMODE
 70
     1
  9
$FILLMODE
 70
     1
  9
$QTEXTMODE
 70
     0
  9
$MIRRTEXT
 70
     1
  9
$LTSCALE
 40
1.0
  9
$ATTMODE
 70
     1
  9
$TEXTSIZE
 40
2.8222222222
  9
$TRACEWID
 40
1.0
  9
$TEXTSTYLE
  7
Standard
  9
$CLAYER
  8
0
  9
$CELTYPE
  6
ByLayer
  9
$CECOLOR
 62
   256
  9
$CELTSCALE
 40
1.0
  9
$DISPSILH
 70
     0
  9
$DIMSCALE
 40
1.0
  9
$DIMASZ
 40
3.175
  9
$DIMEXO
 40
1.27
  9
$DIMDLI
 40
3.75
  9
$DIMRND
 40
0.0
  9
$DIMDLE
 40
0.0
  9
$DIMEXE
 40
1.778
  9
$DIMTP
 40
0.0
  9
$DIMTM
 40
0.0
  9
$DIMTXT
 40
2.8222222222
  9
$DIMCEN
 40
2.5
  9
$DIMTSZ
 40
0.0
  9
$DIMTOL
 70
     0
  9
$DIMLIM
 70
     0
  9
$DIMTIH
 70
     1
  9
$DIMTOH
 70
     1
  9
$DIMSE1
 70
     0
  9
$DIMSE2
 70
     0
  9
$DIMTAD
 70
     0
  9
$DIMZIN
 70
     1
  9
$DIMBLK
  1

  9
$DIMASO
 70
     1
  9
$DIMSHO
 70
     1
  9
$DIMPOST
  1

  9
$DIMAPOST
  1

  9
$DIMALT
 70
     0
  9
$DIMALTD
 70
     3
  9
$DIMALTF
 40
0.0393700787
  9
$DIMLFAC
 40
1.0
  9
$DIMTOFL
 70
     1
  9
$DIMTVP
 40
0.0
  9
$DIMTIX
 70
     0
  9
$DIMSOXD
 70
     0
  9
$DIMSAH
 70
     0
  9
$DIMBLK1
  1

  9
$DIMBLK2
  1

  9
$DIMSTYLE
  2
ISO-25
  9
$DIMCLRD
 70
     0
  9
$DIMCLRE
 70
     0
  9
$DIMCLRT
 70
     0
  9
$DIMTFAC
 40
1.0
  9
$DIMGAP
 40
2.54
  9
$DIMJUST
 70
     0
  9
$DIMSD1
 70
     0
  9
$DIMSD2
 70
     0
  9
$DIMTOLJ
 70
     0
  9
$DIMTZIN
 70
     1
  9
$DIMALTZ
 70
     0
  9
$DIMALTTZ
 70
     0
  9
$DIMUPT
 70
     0
  9
$DIMDEC
 70
     1
  9
$DIMTDEC
 70
     1
  9
$DIMALTU
 70
     2
  9
$DIMALTTD
 70
     3
  9
$DIMTXSTY
  7
Standard
  9
$DIMAUNIT
 70
     0
  9
$DIMADEC
 70
     0
  9
$DIMALTRND
 40
0.0
  9
$DIMAZIN
 70
     0
  9
$DIMDSEP
 70
    44
  9
$DIMATFIT
 70
     3
  9
$DIMFRAC
 70
     0
  9
$DIMLDRBLK
  1

  9
$DIMLUNIT
 70
     2
  9
$DIMLWD
 70
    -2
  9
$DIMLWE
 70
    -2
  9
$DIMTMOVE
 70
     0
  9
$LUNITS
 70
     2
  9
$LUPREC
 70
     1
  9
$SKETCHINC
 40
1.0
  9
$FILLETRAD
 40
10.0
  9
$AUNITS
 70
     0
  9
$AUPREC
 70
     0
  9
$MENU
  1
.
  9
$ELEVATION
 40
0.0
  9
$PELEVATION
 40
0.0
  9
$THICKNESS
 40
0.0
  9
$LIMCHECK
 70
     0
  9
$CHAMFERA
 40
0.0
  9
$CHAMFERB
 40
0.0
  9
$CHAMFERC
 40
0.0
  9
$CHAMFERD
 40
0.0
  9
$SKPOLY
 70
     0
  9
$TDCREATE
 40
2458470.648755834
  9
$TDUCREATE
 40
2458470.857089167
  9
$TDUPDATE
 40
2458470.648763171
  9
$TDUUPDATE
 40
2458470.857096504
  9
$TDINDWG
 40
0.0000000116
  9
$TDUSRTIMER
 40
0.0000000116
  9
$USRTIMER
 70
     1
  9
$ANGBASE
 50
0.0
  9
$ANGDIR
 70
     0
  9
$PDMODE
 70
     0
  9
$PDSIZE
 40
-1.0
  9
$PLINEWID
 40
0.0
  9
$SPLFRAME
 70
     0
  9
$SPLINETYPE
 70
     6
  9
$SPLINESEGS
 70
     8
  9
$HANDSEED
  5
26D
  9
$SURFTAB1
 70
     6
  9
$SURFTAB2
 70
     6
  9
$SURFTYPE
 70
     6
  9
$SURFU
 70
     6
  9
$SURFV
 70
     6
  9
$UCSBASE
  2

  9
$UCSNAME
  2

  9
$UCSORG
 10
0.0
 20
0.0
 30
0.0
  9
$UCSXDIR
 10
1.0
 20
0.0
 30
0.0
  9
$UCSYDIR
 10
0.0
 20
1.0
 30
0.0
  9
$UCSORTHOREF
  2

  9
$UCSORTHOVIEW
 70
     0
  9
$UCSORGTOP
 10
0.0
 20
0.0
 30
0.0
  9
$UCSORGBOTTOM
 10
0.0
 20
0.0
 30
0.0
  9
$UCSORGLEFT
 10
0.0
 20
0.0
 30
0.0
  9
$UCSORGRIGHT
 10
0.0
 20
0.0
 30
0.0
  9
$UCSORGFRONT
 10
0.0
 20
0.0
 30
0.0
  9
$UCSORGBACK
 10
0.0
 20
0.0
 30
0.0
  9
$PUCSBASE
  2

  9
$PUCSNAME
  2

  9
$PUCSORG
 10
0.0
 20
0.0
 30
0.0
  9
$PUCSXDIR
 10
1.0
 20
0.0
 30
0.0
  9
$PUCSYDIR
 10
0.0
 20
1.0
 30
0.0
  9
$PUCSORTHOREF
  2

  9
$PUCSORTHOVIEW
 70
     0
  9
$PUCSORGTOP
 10
0.0
 20
0.0
 30
0.0
  9
$PUCSORGBOTTOM
 10
0.0
 20
0.0
 30
0.0
  9
$PUCSORGLEFT
 10
0.0
 20
0.0
 30
0.0
  9
$PUCSORGRIGHT
 10
0.0
 20
0.0
 30
0.0
  9
$PUCSORGFRONT
 10
0.0
 20
0.0
 30
0.0
  9
$PUCSORGBACK
 10
0.0
 20
0.0
 30
0.0
  9
$USERI1
 70
     0
  9
$USERI2
 70
     0
  9
$USERI3
 70
     0
  9
$USERI4
 70
     0
  9
$USERI5
 70
     0
  9
$USERR1
 40
0.0
  9
$USERR2
 40
0.0
  9
$USERR3
 40
0.0
  9
$USERR4
 40
0.0
  9
$USERR5
 40
0.0
  9
$WORLDVIEW
 70
     1
  9
$SHADEDGE
 70
     3
  9
$SHADEDIF
 70
    70
  9
$TILEMODE
 70
     1
  9
$MAXACTVP
 70
    64
  9
$PINSBASE
 10
0.0
 20
0.0
 30
0.0
  9
$PLIMCHECK
 70
     0
  9
$PEXTMIN
 10
1.0000000000E+20
 20
1.0000000000E+20
 30
1.0000000000E+20
  9
$PEXTMAX
 10
-1.0000000000E+20
 20
-1.0000000000E+20
 30
-1.0000000000E+20
  9
$PLIMMIN
 10
0.0
 20
0.0
  9
$PLIMMAX
 10
420.0
 20
297.0
  9
$UNITMODE
 70
     0
  9
$VISRETAIN
 70
     1
  9
$PLINEGEN
 70
     0
  9
$PSLTSCALE
 70
     1
  9
$TREEDEPTH
 70
  3020
  9
$CMLSTYLE
  2
Standard
  9
$CMLJUST
 70
     0
  9
$CMLSCALE
 40
20.0
  9
$PROXYGRAPHICS
 70
     1
  9
$MEASUREMENT
 70
     1
  9
$CELWEIGHT
370
    -1
  9
$ENDCAPS
280
     0
  9
$JOINSTYLE
280
     0
  9
$LWDISPLAY
290
     1
  9
$INSUNITS
 70
     4
  9
$HYPERLINKBASE
  1

  9
$STYLESHEET
  1

  9
$XEDIT
290
     1
  9
$CEPSNTYPE
380
     0
  9
$PSTYLEMODE
290
     1
  9
$FINGERPRINTGUID
  2
{9E6B63CE-A00C-4DBF-AECE-24BF65663AD1}
  9
$VERSIONGUID
  2
{FAEB1C32-E019-11D5-929B-00C0DF256EC4}
  9
$EXTNAMES
290
     1
  9
$PSVPSCALE
 40
0.0
  9
$OLESTARTUP
290
     0
  0
ENDSEC
  0
SECTION
  2
CLASSES
  0
CLASS
  1
ACDBDICTIONARYWDFLT
  2
AcDbDictionaryWithDefault
  3
ObjectDBX Classes
 90
        0
280
     0
281
     0
  0
CLASS
  1
VISUALSTYLE
  2
AcDbVisualStyle
  3
ObjectDBX Classes
 90
     4095
280
     0
281
     0
  0
CLASS
  1
MATERIAL
  2
AcDbMaterial
  3
ObjectDBX Classes
 90
     1153
280
     0
281
     0
  0
CLASS
  1
SCALE
  2
AcDbScale
  3
ObjectDBX Classes
 90
     1153
280
     0
281
     0
  0
CLASS
  1
TABLESTYLE
  2
AcDbTableStyle
  3
ObjectDBX Classes
 90
     4095
280
     0
281
     0
  0
CLASS
  1
MLEADERSTYLE
  2
AcDbMLeaderStyle
  3
ACDB_MLEADERSTYLE_CLASS
 90
     4095
280
     0
281
     0
  0
CLASS
  1
SUN
  2
AcDbSun
  3
SCENEOE
 90
     1153
280
     0
281
     0
  0
CLASS
  1
ACDBPLACEHOLDER
  2
AcDbPlaceHolder
  3
ObjectDBX Classes
 90
        0
280
     0
281
     0
  0
CLASS
  1
LAYOUT
  2
AcDbLayout
  3
ObjectDBX Classes
 90
        0
280
     0
281
     0
  0
ENDSEC
  0
SECTION
  2
TABLES
  0
TABLE
  2
VPORT
  5
8
330
0
100
AcDbSymbolTable
 70
     1
  0
VPORT
  5
29
330
8
100
AcDbSymbolTableRecord
100
AcDbViewportTableRecord
  2
*Active
 70
     0
 10
0.0
 20
0.0
 11
1.0
 21
1.0
 12
139.7
 22
107.95
 13
0.0
 23
0.0
 14
10.0
 24
10.0
 15
10.0
 25
10.0
 16
0.0
 26
0.0
 36
1.0
 17
0.0
 27
0.0
 37
0.0
 40
215.9
 41
1.2941176471
 42
50.0
 43
0.0
 44
0.0
 50
0.0
 51
0.0
 71
     0
 72
  2000
 73
     1
 74
     3
 75
     0
 76
     0
 77
     0
 78
     0
281
     0
 65
     1
110
0.0
120
0.0
130
0.0
111
1.0
121
0.0
131
0.0
112
0.0
122
1.0
132
0.0
 79
     0
146
0.0
  0
ENDTAB
  0
TABLE
  2
LTYPE
  5
5
330
0
100
AcDbSymbolTable
 70
     6
  0
LTYPE
  5
14
330
5
100
AcDbSymbolTableRecord
100
AcDbLinetypeTableRecord
  2
ByBlock
 70
     0
  3

 72
    65
 73
     0
 40
0.0
  0
LTYPE
  5
15
330
5
100
AcDbSymbolTableRecord
100
AcDbLinetypeTableRecord
  2
ByLayer
 70
     0
  3

 72
    65
 73
     0
 40
0.0
  0
LTYPE
  5
16
330
5
100
AcDbSymbolTableRecord
100
AcDbLinetypeTableRecord
  2
Continuous
 70
     0
  3
Solid line
 72
    65
 73
     0
 40
0.0
  0
LTYPE
  5
6E
330
5
100
AcDbSymbolTableRecord
100
AcDbLinetypeTableRecord
  2
HIDDEN
 70
     0
  3
Hidden __ __ __ __ __ __ __ __ __ __ __ __ __ __
 72
    65
 73
     2
 40
1.905
 49
1.27
 74
     0
 49
-0.635
 74
     0
  0
LTYPE
  5
6F
330
5
100
AcDbSymbolTableRecord
100
AcDbLinetypeTableRecord
  2
PHANTOM
 70
     0
  3
Phantom ______  __  __  ______  __  __  ______
 72
    65
 73
     6
 40
12.7
 49
6.35
 74
     0
 49
-1.27
 74
     0
 49
1.27
 74
     0
 49
-1.27
 74
     0
 49
1.27
 74
     0
 49
-1.27
 74
     0
  0
LTYPE
  5
70
330
5
100
AcDbSymbolTableRecord
100
AcDbLinetypeTableRecord
  2
CENTER
 70
     0
  3
Center ____ _ ____ _ ____ _ ____ _ ____ _ ____
 72
    65
 73
     4
 40
10.16
 49
6.35
 74
     0
 49
-1.27
 74
     0
 49
1.27
 74
     0
 49
-1.27
 74
     0
  0
LTYPE
  5
71
330
5
100
AcDbSymbolTableRecord
100
AcDbLinetypeTableRecord
  2
CENTERX2
 70
     0
  3
Center (2x) ________  __  ________  __  _____
 72
    65
 73
     4
 40
20.32
 49
12.7
 74
     0
 49
-2.54
 74
     0
 49
2.54
 74
     0
 49
-2.54
 74
     0
  0
LTYPE
  5
72
330
5
100
AcDbSymbolTableRecord
100
AcDbLinetypeTableRecord
  2
DOT2
 70
     0
  3
Dot (.5x) ........................................
 72
    65
 73
     2
 40
0.635
 49
0.0
 74
     0
 49
-0.635
 74
     0
  0
ENDTAB
  0
TABLE
  2
LAYER
  5
2
330
0
100
AcDbSymbolTable
 70
     2
  0
LAYER
  5
10
330
2
100
AcDbSymbolTableRecord
100
AcDbLayerTableRecord
  2
0
 70
     0
 62
     7
  6
Continuous
370
    -3
390
F
  0
LAYER
  5
73
330
2
100
AcDbSymbolTableRecord
100
AcDbLayerTableRecord
  2
FORMAT
 70
     0
 62
     7
  6
Continuous
370
    -3
390
F
  0
ENDTAB
  0
TABLE
  2
STYLE
  5
3
330
0
100
AcDbSymbolTable
 70
     5
  0
STYLE
  5
11
330
3
100
AcDbSymbolTableRecord
100
AcDbTextStyleTableRecord
  2
Standard
 70
     0
 40
0.0
 41
1.0
 50
0.0
 71
     0
 42
2.8222222222
  3
txt
  4

  0
STYLE
  5
9D
330
3
100
AcDbSymbolTableRecord
100
AcDbTextStyleTableRecord
  2
SLDTEXTSTYLE0
 70
     0
 40
0.0
 41
0.75
 50
0.0
 71
     0
 42
2.8222222222
  3
TXT
  4

  0
STYLE
  5
A3
330
3
100
AcDbSymbolTableRecord
100
AcDbTextStyleTableRecord
  2
SLDTEXTSTYLE1
 70
     0
 40
0.0
 41
0.75
 50
0.0
 71
     0
 42
2.8222222222
  3
TXT
  4
bigfont
  0
STYLE
  5
B7
330
3
100
AcDbSymbolTableRecord
100
AcDbTextStyleTableRecord
  2
SLDTEXTSTYLE2
 70
     0
 40
0.0
 41
0.7
 50
0.0
 71
     0
 42
2.8222222222
  3
TXT
  4

  0
STYLE
  5
C6
330
3
100
AcDbSymbolTableRecord
100
AcDbTextStyleTableRecord
  2
SLDTEXTSTYLE3
 70
     0
 40
0.0
 41
0.6
 50
0.0
 71
     0
 42
2.8222222222
  3
TXT
  4

  0
ENDTAB
  0
TABLE
  2
VIEW
  5
6
330
0
100
AcDbSymbolTable
 70
     0
  0
ENDTAB
  0
TABLE
  2
UCS
  5
7
330
0
100
AcDbSymbolTable
 70
     0
  0
ENDTAB
  0
TABLE
  2
APPID
  5
9
330
0
100
AcDbSymbolTable
 70
     1
  0
APPID
  5
12
330
9
100
AcDbSymbolTableRecord
100
AcDbRegAppTableRecord
  2
ACAD
 70
     0
  0
ENDTAB
  0
TABLE
  2
DIMSTYLE
  5
A
330
0
100
AcDbSymbolTable
 70
     6
100
AcDbDimStyleTable
  0
DIMSTYLE
105
27
330
A
100
AcDbSymbolTableRecord
100
AcDbDimStyleTableRecord
  2
ISO-25
 70
     0
 41
2.5
 42
0.625
 43
3.75
 44
1.25
 73
     0
 74
     0
 77
     1
 78
     8
140
2.5
141
2.5
143
0.0393700787
147
0.625
171
     3
172
     1
178
     0
271
     2
272
     2
274
     3
278
    44
283
     0
284
     8
340
11
  0
DIMSTYLE
105
F5
102
{ACAD_REACTORS
330
F4
102
}
330
A
100
AcDbSymbolTableRecord
100
AcDbDimStyleTableRecord
  2
SLDDIMSTYLE0
 70
     0
 41
3.175
 44
0.0
 45
0.000000001
 78
    12
 79
     3
140
2.1166666667
141
0.0
143
0.0393700787
147
0.5291666667
148
0.000000001
170
     1
173
     1
178
     0
271
     1
272
     1
276
     2
284
    12
340
9D
  0
DIMSTYLE
105
11A
102
{ACAD_REACTORS
330
119
102
}
330
A
100
AcDbSymbolTableRecord
100
AcDbDimStyleTableRecord
  2
SLDDIMSTYLE1
 70
     0
 41
3.175
 44
0.0
 45
0.000000001
 78
    12
 79
     3
140
2.1166666667
143
0.0393700787
147
0.5291666667
148
0.000000001
170
     1
172
     1
173
     1
178
     0
271
     1
272
     1
276
     2
284
    12
289
     0
340
9D
  0
DIMSTYLE
105
12E
102
{ACAD_REACTORS
330
12D
102
}
330
A
100
AcDbSymbolTableRecord
100
AcDbDimStyleTableRecord
  2
SLDDIMSTYLE2
 70
     0
 41
3.175
 44
0.0
 45
0.000000001
 78
     4
 79
     1
140
2.1166666667
141
0.0
143
0.0393700787
147
0.5291666667
148
0.000000001
170
     1
173
     1
178
     0
271
     1
272
     1
276
     2
284
    12
340
9D
  0
DIMSTYLE
105
13F
102
{ACAD_REACTORS
330
13E
102
}
330
A
100
AcDbSymbolTableRecord
100
AcDbDimStyleTableRecord
  2
SLDDIMSTYLE3
 70
     0
 41
3.175
 44
0.0
 45
0.000000001
 78
     4
 79
     1
140
2.1166666667
143
0.0393700787
147
0.5291666667
148
0.000000001
170
     1
172
     1
173
     1
178
     0
271
     1
272
     1
276
     2
284
    12
289
     0
340
9D
  0
DIMSTYLE
105
155
330
A
100
AcDbSymbolTableRecord
100
AcDbDimStyleTableRecord
  2
SLDDIMSTYLE4
 70
     0
 41
3.175
 44
0.0
 45
0.000000001
146
3.175
147
0.0
173
     1
178
     0
271
     0
272
     0
276
     2
340
11
  0
ENDTAB
  0
TABLE
  2
BLOCK_RECORD
  5
1
330
0
100
AcDbSymbolTable
 70
    11
  0
BLOCK_RECORD
  5
1F
330
1
100
AcDbSymbolTableRecord
100
AcDbBlockTableRecord
  2
*Model_Space
340
22
  0
BLOCK_RECORD
  5
1B
330
1
100
AcDbSymbolTableRecord
100
AcDbBlockTableRecord
  2
*Paper_Space
340
1E
  0
BLOCK_RECORD
  5
23
330
1
100
AcDbSymbolTableRecord
100
AcDbBlockTableRecord
  2
*Paper_Space0
340
26
  0
BLOCK_RECORD
  5
74
330
1
100
AcDbSymbolTableRecord
100
AcDbBlockTableRecord
  2
Third Angle Projection Block
340
0
102
{BLKREFS
331
99
102
}
  0
BLOCK_RECORD
  5
9A
330
1
100
AcDbSymbolTableRecord
100
AcDbBlockTableRecord
  2
SW_NOTE_0
340
0
102
{BLKREFS
331
BA
102
}
  0
BLOCK_RECORD
  5
CC
330
1
100
AcDbSymbolTableRecord
100
AcDbBlockTableRecord
  2
SW_NOTE_1
340
0
102
{BLKREFS
331
D1
102
}
  0
BLOCK_RECORD
  5
D2
330
1
100
AcDbSymbolTableRecord
100
AcDbBlockTableRecord
  2
SW_NOTE_2
340
0
102
{BLKREFS
331
D7
102
}
  0
BLOCK_RECORD
  5
D9
330
1
100
AcDbSymbolTableRecord
100
AcDbBlockTableRecord
  2
SW_NOTE_3
340
0
102
{BLKREFS
331
DE
102
}
  0
BLOCK_RECORD
  5
DF
330
1
100
AcDbSymbolTableRecord
100
AcDbBlockTableRecord
  2
SW_NOTE_4
340
0
102
{BLKREFS
331
E5
102
}
  0
BLOCK_RECORD
  5
F6
330
1
100
AcDbSymbolTableRecord
100
AcDbBlockTableRecord
  2
_D
340
0
  0
BLOCK_RECORD
  5
11B
330
1
100
AcDbSymbolTableRecord
100
AcDbBlockTableRecord
  2
_D_1
340
0
  0
BLOCK_RECORD
  5
12F
330
1
100
AcDbSymbolTableRecord
100
AcDbBlockTableRecord
  2
_D_2
340
0
  0
BLOCK_RECORD
  5
140
330
1
100
AcDbSymbolTableRecord
100
AcDbBlockTableRecord
  2
_D_3
340
0
  0
ENDTAB
  0
ENDSEC
  0
SECTION
  2
BLOCKS
  0
BLOCK
  5
20
330
1F
100
AcDbEntity
  8
0
100
AcDbBlockBegin
  2
*Model_Space
 70
     0
 10
0.0
 20
0.0
 30
0.0
  3
*Model_Space
  1

  0
ENDBLK
  5
21
330
1F
100
AcDbEntity
  8
0
100
AcDbBlockEnd
  0
BLOCK
  5
1C
330
1B
100
AcDbEntity
 67
     1
  8
0
100
AcDbBlockBegin
  2
*Paper_Space
 70
     0
 10
0.0
 20
0.0
 30
0.0
  3
*Paper_Space
  1

  0
ENDBLK
  5
1D
330
1B
100
AcDbEntity
 67
     1
  8
0
100
AcDbBlockEnd
  0
BLOCK
  5
24
330
23
100
AcDbEntity
  8
0
100
AcDbBlockBegin
  2
*Paper_Space0
 70
     0
 10
0.0
 20
0.0
 30
0.0
  3
*Paper_Space0
  1

  0
ENDBLK
  5
25
330
23
100
AcDbEntity
  8
0
100
AcDbBlockEnd
  0
BLOCK
  5
75
330
74
100
AcDbEntity
  8
0
100
AcDbBlockBegin
  2
Third Angle Projection Block
 70
     0
 10
0.0
 20
0.0
 30
0.0
  3
Third Angle Projection Block
  1

  0
CIRCLE
  5
77
330
74
100
AcDbEntity
  8
0
  6
Continuous
 62
     7
370
    35
100
AcDbCircle
 10
101.4766388944
 20
18.9404083667
 30
0.0
 40
1.768227153674871
  0
CIRCLE
  5
78
330
74
100
AcDbEntity
  8
0
  6
Continuous
 62
     7
370
    35
100
AcDbCircle
 10
101.4766388944
 20
18.9404083667
 30
0.0
 40
3.901228248531818
  0
LINE
  5
79
330
74
100
AcDbEntity
  8
0
  6
CENTERX2
 62
     7
370
    18
100
AcDbLine
 10
110.1367822585
 20
18.9404083667
 30
0.0
 11
119.4527334874
 21
18.9404083667
 31
0.0
  0
LINE
  5
7A
330
74
100
AcDbEntity
  8
0
  6
Continuous
 62
     7
370
    35
100
AcDbLine
 10
111.0016388944
 20
20.7086355204
 30
0.0
 11
111.0016388944
 21
17.172181213
 31
0.0
  0
LINE
  5
7B
330
74
100
AcDbEntity
  8
0
  6
Continuous
 62
     7
370
    35
100
AcDbLine
 10
111.0016388944
 20
17.172181213
 30
0.0
 11
118.6216388944
 21
15.1304083667
 31
0.0
  0
LINE
  5
7C
330
74
100
AcDbEntity
  8
0
  6
Continuous
 62
     7
370
    35
100
AcDbLine
 10
118.6216388944
 20
15.1304083667
 30
0.0
 11
118.6216388944
 21
22.7504083667
 31
0.0
  0
LINE
  5
7D
330
74
100
AcDbEntity
  8
0
  6
Continuous
 62
     7
370
    35
100
AcDbLine
 10
118.6216388944
 20
22.7504083667
 30
0.0
 11
111.0016388944
 21
20.7086355204
 31
0.0
  0
LINE
  5
7E
330
74
100
AcDbEntity
  8
0
  6
CENTERX2
 62
     7
370
    18
100
AcDbLine
 10
96.6025854619
 20
18.9404083667
 30
0.0
 11
106.3506923269
 21
18.9404083667
 31
0.0
  0
LINE
  5
7F
330
74
100
AcDbEntity
  8
0
  6
CENTERX2
 62
     7
370
    18
100
AcDbLine
 10
101.4766388944
 20
23.8144617992
 30
0.0
 11
101.4766388944
 21
14.0663549342
 31
0.0
  0
POINT
  5
80
330
74
100
AcDbEntity
  8
0
  6
Continuous
 62
     7
370
     0
100
AcDbPoint
 10
101.4766388944
 20
18.9404083667
 30
0.0
  0
ENDBLK
  5
76
330
74
100
AcDbEntity
  8
0
100
AcDbBlockEnd
  0
BLOCK
  5
9B
330
9A
100
AcDbEntity
  8
0
100
AcDbBlockBegin
  2
SW_NOTE_0
 70
     0
 10
0.0
 20
0.0
 30
0.0
  3
SW_NOTE_0
  1

  0
MTEXT
  5
9E
330
9A
100
AcDbEntity
  8
0
  6
Continuous
 62
     0
370
     0
100
AcDbMText
 10
0.0
 20
3.4106583948
 30
0.0
 40
2.6458333333
 41
0.0
 71
     1
 72
     1
  1
NOTES/SPECIFICATIONS:
  7
SLDTEXTSTYLE0
 73
     1
 44
1.0
  0
MTEXT
  5
9F
330
9A
100
AcDbEntity
  8
0
  6
Continuous
 62
     0
370
     0
100
AcDbMText
 10
9.9999997765
 20
-5.6448974033
 30
0.0
 40
2.6458333333
 41
0.0
 71
     1
 72
     1
  1
CLEAR APERTURE: >
  7
SLDTEXTSTYLE0
 73
     1
 44
1.0
  0
MTEXT
  5
A0
330
9A
100
AcDbEntity
  8
0
  6
Continuous
 62
     0
370
     0
100
AcDbMText
 10
42.7789334208
 20
-5.6448974033
 30
0.0
 40
2.6458333333
 41
0.0
 71
     1
 72
     1
  1
%%c
  7
SLDTEXTSTYLE0
 73
     1
 44
1.0
  0
MTEXT
  5
A1
330
9A
100
AcDbEntity
  8
0
  6
Continuous
 62
     0
370
     0
100
AcDbMText
 10
46.7726718634
 20
-5.6448974033
 30
0.0
 40
2.6458333333
 41
0.0
 71
     1
 72
     1
  1
45.72mm
  7
SLDTEXTSTYLE0
 73
     1
 44
1.0
  0
MTEXT
  5
A2
330
9A
100
AcDbEntity
  8
0
  6
Continuous
 62
     0
370
     0
100
AcDbMText
 10
0.0
 20
-5.6448974033
 30
0.0
 40
2.6458333333
 41
0.0
 71
     1
 72
     1
  1
1.
  7
SLDTEXTSTYLE0
 73
     1
 44
1.0
  0
MTEXT
  5
A4
330
9A
100
AcDbEntity
  8
0
  6
Continuous
 62
     0
370
     0
100
AcDbMText
 10
9.9999997765
 20
-10.1726753024
 30
0.0
 40
2.6458333333
 41
0.0
 71
     1
 72
     1
  1
SURFACE IRREGULARITY (S1): \U+2264\M+183C9/4 AT 633nm OVER CLEAR APERTURE
  7
SLDTEXTSTYLE1
 73
     1
 44
1.0
  0
MTEXT
  5
A5
330
9A
100
AcDbEntity
  8
0
  6
Continuous
 62
     0
370
     0
100
AcDbMText
 10
0.0
 20
-10.1726753024
 30
0.0
 40
2.6458333333
 41
0.0
 71
     1
 72
     1
  1
2.
  7
SLDTEXTSTYLE0
 73
     1
 44
1.0
  0
MTEXT
  5
A6
330
9A
100
AcDbEntity
  8
0
  6
Continuous
 62
     0
370
     0
100
AcDbMText
 10
9.9999997765
 20
-14.7004532014
 30
0.0
 40
2.6458333333
 41
0.0
 71
     1
 72
     1
  1
BACK SURFACE (S2): UNIFORM FINE GRIND #12-#20 GRIT
  7
SLDTEXTSTYLE0
 73
     1
 44
1.0
  0
MTEXT
  5
A7
330
9A
100
AcDbEntity
  8
0
  6
Continuous
 62
     0
370
     0
100
AcDbMText
 10
0.0
 20
-14.7004532014
 30
0.0
 40
2.6458333333
 41
0.0
 71
     1
 72
     1
  1
3.
  7
SLDTEXTSTYLE0
 73
     1
 44
1.0
  0
MTEXT
  5
A8
330
9A
100
AcDbEntity
  8
0
  6
Continuous
 62
     0
370
     0
100
AcDbMText
 10
9.9999997765
 20
-19.2282311005
 30
0.0
 40
2.6458333333
 41
0.0
 71
     1
 72
     1
  1
SURFACE QUALITY(S1): 20-10 SCRATCH-DIG
  7
SLDTEXTSTYLE0
 73
     1
 44
1.0
  0
MTEXT
  5
A9
330
9A
100
AcDbEntity
  8
0
  6
Continuous
 62
     0
370
     0
100
AcDbMText
 10
0.0
 20
-19.2282311005
 30
0.0
 40
2.6458333333
 41
0.0
 71
     1
 72
     1
  1
4.
  7
SLDTEXTSTYLE0
 73
     1
 44
1.0
  0
MTEXT
  5
AA
330
9A
100
AcDbEntity
  8
0
  6
Continuous
 62
     0
370
     0
100
AcDbMText
 10
9.9999997765
 20
-23.7560089995
 30
0.0
 40
2.6458333333
 41
0.0
 71
     1
 72
     1
  1
THICKNESS TOLERANCE:
  7
SLDTEXTSTYLE0
 73
     1
 44
1.0
  0
MTEXT
  5
AB
330
9A
100
AcDbEntity
  8
0
  6
Continuous
 62
     0
370
     0
100
AcDbMText
 10
50.8242268115
 20
-23.7560089995
 30
0.0
 40
2.6458333333
 41
0.0
 71
     1
 72
     1
  1
%%p
  7
SLDTEXTSTYLE0
 73
     1
 44
1.0
  0
MTEXT
  5
AC
330
9A
100
AcDbEntity
  8
0
  6
Continuous
 62
     0
370
     0
100
AcDbMText
 10
53.3465910703
 20
-23.7560089995
 30
0.0
 40
2.6458333333
 41
0.0
 71
     1
 72
     1
  1
0.1 mm
  7
SLDTEXTSTYLE0
 73
     1
 44
1.0
  0
MTEXT
  5
AD
330
9A
100
AcDbEntity
  8
0
  6
Continuous
 62
     0
370
     0
100
AcDbMText
 10
0.0
 20
-23.7560089995
 30
0.0
 40
2.6458333333
 41
0.0
 71
     1
 72
     1
  1
5.
  7
SLDTEXTSTYLE0
 73
     1
 44
1.0
  0
MTEXT
  5
AE
330
9A
100
AcDbEntity
  8
0
  6
Continuous
 62
     0
370
     0
100
AcDbMText
 10
9.9999997765
 20
-28.2837868986
 30
0.0
 40
2.6458333333
 41
0.0
 71
     1
 72
     1
  1
DIAMETER TOLERANCE: +0.0/-0.2 mm
  7
SLDTEXTSTYLE0
 73
     1
 44
1.0
  0
MTEXT
  5
AF
330
9A
100
AcDbEntity
  8
0
  6
Continuous
 62
     0
370
     0
100
AcDbMText
 10
0.0
 20
-28.2837868986
 30
0.0
 40
2.6458333333
 41
0.0
 71
     1
 72
     1
  1
6.
  7
SLDTEXTSTYLE0
 73
     1
 44
1.0
  0
MTEXT
  5
B0
330
9A
100
AcDbEntity
  8
0
  6
Continuous
 62
     0
370
     0
100
AcDbMText
 10
9.9999997765
 20
-32.8115647976
 30
0.0
 40
2.6458333333
 41
0.0
 71
     1
 72
     1
  1
DESIGN WAVELENGTH RANGE: 400-750nm
  7
SLDTEXTSTYLE0
 73
     1
 44
1.0
  0
MTEXT
  5
B1
330
9A
100
AcDbEntity
  8
0
  6
Continuous
 62
     0
370
     0
100
AcDbMText
 10
0.0
 20
-32.8115647976
 30
0.0
 40
2.6458333333
 41
0.0
 71
     1
 72
     1
  1
7.
  7
SLDTEXTSTYLE0
 73
     1
 44
1.0
  0
MTEXT
  5
B2
330
9A
100
AcDbEntity
  8
0
  6
Continuous
 62
     0
370
     0
100
AcDbMText
 10
9.9999997765
 20
-37.3393426967
 30
0.0
 40
2.6458333333
 41
0.0
 71
     1
 72
     1
  1
COATING(S1): BROADBAND HR, DIELECTRIC
  7
SLDTEXTSTYLE0
 73
     1
 44
1.0
  0
MTEXT
  5
B3
330
9A
100
AcDbEntity
  8
0
  6
Continuous
 62
     0
370
     0
100
AcDbMText
 10
0.0
 20
-37.3393426967
 30
0.0
 40
2.6458333333
 41
0.0
 71
     1
 72
     1
  1
8.
  7
SLDTEXTSTYLE0
 73
     1
 44
1.0
  0
MTEXT
  5
B4
330
9A
100
AcDbEntity
  8
0
  6
Continuous
 62
     0
370
     0
100
AcDbMText
 10
34.8828125
 20
-41.8671205958
 30
0.0
 40
2.6458333333
 41
0.0
 71
     1
 72
     1
  1
Rs and Rp >99% AVERAGE OVER WAVELENGTH RANGE
  7
SLDTEXTSTYLE0
 73
     1
 44
1.0
  0
MTEXT
  5
B5
330
9A
100
AcDbEntity
  8
0
  6
Continuous
 62
     0
370
     0
100
AcDbMText
 10
34.7265625
 20
-46.3948984948
 30
0.0
 40
2.6458333333
 41
0.0
 71
     1
 72
     1
  1
AOI: 0
  7
SLDTEXTSTYLE0
 73
     1
 44
1.0
  0
MTEXT
  5
B6
330
9A
100
AcDbEntity
  8
0
  6
Continuous
 62
     0
370
     0
100
AcDbMText
 10
44.5087961853
 20
-46.3948984948
 30
0.0
 40
2.6458333333
 41
0.0
 71
     1
 72
     1
  1
%%d
  7
SLDTEXTSTYLE0
 73
     1
 44
1.0
  0
MTEXT
  5
B8
330
9A
100
AcDbEntity
  8
0
  6
Continuous
 62
     0
370
     0
100
AcDbMText
 10
47.1825573742
 20
-46.3948984948
 30
0.0
 40
2.6458333333
 41
0.0
 71
     1
 72
     1
  1
TO 45
  7
SLDTEXTSTYLE2
 73
     1
 44
1.0
  0
MTEXT
  5
B9
330
9A
100
AcDbEntity
  8
0
  6
Continuous
 62
     0
370
     0
100
AcDbMText
 10
56.621812284
 20
-46.3948984948
 30
0.0
 40
2.6458333333
 41
0.0
 71
     1
 72
     1
  1
%%d
  7
SLDTEXTSTYLE0
 73
     1
 44
1.0
  0
ENDBLK
  5
9C
330
9A
100
AcDbEntity
  8
0
100
AcDbBlockEnd
  0
BLOCK
  5
CD
330
CC
100
AcDbEntity
  8
0
100
AcDbBlockBegin
  2
SW_NOTE_1
 70
     0
 10
0.0
 20
0.0
 30
0.0
  3
SW_NOTE_1
  1

  0
MTEXT
  5
CF
330
CC
100
AcDbEntity
  8
0
  6
Continuous
 62
     0
370
     0
100
AcDbMText
 10
19.90725
 20
1.9645392354
 30
0.0
 40
1.524
 41
0.0
 71
     2
 72
     1
  1
VALUES IN PARENTHESIS ARE CALCULATED
  7
SLDTEXTSTYLE0
 73
     1
 44
1.0
  0
MTEXT
  5
D0
330
CC
100
AcDbEntity
  8
0
  6
Continuous
 62
     0
370
     0
100
AcDbMText
 10
19.8778795174
 20
-0.5594606586
 30
0.0
 40
1.524
 41
0.0
 71
     2
 72
     1
  1
AND MAY CONTAIN ROUNDOFF ERRORS
  7
SLDTEXTSTYLE0
 73
     1
 44
1.0
  0
ENDBLK
  5
CE
330
CC
100
AcDbEntity
  8
0
100
AcDbBlockEnd
  0
BLOCK
  5
D3
330
D2
100
AcDbEntity
  8
0
100
AcDbBlockBegin
  2
SW_NOTE_2
 70
     0
 10
0.0
 20
0.0
 30
0.0
  3
SW_NOTE_2
  1

  0
MTEXT
  5
D5
330
D2
100
AcDbEntity
  8
0
  6
Continuous
 62
     0
370
     0
100
AcDbMText
 10
0.0
 20
2.7285267159
 30
0.0
 40
2.1166666667
 41
0.0
 71
     1
 72
     1
  1
DRAWING
  7
SLDTEXTSTYLE0
 73
     1
 44
1.0
  0
MTEXT
  5
D6
330
D2
100
AcDbEntity
  8
0
  6
Continuous
 62
     0
370
     0
100
AcDbMText
 10
0.0
 20
-0.0936954723
 30
0.0
 40
2.1166666667
 41
0.0
 71
     1
 72
     1
  1
PROJECTION
  7
SLDTEXTSTYLE0
 73
     1
 44
1.0
  0
ENDBLK
  5
D4
330
D2
100
AcDbEntity
  8
0
100
AcDbBlockEnd
  0
BLOCK
  5
DA
330
D9
100
AcDbEntity
  8
0
100
AcDbBlockBegin
  2
SW_NOTE_3
 70
     0
 10
0.0
 20
0.0
 30
0.0
  3
SW_NOTE_3
  1

  0
MTEXT
  5
DC
330
D9
100
AcDbEntity
  8
0
  6
Continuous
 62
     0
370
     0
100
AcDbMText
 10
25.052734375
 20
4.0927900738
 30
0.0
 40
3.175
 41
0.0
 71
     2
 72
     1
  1
FOR INFORMATION ONLY
  7
SLDTEXTSTYLE0
 73
     1
 44
1.0
  0
MTEXT
  5
DD
330
D9
100
AcDbEntity
  8
0
  6
Continuous
 62
     0
370
     0
100
AcDbMText
 10
25.3768468589
 20
-0.1405432084
 30
0.0
 40
3.175
 41
0.0
 71
     2
 72
     1
  1
NOT FOR MANUFACTURING PURPOSES
  7
SLDTEXTSTYLE0
 73
     1
 44
1.0
  0
ENDBLK
  5
DB
330
D9
100
AcDbEntity
  8
0
100
AcDbBlockEnd
  0
BLOCK
  5
E0
330
DF
100
AcDbEntity
  8
0
100
AcDbBlockBegin
  2
SW_NOTE_4
 70
     0
 10
0.0
 20
0.0
 30
0.0
  3
SW_NOTE_4
  1

  0
MTEXT
  5
E2
330
DF
100
AcDbEntity
  8
0
  6
Continuous
 62
     0
370
     0
100
AcDbMText
 10
1.9016927083
 20
3.4106583948
 30
0.0
 40
2.6458333333
 41
0.0
 71
     2
 72
     1
  1
%%c
  7
SLDTEXTSTYLE0
 73
     1
 44
1.0
  0
MTEXT
  5
E3
330
DF
100
AcDbEntity
  8
0
  6
Continuous
 62
     0
370
     0
100
AcDbMText
 10
30.4107306302
 20
3.4106583948
 30
0.0
 40
2.6458333333
 41
0.0
 71
     2
 72
     1
  1
50.8mm, f=750mm BROADBAND
  7
SLDTEXTSTYLE0
 73
     1
 44
1.0
  0
MTEXT
  5
E4
330
DF
100
AcDbEntity
  8
0
  6
Continuous
 62
     0
370
     0
100
AcDbMText
 10
28.8677029709
 20
-0.1171193403
 30
0.0
 40
2.6458333333
 41
0.0
 71
     2
 72
     1
  1
MIRROR 400-750nm
  7
SLDTEXTSTYLE0
 73
     1
 44
1.0
  0
ENDBLK
  5
E1
330
DF
100
AcDbEntity
  8
0
100
AcDbBlockEnd
  0
BLOCK
  5
F7
330
F6
100
AcDbEntity
  8
0
100
AcDbBlockBegin
  2
_D
 70
     0
 10
0.0
 20
0.0
 30
0.0
  3
_D
  1

  0
SOLID
  5
F9
330
F6
100
AcDbEntity
  8
0
  6
Continuous
 62
     7
370
    18
100
AcDbTrace
 10
71.1827343111
 20
137.4177846645
 30
0.0
 11
73.5332661422
 21
139.6117967681
 31
0.0
 12
72.7313637408
 22
140.2356625698
 32
0.0
 13
72.7313637408
 23
140.2356625698
 33
0.0
  0
LINE
  5
FA
330
F6
100
AcDbEntity
  8
0
  6
Continuous
 62
     7
370
    18
100
AcDbLine
 10
87.7234756734
 20
150.5553700855
 30
0.0
 11
87.0796562193
 21
150.5553700855
 31
0.0
  0
LINE
  5
FB
330
F6
100
AcDbEntity
  8
0
  6
Continuous
 62
     7
370
    18
100
AcDbLine
 10
87.0796562193
 20
150.5553700855
 30
0.0
 11
87.0796562193
 21
147.1922220091
 31
0.0
  0
LINE
  5
FC
330
F6
100
AcDbEntity
  8
0
  6
Continuous
 62
     7
370
    18
100
AcDbLine
 10
87.0796562193
 20
147.1922220091
 30
0.0
 11
87.7234756734
 21
147.1922220091
 31
0.0
  0
LINE
  5
FD
330
F6
100
AcDbEntity
  8
0
  6
Continuous
 62
     7
370
    18
100
AcDbLine
 10
95.4806672196
 20
150.5553700855
 30
0.0
 11
96.1244866738
 21
150.5553700855
 31
0.0
  0
LINE
  5
FE
330
F6
100
AcDbEntity
  8
0
  6
Continuous
 62
     7
370
    18
100
AcDbLine
 10
96.1244866738
 20
150.5553700855
 30
0.0
 11
96.1244866738
 21
147.1922220091
 31
0.0
  0
LINE
  5
FF
330
F6
100
AcDbEntity
  8
0
  6
Continuous
 62
     7
370
    18
100
AcDbLine
 10
96.1244866738
 20
147.1922220091
 30
0.0
 11
95.4806672196
 21
147.1922220091
 31
0.0
  0
LINE
  5
100
330
F6
100
AcDbEntity
  8
0
  6
Continuous
 62
     7
370
    18
100
AcDbLine
 10
71.1827343111
 20
137.4177846645
 30
0.0
 11
82.6258367651
 21
152.1264789256
 31
0.0
  0
LINE
  5
101
330
F6
100
AcDbEntity
  8
0
  6
Continuous
 62
     7
370
    18
100
AcDbLine
 10
82.6258367651
 20
152.1264789256
 30
0.0
 11
86.4358367651
 21
152.1264789256
 31
0.0
  0
MTEXT
  5
102
330
F6
100
AcDbEntity
  8
0
  6
Continuous
 62
     7
370
    18
100
AcDbMText
 10
86.4358367651
 20
153.713109732
 30
0.0
 40
2.1166666667
 41
0.0
 71
     1
 72
     1
  1
%%c
  7
SLDTEXTSTYLE0
 73
     1
 44
1.0
  0
MTEXT
  5
103
330
F6
100
AcDbEntity
  8
0
  6
Continuous
 62
     7
370
    18
100
AcDbMText
 10
89.6308275658
 20
153.713109732
 30
0.0
 40
2.1166666667
 41
0.0
 71
     1
 72
     1
  1
50.8mm
  7
SLDTEXTSTYLE0
 73
     1
 44
1.0
  0
MTEXT
  5
104
330
F6
100
AcDbEntity
  8
0
  6
Continuous
 62
     7
370
    18
100
AcDbMText
 10
87.7234756734
 20
149.9207486085
 30
0.0
 40
2.1166666667
 41
0.0
 71
     1
 72
     1
  1
2.00in
  7
SLDTEXTSTYLE0
 73
     1
 44
1.0
  0
ENDBLK
  5
F8
330
F6
100
AcDbEntity
  8
0
100
AcDbBlockEnd
  0
BLOCK
  5
11C
330
11B
100
AcDbEntity
  8
0
100
AcDbBlockBegin
  2
_D_1
 70
     0
 10
0.0
 20
0.0
 30
0.0
  3
_D_1
  1

  0
SOLID
  5
11E
330
11B
100
AcDbEntity
  8
0
  6
Continuous
 62
     7
370
    18
100
AcDbTrace
 10
135.1734483662
 20
154.180025438
 30
0.0
 11
131.998631553
 21
154.689169035
 31
0.0
 12
131.9982655914
 22
153.6731691009
 32
0.0
 13
131.9982655914
 23
153.6731691009
 33
0.0
  0
SOLID
  5
11F
330
11B
100
AcDbEntity
  8
0
  6
Continuous
 62
     7
370
    18
100
AcDbTrace
 10
144.3851990496
 20
154.1767073798
 30
0.0
 11
147.5600158629
 21
153.6675637828
 31
0.0
 12
147.5603818245
 22
154.6835637169
 32
0.0
 13
147.5603818245
 23
154.6835637169
 33
0.0
  0
LINE
  5
120
330
11B
100
AcDbEntity
  8
0
  6
Continuous
 62
     7
370
    18
100
AcDbLine
 10
157.169915827
 20
154.1697371978
 30
0.0
 11
156.5260963729
 21
154.1697371978
 31
0.0
  0
LINE
  5
121
330
11B
100
AcDbEntity
  8
0
  6
Continuous
 62
     7
370
    18
100
AcDbLine
 10
156.5260963729
 20
154.1697371978
 30
0.0
 11
156.5260963729
 21
150.8065891214
 31
0.0
  0
LINE
  5
122
330
11B
100
AcDbEntity
  8
0
  6
Continuous
 62
     7
370
    18
100
AcDbLine
 10
156.5260963729
 20
150.8065891214
 30
0.0
 11
157.169915827
 21
150.8065891214
 31
0.0
  0
LINE
  5
123
330
11B
100
AcDbEntity
  8
0
  6
Continuous
 62
     7
370
    18
100
AcDbLine
 10
164.9271073733
 20
154.1697371978
 30
0.0
 11
165.5709268274
 21
154.1697371978
 31
0.0
  0
LINE
  5
124
330
11B
100
AcDbEntity
  8
0
  6
Continuous
 62
     7
370
    18
100
AcDbLine
 10
165.5709268274
 20
154.1697371978
 30
0.0
 11
165.5709268274
 21
150.8065891214
 31
0.0
  0
LINE
  5
125
330
11B
100
AcDbEntity
  8
0
  6
Continuous
 62
     7
370
    18
100
AcDbLine
 10
165.5709268274
 20
150.8065891214
 30
0.0
 11
164.9271073733
 21
150.8065891214
 31
0.0
  0
LINE
  5
126
330
11B
100
AcDbEntity
  8
0
  6
Continuous
 62
     7
370
    18
100
AcDbLine
 10
135.1697251812
 20
143.8435426045
 30
0.0
 11
135.174088799
 21
155.9580253227
 31
0.0
  0
LINE
  5
127
330
11B
100
AcDbEntity
  8
0
  6
Continuous
 62
     7
370
    18
100
AcDbLine
 10
144.3814758647
 20
143.8402245463
 30
0.0
 11
144.3858394824
 21
155.9547072645
 31
0.0
  0
LINE
  5
128
330
11B
100
AcDbEntity
  8
0
  6
Continuous
 62
     7
370
    18
100
AcDbLine
 10
135.1734483662
 20
154.180025438
 30
0.0
 11
128.8234487781
 21
154.1823126979
 31
0.0
  0
LINE
  5
129
330
11B
100
AcDbEntity
  8
0
  6
Continuous
 62
     7
370
    18
100
AcDbLine
 10
144.3851990496
 20
154.1767073798
 30
0.0
 11
155.4527634361
 21
154.1727208604
 31
0.0
  0
MTEXT
  5
12A
330
11B
100
AcDbEntity
  8
0
  6
Continuous
 62
     7
370
    18
100
AcDbMText
 10
156.4486812316
 20
157.3274768443
 30
0.0
 40
2.1166666667
 41
0.0
 71
     1
 72
     1
  1
9.2mm
  7
SLDTEXTSTYLE0
 73
     1
 44
1.0
  0
MTEXT
  5
12B
330
11B
100
AcDbEntity
  8
0
  6
Continuous
 62
     7
370
    18
100
AcDbMText
 10
157.169915827
 20
153.5351157208
 30
0.0
 40
2.1166666667
 41
0.0
 71
     1
 72
     1
  1
0.36in
  7
SLDTEXTSTYLE0
 73
     1
 44
1.0
  0
MTEXT
  5
12C
330
11B
100
AcDbEntity
  8
0
  6
Continuous
 62
     7
370
    18
100
AcDbMText
 10
167.0084958158
 20
157.3274768443
 30
0.0
 40
2.1166666667
 41
0.0
 71
     1
 72
     1
  1
REF
  7
SLDTEXTSTYLE0
 73
     1
 44
1.0
  0
ENDBLK
  5
11D
330
11B
100
AcDbEntity
  8
0
100
AcDbBlockEnd
  0
BLOCK
  5
130
330
12F
100
AcDbEntity
  8
0
100
AcDbBlockBegin
  2
_D_2
 70
     0
 10
0.0
 20
0.0
 30
0.0
  3
_D_2
  1

  0
ARC
  5
132
330
12F
100
AcDbEntity
  8
0
  6
Continuous
 62
     7
370
    18
100
AcDbCircle
 10
-1364.619050411
 20
117.3702246287
 30
0.0
 40
1500.000068823651
100
AcDbArc
 50
358.6211510306
 51
358.9887484921
  0
SOLID
  5
133
330
12F
100
AcDbEntity
  8
0
  6
Continuous
 62
     7
370
    18
100
AcDbTrace
 10
134.9884105466
 20
83.0530348915
 30
0.0
 11
138.1509574389
 21
82.4725298065
 31
0.0
 12
138.1742016144
 22
83.4882638801
 32
0.0
 13
138.1742016144
 23
83.4882638801
 33
0.0
  0
LINE
  5
134
330
12F
100
AcDbEntity
  8
0
  6
Continuous
 62
     7
370
    18
100
AcDbLine
 10
158.5995391028
 20
81.0582612236
 30
0.0
 11
157.9557196486
 21
81.0582612236
 31
0.0
  0
LINE
  5
135
330
12F
100
AcDbEntity
  8
0
  6
Continuous
 62
     7
370
    18
100
AcDbLine
 10
157.9557196486
 20
81.0582612236
 30
0.0
 11
157.9557196486
 21
77.6951131471
 31
0.0
  0
LINE
  5
136
330
12F
100
AcDbEntity
  8
0
  6
Continuous
 62
     7
370
    18
100
AcDbLine
 10
157.9557196486
 20
77.6951131471
 30
0.0
 11
158.5995391028
 21
77.6951131471
 31
0.0
  0
LINE
  5
137
330
12F
100
AcDbEntity
  8
0
  6
Continuous
 62
     7
370
    18
100
AcDbLine
 10
167.9207127558
 20
81.0582612236
 30
0.0
 11
168.5645322099
 21
81.0582612236
 31
0.0
  0
LINE
  5
138
330
12F
100
AcDbEntity
  8
0
  6
Continuous
 62
     7
370
    18
100
AcDbLine
 10
168.5645322099
 20
81.0582612236
 30
0.0
 11
168.5645322099
 21
77.6951131471
 31
0.0
  0
LINE
  5
139
330
12F
100
AcDbEntity
  8
0
  6
Continuous
 62
     7
370
    18
100
AcDbLine
 10
168.5645322099
 20
77.6951131471
 30
0.0
 11
167.9207127558
 21
77.6951131471
 31
0.0
  0
LINE
  5
13A
330
12F
100
AcDbEntity
  8
0
  6
Continuous
 62
     7
370
    18
100
AcDbLine
 10
134.9884105466
 20
83.0530348915
 30
0.0
 11
153.5019001945
 21
82.6293700636
 31
0.0
  0
LINE
  5
13B
330
12F
100
AcDbEntity
  8
0
  6
Continuous
 62
     7
370
    18
100
AcDbLine
 10
153.5019001945
 20
82.6293700636
 30
0.0
 11
157.3119001945
 21
82.6293700636
 31
0.0
  0
MTEXT
  5
13C
330
12F
100
AcDbEntity
  8
0
  6
Continuous
 62
     7
370
    18
100
AcDbMText
 10
157.3119001945
 20
84.21600087
 30
0.0
 40
2.1166666667
 41
0.0
 71
     1
 72
     1
  1
R1500.0mm
  7
SLDTEXTSTYLE0
 73
     1
 44
1.0
  0
MTEXT
  5
13D
330
12F
100
AcDbEntity
  8
0
  6
Continuous
 62
     7
370
    18
100
AcDbMText
 10
158.5995391028
 20
80.4236397465
 30
0.0
 40
2.1166666667
 41
0.0
 71
     1
 72
     1
  1
59.06in
  7
SLDTEXTSTYLE0
 73
     1
 44
1.0
  0
ENDBLK
  5
131
330
12F
100
AcDbEntity
  8
0
100
AcDbBlockEnd
  0
BLOCK
  5
141
330
140
100
AcDbEntity
  8
0
100
AcDbBlockBegin
  2
_D_3
 70
     0
 10
0.0
 20
0.0
 30
0.0
  3
_D_3
  1

  0
SOLID
  5
143
330
140
100
AcDbEntity
  8
0
  6
Continuous
 62
     7
370
    18
100
AcDbTrace
 10
144.3810184127
 20
146.7727911044
 30
0.0
 11
147.5560184127
 21
146.2647911044
 31
0.0
 12
147.5560184127
 22
147.2807911044
 32
0.0
 13
147.5560184127
 23
147.2807911044
 33
0.0
  0
SOLID
  5
144
330
140
100
AcDbEntity
  8
0
  6
Continuous
 62
     7
370
    18
100
AcDbTrace
 10
135.3810184127
 20
146.7727911044
 30
0.0
 11
132.2060184127
 21
147.2807911044
 31
0.0
 12
132.2060184127
 22
146.2647911044
 32
0.0
 13
132.2060184127
 23
146.2647911044
 33
0.0
  0
LINE
  5
145
330
140
100
AcDbEntity
  8
0
  6
Continuous
 62
     7
370
    18
100
AcDbLine
 10
156.5024224067
 20
146.7727908716
 30
0.0
 11
155.8586029526
 21
146.7727908716
 31
0.0
  0
LINE
  5
146
330
140
100
AcDbEntity
  8
0
  6
Continuous
 62
     7
370
    18
100
AcDbLine
 10
155.8586029526
 20
146.7727908716
 30
0.0
 11
155.8586029526
 21
143.4096427951
 31
0.0
  0
LINE
  5
147
330
140
100
AcDbEntity
  8
0
  6
Continuous
 62
     7
370
    18
100
AcDbLine
 10
155.8586029526
 20
143.4096427951
 30
0.0
 11
156.5024224067
 21
143.4096427951
 31
0.0
  0
LINE
  5
148
330
140
100
AcDbEntity
  8
0
  6
Continuous
 62
     7
370
    18
100
AcDbLine
 10
164.259613953
 20
146.7727908716
 30
0.0
 11
164.9034334071
 21
146.7727908716
 31
0.0
  0
LINE
  5
149
330
140
100
AcDbEntity
  8
0
  6
Continuous
 62
     7
370
    18
100
AcDbLine
 10
164.9034334071
 20
146.7727908716
 30
0.0
 11
164.9034334071
 21
143.4096427951
 31
0.0
  0
LINE
  5
14A
330
140
100
AcDbEntity
  8
0
  6
Continuous
 62
     7
370
    18
100
AcDbLine
 10
164.9034334071
 20
143.4096427951
 30
0.0
 11
164.259613953
 21
143.4096427951
 31
0.0
  0
LINE
  5
14B
330
140
100
AcDbEntity
  8
0
  6
Continuous
 62
     7
370
    18
100
AcDbLine
 10
144.3810184127
 20
143.8402246287
 30
0.0
 11
144.3810184127
 21
148.5507911044
 31
0.0
  0
LINE
  5
14C
330
140
100
AcDbEntity
  8
0
  6
Continuous
 62
     7
370
    18
100
AcDbLine
 10
135.3810184127
 20
118.6402246287
 30
0.0
 11
135.3810184127
 21
148.5507911044
 31
0.0
  0
LINE
  5
14D
330
140
100
AcDbEntity
  8
0
  6
Continuous
 62
     7
370
    18
100
AcDbLine
 10
144.3810184127
 20
146.7727911044
 30
0.0
 11
153.2252083114
 21
146.7727911044
 31
0.0
  0
LINE
  5
14E
330
140
100
AcDbEntity
  8
0
  6
Continuous
 62
     7
370
    18
100
AcDbLine
 10
135.3810184127
 20
146.7727911044
 30
0.0
 11
129.0310184127
 21
146.7727911044
 31
0.0
  0
MTEXT
  5
14F
330
140
100
AcDbEntity
  8
0
  6
Continuous
 62
     7
370
    18
100
AcDbMText
 10
155.2422217941
 20
149.9305305181
 30
0.0
 40
2.1166666667
 41
0.0
 71
     1
 72
     1
  1

  7
SLDTEXTSTYLE0
 73
     1
 44
1.0
  0
MTEXT
  5
150
330
140
100
AcDbEntity
  8
0
  6
Continuous
 62
     7
370
    18
100
AcDbMText
 10
155.7811878113
 20
149.9305305181
 30
0.0
 40
2.1166666667
 41
0.0
 71
     1
 72
     1
  1
9.0mm
  7
SLDTEXTSTYLE0
 73
     1
 44
1.0
  0
MTEXT
  5
151
330
140
100
AcDbEntity
  8
0
  6
Continuous
 62
     7
370
    18
100
AcDbMText
 10
156.5024224067
 20
146.1381693946
 30
0.0
 40
2.1166666667
 41
0.0
 71
     1
 72
     1
  1
0.35in
  7
SLDTEXTSTYLE0
 73
     1
 44
1.0
  0
MTEXT
  5
152
330
140
100
AcDbEntity
  8
0
  6
Continuous
 62
     7
370
    18
100
AcDbMText
 10
167.1347528612
 20
149.9305305181
 30
0.0
 40
2.1166666667
 41
0.0
 71
     1
 72
     1
  1

  7
SLDTEXTSTYLE0
 73
     1
 44
1.0
  0
ENDBLK
  5
142
330
140
100
AcDbEntity
  8
0
100
AcDbBlockEnd
  0
ENDSEC
  0
SECTION
  2
ENTITIES
  0
LINE
  5
81
330
1F
100
AcDbEntity
  8
0
  6
Continuous
 62
     7
370
    18
100
AcDbLine
 10
1.5793501011
 20
214.6453799966
 30
0.0
 11
277.9892068491
 21
214.6453799966
 31
0.0
  0
LINE
  5
82
330
1F
100
AcDbEntity
  8
0
  6
Continuous
 62
     7
370
    18
100
AcDbLine
 10
1.5793501011
 20
214.6453799966
 30
0.0
 11
1.5793501011
 21
0.9031642596
 31
0.0
  0
LINE
  5
83
330
1F
100
AcDbEntity
  8
0
  6
Continuous
 62
     7
370
    18
100
AcDbLine
 10
277.9892068491
 20
0.9031642596
 30
0.0
 11
1.5793501011
 21
0.9031642596
 31
0.0
  0
LINE
  5
84
330
1F
100
AcDbEntity
  8
0
  6
Continuous
 62
     7
370
    18
100
AcDbLine
 10
277.9892068491
 20
0.9031642596
 30
0.0
 11
277.9892068491
 21
214.6453799966
 31
0.0
  0
LINE
  5
85
330
1F
100
AcDbEntity
  8
0
  6
Continuous
 62
     7
370
    18
100
AcDbLine
 10
215.7427640041
 20
12.2958890132
 30
0.0
 11
171.6327596684
 21
12.2958890132
 31
0.0
  0
LINE
  5
86
330
1F
100
AcDbEntity
  8
0
  6
Continuous
 62
     7
370
    18
100
AcDbLine
 10
171.6327596684
 20
12.2958890132
 30
0.0
 11
171.6327596684
 21
26.1661402506
 31
0.0
  0
LINE
  5
87
330
1F
100
AcDbEntity
  8
0
  6
Continuous
 62
     7
370
    18
100
AcDbLine
 10
171.6327596684
 20
0.9031642596
 30
0.0
 11
171.6327596684
 21
26.1661402506
 31
0.0
  0
LINE
  5
88
330
1F
100
AcDbEntity
  8
0
  6
Continuous
 62
     7
370
    18
100
AcDbLine
 10
215.7427640041
 20
17.1604579552
 30
0.0
 11
277.9892068491
 21
17.1604579552
 31
0.0
  0
LINE
  5
89
330
1F
100
AcDbEntity
  8
0
  6
Continuous
 62
     7
370
    18
100
AcDbLine
 10
215.7427640041
 20
35.2394508358
 30
0.0
 11
215.7427640041
 21
0.9031642596
 31
0.0
  0
LINE
  5
8A
330
1F
100
AcDbEntity
  8
0
  6
Continuous
 62
     7
370
    18
100
AcDbLine
 10
215.7427640041
 20
26.1661402506
 30
0.0
 11
171.6327596684
 21
26.1661402506
 31
0.0
  0
LINE
  5
8B
330
1F
100
AcDbEntity
  8
0
  6
Continuous
 62
     7
370
    18
100
AcDbLine
 10
215.7427640041
 20
9.1409200612
 30
0.0
 11
277.9892068491
 21
9.1409200612
 31
0.0
  0
LINE
  5
8C
330
1F
100
AcDbEntity
  8
0
  6
Continuous
 62
     7
370
    18
100
AcDbLine
 10
215.7427640041
 20
16.9216824031
 30
0.0
 11
171.6327596684
 21
16.9216824031
 31
0.0
  0
LINE
  5
8D
330
1F
100
AcDbEntity
  8
0
  6
Continuous
 62
     7
370
    18
100
AcDbLine
 10
215.7427640041
 20
21.4874005542
 30
0.0
 11
171.6327596684
 21
21.4874005542
 31
0.0
  0
LINE
  5
8E
330
1F
100
AcDbEntity
  8
0
  6
Continuous
 62
     7
370
    18
100
AcDbLine
 10
186.1338100705
 20
26.1661402506
 30
0.0
 11
186.1338100705
 21
12.2958890132
 31
0.0
  0
LINE
  5
8F
330
1F
100
AcDbEntity
  8
0
  6
Continuous
 62
     7
370
    18
100
AcDbLine
 10
198.2145906188
 20
26.1661402506
 30
0.0
 11
198.2145906188
 21
12.2958890132
 31
0.0
  0
LINE
  5
90
330
1F
100
AcDbEntity
  8
0
  6
Continuous
 62
     7
370
    18
100
AcDbLine
 10
253.7490408369
 20
9.1409200612
 30
0.0
 11
253.7490408369
 21
0.9031642596
 31
0.0
  0
LINE
  5
91
330
1F
100
AcDbEntity
  8
0
  6
Continuous
 62
     7
370
    18
100
AcDbLine
 10
171.6327596684
 20
12.2958890132
 30
0.0
 11
171.6327596684
 21
7.5627342528
 31
0.0
  0
LINE
  5
92
330
1F
100
AcDbEntity
  8
0
  6
Continuous
 62
     7
370
    18
100
AcDbLine
 10
171.6327596684
 20
7.5627342528
 30
0.0
 11
215.7427640041
 21
7.5627342528
 31
0.0
  0
LINE
  5
93
330
1F
100
AcDbEntity
  8
0
  6
Continuous
 62
     7
370
    18
100
AcDbLine
 10
171.6327596684
 20
7.5627342528
 30
0.0
 11
171.6327596684
 21
35.2394508358
 31
0.0
  0
LINE
  5
94
330
1F
100
AcDbEntity
  8
0
  6
Continuous
 62
     7
370
    18
100
AcDbLine
 10
171.6327596684
 20
35.2394508358
 30
0.0
 11
215.7427640041
 21
35.2394508358
 31
0.0
  0
LINE
  5
95
330
1F
100
AcDbEntity
  8
0
  6
Continuous
 62
     7
370
    18
100
AcDbLine
 10
270.1683598194
 20
17.1604579552
 30
0.0
 11
270.1683598194
 21
9.1409200612
 31
0.0
  0
LINE
  5
96
330
1F
100
AcDbEntity
  8
0
  6
Continuous
 62
     7
370
    18
100
AcDbLine
 10
215.7427640041
 20
35.2394508358
 30
0.0
 11
277.9892068491
 21
35.2394508358
 31
0.0
  0
LINE
  5
97
330
1F
100
AcDbEntity
  8
0
  6
Continuous
 62
     7
370
    18
100
AcDbLine
 10
277.9892068491
 20
35.2394508358
 30
0.0
 11
277.9892068491
 21
50.0331356147
 31
0.0
  0
LINE
  5
98
330
1F
100
AcDbEntity
  8
0
  6
Continuous
 62
     7
370
    18
100
AcDbLine
 10
215.7427640041
 20
24.8927335446
 30
0.0
 11
277.9892068491
 21
24.8927335446
 31
0.0
  0
INSERT
  5
99
330
1F
100
AcDbEntity
  8
0
  6
Continuous
 62
     7
100
AcDbBlockReference
  2
Third Angle Projection Block
 10
117.7262204235
 20
15.5162339489
 30
0.0
 41
0.8
 42
0.8
 43
0.8
  0
INSERT
  5
BA
330
1F
100
AcDbEntity
  8
0
  6
Continuous
 62
     7
370
     0
100
AcDbBlockReference
  2
SW_NOTE_0
 10
19.2039622878
 20
69.9585075724
 30
0.0
  0
MTEXT
  5
BB
330
1F
100
AcDbEntity
  8
0
  6
Continuous
 62
     7
370
     0
100
AcDbMText
 10
274.1458225539
 20
13.2559386876
 30
0.0
 40
3.175
 41
0.0
 71
     2
 72
     1
  1
A
  7
SLDTEXTSTYLE0
 73
     1
 44
1.0
  0
MTEXT
  5
BC
330
1F
100
AcDbEntity
  8
0
  6
Continuous
 62
     7
370
     0
100
AcDbMText
 10
234.5267468444
 20
5.1306563898
 30
0.0
 40
3.175
 41
0.0
 71
     2
 72
     1
  1
CM508-750-E02
  7
SLDTEXTSTYLE0
 73
     1
 44
1.0
  0
MTEXT
  5
BD
330
1F
100
AcDbEntity
  8
0
  6
Continuous
 62
     7
370
     0
100
AcDbMText
 10
216.4199766059
 20
16.8243178599
 30
0.0
 40
2.1166666667
 41
0.0
 71
     1
 72
     1
  1
MATERIAL
  7
SLDTEXTSTYLE0
 73
     1
 44
1.0
  0
MTEXT
  5
BE
330
1F
100
AcDbEntity
  8
0
  6
Continuous
 62
     7
370
     0
100
AcDbMText
 10
174.230946566
 20
20.054553926
 30
0.0
 40
1.8520833333
 41
0.0
 71
     1
 72
     1
  1
DRAWN
  7
SLDTEXTSTYLE0
 73
     1
 44
1.0
  0
MTEXT
  5
BF
330
1F
100
AcDbEntity
  8
0
  6
Continuous
 62
     7
370
     0
100
AcDbMText
 10
172.3960124543
 20
15.5787169747
 30
0.0
 40
1.8520833333
 41
0.0
 71
     1
 72
     1
  1
APPROVAL
  7
SLDTEXTSTYLE0
 73
     1
 44
1.0
  0
MTEXT
  5
C0
330
1F
100
AcDbEntity
  8
0
  6
Continuous
 62
     7
370
     0
100
AcDbMText
 10
271.7160653675
 20
16.1671746307
 30
0.0
 40
2.1166666667
 41
0.0
 71
     1
 72
     1
  1
REV
  7
SLDTEXTSTYLE0
 73
     1
 44
1.0
  0
MTEXT
  5
C1
330
1F
100
AcDbEntity
  8
0
  6
Continuous
 62
     7
370
     0
100
AcDbMText
 10
190.2958696448
 20
20.3177146903
 30
0.0
 40
2.1166666667
 41
0.0
 71
     1
 72
     1
  1
YB
  7
SLDTEXTSTYLE0
 73
     1
 44
1.0
  0
MTEXT
  5
C2
330
1F
100
AcDbEntity
  8
0
  6
Continuous
 62
     7
370
     0
100
AcDbMText
 10
190.2958696448
 20
15.841877739
 30
0.0
 40
2.1166666667
 41
0.0
 71
     1
 72
     1
  1
DD
  7
SLDTEXTSTYLE0
 73
     1
 44
1.0
  0
MTEXT
  5
C3
330
1F
100
AcDbEntity
  8
0
  6
Continuous
 62
     7
370
     0
100
AcDbMText
 10
199.8662436873
 20
20.3177146903
 30
0.0
 40
2.1166666667
 41
0.0
 71
     1
 72
     1
  1
16/APR/18
  7
SLDTEXTSTYLE0
 73
     1
 44
1.0
  0
MTEXT
  5
C4
330
1F
100
AcDbEntity
  8
0
  6
Continuous
 62
     7
370
     0
100
AcDbMText
 10
203.6145073853
 20
24.8221395769
 30
0.0
 40
2.1166666667
 41
0.0
 71
     1
 72
     1
  1
DATE
  7
SLDTEXTSTYLE0
 73
     1
 44
1.0
  0
MTEXT
  5
C5
330
1F
100
AcDbEntity
  8
0
  6
Continuous
 62
     7
370
     0
100
AcDbMText
 10
199.8662436873
 20
15.841877739
 30
0.0
 40
2.1166666667
 41
0.0
 71
     1
 72
     1
  1
16/APR/18
  7
SLDTEXTSTYLE0
 73
     1
 44
1.0
  0
MTEXT
  5
C7
330
1F
100
AcDbEntity
  8
0
  6
Continuous
 62
     7
370
     0
100
AcDbMText
 10
229.402906477
 20
27.7957480569
 30
0.0
 40
2.1166666667
 41
0.0
 71
     1
 72
     1
  1
w w w . t h o r  l a b s . c o m
  7
SLDTEXTSTYLE3
 73
     1
 44
1.0
  0
MTEXT
  5
C8
330
1F
100
AcDbEntity
  8
0
  6
Continuous
 62
     7
370
     0
100
AcDbMText
 10
216.7004035316
 20
8.3494791871
 30
0.0
 40
2.1166666667
 41
0.0
 71
     1
 72
     1
  1
ITEM #
  7
SLDTEXTSTYLE0
 73
     1
 44
1.0
  0
MTEXT
  5
C9
330
1F
100
AcDbEntity
  8
0
  6
Continuous
 62
     7
370
     0
100
AcDbMText
 10
254.5318000914
 20
8.3494791871
 30
0.0
 40
2.1166666667
 41
0.0
 71
     1
 72
     1
  1
APPROX WEIGHT
  7
SLDTEXTSTYLE0
 73
     1
 44
1.0
  0
MTEXT
  5
CA
330
1F
100
AcDbEntity
  8
0
  6
Continuous
 62
     7
370
     0
100
AcDbMText
 10
243.5159064132
 20
13.8247651814
 30
0.0
 40
3.175
 41
0.0
 71
     2
 72
     1
  1
N-BK7
  7
SLDTEXTSTYLE0
 73
     1
 44
1.0
  0
MTEXT
  5
CB
330
1F
100
AcDbEntity
  8
0
  6
Continuous
 62
     7
370
     0
100
AcDbMText
 10
266.1553537756
 20
5.1306563898
 30
0.0
 40
3.175
 41
0.0
 71
     2
 72
     1
  1
46.33 g
  7
SLDTEXTSTYLE0
 73
     1
 44
1.0
  0
INSERT
  5
D1
330
1F
100
AcDbEntity
  8
0
  6
Continuous
 62
     7
370
     0
100
AcDbBlockReference
  2
SW_NOTE_1
 10
174.8430140051
 20
4.4558554801
 30
0.0
  0
INSERT
  5
D7
330
1F
100
AcDbEntity
  8
0
  6
Continuous
 62
     7
370
     0
100
AcDbBlockReference
  2
SW_NOTE_2
 10
174.5483650337
 20
30.4835322715
 30
0.0
  0
MTEXT
  5
D8
330
1F
100
AcDbEntity
  8
0
  6
Continuous
 62
     7
370
     0
100
AcDbMText
 10
187.9273588276
 20
24.8221395769
 30
0.0
 40
2.1166666667
 41
0.0
 71
     1
 72
     1
  1
NAME
  7
SLDTEXTSTYLE0
 73
     1
 44
1.0
  0
INSERT
  5
DE
330
1F
100
AcDbEntity
  8
0
  6
Continuous
 62
     7
370
     0
100
AcDbBlockReference
  2
SW_NOTE_3
 10
58.6204667508
 20
8.1776609732
 30
0.0
  0
INSERT
  5
E5
330
1F
100
AcDbEntity
  8
0
  6
Continuous
 62
     7
370
     0
100
AcDbBlockReference
  2
SW_NOTE_4
 10
218.0304396749
 20
20.7222222066
 30
0.0
  0
MTEXT
  5
E6
330
1F
100
AcDbEntity
  8
0
  6
Continuous
 62
     7
370
     0
100
AcDbMText
 10
177.6925831922
 20
10.7142101515
 30
0.0
 40
1.5875
 41
0.0
 71
     1
 72
     1
  1
COPYRIGHT © 2018 BY THORLABS
  7
SLDTEXTSTYLE0
 73
     1
 44
1.0
  0
LINE
  5
E7
330
1F
100
AcDbEntity
  8
0
  6
Continuous
 62
     7
370
    18
100
AcDbLine
 10
231.4146729165
 20
194.4681309495
 30
0.0
 11
231.4146729165
 21
194.3075582167
 31
0.0
  0
LINE
  5
E8
330
1F
100
AcDbEntity
  8
0
  6
Continuous
 62
     7
370
    18
100
AcDbLine
 10
249.2332135391
 20
163.4415961504
 30
0.0
 11
249.3722660703
 21
163.3612967352
 31
0.0
  0
LINE
  5
E9
330
1F
100
AcDbEntity
  8
0
  6
Continuous
 62
     7
370
    18
100
AcDbLine
 10
262.0741530631
 20
162.1021068249
 30
0.0
 11
268.307347947
 21
165.7004536384
 31
0.0
  0
LINE
  5
EA
330
1F
100
AcDbEntity
  8
0
  6
Continuous
 62
     7
370
    18
100
AcDbLine
 10
242.909412138
 20
209.6957358473
 30
0.0
 11
236.6762172542
 21
206.0973890338
 31
0.0
  0
LINE
  5
EB
330
1F
100
AcDbEntity
  8
0
  6
Continuous
 62
     7
370
    18
100
AcDbLine
 10
273.5688922847
 20
177.3297117227
 30
0.0
 11
273.5688922847
 21
177.492993345
 31
0.0
  0
LINE
  5
EC
330
1F
100
AcDbEntity
  8
0
  6
Continuous
 62
     7
370
    18
100
AcDbLine
 10
255.7526975022
 20
208.3548918569
 30
0.0
 11
255.6112991309
 21
208.436545937
 31
0.0
  0
LWPOLYLINE
  5
ED
330
1F
100
AcDbEntity
  8
0
  6
Continuous
 62
     7
370
    18
100
AcDbPolyline
 90
      168
 70
   128
 43
0.0
 10
267.0575471312
 20
173.7313649092
 10
267.0449350056
 20
174.5127448076
 10
267.0071164796
 20
175.3075804004
 10
266.9441450812
 20
176.1147466868
 10
266.8561099394
 20
176.9331012132
 10
266.743135658
 20
177.7614856903
 10
266.6053821396
 20
178.5987276324
 10
266.4430443587
 20
179.4436420172
 10
266.2563520865
 20
180.2950329629
 10
266.0455695649
 20
181.1516954208
 10
265.8109951331
 20
182.012416881
 10
265.5529608048
 20
182.8759790885
 10
265.2718317989
 20
183.7411597675
 10
264.968006022
 20
184.6067343517
 10
264.6419135055
 20
185.4714777169
 10
264.294015797
 20
186.3341659156
 10
263.9248053066
 20
187.1935779091
 10
263.5348046106
 20
188.0484972958
 10
263.1245657114
 20
188.8977140331
 10
262.6946692562
 20
189.7400261494
 10
262.2457237155
 20
190.5742414463
 10
261.7783645213
 20
191.3991791853
 10
261.2932531684
 20
192.2136717592
 10
260.7910762777
 20
193.0165663448
 10
260.2725446243
 20
193.8067265348
 10
259.738392132
 20
194.5830339456
 10
259.1893748337
 20
195.344389801
 10
258.6262698021
 20
196.0897164868
 10
258.0498740494
 20
196.8179590766
 10
257.4610033993
 20
197.5280868243
 10
256.8604913323
 20
198.2190946236
 10
256.2491878062
 20
198.8900044301
 10
255.6279580528
 20
199.5398666461
 10
254.9976813532
 20
200.1677614642
 10
254.3592497937
 20
200.7728001696
 10
253.7135670027
 20
201.3541263976
 10
253.0615468721
 20
201.910917346
 10
252.4041122633
 20
202.4423849394
 10
251.7421937017
 20
202.947776945
 10
251.0767280589
 20
203.4263780367
 10
250.4086572271
 20
203.8775108083
 10
249.7389267858
 20
204.3005367319
 10
249.0684846636
 20
204.6948570614
 10
248.3982797964
 20
205.0599136807
 10
247.7292607841
 20
205.3951898928
 10
247.0623745485
 20
205.7002111517
 10
246.3985649924
 20
205.9745457341
 10
245.7387716639
 20
206.2178053499
 10
245.0839284268
 20
206.4296456924
 10
244.4349621384
 20
206.6097669253
 10
243.792791338
 20
206.757914107
 10
243.1583249465
 20
206.873877552
 10
242.5324609801
 20
206.9574931267
 10
241.9160852794
 20
207.0086424828
 10
241.310070255
 20
207.0272532241
 10
240.7152736537
 20
207.0132990091
 10
240.1325373434
 20
206.9667995884
 10
239.5626861222
 20
206.8878207769
 10
239.0065265509
 20
206.7764743601
 10
238.464845811
 20
206.6329179365
 10
237.9384105911
 20
206.4573546941
 10
237.4279660015
 20
206.2500331231
 10
236.9342345192
 20
206.0112466639
 10
236.4579149661
 20
205.7413332922
 10
235.9996815192
 20
205.4406750401
 10
235.5601827566
 20
205.1096974557
 10
235.1400407399
 20
204.7488690008
 10
234.7398501329
 20
204.3587003877
 10
234.3601773607
 20
203.9397438565
 10
234.0015598078
 20
203.4925923932
 10
233.664505057
 20
203.0178788909
 10
233.3494901719
 20
202.5162752533
 10
233.0569610206
 20
201.9884914443
 10
232.7873316455
 20
201.4352744829
 10
232.5409836769
 20
200.8574073858
 10
232.3182657926
 20
200.2557080593
 10
232.1194932251
 20
199.6310281414
 10
231.9449473145
 20
198.9842517969
 10
231.7948751113
 20
198.3162944652
 10
231.6694890256
 20
197.6281015652
 10
231.5689665277
 20
196.9206471571
 10
231.4934498957
 20
196.1949325635
 10
231.4430460151
 20
195.4519849521
 10
231.4178262269
 20
194.6928558824
 10
231.4178262269
 20
193.9186198165
 10
231.4430460151
 20
193.1303725991
 10
231.4934498957
 20
192.3292299059
 10
231.5689665277
 20
191.5163256649
 10
231.6694890256
 20
190.6928104511
 10
231.7948751113
 20
189.8598498581
 10
231.9449473145
 20
189.0186228486
 10
232.1194932251
 20
188.1703200854
 10
232.3182657926
 20
187.3161422461
 10
232.5409836769
 20
186.4572983239
 10
232.7873316455
 20
185.5950039164
 10
233.0569610206
 20
184.7304795049
 10
233.3494901719
 20
183.864948727
 10
233.664505057
 20
182.9996366447
 10
234.0015598078
 20
182.1357680106
 10
234.3601773607
 20
181.274565534
 10
234.7398501329
 20
180.4172481508
 10
235.1400407399
 20
179.5650292979
 10
235.5601827566
 20
178.7191151958
 10
235.9996815192
 20
177.8807031412
 10
236.4579149661
 20
177.0509798128
 10
236.9342345192
 20
176.2311195909
 10
237.4279660015
 20
175.4222828963
 10
237.9384105911
 20
174.6256145466
 10
238.464845811
 20
173.842242137
 10
239.0065265509
 20
173.0732744434
 10
239.5626861222
 20
172.3197998536
 10
240.1325373434
 20
171.5828848266
 10
240.7152736537
 20
170.8635723833
 10
241.310070255
 20
170.16288063
 10
241.9160852794
 20
169.4818013175
 10
242.5324609801
 20
168.8212984374
 10
243.1583249465
 20
168.1823068577
 10
243.792791338
 20
167.5657309995
 10
244.4349621384
 20
166.972443557
 10
245.0839284268
 20
166.4032842623
 10
245.7387716639
 20
165.8590586965
 10
246.3985649924
 20
165.3405371503
 10
247.0623745485
 20
164.8484535328
 10
247.7292607841
 20
164.3835043334
 10
248.3982797964
 20
163.9463476356
 10
249.0684846636
 20
163.537602186
 10
249.7389267858
 20
163.157846518
 10
250.4086572271
 20
162.8076181332
 10
251.0767280589
 20
162.4874127408
 10
251.7421937017
 20
162.1976835557
 10
252.4041122633
 20
161.9388406571
 10
253.0615468721
 20
161.7112504083
 10
253.7135670027
 20
161.5152349378
 10
254.3592497937
 20
161.3510716836
 10
254.9976813532
 20
161.2189930004
 10
255.6279580528
 20
161.1191858307
 10
256.2491878062
 20
161.0517914406
 10
256.8604913323
 20
161.0169052192
 10
257.4610033993
 20
161.014576544
 10
258.0498740494
 20
161.0448087111
 10
258.6262698021
 20
161.1075589302
 10
259.1893748337
 20
161.2027383853
 10
259.738392132
 20
161.3302123607
 10
260.2725446243
 20
161.489800431
 10
260.7910762777
 20
161.6812767174
 10
261.2932531684
 20
161.9043702064
 10
261.7783645213
 20
162.1587651343
 10
262.2457237155
 20
162.4441014334
 10
262.6946692562
 20
162.7599752421
 10
263.1245657114
 20
163.1059394764
 10
263.5348046106
 20
163.4815044625
 10
263.9248053066
 20
163.8861386303
 10
264.294015797
 20
164.3192692653
 10
264.6419135055
 20
164.7802833196
 10
264.968006022
 20
165.2685282792
 10
265.2718317989
 20
165.7833130881
 10
265.5529608048
 20
166.3239091259
 10
265.8109951331
 20
166.8895512394
 10
266.0455695649
 20
167.4794388255
 10
266.2563520865
 20
168.0927369641
 10
266.4430443587
 20
168.7285776004
 10
266.6053821396
 20
169.3860607731
 10
266.743135658
 20
170.0642558882
 10
266.8561099394
 20
170.7622030364
 10
266.9441450812
 20
171.4789143516
 10
267.0071164796
 20
172.213375409
 10
267.0449350056
 20
172.9645466612
 10
267.0575471312
 20
173.7313649092
  0
LWPOLYLINE
  5
EE
330
1F
100
AcDbEntity
  8
0
  6
Continuous
 62
     7
370
    18
100
AcDbPolyline
 90
      127
 70
   128
 43
0.0
 10
231.4146729165
 20
194.4681309495
 10
231.4273834649
 20
195.2409333025
 10
231.4654971195
 20
195.9979665535
 10
231.5289599348
 20
196.7381592065
 10
231.6176820863
 20
197.4604636017
 10
231.7315379976
 20
198.1638573978
 10
231.8703665185
 20
198.8473450198
 10
232.0339711528
 20
199.5099590671
 10
232.2221203363
 20
200.1507616839
 10
232.4345477649
 20
200.7688458855
 10
232.6709527714
 20
201.3633368431
 10
232.9310007509
 20
201.933393121
 10
233.2143236346
 20
202.4782078683
 10
233.5205204106
 20
202.9970099608
 10
233.8491576916
 20
203.489065092
 10
234.1997703282
 20
203.953676813
 10
234.5718620676
 20
204.3901875178
 10
234.9649062555
 20
204.7979793744
 10
235.3783465817
 20
205.1764751989
 10
235.8115978678
 20
205.5251392728
 10
236.2640468949
 20
205.8434781011
 10
236.7350532721
 20
206.1310411109
 10
237.2239503425
 20
206.3874212888
 10
237.730046127
 20
206.6122557574
 10
238.2526243036
 20
206.8052262886
 10
238.7909452213
 20
206.9660597542
 10
239.3442469471
 20
207.0945285124
 10
239.9117463442
 20
207.19045073
 10
240.4926401806
 20
207.25369064
 10
241.0861062663
 20
207.2841587332
 10
241.6913046161
 20
207.2818118855
 10
242.3073786397
 20
207.2466534186
 10
242.933456353
 20
207.1787330954
 10
243.5686516131
 20
207.0781470494
 10
244.2120653721
 20
206.945037649
 10
244.8627869499
 20
206.7795932957
 10
245.5198953226
 20
206.5820481574
 10
246.1824604271
 20
206.3526818373
 10
246.8495444764
 20
206.0918189775
 10
247.5202032876
 20
205.7998288005
 10
248.1934876182
 20
205.4771245856
 10
248.8684445096
 20
205.1241630845
 10
249.5441186357
 20
204.7414438749
 10
250.2195536553
 20
204.3295086528
 10
250.8937935658
 20
203.8889404666
 10
251.5658840558
 20
203.4203628913
 10
252.2348738566
 20
202.9244391461
 10
252.8998160878
 20
202.4018711555
 10
253.559769598
 20
201.853398556
 10
254.2138002969
 20
201.2797976494
 10
254.8609824772
 20
200.6818803036
 10
255.5004001248
 20
200.0604928037
 10
256.1311482155
 20
199.4165146542
 10
256.752333996
 20
198.7508573342
 10
257.3630782473
 20
198.0644630071
 10
257.9625165292
 20
197.3583031875
 10
258.5498004038
 20
196.6333773655
 10
259.1240986364
 20
195.8907115927
 10
259.6845983722
 20
195.1313570292
 10
260.2305062864
 20
194.3563884567
 10
260.7610497075
 20
193.5669027565
 10
261.2754777105
 20
192.7640173573
 10
261.7730621801
 20
191.9488686536
 10
262.2530988412
 20
191.1226103972
 10
262.7149082556
 20
190.2864120643
 10
263.1578367836
 20
189.4414572001
 10
263.5812575094
 20
188.5889417439
 10
263.9845711285
 20
187.7300723357
 10
264.3672067953
 20
186.8660646093
 10
264.7286229321
 20
185.9981414711
 10
265.0683079945
 20
185.127531369
 10
265.3857811964
 20
184.2554665544
 10
265.68059319
 20
183.3831813375
 10
265.9523267019
 20
182.5119103405
 10
266.2005971237
 20
181.64288675
 10
266.4250530563
 20
180.7773405718
 10
266.6253768075
 20
179.9164968897
 10
266.8012848414
 20
179.0615741317
 10
266.9525281798
 20
178.2137823452
 10
267.0788927548
 20
177.3743214849
 10
267.1801997114
 20
176.5443797136
 10
267.2563056609
 20
175.7251317212
 10
267.3071028839
 20
174.9177370615
 10
267.3325194826
 20
174.1233385114
 10
267.3325194826
 20
173.3430604533
 10
267.3071028839
 20
172.5780072834
 10
267.2563056609
 20
171.829261849
 10
267.1801997114
 20
171.0978839155
 10
267.0788927548
 20
170.3849086666
 10
266.9525281798
 20
169.691345239
 10
266.8012848414
 20
169.0181752942
 10
266.6253768075
 20
168.366351629
 10
266.4250530563
 20
167.7367968269
 10
266.2005971237
 20
167.1304019523
 10
265.9523267019
 20
166.5480252894
 10
265.68059319
 20
165.9904911271
 10
265.3857811964
 20
165.4585885928
 10
265.0683079945
 20
164.953070535
 10
264.7286229321
 20
164.4746524579
 10
264.3672067953
 20
164.024011509
 10
263.9845711285
 20
163.60178552
 10
263.5812575094
 20
163.2085721046
 10
263.1578367836
 20
162.8449278125
 10
262.7149082556
 20
162.5113673415
 10
262.2530988412
 20
162.208362809
 10
261.7730621801
 20
161.9363430842
 10
261.2754777105
 20
161.6956931806
 10
260.7610497075
 20
161.4867537111
 10
260.2305062864
 20
161.3098204063
 10
259.6845983722
 20
161.1651436955
 10
259.1240986364
 20
161.0529283522
 10
258.5498004038
 20
160.9733332049
 10
257.9625165292
 20
160.9264709116
 10
257.3630782473
 20
160.9124078005
 10
256.752333996
 20
160.9311637765
 10
256.1311482155
 20
160.9827122925
 10
255.5004001248
 20
161.0669803874
 10
254.8609824772
 20
161.1838487892
 10
254.2138002969
 20
161.3331520836
 10
253.559769598
 20
161.5146789486
 10
252.8998160878
 20
161.7281724532
 10
252.2348738566
 20
161.9733304212
 10
251.5658840558
 20
162.2498058589
 10
250.8937935658
 20
162.5572074463
 10
250.2195536553
 20
162.8951000907
 10
249.5441186357
 20
163.263005543
 10
249.3722660703
 20
163.3612967352
  0
LWPOLYLINE
  5
EF
330
1F
100
AcDbEntity
  8
0
  6
Continuous
 62
     7
370
    18
100
AcDbPolyline
 90
       64
 70
   128
 43
0.0
 10
273.5688922847
 20
177.3297117227
 10
273.5561817363
 20
178.1171893624
 10
273.5180680817
 20
178.9182277024
 10
273.4546052664
 20
179.7316929623
 10
273.3658831149
 20
180.5564337731
 10
273.2520272036
 20
181.3912828064
 10
273.1131986826
 20
182.2350584268
 10
272.9495940484
 20
183.0865663641
 10
272.7614448649
 20
183.9446014042
 10
272.5490174362
 20
184.8079490944
 10
272.3126124298
 20
185.6753874626
 10
272.0525644503
 20
186.5456887467
 10
271.7692415666
 20
187.4176211327
 10
271.4630447906
 20
188.2899504976
 10
271.1344075096
 20
189.161442157
 10
270.7837948729
 20
190.0308626117
 10
270.4117031335
 20
190.8969812944
 10
270.0186589457
 20
191.7585723108
 10
269.6052186194
 20
192.6144161753
 10
269.1719673334
 20
193.4633015366
 10
268.7195183063
 20
194.3040268924
 10
268.2485119291
 20
195.1354022899
 10
267.7596148586
 20
195.9562510103
 10
267.2535190742
 20
196.7654112339
 10
266.7309408976
 20
197.561737685
 10
266.1926199799
 20
198.3441032524
 10
265.6393182541
 20
199.1114005854
 10
265.071818857
 20
199.8625436601
 10
264.4909250205
 20
200.5964693178
 10
263.8974589349
 20
201.3121387685
 10
263.292260585
 20
202.0085390623
 10
262.6761865615
 20
202.6846845225
 10
262.0501088482
 20
203.3396181407
 10
261.4149135881
 20
203.9724129316
 10
260.771499829
 20
204.5821732449
 10
260.1207782513
 20
205.1680360332
 10
259.4636698785
 20
205.7291720732
 10
258.8011047741
 20
206.2647871395
 10
258.1340207248
 20
206.7741231289
 10
257.4633619136
 20
207.2564591333
 10
256.790077583
 20
207.7111124601
 10
256.1151206916
 20
208.1374395981
 10
255.4394465655
 20
208.5348371292
 10
254.7640115459
 20
208.9027425815
 10
254.0897716354
 20
209.2406352259
 10
253.4176811454
 20
209.5480368132
 10
252.7486913446
 20
209.824512251
 10
252.0837491134
 20
210.0696702189
 10
251.4237956032
 20
210.2831637235
 10
250.7697649043
 20
210.4646905885
 10
250.122582724
 20
210.613993883
 10
249.4831650764
 20
210.7308622848
 10
248.8524169857
 20
210.8151303797
 10
248.2312312051
 20
210.8666788957
 10
247.6204869538
 20
210.8854348717
 10
247.021048672
 20
210.8713717606
 10
246.4337647974
 20
210.8245094673
 10
245.8594665647
 20
210.74491432
 10
245.298966829
 20
210.6326989767
 10
244.7530589147
 20
210.4880222659
 10
244.2225154937
 20
210.311088961
 10
243.7080874907
 20
210.1021494916
 10
243.210503021
 20
209.8614995879
 10
242.909412138
 20
209.6957358473
  0
LWPOLYLINE
  5
F0
330
1F
100
AcDbEntity
  8
0
  6
Continuous
 62
     7
370
    18
100
AcDbPolyline
 90
       22
 70
   128
 43
0.0
 10
268.307347947
 20
165.7004536384
 10
268.7195183063
 20
165.954364571
 10
269.1719673334
 20
166.2727033994
 10
269.6052186194
 20
166.6213674733
 10
270.0186589457
 20
166.9998632978
 10
270.4117031335
 20
167.4076551543
 10
270.7837948729
 20
167.8441658591
 10
271.1344075096
 20
168.3087775801
 10
271.4630447906
 20
168.8008327114
 10
271.7692415666
 20
169.3196348039
 10
272.0525644503
 20
169.8644495512
 10
272.3126124298
 20
170.4345058291
 10
272.5490174362
 20
171.0289967866
 10
272.7614448649
 20
171.6470809883
 10
272.9495940484
 20
172.2878836051
 10
273.1131986826
 20
172.9504976524
 10
273.2520272036
 20
173.6339852743
 10
273.3658831149
 20
174.3373790705
 10
273.4546052664
 20
175.0596834657
 10
273.5180680817
 20
175.7998761187
 10
273.5561817363
 20
176.5569093697
 10
273.5688922847
 20
177.3297117227
  0
ARC
  5
F1
330
1F
100
AcDbEntity
  8
0
  6
Continuous
 62
     7
370
    18
100
AcDbCircle
 10
234.9505336279
 20
175.7725738495
 30
0.0
 40
38.65666137401634
100
AcDbArc
 50
2.5507982903
 51
57.443825177
  0
CIRCLE
  5
F2
330
1F
100
AcDbEntity
  8
0
  6
Continuous
 62
     7
370
    18
100
AcDbCircle
 10
55.5860892676
 20
117.3702246287
 30
0.0
 40
25.2033180582037
  0
CIRCLE
  5
F3
330
1F
100
AcDbEntity
  8
0
  6
Continuous
 62
     7
370
    18
100
AcDbCircle
 10
55.5860892676
 20
117.3702246287
 30
0.0
 40
25.4
  0
DIMENSION
  5
F4
330
1F
100
AcDbEntity
  8
0
  6
Continuous
 62
     7
370
    18
100
AcDbDimension
  2
_D
 10
39.9894442241
 20
97.322664593
 30
0.0
 11
93.4151532381
 21
152.1264789256
 31
0.0
 70
   163
  1
<>
 71
     1
 42
-1.0
  3
SLDDIMSTYLE0
100
AcDbDiametricDimension
 15
71.1827343111
 25
137.4177846645
 35
0.0
 40
0.0
  0
LINE
  5
105
330
1F
100
AcDbEntity
  8
0
  6
PHANTOM
 62
     7
370
    35
100
AcDbLine
 10
55.5860892676
 20
148.8662246287
 30
0.0
 11
55.5860892676
 21
85.8742246287
 31
0.0
  0
LINE
  5
106
330
1F
100
AcDbEntity
  8
0
  6
Continuous
 62
     7
370
    35
100
AcDbLine
 10
55.5860892676
 20
148.8662246287
 30
0.0
 11
46.6960892676
 21
148.8662246287
 31
0.0
  0
SOLID
  5
107
330
1F
100
AcDbEntity
  8
0
  6
Continuous
 62
     7
370
    35
100
AcDbTrace
 10
46.6960892676
 20
148.8662246287
 30
0.0
 11
50.5060892676
 21
148.2312246287
 31
0.0
 12
50.5060892676
 22
149.5012246287
 32
0.0
 13
50.5060892676
 23
149.5012246287
 33
0.0
  0
LINE
  5
108
330
1F
100
AcDbEntity
  8
0
  6
Continuous
 62
     7
370
    35
100
AcDbLine
 10
55.5860892676
 20
85.8742246287
 30
0.0
 11
46.6960892676
 21
85.8742246287
 31
0.0
  0
SOLID
  5
109
330
1F
100
AcDbEntity
  8
0
  6
Continuous
 62
     7
370
    35
100
AcDbTrace
 10
46.6960892676
 20
85.8742246287
 30
0.0
 11
50.5060892676
 21
85.2392246287
 31
0.0
 12
50.5060892676
 22
86.5092246287
 32
0.0
 13
50.5060892676
 23
86.5092246287
 33
0.0
  0
MTEXT
  5
10A
330
1F
100
AcDbEntity
  8
0
  6
Continuous
 62
     7
100
AcDbMText
 10
43.2904536464
 20
150.9673581521
 30
0.0
 40
2.6458333333
 41
0.0
 71
     1
 72
     1
  1
A
  7
SLDTEXTSTYLE0
 73
     1
 44
1.0
  0
MTEXT
  5
10B
330
1F
100
AcDbEntity
  8
0
  6
Continuous
 62
     7
100
AcDbMText
 10
43.2904536464
 20
87.9753581521
 30
0.0
 40
2.6458333333
 41
0.0
 71
     1
 72
     1
  1
A
  7
SLDTEXTSTYLE0
 73
     1
 44
1.0
  0
LINE
  5
10C
330
1F
100
AcDbEntity
  8
0
  6
Continuous
 62
     7
370
    18
100
AcDbLine
 10
144.3810184127
 20
92.1702246287
 30
0.0
 11
144.1810184127
 21
91.9702246287
 31
0.0
  0
LINE
  5
10D
330
1F
100
AcDbEntity
  8
0
  6
Continuous
 62
     7
370
    18
100
AcDbLine
 10
135.365949671
 20
91.9702246287
 30
0.0
 11
144.1810184127
 21
91.9702246287
 31
0.0
  0
LINE
  5
10E
330
1F
100
AcDbEntity
  8
0
  6
Continuous
 62
     7
370
    18
100
AcDbLine
 10
135.365949671
 20
91.9702246287
 30
0.0
 11
135.1692677292
 21
92.1669065705
 31
0.0
  0
ARC
  5
10F
330
1F
100
AcDbEntity
  8
0
  6
Continuous
 62
     7
370
    18
100
AcDbCircle
 10
-1364.619050411
 20
117.3702246287
 30
0.0
 40
1500.000068823651
100
AcDbArc
 50
359.037258905
 51
0.962741095
  0
LINE
  5
110
330
1F
100
AcDbEntity
  8
0
  6
Continuous
 62
     7
370
    18
100
AcDbLine
 10
135.1692677292
 20
142.5735426869
 30
0.0
 11
135.365949671
 21
142.7702246287
 31
0.0
  0
LINE
  5
111
330
1F
100
AcDbEntity
  8
0
  6
Continuous
 62
     7
370
    18
100
AcDbLine
 10
144.1810184127
 20
142.7702246287
 30
0.0
 11
135.365949671
 21
142.7702246287
 31
0.0
  0
LINE
  5
112
330
1F
100
AcDbEntity
  8
0
  6
Continuous
 62
     7
370
    18
100
AcDbLine
 10
144.1810184127
 20
142.7702246287
 30
0.0
 11
144.3810184127
 21
142.5702246287
 31
0.0
  0
LINE
  5
113
330
1F
100
AcDbEntity
  8
0
  6
Continuous
 62
     7
370
    18
100
AcDbLine
 10
144.3810184127
 20
115.7691947992
 30
0.0
 11
144.3810184127
 21
116.0093492736
 31
0.0
  0
LINE
  5
114
330
1F
100
AcDbEntity
  8
0
  6
Continuous
 62
     7
370
    18
100
AcDbLine
 10
144.3810184127
 20
116.0093492736
 30
0.0
 11
144.3810184127
 21
118.3702246287
 31
0.0
  0
LINE
  5
115
330
1F
100
AcDbEntity
  8
0
  6
Continuous
 62
     7
370
    18
100
AcDbLine
 10
144.3810184127
 20
118.4726979065
 30
0.0
 11
144.3810184127
 21
142.5702246287
 31
0.0
  0
LINE
  5
116
330
1F
100
AcDbEntity
  8
0
  6
Continuous
 62
     7
370
    18
100
AcDbLine
 10
144.3810184127
 20
92.1702246287
 30
0.0
 11
144.3810184127
 21
115.7691947992
 31
0.0
  0
LINE
  5
117
330
1F
100
AcDbEntity
  8
0
  6
Continuous
 62
     7
370
    18
100
AcDbLine
 10
144.3810184127
 20
118.3702246287
 30
0.0
 11
144.3810184127
 21
118.4726979065
 31
0.0
  0
HATCH
  5
118
330
1F
100
AcDbEntity
  8
0
  6
Continuous
 62
     7
370
    18
100
AcDbHatch
 10
0.0
 20
0.0
 30
0.0
210
0.0
220
0.0
230
1.0
  2
ANSI31
 70
     0
 71
     0
 91
        1
 92
        0
 93
       12
 72
     1
 10
144.3810184126959
 20
92.17022462872461
 11
144.3810184126959
 21
115.7691947991792
 72
     1
 10
144.3810184126959
 20
115.7691947991792
 11
144.3810184126959
 21
116.009349273611
 72
     1
 10
144.3810184126959
 20
116.009349273611
 11
144.3810184126959
 21
118.3702246287246
 72
     1
 10
144.3810184126959
 20
118.3702246287246
 11
144.3810184126959
 21
118.472697906538
 72
     1
 10
144.3810184126959
 20
118.472697906538
 11
144.3810184126959
 21
142.5702246287246
 72
     1
 10
144.3810184126959
 20
142.5702246287246
 11
144.1810184126959
 21
142.7702246287246
 72
     1
 10
144.1810184126959
 20
142.7702246287246
 11
135.3659496710426
 21
142.7702246287246
 72
     1
 10
135.3659496710426
 20
142.7702246287246
 11
135.1692677292463
 21
142.573542686928
 72
     2
 10
-1364.619050410955
 20
117.3702246287246
 40
1500.000068823651
 50
359.0372589049768
 51
360.9627410950252
 73
     0
 72
     1
 10
135.1692677292463
 20
92.16690657051332
 11
135.3659496710425
 21
91.97022462872462
 72
     1
 10
135.3659496710425
 20
91.97022462872462
 11
144.1810184126959
 21
91.97022462872462
 72
     1
 10
144.1810184126959
 20
91.97022462872462
 11
144.3810184126959
 21
92.17022462872461
 97
        0
 75
     0
 76
     1
 52
0.0
 41
1.0
 77
     0
 78
     1
 53
45.0
 43
0.0
 44
0.0
 45
-2.245064030267288
 46
2.245064030267288
 79
     0
 98
        1
 10
0.0
 20
0.0
  0
DIMENSION
  5
119
330
1F
100
AcDbEntity
  8
0
  6
Continuous
 62
     7
370
    18
100
AcDbDimension
  2
_D_1
 10
144.3851990496
 20
154.1767073798
 30
0.0
 11
163.7355027236
 21
154.1697374306
 31
0.0
 70
   160
  1
<> REF
 71
     2
 42
-1.0
  3
SLDDIMSTYLE1
100
AcDbAlignedDimension
 13
135.1692677292
 23
142.5735426869
 33
0.0
 14
144.3810184127
 24
142.5702246287
 34
0.0
 50
-0.0206378494
100
AcDbRotatedDimension
  0
DIMENSION
  5
12D
330
1F
100
AcDbEntity
  8
0
  6
Continuous
 62
     7
370
    18
100
AcDbDimension
  2
_D_2
 10
-1364.619050411
 20
117.3702246287
 30
0.0
 11
165.1141686847
 21
82.6293700636
 31
0.0
 70
   164
  1
<>
 71
     1
 42
-1.0
  3
SLDDIMSTYLE2
100
AcDbRadialDimension
 15
134.9884105466
 25
83.0530348915
 35
0.0
 40
0.0
  0
DIMENSION
  5
13E
330
1F
100
AcDbEntity
  8
0
  6
Continuous
 62
     7
370
    18
100
AcDbDimension
  2
_D_3
 10
135.3810184127
 20
146.7727911044
 30
0.0
 11
160.3810184127
 21
146.7727911044
 31
0.0
 70
   160
  1
<>
 71
     2
 42
-1.0
  3
SLDDIMSTYLE3
100
AcDbAlignedDimension
 13
144.3810184127
 23
142.5702246287
 33
0.0
 14
135.3810184127
 24
117.3702246287
 34
0.0
100
AcDbRotatedDimension
  0
MTEXT
  5
153
330
1F
100
AcDbEntity
  8
0
  6
Continuous
 62
     7
370
     0
100
AcDbMText
 10
139.5940990209
 20
74.3854181143
 30
0.0
 40
2.1166666667
 41
0.0
 71
     2
 72
     1
  1
SECTION A-A
  7
SLDTEXTSTYLE0
 73
     1
 44
1.0
  0
MTEXT
  5
154
330
1F
100
AcDbEntity
  8
0
  6
Continuous
 62
     7
370
     0
100
AcDbMText
 10
115.7628398372
 20
97.9434566565
 30
0.0
 40
2.1166666667
 41
0.0
 71
     1
 72
     1
  1
S1
  7
SLDTEXTSTYLE0
 73
     1
 44
1.0
  0
LEADER
  5
156
330
1F
100
AcDbEntity
  8
0
  6
Continuous
 62
     7
370
     0
100
AcDbLeader
  3
SLDDIMSTYLE4
 76
     3
 10
135.3694622039
 20
111.4822288401
 30
0.0
 10
125.5195658763
 20
97.5352434808
 30
0.0
 10
119.1695658763
 20
97.5352434808
 30
0.0
  0
MTEXT
  5
157
330
1F
100
AcDbEntity
  8
0
  6
Continuous
 62
     7
370
     0
100
AcDbMText
 10
160.1408438757
 20
130.0892737305
 30
0.0
 40
2.1166666667
 41
0.0
 71
     1
 72
     1
  1
S2
  7
SLDTEXTSTYLE0
 73
     1
 44
1.0
  0
LEADER
  5
158
330
1F
100
AcDbEntity
  8
0
  6
Continuous
 62
     7
370
     0
100
AcDbLeader
  3
SLDDIMSTYLE4
 76
     3
 10
144.3810184127
 20
116.0093492736
 30
0.0
 10
153.2241656366
 20
129.5500766082
 30
0.0
 10
159.5741656366
 20
129.5500766082
 30
0.0
  0
SPLINE
  5
159
330
1F
100
AcDbEntity
  8
0
  6
Continuous
 62
     7
370
    18
100
AcDbSpline
210
0.0
220
0.0
230
1.0
 70
     8
 71
     3
 72
    13
 73
     9
 74
     0
 42
0.000000001
 43
0.00000001
 40
0.0
 40
0.0
 40
0.0
 40
0.0
 40
0.1943389941804437
 40
0.3816850483972321
 40
0.5594858099432992
 40
0.6963399801806484
 40
0.8391066529687222
 40
1.0
 40
1.0
 40
1.0
 40
1.0
 10
223.3389159985552
 20
119.4895820650073
 30
0.0
 10
223.3360909061634
 20
119.5512144873188
 30
0.0
 10
223.3305423772598
 20
119.6722615998245
 30
0.0
 10
223.2815466691258
 20
119.8442801543638
 30
0.0
 10
223.2015352836449
 20
119.9844021769016
 30
0.0
 10
223.0933017631259
 20
120.0833619044512
 30
0.0
 10
222.9642625047497
 20
120.1441324249262
 30
0.0
 10
222.8676106019219
 20
120.1507316308695
 30
0.0
 10
222.8163998822752
 20
120.1542282002651
 30
0.0
  0
SPLINE
  5
15A
330
1F
100
AcDbEntity
  8
0
  6
Continuous
 62
     7
370
    18
100
AcDbSpline
210
0.0
220
0.0
230
1.0
 70
     8
 71
     3
 72
    12
 73
     8
 74
     0
 42
0.000000001
 43
0.00000001
 40
0.0
 40
0.0
 40
0.0
 40
0.0
 40
0.2008908381631402
 40
0.3780365369998079
 40
0.5535498386387537
 40
0.7713747335183481
 40
1.0
 40
1.0
 40
1.0
 40
1.0
 10
222.8163998822752
 20
118.8249178677316
 30
0.0
 10
222.8805380537844
 20
118.8304400710395
 30
0.0
 10
223.0012333152933
 20
118.8408317575604
 30
0.0
 10
223.1539278033207
 20
118.9390921402132
 30
0.0
 10
223.2619097245208
 20
119.0866101185593
 30
0.0
 10
223.3275184770469
 20
119.2757339692874
 30
0.0
 10
223.3350560426383
 20
119.417158931452
 30
0.0
 10
223.3389159985552
 20
119.4895820650073
 30
0.0
  0
SPLINE
  5
15B
330
1F
100
AcDbEntity
  8
0
  6
Continuous
 62
     7
370
    18
100
AcDbSpline
210
0.0
220
0.0
230
1.0
 70
     8
 71
     3
 72
    13
 73
     9
 74
     0
 42
0.000000001
 43
0.00000001
 40
0.0
 40
0.0
 40
0.0
 40
0.0
 40
0.1943256494037771
 40
0.3816748644005027
 40
0.5594881704966025
 40
0.696351121154694
 40
0.8391184169589755
 40
1.0
 40
1.0
 40
1.0
 40
1.0
 10
222.2938657039772
 20
119.4895820650073
 30
0.0
 10
222.2966921582195
 20
119.4279533960219
 30
0.0
 10
222.3022435949082
 20
119.3069085728072
 30
0.0
 10
222.3512521238877
 20
119.1348911649298
 30
0.0
 10
222.4312720374522
 20
118.9947646927308
 30
0.0
 10
222.5395078525064
 20
118.8957967191792
 30
0.0
 10
222.668543288146
 20
118.8350166262167
 30
0.0
 10
222.7651924698916
 20
118.8284153870229
 30
0.0
 10
222.8163998822752
 20
118.8249178677316
 30
0.0
  0
SPLINE
  5
15C
330
1F
100
AcDbEntity
  8
0
  6
Continuous
 62
     7
370
    18
100
AcDbSpline
210
0.0
220
0.0
230
1.0
 70
     8
 71
     3
 72
    12
 73
     8
 74
     0
 42
0.000000001
 43
0.00000001
 40
0.0
 40
0.0
 40
0.0
 40
0.0
 40
0.2008792258750624
 40
0.3780217100331184
 40
0.5535332757399333
 40
0.7713595773327308
 40
1.0
 40
1.0
 40
1.0
 40
1.0
 10
222.8163998822752
 20
120.1542282002651
 30
0.0
 10
222.752266089722
 20
120.1487065367682
 30
0.0
 10
222.6315768256815
 20
120.1383156729631
 30
0.0
 10
222.4788832919636
 20
120.0400685953382
 30
0.0
 10
222.3708897219021
 20
119.8925623251991
 30
0.0
 10
222.3052662459051
 20
119.7034389572982
 30
0.0
 10
222.2977267573476
 20
119.5620095759087
 30
0.0
 10
222.2938657039772
 20
119.4895820650073
 30
0.0
  0
SPLINE
  5
15D
330
1F
100
AcDbEntity
  8
0
  6
Continuous
 62
     7
370
    18
100
AcDbSpline
210
0.0
220
0.0
230
1.0
 70
     8
 71
     3
 72
    19
 73
    15
 74
     0
 42
0.000000001
 43
0.00000001
 40
0.0
 40
0.0
 40
0.0
 40
0.0
 40
0.091587339706645
 40
0.1741182870805897
 40
0.2526289966153883
 40
0.3313197891920874
 40
0.4131632671988424
 40
0.499997221598198
 40
0.5868350001903228
 40
0.6686802724867933
 40
0.7473714879383923
 40
0.8258819896397939
 40
0.9084127008286221
 40
1.0
 40
1.0
 40
1.0
 40
1.0
 10
222.8200050464215
 20
118.2890449118487
 30
0.0
 10
222.9306426211133
 20
118.2964896244001
 30
0.0
 10
223.1409776418026
 20
118.3106428971277
 30
0.0
 10
223.4253052167717
 20
118.4339622939207
 30
0.0
 10
223.6494765033612
 20
118.6212279732904
 30
0.0
 10
223.8101557921619
 20
118.8643713987503
 30
0.0
 10
223.9062578722799
 20
119.1491287629411
 30
0.0
 10
223.936245500152
 20
119.4573813765758
 30
0.0
 10
223.9051078593121
 20
119.7655220742829
 30
0.0
 10
223.8079442456676
 20
120.0499266481818
 30
0.0
 10
223.6463580546795
 20
120.2924715485318
 30
0.0
 10
223.4214884952527
 20
120.478898456918
 30
0.0
 10
223.1367021319518
 20
120.6011529392758
 30
0.0
 10
222.9263161096312
 20
120.6145204014986
 30
0.0
 10
222.8156515808562
 20
120.6215517807294
 30
0.0
  0
SPLINE
  5
15E
330
1F
100
AcDbEntity
  8
0
  6
Continuous
 62
     7
370
    18
100
AcDbSpline
210
0.0
220
0.0
230
1.0
 70
     8
 71
     3
 72
    14
 73
    10
 74
     0
 42
0.000000001
 43
0.00000001
 40
0.0
 40
0.0
 40
0.0
 40
0.0
 40
0.1466868109097157
 40
0.2859932799578311
 40
0.4198155341096284
 40
0.5510853201411023
 40
0.6904104027401193
 40
0.8377115977293307
 40
0.9999999999999999
 40
0.9999999999999999
 40
0.9999999999999999
 40
0.9999999999999999
 10
221.7141529509028
 20
119.4614353475884
 30
0.0
 10
221.718035267782
 20
119.3727608533581
 30
0.0
 10
221.7256045681931
 20
119.1998733981313
 30
0.0
 10
221.7954237717475
 20
118.9539343986204
 30
0.0
 10
221.9077221508202
 20
118.7354310885541
 30
0.0
 10
222.0679647012332
 20
118.5479908002748
 30
0.0
 10
222.2769583585691
 20
118.40252476973
 30
0.0
 10
222.534438815785
 20
118.3061574118122
 30
0.0
 10
222.7217930353539
 20
118.2949302472123
 30
0.0
 10
222.8200050464215
 20
118.2890449118487
 30
0.0
  0
SPLINE
  5
15F
330
1F
100
AcDbEntity
  8
0
  6
Continuous
 62
     7
370
    18
100
AcDbSpline
210
0.0
220
0.0
230
1.0
 70
     8
 71
     3
 72
    14
 73
    10
 74
     0
 42
0.000000001
 43
0.00000001
 40
0.0
 40
0.0
 40
0.0
 40
0.0
 40
0.1553989656922844
 40
0.296877112207096
 40
0.4305153137104987
 40
0.5617675040118874
 40
0.7014063449726656
 40
0.8467289956139453
 40
0.9999999999999999
 40
0.9999999999999999
 40
0.9999999999999999
 40
0.9999999999999999
 10
222.8156515808562
 20
120.6215517807294
 30
0.0
 10
222.7224104402215
 20
120.6161968285062
 30
0.0
 10
222.5442808082308
 20
120.6059666268768
 30
0.0
 10
222.2981014055567
 20
120.5189641984339
 30
0.0
 10
222.0923330275267
 20
120.3853599597564
 30
0.0
 10
221.9263893401962
 20
120.2055457449429
 30
0.0
 10
221.8050183025678
 20
119.9858268781637
 30
0.0
 10
221.7279458611361
 20
119.7323456915316
 30
0.0
 10
221.718831460631
 20
119.5533272440882
 30
0.0
 10
221.7141529509028
 20
119.4614353475884
 30
0.0
  0
LINE
  5
160
330
1F
100
AcDbEntity
  8
0
  6
Continuous
 62
     7
370
    18
100
AcDbLine
 10
218.5765539855
 20
120.1049369534
 30
0.0
 11
218.5765539855
 21
118.3702246287
 31
0.0
  0
LINE
  5
161
330
1F
100
AcDbEntity
  8
0
  6
Continuous
 62
     7
370
    18
100
AcDbLine
 10
217.9060596917
 20
120.1049369534
 30
0.0
 11
218.5765539855
 21
120.1049369534
 31
0.0
  0
LINE
  5
162
330
1F
100
AcDbEntity
  8
0
  6
Continuous
 62
     7
370
    18
100
AcDbLine
 10
217.9060596917
 20
120.6065733769
 30
0.0
 11
217.9060596917
 21
120.1049369534
 31
0.0
  0
LINE
  5
163
330
1F
100
AcDbEntity
  8
0
  6
Continuous
 62
     7
370
    18
100
AcDbLine
 10
220.3548719567
 20
120.6065733769
 30
0.0
 11
217.9060596917
 21
120.6065733769
 31
0.0
  0
LINE
  5
164
330
1F
100
AcDbEntity
  8
0
  6
Continuous
 62
     7
370
    18
100
AcDbLine
 10
220.3548719567
 20
119.7913983844
 30
0.0
 11
220.3548719567
 21
120.6065733769
 31
0.0
  0
LINE
  5
165
330
1F
100
AcDbEntity
  8
0
  6
Continuous
 62
     7
370
    18
100
AcDbLine
 10
221.1261381837
 20
119.7913983844
 30
0.0
 11
220.3548719567
 21
119.7913983844
 31
0.0
  0
LINE
  5
166
330
1F
100
AcDbEntity
  8
0
  6
Continuous
 62
     7
370
    18
100
AcDbLine
 10
221.1261381837
 20
120.6065733769
 30
0.0
 11
221.1261381837
 21
119.7913983844
 31
0.0
  0
LINE
  5
167
330
1F
100
AcDbEntity
  8
0
  6
Continuous
 62
     7
370
    18
100
AcDbLine
 10
221.7116506832
 20
120.6065733769
 30
0.0
 11
221.1261381837
 21
120.6065733769
 31
0.0
  0
LINE
  5
168
330
1F
100
AcDbEntity
  8
0
  6
Continuous
 62
     7
370
    18
100
AcDbLine
 10
221.7116506832
 20
118.3702246287
 30
0.0
 11
221.7116506832
 21
120.6065733769
 31
0.0
  0
LINE
  5
169
330
1F
100
AcDbEntity
  8
0
  6
Continuous
 62
     7
370
    18
100
AcDbLine
 10
221.1261342484
 20
118.3702246287
 30
0.0
 11
221.7116506832
 21
118.3702246287
 31
0.0
  0
LINE
  5
16A
330
1F
100
AcDbEntity
  8
0
  6
Continuous
 62
     7
370
    18
100
AcDbLine
 10
221.1261342484
 20
119.2920377751
 30
0.0
 11
221.1261342484
 21
118.3702246287
 31
0.0
  0
LINE
  5
16B
330
1F
100
AcDbEntity
  8
0
  6
Continuous
 62
     7
370
    18
100
AcDbLine
 10
220.3548680214
 20
119.2920377751
 30
0.0
 11
221.1261342484
 21
119.2920377751
 31
0.0
  0
LINE
  5
16C
330
1F
100
AcDbEntity
  8
0
  6
Continuous
 62
     7
370
    18
100
AcDbLine
 10
220.3548680214
 20
118.3702246287
 30
0.0
 11
220.3548680214
 21
119.2920377751
 31
0.0
  0
LINE
  5
16D
330
1F
100
AcDbEntity
  8
0
  6
Continuous
 62
     7
370
    18
100
AcDbLine
 10
219.7694238347
 20
118.3702246287
 30
0.0
 11
220.3548680214
 21
118.3702246287
 31
0.0
  0
LINE
  5
16E
330
1F
100
AcDbEntity
  8
0
  6
Continuous
 62
     7
370
    18
100
AcDbLine
 10
219.7694238347
 20
120.1071405196
 30
0.0
 11
219.7694238347
 21
118.3702246287
 31
0.0
  0
LINE
  5
16F
330
1F
100
AcDbEntity
  8
0
  6
Continuous
 62
     7
370
    18
100
AcDbLine
 10
219.1620523583
 20
120.1071405196
 30
0.0
 11
219.7694238347
 21
120.1071405196
 31
0.0
  0
LINE
  5
170
330
1F
100
AcDbEntity
  8
0
  6
Continuous
 62
     7
370
    18
100
AcDbLine
 10
219.1620523583
 20
118.3702246287
 30
0.0
 11
219.1620523583
 21
120.1071405196
 31
0.0
  0
LINE
  5
171
330
1F
100
AcDbEntity
  8
0
  6
Continuous
 62
     7
370
    18
100
AcDbLine
 10
218.5765539855
 20
118.3702246287
 30
0.0
 11
219.1620523583
 21
118.3702246287
 31
0.0
  0
SPLINE
  5
172
330
1F
100
AcDbEntity
  8
0
  6
Continuous
 62
     7
370
    18
100
AcDbSpline
210
0.0
220
0.0
230
1.0
 70
     8
 71
     3
 72
    12
 73
     8
 74
     0
 42
0.000000001
 43
0.00000001
 40
0.0
 40
0.0
 40
0.0
 40
0.0
 40
0.1970292569794111
 40
0.3714318737747132
 40
0.5434083414909591
 40
0.7603083066182451
 40
1.0
 40
1.0
 40
1.0
 40
1.0
 10
225.2743154042641
 20
119.900276228372
 30
0.0
 10
225.2721056915463
 20
119.9287143905349
 30
0.0
 10
225.2679400272797
 20
119.9823249051397
 30
0.0
 10
225.2279025336268
 20
120.0520574391932
 30
0.0
 10
225.1644410160458
 20
120.1038492125294
 30
0.0
 10
225.0784434482381
 20
120.1363115046686
 30
0.0
 10
225.012878454578
 20
120.1398523990709
 30
0.0
 10
224.9784595508068
 20
120.1417112218496
 30
0.0
  0
SPLINE
  5
173
330
1F
100
AcDbEntity
  8
0
  6
Continuous
 62
     7
370
    18
100
AcDbSpline
210
0.0
220
0.0
230
1.0
 70
     8
 71
     3
 72
    12
 73
     8
 74
     0
 42
0.000000001
 43
0.00000001
 40
0.0
 40
0.0
 40
0.0
 40
0.0
 40
0.2111291888127978
 40
0.3927062339152221
 40
0.559912974757415
 40
0.7634359056262734
 40
1.0
 40
1.0
 40
1.0
 40
1.0
 10
225.0036380037811
 20
119.6369861932164
 30
0.0
 10
225.033935958648
 20
119.6385248146323
 30
0.0
 10
225.0902910075071
 20
119.6413866937739
 30
0.0
 10
225.166615977317
 20
119.6705657173953
 30
0.0
 10
225.2279400755884
 20
119.7227261261882
 30
0.0
 10
225.2683876003786
 20
119.8029259251647
 30
0.0
 10
225.2722429839027
 20
119.8662415749921
 30
0.0
 10
225.2743154042641
 20
119.900276228372
 30
0.0
  0
LINE
  5
174
330
1F
100
AcDbEntity
  8
0
  6
Continuous
 62
     7
370
    18
100
AcDbLine
 10
224.5125678607
 20
119.6369861932
 30
0.0
 11
225.0036380038
 21
119.6369861932
 31
0.0
  0
LINE
  5
175
330
1F
100
AcDbEntity
  8
0
  6
Continuous
 62
     7
370
    18
100
AcDbLine
 10
224.5125678607
 20
120.1417112218
 30
0.0
 11
224.5125678607
 21
119.6369861932
 31
0.0
  0
LINE
  5
176
330
1F
100
AcDbEntity
  8
0
  6
Continuous
 62
     7
370
    18
100
AcDbLine
 10
224.9784595508
 20
120.1417112218
 30
0.0
 11
224.5125678607
 21
120.1417112218
 31
0.0
  0
SPLINE
  5
177
330
1F
100
AcDbEntity
  8
0
  6
Continuous
 62
     7
370
    18
100
AcDbSpline
210
0.0
220
0.0
230
1.0
 70
     8
 71
     3
 72
    14
 73
    10
 74
     0
 42
0.000000001
 43
0.00000001
 40
0.0
 40
0.0
 40
0.0
 40
0.0
 40
0.2575826845002104
 40
0.4580339644254275
 40
0.6128287983994991
 40
0.7093883131761901
 40
0.7998028883084931
 40
0.894133880561337
 40
1.0
 40
1.0
 40
1.0
 40
1.0
 10
231.894424272703
 20
118.9642482739324
 30
0.0
 10
231.9225015478862
 20
118.9571342103176
 30
0.0
 10
231.9724286060165
 20
118.9444839703878
 30
0.0
 10
232.0411152954227
 20
118.9368876536937
 30
0.0
 10
232.0923194167311
 20
118.9415805346084
 30
0.0
 10
232.1282470669768
 20
118.9566895601109
 30
0.0
 10
232.1523391970231
 20
118.9779304953255
 30
0.0
 10
232.1696482165838
 20
119.006174240795
 30
0.0
 10
232.1759840793564
 20
119.0278274665184
 30
0.0
 10
232.1793345433035
 20
119.0392778963538
 30
0.0
  0
SPLINE
  5
178
330
1F
100
AcDbEntity
  8
0
  6
Continuous
 62
     7
370
    18
100
AcDbSpline
210
0.0
220
0.0
230
1.0
 70
     8
 71
     3
 72
    12
 73
     8
 74
     0
 42
0.000000001
 43
0.00000001
 40
0.0
 40
0.0
 40
0.0
 40
0.0
 40
0.2545415383352772
 40
0.493353884876836
 40
0.629981892889335
 40
0.793357868069172
 40
0.9999999999999999
 40
0.9999999999999999
 40
0.9999999999999999
 40
0.9999999999999999
 10
231.6948028507
 20
119.2478942032788
 30
0.0
 10
231.6946481558972
 20
119.2152317541295
 30
0.0
 10
231.6943483255338
 20
119.1519252058829
 30
0.0
 10
231.7193421488516
 20
119.0717193611323
 30
0.0
 10
231.767399585688
 20
119.0204937893473
 30
0.0
 10
231.8235953606366
 20
118.9863696075963
 30
0.0
 10
231.8690432313188
 20
118.9721752979233
 30
0.0
 10
231.894424272703
 20
118.9642482739324
 30
0.0
  0
SPLINE
  5
179
330
1F
100
AcDbEntity
  8
0
  6
Continuous
 62
     7
370
    18
100
AcDbSpline
210
0.0
220
0.0
230
1.0
 70
     8
 71
     3
 72
    14
 73
    10
 74
     0
 42
0.000000001
 43
0.00000001
 40
0.0
 40
0.0
 40
0.0
 40
0.0
 40
0.0123761948722826
 40
0.0260544786030459
 40
0.0423069896658994
 40
0.1107691877094688
 40
0.3353734156282128
 40
0.6465637489690592
 40
1.0
 40
1.0
 40
1.0
 40
1.0
 10
232.1793345433035
 20
119.0392778963538
 30
0.0
 10
232.1796007827728
 20
119.0415145163371
 30
0.0
 10
232.1801612725378
 20
119.0462230691759
 30
0.0
 10
232.177319884836
 20
119.0535289123276
 30
0.0
 10
232.1671965140246
 20
119.0680637529047
 30
0.0
 10
232.120825486069
 20
119.1008409089251
 30
0.0
 10
232.0211124842117
 20
119.1433532798912
 30
0.0
 10
231.8701717891973
 20
119.1961754681202
 30
0.0
 10
231.7556848886395
 20
119.2299392448746
 30
0.0
 10
231.6948028507
 20
119.2478942032788
 30
0.0
  0
LINE
  5
17A
330
1F
100
AcDbEntity
  8
0
  6
Continuous
 62
     7
370
    18
100
AcDbLine
 10
231.1712933234
 20
119.2519039713
 30
0.0
 11
231.681003469
 21
119.2519039713
 31
0.0
  0
SPLINE
  5
17B
330
1F
100
AcDbEntity
  8
0
  6
Continuous
 62
     7
370
    18
100
AcDbSpline
210
0.0
220
0.0
230
1.0
 70
     8
 71
     3
 72
    11
 73
     7
 74
     0
 42
0.000000001
 43
0.00000001
 40
0.0
 40
0.0
 40
0.0
 40
0.0
 40
0.2403133392799498
 40
0.527655428105221
 40
0.7630136347472125
 40
1.0
 40
1.0
 40
1.0
 40
1.0
 10
230.9555605814508
 20
119.5928968074845
 30
0.0
 10
230.9822564291981
 20
119.5725889725247
 30
0.0
 10
231.0408724386711
 20
119.5279991075521
 30
0.0
 10
231.1085537586513
 20
119.4452397458867
 30
0.0
 10
231.160305405779
 20
119.3509369251559
 30
0.0
 10
231.1676222771986
 20
119.2849907274596
 30
0.0
 10
231.1712933234346
 20
119.2519039712561
 30
0.0
  0
SPLINE
  5
17C
330
1F
100
AcDbEntity
  8
0
  6
Continuous
 62
     7
370
    18
100
AcDbSpline
210
0.0
220
0.0
230
1.0
 70
     8
 71
     3
 72
    10
 73
     6
 74
     0
 42
0.000000001
 43
0.00000001
 40
0.0
 40
0.0
 40
0.0
 40
0.0
 40
0.3052209345869937
 40
0.5892711010915017
 40
0.9999999999999999
 40
0.9999999999999999
 40
0.9999999999999999
 40
0.9999999999999999
 10
231.0808748617492
 20
119.7738421029628
 30
0.0
 10
231.0733738720676
 20
119.7522963914877
 30
0.0
 10
231.0588921771769
 20
119.71069942455
 30
0.0
 10
231.011966900689
 20
119.6521800978163
 30
0.0
 10
230.9765171969976
 20
119.6149223028653
 30
0.0
 10
230.9555605814508
 20
119.5928968074845
 30
0.0
  0
SPLINE
  5
17D
330
1F
100
AcDbEntity
  8
0
  6
Continuous
 62
     7
370
    18
100
AcDbSpline
210
0.0
220
0.0
230
1.0
 70
     8
 71
     3
 72
    11
 73
     7
 74
     0
 42
0.000000001
 43
0.00000001
 40
0.0
 40
0.0
 40
0.0
 40
0.0
 40
0.3113820865694061
 40
0.5952152429024645
 40
0.7995709864930258
 40
1.0
 40
1.0
 40
1.0
 40
1.0
 10
231.5819152387275
 20
119.2797556028819
 30
0.0
 10
231.5076113639992
 20
119.3050631549978
 30
0.0
 10
231.3655775067137
 20
119.3534392223106
 30
0.0
 10
231.203550653134
 20
119.4765127733564
 30
0.0
 10
231.0996633563069
 20
119.6210648218647
 30
0.0
 10
231.0870970589502
 20
119.7232467576088
 30
0.0
 10
231.0808748617492
 20
119.7738421029628
 30
0.0
  0
SPLINE
  5
17E
330
1F
100
AcDbEntity
  8
0
  6
Continuous
 62
     7
370
    18
100
AcDbSpline
210
0.0
220
0.0
230
1.0
 70
     8
 71
     3
 72
     9
 73
     5
 74
     0
 42
0.000000001
 43
0.00000001
 40
0.0
 40
0.0
 40
0.0
 40
0.0
 40
0.5632377239369363
 40
1.0
 40
1.0
 40
1.0
 40
1.0
 10
231.6810034690125
 20
119.2519039712561
 30
0.0
 10
231.6624172533282
 20
119.2571942409132
 30
0.0
 10
231.629418370451
 20
119.2665868462594
 30
0.0
 10
231.5963557458854
 20
119.2757524241994
 30
0.0
 10
231.5819152387275
 20
119.2797556028819
 30
0.0
  0
SPLINE
  5
17F
330
1F
100
AcDbEntity
  8
0
  6
Continuous
 62
     7
370
    18
100
AcDbSpline
210
0.0
220
0.0
230
1.0
 70
     8
 71
     3
 72
    13
 73
     9
 74
     0
 42
0.000000001
 43
0.00000001
 40
0.0
 40
0.0
 40
0.0
 40
0.0
 40
0.2070940199890577
 40
0.3978649646626732
 40
0.5739369280037266
 40
0.7077750174858438
 40
0.8462504046616516
 40
1.0
 40
1.0
 40
1.0
 40
1.0
 10
230.3175378606006
 20
118.472636270306
 30
0.0
 10
230.3889768528898
 20
118.4751028258441
 30
0.0
 10
230.5262240420853
 20
118.4798415239102
 30
0.0
 10
230.7199800880369
 20
118.526270957086
 30
0.0
 10
230.8762639520686
 20
118.6047469733465
 30
0.0
 10
230.9894920257018
 20
118.7122782632764
 30
0.0
 10
231.06579629625
 20
118.8408506066776
 30
0.0
 10
231.0859731053838
 20
118.940098779092
 30
0.0
 10
231.0965888173358
 20
118.9923166497733
 30
0.0
  0
LINE
  5
180
330
1F
100
AcDbEntity
  8
0
  6
Continuous
 62
     7
370
    18
100
AcDbLine
 10
228.8390171981
 20
118.4726362703
 30
0.0
 11
230.3175378606
 21
118.4726362703
 31
0.0
  0
LINE
  5
181
330
1F
100
AcDbEntity
  8
0
  6
Continuous
 62
     7
370
    18
100
AcDbLine
 10
228.6884160927
 20
118.816067479
 30
0.0
 11
228.8390171981
 21
118.4726362703
 31
0.0
  0
LINE
  5
182
330
1F
100
AcDbEntity
  8
0
  6
Continuous
 62
     7
370
    18
100
AcDbLine
 10
228.0350045326
 20
118.816067479
 30
0.0
 11
228.6884160927
 21
118.816067479
 31
0.0
  0
LINE
  5
183
330
1F
100
AcDbEntity
  8
0
  6
Continuous
 62
     7
370
    18
100
AcDbLine
 10
227.8814412563
 20
118.4754178211
 30
0.0
 11
228.0350045326
 21
118.816067479
 31
0.0
  0
LINE
  5
184
330
1F
100
AcDbEntity
  8
0
  6
Continuous
 62
     7
370
    18
100
AcDbLine
 10
226.012022402
 20
118.4754178211
 30
0.0
 11
227.8814412563
 21
118.4754178211
 31
0.0
  0
LINE
  5
185
330
1F
100
AcDbEntity
  8
0
  6
Continuous
 62
     7
370
    18
100
AcDbLine
 10
226.012022402
 20
120.4956545249
 30
0.0
 11
226.012022402
 21
118.4754178211
 31
0.0
  0
LINE
  5
186
330
1F
100
AcDbEntity
  8
0
  6
Continuous
 62
     7
370
    18
100
AcDbLine
 10
226.5390720848
 20
120.4956545249
 30
0.0
 11
226.012022402
 21
120.4956545249
 31
0.0
  0
LINE
  5
187
330
1F
100
AcDbEntity
  8
0
  6
Continuous
 62
     7
370
    18
100
AcDbLine
 10
226.5390720848
 20
118.9323868743
 30
0.0
 11
226.5390720848
 21
120.4956545249
 31
0.0
  0
LINE
  5
188
330
1F
100
AcDbEntity
  8
0
  6
Continuous
 62
     7
370
    18
100
AcDbLine
 10
227.5085328344
 20
118.9323868743
 30
0.0
 11
226.5390720848
 21
118.9323868743
 31
0.0
  0
LINE
  5
189
330
1F
100
AcDbEntity
  8
0
  6
Continuous
 62
     7
370
    18
100
AcDbLine
 10
228.0967766338
 20
120.4956545249
 30
0.0
 11
227.5085328344
 21
118.9323868743
 31
0.0
  0
LINE
  5
18A
330
1F
100
AcDbEntity
  8
0
  6
Continuous
 62
     7
370
    18
100
AcDbLine
 10
228.632243217
 20
120.4956545249
 30
0.0
 11
228.0967766338
 21
120.4956545249
 31
0.0
  0
LINE
  5
18B
330
1F
100
AcDbEntity
  8
0
  6
Continuous
 62
     7
370
    18
100
AcDbLine
 10
229.3457651727
 20
118.6122556688
 30
0.0
 11
228.632243217
 21
120.4956545249
 31
0.0
  0
LINE
  5
18C
330
1F
100
AcDbEntity
  8
0
  6
Continuous
 62
     7
370
    18
100
AcDbLine
 10
229.3457651727
 20
120.4956545249
 30
0.0
 11
229.3457651727
 21
118.6122556688
 31
0.0
  0
LINE
  5
18D
330
1F
100
AcDbEntity
  8
0
  6
Continuous
 62
     7
370
    18
100
AcDbLine
 10
230.2919981673
 20
120.4956545249
 30
0.0
 11
229.3457651727
 21
120.4956545249
 31
0.0
  0
SPLINE
  5
18E
330
1F
100
AcDbEntity
  8
0
  6
Continuous
 62
     7
370
    18
100
AcDbSpline
210
0.0
220
0.0
230
1.0
 70
     8
 71
     3
 72
    14
 73
    10
 74
     0
 42
0.000000001
 43
0.00000001
 40
0.0
 40
0.0
 40
0.0
 40
0.0
 40
0.1423816612635872
 40
0.2654010250778283
 40
0.380208570789927
 40
0.495320128909934
 40
0.6562432766114725
 40
0.8263515868701821
 40
1.0
 40
1.0
 40
1.0
 40
1.0
 10
231.0229680323118
 20
119.990550193914
 30
0.0
 10
231.0201441710682
 20
120.0386531046441
 30
0.0
 10
231.014880461809
 20
120.1283174736624
 30
0.0
 10
230.9642999933085
 20
120.2485606943741
 30
0.0
 10
230.8870776997901
 20
120.3407619945647
 30
0.0
 10
230.7770728484664
 20
120.4152849180154
 30
0.0
 10
230.6345179618242
 20
120.466402630303
 30
0.0
 10
230.466212185811
 20
120.4938852833725
 30
0.0
 10
230.3504668327871
 20
120.4950607426703
 30
0.0
 10
230.291998167268
 20
120.4956545249234
 30
0.0
  0
SPLINE
  5
18F
330
1F
100
AcDbEntity
  8
0
  6
Continuous
 62
     7
370
    18
100
AcDbSpline
210
0.0
220
0.0
230
1.0
 70
     8
 71
     3
 72
    11
 73
     7
 74
     0
 42
0.000000001
 43
0.00000001
 40
0.0
 40
0.0
 40
0.0
 40
0.0
 40
0.2840562052455214
 40
0.558861901641966
 40
0.7750993838285692
 40
1.0
 40
1.0
 40
1.0
 40
1.0
 10
230.7566255161286
 20
119.5842451009029
 30
0.0
 10
230.7985316881117
 20
119.6090996716683
 30
0.0
 10
230.8809793253489
 20
119.6579994049813
 30
0.0
 10
230.96491816566
 20
119.7633143355935
 30
0.0
 10
231.0145484323131
 20
119.8766564142753
 30
0.0
 10
231.0201249945329
 20
119.952091797037
 30
0.0
 10
231.0229680323118
 20
119.990550193914
 30
0.0
  0
SPLINE
  5
190
330
1F
100
AcDbEntity
  8
0
  6
Continuous
 62
     7
370
    18
100
AcDbSpline
210
0.0
220
0.0
230
1.0
 70
     8
 71
     3
 72
    11
 73
     7
 74
     0
 42
0.000000001
 43
0.00000001
 40
0.0
 40
0.0
 40
0.0
 40
0.0
 40
0.2849839497112073
 40
0.5578557580524981
 40
0.7738896021956455
 40
1.0
 40
1.0
 40
1.0
 40
1.0
 10
231.1026215313195
 20
119.1581259742384
 30
0.0
 10
231.0929238964303
 20
119.2131764056454
 30
0.0
 10
231.0739407871431
 20
119.3209375626326
 30
0.0
 10
230.9875835956237
 20
119.4488245211658
 30
0.0
 10
230.8792738973722
 20
119.5390571134484
 30
0.0
 10
230.7981247779719
 20
119.568955309839
 30
0.0
 10
230.7566255161286
 20
119.5842451009029
 30
0.0
  0
LINE
  5
191
330
1F
100
AcDbEntity
  8
0
  6
Continuous
 62
     7
370
    18
100
AcDbLine
 10
231.606371211
 20
119.1581259742
 30
0.0
 11
231.1026215313
 21
119.1581259742
 31
0.0
  0
SPLINE
  5
192
330
1F
100
AcDbEntity
  8
0
  6
Continuous
 62
     7
370
    18
100
AcDbSpline
210
0.0
220
0.0
230
1.0
 70
     8
 71
     3
 72
    12
 73
     8
 74
     0
 42
0.000000001
 43
0.00000001
 40
0.0
 40
0.0
 40
0.0
 40
0.0
 40
0.3029848175181616
 40
0.5555954840373166
 40
0.6861253068640307
 40
0.8302562633026854
 40
1.0
 40
1.0
 40
1.0
 40
1.0
 10
231.9887802542941
 20
118.8448944595463
 30
0.0
 10
231.9319160557054
 20
118.8471632375769
 30
0.0
 10
231.8276418805237
 20
118.8513235873871
 30
0.0
 10
231.7067510829968
 20
118.9103260028244
 30
0.0
 10
231.6453863875071
 20
118.989276309774
 30
0.0
 10
231.6147379973167
 20
119.0677972006327
 30
0.0
 10
231.6093078434385
 20
119.1264217574069
 30
0.0
 10
231.6063712109852
 20
119.1581259742384
 30
0.0
  0
SPLINE
  5
193
330
1F
100
AcDbEntity
  8
0
  6
Continuous
 62
     7
370
    18
100
AcDbSpline
210
0.0
220
0.0
230
1.0
 70
     8
 71
     3
 72
    12
 73
     8
 74
     0
 42
0.000000001
 43
0.00000001
 40
0.0
 40
0.0
 40
0.0
 40
0.0
 40
0.1228977808113462
 40
0.2361517003655365
 40
0.4654549568724395
 40
0.722943542278525
 40
1.0
 40
1.0
 40
1.0
 40
1.0
 10
232.3118013826964
 20
119.0509459599273
 30
0.0
 10
232.3104801306299
 20
119.0334198511309
 30
0.0
 10
232.3079413059247
 20
118.9997429176198
 30
0.0
 10
232.2781309105318
 20
118.9390882326178
 30
0.0
 10
232.2088846126844
 20
118.8840770074481
 30
0.0
 10
232.1041154911084
 20
118.8506568723607
 30
0.0
 10
232.0281522516706
 20
118.8468615747877
 30
0.0
 10
231.9887802542941
 20
118.8448944595463
 30
0.0
  0
SPLINE
  5
194
330
1F
100
AcDbEntity
  8
0
  6
Continuous
 62
     7
370
    18
100
AcDbSpline
210
0.0
220
0.0
230
1.0
 70
     8
 71
     3
 72
    12
 73
     8
 74
     0
 42
0.000000001
 43
0.00000001
 40
0.0
 40
0.0
 40
0.0
 40
0.0
 40
0.3210306919457595
 40
0.6029592976098677
 40
0.8214028303124051
 40
0.9104117121954225
 40
1.0
 40
1.0
 40
1.0
 40
1.0
 10
231.730963010567
 20
119.3443453789481
 30
0.0
 10
231.8023381062095
 20
119.3259526057438
 30
0.0
 10
231.9363946890073
 20
119.2914073305082
 30
0.0
 10
232.1179788631095
 20
119.2434326104062
 30
0.0
 10
232.2439607300835
 20
119.1863279709257
 30
0.0
 10
232.3044462007622
 20
119.1132628104331
 30
0.0
 10
232.3093443585082
 20
119.0717631212693
 30
0.0
 10
232.3118013826964
 20
119.0509459599273
 30
0.0
  0
SPLINE
  5
195
330
1F
100
AcDbEntity
  8
0
  6
Continuous
 62
     7
370
    18
100
AcDbSpline
210
0.0
220
0.0
230
1.0
 70
     8
 71
     3
 72
    12
 73
     8
 74
     0
 42
0.000000001
 43
0.00000001
 40
0.0
 40
0.0
 40
0.0
 40
0.0
 40
0.2059303301559957
 40
0.3857152088822404
 40
0.5622731912300376
 40
0.7785006333333759
 40
1.0
 40
1.0
 40
1.0
 40
1.0
 10
231.1388539392582
 20
119.9256714255613
 30
0.0
 10
231.1438227809826
 20
119.8632715796064
 30
0.0
 10
231.1531296073358
 20
119.746394334771
 30
0.0
 10
231.2419556370561
 20
119.5964598836448
 30
0.0
 10
231.3742232782403
 20
119.4837259893562
 30
0.0
 10
231.5413153252042
 20
119.4016660947848
 30
0.0
 10
231.6672415690302
 20
119.3636050848393
 30
0.0
 10
231.730963010567
 20
119.3443453789481
 30
0.0
  0
SPLINE
  5
196
330
1F
100
AcDbEntity
  8
0
  6
Continuous
 62
     7
370
    18
100
AcDbSpline
210
0.0
220
0.0
230
1.0
 70
     8
 71
     3
 72
    14
 73
    10
 74
     0
 42
0.000000001
 43
0.00000001
 40
0.0
 40
0.0
 40
0.0
 40
0.0
 40
0.1687571149027786
 40
0.3389805425085115
 40
0.5046286467510828
 40
0.6247827513896881
 40
0.7433698504427207
 40
0.8656643973442368
 40
1.0
 40
1.0
 40
1.0
 40
1.0
 10
231.9632766849973
 20
120.5379377088638
 30
0.0
 10
231.8987410986694
 20
120.5351094872128
 30
0.0
 10
231.7691091831372
 20
120.5294284697921
 30
0.0
 10
231.5806258467274
 20
120.4831246731124
 30
0.0
 10
231.4204944385887
 20
120.4112194423767
 30
0.0
 10
231.2962388533412
 20
120.3172254691335
 30
0.0
 10
231.2084159008503
 20
120.2092463061853
 30
0.0
 10
231.1491325409542
 20
120.075689174979
 30
0.0
 10
231.1423856607593
 20
119.9772174360827
 30
0.0
 10
231.1388539392582
 20
119.9256714255613
 30
0.0
  0
SPLINE
  5
197
330
1F
100
AcDbEntity
  8
0
  6
Continuous
 62
     7
370
    18
100
AcDbSpline
210
0.0
220
0.0
230
1.0
 70
     8
 71
     3
 72
    12
 73
     8
 74
     0
 42
0.000000001
 43
0.00000001
 40
0.0
 40
0.0
 40
0.0
 40
0.0
 40
0.1993974480574493
 40
0.3779257523812742
 40
0.5550669356786561
 40
0.7731143074051403
 40
1.0
 40
1.0
 40
1.0
 40
1.0
 10
232.773647180798
 20
119.8890055291926
 30
0.0
 10
232.7662602868901
 20
119.9667573632993
 30
0.0
 10
232.7522596190526
 20
120.1141234439088
 30
0.0
 10
232.6321319216918
 20
120.3011399297233
 30
0.0
 10
232.4533150008878
 20
120.436902104093
 30
0.0
 10
232.2236023273661
 20
120.5224183442583
 30
0.0
 10
232.0511934974724
 20
120.5326965307173
 30
0.0
 10
231.9632766849973
 20
120.5379377088638
 30
0.0
  0
LINE
  5
198
330
1F
100
AcDbEntity
  8
0
  6
Continuous
 62
     7
370
    18
100
AcDbLine
 10
232.2466697461
 20
119.8890055292
 30
0.0
 11
232.7736471808
 21
119.8890055292
 31
0.0
  0
SPLINE
  5
199
330
1F
100
AcDbEntity
  8
0
  6
Continuous
 62
     7
370
    18
100
AcDbSpline
210
0.0
220
0.0
230
1.0
 70
     8
 71
     3
 72
    13
 73
     9
 74
     0
 42
0.000000001
 43
0.00000001
 40
0.0
 40
0.0
 40
0.0
 40
0.0
 40
0.2626041787201687
 40
0.509983956645247
 40
0.6263386331431517
 40
0.7414049134888268
 40
0.8625801387792146
 40
1.0
 40
1.0
 40
1.0
 40
1.0
 10
231.920758694824
 20
120.1316326158527
 30
0.0
 10
231.9611012524298
 20
120.1296125826507
 30
0.0
 10
232.0394475196115
 20
120.1256896270834
 30
0.0
 10
232.1321823331724
 20
120.0927690636907
 30
0.0
 10
232.1914319212261
 20
120.0482288154804
 30
0.0
 10
232.2248172919853
 20
120.0048085050747
 30
0.0
 10
232.2456720656364
 20
119.9501599978174
 30
0.0
 10
232.2463235442369
 20
119.9102265427922
 30
0.0
 10
232.2466697460928
 20
119.8890055291926
 30
0.0
  0
SPLINE
  5
19A
330
1F
100
AcDbEntity
  8
0
  6
Continuous
 62
     7
370
    18
100
AcDbSpline
210
0.0
220
0.0
230
1.0
 70
     8
 71
     3
 72
    12
 73
     8
 74
     0
 42
0.000000001
 43
0.00000001
 40
0.0
 40
0.0
 40
0.0
 40
0.0
 40
0.1338350776842965
 40
0.2542572338768605
 40
0.4899325118163999
 40
0.7434916633797872
 40
1.0
 40
1.0
 40
1.0
 40
1.0
 10
231.6659036220351
 20
119.959537709153
 30
0.0
 10
231.667011607534
 20
119.974914237369
 30
0.0
 10
231.6691165364735
 20
120.0041262615891
 30
0.0
 10
231.6939204921403
 20
120.0557828988766
 30
0.0
 10
231.7505150758714
 20
120.1011141328382
 30
0.0
 10
231.8330209902952
 20
120.1271578973072
 30
0.0
 10
231.8914002779272
 20
120.1301353045968
 30
0.0
 10
231.920758694824
 20
120.1316326158527
 30
0.0
  0
SPLINE
  5
19B
330
1F
100
AcDbEntity
  8
0
  6
Continuous
 62
     7
370
    18
100
AcDbSpline
210
0.0
220
0.0
230
1.0
 70
     8
 71
     3
 72
    12
 73
     8
 74
     0
 42
0.000000001
 43
0.00000001
 40
0.0
 40
0.0
 40
0.0
 40
0.0
 40
0.3295920737084764
 40
0.6175980183821557
 40
0.8358975487564522
 40
0.9197397490046714
 40
1.0
 40
1.0
 40
1.0
 40
1.0
 10
232.2523050956825
 20
119.6942427900088
 30
0.0
 10
232.1803081143989
 20
119.7124078289625
 30
0.0
 10
232.0453983379899
 20
119.7464459413946
 30
0.0
 10
231.8629164894134
 20
119.7908373565397
 30
0.0
 10
231.7372506038975
 20
119.8395569303293
 30
0.0
 10
231.6739145145446
 20
119.9037330939314
 30
0.0
 10
231.6685347774349
 20
119.9412088382437
 30
0.0
 10
231.6659036220351
 20
119.959537709153
 30
0.0
  0
SPLINE
  5
19C
330
1F
100
AcDbEntity
  8
0
  6
Continuous
 62
     7
370
    18
100
AcDbSpline
210
0.0
220
0.0
230
1.0
 70
     8
 71
     3
 72
    12
 73
     8
 74
     0
 42
0.000000001
 43
0.00000001
 40
0.0
 40
0.0
 40
0.0
 40
0.0
 40
0.204537882118412
 40
0.3838943514216847
 40
0.560197582222703
 40
0.7766167962242723
 40
1.0
 40
1.0
 40
1.0
 40
1.0
 10
232.8387788174016
 20
119.1130070534852
 30
0.0
 10
232.8339148585735
 20
119.1746335740927
 30
0.0
 10
232.8247857608225
 20
119.2902995471338
 30
0.0
 10
232.7381142013418
 20
119.4395174132422
 30
0.0
 10
232.6080389865681
 20
119.553149474503
 30
0.0
 10
232.4420909187606
 20
119.6367693837727
 30
0.0
 10
232.3162313386718
 20
119.6748838153874
 30
0.0
 10
232.2523050956825
 20
119.6942427900088
 30
0.0
  0
SPLINE
  5
19D
330
1F
100
AcDbEntity
  8
0
  6
Continuous
 62
     7
370
    18
100
AcDbSpline
210
0.0
220
0.0
230
1.0
 70
     8
 71
     3
 72
    13
 73
     9
 74
     0
 42
0.000000001
 43
0.00000001
 40
0.0
 40
0.0
 40
0.0
 40
0.0
 40
0.1943984829390969
 40
0.3808229110812403
 40
0.5574598692554756
 40
0.6939226743571336
 40
0.8373010797229385
 40
1.0
 40
1.0
 40
1.0
 40
1.0
 10
231.9575690873359
 20
118.4125619987188
 30
0.0
 10
232.039810614744
 20
118.4162392336027
 30
0.0
 10
232.2009201944372
 20
118.4234428664297
 30
0.0
 10
232.429683361812
 20
118.4882232764042
 30
0.0
 10
232.6154205836623
 20
118.5951243303567
 30
0.0
 10
232.7459758107449
 20
118.7403889328077
 30
0.0
 10
232.8256672755857
 20
118.9140091719316
 30
0.0
 10
232.8342281736453
 20
119.0439405409475
 30
0.0
 10
232.8387788174016
 20
119.1130070534852
 30
0.0
  0
SPLINE
  5
19E
330
1F
100
AcDbEntity
  8
0
  6
Continuous
 62
     7
370
    18
100
AcDbSpline
210
0.0
220
0.0
230
1.0
 70
     8
 71
     3
 72
    12
 73
     8
 74
     0
 42
0.000000001
 43
0.00000001
 40
0.0
 40
0.0
 40
0.0
 40
0.0
 40
0.1886637132768469
 40
0.3661825608804964
 40
0.5448728808046002
 40
0.7656579321773193
 40
0.9999999999999999
 40
0.9999999999999999
 40
0.9999999999999999
 40
0.9999999999999999
 10
231.0965888173358
 20
118.9923166497733
 30
0.0
 10
231.116824405763
 20
118.9238004428026
 30
0.0
 10
231.1561002127665
 20
118.7908154628369
 30
0.0
 10
231.2894062326743
 20
118.6290102812361
 30
0.0
 10
231.4699860862215
 20
118.5063810125474
 30
0.0
 10
231.6982775892453
 20
118.4268085964447
 30
0.0
 10
231.869439107091
 20
118.4174042414664
 30
0.0
 10
231.9575690873359
 20
118.4125619987188
 30
0.0
  0
LINE
  5
19F
330
1F
100
AcDbEntity
  8
0
  6
Continuous
 62
     7
370
    18
100
AcDbLine
 10
228.6651160896
 20
119.154838687
 30
0.0
 11
228.4096830322
 21
119.963384919
 31
0.0
  0
LINE
  5
1A0
330
1F
100
AcDbEntity
  8
0
  6
Continuous
 62
     7
370
    18
100
AcDbLine
 10
228.4096830322
 20
119.963384919
 30
0.0
 11
228.3273924786
 21
119.963384919
 31
0.0
  0
LINE
  5
1A1
330
1F
100
AcDbEntity
  8
0
  6
Continuous
 62
     7
370
    18
100
AcDbLine
 10
228.3273924786
 20
119.963384919
 30
0.0
 11
228.0631812805
 21
119.154838687
 31
0.0
  0
LINE
  5
1A2
330
1F
100
AcDbEntity
  8
0
  6
Continuous
 62
     7
370
    18
100
AcDbLine
 10
228.0631812805
 20
119.154838687
 30
0.0
 11
228.6651160896
 21
119.154838687
 31
0.0
  0
LINE
  5
1A3
330
1F
100
AcDbEntity
  8
0
  6
Continuous
 62
     7
370
    18
100
AcDbLine
 10
229.8260342291
 20
119.6253361917
 30
0.0
 11
230.2950687103
 21
119.6253361917
 31
0.0
  0
SPLINE
  5
1A4
330
1F
100
AcDbEntity
  8
0
  6
Continuous
 62
     7
370
    18
100
AcDbSpline
210
0.0
220
0.0
230
1.0
 70
     8
 71
     3
 72
    12
 73
     8
 74
     0
 42
0.000000001
 43
0.00000001
 40
0.0
 40
0.0
 40
0.0
 40
0.0
 40
0.242466320512141
 40
0.5040777209641408
 40
0.6506173645415592
 40
0.8119564965868009
 40
1.0
 40
1.0
 40
1.0
 40
1.0
 10
230.2950687103136
 20
119.6253361916609
 30
0.0
 10
230.3265369088253
 20
119.6283292141283
 30
0.0
 10
230.3919580269219
 20
119.6345515873675
 30
0.0
 10
230.4675349420603
 20
119.6796315282193
 30
0.0
 10
230.5136685132541
 20
119.7378741399714
 30
0.0
 10
230.5385208245754
 20
119.7983698693514
 30
0.0
 10
230.5412370555665
 20
119.8437536970763
 30
0.0
 10
230.5426989759364
 20
119.8681800225359
 30
0.0
  0
SPLINE
  5
1A5
330
1F
100
AcDbEntity
  8
0
  6
Continuous
 62
     7
370
    18
100
AcDbSpline
210
0.0
220
0.0
230
1.0
 70
     8
 71
     3
 72
    12
 73
     8
 74
     0
 42
0.000000001
 43
0.00000001
 40
0.0
 40
0.0
 40
0.0
 40
0.0
 40
0.23250610395507
 40
0.4222580038951598
 40
0.5928278045028524
 40
0.7922143842709269
 40
1.0
 40
1.0
 40
1.0
 40
1.0
 10
230.5426989759364
 20
119.8681800225359
 30
0.0
 10
230.5408772793214
 20
119.8990499445678
 30
0.0
 10
230.537568867356
 20
119.9551132970383
 30
0.0
 10
230.5033565844896
 20
120.0279142923548
 30
0.0
 10
230.4486835981471
 20
120.0796938616342
 30
0.0
 10
230.3765079006345
 20
120.1099278279744
 30
0.0
 10
230.3225858700218
 20
120.1130453448939
 30
0.0
 10
230.2950687103136
 20
120.1146362569941
 30
0.0
  0
LINE
  5
1A6
330
1F
100
AcDbEntity
  8
0
  6
Continuous
 62
     7
370
    18
100
AcDbLine
 10
230.2950687103
 20
120.114636257
 30
0.0
 11
229.8260342291
 21
120.114636257
 31
0.0
  0
LINE
  5
1A7
330
1F
100
AcDbEntity
  8
0
  6
Continuous
 62
     7
370
    18
100
AcDbLine
 10
229.8260342291
 20
120.114636257
 30
0.0
 11
229.8260342291
 21
119.6253361917
 31
0.0
  0
LINE
  5
1A8
330
1F
100
AcDbEntity
  8
0
  6
Continuous
 62
     7
370
    18
100
AcDbLine
 10
229.8260342291
 20
118.8274465502
 30
0.0
 11
230.3470150738
 21
118.8274465502
 31
0.0
  0
SPLINE
  5
1A9
330
1F
100
AcDbEntity
  8
0
  6
Continuous
 62
     7
370
    18
100
AcDbSpline
210
0.0
220
0.0
230
1.0
 70
     8
 71
     3
 72
    12
 73
     8
 74
     0
 42
0.000000001
 43
0.00000001
 40
0.0
 40
0.0
 40
0.0
 40
0.0
 40
0.2382584506409
 40
0.4976556531040025
 40
0.6448887038896327
 40
0.8084522641844492
 40
1.0
 40
1.0
 40
1.0
 40
1.0
 10
230.3470150738389
 20
118.8274465502398
 30
0.0
 10
230.3820076163389
 20
118.8309155061733
 30
0.0
 10
230.4550973075745
 20
118.8381611905385
 30
0.0
 10
230.538959023538
 20
118.8904806300475
 30
0.0
 10
230.5898745447944
 20
118.9574341293196
 30
0.0
 10
230.6173428009656
 20
119.0270737361241
 30
0.0
 10
230.6203389706781
 20
119.0792355293902
 30
0.0
 10
230.6219551105499
 20
119.1073717038956
 30
0.0
  0
SPLINE
  5
1AA
330
1F
100
AcDbEntity
  8
0
  6
Continuous
 62
     7
370
    18
100
AcDbSpline
210
0.0
220
0.0
230
1.0
 70
     8
 71
     3
 72
    12
 73
     8
 74
     0
 42
0.000000001
 43
0.00000001
 40
0.0
 40
0.0
 40
0.0
 40
0.0
 40
0.2366945835519322
 40
0.4286648826954259
 40
0.5991110185125277
 40
0.7959723284782175
 40
1.0
 40
1.0
 40
1.0
 40
1.0
 10
230.6219551105499
 20
119.1073717038956
 30
0.0
 10
230.6199416832544
 20
119.1429055860586
 30
0.0
 10
230.6162952729204
 20
119.2072590968171
 30
0.0
 10
230.5785702495255
 20
119.2909835730829
 30
0.0
 10
230.5180106146467
 20
119.3508045642991
 30
0.0
 10
230.4376681086588
 20
119.3858950492986
 30
0.0
 10
230.3775907366491
 20
119.3895053367657
 30
0.0
 10
230.3470150738389
 20
119.3913427495644
 30
0.0
  0
LINE
  5
1AB
330
1F
100
AcDbEntity
  8
0
  6
Continuous
 62
     7
370
    18
100
AcDbLine
 10
230.3470150738
 20
119.3913427496
 30
0.0
 11
229.8260342291
 21
119.3913427496
 31
0.0
  0
LINE
  5
1AC
330
1F
100
AcDbEntity
  8
0
  6
Continuous
 62
     7
370
    18
100
AcDbLine
 10
229.8260342291
 20
119.3913427496
 30
0.0
 11
229.8260342291
 21
118.8274465502
 31
0.0
  0
SPLINE
  5
1AD
330
1F
100
AcDbEntity
  8
0
  6
Continuous
 62
     7
370
    18
100
AcDbSpline
210
0.0
220
0.0
230
1.0
 70
     8
 71
     3
 72
    13
 73
     9
 74
     0
 42
0.000000001
 43
0.00000001
 40
0.0
 40
0.0
 40
0.0
 40
0.0
 40
0.5894795511906018
 40
0.8525979839264193
 40
0.9412877217975723
 40
0.9634735681078221
 40
0.9825903643577696
 40
1.0
 40
1.0
 40
1.0
 40
1.0
 10
231.9606757544174
 20
119.9977027530086
 30
0.0
 10
231.9229577110871
 20
119.9957747806505
 30
0.0
 10
231.8684039481345
 20
119.992986243979
 30
0.0
 10
231.8098754804338
 20
119.9785861174843
 30
0.0
 10
231.7880348267733
 20
119.9677666547658
 30
0.0
 10
231.7821916705366
 20
119.9618429148188
 30
0.0
 10
231.7801409040392
 20
119.9585881297535
 30
0.0
 10
231.7798629435634
 20
119.9562466154586
 30
0.0
 10
231.7797304589391
 20
119.9551305767816
 30
0.0
  0
SPLINE
  5
1AE
330
1F
100
AcDbEntity
  8
0
  6
Continuous
 62
     7
370
    18
100
AcDbSpline
210
0.0
220
0.0
230
1.0
 70
     8
 71
     3
 72
    12
 73
     8
 74
     0
 42
0.000000001
 43
0.00000001
 40
0.0
 40
0.0
 40
0.0
 40
0.0
 40
0.1687932262470754
 40
0.3139712558223841
 40
0.4643534436981239
 40
0.6895611553267716
 40
1.0
 40
1.0
 40
1.0
 40
1.0
 10
232.1309644593256
 20
119.8966096387351
 30
0.0
 10
232.1285046520722
 20
119.9088402039023
 30
0.0
 10
232.1239291795274
 20
119.9315902039489
 30
0.0
 10
232.105369612577
 20
119.9614585782417
 30
0.0
 10
232.0725749056557
 20
119.9829923293439
 30
0.0
 10
232.0228270414431
 20
119.9947502632125
 30
0.0
 10
231.9834798043596
 20
119.996619449219
 30
0.0
 10
231.9606757544174
 20
119.9977027530086
 30
0.0
  0
SPLINE
  5
1AF
330
1F
100
AcDbEntity
  8
0
  6
Continuous
 62
     7
370
    18
100
AcDbSpline
210
0.0
220
0.0
230
1.0
 70
     8
 71
     3
 72
     9
 73
     5
 74
     0
 42
0.000000001
 43
0.00000001
 40
0.0
 40
0.0
 40
0.0
 40
0.0
 40
0.5915228225857646
 40
0.9999999999999999
 40
0.9999999999999999
 40
0.9999999999999999
 40
0.9999999999999999
 10
232.1362746925927
 20
119.8124767592843
 30
0.0
 10
232.1363458789604
 20
119.8291460249457
 30
0.0
 10
232.1364662232057
 20
119.8573262827904
 30
0.0
 10
232.1325600442712
 20
119.8852169412793
 30
0.0
 10
232.1309644593256
 20
119.8966096387351
 30
0.0
  0
SPLINE
  5
1B0
330
1F
100
AcDbEntity
  8
0
  6
Continuous
 62
     7
370
    18
100
AcDbSpline
210
0.0
220
0.0
230
1.0
 70
     8
 71
     3
 72
    13
 73
     9
 74
     0
 42
0.000000001
 43
0.00000001
 40
0.0
 40
0.0
 40
0.0
 40
0.0
 40
0.0518958002713989
 40
0.1049388400652586
 40
0.1730026251899389
 40
0.2659228894279198
 40
0.550878000289066
 40
1.0
 40
1.0
 40
1.0
 40
1.0
 10
231.7797304589391
 20
119.9551305767816
 30
0.0
 10
231.7803626933672
 20
119.9481111282317
 30
0.0
 10
231.7816411387749
 20
119.9339170550144
 30
0.0
 10
231.7966217818457
 20
119.9150033658824
 30
0.0
 10
231.8210799360674
 20
119.9000100542493
 30
0.0
 10
231.8764705576224
 20
119.8780521200952
 30
0.0
 10
231.9833527313865
 20
119.8505968995534
 30
0.0
 10
232.0782281504514
 20
119.8269465078482
 30
0.0
 10
232.1362746925927
 20
119.8124767592843
 30
0.0
  0
LINE
  5
1B1
330
1F
100
AcDbEntity
  8
0
  6
Continuous
 62
     7
370
    18
100
AcDbLine
 10
226.6548496196
 20
120.6065733769
 30
0.0
 11
225.8942219211
 21
120.6065733769
 31
0.0
  0
LINE
  5
1B2
330
1F
100
AcDbEntity
  8
0
  6
Continuous
 62
     7
370
    18
100
AcDbLine
 10
226.6548496196
 20
119.0115924892
 30
0.0
 11
226.6548496196
 21
120.6065733769
 31
0.0
  0
LINE
  5
1B3
330
1F
100
AcDbEntity
  8
0
  6
Continuous
 62
     7
370
    18
100
AcDbLine
 10
227.4211463974
 20
119.0115924892
 30
0.0
 11
226.6548496196
 21
119.0115924892
 31
0.0
  0
LINE
  5
1B4
330
1F
100
AcDbEntity
  8
0
  6
Continuous
 62
     7
370
    18
100
AcDbLine
 10
228.0331355323
 20
120.6065733769
 30
0.0
 11
227.4211463974
 21
119.0115924892
 31
0.0
  0
LINE
  5
1B5
330
1F
100
AcDbEntity
  8
0
  6
Continuous
 62
     7
370
    18
100
AcDbLine
 10
228.7244278271
 20
120.6065733769
 30
0.0
 11
228.0331355323
 21
120.6065733769
 31
0.0
  0
LINE
  5
1B6
330
1F
100
AcDbEntity
  8
0
  6
Continuous
 62
     7
370
    18
100
AcDbLine
 10
229.2411460357
 20
119.212312028
 30
0.0
 11
228.7244278271
 21
120.6065733769
 31
0.0
  0
LINE
  5
1B7
330
1F
100
AcDbEntity
  8
0
  6
Continuous
 62
     7
370
    18
100
AcDbLine
 10
229.2411460357
 20
120.6065733769
 30
0.0
 11
229.2411460357
 21
119.212312028
 31
0.0
  0
LINE
  5
1B8
330
1F
100
AcDbEntity
  8
0
  6
Continuous
 62
     7
370
    18
100
AcDbLine
 10
230.2292361491
 20
120.6065733769
 30
0.0
 11
229.2411460357
 21
120.6065733769
 31
0.0
  0
SPLINE
  5
1B9
330
1F
100
AcDbEntity
  8
0
  6
Continuous
 62
     7
370
    18
100
AcDbSpline
210
0.0
220
0.0
230
1.0
 70
     8
 71
     3
 72
    13
 73
     9
 74
     0
 42
0.000000001
 43
0.00000001
 40
0.0
 40
0.0
 40
0.0
 40
0.0
 40
0.1129894123230104
 40
0.2349035042068361
 40
0.3805358024040086
 40
0.5310429421797489
 40
0.7319137862307443
 40
1.0
 40
1.0
 40
1.0
 40
1.0
 10
231.0983804512123
 20
120.2021106097593
 30
0.0
 10
231.0813581137831
 20
120.2369521475295
 30
0.0
 10
231.0459688978408
 20
120.3093872469418
 30
0.0
 10
230.9729159741647
 20
120.41941631819
 30
0.0
 10
230.8546586471545
 20
120.5063598306898
 30
0.0
 10
230.6932180146833
 20
120.5651406410105
 30
0.0
 10
230.482537850149
 20
120.6011965741424
 30
0.0
 10
230.3213700801726
 20
120.604617661776
 30
0.0
 10
230.2292361491142
 20
120.6065733769431
 30
0.0
  0
SPLINE
  5
1BA
330
1F
100
AcDbEntity
  8
0
  6
Continuous
 62
     7
370
    18
100
AcDbSpline
210
0.0
220
0.0
230
1.0
 70
     8
 71
     3
 72
    12
 73
     8
 74
     0
 42
0.000000001
 43
0.00000001
 40
0.0
 40
0.0
 40
0.0
 40
0.0
 40
0.2577824677168405
 40
0.4746472252827225
 40
0.6603530347935911
 40
0.8468286435267817
 40
1.0
 40
1.0
 40
1.0
 40
1.0
 10
231.9551342090202
 20
120.6278504340476
 30
0.0
 10
231.8688728098494
 20
120.6237783378802
 30
0.0
 10
231.7100422496175
 20
120.6162805077753
 30
0.0
 10
231.4967036551549
 20
120.5516260869951
 30
0.0
 10
231.3235372868562
 20
120.4565211703181
 30
0.0
 10
231.1887250714827
 20
120.3403442401301
 30
0.0
 10
231.1264601865389
 20
120.245074581963
 30
0.0
 10
231.0983804512123
 20
120.2021106097593
 30
0.0
  0
SPLINE
  5
1BB
330
1F
100
AcDbEntity
  8
0
  6
Continuous
 62
     7
370
    18
100
AcDbSpline
210
0.0
220
0.0
230
1.0
 70
     8
 71
     3
 72
    15
 73
    11
 74
     0
 42
0.000000001
 43
0.00000001
 40
0.0
 40
0.0
 40
0.0
 40
0.0
 40
0.1009667219583008
 40
0.2110426783902178
 40
0.3263227887254707
 40
0.4481367482187079
 40
0.5538549368465843
 40
0.6756292865222512
 40
0.8215985201030968
 40
0.9999999999999999
 40
0.9999999999999999
 40
0.9999999999999999
 40
0.9999999999999999
 10
232.8864841008196
 20
119.7803444294124
 30
0.0
 10
232.885615054238
 20
119.8291724406755
 30
0.0
 10
232.8837985555476
 20
119.9312337345113
 30
0.0
 10
232.8595074601889
 20
120.0877829514077
 30
0.0
 10
232.8034628171647
 20
120.2474212246788
 30
0.0
 10
232.7074526034261
 20
120.3856147648811
 30
0.0
 10
232.5749502852527
 20
120.4930908539377
 30
0.0
 10
232.4099345946927
 20
120.569873351927
 30
0.0
 10
232.1985044897304
 20
120.6197797381136
 30
0.0
 10
232.0414906519854
 20
120.6249866637011
 30
0.0
 10
231.9551342090202
 20
120.6278504340476
 30
0.0
  0
LINE
  5
1BC
330
1F
100
AcDbEntity
  8
0
  6
Continuous
 62
     7
370
    18
100
AcDbLine
 10
232.2699528234
 20
119.7803444294
 30
0.0
 11
232.8864841008
 21
119.7803444294
 31
0.0
  0
SPLINE
  5
1BD
330
1F
100
AcDbEntity
  8
0
  6
Continuous
 62
     7
370
    18
100
AcDbSpline
210
0.0
220
0.0
230
1.0
 70
     8
 71
     3
 72
     9
 73
     5
 74
     0
 42
0.000000001
 43
0.00000001
 40
0.0
 40
0.0
 40
0.0
 40
0.0
 40
0.5581053349214891
 40
1.0
 40
1.0
 40
1.0
 40
1.0
 10
232.285305538634
 20
119.7763346614352
 30
0.0
 10
232.2824527442977
 20
119.7770934637455
 30
0.0
 10
232.2773411745673
 20
119.7784530678612
 30
0.0
 10
232.2722171170751
 20
119.7797647875013
 30
0.0
 10
232.2699528234057
 20
119.7803444294124
 30
0.0
  0
SPLINE
  5
1BE
330
1F
100
AcDbEntity
  8
0
  6
Continuous
 62
     7
370
    18
100
AcDbSpline
210
0.0
220
0.0
230
1.0
 70
     8
 71
     3
 72
    12
 73
     8
 74
     0
 42
0.000000001
 43
0.00000001
 40
0.0
 40
0.0
 40
0.0
 40
0.0
 40
0.2081936773952725
 40
0.3823854809342378
 40
0.5475549960392785
 40
0.7576294387459017
 40
1.0
 40
1.0
 40
1.0
 40
1.0
 10
232.9290384186137
 20
119.0578466443906
 30
0.0
 10
232.9267189370282
 20
119.1318171681131
 30
0.0
 10
232.9224587880521
 20
119.2676774624431
 30
0.0
 10
232.8470374761434
 20
119.4509634838315
 30
0.0
 10
232.7130564339329
 20
119.5958478534975
 30
0.0
 10
232.5199643592856
 20
119.7036721500196
 30
0.0
 10
232.3671609156749
 20
119.7509880017522
 30
0.0
 10
232.285305538634
 20
119.7763346614352
 30
0.0
  0
SPLINE
  5
1BF
330
1F
100
AcDbEntity
  8
0
  6
Continuous
 62
     7
370
    18
100
AcDbSpline
210
0.0
220
0.0
230
1.0
 70
     8
 71
     3
 72
    13
 73
     9
 74
     0
 42
0.000000001
 43
0.00000001
 40
0.0
 40
0.0
 40
0.0
 40
0.0
 40
0.2144903110109672
 40
0.4108455396423911
 40
0.5926499974110342
 40
0.728720790463548
 40
0.8627130606487937
 40
1.0
 40
1.0
 40
1.0
 40
1.0
 10
231.9883480870034
 20
118.2875346021693
 30
0.0
 10
232.0851032027323
 20
118.2942085440989
 30
0.0
 10
232.2704328222731
 20
118.3069921484522
 30
0.0
 10
232.5228082998765
 20
118.4045316566257
 30
0.0
 10
232.7131365073172
 20
118.5415675826076
 30
0.0
 10
232.8398690642938
 20
118.7027486716169
 30
0.0
 10
232.9159894173955
 20
118.8732358811769
 30
0.0
 10
232.9246536759136
 20
118.9958134908318
 30
0.0
 10
232.9290384186137
 20
119.0578466443906
 30
0.0
  0
SPLINE
  5
1C0
330
1F
100
AcDbEntity
  8
0
  6
Continuous
 62
     7
370
    18
100
AcDbSpline
210
0.0
220
0.0
230
1.0
 70
     8
 71
     3
 72
    12
 73
     8
 74
     0
 42
0.000000001
 43
0.00000001
 40
0.0
 40
0.0
 40
0.0
 40
0.0
 40
0.1266166298736493
 40
0.2732454724470878
 40
0.4461934828620918
 40
0.6934352669522347
 40
1.0
 40
1.0
 40
1.0
 40
1.0
 10
231.0946934416743
 20
118.7249265365509
 30
0.0
 10
231.1138176376388
 20
118.6845994735374
 30
0.0
 10
231.1550886773648
 20
118.5975715104924
 30
0.0
 10
231.2702511303661
 20
118.4874111673232
 30
0.0
 10
231.4413605558842
 20
118.3852086482015
 30
0.0
 10
231.6869401522582
 20
118.3070903847776
 30
0.0
 10
231.8809513753702
 20
118.2945026561037
 30
0.0
 10
231.9883480870034
 20
118.2875346021693
 30
0.0
  0
SPLINE
  5
1C1
330
1F
100
AcDbEntity
  8
0
  6
Continuous
 62
     7
370
    18
100
AcDbSpline
210
0.0
220
0.0
230
1.0
 70
     8
 71
     3
 72
    11
 73
     7
 74
     0
 42
0.000000001
 43
0.00000001
 40
0.0
 40
0.0
 40
0.0
 40
0.0
 40
0.3104248435957519
 40
0.6000686931456382
 40
0.8080123835287427
 40
1.0
 40
1.0
 40
1.0
 40
1.0
 10
230.4336235859638
 20
118.3702246287246
 30
0.0
 10
230.5153161488217
 20
118.3774159977442
 30
0.0
 10
230.6732324704215
 20
118.3913173187838
 30
0.0
 10
230.8702940647548
 20
118.4770314662376
 30
0.0
 10
231.0184446963309
 20
118.5876871162884
 30
0.0
 10
231.0699623268197
 20
118.6804132288262
 30
0.0
 10
231.0946934416743
 20
118.7249265365509
 30
0.0
  0
LINE
  5
1C2
330
1F
100
AcDbEntity
  8
0
  6
Continuous
 62
     7
370
    18
100
AcDbLine
 10
228.7620071644
 20
118.3702246287
 30
0.0
 11
230.433623586
 21
118.3702246287
 31
0.0
  0
LINE
  5
1C3
330
1F
100
AcDbEntity
  8
0
  6
Continuous
 62
     7
370
    18
100
AcDbLine
 10
228.6342725737
 20
118.700181572
 30
0.0
 11
228.7620071644
 21
118.3702246287
 31
0.0
  0
LINE
  5
1C4
330
1F
100
AcDbEntity
  8
0
  6
Continuous
 62
     7
370
    18
100
AcDbLine
 10
228.0915089354
 20
118.700181572
 30
0.0
 11
228.6342725737
 21
118.700181572
 31
0.0
  0
LINE
  5
1C5
330
1F
100
AcDbEntity
  8
0
  6
Continuous
 62
     7
370
    18
100
AcDbLine
 10
227.9583918633
 20
118.3702246287
 30
0.0
 11
228.0915089354
 21
118.700181572
 31
0.0
  0
LINE
  5
1C6
330
1F
100
AcDbEntity
  8
0
  6
Continuous
 62
     7
370
    18
100
AcDbLine
 10
225.349864889
 20
118.3702246287
 30
0.0
 11
227.9583918633
 21
118.3702246287
 31
0.0
  0
SPLINE
  5
1C7
330
1F
100
AcDbEntity
  8
0
  6
Continuous
 62
     7
370
    18
100
AcDbSpline
210
0.0
220
0.0
230
1.0
 70
     8
 71
     3
 72
    11
 73
     7
 74
     0
 42
0.000000001
 43
0.00000001
 40
0.0
 40
0.0
 40
0.0
 40
0.0
 40
0.227473661112989
 40
0.5494925387673801
 40
0.8007169048877175
 40
1.0
 40
1.0
 40
1.0
 40
1.0
 10
225.2837940274764
 20
118.7276358392383
 30
0.0
 10
225.2859599597738
 20
118.6999771586817
 30
0.0
 10
225.2911920540352
 20
118.6331639789771
 30
0.0
 10
225.3020364836679
 20
118.536375403769
 30
0.0
 10
225.316738542938
 20
118.4425374170663
 30
0.0
 10
225.3397054296122
 20
118.3924021075079
 30
0.0
 10
225.3498648890117
 20
118.3702246287246
 30
0.0
  0
SPLINE
  5
1C8
330
1F
100
AcDbEntity
  8
0
  6
Continuous
 62
     7
370
    18
100
AcDbSpline
210
0.0
220
0.0
230
1.0
 70
     8
 71
     3
 72
    13
 73
     9
 74
     0
 42
0.000000001
 43
0.00000001
 40
0.0
 40
0.0
 40
0.0
 40
0.0
 40
0.1455849753971022
 40
0.268407594099719
 40
0.3810001390981585
 40
0.4935379506791341
 40
0.7360826269615492
 40
1.0
 40
1.0
 40
1.0
 40
1.0
 10
224.9564922008281
 20
119.1854357453267
 30
0.0
 10
224.9874928461192
 20
119.1837836257623
 30
0.0
 10
225.0446471547657
 20
119.1807376971817
 30
0.0
 10
225.1211106057303
 20
119.1501042647945
 30
0.0
 10
225.1788600468172
 20
119.1024577611247
 30
0.0
 10
225.2346071415431
 20
119.0191058632241
 30
0.0
 10
225.270487679295
 20
118.8903628506752
 30
0.0
 10
225.2792355250621
 20
118.7833830257991
 30
0.0
 10
225.2837940274764
 20
118.7276358392383
 30
0.0
  0
LINE
  5
1C9
330
1F
100
AcDbEntity
  8
0
  6
Continuous
 62
     7
370
    18
100
AcDbLine
 10
224.5125639245
 20
119.1854357453
 30
0.0
 11
224.9564922008
 21
119.1854357453
 31
0.0
  0
LINE
  5
1CA
330
1F
100
AcDbEntity
  8
0
  6
Continuous
 62
     7
370
    18
100
AcDbLine
 10
224.5125639245
 20
118.3702246287
 30
0.0
 11
224.5125639245
 21
119.1854357453
 31
0.0
  0
LINE
  5
1CB
330
1F
100
AcDbEntity
  8
0
  6
Continuous
 62
     7
370
    18
100
AcDbLine
 10
223.927051425
 20
118.3702246287
 30
0.0
 11
224.5125639245
 21
118.3702246287
 31
0.0
  0
LINE
  5
1CC
330
1F
100
AcDbEntity
  8
0
  6
Continuous
 62
     7
370
    18
100
AcDbLine
 10
223.927051425
 20
120.6065733769
 30
0.0
 11
223.927051425
 21
118.3702246287
 31
0.0
  0
LINE
  5
1CD
330
1F
100
AcDbEntity
  8
0
  6
Continuous
 62
     7
370
    18
100
AcDbLine
 10
225.0729058416
 20
120.6065733769
 30
0.0
 11
223.927051425
 21
120.6065733769
 31
0.0
  0
SPLINE
  5
1CE
330
1F
100
AcDbEntity
  8
0
  6
Continuous
 62
     7
370
    18
100
AcDbSpline
210
0.0
220
0.0
230
1.0
 70
     8
 71
     3
 72
    12
 73
     8
 74
     0
 42
0.000000001
 43
0.00000001
 40
0.0
 40
0.0
 40
0.0
 40
0.0
 40
0.2016496499628995
 40
0.3794039236986319
 40
0.5547793395586212
 40
0.7718110801448018
 40
1.0
 40
1.0
 40
1.0
 40
1.0
 10
225.8598679621738
 20
119.976443757922
 30
0.0
 10
225.853372724855
 20
120.053182537308
 30
0.0
 10
225.8411519323839
 20
120.1975665915538
 30
0.0
 10
225.7258404462375
 20
120.381140537763
 30
0.0
 10
225.551754800449
 20
120.51221370655
 30
0.0
 10
225.3273323748842
 20
120.5925633734305
 30
0.0
 10
225.1591198152463
 20
120.6018260022958
 30
0.0
 10
225.0729058415916
 20
120.6065733769431
 30
0.0
  0
SPLINE
  5
1CF
330
1F
100
AcDbEntity
  8
0
  6
Continuous
 62
     7
370
    18
100
AcDbSpline
210
0.0
220
0.0
230
1.0
 70
     8
 71
     3
 72
    11
 73
     7
 74
     0
 42
0.000000001
 43
0.00000001
 40
0.0
 40
0.0
 40
0.0
 40
0.0
 40
0.2852648350196946
 40
0.5586037747029536
 40
0.7765581993729909
 40
0.9999999999999999
 40
0.9999999999999999
 40
0.9999999999999999
 40
0.9999999999999999
 10
225.5072612484257
 20
119.4152568612847
 30
0.0
 10
225.5675531451664
 20
119.4462391904128
 30
0.0
 10
225.6856163515935
 20
119.5069085890747
 30
0.0
 10
225.7931063349121
 20
119.6610965316216
 30
0.0
 10
225.8504725096564
 20
119.8201095489359
 30
0.0
 10
225.8567102955748
 20
119.9239022428561
 30
0.0
 10
225.8598679621738
 20
119.976443757922
 30
0.0
  0
LINE
  5
1D0
330
1F
100
AcDbEntity
  8
0
  6
Continuous
 62
     7
370
    18
100
AcDbLine
 10
225.5072612484
 20
119.4089712791
 30
0.0
 11
225.5072612484
 21
119.4152568613
 31
0.0
  0
SPLINE
  5
1D1
330
1F
100
AcDbEntity
  8
0
  6
Continuous
 62
     7
370
    18
100
AcDbSpline
210
0.0
220
0.0
230
1.0
 70
     8
 71
     3
 72
    11
 73
     7
 74
     0
 42
0.000000001
 43
0.00000001
 40
0.0
 40
0.0
 40
0.0
 40
0.0
 40
0.280830428644785
 40
0.5635450978390025
 40
0.7771991270060405
 40
1.0
 40
1.0
 40
1.0
 40
1.0
 10
225.8347256332352
 20
118.8728183392534
 30
0.0
 10
225.8270057383055
 20
118.9352818212773
 30
0.0
 10
225.8115141515694
 20
119.0606278860126
 30
0.0
 10
225.7502281463541
 20
119.2248168967226
 30
0.0
 10
225.6479119427066
 20
119.3565167526661
 30
0.0
 10
225.554795299175
 20
119.3912438434976
 30
0.0
 10
225.5072612484257
 20
119.4089712790596
 30
0.0
  0
SPLINE
  5
1D2
330
1F
100
AcDbEntity
  8
0
  6
Continuous
 62
     7
370
    18
100
AcDbSpline
210
0.0
220
0.0
230
1.0
 70
     8
 71
     3
 72
    11
 73
     7
 74
     0
 42
0.000000001
 43
0.00000001
 40
0.0
 40
0.0
 40
0.0
 40
0.0
 40
0.3074360073852246
 40
0.6261968550908564
 40
0.8442166228014018
 40
1.0
 40
1.0
 40
1.0
 40
1.0
 10
225.8929083503055
 20
118.4726979069569
 30
0.0
 10
225.8830675877486
 20
118.5130444294473
 30
0.0
 10
225.8630235642225
 20
118.5952236956699
 30
0.0
 10
225.8495951033592
 20
118.7085673482117
 30
0.0
 10
225.8408005451985
 20
118.8015971867295
 30
0.0
 10
225.8365126316997
 20
118.8518678973426
 30
0.0
 10
225.8347256332352
 20
118.8728183392534
 30
0.0
  0
LINE
  5
1D3
330
1F
100
AcDbEntity
  8
0
  6
Continuous
 62
     7
370
    18
100
AcDbLine
 10
225.8942219211
 20
120.6065733769
 30
0.0
 11
225.8929083503
 21
118.472697907
 31
0.0
  0
SPLINE
  5
1D4
330
1F
100
AcDbEntity
  8
0
  6
Continuous
 62
     7
370
    18
100
AcDbSpline
210
0.0
220
0.0
230
1.0
 70
     8
 71
     3
 72
    12
 73
     8
 74
     0
 42
0.000000001
 43
0.00000001
 40
0.0
 40
0.0
 40
0.0
 40
0.0
 40
0.2554031448979543
 40
0.5239992272002586
 40
0.6685053607654261
 40
0.822947353711822
 40
1.0
 40
1.0
 40
1.0
 40
1.0
 10
230.3171766202423
 20
118.9235003615149
 30
0.0
 10
230.3433070220806
 20
118.9256852123546
 30
0.0
 10
230.3969176006629
 20
118.9301677732565
 30
0.0
 10
230.4599223505641
 20
118.9628487180404
 30
0.0
 10
230.4990436668528
 20
119.0063300812891
 30
0.0
 10
230.5200725256968
 20
119.0513841189031
 30
0.0
 10
230.5223885088939
 20
119.0854069477286
 30
0.0
 10
230.5236254850174
 20
119.1035786801333
 30
0.0
  0
LINE
  5
1D5
330
1F
100
AcDbEntity
  8
0
  6
Continuous
 62
     7
370
    18
100
AcDbLine
 10
229.9259894362
 20
118.9235003615
 30
0.0
 11
230.3171766202
 21
118.9235003615
 31
0.0
  0
LINE
  5
1D6
330
1F
100
AcDbEntity
  8
0
  6
Continuous
 62
     7
370
    18
100
AcDbLine
 10
229.9259894362
 20
119.2863301774
 30
0.0
 11
229.9259894362
 21
118.9235003615
 31
0.0
  0
LINE
  5
1D7
330
1F
100
AcDbEntity
  8
0
  6
Continuous
 62
     7
370
    18
100
AcDbLine
 10
230.3171766202
 20
119.2863301774
 30
0.0
 11
229.9259894362
 21
119.2863301774
 31
0.0
  0
SPLINE
  5
1D8
330
1F
100
AcDbEntity
  8
0
  6
Continuous
 62
     7
370
    18
100
AcDbSpline
210
0.0
220
0.0
230
1.0
 70
     8
 71
     3
 72
    12
 73
     8
 74
     0
 42
0.000000001
 43
0.00000001
 40
0.0
 40
0.0
 40
0.0
 40
0.0
 40
0.2191709004622892
 40
0.4020322727962971
 40
0.5732124609680115
 40
0.7805893411712332
 40
1.0
 40
1.0
 40
1.0
 40
1.0
 10
230.5236254850174
 20
119.1035786801333
 30
0.0
 10
230.5220777983706
 20
119.1265600353955
 30
0.0
 10
230.5192388266874
 20
119.1687154787892
 30
0.0
 10
230.4900624408932
 20
119.2229723986112
 30
0.0
 10
230.4442530358359
 20
119.2609438116978
 30
0.0
 10
230.3845857932138
 20
119.2828774175151
 30
0.0
 10
230.3400647853622
 20
119.2851578245178
 30
0.0
 10
230.3171766202423
 20
119.2863301774032
 30
0.0
  0
SPLINE
  5
1D9
330
1F
100
AcDbEntity
  8
0
  6
Continuous
 62
     7
370
    18
100
AcDbSpline
210
0.0
220
0.0
230
1.0
 70
     8
 71
     3
 72
    12
 73
     8
 74
     0
 42
0.000000001
 43
0.00000001
 40
0.0
 40
0.0
 40
0.0
 40
0.0
 40
0.2631780919768604
 40
0.5362228315034394
 40
0.6796343489711612
 40
0.8298665817545476
 40
1.0
 40
1.0
 40
1.0
 40
1.0
 10
230.2561269996876
 20
119.7248759723937
 30
0.0
 10
230.2779498275238
 20
119.7265685516433
 30
0.0
 10
230.3224136293768
 20
119.7300171655874
 30
0.0
 10
230.3750672061996
 20
119.7551161411471
 30
0.0
 10
230.4081111450961
 20
119.7890548233317
 30
0.0
 10
230.4258882718412
 20
119.8241964123529
 30
0.0
 10
230.4278607556157
 20
119.8508830726519
 30
0.0
 10
230.4289082630681
 20
119.8650552934366
 30
0.0
  0
LINE
  5
1DA
330
1F
100
AcDbEntity
  8
0
  6
Continuous
 62
     7
370
    18
100
AcDbLine
 10
229.9286987389
 20
119.7248759724
 30
0.0
 11
230.2561269997
 21
119.7248759724
 31
0.0
  0
LINE
  5
1DB
330
1F
100
AcDbEntity
  8
0
  6
Continuous
 62
     7
370
    18
100
AcDbLine
 10
229.9286987389
 20
120.0072936845
 30
0.0
 11
229.9286987389
 21
119.7248759724
 31
0.0
  0
LINE
  5
1DC
330
1F
100
AcDbEntity
  8
0
  6
Continuous
 62
     7
370
    18
100
AcDbLine
 10
230.2561269997
 20
120.0072936845
 30
0.0
 11
229.9286987389
 21
120.0072936845
 31
0.0
  0
SPLINE
  5
1DD
330
1F
100
AcDbEntity
  8
0
  6
Continuous
 62
     7
370
    18
100
AcDbSpline
210
0.0
220
0.0
230
1.0
 70
     8
 71
     3
 72
    12
 73
     8
 74
     0
 42
0.000000001
 43
0.00000001
 40
0.0
 40
0.0
 40
0.0
 40
0.0
 40
0.2108655154368313
 40
0.3895958229608272
 40
0.5613353297982684
 40
0.7736399301224668
 40
1.0
 40
1.0
 40
1.0
 40
1.0
 10
230.4289082630681
 20
119.8650552934366
 30
0.0
 10
230.4275919328582
 20
119.8829962142022
 30
0.0
 10
230.4251598768135
 20
119.9161439186806
 30
0.0
 10
230.4003846862336
 20
119.9584604479685
 30
0.0
 10
230.3619974913849
 20
119.9877564997967
 30
0.0
 10
230.312323040795
 20
120.0046206065336
 30
0.0
 10
230.2752549193352
 20
120.0063838264613
 30
0.0
 10
230.2561269996876
 20
120.0072936845218
 30
0.0
  0
LINE
  5
1DE
330
1F
100
AcDbEntity
  8
0
  6
Continuous
 62
     7
370
    18
100
AcDbLine
 10
228.2050403692
 20
119.2626328099
 30
0.0
 11
228.5158154495
 21
119.2626328099
 31
0.0
  0
LINE
  5
1DF
330
1F
100
AcDbEntity
  8
0
  6
Continuous
 62
     7
370
    18
100
AcDbLine
 10
228.363046902
 20
119.7504156657
 30
0.0
 11
228.2050403692
 21
119.2626328099
 31
0.0
  0
LINE
  5
1E0
330
1F
100
AcDbEntity
  8
0
  6
Continuous
 62
     7
370
    18
100
AcDbLine
 10
228.5158154495
 20
119.2626328099
 30
0.0
 11
228.363046902
 21
119.7504156657
 31
0.0
  0
SPLINE
  5
1E1
330
1F
100
AcDbEntity
  8
0
  6
Continuous
 62
     7
370
    18
100
AcDbSpline
210
0.0
220
0.0
230
1.0
 70
     8
 71
     3
 72
    11
 73
     7
 74
     0
 42
0.000000001
 43
0.00000001
 40
0.0
 40
0.0
 40
0.0
 40
0.0
 40
0.1864574482490919
 40
0.3729596547727021
 40
0.5597047812739778
 40
1.0
 40
1.0
 40
1.0
 40
1.0
 10
234.4183921926351
 20
115.4869299047515
 30
0.0
 10
234.4139791333239
 20
115.423553502476
 30
0.0
 10
234.4051519553666
 20
115.2967854847038
 30
0.0
 10
234.3315507241749
 20
115.1188449804291
 30
0.0
 10
234.1787824716837
 20
114.8888073050159
 30
0.0
 10
234.0356614355846
 20
114.7312046929257
 30
0.0
 10
233.9351646998113
 20
114.6205392834506
 30
0.0
  0
SPLINE
  5
1E2
330
1F
100
AcDbEntity
  8
0
  6
Continuous
 62
     7
370
    18
100
AcDbSpline
210
0.0
220
0.0
230
1.0
 70
     8
 71
     3
 72
    12
 73
     8
 74
     0
 42
0.000000001
 43
0.00000001
 40
0.0
 40
0.0
 40
0.0
 40
0.0
 40
0.1868778883101656
 40
0.3732275735798848
 40
0.5597611269091693
 40
0.7798523860741533
 40
1.0
 40
1.0
 40
1.0
 40
1.0
 10
233.8980574980328
 20
116.0627169345958
 30
0.0
 10
233.9524080266198
 20
116.0594787492981
 30
0.0
 10
234.060955464151
 20
116.0530115313065
 30
0.0
 10
234.2117472832217
 20
115.9792710126505
 30
0.0
 10
234.3240977358367
 20
115.8460703080785
 30
0.0
 10
234.4041819717888
 20
115.6790888104237
 30
0.0
 10
234.4136550481384
 20
115.5509883393349
 30
0.0
 10
234.4183921926351
 20
115.4869299047515
 30
0.0
  0
SPLINE
  5
1E3
330
1F
100
AcDbEntity
  8
0
  6
Continuous
 62
     7
370
    18
100
AcDbSpline
210
0.0
220
0.0
230
1.0
 70
     8
 71
     3
 72
    12
 73
     8
 74
     0
 42
0.000000001
 43
0.00000001
 40
0.0
 40
0.0
 40
0.0
 40
0.0
 40
0.1872497526938024
 40
0.3743018666711507
 40
0.5608828182965347
 40
0.7801627485577006
 40
0.9999999999999999
 40
0.9999999999999999
 40
0.9999999999999999
 40
0.9999999999999999
 10
233.3510389729381
 20
115.4489888332701
 30
0.0
 10
233.3572056769535
 20
115.5059858120126
 30
0.0
 10
233.36953257614
 20
115.6199196102206
 30
0.0
 10
233.4240989856214
 20
115.7845657117024
 30
0.0
 10
233.5278126691526
 20
115.9362644126161
 30
0.0
 10
233.6946952052862
 20
116.0465337750498
 30
0.0
 10
233.8302127348205
 20
116.0573179856924
 30
0.0
 10
233.8980574980328
 20
116.0627169345958
 30
0.0
  0
LINE
  5
1E4
330
1F
100
AcDbEntity
  8
0
  6
Continuous
 62
     7
370
    18
100
AcDbLine
 10
233.5645096169
 20
115.4223050028
 30
0.0
 11
233.3510389729
 21
115.4489888333
 31
0.0
  0
SPLINE
  5
1E5
330
1F
100
AcDbEntity
  8
0
  6
Continuous
 62
     7
370
    18
100
AcDbSpline
210
0.0
220
0.0
230
1.0
 70
     8
 71
     3
 72
    12
 73
     8
 74
     0
 42
0.000000001
 43
0.00000001
 40
0.0
 40
0.0
 40
0.0
 40
0.0
 40
0.1864391157278141
 40
0.3727397411937403
 40
0.5593508158951337
 40
0.7794622858929073
 40
1.0
 40
1.0
 40
1.0
 40
1.0
 10
233.8901357358554
 20
115.8492462906564
 30
0.0
 10
233.8523622223039
 20
115.8458716361486
 30
0.0
 10
233.7768432540329
 20
115.8391248338859
 30
0.0
 10
233.6802846115601
 20
115.7740508055246
 30
0.0
 10
233.6076352030973
 20
115.6778006969699
 30
0.0
 10
233.5699919606632
 20
115.5550059789768
 30
0.0
 10
233.5663382428979
 20
115.4665671774062
 30
0.0
 10
233.5645096168775
 20
115.4223050027777
 30
0.0
  0
SPLINE
  5
1E6
330
1F
100
AcDbEntity
  8
0
  6
Continuous
 62
     7
370
    18
100
AcDbSpline
210
0.0
220
0.0
230
1.0
 70
     8
 71
     3
 72
    11
 73
     7
 74
     0
 42
0.000000001
 43
0.00000001
 40
0.0
 40
0.0
 40
0.0
 40
0.0
 40
0.2804252551763345
 40
0.5599428213539115
 40
0.7799288191239155
 40
1.0
 40
1.0
 40
1.0
 40
1.0
 10
234.2049215486957
 20
115.4910992532659
 30
0.0
 10
234.2012076969255
 20
115.54121408798
 30
0.0
 10
234.1937920144936
 20
115.6412815441862
 30
0.0
 10
234.1146650277498
 20
115.7604856408537
 30
0.0
 10
234.0080649597421
 20
115.8374420440298
 30
0.0
 10
233.9294505496884
 20
115.84531103404
 30
0.0
 10
233.8901357358554
 20
115.8492462906564
 30
0.0
  0
SPLINE
  5
1E7
330
1F
100
AcDbEntity
  8
0
  6
Continuous
 62
     7
370
    18
100
AcDbSpline
210
0.0
220
0.0
230
1.0
 70
     8
 71
     3
 72
    11
 73
     7
 74
     0
 42
0.000000001
 43
0.00000001
 40
0.0
 40
0.0
 40
0.0
 40
0.0
 40
0.2804571461717634
 40
0.5607896621685726
 40
0.7807300478469669
 40
1.0
 40
1.0
 40
1.0
 40
1.0
 10
233.7454593424042
 20
114.7439519994781
 30
0.0
 10
233.803306737689
 20
114.804632705038
 30
0.0
 10
233.9189758219035
 20
114.9259671507299
 30
0.0
 10
234.0676666263418
 20
115.1053199066427
 30
0.0
 10
234.1778525256478
 20
115.2944320109331
 30
0.0
 10
234.1959077278132
 20
115.4256102515869
 30
0.0
 10
234.2049215486957
 20
115.4910992532659
 30
0.0
  0
SPLINE
  5
1E8
330
1F
100
AcDbEntity
  8
0
  6
Continuous
 62
     7
370
    18
100
AcDbSpline
210
0.0
220
0.0
230
1.0
 70
     8
 71
     3
 72
    12
 73
     8
 74
     0
 42
0.000000001
 43
0.00000001
 40
0.0
 40
0.0
 40
0.0
 40
0.0
 40
0.1862418836010846
 40
0.3729020932602069
 40
0.5596089929318533
 40
0.7797756389926502
 40
0.9999999999999999
 40
0.9999999999999999
 40
0.9999999999999999
 40
0.9999999999999999
 10
233.3243551424457
 20
113.9813781561868
 30
0.0
 10
233.3287405410099
 20
114.0369233741
 30
0.0
 10
233.3375211883743
 20
114.148138572475
 30
0.0
 10
233.4028938251413
 20
114.3035244288036
 30
0.0
 10
233.4936821711122
 20
114.4550474629842
 30
0.0
 10
233.6107938814401
 20
114.6009289274167
 30
0.0
 10
233.7005669337142
 20
114.6962734770335
 30
0.0
 10
233.7454593424042
 20
114.7439519994781
 30
0.0
  0
LINE
  5
1E9
330
1F
100
AcDbEntity
  8
0
  6
Continuous
 62
     7
370
    18
100
AcDbLine
 10
234.4183921926
 20
113.9813781562
 30
0.0
 11
233.3243551424
 21
113.9813781562
 31
0.0
  0
LINE
  5
1EA
330
1F
100
AcDbEntity
  8
0
  6
Continuous
 62
     7
370
    18
100
AcDbLine
 10
234.4183921926
 20
114.2215326306
 30
0.0
 11
234.4183921926
 21
113.9813781562
 31
0.0
  0
LINE
  5
1EB
330
1F
100
AcDbEntity
  8
0
  6
Continuous
 62
     7
370
    18
100
AcDbLine
 10
233.6178772779
 20
114.2215326306
 30
0.0
 11
234.4183921926
 21
114.2215326306
 31
0.0
  0
SPLINE
  5
1EC
330
1F
100
AcDbEntity
  8
0
  6
Continuous
 62
     7
370
    18
100
AcDbSpline
210
0.0
220
0.0
230
1.0
 70
     8
 71
     3
 72
     9
 73
     5
 74
     0
 42
0.000000001
 43
0.00000001
 40
0.0
 40
0.0
 40
0.0
 40
0.0
 40
0.5606459999099406
 40
1.0
 40
1.0
 40
1.0
 40
1.0
 10
233.9351646998113
 20
114.6205392834506
 30
0.0
 10
233.8676722371961
 20
114.5523682762226
 30
0.0
 10
233.7472888533387
 20
114.4307746017134
 30
0.0
 10
233.6573793693144
 20
114.2854024617939
 30
0.0
 10
233.6178772778623
 20
114.2215326306186
 30
0.0
  0
SPLINE
  5
1ED
330
1F
100
AcDbEntity
  8
0
  6
Continuous
 62
     7
370
    18
100
AcDbSpline
210
0.0
220
0.0
230
1.0
 70
     8
 71
     3
 72
    10
 73
     6
 74
     0
 42
0.000000001
 43
0.00000001
 40
0.0
 40
0.0
 40
0.0
 40
0.0
 40
0.2795751783825435
 40
0.5597049368157178
 40
1.0
 40
1.0
 40
1.0
 40
1.0
 10
232.9432766882257
 20
115.8459108118449
 30
0.0
 10
232.9791552291312
 20
115.7734076643779
 30
0.0
 10
233.0509834815058
 20
115.6282575483813
 30
0.0
 10
233.1005816048097
 20
115.3417358883955
 30
0.0
 10
233.1069763090365
 20
115.1345162069076
 30
0.0
 10
233.1108844985063
 20
115.0078717604422
 30
0.0
  0
SPLINE
  5
1EE
330
1F
100
AcDbEntity
  8
0
  6
Continuous
 62
     7
370
    18
100
AcDbSpline
210
0.0
220
0.0
230
1.0
 70
     8
 71
     3
 72
    11
 73
     7
 74
     0
 42
0.000000001
 43
0.00000001
 40
0.0
 40
0.0
 40
0.0
 40
0.0
 40
0.2798903849624062
 40
0.5594964420644583
 40
0.7796718965173927
 40
1.0
 40
1.0
 40
1.0
 40
1.0
 10
232.5651167779659
 20
116.0627169345958
 30
0.0
 10
232.6078737196864
 20
116.0598644163239
 30
0.0
 10
232.6933441683029
 20
116.0541622775232
 30
0.0
 10
232.8021144234058
 20
116.0005371955938
 30
0.0
 10
232.8856347489185
 20
115.9284978275089
 30
0.0
 10
232.924058270117
 20
115.8734461761379
 30
0.0
 10
232.9432766882257
 20
115.8459108118449
 30
0.0
  0
SPLINE
  5
1EF
330
1F
100
AcDbEntity
  8
0
  6
Continuous
 62
     7
370
    18
100
AcDbSpline
210
0.0
220
0.0
230
1.0
 70
     8
 71
     3
 72
    13
 73
     9
 74
     0
 42
0.000000001
 43
0.00000001
 40
0.0
 40
0.0
 40
0.0
 40
0.0
 40
0.2504890583456496
 40
0.5006738274425616
 40
0.625844637855521
 40
0.7507584155659034
 40
0.8753007099299314
 40
1.0
 40
1.0
 40
1.0
 40
1.0
 10
232.0168474483169
 20
115.0078717604422
 30
0.0
 10
232.019566062932
 20
115.1181119577999
 30
0.0
 10
232.0249999896419
 20
115.3384584348623
 30
0.0
 10
232.0750533616835
 20
115.6118858704096
 30
0.0
 10
232.1599888870607
 20
115.8163434046947
 30
0.0
 10
232.2569769627497
 20
115.9518560257739
 30
0.0
 10
232.3989326258333
 20
116.0479553078623
 30
0.0
 10
232.5096988036155
 20
116.057794326506
 30
0.0
 10
232.5651167779659
 20
116.0627169345958
 30
0.0
  0
SPLINE
  5
1F0
330
1F
100
AcDbEntity
  8
0
  6
Continuous
 62
     7
370
    18
100
AcDbSpline
210
0.0
220
0.0
230
1.0
 70
     8
 71
     3
 72
    13
 73
     9
 74
     0
 42
0.000000001
 43
0.00000001
 40
0.0
 40
0.0
 40
0.0
 40
0.0
 40
0.1245870753534838
 40
0.24922271483854
 40
0.3742192396120911
 40
0.4992998133209625
 40
0.7494812006579982
 40
1.0
 40
1.0
 40
1.0
 40
1.0
 10
232.5626151688572
 20
113.9546943256943
 30
0.0
 10
232.5073515255684
 20
113.9603310219714
 30
0.0
 10
232.3968026971829
 20
113.9716066117138
 30
0.0
 10
232.2580137409602
 20
114.0702396245501
 30
0.0
 10
232.1549746322771
 20
114.2002439611101
 30
0.0
 10
232.0689507471087
 20
114.4045899121637
 30
0.0
 10
232.0237798604895
 20
114.6780920913495
 30
0.0
 10
232.0191592902782
 20
114.8978958302729
 30
0.0
 10
232.0168474483169
 20
115.0078717604422
 30
0.0
  0
SPLINE
  5
1F1
330
1F
100
AcDbEntity
  8
0
  6
Continuous
 62
     7
370
    18
100
AcDbSpline
210
0.0
220
0.0
230
1.0
 70
     8
 71
     3
 72
    13
 73
     9
 74
     0
 42
0.000000001
 43
0.00000001
 40
0.0
 40
0.0
 40
0.0
 40
0.0
 40
0.2504702058475058
 40
0.5006494994159222
 40
0.6258027062132785
 40
0.750741095826351
 40
0.8752785399750074
 40
1.0
 40
1.0
 40
1.0
 40
1.0
 10
233.1108844985063
 20
115.0078717604422
 30
0.0
 10
233.1081710032512
 20
114.8977393048906
 30
0.0
 10
233.1027471643696
 20
114.6776023087367
 30
0.0
 10
233.0519773066456
 20
114.4046717085007
 30
0.0
 10
232.96762555921
 20
114.2002475960494
 30
0.0
 10
232.8707427992535
 20
114.0647927673171
 30
0.0
 10
232.7286661823846
 20
113.9691145025152
 30
0.0
 10
232.6179927416615
 20
113.9595034164357
 30
0.0
 10
232.5626151688572
 20
113.9546943256943
 30
0.0
  0
LINE
  5
1F2
330
1F
100
AcDbEntity
  8
0
  6
Continuous
 62
     7
370
    18
100
AcDbLine
 10
230.7360235847
 20
114.2215326306
 30
0.0
 11
231.7766929739
 21
114.2215326306
 31
0.0
  0
LINE
  5
1F3
330
1F
100
AcDbEntity
  8
0
  6
Continuous
 62
     7
370
    18
100
AcDbLine
 10
230.7360235847
 20
114.9153122234
 30
0.0
 11
230.7360235847
 21
114.2215326306
 31
0.0
  0
LINE
  5
1F4
330
1F
100
AcDbEntity
  8
0
  6
Continuous
 62
     7
370
    18
100
AcDbLine
 10
231.6966414824
 20
114.9153122234
 30
0.0
 11
230.7360235847
 21
114.9153122234
 31
0.0
  0
LINE
  5
1F5
330
1F
100
AcDbEntity
  8
0
  6
Continuous
 62
     7
370
    18
100
AcDbLine
 10
231.6966414824
 20
115.1554666979
 30
0.0
 11
231.6966414824
 21
114.9153122234
 31
0.0
  0
LINE
  5
1F6
330
1F
100
AcDbEntity
  8
0
  6
Continuous
 62
     7
370
    18
100
AcDbLine
 10
230.7360235847
 20
115.1554666979
 30
0.0
 11
231.6966414824
 21
115.1554666979
 31
0.0
  0
LINE
  5
1F7
330
1F
100
AcDbEntity
  8
0
  6
Continuous
 62
     7
370
    18
100
AcDbLine
 10
230.7360235847
 20
115.7958786297
 30
0.0
 11
230.7360235847
 21
115.1554666979
 31
0.0
  0
LINE
  5
1F8
330
1F
100
AcDbEntity
  8
0
  6
Continuous
 62
     7
370
    18
100
AcDbLine
 10
231.7500091434
 20
115.7958786297
 30
0.0
 11
230.7360235847
 21
115.7958786297
 31
0.0
  0
LINE
  5
1F9
330
1F
100
AcDbEntity
  8
0
  6
Continuous
 62
     7
370
    18
100
AcDbLine
 10
231.7500091434
 20
116.0360331041
 30
0.0
 11
231.7500091434
 21
115.7958786297
 31
0.0
  0
LINE
  5
1FA
330
1F
100
AcDbEntity
  8
0
  6
Continuous
 62
     7
370
    18
100
AcDbLine
 10
230.5225529407
 20
116.0360331041
 30
0.0
 11
231.7500091434
 21
116.0360331041
 31
0.0
  0
LINE
  5
1FB
330
1F
100
AcDbEntity
  8
0
  6
Continuous
 62
     7
370
    18
100
AcDbLine
 10
230.5225529407
 20
113.9813781562
 30
0.0
 11
230.5225529407
 21
116.0360331041
 31
0.0
  0
LINE
  5
1FC
330
1F
100
AcDbEntity
  8
0
  6
Continuous
 62
     7
370
    18
100
AcDbLine
 10
231.7766929739
 20
113.9813781562
 30
0.0
 11
230.5225529407
 21
113.9813781562
 31
0.0
  0
LINE
  5
1FD
330
1F
100
AcDbEntity
  8
0
  6
Continuous
 62
     7
370
    18
100
AcDbLine
 10
231.7766929739
 20
114.2215326306
 30
0.0
 11
231.7766929739
 21
113.9813781562
 31
0.0
  0
LINE
  5
1FE
330
1F
100
AcDbEntity
  8
0
  6
Continuous
 62
     7
370
    18
100
AcDbLine
 10
229.6419865345
 20
114.8352607319
 30
0.0
 11
230.2823984663
 21
114.8352607319
 31
0.0
  0
LINE
  5
1FF
330
1F
100
AcDbEntity
  8
0
  6
Continuous
 62
     7
370
    18
100
AcDbLine
 10
229.6419865345
 20
114.5951062575
 30
0.0
 11
229.6419865345
 21
114.8352607319
 31
0.0
  0
LINE
  5
200
330
1F
100
AcDbEntity
  8
0
  6
Continuous
 62
     7
370
    18
100
AcDbLine
 10
230.2823984663
 20
114.5951062575
 30
0.0
 11
229.6419865345
 21
114.5951062575
 31
0.0
  0
LINE
  5
201
330
1F
100
AcDbEntity
  8
0
  6
Continuous
 62
     7
370
    18
100
AcDbLine
 10
230.2823984663
 20
114.8352607319
 30
0.0
 11
230.2823984663
 21
114.5951062575
 31
0.0
  0
SPLINE
  5
202
330
1F
100
AcDbEntity
  8
0
  6
Continuous
 62
     7
370
    18
100
AcDbSpline
210
0.0
220
0.0
230
1.0
 70
     8
 71
     3
 72
    10
 73
     6
 74
     0
 42
0.000000001
 43
0.00000001
 40
0.0
 40
0.0
 40
0.0
 40
0.0
 40
0.2795751783825443
 40
0.559704936815718
 40
1.0
 40
1.0
 40
1.0
 40
1.0
 10
229.2875919107636
 20
115.8459108118449
 30
0.0
 10
229.3234704516691
 20
115.7734076643779
 30
0.0
 10
229.3952987040437
 20
115.6282575483813
 30
0.0
 10
229.4448968273475
 20
115.3417358883955
 30
0.0
 10
229.4512915315744
 20
115.1345162069076
 30
0.0
 10
229.4551997210442
 20
115.0078717604422
 30
0.0
  0
SPLINE
  5
203
330
1F
100
AcDbEntity
  8
0
  6
Continuous
 62
     7
370
    18
100
AcDbSpline
210
0.0
220
0.0
230
1.0
 70
     8
 71
     3
 72
    11
 73
     7
 74
     0
 42
0.000000001
 43
0.00000001
 40
0.0
 40
0.0
 40
0.0
 40
0.0
 40
0.2798903849624051
 40
0.5594964420644629
 40
0.7796718965173829
 40
1.0
 40
1.0
 40
1.0
 40
1.0
 10
228.9094320005038
 20
116.0627169345958
 30
0.0
 10
228.9521889422243
 20
116.0598644163239
 30
0.0
 10
229.0376593908408
 20
116.0541622775232
 30
0.0
 10
229.1464296459437
 20
116.0005371955938
 30
0.0
 10
229.2299499714564
 20
115.9284978275089
 30
0.0
 10
229.2683734926549
 20
115.8734461761379
 30
0.0
 10
229.2875919107636
 20
115.8459108118449
 30
0.0
  0
SPLINE
  5
204
330
1F
100
AcDbEntity
  8
0
  6
Continuous
 62
     7
370
    18
100
AcDbSpline
210
0.0
220
0.0
230
1.0
 70
     8
 71
     3
 72
    13
 73
     9
 74
     0
 42
0.000000001
 43
0.00000001
 40
0.0
 40
0.0
 40
0.0
 40
0.0
 40
0.2504890583456496
 40
0.5006738274425618
 40
0.6258446378555217
 40
0.7507584155659035
 40
0.8753007099299326
 40
1.0
 40
1.0
 40
1.0
 40
1.0
 10
228.3611626708548
 20
115.0078717604422
 30
0.0
 10
228.3638812854698
 20
115.1181119577999
 30
0.0
 10
228.3693152121798
 20
115.3384584348623
 30
0.0
 10
228.4193685842214
 20
115.6118858704096
 30
0.0
 10
228.5043041095986
 20
115.8163434046947
 30
0.0
 10
228.6012921852876
 20
115.9518560257739
 30
0.0
 10
228.7432478483712
 20
116.0479553078623
 30
0.0
 10
228.8540140261534
 20
116.057794326506
 30
0.0
 10
228.9094320005038
 20
116.0627169345958
 30
0.0
  0
SPLINE
  5
205
330
1F
100
AcDbEntity
  8
0
  6
Continuous
 62
     7
370
    18
100
AcDbSpline
210
0.0
220
0.0
230
1.0
 70
     8
 71
     3
 72
    13
 73
     9
 74
     0
 42
0.000000001
 43
0.00000001
 40
0.0
 40
0.0
 40
0.0
 40
0.0
 40
0.124587075353485
 40
0.2492227148385401
 40
0.3742192396120919
 40
0.4992998133209632
 40
0.749481200657996
 40
1.0
 40
1.0
 40
1.0
 40
1.0
 10
228.9069303913951
 20
113.9546943256943
 30
0.0
 10
228.8516667481063
 20
113.9603310219714
 30
0.0
 10
228.7411179197208
 20
113.9716066117138
 30
0.0
 10
228.602328963498
 20
114.0702396245501
 30
0.0
 10
228.499289854815
 20
114.2002439611101
 30
0.0
 10
228.4132659696466
 20
114.4045899121637
 30
0.0
 10
228.3680950830273
 20
114.6780920913495
 30
0.0
 10
228.3634745128161
 20
114.8978958302729
 30
0.0
 10
228.3611626708548
 20
115.0078717604422
 30
0.0
  0
SPLINE
  5
206
330
1F
100
AcDbEntity
  8
0
  6
Continuous
 62
     7
370
    18
100
AcDbSpline
210
0.0
220
0.0
230
1.0
 70
     8
 71
     3
 72
    13
 73
     9
 74
     0
 42
0.000000001
 43
0.00000001
 40
0.0
 40
0.0
 40
0.0
 40
0.0
 40
0.2504702058475086
 40
0.5006494994159222
 40
0.6258027062132785
 40
0.750741095826351
 40
0.8752785399750086
 40
0.9999999999999999
 40
0.9999999999999999
 40
0.9999999999999999
 40
0.9999999999999999
 10
229.4551997210442
 20
115.0078717604422
 30
0.0
 10
229.452486225789
 20
114.8977393048906
 30
0.0
 10
229.4470623869075
 20
114.6776023087367
 30
0.0
 10
229.3962925291834
 20
114.4046717085007
 30
0.0
 10
229.3119407817478
 20
114.2002475960494
 30
0.0
 10
229.2150580217914
 20
114.0647927673171
 30
0.0
 10
229.0729814049225
 20
113.9691145025153
 30
0.0
 10
228.9623079641993
 20
113.9595034164357
 30
0.0
 10
228.9069303913951
 20
113.9546943256943
 30
0.0
  0
SPLINE
  5
207
330
1F
100
AcDbEntity
  8
0
  6
Continuous
 62
     7
370
    18
100
AcDbSpline
210
0.0
220
0.0
230
1.0
 70
     8
 71
     3
 72
    12
 73
     8
 74
     0
 42
0.000000001
 43
0.00000001
 40
0.0
 40
0.0
 40
0.0
 40
0.0
 40
0.1861323399318221
 40
0.3726108819815549
 40
0.5594136204052347
 40
0.7795030968206011
 40
1.0
 40
1.0
 40
1.0
 40
1.0
 10
227.6465363354795
 20
115.3422535113004
 30
0.0
 10
227.7041786504146
 20
115.3355676109175
 30
0.0
 10
227.8195704937411
 20
115.322183374522
 30
0.0
 10
227.9617162185698
 20
115.2150717303585
 30
0.0
 10
228.072886237374
 20
115.0695104125457
 30
0.0
 10
228.1386831371549
 20
114.8841858020477
 30
0.0
 10
228.1446872129304
 20
114.7487669009363
 30
0.0
 10
228.1476920269153
 20
114.68099483691
 30
0.0
  0
SPLINE
  5
208
330
1F
100
AcDbEntity
  8
0
  6
Continuous
 62
     7
370
    18
100
AcDbSpline
210
0.0
220
0.0
230
1.0
 70
     8
 71
     3
 72
     9
 73
     5
 74
     0
 42
0.000000001
 43
0.00000001
 40
0.0
 40
0.0
 40
0.0
 40
0.0
 40
0.5597945537684257
 40
1.0
 40
1.0
 40
1.0
 40
1.0
 10
227.3421738939253
 20
115.2617850849717
 30
0.0
 10
227.3962946999657
 20
115.2875930901172
 30
0.0
 10
227.4929744652048
 20
115.3336957271861
 30
0.0
 10
227.5995994406043
 20
115.3396377850617
 30
0.0
 10
227.6465363354795
 20
115.3422535113004
 30
0.0
  0
LINE
  5
209
330
1F
100
AcDbEntity
  8
0
  6
Continuous
 62
     7
370
    18
100
AcDbLine
 10
227.4193068414
 20
115.7691947992
 30
0.0
 11
227.3421738939
 21
115.261785085
 31
0.0
  0
LINE
  5
20A
330
1F
100
AcDbEntity
  8
0
  6
Continuous
 62
     7
370
    18
100
AcDbLine
 10
228.0676405354
 20
115.7691947992
 30
0.0
 11
227.4193068414
 21
115.7691947992
 31
0.0
  0
LINE
  5
20B
330
1F
100
AcDbEntity
  8
0
  6
Continuous
 62
     7
370
    18
100
AcDbLine
 10
228.0676405354
 20
116.0093492736
 30
0.0
 11
228.0676405354
 21
115.7691947992
 31
0.0
  0
LINE
  5
20C
330
1F
100
AcDbEntity
  8
0
  6
Continuous
 62
     7
370
    18
100
AcDbLine
 10
227.2404417902
 20
116.0093492736
 30
0.0
 11
228.0676405354
 21
116.0093492736
 31
0.0
  0
LINE
  5
20D
330
1F
100
AcDbEntity
  8
0
  6
Continuous
 62
     7
370
    18
100
AcDbLine
 10
227.0803388072
 20
114.9565887737
 30
0.0
 11
227.2404417902
 21
116.0093492736
 31
0.0
  0
LINE
  5
20E
330
1F
100
AcDbEntity
  8
0
  6
Continuous
 62
     7
370
    18
100
AcDbLine
 10
227.2938094512
 20
114.9261525296
 30
0.0
 11
227.0803388072
 21
114.9565887737
 31
0.0
  0
SPLINE
  5
20F
330
1F
100
AcDbEntity
  8
0
  6
Continuous
 62
     7
370
    18
100
AcDbSpline
210
0.0
220
0.0
230
1.0
 70
     8
 71
     3
 72
    10
 73
     6
 74
     0
 42
0.000000001
 43
0.00000001
 40
0.0
 40
0.0
 40
0.0
 40
0.0
 40
0.2801682771676908
 40
0.5607715634932561
 40
1.0
 40
1.0
 40
1.0
 40
1.0
 10
227.586914651723
 20
115.128782867361
 30
0.0
 10
227.5519266384853
 20
115.124915899511
 30
0.0
 10
227.4818962871367
 20
115.1171759596821
 30
0.0
 10
227.3710517745796
 20
115.0505214173288
 30
0.0
 10
227.3230806021635
 20
114.9732823973964
 30
0.0
 10
227.2938094511578
 20
114.9261525295591
 30
0.0
  0
SPLINE
  5
210
330
1F
100
AcDbEntity
  8
0
  6
Continuous
 62
     7
370
    18
100
AcDbSpline
210
0.0
220
0.0
230
1.0
 70
     8
 71
     3
 72
    11
 73
     7
 74
     0
 42
0.000000001
 43
0.00000001
 40
0.0
 40
0.0
 40
0.0
 40
0.0
 40
0.281031819621698
 40
0.5605860755662322
 40
0.7803889752948973
 40
1.0
 40
1.0
 40
1.0
 40
1.0
 10
227.9342213829759
 20
114.6693206610695
 30
0.0
 10
227.9313648898105
 20
114.7298724091987
 30
0.0
 10
227.9256669218876
 20
114.8506575462627
 30
0.0
 10
227.8516250746464
 20
115.0057588397143
 30
0.0
 10
227.7299330183653
 20
115.1118678161948
 30
0.0
 10
227.6345735606778
 20
115.1231461585772
 30
0.0
 10
227.586914651723
 20
115.128782867361
 30
0.0
  0
SPLINE
  5
211
330
1F
100
AcDbEntity
  8
0
  6
Continuous
 62
     7
370
    18
100
AcDbSpline
210
0.0
220
0.0
230
1.0
 70
     8
 71
     3
 72
    12
 73
     8
 74
     0
 42
0.000000001
 43
0.00000001
 40
0.0
 40
0.0
 40
0.0
 40
0.0
 40
0.1858835197478837
 40
0.3723018513499671
 40
0.5590684864252748
 40
0.7793243380015261
 40
0.9999999999999999
 40
0.9999999999999999
 40
0.9999999999999999
 40
0.9999999999999999
 10
227.5814944986542
 20
114.1681649696337
 30
0.0
 10
227.6239958018374
 20
114.1736869601203
 30
0.0
 10
227.7091206901617
 20
114.1847468286017
 30
0.0
 10
227.809908522479
 20
114.2696353554851
 30
0.0
 10
227.8857991519252
 20
114.3812069097044
 30
0.0
 10
227.9281454018958
 20
114.5195201815776
 30
0.0
 10
227.932194770816
 20
114.6193554835442
 30
0.0
 10
227.9342213829759
 20
114.6693206610695
 30
0.0
  0
SPLINE
  5
212
330
1F
100
AcDbEntity
  8
0
  6
Continuous
 62
     7
370
    18
100
AcDbSpline
210
0.0
220
0.0
230
1.0
 70
     8
 71
     3
 72
    11
 73
     7
 74
     0
 42
0.000000001
 43
0.00000001
 40
0.0
 40
0.0
 40
0.0
 40
0.0
 40
0.2811074381184349
 40
0.5611160017532801
 40
0.7809929910720532
 40
1.0
 40
1.0
 40
1.0
 40
1.0
 10
227.2671256206653
 20
114.5684224270201
 30
0.0
 10
227.2753413496182
 20
114.5167761773013
 30
0.0
 10
227.2917406914938
 20
114.4136855677402
 30
0.0
 10
227.3559954767948
 20
114.2813973196062
 30
0.0
 10
227.4583730348112
 20
114.1864459806279
 30
0.0
 10
227.5405082817323
 20
114.1742505818314
 30
0.0
 10
227.5814944986542
 20
114.1681649696337
 30
0.0
  0
LINE
  5
213
330
1F
100
AcDbEntity
  8
0
  6
Continuous
 62
     7
370
    18
100
AcDbLine
 10
227.0536549767
 20
114.5417385965
 30
0.0
 11
227.2671256207
 21
114.568422427
 31
0.0
  0
SPLINE
  5
214
330
1F
100
AcDbEntity
  8
0
  6
Continuous
 62
     7
370
    18
100
AcDbSpline
210
0.0
220
0.0
230
1.0
 70
     8
 71
     3
 72
    12
 73
     8
 74
     0
 42
0.000000001
 43
0.00000001
 40
0.0
 40
0.0
 40
0.0
 40
0.0
 40
0.186588588665428
 40
0.373045704186193
 40
0.5597053661028951
 40
0.7796179230979425
 40
0.9999999999999999
 40
0.9999999999999999
 40
0.9999999999999999
 40
0.9999999999999999
 10
227.5835791729114
 20
113.9546943256943
 30
0.0
 10
227.5287621996451
 20
113.9590561737391
 30
0.0
 10
227.4191668779818
 20
113.9677767964046
 30
0.0
 10
227.2734734030575
 20
114.0515931596835
 30
0.0
 10
227.1544262046875
 20
114.1796317067312
 30
0.0
 10
227.0774858064811
 20
114.3499331757483
 30
0.0
 10
227.061604231891
 20
114.4777580197925
 30
0.0
 10
227.053654976726
 20
114.5417385965277
 30
0.0
  0
SPLINE
  5
215
330
1F
100
AcDbEntity
  8
0
  6
Continuous
 62
     7
370
    18
100
AcDbSpline
210
0.0
220
0.0
230
1.0
 70
     8
 71
     3
 72
    13
 73
     9
 74
     0
 42
0.000000001
 43
0.00000001
 40
0.0
 40
0.0
 40
0.0
 40
0.0
 40
0.1868890796518116
 40
0.3736670037034776
 40
0.5603596573753089
 40
0.706943301333559
 40
0.8533827747571276
 40
1.0
 40
1.0
 40
1.0
 40
1.0
 10
228.1476920269153
 20
114.68099483691
 30
0.0
 10
228.1445984468732
 20
114.617076018093
 30
0.0
 10
228.1384131267505
 20
114.489276397312
 30
0.0
 10
228.0812498111091
 20
114.304504521604
 30
0.0
 10
227.9904657985933
 20
114.1497394594706
 30
0.0
 10
227.8725967039992
 20
114.0334797766075
 30
0.0
 10
227.7344126328005
 20
113.9652436202733
 30
0.0
 10
227.6338773192425
 20
113.9582121788472
 30
0.0
 10
227.5835791729114
 20
113.9546943256943
 30
0.0
  0
LINE
  5
216
330
1F
100
AcDbEntity
  8
0
  6
Continuous
 62
     7
370
    18
100
AcDbLine
 10
226.199772401
 20
113.9813781562
 30
0.0
 11
225.986301757
 21
113.9813781562
 31
0.0
  0
SPLINE
  5
217
330
1F
100
AcDbEntity
  8
0
  6
Continuous
 62
     7
370
    18
100
AcDbSpline
210
0.0
220
0.0
230
1.0
 70
     8
 71
     3
 72
    12
 73
     8
 74
     0
 42
0.000000001
 43
0.00000001
 40
0.0
 40
0.0
 40
0.0
 40
0.0
 40
0.1865994905629258
 40
0.3732882655511077
 40
0.5600123352708865
 40
0.7800196168841578
 40
1.0
 40
1.0
 40
1.0
 40
1.0
 10
226.8401843327866
 20
115.8129729585808
 30
0.0
 10
226.7708585149031
 20
115.7121014104088
 30
0.0
 10
226.6321737080069
 20
115.5103100488837
 30
0.0
 10
226.4796037496984
 20
115.1753072217032
 30
0.0
 10
226.3451997662511
 20
114.8108030653631
 30
0.0
 10
226.2409712439324
 20
114.4121053345862
 30
0.0
 10
226.2135047889056
 20
114.1249480305649
 30
0.0
 10
226.1997724009684
 20
113.9813781561868
 30
0.0
  0
LINE
  5
218
330
1F
100
AcDbEntity
  8
0
  6
Continuous
 62
     7
370
    18
100
AcDbLine
 10
226.8401843328
 20
116.0093492736
 30
0.0
 11
226.8401843328
 21
115.8129729586
 31
0.0
  0
LINE
  5
219
330
1F
100
AcDbEntity
  8
0
  6
Continuous
 62
     7
370
    18
100
AcDbLine
 10
225.7461472826
 20
116.0093492736
 30
0.0
 11
226.8401843328
 21
116.0093492736
 31
0.0
  0
LINE
  5
21A
330
1F
100
AcDbEntity
  8
0
  6
Continuous
 62
     7
370
    18
100
AcDbLine
 10
225.7461472826
 20
115.7691947992
 30
0.0
 11
225.7461472826
 21
116.0093492736
 31
0.0
  0
LINE
  5
21B
330
1F
100
AcDbEntity
  8
0
  6
Continuous
 62
     7
370
    18
100
AcDbLine
 10
226.6267136888
 20
115.7691947992
 30
0.0
 11
225.7461472826
 21
115.7691947992
 31
0.0
  0
SPLINE
  5
21C
330
1F
100
AcDbEntity
  8
0
  6
Continuous
 62
     7
370
    18
100
AcDbSpline
210
0.0
220
0.0
230
1.0
 70
     8
 71
     3
 72
    12
 73
     8
 74
     0
 42
0.000000001
 43
0.00000001
 40
0.0
 40
0.0
 40
0.0
 40
0.0
 40
0.1866068624921611
 40
0.3733314982619458
 40
0.5600576112292265
 40
0.780080087479076
 40
0.9999999999999999
 40
0.9999999999999999
 40
0.9999999999999999
 40
0.9999999999999999
 10
225.986301757029
 20
113.9813781561868
 30
0.0
 10
225.9956203156212
 20
114.1009261299078
 30
0.0
 10
226.0142633140319
 20
114.3400975277194
 30
0.0
 10
226.0984924251932
 20
114.6907662608978
 30
0.0
 10
226.2182461465834
 20
115.0523542198621
 30
0.0
 10
226.3858970632178
 20
115.4200952381541
 30
0.0
 10
226.5464539571754
 20
115.6528463659205
 30
0.0
 10
226.6267136888472
 20
115.7691947991792
 30
0.0
  0
LINE
  5
21D
330
1F
100
AcDbEntity
  8
0
  6
Continuous
 62
     7
370
    18
100
AcDbLine
 10
224.9456323678
 20
114.8352607319
 30
0.0
 11
225.5860442996
 21
114.8352607319
 31
0.0
  0
LINE
  5
21E
330
1F
100
AcDbEntity
  8
0
  6
Continuous
 62
     7
370
    18
100
AcDbLine
 10
224.9456323678
 20
114.5951062575
 30
0.0
 11
224.9456323678
 21
114.8352607319
 31
0.0
  0
LINE
  5
21F
330
1F
100
AcDbEntity
  8
0
  6
Continuous
 62
     7
370
    18
100
AcDbLine
 10
225.5860442996
 20
114.5951062575
 30
0.0
 11
224.9456323678
 21
114.5951062575
 31
0.0
  0
LINE
  5
220
330
1F
100
AcDbEntity
  8
0
  6
Continuous
 62
     7
370
    18
100
AcDbLine
 10
225.5860442996
 20
114.8352607319
 30
0.0
 11
225.5860442996
 21
114.5951062575
 31
0.0
  0
SPLINE
  5
221
330
1F
100
AcDbEntity
  8
0
  6
Continuous
 62
     7
370
    18
100
AcDbSpline
210
0.0
220
0.0
230
1.0
 70
     8
 71
     3
 72
    12
 73
     8
 74
     0
 42
0.000000001
 43
0.00000001
 40
0.0
 40
0.0
 40
0.0
 40
0.0
 40
0.1871057595240078
 40
0.3740211604078918
 40
0.5608338669252976
 40
0.780358512659648
 40
1.0
 40
1.0
 40
1.0
 40
1.0
 10
224.7588455543775
 20
114.5780119286033
 30
0.0
 10
224.7558964460538
 20
114.5203183785946
 30
0.0
 10
224.7500012297858
 20
114.404989975144
 30
0.0
 10
224.6905009046419
 20
114.2395676141534
 30
0.0
 10
224.5805866818174
 20
114.0920719648542
 30
0.0
 10
224.4178936055624
 20
113.9748601677161
 30
0.0
 10
224.2813618659862
 20
113.9614174651934
 30
0.0
 10
224.2130778338371
 20
113.9546943256943
 30
0.0
  0
SPLINE
  5
222
330
1F
100
AcDbEntity
  8
0
  6
Continuous
 62
     7
370
    18
100
AcDbSpline
210
0.0
220
0.0
230
1.0
 70
     8
 71
     3
 72
    11
 73
     7
 74
     0
 42
0.000000001
 43
0.00000001
 40
0.0
 40
0.0
 40
0.0
 40
0.0
 40
0.2796220600248636
 40
0.5590245428560683
 40
0.7793847317261612
 40
1.0
 40
1.0
 40
1.0
 40
1.0
 10
224.4315516959938
 20
115.1087699944917
 30
0.0
 10
224.4878182246084
 20
115.0809347085436
 30
0.0
 10
224.6003070977467
 20
115.0252859947009
 30
0.0
 10
224.7040767871441
 20
114.8788640931375
 30
0.0
 10
224.7520108336755
 20
114.7249876223074
 30
0.0
 10
224.7565664357573
 20
114.6270227155604
 30
0.0
 10
224.7588455543775
 20
114.5780119286033
 30
0.0
  0
SPLINE
  5
223
330
1F
100
AcDbEntity
  8
0
  6
Continuous
 62
     7
370
    18
100
AcDbSpline
210
0.0
220
0.0
230
1.0
 70
     8
 71
     3
 72
    11
 73
     7
 74
     0
 42
0.000000001
 43
0.00000001
 40
0.0
 40
0.0
 40
0.0
 40
0.0
 40
0.2801901752489555
 40
0.5597317672418782
 40
0.7798035967389134
 40
1.0
 40
1.0
 40
1.0
 40
1.0
 10
224.6787940629002
 20
115.5232032368271
 30
0.0
 10
224.6761500396491
 20
115.4752052426992
 30
0.0
 10
224.6708681135229
 20
115.3793203600354
 30
0.0
 10
224.6157360488795
 20
115.254623002474
 30
0.0
 10
224.5313599009634
 20
115.1623909206138
 30
0.0
 10
224.4648273727699
 20
115.1266470077755
 30
0.0
 10
224.4315516959938
 20
115.1087699944917
 30
0.0
  0
SPLINE
  5
224
330
1F
100
AcDbEntity
  8
0
  6
Continuous
 62
     7
370
    18
100
AcDbSpline
210
0.0
220
0.0
230
1.0
 70
     8
 71
     3
 72
    12
 73
     8
 74
     0
 42
0.000000001
 43
0.00000001
 40
0.0
 40
0.0
 40
0.0
 40
0.0
 40
0.1866818949369841
 40
0.3730939207975811
 40
0.5598445729636976
 40
0.7796788980924657
 40
1.0
 40
1.0
 40
1.0
 40
1.0
 10
224.2097423550256
 20
116.0627169345958
 30
0.0
 10
224.2596926763968
 20
116.0586814690556
 30
0.0
 10
224.359521110492
 20
116.0506163716814
 30
0.0
 10
224.4921519197493
 20
115.9734953209792
 30
0.0
 10
224.5982754515528
 20
115.8550919789058
 30
0.0
 10
224.668764383131
 20
115.6994743019302
 30
0.0
 10
224.6754483723243
 20
115.5820035629493
 30
0.0
 10
224.6787940629002
 20
115.5232032368271
 30
0.0
  0
SPLINE
  5
225
330
1F
100
AcDbEntity
  8
0
  6
Continuous
 62
     7
370
    18
100
AcDbSpline
210
0.0
220
0.0
230
1.0
 70
     8
 71
     3
 72
    12
 73
     8
 74
     0
 42
0.000000001
 43
0.00000001
 40
0.0
 40
0.0
 40
0.0
 40
0.0
 40
0.1871377587295348
 40
0.3740411921344247
 40
0.5608494686677246
 40
0.7803659435040499
 40
1.0
 40
1.0
 40
1.0
 40
1.0
 10
223.7448599956653
 20
115.531541933856
 30
0.0
 10
223.7474090929007
 20
115.5807416876482
 30
0.0
 10
223.7525040955088
 20
115.6790795895559
 30
0.0
 10
223.8026378191912
 20
115.8202593234251
 30
0.0
 10
223.89569495518
 20
115.9466971236261
 30
0.0
 10
224.0351810401083
 20
116.0456941760366
 30
0.0
 10
224.1515448646609
 20
116.0570416689867
 30
0.0
 10
224.2097423550256
 20
116.0627169345958
 30
0.0
  0
SPLINE
  5
226
330
1F
100
AcDbEntity
  8
0
  6
Continuous
 62
     7
370
    18
100
AcDbSpline
210
0.0
220
0.0
230
1.0
 70
     8
 71
     3
 72
    11
 73
     7
 74
     0
 42
0.000000001
 43
0.00000001
 40
0.0
 40
0.0
 40
0.0
 40
0.0
 40
0.279839997957378
 40
0.5592260384591591
 40
0.7795665615265365
 40
0.9999999999999999
 40
0.9999999999999999
 40
0.9999999999999999
 40
0.9999999999999999
 10
223.9946039716804
 20
115.1087699944917
 30
0.0
 10
223.951661508936
 20
115.1326275443683
 30
0.0
 10
223.8658462448653
 20
115.1803039423179
 30
0.0
 10
223.7862696646853
 20
115.2955855588864
 30
0.0
 10
223.7495775320286
 20
115.4164385553633
 30
0.0
 10
223.7464327287619
 20
115.4931687494354
 30
0.0
 10
223.7448599956653
 20
115.531541933856
 30
0.0
  0
SPLINE
  5
227
330
1F
100
AcDbEntity
  8
0
  6
Continuous
 62
     7
370
    18
100
AcDbSpline
210
0.0
220
0.0
230
1.0
 70
     8
 71
     3
 72
    11
 73
     7
 74
     0
 42
0.000000001
 43
0.00000001
 40
0.0
 40
0.0
 40
0.0
 40
0.0
 40
0.2804755498465858
 40
0.5600957930369873
 40
0.7800256682201219
 40
1.0
 40
1.0
 40
1.0
 40
1.0
 10
223.6648085041881
 20
114.5850998210778
 30
0.0
 10
223.668134897135
 20
114.6474862534992
 30
0.0
 10
223.6747775392356
 20
114.7720688717019
 30
0.0
 10
223.7460171641164
 20
114.9339025802958
 30
0.0
 10
223.8578088450499
 20
115.0533264315204
 30
0.0
 10
223.9490025241343
 20
115.0902875617407
 30
0.0
 10
223.9946039716804
 20
115.1087699944917
 30
0.0
  0
SPLINE
  5
228
330
1F
100
AcDbEntity
  8
0
  6
Continuous
 62
     7
370
    18
100
AcDbSpline
210
0.0
220
0.0
230
1.0
 70
     8
 71
     3
 72
    12
 73
     8
 74
     0
 42
0.000000001
 43
0.00000001
 40
0.0
 40
0.0
 40
0.0
 40
0.0
 40
0.18664824917918
 40
0.3730988090506984
 40
0.5597919176482347
 40
0.779654520329358
 40
1.0
 40
1.0
 40
1.0
 40
1.0
 10
224.2130778338371
 20
113.9546943256943
 30
0.0
 10
224.1546661463042
 20
113.9594547283896
 30
0.0
 10
224.0379046382322
 20
113.9689704917789
 30
0.0
 10
223.8825289654981
 20
114.0583923139325
 30
0.0
 10
223.7569913434587
 20
114.195962015435
 30
0.0
 10
223.6764591400986
 20
114.3790135980354
 30
0.0
 10
223.6686948884357
 20
114.5163541957711
 30
0.0
 10
223.6648085041881
 20
114.5850998210778
 30
0.0
  0
SPLINE
  5
229
330
1F
100
AcDbEntity
  8
0
  6
Continuous
 62
     7
370
    18
100
AcDbSpline
210
0.0
220
0.0
230
1.0
 70
     8
 71
     3
 72
    10
 73
     6
 74
     0
 42
0.000000001
 43
0.00000001
 40
0.0
 40
0.0
 40
0.0
 40
0.0
 40
0.2795751783825469
 40
0.5597049368157196
 40
1.0
 40
1.0
 40
1.0
 40
1.0
 10
223.2837300499681
 20
115.8459108118449
 30
0.0
 10
223.3196085908736
 20
115.7734076643779
 30
0.0
 10
223.3914368432482
 20
115.6282575483813
 30
0.0
 10
223.4410349665521
 20
115.3417358883955
 30
0.0
 10
223.4474296707789
 20
115.1345162069076
 30
0.0
 10
223.4513378602487
 20
115.0078717604422
 30
0.0
  0
SPLINE
  5
22A
330
1F
100
AcDbEntity
  8
0
  6
Continuous
 62
     7
370
    18
100
AcDbSpline
210
0.0
220
0.0
230
1.0
 70
     8
 71
     3
 72
    11
 73
     7
 74
     0
 42
0.000000001
 43
0.00000001
 40
0.0
 40
0.0
 40
0.0
 40
0.0
 40
0.2798903849624104
 40
0.5594964420644629
 40
0.7796718965173899
 40
1.0
 40
1.0
 40
1.0
 40
1.0
 10
222.9055701397083
 20
116.0627169345958
 30
0.0
 10
222.9483270814288
 20
116.0598644163239
 30
0.0
 10
223.0337975300453
 20
116.0541622775232
 30
0.0
 10
223.1425677851482
 20
116.0005371955938
 30
0.0
 10
223.226088110661
 20
115.9284978275089
 30
0.0
 10
223.2645116318594
 20
115.8734461761379
 30
0.0
 10
223.2837300499681
 20
115.8459108118449
 30
0.0
  0
SPLINE
  5
22B
330
1F
100
AcDbEntity
  8
0
  6
Continuous
 62
     7
370
    18
100
AcDbSpline
210
0.0
220
0.0
230
1.0
 70
     8
 71
     3
 72
    13
 73
     9
 74
     0
 42
0.000000001
 43
0.00000001
 40
0.0
 40
0.0
 40
0.0
 40
0.0
 40
0.2504890583456495
 40
0.5006738274425616
 40
0.6258446378555225
 40
0.7507584155659042
 40
0.87530070992993
 40
1.0
 40
1.0
 40
1.0
 40
1.0
 10
222.3573008100593
 20
115.0078717604422
 30
0.0
 10
222.3600194246744
 20
115.1181119577999
 30
0.0
 10
222.3654533513843
 20
115.3384584348623
 30
0.0
 10
222.4155067234259
 20
115.6118858704096
 30
0.0
 10
222.5004422488031
 20
115.8163434046947
 30
0.0
 10
222.5974303244922
 20
115.9518560257739
 30
0.0
 10
222.7393859875758
 20
116.0479553078623
 30
0.0
 10
222.8501521653579
 20
116.057794326506
 30
0.0
 10
222.9055701397083
 20
116.0627169345958
 30
0.0
  0
SPLINE
  5
22C
330
1F
100
AcDbEntity
  8
0
  6
Continuous
 62
     7
370
    18
100
AcDbSpline
210
0.0
220
0.0
230
1.0
 70
     8
 71
     3
 72
    13
 73
     9
 74
     0
 42
0.000000001
 43
0.00000001
 40
0.0
 40
0.0
 40
0.0
 40
0.0
 40
0.1245870753534858
 40
0.2492227148385385
 40
0.3742192396120906
 40
0.4992998133209621
 40
0.7494812006579978
 40
1.0
 40
1.0
 40
1.0
 40
1.0
 10
222.9030685305997
 20
113.9546943256943
 30
0.0
 10
222.8478048873108
 20
113.9603310219714
 30
0.0
 10
222.7372560589253
 20
113.9716066117138
 30
0.0
 10
222.5984671027026
 20
114.0702396245501
 30
0.0
 10
222.4954279940195
 20
114.2002439611101
 30
0.0
 10
222.4094041088511
 20
114.4045899121637
 30
0.0
 10
222.3642332222319
 20
114.6780920913495
 30
0.0
 10
222.3596126520206
 20
114.8978958302729
 30
0.0
 10
222.3573008100593
 20
115.0078717604422
 30
0.0
  0
SPLINE
  5
22D
330
1F
100
AcDbEntity
  8
0
  6
Continuous
 62
     7
370
    18
100
AcDbSpline
210
0.0
220
0.0
230
1.0
 70
     8
 71
     3
 72
    13
 73
     9
 74
     0
 42
0.000000001
 43
0.00000001
 40
0.0
 40
0.0
 40
0.0
 40
0.0
 40
0.2504702058475057
 40
0.5006494994159216
 40
0.6258027062132778
 40
0.7507410958263502
 40
0.8752785399750088
 40
1.0
 40
1.0
 40
1.0
 40
1.0
 10
223.4513378602487
 20
115.0078717604422
 30
0.0
 10
223.4486243649936
 20
114.8977393048906
 30
0.0
 10
223.4432005261121
 20
114.6776023087367
 30
0.0
 10
223.392430668388
 20
114.4046717085007
 30
0.0
 10
223.3080789209524
 20
114.2002475960494
 30
0.0
 10
223.2111961609959
 20
114.0647927673171
 30
0.0
 10
223.0691195441271
 20
113.9691145025152
 30
0.0
 10
222.9584461034039
 20
113.9595034164357
 30
0.0
 10
222.9030685305997
 20
113.9546943256943
 30
0.0
  0
SPLINE
  5
22E
330
1F
100
AcDbEntity
  8
0
  6
Continuous
 62
     7
370
    18
100
AcDbSpline
210
0.0
220
0.0
230
1.0
 70
     8
 71
     3
 72
    12
 73
     8
 74
     0
 42
0.000000001
 43
0.00000001
 40
0.0
 40
0.0
 40
0.0
 40
0.0
 40
0.1861323399318238
 40
0.372610881981555
 40
0.5594136204052347
 40
0.779503096820601
 40
0.9999999999999999
 40
0.9999999999999999
 40
0.9999999999999999
 40
0.9999999999999999
 10
221.642674474684
 20
115.3422535113004
 30
0.0
 10
221.7003167896191
 20
115.3355676109175
 30
0.0
 10
221.8157086329457
 20
115.322183374522
 30
0.0
 10
221.9578543577743
 20
115.2150717303585
 30
0.0
 10
222.0690243765785
 20
115.0695104125457
 30
0.0
 10
222.1348212763594
 20
114.8841858020477
 30
0.0
 10
222.140825352135
 20
114.7487669009363
 30
0.0
 10
222.1438301661199
 20
114.68099483691
 30
0.0
  0
SPLINE
  5
22F
330
1F
100
AcDbEntity
  8
0
  6
Continuous
 62
     7
370
    18
100
AcDbSpline
210
0.0
220
0.0
230
1.0
 70
     8
 71
     3
 72
     9
 73
     5
 74
     0
 42
0.000000001
 43
0.00000001
 40
0.0
 40
0.0
 40
0.0
 40
0.0
 40
0.5597945537684227
 40
1.0
 40
1.0
 40
1.0
 40
1.0
 10
221.3383120331299
 20
115.2617850849717
 30
0.0
 10
221.3924328391703
 20
115.2875930901172
 30
0.0
 10
221.4891126044093
 20
115.3336957271861
 30
0.0
 10
221.5957375798089
 20
115.3396377850617
 30
0.0
 10
221.642674474684
 20
115.3422535113004
 30
0.0
  0
LINE
  5
230
330
1F
100
AcDbEntity
  8
0
  6
Continuous
 62
     7
370
    18
100
AcDbLine
 10
221.4154449806
 20
115.7691947992
 30
0.0
 11
221.3383120331
 21
115.261785085
 31
0.0
  0
LINE
  5
231
330
1F
100
AcDbEntity
  8
0
  6
Continuous
 62
     7
370
    18
100
AcDbLine
 10
222.0637786746
 20
115.7691947992
 30
0.0
 11
221.4154449806
 21
115.7691947992
 31
0.0
  0
LINE
  5
232
330
1F
100
AcDbEntity
  8
0
  6
Continuous
 62
     7
370
    18
100
AcDbLine
 10
222.0637786746
 20
116.0093492736
 30
0.0
 11
222.0637786746
 21
115.7691947992
 31
0.0
  0
LINE
  5
233
330
1F
100
AcDbEntity
  8
0
  6
Continuous
 62
     7
370
    18
100
AcDbLine
 10
221.2365799294
 20
116.0093492736
 30
0.0
 11
222.0637786746
 21
116.0093492736
 31
0.0
  0
LINE
  5
234
330
1F
100
AcDbEntity
  8
0
  6
Continuous
 62
     7
370
    18
100
AcDbLine
 10
221.0764769464
 20
114.9565887737
 30
0.0
 11
221.2365799294
 21
116.0093492736
 31
0.0
  0
LINE
  5
235
330
1F
100
AcDbEntity
  8
0
  6
Continuous
 62
     7
370
    18
100
AcDbLine
 10
221.2899475904
 20
114.9261525296
 30
0.0
 11
221.0764769464
 21
114.9565887737
 31
0.0
  0
SPLINE
  5
236
330
1F
100
AcDbEntity
  8
0
  6
Continuous
 62
     7
370
    18
100
AcDbSpline
210
0.0
220
0.0
230
1.0
 70
     8
 71
     3
 72
    10
 73
     6
 74
     0
 42
0.000000001
 43
0.00000001
 40
0.0
 40
0.0
 40
0.0
 40
0.0
 40
0.2801682771676897
 40
0.5607715634932476
 40
1.0
 40
1.0
 40
1.0
 40
1.0
 10
221.5830527909276
 20
115.128782867361
 30
0.0
 10
221.5480647776899
 20
115.124915899511
 30
0.0
 10
221.4780344263412
 20
115.1171759596821
 30
0.0
 10
221.3671899137842
 20
115.0505214173288
 30
0.0
 10
221.319218741368
 20
114.9732823973964
 30
0.0
 10
221.2899475903623
 20
114.9261525295591
 30
0.0
  0
SPLINE
  5
237
330
1F
100
AcDbEntity
  8
0
  6
Continuous
 62
     7
370
    18
100
AcDbSpline
210
0.0
220
0.0
230
1.0
 70
     8
 71
     3
 72
    11
 73
     7
 74
     0
 42
0.000000001
 43
0.00000001
 40
0.0
 40
0.0
 40
0.0
 40
0.0
 40
0.2810318196216979
 40
0.5605860755662309
 40
0.7803889752949
 40
1.0
 40
1.0
 40
1.0
 40
1.0
 10
221.9303595221805
 20
114.6693206610695
 30
0.0
 10
221.927503029015
 20
114.7298724091987
 30
0.0
 10
221.9218050610921
 20
114.8506575462627
 30
0.0
 10
221.847763213851
 20
115.0057588397143
 30
0.0
 10
221.7260711575699
 20
115.1118678161948
 30
0.0
 10
221.6307116998824
 20
115.1231461585772
 30
0.0
 10
221.5830527909276
 20
115.128782867361
 30
0.0
  0
SPLINE
  5
238
330
1F
100
AcDbEntity
  8
0
  6
Continuous
 62
     7
370
    18
100
AcDbSpline
210
0.0
220
0.0
230
1.0
 70
     8
 71
     3
 72
    12
 73
     8
 74
     0
 42
0.000000001
 43
0.00000001
 40
0.0
 40
0.0
 40
0.0
 40
0.0
 40
0.185883519747884
 40
0.3723018513499677
 40
0.5590684864252757
 40
0.7793243380015258
 40
1.0
 40
1.0
 40
1.0
 40
1.0
 10
221.5776326378588
 20
114.1681649696337
 30
0.0
 10
221.6201339410419
 20
114.1736869601203
 30
0.0
 10
221.7052588293663
 20
114.1847468286017
 30
0.0
 10
221.8060466616836
 20
114.2696353554851
 30
0.0
 10
221.8819372911298
 20
114.3812069097044
 30
0.0
 10
221.9242835411003
 20
114.5195201815776
 30
0.0
 10
221.9283329100205
 20
114.6193554835442
 30
0.0
 10
221.9303595221805
 20
114.6693206610695
 30
0.0
  0
SPLINE
  5
239
330
1F
100
AcDbEntity
  8
0
  6
Continuous
 62
     7
370
    18
100
AcDbSpline
210
0.0
220
0.0
230
1.0
 70
     8
 71
     3
 72
    11
 73
     7
 74
     0
 42
0.000000001
 43
0.00000001
 40
0.0
 40
0.0
 40
0.0
 40
0.0
 40
0.28110743811844
 40
0.5611160017532828
 40
0.7809929910720561
 40
1.0
 40
1.0
 40
1.0
 40
1.0
 10
221.2632637598699
 20
114.5684224270201
 30
0.0
 10
221.2714794888227
 20
114.5167761773013
 30
0.0
 10
221.2878788306984
 20
114.4136855677402
 30
0.0
 10
221.3521336159993
 20
114.2813973196062
 30
0.0
 10
221.4545111740158
 20
114.1864459806279
 30
0.0
 10
221.5366464209368
 20
114.1742505818314
 30
0.0
 10
221.5776326378588
 20
114.1681649696337
 30
0.0
  0
LINE
  5
23A
330
1F
100
AcDbEntity
  8
0
  6
Continuous
 62
     7
370
    18
100
AcDbLine
 10
221.0497931159
 20
114.5417385965
 30
0.0
 11
221.2632637599
 21
114.568422427
 31
0.0
  0
SPLINE
  5
23B
330
1F
100
AcDbEntity
  8
0
  6
Continuous
 62
     7
370
    18
100
AcDbSpline
210
0.0
220
0.0
230
1.0
 70
     8
 71
     3
 72
    12
 73
     8
 74
     0
 42
0.000000001
 43
0.00000001
 40
0.0
 40
0.0
 40
0.0
 40
0.0
 40
0.1865885886654281
 40
0.3730457041861916
 40
0.5597053661028952
 40
0.7796179230979429
 40
1.0
 40
1.0
 40
1.0
 40
1.0
 10
221.579717312116
 20
113.9546943256943
 30
0.0
 10
221.5249003388497
 20
113.9590561737391
 30
0.0
 10
221.4153050171864
 20
113.9677767964046
 30
0.0
 10
221.2696115422621
 20
114.0515931596835
 30
0.0
 10
221.150564343892
 20
114.1796317067312
 30
0.0
 10
221.0736239456857
 20
114.3499331757483
 30
0.0
 10
221.0577423710955
 20
114.4777580197925
 30
0.0
 10
221.0497931159305
 20
114.5417385965277
 30
0.0
  0
SPLINE
  5
23C
330
1F
100
AcDbEntity
  8
0
  6
Continuous
 62
     7
370
    18
100
AcDbSpline
210
0.0
220
0.0
230
1.0
 70
     8
 71
     3
 72
    13
 73
     9
 74
     0
 42
0.000000001
 43
0.00000001
 40
0.0
 40
0.0
 40
0.0
 40
0.0
 40
0.1868890796518113
 40
0.3736670037034764
 40
0.5603596573753046
 40
0.7069433013335578
 40
0.8533827747571263
 40
1.0
 40
1.0
 40
1.0
 40
1.0
 10
222.1438301661199
 20
114.68099483691
 30
0.0
 10
222.1407365860777
 20
114.617076018093
 30
0.0
 10
222.1345512659551
 20
114.489276397312
 30
0.0
 10
222.0773879503137
 20
114.304504521604
 30
0.0
 10
221.9866039377979
 20
114.1497394594707
 30
0.0
 10
221.8687348432038
 20
114.0334797766075
 30
0.0
 10
221.730550772005
 20
113.9652436202733
 30
0.0
 10
221.630015458447
 20
113.9582121788472
 30
0.0
 10
221.579717312116
 20
113.9546943256943
 30
0.0
  0
LINE
  5
23D
330
1F
100
AcDbEntity
  8
0
  6
Continuous
 62
     7
370
    18
100
AcDbLine
 10
219.8577763757
 20
113.9813781562
 30
0.0
 11
219.3687117949
 21
115.7746149522
 31
0.0
  0
LINE
  5
23E
330
1F
100
AcDbEntity
  8
0
  6
Continuous
 62
     7
370
    18
100
AcDbLine
 10
220.0762502378
 20
113.9813781562
 30
0.0
 11
219.8577763757
 21
113.9813781562
 31
0.0
  0
LINE
  5
23F
330
1F
100
AcDbEntity
  8
0
  6
Continuous
 62
     7
370
    18
100
AcDbLine
 10
220.5694841671
 20
115.6774691319
 30
0.0
 11
220.0762502378
 21
113.9813781562
 31
0.0
  0
LINE
  5
240
330
1F
100
AcDbEntity
  8
0
  6
Continuous
 62
     7
370
    18
100
AcDbLine
 10
220.5694841671
 20
113.9813781562
 30
0.0
 11
220.5694841671
 21
115.6774691319
 31
0.0
  0
LINE
  5
241
330
1F
100
AcDbEntity
  8
0
  6
Continuous
 62
     7
370
    18
100
AcDbLine
 10
220.782954811
 20
113.9813781562
 30
0.0
 11
220.5694841671
 21
113.9813781562
 31
0.0
  0
LINE
  5
242
330
1F
100
AcDbEntity
  8
0
  6
Continuous
 62
     7
370
    18
100
AcDbLine
 10
220.782954811
 20
116.0360331041
 30
0.0
 11
220.782954811
 21
113.9813781562
 31
0.0
  0
LINE
  5
243
330
1F
100
AcDbEntity
  8
0
  6
Continuous
 62
     7
370
    18
100
AcDbLine
 10
220.4806770437
 20
116.0360331041
 30
0.0
 11
220.782954811
 21
116.0360331041
 31
0.0
  0
LINE
  5
244
330
1F
100
AcDbEntity
  8
0
  6
Continuous
 62
     7
370
    18
100
AcDbLine
 10
220.0620744529
 20
114.6063634985
 30
0.0
 11
220.4806770437
 21
116.0360331041
 31
0.0
  0
SPLINE
  5
245
330
1F
100
AcDbEntity
  8
0
  6
Continuous
 62
     7
370
    18
100
AcDbSpline
210
0.0
220
0.0
230
1.0
 70
     8
 71
     3
 72
     9
 73
     5
 74
     0
 42
0.000000001
 43
0.00000001
 40
0.0
 40
0.0
 40
0.0
 40
0.0
 40
0.5599947003108225
 40
1.0
 40
1.0
 40
1.0
 40
1.0
 10
219.9690979809873
 20
114.2769849658606
 30
0.0
 10
219.9860278873053
 20
114.3385887618895
 30
0.0
 10
220.016260148983
 20
114.4485965815969
 30
0.0
 10
220.0480755206947
 20
114.5581565373406
 30
0.0
 10
220.0620744528593
 20
114.6063634985015
 30
0.0
  0
LINE
  5
246
330
1F
100
AcDbEntity
  8
0
  6
Continuous
 62
     7
370
    18
100
AcDbLine
 10
219.8890464895
 20
114.5813474074
 30
0.0
 11
219.969097981
 21
114.2769849659
 31
0.0
  0
LINE
  5
247
330
1F
100
AcDbEntity
  8
0
  6
Continuous
 62
     7
370
    18
100
AcDbLine
 10
219.489205967
 20
116.0360331041
 30
0.0
 11
219.8890464895
 21
114.5813474074
 31
0.0
  0
LINE
  5
248
330
1F
100
AcDbEntity
  8
0
  6
Continuous
 62
     7
370
    18
100
AcDbLine
 10
219.155241151
 20
116.0360331041
 30
0.0
 11
219.489205967
 21
116.0360331041
 31
0.0
  0
LINE
  5
249
330
1F
100
AcDbEntity
  8
0
  6
Continuous
 62
     7
370
    18
100
AcDbLine
 10
219.155241151
 20
113.9813781562
 30
0.0
 11
219.155241151
 21
116.0360331041
 31
0.0
  0
LINE
  5
24A
330
1F
100
AcDbEntity
  8
0
  6
Continuous
 62
     7
370
    18
100
AcDbLine
 10
219.3687117949
 20
113.9813781562
 30
0.0
 11
219.155241151
 21
113.9813781562
 31
0.0
  0
LINE
  5
24B
330
1F
100
AcDbEntity
  8
0
  6
Continuous
 62
     7
370
    18
100
AcDbLine
 10
219.3687117949
 20
115.7746149522
 30
0.0
 11
219.3687117949
 21
113.9813781562
 31
0.0
  0
SPLINE
  5
24C
330
1F
100
AcDbEntity
  8
0
  6
Continuous
 62
     7
370
    18
100
AcDbSpline
210
0.0
220
0.0
230
1.0
 70
     8
 71
     3
 72
    14
 73
    10
 74
     0
 42
0.000000001
 43
0.00000001
 40
0.0
 40
0.0
 40
0.0
 40
0.0
 40
0.1250267645254266
 40
0.2499561862380696
 40
0.3747506313882859
 40
0.4996959194189195
 40
0.6663177050472614
 40
0.833099850767625
 40
1.0
 40
1.0
 40
1.0
 40
1.0
 10
218.1708579667088
 20
115.822562460164
 30
0.0
 10
218.1248303784953
 20
115.8197461298542
 30
0.0
 10
218.0328110380344
 20
115.8141156619613
 30
0.0
 10
217.9027233283394
 20
115.7616573629048
 30
0.0
 10
217.7948691866165
 20
115.6731273506084
 30
0.0
 10
217.7080653831663
 20
115.5455699902812
 30
0.0
 10
217.6453506470383
 20
115.3880192135133
 30
0.0
 10
217.6123597299626
 20
115.206300389402
 30
0.0
 10
217.6091729405851
 20
115.0837575619905
 30
0.0
 10
217.6075789824078
 20
115.0224644802427
 30
0.0
  0
SPLINE
  5
24D
330
1F
100
AcDbEntity
  8
0
  6
Continuous
 62
     7
370
    18
100
AcDbSpline
210
0.0
220
0.0
230
1.0
 70
     8
 71
     3
 72
    11
 73
     7
 74
     0
 42
0.000000001
 43
0.00000001
 40
0.0
 40
0.0
 40
0.0
 40
0.0
 40
0.2807713074051781
 40
0.5604369820882217
 40
0.7800147849953764
 40
1.0
 40
1.0
 40
1.0
 40
1.0
 10
218.6215645411199
 20
115.3956211722852
 30
0.0
 10
218.6029711162737
 20
115.4560101546016
 30
0.0
 10
218.5658574845292
 20
115.5765503170331
 30
0.0
 10
218.4621861567822
 20
115.7228172194941
 30
0.0
 10
218.3200354812731
 20
115.8105917363134
 30
0.0
 10
218.2206145212373
 20
115.8185697540531
 30
0.0
 10
218.1708579667088
 20
115.822562460164
 30
0.0
  0
LINE
  5
24E
330
1F
100
AcDbEntity
  8
0
  6
Continuous
 62
     7
370
    18
100
AcDbLine
 10
218.8350351851
 20
115.4489888333
 30
0.0
 11
218.6215645411
 21
115.3956211723
 31
0.0
  0
SPLINE
  5
24F
330
1F
100
AcDbEntity
  8
0
  6
Continuous
 62
     7
370
    18
100
AcDbSpline
210
0.0
220
0.0
230
1.0
 70
     8
 71
     3
 72
    12
 73
     8
 74
     0
 42
0.000000001
 43
0.00000001
 40
0.0
 40
0.0
 40
0.0
 40
0.0
 40
0.1866161660947007
 40
0.3730652985771178
 40
0.5597027812570801
 40
0.7796715026895155
 40
1.0
 40
1.0
 40
1.0
 40
1.0
 10
218.1796135985891
 20
116.0627169345958
 30
0.0
 10
218.2405738236102
 20
116.0582591213574
 30
0.0
 10
218.3624397102841
 20
116.0493474849135
 30
0.0
 10
218.5301121207496
 20
115.9679624935946
 30
0.0
 10
218.6730806087669
 20
115.835438066178
 30
0.0
 10
218.7778699625868
 20
115.6565774342611
 30
0.0
 10
218.815969733534
 20
115.5182227177582
 30
0.0
 10
218.8350351850593
 20
115.4489888332701
 30
0.0
  0
SPLINE
  5
250
330
1F
100
AcDbEntity
  8
0
  6
Continuous
 62
     7
370
    18
100
AcDbSpline
210
0.0
220
0.0
230
1.0
 70
     8
 71
     3
 72
    13
 73
     9
 74
     0
 42
0.000000001
 43
0.00000001
 40
0.0
 40
0.0
 40
0.0
 40
0.0
 40
0.1869886270143179
 40
0.3737840604657692
 40
0.5603785113196418
 40
0.7069405280508677
 40
0.8534458164057749
 40
1.0
 40
1.0
 40
1.0
 40
1.0
 10
217.3941083384684
 20
115.0224644802427
 30
0.0
 10
217.3973355958119
 20
115.1135212869201
 30
0.0
 10
217.40378677615
 20
115.2955408218852
 30
0.0
 10
217.4729357305901
 20
115.5616824742861
 30
0.0
 10
217.5970298782273
 20
115.7866541172299
 30
0.0
 10
217.7690247675007
 20
115.9481599974622
 30
0.0
 10
217.9648741775527
 20
116.0459213012161
 30
0.0
 10
218.1080258302415
 20
116.0571177674479
 30
0.0
 10
218.1796135985891
 20
116.0627169345958
 30
0.0
  0
SPLINE
  5
251
330
1F
100
AcDbEntity
  8
0
  6
Continuous
 62
     7
370
    18
100
AcDbSpline
210
0.0
220
0.0
230
1.0
 70
     8
 71
     3
 72
    14
 73
    10
 74
     0
 42
0.000000001
 43
0.00000001
 40
0.0
 40
0.0
 40
0.0
 40
0.0
 40
0.1249789553015499
 40
0.2498098163504278
 40
0.3745823232578647
 40
0.499571519515909
 40
0.6662781166416193
 40
0.8331039635850062
 40
0.9999999999999999
 40
0.9999999999999999
 40
0.9999999999999999
 40
0.9999999999999999
 10
218.1604345954227
 20
113.9546943256943
 30
0.0
 10
218.0987903616054
 20
113.9581824617311
 30
0.0
 10
217.9755749395225
 20
113.9651546005257
 30
0.0
 10
217.8008804285489
 20
114.0343556307546
 30
0.0
 10
217.65665358361
 20
114.1534480658364
 30
0.0
 10
217.5409921071081
 20
114.3246190827408
 30
0.0
 10
217.4532058904751
 20
114.5337852814418
 30
0.0
 10
217.4018101119466
 20
114.7760830260579
 30
0.0
 10
217.3966759562386
 20
114.9403258141554
 30
0.0
 10
217.3941083384684
 20
115.0224644802427
 30
0.0
  0
SPLINE
  5
252
330
1F
100
AcDbEntity
  8
0
  6
Continuous
 62
     7
370
    18
100
AcDbSpline
210
0.0
220
0.0
230
1.0
 70
     8
 71
     3
 72
    13
 73
     9
 74
     0
 42
0.000000001
 43
0.00000001
 40
0.0
 40
0.0
 40
0.0
 40
0.0
 40
0.1869090516643019
 40
0.3736796016941295
 40
0.5601136847103872
 40
0.7067311959183759
 40
0.8533138294591247
 40
1.0
 40
1.0
 40
1.0
 40
1.0
 10
218.8617190155517
 20
114.6484739184973
 30
0.0
 10
218.8458651397666
 20
114.5831457655246
 30
0.0
 10
218.8141691360903
 20
114.452537868449
 30
0.0
 10
218.7291061386715
 20
114.268542682109
 30
0.0
 10
218.6114279741548
 20
114.1202233866351
 30
0.0
 10
218.4690183863597
 20
114.0203717815482
 30
0.0
 10
218.3188679494261
 20
113.9638670633966
 30
0.0
 10
218.2132581417518
 20
113.9577526244852
 30
0.0
 10
218.1604345954227
 20
113.9546943256943
 30
0.0
  0
LINE
  5
253
330
1F
100
AcDbEntity
  8
0
  6
Continuous
 62
     7
370
    18
100
AcDbLine
 10
218.6482483716
 20
114.7018415795
 30
0.0
 11
218.8617190156
 21
114.6484739185
 31
0.0
  0
SPLINE
  5
254
330
1F
100
AcDbEntity
  8
0
  6
Continuous
 62
     7
370
    18
100
AcDbSpline
210
0.0
220
0.0
230
1.0
 70
     8
 71
     3
 72
    12
 73
     8
 74
     0
 42
0.000000001
 43
0.00000001
 40
0.0
 40
0.0
 40
0.0
 40
0.0
 40
0.1865921528409283
 40
0.3730589116156781
 40
0.5596226295490472
 40
0.7796100104163921
 40
1.0
 40
1.0
 40
1.0
 40
1.0
 10
218.1537636377996
 20
114.1948488001261
 30
0.0
 10
218.2022577931003
 20
114.1986384513758
 30
0.0
 10
218.2992135145536
 20
114.2062152071454
 30
0.0
 10
218.4298446918296
 20
114.276796453954
 30
0.0
 10
218.5385828509809
 20
114.3872140664612
 30
0.0
 10
218.6119039794565
 20
114.5348139564558
 30
0.0
 10
218.636126192623
 20
114.6461317815632
 30
0.0
 10
218.6482483716123
 20
114.7018415794822
 30
0.0
  0
SPLINE
  5
255
330
1F
100
AcDbEntity
  8
0
  6
Continuous
 62
     7
370
    18
100
AcDbSpline
210
0.0
220
0.0
230
1.0
 70
     8
 71
     3
 72
    14
 73
    10
 74
     0
 42
0.000000001
 43
0.00000001
 40
0.0
 40
0.0
 40
0.0
 40
0.0
 40
0.1669299867484153
 40
0.3337709048041682
 40
0.5004211293286641
 40
0.6254239239505631
 40
0.7503194582828497
 40
0.875093128947506
 40
1.0
 40
1.0
 40
1.0
 40
1.0
 10
217.6075789824078
 20
115.0224644802427
 30
0.0
 10
217.6089087183383
 20
114.9605175419821
 30
0.0
 10
217.6115674806933
 20
114.8366567184364
 30
0.0
 10
217.6417136689456
 20
114.6529617428877
 30
0.0
 10
217.6962939440935
 20
114.4903116781461
 30
0.0
 10
217.7820640913912
 20
114.3600170850821
 30
0.0
 10
217.8856473649646
 20
114.2652532300598
 30
0.0
 10
218.0142305367354
 20
114.2044518977224
 30
0.0
 10
218.1072360651475
 20
114.1980509709206
 30
0.0
 10
218.1537636377996
 20
114.1948488001262
 30
0.0
  0
CIRCLE
  5
256
330
1F
100
AcDbEntity
  8
0
  6
Continuous
 62
     7
370
    18
100
AcDbCircle
 10
225.8929083503
 20
117.3702246287
 30
0.0
 40
25.19999999999999
  0
SPLINE
  5
257
330
1F
100
AcDbEntity
  8
0
  6
Continuous
 62
     7
370
    18
100
AcDbSpline
210
0.0
220
0.0
230
1.0
 70
     8
 71
     3
 72
    13
 73
     9
 74
     0
 42
0.000000001
 43
0.00000001
 40
0.0
 40
0.0
 40
0.0
 40
0.0
 40
0.1237345749994074
 40
0.248423210174569
 40
0.3734713343328623
 40
0.498744496763746
 40
0.7493102257733215
 40
1.0
 40
1.0
 40
1.0
 40
1.0
 10
232.5688691916289
 20
114.1681649696337
 30
0.0
 10
232.6099535878185
 20
114.1755282113865
 30
0.0
 10
232.6924391630069
 20
114.1903114694495
 30
0.0
 10
232.7766337327093
 20
114.2880242635203
 30
0.0
 10
232.8337034552651
 20
114.3967663461365
 30
0.0
 10
232.8728736526808
 20
114.5575594532324
 30
0.0
 10
232.8941409756046
 20
114.7621164370921
 30
0.0
 10
232.8963227149418
 20
114.9264956728703
 30
0.0
 10
232.8974138545669
 20
115.0087056301451
 30
0.0
  0
SPLINE
  5
258
330
1F
100
AcDbEntity
  8
0
  6
Continuous
 62
     7
370
    18
100
AcDbSpline
210
0.0
220
0.0
230
1.0
 70
     8
 71
     3
 72
    13
 73
     9
 74
     0
 42
0.000000001
 43
0.00000001
 40
0.0
 40
0.0
 40
0.0
 40
0.0
 40
0.2506668541570156
 40
0.5012048357437087
 40
0.6264537829510468
 40
0.751429187159486
 40
0.8760522367173378
 40
1.0
 40
1.0
 40
1.0
 40
1.0
 10
232.2303180922563
 20
115.0087056301451
 30
0.0
 10
232.2313663990728
 20
114.9257603943501
 30
0.0
 10
232.2334624737517
 20
114.7599125664744
 30
0.0
 10
232.2552815727905
 20
114.5535385640966
 30
0.0
 10
232.295384053061
 20
114.3914841806608
 30
0.0
 10
232.3547553946779
 20
114.2823786775416
 30
0.0
 10
232.4438567540256
 20
114.1876883520828
 30
0.0
 10
232.5272739182208
 20
114.1746609667232
 30
0.0
 10
232.5688691916289
 20
114.1681649696337
 30
0.0
  0
SPLINE
  5
259
330
1F
100
AcDbEntity
  8
0
  6
Continuous
 62
     7
370
    18
100
AcDbSpline
210
0.0
220
0.0
230
1.0
 70
     8
 71
     3
 72
    13
 73
     9
 74
     0
 42
0.000000001
 43
0.00000001
 40
0.0
 40
0.0
 40
0.0
 40
0.0
 40
0.1236770548154447
 40
0.2483884878623322
 40
0.3734455614730981
 40
0.4987169325064014
 40
0.7492948497723048
 40
1.0
 40
1.0
 40
1.0
 40
1.0
 10
232.5563611460856
 20
115.8492462906564
 30
0.0
 10
232.5153725814313
 20
115.8417530913967
 30
0.0
 10
232.4330526425443
 20
115.8267040231911
 30
0.0
 10
232.3499389231227
 20
115.7283466828609
 30
0.0
 10
232.2932058740495
 20
115.6197128615249
 30
0.0
 10
232.2551900800569
 20
115.4589308323606
 30
0.0
 10
232.2334453313146
 20
115.2548819224243
 30
0.0
 10
232.2313606816472
 20
115.0907782782051
 30
0.0
 10
232.2303180922563
 20
115.0087056301451
 30
0.0
  0
SPLINE
  5
25A
330
1F
100
AcDbEntity
  8
0
  6
Continuous
 62
     7
370
    18
100
AcDbSpline
210
0.0
220
0.0
230
1.0
 70
     8
 71
     3
 72
    13
 73
     9
 74
     0
 42
0.000000001
 43
0.00000001
 40
0.0
 40
0.0
 40
0.0
 40
0.0
 40
0.2506736071386397
 40
0.5012152607338
 40
0.6264526015104158
 40
0.7514497498805417
 40
0.8760271183236275
 40
1.0
 40
1.0
 40
1.0
 40
1.0
 10
232.8974138545669
 20
115.0087056301451
 30
0.0
 10
232.8963753516548
 20
115.0918517838989
 30
0.0
 10
232.8942988924942
 20
115.2581003236172
 30
0.0
 10
232.8723846480831
 20
115.464991451421
 30
0.0
 10
232.8319921928465
 20
115.6273670271513
 30
0.0
 10
232.7722245620963
 20
115.7367077744108
 30
0.0
 10
232.6817044767435
 20
115.8304460261122
 30
0.0
 10
232.5980744588285
 20
115.8429897047618
 30
0.0
 10
232.5563611460856
 20
115.8492462906564
 30
0.0
  0
SPLINE
  5
25B
330
1F
100
AcDbEntity
  8
0
  6
Continuous
 62
     7
370
    18
100
AcDbSpline
210
0.0
220
0.0
230
1.0
 70
     8
 71
     3
 72
    13
 73
     9
 74
     0
 42
0.000000001
 43
0.00000001
 40
0.0
 40
0.0
 40
0.0
 40
0.0
 40
0.1237345749994058
 40
0.2484232101745687
 40
0.3734713343328614
 40
0.4987444967637455
 40
0.7493102257733212
 40
1.0
 40
1.0
 40
1.0
 40
1.0
 10
228.9131844141668
 20
114.1681649696337
 30
0.0
 10
228.9542688103564
 20
114.1755282113865
 30
0.0
 10
229.0367543855448
 20
114.1903114694495
 30
0.0
 10
229.1209489552472
 20
114.2880242635203
 30
0.0
 10
229.178018677803
 20
114.3967663461365
 30
0.0
 10
229.2171888752187
 20
114.5575594532324
 30
0.0
 10
229.2384561981424
 20
114.7621164370921
 30
0.0
 10
229.2406379374797
 20
114.9264956728703
 30
0.0
 10
229.2417290771047
 20
115.0087056301451
 30
0.0
  0
SPLINE
  5
25C
330
1F
100
AcDbEntity
  8
0
  6
Continuous
 62
     7
370
    18
100
AcDbSpline
210
0.0
220
0.0
230
1.0
 70
     8
 71
     3
 72
    13
 73
     9
 74
     0
 42
0.000000001
 43
0.00000001
 40
0.0
 40
0.0
 40
0.0
 40
0.0
 40
0.2506668541570156
 40
0.5012048357437084
 40
0.6264537829510461
 40
0.7514291871594861
 40
0.8760522367173379
 40
1.0
 40
1.0
 40
1.0
 40
1.0
 10
228.5746333147941
 20
115.0087056301451
 30
0.0
 10
228.5756816216107
 20
114.9257603943501
 30
0.0
 10
228.5777776962896
 20
114.7599125664744
 30
0.0
 10
228.5995967953284
 20
114.5535385640966
 30
0.0
 10
228.6396992755988
 20
114.3914841806608
 30
0.0
 10
228.6990706172158
 20
114.2823786775416
 30
0.0
 10
228.7881719765635
 20
114.1876883520828
 30
0.0
 10
228.8715891407587
 20
114.1746609667232
 30
0.0
 10
228.9131844141668
 20
114.1681649696337
 30
0.0
  0
SPLINE
  5
25D
330
1F
100
AcDbEntity
  8
0
  6
Continuous
 62
     7
370
    18
100
AcDbSpline
210
0.0
220
0.0
230
1.0
 70
     8
 71
     3
 72
    13
 73
     9
 74
     0
 42
0.000000001
 43
0.00000001
 40
0.0
 40
0.0
 40
0.0
 40
0.0
 40
0.1236770548154464
 40
0.2483884878623325
 40
0.3734455614730951
 40
0.4987169325064013
 40
0.7492948497723046
 40
1.0
 40
1.0
 40
1.0
 40
1.0
 10
228.9006763686234
 20
115.8492462906564
 30
0.0
 10
228.8596878039691
 20
115.8417530913967
 30
0.0
 10
228.7773678650821
 20
115.8267040231911
 30
0.0
 10
228.6942541456606
 20
115.7283466828609
 30
0.0
 10
228.6375210965874
 20
115.6197128615249
 30
0.0
 10
228.5995053025948
 20
115.4589308323607
 30
0.0
 10
228.5777605538524
 20
115.2548819224243
 30
0.0
 10
228.5756759041851
 20
115.0907782782051
 30
0.0
 10
228.5746333147941
 20
115.0087056301451
 30
0.0
  0
SPLINE
  5
25E
330
1F
100
AcDbEntity
  8
0
  6
Continuous
 62
     7
370
    18
100
AcDbSpline
210
0.0
220
0.0
230
1.0
 70
     8
 71
     3
 72
    13
 73
     9
 74
     0
 42
0.000000001
 43
0.00000001
 40
0.0
 40
0.0
 40
0.0
 40
0.0
 40
0.2506736071386392
 40
0.5012152607337993
 40
0.6264526015104145
 40
0.7514497498805432
 40
0.8760271183236301
 40
1.0
 40
1.0
 40
1.0
 40
1.0
 10
229.2417290771047
 20
115.0087056301451
 30
0.0
 10
229.2406905741927
 20
115.0918517838989
 30
0.0
 10
229.2386141150321
 20
115.2581003236172
 30
0.0
 10
229.2166998706209
 20
115.464991451421
 30
0.0
 10
229.1763074153843
 20
115.6273670271513
 30
0.0
 10
229.1165397846342
 20
115.7367077744108
 30
0.0
 10
229.0260196992814
 20
115.8304460261122
 30
0.0
 10
228.9423896813664
 20
115.8429897047618
 30
0.0
 10
228.9006763686234
 20
115.8492462906564
 30
0.0
  0
SPLINE
  5
25F
330
1F
100
AcDbEntity
  8
0
  6
Continuous
 62
     7
370
    18
100
AcDbSpline
210
0.0
220
0.0
230
1.0
 70
     8
 71
     3
 72
    12
 73
     8
 74
     0
 42
0.000000001
 43
0.00000001
 40
0.0
 40
0.0
 40
0.0
 40
0.0
 40
0.1864266110451019
 40
0.3728066183672706
 40
0.5596384089196418
 40
0.779595386102752
 40
0.9999999999999999
 40
0.9999999999999999
 40
0.9999999999999999
 40
0.9999999999999999
 10
224.2130778338371
 20
114.1681649696337
 30
0.0
 10
224.2498720772362
 20
114.1717206372223
 30
0.0
 10
224.3234513660518
 20
114.1788310835385
 30
0.0
 10
224.4182458640793
 20
114.2407279349717
 30
0.0
 10
224.4934129570664
 20
114.3306891169323
 30
0.0
 10
224.5386876092493
 20
114.4479500850736
 30
0.0
 10
224.5431442999356
 20
114.5343507481689
 30
0.0
 10
224.5453749104381
 20
114.5775949937518
 30
0.0
  0
SPLINE
  5
260
330
1F
100
AcDbEntity
  8
0
  6
Continuous
 62
     7
370
    18
100
AcDbSpline
210
0.0
220
0.0
230
1.0
 70
     8
 71
     3
 72
    11
 73
     7
 74
     0
 42
0.000000001
 43
0.00000001
 40
0.0
 40
0.0
 40
0.0
 40
0.0
 40
0.2807261943832933
 40
0.560397291612564
 40
0.7804346209650581
 40
1.0
 40
1.0
 40
1.0
 40
1.0
 10
223.8782791481275
 20
114.5859336907807
 30
0.0
 10
223.8818538880449
 20
114.5299010785604
 30
0.0
 10
223.8889899323758
 20
114.4180464502481
 30
0.0
 10
223.9675007363304
 20
114.2796710245294
 30
0.0
 10
224.0812360374774
 20
114.1848689868247
 30
0.0
 10
224.1691620336903
 20
114.1737289887905
 30
0.0
 10
224.2130778338371
 20
114.1681649696337
 30
0.0
  0
SPLINE
  5
261
330
1F
100
AcDbEntity
  8
0
  6
Continuous
 62
     7
370
    18
100
AcDbSpline
210
0.0
220
0.0
230
1.0
 70
     8
 71
     3
 72
    11
 73
     7
 74
     0
 42
0.000000001
 43
0.00000001
 40
0.0
 40
0.0
 40
0.0
 40
0.0
 40
0.2782055765816055
 40
0.5579799253701314
 40
0.7788219222535234
 40
1.0
 40
1.0
 40
1.0
 40
1.0
 10
224.2076576807683
 20
114.9953637148989
 30
0.0
 10
224.152973405367
 20
114.9861739624355
 30
0.0
 10
224.0432964956434
 20
114.967742637454
 30
0.0
 10
223.9380519791694
 20
114.8462709894555
 30
0.0
 10
223.8849746891257
 20
114.7152703029959
 30
0.0
 10
223.8805121261329
 20
114.6290677422999
 30
0.0
 10
223.8782791481275
 20
114.5859336907807
 30
0.0
  0
SPLINE
  5
262
330
1F
100
AcDbEntity
  8
0
  6
Continuous
 62
     7
370
    18
100
AcDbSpline
210
0.0
220
0.0
230
1.0
 70
     8
 71
     3
 72
    11
 73
     7
 74
     0
 42
0.000000001
 43
0.00000001
 40
0.0
 40
0.0
 40
0.0
 40
0.0
 40
0.2807535301687743
 40
0.5603207228591549
 40
0.7803822345379182
 40
1.0
 40
1.0
 40
1.0
 40
1.0
 10
224.5453749104381
 20
114.5775949937518
 30
0.0
 10
224.5416907067406
 20
114.6338339445032
 30
0.0
 10
224.5343378671247
 20
114.7460742056278
 30
0.0
 10
224.4542127431304
 20
114.8841134876274
 30
0.0
 10
224.3399784113791
 20
114.9788603020026
 30
0.0
 10
224.2517349043917
 20
114.9898662798604
 30
0.0
 10
224.2076576807683
 20
114.9953637148989
 30
0.0
  0
SPLINE
  5
263
330
1F
100
AcDbEntity
  8
0
  6
Continuous
 62
     7
370
    18
100
AcDbSpline
210
0.0
220
0.0
230
1.0
 70
     8
 71
     3
 72
    11
 73
     7
 74
     0
 42
0.000000001
 43
0.00000001
 40
0.0
 40
0.0
 40
0.0
 40
0.0
 40
0.2783889696083879
 40
0.5580817055296868
 40
0.7789018539988232
 40
1.0
 40
1.0
 40
1.0
 40
1.0
 10
224.2130778338371
 20
115.2088343588383
 30
0.0
 10
224.2550648802525
 20
115.2159998192771
 30
0.0
 10
224.3392356090951
 20
115.2303642978274
 30
0.0
 10
224.419339004845
 20
115.3240581430287
 30
0.0
 10
224.46035446662
 20
115.4243774739201
 30
0.0
 10
224.4636664070331
 20
115.4905254018672
 30
0.0
 10
224.4653234189608
 20
115.5236201716786
 30
0.0
  0
SPLINE
  5
264
330
1F
100
AcDbEntity
  8
0
  6
Continuous
 62
     7
370
    18
100
AcDbSpline
210
0.0
220
0.0
230
1.0
 70
     8
 71
     3
 72
    11
 73
     7
 74
     0
 42
0.000000001
 43
0.00000001
 40
0.0
 40
0.0
 40
0.0
 40
0.0
 40
0.2806987831964738
 40
0.5604086902325288
 40
0.7804393617933053
 40
1.0
 40
1.0
 40
1.0
 40
1.0
 10
223.9583306396048
 20
115.5373790217762
 30
0.0
 10
223.9607583230359
 20
115.4938218745338
 30
0.0
 10
223.9656051373913
 20
115.4068610278979
 30
0.0
 10
224.0228751371886
 20
115.2973621320091
 30
0.0
 10
224.1102955705347
 20
115.2215649657061
 30
0.0
 10
224.1788415103364
 20
115.2130748684465
 30
0.0
 10
224.2130778338371
 20
115.2088343588383
 30
0.0
  0
SPLINE
  5
265
330
1F
100
AcDbEntity
  8
0
  6
Continuous
 62
     7
370
    18
100
AcDbSpline
210
0.0
220
0.0
230
1.0
 70
     8
 71
     3
 72
    11
 73
     7
 74
     0
 42
0.000000001
 43
0.00000001
 40
0.0
 40
0.0
 40
0.0
 40
0.0
 40
0.2781848052830279
 40
0.5582334878196241
 40
0.7790790531104522
 40
1.0
 40
1.0
 40
1.0
 40
1.0
 10
224.2105762247284
 20
115.8492462906564
 30
0.0
 10
224.1690192903039
 20
115.8419409089336
 30
0.0
 10
224.0856269841594
 20
115.8272811984047
 30
0.0
 10
224.0061956698789
 20
115.7346523406311
 30
0.0
 10
223.9640576149669
 20
115.6357458341362
 30
0.0
 10
223.9602398485425
 20
115.5701716890158
 30
0.0
 10
223.9583306396048
 20
115.5373790217762
 30
0.0
  0
SPLINE
  5
266
330
1F
100
AcDbEntity
  8
0
  6
Continuous
 62
     7
370
    18
100
AcDbSpline
210
0.0
220
0.0
230
1.0
 70
     8
 71
     3
 72
    11
 73
     7
 74
     0
 42
0.000000001
 43
0.00000001
 40
0.0
 40
0.0
 40
0.0
 40
0.0
 40
0.2805990159984011
 40
0.5604527759419519
 40
0.7805133266133528
 40
1.0
 40
1.0
 40
1.0
 40
1.0
 10
224.4653234189608
 20
115.5236201716786
 30
0.0
 10
224.4626394964628
 20
115.5667594582449
 30
0.0
 10
224.4572787798221
 20
115.652923455728
 30
0.0
 10
224.3967662611471
 20
115.7588121156791
 30
0.0
 10
224.3120289998525
 20
115.8349659134396
 30
0.0
 10
224.2443643685617
 20
115.8444903099668
 30
0.0
 10
224.2105762247284
 20
115.8492462906565
 30
0.0
  0
SPLINE
  5
267
330
1F
100
AcDbEntity
  8
0
  6
Continuous
 62
     7
370
    18
100
AcDbSpline
210
0.0
220
0.0
230
1.0
 70
     8
 71
     3
 72
    13
 73
     9
 74
     0
 42
0.000000001
 43
0.00000001
 40
0.0
 40
0.0
 40
0.0
 40
0.0
 40
0.1237345749994041
 40
0.2484232101745683
 40
0.3734713343328609
 40
0.4987444967637457
 40
0.7493102257733247
 40
1.0
 40
1.0
 40
1.0
 40
1.0
 10
222.9093225533713
 20
114.1681649696337
 30
0.0
 10
222.9504069495609
 20
114.1755282113865
 30
0.0
 10
223.0328925247493
 20
114.1903114694495
 30
0.0
 10
223.1170870944517
 20
114.2880242635203
 30
0.0
 10
223.1741568170075
 20
114.3967663461365
 30
0.0
 10
223.2133270144233
 20
114.5575594532324
 30
0.0
 10
223.234594337347
 20
114.7621164370921
 30
0.0
 10
223.2367760766842
 20
114.9264956728703
 30
0.0
 10
223.2378672163093
 20
115.0087056301451
 30
0.0
  0
SPLINE
  5
268
330
1F
100
AcDbEntity
  8
0
  6
Continuous
 62
     7
370
    18
100
AcDbSpline
210
0.0
220
0.0
230
1.0
 70
     8
 71
     3
 72
    13
 73
     9
 74
     0
 42
0.000000001
 43
0.00000001
 40
0.0
 40
0.0
 40
0.0
 40
0.0
 40
0.2506668541570158
 40
0.5012048357437083
 40
0.626453782951046
 40
0.7514291871594861
 40
0.8760522367173379
 40
1.0
 40
1.0
 40
1.0
 40
1.0
 10
222.5707714539987
 20
115.0087056301451
 30
0.0
 10
222.5718197608153
 20
114.9257603943501
 30
0.0
 10
222.5739158354941
 20
114.7599125664744
 30
0.0
 10
222.5957349345329
 20
114.5535385640966
 30
0.0
 10
222.6358374148034
 20
114.3914841806608
 30
0.0
 10
222.6952087564203
 20
114.2823786775416
 30
0.0
 10
222.784310115768
 20
114.1876883520828
 30
0.0
 10
222.8677272799632
 20
114.1746609667232
 30
0.0
 10
222.9093225533713
 20
114.1681649696337
 30
0.0
  0
SPLINE
  5
269
330
1F
100
AcDbEntity
  8
0
  6
Continuous
 62
     7
370
    18
100
AcDbSpline
210
0.0
220
0.0
230
1.0
 70
     8
 71
     3
 72
    13
 73
     9
 74
     0
 42
0.000000001
 43
0.00000001
 40
0.0
 40
0.0
 40
0.0
 40
0.0
 40
0.1236770548154473
 40
0.2483884878623322
 40
0.3734455614730948
 40
0.4987169325064014
 40
0.7492948497723048
 40
1.0
 40
1.0
 40
1.0
 40
1.0
 10
222.896814507828
 20
115.8492462906565
 30
0.0
 10
222.8558259431737
 20
115.8417530913967
 30
0.0
 10
222.7735060042867
 20
115.8267040231911
 30
0.0
 10
222.6903922848651
 20
115.7283466828609
 30
0.0
 10
222.6336592357919
 20
115.6197128615249
 30
0.0
 10
222.5956434417993
 20
115.4589308323607
 30
0.0
 10
222.573898693057
 20
115.2548819224243
 30
0.0
 10
222.5718140433896
 20
115.0907782782051
 30
0.0
 10
222.5707714539987
 20
115.0087056301451
 30
0.0
  0
SPLINE
  5
26A
330
1F
100
AcDbEntity
  8
0
  6
Continuous
 62
     7
370
    18
100
AcDbSpline
210
0.0
220
0.0
230
1.0
 70
     8
 71
     3
 72
    13
 73
     9
 74
     0
 42
0.000000001
 43
0.00000001
 40
0.0
 40
0.0
 40
0.0
 40
0.0
 40
0.2506736071386387
 40
0.5012152607337981
 40
0.6264526015104135
 40
0.751449749880542
 40
0.876027118323626
 40
1.0
 40
1.0
 40
1.0
 40
1.0
 10
223.2378672163093
 20
115.0087056301451
 30
0.0
 10
223.2368287133972
 20
115.0918517838989
 30
0.0
 10
223.2347522542367
 20
115.2581003236172
 30
0.0
 10
223.2128380098255
 20
115.464991451421
 30
0.0
 10
223.1724455545889
 20
115.6273670271513
 30
0.0
 10
223.1126779238387
 20
115.7367077744108
 30
0.0
 10
223.022157838486
 20
115.8304460261122
 30
0.0
 10
222.938527820571
 20
115.8429897047618
 30
0.0
 10
222.896814507828
 20
115.8492462906565
 30
0.0
  0
CIRCLE
  5
26B
330
1F
100
AcDbEntity
  8
0
  6
Continuous
 62
     7
370
    18
100
AcDbCircle
 10
225.8929083503
 20
117.3702246287
 30
0.0
 40
25.40000000000001
  0
OLE2FRAME
  5
26C
330
1F
100
AcDbEntity
  8
0
100
AcDbOle2Frame
 70
     2
  3
Paintbrush Picture
 10
229.0524258301
 20
33.6996297921
 30
0.0
 11
265.1686469208
 21
28.555479607
 31
0.0
 71
     2
 72
     0
 73
     1
 90
     7296
310
80557333EF78ADA16C40002412788DD94040000000000000000041161DC7B292
310
7040002412788DD94040000000000000000041161DC7B2927040F6DD59E9338E
310
3C4000000000000000007333EF78ADA16C40F6DD59E9338E3C40000000000000
310
00000000000001000000000100000100000001000000000001000000001C0000
310
D0CF11E0A1B11AE1000000000000000000000000000000003E000300FEFF0900
310
0600000000000000000000000100000001000000000000000010000002000000
310
01000000FEFFFFFF0000000000000000FFFFFFFFFFFFFFFFFFFFFFFFFFFFFFFF
310
FFFFFFFFFFFFFFFFFFFFFFFFFFFFFFFFFFFFFFFFFFFFFFFFFFFFFFFFFFFFFFFF
310
FFFFFFFFFFFFFFFFFFFFFFFFFFFFFFFFFFFFFFFFFFFFFFFFFFFFFFFFFFFFFFFF
310
FFFFFFFFFFFFFFFFFFFFFFFFFFFFFFFFFFFFFFFFFFFFFFFFFFFFFFFFFFFFFFFF
310
FFFFFFFFFFFFFFFFFFFFFFFFFFFFFFFFFFFFFFFFFFFFFFFFFFFFFFFFFFFFFFFF
310
FFFFFFFFFFFFFFFFFFFFFFFFFFFFFFFFFFFFFFFFFFFFFFFFFFFFFFFFFFFFFFFF
310
FFFFFFFFFFFFFFFFFFFFFFFFFFFFFFFFFFFFFFFFFFFFFFFFFFFFFFFFFFFFFFFF
310
FFFFFFFFFFFFFFFFFFFFFFFFFFFFFFFFFFFFFFFFFFFFFFFFFFFFFFFFFFFFFFFF
310
FFFFFFFFFFFFFFFFFFFFFFFFFFFFFFFFFFFFFFFFFFFFFFFFFFFFFFFFFFFFFFFF
310
FFFFFFFFFFFFFFFFFFFFFFFFFFFFFFFFFFFFFFFFFFFFFFFFFFFFFFFFFFFFFFFF
310
FFFFFFFFFFFFFFFFFFFFFFFFFFFFFFFFFFFFFFFFFFFFFFFFFFFFFFFFFFFFFFFF
310
FFFFFFFFFFFFFFFFFFFFFFFFFFFFFFFFFFFFFFFFFFFFFFFFFFFFFFFFFFFFFFFF
310
FFFFFFFFFFFFFFFFFFFFFFFFFFFFFFFFFFFFFFFFFFFFFFFFFFFFFFFFFFFFFFFF
310
FFFFFFFFFFFFFFFFFFFFFFFFFFFFFFFFFFFFFFFFFFFFFFFFFFFFFFFFFFFFFFFF
310
FDFFFFFFFEFFFFFFFEFFFFFFFEFFFFFF05000000060000000700000008000000
310
090000000A0000000B0000000C000000FEFFFFFFFFFFFFFFFFFFFFFFFFFFFFFF
310
FFFFFFFFFFFFFFFFFFFFFFFFFFFFFFFFFFFFFFFFFFFFFFFFFFFFFFFFFFFFFFFF
310
FFFFFFFFFFFFFFFFFFFFFFFFFFFFFFFFFFFFFFFFFFFFFFFFFFFFFFFFFFFFFFFF
310
FFFFFFFFFFFFFFFFFFFFFFFFFFFFFFFFFFFFFFFFFFFFFFFFFFFFFFFFFFFFFFFF
310
FFFFFFFFFFFFFFFFFFFFFFFFFFFFFFFFFFFFFFFFFFFFFFFFFFFFFFFFFFFFFFFF
310
FFFFFFFFFFFFFFFFFFFFFFFFFFFFFFFFFFFFFFFFFFFFFFFFFFFFFFFFFFFFFFFF
310
FFFFFFFFFFFFFFFFFFFFFFFFFFFFFFFFFFFFFFFFFFFFFFFFFFFFFFFFFFFFFFFF
310
FFFFFFFFFFFFFFFFFFFFFFFFFFFFFFFFFFFFFFFFFFFFFFFFFFFFFFFFFFFFFFFF
310
FFFFFFFFFFFFFFFFFFFFFFFFFFFFFFFFFFFFFFFFFFFFFFFFFFFFFFFFFFFFFFFF
310
FFFFFFFFFFFFFFFFFFFFFFFFFFFFFFFFFFFFFFFFFFFFFFFFFFFFFFFFFFFFFFFF
310
FFFFFFFFFFFFFFFFFFFFFFFFFFFFFFFFFFFFFFFFFFFFFFFFFFFFFFFFFFFFFFFF
310
FFFFFFFFFFFFFFFFFFFFFFFFFFFFFFFFFFFFFFFFFFFFFFFFFFFFFFFFFFFFFFFF
310
FFFFFFFFFFFFFFFFFFFFFFFFFFFFFFFFFFFFFFFFFFFFFFFFFFFFFFFFFFFFFFFF
310
FFFFFFFFFFFFFFFFFFFFFFFFFFFFFFFFFFFFFFFFFFFFFFFFFFFFFFFFFFFFFFFF
310
FFFFFFFFFFFFFFFFFFFFFFFFFFFFFFFFFFFFFFFFFFFFFFFFFFFFFFFFFFFFFFFF
310
52006F006F007400200045006E00740072007900000000000000000000000000
310
0000000000000000000000000000000000000000000000000000000000000000
310
16000500FFFFFFFFFFFFFFFF020000000A00030000000000C000000000000046
310
000000000000000000000000D05B27DF4796D40103000000C000000000000000
310
01004F006C006500000000000000000000000000000000000000000000000000
310
0000000000000000000000000000000000000000000000000000000000000000
310
0A000200FFFFFFFFFFFFFFFFFFFFFFFF00000000000000000000000000000000
310
0000000000000000000000000000000000000000000000001400000000000000
310
010043006F006D0070004F0062006A0000000000000000000000000000000000
310
0000000000000000000000000000000000000000000000000000000000000000
310
120002010100000003000000FFFFFFFF00000000000000000000000000000000
310
0000000000000000000000000000000000000000010000004D00000000000000
310
01004F006C006500310030004E00610074006900760065000000000000000000
310
0000000000000000000000000000000000000000000000000000000000000000
310
1A000200FFFFFFFFFFFFFFFFFFFFFFFF00000000000000000000000000000000
310
000000000000000000000000000000000000000004000000E411000000000000
310
FEFFFFFF02000000FEFFFFFFFFFFFFFFFFFFFFFFFFFFFFFFFFFFFFFFFFFFFFFF
310
FFFFFFFFFFFFFFFFFFFFFFFFFFFFFFFFFFFFFFFFFFFFFFFFFFFFFFFFFFFFFFFF
310
FFFFFFFFFFFFFFFFFFFFFFFFFFFFFFFFFFFFFFFFFFFFFFFFFFFFFFFFFFFFFFFF
310
FFFFFFFFFFFFFFFFFFFFFFFFFFFFFFFFFFFFFFFFFFFFFFFFFFFFFFFFFFFFFFFF
310
FFFFFFFFFFFFFFFFFFFFFFFFFFFFFFFFFFFFFFFFFFFFFFFFFFFFFFFFFFFFFFFF
310
FFFFFFFFFFFFFFFFFFFFFFFFFFFFFFFFFFFFFFFFFFFFFFFFFFFFFFFFFFFFFFFF
310
FFFFFFFFFFFFFFFFFFFFFFFFFFFFFFFFFFFFFFFFFFFFFFFFFFFFFFFFFFFFFFFF
310
FFFFFFFFFFFFFFFFFFFFFFFFFFFFFFFFFFFFFFFFFFFFFFFFFFFFFFFFFFFFFFFF
310
FFFFFFFFFFFFFFFFFFFFFFFFFFFFFFFFFFFFFFFFFFFFFFFFFFFFFFFFFFFFFFFF
310
FFFFFFFFFFFFFFFFFFFFFFFFFFFFFFFFFFFFFFFFFFFFFFFFFFFFFFFFFFFFFFFF
310
FFFFFFFFFFFFFFFFFFFFFFFFFFFFFFFFFFFFFFFFFFFFFFFFFFFFFFFFFFFFFFFF
310
FFFFFFFFFFFFFFFFFFFFFFFFFFFFFFFFFFFFFFFFFFFFFFFFFFFFFFFFFFFFFFFF
310
FFFFFFFFFFFFFFFFFFFFFFFFFFFFFFFFFFFFFFFFFFFFFFFFFFFFFFFFFFFFFFFF
310
FFFFFFFFFFFFFFFFFFFFFFFFFFFFFFFFFFFFFFFFFFFFFFFFFFFFFFFFFFFFFFFF
310
FFFFFFFFFFFFFFFFFFFFFFFFFFFFFFFFFFFFFFFFFFFFFFFFFFFFFFFFFFFFFFFF
310
FFFFFFFFFFFFFFFFFFFFFFFFFFFFFFFFFFFFFFFFFFFFFFFFFFFFFFFFFFFFFFFF
310
0100000200000000000000000000000000000000000000000000000000000000
310
0000000000000000000000000000000000000000000000000000000000000000
310
0100FEFF030A0000FFFFFFFF0A00030000000000C00000000000004607000000
310
5042727573680007000000504272757368000700000050427275736800F439B2
310
7100000000000000000000000000000000000000000000000000000000000000
310
0000000000000000000000000000000000000000000000000000000000000000
310
0000000000000000000000000000000000000000000000000000000000000000
310
0000000000000000000000000000000000000000000000000000000000000000
310
0000000000000000000000000000000000000000000000000000000000000000
310
0000000000000000000000000000000000000000000000000000000000000000
310
0000000000000000000000000000000000000000000000000000000000000000
310
0000000000000000000000000000000000000000000000000000000000000000
310
0000000000000000000000000000000000000000000000000000000000000000
310
0000000000000000000000000000000000000000000000000000000000000000
310
0000000000000000000000000000000000000000000000000000000000000000
310
0000000000000000000000000000000000000000000000000000000000000000
310
E0110000424DDE11000000000000360400002800000096000000170000000100
310
08000000000000000000E7240000E72400000001000000010000000000FF0101
310
01FF020202FF030303FF040404FF050505FF060606FF070707FF080808FF0909
310
09FF0A0A0AFF0B0B0BFF0C0C0CFF0D0D0DFF0E0E0EFF0F0F0FFF101010FF1111
310
11FF121212FF131313FF141414FF151515FF161616FF171717FF181818FF1919
310
19FF1A1A1AFF1B1B1BFF1C1C1CFF1D1D1DFF1E1E1EFF1F1F1FFF202020FF2121
310
21FF222222FF232323FF242424FF252525FF262626FF272727FF282828FF2929
310
29FF2A2A2AFF2B2B2BFF2C2C2CFF2D2D2DFF2E2E2EFF2F2F2FFF303030FF3131
310
31FF323232FF333333FF343434FF353535FF363636FF373737FF383838FF3939
310
39FF3A3A3AFF3B3B3BFF3C3C3CFF3D3D3DFF3E3E3EFF3F3F3FFF404040FF4141
310
41FF424242FF434343FF444444FF454545FF464646FF474747FF484848FF4949
310
49FF4A4A4AFF4B4B4BFF4C4C4CFF4D4D4DFF4E4E4EFF4F4F4FFF505050FF5151
310
51FF525252FF535353FF545454FF555555FF565656FF575757FF585858FF5959
310
59FF5A5A5AFF5B5B5BFF5C5C5CFF5D5D5DFF5E5E5EFF5F5F5FFF606060FF6161
310
61FF626262FF636363FF646464FF656565FF666666FF676767FF686868FF6969
310
69FF6A6A6AFF6B6B6BFF6C6C6CFF6D6D6DFF6E6E6EFF6F6F6FFF707070FF7171
310
71FF727272FF737373FF747474FF757575FF767676FF777777FF787878FF7979
310
79FF7A7A7AFF7B7B7BFF7C7C7CFF7D7D7DFF7E7E7EFF7F7F7FFF808080FF8181
310
81FF828282FF838383FF848484FF858585FF868686FF878787FF888888FF8989
310
89FF8A8A8AFF8B8B8BFF8C8C8CFF8D8D8DFF8E8E8EFF8F8F8FFF909090FF9191
310
91FF929292FF939393FF949494FF959595FF969696FF979797FF989898FF9999
310
99FF9A9A9AFF9B9B9BFF9C9C9CFF9D9D9DFF9E9E9EFF9F9F9FFFA0A0A0FFA1A1
310
A1FFA2A2A2FFA3A3A3FFA4A4A4FFA5A5A5FFA6A6A6FFA7A7A7FFA8A8A8FFA9A9
310
A9FFAAAAAAFFABABABFFACACACFFADADADFFAEAEAEFFAFAFAFFFB0B0B0FFB1B1
310
B1FFB2B2B2FFB3B3B3FFB4B4B4FFB5B5B5FFB6B6B6FFB7B7B7FFB8B8B8FFB9B9
310
B9FFBABABAFFBBBBBBFFBCBCBCFFBDBDBDFFBEBEBEFFBFBFBFFFC0C0C0FFC1C1
310
C1FFC2C2C2FFC3C3C3FFC4C4C4FFC5C5C5FFC6C6C6FFC7C7C7FFC8C8C8FFC9C9
310
C9FFCACACAFFCBCBCBFFCCCCCCFFCDCDCDFFCECECEFFCFCFCFFFD0D0D0FFD1D1
310
D1FFD2D2D2FFD3D3D3FFD4D4D4FFD5D5D5FFD6D6D6FFD7D7D7FFD8D8D8FFD9D9
310
D9FFDADADAFFDBDBDBFFDCDCDCFFDDDDDDFFDEDEDEFFDFDFDFFFE0E0E0FFE1E1
310
E1FFE2E2E2FFE3E3E3FFE4E4E4FFE5E5E5FFE6E6E6FFE7E7E7FFE8E8E8FFE9E9
310
E9FFEAEAEAFFEBEBEBFFECECECFFEDEDEDFFEEEEEEFFEFEFEFFFF0F0F0FFF1F1
310
F1FFF2F2F2FFF3F3F3FFF4F4F4FFF5F5F5FFF6F6F6FFF7F7F7FFF8F8F8FFF9F9
310
F9FFFAFAFAFFFBFBFBFFFCFCFCFFFDFDFDFFFEFEFEFFFFFFFFFFFFFFFFFFFFFF
310
C94E4E4E4F4E4EFFFFFFFFFFC94E4E4E4E4E72FFFFFFFFFFFFFF734E4D4E4E4E
310
C9FFFFFFFFFFAA683516171616265B9BE9FFFFFFFFFF4E4E4E4D4E4EFFFFFFFF
310
FFFFFFFF4E4E4F4E4D4E4E4E4F4E4E4F4D4E4E4E4E4E4D4E4F4E4D4E4E4EAAFF
310
FFFFFFFFFFEA4E4F4F4E4E4E4E4E4D4D4F4F4E4E4E4E4E5B7FAAFFFFFFFFFFFF
310
C9744E1716171616164D8DEAFFFFFFFF0000FFFFFFFFFFFFBA161617161716FF
310
FFFFFFFFB917171616174FFFFFFFFFFFFFFF4E1716161616B9FFFFFFB9341717
310
1716171617171616268CFFFFFFFF161617161617FFFFFFFFFFFFFFB917161717
310
1617167F807F7F7F7F7F7F807F7F807F7F807F7F7F414EFFFFFFFFFFFF8C167F
310
7F807F7F7F7E7F7F807F807F7F807F4E3417258EFFFFEA4E162674AABAEAEBBA
310
AA74341680FFFFFF0000FFFFFFFFFFFFB9171717171617FFFFFFFFFFBB161616
310
16164EFFFFFFFFFFFFFF4E1717171717B9FFFF9C171617171716161616171616
310
171766FFFFFF161717161617FFFFFFFFFFFFFF8E16171717161616FFFFFFFFFF
310
FFFFFFFFFFFFFFFFFFFFFFFFFFAA16D9FFFFFFFFFF3467FFFFFFFFEAFFFFFFFF
310
FFFFFFFFFFFFFFFFFFCA671667EB26278DFFFFFFFFFFFFFFFFFFFF8C2541EAFF
310
0000FFFFFFFFFFFFB9171717171716FFFFFFFFFFBA16171617174EFFFFFFFFFF
310
FFFF4E1717161616BAFF9B1617161616171716171617161616161667FFFF1616
310
16161716FFFFFFFFFFFFFF7F16161617174017FFFFFFFFFFFFFFFFFFFFFFFFFF
310
FFFFFFFFFFFF344E7F7F7F7E7417DAFFFFFFFF80FFFFFFFFFFFFFFFFFFFFFFFF
310
FFFFFF9B163425CAFFFFFFFFFFFFFFFFFFFFFFFFCA2667FF0000FFFFFFFFFFFF
310
BA171717171617FFFFFFFFFFB916171716164EFFFFFFFFFFFFFF4F1716161717
310
B9C91716171616161716161617171616161617168DFF161716161717FFFFFFFF
310
FFFFFF7F17171716164F16FFFFFFFFFFFFFFFFFFFFFFFFFFFFFFFFFFFFFF9B16
310
17161617174EFFFFFFFFFF34FFFFFFFFD9BABABABABADAFFFFFFFFFF7F16AAFF
310
FFFFFFFFFFFFFFFFFFFFFFFFFF9C16BA0000FFFFFFFFFFFFB9161717161717FF
310
FFFFFFFFB917161716174DFFFFFFFFFFFFFF4E1616161616BA4E161617171716
310
419BEAEAAA4E16161617161726E9171717161616FFFFFFFFFFFFFF4F16161717
310
164E16FFFFFFFFFFBAB9B9B9B9B9BABABACAFFFFFFFFFFFFFFFFFFFFFFFFFFFF
310
FFFFBA16FFFFFFFF7F1617161617174DEAFFFFFFEA41FFFFFFFFFFAA4D16174E
310
9BFFFFFFFFFF34730000FFFFFFFFFFFFB9161617171617FFFFFFFFFFBA161616
310
16164EFFFFFFFFFFFFFF4F16161717169B1617161716175BFFFFFFFFFFFF7417
310
16171616168D171717161617FFFFFFFFFFFFEA2616171717167416FFFFFFFFFF
310
16171616171717171717EAFFFFFFFFFFFFFFFFFFFFFFFFFFFFFF6716FFFFFFFF
310
7F4EFFFFFFFFBA2573FFFFFFFFBAFFFFFFFFAA167FB9BB9B269BFFFFFFFF664F
310
0000FFFFFFFFFFFFB9171616161616FFFFFFFFFFBA16161717164EFFFFFFFFFF
310
FFFF4E16161616174E161617171626EAFFFFFFFFFFFFFF4E16161616164E1716
310
16161617FFFFFFFFFFFF671616161716347F16FFFFFFFFFF16B9FFFFFFFFFFFF
310
D9168DFFFFFFFFFFFFFFFFFFFFFFFFFFFFEA1716FFFFFFFF7F4EFFFFFFFFFF7F
310
4EFFFFFFFFFFFFFFFFFF5B66FFFFFFEA347FFFFFFFFF7F4D0000FFFFFFFFFFFF
310
B9171616171617FFFFFFFFFFBA17161716174EFFFFFFFFFFFFFF4D1716161617
310
17161716161673FFFFFFFFFFFFFFFF9B1617161717161616171616174F4E4E4E
310
4E341616171616167E7F16FFFFFFFFFF16BAFFFFFFFFFFFFFF5B41FFFFFFFF34
310
1616171616BAFFFFFF9B1716FFFFFFFF7F4EFFFFFFFFFF4E4EFFFFFFFF734E4E
310
4E4E267EDA9B67164EEAFFFFFFFF744D0000FFFFFFFFFFFFBA171717161617FF
310
FFFFFFFFBA1616171616347F7F7F7F80807F331616161717161717161716B9FF
310
FFFFFFFFFFFFFFE9161616161616171716161716171616161616171616171734
310
EA7F16FFFFFFFFFF16BAFFFFFFFFFFFFFFAA17C9FFFFFF7326BABA5B25FFFFFF
310
FF401716FFFFFFFF7F264F4E4E4E4217AAFFFFFFEA16677F73261616164173CA
310
FFFFFFFFFFFF417F0000FFFFFFFFFFFFBA171616171617FFFFFFFFFFBA161616
310
17171616161616161616161717161616161616161617EAFFFFFFFFFFFFFFFFFF
310
261717161716161617161616161617161617161616174EEAFF8016FFFFFFFFFF
310
17BAFFFFFFFFFFFFFFFF3467FFFFFFC916C9FF3467FFFFFFDA166716FFFFFFFF
310
9C4D4E4E4E4E67AAFFFFFFFF6834FF7F262567AAEAFFFFFFFFFFFFFFFF9B17D9
310
0000FFFFFFFFFFFFB9161616161616FFFFFFFFFFBA1617161717171616161616
310
1716171716161716161617171716FFFFFFFFFFFFFFFFFFFF4E17161716171616
310
1617171616161716171717161616169BFF7F17FFFFFFFFFF17B9FFFFFFFFFFFF
310
FFFF7326FFFFFFFF3473DA16AAFFFFFF7317AA16FFFFFFFFFFFFFFFFFFFFFFFF
310
FFFFEA6725BA4E167FEAFFFFFFFFFFFFFFFFFFFF9C167FFF0000FFFFFFFFFFFF
310
B9161717171716FFFFFFFFFFBA16161716171616171717161617161716161616
310
171617171617EAFFFFFFFFFFFFFFFFFF26161717161616161616161617171616
310
1616161616171616AA8016FFFFFFFFFF16BAFFFFFFFFFFFFFFFFDA179BFFFFFF
310
74348D26FFFFFFFF2566B917FFFFFFFFD8BAB9BAB9BADAFFFFEA41169B7425C9
310
FFFFFFFFFFFFFFFFFFFFAB4F1680FFFF0000FFFFFFFFFFFFBA161717171617FF
310
FFFFFFFFBA17161717161617171617161616161617171616171716171617BBFF
310
FFFFFFFFFFFFFFE9171616161617161617161716FFFFFFFFFFD9671616161617
310
348017FFFFFFFFFF16BAFFFFFFFFFFFFFFFFFF4E5AFFFFFFC916265AFFFFFFAA
310
16AABA16FFFFFFFF7F1617161616179BFFFFEB4127168DFFFFFFFFFFFFFFD99B
310
6734175AC9FFFFFF0000FFFFFFFFFFFFB9161617171617FFFFFFFFFFBB161616
310
1616347F807F7F7F7F8033171716171617171616161672FFFFFFFFFFFFFFFF9C
310
171617171617161716161617FFFFFFFFFFFFFF4117161616174E17FFFFFFFFFF
310
16BAFFFFFFFFFFFFFFFFFF9B16DAFFFFFF34169BFFFFFF5A26FFB917FFFFFFFF
310
7F4EFFFFFFEA5B26FFFFFFEA2616EAFFFFFFFFDA743416331617414E4E4E4ECA
310
0000FFFFFFFFFFFFBA161716161616FFFFFFFFFFBA17171616164EFFFFFFFFFF
310
FFFF4E16161717174E161717171626EBFFFFFFFFFFFFFF4E16161617165B1616
310
16171617FFFFFFFFFFFFFF6716161616161617FFFFFFFFFF16BAFFFFFFFFFFFF
310
FFFFFFEA268CFFFFFF7316EAFFFFEB1774FFB916FFFFFFFF7F4EFFFFFFFF7316
310
FFFFFFFF6826FFFFFFFFEB264D9CEABA257F807F7F6616BA0000FFFFFFFFFFFF
310
BA161716161616FFFFFFFFFFBA16171616164DFFFFFFFFFFFFFF4E1617161617
310
9B1617171717165BEBFFFFFFFFFF671616161617179B171616161616FFFFFFFF
310
FFFFFF3417161617171617FFFFFFFFFF17BAFFFFFFFFFFFFFFFFFFFF6734FFFF
310
FFEBCAFFFFFF8D17C9FFBA17FFFFFFFF7F357F808066174FFFFFFFFF7F16FFFF
310
FFFFD91673B99B415BFFFFFFFFBA16DA00009B7F7F7F807F671617161616167F
310
80807F7E6617161616164EFFFFFFFFFFFFFF4E1616161617B94E171716161616
310
349BC9D9AA4E16171616161634FF161617161717B9B9BAB9BA9B411716171716
310
163416FFFFFFFFFF16B9FFFFFFFFFFFFFFFFFFFFC917CAFFFFFFFFFFFFFF3342
310
FFFFBA17FFFFFFFF9B4E4E4F4E4E66EAFFFFFFFF5B16C9FFFFFFFFAA4E164E73
310
EAFFFFFFFF8D26FF00004E161716161616171617171616171717171617161616
310
17174EFFFFFFFFFFFFFF4E1717171616B9D92616171716171716171717171716
310
16171716AAFF161717171617161617171616161617161716166717FFFFFFFFFF
310
17B9FFFFFFFFFFFFFFFFFFFFFF3467FFFFFFFFFFFFCA168CFFFFBB17FFFFFFFF
310
FFFFFFFFFFFFFFFFFFFFFFEA26265BFFFFFFFFFFFFFFFFFFFFFFFFFFEA3467FF
310
00004D16161616161617161717161617161616171617171616164EFFFFFFFFFF
310
FFFF4D1617161616BAFF9B1616161616161716161616171717161766FFFF1616
310
16171617161617161716171616171717667F16FFFFFFFFFF17BAFFFFFFFFFFFF
310
FFFFFFFFFF8C26EAFFFFFFFFFF6617EAFFFFBA17FFFFFFFFFFFFFFFFFFFFFFFF
310
FFFFEA5A25BA269BFFFFFFFFFFFFFFFFFFFFFFFF6616DAFF00004E1616171616
310
1616161616161716161617171616171616174EFFFFFFFFFFFFFF4D1717171716
310
B9FFFF9C161616161616161716161717171667FFFFFF17161717171716161617
310
1716161616161641E97E16FFFFFFFFFF16B9FFFFFFFFFFFFFFFFFFFFFFEA169B
310
FFFFFFFFEA265BFFFFFFB916FFFFFFFFFFFFFFFFFFFFFFFFFF9B3416AAFF9B17
310
67EAFFFFFFFFFFFFFFFFEA5B169BFFFF00004D17161716161616161717171616
310
161717161716171716174EFFFFFFFFFFFFFF4D1616161616BAFFFFFFBB411616
310
161716161616171634ABFFFFFFFF161716161617171716171617171617267FFF
310
FF7F164E4E4E4E4F17BAFFFFFFFFFFFFFFFFFFFFFFFF66344D4E4E4F4117AAFF
310
FFFFBA174E4E4E4D4E4D4D4E4E4E4E4116174EBBFFFFFFCA342666ABEAFFFFEA
310
AA6725269CFFFFFF0000724F4E4D4D4D4E4D4D4E4E4E4D4E4E4E4E4E4E4E4E4D
310
4E4E74FFFFFFFFFFFFFF734E4E4E4D4ECAFFFFFFFFFFAA663416171717265B9B
310
FFFFFFFFFFFF7F8080807F80807F7F7F7F7F807FBAFFFFFFFF9B4E4E4F4D4D4E
310
4DC9FFFFFFFFFFFFFFFFFFFFFFFFBA4E4E4E4E4D4E4EFFFFFFFFC94E4E4E4F4E
310
4E4E4D4E4E5A807F9CD9FFFFFFFFFFFFFF9B5B2617171716174E8DEAFFFFFFFF
310
0000000000000000000000000000000000000000000000000000000000000000
  1
OLE
  0
ENDSEC
  0
SECTION
  2
OBJECTS
  0
DICTIONARY
  5
C
330
0
100
AcDbDictionary
281
     1
  3
ACAD_GROUP
350
D
  3
ACAD_LAYOUT
350
1A
  3
ACAD_MLINESTYLE
350
17
  3
ACAD_PLOTSETTINGS
350
19
  3
ACAD_PLOTSTYLENAME
350
E
  3
ACAD_SCALELIST
350
47
  0
DICTIONARY
  5
D
102
{ACAD_REACTORS
330
C
102
}
330
C
100
AcDbDictionary
281
     1
  0
DICTIONARY
  5
1A
102
{ACAD_REACTORS
330
C
102
}
330
C
100
AcDbDictionary
281
     1
  3
Layout1
350
1E
  3
Layout2
350
26
  3
Model
350
22
  0
DICTIONARY
  5
17
102
{ACAD_REACTORS
330
C
102
}
330
C
100
AcDbDictionary
281
     1
  3
Standard
350
18
  0
DICTIONARY
  5
19
102
{ACAD_REACTORS
330
C
102
}
330
C
100
AcDbDictionary
281
     1
  0
ACDBDICTIONARYWDFLT
  5
E
102
{ACAD_REACTORS
330
C
102
}
330
C
100
AcDbDictionary
281
     1
  3
Normal
350
F
100
AcDbDictionaryWithDefault
340
F
  0
DICTIONARY
  5
47
102
{ACAD_REACTORS
330
C
102
}
330
C
100
AcDbDictionary
281
     1
  3
A0
350
48
  3
A1
350
49
  3
A2
350
4A
  3
A3
350
4B
  3
A4
350
4C
  3
A5
350
4D
  3
A6
350
4E
  3
A7
350
4F
  3
A8
350
50
  3
A9
350
51
  3
B0
350
52
  3
B1
350
53
  3
B2
350
54
  3
B3
350
55
  3
B4
350
56
  3
B5
350
57
  3
B6
350
58
  3
B7
350
59
  3
B8
350
5A
  3
B9
350
5B
  3
C0
350
5C
  3
C1
350
5D
  3
C2
350
5E
  3
C3
350
5F
  3
C4
350
60
  3
C5
350
61
  3
C6
350
62
  3
C7
350
63
  3
C8
350
64
  3
C9
350
65
  3
D0
350
66
  3
D1
350
67
  3
D2
350
68
  0
LAYOUT
  5
1E
102
{ACAD_REACTORS
330
1A
102
}
330
1A
100
AcDbPlotSettings
  1

  2
none_device
  4

  6

 40
0.0
 41
0.0
 42
0.0
 43
0.0
 44
0.0
 45
0.0
 46
0.0
 47
0.0
 48
0.0
 49
0.0
140
0.0
141
0.0
142
1.0
143
1.0
 70
   688
 72
     1
 73
     0
 74
     5
  7

 75
    16
147
1.0
148
0.0
149
0.0
100
AcDbLayout
  1
Layout1
 70
     1
 71
     1
 10
0.0
 20
0.0
 11
420.0
 21
297.0
 12
0.0
 22
0.0
 32
0.0
 14
1.0000000000E+20
 24
1.0000000000E+20
 34
1.0000000000E+20
 15
-1.0000000000E+20
 25
-1.0000000000E+20
 35
-1.0000000000E+20
146
0.0
 13
0.0
 23
0.0
 33
0.0
 16
1.0
 26
0.0
 36
0.0
 17
0.0
 27
1.0
 37
0.0
 76
     0
330
1B
  0
LAYOUT
  5
26
102
{ACAD_REACTORS
330
1A
102
}
330
1A
100
AcDbPlotSettings
  1

  2
none_device
  4

  6

 40
0.0
 41
0.0
 42
0.0
 43
0.0
 44
0.0
 45
0.0
 46
0.0
 47
0.0
 48
0.0
 49
0.0
140
0.0
141
0.0
142
1.0
143
1.0
 70
   688
 72
     1
 73
     0
 74
     5
  7

 75
    16
147
1.0
148
0.0
149
0.0
100
AcDbLayout
  1
Layout2
 70
     1
 71
     2
 10
0.0
 20
0.0
 11
0.0
 21
0.0
 12
0.0
 22
0.0
 32
0.0
 14
0.0
 24
0.0
 34
0.0
 15
0.0
 25
0.0
 35
0.0
146
0.0
 13
0.0
 23
0.0
 33
0.0
 16
1.0
 26
0.0
 36
0.0
 17
0.0
 27
1.0
 37
0.0
 76
     0
330
23
  0
LAYOUT
  5
22
102
{ACAD_REACTORS
330
1A
102
}
330
1A
100
AcDbPlotSettings
  1

  2
none_device
  4
Letter_(8.50_x_11.00_Inches)
  6

 40
6.35
 41
6.35
 42
6.35000508
 43
6.35000508
 44
215.9
 45
279.4
 46
0.0
 47
0.0
 48
0.0
 49
0.0
140
0.0
141
0.0
142
1.0
143
1.0
 70
  1712
 72
     1
 73
     0
 74
     0
  7

 75
     0
147
1.0
148
0.0
149
0.0
100
AcDbLayout
  1
Model
 70
     1
 71
     0
 10
0.0
 20
0.0
 11
279.4
 21
215.9
 12
0.0
 22
0.0
 32
0.0
 14
0.0
 24
0.0
 34
0.0
 15
279.4
 25
215.9
 35
0.0
146
0.0
 13
0.0
 23
0.0
 33
0.0
 16
1.0
 26
0.0
 36
0.0
 17
0.0
 27
1.0
 37
0.0
 76
     0
330
1F
331
29
  0
MLINESTYLE
  5
18
102
{ACAD_REACTORS
330
17
102
}
330
17
100
AcDbMlineStyle
  2
Standard
 70
     0
  3

 62
   256
 51
90.0
 52
90.0
 71
     2
 49
0.5
 62
   256
  6
BYLAYER
 49
-0.5
 62
   256
  6
BYLAYER
  0
ACDBPLACEHOLDER
  5
F
102
{ACAD_REACTORS
330
E
102
}
330
E
  0
SCALE
  5
48
102
{ACAD_REACTORS
330
47
102
}
330
47
100
AcDbScale
 70
     0
300
1:1
140
1.0
141
1.0
290
     1
  0
SCALE
  5
49
102
{ACAD_REACTORS
330
47
102
}
330
47
100
AcDbScale
 70
     0
300
1:2
140
1.0
141
2.0
290
     0
  0
SCALE
  5
4A
102
{ACAD_REACTORS
330
47
102
}
330
47
100
AcDbScale
 70
     0
300
1:4
140
1.0
141
4.0
290
     0
  0
SCALE
  5
4B
102
{ACAD_REACTORS
330
47
102
}
330
47
100
AcDbScale
 70
     0
300
1:5
140
1.0
141
5.0
290
     0
  0
SCALE
  5
4C
102
{ACAD_REACTORS
330
47
102
}
330
47
100
AcDbScale
 70
     0
300
1:8
140
1.0
141
8.0
290
     0
  0
SCALE
  5
4D
102
{ACAD_REACTORS
330
47
102
}
330
47
100
AcDbScale
 70
     0
300
1:10
140
1.0
141
10.0
290
     0
  0
SCALE
  5
4E
102
{ACAD_REACTORS
330
47
102
}
330
47
100
AcDbScale
 70
     0
300
1:16
140
1.0
141
16.0
290
     0
  0
SCALE
  5
4F
102
{ACAD_REACTORS
330
47
102
}
330
47
100
AcDbScale
 70
     0
300
1:20
140
1.0
141
20.0
290
     0
  0
SCALE
  5
50
102
{ACAD_REACTORS
330
47
102
}
330
47
100
AcDbScale
 70
     0
300
1:30
140
1.0
141
30.0
290
     0
  0
SCALE
  5
51
102
{ACAD_REACTORS
330
47
102
}
330
47
100
AcDbScale
 70
     0
300
1:40
140
1.0
141
40.0
290
     0
  0
SCALE
  5
52
102
{ACAD_REACTORS
330
47
102
}
330
47
100
AcDbScale
 70
     0
300
1:50
140
1.0
141
50.0
290
     0
  0
SCALE
  5
53
102
{ACAD_REACTORS
330
47
102
}
330
47
100
AcDbScale
 70
     0
300
1:100
140
1.0
141
100.0
290
     0
  0
SCALE
  5
54
102
{ACAD_REACTORS
330
47
102
}
330
47
100
AcDbScale
 70
     0
300
2:1
140
2.0
141
1.0
290
     0
  0
SCALE
  5
55
102
{ACAD_REACTORS
330
47
102
}
330
47
100
AcDbScale
 70
     0
300
4:1
140
4.0
141
1.0
290
     0
  0
SCALE
  5
56
102
{ACAD_REACTORS
330
47
102
}
330
47
100
AcDbScale
 70
     0
300
8:1
140
8.0
141
1.0
290
     0
  0
SCALE
  5
57
102
{ACAD_REACTORS
330
47
102
}
330
47
100
AcDbScale
 70
     0
300
10:1
140
10.0
141
1.0
290
     0
  0
SCALE
  5
58
102
{ACAD_REACTORS
330
47
102
}
330
47
100
AcDbScale
 70
     0
300
100:1
140
100.0
141
1.0
290
     0
  0
SCALE
  5
59
102
{ACAD_REACTORS
330
47
102
}
330
47
100
AcDbScale
 70
     0
300
1/128" = 1'-0"
140
0.0078125
141
12.0
290
     0
  0
SCALE
  5
5A
102
{ACAD_REACTORS
330
47
102
}
330
47
100
AcDbScale
 70
     0
300
1/64" = 1'-0"
140
0.015625
141
12.0
290
     0
  0
SCALE
  5
5B
102
{ACAD_REACTORS
330
47
102
}
330
47
100
AcDbScale
 70
     0
300
1/32" = 1'-0"
140
0.03125
141
12.0
290
     0
  0
SCALE
  5
5C
102
{ACAD_REACTORS
330
47
102
}
330
47
100
AcDbScale
 70
     0
300
1/16" = 1'-0"
140
0.0625
141
12.0
290
     0
  0
SCALE
  5
5D
102
{ACAD_REACTORS
330
47
102
}
330
47
100
AcDbScale
 70
     0
300
3/32" = 1'-0"
140
0.09375
141
12.0
290
     0
  0
SCALE
  5
5E
102
{ACAD_REACTORS
330
47
102
}
330
47
100
AcDbScale
 70
     0
300
1/8" = 1'-0"
140
0.125
141
12.0
290
     0
  0
SCALE
  5
5F
102
{ACAD_REACTORS
330
47
102
}
330
47
100
AcDbScale
 70
     0
300
3/16" = 1'-0"
140
0.1875
141
12.0
290
     0
  0
SCALE
  5
60
102
{ACAD_REACTORS
330
47
102
}
330
47
100
AcDbScale
 70
     0
300
1/4" = 1'-0"
140
0.25
141
12.0
290
     0
  0
SCALE
  5
61
102
{ACAD_REACTORS
330
47
102
}
330
47
100
AcDbScale
 70
     0
300
3/8" = 1'-0"
140
0.375
141
12.0
290
     0
  0
SCALE
  5
62
102
{ACAD_REACTORS
330
47
102
}
330
47
100
AcDbScale
 70
     0
300
1/2" = 1'-0"
140
0.5
141
12.0
290
     0
  0
SCALE
  5
63
102
{ACAD_REACTORS
330
47
102
}
330
47
100
AcDbScale
 70
     0
300
3/4" = 1'-0"
140
0.75
141
12.0
290
     0
  0
SCALE
  5
64
102
{ACAD_REACTORS
330
47
102
}
330
47
100
AcDbScale
 70
     0
300
1" = 1'-0"
140
1.0
141
12.0
290
     0
  0
SCALE
  5
65
102
{ACAD_REACTORS
330
47
102
}
330
47
100
AcDbScale
 70
     0
300
1-1/2" = 1'-0"
140
1.5
141
12.0
290
     0
  0
SCALE
  5
66
102
{ACAD_REACTORS
330
47
102
}
330
47
100
AcDbScale
 70
     0
300
3" = 1'-0"
140
3.0
141
12.0
290
     0
  0
SCALE
  5
67
102
{ACAD_REACTORS
330
47
102
}
330
47
100
AcDbScale
 70
     0
300
6" = 1'-0"
140
6.0
141
12.0
290
     0
  0
SCALE
  5
68
102
{ACAD_REACTORS
330
47
102
}
330
47
100
AcDbScale
 70
     0
300
1'-0" = 1'-0"
140
12.0
141
12.0
290
     0
  0
ENDSEC
  0
EOF
