  0
SECTION
  2
HEADER
  9
$ACADVER
  1
AC1015
  9
$ACADMAINTVER
 70
     6
  9
$DWGCODEPAGE
  3
ANSI_1252
  9
$INSBASE
 10
0.0
 20
0.0
 30
0.0
  9
$EXTMIN
 10
0.0
 20
0.0
 30
0.0
  9
$EXTMAX
 10
11.0
 20
8.5
 30
0.0
  9
$LIMMIN
 10
0.0
 20
0.0
  9
$LIMMAX
 10
11.0
 20
8.5
  9
$ORTHOMODE
 70
     0
  9
$REGENMODE
 70
     1
  9
$FILLMODE
 70
     1
  9
$QTEXTMODE
 70
     0
  9
$MIRRTEXT
 70
     1
  9
$LTSCALE
 40
1.0
  9
$ATTMODE
 70
     1
  9
$TEXTSIZE
 40
0.1111111111
  9
$TRACEWID
 40
0.05
  9
$TEXTSTYLE
  7
Standard
  9
$CLAYER
  8
0
  9
$CELTYPE
  6
ByLayer
  9
$CECOLOR
 62
   256
  9
$CELTSCALE
 40
1.0
  9
$DISPSILH
 70
     0
  9
$DIMSCALE
 40
1.0
  9
$DIMASZ
 40
0.125
  9
$DIMEXO
 40
0.05
  9
$DIMDLI
 40
0.38
  9
$DIMRND
 40
0.0
  9
$DIMDLE
 40
0.0
  9
$DIMEXE
 40
0.07
  9
$DIMTP
 40
0.0
  9
$DIMTM
 40
0.0
  9
$DIMTXT
 40
0.1111111111
  9
$DIMCEN
 40
0.09
  9
$DIMTSZ
 40
0.0
  9
$DIMTOL
 70
     0
  9
$DIMLIM
 70
     0
  9
$DIMTIH
 70
     1
  9
$DIMTOH
 70
     1
  9
$DIMSE1
 70
     0
  9
$DIMSE2
 70
     0
  9
$DIMTAD
 70
     0
  9
$DIMZIN
 70
     1
  9
$DIMBLK
  1

  9
$DIMASO
 70
     1
  9
$DIMSHO
 70
     1
  9
$DIMPOST
  1

  9
$DIMAPOST
  1

  9
$DIMALT
 70
     0
  9
$DIMALTD
 70
     2
  9
$DIMALTF
 40
25.4
  9
$DIMLFAC
 40
1.0
  9
$DIMTOFL
 70
     0
  9
$DIMTVP
 40
0.0
  9
$DIMTIX
 70
     0
  9
$DIMSOXD
 70
     0
  9
$DIMSAH
 70
     0
  9
$DIMBLK1
  1

  9
$DIMBLK2
  1

  9
$DIMSTYLE
  2
Standard
  9
$DIMCLRD
 70
     0
  9
$DIMCLRE
 70
     0
  9
$DIMCLRT
 70
     0
  9
$DIMTFAC
 40
1.0
  9
$DIMGAP
 40
0.1
  9
$DIMJUST
 70
     0
  9
$DIMSD1
 70
     0
  9
$DIMSD2
 70
     0
  9
$DIMTOLJ
 70
     1
  9
$DIMTZIN
 70
     1
  9
$DIMALTZ
 70
     0
  9
$DIMALTTZ
 70
     0
  9
$DIMUPT
 70
     0
  9
$DIMDEC
 70
     2
  9
$DIMTDEC
 70
     2
  9
$DIMALTU
 70
     2
  9
$DIMALTTD
 70
     2
  9
$DIMTXSTY
  7
Standard
  9
$DIMAUNIT
 70
     0
  9
$DIMADEC
 70
     0
  9
$DIMALTRND
 40
0.0
  9
$DIMAZIN
 70
     0
  9
$DIMDSEP
 70
    46
  9
$DIMATFIT
 70
     3
  9
$DIMFRAC
 70
     0
  9
$DIMLDRBLK
  1

  9
$DIMLUNIT
 70
     2
  9
$DIMLWD
 70
    -2
  9
$DIMLWE
 70
    -2
  9
$DIMTMOVE
 70
     0
  9
$LUNITS
 70
     2
  9
$LUPREC
 70
     2
  9
$SKETCHINC
 40
0.1
  9
$FILLETRAD
 40
0.5
  9
$AUNITS
 70
     0
  9
$AUPREC
 70
     0
  9
$MENU
  1
.
  9
$ELEVATION
 40
0.0
  9
$PELEVATION
 40
0.0
  9
$THICKNESS
 40
0.0
  9
$LIMCHECK
 70
     0
  9
$CHAMFERA
 40
0.0
  9
$CHAMFERB
 40
0.0
  9
$CHAMFERC
 40
0.0
  9
$CHAMFERD
 40
0.0
  9
$SKPOLY
 70
     0
  9
$TDCREATE
 40
2457340.665661007
  9
$TDUCREATE
 40
2457340.87399434
  9
$TDUPDATE
 40
2457340.665664259
  9
$TDUUPDATE
 40
2457340.873997592
  9
$TDINDWG
 40
0.0000000116
  9
$TDUSRTIMER
 40
0.0000000116
  9
$USRTIMER
 70
     1
  9
$ANGBASE
 50
0.0
  9
$ANGDIR
 70
     0
  9
$PDMODE
 70
     0
  9
$PDSIZE
 40
-1.0
  9
$PLINEWID
 40
0.0
  9
$SPLFRAME
 70
     0
  9
$SPLINETYPE
 70
     6
  9
$SPLINESEGS
 70
     8
  9
$HANDSEED
  5
35B
  9
$SURFTAB1
 70
     6
  9
$SURFTAB2
 70
     6
  9
$SURFTYPE
 70
     6
  9
$SURFU
 70
     6
  9
$SURFV
 70
     6
  9
$UCSBASE
  2

  9
$UCSNAME
  2

  9
$UCSORG
 10
0.0
 20
0.0
 30
0.0
  9
$UCSXDIR
 10
1.0
 20
0.0
 30
0.0
  9
$UCSYDIR
 10
0.0
 20
1.0
 30
0.0
  9
$UCSORTHOREF
  2

  9
$UCSORTHOVIEW
 70
     0
  9
$UCSORGTOP
 10
0.0
 20
0.0
 30
0.0
  9
$UCSORGBOTTOM
 10
0.0
 20
0.0
 30
0.0
  9
$UCSORGLEFT
 10
0.0
 20
0.0
 30
0.0
  9
$UCSORGRIGHT
 10
0.0
 20
0.0
 30
0.0
  9
$UCSORGFRONT
 10
0.0
 20
0.0
 30
0.0
  9
$UCSORGBACK
 10
0.0
 20
0.0
 30
0.0
  9
$PUCSBASE
  2

  9
$PUCSNAME
  2

  9
$PUCSORG
 10
0.0
 20
0.0
 30
0.0
  9
$PUCSXDIR
 10
1.0
 20
0.0
 30
0.0
  9
$PUCSYDIR
 10
0.0
 20
1.0
 30
0.0
  9
$PUCSORTHOREF
  2

  9
$PUCSORTHOVIEW
 70
     0
  9
$PUCSORGTOP
 10
0.0
 20
0.0
 30
0.0
  9
$PUCSORGBOTTOM
 10
0.0
 20
0.0
 30
0.0
  9
$PUCSORGLEFT
 10
0.0
 20
0.0
 30
0.0
  9
$PUCSORGRIGHT
 10
0.0
 20
0.0
 30
0.0
  9
$PUCSORGFRONT
 10
0.0
 20
0.0
 30
0.0
  9
$PUCSORGBACK
 10
0.0
 20
0.0
 30
0.0
  9
$USERI1
 70
     0
  9
$USERI2
 70
     0
  9
$USERI3
 70
     0
  9
$USERI4
 70
     0
  9
$USERI5
 70
     0
  9
$USERR1
 40
0.0
  9
$USERR2
 40
0.0
  9
$USERR3
 40
0.0
  9
$USERR4
 40
0.0
  9
$USERR5
 40
0.0
  9
$WORLDVIEW
 70
     1
  9
$SHADEDGE
 70
     3
  9
$SHADEDIF
 70
    70
  9
$TILEMODE
 70
     1
  9
$MAXACTVP
 70
    64
  9
$PINSBASE
 10
0.0
 20
0.0
 30
0.0
  9
$PLIMCHECK
 70
     0
  9
$PEXTMIN
 10
1.0000000000E+20
 20
1.0000000000E+20
 30
1.0000000000E+20
  9
$PEXTMAX
 10
-1.0000000000E+20
 20
-1.0000000000E+20
 30
-1.0000000000E+20
  9
$PLIMMIN
 10
0.0
 20
0.0
  9
$PLIMMAX
 10
12.0
 20
9.0
  9
$UNITMODE
 70
     0
  9
$VISRETAIN
 70
     1
  9
$PLINEGEN
 70
     0
  9
$PSLTSCALE
 70
     1
  9
$TREEDEPTH
 70
  3020
  9
$CMLSTYLE
  2
Standard
  9
$CMLJUST
 70
     0
  9
$CMLSCALE
 40
1.0
  9
$PROXYGRAPHICS
 70
     1
  9
$MEASUREMENT
 70
     0
  9
$CELWEIGHT
370
    -1
  9
$ENDCAPS
280
     0
  9
$JOINSTYLE
280
     0
  9
$LWDISPLAY
290
     1
  9
$INSUNITS
 70
     1
  9
$HYPERLINKBASE
  1

  9
$STYLESHEET
  1

  9
$XEDIT
290
     1
  9
$CEPSNTYPE
380
     0
  9
$PSTYLEMODE
290
     1
  9
$FINGERPRINTGUID
  2
{8BE02E4D-07BD-488D-BEAF-739FFBB25060}
  9
$VERSIONGUID
  2
{FAEB1C32-E019-11D5-929B-00C0DF256EC4}
  9
$EXTNAMES
290
     1
  9
$PSVPSCALE
 40
0.0
  9
$OLESTARTUP
290
     0
  0
ENDSEC
  0
SECTION
  2
CLASSES
  0
CLASS
  1
ACDBDICTIONARYWDFLT
  2
AcDbDictionaryWithDefault
  3
ObjectDBX Classes
 90
        0
280
     0
281
     0
  0
CLASS
  1
VISUALSTYLE
  2
AcDbVisualStyle
  3
ObjectDBX Classes
 90
     4095
280
     0
281
     0
  0
CLASS
  1
MATERIAL
  2
AcDbMaterial
  3
ObjectDBX Classes
 90
     1153
280
     0
281
     0
  0
CLASS
  1
SCALE
  2
AcDbScale
  3
ObjectDBX Classes
 90
     1153
280
     0
281
     0
  0
CLASS
  1
SUN
  2
AcDbSun
  3
SCENEOE
 90
     1153
280
     0
281
     0
  0
CLASS
  1
ACDBPLACEHOLDER
  2
AcDbPlaceHolder
  3
ObjectDBX Classes
 90
        0
280
     0
281
     0
  0
CLASS
  1
LAYOUT
  2
AcDbLayout
  3
ObjectDBX Classes
 90
        0
280
     0
281
     0
  0
ENDSEC
  0
SECTION
  2
TABLES
  0
TABLE
  2
VPORT
  5
8
330
0
100
AcDbSymbolTable
 70
     1
  0
VPORT
  5
29
330
8
100
AcDbSymbolTableRecord
100
AcDbViewportTableRecord
  2
*Active
 70
     0
 10
0.0
 20
0.0
 11
1.0
 21
1.0
 12
5.5
 22
4.25
 13
0.0
 23
0.0
 14
0.5
 24
0.5
 15
0.5
 25
0.5
 16
0.0
 26
0.0
 36
1.0
 17
0.0
 27
0.0
 37
0.0
 40
8.5
 41
1.2941176471
 42
50.0
 43
0.0
 44
0.0
 50
0.0
 51
0.0
 71
     0
 72
  2000
 73
     1
 74
     3
 75
     0
 76
     0
 77
     0
 78
     0
281
     0
 65
     1
110
0.0
120
0.0
130
0.0
111
1.0
121
0.0
131
0.0
112
0.0
122
1.0
132
0.0
 79
     0
146
0.0
  0
ENDTAB
  0
TABLE
  2
LTYPE
  5
5
330
0
100
AcDbSymbolTable
 70
     6
  0
LTYPE
  5
14
330
5
100
AcDbSymbolTableRecord
100
AcDbLinetypeTableRecord
  2
ByBlock
 70
     0
  3

 72
    65
 73
     0
 40
0.0
  0
LTYPE
  5
15
330
5
100
AcDbSymbolTableRecord
100
AcDbLinetypeTableRecord
  2
ByLayer
 70
     0
  3

 72
    65
 73
     0
 40
0.0
  0
LTYPE
  5
16
330
5
100
AcDbSymbolTableRecord
100
AcDbLinetypeTableRecord
  2
Continuous
 70
     0
  3
Solid line
 72
    65
 73
     0
 40
0.0
  0
LTYPE
  5
6A
330
5
100
AcDbSymbolTableRecord
100
AcDbLinetypeTableRecord
  2
HIDDEN
 70
     0
  3
Hidden __ __ __ __ __ __ __ __ __ __ __ __ __ __
 72
    65
 73
     2
 40
0.075
 49
0.05
 74
     0
 49
-0.025
 74
     0
  0
LTYPE
  5
6B
330
5
100
AcDbSymbolTableRecord
100
AcDbLinetypeTableRecord
  2
PHANTOM
 70
     0
  3
Phantom ______  __  __  ______  __  __  ______
 72
    65
 73
     6
 40
0.5
 49
0.25
 74
     0
 49
-0.05
 74
     0
 49
0.05
 74
     0
 49
-0.05
 74
     0
 49
0.05
 74
     0
 49
-0.05
 74
     0
  0
LTYPE
  5
6C
330
5
100
AcDbSymbolTableRecord
100
AcDbLinetypeTableRecord
  2
CENTER
 70
     0
  3
Center ____ _ ____ _ ____ _ ____ _ ____ _ ____
 72
    65
 73
     4
 40
0.4
 49
0.25
 74
     0
 49
-0.05
 74
     0
 49
0.05
 74
     0
 49
-0.05
 74
     0
  0
LTYPE
  5
6D
330
5
100
AcDbSymbolTableRecord
100
AcDbLinetypeTableRecord
  2
CENTERX2
 70
     0
  3
Center (2x) ________  __  ________  __  _____
 72
    65
 73
     4
 40
0.8
 49
0.5
 74
     0
 49
-0.1
 74
     0
 49
0.1
 74
     0
 49
-0.1
 74
     0
  0
LTYPE
  5
6E
330
5
100
AcDbSymbolTableRecord
100
AcDbLinetypeTableRecord
  2
DOT2
 70
     0
  3
Dot (.5x) ........................................
 72
    65
 73
     2
 40
0.025
 49
0.0
 74
     0
 49
-0.025
 74
     0
  0
ENDTAB
  0
TABLE
  2
LAYER
  5
2
330
0
100
AcDbSymbolTable
 70
     2
  0
LAYER
  5
10
330
2
100
AcDbSymbolTableRecord
100
AcDbLayerTableRecord
  2
0
 70
     0
 62
     7
  6
Continuous
370
    -3
390
F
  0
LAYER
  5
6F
330
2
100
AcDbSymbolTableRecord
100
AcDbLayerTableRecord
  2
FORMAT
 70
     0
 62
     7
  6
Continuous
370
    -3
390
F
  0
ENDTAB
  0
TABLE
  2
STYLE
  5
3
330
0
100
AcDbSymbolTable
 70
     5
  0
STYLE
  5
11
330
3
100
AcDbSymbolTableRecord
100
AcDbTextStyleTableRecord
  2
Standard
 70
     0
 40
0.0
 41
1.0
 50
0.0
 71
     0
 42
0.1111111111
  3
txt
  4

  0
STYLE
  5
96
330
3
100
AcDbSymbolTableRecord
100
AcDbTextStyleTableRecord
  2
SLDTEXTSTYLE0
 70
     0
 40
0.0
 41
0.75
 50
0.0
 71
     0
 42
0.1111111111
  3
TXT
  4

  0
STYLE
  5
A2
330
3
100
AcDbSymbolTableRecord
100
AcDbTextStyleTableRecord
  2
SLDTEXTSTYLE1
 70
     0
 40
0.0
 41
0.6
 50
0.0
 71
     0
 42
0.1111111111
  3
TXT
  4

  0
STYLE
  5
A7
330
3
100
AcDbSymbolTableRecord
100
AcDbTextStyleTableRecord
  2
SLDTEXTSTYLE2
 70
     0
 40
0.0
 41
0.6875
 50
0.0
 71
     0
 42
0.1111111111
  3
TXT
  4

  0
STYLE
  5
1C6
330
3
100
AcDbSymbolTableRecord
100
AcDbTextStyleTableRecord
  2
SLDTEXTSTYLE3
 70
     0
 40
0.0
 41
0.7
 50
0.0
 71
     0
 42
0.1111111111
  3
TXT
  4

  0
ENDTAB
  0
TABLE
  2
VIEW
  5
6
330
0
100
AcDbSymbolTable
 70
     0
  0
ENDTAB
  0
TABLE
  2
UCS
  5
7
330
0
100
AcDbSymbolTable
 70
     0
  0
ENDTAB
  0
TABLE
  2
APPID
  5
9
330
0
100
AcDbSymbolTable
 70
     1
  0
APPID
  5
12
330
9
100
AcDbSymbolTableRecord
100
AcDbRegAppTableRecord
  2
ACAD
 70
     0
  0
ENDTAB
  0
TABLE
  2
DIMSTYLE
  5
A
330
0
100
AcDbSymbolTable
 70
     5
100
AcDbDimStyleTable
  0
DIMSTYLE
105
27
330
A
100
AcDbSymbolTableRecord
100
AcDbDimStyleTableRecord
  2
Standard
 70
     0
178
     0
340
11
  0
DIMSTYLE
105
11A
102
{ACAD_REACTORS
330
119
102
}
330
A
100
AcDbSymbolTableRecord
100
AcDbDimStyleTableRecord
  2
SLDDIMSTYLE0
 70
     0
 41
0.125
 44
0.0
 45
0.000000001
 78
     4
 79
     1
140
0.0833333333
141
0.0
147
0.0208333333
148
0.000000001
170
     1
171
     1
173
     1
178
     0
271
     2
272
     2
274
     1
276
     2
284
    12
340
96
  0
DIMSTYLE
105
187
102
{ACAD_REACTORS
330
186
330
19B
102
}
330
A
100
AcDbSymbolTableRecord
100
AcDbDimStyleTableRecord
  2
SLDDIMSTYLE1
 70
     0
 41
0.125
 44
0.0
 45
0.000000001
 78
     8
 79
     2
140
0.0833333333
147
0.0208333333
148
0.000000001
170
     1
171
     1
172
     1
173
     1
178
     0
271
     2
272
     2
274
     1
276
     2
284
    12
289
     0
340
96
  0
DIMSTYLE
105
1B0
102
{ACAD_REACTORS
330
1AF
102
}
330
A
100
AcDbSymbolTableRecord
100
AcDbDimStyleTableRecord
  2
SLDDIMSTYLE2
 70
     0
 41
0.125
 44
0.0
 45
0.000000001
 78
     4
 79
     1
140
0.0833333333
147
0.0208333333
148
0.000000001
170
     1
171
     1
173
     1
178
     0
271
     2
272
     2
274
     1
276
     2
284
    12
340
96
  0
DIMSTYLE
105
1CB
330
A
100
AcDbSymbolTableRecord
100
AcDbDimStyleTableRecord
  2
SLDDIMSTYLE3
 70
     0
 41
0.125
 44
0.0
 45
0.000000001
146
0.125
147
0.0
173
     1
178
     0
271
     0
272
     0
276
     2
340
11
  0
ENDTAB
  0
TABLE
  2
BLOCK_RECORD
  5
1
330
0
100
AcDbSymbolTable
 70
    20
  0
BLOCK_RECORD
  5
1F
330
1
100
AcDbSymbolTableRecord
100
AcDbBlockTableRecord
  2
*Model_Space
340
22
  0
BLOCK_RECORD
  5
1B
330
1
100
AcDbSymbolTableRecord
100
AcDbBlockTableRecord
  2
*Paper_Space
340
1E
  0
BLOCK_RECORD
  5
23
330
1
100
AcDbSymbolTableRecord
100
AcDbBlockTableRecord
  2
*Paper_Space0
340
26
  0
BLOCK_RECORD
  5
70
330
1
100
AcDbSymbolTableRecord
100
AcDbBlockTableRecord
  2
Third Angle Projection Block
340
0
102
{BLKREFS
331
95
102
}
  0
BLOCK_RECORD
  5
A9
330
1
100
AcDbSymbolTableRecord
100
AcDbBlockTableRecord
  2
SW_NOTE_0
340
0
102
{BLKREFS
331
AE
102
}
  0
BLOCK_RECORD
  5
AF
330
1
100
AcDbSymbolTableRecord
100
AcDbBlockTableRecord
  2
SW_NOTE_1
340
0
102
{BLKREFS
331
B4
102
}
  0
BLOCK_RECORD
  5
B6
330
1
100
AcDbSymbolTableRecord
100
AcDbBlockTableRecord
  2
SW_NOTE_2
340
0
102
{BLKREFS
331
BC
102
}
  0
BLOCK_RECORD
  5
BE
330
1
100
AcDbSymbolTableRecord
100
AcDbBlockTableRecord
  2
SW_NOTE_3
340
0
102
{BLKREFS
331
C3
102
}
  0
BLOCK_RECORD
  5
C4
330
1
100
AcDbSymbolTableRecord
100
AcDbBlockTableRecord
  2
SW_NOTE_4
340
0
102
{BLKREFS
331
D6
102
}
  0
BLOCK_RECORD
  5
D7
330
1
100
AcDbSymbolTableRecord
100
AcDbBlockTableRecord
  2
SW_TABLEANNOTATION_0
340
0
102
{BLKREFS
331
100
102
}
  0
BLOCK_RECORD
  5
E5
330
1
100
AcDbSymbolTableRecord
100
AcDbBlockTableRecord
  2
SW_SYMBOL_C#_1
340
0
102
{BLKREFS
331
EA
102
}
  0
BLOCK_RECORD
  5
EE
330
1
100
AcDbSymbolTableRecord
100
AcDbBlockTableRecord
  2
SW_SYMBOL_C#_2
340
0
102
{BLKREFS
331
F3
102
}
  0
BLOCK_RECORD
  5
F6
330
1
100
AcDbSymbolTableRecord
100
AcDbBlockTableRecord
  2
SW_SYMBOL_C#_3
340
0
102
{BLKREFS
331
FB
102
}
  0
BLOCK_RECORD
  5
11B
330
1
100
AcDbSymbolTableRecord
100
AcDbBlockTableRecord
  2
_D
340
0
  0
BLOCK_RECORD
  5
188
330
1
100
AcDbSymbolTableRecord
100
AcDbBlockTableRecord
  2
_D_1
340
0
  0
BLOCK_RECORD
  5
19C
330
1
100
AcDbSymbolTableRecord
100
AcDbBlockTableRecord
  2
_D_2
340
0
  0
BLOCK_RECORD
  5
1B1
330
1
100
AcDbSymbolTableRecord
100
AcDbBlockTableRecord
  2
_D_3
340
0
  0
BLOCK_RECORD
  5
1C3
330
1
100
AcDbSymbolTableRecord
100
AcDbBlockTableRecord
  2
SW_NOTE_5
340
0
102
{BLKREFS
331
1CA
102
}
  0
BLOCK_RECORD
  5
1CD
330
1
100
AcDbSymbolTableRecord
100
AcDbBlockTableRecord
  2
SW_NOTE_6
340
0
102
{BLKREFS
331
1D3
102
}
  0
BLOCK_RECORD
  5
1D5
330
1
100
AcDbSymbolTableRecord
100
AcDbBlockTableRecord
  2
SW_NOTE_7
340
0
102
{BLKREFS
331
1DA
102
}
  0
BLOCK_RECORD
  5
1DC
330
1
100
AcDbSymbolTableRecord
100
AcDbBlockTableRecord
  2
SW_NOTE_8
340
0
102
{BLKREFS
331
1E1
102
}
  0
BLOCK_RECORD
  5
1E3
330
1
100
AcDbSymbolTableRecord
100
AcDbBlockTableRecord
  2
SW_NOTE_9
340
0
102
{BLKREFS
331
1E8
102
}
  0
ENDTAB
  0
ENDSEC
  0
SECTION
  2
BLOCKS
  0
BLOCK
  5
20
330
1F
100
AcDbEntity
  8
0
100
AcDbBlockBegin
  2
*Model_Space
 70
     0
 10
0.0
 20
0.0
 30
0.0
  3
*Model_Space
  1
*Model_Space
  0
ENDBLK
  5
21
330
1F
100
AcDbEntity
  8
0
100
AcDbBlockEnd
  0
BLOCK
  5
1C
330
1B
100
AcDbEntity
 67
     1
  8
0
100
AcDbBlockBegin
  2
*Paper_Space
 70
     0
 10
0.0
 20
0.0
 30
0.0
  3
*Paper_Space
  1
*Paper_Space
  0
ENDBLK
  5
1D
330
1B
100
AcDbEntity
 67
     1
  8
0
100
AcDbBlockEnd
  0
BLOCK
  5
24
330
23
100
AcDbEntity
  8
0
100
AcDbBlockBegin
  2
*Paper_Space0
 70
     0
 10
0.0
 20
0.0
 30
0.0
  3
*Paper_Space0
  1
*Paper_Space0
  0
ENDBLK
  5
25
330
23
100
AcDbEntity
  8
0
100
AcDbBlockEnd
  0
BLOCK
  5
71
330
70
100
AcDbEntity
  8
0
100
AcDbBlockBegin
  2
Third Angle Projection Block
 70
     0
 10
0.0
 20
0.0
 30
0.0
  3
Third Angle Projection Block
  1
Third Angle Projection Block
  0
CIRCLE
  5
73
330
70
100
AcDbEntity
  8
0
  6
Continuous
 62
     7
370
    30
100
AcDbCircle
 10
3.9951432636
 20
0.7456853688
 30
0.0
 40
0.0696152422706639
  0
CIRCLE
  5
74
330
70
100
AcDbEntity
  8
0
  6
Continuous
 62
     7
370
    30
100
AcDbCircle
 10
3.9951432636
 20
0.7456853688
 30
0.0
 40
0.1535916633280245
  0
LINE
  5
75
330
70
100
AcDbEntity
  8
0
  6
CENTERX2
 62
     7
370
     0
100
AcDbLine
 10
4.3360937897
 20
0.7456853688
 30
0.0
 11
4.7028635231
 21
0.7456853688
 31
0.0
  0
LINE
  5
76
330
70
100
AcDbEntity
  8
0
  6
Continuous
 62
     7
370
    30
100
AcDbLine
 10
4.3701432636
 20
0.815300611
 30
0.0
 11
4.3701432636
 21
0.6760701265
 31
0.0
  0
LINE
  5
77
330
70
100
AcDbEntity
  8
0
  6
Continuous
 62
     7
370
    30
100
AcDbLine
 10
4.3701432636
 20
0.6760701265
 30
0.0
 11
4.6701432636
 21
0.5956853688
 31
0.0
  0
LINE
  5
78
330
70
100
AcDbEntity
  8
0
  6
Continuous
 62
     7
370
    30
100
AcDbLine
 10
4.6701432636
 20
0.5956853688
 30
0.0
 11
4.6701432636
 21
0.8956853688
 31
0.0
  0
LINE
  5
79
330
70
100
AcDbEntity
  8
0
  6
Continuous
 62
     7
370
    30
100
AcDbLine
 10
4.6701432636
 20
0.8956853688
 30
0.0
 11
4.3701432636
 21
0.815300611
 31
0.0
  0
LINE
  5
7A
330
70
100
AcDbEntity
  8
0
  6
CENTERX2
 62
     7
370
     0
100
AcDbLine
 10
3.8032513961
 20
0.7456853688
 30
0.0
 11
4.187035131
 21
0.7456853688
 31
0.0
  0
LINE
  5
7B
330
70
100
AcDbEntity
  8
0
  6
CENTERX2
 62
     7
370
     0
100
AcDbLine
 10
3.9951432636
 20
0.9375772362
 30
0.0
 11
3.9951432636
 21
0.5537935013
 31
0.0
  0
POINT
  5
7C
330
70
100
AcDbEntity
  8
0
  6
Continuous
 62
     7
370
     0
100
AcDbPoint
 10
3.9951432636
 20
0.7456853688
 30
0.0
  0
ENDBLK
  5
72
330
70
100
AcDbEntity
  8
0
100
AcDbBlockEnd
  0
BLOCK
  5
AA
330
A9
100
AcDbEntity
  8
0
100
AcDbBlockBegin
  2
SW_NOTE_0
 70
     0
 10
0.0
 20
0.0
 30
0.0
  3
SW_NOTE_0
  1
SW_NOTE_0
  0
MTEXT
  5
AC
330
A9
100
AcDbEntity
  8
0
  6
Continuous
 62
     0
370
     0
100
AcDbMText
 10
0.78375
 20
0.0773440644
 30
0.0
 40
0.06
 41
0.0
 71
     2
 72
     1
  1
VALUES IN PARENTHESIS ARE CALCULATED
  7
SLDTEXTSTYLE0
 73
     1
 44
1.0
  0
MTEXT
  5
AD
330
A9
100
AcDbEntity
  8
0
  6
Continuous
 62
     0
370
     0
100
AcDbMText
 10
0.7825936818
 20
-0.0220260102
 30
0.0
 40
0.06
 41
0.0
 71
     2
 72
     1
  1
AND MAY CONTAIN ROUNDOFF ERRORS
  7
SLDTEXTSTYLE0
 73
     1
 44
1.0
  0
ENDBLK
  5
AB
330
A9
100
AcDbEntity
  8
0
100
AcDbBlockEnd
  0
BLOCK
  5
B0
330
AF
100
AcDbEntity
  8
0
100
AcDbBlockBegin
  2
SW_NOTE_1
 70
     0
 10
0.0
 20
0.0
 30
0.0
  3
SW_NOTE_1
  1
SW_NOTE_1
  0
MTEXT
  5
B2
330
AF
100
AcDbEntity
  8
0
  6
Continuous
 62
     0
370
     0
100
AcDbMText
 10
0.0
 20
0.1074223116
 30
0.0
 40
0.0833333333
 41
0.0
 71
     1
 72
     1
  1
DRAWING
  7
SLDTEXTSTYLE0
 73
     1
 44
1.0
  0
MTEXT
  5
B3
330
AF
100
AcDbEntity
  8
0
  6
Continuous
 62
     0
370
     0
100
AcDbMText
 10
0.0
 20
-0.0036887981
 30
0.0
 40
0.0833333333
 41
0.0
 71
     1
 72
     1
  1
PROJECTION
  7
SLDTEXTSTYLE0
 73
     1
 44
1.0
  0
ENDBLK
  5
B1
330
AF
100
AcDbEntity
  8
0
100
AcDbBlockEnd
  0
BLOCK
  5
B7
330
B6
100
AcDbEntity
  8
0
100
AcDbBlockBegin
  2
SW_NOTE_2
 70
     0
 10
0.0
 20
0.0
 30
0.0
  3
SW_NOTE_2
  1
SW_NOTE_2
  0
MTEXT
  5
B9
330
B6
100
AcDbEntity
  8
0
  6
Continuous
 62
     0
370
     0
100
AcDbMText
 10
0.0823567708
 20
0.1477056785
 30
0.0
 40
0.1145833333
 41
0.0
 71
     2
 72
     1
  1
%%c
  7
SLDTEXTSTYLE0
 73
     1
 44
1.0
  0
MTEXT
  5
BA
330
B6
100
AcDbEntity
  8
0
  6
Continuous
 62
     0
370
     0
100
AcDbMText
 10
1.2471759303
 20
0.1477056785
 30
0.0
 40
0.1145833333
 41
0.0
 71
     2
 72
     1
  1
2" MOUNTED PLANO-CONVEX
  7
SLDTEXTSTYLE0
 73
     1
 44
1.0
  0
MTEXT
  5
BB
330
B6
100
AcDbEntity
  8
0
  6
Continuous
 62
     0
370
     0
100
AcDbMText
 10
1.1657237782
 20
-0.0050720974
 30
0.0
 40
0.1145833333
 41
0.0
 71
     2
 72
     1
  1
LENS, f=1000mm
  7
SLDTEXTSTYLE0
 73
     1
 44
1.0
  0
ENDBLK
  5
B8
330
B6
100
AcDbEntity
  8
0
100
AcDbBlockEnd
  0
BLOCK
  5
BF
330
BE
100
AcDbEntity
  8
0
100
AcDbBlockBegin
  2
SW_NOTE_3
 70
     0
 10
0.0
 20
0.0
 30
0.0
  3
SW_NOTE_3
  1
SW_NOTE_3
  0
MTEXT
  5
C1
330
BE
100
AcDbEntity
  8
0
  6
Continuous
 62
     0
370
     0
100
AcDbMText
 10
0.986328125
 20
0.1611334675
 30
0.0
 40
0.125
 41
0.0
 71
     2
 72
     1
  1
FOR INFORMATION ONLY
  7
SLDTEXTSTYLE0
 73
     1
 44
1.0
  0
MTEXT
  5
C2
330
BE
100
AcDbEntity
  8
0
  6
Continuous
 62
     0
370
     0
100
AcDbMText
 10
0.999088459
 20
-0.0055331972
 30
0.0
 40
0.125
 41
0.0
 71
     2
 72
     1
  1
NOT FOR MANUFACTURING PURPOSES
  7
SLDTEXTSTYLE0
 73
     1
 44
1.0
  0
ENDBLK
  5
C0
330
BE
100
AcDbEntity
  8
0
100
AcDbBlockEnd
  0
BLOCK
  5
C5
330
C4
100
AcDbEntity
  8
0
100
AcDbBlockBegin
  2
SW_NOTE_4
 70
     0
 10
0.0
 20
0.0
 30
0.0
  3
SW_NOTE_4
  1
SW_NOTE_4
  0
MTEXT
  5
C7
330
C4
100
AcDbEntity
  8
0
  6
Continuous
 62
     0
370
     0
100
AcDbMText
 10
0.0
 20
0.1074223116
 30
0.0
 40
0.0833333333
 41
0.0
 71
     1
 72
     1
  1
NOTES/SPECIFICATIONS:
  7
SLDTEXTSTYLE0
 73
     1
 44
1.0
  0
MTEXT
  5
C8
330
C4
100
AcDbEntity
  8
0
  6
Continuous
 62
     0
370
     0
100
AcDbMText
 10
0.4183921567
 20
-0.1147999079
 30
0.0
 40
0.0833333333
 41
0.0
 71
     1
 72
     1
  1
DESIGN WAVELENGTH: 633nm
  7
SLDTEXTSTYLE0
 73
     1
 44
1.0
  0
MTEXT
  5
C9
330
C4
100
AcDbEntity
  8
0
  6
Continuous
 62
     0
370
     0
100
AcDbMText
 10
0.0
 20
-0.1147999079
 30
0.0
 40
0.0833333333
 41
0.0
 71
     1
 72
     1
  1
1.
  7
SLDTEXTSTYLE0
 73
     1
 44
1.0
  0
MTEXT
  5
CA
330
C4
100
AcDbEntity
  8
0
  6
Continuous
 62
     0
370
     0
100
AcDbMText
 10
0.4183921567
 20
-0.2259110177
 30
0.0
 40
0.0833333333
 41
0.0
 71
     1
 72
     1
  1
FOCAL LENGTH: f=1000.0mm
  7
SLDTEXTSTYLE0
 73
     1
 44
1.0
  0
MTEXT
  5
CB
330
C4
100
AcDbEntity
  8
0
  6
Continuous
 62
     0
370
     0
100
AcDbMText
 10
1.9474045601
 20
-0.2259110177
 30
0.0
 40
0.0833333333
 41
0.0
 71
     1
 72
     1
  1
%%p
  7
SLDTEXTSTYLE0
 73
     1
 44
1.0
  0
MTEXT
  5
CC
330
C4
100
AcDbEntity
  8
0
  6
Continuous
 62
     0
370
     0
100
AcDbMText
 10
2.0268490157
 20
-0.2259110177
 30
0.0
 40
0.0833333333
 41
0.0
 71
     1
 72
     1
  1
1%
  7
SLDTEXTSTYLE0
 73
     1
 44
1.0
  0
MTEXT
  5
CD
330
C4
100
AcDbEntity
  8
0
  6
Continuous
 62
     0
370
     0
100
AcDbMText
 10
0.0
 20
-0.2259110177
 30
0.0
 40
0.0833333333
 41
0.0
 71
     1
 72
     1
  1
2.
  7
SLDTEXTSTYLE0
 73
     1
 44
1.0
  0
MTEXT
  5
CE
330
C4
100
AcDbEntity
  8
0
  6
Continuous
 62
     0
370
     0
100
AcDbMText
 10
0.4183921567
 20
-0.3370221274
 30
0.0
 40
0.0833333333
 41
0.0
 71
     1
 72
     1
  1
WORKING DISTANCE (REF): 993.8mm
  7
SLDTEXTSTYLE0
 73
     1
 44
1.0
  0
MTEXT
  5
CF
330
C4
100
AcDbEntity
  8
0
  6
Continuous
 62
     0
370
     0
100
AcDbMText
 10
0.0
 20
-0.3370221274
 30
0.0
 40
0.0833333333
 41
0.0
 71
     1
 72
     1
  1
3.
  7
SLDTEXTSTYLE0
 73
     1
 44
1.0
  0
MTEXT
  5
D0
330
C4
100
AcDbEntity
  8
0
  6
Continuous
 62
     0
370
     0
100
AcDbMText
 10
0.4183921567
 20
-0.4481332372
 30
0.0
 40
0.0833333333
 41
0.0
 71
     1
 72
     1
  1
CLEAR APERTURE: >
  7
SLDTEXTSTYLE0
 73
     1
 44
1.0
  0
MTEXT
  5
D1
330
C4
100
AcDbEntity
  8
0
  6
Continuous
 62
     0
370
     0
100
AcDbMText
 10
1.4507996036
 20
-0.4481332372
 30
0.0
 40
0.0833333333
 41
0.0
 71
     1
 72
     1
  1
%%c
  7
SLDTEXTSTYLE0
 73
     1
 44
1.0
  0
MTEXT
  5
D2
330
C4
100
AcDbEntity
  8
0
  6
Continuous
 62
     0
370
     0
100
AcDbMText
 10
1.5765865971
 20
-0.4481332372
 30
0.0
 40
0.0833333333
 41
0.0
 71
     1
 72
     1
  1
45.72mm
  7
SLDTEXTSTYLE0
 73
     1
 44
1.0
  0
MTEXT
  5
D3
330
C4
100
AcDbEntity
  8
0
  6
Continuous
 62
     0
370
     0
100
AcDbMText
 10
0.0
 20
-0.4481332372
 30
0.0
 40
0.0833333333
 41
0.0
 71
     1
 72
     1
  1
4.
  7
SLDTEXTSTYLE0
 73
     1
 44
1.0
  0
MTEXT
  5
D4
330
C4
100
AcDbEntity
  8
0
  6
Continuous
 62
     0
370
     0
100
AcDbMText
 10
0.4183921567
 20
-0.559244347
 30
0.0
 40
0.0833333333
 41
0.0
 71
     1
 72
     1
  1
SURFACE QUALITY: 40-20 SCRATCH-DIG
  7
SLDTEXTSTYLE0
 73
     1
 44
1.0
  0
MTEXT
  5
D5
330
C4
100
AcDbEntity
  8
0
  6
Continuous
 62
     0
370
     0
100
AcDbMText
 10
0.0
 20
-0.559244347
 30
0.0
 40
0.0833333333
 41
0.0
 71
     1
 72
     1
  1
5.
  7
SLDTEXTSTYLE0
 73
     1
 44
1.0
  0
ENDBLK
  5
C6
330
C4
100
AcDbEntity
  8
0
100
AcDbBlockEnd
  0
BLOCK
  5
D8
330
D7
100
AcDbEntity
  8
0
100
AcDbBlockBegin
  2
SW_TABLEANNOTATION_0
 70
     0
 10
0.0
 20
0.0
 30
0.0
  3
SW_TABLEANNOTATION_0
  1
SW_TABLEANNOTATION_0
  0
LINE
  5
DA
330
D7
100
AcDbEntity
  8
0
  6
Continuous
 62
     0
370
     0
100
AcDbLine
 10
0.0
 20
0.0
 30
0.0
 11
0.0
 21
-1.2444444391
 31
0.0
  0
LINE
  5
DB
330
D7
100
AcDbEntity
  8
0
  6
Continuous
 62
     0
370
     0
100
AcDbLine
 10
0.0
 20
-1.2444444391
 30
0.0
 11
3.3
 21
-1.2444444391
 31
0.0
  0
LINE
  5
DC
330
D7
100
AcDbEntity
  8
0
  6
Continuous
 62
     0
370
     0
100
AcDbLine
 10
3.3
 20
-1.2444444391
 30
0.0
 11
3.3
 21
0.0
 31
0.0
  0
LINE
  5
DD
330
D7
100
AcDbEntity
  8
0
  6
Continuous
 62
     0
370
     0
100
AcDbLine
 10
3.3
 20
0.0
 30
0.0
 11
0.0
 21
0.0
 31
0.0
  0
LINE
  5
DE
330
D7
100
AcDbEntity
  8
0
  6
Continuous
 62
     0
370
     0
100
AcDbLine
 10
1.1
 20
0.0
 30
0.0
 11
1.1
 21
-1.2444444391
 31
0.0
  0
LINE
  5
DF
330
D7
100
AcDbEntity
  8
0
  6
Continuous
 62
     0
370
     0
100
AcDbLine
 10
2.2
 20
0.0
 30
0.0
 11
2.2
 21
-1.2444444391
 31
0.0
  0
LINE
  5
E0
330
D7
100
AcDbEntity
  8
0
  6
Continuous
 62
     0
370
     0
100
AcDbLine
 10
0.0
 20
-0.3111111098
 30
0.0
 11
3.3
 21
-0.3111111098
 31
0.0
  0
LINE
  5
E1
330
D7
100
AcDbEntity
  8
0
  6
Continuous
 62
     0
370
     0
100
AcDbLine
 10
0.0
 20
-0.6222222195
 30
0.0
 11
3.3
 21
-0.6222222195
 31
0.0
  0
LINE
  5
E2
330
D7
100
AcDbEntity
  8
0
  6
Continuous
 62
     0
370
     0
100
AcDbLine
 10
0.0
 20
-0.9333333293
 30
0.0
 11
3.3
 21
-0.9333333293
 31
0.0
  0
MTEXT
  5
E3
330
D7
100
AcDbEntity
  8
0
  6
Continuous
 62
     0
370
     0
100
AcDbMText
 10
1.1543981952
 20
-0.1140373979
 30
0.0
 40
0.0833333333
 41
0.0
 71
     1
 72
     1
  1
PART DESCRIPTION
  7
SLDTEXTSTYLE0
 73
     1
 44
1.0
  0
MTEXT
  5
E4
330
D7
100
AcDbEntity
  8
0
  6
Continuous
 62
     0
370
     0
100
AcDbMText
 10
2.491203698
 20
-0.1140373979
 30
0.0
 40
0.0833333333
 41
0.0
 71
     1
 72
     1
  1
MATERIAL
  7
SLDTEXTSTYLE0
 73
     1
 44
1.0
  0
INSERT
  5
EA
330
D7
100
AcDbEntity
  8
0
  6
Continuous
 62
     0
370
     0
100
AcDbBlockReference
  2
SW_SYMBOL_C#_1
 10
0.4374537001
 20
-0.5210148297
 30
0.0
 41
0.0027037109
 42
0.0027037109
 43
0.0027037109
  0
MTEXT
  5
EB
330
D7
100
AcDbEntity
  8
0
  6
Continuous
 62
     0
370
     0
100
AcDbMText
 10
1.4729938215
 20
-0.4251485077
 30
0.0
 40
0.0833333333
 41
0.0
 71
     1
 72
     1
  1
SM2RR
  7
SLDTEXTSTYLE0
 73
     1
 44
1.0
  0
MTEXT
  5
EC
330
D7
100
AcDbEntity
  8
0
  6
Continuous
 62
     0
370
     0
100
AcDbMText
 10
2.4676697448
 20
-0.3695929528
 30
0.0
 40
0.0833333333
 41
0.0
 71
     1
 72
     1
  1
ANODIZED
  7
SLDTEXTSTYLE0
 73
     1
 44
1.0
  0
MTEXT
  5
ED
330
D7
100
AcDbEntity
  8
0
  6
Continuous
 62
     0
370
     0
100
AcDbMText
 10
2.4546296155
 20
-0.4807040626
 30
0.0
 40
0.0833333333
 41
0.0
 71
     1
 72
     1
  1
ALUMINUM
  7
SLDTEXTSTYLE0
 73
     1
 44
1.0
  0
INSERT
  5
F3
330
D7
100
AcDbEntity
  8
0
  6
Continuous
 62
     0
370
     0
100
AcDbBlockReference
  2
SW_SYMBOL_C#_2
 10
0.4374537001
 20
-0.8321259395
 30
0.0
 41
0.0027037109
 42
0.0027037109
 43
0.0027037109
  0
MTEXT
  5
F4
330
D7
100
AcDbEntity
  8
0
  6
Continuous
 62
     0
370
     0
100
AcDbMText
 10
1.4600308562
 20
-0.7362596175
 30
0.0
 40
0.0833333333
 41
0.0
 71
     1
 72
     1
  1
LA1779
  7
SLDTEXTSTYLE0
 73
     1
 44
1.0
  0
MTEXT
  5
F5
330
D7
100
AcDbEntity
  8
0
  6
Continuous
 62
     0
370
     0
100
AcDbMText
 10
2.5949845658
 20
-0.7362596175
 30
0.0
 40
0.0833333333
 41
0.0
 71
     1
 72
     1
  1
N-BK7
  7
SLDTEXTSTYLE0
 73
     1
 44
1.0
  0
INSERT
  5
FB
330
D7
100
AcDbEntity
  8
0
  6
Continuous
 62
     0
370
     0
100
AcDbBlockReference
  2
SW_SYMBOL_C#_3
 10
0.4374537001
 20
-1.1432370493
 30
0.0
 41
0.0027037109
 42
0.0027037109
 43
0.0027037109
  0
MTEXT
  5
FC
330
D7
100
AcDbEntity
  8
0
  6
Continuous
 62
     0
370
     0
100
AcDbMText
 10
1.3456018548
 20
-0.9918151723
 30
0.0
 40
0.0833333333
 41
0.0
 71
     1
 72
     1
  1
ENGRAVED
  7
SLDTEXTSTYLE0
 73
     1
 44
1.0
  0
MTEXT
  5
FD
330
D7
100
AcDbEntity
  8
0
  6
Continuous
 62
     0
370
     0
100
AcDbMText
 10
1.3975308615
 20
-1.1029262821
 30
0.0
 40
0.0833333333
 41
0.0
 71
     1
 72
     1
  1
HOUSING
  7
SLDTEXTSTYLE0
 73
     1
 44
1.0
  0
MTEXT
  5
FE
330
D7
100
AcDbEntity
  8
0
  6
Continuous
 62
     0
370
     0
100
AcDbMText
 10
2.4676697448
 20
-0.9918151723
 30
0.0
 40
0.0833333333
 41
0.0
 71
     1
 72
     1
  1
ANODIZED
  7
SLDTEXTSTYLE0
 73
     1
 44
1.0
  0
MTEXT
  5
FF
330
D7
100
AcDbEntity
  8
0
  6
Continuous
 62
     0
370
     0
100
AcDbMText
 10
2.4546296155
 20
-1.1029262821
 30
0.0
 40
0.0833333333
 41
0.0
 71
     1
 72
     1
  1
ALUMINUM
  7
SLDTEXTSTYLE0
 73
     1
 44
1.0
  0
ENDBLK
  5
D9
330
D7
100
AcDbEntity
  8
0
100
AcDbBlockEnd
  0
BLOCK
  5
E6
330
E5
100
AcDbEntity
  8
0
100
AcDbBlockBegin
  2
SW_SYMBOL_C#_1
 70
     0
 10
0.0
 20
0.0
 30
0.0
  3
SW_SYMBOL_C#_1
  1
SW_SYMBOL_C#_1
  0
CIRCLE
  5
E8
330
E5
100
AcDbEntity
  8
0
  6
Continuous
 62
     0
370
     0
100
AcDbCircle
 10
31.4960629921
 20
19.6850393701
 30
0.0
 40
31.49606299212599
  0
MTEXT
  5
E9
330
E5
100
AcDbEntity
  8
0
  6
Continuous
 62
     0
370
     0
100
AcDbMText
 10
31.4960629921
 20
19.6850393701
 30
0.0
 40
30.821835344
 41
0.0
 71
     5
 72
     1
  1
1
  7
SLDTEXTSTYLE0
 73
     1
 44
1.0
  0
ENDBLK
  5
E7
330
E5
100
AcDbEntity
  8
0
100
AcDbBlockEnd
  0
BLOCK
  5
EF
330
EE
100
AcDbEntity
  8
0
100
AcDbBlockBegin
  2
SW_SYMBOL_C#_2
 70
     0
 10
0.0
 20
0.0
 30
0.0
  3
SW_SYMBOL_C#_2
  1
SW_SYMBOL_C#_2
  0
CIRCLE
  5
F1
330
EE
100
AcDbEntity
  8
0
  6
Continuous
 62
     0
370
     0
100
AcDbCircle
 10
31.4960629921
 20
19.6850393701
 30
0.0
 40
31.49606299212599
  0
MTEXT
  5
F2
330
EE
100
AcDbEntity
  8
0
  6
Continuous
 62
     0
370
     0
100
AcDbMText
 10
31.4960629921
 20
19.6850393701
 30
0.0
 40
30.821835344
 41
0.0
 71
     5
 72
     1
  1
2
  7
SLDTEXTSTYLE0
 73
     1
 44
1.0
  0
ENDBLK
  5
F0
330
EE
100
AcDbEntity
  8
0
100
AcDbBlockEnd
  0
BLOCK
  5
F7
330
F6
100
AcDbEntity
  8
0
100
AcDbBlockBegin
  2
SW_SYMBOL_C#_3
 70
     0
 10
0.0
 20
0.0
 30
0.0
  3
SW_SYMBOL_C#_3
  1
SW_SYMBOL_C#_3
  0
CIRCLE
  5
F9
330
F6
100
AcDbEntity
  8
0
  6
Continuous
 62
     0
370
     0
100
AcDbCircle
 10
31.4960629921
 20
19.6850393701
 30
0.0
 40
31.49606299212599
  0
MTEXT
  5
FA
330
F6
100
AcDbEntity
  8
0
  6
Continuous
 62
     0
370
     0
100
AcDbMText
 10
31.4960629921
 20
19.6850393701
 30
0.0
 40
30.821835344
 41
0.0
 71
     5
 72
     1
  1
3
  7
SLDTEXTSTYLE0
 73
     1
 44
1.0
  0
ENDBLK
  5
F8
330
F6
100
AcDbEntity
  8
0
100
AcDbBlockEnd
  0
BLOCK
  5
11C
330
11B
100
AcDbEntity
  8
0
100
AcDbBlockBegin
  2
_D
 70
     0
 10
0.0
 20
0.0
 30
0.0
  3
_D
  1
_D
  0
SOLID
  5
11E
330
11B
100
AcDbEntity
  8
0
  6
Continuous
 62
     7
370
     0
100
AcDbTrace
 10
3.3425303593
 20
5.3133728363
 30
0.0
 11
3.4449084846
 21
5.3878289942
 31
0.0
 12
3.4165663137
 22
5.416055247
 32
0.0
 13
3.4165663137
 23
5.416055247
 33
0.0
  0
LINE
  5
11F
330
11B
100
AcDbEntity
  8
0
  6
Continuous
 62
     7
370
     0
100
AcDbLine
 10
4.2395809551
 20
5.9658579938
 30
0.0
 11
4.222682807
 21
5.9658579938
 31
0.0
  0
LINE
  5
120
330
11B
100
AcDbEntity
  8
0
  6
Continuous
 62
     7
370
     0
100
AcDbLine
 10
4.222682807
 20
5.9658579938
 30
0.0
 11
4.222682807
 21
5.8334505892
 31
0.0
  0
LINE
  5
121
330
11B
100
AcDbEntity
  8
0
  6
Continuous
 62
     7
370
     0
100
AcDbLine
 10
4.222682807
 20
5.8334505892
 30
0.0
 11
4.2395809551
 21
5.8334505892
 31
0.0
  0
LINE
  5
122
330
11B
100
AcDbEntity
  8
0
  6
Continuous
 62
     7
370
     0
100
AcDbLine
 10
4.7055917748
 20
5.9658579938
 30
0.0
 11
4.7224899228
 21
5.9658579938
 31
0.0
  0
LINE
  5
123
330
11B
100
AcDbEntity
  8
0
  6
Continuous
 62
     7
370
     0
100
AcDbLine
 10
4.7224899228
 20
5.9658579938
 30
0.0
 11
4.7224899228
 21
5.8334505892
 31
0.0
  0
LINE
  5
124
330
11B
100
AcDbEntity
  8
0
  6
Continuous
 62
     7
370
     0
100
AcDbLine
 10
4.7224899228
 20
5.8334505892
 30
0.0
 11
4.7055917748
 21
5.8334505892
 31
0.0
  0
LINE
  5
125
330
11B
100
AcDbEntity
  8
0
  6
Continuous
 62
     7
370
     0
100
AcDbLine
 10
3.3425303593
 20
5.3133728363
 30
0.0
 11
4.0600091957
 21
6.0337981801
 31
0.0
  0
LINE
  5
126
330
11B
100
AcDbEntity
  8
0
  6
Continuous
 62
     7
370
     0
100
AcDbLine
 10
4.0600091957
 20
6.0337981801
 30
0.0
 11
4.2100091957
 21
6.0337981801
 31
0.0
  0
MTEXT
  5
127
330
11B
100
AcDbEntity
  8
0
  6
Continuous
 62
     7
370
     0
100
AcDbMText
 10
4.2100091957
 20
6.0901784523
 30
0.0
 40
0.0833333333
 41
0.0
 71
     1
 72
     1
  1
%%c
  7
SLDTEXTSTYLE0
 73
     1
 44
1.0
  0
MTEXT
  5
128
330
11B
100
AcDbEntity
  8
0
  6
Continuous
 62
     7
370
     0
100
AcDbMText
 10
4.3357962351
 20
6.0901784523
 30
0.0
 40
0.0833333333
 41
0.0
 71
     1
 72
     1
  1
2.20in
  7
SLDTEXTSTYLE0
 73
     1
 44
1.0
  0
MTEXT
  5
129
330
11B
100
AcDbEntity
  8
0
  6
Continuous
 62
     7
370
     0
100
AcDbMText
 10
4.2607036409
 20
5.9408728962
 30
0.0
 40
0.0833333333
 41
0.0
 71
     1
 72
     1
  1
55.9mm
  7
SLDTEXTSTYLE0
 73
     1
 44
1.0
  0
ENDBLK
  5
11D
330
11B
100
AcDbEntity
  8
0
100
AcDbBlockEnd
  0
BLOCK
  5
189
330
188
100
AcDbEntity
  8
0
100
AcDbBlockBegin
  2
_D_1
 70
     0
 10
0.0
 20
0.0
 30
0.0
  3
_D_1
  1
_D_1
  0
SOLID
  5
18B
330
188
100
AcDbEntity
  8
0
  6
Continuous
 62
     7
370
     0
100
AcDbTrace
 10
7.241043095
 20
6.3308960566
 30
0.0
 11
7.366043095
 21
6.3108960566
 31
0.0
 12
7.366043095
 22
6.3508960566
 32
0.0
 13
7.366043095
 23
6.3508960566
 33
0.0
  0
SOLID
  5
18C
330
188
100
AcDbEntity
  8
0
  6
Continuous
 62
     7
370
     0
100
AcDbTrace
 10
6.731043095
 20
6.3308960566
 30
0.0
 11
6.606043095
 21
6.3508960566
 31
0.0
 12
6.606043095
 22
6.3108960566
 32
0.0
 13
6.606043095
 23
6.3108960566
 33
0.0
  0
LINE
  5
18D
330
188
100
AcDbEntity
  8
0
  6
Continuous
 62
     7
370
     0
100
AcDbLine
 10
5.9309111857
 20
6.3308960474
 30
0.0
 11
5.9140130376
 21
6.3308960474
 31
0.0
  0
LINE
  5
18E
330
188
100
AcDbEntity
  8
0
  6
Continuous
 62
     7
370
     0
100
AcDbLine
 10
5.9140130376
 20
6.3308960474
 30
0.0
 11
5.9140130376
 21
6.1984886429
 31
0.0
  0
LINE
  5
18F
330
188
100
AcDbEntity
  8
0
  6
Continuous
 62
     7
370
     0
100
AcDbLine
 10
5.9140130376
 20
6.1984886429
 30
0.0
 11
5.9309111857
 21
6.1984886429
 31
0.0
  0
LINE
  5
190
330
188
100
AcDbEntity
  8
0
  6
Continuous
 62
     7
370
     0
100
AcDbLine
 10
6.3969220054
 20
6.3308960474
 30
0.0
 11
6.4138201534
 21
6.3308960474
 31
0.0
  0
LINE
  5
191
330
188
100
AcDbEntity
  8
0
  6
Continuous
 62
     7
370
     0
100
AcDbLine
 10
6.4138201534
 20
6.3308960474
 30
0.0
 11
6.4138201534
 21
6.1984886429
 31
0.0
  0
LINE
  5
192
330
188
100
AcDbEntity
  8
0
  6
Continuous
 62
     7
370
     0
100
AcDbLine
 10
6.4138201534
 20
6.1984886429
 30
0.0
 11
6.3969220054
 21
6.1984886429
 31
0.0
  0
LINE
  5
193
330
188
100
AcDbEntity
  8
0
  6
Continuous
 62
     7
370
     0
100
AcDbLine
 10
7.241043095
 20
5.5841426267
 30
0.0
 11
7.241043095
 21
6.4008960566
 31
0.0
  0
LINE
  5
194
330
188
100
AcDbEntity
  8
0
  6
Continuous
 62
     7
370
     0
100
AcDbLine
 10
6.731043095
 20
5.6739631348
 30
0.0
 11
6.731043095
 21
6.4008960566
 31
0.0
  0
LINE
  5
195
330
188
100
AcDbEntity
  8
0
  6
Continuous
 62
     7
370
     0
100
AcDbLine
 10
7.241043095
 20
6.3308960566
 30
0.0
 11
7.491043095
 21
6.3308960566
 31
0.0
  0
LINE
  5
196
330
188
100
AcDbEntity
  8
0
  6
Continuous
 62
     7
370
     0
100
AcDbLine
 10
6.731043095
 20
6.3308960566
 30
0.0
 11
6.5048244216
 21
6.3308960566
 31
0.0
  0
MTEXT
  5
197
330
188
100
AcDbEntity
  8
0
  6
Continuous
 62
     7
370
     0
100
AcDbMText
 10
5.9024196742
 20
6.455216506
 30
0.0
 40
0.0833333333
 41
0.0
 71
     1
 72
     1
  1

  7
SLDTEXTSTYLE0
 73
     1
 44
1.0
  0
MTEXT
  5
198
330
188
100
AcDbEntity
  8
0
  6
Continuous
 62
     7
370
     0
100
AcDbMText
 10
6.0112159654
 20
6.455216506
 30
0.0
 40
0.0833333333
 41
0.0
 71
     1
 72
     1
  1
0.51in
  7
SLDTEXTSTYLE0
 73
     1
 44
1.0
  0
MTEXT
  5
199
330
188
100
AcDbEntity
  8
0
  6
Continuous
 62
     7
370
     0
100
AcDbMText
 10
5.9520338715
 20
6.3059109499
 30
0.0
 40
0.0833333333
 41
0.0
 71
     1
 72
     1
  1
13.0mm
  7
SLDTEXTSTYLE0
 73
     1
 44
1.0
  0
MTEXT
  5
19A
330
188
100
AcDbEntity
  8
0
  6
Continuous
 62
     7
370
     0
100
AcDbMText
 10
6.4889937647
 20
6.455216506
 30
0.0
 40
0.0833333333
 41
0.0
 71
     1
 72
     1
  1

  7
SLDTEXTSTYLE0
 73
     1
 44
1.0
  0
ENDBLK
  5
18A
330
188
100
AcDbEntity
  8
0
100
AcDbBlockEnd
  0
BLOCK
  5
19D
330
19C
100
AcDbEntity
  8
0
100
AcDbBlockBegin
  2
_D_2
 70
     0
 10
0.0
 20
0.0
 30
0.0
  3
_D_2
  1
_D_2
  0
SOLID
  5
19F
330
19C
100
AcDbEntity
  8
0
  6
Continuous
 62
     7
370
     0
100
AcDbTrace
 10
7.121043095
 20
6.0276639222
 30
0.0
 11
6.996043095
 21
6.0476639222
 31
0.0
 12
6.996043095
 22
6.0076639222
 32
0.0
 13
6.996043095
 23
6.0076639222
 33
0.0
  0
SOLID
  5
1A0
330
19C
100
AcDbEntity
  8
0
  6
Continuous
 62
     7
370
     0
100
AcDbTrace
 10
7.241043095
 20
6.0276639222
 30
0.0
 11
7.366043095
 21
6.0076639222
 31
0.0
 12
7.366043095
 22
6.0476639222
 32
0.0
 13
7.366043095
 23
6.0476639222
 33
0.0
  0
LINE
  5
1A1
330
19C
100
AcDbEntity
  8
0
  6
Continuous
 62
     7
370
     0
100
AcDbLine
 10
7.5820346065
 20
6.027663913
 30
0.0
 11
7.5651364584
 21
6.027663913
 31
0.0
  0
LINE
  5
1A2
330
19C
100
AcDbEntity
  8
0
  6
Continuous
 62
     7
370
     0
100
AcDbLine
 10
7.5651364584
 20
6.027663913
 30
0.0
 11
7.5651364584
 21
5.8952565084
 31
0.0
  0
LINE
  5
1A3
330
19C
100
AcDbEntity
  8
0
  6
Continuous
 62
     7
370
     0
100
AcDbLine
 10
7.5651364584
 20
5.8952565084
 30
0.0
 11
7.5820346065
 21
5.8952565084
 31
0.0
  0
LINE
  5
1A4
330
19C
100
AcDbEntity
  8
0
  6
Continuous
 62
     7
370
     0
100
AcDbLine
 10
7.9864713275
 20
6.027663913
 30
0.0
 11
8.0033694755
 21
6.027663913
 31
0.0
  0
LINE
  5
1A5
330
19C
100
AcDbEntity
  8
0
  6
Continuous
 62
     7
370
     0
100
AcDbLine
 10
8.0033694755
 20
6.027663913
 30
0.0
 11
8.0033694755
 21
5.8952565084
 31
0.0
  0
LINE
  5
1A6
330
19C
100
AcDbEntity
  8
0
  6
Continuous
 62
     7
370
     0
100
AcDbLine
 10
8.0033694755
 20
5.8952565084
 30
0.0
 11
7.9864713275
 21
5.8952565084
 31
0.0
  0
LINE
  5
1A7
330
19C
100
AcDbEntity
  8
0
  6
Continuous
 62
     7
370
     0
100
AcDbLine
 10
7.121043095
 20
5.6739631348
 30
0.0
 11
7.121043095
 21
6.0976639222
 31
0.0
  0
LINE
  5
1A8
330
19C
100
AcDbEntity
  8
0
  6
Continuous
 62
     7
370
     0
100
AcDbLine
 10
7.241043095
 20
5.5841426267
 30
0.0
 11
7.241043095
 21
6.0976639222
 31
0.0
  0
LINE
  5
1A9
330
19C
100
AcDbEntity
  8
0
  6
Continuous
 62
     7
370
     0
100
AcDbLine
 10
7.121043095
 20
6.0276639222
 30
0.0
 11
6.871043095
 21
6.0276639222
 31
0.0
  0
LINE
  5
1AA
330
19C
100
AcDbEntity
  8
0
  6
Continuous
 62
     7
370
     0
100
AcDbLine
 10
7.241043095
 20
6.0276639222
 30
0.0
 11
7.4741322086
 21
6.0276639222
 31
0.0
  0
MTEXT
  5
1AB
330
19C
100
AcDbEntity
  8
0
  6
Continuous
 62
     7
370
     0
100
AcDbMText
 10
7.553543095
 20
6.1519843715
 30
0.0
 40
0.0833333333
 41
0.0
 71
     1
 72
     1
  1

  7
SLDTEXTSTYLE0
 73
     1
 44
1.0
  0
MTEXT
  5
1AC
330
19C
100
AcDbEntity
  8
0
  6
Continuous
 62
     7
370
     0
100
AcDbMText
 10
7.6315523368
 20
6.1519843715
 30
0.0
 40
0.0833333333
 41
0.0
 71
     1
 72
     1
  1
0.12in
  7
SLDTEXTSTYLE0
 73
     1
 44
1.0
  0
MTEXT
  5
1AD
330
19C
100
AcDbEntity
  8
0
  6
Continuous
 62
     7
370
     0
100
AcDbMText
 10
7.6031572924
 20
6.0026788155
 30
0.0
 40
0.0833333333
 41
0.0
 71
     1
 72
     1
  1
3.0mm
  7
SLDTEXTSTYLE0
 73
     1
 44
1.0
  0
MTEXT
  5
1AE
330
19C
100
AcDbEntity
  8
0
  6
Continuous
 62
     7
370
     0
100
AcDbMText
 10
8.0785430502
 20
6.1519843715
 30
0.0
 40
0.0833333333
 41
0.0
 71
     1
 72
     1
  1

  7
SLDTEXTSTYLE0
 73
     1
 44
1.0
  0
ENDBLK
  5
19E
330
19C
100
AcDbEntity
  8
0
100
AcDbBlockEnd
  0
BLOCK
  5
1B2
330
1B1
100
AcDbEntity
  8
0
100
AcDbBlockBegin
  2
_D_3
 70
     0
 10
0.0
 20
0.0
 30
0.0
  3
_D_3
  1
_D_3
  0
SOLID
  5
1B4
330
1B1
100
AcDbEntity
  8
0
  6
Continuous
 62
     7
370
     0
100
AcDbTrace
 10
7.6347438824
 20
3.5839631348
 30
0.0
 11
7.6547438824
 21
3.7089631348
 31
0.0
 12
7.6147438824
 22
3.7089631348
 32
0.0
 13
7.6147438824
 23
3.7089631348
 33
0.0
  0
SOLID
  5
1B5
330
1B1
100
AcDbEntity
  8
0
  6
Continuous
 62
     7
370
     0
100
AcDbTrace
 10
7.6347438824
 20
5.4839631348
 30
0.0
 11
7.6147438824
 21
5.3589631348
 31
0.0
 12
7.6547438824
 22
5.3589631348
 32
0.0
 13
7.6547438824
 23
5.3589631348
 33
0.0
  0
LINE
  5
1B6
330
1B1
100
AcDbEntity
  8
0
  6
Continuous
 62
     7
370
     0
100
AcDbLine
 10
7.4017384817
 20
4.5446112776
 30
0.0
 11
7.3848403337
 21
4.5446112776
 31
0.0
  0
LINE
  5
1B7
330
1B1
100
AcDbEntity
  8
0
  6
Continuous
 62
     7
370
     0
100
AcDbLine
 10
7.3848403337
 20
4.5446112776
 30
0.0
 11
7.3848403337
 21
4.412203873
 31
0.0
  0
LINE
  5
1B8
330
1B1
100
AcDbEntity
  8
0
  6
Continuous
 62
     7
370
     0
100
AcDbLine
 10
7.3848403337
 20
4.412203873
 30
0.0
 11
7.4017384817
 21
4.412203873
 31
0.0
  0
LINE
  5
1B9
330
1B1
100
AcDbEntity
  8
0
  6
Continuous
 62
     7
370
     0
100
AcDbLine
 10
7.8677493014
 20
4.5446112776
 30
0.0
 11
7.8846474495
 21
4.5446112776
 31
0.0
  0
LINE
  5
1BA
330
1B1
100
AcDbEntity
  8
0
  6
Continuous
 62
     7
370
     0
100
AcDbLine
 10
7.8846474495
 20
4.5446112776
 30
0.0
 11
7.8846474495
 21
4.412203873
 31
0.0
  0
LINE
  5
1BB
330
1B1
100
AcDbEntity
  8
0
  6
Continuous
 62
     7
370
     0
100
AcDbLine
 10
7.8846474495
 20
4.412203873
 30
0.0
 11
7.8677493014
 21
4.412203873
 31
0.0
  0
LINE
  5
1BC
330
1B1
100
AcDbEntity
  8
0
  6
Continuous
 62
     7
370
     0
100
AcDbLine
 10
7.291043095
 20
3.5839631348
 30
0.0
 11
7.7047438824
 21
3.5839631348
 31
0.0
  0
LINE
  5
1BD
330
1B1
100
AcDbEntity
  8
0
  6
Continuous
 62
     7
370
     0
100
AcDbLine
 10
7.291043095
 20
5.4839631348
 30
0.0
 11
7.7047438824
 21
5.4839631348
 31
0.0
  0
LINE
  5
1BE
330
1B1
100
AcDbEntity
  8
0
  6
Continuous
 62
     7
370
     0
100
AcDbLine
 10
7.6347438824
 20
3.5839631348
 30
0.0
 11
7.6347438824
 21
4.3953057307
 31
0.0
  0
LINE
  5
1BF
330
1B1
100
AcDbEntity
  8
0
  6
Continuous
 62
     7
370
     0
100
AcDbLine
 10
7.6347438824
 20
5.4839631348
 30
0.0
 11
7.6347438824
 21
4.6726205388
 31
0.0
  0
MTEXT
  5
1C0
330
1B1
100
AcDbEntity
  8
0
  6
Continuous
 62
     7
370
     0
100
AcDbMText
 10
7.4191497463
 20
4.6689317361
 30
0.0
 40
0.0833333333
 41
0.0
 71
     1
 72
     1
  1
%%c
  7
SLDTEXTSTYLE0
 73
     1
 44
1.0
  0
MTEXT
  5
1C1
330
1B1
100
AcDbEntity
  8
0
  6
Continuous
 62
     7
370
     0
100
AcDbMText
 10
7.5449367857
 20
4.6689317361
 30
0.0
 40
0.0833333333
 41
0.0
 71
     1
 72
     1
  1
1.90in
  7
SLDTEXTSTYLE0
 73
     1
 44
1.0
  0
MTEXT
  5
1C2
330
1B1
100
AcDbEntity
  8
0
  6
Continuous
 62
     7
370
     0
100
AcDbMText
 10
7.4228611676
 20
4.5196261801
 30
0.0
 40
0.0833333333
 41
0.0
 71
     1
 72
     1
  1
48.3mm
  7
SLDTEXTSTYLE0
 73
     1
 44
1.0
  0
ENDBLK
  5
1B3
330
1B1
100
AcDbEntity
  8
0
100
AcDbBlockEnd
  0
BLOCK
  5
1C4
330
1C3
100
AcDbEntity
  8
0
100
AcDbBlockBegin
  2
SW_NOTE_5
 70
     0
 10
0.0
 20
0.0
 30
0.0
  3
SW_NOTE_5
  1
SW_NOTE_5
  0
MTEXT
  5
1C7
330
1C3
100
AcDbEntity
  8
0
  6
Continuous
 62
     0
370
     0
100
AcDbMText
 10
-2.2694881435
 20
0.0362997099
 30
0.0
 40
0.0833333333
 41
0.0
 71
     1
 72
     1
  1
SM2 (
  7
SLDTEXTSTYLE3
 73
     1
 44
1.0
  0
MTEXT
  5
1C8
330
1C3
100
AcDbEntity
  8
0
  6
Continuous
 62
     0
370
     0
100
AcDbMText
 10
-1.9478832088
 20
0.0362997099
 30
0.0
 40
0.0833333333
 41
0.0
 71
     1
 72
     1
  1
%%c
  7
SLDTEXTSTYLE0
 73
     1
 44
1.0
  0
MTEXT
  5
1C9
330
1C3
100
AcDbEntity
  8
0
  6
Continuous
 62
     0
370
     0
100
AcDbMText
 10
-1.8220961785
 20
0.0362997099
 30
0.0
 40
0.0833333333
 41
0.0
 71
     1
 72
     1
  1
2.035-40) SERIES INTERNAL THREAD
  7
SLDTEXTSTYLE0
 73
     1
 44
1.0
  0
ENDBLK
  5
1C5
330
1C3
100
AcDbEntity
  8
0
100
AcDbBlockEnd
  0
BLOCK
  5
1CE
330
1CD
100
AcDbEntity
  8
0
100
AcDbBlockBegin
  2
SW_NOTE_6
 70
     0
 10
0.0
 20
0.0
 30
0.0
  3
SW_NOTE_6
  1
SW_NOTE_6
  0
MTEXT
  5
1D0
330
1CD
100
AcDbEntity
  8
0
  6
Continuous
 62
     0
370
     0
100
AcDbMText
 10
0.0202895427
 20
0.0390965183
 30
0.0
 40
0.0833333333
 41
0.0
 71
     1
 72
     1
  1
SM2 (
  7
SLDTEXTSTYLE3
 73
     1
 44
1.0
  0
MTEXT
  5
1D1
330
1CD
100
AcDbEntity
  8
0
  6
Continuous
 62
     0
370
     0
100
AcDbMText
 10
0.3418944775
 20
0.0390965183
 30
0.0
 40
0.0833333333
 41
0.0
 71
     1
 72
     1
  1
%%c
  7
SLDTEXTSTYLE0
 73
     1
 44
1.0
  0
MTEXT
  5
1D2
330
1CD
100
AcDbEntity
  8
0
  6
Continuous
 62
     0
370
     0
100
AcDbMText
 10
0.4676815077
 20
0.0390965183
 30
0.0
 40
0.0833333333
 41
0.0
 71
     1
 72
     1
  1
2.035-40) SERIES EXTERNAL THREAD
  7
SLDTEXTSTYLE0
 73
     1
 44
1.0
  0
ENDBLK
  5
1CF
330
1CD
100
AcDbEntity
  8
0
100
AcDbBlockEnd
  0
BLOCK
  5
1D6
330
1D5
100
AcDbEntity
  8
0
100
AcDbBlockBegin
  2
SW_NOTE_7
 70
     0
 10
0.0
 20
0.0
 30
0.0
  3
SW_NOTE_7
  1
SW_NOTE_7
  0
CIRCLE
  5
1D8
330
1D5
100
AcDbEntity
  8
0
  6
Continuous
 62
     0
370
     0
100
AcDbCircle
 10
-0.1740529942
 20
0.0
 30
0.0
 40
0.1740529942255687
  0
MTEXT
  5
1D9
330
1D5
100
AcDbEntity
  8
0
  6
Continuous
 62
     0
370
     0
100
AcDbMText
 10
-0.1753116749
 20
0.0623338763
 30
0.0
 40
0.125
 41
0.0
 71
     2
 72
     1
  1
1
  7
SLDTEXTSTYLE0
 73
     1
 44
1.0
  0
ENDBLK
  5
1D7
330
1D5
100
AcDbEntity
  8
0
100
AcDbBlockEnd
  0
BLOCK
  5
1DD
330
1DC
100
AcDbEntity
  8
0
100
AcDbBlockBegin
  2
SW_NOTE_8
 70
     0
 10
0.0
 20
0.0
 30
0.0
  3
SW_NOTE_8
  1
SW_NOTE_8
  0
CIRCLE
  5
1DF
330
1DC
100
AcDbEntity
  8
0
  6
Continuous
 62
     0
370
     0
100
AcDbCircle
 10
0.1740529942
 20
0.0
 30
0.0
 40
0.1740529942255689
  0
MTEXT
  5
1E0
330
1DC
100
AcDbEntity
  8
0
  6
Continuous
 62
     0
370
     0
100
AcDbMText
 10
0.1727943135
 20
0.0623338763
 30
0.0
 40
0.125
 41
0.0
 71
     2
 72
     1
  1
2
  7
SLDTEXTSTYLE0
 73
     1
 44
1.0
  0
ENDBLK
  5
1DE
330
1DC
100
AcDbEntity
  8
0
100
AcDbBlockEnd
  0
BLOCK
  5
1E4
330
1E3
100
AcDbEntity
  8
0
100
AcDbBlockBegin
  2
SW_NOTE_9
 70
     0
 10
0.0
 20
0.0
 30
0.0
  3
SW_NOTE_9
  1
SW_NOTE_9
  0
CIRCLE
  5
1E6
330
1E3
100
AcDbEntity
  8
0
  6
Continuous
 62
     0
370
     0
100
AcDbCircle
 10
-0.1740529942
 20
0.0
 30
0.0
 40
0.1740529942255686
  0
MTEXT
  5
1E7
330
1E3
100
AcDbEntity
  8
0
  6
Continuous
 62
     0
370
     0
100
AcDbMText
 10
-0.1753116749
 20
0.0623338763
 30
0.0
 40
0.125
 41
0.0
 71
     2
 72
     1
  1
3
  7
SLDTEXTSTYLE0
 73
     1
 44
1.0
  0
ENDBLK
  5
1E5
330
1E3
100
AcDbEntity
  8
0
100
AcDbBlockEnd
  0
ENDSEC
  0
SECTION
  2
ENTITIES
  0
LINE
  5
7D
330
1F
100
AcDbEntity
  8
0
  6
Continuous
 62
     7
370
     0
100
AcDbLine
 10
0.0621791378
 20
8.4506055117
 30
0.0
 11
10.9444569626
 21
8.4506055117
 31
0.0
  0
LINE
  5
7E
330
1F
100
AcDbEntity
  8
0
  6
Continuous
 62
     7
370
     0
100
AcDbLine
 10
0.0621791378
 20
8.4506055117
 30
0.0
 11
0.0621791378
 21
0.035557648
 31
0.0
  0
LINE
  5
7F
330
1F
100
AcDbEntity
  8
0
  6
Continuous
 62
     7
370
     0
100
AcDbLine
 10
10.9444569626
 20
0.035557648
 30
0.0
 11
0.0621791378
 21
0.035557648
 31
0.0
  0
LINE
  5
80
330
1F
100
AcDbEntity
  8
0
  6
Continuous
 62
     7
370
     0
100
AcDbLine
 10
10.9444569626
 20
0.035557648
 30
0.0
 11
10.9444569626
 21
8.4506055117
 31
0.0
  0
LINE
  5
81
330
1F
100
AcDbEntity
  8
0
  6
Continuous
 62
     7
370
     0
100
AcDbLine
 10
8.4938096065
 20
0.4840901186
 30
0.0
 11
6.7571952625
 21
0.4840901186
 31
0.0
  0
LINE
  5
82
330
1F
100
AcDbEntity
  8
0
  6
Continuous
 62
     7
370
     0
100
AcDbLine
 10
6.7571952625
 20
0.4840901186
 30
0.0
 11
6.7571952625
 21
1.030163002
 31
0.0
  0
LINE
  5
83
330
1F
100
AcDbEntity
  8
0
  6
Continuous
 62
     7
370
     0
100
AcDbLine
 10
6.7571952625
 20
0.035557648
 30
0.0
 11
6.7571952625
 21
1.030163002
 31
0.0
  0
LINE
  5
84
330
1F
100
AcDbEntity
  8
0
  6
Continuous
 62
     7
370
     0
100
AcDbLine
 10
8.4938096065
 20
0.6756085809
 30
0.0
 11
10.9444569626
 21
0.6756085809
 31
0.0
  0
LINE
  5
85
330
1F
100
AcDbEntity
  8
0
  6
Continuous
 62
     7
370
     0
100
AcDbLine
 10
8.4938096065
 20
1.3873799542
 30
0.0
 11
8.4938096065
 21
0.035557648
 31
0.0
  0
LINE
  5
86
330
1F
100
AcDbEntity
  8
0
  6
Continuous
 62
     7
370
     0
100
AcDbLine
 10
8.4938096065
 20
1.030163002
 30
0.0
 11
6.7571952625
 21
1.030163002
 31
0.0
  0
LINE
  5
87
330
1F
100
AcDbEntity
  8
0
  6
Continuous
 62
     7
370
     0
100
AcDbLine
 10
8.4938096065
 20
0.3598787426
 30
0.0
 11
10.9444569626
 21
0.3598787426
 31
0.0
  0
LINE
  5
88
330
1F
100
AcDbEntity
  8
0
  6
Continuous
 62
     7
370
     0
100
AcDbLine
 10
8.4938096065
 20
0.6662079686
 30
0.0
 11
6.7571952625
 21
0.6662079686
 31
0.0
  0
LINE
  5
89
330
1F
100
AcDbEntity
  8
0
  6
Continuous
 62
     7
370
     0
100
AcDbLine
 10
8.4938096065
 20
0.8459606517
 30
0.0
 11
6.7571952625
 21
0.8459606517
 31
0.0
  0
LINE
  5
8A
330
1F
100
AcDbEntity
  8
0
  6
Continuous
 62
     7
370
     0
100
AcDbLine
 10
7.3281027587
 20
1.030163002
 30
0.0
 11
7.3281027587
 21
0.4840901186
 31
0.0
  0
LINE
  5
8B
330
1F
100
AcDbEntity
  8
0
  6
Continuous
 62
     7
370
     0
100
AcDbLine
 10
7.8037240401
 20
1.030163002
 30
0.0
 11
7.8037240401
 21
0.4840901186
 31
0.0
  0
LINE
  5
8C
330
1F
100
AcDbEntity
  8
0
  6
Continuous
 62
     7
370
     0
100
AcDbLine
 10
9.990119718
 20
0.3598787426
 30
0.0
 11
9.990119718
 21
0.035557648
 31
0.0
  0
LINE
  5
8D
330
1F
100
AcDbEntity
  8
0
  6
Continuous
 62
     7
370
     0
100
AcDbLine
 10
6.7571952625
 20
0.4840901186
 30
0.0
 11
6.7571952625
 21
0.297745443
 31
0.0
  0
LINE
  5
8E
330
1F
100
AcDbEntity
  8
0
  6
Continuous
 62
     7
370
     0
100
AcDbLine
 10
6.7571952625
 20
0.297745443
 30
0.0
 11
8.4938096065
 21
0.297745443
 31
0.0
  0
LINE
  5
8F
330
1F
100
AcDbEntity
  8
0
  6
Continuous
 62
     7
370
     0
100
AcDbLine
 10
6.7571952625
 20
0.297745443
 30
0.0
 11
6.7571952625
 21
1.3873799542
 31
0.0
  0
LINE
  5
90
330
1F
100
AcDbEntity
  8
0
  6
Continuous
 62
     7
370
     0
100
AcDbLine
 10
6.7571952625
 20
1.3873799542
 30
0.0
 11
8.4938096065
 21
1.3873799542
 31
0.0
  0
LINE
  5
91
330
1F
100
AcDbEntity
  8
0
  6
Continuous
 62
     7
370
     0
100
AcDbLine
 10
10.6365495992
 20
0.6756085809
 30
0.0
 11
10.6365495992
 21
0.3598787426
 31
0.0
  0
LINE
  5
92
330
1F
100
AcDbEntity
  8
0
  6
Continuous
 62
     7
370
     0
100
AcDbLine
 10
8.4938096065
 20
1.3873799542
 30
0.0
 11
10.9444569626
 21
1.3873799542
 31
0.0
  0
LINE
  5
93
330
1F
100
AcDbEntity
  8
0
  6
Continuous
 62
     7
370
     0
100
AcDbLine
 10
10.9444569626
 20
1.3873799542
 30
0.0
 11
10.9444569626
 21
1.9698084888
 31
0.0
  0
LINE
  5
94
330
1F
100
AcDbEntity
  8
0
  6
Continuous
 62
     7
370
     0
100
AcDbLine
 10
8.4938096065
 20
0.9800288797
 30
0.0
 11
10.9444569626
 21
0.9800288797
 31
0.0
  0
INSERT
  5
95
330
1F
100
AcDbEntity
  8
0
  6
Continuous
 62
     7
100
AcDbBlockReference
  2
Third Angle Projection Block
 10
4.6348905679
 20
0.6108753523
 30
0.0
 41
0.8
 42
0.8
 43
0.8
  0
MTEXT
  5
97
330
1F
100
AcDbEntity
  8
0
  6
Continuous
 62
     7
370
     0
100
AcDbMText
 10
10.7892734632
 20
0.5227176726
 30
0.0
 40
0.125
 41
0.0
 71
     2
 72
     1
  1
A
  7
SLDTEXTSTYLE0
 73
     1
 44
1.0
  0
MTEXT
  5
98
330
1F
100
AcDbEntity
  8
0
  6
Continuous
 62
     7
370
     0
100
AcDbMText
 10
9.2324828838
 20
0.2019943461
 30
0.0
 40
0.125
 41
0.0
 71
     2
 72
     1
  1
LA1779-ML
  7
SLDTEXTSTYLE0
 73
     1
 44
1.0
  0
MTEXT
  5
99
330
1F
100
AcDbEntity
  8
0
  6
Continuous
 62
     7
370
     0
100
AcDbMText
 10
8.5204715199
 20
0.6623747189
 30
0.0
 40
0.0833333333
 41
0.0
 71
     1
 72
     1
  1
MATERIAL
  7
SLDTEXTSTYLE0
 73
     1
 44
1.0
  0
MTEXT
  5
9A
330
1F
100
AcDbEntity
  8
0
  6
Continuous
 62
     7
370
     0
100
AcDbMText
 10
6.8594860853
 20
0.7895493672
 30
0.0
 40
0.0729166667
 41
0.0
 71
     1
 72
     1
  1
DRAWN
  7
SLDTEXTSTYLE0
 73
     1
 44
1.0
  0
MTEXT
  5
9B
330
1F
100
AcDbEntity
  8
0
  6
Continuous
 62
     7
370
     0
100
AcDbMText
 10
6.7872445848
 20
0.613335314
 30
0.0
 40
0.0729166667
 41
0.0
 71
     1
 72
     1
  1
APPROVAL
  7
SLDTEXTSTYLE0
 73
     1
 44
1.0
  0
MTEXT
  5
9C
330
1F
100
AcDbEntity
  8
0
  6
Continuous
 62
     7
370
     0
100
AcDbMText
 10
10.6936137314
 20
0.6373332609
 30
0.0
 40
0.0833333333
 41
0.0
 71
     1
 72
     1
  1
REV
  7
SLDTEXTSTYLE0
 73
     1
 44
1.0
  0
MTEXT
  5
9D
330
1F
100
AcDbEntity
  8
0
  6
Continuous
 62
     7
370
     0
100
AcDbMText
 10
7.4919633718
 20
0.7999100272
 30
0.0
 40
0.0833333333
 41
0.0
 71
     1
 72
     1
  1
GG
  7
SLDTEXTSTYLE0
 73
     1
 44
1.0
  0
MTEXT
  5
9E
330
1F
100
AcDbEntity
  8
0
  6
Continuous
 62
     7
370
     0
100
AcDbMText
 10
7.4919633718
 20
0.623695974
 30
0.0
 40
0.0833333333
 41
0.0
 71
     1
 72
     1
  1
DD
  7
SLDTEXTSTYLE0
 73
     1
 44
1.0
  0
MTEXT
  5
9F
330
1F
100
AcDbEntity
  8
0
  6
Continuous
 62
     7
370
     0
100
AcDbMText
 10
7.8687497515
 20
0.7999100272
 30
0.0
 40
0.0833333333
 41
0.0
 71
     1
 72
     1
  1
15/OCT/15
  7
SLDTEXTSTYLE0
 73
     1
 44
1.0
  0
MTEXT
  5
A0
330
1F
100
AcDbEntity
  8
0
  6
Continuous
 62
     7
370
     0
100
AcDbMText
 10
8.0163191884
 20
0.9772495896
 30
0.0
 40
0.0833333333
 41
0.0
 71
     1
 72
     1
  1
DATE
  7
SLDTEXTSTYLE0
 73
     1
 44
1.0
  0
MTEXT
  5
A1
330
1F
100
AcDbEntity
  8
0
  6
Continuous
 62
     7
370
     0
100
AcDbMText
 10
7.8687497515
 20
0.623695974
 30
0.0
 40
0.0833333333
 41
0.0
 71
     1
 72
     1
  1
15/OCT/15
  7
SLDTEXTSTYLE0
 73
     1
 44
1.0
  0
MTEXT
  5
A3
330
1F
100
AcDbEntity
  8
0
  6
Continuous
 62
     7
370
     0
100
AcDbMText
 10
9.0316104912
 20
1.0943207896
 30
0.0
 40
0.0833333333
 41
0.0
 71
     1
 72
     1
  1
w w w . t h o r  l a b s . c o m
  7
SLDTEXTSTYLE1
 73
     1
 44
1.0
  0
MTEXT
  5
A4
330
1F
100
AcDbEntity
  8
0
  6
Continuous
 62
     7
370
     0
100
AcDbMText
 10
8.5315119501
 20
0.328719653
 30
0.0
 40
0.0833333333
 41
0.0
 71
     1
 72
     1
  1
ITEM #
  7
SLDTEXTSTYLE0
 73
     1
 44
1.0
  0
MTEXT
  5
A5
330
1F
100
AcDbEntity
  8
0
  6
Continuous
 62
     7
370
     0
100
AcDbMText
 10
10.0209370115
 20
0.328719653
 30
0.0
 40
0.0833333333
 41
0.0
 71
     1
 72
     1
  1
APPROX WEIGHT
  7
SLDTEXTSTYLE0
 73
     1
 44
1.0
  0
MTEXT
  5
A6
330
1F
100
AcDbEntity
  8
0
  6
Continuous
 62
     7
370
     0
100
AcDbMText
 10
9.5949135982
 20
0.5414715262
 30
0.0
 40
0.125
 41
0.0
 71
     2
 72
     1
  1
SEE TABLE
  7
SLDTEXTSTYLE0
 73
     1
 44
1.0
  0
MTEXT
  5
A8
330
1F
100
AcDbEntity
  8
0
  6
Continuous
 62
     7
370
     0
100
AcDbMText
 10
10.4826226539
 20
0.2019943461
 30
0.0
 40
0.125
 41
0.0
 71
     2
 72
     1
  1
30 g
  7
SLDTEXTSTYLE2
 73
     1
 44
1.0
  0
INSERT
  5
AE
330
1F
100
AcDbEntity
  8
0
  6
Continuous
 62
     7
370
     0
100
AcDbBlockReference
  2
SW_NOTE_0
 10
6.8835832285
 20
0.1754273811
 30
0.0
  0
INSERT
  5
B4
330
1F
100
AcDbEntity
  8
0
  6
Continuous
 62
     7
370
     0
100
AcDbBlockReference
  2
SW_NOTE_1
 10
6.8719828753
 20
1.2001390658
 30
0.0
  0
MTEXT
  5
B5
330
1F
100
AcDbEntity
  8
0
  6
Continuous
 62
     7
370
     0
100
AcDbMText
 10
7.3987149145
 20
0.9772495896
 30
0.0
 40
0.0833333333
 41
0.0
 71
     1
 72
     1
  1
NAME
  7
SLDTEXTSTYLE0
 73
     1
 44
1.0
  0
INSERT
  5
BC
330
1F
100
AcDbEntity
  8
0
  6
Continuous
 62
     7
370
     0
100
AcDbBlockReference
  2
SW_NOTE_2
 10
8.5755302951
 20
0.8160048101
 30
0.0
  0
MTEXT
  5
BD
330
1F
100
AcDbEntity
  8
0
  6
Continuous
 62
     7
370
     0
100
AcDbMText
 10
7.0281258754
 20
0.4200025137
 30
0.0
 40
0.0625
 41
0.0
 71
     1
 72
     1
  1
COPYRIGHT © 2015 BY THORLABS
  7
SLDTEXTSTYLE0
 73
     1
 44
1.0
  0
INSERT
  5
C3
330
1F
100
AcDbEntity
  8
0
  6
Continuous
 62
     7
370
     0
100
AcDbBlockReference
  2
SW_NOTE_3
 10
2.1096529316
 20
0.3219551564
 30
0.0
  0
INSERT
  5
D6
330
1F
100
AcDbEntity
  8
0
  6
Continuous
 62
     7
370
     0
100
AcDbBlockReference
  2
SW_NOTE_4
 10
0.2229009106
 20
1.7636814979
 30
0.0
  0
INSERT
  5
100
330
1F
100
AcDbEntity
  8
0
  6
Continuous
 62
     7
370
     0
100
AcDbBlockReference
  2
SW_TABLEANNOTATION_0
 10
0.0612779343
 20
8.4504327236
 30
0.0
  0
ARC
  5
101
330
1F
100
AcDbEntity
  8
0
  6
Continuous
 62
     7
370
     0
100
AcDbCircle
 10
2.5663084083
 20
4.5339631348
 30
0.0
 40
0.9499999999999998
100
AcDbArc
 50
0.9047077972
 51
179.0952922028
  0
LINE
  5
102
330
1F
100
AcDbEntity
  8
0
  6
Continuous
 62
     7
370
     0
100
AcDbLine
 10
1.6164268481
 20
4.5489631344
 30
0.0
 11
1.606425617
 21
4.5489631344
 31
0.0
  0
ARC
  5
103
330
1F
100
AcDbEntity
  8
0
  6
Continuous
 62
     7
370
     0
100
AcDbCircle
 10
2.5663084083
 20
4.5339631348
 30
0.0
 40
0.9600000000000013
100
AcDbArc
 50
0.8952829866
 51
179.1047170134
  0
LINE
  5
104
330
1F
100
AcDbEntity
  8
0
  6
Continuous
 62
     7
370
     0
100
AcDbLine
 10
3.5261911997
 20
4.5489631344
 30
0.0
 11
3.5161899686
 21
4.5489631344
 31
0.0
  0
ARC
  5
105
330
1F
100
AcDbEntity
  8
0
  6
Continuous
 62
     7
370
     0
100
AcDbCircle
 10
2.5663084083
 20
4.5339631348
 30
0.0
 40
1.000179491924312
100
AcDbArc
 50
0.8593146732
 51
179.1406853268
  0
LINE
  5
106
330
1F
100
AcDbEntity
  8
0
  6
Continuous
 62
     7
370
     0
100
AcDbLine
 10
1.5662413945
 20
4.5489631344
 30
0.0
 11
1.5489190146
 21
4.5489631344
 31
0.0
  0
LINE
  5
107
330
1F
100
AcDbEntity
  8
0
  6
Continuous
 62
     7
370
     0
100
AcDbLine
 10
3.583697802
 20
4.5489631344
 30
0.0
 11
3.5663754221
 21
4.5489631344
 31
0.0
  0
LINE
  5
108
330
1F
100
AcDbEntity
  8
0
  6
Continuous
 62
     7
370
     0
100
AcDbLine
 10
3.5663754221
 20
4.5489631344
 30
0.0
 11
3.5261911997
 21
4.5489631344
 31
0.0
  0
LINE
  5
109
330
1F
100
AcDbEntity
  8
0
  6
Continuous
 62
     7
370
     0
100
AcDbLine
 10
1.606425617
 20
4.5489631344
 30
0.0
 11
1.5662413945
 21
4.5489631344
 31
0.0
  0
ARC
  5
10A
330
1F
100
AcDbEntity
  8
0
  6
Continuous
 62
     7
370
     0
100
AcDbCircle
 10
2.5663084083
 20
4.5339631348
 30
0.0
 40
1.000179491924312
100
AcDbArc
 50
180.8593146732
 51
359.1406853268
  0
ARC
  5
10B
330
1F
100
AcDbEntity
  8
0
  6
Continuous
 62
     7
370
     0
100
AcDbCircle
 10
2.5663084083
 20
4.5339631348
 30
0.0
 40
0.9600000000000013
100
AcDbArc
 50
180.8952829866
 51
359.1047170134
  0
LINE
  5
10C
330
1F
100
AcDbEntity
  8
0
  6
Continuous
 62
     7
370
     0
100
AcDbLine
 10
1.5662413945
 20
4.5189631351
 30
0.0
 11
1.606425617
 21
4.5189631351
 31
0.0
  0
LINE
  5
10D
330
1F
100
AcDbEntity
  8
0
  6
Continuous
 62
     7
370
     0
100
AcDbLine
 10
3.5261911997
 20
4.5189631351
 30
0.0
 11
3.5663754221
 21
4.5189631351
 31
0.0
  0
ARC
  5
10E
330
1F
100
AcDbEntity
  8
0
  6
Continuous
 62
     7
370
     0
100
AcDbCircle
 10
2.5663084083
 20
4.5339631348
 30
0.0
 40
0.9499999999999998
100
AcDbArc
 50
180.9047077972
 51
359.0952922028
  0
LINE
  5
10F
330
1F
100
AcDbEntity
  8
0
  6
Continuous
 62
     7
370
     0
100
AcDbLine
 10
1.606425617
 20
4.5189631351
 30
0.0
 11
1.6164268481
 21
4.5189631351
 31
0.0
  0
LINE
  5
110
330
1F
100
AcDbEntity
  8
0
  6
Continuous
 62
     7
370
     0
100
AcDbLine
 10
3.5161899686
 20
4.5189631351
 30
0.0
 11
3.5261911997
 21
4.5189631351
 31
0.0
  0
LINE
  5
111
330
1F
100
AcDbEntity
  8
0
  6
Continuous
 62
     7
370
     0
100
AcDbLine
 10
1.5489190146
 20
4.5189631351
 30
0.0
 11
1.5662413945
 21
4.5189631351
 31
0.0
  0
LINE
  5
112
330
1F
100
AcDbEntity
  8
0
  6
Continuous
 62
     7
370
     0
100
AcDbLine
 10
3.5663754221
 20
4.5189631351
 30
0.0
 11
3.583697802
 21
4.5189631351
 31
0.0
  0
ARC
  5
113
330
1F
100
AcDbEntity
  8
0
  6
Continuous
 62
     7
370
     0
100
AcDbCircle
 10
2.5663084083
 20
4.5339631348
 30
0.0
 40
0.9499999999999997
100
AcDbArc
 50
359.0952922028
 51
0.9047077972
  0
ARC
  5
114
330
1F
100
AcDbEntity
  8
0
  6
Continuous
 62
     7
370
     0
100
AcDbCircle
 10
2.5663084083
 20
4.5339631348
 30
0.0
 40
0.9499999999999998
100
AcDbArc
 50
179.0952922028
 51
180.9047077972
  0
CIRCLE
  5
115
330
1F
100
AcDbEntity
  8
0
  6
Continuous
 62
     7
370
     0
100
AcDbCircle
 10
2.5663084083
 20
4.5339631348
 30
0.0
 40
1.1
  0
CIRCLE
  5
116
330
1F
100
AcDbEntity
  8
0
  6
Continuous
 62
     7
370
     0
100
AcDbCircle
 10
2.5663084083
 20
4.5339631348
 30
0.0
 40
1.090000000000001
  0
CIRCLE
  5
117
330
1F
100
AcDbEntity
  8
0
  6
Continuous
 62
     7
370
     0
100
AcDbCircle
 10
2.5663084083
 20
4.5339631348
 30
0.0
 40
1.034820508075689
  0
CIRCLE
  5
118
330
1F
100
AcDbEntity
  8
0
  6
Continuous
 62
     7
370
     0
100
AcDbCircle
 10
2.5663084083
 20
4.5339631348
 30
0.0
 40
1.0175
  0
DIMENSION
  5
119
330
1F
100
AcDbEntity
  8
0
  6
Continuous
 62
     7
370
     0
100
AcDbDimension
  2
_D
 10
1.7900864574
 20
3.7545534332
 30
0.0
 11
4.4725863558
 21
6.0276639222
 31
0.0
 70
   163
  1
<>
 71
     1
 42
-1.0
  3
SLDDIMSTYLE0
100
AcDbDiametricDimension
 15
3.3425303593
 25
5.3133728363
 35
0.0
 40
0.0
  0
LINE
  5
12A
330
1F
100
AcDbEntity
  8
0
  6
PHANTOM
 62
     7
370
    30
100
AcDbLine
 10
2.5663084083
 20
5.8979631348
 30
0.0
 11
2.5663084083
 21
3.1699631348
 31
0.0
  0
LINE
  5
12B
330
1F
100
AcDbEntity
  8
0
  6
Continuous
 62
     7
370
    30
100
AcDbLine
 10
2.5663084083
 20
5.8979631348
 30
0.0
 11
2.2163084083
 21
5.8979631348
 31
0.0
  0
SOLID
  5
12C
330
1F
100
AcDbEntity
  8
0
  6
Continuous
 62
     7
370
    30
100
AcDbTrace
 10
2.2163084083
 20
5.8979631348
 30
0.0
 11
2.3663084083
 21
5.8729631348
 31
0.0
 12
2.3663084083
 22
5.9229631348
 32
0.0
 13
2.3663084083
 23
5.9229631348
 33
0.0
  0
LINE
  5
12D
330
1F
100
AcDbEntity
  8
0
  6
Continuous
 62
     7
370
    30
100
AcDbLine
 10
2.5663084083
 20
3.1699631348
 30
0.0
 11
2.2163084083
 21
3.1699631348
 31
0.0
  0
SOLID
  5
12E
330
1F
100
AcDbEntity
  8
0
  6
Continuous
 62
     7
370
    30
100
AcDbTrace
 10
2.2163084083
 20
3.1699631348
 30
0.0
 11
2.3663084083
 21
3.1449631348
 31
0.0
 12
2.3663084083
 22
3.1949631348
 32
0.0
 13
2.3663084083
 23
3.1949631348
 33
0.0
  0
MTEXT
  5
12F
330
1F
100
AcDbEntity
  8
0
  6
Continuous
 62
     7
100
AcDbMText
 10
2.082275696
 20
5.9806592277
 30
0.0
 40
0.1041666667
 41
0.0
 71
     1
 72
     1
  1
A
  7
SLDTEXTSTYLE0
 73
     1
 44
1.0
  0
MTEXT
  5
130
330
1F
100
AcDbEntity
  8
0
  6
Continuous
 62
     7
100
AcDbMText
 10
2.082275696
 20
3.2526592277
 30
0.0
 40
0.1041666667
 41
0.0
 71
     1
 72
     1
  1
A
  7
SLDTEXTSTYLE0
 73
     1
 44
1.0
  0
LINE
  5
131
330
1F
100
AcDbEntity
  8
0
  6
Continuous
 62
     7
370
     0
100
AcDbLine
 10
6.9731947817
 20
3.5339631469
 30
0.0
 11
7.091043097
 21
3.5339631469
 31
0.0
  0
LINE
  5
132
330
1F
100
AcDbEntity
  8
0
  6
Continuous
 62
     7
370
     0
100
AcDbLine
 10
7.091043097
 20
5.5339631227
 30
0.0
 11
6.9731947817
 21
5.5339631227
 31
0.0
  0
ARC
  5
133
330
1F
100
AcDbEntity
  8
0
  6
Continuous
 62
     7
370
     0
100
AcDbCircle
 10
27.2272635674
 20
4.5339631348
 30
0.0
 40
20.27874015748032
100
AcDbArc
 50
177.1734424342
 51
182.8265575658
  0
LINE
  5
134
330
1F
100
AcDbEntity
  8
0
  6
Continuous
 62
     7
370
     0
100
AcDbLine
 10
7.091043097
 20
3.5339631469
 30
0.0
 11
7.091043097
 21
5.5339631227
 31
0.0
  0
LINE
  5
135
330
1F
100
AcDbEntity
  8
0
  6
Continuous
 62
     7
370
     0
100
AcDbLine
 10
6.9716077303
 20
3.5264631402
 30
0.0
 11
6.9542872227
 21
3.5164631557
 31
0.0
  0
LINE
  5
136
330
1F
100
AcDbEntity
  8
0
  6
Continuous
 62
     7
370
     0
100
AcDbLine
 10
6.9542872227
 20
5.5514631139
 30
0.0
 11
6.9716077303
 21
5.5414631294
 31
0.0
  0
LINE
  5
137
330
1F
100
AcDbEntity
  8
0
  6
Continuous
 62
     7
370
     0
100
AcDbLine
 10
6.9716077303
 20
5.5012836735
 30
0.0
 11
6.9616077298
 21
5.483963127
 31
0.0
  0
LINE
  5
138
330
1F
100
AcDbEntity
  8
0
  6
Continuous
 62
     7
370
     0
100
AcDbLine
 10
6.9616077298
 20
3.5839631426
 30
0.0
 11
6.9716077303
 21
3.566642596
 31
0.0
  0
LINE
  5
139
330
1F
100
AcDbEntity
  8
0
  6
Continuous
 62
     7
370
     0
100
AcDbLine
 10
6.9616077298
 20
3.5839631426
 30
0.0
 11
6.9616077298
 21
3.8056116821
 31
0.0
  0
LINE
  5
13A
330
1F
100
AcDbEntity
  8
0
  6
Continuous
 62
     7
370
     0
100
AcDbLine
 10
6.9616077298
 20
5.2623145875
 30
0.0
 11
6.9616077298
 21
5.483963127
 31
0.0
  0
LINE
  5
13B
330
1F
100
AcDbEntity
  8
0
  6
Continuous
 62
     7
370
     0
100
AcDbLine
 10
6.9616077298
 20
3.5839631426
 30
0.0
 11
6.8889282419
 21
3.5839631426
 31
0.0
  0
LINE
  5
13C
330
1F
100
AcDbEntity
  8
0
  6
Continuous
 62
     7
370
     0
100
AcDbLine
 10
6.8889282419
 20
4.5189631351
 30
0.0
 11
6.8889282419
 21
3.5839631426
 31
0.0
  0
LINE
  5
13D
330
1F
100
AcDbEntity
  8
0
  6
Continuous
 62
     7
370
     0
100
AcDbLine
 10
6.8966077298
 20
4.5189631351
 30
0.0
 11
6.8889282419
 21
4.5189631351
 31
0.0
  0
LINE
  5
13E
330
1F
100
AcDbEntity
  8
0
  6
Continuous
 62
     7
370
     0
100
AcDbLine
 10
6.8966077298
 20
4.5189631351
 30
0.0
 11
6.8966077298
 21
4.5489631344
 31
0.0
  0
LINE
  5
13F
330
1F
100
AcDbEntity
  8
0
  6
Continuous
 62
     7
370
     0
100
AcDbLine
 10
6.8889282419
 20
4.5489631344
 30
0.0
 11
6.8966077298
 21
4.5489631344
 31
0.0
  0
LINE
  5
140
330
1F
100
AcDbEntity
  8
0
  6
Continuous
 62
     7
370
     0
100
AcDbLine
 10
6.8889282419
 20
5.483963127
 30
0.0
 11
6.8889282419
 21
4.5489631344
 31
0.0
  0
LINE
  5
141
330
1F
100
AcDbEntity
  8
0
  6
Continuous
 62
     7
370
     0
100
AcDbLine
 10
6.8889282419
 20
5.483963127
 30
0.0
 11
6.9616077298
 21
5.483963127
 31
0.0
  0
LINE
  5
142
330
1F
100
AcDbEntity
  8
0
  6
Continuous
 62
     7
370
     0
100
AcDbLine
 10
6.8816077256
 20
3.5164631557
 30
0.0
 11
6.9542872227
 21
3.5164631557
 31
0.0
  0
LINE
  5
143
330
1F
100
AcDbEntity
  8
0
  6
Continuous
 62
     7
370
     0
100
AcDbLine
 10
6.9542872227
 20
5.5514631139
 30
0.0
 11
6.8816077256
 21
5.5514631139
 31
0.0
  0
LINE
  5
144
330
1F
100
AcDbEntity
  8
0
  6
Continuous
 62
     7
370
     0
100
AcDbLine
 10
6.8889282419
 20
5.483963127
 30
0.0
 11
6.871607732
 21
5.4939631114
 31
0.0
  0
LINE
  5
145
330
1F
100
AcDbEntity
  8
0
  6
Continuous
 62
     7
370
     0
100
AcDbLine
 10
6.871607732
 20
5.5341426406
 30
0.0
 11
6.871607732
 21
5.4939631114
 31
0.0
  0
LINE
  5
146
330
1F
100
AcDbEntity
  8
0
  6
Continuous
 62
     7
370
     0
100
AcDbLine
 10
6.871607732
 20
5.5341426406
 30
0.0
 11
6.8816077256
 21
5.5514631139
 31
0.0
  0
LINE
  5
147
330
1F
100
AcDbEntity
  8
0
  6
Continuous
 62
     7
370
     0
100
AcDbLine
 10
6.9716077303
 20
5.5012836735
 30
0.0
 11
6.9716077303
 21
5.5414631294
 31
0.0
  0
LINE
  5
148
330
1F
100
AcDbEntity
  8
0
  6
Continuous
 62
     7
370
     0
100
AcDbLine
 10
6.8816077256
 20
3.5164631557
 30
0.0
 11
6.871607732
 21
3.5337836289
 31
0.0
  0
LINE
  5
149
330
1F
100
AcDbEntity
  8
0
  6
Continuous
 62
     7
370
     0
100
AcDbLine
 10
6.871607732
 20
3.5739631581
 30
0.0
 11
6.871607732
 21
3.5337836289
 31
0.0
  0
LINE
  5
14A
330
1F
100
AcDbEntity
  8
0
  6
Continuous
 62
     7
370
     0
100
AcDbLine
 10
6.871607732
 20
3.5739631581
 30
0.0
 11
6.8889282419
 21
3.5839631426
 31
0.0
  0
LINE
  5
14B
330
1F
100
AcDbEntity
  8
0
  6
Continuous
 62
     7
370
     0
100
AcDbLine
 10
6.9716077303
 20
3.5264631402
 30
0.0
 11
6.9716077303
 21
3.566642596
 31
0.0
  0
LINE
  5
14C
330
1F
100
AcDbEntity
  8
0
  6
Continuous
 62
     7
370
     0
100
AcDbLine
 10
6.8889282419
 20
4.5489631344
 30
0.0
 11
6.871607732
 21
4.5489631344
 31
0.0
  0
LINE
  5
14D
330
1F
100
AcDbEntity
  8
0
  6
Continuous
 62
     7
370
     0
100
AcDbLine
 10
6.871607732
 20
4.5489631344
 30
0.0
 11
6.871607732
 21
5.4939631114
 31
0.0
  0
LINE
  5
14E
330
1F
100
AcDbEntity
  8
0
  6
Continuous
 62
     7
370
     0
100
AcDbLine
 10
6.871607732
 20
4.5189631351
 30
0.0
 11
6.8889282419
 21
4.5189631351
 31
0.0
  0
LINE
  5
14F
330
1F
100
AcDbEntity
  8
0
  6
Continuous
 62
     7
370
     0
100
AcDbLine
 10
6.871607732
 20
3.5739631581
 30
0.0
 11
6.871607732
 21
4.5189631351
 31
0.0
  0
LINE
  5
150
330
1F
100
AcDbEntity
  8
0
  6
Continuous
 62
     7
370
     0
100
AcDbLine
 10
6.9464121616
 20
3.4339631554
 30
0.0
 11
7.1110430935
 21
3.4339631554
 31
0.0
  0
LINE
  5
151
330
1F
100
AcDbEntity
  8
0
  6
Continuous
 62
     7
370
     0
100
AcDbLine
 10
7.1110430935
 20
5.6339631142
 30
0.0
 11
7.0160430943
 21
5.6339631142
 31
0.0
  0
LINE
  5
152
330
1F
100
AcDbEntity
  8
0
  6
Continuous
 62
     7
370
     0
100
AcDbLine
 10
6.9360430947
 20
5.6339631142
 30
0.0
 11
6.9160430937
 21
5.6339631142
 31
0.0
  0
LINE
  5
153
330
1F
100
AcDbEntity
  8
0
  6
Continuous
 62
     7
370
     0
100
AcDbLine
 10
6.837068736
 20
5.6339631142
 30
0.0
 11
6.7410430903
 21
5.6339631142
 31
0.0
  0
LINE
  5
154
330
1F
100
AcDbEntity
  8
0
  6
Continuous
 62
     7
370
     0
100
AcDbLine
 10
6.7410430903
 20
3.4339631554
 30
0.0
 11
6.8755859368
 21
3.4339631554
 31
0.0
  0
LINE
  5
155
330
1F
100
AcDbEntity
  8
0
  6
Continuous
 62
     7
370
     0
100
AcDbLine
 10
6.9287325287
 20
3.4339631554
 30
0.0
 11
6.9464121616
 21
3.4339631554
 31
0.0
  0
LINE
  5
156
330
1F
100
AcDbEntity
  8
0
  6
Continuous
 62
     7
370
     0
100
AcDbLine
 10
6.8755859368
 20
3.4339631554
 30
0.0
 11
6.9099604848
 21
3.4339631554
 31
0.0
  0
LINE
  5
157
330
1F
100
AcDbEntity
  8
0
  6
Continuous
 62
     7
370
     0
100
AcDbLine
 10
6.8473251458
 20
5.6339631142
 30
0.0
 11
6.837068736
 21
5.6339631142
 31
0.0
  0
LINE
  5
158
330
1F
100
AcDbEntity
  8
0
  6
Continuous
 62
     7
370
     0
100
AcDbLine
 10
6.9160430937
 20
5.6339631142
 30
0.0
 11
6.8769982197
 21
5.6339631142
 31
0.0
  0
LINE
  5
159
330
1F
100
AcDbEntity
  8
0
  6
Continuous
 62
     7
370
     0
100
AcDbLine
 10
6.8769982197
 20
5.6339631142
 30
0.0
 11
6.8473251458
 21
5.6339631142
 31
0.0
  0
LINE
  5
15A
330
1F
100
AcDbEntity
  8
0
  6
Continuous
 62
     7
370
     0
100
AcDbLine
 10
6.9442760183
 20
5.6339631142
 30
0.0
 11
6.9360430947
 21
5.6339631142
 31
0.0
  0
LINE
  5
15B
330
1F
100
AcDbEntity
  8
0
  6
Continuous
 62
     7
370
     0
100
AcDbLine
 10
7.0018114575
 20
5.6339631142
 30
0.0
 11
6.9442760183
 21
5.6339631142
 31
0.0
  0
LINE
  5
15C
330
1F
100
AcDbEntity
  8
0
  6
Continuous
 62
     7
370
     0
100
AcDbLine
 10
7.0160430943
 20
5.6339631142
 30
0.0
 11
7.0018114575
 21
5.6339631142
 31
0.0
  0
LINE
  5
15D
330
1F
100
AcDbEntity
  8
0
  6
Continuous
 62
     7
370
     0
100
AcDbLine
 10
7.1110430935
 20
5.6339631142
 30
0.0
 11
7.1210430963
 21
5.6239631297
 31
0.0
  0
LINE
  5
15E
330
1F
100
AcDbEntity
  8
0
  6
Continuous
 62
     7
370
     0
100
AcDbLine
 10
7.1210430963
 20
5.5414631294
 30
0.0
 11
7.1210430963
 21
5.6239631297
 31
0.0
  0
LINE
  5
15F
330
1F
100
AcDbEntity
  8
0
  6
Continuous
 62
     7
370
     0
100
AcDbLine
 10
7.1310430991
 20
5.5414631294
 30
0.0
 11
7.1210430963
 21
5.5414631294
 31
0.0
  0
LINE
  5
160
330
1F
100
AcDbEntity
  8
0
  6
Continuous
 62
     7
370
     0
100
AcDbLine
 10
7.1310430991
 20
5.5514631139
 30
0.0
 11
7.1310430991
 21
5.5414631294
 31
0.0
  0
LINE
  5
161
330
1F
100
AcDbEntity
  8
0
  6
Continuous
 62
     7
370
     0
100
AcDbLine
 10
7.2310430997
 20
5.5514631139
 30
0.0
 11
7.1310430991
 21
5.5514631139
 31
0.0
  0
LINE
  5
162
330
1F
100
AcDbEntity
  8
0
  6
Continuous
 62
     7
370
     0
100
AcDbLine
 10
7.2310430997
 20
5.5514631139
 30
0.0
 11
7.2410431026
 21
5.5341426406
 31
0.0
  0
LINE
  5
163
330
1F
100
AcDbEntity
  8
0
  6
Continuous
 62
     7
370
     0
100
AcDbLine
 10
7.2410431026
 20
5.483963127
 30
0.0
 11
7.2410431026
 21
5.5341426406
 31
0.0
  0
LINE
  5
164
330
1F
100
AcDbEntity
  8
0
  6
Continuous
 62
     7
370
     0
100
AcDbLine
 10
7.091043097
 20
5.483963127
 30
0.0
 11
7.2410431026
 21
5.483963127
 31
0.0
  0
LINE
  5
165
330
1F
100
AcDbEntity
  8
0
  6
Continuous
 62
     7
370
     0
100
AcDbLine
 10
7.091043097
 20
5.5614630983
 30
0.0
 11
7.091043097
 21
5.483963127
 31
0.0
  0
LINE
  5
166
330
1F
100
AcDbEntity
  8
0
  6
Continuous
 62
     7
370
     0
100
AcDbLine
 10
7.0810430942
 20
5.5614630983
 30
0.0
 11
7.091043097
 21
5.5614630983
 31
0.0
  0
LINE
  5
167
330
1F
100
AcDbEntity
  8
0
  6
Continuous
 62
     7
370
     0
100
AcDbLine
 10
7.0810430942
 20
5.5514631139
 30
0.0
 11
7.0810430942
 21
5.5614630983
 31
0.0
  0
LINE
  5
168
330
1F
100
AcDbEntity
  8
0
  6
Continuous
 62
     7
370
     0
100
AcDbLine
 10
6.7410430903
 20
5.5514631139
 30
0.0
 11
7.0810430942
 21
5.5514631139
 31
0.0
  0
LINE
  5
169
330
1F
100
AcDbEntity
  8
0
  6
Continuous
 62
     7
370
     0
100
AcDbLine
 10
6.7410430903
 20
5.5514631139
 30
0.0
 11
6.7310430875
 21
5.5687836604
 31
0.0
  0
LINE
  5
16A
330
1F
100
AcDbEntity
  8
0
  6
Continuous
 62
     7
370
     0
100
AcDbLine
 10
6.7310430875
 20
5.6239631297
 30
0.0
 11
6.7310430875
 21
5.5687836604
 31
0.0
  0
LINE
  5
16B
330
1F
100
AcDbEntity
  8
0
  6
Continuous
 62
     7
370
     0
100
AcDbLine
 10
6.7310430875
 20
5.6239631297
 30
0.0
 11
6.7410430903
 21
5.6339631142
 31
0.0
  0
LINE
  5
16C
330
1F
100
AcDbEntity
  8
0
  6
Continuous
 62
     7
370
     0
100
AcDbLine
 10
7.2410431026
 20
3.5337836289
 30
0.0
 11
7.2310430997
 21
3.5164631557
 31
0.0
  0
LINE
  5
16D
330
1F
100
AcDbEntity
  8
0
  6
Continuous
 62
     7
370
     0
100
AcDbLine
 10
7.2410431026
 20
3.5839631426
 30
0.0
 11
7.2410431026
 21
5.483963127
 31
0.0
  0
LINE
  5
16E
330
1F
100
AcDbEntity
  8
0
  6
Continuous
 62
     7
370
     0
100
AcDbLine
 10
7.2410431026
 20
3.5839631426
 30
0.0
 11
7.091043097
 21
3.5839631426
 31
0.0
  0
LINE
  5
16F
330
1F
100
AcDbEntity
  8
0
  6
Continuous
 62
     7
370
     0
100
AcDbLine
 10
7.0810430942
 20
3.5164631557
 30
0.0
 11
6.7410430903
 21
3.5164631557
 31
0.0
  0
LINE
  5
170
330
1F
100
AcDbEntity
  8
0
  6
Continuous
 62
     7
370
     0
100
AcDbLine
 10
7.0810430942
 20
3.5064631712
 30
0.0
 11
7.0810430942
 21
3.5164631557
 31
0.0
  0
LINE
  5
171
330
1F
100
AcDbEntity
  8
0
  6
Continuous
 62
     7
370
     0
100
AcDbLine
 10
7.091043097
 20
3.5064631712
 30
0.0
 11
7.0810430942
 21
3.5064631712
 31
0.0
  0
LINE
  5
172
330
1F
100
AcDbEntity
  8
0
  6
Continuous
 62
     7
370
     0
100
AcDbLine
 10
7.091043097
 20
3.5839631426
 30
0.0
 11
7.091043097
 21
3.5064631712
 31
0.0
  0
LINE
  5
173
330
1F
100
AcDbEntity
  8
0
  6
Continuous
 62
     7
370
     0
100
AcDbLine
 10
7.2410431026
 20
3.5337836289
 30
0.0
 11
7.2410431026
 21
3.5839631426
 31
0.0
  0
LINE
  5
174
330
1F
100
AcDbEntity
  8
0
  6
Continuous
 62
     7
370
     0
100
AcDbLine
 10
7.1310430991
 20
3.5164631557
 30
0.0
 11
7.2310430997
 21
3.5164631557
 31
0.0
  0
LINE
  5
175
330
1F
100
AcDbEntity
  8
0
  6
Continuous
 62
     7
370
     0
100
AcDbLine
 10
7.1310430991
 20
3.5264631402
 30
0.0
 11
7.1310430991
 21
3.5164631557
 31
0.0
  0
LINE
  5
176
330
1F
100
AcDbEntity
  8
0
  6
Continuous
 62
     7
370
     0
100
AcDbLine
 10
7.1210430963
 20
3.5264631402
 30
0.0
 11
7.1310430991
 21
3.5264631402
 31
0.0
  0
LINE
  5
177
330
1F
100
AcDbEntity
  8
0
  6
Continuous
 62
     7
370
     0
100
AcDbLine
 10
7.1210430963
 20
3.4439631399
 30
0.0
 11
7.1210430963
 21
3.5264631402
 31
0.0
  0
LINE
  5
178
330
1F
100
AcDbEntity
  8
0
  6
Continuous
 62
     7
370
     0
100
AcDbLine
 10
7.1210430963
 20
3.4439631399
 30
0.0
 11
7.1110430935
 21
3.4339631554
 31
0.0
  0
LINE
  5
179
330
1F
100
AcDbEntity
  8
0
  6
Continuous
 62
     7
370
     0
100
AcDbLine
 10
6.9099604848
 20
3.4339631554
 30
0.0
 11
6.9287325287
 21
3.4339631554
 31
0.0
  0
LINE
  5
17A
330
1F
100
AcDbEntity
  8
0
  6
Continuous
 62
     7
370
     0
100
AcDbLine
 10
6.7410430903
 20
3.4339631554
 30
0.0
 11
6.7310430875
 21
3.4439631399
 31
0.0
  0
LINE
  5
17B
330
1F
100
AcDbEntity
  8
0
  6
Continuous
 62
     7
370
     0
100
AcDbLine
 10
6.7310430875
 20
3.4991426091
 30
0.0
 11
6.7310430875
 21
3.4439631399
 31
0.0
  0
LINE
  5
17C
330
1F
100
AcDbEntity
  8
0
  6
Continuous
 62
     7
370
     0
100
AcDbLine
 10
6.7310430875
 20
3.4991426091
 30
0.0
 11
6.7410430903
 21
3.5164631557
 31
0.0
  0
LINE
  5
17D
330
1F
100
AcDbEntity
  8
0
  6
Continuous
 62
     7
370
     0
100
AcDbLine
 10
6.7410430903
 20
5.5514631139
 30
0.0
 11
6.7410430903
 21
3.5164631557
 31
0.0
  0
LINE
  5
17E
330
1F
100
AcDbEntity
  8
0
  6
Continuous
 62
     7
370
     0
100
AcDbLine
 10
7.0810430942
 20
3.5164631557
 30
0.0
 11
7.0810430942
 21
3.5339631469
 31
0.0
  0
LINE
  5
17F
330
1F
100
AcDbEntity
  8
0
  6
Continuous
 62
     7
370
     0
100
AcDbLine
 10
7.0810430942
 20
5.5339631227
 30
0.0
 11
7.0810430942
 21
5.5514631139
 31
0.0
  0
LINE
  5
180
330
1F
100
AcDbEntity
  8
0
  6
Continuous
 62
     7
370
     0
100
AcDbLine
 10
6.7310430875
 20
3.4991426091
 30
0.0
 11
6.7310430875
 21
5.5687836604
 31
0.0
  0
HATCH
  5
181
330
1F
100
AcDbEntity
  8
0
  6
Continuous
 62
     7
370
     0
100
AcDbHatch
 10
0.0
 20
0.0
 30
0.0
210
0.0
220
0.0
230
1.0
  2
ANSI31
 70
     0
 71
     0
 91
        1
 92
        0
 93
       20
 72
     1
 10
6.741043095004896
 20
3.516463134783532
 11
6.731043095004896
 21
3.499142626707842
 72
     1
 10
6.731043095004896
 20
3.499142626707842
 11
6.731043095004896
 21
3.44396313478353
 72
     1
 10
6.731043095004896
 20
3.44396313478353
 11
6.741043095004895
 21
3.433963134783532
 72
     1
 10
6.741043095004895
 20
3.433963134783532
 11
6.875585934352142
 21
3.433963134783532
 72
     1
 10
6.875585934352142
 20
3.433963134783532
 11
6.909960482589484
 21
3.433963134783532
 72
     1
 10
6.909960482589484
 20
3.433963134783532
 11
6.928732528127949
 21
3.433963134783532
 72
     1
 10
6.928732528127949
 20
3.433963134783532
 11
6.946412163546228
 21
3.433963134783532
 72
     1
 10
6.946412163546228
 20
3.433963134783532
 11
7.111043095004897
 21
3.433963134783531
 72
     1
 10
7.111043095004897
 20
3.433963134783531
 11
7.121043095004896
 21
3.443963134783531
 72
     1
 10
7.121043095004896
 20
3.443963134783531
 11
7.121043095004896
 21
3.526463134783531
 72
     1
 10
7.121043095004896
 20
3.526463134783531
 11
7.131043095004896
 21
3.526463134783531
 72
     1
 10
7.131043095004896
 20
3.526463134783531
 11
7.131043095004896
 21
3.516463134783532
 72
     1
 10
7.131043095004896
 20
3.516463134783532
 11
7.231043095004897
 21
3.516463134783532
 72
     1
 10
7.231043095004897
 20
3.516463134783532
 11
7.241043095004897
 21
3.53378364285922
 72
     1
 10
7.241043095004897
 20
3.53378364285922
 11
7.241043095004897
 21
3.583963134783531
 72
     1
 10
7.241043095004897
 20
3.583963134783531
 11
7.091043095004896
 21
3.583963134783531
 72
     1
 10
7.091043095004896
 20
3.583963134783531
 11
7.091043095004896
 21
3.506463134783532
 72
     1
 10
7.091043095004896
 20
3.506463134783532
 11
7.081043095004897
 21
3.506463134783532
 72
     1
 10
7.081043095004897
 20
3.506463134783532
 11
7.081043095004897
 21
3.516463134783532
 72
     1
 10
7.081043095004897
 20
3.516463134783532
 11
6.741043095004896
 21
3.516463134783532
 97
        0
 75
     0
 76
     1
 52
0.0
 41
1.0
 77
     0
 78
     1
 53
45.0
 43
0.0
 44
0.0
 45
-0.0883883476483184
 46
0.0883883476483184
 79
     0
 98
        1
 10
0.0
 20
0.0
  0
HATCH
  5
182
330
1F
100
AcDbEntity
  8
0
  6
Continuous
 62
     7
370
     0
100
AcDbHatch
 10
0.0
 20
0.0
 30
0.0
210
0.0
220
0.0
230
1.0
  2
ANSI31
 70
     0
 71
     0
 91
        1
 92
        0
 93
       24
 72
     1
 10
6.847325146286948
 20
5.633963134783532
 11
6.837068736030538
 21
5.633963134783532
 72
     1
 10
6.837068736030538
 20
5.633963134783532
 11
6.741043095004895
 21
5.633963134783532
 72
     1
 10
6.741043095004895
 20
5.633963134783532
 11
6.731043095004896
 21
5.623963134783532
 72
     1
 10
6.731043095004896
 20
5.623963134783532
 11
6.731043095004896
 21
5.56878364285922
 72
     1
 10
6.731043095004896
 20
5.56878364285922
 11
6.741043095004896
 21
5.551463134783531
 72
     1
 10
6.741043095004896
 20
5.551463134783531
 11
7.081043095004897
 21
5.551463134783531
 72
     1
 10
7.081043095004897
 20
5.551463134783531
 11
7.081043095004897
 21
5.561463134783531
 72
     1
 10
7.081043095004897
 20
5.561463134783531
 11
7.091043095004896
 21
5.561463134783531
 72
     1
 10
7.091043095004896
 20
5.561463134783531
 11
7.091043095004896
 21
5.483963134783531
 72
     1
 10
7.091043095004896
 20
5.483963134783531
 11
7.241043095004897
 21
5.483963134783531
 72
     1
 10
7.241043095004897
 20
5.483963134783531
 11
7.241043095004897
 21
5.534142626707842
 72
     1
 10
7.241043095004897
 20
5.534142626707842
 11
7.231043095004897
 21
5.551463134783531
 72
     1
 10
7.231043095004897
 20
5.551463134783531
 11
7.131043095004896
 21
5.551463134783531
 72
     1
 10
7.131043095004896
 20
5.551463134783531
 11
7.131043095004896
 21
5.541463134783531
 72
     1
 10
7.131043095004896
 20
5.541463134783531
 11
7.121043095004896
 21
5.541463134783531
 72
     1
 10
7.121043095004896
 20
5.541463134783531
 11
7.121043095004896
 21
5.623963134783532
 72
     1
 10
7.121043095004896
 20
5.623963134783532
 11
7.111043095004897
 21
5.633963134783532
 72
     1
 10
7.111043095004897
 20
5.633963134783532
 11
7.016043095004897
 21
5.633963134783532
 72
     1
 10
7.016043095004897
 20
5.633963134783532
 11
7.001811457175697
 21
5.633963134783532
 72
     1
 10
7.001811457175697
 20
5.633963134783532
 11
6.944276018469098
 21
5.633963134783532
 72
     1
 10
6.944276018469098
 20
5.633963134783532
 11
6.936043095004897
 21
5.633963134783532
 72
     1
 10
6.936043095004897
 20
5.633963134783532
 11
6.916043095004897
 21
5.633963134783532
 72
     1
 10
6.916043095004897
 20
5.633963134783532
 11
6.876998223892558
 21
5.633963134783532
 72
     1
 10
6.876998223892558
 20
5.633963134783532
 11
6.847325146286948
 21
5.633963134783532
 97
        0
 75
     0
 76
     1
 52
0.0
 41
1.0
 77
     0
 78
     1
 53
45.0
 43
0.0
 44
0.0
 45
-0.0883883476483184
 46
0.0883883476483184
 79
     0
 98
        1
 10
0.0
 20
0.0
  0
HATCH
  5
183
330
1F
100
AcDbEntity
  8
0
  6
Continuous
 62
     7
370
     0
100
AcDbHatch
 10
0.0
 20
0.0
 30
0.0
210
0.0
220
0.0
230
1.0
  2
ANSI31
 70
     0
 71
     0
 91
        1
 92
        0
 93
        8
 72
     1
 10
6.971607729896149
 20
3.566642626707843
 11
6.96160772989615
 21
3.583963134783531
 72
     1
 10
6.96160772989615
 20
3.583963134783531
 11
6.88892823797184
 21
3.583963134783531
 72
     1
 10
6.88892823797184
 20
3.583963134783531
 11
6.871607729896149
 21
3.573963134783531
 72
     1
 10
6.871607729896149
 20
3.573963134783531
 11
6.871607729896149
 21
3.533783642859219
 72
     1
 10
6.871607729896149
 20
3.533783642859219
 11
6.88160772989615
 21
3.516463134783532
 72
     1
 10
6.88160772989615
 20
3.516463134783532
 11
6.95428722182046
 21
3.516463134783532
 72
     1
 10
6.95428722182046
 20
3.516463134783532
 11
6.971607729896149
 21
3.526463134783532
 72
     1
 10
6.971607729896149
 20
3.526463134783532
 11
6.971607729896149
 21
3.566642626707843
 97
        0
 75
     0
 76
     1
 52
90.0
 41
0.25
 77
     0
 78
     1
 53
135.0000000000002
 43
0.0
 44
0.0
 45
-0.0220970869120795
 46
-0.0220970869120797
 79
     0
 98
        1
 10
0.0
 20
0.0
  0
HATCH
  5
184
330
1F
100
AcDbEntity
  8
0
  6
Continuous
 62
     7
370
     0
100
AcDbHatch
 10
0.0
 20
0.0
 30
0.0
210
0.0
220
0.0
230
1.0
  2
ANSI31
 70
     0
 71
     0
 91
        1
 92
        0
 93
        8
 72
     1
 10
6.96160772989615
 20
5.483963134783531
 11
6.971607729896149
 21
5.50128364285922
 72
     1
 10
6.971607729896149
 20
5.50128364285922
 11
6.971607729896149
 21
5.541463134783531
 72
     1
 10
6.971607729896149
 20
5.541463134783531
 11
6.95428722182046
 21
5.551463134783531
 72
     1
 10
6.95428722182046
 20
5.551463134783531
 11
6.88160772989615
 21
5.551463134783531
 72
     1
 10
6.88160772989615
 20
5.551463134783531
 11
6.871607729896149
 21
5.534142626707844
 72
     1
 10
6.871607729896149
 20
5.534142626707844
 11
6.871607729896149
 21
5.493963134783532
 72
     1
 10
6.871607729896149
 20
5.493963134783532
 11
6.88892823797184
 21
5.483963134783531
 72
     1
 10
6.88892823797184
 20
5.483963134783531
 11
6.96160772989615
 21
5.483963134783531
 97
        0
 75
     0
 76
     1
 52
90.0
 41
0.25
 77
     0
 78
     1
 53
135.0000000000002
 43
0.0
 44
0.0
 45
-0.0220970869120795
 46
-0.0220970869120797
 79
     0
 98
        1
 10
0.0
 20
0.0
  0
HATCH
  5
185
330
1F
100
AcDbEntity
  8
0
  6
Continuous
 62
     7
370
     0
100
AcDbHatch
 10
0.0
 20
0.0
 30
0.0
210
0.0
220
0.0
230
1.0
  2
ANSI31
 70
     0
 71
     0
 91
        1
 92
        0
 93
        4
 72
     1
 10
7.091043095004896
 20
5.533963134783532
 11
6.973194781777005
 21
5.533963134783532
 72
     2
 10
27.22726356744585
 20
4.533963134783531
 40
20.27874015748032
 50
177.1734424342243
 51
182.8265575657765
 73
     1
 72
     1
 10
6.973194781777005
 20
3.533963134783531
 11
7.091043095004896
 21
3.533963134783531
 72
     1
 10
7.091043095004896
 20
3.533963134783531
 11
7.091043095004896
 21
5.533963134783532
 97
        0
 75
     0
 76
     1
 52
0.0
 41
1.0
 77
     0
 78
     1
 53
45.0
 43
0.0
 44
0.0
 45
-0.0883883476483184
 46
0.0883883476483184
 79
     0
 98
        1
 10
0.0
 20
0.0
  0
DIMENSION
  5
186
330
1F
100
AcDbEntity
  8
0
  6
Continuous
 62
     7
370
     0
100
AcDbDimension
  2
_D_1
 10
6.731043095
 20
6.3308960566
 30
0.0
 11
6.1639166047
 21
6.3308960566
 31
0.0
 70
   160
  1
<>
 71
     2
 42
-1.0
  3
SLDDIMSTYLE1
100
AcDbAlignedDimension
 13
7.241043095
 23
5.5341426267
 33
0.0
 14
6.731043095
 24
5.6239631348
 34
0.0
100
AcDbRotatedDimension
  0
DIMENSION
  5
19B
330
1F
100
AcDbEntity
  8
0
  6
Continuous
 62
     7
370
     0
100
AcDbDimension
  2
_D_2
 10
7.241043095
 20
6.0276639222
 30
0.0
 11
7.7842529578
 21
6.0276639222
 31
0.0
 70
   160
  1
<>
 71
     2
 42
-1.0
  3
SLDDIMSTYLE1
100
AcDbAlignedDimension
 13
7.121043095
 23
5.6239631348
 33
0.0
 14
7.241043095
 24
5.5341426267
 34
0.0
100
AcDbRotatedDimension
  0
DIMENSION
  5
1AF
330
1F
100
AcDbEntity
  8
0
  6
Continuous
 62
     7
370
     0
100
AcDbDimension
  2
_D_3
 10
7.6347438824
 20
5.4839631348
 30
0.0
 11
7.6347438824
 21
4.5339631348
 31
0.0
 70
   160
  1
%%c<>
 71
     2
 42
-1.0
  3
SLDDIMSTYLE2
100
AcDbAlignedDimension
 13
7.241043095
 23
3.5839631348
 33
0.0
 14
7.241043095
 24
5.4839631348
 34
0.0
 50
90.0
100
AcDbRotatedDimension
  0
INSERT
  5
1CA
102
{ACAD_REACTORS
330
1CC
102
}
330
1F
100
AcDbEntity
  8
0
  6
Continuous
 62
     7
370
     0
100
AcDbBlockReference
  2
SW_NOTE_5
 10
6.3142629296
 20
3.7544302337
 30
0.0
  0
LEADER
  5
1CC
330
1F
100
AcDbEntity
  8
0
  6
Continuous
 62
     7
370
     0
100
AcDbLeader
  3
SLDDIMSTYLE3
 73
     2
 76
     3
 10
6.8077409959
 20
3.5164631348
 30
0.0
 10
6.5642629296
 20
3.7544302337
 30
0.0
 10
6.3142629296
 20
3.7544302337
 30
0.0
340
1CA
  0
INSERT
  5
1D3
102
{ACAD_REACTORS
330
1D4
102
}
330
1F
100
AcDbEntity
  8
0
  6
Continuous
 62
     7
370
     0
100
AcDbBlockReference
  2
SW_NOTE_6
 10
8.0530246544
 20
2.8203638495
 30
0.0
  0
LEADER
  5
1D4
330
1F
100
AcDbEntity
  8
0
  6
Continuous
 62
     7
370
     0
100
AcDbLeader
  3
SLDDIMSTYLE3
 73
     2
 76
     3
 10
7.1732939123
 20
3.5164631348
 30
0.0
 10
7.8030246544
 20
2.8203638495
 30
0.0
 10
8.0530246544
 20
2.8203638495
 30
0.0
340
1D3
  0
INSERT
  5
1DA
102
{ACAD_REACTORS
330
1DB
102
}
330
1F
100
AcDbEntity
  8
0
  6
Continuous
 62
     7
370
     0
100
AcDbBlockReference
  2
SW_NOTE_7
 10
6.2311457536
 20
4.1732406368
 30
0.0
  0
LEADER
  5
1DB
330
1F
100
AcDbEntity
  8
0
  6
Continuous
 62
     7
370
     0
100
AcDbLeader
  3
SLDDIMSTYLE3
 73
     2
 76
     3
 10
6.8716077299
 20
3.6776072039
 30
0.0
 10
6.4772087457
 20
4.1732406368
 30
0.0
 10
6.2311457536
 20
4.1732406368
 30
0.0
340
1DA
  0
INSERT
  5
1E1
102
{ACAD_REACTORS
330
1E2
102
}
330
1F
100
AcDbEntity
  8
0
  6
Continuous
 62
     7
370
     0
100
AcDbBlockReference
  2
SW_NOTE_8
 10
7.8576888757
 20
3.1982064287
 30
0.0
  0
LEADER
  5
1E2
330
1F
100
AcDbEntity
  8
0
  6
Continuous
 62
     7
370
     0
100
AcDbLeader
  3
SLDDIMSTYLE3
 73
     2
 76
     3
 10
7.091043095
 20
3.7398852666
 30
0.0
 10
7.6116258836
 20
3.1982064287
 30
0.0
 10
7.8576888757
 20
3.1982064287
 30
0.0
340
1E1
  0
INSERT
  5
1E8
102
{ACAD_REACTORS
330
1E9
102
}
330
1F
100
AcDbEntity
  8
0
  6
Continuous
 62
     7
370
     0
100
AcDbBlockReference
  2
SW_NOTE_9
 10
6.1533068882
 20
2.9933673093
 30
0.0
  0
LEADER
  5
1E9
330
1F
100
AcDbEntity
  8
0
  6
Continuous
 62
     7
370
     0
100
AcDbLeader
  3
SLDDIMSTYLE3
 73
     2
 76
     3
 10
6.8029393884
 20
3.4339631348
 30
0.0
 10
6.3993698803
 20
2.9933673093
 30
0.0
 10
6.1533068882
 20
2.9933673093
 30
0.0
340
1E8
  0
LINE
  5
1EA
330
1F
100
AcDbEntity
  8
0
  6
Continuous
 62
     7
370
     0
100
AcDbLine
 10
8.8881872167
 20
7.4819380721
 30
0.0
 11
8.8881872167
 21
7.473773991
 31
0.0
  0
LINE
  5
1EB
330
1F
100
AcDbEntity
  8
0
  6
Continuous
 62
     7
370
     0
100
AcDbLine
 10
9.6588083402
 20
6.1388744125
 30
0.0
 11
9.6658782588
 21
6.1347917085
 31
0.0
  0
LINE
  5
1EC
330
1F
100
AcDbEntity
  8
0
  6
Continuous
 62
     7
370
     0
100
AcDbLine
 10
9.3776788821
 20
8.1366028599
 30
0.0
 11
9.1160493731
 21
7.9855673592
 31
0.0
  0
LINE
  5
1ED
330
1F
100
AcDbEntity
  8
0
  6
Continuous
 62
     7
370
     0
100
AcDbLine
 10
10.215959979
 20
6.080259862
 30
0.0
 11
10.477589488
 21
6.2312953627
 31
0.0
  0
LINE
  5
1EE
330
1F
100
AcDbEntity
  8
0
  6
Continuous
 62
     7
370
     0
100
AcDbLine
 10
10.7054516444
 20
6.7349246498
 30
0.0
 11
10.7054516444
 21
6.7430887309
 31
0.0
  0
LINE
  5
1EF
330
1F
100
AcDbEntity
  8
0
  6
Continuous
 62
     7
370
     0
100
AcDbLine
 10
9.9348305208
 20
8.0779883094
 30
0.0
 11
9.9277606023
 21
8.0820710134
 31
0.0
  0
LWPOLYLINE
  5
1F0
330
1F
100
AcDbEntity
  8
0
  6
Continuous
 62
     7
370
     0
100
AcDbPolyline
 90
       21
 70
   128
 43
0.0
 10
9.2594426432
 20
7.9530837395
 10
9.2520522526
 20
7.9487298432
 10
9.2327604084
 20
7.9360971351
 10
9.2143048375
 20
7.9221121029
 10
9.1967149062
 20
7.9067969993
 10
9.1800186033
 20
7.8901761934
 10
9.1642424957
 20
7.8722761319
 10
9.1494116858
 20
7.8531252971
 10
9.1355497724
 20
7.8327541615
 10
9.1226788123
 20
7.8111951393
 10
9.1108192853
 20
7.7884825347
 10
9.0999900623
 20
7.7646524876
 10
9.0902083746
 20
7.7397429161
 10
9.0814897864
 20
7.7137934557
 10
9.0738481708
 20
7.6868453969
 10
9.0672956868
 20
7.6589416187
 10
9.0618427608
 20
7.6301265213
 10
9.0574980692
 20
7.6004459547
 10
9.0542685254
 20
7.5699471461
 10
9.052159268
 20
7.5386786247
 10
9.0511736533
 20
7.5066901443
  0
LINE
  5
1F1
330
1F
100
AcDbEntity
  8
0
  6
Continuous
 62
     7
370
     0
100
AcDbLine
 10
9.0511736533
 20
7.5066901443
 30
0.0
 11
9.0459959183
 21
7.5178432682
 31
0.0
  0
ARC
  5
1F2
330
1F
100
AcDbEntity
  8
0
  6
Continuous
 62
     7
370
     0
100
AcDbCircle
 10
9.5845889395
 20
7.5507562134
 30
0.0
 40
0.5395977246272396
100
AcDbArc
 50
134.0483166497
 51
183.4969460474
  0
LWPOLYLINE
  5
1F3
330
1F
100
AcDbEntity
  8
0
  6
Continuous
 62
     7
370
     0
100
AcDbPolyline
 90
        3
 70
   128
 43
0.0
 10
9.0565590543
 20
7.5035812184
 10
9.0565683142
 20
7.5025517337
 10
9.05660252
 20
7.4994701047
  0
LINE
  5
1F4
330
1F
100
AcDbEntity
  8
0
  6
Continuous
 62
     7
370
     0
100
AcDbLine
 10
9.0459959183
 20
7.4933470438
 30
0.0
 11
9.05660252
 21
7.4994701047
 31
0.0
  0
LWPOLYLINE
  5
1F5
330
1F
100
AcDbEntity
  8
0
  6
Continuous
 62
     7
370
     0
100
AcDbPolyline
 90
       58
 70
   128
 43
0.0
 10
10.2219778863
 20
6.1846121739
 10
10.2168406067
 20
6.182752264
 10
10.1941348909
 20
6.1755807914
 10
10.1707467542
 20
6.1698652695
 10
10.1467134236
 20
6.1656147959
 10
10.122073153
 20
6.162836136
 10
10.0968651624
 20
6.1615337125
 10
10.0711295756
 20
6.1617095986
 10
10.0449073559
 20
6.1633635144
 10
10.0182402414
 20
6.1664928272
 10
9.9911706782
 20
6.1710925561
 10
9.9637417531
 20
6.1771553798
 10
9.9359971248
 20
6.184671648
 10
9.9079809545
 20
6.1936293969
 10
9.8797378358
 20
6.2040143687
 10
9.8513127233
 20
6.2158100333
 10
9.8227508613
 20
6.2289976157
 10
9.7940977119
 20
6.2435561251
 10
9.7653988826
 20
6.2594623886
 10
9.7367000532
 20
6.2766910882
 10
9.7080469038
 20
6.2952148009
 10
9.6794850418
 20
6.3150040424
 10
9.6510599293
 20
6.3360273141
 10
9.6228168106
 20
6.3582511532
 10
9.5948006403
 20
6.3816401859
 10
9.567056012
 20
6.4061571837
 10
9.5396270869
 20
6.4317631229
 10
9.5125575237
 20
6.4584172463
 10
9.4858904092
 20
6.4860771286
 10
9.4596681895
 20
6.5146987432
 10
9.4339326027
 20
6.5442365332
 10
9.4087246121
 20
6.574643483
 10
9.3840843415
 20
6.6058711939
 10
9.3600510109
 20
6.6378699604
 10
9.3366628742
 20
6.6705888501
 10
9.3139571584
 20
6.7039757842
 10
9.2919700043
 20
6.7379776204
 10
9.270736409
 20
6.772540238
 10
9.2502901701
 20
6.8076086235
 10
9.2306638319
 20
6.8431269584
 10
9.2118886337
 20
6.879038708
 10
9.1939944602
 20
6.9152867114
 10
9.1770097935
 20
6.9518132726
 10
9.1609616682
 20
6.988560252
 10
9.1458756282
 20
7.0254691593
 10
9.131775686
 20
7.0624812464
 10
9.1186842846
 20
7.0995376011
 10
9.1066222615
 20
7.1365792406
 10
9.095608816
 20
7.1735472055
 10
9.0856614781
 20
7.2103826539
 10
9.0767960812
 20
7.2470269545
 10
9.0690267363
 20
7.2834217804
 10
9.0623658099
 20
7.319509202
 10
9.0568239042
 20
7.3552317785
 10
9.0524098404
 20
7.3905326504
 10
9.0491306442
 20
7.425355629
 10
9.0469915352
 20
7.4596452865
 10
9.0459959183
 20
7.4933470438
  0
LWPOLYLINE
  5
1F6
330
1F
100
AcDbEntity
  8
0
  6
Continuous
 62
     7
370
     0
100
AcDbPolyline
 90
       26
 70
   128
 43
0.0
 10
9.0795881739
 20
7.4902867907
 10
9.080590465
 20
7.521765737
 10
9.08272774
 20
7.5525152739
 10
9.0859964198
 20
7.582483906
 10
9.0903910304
 20
7.6116214459
 10
9.0959042123
 20
7.6398790979
 10
9.1025267328
 20
7.6672095399
 10
9.1102475013
 20
7.6935670026
 10
9.1190535882
 20
7.7189073459
 10
9.1289302462
 20
7.7431881332
 10
9.1398609352
 20
7.7663687024
 10
9.1518273498
 20
7.7884102336
 10
9.1648094505
 20
7.8092758148
 10
9.1787854964
 20
7.8289305029
 10
9.1937320824
 20
7.847341383
 10
9.2096241779
 20
7.864477623
 10
9.226435169
 20
7.8803105253
 10
9.2441369028
 20
7.8948135752
 10
9.2626997349
 20
7.9079624849
 10
9.2820925787
 20
7.9197352343
 10
9.3022829577
 20
7.9301121081
 10
9.3232370597
 20
7.9390757283
 10
9.3449197936
 20
7.946611084
 10
9.367294848
 20
7.9527055559
 10
9.3903247521
 20
7.9573489379
 10
9.3984438008
 20
7.9586169151
  0
LINE
  5
1F7
330
1F
100
AcDbEntity
  8
0
  6
Continuous
 62
     7
370
     0
100
AcDbLine
 10
9.0795881739
 20
7.4902867907
 30
0.0
 11
9.0511736533
 21
7.5066901443
 31
0.0
  0
LWPOLYLINE
  5
1F8
330
1F
100
AcDbEntity
  8
0
  6
Continuous
 62
     7
370
     0
100
AcDbPolyline
 90
       26
 70
   128
 43
0.0
 10
9.414194727
 20
7.9565640589
 10
9.4064397756
 20
7.9553506175
 10
9.3836512117
 20
7.9507582988
 10
9.3615104795
 20
7.9447302951
 10
9.3400546495
 20
7.9372766994
 10
9.3193196454
 20
7.9284099912
 10
9.2993401841
 20
7.9181450162
 10
9.2801497175
 20
7.9064989612
 10
9.2617803763
 20
7.8934913252
 10
9.2442629167
 20
7.8791438873
 10
9.2276266683
 20
7.8634806693
 10
9.2118994853
 20
7.8465278965
 10
9.1971077
 20
7.828313953
 10
9.1832760785
 20
7.8088693348
 10
9.1704277792
 20
7.7882265982
 10
9.1585843142
 20
7.7664203055
 10
9.1477655131
 20
7.7434869673
 10
9.13798949
 20
7.7194649812
 10
9.129272613
 20
7.6943945674
 10
9.1216294768
 20
7.6683177018
 10
9.1150728785
 20
7.641278045
 10
9.1096137959
 20
7.6133208699
 10
9.1052613692
 20
7.5844929856
 10
9.1020228856
 20
7.554842659
 10
9.0999037675
 20
7.5244195339
 10
9.0989075629
 20
7.4932745481
  0
LINE
  5
1F9
330
1F
100
AcDbEntity
  8
0
  6
Continuous
 62
     7
370
     0
100
AcDbLine
 10
9.0989075629
 20
7.4932745481
 30
0.0
 11
9.0795881739
 21
7.4902867907
 31
0.0
  0
LWPOLYLINE
  5
1FA
330
1F
100
AcDbEntity
  8
0
  6
Continuous
 62
     7
370
     0
100
AcDbPolyline
 90
       64
 70
   128
 43
0.0
 10
9.0989075629
 20
7.4687783237
 10
9.0999037675
 20
7.4364831446
 10
9.1020228856
 20
7.4036133378
 10
9.1052613692
 20
7.3702239376
 10
9.1096137959
 20
7.3363708484
 10
9.1150728785
 20
7.3021107507
 10
9.1216294768
 20
7.2675010067
 10
9.129272613
 20
7.2325995639
 10
9.13798949
 20
7.1974648581
 10
9.1477655131
 20
7.162155716
 10
9.1585843142
 20
7.1267312559
 10
9.1704277792
 20
7.0912507896
 10
9.1832760785
 20
7.0557737223
 10
9.1971077
 20
7.0203594538
 10
9.2118994853
 20
6.9850672786
 10
9.2276266683
 20
6.9499562869
 10
9.2442629167
 20
6.9150852653
 10
9.2617803763
 20
6.8805125989
 10
9.2801497175
 20
6.8462961731
 10
9.2993401841
 20
6.812493277
 10
9.3193196454
 20
6.779160507
 10
9.3400546495
 20
6.7463536726
 10
9.3615104795
 20
6.7141277029
 10
9.3836512117
 20
6.682536554
 10
9.4064397756
 20
6.6516331194
 10
9.4298380159
 20
6.6214691411
 10
9.4538067568
 20
6.5920951231
 10
9.4783058671
 20
6.5635602466
 10
9.5032943277
 20
6.535912288
 10
9.5287302999
 20
6.5091975384
 10
9.5545711962
 20
6.4834607268
 10
9.5807737507
 20
6.4587449447
 10
9.6072940921
 20
6.4350915739
 10
9.6340878173
 20
6.4125402175
 10
9.661110065
 20
6.3911286337
 10
9.6883155917
 20
6.370892672
 10
9.7156588468
 20
6.3518662139
 10
9.743094049
 20
6.3340811154
 10
9.7705752635
 20
6.3175671545
 10
9.7980564779
 20
6.3023519806
 10
9.8254916801
 20
6.2884610688
 10
9.8528349352
 20
6.2759176766
 10
9.8800404619
 20
6.2647428058
 10
9.9070627096
 20
6.2549551665
 10
9.9338564348
 20
6.2465711462
 10
9.9603767762
 20
6.2396047825
 10
9.9865793307
 20
6.2340677392
 10
10.012420227
 20
6.2299692871
 10
10.0378561992
 20
6.2273162882
 10
10.0628446598
 20
6.2261131844
 10
10.0873437701
 20
6.2263619902
 10
10.111312511
 20
6.2280622891
 10
10.1347107513
 20
6.231211234
 10
10.1574993152
 20
6.2358035528
 10
10.1796400474
 20
6.2418315564
 10
10.2010958774
 20
6.2492851522
 10
10.2218308815
 20
6.2581518604
 10
10.2418103428
 20
6.2684168353
 10
10.2610008094
 20
6.2800628904
 10
10.2793701506
 20
6.2930705263
 10
10.2968876102
 20
6.3074179643
 10
10.3135238586
 20
6.3230811823
 10
10.3292510416
 20
6.3400339551
 10
10.3399406504
 20
6.3529513298
  0
LINE
  5
1FB
330
1F
100
AcDbEntity
  8
0
  6
Continuous
 62
     7
370
     0
100
AcDbLine
 10
9.1043377837
 20
7.4719131235
 30
0.0
 11
9.0989075629
 21
7.4687783237
 31
0.0
  0
ARC
  5
1FC
330
1F
100
AcDbEntity
  8
0
  6
Continuous
 62
     7
370
     0
100
AcDbCircle
 10
9.9999917556
 20
7.4841612357
 30
0.0
 40
0.8957377147146237
100
AcDbArc
 50
179.2165262291
 51
180.7834737709
  0
LINE
  5
1FD
330
1F
100
AcDbEntity
  8
0
  6
Continuous
 62
     7
370
     0
100
AcDbLine
 10
9.0989075629
 20
7.4932745481
 30
0.0
 11
9.1043377837
 21
7.4964093479
 31
0.0
  0
LWPOLYLINE
  5
1FE
330
1F
100
AcDbEntity
  8
0
  6
Continuous
 62
     7
370
     0
100
AcDbPolyline
 90
       58
 70
   128
 43
0.0
 10
9.821967425
 20
6.3472352179
 10
9.7945676335
 20
6.3636983303
 10
9.7672134463
 20
6.3814251406
 10
9.7399503916
 20
6.4003861441
 10
9.7128238462
 20
6.4205497822
 10
9.6858789595
 20
6.4418824944
 10
9.6591605786
 20
6.4643487746
 10
9.6327131737
 20
6.4879112298
 10
9.6065807638
 20
6.5125306428
 10
9.5808068437
 20
6.5381660368
 10
9.5554343116
 20
6.5647747443
 10
9.5305053976
 20
6.5923124778
 10
9.5060615933
 20
6.6207334034
 10
9.4821435832
 20
6.6499902173
 10
9.4587911762
 20
6.6800342244
 10
9.4360432404
 20
6.7108154193
 10
9.4139376372
 20
6.74228257
 10
9.3925111593
 20
6.7743833023
 10
9.371799469
 20
6.8070641878
 10
9.3518370389
 20
6.8402708324
 10
9.3326570944
 20
6.8739479669
 10
9.3142915586
 20
6.908039539
 10
9.2967709992
 20
6.9424888067
 10
9.2801245774
 20
6.9772384325
 10
9.2643799996
 20
7.0122305792
 10
9.249563471
 20
7.0474070058
 10
9.2356996523
 20
7.0827091645
 10
9.2228116185
 20
7.1180782984
 10
9.2109208204
 20
7.1534555392
 10
9.200047049
 20
7.1887820048
 10
9.1902084027
 20
7.2239988978
 10
9.181421257
 20
7.2590476032
 10
9.1737002372
 20
7.2938697859
 10
9.1670581941
 20
7.3284074879
 10
9.1615061828
 20
7.3626032244
 10
9.157053444
 20
7.3964000801
 10
9.153707389
 20
7.4297418035
 10
9.1514735868
 20
7.4625729004
 10
9.1503557555
 20
7.4948387269
 10
9.1503557555
 20
7.5264855797
 10
9.1514735868
 20
7.5574607856
 10
9.153707389
 20
7.5877127895
 10
9.157053444
 20
7.6171912399
 10
9.1615061828
 20
7.6458470729
 10
9.1670581941
 20
7.6736325936
 10
9.1737002372
 20
7.7005015558
 10
9.181421257
 20
7.7264092388
 10
9.1902084027
 20
7.7513125217
 10
9.200047049
 20
7.7751699555
 10
9.2109208204
 20
7.7979418319
 10
9.2228116185
 20
7.8195902494
 10
9.2356996523
 20
7.8400791762
 10
9.249563471
 20
7.8593745106
 10
9.2643799996
 20
7.8774441374
 10
9.2801245774
 20
7.8942579814
 10
9.2967709992
 20
7.9097880578
 10
9.3142915586
 20
7.9240085182
 10
9.3220053265
 20
7.9296568123
  0
LWPOLYLINE
  5
1FF
330
1F
100
AcDbEntity
  8
0
  6
Continuous
 62
     7
370
     0
100
AcDbPolyline
 90
       19
 70
   128
 43
0.0
 10
10.270537362
 20
6.2865731026
 10
10.2514236908
 20
6.2785436521
 10
10.2299972129
 20
6.2711814046
 10
10.2078916097
 20
6.2652368401
 10
10.1851436738
 20
6.2607198528
 10
10.1617912669
 20
6.2576379609
 10
10.1378732568
 20
6.2559962938
 10
10.1134294525
 20
6.2557975838
 10
10.0885005385
 20
6.2570421618
 10
10.0631280064
 20
6.2597279563
 10
10.0373540863
 20
6.263850497
 10
10.0112216764
 20
6.2694029223
 10
9.9847742715
 20
6.2763759908
 10
9.9580558906
 20
6.2847580966
 10
9.9311110039
 20
6.2945352883
 10
9.9039844585
 20
6.3056912929
 10
9.8767214038
 20
6.3182075423
 10
9.8493672166
 20
6.3320632044
 10
9.821967425
 20
6.3472352179
  0
LWPOLYLINE
  5
200
330
1F
100
AcDbEntity
  8
0
  6
Continuous
 62
     7
370
     0
100
AcDbPolyline
 90
       60
 70
   128
 43
0.0
 10
9.0511736533
 20
7.4821939199
 10
9.052159268
 20
7.449067473
 10
9.0542685254
 20
7.4153636548
 10
9.0574980692
 20
7.3811360942
 10
9.0618427608
 20
7.3464392536
 10
9.0672956868
 20
7.3113283418
 10
9.0738481708
 20
7.2758592267
 10
9.0814897864
 20
7.2400883462
 10
9.0902083746
 20
7.2040726182
 10
9.0999900623
 20
7.1678693503
 10
9.1108192853
 20
7.1315361486
 10
9.1226788123
 20
7.0951308257
 10
9.1355497724
 20
7.0587113091
 10
9.1494116858
 20
7.0223355489
 10
9.1642424957
 20
6.9860614256
 10
9.1800186033
 20
6.9499466579
 10
9.1967149062
 20
6.914048711
 10
9.2143048375
 20
6.878424705
 10
9.2327604084
 20
6.8431313243
 10
9.2520522526
 20
6.8082247269
 10
9.2721496735
 20
6.7737604557
 10
9.2930206922
 20
6.7397933497
 10
9.3146320993
 20
6.7063774565
 10
9.336949507
 20
6.6735659471
 10
9.3599374043
 20
6.6414110304
 10
9.3835592133
 20
6.6099638709
 10
9.4077773473
 20
6.5792745066
 10
9.432553271
 20
6.54939177
 10
9.4578475612
 20
6.5203632098
 10
9.4836199702
 20
6.492235016
 10
9.5098294894
 20
6.4650519454
 10
9.5364344147
 20
6.4388572513
 10
9.5633924127
 20
6.4136926143
 10
9.5906605885
 20
6.3895980759
 10
9.6181955533
 20
6.3666119748
 10
9.6459534941
 20
6.3447708862
 10
9.6738902428
 20
6.3241095631
 10
9.7019613471
 20
6.3046608816
 10
9.7301221408
 20
6.2864557879
 10
9.7583278147
 20
6.2695232498
 10
9.7865334887
 20
6.2538902099
 10
9.8146942823
 20
6.2395815433
 10
9.8427653867
 20
6.2266200177
 10
9.8707021354
 20
6.2150262572
 10
9.8984600762
 20
6.2048187096
 10
9.925995041
 20
6.196013617
 10
9.9532632168
 20
6.1886249898
 10
9.9802212148
 20
6.1826645848
 10
10.0068261401
 20
6.178141886
 10
10.0330356593
 20
6.1750640898
 10
10.0588080683
 20
6.1734360937
 10
10.0841023585
 20
6.1732604879
 10
10.1088782821
 20
6.174537552
 10
10.1330964162
 20
6.1772652539
 10
10.1567182252
 20
6.1814392533
 10
10.1797061225
 20
6.1870529087
 10
10.2020235302
 20
6.1940972876
 10
10.2236349373
 20
6.2025611813
 10
10.244505956
 20
6.2124311221
 10
10.2595381511
 20
6.2206797978
  0
LINE
  5
201
330
1F
100
AcDbEntity
  8
0
  6
Continuous
 62
     7
370
     0
100
AcDbLine
 10
9.0459959183
 20
7.4933470438
 30
0.0
 11
9.0511736533
 21
7.4821939199
 31
0.0
  0
LINE
  5
202
330
1F
100
AcDbEntity
  8
0
  6
Continuous
 62
     7
370
     0
100
AcDbLine
 10
9.0511736533
 20
7.4821939199
 30
0.0
 11
9.0795881739
 21
7.4657905663
 31
0.0
  0
LWPOLYLINE
  5
203
330
1F
100
AcDbEntity
  8
0
  6
Continuous
 62
     7
370
     0
100
AcDbPolyline
 90
       64
 70
   128
 43
0.0
 10
10.3338416367
 20
6.3382847717
 10
10.3229235471
 20
6.3250798653
 10
10.3070314515
 20
6.3079436253
 10
10.2902204605
 20
6.2921107229
 10
10.2725187266
 20
6.2776076731
 10
10.2539558945
 20
6.2644587634
 10
10.2345630507
 20
6.252686014
 10
10.2143726718
 20
6.2423091402
 10
10.1934185698
 20
6.23334552
 10
10.1717358359
 20
6.2258101643
 10
10.1493607815
 20
6.2197156923
 10
10.1263308773
 20
6.2150723104
 10
10.1026846908
 20
6.2118877945
 10
10.0784618213
 20
6.2101674778
 10
10.0537028342
 20
6.2099142411
 10
10.0284491924
 20
6.2111285085
 10
10.0027431875
 20
6.2138082465
 10
9.9766278683
 20
6.2179489676
 10
9.9501469693
 20
6.2235437373
 10
9.9233448373
 20
6.2305831862
 10
9.8962663568
 20
6.2390555258
 10
9.8689568752
 20
6.2489465675
 10
9.8414621268
 20
6.2602397472
 10
9.8138281563
 20
6.2729161526
 10
9.7861012411
 20
6.286954555
 10
9.7583278147
 20
6.3023314447
 10
9.7305543884
 20
6.3190210706
 10
9.7028274732
 20
6.336995483
 10
9.6751935026
 20
6.3562245809
 10
9.6476987543
 20
6.3766761619
 10
9.6203892727
 20
6.3983159764
 10
9.5933107922
 20
6.421107785
 10
9.5665086601
 20
6.4450134191
 10
9.5400277612
 20
6.4699928445
 10
9.513912442
 20
6.4960042292
 10
9.488206437
 20
6.5230040127
 10
9.4629527953
 20
6.5509469794
 10
9.4381938081
 20
6.5797863342
 10
9.4139709387
 20
6.6094737808
 10
9.3903247521
 20
6.6399596025
 10
9.367294848
 20
6.6711927458
 10
9.3449197936
 20
6.7031209057
 10
9.3232370597
 20
6.735690613
 10
9.3022829577
 20
6.7688473245
 10
9.2820925787
 20
6.8025355136
 10
9.2626997349
 20
6.8366987638
 10
9.2441369028
 20
6.8712798633
 10
9.226435169
 20
6.9062209
 10
9.2096241779
 20
6.9414633595
 10
9.1937320824
 20
6.9769482224
 10
9.1787854964
 20
7.0126160633
 10
9.1648094505
 20
7.0484071507
 10
9.1518273498
 20
7.0842615462
 10
9.1398609352
 20
7.1201192057
 10
9.1289302462
 20
7.1559200797
 10
9.1190535882
 20
7.1916042136
 10
9.1102475013
 20
7.2271118485
 10
9.1025267328
 20
7.2623835207
 10
9.0959042123
 20
7.2973601621
 10
9.0903910304
 20
7.3319831985
 10
9.0859964198
 20
7.3661946478
 10
9.08272774
 20
7.3999372173
 10
9.080590465
 20
7.4331543993
 10
9.0795881739
 20
7.4657905663
  0
LINE
  5
204
330
1F
100
AcDbEntity
  8
0
  6
Continuous
 62
     7
370
     0
100
AcDbLine
 10
9.0795881739
 20
7.4657905663
 30
0.0
 11
9.0989075629
 21
7.4687783237
 31
0.0
  0
LINE
  5
205
330
1F
100
AcDbEntity
  8
0
  6
Continuous
 62
     7
370
     0
100
AcDbLine
 10
9.05660252
 20
7.4994701047
 30
0.0
 11
9.1043377837
 21
7.4719131235
 31
0.0
  0
LWPOLYLINE
  5
206
330
1F
100
AcDbEntity
  8
0
  6
Continuous
 62
     7
370
     0
100
AcDbPolyline
 90
      125
 70
   128
 43
0.0
 10
8.8881872167
 20
7.4819380721
 10
8.8887510972
 20
7.5158074668
 10
8.8904419211
 20
7.5489767115
 10
8.8932572368
 20
7.5813977141
 10
8.8971929624
 20
7.6130234671
 10
8.9022433915
 20
7.6438081163
 10
8.9084012015
 20
7.6737070269
 10
8.915657464
 20
7.7026768483
 10
8.9240016583
 20
7.730675577
 10
8.933421686
 20
7.7576626176
 10
8.9439038891
 20
7.7835988414
 10
8.9554330692
 20
7.8084466434
 10
8.9679925102
 20
7.8321699967
 10
8.9815640022
 20
7.8547345045
 10
8.9961278677
 20
7.8761074507
 10
9.0116629905
 20
7.8962578464
 10
9.0281468462
 20
7.9151564755
 10
9.0455555348
 20
7.9327759368
 10
9.0638638153
 20
7.9490906837
 10
9.0830451425
 20
7.9640770615
 10
9.1030717053
 20
7.9777133413
 10
9.1239144671
 20
7.9899797518
 10
9.1455432078
 20
8.0008585079
 10
9.167926568
 20
8.0103338364
 10
9.1910320938
 20
8.018391999
 10
9.2148262844
 20
8.0250213122
 10
9.2392746405
 20
8.0302121641
 10
9.2643417144
 20
8.0339570284
 10
9.2899911612
 20
8.0362504755
 10
9.3161857917
 20
8.03708918
 10
9.3428876261
 20
8.0364719259
 10
9.3700579493
 20
8.0343996083
 10
9.397657367
 20
8.0308752316
 10
9.4256458626
 20
8.0259039061
 10
9.4539828555
 20
8.0194928395
 10
9.4826272598
 20
8.0116513274
 10
9.5115375438
 20
8.0023907391
 10
9.5406717904
 20
7.9917245017
 10
9.5699877577
 20
7.9796680802
 10
9.5994429403
 20
7.9662389552
 10
9.6289946311
 20
7.9514565977
 10
9.658599983
 20
7.9353424406
 10
9.6882160709
 20
7.917919848
 10
9.7177999544
 20
7.899214081
 10
9.7473087397
 20
7.8792522612
 10
9.776699642
 20
7.8580633311
 10
9.805930047
 20
7.8356780129
 10
9.8349575737
 20
7.8121287631
 10
9.8637401348
 20
7.7874497257
 10
9.8922359984
 20
7.7616766832
 10
9.9204038483
 20
7.7348470038
 10
9.9482028436
 20
7.7069995882
 10
9.9755926786
 20
7.6781748123
 10
10.0025336406
 20
7.6484144693
 10
10.0289866677
 20
7.617761709
 10
10.0549134057
 20
7.5862609748
 10
10.0802762632
 20
7.5539579399
 10
10.1050384664
 20
7.5208994404
 10
10.1291641127
 20
7.4871334082
 10
10.1526182221
 20
7.4527088007
 10
10.1753667883
 20
7.4176755303
 10
10.1973768282
 20
7.3820843919
 10
10.2186164292
 20
7.3459869893
 10
10.2390547961
 20
7.3094356602
 10
10.258662295
 20
7.2724834005
 10
10.2774104971
 20
7.2351837876
 10
10.2952722191
 20
7.1975909022
 10
10.3122215634
 20
7.1597592505
 10
10.328233955
 20
7.1217436848
 10
10.3432861774
 20
7.0835993239
 10
10.3573564064
 20
7.0453814736
 10
10.3704242415
 20
7.0071455461
 10
10.3824707356
 20
6.9689469798
 10
10.3934784224
 20
6.930841159
 10
10.4034313418
 20
6.8928833336
 10
10.412315063
 20
6.8551285386
 10
10.4201167055
 20
6.817631515
 10
10.4268249577
 20
6.7804466298
 10
10.4324300931
 20
6.7436277977
 10
10.436923985
 20
6.7072284023
 10
10.4403001176
 20
6.6713012193
 10
10.4425535959
 20
6.6358983397
 10
10.4436811524
 20
6.6010710943
 10
10.4436811524
 20
6.5668699793
 10
10.4425535959
 20
6.533344583
 10
10.4403001176
 20
6.500543514
 10
10.436923985
 20
6.4685143307
 10
10.4324300931
 20
6.4373034725
 10
10.4268249577
 20
6.406956192
 10
10.4201167055
 20
6.37751649
 10
10.412315063
 20
6.3490270511
 10
10.4034313418
 20
6.3215291823
 10
10.3934784224
 20
6.2950627529
 10
10.3824707356
 20
6.2696661368
 10
10.3704242415
 20
6.2453761565
 10
10.3573564064
 20
6.2222280302
 10
10.3432861774
 20
6.2002553206
 10
10.328233955
 20
6.1794898858
 10
10.3122215634
 20
6.1599618339
 10
10.2952722191
 20
6.1416994785
 10
10.2774104971
 20
6.1247292985
 10
10.258662295
 20
6.1090758989
 10
10.2390547961
 20
6.0947619757
 10
10.2186164292
 20
6.0818082826
 10
10.1973768282
 20
6.0702336013
 10
10.1753667883
 20
6.0600547141
 10
10.1526182221
 20
6.0512863792
 10
10.1291641127
 20
6.0439413099
 10
10.1050384664
 20
6.038030156
 10
10.0802762632
 20
6.0335614879
 10
10.0549134057
 20
6.0305417849
 10
10.0289866677
 20
6.0289754252
 10
10.0025336406
 20
6.0288646799
 10
9.9755926786
 20
6.0302097096
 10
9.9482028436
 20
6.033008564
 10
9.9204038483
 20
6.0372571852
 10
9.8922359984
 20
6.042949413
 10
9.8637401348
 20
6.0500769942
 10
9.8349575737
 20
6.0586295946
 10
9.805930047
 20
6.0685948137
 10
9.776699642
 20
6.0799582028
 10
9.7473087397
 20
6.0927032862
 10
9.7177999544
 20
6.1068115847
 10
9.6882160709
 20
6.1222626425
 10
9.6658782588
 20
6.1347917085
  0
LWPOLYLINE
  5
207
330
1F
100
AcDbEntity
  8
0
  6
Continuous
 62
     7
370
     0
100
AcDbPolyline
 90
      165
 70
   128
 43
0.0
 10
8.8881872167
 20
7.473773991
 10
8.888752805
 20
7.4393569215
 10
8.8904487399
 20
7.4043373494
 10
8.8932725322
 20
7.3687666708
 10
8.8972200378
 20
7.3326970906
 10
8.9022854631
 20
7.2961815458
 10
8.9084613738
 20
7.259273628
 10
8.9157387061
 20
7.2220275048
 10
8.9241067794
 20
7.1844978399
 10
8.9335533123
 20
7.1467397133
 10
8.9440644409
 20
7.1088085402
 10
8.9556247386
 20
7.0707599898
 10
8.968217239
 20
7.0326499038
 10
8.9818234609
 20
6.9945342138
 10
8.9964234354
 20
6.9564688599
 10
9.0119957349
 20
6.9185097082
 10
9.0285175049
 20
6.8807124692
 10
9.0459644975
 20
6.8431326153
 10
9.0643111068
 20
6.8058253002
 10
9.0835304066
 20
6.7688452776
 10
9.10359419
 20
6.7322468207
 10
9.1244730105
 20
6.6960836429
 10
9.1461362256
 20
6.6604088185
 10
9.1685520417
 20
6.6252747053
 10
9.1916875603
 20
6.5907328674
 10
9.2155088269
 20
6.5568339999
 10
9.2399808805
 20
6.5236278538
 10
9.265067805
 20
6.4911631638
 10
9.2907327819
 20
6.4594875764
 10
9.3169381443
 20
6.4286475798
 10
9.3436454322
 20
6.398688436
 10
9.370815449
 20
6.3696541141
 10
9.3984083189
 20
6.3415872261
 10
9.4263835456
 20
6.3145289639
 10
9.4547000716
 20
6.2885190392
 10
9.4833163384
 20
6.2635956253
 10
9.5121903479
 20
6.2397953007
 10
9.5412797232
 20
6.2171529956
 10
9.5705417719
 20
6.1957019407
 10
9.5999335478
 20
6.1754736184
 10
9.6294119144
 20
6.1564977167
 10
9.6589336082
 20
6.1388020851
 10
9.688455302
 20
6.1224126945
 10
9.7179336686
 20
6.1073535987
 10
9.7473254445
 20
6.0936468988
 10
9.7765874932
 20
6.0813127114
 10
9.8056768686
 20
6.0703691386
 10
9.834550878
 20
6.0608322416
 10
9.8631671448
 20
6.052716017
 10
9.8914836708
 20
6.0460323767
 10
9.9194588975
 20
6.0407911297
 10
9.9470517674
 20
6.0369999683
 10
9.9742217842
 20
6.0346644565
 10
10.0009290721
 20
6.0337880221
 10
10.0271344345
 20
6.0343719513
 10
10.0527994114
 20
6.0364153871
 10
10.0778863359
 20
6.0399153305
 10
10.1023583895
 20
6.0448666449
 10
10.1261796561
 20
6.0512620635
 10
10.1493151747
 20
6.0590922001
 10
10.1717309908
 20
6.068345563
 10
10.1933942059
 20
6.0790085715
 10
10.2142730265
 20
6.0910655763
 10
10.2343368098
 20
6.104498882
 10
10.2535561096
 20
6.1192887734
 10
10.2719027189
 20
6.1354135443
 10
10.2893497115
 20
6.1528495293
 10
10.3058714815
 20
6.1715711387
 10
10.321443781
 20
6.1915508961
 10
10.3360437555
 20
6.2127594783
 10
10.3496499774
 20
6.2351657588
 10
10.3622424778
 20
6.2587368534
 10
10.3738027755
 20
6.2834381681
 10
10.3843139041
 20
6.3092334505
 10
10.3937604371
 20
6.3360848423
 10
10.4021285103
 20
6.3639529355
 10
10.4094058426
 20
6.3927968297
 10
10.4155817533
 20
6.4225741927
 10
10.4206471786
 20
6.4532413219
 10
10.4245946842
 20
6.4847532092
 10
10.4274184766
 20
6.5170636066
 10
10.4291144114
 20
6.5501250939
 10
10.4296799997
 20
6.5838891491
 10
10.4291144114
 20
6.6183062186
 10
10.4274184766
 20
6.6533257907
 10
10.4245946842
 20
6.6888964693
 10
10.4206471786
 20
6.7249660495
 10
10.4155817533
 20
6.7614815943
 10
10.4094058426
 20
6.7983895121
 10
10.4021285103
 20
6.8356356353
 10
10.3937604371
 20
6.8731653002
 10
10.3843139041
 20
6.9109234269
 10
10.3738027755
 20
6.9488545999
 10
10.3622424778
 20
6.9869031503
 10
10.3496499774
 20
7.0250132363
 10
10.3360437555
 20
7.0631289263
 10
10.321443781
 20
7.1011942802
 10
10.3058714815
 20
7.1391534319
 10
10.2893497115
 20
7.176950671
 10
10.2719027189
 20
7.2145305248
 10
10.2535561096
 20
7.2518378399
 10
10.2343368098
 20
7.2888178625
 10
10.2142730265
 20
7.3254163194
 10
10.1933942059
 20
7.3615794972
 10
10.1717309908
 20
7.3972543216
 10
10.1493151747
 20
7.4323884348
 10
10.1261796561
 20
7.4669302727
 10
10.1023583895
 20
7.5008291403
 10
10.0778863359
 20
7.5340352863
 10
10.0527994114
 20
7.5664999763
 10
10.0271344345
 20
7.5981755637
 10
10.0009290721
 20
7.6290155603
 10
9.9742217842
 20
7.6589747041
 10
9.9470517674
 20
7.688009026
 10
9.9194588975
 20
7.716075914
 10
9.8914836708
 20
7.7431341762
 10
9.8631671448
 20
7.7691441009
 10
9.834550878
 20
7.7940675148
 10
9.8056768686
 20
7.8178678394
 10
9.7765874932
 20
7.8405101445
 10
9.7473254445
 20
7.8619611994
 10
9.7179336686
 20
7.8821895217
 10
9.688455302
 20
7.9011654234
 10
9.6589336082
 20
7.918861055
 10
9.6294119144
 20
7.9352504456
 10
9.5999335478
 20
7.9503095414
 10
9.5705417719
 20
7.9640162413
 10
9.5412797232
 20
7.9763504287
 10
9.5121903479
 20
7.9872940015
 10
9.4833163384
 20
7.9968308985
 10
9.4547000716
 20
8.0049471231
 10
9.4263835456
 20
8.0116307634
 10
9.3984083189
 20
8.0168720104
 10
9.370815449
 20
8.0206631718
 10
9.3436454322
 20
8.0229986836
 10
9.3169381443
 20
8.023875118
 10
9.2907327819
 20
8.0232911888
 10
9.265067805
 20
8.021247753
 10
9.2399808805
 20
8.0177478096
 10
9.2155088269
 20
8.0127964952
 10
9.1916875603
 20
8.0064010767
 10
9.1685520417
 20
7.99857094
 10
9.1461362256
 20
7.9893175771
 10
9.1244730105
 20
7.9786545686
 10
9.10359419
 20
7.9665975638
 10
9.0835304066
 20
7.9531642581
 10
9.0643111068
 20
7.9383743667
 10
9.0459644975
 20
7.9222495958
 10
9.0285175049
 20
7.9048136108
 10
9.0119957349
 20
7.8860920014
 10
8.9964234354
 20
7.866112244
 10
8.9818234609
 20
7.8449036618
 10
8.968217239
 20
7.8224973813
 10
8.9556247386
 20
7.7989262867
 10
8.9440644409
 20
7.774224972
 10
8.9335533123
 20
7.7484296896
 10
8.9241067794
 20
7.7215782978
 10
8.9157387061
 20
7.6937102046
 10
8.9084613738
 20
7.6648663104
 10
8.9022854631
 20
7.6350889474
 10
8.8972200378
 20
7.6044218182
 10
8.8932725322
 20
7.5729099309
 10
8.8904487399
 20
7.5405995335
 10
8.888752805
 20
7.5075380462
 10
8.8881872167
 20
7.473773991
  0
ARC
  5
208
330
1F
100
AcDbEntity
  8
0
  6
Continuous
 62
     7
370
     0
100
AcDbCircle
 10
9.4008714977
 20
7.4094844788
 30
0.0
 40
0.6987621414948977
100
AcDbArc
 50
72.5022799718
 51
74.7296667561
  0
LINE
  5
209
330
1F
100
AcDbEntity
  8
0
  6
Continuous
 62
     7
370
     0
100
AcDbLine
 10
9.5609254041
 20
8.0470258515
 30
0.0
 11
9.6109668071
 21
8.0759141385
 31
0.0
  0
ARC
  5
20A
330
1F
100
AcDbEntity
  8
0
  6
Continuous
 62
     7
370
     0
100
AcDbCircle
 10
9.3426737969
 20
7.3543002078
 30
0.0
 40
0.72629372946261
100
AcDbArc
 50
71.8669884465
 51
72.51233501
  0
LINE
  5
20B
330
1F
100
AcDbEntity
  8
0
  6
Continuous
 62
     7
370
     0
100
AcDbLine
 10
9.625282399
 20
8.0771800272
 30
0.0
 11
9.5687138565
 21
8.0445237027
 31
0.0
  0
ARC
  5
20C
330
1F
100
AcDbEntity
  8
0
  6
Continuous
 62
     7
370
     0
100
AcDbCircle
 10
9.4056700102
 20
7.4072723799
 30
0.0
 40
0.7049864234626818
100
AcDbArc
 50
71.8495694362
 51
74.7221420844
  0
LINE
  5
20D
330
1F
100
AcDbEntity
  8
0
  6
Continuous
 62
     7
370
     0
100
AcDbLine
 10
9.584906987
 20
8.0835760669
 30
0.0
 11
9.5914341265
 21
8.0873441043
 31
0.0
  0
ARC
  5
20E
330
1F
100
AcDbEntity
  8
0
  6
Continuous
 62
     7
370
     0
100
AcDbCircle
 10
9.3196848878
 20
7.2292681969
 30
0.0
 40
0.8812842850576953
100
AcDbArc
 50
64.6754719879
 51
66.1710072782
  0
LINE
  5
20F
330
1F
100
AcDbEntity
  8
0
  6
Continuous
 62
     7
370
     0
100
AcDbLine
 10
9.7031768479
 20
8.0296286742
 30
0.0
 11
9.6966497084
 21
8.0258606368
 31
0.0
  0
ARC
  5
210
330
1F
100
AcDbEntity
  8
0
  6
Continuous
 62
     7
370
     0
100
AcDbCircle
 10
9.3262120273
 20
7.2330362344
 30
0.0
 40
0.8812842850610079
100
AcDbArc
 50
64.6754719879
 51
66.1710072782
  0
LINE
  5
211
330
1F
100
AcDbEntity
  8
0
  6
Continuous
 62
     7
370
     0
100
AcDbLine
 10
9.675730993
 20
8.035427711
 30
0.0
 11
9.6822581325
 21
8.0391957484
 31
0.0
  0
ARC
  5
212
330
1F
100
AcDbEntity
  8
0
  6
Continuous
 62
     7
370
     0
100
AcDbCircle
 10
9.2680448885
 20
7.0988433279
 30
0.0
 40
1.043479658928001
100
AcDbArc
 50
59.5645215259
 51
60.0252928298
  0
SPLINE
  5
213
330
1F
100
AcDbEntity
  8
0
  6
Continuous
 62
     7
370
     0
100
AcDbSpline
210
0.0
220
0.0
230
1.0
 70
     8
 71
     3
 72
    11
 73
     7
 74
     0
 42
0.000000001
 43
0.00000001
 40
0.0
 40
0.0
 40
0.0
 40
0.0
 40
0.2500046874459078
 40
0.4999902174400015
 40
0.7499851337530246
 40
1.0
 40
1.0
 40
1.0
 40
1.0
 10
9.771504107721134
 20
7.995316036604928
 30
0.0
 10
9.773091868632235
 20
7.995853911767401
 30
0.0
 10
9.776267268786906
 20
7.99692962087585
 30
0.0
 10
9.780803789877986
 20
7.998748499623082
 30
0.0
 10
9.785189889093022
 20
8.000683745300638
 30
0.0
 10
9.78798708841726
 20
8.002063530927881
 30
0.0
 10
9.789385743882228
 20
8.002753451267596
 30
0.0
  0
SPLINE
  5
214
330
1F
100
AcDbEntity
  8
0
  6
Continuous
 62
     7
370
     0
100
AcDbSpline
210
0.0
220
0.0
230
1.0
 70
     8
 71
     3
 72
    14
 73
    10
 74
     0
 42
0.000000001
 43
0.00000001
 40
0.0
 40
0.0
 40
0.0
 40
0.0
 40
0.0714406687654182
 40
0.1428795370169158
 40
0.2500353555881958
 40
0.5000130023866957
 40
0.7499631047545245
 40
0.8749754923226943
 40
1.0
 40
1.0
 40
1.0
 40
1.0
 10
9.719108108154456
 20
7.985308780974998
 30
0.0
 10
9.720423574010809
 20
7.985388566308563
 30
0.0
 10
9.723054472569926
 20
7.985548134964867
 30
0.0
 10
9.727623700843926
 20
7.985996642903915
 30
0.0
 10
9.735400727363816
 20
7.986930899520413
 30
0.0
 10
9.746219185037335
 20
7.988747804566463
 30
0.0
 10
9.757049802249016
 20
7.991117100042908
 30
0.0
 10
9.765427760963616
 20
7.993386528650718
 30
0.0
 10
9.76947859334958
 20
7.994672846502842
 30
0.0
 10
9.771504107721134
 20
7.995316036604928
 30
0.0
  0
LINE
  5
215
330
1F
100
AcDbEntity
  8
0
  6
Continuous
 62
     7
370
     0
100
AcDbLine
 10
9.7132382153
 20
7.981920164
 30
0.0
 11
9.7191081082
 21
7.985308781
 31
0.0
  0
ARC
  5
216
330
1F
100
AcDbEntity
  8
0
  6
Continuous
 62
     7
370
     0
100
AcDbCircle
 10
9.2181424616
 20
7.0766530734
 30
0.0
 40
1.031808272261875
100
AcDbArc
 50
59.004300369
 51
61.3254984335
  0
LINE
  5
217
330
1F
100
AcDbEntity
  8
0
  6
Continuous
 62
     7
370
     0
100
AcDbLine
 10
9.7567490019
 20
7.9653119768
 30
0.0
 11
9.7494966247
 21
7.9611252685
 31
0.0
  0
ARC
  5
218
330
1F
100
AcDbEntity
  8
0
  6
Continuous
 62
     7
370
     0
100
AcDbCircle
 10
9.2217259092
 20
7.0745604479
 30
0.0
 40
1.039080360709192
100
AcDbArc
 50
59.0091893566
 51
60.8574730322
  0
SPLINE
  5
219
330
1F
100
AcDbEntity
  8
0
  6
Continuous
 62
     7
370
     0
100
AcDbSpline
210
0.0
220
0.0
230
1.0
 70
     8
 71
     3
 72
    16
 73
    12
 74
     0
 42
0.000000001
 43
0.00000001
 40
0.0
 40
0.0
 40
0.0
 40
0.0
 40
0.0629116303417994
 40
0.125025728357718
 40
0.1835263708129311
 40
0.250078244989198
 40
0.3761461362521024
 40
0.5001293926099473
 40
0.7500023071406352
 40
0.9166493982577363
 40
1.0
 40
1.0
 40
1.0
 40
1.0
 10
9.79663803101642
 20
7.998531656324085
 30
0.0
 10
9.795460643675552
 20
7.997915309856446
 30
0.0
 10
9.793120794762862
 20
7.996690430360898
 30
0.0
 10
9.78944506050226
 20
7.995058059465939
 30
0.0
 10
9.78554157429905
 20
7.993521398104172
 30
0.0
 10
9.780170382348945
 20
7.991578367839261
 30
0.0
 10
9.77317757745761
 20
7.989336069294161
 30
0.0
 10
9.761671689735502
 20
7.986317404022171
 30
0.0
 10
9.748580697074422
 20
7.983958108342071
 30
0.0
 10
9.736145764154738
 20
7.982521523832427
 30
0.0
 10
9.729842684099069
 20
7.982208901928997
 30
0.0
 10
9.727741202643537
 20
7.982104672072031
 30
0.0
  0
SPLINE
  5
21A
330
1F
100
AcDbEntity
  8
0
  6
Continuous
 62
     7
370
     0
100
AcDbSpline
210
0.0
220
0.0
230
1.0
 70
     8
 71
     3
 72
    13
 73
     9
 74
     0
 42
0.000000001
 43
0.00000001
 40
0.0
 40
0.0
 40
0.0
 40
0.0
 40
0.1250710524897536
 40
0.2501213755201643
 40
0.50007145957512
 40
0.7499678126074915
 40
0.8749906036692483
 40
0.9999999999999999
 40
0.9999999999999999
 40
0.9999999999999999
 40
0.9999999999999999
 10
9.84461094803464
 20
7.914834460427984
 30
0.0
 10
9.843414232932322
 20
7.915167666337751
 30
0.0
 10
9.841021001073
 20
7.915834022931246
 30
0.0
 10
9.836133418191386
 20
7.916936450720562
 30
0.0
 10
9.829885574655904
 20
7.917904541265285
 30
0.0
 10
9.823576237764492
 20
7.91828183498885
 30
0.0
 10
9.818560335364936
 20
7.918198115674093
 30
0.0
 10
9.816143446235925
 20
7.917876879830743
 30
0.0
 10
9.814935066410246
 20
7.917716270513697
 30
0.0
  0
LINE
  5
21B
330
1F
100
AcDbEntity
  8
0
  6
Continuous
 62
     7
370
     0
100
AcDbLine
 10
9.8512967333
 20
7.9186940821
 30
0.0
 11
9.844610948
 21
7.9148344604
 31
0.0
  0
SPLINE
  5
21C
330
1F
100
AcDbEntity
  8
0
  6
Continuous
 62
     7
370
     0
100
AcDbSpline
210
0.0
220
0.0
230
1.0
 70
     8
 71
     3
 72
    13
 73
     9
 74
     0
 42
0.000000001
 43
0.00000001
 40
0.0
 40
0.0
 40
0.0
 40
0.0
 40
0.125013171967467
 40
0.2500192439134404
 40
0.4999856528643402
 40
0.7500043584872093
 40
0.8671891874064002
 40
1.0
 40
1.0
 40
1.0
 40
1.0
 10
9.82999164560231
 20
7.923123749031353
 30
0.0
 10
9.830907133082144
 20
7.923055829364743
 30
0.0
 10
9.832738056047445
 20
7.922919993888967
 30
0.0
 10
9.836376936168826
 20
7.92242356388367
 30
0.0
 10
9.840873115626977
 20
7.921586376914424
 30
0.0
 10
9.845237132997122
 20
7.920544483590263
 30
0.0
 10
9.848705965221042
 20
7.919559818055204
 30
0.0
 10
9.850397892622814
 20
7.918994440406628
 30
0.0
 10
9.851296733305475
 20
7.91869408211048
 30
0.0
  0
LINE
  5
21D
330
1F
100
AcDbEntity
  8
0
  6
Continuous
 62
     7
370
     0
100
AcDbLine
 10
9.874072501
 20
7.9485710852
 30
0.0
 11
9.8299916456
 21
7.923123749
 31
0.0
  0
ARC
  5
21E
330
1F
100
AcDbEntity
  8
0
  6
Continuous
 62
     7
370
     0
100
AcDbCircle
 10
9.1828904005
 20
6.9657040019
 30
0.0
 40
1.201565811604806
100
AcDbArc
 50
54.883944456
 51
55.3033584563
  0
LINE
  5
21F
330
1F
100
AcDbEntity
  8
0
  6
Continuous
 62
     7
370
     0
100
AcDbLine
 10
9.8102907649
 20
7.9209479426
 30
0.0
 11
9.8668593074
 21
7.9536042671
 31
0.0
  0
ARC
  5
220
330
1F
100
AcDbEntity
  8
0
  6
Continuous
 62
     7
370
     0
100
AcDbCircle
 10
9.1278361747
 20
6.9352255646
 30
0.0
 40
1.198913205499976
100
AcDbArc
 50
55.033216568
 51
55.3036124774
  0
ARC
  5
221
330
1F
100
AcDbEntity
  8
0
  6
Continuous
 62
     7
370
     0
100
AcDbCircle
 10
9.0610958595
 20
6.8116167338
 30
0.0
 40
1.391052789451256
100
AcDbArc
 50
49.2627137009
 51
50.6702001199
  0
LINE
  5
222
330
1F
100
AcDbEntity
  8
0
  6
Continuous
 62
     7
370
     0
100
AcDbLine
 10
9.9188438718
 20
7.8367427922
 30
0.0
 11
9.9688852748
 21
7.8656310793
 31
0.0
  0
ARC
  5
223
330
1F
100
AcDbEntity
  8
0
  6
Continuous
 62
     7
370
     0
100
AcDbCircle
 10
8.9886614542
 20
6.7565729777
 30
0.0
 40
1.425484534580258
100
AcDbArc
 50
48.8551120033
 51
49.2667910816
  0
LINE
  5
224
330
1F
100
AcDbEntity
  8
0
  6
Continuous
 62
     7
370
     0
100
AcDbLine
 10
9.9831495246
 20
7.8626877865
 30
0.0
 11
9.9265809821
 21
7.830031462
 31
0.0
  0
ARC
  5
225
330
1F
100
AcDbEntity
  8
0
  6
Continuous
 62
     7
370
     0
100
AcDbCircle
 10
9.062578232
 20
6.8093445438
 30
0.0
 40
1.398922260758712
100
AcDbArc
 50
48.8481051926
 51
50.6671698674
  0
LINE
  5
226
330
1F
100
AcDbEntity
  8
0
  6
Continuous
 62
     7
370
     0
100
AcDbLine
 10
9.9427218394
 20
7.8876109227
 30
0.0
 11
9.9492489789
 21
7.8913789602
 31
0.0
  0
LINE
  5
227
330
1F
100
AcDbEntity
  8
0
  6
Continuous
 62
     7
370
     0
100
AcDbLine
 10
9.4282342735
 20
8.1473645778
 30
0.0
 11
9.3718583723
 21
8.1148194628
 31
0.0
  0
ARC
  5
228
330
1F
100
AcDbEntity
  8
0
  6
Continuous
 62
     7
370
     0
100
AcDbCircle
 10
9.5203808516
 20
7.7602769982
 30
0.0
 40
0.3979042424710156
100
AcDbArc
 50
103.3900980242
 51
103.8569692544
  0
LINE
  5
229
330
1F
100
AcDbEntity
  8
0
  6
Continuous
 62
     7
370
     0
100
AcDbLine
 10
9.3687073064
 20
8.1140557695
 30
0.0
 11
9.4250832076
 21
8.1466008846
 31
0.0
  0
SPLINE
  5
22A
330
1F
100
AcDbEntity
  8
0
  6
Continuous
 62
     7
370
     0
100
AcDbSpline
210
0.0
220
0.0
230
1.0
 70
     8
 71
     3
 72
    12
 73
     8
 74
     0
 42
0.000000001
 43
0.00000001
 40
0.0
 40
0.0
 40
0.0
 40
0.0
 40
0.2500197623417174
 40
0.5000174565970871
 40
0.7000073827253906
 40
0.850014553434491
 40
1.0
 40
1.0
 40
1.0
 40
1.0
 10
9.366674507806321
 20
8.115918273787159
 30
0.0
 10
9.367016953539155
 20
8.115855391467443
 30
0.0
 10
9.367701814778725
 20
8.115729632378342
 30
0.0
 10
9.368375164644728
 20
8.115391377490507
 30
0.0
 10
9.368736190121782
 20
8.114988135567446
 30
0.0
 10
9.368861139528772
 20
8.114563103338224
 30
0.0
 10
9.368758581613095
 20
8.114224872647727
 30
0.0
 10
9.368707306368654
 20
8.114055769549067
 30
0.0
  0
LINE
  5
22B
330
1F
100
AcDbEntity
  8
0
  6
Continuous
 62
     7
370
     0
100
AcDbLine
 10
9.3637282296
 20
8.1142174236
 30
0.0
 11
9.3666745078
 21
8.1159182738
 31
0.0
  0
SPLINE
  5
22C
330
1F
100
AcDbEntity
  8
0
  6
Continuous
 62
     7
370
     0
100
AcDbSpline
210
0.0
220
0.0
230
1.0
 70
     8
 71
     3
 72
    11
 73
     7
 74
     0
 42
0.000000001
 43
0.00000001
 40
0.0
 40
0.0
 40
0.0
 40
0.0
 40
0.1250486697797312
 40
0.2500820807313259
 40
0.5000562481132618
 40
1.0
 40
1.0
 40
1.0
 40
1.0
 10
9.358425972380633
 20
8.107801882573861
 30
0.0
 10
9.358882233573835
 20
8.108169395841818
 30
0.0
 10
9.359794700285825
 20
8.108904377532621
 30
0.0
 10
9.361231367928895
 20
8.110221356695805
 30
0.0
 10
9.363029399865376
 20
8.112231647742119
 30
0.0
 10
9.363448698189456
 20
8.113423114685617
 30
0.0
 10
9.363728229551377
 20
8.114217423554194
 30
0.0
  0
ARC
  5
22D
330
1F
100
AcDbEntity
  8
0
  6
Continuous
 62
     7
370
     0
100
AcDbCircle
 10
9.4527777759
 20
7.7211825309
 30
0.0
 40
0.3979658099935605
100
AcDbArc
 50
103.5010089399
 51
103.7145701011
  0
SPLINE
  5
22E
330
1F
100
AcDbEntity
  8
0
  6
Continuous
 62
     7
370
     0
100
AcDbSpline
210
0.0
220
0.0
230
1.0
 70
     8
 71
     3
 72
    11
 73
     7
 74
     0
 42
0.000000001
 43
0.00000001
 40
0.0
 40
0.0
 40
0.0
 40
0.0
 40
0.499965135556873
 40
0.6999694370052271
 40
0.8499895917083045
 40
0.9999999999999999
 40
0.9999999999999999
 40
0.9999999999999999
 40
0.9999999999999999
 10
9.38612017703423
 20
8.119632956260851
 30
0.0
 10
9.381734210858513
 20
8.117840951954976
 30
0.0
 10
9.37559369813792
 20
8.115332080523977
 30
0.0
 10
9.368102893748125
 20
8.112012899745705
 30
0.0
 10
9.363717631133834
 20
8.110007141961754
 30
0.0
 10
9.361150974806376
 20
8.108769619156178
 30
0.0
 10
9.359867688331214
 20
8.108150877853683
 30
0.0
  0
LINE
  5
22F
330
1F
100
AcDbEntity
  8
0
  6
Continuous
 62
     7
370
     0
100
AcDbLine
 10
9.3890211279
 20
8.1213076396
 30
0.0
 11
9.386120177
 21
8.1196329563
 31
0.0
  0
SPLINE
  5
230
330
1F
100
AcDbEntity
  8
0
  6
Continuous
 62
     7
370
     0
100
AcDbSpline
210
0.0
220
0.0
230
1.0
 70
     8
 71
     3
 72
    11
 73
     7
 74
     0
 42
0.000000001
 43
0.00000001
 40
0.0
 40
0.0
 40
0.0
 40
0.0
 40
0.3023087415629346
 40
0.4999876043955489
 40
0.7020377216011153
 40
1.0
 40
1.0
 40
1.0
 40
1.0
 10
9.371858372325105
 20
8.114819462787336
 30
0.0
 10
9.373637276138114
 20
8.115535926467196
 30
0.0
 10
9.376579400309973
 20
8.116720883796175
 30
0.0
 10
9.380679393181623
 20
8.118321023958913
 30
0.0
 10
9.384595913825068
 20
8.119748639677026
 30
0.0
 10
9.387368761107641
 20
8.120725511870099
 30
0.0
 10
9.389021127931406
 20
8.121307639567155
 30
0.0
  0
SPLINE
  5
231
330
1F
100
AcDbEntity
  8
0
  6
Continuous
 62
     7
370
     0
100
AcDbSpline
210
0.0
220
0.0
230
1.0
 70
     8
 71
     3
 72
    16
 73
    12
 74
     0
 42
0.000000001
 43
0.00000001
 40
0.0
 40
0.0
 40
0.0
 40
0.0
 40
0.062597061709799
 40
0.1251497037903389
 40
0.25003637503355
 40
0.3752748441852004
 40
0.4995205038009104
 40
0.6423186562677777
 40
0.7853466580360718
 40
0.8840246588207645
 40
1.0
 40
1.0
 40
1.0
 40
1.0
 10
9.504397927914018
 20
8.128077117718618
 30
0.0
 10
9.504787351349314
 20
8.12806333681276
 30
0.0
 10
9.505565921880342
 20
8.12803578478014
 30
0.0
 10
9.507378711471375
 20
8.128141017407595
 30
0.0
 10
9.50992979314426
 20
8.128487441392927
 30
0.0
 10
9.513273148285945
 20
8.129247881241692
 30
0.0
 10
9.51680417379732
 20
8.130397525763621
 30
0.0
 10
9.5201949804231
 20
8.13183656661829
 30
0.0
 10
9.523045532051976
 20
8.13326516317856
 30
0.0
 10
9.5255641119101
 20
8.134612843230027
 30
0.0
 10
9.52699211490599
 20
8.135430066225647
 30
0.0
 10
9.527763652554267
 20
8.1358716047308
 30
0.0
  0
SPLINE
  5
232
330
1F
100
AcDbEntity
  8
0
  6
Continuous
 62
     7
370
     0
100
AcDbSpline
210
0.0
220
0.0
230
1.0
 70
     8
 71
     3
 72
    14
 73
    10
 74
     0
 42
0.000000001
 43
0.00000001
 40
0.0
 40
0.0
 40
0.0
 40
0.0
 40
0.1962429596938115
 40
0.3614928809095194
 40
0.5004684503037388
 40
0.6266180396305172
 40
0.749847315395746
 40
0.8499254015605787
 40
0.9999999999999999
 40
0.9999999999999999
 40
0.9999999999999999
 40
0.9999999999999999
 10
9.50723876287308
 20
8.13367806915055
 30
0.0
 10
9.506401659996545
 20
8.133178794981992
 30
0.0
 10
9.504859659555212
 20
8.13225909800108
 30
0.0
 10
9.503075393507629
 20
8.130990130807861
 30
0.0
 10
9.501950853861066
 20
8.129940066337605
 30
0.0
 10
9.50155972524309
 20
8.129107099712463
 30
0.0
 10
9.501933228363121
 20
8.12857041184799
 30
0.0
 10
9.502876973938053
 20
8.128213642353785
 30
0.0
 10
9.503827610579698
 20
8.128128310829803
 30
0.0
 10
9.504397927914018
 20
8.128077117718618
 30
0.0
  0
LINE
  5
233
330
1F
100
AcDbEntity
  8
0
  6
Continuous
 62
     7
370
     0
100
AcDbLine
 10
9.5336079533
 20
8.1489006787
 30
0.0
 11
9.5072387629
 21
8.1336780692
 31
0.0
  0
ARC
  5
234
330
1F
100
AcDbEntity
  8
0
  6
Continuous
 62
     7
370
     0
100
AcDbCircle
 10
9.5123106392
 20
7.6483614321
 30
0.0
 40
0.5009921286885386
100
AcDbArc
 50
87.5636063668
 51
88.3150936535
  0
LINE
  5
235
330
1F
100
AcDbEntity
  8
0
  6
Continuous
 62
     7
370
     0
100
AcDbLine
 10
9.5034597153
 20
8.1355236085
 30
0.0
 11
9.5270412732
 21
8.1491369521
 31
0.0
  0
SPLINE
  5
236
330
1F
100
AcDbEntity
  8
0
  6
Continuous
 62
     7
370
     0
100
AcDbSpline
210
0.0
220
0.0
230
1.0
 70
     8
 71
     3
 72
    13
 73
     9
 74
     0
 42
0.000000001
 43
0.00000001
 40
0.0
 40
0.0
 40
0.0
 40
0.0
 40
0.1431483331898541
 40
0.2861300558850332
 40
0.4997986267800885
 40
0.7490771388913499
 40
0.8745090927370438
 40
1.0
 40
1.0
 40
1.0
 40
1.0
 10
9.482807808318933
 20
8.128801180159648
 30
0.0
 10
9.483603963757849
 20
8.128819458104957
 30
0.0
 10
9.485195347989533
 20
8.128855992721855
 30
0.0
 10
9.488743738184068
 20
8.129443409609284
 30
0.0
 10
9.493588017889866
 20
8.130744495998085
 30
0.0
 10
9.497999765227688
 20
8.132623515099185
 30
0.0
 10
9.50123624004467
 20
8.134265792260583
 30
0.0
 10
9.502718440819502
 20
8.135104270756866
 30
0.0
 10
9.503459715325768
 20
8.13552360850375
 30
0.0
  0
SPLINE
  5
237
330
1F
100
AcDbEntity
  8
0
  6
Continuous
 62
     7
370
     0
100
AcDbSpline
210
0.0
220
0.0
230
1.0
 70
     8
 71
     3
 72
    14
 73
    10
 74
     0
 42
0.000000001
 43
0.00000001
 40
0.0
 40
0.0
 40
0.0
 40
0.0
 40
0.2504938292205842
 40
0.3757028501511478
 40
0.5005307050946024
 40
0.6429117438464638
 40
0.7855348750382652
 40
0.8927018362619327
 40
1.0
 40
1.0
 40
1.0
 40
1.0
 10
9.486484216222143
 20
8.134590980856535
 30
0.0
 10
9.48532914001769
 20
8.133914532632879
 30
0.0
 10
9.483596700446201
 20
8.132899962627706
 30
0.0
 10
9.481571761628311
 20
8.13155970280369
 30
0.0
 10
9.480404297801702
 20
8.130552656306739
 30
0.0
 10
9.4800712866428
 20
8.129695909252483
 30
0.0
 10
9.480545412296934
 20
8.12913877290773
 30
0.0
 10
9.481514356105787
 20
8.1288505681152
 30
0.0
 10
9.48237648177477
 20
8.128817649524326
 30
0.0
 10
9.482807808318933
 20
8.128801180159648
 30
0.0
  0
LINE
  5
238
330
1F
100
AcDbEntity
  8
0
  6
Continuous
 62
     7
370
     0
100
AcDbLine
 10
9.512048846
 20
8.1493491275
 30
0.0
 11
9.4864842162
 21
8.1345909809
 31
0.0
  0
ARC
  5
239
330
1F
100
AcDbEntity
  8
0
  6
Continuous
 62
     7
370
     0
100
AcDbCircle
 10
9.5126416754
 20
7.6712937548
 30
0.0
 40
0.4780557402939731
100
AcDbArc
 50
90.0710516166
 51
90.8463876156
  0
LINE
  5
23A
330
1F
100
AcDbEntity
  8
0
  6
Continuous
 62
     7
370
     0
100
AcDbLine
 10
9.4773410292
 20
8.1329953402
 30
0.0
 11
9.5055799731
 21
8.1492973355
 31
0.0
  0
SPLINE
  5
23B
330
1F
100
AcDbEntity
  8
0
  6
Continuous
 62
     7
370
     0
100
AcDbSpline
210
0.0
220
0.0
230
1.0
 70
     8
 71
     3
 72
    13
 73
     9
 74
     0
 42
0.000000001
 43
0.00000001
 40
0.0
 40
0.0
 40
0.0
 40
0.0
 40
0.1255997205531149
 40
0.2510728045682561
 40
0.499595715507124
 40
0.7487890782142422
 40
0.8492801662769665
 40
1.0
 40
1.0
 40
1.0
 40
1.0
 10
9.474714294820915
 20
8.12504900623826
 30
0.0
 10
9.473949257533814
 20
8.125074231505446
 30
0.0
 10
9.472419954312235
 20
8.125124656606312
 30
0.0
 10
9.470143800201695
 20
8.125600199716914
 30
0.0
 10
9.469149538410155
 20
8.127024153097267
 30
0.0
 10
9.471640659438755
 20
8.129345301401097
 30
0.0
 10
9.474564199264412
 20
8.131349763426414
 30
0.0
 10
9.476299746969566
 20
8.132378266101092
 30
0.0
 10
9.477341029170514
 20
8.132995340195679
 30
0.0
  0
SPLINE
  5
23C
330
1F
100
AcDbEntity
  8
0
  6
Continuous
 62
     7
370
     0
100
AcDbSpline
210
0.0
220
0.0
230
1.0
 70
     8
 71
     3
 72
    13
 73
     9
 74
     0
 42
0.000000001
 43
0.00000001
 40
0.0
 40
0.0
 40
0.0
 40
0.0
 40
0.1252111800123831
 40
0.2503709188547474
 40
0.5001800844950601
 40
0.7497098314791351
 40
0.8748093757729304
 40
1.0
 40
1.0
 40
1.0
 40
1.0
 10
9.493673288020261
 20
8.129251631762754
 30
0.0
 10
9.492817675780586
 20
8.128951675762021
 30
0.0
 10
9.49110680281693
 20
8.12835188699306
 30
0.0
 10
9.487649588660688
 20
8.127253225447536
 30
0.0
 10
9.483322567267832
 20
8.126078340267576
 30
0.0
 10
9.479297650518888
 20
8.12534058996759
 30
0.0
 10
9.476520794998345
 20
8.125077862270343
 30
0.0
 10
9.475316607613598
 20
8.125058627248812
 30
0.0
 10
9.474714294820915
 20
8.12504900623826
 30
0.0
  0
SPLINE
  5
23D
330
1F
100
AcDbEntity
  8
0
  6
Continuous
 62
     7
370
     0
100
AcDbSpline
210
0.0
220
0.0
230
1.0
 70
     8
 71
     3
 72
    13
 73
     9
 74
     0
 42
0.000000001
 43
0.00000001
 40
0.0
 40
0.0
 40
0.0
 40
0.0
 40
0.1253429328899663
 40
0.2505898065604685
 40
0.5000565154177972
 40
0.7494697823308876
 40
0.8746743889016487
 40
1.0
 40
1.0
 40
1.0
 40
1.0
 10
9.49597214789916
 20
8.124410013375858
 30
0.0
 10
9.4954401536716
 20
8.124447689554627
 30
0.0
 10
9.494376572921555
 20
8.124523013038226
 30
0.0
 10
9.492639814947943
 20
8.124866913227494
 30
0.0
 10
9.491286457612798
 20
8.125670184957931
 30
0.0
 10
9.49151037039758
 20
8.12700236452066
 30
0.0
 10
9.492514088964906
 20
8.128248318498184
 30
0.0
 10
9.493286763936084
 20
8.12891708633767
 30
0.0
 10
9.493673288020261
 20
8.129251631762754
 30
0.0
  0
SPLINE
  5
23E
330
1F
100
AcDbEntity
  8
0
  6
Continuous
 62
     7
370
     0
100
AcDbSpline
210
0.0
220
0.0
230
1.0
 70
     8
 71
     3
 72
    13
 73
     9
 74
     0
 42
0.000000001
 43
0.00000001
 40
0.0
 40
0.0
 40
0.0
 40
0.0
 40
0.1251971558968233
 40
0.2503378710232784
 40
0.5001340654709728
 40
0.7497012951317815
 40
0.8748025018892588
 40
1.0
 40
1.0
 40
1.0
 40
1.0
 10
9.513927476595471
 20
8.127884150367535
 30
0.0
 10
9.513122149861813
 20
8.127606755141578
 30
0.0
 10
9.511511859447959
 20
8.127052089743628
 30
0.0
 10
9.508231740412326
 20
8.126084146127493
 30
0.0
 10
9.504140570143324
 20
8.125090561544047
 30
0.0
 10
9.500323221227289
 20
8.124509032696992
 30
0.0
 10
9.497690650238972
 20
8.124362986635825
 30
0.0
 10
9.496545128908648
 20
8.124394333776038
 30
0.0
 10
9.49597214789916
 20
8.124410013375858
 30
0.0
  0
LINE
  5
23F
330
1F
100
AcDbEntity
  8
0
  6
Continuous
 62
     7
370
     0
100
AcDbLine
 10
9.50747966
 20
8.1241619051
 30
0.0
 11
9.5139274766
 21
8.1278841504
 31
0.0
  0
ARC
  5
240
330
1F
100
AcDbEntity
  8
0
  6
Continuous
 62
     7
370
     0
100
AcDbCircle
 10
9.4695255716
 20
7.5994446124
 30
0.0
 40
0.526088158076655
100
AcDbArc
 50
85.1354667138
 51
85.8628608914
  0
LINE
  5
241
330
1F
100
AcDbEntity
  8
0
  6
Continuous
 62
     7
370
     0
100
AcDbLine
 10
9.5554764809
 20
8.1475020271
 30
0.0
 11
9.5141379306
 21
8.12363779
 31
0.0
  0
ARC
  5
242
330
1F
100
AcDbEntity
  8
0
  6
Continuous
 62
     7
370
     0
100
AcDbCircle
 10
9.5108641219
 20
7.6233088494
 30
0.0
 40
0.5260881581189766
100
AcDbArc
 50
85.1354667138
 51
85.8628608914
  0
LINE
  5
243
330
1F
100
AcDbEntity
  8
0
  6
Continuous
 62
     7
370
     0
100
AcDbLine
 10
9.5277636526
 20
8.1358716047
 30
0.0
 11
9.5488182102
 21
8.1480261422
 31
0.0
  0
SPLINE
  5
244
330
1F
100
AcDbEntity
  8
0
  6
Continuous
 62
     7
370
     0
100
AcDbSpline
210
0.0
220
0.0
230
1.0
 70
     8
 71
     3
 72
    16
 73
    12
 74
     0
 42
0.000000001
 43
0.00000001
 40
0.0
 40
0.0
 40
0.0
 40
0.0
 40
0.1252094946983662
 40
0.2504046739963969
 40
0.3833289736540516
 40
0.5006376999519332
 40
0.6312680262838257
 40
0.7501982147432008
 40
0.874850603123619
 40
0.9374183744277063
 40
1.0
 40
1.0
 40
1.0
 40
1.0
 10
9.576349701287235
 20
8.125039222273895
 30
0.0
 10
9.577971138639574
 20
8.125959247063289
 30
0.0
 10
9.58121382796275
 20
8.127799191454185
 30
0.0
 10
9.586519117920906
 20
8.130544322098721
 30
0.0
 10
9.592079841948605
 20
8.133126826141549
 30
0.0
 10
9.598184424774434
 20
8.135536328296071
 30
0.0
 10
9.604530963081949
 20
8.13749699962186
 30
0.0
 10
9.611227141392904
 20
8.13879443160179
 30
0.0
 10
9.616242890745388
 20
8.138993250542292
 30
0.0
 10
9.619814710571037
 20
8.138735974847718
 30
0.0
 10
9.621378890444584
 20
8.138450170298459
 30
0.0
 10
9.622161066960151
 20
8.138307252204283
 30
0.0
  0
SPLINE
  5
245
330
1F
100
AcDbEntity
  8
0
  6
Continuous
 62
     7
370
     0
100
AcDbSpline
210
0.0
220
0.0
230
1.0
 70
     8
 71
     3
 72
    15
 73
    11
 74
     0
 42
0.000000001
 43
0.00000001
 40
0.0
 40
0.0
 40
0.0
 40
0.0
 40
0.0626310590473304
 40
0.1252239280246707
 40
0.250045843302764
 40
0.3746204791019455
 40
0.499611629376773
 40
0.7494432638969607
 40
0.8747101358354906
 40
0.9999999999999999
 40
0.9999999999999999
 40
0.9999999999999999
 40
0.9999999999999999
 10
9.564867286740933
 20
8.1052322569048
 30
0.0
 10
9.564129679912211
 20
8.105401200636136
 30
0.0
 10
9.562654916019742
 20
8.105738985083256
 30
0.0
 10
9.56026640414357
 20
8.106679760980166
 30
0.0
 10
9.55825777968791
 20
8.108255431576715
 30
0.0
 10
9.558131086111619
 20
8.110796935524965
 30
0.0
 10
9.561063051443863
 20
8.114608102197948
 30
0.0
 10
9.565721772108986
 20
8.118487446543934
 30
0.0
 10
9.57160158207637
 20
8.122257473179955
 30
0.0
 10
9.574766898062348
 20
8.124111915851882
 30
0.0
 10
9.576349701287235
 20
8.125039222273895
 30
0.0
  0
SPLINE
  5
246
330
1F
100
AcDbEntity
  8
0
  6
Continuous
 62
     7
370
     0
100
AcDbSpline
210
0.0
220
0.0
230
1.0
 70
     8
 71
     3
 72
    17
 73
    13
 74
     0
 42
0.000000001
 43
0.00000001
 40
0.0
 40
0.0
 40
0.0
 40
0.0
 40
0.1251519328702156
 40
0.2502835494577695
 40
0.3838490249491878
 40
0.5004249589582498
 40
0.6316909228118932
 40
0.7498767247056565
 40
0.8123958244715177
 40
0.8749120167803558
 40
0.9374477308667407
 40
1.0
 40
1.0
 40
1.0
 40
1.0
 10
9.610853848870839
 20
8.117987077260892
 30
0.0
 10
9.60923231242172
 20
8.117067107510344
 30
0.0
 10
9.605989502752276
 20
8.115227317350655
 30
0.0
 10
9.600649881427636
 20
8.112506159869799
 30
0.0
 10
9.595086228340374
 20
8.109965161564055
 30
0.0
 10
9.58894393975334
 20
8.107634324650283
 30
0.0
 10
9.582571983260372
 20
8.105781815190229
 30
0.0
 10
9.57696593189575
 20
8.104830228657619
 30
0.0
 10
9.572846717019058
 20
8.104538568541098
 30
0.0
 10
9.569925122131373
 20
8.10458455386642
 30
0.0
 10
9.567214949536142
 20
8.104796448684414
 30
0.0
 10
9.565649910048878
 20
8.105086974681235
 30
0.0
 10
9.564867286740933
 20
8.1052322569048
 30
0.0
  0
SPLINE
  5
247
330
1F
100
AcDbEntity
  8
0
  6
Continuous
 62
     7
370
     0
100
AcDbSpline
210
0.0
220
0.0
230
1.0
 70
     8
 71
     3
 72
    12
 73
     8
 74
     0
 42
0.000000001
 43
0.00000001
 40
0.0
 40
0.0
 40
0.0
 40
0.0
 40
0.1249981962352774
 40
0.2500181853098274
 40
0.4998430509921681
 40
0.7498766505114253
 40
0.9999999999999999
 40
0.9999999999999999
 40
0.9999999999999999
 40
0.9999999999999999
 10
9.628765086367496
 20
8.132572359989368
 30
0.0
 10
9.628470618547786
 20
8.13196728537363
 30
0.0
 10
9.627881631569307
 20
8.130757030650278
 30
0.0
 10
9.625693976419816
 20
8.128259537541314
 30
0.0
 10
9.622074985730878
 20
8.125148697403594
 30
0.0
 10
9.616795353597697
 20
8.121505241456683
 30
0.0
 10
9.612834587357858
 20
8.119159938942673
 30
0.0
 10
9.610853848870839
 20
8.117987077260892
 30
0.0
  0
SPLINE
  5
248
330
1F
100
AcDbEntity
  8
0
  6
Continuous
 62
     7
370
     0
100
AcDbSpline
210
0.0
220
0.0
230
1.0
 70
     8
 71
     3
 72
    12
 73
     8
 74
     0
 42
0.000000001
 43
0.00000001
 40
0.0
 40
0.0
 40
0.0
 40
0.0
 40
0.2501121538982713
 40
0.5000209053225383
 40
0.7497559520083945
 40
0.8748533096535153
 40
1.0
 40
1.0
 40
1.0
 40
1.0
 10
9.622161066960151
 20
8.138307252204283
 30
0.0
 10
9.623239325625075
 20
8.138044673509135
 30
0.0
 10
9.625394966066388
 20
8.137519729659665
 30
0.0
 10
9.627717562750828
 20
8.136251783255899
 30
0.0
 10
9.62870456709103
 20
8.13485294890112
 30
0.0
 10
9.62896198026484
 20
8.13359467761729
 30
0.0
 10
9.628830726291675
 20
8.132913177315293
 30
0.0
 10
9.628765086367496
 20
8.132572359989368
 30
0.0
  0
SPLINE
  5
249
330
1F
100
AcDbEntity
  8
0
  6
Continuous
 62
     7
370
     0
100
AcDbSpline
210
0.0
220
0.0
230
1.0
 70
     8
 71
     3
 72
    13
 73
     9
 74
     0
 42
0.000000001
 43
0.00000001
 40
0.0
 40
0.0
 40
0.0
 40
0.0
 40
0.1250710524897505
 40
0.2501213755201651
 40
0.5000714595751169
 40
0.7499678126074917
 40
0.8749906036692514
 40
1.0
 40
1.0
 40
1.0
 40
1.0
 10
9.675962850626448
 20
8.085777774830541
 30
0.0
 10
9.674773481422491
 20
8.085824441057444
 30
0.0
 10
9.672394940142375
 20
8.085917765776717
 30
0.0
 10
9.667539200843617
 20
8.085916980864596
 30
0.0
 10
9.661333217910546
 20
8.085592125676156
 30
0.0
 10
9.655065989780221
 20
8.08482583833547
 30
0.0
 10
9.650081790149546
 20
8.083938938610855
 30
0.0
 10
9.647677614371283
 20
8.083310069234717
 30
0.0
 10
9.646475590880435
 20
8.08299565139155
 30
0.0
  0
LINE
  5
24A
330
1F
100
AcDbEntity
  8
0
  6
Continuous
 62
     7
370
     0
100
AcDbLine
 10
9.6826486359
 20
8.0896373965
 30
0.0
 11
9.6759628506
 21
8.0857777748
 31
0.0
  0
SPLINE
  5
24B
330
1F
100
AcDbEntity
  8
0
  6
Continuous
 62
     7
370
     0
100
AcDbSpline
210
0.0
220
0.0
230
1.0
 70
     8
 71
     3
 72
    13
 73
     9
 74
     0
 42
0.000000001
 43
0.00000001
 40
0.0
 40
0.0
 40
0.0
 40
0.0
 40
0.1250131719674649
 40
0.2500192439134359
 40
0.4999856528643137
 40
0.7500043584871688
 40
0.8671891873848904
 40
1.0
 40
1.0
 40
1.0
 40
1.0
 10
9.661494337477698
 20
8.089342440884465
 30
0.0
 10
9.662403278295224
 20
8.089444627747678
 30
0.0
 10
9.66422110830772
 20
8.089648995670485
 30
0.0
 10
9.667832992301697
 20
8.089891147878031
 30
0.0
 10
9.67229592767063
 20
8.09002672986249
 30
0.0
 10
9.676629296211786
 20
8.089988539551271
 30
0.0
 10
9.680074697541901
 20
8.089842559377278
 30
0.0
 10
9.681755634118149
 20
8.08970857568576
 30
0.0
 10
9.682648635897282
 20
8.089637396513035
 30
0.0
  0
LINE
  5
24C
330
1F
100
AcDbEntity
  8
0
  6
Continuous
 62
     7
370
     0
100
AcDbLine
 10
9.7055751929
 20
8.1147897771
 30
0.0
 11
9.6614943375
 21
8.0893424409
 31
0.0
  0
ARC
  5
24D
330
1F
100
AcDbEntity
  8
0
  6
Continuous
 62
     7
370
     0
100
AcDbCircle
 10
9.4647930067
 20
7.4121046404
 30
0.0
 40
0.7427936876557812
100
AcDbArc
 50
71.0854564228
 51
71.663414421
  0
LINE
  5
24E
330
1F
100
AcDbEntity
  8
0
  6
Continuous
 62
     7
370
     0
100
AcDbLine
 10
9.6419063459
 20
8.0845264965
 30
0.0
 11
9.6984748884
 21
8.1171828209
 31
0.0
  0
ARC
  5
24F
330
1F
100
AcDbEntity
  8
0
  6
Continuous
 62
     7
370
     0
100
AcDbCircle
 10
9.4088959363
 20
7.3814557433
 30
0.0
 40
0.7406769436752206
100
AcDbArc
 50
71.2910976676
 51
71.6638664908
  0
LINE
  5
250
330
1F
100
AcDbEntity
  8
0
  6
Continuous
 62
     7
370
     0
100
AcDbLine
 10
9.7352131337
 20
8.0715979108
 30
0.0
 11
9.7279607565
 21
8.0674112025
 31
0.0
  0
ARC
  5
251
330
1F
100
AcDbEntity
  8
0
  6
Continuous
 62
     7
370
     0
100
AcDbCircle
 10
9.403355751
 20
7.3159813482
 30
0.0
 40
0.8252791721860255
100
AcDbArc
 50
66.2895170745
 51
69.037305461
  0
LINE
  5
252
330
1F
100
AcDbEntity
  8
0
  6
Continuous
 62
     7
370
     0
100
AcDbLine
 10
9.691355264
 20
8.0824515243
 30
0.0
 11
9.6986076413
 21
8.0866382326
 31
0.0
  0
ARC
  5
253
330
1F
100
AcDbEntity
  8
0
  6
Continuous
 62
     7
370
     0
100
AcDbCircle
 10
9.3961033738
 20
7.31179464
 30
0.0
 40
0.8252791721836518
100
AcDbArc
 50
66.2895170745
 51
69.037305461
  0
SPLINE
  5
254
330
1F
100
AcDbEntity
  8
0
  6
Continuous
 62
     7
370
     0
100
AcDbSpline
210
0.0
220
0.0
230
1.0
 70
     8
 71
     3
 72
     8
 73
     4
 74
     0
 42
0.000000001
 43
0.00000001
 40
0.0
 40
0.0
 40
0.0
 40
0.0
 40
1.0
 40
1.0
 40
1.0
 40
1.0
 10
9.818238457313678
 20
8.040508788460995
 30
0.0
 10
9.820421463908438
 20
8.040769303450901
 30
0.0
 10
9.822604507358706
 20
8.041028042988648
 30
0.0
 10
9.824787582463472
 20
8.04128500994128
 30
0.0
  0
SPLINE
  5
255
330
1F
100
AcDbEntity
  8
0
  6
Continuous
 62
     7
370
     0
100
AcDbSpline
210
0.0
220
0.0
230
1.0
 70
     8
 71
     3
 72
     8
 73
     4
 74
     0
 42
0.000000001
 43
0.00000001
 40
0.0
 40
0.0
 40
0.0
 40
0.0
 40
1.0
 40
1.0
 40
1.0
 40
1.0
 10
9.81928175753638
 20
8.043723223991321
 30
0.0
 10
9.818933960447708
 20
8.042653097820816
 30
0.0
 10
9.818586194857584
 20
8.041581618680604
 30
0.0
 10
9.818238457313678
 20
8.040508788460995
 30
0.0
  0
SPLINE
  5
256
330
1F
100
AcDbEntity
  8
0
  6
Continuous
 62
     7
370
     0
100
AcDbSpline
210
0.0
220
0.0
230
1.0
 70
     8
 71
     3
 72
     8
 73
     4
 74
     0
 42
0.000000001
 43
0.00000001
 40
0.0
 40
0.0
 40
0.0
 40
0.0
 40
1.0
 40
1.0
 40
1.0
 40
1.0
 10
9.825512084539389
 20
8.06263203414514
 30
0.0
 10
9.823433723365648
 20
8.056376881370076
 30
0.0
 10
9.821357187203667
 20
8.050073816375416
 30
0.0
 10
9.81928175753638
 20
8.043723223991321
 30
0.0
  0
ARC
  5
257
330
1F
100
AcDbEntity
  8
0
  6
Continuous
 62
     7
370
     0
100
AcDbCircle
 10
9.3796821463
 20
7.2140392665
 30
0.0
 40
0.9585791668338303
100
AcDbArc
 50
62.2836592041
 51
62.9304799452
  0
SPLINE
  5
258
330
1F
100
AcDbEntity
  8
0
  6
Continuous
 62
     7
370
     0
100
AcDbSpline
210
0.0
220
0.0
230
1.0
 70
     8
 71
     3
 72
     8
 73
     4
 74
     0
 42
0.000000001
 43
0.00000001
 40
0.0
 40
0.0
 40
0.0
 40
0.0
 40
1.0
 40
1.0
 40
1.0
 40
1.0
 10
9.806443816408459
 20
8.03909349083636
 30
0.0
 10
9.809593517756413
 20
8.048709493349184
 30
0.0
 10
9.812746069427694
 20
8.058215736265305
 30
0.0
 10
9.815903986536776
 20
8.067610895147336
 30
0.0
  0
SPLINE
  5
259
330
1F
100
AcDbEntity
  8
0
  6
Continuous
 62
     7
370
     0
100
AcDbSpline
210
0.0
220
0.0
230
1.0
 70
     8
 71
     3
 72
     8
 73
     4
 74
     0
 42
0.000000001
 43
0.00000001
 40
0.0
 40
0.0
 40
0.0
 40
0.0
 40
1.0
 40
1.0
 40
1.0
 40
1.0
 10
9.762231934828497
 20
8.033468115131257
 30
0.0
 10
9.776966043284606
 20
8.035425219219306
 30
0.0
 10
9.791703872763508
 20
8.03730006124655
 30
0.0
 10
9.806443816408459
 20
8.03909349083636
 30
0.0
  0
ARC
  5
25A
330
1F
100
AcDbEntity
  8
0
  6
Continuous
 62
     7
370
     0
100
AcDbCircle
 10
9.3204593961
 20
7.176282116
 30
0.0
 40
0.9643292036955615
100
AcDbArc
 50
62.0819431018
 51
62.734537192
  0
SPLINE
  5
25B
330
1F
100
AcDbEntity
  8
0
  6
Continuous
 62
     7
370
     0
100
AcDbSpline
210
0.0
220
0.0
230
1.0
 70
     8
 71
     3
 72
     8
 73
     4
 74
     0
 42
0.000000001
 43
0.00000001
 40
0.0
 40
0.0
 40
0.0
 40
0.0
 40
1.0
 40
1.0
 40
1.0
 40
1.0
 10
9.796131160556925
 20
8.031375814471685
 30
0.0
 10
9.788075545696865
 20
8.03040181645629
 30
0.0
 10
9.780020519703605
 20
8.029403548933837
 30
0.0
 10
9.771966344570371
 20
8.028380871170889
 30
0.0
  0
SPLINE
  5
25C
330
1F
100
AcDbEntity
  8
0
  6
Continuous
 62
     7
370
     0
100
AcDbSpline
210
0.0
220
0.0
230
1.0
 70
     8
 71
     3
 72
     8
 73
     4
 74
     0
 42
0.000000001
 43
0.00000001
 40
0.0
 40
0.0
 40
0.0
 40
0.0
 40
1.0
 40
1.0
 40
1.0
 40
1.0
 10
9.805206708612587
 20
8.032462304662605
 30
0.0
 10
9.802181452120216
 20
8.032103559554042
 30
0.0
 10
9.799156264807152
 20
8.031741398689505
 30
0.0
 10
9.796131160556925
 20
8.031375814471685
 30
0.0
  0
SPLINE
  5
25D
330
1F
100
AcDbEntity
  8
0
  6
Continuous
 62
     7
370
     0
100
AcDbSpline
210
0.0
220
0.0
230
1.0
 70
     8
 71
     3
 72
    12
 73
     8
 74
     0
 42
0.000000001
 43
0.00000001
 40
0.0
 40
0.0
 40
0.0
 40
0.0
 40
0.5002192200952791
 40
0.7502916379679734
 40
0.8753235573824912
 40
0.9381223094067278
 40
1.0
 40
1.0
 40
1.0
 40
1.0
 10
9.802747002063688
 20
8.027728321022837
 30
0.0
 10
9.803022842364198
 20
8.028542602108365
 30
0.0
 10
9.803436582305753
 20
8.029763963193437
 30
0.0
 10
9.804096225204278
 20
8.031166291689933
 30
0.0
 10
9.804505341456714
 20
8.031855243212139
 30
0.0
 10
9.80484159940965
 20
8.032227982372996
 30
0.0
 10
9.805085606421478
 20
8.032384582867403
 30
0.0
 10
9.805206708612587
 20
8.032462304662605
 30
0.0
  0
SPLINE
  5
25E
330
1F
100
AcDbEntity
  8
0
  6
Continuous
 62
     7
370
     0
100
AcDbSpline
210
0.0
220
0.0
230
1.0
 70
     8
 71
     3
 72
     8
 73
     4
 74
     0
 42
0.000000001
 43
0.00000001
 40
0.0
 40
0.0
 40
0.0
 40
0.0
 40
1.0
 40
1.0
 40
1.0
 40
1.0
 10
9.798292617995854
 20
8.013916620614923
 30
0.0
 10
9.799777174167712
 20
8.018544761427108
 30
0.0
 10
9.801261880572124
 20
8.023148711148215
 30
0.0
 10
9.802747002063688
 20
8.027728321022837
 30
0.0
  0
ARC
  5
25F
330
1F
100
AcDbEntity
  8
0
  6
Continuous
 62
     7
370
     0
100
AcDbCircle
 10
9.2862600155
 20
7.1140331087
 30
0.0
 40
1.035358740263312
100
AcDbArc
 50
59.7464671709
 51
60.3601774526
  0
SPLINE
  5
260
330
1F
100
AcDbEntity
  8
0
  6
Continuous
 62
     7
370
     0
100
AcDbSpline
210
0.0
220
0.0
230
1.0
 70
     8
 71
     3
 72
     8
 73
     4
 74
     0
 42
0.000000001
 43
0.00000001
 40
0.0
 40
0.0
 40
0.0
 40
0.0
 40
1.0
 40
1.0
 40
1.0
 40
1.0
 10
9.81602765346961
 20
8.033726749325727
 30
0.0
 10
9.813318372347638
 20
8.02535866065785
 30
0.0
 10
9.810610341183452
 20
8.016909634280838
 30
0.0
 10
9.807901951734522
 20
8.00838058669491
 30
0.0
  0
SPLINE
  5
261
330
1F
100
AcDbEntity
  8
0
  6
Continuous
 62
     7
370
     0
100
AcDbSpline
210
0.0
220
0.0
230
1.0
 70
     8
 71
     3
 72
     8
 73
     4
 74
     0
 42
0.000000001
 43
0.00000001
 40
0.0
 40
0.0
 40
0.0
 40
0.0
 40
1.0
 40
1.0
 40
1.0
 40
1.0
 10
9.867371371921932
 20
8.039338746769301
 30
0.0
 10
9.850256792284155
 20
8.037576240440822
 30
0.0
 10
9.833141380296379
 20
8.03570605465719
 30
0.0
 10
9.81602765346961
 20
8.033726749325727
 30
0.0
  0
ARC
  5
262
330
1F
100
AcDbEntity
  8
0
  6
Continuous
 62
     7
370
     0
100
AcDbCircle
 10
9.3399862724
 20
7.1417733846
 30
0.0
 40
1.041037282039268
100
AcDbArc
 50
59.5626584364
 51
60.1820668255
  0
SPLINE
  5
263
330
1F
100
AcDbEntity
  8
0
  6
Continuous
 62
     7
370
     0
100
AcDbSpline
210
0.0
220
0.0
230
1.0
 70
     8
 71
     3
 72
     8
 73
     4
 74
     0
 42
0.000000001
 43
0.00000001
 40
0.0
 40
0.0
 40
0.0
 40
0.0
 40
1.0
 40
1.0
 40
1.0
 40
1.0
 10
9.824787582463472
 20
8.04128500994128
 30
0.0
 10
9.835736948587464
 20
8.04256385100545
 30
0.0
 10
9.84668711418888
 20
8.043797922654392
 30
0.0
 10
9.857637419017415
 20
8.04498759671711
 30
0.0
  0
ARC
  5
264
330
1F
100
AcDbEntity
  8
0
  6
Continuous
 62
     7
370
     0
100
AcDbCircle
 10
9.2184431464
 20
7.0051706
 30
0.0
 40
1.163640933641909
100
AcDbArc
 50
55.9175429836
 51
56.4283692111
  0
SPLINE
  5
265
330
1F
100
AcDbEntity
  8
0
  6
Continuous
 62
     7
370
     0
100
AcDbSpline
210
0.0
220
0.0
230
1.0
 70
     8
 71
     3
 72
     8
 73
     4
 74
     0
 42
0.000000001
 43
0.00000001
 40
0.0
 40
0.0
 40
0.0
 40
0.0
 40
1.0
 40
1.0
 40
1.0
 40
1.0
 10
9.926427712685104
 20
7.98177745345878
 30
0.0
 10
9.907800369809534
 20
7.977552361493749
 30
0.0
 10
9.889167654210029
 20
7.973271842438979
 30
0.0
 10
9.870530571829063
 20
7.968935204074024
 30
0.0
  0
SPLINE
  5
266
330
1F
100
AcDbEntity
  8
0
  6
Continuous
 62
     7
370
     0
100
AcDbSpline
210
0.0
220
0.0
230
1.0
 70
     8
 71
     3
 72
     9
 73
     5
 74
     0
 42
0.000000001
 43
0.00000001
 40
0.0
 40
0.0
 40
0.0
 40
0.0
 40
0.4999996840328783
 40
1.0
 40
1.0
 40
1.0
 40
1.0
 10
9.93861434728205
 20
7.984906755829152
 30
0.0
 10
9.936615144544056
 20
7.984342885895944
 30
0.0
 10
9.932616736541341
 20
7.983215145316866
 30
0.0
 10
9.928490721506305
 20
7.982256684280037
 30
0.0
 10
9.926427712685104
 20
7.98177745345878
 30
0.0
  0
SPLINE
  5
267
330
1F
100
AcDbEntity
  8
0
  6
Continuous
 62
     7
370
     0
100
AcDbSpline
210
0.0
220
0.0
230
1.0
 70
     8
 71
     3
 72
     9
 73
     5
 74
     0
 42
0.000000001
 43
0.00000001
 40
0.0
 40
0.0
 40
0.0
 40
0.0
 40
0.5154276969800506
 40
1.0
 40
1.0
 40
1.0
 40
1.0
 10
9.932566507716585
 20
7.9774536891428
 30
0.0
 10
9.933548927406013
 20
7.978756598597614
 30
0.0
 10
9.935454955536018
 20
7.981284420564592
 30
0.0
 10
9.937583104996712
 20
7.983724406314826
 30
0.0
 10
9.93861434728205
 20
7.984906755829152
 30
0.0
  0
SPLINE
  5
268
330
1F
100
AcDbEntity
  8
0
  6
Continuous
 62
     7
370
     0
100
AcDbSpline
210
0.0
220
0.0
230
1.0
 70
     8
 71
     3
 72
     8
 73
     4
 74
     0
 42
0.000000001
 43
0.00000001
 40
0.0
 40
0.0
 40
0.0
 40
0.0
 40
1.0
 40
1.0
 40
1.0
 40
1.0
 10
9.907292480046594
 20
7.943043467621163
 30
0.0
 10
9.915723569688513
 20
7.954567963786944
 30
0.0
 10
9.924147913492064
 20
7.966038276916183
 30
0.0
 10
9.932566507716585
 20
7.9774536891428
 30
0.0
  0
ARC
  5
269
330
1F
100
AcDbEntity
  8
0
  6
Continuous
 62
     7
370
     0
100
AcDbCircle
 10
9.1644854753
 20
6.9285436736
 30
0.0
 40
1.257367121513244
100
AcDbArc
 50
53.3036553958
 51
53.7887700129
  0
SPLINE
  5
26A
330
1F
100
AcDbEntity
  8
0
  6
Continuous
 62
     7
370
     0
100
AcDbSpline
210
0.0
220
0.0
230
1.0
 70
     8
 71
     3
 72
     8
 73
     4
 74
     0
 42
0.000000001
 43
0.00000001
 40
0.0
 40
0.0
 40
0.0
 40
0.0
 40
1.0
 40
1.0
 40
1.0
 40
1.0
 10
9.949805576529041
 20
7.985840571382064
 30
0.0
 10
9.938502729290105
 20
7.96958609043731
 30
0.0
 10
9.92718707368461
 20
7.953211095181997
 30
0.0
 10
9.915855367447044
 20
7.936717946007523
 30
0.0
  0
ARC
  5
26B
330
1F
100
AcDbEntity
  8
0
  6
Continuous
 62
     7
370
     0
100
AcDbCircle
 10
9.2484630698
 20
6.9991920024
 30
0.0
 40
1.210519190409648
100
AcDbArc
 50
54.5935235356
 51
55.0910750091
  0
SPLINE
  5
26C
330
1F
100
AcDbEntity
  8
0
  6
Continuous
 62
     7
370
     0
100
AcDbSpline
210
0.0
220
0.0
230
1.0
 70
     8
 71
     3
 72
     8
 73
     4
 74
     0
 42
0.000000001
 43
0.00000001
 40
0.0
 40
0.0
 40
0.0
 40
0.0
 40
1.0
 40
1.0
 40
1.0
 40
1.0
 10
9.861912230002934
 20
7.974710573862388
 30
0.0
 10
9.888354657056597
 20
7.980561262066492
 30
0.0
 10
9.914788758044045
 20
7.986288227207861
 30
0.0
 10
9.941211271383048
 20
7.991893689525615
 30
0.0
  0
SPLINE
  5
26D
330
1F
100
AcDbEntity
  8
0
  6
Continuous
 62
     7
370
     0
100
AcDbSpline
210
0.0
220
0.0
230
1.0
 70
     8
 71
     3
 72
    15
 73
    11
 74
     0
 42
0.000000001
 43
0.00000001
 40
0.0
 40
0.0
 40
0.0
 40
0.0
 40
0.0626761947927371
 40
0.1253392690170798
 40
0.2504957453420855
 40
0.4992172028461096
 40
0.6369416197782425
 40
0.7852085601041295
 40
0.8925889660601135
 40
1.0
 40
1.0
 40
1.0
 40
1.0
 10
9.999692894067298
 20
7.867693528070652
 30
0.0
 10
9.9988166143426
 20
7.86849234421673
 30
0.0
 10
9.997064238332678
 20
7.870089809285559
 30
0.0
 10
9.994036398529568
 20
7.873498344597502
 30
0.0
 10
9.989839507577244
 20
7.87978069282503
 30
0.0
 10
9.988108132985165
 20
7.88772903169544
 30
0.0
 10
9.990371156370436
 20
7.895209447958206
 30
0.0
 10
9.993851768832007
 20
7.900060973739192
 30
0.0
 10
9.998136312323878
 20
7.903952153746593
 30
0.0
 10
10.00121282410985
 20
7.905869481044526
 30
0.0
 10
10.00275129934899
 20
7.906828281393237
 30
0.0
  0
SPLINE
  5
26E
330
1F
100
AcDbEntity
  8
0
  6
Continuous
 62
     7
370
     0
100
AcDbSpline
210
0.0
220
0.0
230
1.0
 70
     8
 71
     3
 72
    17
 73
    13
 74
     0
 42
0.000000001
 43
0.00000001
 40
0.0
 40
0.0
 40
0.0
 40
0.0
 40
0.0625872523499135
 40
0.1251621031372789
 40
0.2502151565809876
 40
0.3769364927780327
 40
0.5001010314361892
 40
0.6250388192667085
 40
0.7499288092932521
 40
0.8748555591109398
 40
0.9374185878446829
 40
1.0
 40
1.0
 40
1.0
 40
1.0
 10
10.05532393029371
 20
7.861579545938029
 30
0.0
 10
10.05436657381718
 20
7.861049189045875
 30
0.0
 10
10.05245205056276
 20
7.859988580350929
 30
0.0
 10
10.04837868313175
 20
7.85811339250466
 30
0.0
 10
10.04282742128585
 20
7.856240605370454
 30
0.0
 10
10.03552626792763
 20
7.855045440467388
 30
0.0
 10
10.02774026950614
 20
7.855170174448921
 30
0.0
 10
10.0199018937469
 20
7.856587194137703
 30
0.0
 10
10.01230758703567
 20
7.859236397638319
 30
0.0
 10
10.00661521106547
 20
7.862422494300617
 30
0.0
 10
10.00249342987297
 20
7.865323549733708
 30
0.0
 10
10.0006264974185
 20
7.866903457930082
 30
0.0
 10
9.999692894067298
 20
7.867693528070652
 30
0.0
  0
SPLINE
  5
26F
330
1F
100
AcDbEntity
  8
0
  6
Continuous
 62
     7
370
     0
100
AcDbSpline
210
0.0
220
0.0
230
1.0
 70
     8
 71
     3
 72
    17
 73
    13
 74
     0
 42
0.000000001
 43
0.00000001
 40
0.0
 40
0.0
 40
0.0
 40
0.0
 40
0.0625735814875146
 40
0.1251438344973334
 40
0.2500878788322731
 40
0.37503766007052
 40
0.4999484912518444
 40
0.6426403265606593
 40
0.7498323494477043
 40
0.8748525257198526
 40
0.9374292607999323
 40
1.0
 40
1.0
 40
1.0
 40
1.0
 10
10.05774480431237
 20
7.901158286213976
 30
0.0
 10
10.05860355504506
 20
7.900372352426243
 30
0.0
 10
10.0603210108309
 20
7.89880052665697
 30
0.0
 10
10.06330488404785
 20
7.895428474845355
 30
0.0
 10
10.06624760800347
 20
7.890910198680151
 30
0.0
 10
10.0682577412068
 20
7.885219243811267
 30
0.0
 10
10.06865077227667
 20
7.879259039710194
 30
0.0
 10
10.06718447421244
 20
7.87388358441724
 30
0.0
 10
10.06426225662715
 20
7.869073984058657
 30
0.0
 10
10.0611481388279
 20
7.865708227715453
 30
0.0
 10
10.05799316416042
 20
7.863207409383665
 30
0.0
 10
10.05621364649675
 20
7.862122149754791
 30
0.0
 10
10.05532393029371
 20
7.861579545938029
 30
0.0
  0
SPLINE
  5
270
330
1F
100
AcDbEntity
  8
0
  6
Continuous
 62
     7
370
     0
100
AcDbSpline
210
0.0
220
0.0
230
1.0
 70
     8
 71
     3
 72
    16
 73
    12
 74
     0
 42
0.000000001
 43
0.00000001
 40
0.0
 40
0.0
 40
0.0
 40
0.0
 40
0.0626649867820444
 40
0.1253199439526375
 40
0.2505126252440243
 40
0.4994724275636187
 40
0.6206389663296069
 40
0.7495739117791882
 40
0.8746967496056817
 40
0.937343830001994
 40
0.9999999999999999
 40
0.9999999999999999
 40
0.9999999999999999
 40
0.9999999999999999
 10
10.00275129934899
 20
7.906828281393237
 30
0.0
 10
10.00369215542296
 20
7.907347433563345
 30
0.0
 10
10.00557371698568
 20
7.90838565481259
 30
0.0
 10
10.00964551731675
 20
7.910176680918657
 30
0.0
 10
10.01732558806625
 20
7.912644913447844
 30
0.0
 10
10.02745842082436
 20
7.913589058242334
 30
0.0
 10
10.03778580576308
 20
7.911839424567918
 30
0.0
 10
10.04519304889013
 20
7.909253709379775
 30
0.0
 10
10.05090875092466
 20
7.906255295291166
 30
0.0
 10
10.05499046389049
 20
7.903471007705251
 30
0.0
 10
10.05682664643901
 20
7.901929230658329
 30
0.0
 10
10.05774480431237
 20
7.901158286213976
 30
0.0
  0
ARC
  5
271
330
1F
100
AcDbEntity
  8
0
  6
Continuous
 62
     7
370
     0
100
AcDbCircle
 10
8.9570143348
 20
6.6739176735
 30
0.0
 40
1.62251199348887
100
AcDbArc
 50
43.2496728415
 51
44.2452569691
  0
LINE
  5
272
330
1F
100
AcDbEntity
  8
0
  6
Continuous
 62
     7
370
     0
100
AcDbLine
 10
10.1453384566
 20
7.7893965824
 30
0.0
 11
10.1388113171
 21
7.785628545
 31
0.0
  0
ARC
  5
273
330
1F
100
AcDbEntity
  8
0
  6
Continuous
 62
     7
370
     0
100
AcDbCircle
 10
8.9635414744
 20
6.677685711
 30
0.0
 40
1.622511993447224
100
AcDbArc
 50
43.2496728415
 51
44.2452569691
  0
LINE
  5
274
330
1F
100
AcDbEntity
  8
0
  6
Continuous
 62
     7
370
     0
100
AcDbLine
 10
10.119316548
 20
7.8059948503
 30
0.0
 11
10.1258436875
 21
7.8097628877
 31
0.0
  0
SPLINE
  5
275
330
1F
100
AcDbEntity
  8
0
  6
Continuous
 62
     7
370
     0
100
AcDbSpline
210
0.0
220
0.0
230
1.0
 70
     8
 71
     3
 72
     8
 73
     4
 74
     0
 42
0.000000001
 43
0.00000001
 40
0.0
 40
0.0
 40
0.0
 40
0.0
 40
1.0
 40
1.0
 40
1.0
 40
1.0
 10
10.23232992660455
 20
7.719384954338843
 30
0.0
 10
10.22619529417405
 20
7.701692857621213
 30
0.0
 10
10.21998538621775
 20
7.683884526599076
 30
0.0
 10
10.21369543066761
 20
7.665965841428539
 30
0.0
  0
ARC
  5
276
330
1F
100
AcDbEntity
  8
0
  6
Continuous
 62
     7
370
     0
100
AcDbCircle
 10
8.8859853856
 20
6.6028984836
 30
0.0
 40
1.749052790030489
100
AcDbArc
 50
39.667983131
 51
40.0475881242
  0
LINE
  5
277
330
1F
100
AcDbEntity
  8
0
  6
Continuous
 62
     7
370
     0
100
AcDbLine
 10
10.1683347678
 20
7.6956240736
 30
0.0
 11
10.2249033103
 21
7.7282803981
 31
0.0
  0
ARC
  5
278
330
1F
100
AcDbEntity
  8
0
  6
Continuous
 62
     7
370
     0
100
AcDbCircle
 10
8.8296445532
 20
6.5704327196
 30
0.0
 40
1.74875586455418
100
AcDbArc
 50
39.6883722035
 51
40.0476090294
  0
LINE
  5
279
330
1F
100
AcDbEntity
  8
0
  6
Continuous
 62
     7
370
     0
100
AcDbLine
 10
10.2175743091
 20
7.7115765554
 30
0.0
 11
10.1753632072
 21
7.6872086049
 31
0.0
  0
SPLINE
  5
27A
330
1F
100
AcDbEntity
  8
0
  6
Continuous
 62
     7
370
     0
100
AcDbSpline
210
0.0
220
0.0
230
1.0
 70
     8
 71
     3
 72
     8
 73
     4
 74
     0
 42
0.000000001
 43
0.00000001
 40
0.0
 40
0.0
 40
0.0
 40
0.0
 40
1.0
 40
1.0
 40
1.0
 40
1.0
 10
10.19894760130988
 20
7.658168814696403
 30
0.0
 10
10.20523488126871
 20
7.676083807811077
 30
0.0
 10
10.21144219265755
 20
7.693888347317303
 30
0.0
 10
10.21757430912081
 20
7.711576555360797
 30
0.0
  0
ARC
  5
27B
330
1F
100
AcDbEntity
  8
0
  6
Continuous
 62
     7
370
     0
100
AcDbCircle
 10
8.7959833872
 20
6.5430804776
 30
0.0
 40
1.792130180939881
100
AcDbArc
 50
38.1044898699
 51
38.4779871746
  0
LINE
  5
27C
330
1F
100
AcDbEntity
  8
0
  6
Continuous
 62
     7
370
     0
100
AcDbLine
 10
10.2627552742
 20
7.6816559278
 30
0.0
 11
10.2061867317
 21
7.6489996034
 31
0.0
  0
ARC
  5
27D
330
1F
100
AcDbEntity
  8
0
  6
Continuous
 62
     7
370
     0
100
AcDbCircle
 10
8.8523483844
 20
6.5755764801
 30
0.0
 40
1.792389282403448
100
AcDbArc
 50
38.104507384
 51
38.4578901745
  0
LINE
  5
27E
330
1F
100
AcDbEntity
  8
0
  6
Continuous
 62
     7
370
     0
100
AcDbLine
 10
10.2136954307
 20
7.6659658414
 30
0.0
 11
10.2559065326
 21
7.6903337919
 31
0.0
  0
ARC
  5
27F
330
1F
100
AcDbEntity
  8
0
  6
Continuous
 62
     7
370
     0
100
AcDbCircle
 10
8.78786607
 20
6.528591375
 30
0.0
 40
1.864693845045071
100
AcDbArc
 50
34.2820263033
 51
35.4397341505
  0
LINE
  5
280
330
1F
100
AcDbEntity
  8
0
  6
Continuous
 62
     7
370
     0
100
AcDbLine
 10
10.2785746336
 20
7.5500233611
 30
0.0
 11
10.3286160366
 21
7.5789116481
 31
0.0
  0
ARC
  5
281
330
1F
100
AcDbEntity
  8
0
  6
Continuous
 62
     7
370
     0
100
AcDbCircle
 10
8.7284139
 20
6.4932531151
 30
0.0
 40
1.876102783071072
100
AcDbArc
 50
33.9401113194
 51
34.2829021292
  0
LINE
  5
282
330
1F
100
AcDbEntity
  8
0
  6
Continuous
 62
     7
370
     0
100
AcDbLine
 10
10.34143787
 20
7.5733864823
 30
0.0
 11
10.2848693275
 21
7.5407301578
 31
0.0
  0
ARC
  5
283
330
1F
100
AcDbEntity
  8
0
  6
Continuous
 62
     7
370
     0
100
AcDbCircle
 10
8.7921997213
 20
6.530823715
 30
0.0
 40
1.867371405219069
100
AcDbArc
 50
33.9386571358
 51
35.4390986018
  0
LINE
  5
284
330
1F
100
AcDbEntity
  8
0
  6
Continuous
 62
     7
370
     0
100
AcDbLine
 10
10.3070803908
 20
7.6098272341
 30
0.0
 11
10.3136075303
 21
7.6135952716
 31
0.0
  0
LWPOLYLINE
  5
285
330
1F
100
AcDbEntity
  8
0
  6
Continuous
 62
     7
370
     0
100
AcDbPolyline
 90
       63
 70
   128
 43
0.0
 10
10.7054516444
 20
6.7349246498
 10
10.7048877639
 20
6.769445087
 10
10.70319694
 20
6.8045665154
 10
10.7003816243
 20
6.8402380123
 10
10.6964458987
 20
6.8764078574
 10
10.6913954696
 20
6.913023608
 10
10.6852376596
 20
6.9500321746
 10
10.6779813971
 20
6.9873798984
 10
10.6696372028
 20
7.0250126288
 10
10.660217175
 20
7.0628758019
 10
10.649734972
 20
7.1009145197
 10
10.6382057919
 20
7.1390736298
 10
10.6256463509
 20
7.177297805
 10
10.6120748589
 20
7.2155316239
 10
10.5975109934
 20
7.2537196512
 10
10.5819758706
 20
7.291806518
 10
10.5654920149
 20
7.3297370017
 10
10.5480833263
 20
7.367456107
 10
10.5297750458
 20
7.4049091447
 10
10.5105937186
 20
7.4420418115
 10
10.4905671558
 20
7.4788002685
 10
10.469724394
 20
7.5151312195
 10
10.4480956532
 20
7.5509819882
 10
10.4257122931
 20
7.5863005942
 10
10.4026067673
 20
7.6210358291
 10
10.3788125767
 20
7.65513733
 10
10.3543642206
 20
7.688555653
 10
10.3292971467
 20
7.7212423448
 10
10.3036476999
 20
7.7531500128
 10
10.2774530694
 20
7.7842323939
 10
10.250751235
 20
7.8144444216
 10
10.2235809118
 20
7.8437422914
 10
10.1959814941
 20
7.8720835241
 10
10.1679929985
 20
7.8994270278
 10
10.1396560056
 20
7.9257331568
 10
10.1110116013
 20
7.9509637699
 10
10.0821013173
 20
7.9750822851
 10
10.0529670707
 20
7.9980537328
 10
10.0236511034
 20
8.0198448067
 10
9.9941959207
 20
8.0404239117
 10
9.9646442299
 20
8.0597612101
 10
9.9350388781
 20
8.0778286647
 10
9.9054227902
 20
8.0946000794
 10
9.8758389067
 20
8.1100511372
 10
9.8463301213
 20
8.1241594357
 10
9.8169392191
 20
8.1369045191
 10
9.7877088141
 20
8.1482679082
 10
9.7586812874
 20
8.1582331273
 10
9.7298987263
 20
8.1667857277
 10
9.7014028626
 20
8.1739133089
 10
9.6732350128
 20
8.1796055367
 10
9.6454360175
 20
8.1838541579
 10
9.6180461825
 20
8.1866530124
 10
9.5911052205
 20
8.187998042
 10
9.5646521934
 20
8.1878872967
 10
9.5387254554
 20
8.186320937
 10
9.5133625979
 20
8.183301234
 10
9.4886003946
 20
8.1788325659
 10
9.4644747484
 20
8.172921412
 10
9.441020639
 20
8.1655763427
 10
9.4182720728
 20
8.1568080078
 10
9.3962620329
 20
8.1466291206
 10
9.3776788821
 20
8.1366028599
  0
LWPOLYLINE
  5
286
330
1F
100
AcDbEntity
  8
0
  6
Continuous
 62
     7
370
     0
100
AcDbPolyline
 90
       22
 70
   128
 43
0.0
 10
10.477589488
 20
6.2312953627
 10
10.4905671558
 20
6.2391493806
 10
10.5105937186
 20
6.2527856604
 10
10.5297750458
 20
6.2677720382
 10
10.5480833263
 20
6.2840867851
 10
10.5654920149
 20
6.3017062464
 10
10.5819758706
 20
6.3206048755
 10
10.5975109934
 20
6.3407552712
 10
10.6120748589
 20
6.3621282174
 10
10.6256463509
 20
6.3846927252
 10
10.6382057919
 20
6.4084160785
 10
10.649734972
 20
6.4332638805
 10
10.660217175
 20
6.4592001043
 10
10.6696372028
 20
6.4861871449
 10
10.6779813971
 20
6.5141858736
 10
10.6852376596
 20
6.543155695
 10
10.6913954696
 20
6.5730546056
 10
10.6964458987
 20
6.6038392548
 10
10.7003816243
 20
6.6354650079
 10
10.70319694
 20
6.6678860104
 10
10.7048877639
 20
6.7010552551
 10
10.7054516444
 20
6.7349246498
  0
ARC
  5
287
330
1F
100
AcDbEntity
  8
0
  6
Continuous
 62
     7
370
     0
100
AcDbCircle
 10
8.7454930873
 20
6.5018129022
 30
0.0
 40
1.89558592272378
100
AcDbArc
 50
32.0478859439
 51
32.6392986752
  0
SPLINE
  5
288
330
1F
100
AcDbEntity
  8
0
  6
Continuous
 62
     7
370
     0
100
AcDbSpline
210
0.0
220
0.0
230
1.0
 70
     8
 71
     3
 72
    15
 73
    11
 74
     0
 42
0.000000001
 43
0.00000001
 40
0.0
 40
0.0
 40
0.0
 40
0.0
 40
0.0626964153114141
 40
0.1253787081573927
 40
0.2505492576971821
 40
0.3756933751300174
 40
0.5006718414742828
 40
0.7492845741562023
 40
0.8746116954167724
 40
1.0
 40
1.0
 40
1.0
 40
1.0
 10
10.30906868367286
 20
7.538224810297539
 30
0.0
 10
10.30971119668294
 20
7.538572181341666
 30
0.0
 10
10.31099607797604
 20
7.539266845184051
 30
0.0
 10
10.31376118764998
 20
7.54031535893263
 30
0.0
 10
10.31750098684189
 20
7.541038333899573
 30
0.0
 10
10.32225663863571
 20
7.540768544711306
 30
0.0
 10
10.3286966709803
 20
7.538996576044502
 30
0.0
 10
10.33427044373677
 20
7.534123332124359
 30
0.0
 10
10.33877172219806
 20
7.528655691441974
 30
0.0
 10
10.34074582995174
 20
7.525681675973305
 30
0.0
 10
10.34173312470422
 20
7.524194305357134
 30
0.0
  0
SPLINE
  5
289
330
1F
100
AcDbEntity
  8
0
  6
Continuous
 62
     7
370
     0
100
AcDbSpline
210
0.0
220
0.0
230
1.0
 70
     8
 71
     3
 72
    14
 73
    10
 74
     0
 42
0.000000001
 43
0.00000001
 40
0.0
 40
0.0
 40
0.0
 40
0.0
 40
0.1251999787232981
 40
0.2503250813998749
 40
0.375444660094503
 40
0.5003442011329188
 40
0.7496501209499585
 40
0.8748058919807999
 40
1.0
 40
1.0
 40
1.0
 40
1.0
 10
10.30330199828913
 20
7.51393805229938
 30
0.0
 10
10.30278503546294
 20
7.515125940791349
 30
0.0
 10
10.301751418981
 20
7.517501007356682
 30
0.0
 10
10.30082330877875
 20
7.521187138212765
 30
0.0
 10
10.30055436637568
 20
7.524847508411868
 30
0.0
 10
10.30129729556009
 20
7.529438603424665
 30
0.0
 10
10.30339119009614
 20
7.533382114797067
 30
0.0
 10
10.3063501604893
 20
7.53649206316935
 30
0.0
 10
10.30816241677254
 20
7.537647168959624
 30
0.0
 10
10.30906868367286
 20
7.538224810297539
 30
0.0
  0
SPLINE
  5
28A
330
1F
100
AcDbEntity
  8
0
  6
Continuous
 62
     7
370
     0
100
AcDbSpline
210
0.0
220
0.0
230
1.0
 70
     8
 71
     3
 72
    10
 73
     6
 74
     0
 42
0.000000001
 43
0.00000001
 40
0.0
 40
0.0
 40
0.0
 40
0.0
 40
0.5000056856159822
 40
0.7500189825075606
 40
1.0
 40
1.0
 40
1.0
 40
1.0
 10
10.30917386315681
 20
7.503682720248483
 30
0.0
 10
10.30812733937377
 20
7.505360111766011
 30
0.0
 10
10.30655753181855
 20
7.507876234113088
 30
0.0
 10
10.30457329690119
 20
7.511290055074993
 30
0.0
 10
10.30372574625399
 20
7.513055424548392
 30
0.0
 10
10.30330199828913
 20
7.51393805229938
 30
0.0
  0
ARC
  5
28B
330
1F
100
AcDbEntity
  8
0
  6
Continuous
 62
     7
370
     0
100
AcDbCircle
 10
8.7108991263
 20
6.481773323
 30
0.0
 40
1.897045321178708
100
AcDbArc
 50
31.707730992
 51
32.5941493452
  0
LINE
  5
28C
330
1F
100
AcDbEntity
  8
0
  6
Continuous
 62
     7
370
     0
100
AcDbLine
 10
10.3813603831
 20
7.5114909582
 30
0.0
 11
10.3247918406
 21
7.4788346337
 31
0.0
  0
ARC
  5
28D
330
1F
100
AcDbEntity
  8
0
  6
Continuous
 62
     7
370
     0
100
AcDbCircle
 10
8.7658042144
 20
6.5133936583
 30
0.0
 40
1.899004990561897
100
AcDbArc
 50
31.7079442587
 51
32.0479734291
  0
LINE
  5
28E
330
1F
100
AcDbEntity
  8
0
  6
Continuous
 62
     7
370
     0
100
AcDbLine
 10
10.3522010242
 20
7.5076635849
 30
0.0
 11
10.3754086314
 21
7.5210610514
 31
0.0
  0
ARC
  5
28F
330
1F
100
AcDbEntity
  8
0
  6
Continuous
 62
     7
370
     0
100
AcDbCircle
 10
8.804505364
 20
6.5421591108
 30
0.0
 40
1.830764129338254
100
AcDbArc
 50
36.128141674
 51
37.1813321017
  0
SPLINE
  5
290
330
1F
100
AcDbEntity
  8
0
  6
Continuous
 62
     7
370
     0
100
AcDbSpline
210
0.0
220
0.0
230
1.0
 70
     8
 71
     3
 72
     8
 73
     4
 74
     0
 42
0.000000001
 43
0.00000001
 40
0.0
 40
0.0
 40
0.0
 40
0.0
 40
1.0
 40
1.0
 40
1.0
 40
1.0
 10
10.2750986113084
 20
7.665734050467426
 30
0.0
 10
10.27111193623157
 20
7.66001604759057
 30
0.0
 10
10.26712052894366
 20
7.654292103601742
 30
0.0
 10
10.26312432745705
 20
7.648562299801586
 30
0.0
  0
ARC
  5
291
330
1F
100
AcDbEntity
  8
0
  6
Continuous
 62
     7
370
     0
100
AcDbCircle
 10
8.8399758428
 20
6.5659203082
 30
0.0
 40
1.808083966035266
100
AcDbArc
 50
37.4649370768
 51
37.8377312359
  0
SPLINE
  5
292
330
1F
100
AcDbEntity
  8
0
  6
Continuous
 62
     7
370
     0
100
AcDbSpline
210
0.0
220
0.0
230
1.0
 70
     8
 71
     3
 72
     8
 73
     4
 74
     0
 42
0.000000001
 43
0.00000001
 40
0.0
 40
0.0
 40
0.0
 40
0.0
 40
1.0
 40
1.0
 40
1.0
 40
1.0
 10
10.23030283604968
 20
7.617543953958167
 30
0.0
 10
10.2428977264579
 20
7.636783409625073
 30
0.0
 10
10.25543335696771
 20
7.655952679383901
 30
0.0
 10
10.26791236223158
 20
7.675048310211186
 30
0.0
  0
ARC
  5
293
330
1F
100
AcDbEntity
  8
0
  6
Continuous
 62
     7
370
     0
100
AcDbCircle
 10
8.7652750403
 20
6.5195192697
 30
0.0
 40
1.83083714443906
100
AcDbArc
 50
36.4582569671
 51
36.8512168086
  0
SPLINE
  5
294
330
1F
100
AcDbEntity
  8
0
  6
Continuous
 62
     7
370
     0
100
AcDbSpline
210
0.0
220
0.0
230
1.0
 70
     8
 71
     3
 72
     8
 73
     4
 74
     0
 42
0.000000001
 43
0.00000001
 40
0.0
 40
0.0
 40
0.0
 40
0.0
 40
1.0
 40
1.0
 40
1.0
 40
1.0
 10
10.31282432137007
 20
7.614694848685595
 30
0.0
 10
10.28787791288494
 20
7.612353128288217
 30
0.0
 10
10.26286863773081
 20
7.609946156290734
 30
0.0
 10
10.23779906075794
 20
7.60747039853561
 30
0.0
  0
ARC
  5
295
330
1F
100
AcDbEntity
  8
0
  6
Continuous
 62
     7
370
     0
100
AcDbCircle
 10
8.8057935462
 20
6.5404413399
 30
0.0
 40
1.850719416457718
100
AcDbArc
 50
35.482329626
 51
35.8493761279
  0
SPLINE
  5
296
330
1F
100
AcDbEntity
  8
0
  6
Continuous
 62
     7
370
     0
100
AcDbSpline
210
0.0
220
0.0
230
1.0
 70
     8
 71
     3
 72
     8
 73
     4
 74
     0
 42
0.000000001
 43
0.00000001
 40
0.0
 40
0.0
 40
0.0
 40
0.0
 40
1.0
 40
1.0
 40
1.0
 40
1.0
 10
10.28321427239746
 20
7.621565086981862
 30
0.0
 10
10.29078509002945
 20
7.622491260253816
 30
0.0
 10
10.29835088417934
 20
7.623411881829419
 30
0.0
 10
10.30591159445508
 20
7.624327034863907
 30
0.0
  0
SPLINE
  5
297
330
1F
100
AcDbEntity
  8
0
  6
Continuous
 62
     7
370
     0
100
AcDbSpline
210
0.0
220
0.0
230
1.0
 70
     8
 71
     3
 72
    15
 73
    11
 74
     0
 42
0.000000001
 43
0.00000001
 40
0.0
 40
0.0
 40
0.0
 40
0.0
 40
0.0626761947927352
 40
0.1253392690170733
 40
0.2504957453420725
 40
0.4992172028460882
 40
0.6369416197773705
 40
0.7852085601041345
 40
0.8925889660601148
 40
0.9999999999999999
 40
0.9999999999999999
 40
0.9999999999999999
 40
0.9999999999999999
 10
10.13450327126165
 20
7.733441740535746
 30
0.0
 10
10.13368503704708
 20
7.734392569842499
 30
0.0
 10
10.13204873990623
 20
7.736294029410403
 30
0.0
 10
10.12924804878714
 20
7.740307818024762
 30
0.0
 10
10.12543033191551
 20
7.747620415352409
 30
0.0
 10
10.12407904595482
 20
7.756646725787322
 30
0.0
 10
10.12659996956136
 20
7.764879522405725
 30
0.0
 10
10.13019826435034
 20
7.770079459091006
 30
0.0
 10
10.13454126688808
 20
7.774144914979774
 30
0.0
 10
10.13762359458221
 20
7.776079630592726
 30
0.0
 10
10.13916497819008
 20
7.77704712633868
 30
0.0
  0
SPLINE
  5
298
330
1F
100
AcDbEntity
  8
0
  6
Continuous
 62
     7
370
     0
100
AcDbSpline
210
0.0
220
0.0
230
1.0
 70
     8
 71
     3
 72
    17
 73
    13
 74
     0
 42
0.000000001
 43
0.00000001
 40
0.0
 40
0.0
 40
0.0
 40
0.0
 40
0.0625872523498932
 40
0.1251621031372396
 40
0.2502151565809116
 40
0.3769364927848608
 40
0.5001010314363462
 40
0.6250388192668258
 40
0.7499288092933294
 40
0.8748555591109747
 40
0.937418587844702
 40
1.0
 40
1.0
 40
1.0
 40
1.0
 10
10.18836630541833
 20
7.723005757316973
 30
0.0
 10
10.18741001727264
 20
7.722477851426613
 30
0.0
 10
10.18549763046821
 20
7.721422144249591
 30
0.0
 10
10.18144705822897
 20
7.719599297807277
 30
0.0
 10
10.17595948316615
 20
7.717872974343797
 30
0.0
 10
10.16880217068351
 20
7.717010962893458
 30
0.0
 10
10.16123471918863
 20
7.717648299595849
 30
0.0
 10
10.15367476733247
 20
7.719729971743631
 30
0.0
 10
10.14640608476088
 20
7.723173636447927
 30
0.0
 10
10.14100907628347
 20
7.727099241479105
 30
0.0
 10
10.1371256288052
 20
7.730608851404004
 30
0.0
 10
10.13537747604267
 20
7.732497351686429
 30
0.0
 10
10.13450327126165
 20
7.733441740535746
 30
0.0
  0
SPLINE
  5
299
330
1F
100
AcDbEntity
  8
0
  6
Continuous
 62
     7
370
     0
100
AcDbSpline
210
0.0
220
0.0
230
1.0
 70
     8
 71
     3
 72
    17
 73
    13
 74
     0
 42
0.000000001
 43
0.00000001
 40
0.0
 40
0.0
 40
0.0
 40
0.0
 40
0.0625735814875208
 40
0.1251438344973367
 40
0.2500878788322739
 40
0.3750376600705235
 40
0.4999484912518491
 40
0.6426403265606639
 40
0.7498323494477063
 40
0.8748525257198544
 40
0.9374292607999334
 40
1.0
 40
1.0
 40
1.0
 40
1.0
 10
10.19255304567315
 20
7.76690092778779
 30
0.0
 10
10.19335451337838
 20
7.765966174192202
 30
0.0
 10
10.19495740615635
 20
7.764096716723388
 30
0.0
 10
10.19771141025537
 20
7.760137389576274
 30
0.0
 10
10.2003706245358
 20
7.754908339649166
 30
0.0
 10
10.20206395542978
 20
7.748442687449237
 30
0.0
 10
10.20216748338778
 20
7.741789621537436
 30
0.0
 10
10.20048703168798
 20
7.735911389143165
 30
0.0
 10
10.1974162398569
 20
7.730756943831077
 30
0.0
 10
10.1942271926621
 20
7.727218662841126
 30
0.0
 10
10.1910397024293
 20
7.724643171134207
 30
0.0
 10
10.18925740929179
 20
7.723551544489253
 30
0.0
 10
10.18836630541833
 20
7.723005757316973
 30
0.0
  0
SPLINE
  5
29A
330
1F
100
AcDbEntity
  8
0
  6
Continuous
 62
     7
370
     0
100
AcDbSpline
210
0.0
220
0.0
230
1.0
 70
     8
 71
     3
 72
    16
 73
    12
 74
     0
 42
0.000000001
 43
0.00000001
 40
0.0
 40
0.0
 40
0.0
 40
0.0
 40
0.0626649867820449
 40
0.1253199439526394
 40
0.250512625244028
 40
0.4994724275636237
 40
0.6206389663295885
 40
0.7495739117791935
 40
0.874696749605685
 40
0.9373438300019991
 40
1.0
 40
1.0
 40
1.0
 40
1.0
 10
10.13916497819008
 20
7.77704712633868
 30
0.0
 10
10.14010484630773
 20
7.777563326664287
 30
0.0
 10
10.14198443211592
 20
7.778595644696978
 30
0.0
 10
10.14603317940962
 20
7.78031784694176
 30
0.0
 10
10.15363213738811
 20
7.782544634944092
 30
0.0
 10
10.16356147300307
 20
7.782888214488483
 30
0.0
 10
10.17356276519285
 20
7.780206644246719
 30
0.0
 10
10.18067577506063
 20
7.776799686848301
 30
0.0
 10
10.18611712710218
 20
7.77305595592315
 30
0.0
 10
10.189972357265
 20
7.769668341069321
 30
0.0
 10
10.1916927746036
 20
7.767823443491768
 30
0.0
 10
10.19255304567315
 20
7.76690092778779
 30
0.0
  0
SPLINE
  5
29B
330
1F
100
AcDbEntity
  8
0
  6
Continuous
 62
     7
370
     0
100
AcDbSpline
210
0.0
220
0.0
230
1.0
 70
     8
 71
     3
 72
    15
 73
    11
 74
     0
 42
0.000000001
 43
0.00000001
 40
0.0
 40
0.0
 40
0.0
 40
0.0
 40
0.0627077247449522
 40
0.1254112927258594
 40
0.2505229930352332
 40
0.4986822572927371
 40
0.6238561955984416
 40
0.7492159321906074
 40
0.8746049824225619
 40
1.0
 40
1.0
 40
1.0
 40
1.0
 10
10.06151144070407
 20
7.820310985640545
 30
0.0
 10
10.0621571924741
 20
7.819705498755467
 30
0.0
 10
10.06344865320862
 20
7.818494565121773
 30
0.0
 10
10.0663203565833
 20
7.816270599171829
 30
0.0
 10
10.07192646774389
 20
7.812938149485323
 30
0.0
 10
10.07956616794316
 20
7.811099688535005
 30
0.0
 10
10.08661322675256
 20
7.811540340003822
 30
0.0
 10
10.09147778931253
 20
7.812776107914861
 30
0.0
 10
10.09610649090372
 20
7.814362490982027
 30
0.0
 10
10.09884942631395
 20
7.815828752039944
 30
0.0
 10
10.1002209266528
 20
7.816561900013565
 30
0.0
  0
SPLINE
  5
29C
330
1F
100
AcDbEntity
  8
0
  6
Continuous
 62
     7
370
     0
100
AcDbSpline
210
0.0
220
0.0
230
1.0
 70
     8
 71
     3
 72
    13
 73
     9
 74
     0
 42
0.000000001
 43
0.00000001
 40
0.0
 40
0.0
 40
0.0
 40
0.0
 40
0.1432749372462751
 40
0.250727339926159
 40
0.5002687912373504
 40
0.7494047175484826
 40
0.8746601628232935
 40
1.0
 40
1.0
 40
1.0
 40
1.0
 10
10.05965182978175
 20
7.839978571915495
 30
0.0
 10
10.05903554393718
 20
7.839185611451757
 30
0.0
 10
10.0579570600557
 20
7.83779795167287
 30
0.0
 10
10.05633734014934
 20
7.834768837690909
 30
0.0
 10
10.05533643616858
 20
7.830643105240163
 30
0.0
 10
10.05688196545141
 20
7.82604847529276
 30
0.0
 10
10.05923288911193
 20
7.822654405568348
 30
0.0
 10
10.06075175300626
 20
7.821092300970908
 30
0.0
 10
10.06151144070407
 20
7.820310985640545
 30
0.0
  0
SPLINE
  5
29D
330
1F
100
AcDbEntity
  8
0
  6
Continuous
 62
     7
370
     0
100
AcDbSpline
210
0.0
220
0.0
230
1.0
 70
     8
 71
     3
 72
     8
 73
     4
 74
     0
 42
0.000000001
 43
0.00000001
 40
0.0
 40
0.0
 40
0.0
 40
0.0
 40
1.0
 40
1.0
 40
1.0
 40
1.0
 10
10.05033443723977
 20
7.84615951598431
 30
0.0
 10
10.05344432441687
 20
7.844111862955424
 30
0.0
 10
10.05655016638289
 20
7.842051506370819
 30
0.0
 10
10.05965182978175
 20
7.839978571915495
 30
0.0
  0
SPLINE
  5
29E
330
1F
100
AcDbEntity
  8
0
  6
Continuous
 62
     7
370
     0
100
AcDbSpline
210
0.0
220
0.0
230
1.0
 70
     8
 71
     3
 72
    14
 73
    10
 74
     0
 42
0.000000001
 43
0.00000001
 40
0.0
 40
0.0
 40
0.0
 40
0.0
 40
0.0716530045517852
 40
0.1432915146744452
 40
0.2864108891677091
 40
0.5709536820728863
 40
0.7851429384798606
 40
0.8925549501623598
 40
1.0
 40
1.0
 40
1.0
 40
1.0
 10
10.05461973816624
 20
7.816897341687094
 30
0.0
 10
10.053966416533
 20
7.817552228797764
 30
0.0
 10
10.0526599054246
 20
7.818861870544343
 30
0.0
 10
10.05032639553922
 20
7.821610370648588
 30
0.0
 10
10.046887561679
 20
7.826632617617198
 30
0.0
 10
10.04492135217213
 20
7.833631222685303
 30
0.0
 10
10.0461782753876
 20
7.839710068095017
 30
0.0
 10
10.04822627778256
 20
7.843558620576255
 30
0.0
 10
10.04963164538715
 20
7.845292461978477
 30
0.0
 10
10.05033443723977
 20
7.84615951598431
 30
0.0
  0
SPLINE
  5
29F
330
1F
100
AcDbEntity
  8
0
  6
Continuous
 62
     7
370
     0
100
AcDbSpline
210
0.0
220
0.0
230
1.0
 70
     8
 71
     3
 72
    16
 73
    12
 74
     0
 42
0.000000001
 43
0.00000001
 40
0.0
 40
0.0
 40
0.0
 40
0.0
 40
0.0626673372254029
 40
0.1253236135994949
 40
0.2505320761323513
 40
0.4994286266899067
 40
0.6209451481879843
 40
0.7495714564988013
 40
0.8746959905395466
 40
0.9373444465983398
 40
1.0
 40
1.0
 40
1.0
 40
1.0
 10
10.10772790484707
 20
7.809043148748422
 30
0.0
 10
10.10680376197136
 20
7.808534773117549
 30
0.0
 10
10.10495563933212
 20
7.807518111584643
 30
0.0
 10
10.10101349625183
 20
7.805755988692711
 30
0.0
 10
10.09359073301976
 20
7.803405877353922
 30
0.0
 10
10.08379843834433
 20
7.80278929019985
 30
0.0
 10
10.07381835651573
 20
7.805034406517243
 30
0.0
 10
10.06666755742415
 20
7.808042835739269
 30
0.0
 10
10.06117924036388
 20
7.811393588610872
 30
0.0
 10
10.05727028124117
 20
7.814430623747413
 30
0.0
 10
10.055503285886
 20
7.816075071326154
 30
0.0
 10
10.05461973816624
 20
7.816897341687094
 30
0.0
  0
SPLINE
  5
2A0
330
1F
100
AcDbEntity
  8
0
  6
Continuous
 62
     7
370
     0
100
AcDbSpline
210
0.0
220
0.0
230
1.0
 70
     8
 71
     3
 72
    16
 73
    12
 74
     0
 42
0.000000001
 43
0.00000001
 40
0.0
 40
0.0
 40
0.0
 40
0.0
 40
0.0626596732655869
 40
0.1253066935863622
 40
0.2504130650862176
 40
0.3753509260122125
 40
0.5003167170701773
 40
0.7494642842602041
 40
0.874687424944292
 40
0.9373399599321073
 40
1.0
 40
1.0
 40
1.0
 40
1.0
 10
10.11248862398765
 20
7.850536884284083
 30
0.0
 10
10.11335480505515
 20
7.849670479608626
 30
0.0
 10
10.11508699228113
 20
7.84793784521187
 30
0.0
 10
10.1181629054241
 20
7.844273954599726
 30
0.0
 10
10.12136522182538
 20
7.83940730719494
 30
0.0
 10
10.12326678442871
 20
7.833203194411464
 30
0.0
 10
10.12297404732882
 20
7.825145436458582
 30
0.0
 10
10.1189425975811
 20
7.818141407869546
 30
0.0
 10
10.11381335993651
 20
7.813220479423566
 30
0.0
 10
10.11048094049615
 20
7.810698633657545
 30
0.0
 10
10.10864562003641
 20
7.809594999084011
 30
0.0
 10
10.10772790484707
 20
7.809043148748422
 30
0.0
  0
SPLINE
  5
2A1
330
1F
100
AcDbEntity
  8
0
  6
Continuous
 62
     7
370
     0
100
AcDbSpline
210
0.0
220
0.0
230
1.0
 70
     8
 71
     3
 72
    14
 73
    10
 74
     0
 42
0.000000001
 43
0.00000001
 40
0.0
 40
0.0
 40
0.0
 40
0.0
 40
0.071672446280165
 40
0.1433330938213287
 40
0.2865135066059604
 40
0.5710080364222969
 40
0.7850962256137359
 40
0.892535406514593
 40
1.0
 40
1.0
 40
1.0
 40
1.0
 10
10.07169184703305
 20
7.860584012761104
 30
0.0
 10
10.07262879525404
 20
7.860836777151093
 30
0.0
 10
10.07450253745533
 20
7.861342264320921
 30
0.0
 10
10.0784261827287
 20
7.862055509217691
 30
0.0
 10
10.08553829890262
 20
7.862727122842815
 30
0.0
 10
10.09543847686302
 20
7.861301550859211
 30
0.0
 10
10.10388485319779
 20
7.857314378260551
 30
0.0
 10
10.10908243105184
 20
7.853661487947931
 30
0.0
 10
10.11135313683797
 20
7.851578500943792
 30
0.0
 10
10.11248862398765
 20
7.850536884284083
 30
0.0
  0
SPLINE
  5
2A2
330
1F
100
AcDbEntity
  8
0
  6
Continuous
 62
     7
370
     0
100
AcDbSpline
210
0.0
220
0.0
230
1.0
 70
     8
 71
     3
 72
     8
 73
     4
 74
     0
 42
0.000000001
 43
0.00000001
 40
0.0
 40
0.0
 40
0.0
 40
0.0
 40
1.0
 40
1.0
 40
1.0
 40
1.0
 10
10.07744418262002
 20
7.852356225543314
 30
0.0
 10
10.07553084729892
 20
7.855111463918414
 30
0.0
 10
10.07361335762509
 20
7.857854101472014
 30
0.0
 10
10.07169184703305
 20
7.860584012761104
 30
0.0
  0
SPLINE
  5
2A3
330
1F
100
AcDbEntity
  8
0
  6
Continuous
 62
     7
370
     0
100
AcDbSpline
210
0.0
220
0.0
230
1.0
 70
     8
 71
     3
 72
    14
 73
    10
 74
     0
 42
0.000000001
 43
0.00000001
 40
0.0
 40
0.0
 40
0.0
 40
0.0
 40
0.1144070908855216
 40
0.2002230675503798
 40
0.3997605577183839
 40
0.5482287445117766
 40
0.6997074444437035
 40
0.8498328043129458
 40
1.0
 40
1.0
 40
1.0
 40
1.0
 10
10.1066691585535
 20
7.846080886827447
 30
0.0
 10
10.10579406284325
 20
7.84687617484692
 30
0.0
 10
10.10426256382384
 20
7.848268002972365
 30
0.0
 10
10.10075190982363
 20
7.850692107615091
 30
0.0
 10
10.09637621365892
 20
7.852716445082106
 30
0.0
 10
10.09101543053597
 20
7.853944282610078
 30
0.0
 10
10.08621225166759
 20
7.854128201066298
 30
0.0
 10
10.08162950154095
 20
7.853567387959234
 30
0.0
 10
10.07883941849554
 20
7.852759983843625
 30
0.0
 10
10.07744418262002
 20
7.852356225543314
 30
0.0
  0
SPLINE
  5
2A4
330
1F
100
AcDbEntity
  8
0
  6
Continuous
 62
     7
370
     0
100
AcDbSpline
210
0.0
220
0.0
230
1.0
 70
     8
 71
     3
 72
    15
 73
    11
 74
     0
 42
0.000000001
 43
0.00000001
 40
0.0
 40
0.0
 40
0.0
 40
0.0
 40
0.1252899332557447
 40
0.2505321937203277
 40
0.499887551255905
 40
0.6248075308142761
 40
0.7497334520959974
 40
0.8747525524942669
 40
0.9373611783787394
 40
1.0
 40
1.0
 40
1.0
 40
1.0
 10
10.1002209266528
 20
7.816561900013565
 30
0.0
 10
10.10155393218978
 20
7.817375173984252
 30
0.0
 10
10.10421943605543
 20
7.819001412475065
 30
0.0
 10
10.10882151315886
 20
7.822855544269047
 30
0.0
 10
10.11248448038486
 20
7.827528242068771
 30
0.0
 10
10.11343038199208
 20
7.833247241580813
 30
0.0
 10
10.11243070815557
 20
7.837756068677219
 30
0.0
 10
10.11059331466492
 20
7.841413714190846
 30
0.0
 10
10.10853609783584
 20
7.84416689546215
 30
0.0
 10
10.10729157166132
 20
7.845442787171349
 30
0.0
 10
10.1066691585535
 20
7.846080886827447
 30
0.0
  0
SPLINE
  5
2A5
330
1F
100
AcDbEntity
  8
0
  6
Continuous
 62
     7
370
     0
100
AcDbSpline
210
0.0
220
0.0
230
1.0
 70
     8
 71
     3
 72
     8
 73
     4
 74
     0
 42
0.000000001
 43
0.00000001
 40
0.0
 40
0.0
 40
0.0
 40
0.0
 40
1.0
 40
1.0
 40
1.0
 40
1.0
 10
9.98654485052328
 20
7.958697303095917
 30
0.0
 10
9.981390236253564
 20
7.943736393978205
 30
0.0
 10
9.976210099059408
 20
7.928610808094208
 30
0.0
 10
9.97099904170116
 20
7.913324796911209
 30
0.0
  0
ARC
  5
2A6
330
1F
100
AcDbEntity
  8
0
  6
Continuous
 62
     7
370
     0
100
AcDbCircle
 10
9.2033737739
 20
6.9376144241
 30
0.0
 40
1.286843883666164
100
AcDbArc
 50
52.5117759066
 51
52.9775588384
  0
LINE
  5
2A7
330
1F
100
AcDbEntity
  8
0
  6
Continuous
 62
     7
370
     0
100
AcDbLine
 10
9.9216496827
 20
7.9323739149
 30
0.0
 11
9.9782182252
 21
7.9650302393
 31
0.0
  0
ARC
  5
2A8
330
1F
100
AcDbEntity
  8
0
  6
Continuous
 62
     7
370
     0
100
AcDbCircle
 10
9.147084684
 20
6.905326619
 30
0.0
 40
1.286381391749691
100
AcDbArc
 50
52.5367666396
 51
52.9776131371
  0
LINE
  5
2A9
330
1F
100
AcDbEntity
  8
0
  6
Continuous
 62
     7
370
     0
100
AcDbLine
 10
9.97174011
 20
7.9507518474
 30
0.0
 11
9.9295290081
 21
7.9263838969
 31
0.0
  0
SPLINE
  5
2AA
330
1F
100
AcDbEntity
  8
0
  6
Continuous
 62
     7
370
     0
100
AcDbSpline
210
0.0
220
0.0
230
1.0
 70
     8
 71
     3
 72
     8
 73
     4
 74
     0
 42
0.000000001
 43
0.00000001
 40
0.0
 40
0.0
 40
0.0
 40
0.0
 40
1.0
 40
1.0
 40
1.0
 40
1.0
 10
9.956197128228776
 20
7.905395654239354
 30
0.0
 10
9.961407153069533
 20
7.920676299360461
 30
0.0
 10
9.966586347717895
 20
7.935796446465903
 30
0.0
 10
9.97174010998573
 20
7.95075184739027
 30
0.0
  0
ARC
  5
2AB
330
1F
100
AcDbEntity
  8
0
  6
Continuous
 62
     7
370
     0
100
AcDbCircle
 10
9.1027771204
 20
6.8490290368
 30
0.0
 40
1.358026560963498
100
AcDbArc
 50
50.6165043918
 51
51.0658652584
  0
LINE
  5
2AC
330
1F
100
AcDbEntity
  8
0
  6
Continuous
 62
     7
370
     0
100
AcDbLine
 10
10.0210242393
 20
7.9313263338
 30
0.0
 11
9.9644556968
 21
7.8986700093
 31
0.0
  0
ARC
  5
2AD
330
1F
100
AcDbEntity
  8
0
  6
Continuous
 62
     7
370
     0
100
AcDbCircle
 10
9.1590569447
 20
6.8813318327
 30
0.0
 40
1.358483002908048
100
AcDbArc
 50
50.6165533844
 51
51.0416598454
  0
LINE
  5
2AE
330
1F
100
AcDbEntity
  8
0
  6
Continuous
 62
     7
370
     0
100
AcDbLine
 10
9.9709990417
 20
7.9133247969
 30
0.0
 11
10.0132101436
 21
7.9376927474
 31
0.0
  0
ARC
  5
2AF
330
1F
100
AcDbEntity
  8
0
  6
Continuous
 62
     7
370
     0
100
AcDbCircle
 10
9.3063472011
 20
7.0926218026
 30
0.0
 40
1.093902583331268
100
AcDbArc
 50
57.2032159701
 51
59.2571154489
  0
LINE
  5
2B0
330
1F
100
AcDbEntity
  8
0
  6
Continuous
 62
     7
370
     0
100
AcDbLine
 10
9.8792901815
 20
8.0008489287
 30
0.0
 11
9.8988716001
 21
8.0121530411
 31
0.0
  0
ARC
  5
2B1
330
1F
100
AcDbEntity
  8
0
  6
Continuous
 62
     7
370
     0
100
AcDbCircle
 10
9.2847988194
 20
7.0781879001
 30
0.0
 40
1.097598903746019
100
AcDbArc
 50
57.2054012099
 51
59.0319390907
  0
LINE
  5
2B2
330
1F
100
AcDbEntity
  8
0
  6
Continuous
 62
     7
370
     0
100
AcDbLine
 10
9.8430523623
 20
8.0155607311
 30
0.0
 11
9.8495795018
 21
8.0193287685
 31
0.0
  0
ARC
  5
2B3
330
1F
100
AcDbEntity
  8
0
  6
Continuous
 62
     7
370
     0
100
AcDbCircle
 10
9.2782716798
 20
7.0744198626
 30
0.0
 40
1.097598903748212
100
AcDbArc
 50
57.2054012099
 51
59.0319390907
  0
LINE
  5
2B4
330
1F
100
AcDbEntity
  8
0
  6
Continuous
 62
     7
370
     0
100
AcDbLine
 10
9.8553573366
 20
7.9870327915
 30
0.0
 11
9.872763042
 21
7.9970808913
 31
0.0
  0
ARC
  5
2B5
330
1F
100
AcDbEntity
  8
0
  6
Continuous
 62
     7
370
     0
100
AcDbCircle
 10
9.2620467255
 20
7.0662494744
 30
0.0
 40
1.095380937522784
100
AcDbArc
 50
57.204121641
 51
59.1669533686
  0
LINE
  5
2B6
330
1F
100
AcDbEntity
  8
0
  6
Continuous
 62
     7
370
     0
100
AcDbLine
 10
9.8169441646
 20
8.0030460763
 30
0.0
 11
9.8234713041
 21
8.0068141138
 31
0.0
  0
ARC
  5
2B7
330
1F
100
AcDbEntity
  8
0
  6
Continuous
 62
     7
370
     0
100
AcDbCircle
 10
9.2512939909
 20
7.0556043641
 30
0.0
 40
1.103451819070046
100
AcDbArc
 50
56.7200164413
 51
59.1615737359
  0
LINE
  5
2B8
330
1F
100
AcDbEntity
  8
0
  6
Continuous
 62
     7
370
     0
100
AcDbLine
 10
9.9133605249
 20
8.0107454306
 30
0.0
 11
9.8567919824
 21
7.9780891061
 31
0.0
  0
ARC
  5
2B9
330
1F
100
AcDbEntity
  8
0
  6
Continuous
 62
     7
370
     0
100
AcDbCircle
 10
9.308657922
 20
7.0895116157
 30
0.0
 40
1.101969591090995
100
AcDbArc
 50
56.7188997156
 51
59.2515089162
  0
LINE
  5
2BA
330
1F
100
AcDbEntity
  8
0
  6
Continuous
 62
     7
370
     0
100
AcDbLine
 10
9.8655352745
 20
8.032798148
 30
0.0
 11
9.872062414
 21
8.0365661854
 31
0.0
  0
ARC
  5
2BB
330
1F
100
AcDbEntity
  8
0
  6
Continuous
 62
     7
370
     0
100
AcDbCircle
 10
9.3817437238
 20
7.2699764719
 30
0.0
 40
0.8740666356332896
100
AcDbArc
 50
65.4427280196
 51
65.9612635869
  0
LINE
  5
2BC
330
1F
100
AcDbEntity
  8
0
  6
Continuous
 62
     7
370
     0
100
AcDbLine
 10
9.7312712802
 20
8.0644675008
 30
0.0
 11
9.7377984197
 21
8.0682355383
 31
0.0
  0
ARC
  5
2BD
330
1F
100
AcDbEntity
  8
0
  6
Continuous
 62
     7
370
     0
100
AcDbCircle
 10
9.3752165843
 20
7.2662084345
 30
0.0
 40
0.874066635601638
100
AcDbArc
 50
65.4427280196
 51
65.9612635869
  0
LINE
  5
2BE
330
1F
100
AcDbEntity
  8
0
  6
Continuous
 62
     7
370
     0
100
AcDbLine
 10
9.7349794285
 20
8.0591911097
 30
0.0
 11
9.7384809669
 21
8.0612125048
 31
0.0
  0
SPLINE
  5
2BF
330
1F
100
AcDbEntity
  8
0
  6
Continuous
 62
     7
370
     0
100
AcDbSpline
210
0.0
220
0.0
230
1.0
 70
     8
 71
     3
 72
    11
 73
     7
 74
     0
 42
0.000000001
 43
0.00000001
 40
0.0
 40
0.0
 40
0.0
 40
0.0
 40
0.2514051028349947
 40
0.4995925313081137
 40
0.7484766751810074
 40
1.0
 40
1.0
 40
1.0
 40
1.0
 10
9.723352106715216
 20
8.058350042569314
 30
0.0
 10
9.7241781675053
 20
8.058008442814476
 30
0.0
 10
9.72581971652908
 20
8.05732961535915
 30
0.0
 10
9.729209907965382
 20
8.05685810116295
 30
0.0
 10
9.732512449386235
 20
8.057841679454828
 30
0.0
 10
9.734154215899107
 20
8.058739720832603
 30
0.0
 10
9.734979428546257
 20
8.059191109685278
 30
0.0
  0
SPLINE
  5
2C0
330
1F
100
AcDbEntity
  8
0
  6
Continuous
 62
     7
370
     0
100
AcDbSpline
210
0.0
220
0.0
230
1.0
 70
     8
 71
     3
 72
     9
 73
     5
 74
     0
 42
0.000000001
 43
0.00000001
 40
0.0
 40
0.0
 40
0.0
 40
0.0
 40
0.5000055301934816
 40
1.0
 40
1.0
 40
1.0
 40
1.0
 10
9.719684190531733
 20
8.060354007008529
 30
0.0
 10
9.720249115596452
 20
8.05999877052154
 30
0.0
 10
9.721378953229452
 20
8.059288305405586
 30
0.0
 10
9.722694393736388
 20
8.058662794541942
 30
0.0
 10
9.723352106715216
 20
8.058350042569314
 30
0.0
  0
LINE
  5
2C1
330
1F
100
AcDbEntity
  8
0
  6
Continuous
 62
     7
370
     0
100
AcDbLine
 10
9.7124842041
 20
8.0572408473
 30
0.0
 11
9.7196841905
 21
8.060354007
 31
0.0
  0
SPLINE
  5
2C2
330
1F
100
AcDbEntity
  8
0
  6
Continuous
 62
     7
370
     0
100
AcDbSpline
210
0.0
220
0.0
230
1.0
 70
     8
 71
     3
 72
     9
 73
     5
 74
     0
 42
0.000000001
 43
0.00000001
 40
0.0
 40
0.0
 40
0.0
 40
0.0
 40
0.4999614776740859
 40
0.9999999999999999
 40
0.9999999999999999
 40
0.9999999999999999
 40
0.9999999999999999
 10
9.718153987601232
 20
8.053984858987773
 30
0.0
 10
9.717121729059432
 20
8.054490130896454
 30
0.0
 10
9.715057052903575
 20
8.05550075257681
 30
0.0
 10
9.713341864399187
 20
8.056660785929846
 30
0.0
 10
9.712484204073942
 20
8.05724084729355
 30
0.0
  0
SPLINE
  5
2C3
330
1F
100
AcDbEntity
  8
0
  6
Continuous
 62
     7
370
     0
100
AcDbSpline
210
0.0
220
0.0
230
1.0
 70
     8
 71
     3
 72
    12
 73
     8
 74
     0
 42
0.000000001
 43
0.00000001
 40
0.0
 40
0.0
 40
0.0
 40
0.0
 40
0.125202007048101
 40
0.2502889761809622
 40
0.4998446615956921
 40
0.7496271040880764
 40
1.0
 40
1.0
 40
1.0
 40
1.0
 10
9.734811243423598
 20
8.052392426451451
 30
0.0
 10
9.734081124456349
 20
8.052212976683775
 30
0.0
 10
9.732621557368631
 20
8.051854242030178
 30
0.0
 10
9.729520197700829
 20
8.051541284915078
 30
0.0
 10
9.72564283709846
 20
8.051642039533956
 30
0.0
 10
9.721542618331323
 20
8.052579695827648
 30
0.0
 10
9.719284419809213
 20
8.053516102779088
 30
0.0
 10
9.718153987601234
 20
8.053984858987773
 30
0.0
  0
SPLINE
  5
2C4
330
1F
100
AcDbEntity
  8
0
  6
Continuous
 62
     7
370
     0
100
AcDbSpline
210
0.0
220
0.0
230
1.0
 70
     8
 71
     3
 72
    10
 73
     6
 74
     0
 42
0.000000001
 43
0.00000001
 40
0.0
 40
0.0
 40
0.0
 40
0.0
 40
0.5000183278221614
 40
0.7500559199693904
 40
1.0
 40
1.0
 40
1.0
 40
1.0
 10
9.741493551759332
 20
8.055448814023915
 30
0.0
 10
9.740471642934562
 20
8.054883246503158
 30
0.0
 10
9.738938721597403
 20
8.054034863067026
 30
0.0
 10
9.736700801324647
 20
8.053001373724245
 30
0.0
 10
9.7354410175177
 20
8.052595383564789
 30
0.0
 10
9.734811243423598
 20
8.052392426451451
 30
0.0
  0
LINE
  5
2C5
330
1F
100
AcDbEntity
  8
0
  6
Continuous
 62
     7
370
     0
100
AcDbLine
 10
9.7456976642
 20
8.0578757965
 30
0.0
 11
9.7414935518
 21
8.055448814
 31
0.0
  0
ARC
  5
2C6
330
1F
100
AcDbEntity
  8
0
  6
Continuous
 62
     7
370
     0
100
AcDbCircle
 10
9.3644664534
 20
7.2429353887
 30
0.0
 40
0.8997027866708301
100
AcDbArc
 50
64.5227761334
 51
64.9296865251
  0
LINE
  5
2C7
330
1F
100
AcDbEntity
  8
0
  6
Continuous
 62
     7
370
     0
100
AcDbLine
 10
9.7580027875
 20
8.0589158292
 30
0.0
 11
9.751475648
 21
8.0551477917
 31
0.0
  0
ARC
  5
2C8
330
1F
100
AcDbEntity
  8
0
  6
Continuous
 62
     7
370
     0
100
AcDbCircle
 10
9.3709935928
 20
7.2467034258
 30
0.0
 40
0.8997027869757281
100
AcDbArc
 50
64.5227761335
 51
64.9296865251
  0
LINE
  5
2C9
330
1F
100
AcDbEntity
  8
0
  6
Continuous
 62
     7
370
     0
100
AcDbLine
 10
9.7870362145
 20
8.0817400336
 30
0.0
 11
9.7522248037
 21
8.0616438339
 31
0.0
  0
ARC
  5
2CA
330
1F
100
AcDbEntity
  8
0
  6
Continuous
 62
     7
370
     0
100
AcDbCircle
 10
9.4109700744
 20
7.2778494708
 30
0.0
 40
0.8875053682359547
100
AcDbArc
 50
64.9294482287
 51
65.4427359856
  0
LINE
  5
2CB
330
1F
100
AcDbEntity
  8
0
  6
Continuous
 62
     7
370
     0
100
AcDbLine
 10
9.7450081065
 20
8.0649805422
 30
0.0
 11
9.7798195172
 21
8.0850767419
 31
0.0
  0
LINE
  5
2CC
330
1F
100
AcDbEntity
  8
0
  6
Continuous
 62
     7
370
     0
100
AcDbLine
 10
9.7518936014
 20
8.0812273398
 30
0.0
 11
9.7446412241
 21
8.0770406315
 31
0.0
  0
ARC
  5
2CD
330
1F
100
AcDbEntity
  8
0
  6
Continuous
 62
     7
370
     0
100
AcDbCircle
 10
9.4200362187
 20
7.3256107772
 30
0.0
 40
0.8252791721807516
100
AcDbArc
 50
66.2895170745
 51
69.037305461
  0
LINE
  5
2CE
330
1F
100
AcDbEntity
  8
0
  6
Continuous
 62
     7
370
     0
100
AcDbLine
 10
9.7080357317
 20
8.0920809533
 30
0.0
 11
9.7152881089
 21
8.0962676616
 31
0.0
  0
ARC
  5
2CF
330
1F
100
AcDbEntity
  8
0
  6
Continuous
 62
     7
370
     0
100
AcDbCircle
 10
9.4127838414
 20
7.321424069
 30
0.0
 40
0.8252791721817248
100
AcDbArc
 50
66.2895170745
 51
69.037305461
  0
SPLINE
  5
2D0
330
1F
100
AcDbEntity
  8
0
  6
Continuous
 62
     7
370
     0
100
AcDbSpline
210
0.0
220
0.0
230
1.0
 70
     8
 71
     3
 72
    16
 73
    12
 74
     0
 42
0.000000001
 43
0.00000001
 40
0.0
 40
0.0
 40
0.0
 40
0.0
 40
0.1252094946983426
 40
0.2504046739963495
 40
0.3833289736435831
 40
0.5006376999516472
 40
0.6312680262744057
 40
0.7501982147432473
 40
0.8748506031236409
 40
0.9374183744277157
 40
1.0
 40
1.0
 40
1.0
 40
1.0
 10
9.617814910217037
 20
8.116318199684374
 30
0.0
 10
9.619436729921434
 20
8.117236614824277
 30
0.0
 10
9.622680183905004
 20
8.119073340100222
 30
0.0
 10
9.627993044471948
 20
8.121786569164023
 30
0.0
 10
9.633568672857026
 20
8.124306125777249
 30
0.0
 10
9.639699511041997
 20
8.126604224163108
 30
0.0
 10
9.64608568093776
 20
8.128395545750612
 30
0.0
 10
9.652840426270885
 20
8.129439757688191
 30
0.0
 10
9.657915958668498
 20
8.129375769116114
 30
0.0
 10
9.661537977361986
 20
8.128894659492563
 30
0.0
 10
9.66312736043897
 20
8.12849507205188
 30
0.0
 10
9.66392213995128
 20
8.128295256214006
 30
0.0
  0
SPLINE
  5
2D1
330
1F
100
AcDbEntity
  8
0
  6
Continuous
 62
     7
370
     0
100
AcDbSpline
210
0.0
220
0.0
230
1.0
 70
     8
 71
     3
 72
    15
 73
    11
 74
     0
 42
0.000000001
 43
0.00000001
 40
0.0
 40
0.0
 40
0.0
 40
0.0
 40
0.0626310590473284
 40
0.125223928024663
 40
0.2500458433027661
 40
0.3746204791019445
 40
0.4996116293767679
 40
0.7494432638969577
 40
0.8747101358354892
 40
1.0
 40
1.0
 40
1.0
 40
1.0
 10
9.60662835973206
 20
8.095220260914523
 30
0.0
 10
9.605878143701911
 20
8.095446130599525
 30
0.0
 10
9.604378169095199
 20
8.095897732242673
 30
0.0
 10
9.601939447154598
 20
8.097062384725241
 30
0.0
 10
9.59987019957757
 20
8.098904591461528
 30
0.0
 10
9.599683811028997
 20
8.101704019053752
 30
0.0
 10
9.602566457890916
 20
8.105725882004903
 30
0.0
 10
9.607196910573993
 20
8.109724587344607
 30
0.0
 10
9.613067763498302
 20
8.11353235682544
 30
0.0
 10
9.616232431176025
 20
8.115389528590553
 30
0.0
 10
9.617814910217037
 20
8.116318199684374
 30
0.0
  0
SPLINE
  5
2D2
330
1F
100
AcDbEntity
  8
0
  6
Continuous
 62
     7
370
     0
100
AcDbSpline
210
0.0
220
0.0
230
1.0
 70
     8
 71
     3
 72
    17
 73
    13
 74
     0
 42
0.000000001
 43
0.00000001
 40
0.0
 40
0.0
 40
0.0
 40
0.0
 40
0.1251519328702265
 40
0.2502835494577905
 40
0.3838490249499213
 40
0.5004249589583055
 40
0.6316909228115993
 40
0.7498767247056335
 40
0.8123958244714975
 40
0.8749120167803427
 40
0.9374477308667294
 40
1.0
 40
1.0
 40
1.0
 40
1.0
 10
9.652888095771587
 20
8.106689547713511
 30
0.0
 10
9.651266260184409
 20
8.105771044396086
 30
0.0
 10
9.64802285228741
 20
8.103934186864592
 30
0.0
 10
9.642676511937577
 20
8.101245920711026
 30
0.0
 10
9.637100334519634
 20
8.09876607603387
 30
0.0
 10
9.630935162061913
 20
8.096546361290814
 30
0.0
 10
9.624528380914084
 20
8.09486162794818
 30
0.0
 10
9.61887778497531
 20
8.094121716867972
 30
0.0
 10
9.614716997110587
 20
8.094024963100464
 30
0.0
 10
9.61176032153296
 20
8.094233809699848
 30
0.0
 10
9.609013629117875
 20
8.09461367969731
 30
0.0
 10
9.607423519676187
 20
8.095018049336385
 30
0.0
 10
9.60662835973206
 20
8.095220260914523
 30
0.0
  0
SPLINE
  5
2D3
330
1F
100
AcDbEntity
  8
0
  6
Continuous
 62
     7
370
     0
100
AcDbSpline
210
0.0
220
0.0
230
1.0
 70
     8
 71
     3
 72
    12
 73
     8
 74
     0
 42
0.000000001
 43
0.00000001
 40
0.0
 40
0.0
 40
0.0
 40
0.0
 40
0.1249981962352782
 40
0.2500181853098271
 40
0.4998430509921697
 40
0.7498766505114256
 40
1.0
 40
1.0
 40
1.0
 40
1.0
 10
9.670718933071258
 20
8.121663891455349
 30
0.0
 10
9.670432834728116
 20
8.121018710824517
 30
0.0
 10
9.669860588161947
 20
8.119728237078684
 30
0.0
 10
9.667696338892158
 20
8.117117556838895
 30
0.0
 10
9.664096518505893
 20
8.11391340941333
 30
0.0
 10
9.65882796284586
 20
8.11021573644821
 30
0.0
 10
9.654868288309112
 20
8.107865084561565
 30
0.0
 10
9.652888095771587
 20
8.106689547713511
 30
0.0
  0
SPLINE
  5
2D4
330
1F
100
AcDbEntity
  8
0
  6
Continuous
 62
     7
370
     0
100
AcDbSpline
210
0.0
220
0.0
230
1.0
 70
     8
 71
     3
 72
    12
 73
     8
 74
     0
 42
0.000000001
 43
0.00000001
 40
0.0
 40
0.0
 40
0.0
 40
0.0
 40
0.2501121538982757
 40
0.500020905322539
 40
0.7497559520083873
 40
0.8748533096535157
 40
1.0
 40
1.0
 40
1.0
 40
1.0
 10
9.66392213995128
 20
8.128295256214006
 30
0.0
 10
9.66501893848887
 20
8.12794836933279
 30
0.0
 10
9.66721164359806
 20
8.127254877674396
 30
0.0
 10
9.669587190520868
 20
8.125741478693815
 30
0.0
 10
9.670613296269696
 20
8.124158960292563
 30
0.0
 10
9.670898239047723
 20
8.12277016435133
 30
0.0
 10
9.670778709584694
 20
8.122032697548342
 30
0.0
 10
9.670718933071258
 20
8.121663891455349
 30
0.0
  0
SPLINE
  5
2D5
330
1F
100
AcDbEntity
  8
0
  6
Continuous
 62
     7
370
     0
100
AcDbSpline
210
0.0
220
0.0
230
1.0
 70
     8
 71
     3
 72
    16
 73
    12
 74
     0
 42
0.000000001
 43
0.00000001
 40
0.0
 40
0.0
 40
0.0
 40
0.0
 40
0.1252094946983513
 40
0.2504046739963668
 40
0.383328973643549
 40
0.5006376999516807
 40
0.6312680262736787
 40
0.7501982147432305
 40
0.8748506031236335
 40
0.9374183744277154
 40
1.0
 40
1.0
 40
1.0
 40
1.0
 10
9.535686154358261
 20
8.13064391681217
 30
0.0
 10
9.5373071427036
 20
8.13156556286935
 30
0.0
 10
9.540548934064107
 20
8.133408749610455
 30
0.0
 10
9.545845332168449
 20
8.136186012680108
 30
0.0
 10
9.551388543793424
 20
8.138831922376008
 30
0.0
 10
9.557462251957388
 20
8.141353649123591
 30
0.0
 10
9.56376212839902
 20
8.143484940583225
 30
0.0
 10
9.57038920724298
 20
8.145037548017005
 30
0.0
 10
9.575334212763877
 20
8.145501284740497
 30
0.0
 10
9.578846477178436
 20
8.14546969828728
 30
0.0
 10
9.580380688289718
 20
8.14529864514978
 30
0.0
 10
9.581147878765353
 20
8.14521310911308
 30
0.0
  0
SPLINE
  5
2D6
330
1F
100
AcDbEntity
  8
0
  6
Continuous
 62
     7
370
     0
100
AcDbSpline
210
0.0
220
0.0
230
1.0
 70
     8
 71
     3
 72
    15
 73
    11
 74
     0
 42
0.000000001
 43
0.00000001
 40
0.0
 40
0.0
 40
0.0
 40
0.0
 40
0.062631059047328
 40
0.125223928024663
 40
0.2500458433027692
 40
0.3746204791019476
 40
0.4996116293767723
 40
0.7494432638969594
 40
0.8747101358354898
 40
1.0
 40
1.0
 40
1.0
 40
1.0
 10
9.523854098546135
 20
8.112138113813595
 30
0.0
 10
9.523131485144846
 20
8.11224964703382
 30
0.0
 10
9.521686698964809
 20
8.112472645465498
 30
0.0
 10
9.519357755431308
 20
8.113187689242345
 30
0.0
 10
9.517420870631126
 20
8.114494682834774
 30
0.0
 10
9.517364598931367
 20
8.116776274638395
 30
0.0
 10
9.52035462912492
 20
8.12037516535013
 30
0.0
 10
9.525046562964505
 20
8.124134280328553
 30
0.0
 10
9.530936893136133
 20
8.127866291026004
 30
0.0
 10
9.534102970439665
 20
8.129717984910164
 30
0.0
 10
9.535686154358261
 20
8.13064391681217
 30
0.0
  0
SPLINE
  5
2D7
330
1F
100
AcDbEntity
  8
0
  6
Continuous
 62
     7
370
     0
100
AcDbSpline
210
0.0
220
0.0
230
1.0
 70
     8
 71
     3
 72
    17
 73
    13
 74
     0
 42
0.000000001
 43
0.00000001
 40
0.0
 40
0.0
 40
0.0
 40
0.0
 40
0.1251519328702243
 40
0.2502835494577869
 40
0.3838490249499429
 40
0.5004249589583009
 40
0.6316909228115999
 40
0.7498767247056355
 40
0.8123958244715032
 40
0.8749120167803439
 40
0.9374477308667293
 40
1.0
 40
1.0
 40
1.0
 40
1.0
 10
9.569513303211739
 20
8.126190344363128
 30
0.0
 10
9.56789212807719
 20
8.125268893624611
 30
0.0
 10
9.56465004097824
 20
8.123426141729393
 30
0.0
 10
9.55931853298458
 20
8.120671767231526
 30
0.0
 10
9.553769995667764
 20
8.11806901232851
 30
0.0
 10
9.547655296135842
 20
8.115625967753495
 30
0.0
 10
9.541325260267216
 20
8.11360406536111
 30
0.0
 10
9.535772688193203
 20
8.11243881257538
 30
0.0
 10
9.531703256756218
 20
8.111950457996809
 30
0.0
 10
9.528823592988427
 20
8.111832115591532
 30
0.0
 10
9.52615699578452
 20
8.11187454997098
 30
0.0
 10
9.524621798685287
 20
8.11205025144819
 30
0.0
 10
9.523854098546135
 20
8.112138113813595
 30
0.0
  0
SPLINE
  5
2D8
330
1F
100
AcDbEntity
  8
0
  6
Continuous
 62
     7
370
     0
100
AcDbSpline
210
0.0
220
0.0
230
1.0
 70
     8
 71
     3
 72
    12
 73
     8
 74
     0
 42
0.000000001
 43
0.00000001
 40
0.0
 40
0.0
 40
0.0
 40
0.0
 40
0.1249981962352808
 40
0.2500181853098307
 40
0.4998430509921664
 40
0.7498766505114237
 40
0.9999999999999999
 40
0.9999999999999999
 40
0.9999999999999999
 40
0.9999999999999999
 10
9.587521406459508
 20
8.14038278808901
 30
0.0
 10
9.587216874231393
 20
8.139818202362218
 30
0.0
 10
9.58660775668142
 20
8.138688932475805
 30
0.0
 10
9.584391905888529
 20
8.13630572435037
 30
0.0
 10
9.580749792713698
 20
8.133289106588762
 30
0.0
 10
9.575456785808866
 20
8.129700404432231
 30
0.0
 10
9.571494701067714
 20
8.127360504346203
 30
0.0
 10
9.569513303211739
 20
8.126190344363128
 30
0.0
  0
SPLINE
  5
2D9
330
1F
100
AcDbEntity
  8
0
  6
Continuous
 62
     7
370
     0
100
AcDbSpline
210
0.0
220
0.0
230
1.0
 70
     8
 71
     3
 72
    12
 73
     8
 74
     0
 42
0.000000001
 43
0.00000001
 40
0.0
 40
0.0
 40
0.0
 40
0.0
 40
0.2501121538982741
 40
0.5000209053225397
 40
0.7497559520083961
 40
0.8748533096535216
 40
1.0
 40
1.0
 40
1.0
 40
1.0
 10
9.581147878765353
 20
8.14521310911308
 30
0.0
 10
9.582204062512012
 20
8.145035567099098
 30
0.0
 10
9.584315571069112
 20
8.144680627456303
 30
0.0
 10
9.586574895386786
 20
8.143660337373838
 30
0.0
 10
9.587515058308217
 20
8.142446878509132
 30
0.0
 10
9.58773943433376
 20
8.141320354439173
 30
0.0
 10
9.587594091968445
 20
8.140695351276431
 30
0.0
 10
9.587521406459508
 20
8.14038278808901
 30
0.0
  0
SPLINE
  5
2DA
330
1F
100
AcDbEntity
  8
0
  6
Continuous
 62
     7
370
     0
100
AcDbSpline
210
0.0
220
0.0
230
1.0
 70
     8
 71
     3
 72
    16
 73
    12
 74
     0
 42
0.000000001
 43
0.00000001
 40
0.0
 40
0.0
 40
0.0
 40
0.0
 40
0.0625970617097989
 40
0.1251497037903316
 40
0.2500363750335418
 40
0.3752748441851529
 40
0.4995205038008851
 40
0.6423186562677523
 40
0.7853466580360459
 40
0.8840246588139666
 40
1.0
 40
1.0
 40
1.0
 40
1.0
 10
9.446123767845515
 20
8.127814855323326
 30
0.0
 10
9.446497593429259
 20
8.127845871108034
 30
0.0
 10
9.447244979325605
 20
8.127907880668275
 30
0.0
 10
9.44899680314087
 20
8.128188908014113
 30
0.0
 10
9.451475694633166
 20
8.12874443673892
 30
0.0
 10
9.45474508334794
 20
8.129720386997738
 30
0.0
 10
9.458220486852916
 20
8.131032836027924
 30
0.0
 10
9.46157908349999
 20
8.132566457340998
 30
0.0
 10
9.464416195629514
 20
8.134034571963973
 30
0.0
 10
9.466928201107736
 20
8.135401592971512
 30
0.0
 10
9.46835576241453
 20
8.13622011586851
 30
0.0
 10
9.469127061422059
 20
8.13666235669914
 30
0.0
  0
SPLINE
  5
2DB
330
1F
100
AcDbEntity
  8
0
  6
Continuous
 62
     7
370
     0
100
AcDbSpline
210
0.0
220
0.0
230
1.0
 70
     8
 71
     3
 72
    14
 73
    10
 74
     0
 42
0.000000001
 43
0.00000001
 40
0.0
 40
0.0
 40
0.0
 40
0.0
 40
0.1962429596935212
 40
0.3614928809091476
 40
0.5004684503033662
 40
0.6266180396351629
 40
0.7498473153958763
 40
0.8499254015606552
 40
1.0
 40
1.0
 40
1.0
 40
1.0
 10
9.449229557605014
 20
8.13266226660252
 30
0.0
 10
9.448391359775364
 20
8.132166078778761
 30
0.0
 10
9.44684734235591
 20
8.131252067054914
 30
0.0
 10
9.445046776374543
 20
8.130029074952947
 30
0.0
 10
9.443894981525277
 20
8.129055995404496
 30
0.0
 10
9.443462782906472
 20
8.128339284534064
 30
0.0
 10
9.443785800121796
 20
8.127945983732229
 30
0.0
 10
9.444669508583805
 20
8.127760288206533
 30
0.0
 10
9.445578459257186
 20
8.127794394104194
 30
0.0
 10
9.446123767845515
 20
8.127814855323326
 30
0.0
  0
LINE
  5
2DC
330
1F
100
AcDbEntity
  8
0
  6
Continuous
 62
     7
370
     0
100
AcDbLine
 10
9.475598748
 20
8.1478848762
 30
0.0
 11
9.4492295576
 21
8.1326622666
 31
0.0
  0
ARC
  5
2DD
330
1F
100
AcDbEntity
  8
0
  6
Continuous
 62
     7
370
     0
100
AcDbCircle
 10
9.5110547018
 20
7.7057598895
 30
0.0
 40
0.4435443929156975
100
AcDbArc
 50
94.5849893026
 51
95.4000395007
  0
LINE
  5
2DE
330
1F
100
AcDbEntity
  8
0
  6
Continuous
 62
     7
370
     0
100
AcDbLine
 10
9.4457316248
 20
8.1337224444
 30
0.0
 11
9.4693131827
 21
8.147335788
 31
0.0
  0
SPLINE
  5
2DF
330
1F
100
AcDbEntity
  8
0
  6
Continuous
 62
     7
370
     0
100
AcDbSpline
210
0.0
220
0.0
230
1.0
 70
     8
 71
     3
 72
    13
 73
     9
 74
     0
 42
0.000000001
 43
0.00000001
 40
0.0
 40
0.0
 40
0.0
 40
0.0
 40
0.1431483331898618
 40
0.2861300558850271
 40
0.4997986267800859
 40
0.7490771388913521
 40
0.8745090927370427
 40
1.0
 40
1.0
 40
1.0
 40
1.0
 10
9.425461735227264
 20
8.125954758067753
 30
0.0
 10
9.426224647605434
 20
8.12606309621901
 30
0.0
 10
9.42774958440726
 20
8.126279646426637
 30
0.0
 10
9.431190007011052
 20
8.127161791741576
 30
0.0
 10
9.43592564397699
 20
8.128761488251973
 30
0.0
 10
9.440289668724585
 20
8.130772556362215
 30
0.0
 10
9.443509985366461
 20
8.132459542026796
 30
0.0
 10
9.444990962340556
 20
8.133301410983579
 30
0.0
 10
9.445731624802692
 20
8.133722444359002
 30
0.0
  0
SPLINE
  5
2E0
330
1F
100
AcDbEntity
  8
0
  6
Continuous
 62
     7
370
     0
100
AcDbSpline
210
0.0
220
0.0
230
1.0
 70
     8
 71
     3
 72
    14
 73
    10
 74
     0
 42
0.000000001
 43
0.00000001
 40
0.0
 40
0.0
 40
0.0
 40
0.0
 40
0.2504938292205832
 40
0.3757028501511495
 40
0.5005307050946035
 40
0.642911743846465
 40
0.7855348750382813
 40
0.8927018362619349
 40
1.0
 40
1.0
 40
1.0
 40
1.0
 10
9.429421694539224
 20
8.130984191542963
 30
0.0
 10
9.428265856081506
 20
8.130309769469058
 30
0.0
 10
9.426532273245433
 20
8.129298238382006
 30
0.0
 10
9.42449381599117
 20
8.127993942476555
 30
0.0
 10
9.423300119957709
 20
8.12705673989991
 30
0.0
 10
9.422915073294241
 20
8.126338843509364
 30
0.0
 10
9.423324801424258
 20
8.125954227393295
 30
0.0
 10
9.424228682289069
 20
8.125840981184005
 30
0.0
 10
9.42505054998424
 20
8.125916816975245
 30
0.0
 10
9.425461735227264
 20
8.125954758067753
 30
0.0
  0
LINE
  5
2E1
330
1F
100
AcDbEntity
  8
0
  6
Continuous
 62
     7
370
     0
100
AcDbLine
 10
9.4549863243
 20
8.1457423382
 30
0.0
 11
9.4294216945
 21
8.1309841915
 31
0.0
  0
ARC
  5
2E2
330
1F
100
AcDbEntity
  8
0
  6
Continuous
 62
     7
370
     0
100
AcDbCircle
 10
9.5091802408
 20
7.7226815628
 30
0.0
 40
0.4265177607673539
100
AcDbArc
 50
97.2998109623
 51
98.1364107186
  0
LINE
  5
2E3
330
1F
100
AcDbEntity
  8
0
  6
Continuous
 62
     7
370
     0
100
AcDbLine
 10
9.4205760888
 20
8.128603965
 30
0.0
 11
9.4488150326
 21
8.1449059604
 31
0.0
  0
SPLINE
  5
2E4
330
1F
100
AcDbEntity
  8
0
  6
Continuous
 62
     7
370
     0
100
AcDbSpline
210
0.0
220
0.0
230
1.0
 70
     8
 71
     3
 72
    13
 73
     9
 74
     0
 42
0.000000001
 43
0.00000001
 40
0.0
 40
0.0
 40
0.0
 40
0.0
 40
0.1255997205531092
 40
0.2510728045682546
 40
0.4995957155071241
 40
0.7487890782142489
 40
0.8492801662769697
 40
1.0
 40
1.0
 40
1.0
 40
1.0
 10
9.417438216392744
 20
8.122013694651628
 30
0.0
 10
9.416709058705585
 20
8.121942479656205
 30
0.0
 10
9.415251478508102
 20
8.121800121468233
 30
0.0
 10
9.413115698927268
 20
8.121901339129757
 30
0.0
 10
9.412282148302156
 20
8.122900836713804
 30
0.0
 10
9.414846079566372
 20
8.125031466942302
 30
0.0
 10
9.417795734058004
 20
8.126967595085764
 30
0.0
 10
9.419533484796343
 20
8.12799034340952
 30
0.0
 10
9.420576088758278
 20
8.128603965047471
 30
0.0
  0
SPLINE
  5
2E5
330
1F
100
AcDbEntity
  8
0
  6
Continuous
 62
     7
370
     0
100
AcDbSpline
210
0.0
220
0.0
230
1.0
 70
     8
 71
     3
 72
    13
 73
     9
 74
     0
 42
0.000000001
 43
0.00000001
 40
0.0
 40
0.0
 40
0.0
 40
0.0
 40
0.1252111800123813
 40
0.25037091885475
 40
0.5001800844950658
 40
0.7497098314791316
 40
0.8748093757729355
 40
1.0
 40
1.0
 40
1.0
 40
1.0
 10
9.435900941871115
 20
8.127573171780098
 30
0.0
 10
9.435059098902585
 20
8.127235011929278
 30
0.0
 10
9.433375758824313
 20
8.12655883115563
 30
0.0
 10
9.429982762863133
 20
8.125282599695186
 30
0.0
 10
9.425751459404347
 20
8.123844185366186
 30
0.0
 10
9.421843637501194
 20
8.122786690534479
 30
0.0
 10
9.419167431264883
 20
8.122250958831655
 30
0.0
 10
9.418014761167996
 20
8.122092801895933
 30
0.0
 10
9.417438216392744
 20
8.122013694651628
 30
0.0
  0
SPLINE
  5
2E6
330
1F
100
AcDbEntity
  8
0
  6
Continuous
 62
     7
370
     0
100
AcDbSpline
210
0.0
220
0.0
230
1.0
 70
     8
 71
     3
 72
    13
 73
     9
 74
     0
 42
0.000000001
 43
0.00000001
 40
0.0
 40
0.0
 40
0.0
 40
0.0
 40
0.1253429328899689
 40
0.2505898065604542
 40
0.500056515417794
 40
0.7494697823308797
 40
0.8746743889016465
 40
1.0
 40
1.0
 40
1.0
 40
1.0
 10
9.437776899623293
 20
8.123921929444338
 30
0.0
 10
9.437267849960815
 20
8.123894207270022
 30
0.0
 10
9.436250140756881
 20
8.123838784166866
 30
0.0
 10
9.4346042143612
 20
8.12392527417333
 30
0.0
 10
9.433359454717808
 20
8.124422829303194
 30
0.0
 10
9.433667414934538
 20
8.125520291814894
 30
0.0
 10
9.4347180849566
 20
8.126635566291919
 30
0.0
 10
9.435506529295049
 20
8.127260535998552
 30
0.0
 10
9.435900941871115
 20
8.127573171780098
 30
0.0
  0
SPLINE
  5
2E7
330
1F
100
AcDbEntity
  8
0
  6
Continuous
 62
     7
370
     0
100
AcDbSpline
210
0.0
220
0.0
230
1.0
 70
     8
 71
     3
 72
    13
 73
     9
 74
     0
 42
0.000000001
 43
0.00000001
 40
0.0
 40
0.0
 40
0.0
 40
0.0
 40
0.1251971558968267
 40
0.2503378710232737
 40
0.5001340654709675
 40
0.7497012951317784
 40
0.8748025018892623
 40
1.0
 40
1.0
 40
1.0
 40
1.0
 10
9.455290885463265
 20
8.128674902335876
 30
0.0
 10
9.45449717092718
 20
8.128363360393505
 30
0.0
 10
9.45291009967352
 20
8.127740416956582
 30
0.0
 10
9.449687734998554
 20
8.126603203161105
 30
0.0
 10
9.445682802928289
 20
8.12535798974354
 30
0.0
 10
9.4419696502885
 20
8.12447492606174
 30
0.0
 10
9.439426688918587
 20
8.12407128099228
 30
0.0
 10
9.43832697041107
 20
8.123971726060104
 30
0.0
 10
9.437776899623293
 20
8.123921929444338
 30
0.0
  0
LINE
  5
2E8
330
1F
100
AcDbEntity
  8
0
  6
Continuous
 62
     7
370
     0
100
AcDbLine
 10
9.4488430688
 20
8.124952657
 30
0.0
 11
9.4552908855
 21
8.1286749023
 31
0.0
  0
ARC
  5
2E9
330
1F
100
AcDbEntity
  8
0
  6
Continuous
 62
     7
370
     0
100
AcDbCircle
 10
9.4709329641
 20
7.6627441939
 30
0.0
 40
0.4627360228186964
100
AcDbArc
 50
91.943845816
 51
92.7362014476
  0
LINE
  5
2EA
330
1F
100
AcDbEntity
  8
0
  6
Continuous
 62
     7
370
     0
100
AcDbLine
 10
9.4965755077
 20
8.149078173
 30
0.0
 11
9.4552369574
 21
8.1252139359
 31
0.0
  0
ARC
  5
2EB
330
1F
100
AcDbEntity
  8
0
  6
Continuous
 62
     7
370
     0
100
AcDbCircle
 10
9.5122715144
 20
7.686608431
 30
0.0
 40
0.4627360228510668
100
AcDbArc
 50
91.943845816
 51
92.7362014476
  0
LINE
  5
2EC
330
1F
100
AcDbEntity
  8
0
  6
Continuous
 62
     7
370
     0
100
AcDbLine
 10
9.4691270614
 20
8.1366623567
 30
0.0
 11
9.4901816191
 21
8.1488168941
 31
0.0
  0
SPLINE
  5
2ED
330
1F
100
AcDbEntity
  8
0
  6
Continuous
 62
     7
370
     0
100
AcDbSpline
210
0.0
220
0.0
230
1.0
 70
     8
 71
     3
 72
    15
 73
    11
 74
     0
 42
0.000000001
 43
0.00000001
 40
0.0
 40
0.0
 40
0.0
 40
0.0
 40
0.0715686387664995
 40
0.1431353726650647
 40
0.2503322464845917
 40
0.4992737633368807
 40
0.6243899522806176
 40
0.7495239290832746
 40
0.8747465879576753
 40
1.0
 40
1.0
 40
1.0
 40
1.0
 10
9.347940105791661
 20
8.113670309908228
 30
0.0
 10
9.348229107478499
 20
8.113776370253897
 30
0.0
 10
9.34880710316012
 20
8.113988488122335
 30
0.0
 10
9.349538560184389
 20
8.114198519411097
 30
0.0
 10
9.350354209730858
 20
8.114317520921867
 30
0.0
 10
9.350087398250121
 20
8.11382696750537
 30
0.0
 10
9.348964312823886
 20
8.112924151857879
 30
0.0
 10
9.347666804655383
 20
8.112040900758329
 30
0.0
 10
9.346015467340251
 20
8.11100891197344
 30
0.0
 10
9.344687949897912
 20
8.11023479500224
 30
0.0
 10
9.344024109681198
 20
8.109847688994037
 30
0.0
  0
SPLINE
  5
2EE
330
1F
100
AcDbEntity
  8
0
  6
Continuous
 62
     7
370
     0
100
AcDbSpline
210
0.0
220
0.0
230
1.0
 70
     8
 71
     3
 72
    12
 73
     8
 74
     0
 42
0.000000001
 43
0.00000001
 40
0.0
 40
0.0
 40
0.0
 40
0.0
 40
0.2502273872369798
 40
0.5002411532953609
 40
0.7498657105196465
 40
0.8749015259391301
 40
1.0
 40
1.0
 40
1.0
 40
1.0
 10
9.332196343141915
 20
8.106178482702006
 30
0.0
 10
9.33363999518479
 20
8.106918794265246
 30
0.0
 10
9.336526066812912
 20
8.108398785381656
 30
0.0
 10
9.340811361000522
 20
8.110517033601448
 30
0.0
 10
9.344174371051178
 20
8.11209410013756
 30
0.0
 10
9.346525295802325
 20
8.113119369192288
 30
0.0
 10
9.3474684237107
 20
8.113486632336441
 30
0.0
 10
9.347940105791661
 20
8.113670309908228
 30
0.0
  0
SPLINE
  5
2EF
330
1F
100
AcDbEntity
  8
0
  6
Continuous
 62
     7
370
     0
100
AcDbSpline
210
0.0
220
0.0
230
1.0
 70
     8
 71
     3
 72
    11
 73
     7
 74
     0
 42
0.000000001
 43
0.00000001
 40
0.0
 40
0.0
 40
0.0
 40
0.0
 40
0.1406923327525916
 40
0.2856504977000435
 40
0.499962989700926
 40
1.0
 40
1.0
 40
1.0
 40
1.0
 10
9.333995565074238
 20
8.108003009109558
 30
0.0
 10
9.333986457926144
 20
8.107957633850518
 30
0.0
 10
9.333967967498596
 20
8.107865507541463
 30
0.0
 10
9.333764667809376
 20
8.107613279766614
 30
0.0
 10
9.333254487277708
 20
8.10709463855447
 30
0.0
 10
9.332632045634194
 20
8.106555719956111
 30
0.0
 10
9.332196343141915
 20
8.106178482702006
 30
0.0
  0
SPLINE
  5
2F0
330
1F
100
AcDbEntity
  8
0
  6
Continuous
 62
     7
370
     0
100
AcDbSpline
210
0.0
220
0.0
230
1.0
 70
     8
 71
     3
 72
    11
 73
     7
 74
     0
 42
0.000000001
 43
0.00000001
 40
0.0
 40
0.0
 40
0.0
 40
0.0
 40
0.2500722882310795
 40
0.4999620443496453
 40
0.749885266069323
 40
1.0
 40
1.0
 40
1.0
 40
1.0
 10
9.331263481385573
 20
8.10715012222905
 30
0.0
 10
9.331668304891666
 20
8.107322477528376
 30
0.0
 10
9.332477656416133
 20
8.107667062321894
 30
0.0
 10
9.33330480937791
 20
8.10795794088501
 30
0.0
 10
9.33383718453332
 20
8.108083002399939
 30
0.0
 10
9.33394275808254
 20
8.108029680347052
 30
0.0
 10
9.333995565074238
 20
8.108003009109558
 30
0.0
  0
SPLINE
  5
2F1
330
1F
100
AcDbEntity
  8
0
  6
Continuous
 62
     7
370
     0
100
AcDbSpline
210
0.0
220
0.0
230
1.0
 70
     8
 71
     3
 72
    14
 73
    10
 74
     0
 42
0.000000001
 43
0.00000001
 40
0.0
 40
0.0
 40
0.0
 40
0.0
 40
0.1253688471068173
 40
0.2506913889046983
 40
0.3794432808340587
 40
0.5007734369140106
 40
0.7496382694920397
 40
0.8748235175244786
 40
1.0
 40
1.0
 40
1.0
 40
1.0
 10
9.3101004837401
 20
8.095965990642435
 30
0.0
 10
9.310912605359647
 20
8.096433507934465
 30
0.0
 10
9.312536548639512
 20
8.097368369839797
 30
0.0
 10
9.315204167391459
 20
8.098878628807622
 30
0.0
 10
9.31805037680621
 20
8.10046014982497
 30
0.0
 10
9.322056592507844
 20
8.102622228704927
 30
0.0
 10
9.32593048204296
 20
8.104616160335823
 30
0.0
 10
9.329298879353031
 20
8.106266118311819
 30
0.0
 10
9.330608629326859
 20
8.106855461134579
 30
0.0
 10
9.331263481385573
 20
8.10715012222905
 30
0.0
  0
SPLINE
  5
2F2
330
1F
100
AcDbEntity
  8
0
  6
Continuous
 62
     7
370
     0
100
AcDbSpline
210
0.0
220
0.0
230
1.0
 70
     8
 71
     3
 72
    15
 73
    11
 74
     0
 42
0.000000001
 43
0.00000001
 40
0.0
 40
0.0
 40
0.0
 40
0.0
 40
0.0688261813426822
 40
0.1253069327108303
 40
0.2505010874263386
 40
0.375741300737371
 40
0.5009237703813655
 40
0.7493266030478645
 40
0.8746205673268446
 40
0.9999999999999999
 40
0.9999999999999999
 40
0.9999999999999999
 40
0.9999999999999999
 10
9.305880161035287
 20
8.0924966432989
 30
0.0
 10
9.305577640430176
 20
8.09236671395305
 30
0.0
 10
9.305026862682976
 20
8.092130160835037
 30
0.0
 10
9.30413506162935
 20
8.091771327104537
 30
0.0
 10
9.303411956524913
 20
8.091532068353184
 30
0.0
 10
9.303120374281843
 20
8.091551561086199
 30
0.0
 10
9.303303591277324
 20
8.091873517438616
 30
0.0
 10
9.305168432987848
 20
8.093068497901045
 30
0.0
 10
9.307814281364216
 20
8.094640939131104
 30
0.0
 10
9.30933824308059
 20
8.095524206420471
 30
0.0
 10
9.3101004837401
 20
8.095965990642435
 30
0.0
  0
SPLINE
  5
2F3
330
1F
100
AcDbEntity
  8
0
  6
Continuous
 62
     7
370
     0
100
AcDbSpline
210
0.0
220
0.0
230
1.0
 70
     8
 71
     3
 72
    11
 73
     7
 74
     0
 42
0.000000001
 43
0.00000001
 40
0.0
 40
0.0
 40
0.0
 40
0.0
 40
0.2501057289063474
 40
0.5000274417325185
 40
0.7499366741641658
 40
1.0
 40
1.0
 40
1.0
 40
1.0
 10
9.312907011872504
 20
8.095828846480535
 30
0.0
 10
9.312223229826898
 20
8.095490873720797
 30
0.0
 10
9.31085616883049
 20
8.094815176865843
 30
0.0
 10
9.308981964639615
 20
8.093916363051724
 30
0.0
 10
9.307260786120063
 20
8.093109160551766
 30
0.0
 10
9.306340463945785
 20
8.092700857663345
 30
0.0
 10
9.305880161035287
 20
8.0924966432989
 30
0.0
  0
SPLINE
  5
2F4
330
1F
100
AcDbEntity
  8
0
  6
Continuous
 62
     7
370
     0
100
AcDbSpline
210
0.0
220
0.0
230
1.0
 70
     8
 71
     3
 72
    11
 73
     7
 74
     0
 42
0.000000001
 43
0.00000001
 40
0.0
 40
0.0
 40
0.0
 40
0.0
 40
0.5000481029604655
 40
0.7000739104332155
 40
0.8545686097258942
 40
1.0
 40
1.0
 40
1.0
 40
1.0
 10
9.324139405298588
 20
8.101527311488017
 30
0.0
 10
9.32224836459964
 20
8.100561236397047
 30
0.0
 10
9.319600882789262
 20
8.099208718583856
 30
0.0
 10
9.316392273659991
 20
8.09757846680803
 30
0.0
 10
9.314529531869143
 20
8.096638241917088
 30
0.0
 10
9.313436845432149
 20
8.09609315438811
 30
0.0
 10
9.312907011872504
 20
8.095828846480535
 30
0.0
  0
SPLINE
  5
2F5
330
1F
100
AcDbEntity
  8
0
  6
Continuous
 62
     7
370
     0
100
AcDbSpline
210
0.0
220
0.0
230
1.0
 70
     8
 71
     3
 72
    12
 73
     8
 74
     0
 42
0.000000001
 43
0.00000001
 40
0.0
 40
0.0
 40
0.0
 40
0.0
 40
0.1251004913760167
 40
0.250159034732735
 40
0.4997202301425577
 40
0.7497461316783125
 40
1.0
 40
1.0
 40
1.0
 40
1.0
 10
9.32545773633855
 20
8.10069151428438
 30
0.0
 10
9.325045380314247
 20
8.100541935568842
 30
0.0
 10
9.324220806534628
 20
8.100242828293688
 30
0.0
 10
9.323157600445565
 20
8.099960693264068
 30
0.0
 10
9.32265630661631
 20
8.100035396611537
 30
0.0
 10
9.323011142618077
 20
8.100596618019356
 30
0.0
 10
9.323763203505733
 20
8.101216986102308
 30
0.0
 10
9.324139405298588
 20
8.101527311488017
 30
0.0
  0
SPLINE
  5
2F6
330
1F
100
AcDbEntity
  8
0
  6
Continuous
 62
     7
370
     0
100
AcDbSpline
210
0.0
220
0.0
230
1.0
 70
     8
 71
     3
 72
    15
 73
    11
 74
     0
 42
0.000000001
 43
0.00000001
 40
0.0
 40
0.0
 40
0.0
 40
0.0
 40
0.1252383696493221
 40
0.2504482143409584
 40
0.3729197441743738
 40
0.5007462977273414
 40
0.7496979142813366
 40
0.8497381416193478
 40
0.9248704692275873
 40
1.0
 40
1.0
 40
1.0
 40
1.0
 10
9.344024109681198
 20
8.109847688994037
 30
0.0
 10
9.343326211366863
 20
8.109448645445562
 30
0.0
 10
9.341930573695228
 20
8.108650649236894
 30
0.0
 10
9.339591098946219
 20
8.107379907936474
 30
0.0
 10
9.337095133878082
 20
8.106070901046698
 30
0.0
 10
9.333662577883361
 20
8.10434727711577
 30
0.0
 10
9.330317957713744
 20
8.102746432875996
 30
0.0
 10
9.327781521550847
 20
8.101629640603372
 30
0.0
 10
9.326442266068284
 20
8.101068512242284
 30
0.0
 10
9.325785908842851
 20
8.100817178710985
 30
0.0
 10
9.32545773633855
 20
8.10069151428438
 30
0.0
  0
ARC
  5
2F7
330
1F
100
AcDbEntity
  8
0
  6
Continuous
 62
     7
370
     0
100
AcDbCircle
 10
9.1025293053
 20
6.8701132096
 30
0.0
 40
1.307787668173817
100
AcDbArc
 50
51.5202921491
 51
52.8382641041
  0
SPLINE
  5
2F8
330
1F
100
AcDbEntity
  8
0
  6
Continuous
 62
     7
370
     0
100
AcDbSpline
210
0.0
220
0.0
230
1.0
 70
     8
 71
     3
 72
     8
 73
     4
 74
     0
 42
0.000000001
 43
0.00000001
 40
0.0
 40
0.0
 40
0.0
 40
0.0
 40
1.0
 40
1.0
 40
1.0
 40
1.0
 10
9.903563187186215
 20
7.927172540382911
 30
0.0
 10
9.899883687165518
 20
7.922235409324609
 30
0.0
 10
9.896202888195408
 20
7.917288887524871
 30
0.0
 10
9.892520717653689
 20
7.912333029667008
 30
0.0
  0
ARC
  5
2F9
330
1F
100
AcDbEntity
  8
0
  6
Continuous
 62
     7
370
     0
100
AcDbCircle
 10
9.147951555
 20
6.9171487541
 30
0.0
 40
1.26138693016256
100
AcDbArc
 50
53.1993706613
 51
53.6733029297
  0
SPLINE
  5
2FA
330
1F
100
AcDbEntity
  8
0
  6
Continuous
 62
     7
370
     0
100
AcDbSpline
210
0.0
220
0.0
230
1.0
 70
     8
 71
     3
 72
     8
 73
     4
 74
     0
 42
0.000000001
 43
0.00000001
 40
0.0
 40
0.0
 40
0.0
 40
0.0
 40
1.0
 40
1.0
 40
1.0
 40
1.0
 10
9.860819663384442
 20
7.88402678453256
 30
0.0
 10
9.872290765727902
 20
7.900594220533098
 30
0.0
 10
9.883744129614374
 20
7.917048763681982
 30
0.0
 10
9.895182840827363
 20
7.933388092559926
 30
0.0
  0
ARC
  5
2FB
330
1F
100
AcDbEntity
  8
0
  6
Continuous
 62
     7
370
     0
100
AcDbCircle
 10
9.0633070952
 20
6.8474945561
 30
0.0
 40
1.3078323122594
100
AcDbArc
 50
51.9334016642
 51
52.425154589
  0
SPLINE
  5
2FC
330
1F
100
AcDbEntity
  8
0
  6
Continuous
 62
     7
370
     0
100
AcDbSpline
210
0.0
220
0.0
230
1.0
 70
     8
 71
     3
 72
     8
 73
     4
 74
     0
 42
0.000000001
 43
0.00000001
 40
0.0
 40
0.0
 40
0.0
 40
0.0
 40
1.0
 40
1.0
 40
1.0
 40
1.0
 10
9.948306119580879
 20
7.892150672259781
 30
0.0
 10
9.922120571459422
 20
7.88725870743694
 30
0.0
 10
9.89591298811285
 20
7.882257259114898
 30
0.0
 10
9.869686433893113
 20
7.877143874615277
 30
0.0
  0
ARC
  5
2FD
330
1F
100
AcDbEntity
  8
0
  6
Continuous
 62
     7
370
     0
100
AcDbCircle
 10
9.0912597931
 20
6.8440942813
 30
0.0
 40
1.353865061366663
100
AcDbArc
 50
50.7254751424
 51
51.1775720167
  0
SPLINE
  5
2FE
330
1F
100
AcDbEntity
  8
0
  6
Continuous
 62
     7
370
     0
100
AcDbSpline
210
0.0
220
0.0
230
1.0
 70
     8
 71
     3
 72
     8
 73
     4
 74
     0
 42
0.000000001
 43
0.00000001
 40
0.0
 40
0.0
 40
0.0
 40
0.0
 40
1.0
 40
1.0
 40
1.0
 40
1.0
 10
9.916283736806815
 20
7.893886773498134
 30
0.0
 10
9.924194075826831
 20
7.895560477755344
 30
0.0
 10
9.932102772071609
 20
7.897225056478671
 30
0.0
 10
9.940009753408837
 20
7.898880567351788
 30
0.0
  0
ARC
  5
2FF
330
1F
100
AcDbEntity
  8
0
  6
Continuous
 62
     7
370
     0
100
AcDbCircle
 10
9.2218921136
 20
7.0237258842
 30
0.0
 40
1.131650496891917
100
AcDbArc
 50
56.886192027
 51
57.3227076597
  0
SPLINE
  5
300
330
1F
100
AcDbEntity
  8
0
  6
Continuous
 62
     7
370
     0
100
AcDbSpline
210
0.0
220
0.0
230
1.0
 70
     8
 71
     3
 72
    11
 73
     7
 74
     0
 42
0.000000001
 43
0.00000001
 40
0.0
 40
0.0
 40
0.0
 40
0.0
 40
0.2500046874459121
 40
0.4999902174400003
 40
0.749985133753026
 40
1.0
 40
1.0
 40
1.0
 40
1.0
 10
9.81499986648836
 20
7.968986402972803
 30
0.0
 10
9.816587172759558
 20
7.96950328959557
 30
0.0
 10
9.819761663669254
 20
7.970537023232927
 30
0.0
 10
9.824297166178367
 20
7.972311670957539
 30
0.0
 10
9.828682489647518
 20
7.974213949084482
 30
0.0
 10
9.831479376306024
 20
7.975580765857602
 30
0.0
 10
9.832877875431892
 20
7.976264201511532
 30
0.0
  0
SPLINE
  5
301
330
1F
100
AcDbEntity
  8
0
  6
Continuous
 62
     7
370
     0
100
AcDbSpline
210
0.0
220
0.0
230
1.0
 70
     8
 71
     3
 72
    14
 73
    10
 74
     0
 42
0.000000001
 43
0.00000001
 40
0.0
 40
0.0
 40
0.0
 40
0.0
 40
0.0714406687654188
 40
0.1428795370169176
 40
0.2500353555881956
 40
0.5000130023866953
 40
0.749963104754525
 40
0.8749754923226936
 40
1.0
 40
1.0
 40
1.0
 40
1.0
 10
9.762616654771756
 20
7.960121562975683
 30
0.0
 10
9.763932049621435
 20
7.960162344345881
 30
0.0
 10
9.766562806168992
 20
7.960243906058467
 30
0.0
 10
9.771131492494904
 20
7.960567333840379
 30
0.0
 10
9.778907210683705
 20
7.961299231606836
 30
0.0
 10
9.789722930489818
 20
7.962866075032842
 30
0.0
 10
9.800550082785033
 20
7.96501801858008
 30
0.0
 10
9.808925349011732
 20
7.967144481184025
 30
0.0
 10
9.812974961896808
 20
7.968372409202642
 30
0.0
 10
9.81499986648836
 20
7.968986402972803
 30
0.0
  0
LINE
  5
302
330
1F
100
AcDbEntity
  8
0
  6
Continuous
 62
     7
370
     0
100
AcDbLine
 10
9.7567467619
 20
7.956732946
 30
0.0
 11
9.7626166548
 21
7.960121563
 31
0.0
  0
ARC
  5
303
330
1F
100
AcDbEntity
  8
0
  6
Continuous
 62
     7
370
     0
100
AcDbCircle
 10
9.1725933419
 20
7.0014647827
 30
0.0
 40
1.119719822936706
100
AcDbArc
 50
56.355864705
 51
58.55391123
  0
LINE
  5
304
330
1F
100
AcDbEntity
  8
0
  6
Continuous
 62
     7
370
     0
100
AcDbLine
 10
9.8002074399
 20
7.9378123233
 30
0.0
 11
9.7929550627
 21
7.933625615
 31
0.0
  0
ARC
  5
305
330
1F
100
AcDbEntity
  8
0
  6
Continuous
 62
     7
370
     0
100
AcDbCircle
 10
9.1757991173
 20
6.9994161705
 30
0.0
 40
1.127152648432573
100
AcDbArc
 50
56.36022605
 51
58.11092628
  0
SPLINE
  5
306
330
1F
100
AcDbEntity
  8
0
  6
Continuous
 62
     7
370
     0
100
AcDbSpline
210
0.0
220
0.0
230
1.0
 70
     8
 71
     3
 72
    16
 73
    12
 74
     0
 42
0.000000001
 43
0.00000001
 40
0.0
 40
0.0
 40
0.0
 40
0.0
 40
0.06291163034384
 40
0.1250257283577125
 40
0.1835263708142334
 40
0.2500782449891958
 40
0.3761461362529035
 40
0.5001293926099419
 40
0.7500023071406339
 40
0.9166493982577348
 40
1.0
 40
1.0
 40
1.0
 40
1.0
 10
9.84011711519485
 20
7.971581724774193
 30
0.0
 10
9.838939839865198
 20
7.970968824159557
 30
0.0
 10
9.836600213555045
 20
7.969750792686888
 30
0.0
 10
9.83292533637434
 20
7.968145069986554
 30
0.0
 10
9.829023081884413
 20
7.966647464216742
 30
0.0
 10
9.82365383217806
 20
7.964767599214991
 30
0.0
 10
9.816663913620767
 20
7.962623438067781
 30
0.0
 10
9.805163414325444
 20
7.959803720535191
 30
0.0
 10
9.79207895203956
 20
7.957731972762264
 30
0.0
 10
9.779649247240206
 20
7.956616600170747
 30
0.0
 10
9.773348120770704
 20
7.956491976113165
 30
0.0
 10
9.771247290651514
 20
7.956450425768951
 30
0.0
  0
SPLINE
  5
307
330
1F
100
AcDbEntity
  8
0
  6
Continuous
 62
     7
370
     0
100
AcDbSpline
210
0.0
220
0.0
230
1.0
 70
     8
 71
     3
 72
    16
 73
    12
 74
     0
 42
0.000000001
 43
0.00000001
 40
0.0
 40
0.0
 40
0.0
 40
0.0
 40
0.0625697547084688
 40
0.1251369399296124
 40
0.2499666500377842
 40
0.3499358707803944
 40
0.4995864615022438
 40
0.6245408180780279
 40
0.7496422811592033
 40
0.8497874744124556
 40
1.0
 40
1.0
 40
1.0
 40
1.0
 10
9.687945989057868
 20
7.994480697801066
 30
0.0
 10
9.687192472567986
 20
7.994891775175936
 30
0.0
 10
9.685685470532102
 20
7.995713913044387
 30
0.0
 10
9.683245157506944
 20
7.997614130375176
 30
0.0
 10
9.681301467913027
 20
8.000085079874122
 30
0.0
 10
9.680267138610239
 20
8.003552550677973
 30
0.0
 10
9.681115170157184
 20
8.007136274728108
 30
0.0
 10
9.683730539323287
 20
8.010757077397793
 30
0.0
 10
9.687154610013053
 20
8.013656427467655
 30
0.0
 10
9.691304384130888
 20
8.016584861435785
 30
0.0
 10
9.694369692267658
 20
8.018412732259657
 30
0.0
 10
9.696208851367926
 20
8.019509439380064
 30
0.0
  0
SPLINE
  5
308
330
1F
100
AcDbEntity
  8
0
  6
Continuous
 62
     7
370
     0
100
AcDbSpline
210
0.0
220
0.0
230
1.0
 70
     8
 71
     3
 72
    14
 73
    10
 74
     0
 42
0.000000001
 43
0.00000001
 40
0.0
 40
0.0
 40
0.0
 40
0.0
 40
0.125457554294469
 40
0.2508285897068325
 40
0.500090956751467
 40
0.7491999279455653
 40
0.8744961660763708
 40
0.937236830666674
 40
1.0
 40
1.0
 40
1.0
 40
1.0
 10
9.72404102218094
 20
7.996264247096619
 30
0.0
 10
9.722803362873584
 20
7.995596693384467
 30
0.0
 10
9.720328897781807
 20
7.994262046323042
 30
0.0
 10
9.714598082584972
 20
7.992133187393145
 30
0.0
 10
9.706271342939873
 20
7.990685945237297
 30
0.0
 10
9.697687943412918
 20
7.991182957005908
 30
0.0
 10
9.692468476065573
 20
7.992560988703303
 30
0.0
 10
9.689779147695743
 20
7.993591630572131
 30
0.0
 10
9.688557114980167
 20
7.994184306632816
 30
0.0
 10
9.687945989057868
 20
7.994480697801066
 30
0.0
  0
SPLINE
  5
309
330
1F
100
AcDbEntity
  8
0
  6
Continuous
 62
     7
370
     0
100
AcDbSpline
210
0.0
220
0.0
230
1.0
 70
     8
 71
     3
 72
    15
 73
    11
 74
     0
 42
0.000000001
 43
0.00000001
 40
0.0
 40
0.0
 40
0.0
 40
0.0
 40
0.062664500902222
 40
0.1253107637420389
 40
0.2503477986634132
 40
0.4991951788123503
 40
0.6225260380517703
 40
0.7495249811133167
 40
0.8747450412227099
 40
1.0
 40
1.0
 40
1.0
 40
1.0
 10
9.726211504428273
 20
8.015179687044872
 30
0.0
 10
9.726761500019334
 20
8.014880891790089
 30
0.0
 10
9.727861331129107
 20
8.014283388242779
 30
0.0
 10
9.729740553099395
 20
8.01292433997119
 30
0.0
 10
9.732249065290002
 20
8.010241228080721
 30
0.0
 10
9.732957657361073
 20
8.006647777206704
 30
0.0
 10
9.731808027814694
 20
8.003128642788672
 30
0.0
 10
9.729943993650638
 20
8.000611873452204
 30
0.0
 10
9.727322482688937
 20
7.998287409654418
 30
0.0
 10
9.725134943946815
 20
7.996938697254555
 30
0.0
 10
9.72404102218094
 20
7.996264247096619
 30
0.0
  0
SPLINE
  5
30A
330
1F
100
AcDbEntity
  8
0
  6
Continuous
 62
     7
370
     0
100
AcDbSpline
210
0.0
220
0.0
230
1.0
 70
     8
 71
     3
 72
    13
 73
     9
 74
     0
 42
0.000000001
 43
0.00000001
 40
0.0
 40
0.0
 40
0.0
 40
0.0
 40
0.1430241507052151
 40
0.2859709586427932
 40
0.571278408109803
 40
0.7854625619653861
 40
0.8926993406487215
 40
1.0
 40
1.0
 40
1.0
 40
1.0
 10
9.705898242625679
 20
8.017406345858042
 30
0.0
 10
9.70692710739937
 20
8.017561860983102
 30
0.0
 10
9.708984280570444
 20
8.01787280713575
 30
0.0
 10
9.713186991720288
 20
8.018073546293925
 30
0.0
 10
9.717869666964642
 20
8.017782405434712
 30
0.0
 10
9.72192797581778
 20
8.016903244057756
 30
0.0
 10
9.724491908462541
 20
8.016001077587648
 30
0.0
 10
9.725638192000567
 20
8.015453538237571
 30
0.0
 10
9.726211504428273
 20
8.015179687044872
 30
0.0
  0
LINE
  5
30B
330
1F
100
AcDbEntity
  8
0
  6
Continuous
 62
     7
370
     0
100
AcDbLine
 10
9.7072468226
 20
8.0182211381
 30
0.0
 11
9.7058982426
 21
8.0174063459
 31
0.0
  0
SPLINE
  5
30C
330
1F
100
AcDbEntity
  8
0
  6
Continuous
 62
     7
370
     0
100
AcDbSpline
210
0.0
220
0.0
230
1.0
 70
     8
 71
     3
 72
    17
 73
    13
 74
     0
 42
0.000000001
 43
0.00000001
 40
0.0
 40
0.0
 40
0.0
 40
0.0
 40
0.0625536186236341
 40
0.125071644011615
 40
0.2497178598666731
 40
0.3122174256645019
 40
0.3747229273989918
 40
0.4995656803154667
 40
0.6425243210189044
 40
0.785493239305184
 40
0.892740596061087
 40
1.0
 40
1.0
 40
1.0
 40
1.0
 10
9.739323527396683
 20
8.023475807937258
 30
0.0
 10
9.738758846136054
 20
8.02374098634366
 30
0.0
 10
9.73762980492048
 20
8.024271192268987
 30
0.0
 10
9.735038610398506
 20
8.02507981281125
 30
0.0
 10
9.732100032585302
 20
8.025551637775095
 30
0.0
 10
9.729035758429644
 20
8.025575002167708
 30
0.0
 10
9.725951940616808
 20
8.025362025376715
 30
0.0
 10
9.722093236981175
 20
8.024432751938502
 30
0.0
 10
9.71762726953632
 20
8.022992244223104
 30
0.0
 10
9.713565391463412
 20
8.021408656282755
 30
0.0
 10
9.710096531877904
 20
8.019811985390326
 30
0.0
 10
9.708196761254309
 20
8.01875144039055
 30
0.0
 10
9.70724682259481
 20
8.018221138109364
 30
0.0
  0
SPLINE
  5
30D
330
1F
100
AcDbEntity
  8
0
  6
Continuous
 62
     7
370
     0
100
AcDbSpline
210
0.0
220
0.0
230
1.0
 70
     8
 71
     3
 72
    13
 73
     9
 74
     0
 42
0.000000001
 43
0.00000001
 40
0.0
 40
0.0
 40
0.0
 40
0.0
 40
0.1917159337059784
 40
0.356795682834724
 40
0.5009113189631754
 40
0.7493888180848081
 40
0.8746309600070099
 40
1.0
 40
1.0
 40
1.0
 40
1.0
 10
9.739357084837414
 20
8.01393115845758
 30
0.0
 10
9.740032833420104
 20
8.014516351488085
 30
0.0
 10
9.741290444993252
 20
8.015605433354533
 30
0.0
 10
9.742538900128803
 20
8.01728038955643
 30
0.0
 10
9.743232489902503
 20
8.019245861929225
 30
0.0
 10
9.742543221143613
 20
8.021081223723863
 30
0.0
 10
9.740967422294597
 20
8.022565552395157
 30
0.0
 10
9.739871677307747
 20
8.023172287015646
 30
0.0
 10
9.739323527396683
 20
8.023475807937258
 30
0.0
  0
SPLINE
  5
30E
330
1F
100
AcDbEntity
  8
0
  6
Continuous
 62
     7
370
     0
100
AcDbSpline
210
0.0
220
0.0
230
1.0
 70
     8
 71
     3
 72
     8
 73
     4
 74
     0
 42
0.000000001
 43
0.00000001
 40
0.0
 40
0.0
 40
0.0
 40
0.0
 40
1.0
 40
1.0
 40
1.0
 40
1.0
 10
9.747328431703874
 20
8.01051412350569
 30
0.0
 10
9.7446708660948
 20
8.011666398936356
 30
0.0
 10
9.742013715475037
 20
8.012805429112865
 30
0.0
 10
9.739357084837414
 20
8.01393115845758
 30
0.0
  0
SPLINE
  5
30F
330
1F
100
AcDbEntity
  8
0
  6
Continuous
 62
     7
370
     0
100
AcDbSpline
210
0.0
220
0.0
230
1.0
 70
     8
 71
     3
 72
    13
 73
     9
 74
     0
 42
0.000000001
 43
0.00000001
 40
0.0
 40
0.0
 40
0.0
 40
0.0
 40
0.1254086027363358
 40
0.250752130347599
 40
0.499852055574577
 40
0.7491740362510736
 40
0.8745486168214314
 40
1.0
 40
1.0
 40
1.0
 40
1.0
 10
9.7462240068698
 20
8.02705299069196
 30
0.0
 10
9.747170684847745
 20
8.026526622885337
 30
0.0
 10
9.749063549567898
 20
8.025474160406871
 30
0.0
 10
9.751960820230089
 20
8.022949777721896
 30
0.0
 10
9.753694733979
 20
8.019172745258741
 30
0.0
 10
9.752282130991397
 20
8.015269227128604
 30
0.0
 10
9.749803125262513
 20
8.01244248324325
 30
0.0
 10
9.748153497928055
 20
8.011157041285138
 30
0.0
 10
9.747328431703874
 20
8.01051412350569
 30
0.0
  0
SPLINE
  5
310
330
1F
100
AcDbEntity
  8
0
  6
Continuous
 62
     7
370
     0
100
AcDbSpline
210
0.0
220
0.0
230
1.0
 70
     8
 71
     3
 72
    16
 73
    12
 74
     0
 42
0.000000001
 43
0.00000001
 40
0.0
 40
0.0
 40
0.0
 40
0.0
 40
0.1430568016872664
 40
0.2503487721551221
 40
0.3754702717669265
 40
0.5004912293060492
 40
0.6285196198708853
 40
0.7501531322787617
 40
0.8748855366830849
 40
0.9374239914697222
 40
1.0
 40
1.0
 40
1.0
 40
1.0
 10
9.696208851367926
 20
8.019509439380064
 30
0.0
 10
9.698187964140875
 20
8.02061631777021
 30
0.0
 10
9.701651402766792
 20
8.022553350072274
 30
0.0
 10
9.707255900396145
 20
8.025235404458028
 30
0.0
 10
9.712970190085008
 20
8.027545849142545
 30
0.0
 10
9.719618907816006
 20
8.029465658681554
 30
0.0
 10
9.726735440433231
 20
8.030595647916725
 30
0.0
 10
9.734009956728626
 20
8.030608099829387
 30
0.0
 10
9.739595194096246
 20
8.029614553851038
 30
0.0
 10
9.74359366408512
 20
8.028307917001403
 30
0.0
 10
9.745347050512283
 20
8.027471383158405
 30
0.0
 10
9.7462240068698
 20
8.02705299069196
 30
0.0
  0
SPLINE
  5
311
330
1F
100
AcDbEntity
  8
0
  6
Continuous
 62
     7
370
     0
100
AcDbSpline
210
0.0
220
0.0
230
1.0
 70
     8
 71
     3
 72
     8
 73
     4
 74
     0
 42
0.000000001
 43
0.00000001
 40
0.0
 40
0.0
 40
0.0
 40
0.0
 40
1.0
 40
1.0
 40
1.0
 40
1.0
 10
9.668271766075074
 20
8.061649596205982
 30
0.0
 10
9.657256286923639
 20
8.050489115023284
 30
0.0
 10
9.64624834090449
 20
8.039269268660973
 30
0.0
 10
9.635247007707878
 20
8.027990430856129
 30
0.0
  0
ARC
  5
312
330
1F
100
AcDbEntity
  8
0
  6
Continuous
 62
     7
370
     0
100
AcDbCircle
 10
9.3748247995
 20
7.3182187674
 30
0.0
 40
0.799249973025154
100
AcDbArc
 50
68.4598623207
 51
69.092834327
  0
SPLINE
  5
313
330
1F
100
AcDbEntity
  8
0
  6
Continuous
 62
     7
370
     0
100
AcDbSpline
210
0.0
220
0.0
230
1.0
 70
     8
 71
     3
 72
     8
 73
     4
 74
     0
 42
0.000000001
 43
0.00000001
 40
0.0
 40
0.0
 40
0.0
 40
0.0
 40
1.0
 40
1.0
 40
1.0
 40
1.0
 10
9.597318019164875
 20
8.042717510725236
 30
0.0
 10
9.618216921601151
 20
8.050154190751869
 30
0.0
 10
9.639124897600004
 20
8.05753023993879
 30
0.0
 10
9.66004101466875
 20
8.064846003721186
 30
0.0
  0
LINE
  5
314
330
1F
100
AcDbEntity
  8
0
  6
Continuous
 62
     7
370
     0
100
AcDbLine
 10
9.645183709
 20
8.0703497853
 30
0.0
 11
9.5973180192
 21
8.0427175107
 31
0.0
  0
ARC
  5
315
330
1F
100
AcDbEntity
  8
0
  6
Continuous
 62
     7
370
     0
100
AcDbCircle
 10
9.3886012608
 20
7.3553892129
 30
0.0
 40
0.7596072489841993
100
AcDbArc
 50
70.2581374881
 51
70.8844749746
  0
LINE
  5
316
330
1F
100
AcDbEntity
  8
0
  6
Continuous
 62
     7
370
     0
100
AcDbLine
 10
9.5807842916
 20
8.040455556
 30
0.0
 11
9.6373528341
 21
8.0731118805
 31
0.0
  0
ARC
  5
317
330
1F
100
AcDbEntity
  8
0
  6
Continuous
 62
     7
370
     0
100
AcDbCircle
 10
9.330944174
 20
7.3196375917
 30
0.0
 40
0.7628883417519197
100
AcDbArc
 50
69.9518678017
 51
70.8833564407
  0
SPLINE
  5
318
330
1F
100
AcDbEntity
  8
0
  6
Continuous
 62
     7
370
     0
100
AcDbSpline
210
0.0
220
0.0
230
1.0
 70
     8
 71
     3
 72
     8
 73
     4
 74
     0
 42
0.000000001
 43
0.00000001
 40
0.0
 40
0.0
 40
0.0
 40
0.0
 40
1.0
 40
1.0
 40
1.0
 40
1.0
 10
9.643817796772064
 20
8.054203525521014
 30
0.0
 10
9.626695971198183
 20
8.048276780153994
 30
0.0
 10
9.609579690828813
 20
8.042308568641914
 30
0.0
 10
9.592469488362854
 20
8.036298691501127
 30
0.0
  0
SPLINE
  5
319
330
1F
100
AcDbEntity
  8
0
  6
Continuous
 62
     7
370
     0
100
AcDbSpline
210
0.0
220
0.0
230
1.0
 70
     8
 71
     3
 72
     9
 73
     5
 74
     0
 42
0.000000001
 43
0.00000001
 40
0.0
 40
0.0
 40
0.0
 40
0.0
 40
0.5714251866672605
 40
1.0
 40
1.0
 40
1.0
 40
1.0
 10
9.655542982404056
 20
8.058333402319526
 30
0.0
 10
9.653316427567715
 20
8.057541884319281
 30
0.0
 10
9.649419933523893
 20
8.056156719614059
 30
0.0
 10
9.645498447088919
 20
8.054789486988357
 30
0.0
 10
9.643817796772064
 20
8.054203525521014
 30
0.0
  0
SPLINE
  5
31A
330
1F
100
AcDbEntity
  8
0
  6
Continuous
 62
     7
370
     0
100
AcDbSpline
210
0.0
220
0.0
230
1.0
 70
     8
 71
     3
 72
     9
 73
     5
 74
     0
 42
0.000000001
 43
0.00000001
 40
0.0
 40
0.0
 40
0.0
 40
0.0
 40
0.3333359272971089
 40
1.0
 40
1.0
 40
1.0
 40
1.0
 10
9.649753597027654
 20
8.052556178737643
 30
0.0
 10
9.650388441979917
 20
8.05319991532622
 30
0.0
 10
9.652292962015938
 20
8.055131110063602
 30
0.0
 10
9.654242977283769
 20
8.057052488407548
 30
0.0
 10
9.655542982404056
 20
8.058333402319526
 30
0.0
  0
SPLINE
  5
31B
330
1F
100
AcDbEntity
  8
0
  6
Continuous
 62
     7
370
     0
100
AcDbSpline
210
0.0
220
0.0
230
1.0
 70
     8
 71
     3
 72
     8
 73
     4
 74
     0
 42
0.000000001
 43
0.00000001
 40
0.0
 40
0.0
 40
0.0
 40
0.0
 40
1.0
 40
1.0
 40
1.0
 40
1.0
 10
9.622560780208289
 20
8.024617174160989
 30
0.0
 10
9.631619995126785
 20
8.033972234107567
 30
0.0
 10
9.640684083786594
 20
8.043285309405526
 30
0.0
 10
9.649753597027654
 20
8.052556178737643
 30
0.0
  0
ARC
  5
31C
330
1F
100
AcDbEntity
  8
0
  6
Continuous
 62
     7
370
     0
100
AcDbCircle
 10
9.3042556276
 20
7.2509292938
 30
0.0
 40
0.8366069007552704
100
AcDbArc
 50
66.7536634187
 51
67.6371032947
  0
LINE
  5
31D
330
1F
100
AcDbEntity
  8
0
  6
Continuous
 62
     7
370
     0
100
AcDbLine
 10
9.6910204561
 20
8.052273799
 30
0.0
 11
9.6344519136
 21
8.0196174745
 31
0.0
  0
ARC
  5
31E
330
1F
100
AcDbEntity
  8
0
  6
Continuous
 62
     7
370
     0
100
AcDbCircle
 10
9.3594113757
 20
7.2802574203
 30
0.0
 40
0.8402225128174278
100
AcDbArc
 50
66.7547198043
 51
67.3403248401
  0
LINE
  5
31F
330
1F
100
AcDbEntity
  8
0
  6
Continuous
 62
     7
370
     0
100
AcDbLine
 10
9.6352470077
 20
8.0279904309
 30
0.0
 11
9.6831126975
 21
8.0556227054
 31
0.0
  0
LWPOLYLINE
  5
320
330
1F
100
AcDbEntity
  8
0
  6
Continuous
 62
     7
370
     0
100
AcDbPolyline
 90
      161
 70
   128
 43
0.0
 10
8.9272050096
 20
7.4512494986
 10
8.9277691459
 20
7.484097321
 10
8.9294606847
 20
7.5162431565
 10
8.9322770179
 20
7.5476374388
 10
8.9362138029
 20
7.57823176
 10
8.9412649695
 20
7.6079789459
 10
8.9474227291
 20
7.6368331285
 10
8.9546775869
 20
7.6647498169
 10
8.9630183564
 20
7.6916859653
 10
8.9724321768
 20
7.7176000404
 10
8.9829045326
 20
7.7424520843
 10
8.9944192763
 20
7.7662037772
 10
9.0069586529
 20
7.7888184956
 10
9.0205033277
 20
7.8102613692
 10
9.0350324157
 20
7.8304993347
 10
9.050523514
 20
7.8495011866
 10
9.0669527367
 20
7.8672376255
 10
9.0842947509
 20
7.883681303
 10
9.1025228167
 20
7.8988068641
 10
9.1216088275
 20
7.9125909864
 10
9.1415233542
 20
7.9250124158
 10
9.16223569
 20
7.9360519992
 10
9.183713898
 20
7.9456927145
 10
9.2059248603
 20
7.9539196964
 10
9.2288343293
 20
7.9607202594
 10
9.2524069802
 20
7.9660839176
 10
9.2766064657
 20
7.9700024006
 10
9.3013954719
 20
7.9724696665
 10
9.3267357761
 20
7.9734819107
 10
9.3525883052
 20
7.9730375726
 10
9.3789131966
 20
7.9711373373
 10
9.4056698591
 20
7.9677841349
 10
9.432817036
 20
7.9629831356
 10
9.4603128682
 20
7.9567417423
 10
9.4881149593
 20
7.9490695787
 10
9.5161804403
 20
7.9399784749
 10
9.5444660363
 20
7.9294824486
 10
9.5729281331
 20
7.9175976839
 10
9.601522844
 20
7.9043425063
 10
9.6302060782
 20
7.8897373542
 10
9.6589336082
 20
7.8738047479
 10
9.6876611382
 20
7.8565692541
 10
9.7163443724
 20
7.8380574489
 10
9.7449390833
 20
7.818297876
 10
9.7734011801
 20
7.7973210032
 10
9.8016867761
 20
7.7751591755
 10
9.8297522571
 20
7.7518465647
 10
9.8575543482
 20
7.7274191172
 10
9.8850501804
 20
7.7019144983
 10
9.9121973573
 20
7.6753720343
 10
9.9389540199
 20
7.6478326518
 10
9.9652789112
 20
7.6193388145
 10
9.9911314404
 20
7.5899344578
 10
10.0164717445
 20
7.5596649211
 10
10.0412607507
 20
7.5285768779
 10
10.0654602362
 20
7.4967182636
 10
10.0890328871
 20
7.464138202
 10
10.1119423561
 20
7.4308869291
 10
10.1341533185
 20
7.397015716
 10
10.1556315264
 20
7.3625767896
 10
10.1763438622
 20
7.3276232522
 10
10.1962583889
 20
7.2922089998
 10
10.2153443998
 20
7.2563886384
 10
10.2335724655
 20
7.2202174006
 10
10.2509144797
 20
7.1837510596
 10
10.2673437024
 20
7.1470458441
 10
10.2828348008
 20
7.1101583507
 10
10.2973638887
 20
7.0731454573
 10
10.3109085635
 20
7.0360642351
 10
10.3234479401
 20
6.9989718606
 10
10.3349626838
 20
6.9619255277
 10
10.3454350396
 20
6.924982359
 10
10.35484886
 20
6.8881993183
 10
10.3631896296
 20
6.8516331223
 10
10.3704444874
 20
6.8153401535
 10
10.3766022469
 20
6.7793763729
 10
10.3816534135
 20
6.7437972342
 10
10.3855901985
 20
6.7086575978
 10
10.3884065317
 20
6.6740116465
 10
10.3900980706
 20
6.6399128017
 10
10.3906622068
 20
6.6064136415
 10
10.3900980706
 20
6.5735658191
 10
10.3884065317
 20
6.5414199836
 10
10.3855901985
 20
6.5100257013
 10
10.3816534135
 20
6.4794313801
 10
10.3766022469
 20
6.4496841942
 10
10.3704444874
 20
6.4208300116
 10
10.3631896296
 20
6.3929133232
 10
10.35484886
 20
6.3659771748
 10
10.3454350396
 20
6.3400630997
 10
10.3349626838
 20
6.3152110558
 10
10.3234479401
 20
6.2914593629
 10
10.3109085635
 20
6.2688446445
 10
10.2973638887
 20
6.2474017709
 10
10.2828348008
 20
6.2271638054
 10
10.2673437024
 20
6.2081619535
 10
10.2509144797
 20
6.1904255146
 10
10.2335724655
 20
6.1739818371
 10
10.2153443998
 20
6.158856276
 10
10.1962583889
 20
6.1450721537
 10
10.1763438622
 20
6.1326507243
 10
10.1556315264
 20
6.1216111409
 10
10.1341533185
 20
6.1119704256
 10
10.1119423561
 20
6.1037434437
 10
10.0890328871
 20
6.0969428807
 10
10.0654602362
 20
6.0915792225
 10
10.0412607507
 20
6.0876607395
 10
10.0164717445
 20
6.0851934736
 10
9.9911314404
 20
6.0841812294
 10
9.9652789112
 20
6.0846255675
 10
9.9389540199
 20
6.0865258028
 10
9.9121973573
 20
6.0898790053
 10
9.8850501804
 20
6.0946800045
 10
9.8575543482
 20
6.1009213978
 10
9.8297522571
 20
6.1085935614
 10
9.8016867761
 20
6.1176846652
 10
9.7734011801
 20
6.1281806915
 10
9.7449390833
 20
6.1400654562
 10
9.7163443724
 20
6.1533206339
 10
9.6876611382
 20
6.1679257859
 10
9.6589336082
 20
6.1838583922
 10
9.6302060782
 20
6.201093886
 10
9.601522844
 20
6.2196056912
 10
9.5729281331
 20
6.2393652641
 10
9.5444660363
 20
6.2603421369
 10
9.5161804403
 20
6.2825039646
 10
9.4881149593
 20
6.3058165754
 10
9.4603128682
 20
6.3302440229
 10
9.432817036
 20
6.3557486418
 10
9.4056698591
 20
6.3822911058
 10
9.3789131966
 20
6.4098304883
 10
9.3525883052
 20
6.4383243256
 10
9.3267357761
 20
6.4677286823
 10
9.3013954719
 20
6.497998219
 10
9.2766064657
 20
6.5290862622
 10
9.2524069802
 20
6.5609448765
 10
9.2288343293
 20
6.5935249381
 10
9.2059248603
 20
6.626776211
 10
9.183713898
 20
6.6606474241
 10
9.16223569
 20
6.6950863505
 10
9.1415233542
 20
6.7300398879
 10
9.1216088275
 20
6.7654541403
 10
9.1025228167
 20
6.8012745017
 10
9.0842947509
 20
6.8374457395
 10
9.0669527367
 20
6.8739120805
 10
9.050523514
 20
6.910617296
 10
9.0350324157
 20
6.9475047894
 10
9.0205033277
 20
6.9845176828
 10
9.0069586529
 20
7.021598905
 10
8.9944192763
 20
7.0586912795
 10
8.9829045326
 20
7.0957376124
 10
8.9724321768
 20
7.1326807811
 10
8.9630183564
 20
7.1694638218
 10
8.9546775869
 20
7.2060300178
 10
8.9474227291
 20
7.2423229867
 10
8.9412649695
 20
7.2782867672
 10
8.9362138029
 20
7.3138659059
 10
8.9322770179
 20
7.3490055423
 10
8.9294606847
 20
7.3836514936
 10
8.9277691459
 20
7.4177503384
 10
8.9272050096
 20
7.4512494986
  0
LWPOLYLINE
  5
321
330
1F
100
AcDbEntity
  8
0
  6
Continuous
 62
     7
370
     0
100
AcDbPolyline
 90
      160
 70
   128
 43
0.0
 10
8.9465235262
 20
7.4482612375
 10
8.9470852184
 20
7.4151136962
 10
8.948769418
 20
7.3813693948
 10
8.9515734953
 20
7.3470810211
 10
8.9554930721
 20
7.3123021123
 10
8.9605220284
 20
7.2770869715
 10
8.9666525121
 20
7.241490583
 10
8.9738749512
 20
7.2055685263
 10
8.9821780687
 20
7.1693768894
 10
8.9915489003
 20
7.1329721814
 10
9.0019728146
 20
7.0964112437
 10
9.0134335357
 20
7.059751162
 10
9.0259131692
 20
7.0230491767
 10
9.0393922296
 20
6.9863625936
 10
9.053849671
 20
6.9497486943
 10
9.0692629198
 20
6.9132646471
 10
9.0856079099
 20
6.8769674176
 10
9.1028591207
 20
6.8409136796
 10
9.1209896165
 20
6.8051597267
 10
9.1399710886
 20
6.7697613844
 10
9.1597738996
 20
6.7347739231
 10
9.18036713
 20
6.7002519715
 10
9.2017186257
 20
6.6662494316
 10
9.2237950489
 20
6.6328193943
 10
9.24656193
 20
6.6000140566
 10
9.2699837212
 20
6.5678846402
 10
9.2940238521
 20
6.5364813113
 10
9.3186447869
 20
6.5058531025
 10
9.3438080829
 20
6.4760478361
 10
9.3694744506
 20
6.4471120495
 10
9.3956038151
 20
6.4190909226
 10
9.4221553784
 20
6.3920282069
 10
9.4490876835
 20
6.3659661576
 10
9.4763586787
 20
6.3409454677
 10
9.5039257836
 20
6.3170052038
 10
9.5317459555
 20
6.294182746
 10
9.5597757564
 20
6.2725137287
 10
9.5879714211
 20
6.2520319855
 10
9.6162889256
 20
6.2327694964
 10
9.6446840552
 20
6.2147563372
 10
9.6731124745
 20
6.1980206336
 10
9.7015297958
 20
6.1825885162
 10
9.7298916489
 20
6.1684840805
 10
9.75815375
 20
6.1557293489
 10
9.7862719713
 20
6.1443442364
 10
9.8142024095
 20
6.1343465195
 10
9.8419014545
 20
6.1257518084
 10
9.8693258576
 20
6.1185735228
 10
9.8964327987
 20
6.1128228707
 10
9.9231799538
 20
6.1085088311
 10
9.9495255601
 20
6.1056381398
 10
9.9754284823
 20
6.1042152791
 10
10.0008482759
 20
6.1042424706
 10
10.025745251
 20
6.1057196718
 10
10.0500805338
 20
6.1086445763
 10
10.0738161278
 20
6.1130126172
 10
10.0969149727
 20
6.1188169743
 10
10.1193410022
 20
6.1260485848
 10
10.1410592009
 20
6.1346961574
 10
10.1620356584
 20
6.1447461898
 10
10.1822376224
 20
6.1561829903
 10
10.2016335498
 20
6.1689887016
 10
10.2201931564
 20
6.1831433291
 10
10.2378874635
 20
6.198624772
 10
10.2546888435
 20
6.2154088578
 10
10.270571063
 20
6.2334693803
 10
10.2855093239
 20
6.2527781401
 10
10.2994803018
 20
6.2733049888
 10
10.3124621827
 20
6.2950178762
 10
10.324434697
 20
6.3178829002
 10
10.335379151
 20
6.3418643597
 10
10.3452784561
 20
6.3669248107
 10
10.3541171559
 20
6.3930251241
 10
10.3618814498
 20
6.4201245474
 10
10.3685592146
 20
6.448180768
 10
10.374140024
 20
6.4771499796
 10
10.378615164
 20
6.5069869502
 10
10.3819776474
 20
6.5376450928
 10
10.384222224
 20
6.5690765383
 10
10.3853453891
 20
6.6012322104
 10
10.3853453891
 20
6.6340619018
 10
10.384222224
 20
6.6675143528
 10
10.3819776474
 20
6.7015373313
 10
10.378615164
 20
6.7360777146
 10
10.374140024
 20
6.7710815719
 10
10.3685592146
 20
6.8064942488
 10
10.3618814498
 20
6.8422604527
 10
10.3541171559
 20
6.8783243388
 10
10.3452784561
 20
6.9146295978
 10
10.335379151
 20
6.9511195432
 10
10.324434697
 20
6.9877372003
 10
10.3124621827
 20
7.024425395
 10
10.2994803018
 20
7.0611268431
 10
10.2855093239
 20
7.0977842395
 10
10.270571063
 20
7.1343403482
 10
10.2546888435
 20
7.170738091
 10
10.2378874635
 20
7.2069206373
 10
10.2201931564
 20
7.2428314923
 10
10.2016335498
 20
7.2784145854
 10
10.1822376224
 20
7.3136143579
 10
10.1620356584
 20
7.3483758495
 10
10.1410592009
 20
7.3826447843
 10
10.1193410022
 20
7.4163676553
 10
10.0969149727
 20
7.4494918084
 10
10.0738161278
 20
7.481965524
 10
10.0500805338
 20
7.5137380984
 10
10.025745251
 20
7.5447599225
 10
10.0008482759
 20
7.5749825593
 10
9.9754284823
 20
7.6043588198
 10
9.9495255601
 20
7.6328428364
 10
9.9231799538
 20
7.6603901347
 10
9.8964327987
 20
7.686957703
 10
9.8693258576
 20
7.712504059
 10
9.8419014545
 20
7.7369893152
 10
9.8142024095
 20
7.7603752408
 10
9.7862719713
 20
7.7826253214
 10
9.75815375
 20
7.8037048162
 10
9.7298916489
 20
7.823580812
 10
9.7015297958
 20
7.8422222748
 10
9.6731124745
 20
7.8596000982
 10
9.6446840552
 20
7.8756871488
 10
9.6162889256
 20
7.8904583085
 10
9.5879714211
 20
7.903890514
 10
9.5597757564
 20
7.9159627925
 10
9.5317459555
 20
7.9266562945
 10
9.5039257836
 20
7.9359543234
 10
9.4763586787
 20
7.9438423614
 10
9.4490876835
 20
7.9503080923
 10
9.4221553784
 20
7.9553414206
 10
9.3956038151
 20
7.9589344874
 10
9.3694744506
 20
7.9610816825
 10
9.3438080829
 20
7.9617796533
 10
9.3186447869
 20
7.9610273101
 10
9.2940238521
 20
7.9588258275
 10
9.2699837212
 20
7.9551786429
 10
9.24656193
 20
7.950091451
 10
9.2237950489
 20
7.9435721947
 10
9.2017186257
 20
7.9356310531
 10
9.18036713
 20
7.9262804254
 10
9.1597738996
 20
7.9155349115
 10
9.1399710886
 20
7.9034112892
 10
9.1209896165
 20
7.8899284881
 10
9.1028591207
 20
7.87510756
 10
9.0856079099
 20
7.858971646
 10
9.0692629198
 20
7.8415459405
 10
9.053849671
 20
7.8228576515
 10
9.0393922296
 20
7.8029359587
 10
9.0259131692
 20
7.7818119675
 10
9.0134335357
 20
7.7595186603
 10
9.0019728146
 20
7.7360908456
 10
8.9915489003
 20
7.7115651032
 10
8.9821780687
 20
7.685979727
 10
8.9738749512
 20
7.6593746655
 10
8.9666525121
 20
7.6317914595
 10
8.9605220284
 20
7.6032731769
 10
8.9554930721
 20
7.5738643454
 10
8.9515734953
 20
7.5436108836
 10
8.948769418
 20
7.5125600287
 10
8.9470852184
 20
7.4807602628
 10
8.9465235262
 20
7.4482612375
  0
ARC
  5
322
330
1F
100
AcDbEntity
  8
0
  6
Continuous
 62
     7
370
     0
100
AcDbCircle
 10
9.0334112553
 20
6.6677252021
 30
0.0
 40
1.673737949627865
100
AcDbArc
 50
2.5807340673
 51
57.4138894
  0
LWPOLYLINE
  5
323
330
1F
100
AcDbEntity
  8
0
  6
Continuous
 62
     7
370
     0
100
AcDbPolyline
 90
       50
 70
   128
 43
0.0
 10
10.7319681487
 20
6.8175859711
 10
10.7314064565
 20
6.8507335124
 10
10.7297222569
 20
6.8844778138
 10
10.7269181796
 20
6.9187661875
 10
10.7229986028
 20
6.9535450963
 10
10.7179696464
 20
6.9887602371
 10
10.7118391627
 20
7.0243566256
 10
10.7046167236
 20
7.0602786823
 10
10.6963136061
 20
7.0964703192
 10
10.6869427745
 20
7.1328750273
 10
10.6765188603
 20
7.1694359649
 10
10.6650581391
 20
7.2060960466
 10
10.6525785056
 20
7.2427980319
 10
10.6390994452
 20
7.2794846151
 10
10.6246420038
 20
7.3160985144
 10
10.6092287551
 20
7.3525825615
 10
10.5928837649
 20
7.388879791
 10
10.5756325541
 20
7.424933529
 10
10.5575020583
 20
7.4606874819
 10
10.5385205863
 20
7.4960858242
 10
10.5187177752
 20
7.5310732855
 10
10.4981245449
 20
7.5655952371
 10
10.4767730492
 20
7.599597777
 10
10.4546966259
 20
7.6330278143
 10
10.4319297448
 20
7.665833152
 10
10.4085079536
 20
7.6979625684
 10
10.3844678227
 20
7.7293658973
 10
10.359846888
 20
7.7599941061
 10
10.334683592
 20
7.7897993725
 10
10.3090172242
 20
7.8187351591
 10
10.2828878597
 20
7.8467562861
 10
10.2563362964
 20
7.8738190018
 10
10.2294039913
 20
7.899881051
 10
10.2021329961
 20
7.9249017409
 10
10.1745658912
 20
7.9488420048
 10
10.1467457194
 20
7.9716644626
 10
10.1187159184
 20
7.9933334799
 10
10.0905202537
 20
8.0138152231
 10
10.0622027493
 20
8.0330777123
 10
10.0338076196
 20
8.0510908714
 10
10.0053792003
 20
8.0678265751
 10
9.976961879
 20
8.0832586925
 10
9.9486000259
 20
8.0973631282
 10
9.9203379248
 20
8.1101178598
 10
9.8922197035
 20
8.1215029723
 10
9.8642892653
 20
8.1315006892
 10
9.8365902203
 20
8.1400954002
 10
9.8091658173
 20
8.1472736858
 10
9.7820588761
 20
8.1530243379
 10
9.7663756151
 20
8.1557213219
  0
ARC
  5
324
330
1F
100
AcDbEntity
  8
0
  6
Continuous
 62
     7
370
     0
100
AcDbCircle
 10
10.0073904366
 20
6.8057401868
 30
0.0
 40
0.7246745362102126
100
AcDbArc
 50
340.0379154229
 51
0.9366186332
  0
ARC
  5
325
330
1F
100
AcDbEntity
  8
0
  6
Continuous
 62
     7
370
     0
100
AcDbCircle
 10
8.7389337773
 20
6.4980245719
 30
0.0
 40
1.895623958561371
100
AcDbArc
 50
32.0478898658
 51
32.6301069414
  0
SPLINE
  5
326
330
1F
100
AcDbEntity
  8
0
  6
Continuous
 62
     7
370
     0
100
AcDbSpline
210
0.0
220
0.0
230
1.0
 70
     8
 71
     3
 72
    14
 73
    10
 74
     0
 42
0.000000001
 43
0.00000001
 40
0.0
 40
0.0
 40
0.0
 40
0.0
 40
0.1253839955032851
 40
0.2507191295885979
 40
0.4995238767908518
 40
0.6221861952332899
 40
0.7495943121210922
 40
0.8747213849329436
 40
1.0
 40
1.0
 40
1.0
 40
1.0
 10
10.33536984332106
 20
7.520170392905881
 30
0.0
 10
10.33476298371954
 20
7.521083861008614
 30
0.0
 10
10.33354950100618
 20
7.522910441240842
 30
0.0
 10
10.33080853442617
 20
7.526299905373394
 30
0.0
 10
10.32747303977025
 20
7.529305929161825
 30
0.0
 10
10.32354679118556
 20
7.530665178487588
 30
0.0
 10
10.32062525858982
 20
7.530780631589821
 30
0.0
 10
10.31787332333736
 20
7.530194227452286
 30
0.0
 10
10.31627414705951
 20
7.529372566287324
 30
0.0
 10
10.31547407502027
 20
7.528961487075533
 30
0.0
  0
SPLINE
  5
327
330
1F
100
AcDbEntity
  8
0
  6
Continuous
 62
     7
370
     0
100
AcDbSpline
210
0.0
220
0.0
230
1.0
 70
     8
 71
     3
 72
    13
 73
     9
 74
     0
 42
0.000000001
 43
0.00000001
 40
0.0
 40
0.0
 40
0.0
 40
0.0
 40
0.1253123608593306
 40
0.2505410036196952
 40
0.5002407886108519
 40
0.7496578836112284
 40
0.8747738520886604
 40
1.0
 40
1.0
 40
1.0
 40
1.0
 10
10.31547407502027
 20
7.528961487075533
 30
0.0
 10
10.31498105074557
 20
7.528653966077723
 30
0.0
 10
10.31399533157355
 20
7.528039129529301
 30
0.0
 10
10.31227732404924
 20
7.526482689701729
 30
0.0
 10
10.31063316862818
 20
7.52400638929796
 30
0.0
 10
10.30995444046503
 20
7.520925990084696
 30
0.0
 10
10.31009223074948
 20
7.51828643663324
 30
0.0
 10
10.31049072825421
 20
7.516965402794062
 30
0.0
 10
10.31069006469902
 20
7.516304595170769
 30
0.0
  0
SPLINE
  5
328
330
1F
100
AcDbEntity
  8
0
  6
Continuous
 62
     7
370
     0
100
AcDbSpline
210
0.0
220
0.0
230
1.0
 70
     8
 71
     3
 72
    11
 73
     7
 74
     0
 42
0.000000001
 43
0.00000001
 40
0.0
 40
0.0
 40
0.0
 40
0.0
 40
0.2245830904406725
 40
0.4998470029804292
 40
0.7047624397697299
 40
0.9999999999999999
 40
0.9999999999999999
 40
0.9999999999999999
 40
0.9999999999999999
 10
10.31069006469902
 20
7.516304595170769
 30
0.0
 10
10.31096256154591
 20
7.515679370650608
 30
0.0
 10
10.31156904857914
 20
7.514287829542242
 30
0.0
 10
10.31262685682378
 20
7.512397631050376
 30
0.0
 10
10.31386060890684
 20
7.510357893423717
 30
0.0
 10
10.31468187035622
 20
7.509055050193091
 30
0.0
 10
10.31516665646781
 20
7.508285989007685
 30
0.0
  0
ARC
  5
329
330
1F
100
AcDbEntity
  8
0
  6
Continuous
 62
     7
370
     0
100
AcDbCircle
 10
8.7186068396
 20
6.4862889967
 30
0.0
 40
1.895647936998665
100
AcDbArc
 50
32.0478923066
 51
32.6243017338
  0
LINE
  5
32A
330
1F
100
AcDbEntity
  8
0
  6
Continuous
 62
     7
370
     0
100
AcDbLine
 10
10.3253672284
 20
7.4921727643
 30
0.0
 11
10.3456738847
 21
7.5038955475
 31
0.0
  0
ARC
  5
32B
330
1F
100
AcDbEntity
  8
0
  6
Continuous
 62
     7
370
     0
100
AcDbCircle
 10
8.7979500945
 20
6.5383778948
 30
0.0
 40
1.83079456365087
100
AcDbArc
 50
36.2330678613
 51
37.0764059145
  0
SPLINE
  5
32C
330
1F
100
AcDbEntity
  8
0
  6
Continuous
 62
     7
370
     0
100
AcDbSpline
210
0.0
220
0.0
230
1.0
 70
     8
 71
     3
 72
     8
 73
     4
 74
     0
 42
0.000000001
 43
0.00000001
 40
0.0
 40
0.0
 40
0.0
 40
0.0
 40
1.0
 40
1.0
 40
1.0
 40
1.0
 10
10.25861705682747
 20
7.64212639856163
 30
0.0
 10
10.2552000417366
 20
7.63722916432224
 30
0.0
 10
10.25177951439557
 20
7.632327679903609
 30
0.0
 10
10.24835543647968
 20
7.627421996244288
 30
0.0
  0
SPLINE
  5
32D
330
1F
100
AcDbEntity
  8
0
  6
Continuous
 62
     7
370
     0
100
AcDbSpline
210
0.0
220
0.0
230
1.0
 70
     8
 71
     3
 72
     8
 73
     4
 74
     0
 42
0.000000001
 43
0.00000001
 40
0.0
 40
0.0
 40
0.0
 40
0.0
 40
1.0
 40
1.0
 40
1.0
 40
1.0
 10
10.24835543647968
 20
7.627421996244288
 30
0.0
 10
10.24576742386178
 20
7.623711586839507
 30
0.0
 10
10.24317737820089
 20
7.619998772968759
 30
0.0
 10
10.24058528295893
 20
7.616283576782775
 30
0.0
  0
SPLINE
  5
32E
330
1F
100
AcDbEntity
  8
0
  6
Continuous
 62
     7
370
     0
100
AcDbSpline
210
0.0
220
0.0
230
1.0
 70
     8
 71
     3
 72
    11
 73
     7
 74
     0
 42
0.000000001
 43
0.00000001
 40
0.0
 40
0.0
 40
0.0
 40
0.0
 40
0.2500100436890096
 40
0.4999937932095426
 40
0.749983451476662
 40
1.0
 40
1.0
 40
1.0
 40
1.0
 10
10.24058528295893
 20
7.616283576782775
 30
0.0
 10
10.24167292043122
 20
7.616561076710036
 30
0.0
 10
10.2438480809863
 20
7.617116047379209
 30
0.0
 10
10.24725104231915
 20
7.617615415589655
 30
0.0
 10
10.25070893846066
 20
7.617949867017924
 30
0.0
 10
10.25306783495313
 20
7.61797167305516
 30
0.0
 10
10.2542473466299
 20
7.617982576660141
 30
0.0
  0
SPLINE
  5
32F
330
1F
100
AcDbEntity
  8
0
  6
Continuous
 62
     7
370
     0
100
AcDbSpline
210
0.0
220
0.0
230
1.0
 70
     8
 71
     3
 72
     8
 73
     4
 74
     0
 42
0.000000001
 43
0.00000001
 40
0.0
 40
0.0
 40
0.0
 40
0.0
 40
1.0
 40
1.0
 40
1.0
 40
1.0
 10
10.2542473466299
 20
7.617982576660141
 30
0.0
 10
10.26107036545424
 20
7.618828949292433
 30
0.0
 10
10.26788938106615
 20
7.619670743349722
 30
0.0
 10
10.27470434916072
 20
7.62050801901395
 30
0.0
  0
SPLINE
  5
330
330
1F
100
AcDbEntity
  8
0
  6
Continuous
 62
     7
370
     0
100
AcDbSpline
210
0.0
220
0.0
230
1.0
 70
     8
 71
     3
 72
    15
 73
    11
 74
     0
 42
0.000000001
 43
0.00000001
 40
0.0
 40
0.0
 40
0.0
 40
0.0
 40
0.1252951067982206
 40
0.250567024132243
 40
0.3770507931571971
 40
0.5008984838908636
 40
0.7495825887399745
 40
0.8746661269954464
 40
0.9373222084020598
 40
1.0
 40
1.0
 40
1.0
 40
1.0
 10
10.18134246680534
 20
7.731332882538504
 30
0.0
 10
10.1826490152134
 20
7.732151687787747
 30
0.0
 10
10.18526187021515
 20
7.733789146742765
 30
0.0
 10
10.18853758724854
 20
7.73690441526013
 30
0.0
 10
10.19103401851408
 20
7.740580500445987
 30
0.0
 10
10.19285813890952
 20
7.746225669506091
 30
0.0
 10
10.1924367826725
 20
7.752672382160035
 30
0.0
 10
10.1898275323512
 20
7.75808483459921
 30
0.0
 10
10.18782813642948
 20
7.761022894248376
 30
0.0
 10
10.18664722165506
 20
7.762406491719557
 30
0.0
 10
10.18605666198949
 20
7.763098410287739
 30
0.0
  0
SPLINE
  5
331
330
1F
100
AcDbEntity
  8
0
  6
Continuous
 62
     7
370
     0
100
AcDbSpline
210
0.0
220
0.0
230
1.0
 70
     8
 71
     3
 72
    14
 73
    10
 74
     0
 42
0.000000001
 43
0.00000001
 40
0.0
 40
0.0
 40
0.0
 40
0.0
 40
0.0627712587146546
 40
0.1255164908686897
 40
0.2507936783371078
 40
0.4996926161412401
 40
0.7490368580308137
 40
0.8744925538895056
 40
1.0
 40
1.0
 40
1.0
 40
1.0
 10
10.18605666198949
 20
7.763098410287739
 30
0.0
 10
10.18541546168848
 20
7.763787302173855
 30
0.0
 10
10.18413332694441
 20
7.765164800313986
 30
0.0
 10
10.18124684433672
 20
7.767685184498445
 30
0.0
 10
10.1755779182525
 20
7.771458232915259
 30
0.0
 10
10.16601593121382
 20
7.774404835972078
 30
0.0
 10
10.1569629807005
 20
7.773564152194314
 30
0.0
 10
10.15065710369489
 20
7.771395945536833
 30
0.0
 10
10.14783417790698
 20
7.769874683597668
 30
0.0
 10
10.14642242396009
 20
7.769113895780973
 30
0.0
  0
SPLINE
  5
332
330
1F
100
AcDbEntity
  8
0
  6
Continuous
 62
     7
370
     0
100
AcDbSpline
210
0.0
220
0.0
230
1.0
 70
     8
 71
     3
 72
    15
 73
    11
 74
     0
 42
0.000000001
 43
0.00000001
 40
0.0
 40
0.0
 40
0.0
 40
0.0
 40
0.0742844553926776
 40
0.1433906268050519
 40
0.2866474824502704
 40
0.5007283791548416
 40
0.7493687920853817
 40
0.8745590569702952
 40
0.9372675318371004
 40
1.0
 40
1.0
 40
1.0
 40
1.0
 10
10.14642242396009
 20
7.769113895780973
 30
0.0
 10
10.1456259807229
 20
7.768625498537177
 30
0.0
 10
10.1440886133909
 20
7.767682749659938
 30
0.0
 10
10.14122260540578
 20
7.765589288104152
 30
0.0
 10
10.13753455306163
 20
7.761967308216861
 30
0.0
 10
10.13406861736637
 20
7.755544196262955
 30
0.0
 10
10.13455758895204
 20
7.747869441141958
 30
0.0
 10
10.13716917232234
 20
7.742384386607857
 30
0.0
 10
10.13917348575039
 20
7.739376024338496
 30
0.0
 10
10.14038401885109
 20
7.737962596869441
 30
0.0
 10
10.14098940117177
 20
7.737255747960611
 30
0.0
  0
SPLINE
  5
333
330
1F
100
AcDbEntity
  8
0
  6
Continuous
 62
     7
370
     0
100
AcDbSpline
210
0.0
220
0.0
230
1.0
 70
     8
 71
     3
 72
    16
 73
    12
 74
     0
 42
0.000000001
 43
0.00000001
 40
0.0
 40
0.0
 40
0.0
 40
0.0
 40
0.0625794781288156
 40
0.1251437417759483
 40
0.2500356406551143
 40
0.3749737287994336
 40
0.4998276230516474
 40
0.6246967345498217
 40
0.7497162312909463
 40
0.8748374344087284
 40
1.0
 40
1.0
 40
1.0
 40
1.0
 10
10.14098940117177
 20
7.737255747960611
 30
0.0
 10
10.14164827501682
 20
7.736544333300131
 30
0.0
 10
10.14296586251984
 20
7.735121676940112
 30
0.0
 10
10.14596643735462
 20
7.732541125843738
 30
0.0
 10
10.15014463465067
 20
7.729712657019762
 30
0.0
 10
10.1556959969013
 20
7.72735929206528
 30
0.0
 10
10.16145741417221
 20
7.725895674362355
 30
0.0
 10
10.16706554467448
 20
7.726028431812214
 30
0.0
 10
10.17223842378164
 20
7.727144771637011
 30
0.0
 10
10.17699783561211
 20
7.72897410963134
 30
0.0
 10
10.17989409685999
 20
7.730546538281719
 30
0.0
 10
10.18134246680534
 20
7.731332882538504
 30
0.0
  0
ARC
  5
334
330
1F
100
AcDbEntity
  8
0
  6
Continuous
 62
     7
370
     0
100
AcDbCircle
 10
9.0959774178
 20
6.8663408252
 30
0.0
 40
1.307806276653842
100
AcDbArc
 50
51.6515979668
 51
52.7069582864
  0
SPLINE
  5
335
330
1F
100
AcDbEntity
  8
0
  6
Continuous
 62
     7
370
     0
100
AcDbSpline
210
0.0
220
0.0
230
1.0
 70
     8
 71
     3
 72
     8
 73
     4
 74
     0
 42
0.000000001
 43
0.00000001
 40
0.0
 40
0.0
 40
0.0
 40
0.0
 40
1.0
 40
1.0
 40
1.0
 40
1.0
 10
9.88836650304929
 20
7.906762275697504
 30
0.0
 10
9.88521981086053
 20
7.902523674297186
 30
0.0
 10
9.882072098915643
 20
7.898278280992684
 30
0.0
 10
9.878923322079661
 20
7.894026130344585
 30
0.0
  0
SPLINE
  5
336
330
1F
100
AcDbEntity
  8
0
  6
Continuous
 62
     7
370
     0
100
AcDbSpline
210
0.0
220
0.0
230
1.0
 70
     8
 71
     3
 72
     8
 73
     4
 74
     0
 42
0.000000001
 43
0.00000001
 40
0.0
 40
0.0
 40
0.0
 40
0.0
 40
1.0
 40
1.0
 40
1.0
 40
1.0
 10
9.878923322079661
 20
7.894026130344585
 30
0.0
 10
9.876543630072742
 20
7.890810250043144
 30
0.0
 10
9.874163328313987
 20
7.887590500517673
 30
0.0
 10
9.87178239726729
 20
7.884366896871176
 30
0.0
  0
SPLINE
  5
337
330
1F
100
AcDbEntity
  8
0
  6
Continuous
 62
     7
370
     0
100
AcDbSpline
210
0.0
220
0.0
230
1.0
 70
     8
 71
     3
 72
    11
 73
     7
 74
     0
 42
0.000000001
 43
0.00000001
 40
0.0
 40
0.0
 40
0.0
 40
0.0
 40
0.2500100436890095
 40
0.499993793209537
 40
0.7499834514766583
 40
1.0
 40
1.0
 40
1.0
 40
1.0
 10
9.87178239726729
 20
7.884366896871176
 30
0.0
 10
9.872903394249855
 20
7.884722007335219
 30
0.0
 10
9.87514527031699
 20
7.885432190915464
 30
0.0
 10
9.878688124492125
 20
7.886255557641142
 30
0.0
 10
9.88230507838183
 20
7.886956971498854
 30
0.0
 10
9.88479281489464
 20
7.887273902570484
 30
0.0
 10
9.886036750046086
 20
7.887432376628549
 30
0.0
  0
SPLINE
  5
338
330
1F
100
AcDbEntity
  8
0
  6
Continuous
 62
     7
370
     0
100
AcDbSpline
210
0.0
220
0.0
230
1.0
 70
     8
 71
     3
 72
     8
 73
     4
 74
     0
 42
0.000000001
 43
0.00000001
 40
0.0
 40
0.0
 40
0.0
 40
0.0
 40
1.0
 40
1.0
 40
1.0
 40
1.0
 10
9.886036750046086
 20
7.887432376628549
 30
0.0
 10
9.893157458977132
 20
7.888959411590189
 30
0.0
 10
9.900276912747168
 20
7.890479001964295
 30
0.0
 10
9.907395058725816
 20
7.891991189150335
 30
0.0
  0
SPLINE
  5
339
330
1F
100
AcDbEntity
  8
0
  6
Continuous
 62
     7
370
     0
100
AcDbSpline
210
0.0
220
0.0
230
1.0
 70
     8
 71
     3
 72
    15
 73
    11
 74
     0
 42
0.000000001
 43
0.00000001
 40
0.0
 40
0.0
 40
0.0
 40
0.0
 40
0.1252951067982603
 40
0.2505670241323249
 40
0.3770507931498059
 40
0.5008984838907065
 40
0.7495825887398994
 40
0.8746661269954188
 40
0.9373222084020446
 40
1.0
 40
1.0
 40
1.0
 40
1.0
 10
10.04775846764758
 20
7.868640405622598
 30
0.0
 10
10.04906222326066
 20
7.869452561984008
 30
0.0
 10
10.05166949318933
 20
7.871076724393924
 30
0.0
 10
10.05489230985797
 20
7.874065791916053
 30
0.0
 10
10.05729246771626
 20
7.877511028348986
 30
0.0
 10
10.05891981504606
 20
7.882680270544483
 30
0.0
 10
10.05821475337607
 20
7.888429089926977
 30
0.0
 10
10.05531732758599
 20
7.893111743058497
 30
0.0
 10
10.05314896278127
 20
7.895615866945267
 30
0.0
 10
10.05188343181158
 20
7.896779448029514
 30
0.0
 10
10.05125055671981
 20
7.897361339348736
 30
0.0
  0
SPLINE
  5
33A
330
1F
100
AcDbEntity
  8
0
  6
Continuous
 62
     7
370
     0
100
AcDbSpline
210
0.0
220
0.0
230
1.0
 70
     8
 71
     3
 72
    14
 73
    10
 74
     0
 42
0.000000001
 43
0.00000001
 40
0.0
 40
0.0
 40
0.0
 40
0.0
 40
0.0627712587146584
 40
0.1255164908686973
 40
0.2507936783371092
 40
0.4996926161412428
 40
0.749036858030816
 40
0.8744925538895058
 40
1.0
 40
1.0
 40
1.0
 40
1.0
 10
10.05125055671981
 20
7.897361339348736
 30
0.0
 10
10.05056612584606
 20
7.897937168477904
 30
0.0
 10
10.049197547881
 20
7.899088587982833
 30
0.0
 10
10.04614154269523
 20
7.901159883368577
 30
0.0
 10
10.04018995510546
 20
7.904173151521213
 30
0.0
 10
10.0302951001145
 20
7.906196291598441
 30
0.0
 10
10.02107271317317
 20
7.904872701079813
 30
0.0
 10
10.01471009399051
 20
7.90254218890528
 30
0.0
 10
10.01188300076103
 20
7.901008962367059
 30
0.0
 10
10.01046916266367
 20
7.900242191017246
 30
0.0
  0
SPLINE
  5
33B
330
1F
100
AcDbEntity
  8
0
  6
Continuous
 62
     7
370
     0
100
AcDbSpline
210
0.0
220
0.0
230
1.0
 70
     8
 71
     3
 72
    15
 73
    11
 74
     0
 42
0.000000001
 43
0.00000001
 40
0.0
 40
0.0
 40
0.0
 40
0.0
 40
0.0742844553865839
 40
0.1433906268050367
 40
0.2866474824502562
 40
0.500728379154829
 40
0.7493687920853733
 40
0.8745590569702919
 40
0.937267531837094
 40
1.0
 40
1.0
 40
1.0
 40
1.0
 10
10.01046916266367
 20
7.900242191017246
 30
0.0
 10
10.009673821113
 20
7.899756951581784
 30
0.0
 10
10.00813858035661
 20
7.898820298193947
 30
0.0
 10
10.00528947363422
 20
7.896775260736375
 30
0.0
 10
10.0016589881765
 20
7.893317846725309
 30
0.0
 10
9.998364232064262
 20
7.887381199390024
 30
0.0
 10
9.999165999174886
 20
7.880574384013172
 30
0.0
 10
10.00205804541208
 20
7.875843512301366
 30
0.0
 10
10.00423096400019
 20
7.873282040687867
 30
0.0
 10
10.00552768972437
 20
7.872094160792909
 30
0.0
 10
10.00617617659989
 20
7.871500107241556
 30
0.0
  0
SPLINE
  5
33C
330
1F
100
AcDbEntity
  8
0
  6
Continuous
 62
     7
370
     0
100
AcDbSpline
210
0.0
220
0.0
230
1.0
 70
     8
 71
     3
 72
    16
 73
    12
 74
     0
 42
0.000000001
 43
0.00000001
 40
0.0
 40
0.0
 40
0.0
 40
0.0
 40
0.0625794781288162
 40
0.1251437417759398
 40
0.2500356406551084
 40
0.3749737287994325
 40
0.4998276230516412
 40
0.624696734549818
 40
0.7497162312909448
 40
0.8748374344087273
 40
1.0
 40
1.0
 40
1.0
 40
1.0
 10
10.00617617659989
 20
7.871500107241556
 30
0.0
 10
10.00687976965184
 20
7.870905014330501
 30
0.0
 10
10.00828678469642
 20
7.869714973188891
 30
0.0
 10
10.01146546283634
 20
7.867591686101276
 30
0.0
 10
10.01586209436565
 20
7.865315745967624
 30
0.0
 10
10.02164786996657
 20
7.863544185477595
 30
0.0
 10
10.02761334366671
 20
7.862578773554836
 30
0.0
 10
10.03335477864879
 20
7.863032897892434
 30
0.0
 10
10.03860827560877
 20
7.864342276954931
 30
0.0
 10
10.04340737729109
 20
7.866266249054182
 30
0.0
 10
10.04630794441061
 20
7.867848932913796
 30
0.0
 10
10.04775846764758
 20
7.868640405622598
 30
0.0
  0
SPLINE
  5
33D
330
1F
100
AcDbEntity
  8
0
  6
Continuous
 62
     7
370
     0
100
AcDbSpline
210
0.0
220
0.0
230
1.0
 70
     8
 71
     3
 72
    13
 73
     9
 74
     0
 42
0.000000001
 43
0.00000001
 40
0.0
 40
0.0
 40
0.0
 40
0.0
 40
0.1255295641702994
 40
0.2510019939162388
 40
0.5004776495288049
 40
0.7493109953896095
 40
0.8746112966664422
 40
1.0
 40
1.0
 40
1.0
 40
1.0
 10
9.69491769020629
 20
8.011067407874418
 30
0.0
 10
9.69418612736975
 20
8.010620659266781
 30
0.0
 10
9.692723334665416
 20
8.009727365387867
 30
0.0
 10
9.690339923362323
 20
8.007734678536549
 30
0.0
 10
9.68855885114641
 20
8.004904761656734
 30
0.0
 10
9.689230400255575
 20
8.00199594606118
 30
0.0
 10
9.69121295468915
 20
8.000021037007675
 30
0.0
 10
9.692647172484982
 20
7.999215921777546
 30
0.0
 10
9.693364534261567
 20
7.998813222206032
 30
0.0
  0
SPLINE
  5
33E
330
1F
100
AcDbEntity
  8
0
  6
Continuous
 62
     7
370
     0
100
AcDbSpline
210
0.0
220
0.0
230
1.0
 70
     8
 71
     3
 72
    14
 73
    10
 74
     0
 42
0.000000001
 43
0.00000001
 40
0.0
 40
0.0
 40
0.0
 40
0.0
 40
0.1251827876297182
 40
0.2503025736417104
 40
0.3712211273150736
 40
0.5005243116173678
 40
0.7495346427038455
 40
0.8747346224755457
 40
1.0
 40
1.0
 40
1.0
 40
1.0
 10
9.693364534261567
 20
7.998813222206032
 30
0.0
 10
9.694189790372711
 20
7.998432625122838
 30
0.0
 10
9.69583988726258
 20
7.997671622502208
 30
0.0
 10
9.698833837816442
 20
7.996958232227103
 30
0.0
 10
9.702094156680035
 20
7.996608998943532
 30
0.0
 10
9.70657023301919
 20
7.996723410178328
 30
0.0
 10
9.710971949380312
 20
7.997579725151353
 30
0.0
 10
9.714739629573812
 20
7.999001775743324
 30
0.0
 10
9.716366347102047
 20
7.999887404106454
 30
0.0
 10
9.717179918238191
 20
8.000330333909007
 30
0.0
  0
SPLINE
  5
33F
330
1F
100
AcDbEntity
  8
0
  6
Continuous
 62
     7
370
     0
100
AcDbSpline
210
0.0
220
0.0
230
1.0
 70
     8
 71
     3
 72
    13
 73
     9
 74
     0
 42
0.000000001
 43
0.00000001
 40
0.0
 40
0.0
 40
0.0
 40
0.0
 40
0.1254949596373227
 40
0.2509090854022437
 40
0.5001361588696345
 40
0.7491218300278166
 40
0.8745313072819785
 40
1.0
 40
1.0
 40
1.0
 40
1.0
 10
9.717179918238191
 20
8.000330333909007
 30
0.0
 10
9.71789636612074
 20
8.000771968193076
 30
0.0
 10
9.71932880040709
 20
8.001654952295528
 30
0.0
 10
9.721492861820128
 20
8.003694658005275
 30
0.0
 10
9.722836083370733
 20
8.006591165340422
 30
0.0
 10
9.7217440584068
 20
8.009451749292191
 30
0.0
 10
9.71961592419685
 20
8.011357743864286
 30
0.0
 10
9.71819099868252
 20
8.012144070674143
 30
0.0
 10
9.717478367760812
 20
8.01253732687851
 30
0.0
  0
SPLINE
  5
340
330
1F
100
AcDbEntity
  8
0
  6
Continuous
 62
     7
370
     0
100
AcDbSpline
210
0.0
220
0.0
230
1.0
 70
     8
 71
     3
 72
    13
 73
     9
 74
     0
 42
0.000000001
 43
0.00000001
 40
0.0
 40
0.0
 40
0.0
 40
0.0
 40
0.1254170980516502
 40
0.250781951334039
 40
0.4998977431638982
 40
0.7490311668203989
 40
0.8744946969884387
 40
1.0
 40
1.0
 40
1.0
 40
1.0
 10
9.717478367760812
 20
8.01253732687851
 30
0.0
 10
9.716694638784658
 20
8.012899112211679
 30
0.0
 10
9.715127507308885
 20
8.013622532169768
 30
0.0
 10
9.71137420611585
 20
8.014571439707659
 30
0.0
 10
9.705978086795913
 20
8.014829890331372
 30
0.0
 10
9.700791436394582
 20
8.013731923398058
 30
0.0
 10
9.697244642368158
 20
8.012332756765282
 30
0.0
 10
9.69569342699162
 20
8.011489237638262
 30
0.0
 10
9.69491769020629
 20
8.011067407874418
 30
0.0
  0
SPLINE
  5
341
330
1F
100
AcDbEntity
  8
0
  6
Continuous
 62
     7
370
     0
100
AcDbSpline
210
0.0
220
0.0
230
1.0
 70
     8
 71
     3
 72
    14
 73
    10
 74
     0
 42
0.000000001
 43
0.00000001
 40
0.0
 40
0.0
 40
0.0
 40
0.0
 40
0.2504464664184494
 40
0.5006269836253799
 40
0.6256171862413106
 40
0.7503617214490051
 40
0.8749138878876707
 40
0.9374334273388308
 40
1.0
 40
1.0
 40
1.0
 40
1.0
 10
9.645817108142923
 20
8.10877288416301
 30
0.0
 10
9.648079445022471
 20
8.110109760616979
 30
0.0
 10
9.652601716405053
 20
8.112782093895227
 30
0.0
 10
9.65758242126294
 20
8.116291039309028
 30
0.0
 10
9.660556690293692
 20
8.119244860300547
 30
0.0
 10
9.661135733210058
 20
8.121425235470625
 30
0.0
 10
9.660460762128396
 20
8.123037491198508
 30
0.0
 10
9.658977942058312
 20
8.12401896566453
 30
0.0
 10
9.657922779890525
 20
8.124357758608593
 30
0.0
 10
9.657395000432635
 20
8.124527218774825
 30
0.0
  0
SPLINE
  5
342
330
1F
100
AcDbEntity
  8
0
  6
Continuous
 62
     7
370
     0
100
AcDbSpline
210
0.0
220
0.0
230
1.0
 70
     8
 71
     3
 72
    14
 73
    10
 74
     0
 42
0.000000001
 43
0.00000001
 40
0.0
 40
0.0
 40
0.0
 40
0.0
 40
0.0625718620266084
 40
0.1250838325594716
 40
0.2496292595893145
 40
0.3743667264463029
 40
0.4993490079196495
 40
0.7495426895023123
 40
1.0
 40
1.0
 40
1.0
 40
1.0
 10
9.657395000432635
 20
8.124527218774825
 30
0.0
 10
9.656812209266755
 20
8.124664188086703
 30
0.0
 10
9.655647184761351
 20
8.124937995608452
 30
0.0
 10
9.652823582472665
 20
8.125115898037418
 30
0.0
 10
9.648864485453496
 20
8.124801337534965
 30
0.0
 10
9.6440243956713
 20
8.123774066584106
 30
0.0
 10
9.638202357391389
 20
8.121611506370952
 30
0.0
 10
9.631767608346367
 20
8.11849952929255
 30
0.0
 10
9.627104672626084
 20
8.115867245259086
 30
0.0
 10
9.624771977079686
 20
8.114550410198504
 30
0.0
  0
SPLINE
  5
343
330
1F
100
AcDbEntity
  8
0
  6
Continuous
 62
     7
370
     0
100
AcDbSpline
210
0.0
220
0.0
230
1.0
 70
     8
 71
     3
 72
    15
 73
    11
 74
     0
 42
0.000000001
 43
0.00000001
 40
0.0
 40
0.0
 40
0.0
 40
0.0
 40
0.2504089787798794
 40
0.3868224180964515
 40
0.5007925876291759
 40
0.6257359606018373
 40
0.7504625586280443
 40
0.8749216804690361
 40
0.9374459870515667
 40
1.0
 40
1.0
 40
1.0
 40
1.0
 10
9.624771977079686
 20
8.114550410198504
 30
0.0
 10
9.62250261173146
 20
8.113211160741049
 30
0.0
 10
9.618996981079464
 20
8.111142338304683
 30
0.0
 10
9.614909746451836
 20
8.108367548801285
 30
0.0
 10
9.61216695503449
 20
8.106245647005837
 30
0.0
 10
9.6100494938673
 20
8.104122305883543
 30
0.0
 10
9.609394296619971
 20
8.101986760619715
 30
0.0
 10
9.610113580665974
 20
8.100416961869538
 30
0.0
 10
9.611640336826671
 20
8.099470948121818
 30
0.0
 10
9.612701514810322
 20
8.099135161730489
 30
0.0
 10
9.613232229818157
 20
8.098967228659836
 30
0.0
  0
SPLINE
  5
344
330
1F
100
AcDbEntity
  8
0
  6
Continuous
 62
     7
370
     0
100
AcDbSpline
210
0.0
220
0.0
230
1.0
 70
     8
 71
     3
 72
    11
 73
     7
 74
     0
 42
0.000000001
 43
0.00000001
 40
0.0
 40
0.0
 40
0.0
 40
0.0
 40
0.2499764207202824
 40
0.4998293549776704
 40
0.7498122864636043
 40
1.0
 40
1.0
 40
1.0
 40
1.0
 10
9.613232229818157
 20
8.098967228659836
 30
0.0
 10
9.613983742334204
 20
8.098794742134059
 30
0.0
 10
9.615486396124794
 20
8.098449854289546
 30
0.0
 10
9.618297971393451
 20
8.098345203252988
 30
0.0
 10
9.621331564740297
 20
8.098569482673717
 30
0.0
 10
9.623373823707304
 20
8.09896274523396
 30
0.0
 10
9.624395371266102
 20
8.09915945701972
 30
0.0
  0
SPLINE
  5
345
330
1F
100
AcDbEntity
  8
0
  6
Continuous
 62
     7
370
     0
100
AcDbSpline
210
0.0
220
0.0
230
1.0
 70
     8
 71
     3
 72
    12
 73
     8
 74
     0
 42
0.000000001
 43
0.00000001
 40
0.0
 40
0.0
 40
0.0
 40
0.0
 40
0.1249203065853112
 40
0.2499253476585037
 40
0.4998213427851148
 40
0.7498857630912059
 40
1.0
 40
1.0
 40
1.0
 40
1.0
 10
9.624395371266102
 20
8.09915945701972
 30
0.0
 10
9.625451215557858
 20
8.099444082108837
 30
0.0
 10
9.627563620329374
 20
8.100013525350647
 30
0.0
 10
9.631467757620275
 20
8.101480278033836
 30
0.0
 10
9.63601180503183
 20
8.103495566375138
 30
0.0
 10
9.641071645559963
 20
8.106083488783575
 30
0.0
 10
9.64423518225503
 20
8.107876359514647
 30
0.0
 10
9.645817108142923
 20
8.10877288416301
 30
0.0
  0
SPLINE
  5
346
330
1F
100
AcDbEntity
  8
0
  6
Continuous
 62
     7
370
     0
100
AcDbSpline
210
0.0
220
0.0
230
1.0
 70
     8
 71
     3
 72
    14
 73
    10
 74
     0
 42
0.000000001
 43
0.00000001
 40
0.0
 40
0.0
 40
0.0
 40
0.0
 40
0.2504464664184508
 40
0.5006269836253812
 40
0.6256171862413121
 40
0.7503617214490155
 40
0.8749138878876739
 40
0.9374334273388332
 40
1.0
 40
1.0
 40
1.0
 40
1.0
 10
9.60388939821154
 20
8.119556897841647
 30
0.0
 10
9.60615228167641
 20
8.120891181849668
 30
0.0
 10
9.610675645649216
 20
8.123558332988939
 30
0.0
 10
9.615667587288142
 20
8.127014021750476
 30
0.0
 10
9.618663979095839
 20
8.129863574451958
 30
0.0
 10
9.619276413520582
 20
8.131887697435465
 30
0.0
 10
9.61863831251308
 20
8.133329411160185
 30
0.0
 10
9.617189873267584
 20
8.134153450809094
 30
0.0
 10
9.616152706044124
 20
8.134410594550515
 30
0.0
 10
9.615633927441506
 20
8.134539214765102
 30
0.0
  0
SPLINE
  5
347
330
1F
100
AcDbEntity
  8
0
  6
Continuous
 62
     7
370
     0
100
AcDbSpline
210
0.0
220
0.0
230
1.0
 70
     8
 71
     3
 72
    14
 73
    10
 74
     0
 42
0.000000001
 43
0.00000001
 40
0.0
 40
0.0
 40
0.0
 40
0.0
 40
0.0625718620266177
 40
0.1250838325594687
 40
0.2496292595893095
 40
0.374366726446295
 40
0.4993490079196432
 40
0.7495426895023118
 40
1.0
 40
1.0
 40
1.0
 40
1.0
 10
9.615633927441506
 20
8.134539214765102
 30
0.0
 10
9.615060183236691
 20
8.13463530708015
 30
0.0
 10
9.613913243993995
 20
8.134827399734199
 30
0.0
 10
9.611124690204292
 20
8.134848361846116
 30
0.0
 10
9.607204401454034
 20
8.134361707775348
 30
0.0
 10
9.602399718866803
 20
8.133179134275043
 30
0.0
 10
9.596601951835467
 20
8.130910808808144
 30
0.0
 10
9.590179514237066
 20
8.127745464545805
 30
0.0
 10
9.585517796136237
 20
8.125107904537199
 30
0.0
 10
9.583185709720146
 20
8.123788430099953
 30
0.0
  0
SPLINE
  5
348
330
1F
100
AcDbEntity
  8
0
  6
Continuous
 62
     7
370
     0
100
AcDbSpline
210
0.0
220
0.0
230
1.0
 70
     8
 71
     3
 72
    15
 73
    11
 74
     0
 42
0.000000001
 43
0.00000001
 40
0.0
 40
0.0
 40
0.0
 40
0.0
 40
0.2504089787798947
 40
0.3868224181024826
 40
0.5007925876291462
 40
0.625735960601816
 40
0.7504625586280291
 40
0.8749216804690256
 40
0.9374459870515702
 40
1.0
 40
1.0
 40
1.0
 40
1.0
 10
9.583185709720146
 20
8.123788430099953
 30
0.0
 10
9.580915747058414
 20
8.122451766064218
 30
0.0
 10
9.577409193698816
 20
8.120386937490528
 30
0.0
 10
9.573313483992957
 20
8.117648905552098
 30
0.0
 10
9.570559744293337
 20
8.115574599866191
 30
0.0
 10
9.568424042087685
 20
8.113530761618126
 30
0.0
 10
9.567733638761778
 20
8.11154966347149
 30
0.0
 10
9.568413846074474
 20
8.110153171670497
 30
0.0
 10
9.569905192913145
 20
8.109365759960562
 30
0.0
 10
9.570948256501712
 20
8.109111847566728
 30
0.0
 10
9.571469912160902
 20
8.108984861217445
 30
0.0
  0
SPLINE
  5
349
330
1F
100
AcDbEntity
  8
0
  6
Continuous
 62
     7
370
     0
100
AcDbSpline
210
0.0
220
0.0
230
1.0
 70
     8
 71
     3
 72
    11
 73
     7
 74
     0
 42
0.000000001
 43
0.00000001
 40
0.0
 40
0.0
 40
0.0
 40
0.0
 40
0.2499764207202908
 40
0.499829354977664
 40
0.7498122864635997
 40
1.0
 40
1.0
 40
1.0
 40
1.0
 10
9.571469912160902
 20
8.108984861217445
 30
0.0
 10
9.572209931424537
 20
8.108864572061114
 30
0.0
 10
9.573689604387882
 20
8.108624053170388
 30
0.0
 10
9.576469031960972
 20
8.108667133820111
 30
0.0
 10
9.579474549122244
 20
8.10902141774505
 30
0.0
 10
9.581502549345768
 20
8.109481260658642
 30
0.0
 10
9.582516964613884
 20
8.109711276250886
 30
0.0
  0
SPLINE
  5
34A
330
1F
100
AcDbEntity
  8
0
  6
Continuous
 62
     7
370
     0
100
AcDbSpline
210
0.0
220
0.0
230
1.0
 70
     8
 71
     3
 72
    12
 73
     8
 74
     0
 42
0.000000001
 43
0.00000001
 40
0.0
 40
0.0
 40
0.0
 40
0.0
 40
0.1249203065853057
 40
0.2499253476585007
 40
0.4998213427851101
 40
0.7498857630912041
 40
1.0
 40
1.0
 40
1.0
 40
1.0
 10
9.582516964613884
 20
8.109711276250886
 30
0.0
 10
9.583566941566039
 20
8.11002338505375
 30
0.0
 10
9.585667607678493
 20
8.110647814365489
 30
0.0
 10
9.589557662709923
 20
8.112180926249726
 30
0.0
 10
9.594090884732491
 20
8.114247384647058
 30
0.0
 10
9.599144823195306
 20
8.11686329303145
 30
0.0
 10
9.602307768198866
 20
8.118658969956535
 30
0.0
 10
9.60388939821154
 20
8.119556897841647
 30
0.0
  0
SPLINE
  5
34B
330
1F
100
AcDbEntity
  8
0
  6
Continuous
 62
     7
370
     0
100
AcDbSpline
210
0.0
220
0.0
230
1.0
 70
     8
 71
     3
 72
    14
 73
    10
 74
     0
 42
0.000000001
 43
0.00000001
 40
0.0
 40
0.0
 40
0.0
 40
0.0
 40
0.2504464664184496
 40
0.5006269836253789
 40
0.6256171862413081
 40
0.7503617214490123
 40
0.8749138878876724
 40
0.9374334273388314
 40
1.0
 40
1.0
 40
1.0
 40
1.0
 10
9.562677109826318
 20
8.127241696293105
 30
0.0
 10
9.564940649271794
 20
8.128573363556917
 30
0.0
 10
9.569465324509224
 20
8.131235283986495
 30
0.0
 10
9.574470749993873
 20
8.13463721760385
 30
0.0
 10
9.577493660356085
 20
8.137381535963655
 30
0.0
 10
9.578146066560164
 20
8.139247978381627
 30
0.0
 10
9.57755200514809
 20
8.140517625377024
 30
0.0
 10
9.57614455506039
 20
8.141182850465153
 30
0.0
 10
9.57512880516084
 20
8.141357642696635
 30
0.0
 10
9.57462073924671
 20
8.141445071673898
 30
0.0
  0
SPLINE
  5
34C
330
1F
100
AcDbEntity
  8
0
  6
Continuous
 62
     7
370
     0
100
AcDbSpline
210
0.0
220
0.0
230
1.0
 70
     8
 71
     3
 72
    14
 73
    10
 74
     0
 42
0.000000001
 43
0.00000001
 40
0.0
 40
0.0
 40
0.0
 40
0.0
 40
0.0625718620266084
 40
0.1250838325594726
 40
0.2496292595893109
 40
0.3743667264462981
 40
0.499349007919646
 40
0.7495426895023107
 40
1.0
 40
1.0
 40
1.0
 40
1.0
 10
9.57462073924671
 20
8.141445071673898
 30
0.0
 10
9.574057754269017
 20
8.141499938449847
 30
0.0
 10
9.572932323182227
 20
8.141609619485282
 30
0.0
 10
9.5701853825725
 20
8.141472328470428
 30
0.0
 10
9.566311089530501
 20
8.140812171584397
 30
0.0
 10
9.56154828892899
 20
8.139473054891717
 30
0.0
 10
9.555779197991207
 20
8.13709813200995
 30
0.0
 10
9.549371292534879
 20
8.133879005886211
 30
0.0
 10
9.54471101158102
 20
8.131236128946076
 30
0.0
 10
9.5423796441168
 20
8.129913994643191
 30
0.0
  0
SPLINE
  5
34D
330
1F
100
AcDbEntity
  8
0
  6
Continuous
 62
     7
370
     0
100
AcDbSpline
210
0.0
220
0.0
230
1.0
 70
     8
 71
     3
 72
    15
 73
    11
 74
     0
 42
0.000000001
 43
0.00000001
 40
0.0
 40
0.0
 40
0.0
 40
0.0
 40
0.250408978779896
 40
0.3868224181024879
 40
0.5007925876291496
 40
0.6257359606018196
 40
0.7504625586280266
 40
0.8749216804690242
 40
0.9374459870515637
 40
1.0
 40
1.0
 40
1.0
 40
1.0
 10
9.5423796441168
 20
8.129913994643191
 30
0.0
 10
9.540108976583763
 20
8.128579936048043
 30
0.0
 10
9.536601334365361
 20
8.126519132261455
 30
0.0
 10
9.532495619902031
 20
8.12381814387888
 30
0.0
 10
9.529728950429384
 20
8.121791806704948
 30
0.0
 10
9.52757169599723
 20
8.119828097139017
 30
0.0
 10
9.526839647286526
 20
8.11800268041014
 30
0.0
 10
9.527473539597707
 20
8.116780915158
 30
0.0
 10
9.528922842621583
 20
8.11615343302545
 30
0.0
 10
9.52994436207654
 20
8.115982093228078
 30
0.0
 10
9.530455243110534
 20
8.11589640298261
 30
0.0
  0
SPLINE
  5
34E
330
1F
100
AcDbEntity
  8
0
  6
Continuous
 62
     7
370
     0
100
AcDbSpline
210
0.0
220
0.0
230
1.0
 70
     8
 71
     3
 72
    11
 73
     7
 74
     0
 42
0.000000001
 43
0.00000001
 40
0.0
 40
0.0
 40
0.0
 40
0.0
 40
0.2499764207202842
 40
0.4998293549776549
 40
0.749812286463583
 40
1.0
 40
1.0
 40
1.0
 40
1.0
 10
9.530455243110534
 20
8.11589640298261
 30
0.0
 10
9.531181580919059
 20
8.11582876103623
 30
0.0
 10
9.532633897730719
 20
8.115693510558078
 30
0.0
 10
9.535374973195069
 20
8.115885626812666
 30
0.0
 10
9.538346947946728
 20
8.116371079960235
 30
0.0
 10
9.540357886414403
 20
8.116898109422333
 30
0.0
 10
9.541363767311845
 20
8.117161732042733
 30
0.0
  0
SPLINE
  5
34F
330
1F
100
AcDbEntity
  8
0
  6
Continuous
 62
     7
370
     0
100
AcDbSpline
210
0.0
220
0.0
230
1.0
 70
     8
 71
     3
 72
    12
 73
     8
 74
     0
 42
0.000000001
 43
0.00000001
 40
0.0
 40
0.0
 40
0.0
 40
0.0
 40
0.1249203065853116
 40
0.249925347658502
 40
0.4998213427851146
 40
0.7498857630912062
 40
1.0
 40
1.0
 40
1.0
 40
1.0
 10
9.541363767311845
 20
8.117161732042733
 30
0.0
 10
9.542406719321589
 20
8.117501576286136
 30
0.0
 10
9.544493330784135
 20
8.118181495292133
 30
0.0
 10
9.548366506042825
 20
8.119781580979904
 30
0.0
 10
9.55288674450377
 20
8.121899686064697
 30
0.0
 10
9.55793360000338
 20
8.124543842603194
 30
0.0
 10
9.561095834901652
 20
8.126342352020718
 30
0.0
 10
9.562677109826318
 20
8.127241696293105
 30
0.0
  0
SPLINE
  5
350
330
1F
100
AcDbEntity
  8
0
  6
Continuous
 62
     7
370
     0
100
AcDbSpline
210
0.0
220
0.0
230
1.0
 70
     8
 71
     3
 72
    11
 73
     7
 74
     0
 42
0.000000001
 43
0.00000001
 40
0.0
 40
0.0
 40
0.0
 40
0.0
 40
0.2786390364215984
 40
0.5001886617788963
 40
0.7655079241819923
 40
1.0
 40
1.0
 40
1.0
 40
1.0
 10
9.325954099599649
 20
8.102960975300814
 30
0.0
 10
9.326273621355595
 20
8.10320156475474
 30
0.0
 10
9.326847199134104
 20
8.103633450101972
 30
0.0
 10
9.327571912622588
 20
8.10421446449594
 30
0.0
 10
9.328064754494987
 20
8.104664717986905
 30
0.0
 10
9.328098719885103
 20
8.104814108801232
 30
0.0
 10
9.328114655127512
 20
8.104884197171547
 30
0.0
  0
SPLINE
  5
351
330
1F
100
AcDbEntity
  8
0
  6
Continuous
 62
     7
370
     0
100
AcDbSpline
210
0.0
220
0.0
230
1.0
 70
     8
 71
     3
 72
    11
 73
     7
 74
     0
 42
0.000000001
 43
0.00000001
 40
0.0
 40
0.0
 40
0.0
 40
0.0
 40
0.2501057527661227
 40
0.5000136770967349
 40
0.7499022689413084
 40
1.0
 40
1.0
 40
1.0
 40
1.0
 10
9.328114655127512
 20
8.104884197171547
 30
0.0
 10
9.328082446120018
 20
8.104896699176864
 30
0.0
 10
9.328018053581678
 20
8.104921693298673
 30
0.0
 10
9.327702216029442
 20
8.104840150927975
 30
0.0
 10
9.327207027563365
 20
8.10465860831743
 30
0.0
 10
9.326742711468869
 20
8.10445996419046
 30
0.0
 10
9.326510456312262
 20
8.104360600581561
 30
0.0
  0
SPLINE
  5
352
330
1F
100
AcDbEntity
  8
0
  6
Continuous
 62
     7
370
     0
100
AcDbSpline
210
0.0
220
0.0
230
1.0
 70
     8
 71
     3
 72
    13
 73
     9
 74
     0
 42
0.000000001
 43
0.00000001
 40
0.0
 40
0.0
 40
0.0
 40
0.0
 40
0.1254299417467613
 40
0.2506842283024183
 40
0.4996143292728989
 40
0.7490348254190065
 40
0.8744607112379299
 40
1.0
 40
1.0
 40
1.0
 40
1.0
 10
9.326510456312262
 20
8.104360600581561
 30
0.0
 10
9.32613780825147
 20
8.104194343491466
 30
0.0
 10
9.325393033995445
 20
8.103862062141815
 30
0.0
 10
9.323452099498379
 20
8.10291999041426
 30
0.0
 10
9.320574307097626
 20
8.101439087740184
 30
0.0
 10
9.317686321749218
 20
8.09986600410881
 30
0.0
 10
9.315637610200387
 20
8.09871203771318
 30
0.0
 10
9.314691650269975
 20
8.098168802984958
 30
0.0
 10
9.314218456580612
 20
8.097897062885854
 30
0.0
  0
SPLINE
  5
353
330
1F
100
AcDbEntity
  8
0
  6
Continuous
 62
     7
370
     0
100
AcDbSpline
210
0.0
220
0.0
230
1.0
 70
     8
 71
     3
 72
    13
 73
     9
 74
     0
 42
0.000000001
 43
0.00000001
 40
0.0
 40
0.0
 40
0.0
 40
0.0
 40
0.1435207777286579
 40
0.2868797370952135
 40
0.5709063242996422
 40
0.7849096377848758
 40
0.8923723273036851
 40
1.0
 40
1.0
 40
1.0
 40
1.0
 10
9.314218456580612
 20
8.097897062885854
 30
0.0
 10
9.31369091867932
 20
8.097590971081765
 30
0.0
 10
9.31263643767089
 20
8.096979132589293
 30
0.0
 10
9.310844627805844
 20
8.095904547859174
 30
0.0
 10
9.309610841937628
 20
8.095073249012247
 30
0.0
 10
9.309786355164569
 20
8.09498046712468
 30
0.0
 10
9.310541428953112
 20
8.095254904657384
 30
0.0
 10
9.311107810705193
 20
8.095496067423882
 30
0.0
 10
9.311391218800313
 20
8.095616741298025
 30
0.0
  0
SPLINE
  5
354
330
1F
100
AcDbEntity
  8
0
  6
Continuous
 62
     7
370
     0
100
AcDbSpline
210
0.0
220
0.0
230
1.0
 70
     8
 71
     3
 72
    11
 73
     7
 74
     0
 42
0.000000001
 43
0.00000001
 40
0.0
 40
0.0
 40
0.0
 40
0.0
 40
0.2500487591314463
 40
0.4999858921706954
 40
0.7499263637971152
 40
1.0
 40
1.0
 40
1.0
 40
1.0
 10
9.311391218800313
 20
8.095616741298025
 30
0.0
 10
9.311616912937199
 20
8.095716089479886
 30
0.0
 10
9.312068200457201
 20
8.095914741492864
 30
0.0
 10
9.312916750212322
 20
8.096312575188296
 30
0.0
 10
9.313826861743967
 20
8.096747513196716
 30
0.0
 10
9.314501042182858
 20
8.097081316288456
 30
0.0
 10
9.314838222176721
 20
8.09724826228382
 30
0.0
  0
SPLINE
  5
355
330
1F
100
AcDbEntity
  8
0
  6
Continuous
 62
     7
370
     0
100
AcDbSpline
210
0.0
220
0.0
230
1.0
 70
     8
 71
     3
 72
    11
 73
     7
 74
     0
 42
0.000000001
 43
0.00000001
 40
0.0
 40
0.0
 40
0.0
 40
0.0
 40
0.1427889218553734
 40
0.2856613563781134
 40
0.4999550547499594
 40
1.0
 40
1.0
 40
1.0
 40
1.0
 10
9.314838222176721
 20
8.09724826228382
 30
0.0
 10
9.315350946959626
 20
8.097505551821609
 30
0.0
 10
9.316376696401738
 20
8.098020281377597
 30
0.0
 10
9.318233106429226
 20
8.09897232203311
 30
0.0
 10
9.321417916056733
 20
8.100609635670146
 30
0.0
 10
9.324086241970356
 20
8.101992767637556
 30
0.0
 10
9.325954099599649
 20
8.102960975300814
 30
0.0
  0
SPLINE
  5
356
330
1F
100
AcDbEntity
  8
0
  6
Continuous
 62
     7
370
     0
100
AcDbSpline
210
0.0
220
0.0
230
1.0
 70
     8
 71
     3
 72
    13
 73
     9
 74
     0
 42
0.000000001
 43
0.00000001
 40
0.0
 40
0.0
 40
0.0
 40
0.0
 40
0.2001718321701
 40
0.5002900930362473
 40
0.6253436745187145
 40
0.7503297953505881
 40
0.8752622292163817
 40
1.0
 40
1.0
 40
1.0
 40
1.0
 10
9.330625723897528
 20
8.104852863400975
 30
0.0
 10
9.330373713378744
 20
8.104651874611122
 30
0.0
 10
9.329743862692357
 20
8.104149542693166
 30
0.0
 10
9.329118138614323
 20
8.10359474863108
 30
0.0
 10
9.328870215148688
 20
8.103251302941851
 30
0.0
 10
9.329017403758504
 20
8.103175056260115
 30
0.0
 10
9.32940001469028
 20
8.10321753722994
 30
0.0
 10
9.329981662654614
 20
8.103421624595024
 30
0.0
 10
9.330272259886884
 20
8.103523588716058
 30
0.0
  0
SPLINE
  5
357
330
1F
100
AcDbEntity
  8
0
  6
Continuous
 62
     7
370
     0
100
AcDbSpline
210
0.0
220
0.0
230
1.0
 70
     8
 71
     3
 72
    12
 73
     8
 74
     0
 42
0.000000001
 43
0.00000001
 40
0.0
 40
0.0
 40
0.0
 40
0.0
 40
0.1254098869537982
 40
0.2505747542013432
 40
0.4996165625312199
 40
0.7494318480724985
 40
1.0
 40
1.0
 40
1.0
 40
1.0
 10
9.330272259886884
 20
8.103523588716058
 30
0.0
 10
9.330572720172825
 20
8.103640861750536
 30
0.0
 10
9.331173053720086
 20
8.103875178697171
 30
0.0
 10
9.332771127834343
 20
8.104584182960995
 30
0.0
 10
9.335094838570123
 20
8.105711364320303
 30
0.0
 10
9.337789352700373
 20
8.107127765956763
 30
0.0
 10
9.339285625793496
 20
8.107980155272994
 30
0.0
 10
9.340034887970555
 20
8.10840699117462
 30
0.0
  0
SPLINE
  5
358
330
1F
100
AcDbEntity
  8
0
  6
Continuous
 62
     7
370
     0
100
AcDbSpline
210
0.0
220
0.0
230
1.0
 70
     8
 71
     3
 72
    12
 73
     8
 74
     0
 42
0.000000001
 43
0.00000001
 40
0.0
 40
0.0
 40
0.0
 40
0.0
 40
0.250561575263848
 40
0.5002616093773237
 40
0.7495438170943132
 40
0.8746545161303789
 40
1.0
 40
1.0
 40
1.0
 40
1.0
 10
9.340034887970555
 20
8.10840699117462
 30
0.0
 10
9.340735117675932
 20
8.108817649885745
 30
0.0
 10
9.342133169388278
 20
8.109637555282315
 30
0.0
 10
9.343499634367237
 20
8.110571169064277
 30
0.0
 10
9.343773375913296
 20
8.11094429576954
 30
0.0
 10
9.343329282594881
 20
8.110901468033015
 30
0.0
 10
9.34280917968435
 20
8.11071471174623
 30
0.0
 10
9.342548884449366
 20
8.110621246067478
 30
0.0
  0
SPLINE
  5
359
330
1F
100
AcDbEntity
  8
0
  6
Continuous
 62
     7
370
     0
100
AcDbSpline
210
0.0
220
0.0
230
1.0
 70
     8
 71
     3
 72
    12
 73
     8
 74
     0
 42
0.000000001
 43
0.00000001
 40
0.0
 40
0.0
 40
0.0
 40
0.0
 40
0.1248393077247375
 40
0.2498284197823425
 40
0.49948907829242
 40
0.749692547589072
 40
1.0
 40
1.0
 40
1.0
 40
1.0
 10
9.342548884449366
 20
8.110621246067478
 30
0.0
 10
9.342189319342173
 20
8.110478454641243
 30
0.0
 10
9.341469757657826
 20
8.110192700442305
 30
0.0
 10
9.339555377980597
 20
8.109319006119398
 30
0.0
 10
9.336980081868592
 20
8.10807816630827
 30
0.0
 10
9.333799710016262
 20
8.106483864551427
 30
0.0
 10
9.331683865795428
 20
8.105396605745224
 30
0.0
 10
9.330625723897528
 20
8.104852863400975
 30
0.0
  0
OLE2FRAME
  5
35A
330
1F
100
AcDbEntity
  8
0
100
AcDbOle2Frame
 70
     2
  3
Paintbrush Picture
 10
9.0178120406
 20
1.3267570784
 30
0.0
 11
10.4397105087
 21
1.1242314806
 31
0.0
 71
     2
 72
     0
 73
     1
 90
     7296
310
8055C64EE7A81E092240C05F59A1653AF53F0000000000000000FD155DBC21E1
310
2440C05F59A1653AF53F0000000000000000FD155DBC21E12440A1732426DAFC
310
F13F0000000000000000C64EE7A81E092240A1732426DAFCF13F000000000000
310
00000000000001000000000100000100000001000000000001000000001C0000
310
D0CF11E0A1B11AE1000000000000000000000000000000003E000300FEFF0900
310
0600000000000000000000000100000001000000000000000010000002000000
310
01000000FEFFFFFF0000000000000000FFFFFFFFFFFFFFFFFFFFFFFFFFFFFFFF
310
FFFFFFFFFFFFFFFFFFFFFFFFFFFFFFFFFFFFFFFFFFFFFFFFFFFFFFFFFFFFFFFF
310
FFFFFFFFFFFFFFFFFFFFFFFFFFFFFFFFFFFFFFFFFFFFFFFFFFFFFFFFFFFFFFFF
310
FFFFFFFFFFFFFFFFFFFFFFFFFFFFFFFFFFFFFFFFFFFFFFFFFFFFFFFFFFFFFFFF
310
FFFFFFFFFFFFFFFFFFFFFFFFFFFFFFFFFFFFFFFFFFFFFFFFFFFFFFFFFFFFFFFF
310
FFFFFFFFFFFFFFFFFFFFFFFFFFFFFFFFFFFFFFFFFFFFFFFFFFFFFFFFFFFFFFFF
310
FFFFFFFFFFFFFFFFFFFFFFFFFFFFFFFFFFFFFFFFFFFFFFFFFFFFFFFFFFFFFFFF
310
FFFFFFFFFFFFFFFFFFFFFFFFFFFFFFFFFFFFFFFFFFFFFFFFFFFFFFFFFFFFFFFF
310
FFFFFFFFFFFFFFFFFFFFFFFFFFFFFFFFFFFFFFFFFFFFFFFFFFFFFFFFFFFFFFFF
310
FFFFFFFFFFFFFFFFFFFFFFFFFFFFFFFFFFFFFFFFFFFFFFFFFFFFFFFFFFFFFFFF
310
FFFFFFFFFFFFFFFFFFFFFFFFFFFFFFFFFFFFFFFFFFFFFFFFFFFFFFFFFFFFFFFF
310
FFFFFFFFFFFFFFFFFFFFFFFFFFFFFFFFFFFFFFFFFFFFFFFFFFFFFFFFFFFFFFFF
310
FFFFFFFFFFFFFFFFFFFFFFFFFFFFFFFFFFFFFFFFFFFFFFFFFFFFFFFFFFFFFFFF
310
FFFFFFFFFFFFFFFFFFFFFFFFFFFFFFFFFFFFFFFFFFFFFFFFFFFFFFFFFFFFFFFF
310
FDFFFFFFFEFFFFFFFEFFFFFFFEFFFFFF05000000060000000700000008000000
310
090000000A0000000B0000000C000000FEFFFFFFFFFFFFFFFFFFFFFFFFFFFFFF
310
FFFFFFFFFFFFFFFFFFFFFFFFFFFFFFFFFFFFFFFFFFFFFFFFFFFFFFFFFFFFFFFF
310
FFFFFFFFFFFFFFFFFFFFFFFFFFFFFFFFFFFFFFFFFFFFFFFFFFFFFFFFFFFFFFFF
310
FFFFFFFFFFFFFFFFFFFFFFFFFFFFFFFFFFFFFFFFFFFFFFFFFFFFFFFFFFFFFFFF
310
FFFFFFFFFFFFFFFFFFFFFFFFFFFFFFFFFFFFFFFFFFFFFFFFFFFFFFFFFFFFFFFF
310
FFFFFFFFFFFFFFFFFFFFFFFFFFFFFFFFFFFFFFFFFFFFFFFFFFFFFFFFFFFFFFFF
310
FFFFFFFFFFFFFFFFFFFFFFFFFFFFFFFFFFFFFFFFFFFFFFFFFFFFFFFFFFFFFFFF
310
FFFFFFFFFFFFFFFFFFFFFFFFFFFFFFFFFFFFFFFFFFFFFFFFFFFFFFFFFFFFFFFF
310
FFFFFFFFFFFFFFFFFFFFFFFFFFFFFFFFFFFFFFFFFFFFFFFFFFFFFFFFFFFFFFFF
310
FFFFFFFFFFFFFFFFFFFFFFFFFFFFFFFFFFFFFFFFFFFFFFFFFFFFFFFFFFFFFFFF
310
FFFFFFFFFFFFFFFFFFFFFFFFFFFFFFFFFFFFFFFFFFFFFFFFFFFFFFFFFFFFFFFF
310
FFFFFFFFFFFFFFFFFFFFFFFFFFFFFFFFFFFFFFFFFFFFFFFFFFFFFFFFFFFFFFFF
310
FFFFFFFFFFFFFFFFFFFFFFFFFFFFFFFFFFFFFFFFFFFFFFFFFFFFFFFFFFFFFFFF
310
FFFFFFFFFFFFFFFFFFFFFFFFFFFFFFFFFFFFFFFFFFFFFFFFFFFFFFFFFFFFFFFF
310
FFFFFFFFFFFFFFFFFFFFFFFFFFFFFFFFFFFFFFFFFFFFFFFFFFFFFFFFFFFFFFFF
310
52006F006F007400200045006E00740072007900000000000000000000000000
310
0000000000000000000000000000000000000000000000000000000000000000
310
16000500FFFFFFFFFFFFFFFF020000000A00030000000000C000000000000046
310
0000000000000000000000000042BD0E561ED10103000000C000000000000000
310
01004F006C006500000000000000000000000000000000000000000000000000
310
0000000000000000000000000000000000000000000000000000000000000000
310
0A000200FFFFFFFFFFFFFFFFFFFFFFFF00000000000000000000000000000000
310
0000000000000000000000000000000000000000000000001400000000000000
310
010043006F006D0070004F0062006A0000000000000000000000000000000000
310
0000000000000000000000000000000000000000000000000000000000000000
310
120002010100000003000000FFFFFFFF00000000000000000000000000000000
310
0000000000000000000000000000000000000000010000004D00000000000000
310
01004F006C006500310030004E00610074006900760065000000000000000000
310
0000000000000000000000000000000000000000000000000000000000000000
310
1A000200FFFFFFFFFFFFFFFFFFFFFFFF00000000000000000000000000000000
310
000000000000000000000000000000000000000004000000E411000000000000
310
FEFFFFFF02000000FEFFFFFFFFFFFFFFFFFFFFFFFFFFFFFFFFFFFFFFFFFFFFFF
310
FFFFFFFFFFFFFFFFFFFFFFFFFFFFFFFFFFFFFFFFFFFFFFFFFFFFFFFFFFFFFFFF
310
FFFFFFFFFFFFFFFFFFFFFFFFFFFFFFFFFFFFFFFFFFFFFFFFFFFFFFFFFFFFFFFF
310
FFFFFFFFFFFFFFFFFFFFFFFFFFFFFFFFFFFFFFFFFFFFFFFFFFFFFFFFFFFFFFFF
310
FFFFFFFFFFFFFFFFFFFFFFFFFFFFFFFFFFFFFFFFFFFFFFFFFFFFFFFFFFFFFFFF
310
FFFFFFFFFFFFFFFFFFFFFFFFFFFFFFFFFFFFFFFFFFFFFFFFFFFFFFFFFFFFFFFF
310
FFFFFFFFFFFFFFFFFFFFFFFFFFFFFFFFFFFFFFFFFFFFFFFFFFFFFFFFFFFFFFFF
310
FFFFFFFFFFFFFFFFFFFFFFFFFFFFFFFFFFFFFFFFFFFFFFFFFFFFFFFFFFFFFFFF
310
FFFFFFFFFFFFFFFFFFFFFFFFFFFFFFFFFFFFFFFFFFFFFFFFFFFFFFFFFFFFFFFF
310
FFFFFFFFFFFFFFFFFFFFFFFFFFFFFFFFFFFFFFFFFFFFFFFFFFFFFFFFFFFFFFFF
310
FFFFFFFFFFFFFFFFFFFFFFFFFFFFFFFFFFFFFFFFFFFFFFFFFFFFFFFFFFFFFFFF
310
FFFFFFFFFFFFFFFFFFFFFFFFFFFFFFFFFFFFFFFFFFFFFFFFFFFFFFFFFFFFFFFF
310
FFFFFFFFFFFFFFFFFFFFFFFFFFFFFFFFFFFFFFFFFFFFFFFFFFFFFFFFFFFFFFFF
310
FFFFFFFFFFFFFFFFFFFFFFFFFFFFFFFFFFFFFFFFFFFFFFFFFFFFFFFFFFFFFFFF
310
FFFFFFFFFFFFFFFFFFFFFFFFFFFFFFFFFFFFFFFFFFFFFFFFFFFFFFFFFFFFFFFF
310
FFFFFFFFFFFFFFFFFFFFFFFFFFFFFFFFFFFFFFFFFFFFFFFFFFFFFFFFFFFFFFFF
310
0100000200000000000000000000000000000000000000000000000000000000
310
0000000000000000000000000000000000000000000000000000000000000000
310
0100FEFF030A0000FFFFFFFF0A00030000000000C00000000000004607000000
310
5042727573680007000000504272757368000700000050427275736800F439B2
310
7100000000000000000000000000000000000000000000000000000000000000
310
0000000000000000000000000000000000000000000000000000000000000000
310
0000000000000000000000000000000000000000000000000000000000000000
310
0000000000000000000000000000000000000000000000000000000000000000
310
0000000000000000000000000000000000000000000000000000000000000000
310
0000000000000000000000000000000000000000000000000000000000000000
310
0000000000000000000000000000000000000000000000000000000000000000
310
0000000000000000000000000000000000000000000000000000000000000000
310
0000000000000000000000000000000000000000000000000000000000000000
310
0000000000000000000000000000000000000000000000000000000000000000
310
0000000000000000000000000000000000000000000000000000000000000000
310
0000000000000000000000000000000000000000000000000000000000000000
310
E0110000424DDE11000000000000360400002800000096000000170000000100
310
08000000000000000000E7240000E72400000001000000010000000000FF0101
310
01FF020202FF030303FF040404FF050505FF060606FF070707FF080808FF0909
310
09FF0A0A0AFF0B0B0BFF0C0C0CFF0D0D0DFF0E0E0EFF0F0F0FFF101010FF1111
310
11FF121212FF131313FF141414FF151515FF161616FF171717FF181818FF1919
310
19FF1A1A1AFF1B1B1BFF1C1C1CFF1D1D1DFF1E1E1EFF1F1F1FFF202020FF2121
310
21FF222222FF232323FF242424FF252525FF262626FF272727FF282828FF2929
310
29FF2A2A2AFF2B2B2BFF2C2C2CFF2D2D2DFF2E2E2EFF2F2F2FFF303030FF3131
310
31FF323232FF333333FF343434FF353535FF363636FF373737FF383838FF3939
310
39FF3A3A3AFF3B3B3BFF3C3C3CFF3D3D3DFF3E3E3EFF3F3F3FFF404040FF4141
310
41FF424242FF434343FF444444FF454545FF464646FF474747FF484848FF4949
310
49FF4A4A4AFF4B4B4BFF4C4C4CFF4D4D4DFF4E4E4EFF4F4F4FFF505050FF5151
310
51FF525252FF535353FF545454FF555555FF565656FF575757FF585858FF5959
310
59FF5A5A5AFF5B5B5BFF5C5C5CFF5D5D5DFF5E5E5EFF5F5F5FFF606060FF6161
310
61FF626262FF636363FF646464FF656565FF666666FF676767FF686868FF6969
310
69FF6A6A6AFF6B6B6BFF6C6C6CFF6D6D6DFF6E6E6EFF6F6F6FFF707070FF7171
310
71FF727272FF737373FF747474FF757575FF767676FF777777FF787878FF7979
310
79FF7A7A7AFF7B7B7BFF7C7C7CFF7D7D7DFF7E7E7EFF7F7F7FFF808080FF8181
310
81FF828282FF838383FF848484FF858585FF868686FF878787FF888888FF8989
310
89FF8A8A8AFF8B8B8BFF8C8C8CFF8D8D8DFF8E8E8EFF8F8F8FFF909090FF9191
310
91FF929292FF939393FF949494FF959595FF969696FF979797FF989898FF9999
310
99FF9A9A9AFF9B9B9BFF9C9C9CFF9D9D9DFF9E9E9EFF9F9F9FFFA0A0A0FFA1A1
310
A1FFA2A2A2FFA3A3A3FFA4A4A4FFA5A5A5FFA6A6A6FFA7A7A7FFA8A8A8FFA9A9
310
A9FFAAAAAAFFABABABFFACACACFFADADADFFAEAEAEFFAFAFAFFFB0B0B0FFB1B1
310
B1FFB2B2B2FFB3B3B3FFB4B4B4FFB5B5B5FFB6B6B6FFB7B7B7FFB8B8B8FFB9B9
310
B9FFBABABAFFBBBBBBFFBCBCBCFFBDBDBDFFBEBEBEFFBFBFBFFFC0C0C0FFC1C1
310
C1FFC2C2C2FFC3C3C3FFC4C4C4FFC5C5C5FFC6C6C6FFC7C7C7FFC8C8C8FFC9C9
310
C9FFCACACAFFCBCBCBFFCCCCCCFFCDCDCDFFCECECEFFCFCFCFFFD0D0D0FFD1D1
310
D1FFD2D2D2FFD3D3D3FFD4D4D4FFD5D5D5FFD6D6D6FFD7D7D7FFD8D8D8FFD9D9
310
D9FFDADADAFFDBDBDBFFDCDCDCFFDDDDDDFFDEDEDEFFDFDFDFFFE0E0E0FFE1E1
310
E1FFE2E2E2FFE3E3E3FFE4E4E4FFE5E5E5FFE6E6E6FFE7E7E7FFE8E8E8FFE9E9
310
E9FFEAEAEAFFEBEBEBFFECECECFFEDEDEDFFEEEEEEFFEFEFEFFFF0F0F0FFF1F1
310
F1FFF2F2F2FFF3F3F3FFF4F4F4FFF5F5F5FFF6F6F6FFF7F7F7FFF8F8F8FFF9F9
310
F9FFFAFAFAFFFBFBFBFFFCFCFCFFFDFDFDFFFEFEFEFFFFFFFFFFFFFFFFFFFFFF
310
C94E4E4E4F4E4EFFFFFFFFFFC94E4E4E4E4E72FFFFFFFFFFFFFF734E4D4E4E4E
310
C9FFFFFFFFFFAA683516171616265B9BE9FFFFFFFFFF4E4E4E4D4E4EFFFFFFFF
310
FFFFFFFF4E4E4F4E4D4E4E4E4F4E4E4F4D4E4E4E4E4E4D4E4F4E4D4E4E4EAAFF
310
FFFFFFFFFFEA4E4F4F4E4E4E4E4E4D4D4F4F4E4E4E4E4E5B7FAAFFFFFFFFFFFF
310
C9744E1716171616164D8DEAFFFFFFFF0000FFFFFFFFFFFFBA161617161716FF
310
FFFFFFFFB917171616174FFFFFFFFFFFFFFF4E1716161616B9FFFFFFB9341717
310
1716171617171616268CFFFFFFFF161617161617FFFFFFFFFFFFFFB917161717
310
1617167F807F7F7F7F7F7F807F7F807F7F807F7F7F414EFFFFFFFFFFFF8C167F
310
7F807F7F7F7E7F7F807F807F7F807F4E3417258EFFFFEA4E162674AABAEAEBBA
310
AA74341680FFFFFF0000FFFFFFFFFFFFB9171717171617FFFFFFFFFFBB161616
310
16164EFFFFFFFFFFFFFF4E1717171717B9FFFF9C171617171716161616171616
310
171766FFFFFF161717161617FFFFFFFFFFFFFF8E16171717161616FFFFFFFFFF
310
FFFFFFFFFFFFFFFFFFFFFFFFFFAA16D9FFFFFFFFFF3467FFFFFFFFEAFFFFFFFF
310
FFFFFFFFFFFFFFFFFFCA671667EB26278DFFFFFFFFFFFFFFFFFFFF8C2541EAFF
310
0000FFFFFFFFFFFFB9171717171716FFFFFFFFFFBA16171617174EFFFFFFFFFF
310
FFFF4E1717161616BAFF9B1617161616171716171617161616161667FFFF1616
310
16161716FFFFFFFFFFFFFF7F16161617174017FFFFFFFFFFFFFFFFFFFFFFFFFF
310
FFFFFFFFFFFF344E7F7F7F7E7417DAFFFFFFFF80FFFFFFFFFFFFFFFFFFFFFFFF
310
FFFFFF9B163425CAFFFFFFFFFFFFFFFFFFFFFFFFCA2667FF0000FFFFFFFFFFFF
310
BA171717171617FFFFFFFFFFB916171716164EFFFFFFFFFFFFFF4F1716161717
310
B9C91716171616161716161617171616161617168DFF161716161717FFFFFFFF
310
FFFFFF7F17171716164F16FFFFFFFFFFFFFFFFFFFFFFFFFFFFFFFFFFFFFF9B16
310
17161617174EFFFFFFFFFF34FFFFFFFFD9BABABABABADAFFFFFFFFFF7F16AAFF
310
FFFFFFFFFFFFFFFFFFFFFFFFFF9C16BA0000FFFFFFFFFFFFB9161717161717FF
310
FFFFFFFFB917161716174DFFFFFFFFFFFFFF4E1616161616BA4E161617171716
310
419BEAEAAA4E16161617161726E9171717161616FFFFFFFFFFFFFF4F16161717
310
164E16FFFFFFFFFFBAB9B9B9B9B9BABABACAFFFFFFFFFFFFFFFFFFFFFFFFFFFF
310
FFFFBA16FFFFFFFF7F1617161617174DEAFFFFFFEA41FFFFFFFFFFAA4D16174E
310
9BFFFFFFFFFF34730000FFFFFFFFFFFFB9161617171617FFFFFFFFFFBA161616
310
16164EFFFFFFFFFFFFFF4F16161717169B1617161716175BFFFFFFFFFFFF7417
310
16171616168D171717161617FFFFFFFFFFFFEA2616171717167416FFFFFFFFFF
310
16171616171717171717EAFFFFFFFFFFFFFFFFFFFFFFFFFFFFFF6716FFFFFFFF
310
7F4EFFFFFFFFBA2573FFFFFFFFBAFFFFFFFFAA167FB9BB9B269BFFFFFFFF664F
310
0000FFFFFFFFFFFFB9171616161616FFFFFFFFFFBA16161717164EFFFFFFFFFF
310
FFFF4E16161616174E161617171626EAFFFFFFFFFFFFFF4E16161616164E1716
310
16161617FFFFFFFFFFFF671616161716347F16FFFFFFFFFF16B9FFFFFFFFFFFF
310
D9168DFFFFFFFFFFFFFFFFFFFFFFFFFFFFEA1716FFFFFFFF7F4EFFFFFFFFFF7F
310
4EFFFFFFFFFFFFFFFFFF5B66FFFFFFEA347FFFFFFFFF7F4D0000FFFFFFFFFFFF
310
B9171616171617FFFFFFFFFFBA17161716174EFFFFFFFFFFFFFF4D1716161617
310
17161716161673FFFFFFFFFFFFFFFF9B1617161717161616171616174F4E4E4E
310
4E341616171616167E7F16FFFFFFFFFF16BAFFFFFFFFFFFFFF5B41FFFFFFFF34
310
1616171616BAFFFFFF9B1716FFFFFFFF7F4EFFFFFFFFFF4E4EFFFFFFFF734E4E
310
4E4E267EDA9B67164EEAFFFFFFFF744D0000FFFFFFFFFFFFBA171717161617FF
310
FFFFFFFFBA1616171616347F7F7F7F80807F331616161717161717161716B9FF
310
FFFFFFFFFFFFFFE9161616161616171716161716171616161616171616171734
310
EA7F16FFFFFFFFFF16BAFFFFFFFFFFFFFFAA17C9FFFFFF7326BABA5B25FFFFFF
310
FF401716FFFFFFFF7F264F4E4E4E4217AAFFFFFFEA16677F73261616164173CA
310
FFFFFFFFFFFF417F0000FFFFFFFFFFFFBA171616171617FFFFFFFFFFBA161616
310
17171616161616161616161717161616161616161617EAFFFFFFFFFFFFFFFFFF
310
261717161716161617161616161617161617161616174EEAFF8016FFFFFFFFFF
310
17BAFFFFFFFFFFFFFFFF3467FFFFFFC916C9FF3467FFFFFFDA166716FFFFFFFF
310
9C4D4E4E4E4E67AAFFFFFFFF6834FF7F262567AAEAFFFFFFFFFFFFFFFF9B17D9
310
0000FFFFFFFFFFFFB9161616161616FFFFFFFFFFBA1617161717171616161616
310
1716171716161716161617171716FFFFFFFFFFFFFFFFFFFF4E17161716171616
310
1617171616161716171717161616169BFF7F17FFFFFFFFFF17B9FFFFFFFFFFFF
310
FFFF7326FFFFFFFF3473DA16AAFFFFFF7317AA16FFFFFFFFFFFFFFFFFFFFFFFF
310
FFFFEA6725BA4E167FEAFFFFFFFFFFFFFFFFFFFF9C167FFF0000FFFFFFFFFFFF
310
B9161717171716FFFFFFFFFFBA16161716171616171717161617161716161616
310
171617171617EAFFFFFFFFFFFFFFFFFF26161717161616161616161617171616
310
1616161616171616AA8016FFFFFFFFFF16BAFFFFFFFFFFFFFFFFDA179BFFFFFF
310
74348D26FFFFFFFF2566B917FFFFFFFFD8BAB9BAB9BADAFFFFEA41169B7425C9
310
FFFFFFFFFFFFFFFFFFFFAB4F1680FFFF0000FFFFFFFFFFFFBA161717171617FF
310
FFFFFFFFBA17161717161617171617161616161617171616171716171617BBFF
310
FFFFFFFFFFFFFFE9171616161617161617161716FFFFFFFFFFD9671616161617
310
348017FFFFFFFFFF16BAFFFFFFFFFFFFFFFFFF4E5AFFFFFFC916265AFFFFFFAA
310
16AABA16FFFFFFFF7F1617161616179BFFFFEB4127168DFFFFFFFFFFFFFFD99B
310
6734175AC9FFFFFF0000FFFFFFFFFFFFB9161617171617FFFFFFFFFFBB161616
310
1616347F807F7F7F7F8033171716171617171616161672FFFFFFFFFFFFFFFF9C
310
171617171617161716161617FFFFFFFFFFFFFF4117161616174E17FFFFFFFFFF
310
16BAFFFFFFFFFFFFFFFFFF9B16DAFFFFFF34169BFFFFFF5A26FFB917FFFFFFFF
310
7F4EFFFFFFEA5B26FFFFFFEA2616EAFFFFFFFFDA743416331617414E4E4E4ECA
310
0000FFFFFFFFFFFFBA161716161616FFFFFFFFFFBA17171616164EFFFFFFFFFF
310
FFFF4E16161717174E161717171626EBFFFFFFFFFFFFFF4E16161617165B1616
310
16171617FFFFFFFFFFFFFF6716161616161617FFFFFFFFFF16BAFFFFFFFFFFFF
310
FFFFFFEA268CFFFFFF7316EAFFFFEB1774FFB916FFFFFFFF7F4EFFFFFFFF7316
310
FFFFFFFF6826FFFFFFFFEB264D9CEABA257F807F7F6616BA0000FFFFFFFFFFFF
310
BA161716161616FFFFFFFFFFBA16171616164DFFFFFFFFFFFFFF4E1617161617
310
9B1617171717165BEBFFFFFFFFFF671616161617179B171616161616FFFFFFFF
310
FFFFFF3417161617171617FFFFFFFFFF17BAFFFFFFFFFFFFFFFFFFFF6734FFFF
310
FFEBCAFFFFFF8D17C9FFBA17FFFFFFFF7F357F808066174FFFFFFFFF7F16FFFF
310
FFFFD91673B99B415BFFFFFFFFBA16DA00009B7F7F7F807F671617161616167F
310
80807F7E6617161616164EFFFFFFFFFFFFFF4E1616161617B94E171716161616
310
349BC9D9AA4E16171616161634FF161617161717B9B9BAB9BA9B411716171716
310
163416FFFFFFFFFF16B9FFFFFFFFFFFFFFFFFFFFC917CAFFFFFFFFFFFFFF3342
310
FFFFBA17FFFFFFFF9B4E4E4F4E4E66EAFFFFFFFF5B16C9FFFFFFFFAA4E164E73
310
EAFFFFFFFF8D26FF00004E161716161616171617171616171717171617161616
310
17174EFFFFFFFFFFFFFF4E1717171616B9D92616171716171716171717171716
310
16171716AAFF161717171617161617171616161617161716166717FFFFFFFFFF
310
17B9FFFFFFFFFFFFFFFFFFFFFF3467FFFFFFFFFFFFCA168CFFFFBB17FFFFFFFF
310
FFFFFFFFFFFFFFFFFFFFFFEA26265BFFFFFFFFFFFFFFFFFFFFFFFFFFEA3467FF
310
00004D16161616161617161717161617161616171617171616164EFFFFFFFFFF
310
FFFF4D1617161616BAFF9B1616161616161716161616171717161766FFFF1616
310
16171617161617161716171616171717667F16FFFFFFFFFF17BAFFFFFFFFFFFF
310
FFFFFFFFFF8C26EAFFFFFFFFFF6617EAFFFFBA17FFFFFFFFFFFFFFFFFFFFFFFF
310
FFFFEA5A25BA269BFFFFFFFFFFFFFFFFFFFFFFFF6616DAFF00004E1616171616
310
1616161616161716161617171616171616174EFFFFFFFFFFFFFF4D1717171716
310
B9FFFF9C161616161616161716161717171667FFFFFF17161717171716161617
310
1716161616161641E97E16FFFFFFFFFF16B9FFFFFFFFFFFFFFFFFFFFFFEA169B
310
FFFFFFFFEA265BFFFFFFB916FFFFFFFFFFFFFFFFFFFFFFFFFF9B3416AAFF9B17
310
67EAFFFFFFFFFFFFFFFFEA5B169BFFFF00004D17161716161616161717171616
310
161717161716171716174EFFFFFFFFFFFFFF4D1616161616BAFFFFFFBB411616
310
161716161616171634ABFFFFFFFF161716161617171716171617171617267FFF
310
FF7F164E4E4E4E4F17BAFFFFFFFFFFFFFFFFFFFFFFFF66344D4E4E4F4117AAFF
310
FFFFBA174E4E4E4D4E4D4D4E4E4E4E4116174EBBFFFFFFCA342666ABEAFFFFEA
310
AA6725269CFFFFFF0000724F4E4D4D4D4E4D4D4E4E4E4D4E4E4E4E4E4E4E4E4D
310
4E4E74FFFFFFFFFFFFFF734E4E4E4D4ECAFFFFFFFFFFAA663416171717265B9B
310
FFFFFFFFFFFF7F8080807F80807F7F7F7F7F807FBAFFFFFFFF9B4E4E4F4D4D4E
310
4DC9FFFFFFFFFFFFFFFFFFFFFFFFBA4E4E4E4E4D4E4EFFFFFFFFC94E4E4E4F4E
310
4E4E4D4E4E5A807F9CD9FFFFFFFFFFFFFF9B5B2617171716174E8DEAFFFFFFFF
310
0000000000000000000000000000000000000000000000000000000000000000
  1
OLE
  0
ENDSEC
  0
SECTION
  2
OBJECTS
  0
DICTIONARY
  5
C
330
0
100
AcDbDictionary
281
     1
  3
ACAD_GROUP
350
D
  3
ACAD_LAYOUT
350
1A
  3
ACAD_MLINESTYLE
350
17
  3
ACAD_PLOTSETTINGS
350
19
  3
ACAD_PLOTSTYLENAME
350
E
  3
ACAD_SCALELIST
350
47
  0
DICTIONARY
  5
D
102
{ACAD_REACTORS
330
C
102
}
330
C
100
AcDbDictionary
281
     1
  0
DICTIONARY
  5
1A
102
{ACAD_REACTORS
330
C
102
}
330
C
100
AcDbDictionary
281
     1
  3
Layout1
350
1E
  3
Layout2
350
26
  3
Model
350
22
  0
DICTIONARY
  5
17
102
{ACAD_REACTORS
330
C
102
}
330
C
100
AcDbDictionary
281
     1
  3
Standard
350
18
  0
DICTIONARY
  5
19
102
{ACAD_REACTORS
330
C
102
}
330
C
100
AcDbDictionary
281
     1
  0
ACDBDICTIONARYWDFLT
  5
E
102
{ACAD_REACTORS
330
C
102
}
330
C
100
AcDbDictionary
281
     1
  3
Normal
350
F
100
AcDbDictionaryWithDefault
340
F
  0
DICTIONARY
  5
47
102
{ACAD_REACTORS
330
C
102
}
330
C
100
AcDbDictionary
281
     1
  3
A0
350
48
  3
A1
350
49
  3
A2
350
4A
  3
A3
350
4B
  3
A4
350
4C
  3
A5
350
4D
  3
A6
350
4E
  3
A7
350
4F
  3
A8
350
50
  3
A9
350
51
  3
B0
350
52
  3
B1
350
53
  3
B2
350
54
  3
B3
350
55
  3
B4
350
56
  3
B5
350
57
  3
B6
350
58
  3
B7
350
59
  3
B8
350
5A
  3
B9
350
5B
  3
C0
350
5C
  3
C1
350
5D
  3
C2
350
5E
  3
C3
350
5F
  3
C4
350
60
  3
C5
350
61
  3
C6
350
62
  3
C7
350
63
  3
C8
350
64
  3
C9
350
65
  3
D0
350
66
  3
D1
350
67
  3
D2
350
68
  0
LAYOUT
  5
1E
102
{ACAD_REACTORS
330
1A
102
}
330
1A
100
AcDbPlotSettings
  1

  2
none_device
  4

  6

 40
0.0
 41
0.0
 42
0.0
 43
0.0
 44
0.0
 45
0.0
 46
0.0
 47
0.0
 48
0.0
 49
0.0
140
0.0
141
0.0
142
1.0
143
1.0
 70
   688
 72
     0
 73
     0
 74
     5
  7

 75
    16
147
1.0
148
0.0
149
0.0
100
AcDbLayout
  1
Layout1
 70
     1
 71
     1
 10
0.0
 20
0.0
 11
12.0
 21
9.0
 12
0.0
 22
0.0
 32
0.0
 14
1.0000000000E+20
 24
1.0000000000E+20
 34
1.0000000000E+20
 15
-1.0000000000E+20
 25
-1.0000000000E+20
 35
-1.0000000000E+20
146
0.0
 13
0.0
 23
0.0
 33
0.0
 16
1.0
 26
0.0
 36
0.0
 17
0.0
 27
1.0
 37
0.0
 76
     0
330
1B
  0
LAYOUT
  5
26
102
{ACAD_REACTORS
330
1A
102
}
330
1A
100
AcDbPlotSettings
  1

  2
none_device
  4

  6

 40
0.0
 41
0.0
 42
0.0
 43
0.0
 44
0.0
 45
0.0
 46
0.0
 47
0.0
 48
0.0
 49
0.0
140
0.0
141
0.0
142
1.0
143
1.0
 70
   688
 72
     0
 73
     0
 74
     5
  7

 75
    16
147
1.0
148
0.0
149
0.0
100
AcDbLayout
  1
Layout2
 70
     1
 71
     2
 10
0.0
 20
0.0
 11
0.0
 21
0.0
 12
0.0
 22
0.0
 32
0.0
 14
0.0
 24
0.0
 34
0.0
 15
0.0
 25
0.0
 35
0.0
146
0.0
 13
0.0
 23
0.0
 33
0.0
 16
1.0
 26
0.0
 36
0.0
 17
0.0
 27
1.0
 37
0.0
 76
     0
330
23
  0
LAYOUT
  5
22
102
{ACAD_REACTORS
330
1A
102
}
330
1A
100
AcDbPlotSettings
  1

  2
none_device
  4
Letter_(8.50_x_11.00_Inches)
  6

 40
6.35
 41
6.35
 42
6.35000508
 43
6.35000508
 44
215.9
 45
279.4
 46
0.0
 47
0.0
 48
0.0
 49
0.0
140
0.0
141
0.0
142
1.0
143
1.0
 70
  1712
 72
     0
 73
     0
 74
     0
  7

 75
     0
147
1.0
148
0.0
149
0.0
100
AcDbLayout
  1
Model
 70
     1
 71
     0
 10
0.0
 20
0.0
 11
11.0
 21
8.5
 12
0.0
 22
0.0
 32
0.0
 14
0.0
 24
0.0
 34
0.0
 15
11.0
 25
8.5
 35
0.0
146
0.0
 13
0.0
 23
0.0
 33
0.0
 16
1.0
 26
0.0
 36
0.0
 17
0.0
 27
1.0
 37
0.0
 76
     0
330
1F
331
29
  0
MLINESTYLE
  5
18
102
{ACAD_REACTORS
330
17
102
}
330
17
100
AcDbMlineStyle
  2
Standard
 70
     0
  3

 62
   256
 51
90.0
 52
90.0
 71
     2
 49
0.5
 62
   256
  6
BYLAYER
 49
-0.5
 62
   256
  6
BYLAYER
  0
ACDBPLACEHOLDER
  5
F
102
{ACAD_REACTORS
330
E
102
}
330
E
  0
SCALE
  5
48
102
{ACAD_REACTORS
330
47
102
}
330
47
100
AcDbScale
 70
     0
300
1:1
140
1.0
141
1.0
290
     1
  0
SCALE
  5
49
102
{ACAD_REACTORS
330
47
102
}
330
47
100
AcDbScale
 70
     0
300
1:2
140
1.0
141
2.0
290
     0
  0
SCALE
  5
4A
102
{ACAD_REACTORS
330
47
102
}
330
47
100
AcDbScale
 70
     0
300
1:4
140
1.0
141
4.0
290
     0
  0
SCALE
  5
4B
102
{ACAD_REACTORS
330
47
102
}
330
47
100
AcDbScale
 70
     0
300
1:5
140
1.0
141
5.0
290
     0
  0
SCALE
  5
4C
102
{ACAD_REACTORS
330
47
102
}
330
47
100
AcDbScale
 70
     0
300
1:8
140
1.0
141
8.0
290
     0
  0
SCALE
  5
4D
102
{ACAD_REACTORS
330
47
102
}
330
47
100
AcDbScale
 70
     0
300
1:10
140
1.0
141
10.0
290
     0
  0
SCALE
  5
4E
102
{ACAD_REACTORS
330
47
102
}
330
47
100
AcDbScale
 70
     0
300
1:16
140
1.0
141
16.0
290
     0
  0
SCALE
  5
4F
102
{ACAD_REACTORS
330
47
102
}
330
47
100
AcDbScale
 70
     0
300
1:20
140
1.0
141
20.0
290
     0
  0
SCALE
  5
50
102
{ACAD_REACTORS
330
47
102
}
330
47
100
AcDbScale
 70
     0
300
1:30
140
1.0
141
30.0
290
     0
  0
SCALE
  5
51
102
{ACAD_REACTORS
330
47
102
}
330
47
100
AcDbScale
 70
     0
300
1:40
140
1.0
141
40.0
290
     0
  0
SCALE
  5
52
102
{ACAD_REACTORS
330
47
102
}
330
47
100
AcDbScale
 70
     0
300
1:50
140
1.0
141
50.0
290
     0
  0
SCALE
  5
53
102
{ACAD_REACTORS
330
47
102
}
330
47
100
AcDbScale
 70
     0
300
1:100
140
1.0
141
100.0
290
     0
  0
SCALE
  5
54
102
{ACAD_REACTORS
330
47
102
}
330
47
100
AcDbScale
 70
     0
300
2:1
140
2.0
141
1.0
290
     0
  0
SCALE
  5
55
102
{ACAD_REACTORS
330
47
102
}
330
47
100
AcDbScale
 70
     0
300
4:1
140
4.0
141
1.0
290
     0
  0
SCALE
  5
56
102
{ACAD_REACTORS
330
47
102
}
330
47
100
AcDbScale
 70
     0
300
8:1
140
8.0
141
1.0
290
     0
  0
SCALE
  5
57
102
{ACAD_REACTORS
330
47
102
}
330
47
100
AcDbScale
 70
     0
300
10:1
140
10.0
141
1.0
290
     0
  0
SCALE
  5
58
102
{ACAD_REACTORS
330
47
102
}
330
47
100
AcDbScale
 70
     0
300
100:1
140
100.0
141
1.0
290
     0
  0
SCALE
  5
59
102
{ACAD_REACTORS
330
47
102
}
330
47
100
AcDbScale
 70
     0
300
1/128" = 1'-0"
140
0.0078125
141
12.0
290
     0
  0
SCALE
  5
5A
102
{ACAD_REACTORS
330
47
102
}
330
47
100
AcDbScale
 70
     0
300
1/64" = 1'-0"
140
0.015625
141
12.0
290
     0
  0
SCALE
  5
5B
102
{ACAD_REACTORS
330
47
102
}
330
47
100
AcDbScale
 70
     0
300
1/32" = 1'-0"
140
0.03125
141
12.0
290
     0
  0
SCALE
  5
5C
102
{ACAD_REACTORS
330
47
102
}
330
47
100
AcDbScale
 70
     0
300
1/16" = 1'-0"
140
0.0625
141
12.0
290
     0
  0
SCALE
  5
5D
102
{ACAD_REACTORS
330
47
102
}
330
47
100
AcDbScale
 70
     0
300
3/32" = 1'-0"
140
0.09375
141
12.0
290
     0
  0
SCALE
  5
5E
102
{ACAD_REACTORS
330
47
102
}
330
47
100
AcDbScale
 70
     0
300
1/8" = 1'-0"
140
0.125
141
12.0
290
     0
  0
SCALE
  5
5F
102
{ACAD_REACTORS
330
47
102
}
330
47
100
AcDbScale
 70
     0
300
3/16" = 1'-0"
140
0.1875
141
12.0
290
     0
  0
SCALE
  5
60
102
{ACAD_REACTORS
330
47
102
}
330
47
100
AcDbScale
 70
     0
300
1/4" = 1'-0"
140
0.25
141
12.0
290
     0
  0
SCALE
  5
61
102
{ACAD_REACTORS
330
47
102
}
330
47
100
AcDbScale
 70
     0
300
3/8" = 1'-0"
140
0.375
141
12.0
290
     0
  0
SCALE
  5
62
102
{ACAD_REACTORS
330
47
102
}
330
47
100
AcDbScale
 70
     0
300
1/2" = 1'-0"
140
0.5
141
12.0
290
     0
  0
SCALE
  5
63
102
{ACAD_REACTORS
330
47
102
}
330
47
100
AcDbScale
 70
     0
300
3/4" = 1'-0"
140
0.75
141
12.0
290
     0
  0
SCALE
  5
64
102
{ACAD_REACTORS
330
47
102
}
330
47
100
AcDbScale
 70
     0
300
1" = 1'-0"
140
1.0
141
12.0
290
     0
  0
SCALE
  5
65
102
{ACAD_REACTORS
330
47
102
}
330
47
100
AcDbScale
 70
     0
300
1-1/2" = 1'-0"
140
1.5
141
12.0
290
     0
  0
SCALE
  5
66
102
{ACAD_REACTORS
330
47
102
}
330
47
100
AcDbScale
 70
     0
300
3" = 1'-0"
140
3.0
141
12.0
290
     0
  0
SCALE
  5
67
102
{ACAD_REACTORS
330
47
102
}
330
47
100
AcDbScale
 70
     0
300
6" = 1'-0"
140
6.0
141
12.0
290
     0
  0
SCALE
  5
68
102
{ACAD_REACTORS
330
47
102
}
330
47
100
AcDbScale
 70
     0
300
1'-0" = 1'-0"
140
12.0
141
12.0
290
     0
  0
ENDSEC
  0
EOF
